  0
SECTION
  2
HEADER
  9
$ACADVER
  1
AC1015
  9
$ACADMAINTVER
 70
    20
  9
$DWGCODEPAGE
  3
ANSI_932
  9
$INSBASE
 10
0.0
 20
0.0
 30
0.0
  9
$EXTMIN
 10
139.9999999999995
 20
-0.0000000000000909
 30
0.0
  9
$EXTMAX
 10
16307.2
 20
11409.6
 30
0.0
  9
$LIMMIN
 10
0.0
 20
0.0
  9
$LIMMAX
 10
16800.0
 20
11880.0
  9
$ORTHOMODE
 70
     0
  9
$REGENMODE
 70
     1
  9
$FILLMODE
 70
     1
  9
$QTEXTMODE
 70
     0
  9
$MIRRTEXT
 70
     1
  9
$LTSCALE
 40
20.0
  9
$ATTMODE
 70
     1
  9
$TEXTSIZE
 40
120.0
  9
$TRACEWID
 40
1.0
  9
$TEXTSTYLE
  7
STYLE1
  9
$CLAYER
  8
部品1
  9
$CELTYPE
  6
BYLAYER
  9
$CECOLOR
 62
   256
  9
$CELTSCALE
 40
50.0
  9
$DISPSILH
 70
     0
  9
$DIMSCALE
 40
40.0
  9
$DIMASZ
 40
2.5
  9
$DIMEXO
 40
0.5
  9
$DIMDLI
 40
7.0
  9
$DIMRND
 40
0.0
  9
$DIMDLE
 40
0.0
  9
$DIMEXE
 40
1.5
  9
$DIMTP
 40
0.0
  9
$DIMTM
 40
0.0
  9
$DIMTXT
 40
3.0
  9
$DIMCEN
 40
0.0
  9
$DIMTSZ
 40
0.0
  9
$DIMTOL
 70
     0
  9
$DIMLIM
 70
     0
  9
$DIMTIH
 70
     0
  9
$DIMTOH
 70
     0
  9
$DIMSE1
 70
     0
  9
$DIMSE2
 70
     0
  9
$DIMTAD
 70
     3
  9
$DIMZIN
 70
     8
  9
$DIMBLK
  1

  9
$DIMASO
 70
     1
  9
$DIMSHO
 70
     1
  9
$DIMPOST
  1

  9
$DIMAPOST
  1

  9
$DIMALT
 70
     0
  9
$DIMALTD
 70
     2
  9
$DIMALTF
 40
0.0394
  9
$DIMLFAC
 40
1.0
  9
$DIMTOFL
 70
     1
  9
$DIMTVP
 40
0.0
  9
$DIMTIX
 70
     1
  9
$DIMSOXD
 70
     0
  9
$DIMSAH
 70
     1
  9
$DIMBLK1
  1
DOTSMALL
  9
$DIMBLK2
  1
DOTSMALL
  9
$DIMSTYLE
  2
INABA_S40G
  9
$DIMCLRD
 70
     0
  9
$DIMCLRE
 70
     0
  9
$DIMCLRT
 70
     7
  9
$DIMTFAC
 40
1.0
  9
$DIMGAP
 40
1.0
  9
$DIMJUST
 70
     0
  9
$DIMSD1
 70
     0
  9
$DIMSD2
 70
     0
  9
$DIMTOLJ
 70
     1
  9
$DIMTZIN
 70
     0
  9
$DIMALTZ
 70
     0
  9
$DIMALTTZ
 70
     0
  9
$DIMUPT
 70
     1
  9
$DIMDEC
 70
     1
  9
$DIMTDEC
 70
     4
  9
$DIMALTU
 70
     2
  9
$DIMALTTD
 70
     2
  9
$DIMTXSTY
  7
STYLE1
  9
$DIMAUNIT
 70
     0
  9
$DIMADEC
 70
     0
  9
$DIMALTRND
 40
0.0
  9
$DIMAZIN
 70
     0
  9
$DIMDSEP
 70
    46
  9
$DIMATFIT
 70
     3
  9
$DIMFRAC
 70
     0
  9
$DIMLDRBLK
  1

  9
$DIMLUNIT
 70
     2
  9
$DIMLWD
 70
    -2
  9
$DIMLWE
 70
    -2
  9
$DIMTMOVE
 70
     0
  9
$LUNITS
 70
     2
  9
$LUPREC
 70
     1
  9
$SKETCHINC
 40
1.0
  9
$FILLETRAD
 40
3.0
  9
$AUNITS
 70
     0
  9
$AUPREC
 70
     0
  9
$MENU
  1
acad
  9
$ELEVATION
 40
0.0
  9
$PELEVATION
 40
0.0
  9
$THICKNESS
 40
0.0
  9
$LIMCHECK
 70
     0
  9
$CHAMFERA
 40
0.0
  9
$CHAMFERB
 40
0.0
  9
$CHAMFERC
 40
0.0
  9
$CHAMFERD
 40
0.0
  9
$SKPOLY
 70
     0
  9
$TDCREATE
 40
2451368.612993866
  9
$TDUCREATE
 40
2451368.237993866
  9
$TDUPDATE
 40
2455575.688333692
  9
$TDUUPDATE
 40
2455575.313333692
  9
$TDINDWG
 40
0.6340926273
  9
$TDUSRTIMER
 40
0.6340926273
  9
$USRTIMER
 70
     1
  9
$ANGBASE
 50
0.0
  9
$ANGDIR
 70
     0
  9
$PDMODE
 70
     3
  9
$PDSIZE
 40
2.0
  9
$PLINEWID
 40
0.0
  9
$SPLFRAME
 70
     0
  9
$SPLINETYPE
 70
     6
  9
$SPLINESEGS
 70
     8
  9
$HANDSEED
  5
1989C
  9
$SURFTAB1
 70
     6
  9
$SURFTAB2
 70
     6
  9
$SURFTYPE
 70
     6
  9
$SURFU
 70
     6
  9
$SURFV
 70
     6
  9
$UCSBASE
  2

  9
$UCSNAME
  2

  9
$UCSORG
 10
0.0
 20
0.0
 30
0.0
  9
$UCSXDIR
 10
1.0
 20
0.0
 30
0.0
  9
$UCSYDIR
 10
0.0
 20
1.0
 30
0.0
  9
$UCSORTHOREF
  2

  9
$UCSORTHOVIEW
 70
     0
  9
$UCSORGTOP
 10
0.0
 20
0.0
 30
0.0
  9
$UCSORGBOTTOM
 10
0.0
 20
0.0
 30
0.0
  9
$UCSORGLEFT
 10
0.0
 20
0.0
 30
0.0
  9
$UCSORGRIGHT
 10
0.0
 20
0.0
 30
0.0
  9
$UCSORGFRONT
 10
0.0
 20
0.0
 30
0.0
  9
$UCSORGBACK
 10
0.0
 20
0.0
 30
0.0
  9
$PUCSBASE
  2

  9
$PUCSNAME
  2

  9
$PUCSORG
 10
0.0
 20
0.0
 30
0.0
  9
$PUCSXDIR
 10
1.0
 20
0.0
 30
0.0
  9
$PUCSYDIR
 10
0.0
 20
1.0
 30
0.0
  9
$PUCSORTHOREF
  2

  9
$PUCSORTHOVIEW
 70
     0
  9
$PUCSORGTOP
 10
0.0
 20
0.0
 30
0.0
  9
$PUCSORGBOTTOM
 10
0.0
 20
0.0
 30
0.0
  9
$PUCSORGLEFT
 10
0.0
 20
0.0
 30
0.0
  9
$PUCSORGRIGHT
 10
0.0
 20
0.0
 30
0.0
  9
$PUCSORGFRONT
 10
0.0
 20
0.0
 30
0.0
  9
$PUCSORGBACK
 10
0.0
 20
0.0
 30
0.0
  9
$USERI1
 70
     0
  9
$USERI2
 70
     0
  9
$USERI3
 70
     0
  9
$USERI4
 70
     0
  9
$USERI5
 70
     0
  9
$USERR1
 40
0.0
  9
$USERR2
 40
0.0
  9
$USERR3
 40
0.0
  9
$USERR4
 40
0.0
  9
$USERR5
 40
0.0
  9
$WORLDVIEW
 70
     1
  9
$SHADEDGE
 70
     3
  9
$SHADEDIF
 70
    70
  9
$TILEMODE
 70
     1
  9
$MAXACTVP
 70
    16
  9
$PINSBASE
 10
0.0
 20
0.0
 30
0.0
  9
$PLIMCHECK
 70
     0
  9
$PEXTMIN
 10
1.000000000000000E+20
 20
1.000000000000000E+20
 30
1.000000000000000E+20
  9
$PEXTMAX
 10
-1.000000000000000E+20
 20
-1.000000000000000E+20
 30
-1.000000000000000E+20
  9
$PLIMMIN
 10
0.0
 20
0.0
  9
$PLIMMAX
 10
420.0
 20
297.0
  9
$UNITMODE
 70
     0
  9
$VISRETAIN
 70
     0
  9
$PLINEGEN
 70
     0
  9
$PSLTSCALE
 70
     0
  9
$TREEDEPTH
 70
  3020
  9
$CMLSTYLE
  2
STANDARD
  9
$CMLJUST
 70
     0
  9
$CMLSCALE
 40
1.0
  9
$PROXYGRAPHICS
 70
     1
  9
$MEASUREMENT
 70
     1
  9
$CELWEIGHT
370
    -1
  9
$ENDCAPS
280
     0
  9
$JOINSTYLE
280
     0
  9
$LWDISPLAY
290
     0
  9
$INSUNITS
 70
     0
  9
$HYPERLINKBASE
  1

  9
$STYLESHEET
  1

  9
$XEDIT
290
     1
  9
$CEPSNTYPE
380
     0
  9
$PSTYLEMODE
290
     1
  9
$FINGERPRINTGUID
  2
{5FF652BF-FA00-419E-81D4-01C0B79DEBC5}
  9
$VERSIONGUID
  2
{B7348748-4599-4AA4-85D4-806E3652544E}
  9
$EXTNAMES
290
     1
  9
$PSVPSCALE
 40
0.0
  9
$OLESTARTUP
290
     0
  0
ENDSEC
  0
SECTION
  2
CLASSES
  0
CLASS
  1
ACDBDICTIONARYWDFLT
  2
AcDbDictionaryWithDefault
  3
ObjectDBX Classes
 90
        0
280
     0
281
     0
  0
CLASS
  1
DICTIONARYVAR
  2
AcDbDictionaryVar
  3
ObjectDBX Classes
 90
        0
280
     0
281
     0
  0
CLASS
  1
ACDBPLACEHOLDER
  2
AcDbPlaceHolder
  3
ObjectDBX Classes
 90
        0
280
     0
281
     0
  0
CLASS
  1
LAYOUT
  2
AcDbLayout
  3
ObjectDBX Classes
 90
        0
280
     0
281
     0
  0
ENDSEC
  0
SECTION
  2
TABLES
  0
TABLE
  2
VPORT
  5
746D
330
0
100
AcDbSymbolTable
 70
     2
  0
VPORT
  5
19894
330
746D
100
AcDbSymbolTableRecord
100
AcDbViewportTableRecord
  2
*Active
 70
     0
 10
0.0
 20
0.0
 11
1.0
 21
1.0
 12
8223.544971009628
 22
6348.81948675842
 13
0.0
 23
0.0
 14
10.0
 24
10.0
 15
10.0
 25
10.0
 16
0.0
 26
0.0
 36
1.0
 17
0.0
 27
0.0
 37
0.0
 40
12806.29657971342
 41
1.525925925925925
 42
50.0
 43
0.0
 44
0.0
 50
0.0
 51
0.0
 71
     0
 72
     0
 73
     1
 74
     0
 75
     0
 76
     0
 77
     0
 78
     0
281
     0
 65
     1
110
0.0
120
0.0
130
0.0
111
1.0
121
0.0
131
0.0
112
0.0
122
1.0
132
0.0
 79
     0
146
0.0
  0
ENDTAB
  0
TABLE
  2
LTYPE
  5
746A
330
0
100
AcDbSymbolTable
 70
     4
  0
LTYPE
  5
7477
330
746A
100
AcDbSymbolTableRecord
100
AcDbLinetypeTableRecord
  2
BYBLOCK
 70
     0
  3

 72
    65
 73
     0
 40
0.0
  0
LTYPE
  5
7478
330
746A
100
AcDbSymbolTableRecord
100
AcDbLinetypeTableRecord
  2
BYLAYER
 70
     0
  3

 72
    65
 73
     0
 40
0.0
  0
LTYPE
  5
7479
330
746A
100
AcDbSymbolTableRecord
100
AcDbLinetypeTableRecord
  2
CONTINUOUS
 70
     0
  3
Solid line
 72
    65
 73
     0
 40
0.0
  0
LTYPE
  5
7816
330
746A
100
AcDbSymbolTableRecord
100
AcDbLinetypeTableRecord
  2
CENTER
 70
     0
  3
____ _ ____ _ ____ _ ____ _ ____ _ ____ _ ____ 
 72
    65
 73
     4
 40
2.0
 49
1.25
 74
     0
 49
-0.25
 74
     0
 49
0.25
 74
     0
 49
-0.25
 74
     0
  0
LTYPE
  5
781A
330
746A
100
AcDbSymbolTableRecord
100
AcDbLinetypeTableRecord
  2
HIDDEN
 70
     0
  3
__ __ __ __ __ __ __ __ __ __ __ __ __ __ __ __
 72
    65
 73
     2
 40
0.375
 49
0.25
 74
     0
 49
-0.125
 74
     0
  0
LTYPE
  5
781B
330
746A
100
AcDbSymbolTableRecord
100
AcDbLinetypeTableRecord
  2
PHANTOM
 70
     0
  3
______  __  __  ______  __  __  ______  __  __ 
 72
    65
 73
     6
 40
2.5
 49
1.25
 74
     0
 49
-0.25
 74
     0
 49
0.25
 74
     0
 49
-0.25
 74
     0
 49
0.25
 74
     0
 49
-0.25
 74
     0
  0
ENDTAB
  0
TABLE
  2
LAYER
  5
7467
102
{ACAD_XDICTIONARY
360
17012
102
}
330
0
100
AcDbSymbolTable
 70
    12
  0
LAYER
  5
7474
330
7467
100
AcDbSymbolTableRecord
100
AcDbLayerTableRecord
  2
0
 70
     0
 62
     7
  6
CONTINUOUS
370
    -3
390
16E68
  0
LAYER
  5
DEB2
330
7467
100
AcDbSymbolTableRecord
100
AcDbLayerTableRecord
  2
センター
 70
     0
 62
     3
  6
CENTER
370
    -3
390
16E68
  0
LAYER
  5
DEB3
330
7467
100
AcDbSymbolTableRecord
100
AcDbLayerTableRecord
  2
寸法
 70
     0
 62
     4
  6
CONTINUOUS
370
    -3
390
16E68
  0
LAYER
  5
DEB4
330
7467
100
AcDbSymbolTableRecord
100
AcDbLayerTableRecord
  2
部品1
 70
     0
 62
     7
  6
CONTINUOUS
370
    -3
390
16E68
  0
LAYER
  5
DEB5
330
7467
100
AcDbSymbolTableRecord
100
AcDbLayerTableRecord
  2
補助
 70
     0
 62
    -1
  6
CONTINUOUS
370
    -3
390
16E68
  0
LAYER
  5
DEB6
330
7467
100
AcDbSymbolTableRecord
100
AcDbLayerTableRecord
  2
文字
 70
     0
 62
     7
  6
CONTINUOUS
370
    -3
390
16E68
  0
LAYER
  5
F255
330
7467
100
AcDbSymbolTableRecord
100
AcDbLayerTableRecord
  2
DEFPOINTS
 70
     0
 62
     7
  6
CONTINUOUS
290
     0
370
    -3
390
16E68
  0
LAYER
  5
10B54
330
7467
100
AcDbSymbolTableRecord
100
AcDbLayerTableRecord
  2
仕様書枠
 70
     0
 62
   230
  6
CONTINUOUS
370
    -3
390
16E68
  0
LAYER
  5
11729
330
7467
100
AcDbSymbolTableRecord
100
AcDbLayerTableRecord
  2
Ｇ．Ｌ
 70
     0
 62
    30
  6
CONTINUOUS
370
    -3
390
16E68
  0
LAYER
  5
1173F
330
7467
100
AcDbSymbolTableRecord
100
AcDbLayerTableRecord
  2
細線
 70
     0
 62
     5
  6
CONTINUOUS
370
    -3
390
16E68
  0
LAYER
  5
12CC4
330
7467
100
AcDbSymbolTableRecord
100
AcDbLayerTableRecord
  2
想像線
 70
     0
 62
     6
  6
PHANTOM
370
    -3
390
16E68
  0
LAYER
  5
142E2
330
7467
100
AcDbSymbolTableRecord
100
AcDbLayerTableRecord
  2
破線
 70
     0
 62
     2
  6
HIDDEN
370
    -3
390
16E68
  0
ENDTAB
  0
TABLE
  2
STYLE
  5
7468
330
0
100
AcDbSymbolTable
 70
     5
  0
STYLE
  5
7475
330
7468
100
AcDbSymbolTableRecord
100
AcDbTextStyleTableRecord
  2
STANDARD
 70
     0
 40
0.0
 41
1.0
 50
0.0
 71
     0
 42
4.0
  3
txt
  4
C:\AutoCAD LT\bigfont.shx
  0
STYLE
  5
763C
330
7468
100
AcDbSymbolTableRecord
100
AcDbTextStyleTableRecord
  2
MSMINCHO
 70
     0
 40
0.0
 41
1.0
 50
0.0
 71
     0
 42
1.199999999999999
  3
C:\AutoCAD LT\msminch2.TTF
  4

  0
STYLE
  5
F706
330
7468
100
AcDbSymbolTableRecord
100
AcDbTextStyleTableRecord
  2
STYLE1
 70
     0
 40
0.0
 41
1.0
 50
0.0
 71
     0
 42
120.0
  3
isocp.shx
  4
bigfont.shx
  0
STYLE
  5
103BF
330
7468
100
AcDbSymbolTableRecord
100
AcDbTextStyleTableRecord
  2
STYLE2
 70
     0
 40
0.0
 41
1.0
 50
0.0
 71
     0
 42
100.0
  3
MS PGothic.ttf
  4

1001
ACAD
1000
MS PGothic
1071
    32818
  0
STYLE
  5
10BAA
330
7468
100
AcDbSymbolTableRecord
100
AcDbTextStyleTableRecord
  2
STYLE3
 70
     0
 40
0.0
 41
1.0
 50
0.0
 71
     0
 42
100.0
  3

  4

1001
ACAD
1000
DFPGothic-EB
1071
    32818
  0
ENDTAB
  0
TABLE
  2
VIEW
  5
746B
330
0
100
AcDbSymbolTable
 70
     0
  0
ENDTAB
  0
TABLE
  2
UCS
  5
746C
330
0
100
AcDbSymbolTable
 70
     0
  0
ENDTAB
  0
TABLE
  2
APPID
  5
746E
330
0
100
AcDbSymbolTable
 70
     6
  0
APPID
  5
7476
330
746E
100
AcDbSymbolTableRecord
100
AcDbRegAppTableRecord
  2
ACAD
 70
     0
  0
APPID
  5
DEA9
330
746E
100
AcDbSymbolTableRecord
100
AcDbRegAppTableRecord
  2
CONTENTBLOCKICON
 70
     0
  0
APPID
  5
DEAA
330
746E
100
AcDbSymbolTableRecord
100
AcDbRegAppTableRecord
  2
CONTENTBLOCKDESCRIPTION
 70
     0
  0
APPID
  5
E71D
330
746E
100
AcDbSymbolTableRecord
100
AcDbRegAppTableRecord
  2
CONTENTTABDATA
 70
     0
  0
APPID
  5
E71E
330
746E
100
AcDbSymbolTableRecord
100
AcDbRegAppTableRecord
  2
CONTENTCURRENTTAB
 70
     0
  0
APPID
  5
F3BA
330
746E
100
AcDbSymbolTableRecord
100
AcDbRegAppTableRecord
  2
DRAWINGVARIABLESXDATA
 70
     0
  0
ENDTAB
  0
TABLE
  2
DIMSTYLE
  5
746F
330
0
100
AcDbSymbolTable
 70
     4
100
AcDbDimStyleTable
 71
     1
340
F71F
  0
DIMSTYLE
105
7484
330
746F
100
AcDbSymbolTableRecord
100
AcDbDimStyleTableRecord
  2
JIS
 70
     0
 41
2.5
 42
1.0
 43
7.0
 44
1.0
 73
     0
 74
     0
 77
     1
 78
     8
140
2.5
141
0.0
143
0.0394
147
0.0
172
     1
174
     1
175
     1
340
7475
  0
DIMSTYLE
105
F236
330
746F
100
AcDbSymbolTableRecord
100
AcDbDimStyleTableRecord
  2
INABA_S40
 70
     0
 40
40.0
 41
2.5
 42
0.5
 43
7.0
 44
1.5
 73
     0
 74
     0
 77
     3
 78
     8
140
3.0
141
0.0
143
0.0394
147
1.0
172
     1
173
     1
174
     1
175
     1
178
     7
289
     0
340
7475
341
DEAC
343
DEAC
344
DEAC
  0
DIMSTYLE
105
F71F
102
{ACAD_REACTORS
330
15633
330
1568E
330
15727
330
15735
330
16B15
330
16B17
330
16B0B
330
14521
330
14526
330
1452E
330
14530
330
14531
330
14532
330
14587
330
14589
330
177A6
330
177A7
330
17811
330
17812
330
17813
330
17814
330
17818
330
17819
330
1781A
330
1781B
330
18725
330
188EC
330
1890D
330
189A8
330
189A6
330
189A7
330
189FA
102
}
330
746F
100
AcDbSymbolTableRecord
100
AcDbDimStyleTableRecord
  2
INABA_S40G
 70
     0
 40
40.0
 41
2.5
 42
0.5
 43
7.0
 44
1.5
 73
     0
 74
     0
 77
     3
 78
     8
140
3.0
141
0.0
143
0.0394
147
1.0
172
     1
173
     1
174
     1
178
     7
271
     1
288
     1
340
F706
341
F770
343
F770
344
F770
  0
DIMSTYLE
105
19778
330
746F
100
AcDbSymbolTableRecord
100
AcDbDimStyleTableRecord
  2
INABA_S20G
 70
     0
 40
20.0
 41
2.5
 42
0.5
 43
7.0
 44
1.5
 73
     0
 74
     0
 77
     3
 78
     8
140
3.0
141
0.0
143
0.0394
147
1.0
172
     1
173
     1
174
     1
178
     7
271
     1
340
F706
341
F770
343
F770
344
F770
  0
ENDTAB
  0
TABLE
  2
BLOCK_RECORD
  5
7466
330
0
100
AcDbSymbolTable
 70
    35
  0
BLOCK_RECORD
  5
747D
330
7466
100
AcDbSymbolTableRecord
100
AcDbBlockTableRecord
  2
*MODEL_SPACE
340
16E6D
  0
BLOCK_RECORD
  5
747A
330
7466
100
AcDbSymbolTableRecord
100
AcDbBlockTableRecord
  2
*PAPER_SPACE
340
16E6E
  0
BLOCK_RECORD
  5
DEAC
330
7466
100
AcDbSymbolTableRecord
100
AcDbBlockTableRecord
  2
_OPEN
340
0
  0
BLOCK_RECORD
  5
F770
330
7466
100
AcDbSymbolTableRecord
100
AcDbBlockTableRecord
  2
_DOTSMALL
340
0
102
{BLKREFS
331
1580D
331
1580E
331
15818
331
15819
331
18CAE
331
18CAF
331
18CB7
331
18CB8
331
18CC0
331
18CC1
331
18CC9
331
18CCA
331
18CDB
331
18CDC
331
18CE4
331
18CE5
331
18CED
331
18CEE
331
18CF6
331
18CF7
331
18CFF
331
18D00
331
18D08
331
18D09
331
18D13
331
18D14
331
18D1C
331
18D1D
331
18D25
331
18D26
331
18D30
331
18D31
331
18D3B
331
18D3C
331
18D44
331
18D45
331
18D4F
331
18D50
331
18D5B
331
18D5C
331
18D66
331
18D67
331
18D6F
331
18D70
331
18D78
331
18D79
331
18D81
331
18D82
331
18D8A
331
18D8B
331
18D93
331
18D94
331
18D9E
331
18D9F
331
18DA7
331
18DA8
331
18DB0
331
18DB1
331
18DBB
331
18DBC
331
18DC4
331
18DC5
331
18DCE
331
18DCF
331
18DD8
331
18DD9
331
19769
331
1976A
102
}
  0
BLOCK_RECORD
  5
1458A
330
7466
100
AcDbSymbolTableRecord
100
AcDbBlockTableRecord
  2
*D2
340
0
  0
BLOCK_RECORD
  5
14598
330
7466
100
AcDbSymbolTableRecord
100
AcDbBlockTableRecord
  2
*D3
340
0
  0
BLOCK_RECORD
  5
145A4
330
7466
100
AcDbSymbolTableRecord
100
AcDbBlockTableRecord
  2
*D4
340
0
  0
BLOCK_RECORD
  5
145BE
330
7466
100
AcDbSymbolTableRecord
100
AcDbBlockTableRecord
  2
*D5
340
0
  0
BLOCK_RECORD
  5
145CC
330
7466
100
AcDbSymbolTableRecord
100
AcDbBlockTableRecord
  2
*D6
340
0
  0
BLOCK_RECORD
  5
145D8
330
7466
100
AcDbSymbolTableRecord
100
AcDbBlockTableRecord
  2
*D7
340
0
  0
BLOCK_RECORD
  5
14608
330
7466
100
AcDbSymbolTableRecord
100
AcDbBlockTableRecord
  2
*D8
340
0
  0
BLOCK_RECORD
  5
14616
330
7466
100
AcDbSymbolTableRecord
100
AcDbBlockTableRecord
  2
*D9
340
0
  0
BLOCK_RECORD
  5
15640
330
7466
100
AcDbSymbolTableRecord
100
AcDbBlockTableRecord
  2
*D10
340
0
  0
BLOCK_RECORD
  5
1568F
330
7466
100
AcDbSymbolTableRecord
100
AcDbBlockTableRecord
  2
*D11
340
0
  0
BLOCK_RECORD
  5
1571B
330
7466
100
AcDbSymbolTableRecord
100
AcDbBlockTableRecord
  2
*D12
340
0
  0
BLOCK_RECORD
  5
15728
330
7466
100
AcDbSymbolTableRecord
100
AcDbBlockTableRecord
  2
*D13
340
0
  0
BLOCK_RECORD
  5
16B6E
330
7466
100
AcDbSymbolTableRecord
100
AcDbBlockTableRecord
  2
*D14
340
0
  0
BLOCK_RECORD
  5
16B7A
330
7466
100
AcDbSymbolTableRecord
100
AcDbBlockTableRecord
  2
*D15
340
0
  0
BLOCK_RECORD
  5
16B86
330
7466
100
AcDbSymbolTableRecord
100
AcDbBlockTableRecord
  2
*D16
340
0
  0
BLOCK_RECORD
  5
179B6
330
7466
100
AcDbSymbolTableRecord
100
AcDbBlockTableRecord
  2
*D17
340
0
  0
BLOCK_RECORD
  5
179C3
330
7466
100
AcDbSymbolTableRecord
100
AcDbBlockTableRecord
  2
*D18
340
0
  0
BLOCK_RECORD
  5
179D0
330
7466
100
AcDbSymbolTableRecord
100
AcDbBlockTableRecord
  2
*D19
340
0
  0
BLOCK_RECORD
  5
179DC
330
7466
100
AcDbSymbolTableRecord
100
AcDbBlockTableRecord
  2
*D20
340
0
  0
BLOCK_RECORD
  5
179EA
330
7466
100
AcDbSymbolTableRecord
100
AcDbBlockTableRecord
  2
*D21
340
0
  0
BLOCK_RECORD
  5
179F6
330
7466
100
AcDbSymbolTableRecord
100
AcDbBlockTableRecord
  2
*D22
340
0
  0
BLOCK_RECORD
  5
17A02
330
7466
100
AcDbSymbolTableRecord
100
AcDbBlockTableRecord
  2
*D23
340
0
  0
BLOCK_RECORD
  5
17A10
330
7466
100
AcDbSymbolTableRecord
100
AcDbBlockTableRecord
  2
*D24
340
0
  0
BLOCK_RECORD
  5
17A1C
330
7466
100
AcDbSymbolTableRecord
100
AcDbBlockTableRecord
  2
*D25
340
0
  0
BLOCK_RECORD
  5
17A28
330
7466
100
AcDbSymbolTableRecord
100
AcDbBlockTableRecord
  2
*D26
340
0
  0
BLOCK_RECORD
  5
187AE
330
7466
100
AcDbSymbolTableRecord
100
AcDbBlockTableRecord
  2
*D27
340
0
  0
BLOCK_RECORD
  5
188F8
330
7466
100
AcDbSymbolTableRecord
100
AcDbBlockTableRecord
  2
*D28
340
0
  0
BLOCK_RECORD
  5
18919
330
7466
100
AcDbSymbolTableRecord
100
AcDbBlockTableRecord
  2
*D29
340
0
  0
BLOCK_RECORD
  5
189B7
330
7466
100
AcDbSymbolTableRecord
100
AcDbBlockTableRecord
  2
*D30
340
0
  0
BLOCK_RECORD
  5
189C5
330
7466
100
AcDbSymbolTableRecord
100
AcDbBlockTableRecord
  2
*D31
340
0
  0
BLOCK_RECORD
  5
189D1
330
7466
100
AcDbSymbolTableRecord
100
AcDbBlockTableRecord
  2
*D32
340
0
  0
BLOCK_RECORD
  5
18A05
330
7466
100
AcDbSymbolTableRecord
100
AcDbBlockTableRecord
  2
*D33
340
0
  0
BLOCK_RECORD
  5
18E9F
330
7466
100
AcDbSymbolTableRecord
100
AcDbBlockTableRecord
  2
_DOT
340
0
  0
ENDTAB
  0
ENDSEC
  0
SECTION
  2
BLOCKS
  0
BLOCK
  5
7489
330
747D
100
AcDbEntity
  8
0
100
AcDbBlockBegin
  2
*MODEL_SPACE
 70
     0
 10
0.0
 20
0.0
 30
0.0
  3
*MODEL_SPACE
  1

  0
ENDBLK
  5
748A
330
747D
100
AcDbEntity
  8
0
100
AcDbBlockEnd
  0
BLOCK
  5
7487
330
747A
100
AcDbEntity
 67
     1
  8
0
100
AcDbBlockBegin
  2
*PAPER_SPACE
 70
     0
 10
0.0
 20
0.0
 30
0.0
  3
*PAPER_SPACE
  1

  0
ENDBLK
  5
7488
330
747A
100
AcDbEntity
 67
     1
  8
0
100
AcDbBlockEnd
  0
BLOCK
  5
DEAD
330
DEAC
100
AcDbEntity
  8
0
100
AcDbBlockBegin
  2
_OPEN
 70
     0
 10
0.0
 20
0.0
 30
0.0
  3
_OPEN
  1

  0
LINE
  5
DEAE
330
DEAC
100
AcDbEntity
  8
0
  6
ByBlock
 62
     0
100
AcDbLine
 10
-1.0
 20
0.1666666666666666
 30
0.0
 11
0.0
 21
0.0
 31
0.0
  0
LINE
  5
DEAF
330
DEAC
100
AcDbEntity
  8
0
  6
ByBlock
 62
     0
100
AcDbLine
 10
0.0
 20
0.0
 30
0.0
 11
-1.0
 21
-0.1666666666666666
 31
0.0
  0
LINE
  5
DEB0
330
DEAC
100
AcDbEntity
  8
0
  6
ByBlock
 62
     0
100
AcDbLine
 10
0.0
 20
0.0
 30
0.0
 11
-1.0
 21
0.0
 31
0.0
  0
ENDBLK
  5
DEB1
330
DEAC
100
AcDbEntity
  8
0
100
AcDbBlockEnd
  0
BLOCK
  5
F771
330
F770
100
AcDbEntity
  8
0
 48
50.0
100
AcDbBlockBegin
  2
_DOTSMALL
 70
     0
 10
0.0
 20
0.0
 30
0.0
  3
_DOTSMALL
  1

  0
LWPOLYLINE
  5
F772
330
F770
100
AcDbEntity
  8
0
  6
ByBlock
 62
     0
 48
50.0
100
AcDbPolyline
 90
        2
 70
     1
 43
0.5
 10
-0.0625
 20
0.0
 42
1.0
 10
0.0625
 20
0.0
 42
1.0
  0
ENDBLK
  5
F776
330
F770
100
AcDbEntity
  8
0
 48
50.0
100
AcDbBlockEnd
  0
BLOCK
  5
15424
330
1458A
100
AcDbEntity
  8
0
 48
50.0
100
AcDbBlockBegin
  2
*D2
 70
     1
 10
0.0
 20
0.0
 30
0.0
  3
*D2
  1

  0
LINE
  5
18D4A
330
1458A
100
AcDbEntity
  8
寸法
 62
     0
 48
50.0
370
    -2
100
AcDbLine
 10
3345.874179210373
 20
9086.896058145125
 30
0.0
 11
3345.874179210373
 21
9562.374408091498
 31
0.0
  0
LINE
  5
18D4B
330
1458A
100
AcDbEntity
  8
寸法
 62
     0
 48
50.0
370
    -2
100
AcDbLine
 10
3400.874179210407
 20
9086.896058145125
 30
0.0
 11
3400.874179210407
 21
9562.374408091498
 31
0.0
  0
LINE
  5
18D4C
330
1458A
100
AcDbEntity
  8
寸法
 62
     0
 48
50.0
370
    -2
100
AcDbLine
 10
3400.874179210407
 20
9502.374408091498
 30
0.0
 11
3500.874179210407
 21
9502.374408091498
 31
0.0
  0
LINE
  5
18D4D
330
1458A
100
AcDbEntity
  8
寸法
 62
     0
 48
50.0
370
    -2
100
AcDbLine
 10
3345.874179210373
 20
9502.374408091498
 30
0.0
 11
2928.903616461895
 21
9502.374408091498
 31
0.0
  0
LINE
  5
18D4E
330
1458A
100
AcDbEntity
  8
寸法
 62
     0
 48
50.0
370
    -2
100
AcDbLine
 10
3400.874179210407
 20
9502.374408091498
 30
0.0
 11
3345.874179210373
 21
9502.374408091498
 31
0.0
  0
INSERT
  5
18D4F
330
1458A
100
AcDbEntity
  8
寸法
 62
     0
 48
50.0
370
    -2
100
AcDbBlockReference
  2
_DOTSMALL
 10
3400.874179210407
 20
9502.374408091498
 30
0.0
 41
100.0
 42
100.0
 43
100.0
 50
180.0
  0
INSERT
  5
18D50
330
1458A
100
AcDbEntity
  8
寸法
 62
     0
 48
50.0
370
    -2
100
AcDbBlockReference
  2
_DOTSMALL
 10
3345.874179210373
 20
9502.374408091498
 30
0.0
 41
100.0
 42
100.0
 43
100.0
  0
MTEXT
  5
18D51
330
1458A
100
AcDbEntity
  8
寸法
 62
     7
 48
50.0
100
AcDbMText
 10
3037.388897836133
 20
9602.374408091499
 30
0.0
 40
120.0
 41
0.0
 71
     5
 72
     1
  1
\A1;55
  7
STYLE1
 73
     1
 44
1.0
1001
ACAD
1000
MTEXTBEGIN
1070
    73
1070
     1
1070
    44
1040
1.0
1070
    74
1070
     0
1000
MTEXTEND
  0
POINT
  5
18D52
330
1458A
100
AcDbEntity
  8
DEFPOINTS
 62
     0
 48
50.0
100
AcDbPoint
 10
3345.874179210373
 20
9066.896058145124
 30
0.0
  0
POINT
  5
18D53
330
1458A
100
AcDbEntity
  8
DEFPOINTS
 62
     0
 48
50.0
100
AcDbPoint
 10
3400.874179210407
 20
9066.896058145124
 30
0.0
  0
POINT
  5
18D54
330
1458A
100
AcDbEntity
  8
DEFPOINTS
 62
     0
 48
50.0
100
AcDbPoint
 10
3400.874179210407
 20
9502.374408091498
 30
0.0
  0
ENDBLK
  5
15430
330
1458A
100
AcDbEntity
  8
0
 48
50.0
100
AcDbBlockEnd
  0
BLOCK
  5
14924
330
14598
100
AcDbEntity
  8
0
 48
50.0
100
AcDbBlockBegin
  2
*D3
 70
     1
 10
0.0
 20
0.0
 30
0.0
  3
*D3
  1

  0
LINE
  5
18D41
330
14598
100
AcDbEntity
  8
寸法
 62
     0
 48
50.0
370
    -2
100
AcDbLine
 10
9995.87417921041
 20
9066.896058145252
 30
0.0
 11
10973.4815050503
 21
9066.896058145252
 31
0.0
  0
LINE
  5
18D42
330
14598
100
AcDbEntity
  8
寸法
 62
     0
 48
50.0
370
    -2
100
AcDbLine
 10
9995.874179210384
 20
7696.896058145243
 30
0.0
 11
10973.4815050503
 21
7696.896058145242
 31
0.0
  0
LINE
  5
18D43
330
14598
100
AcDbEntity
  8
寸法
 62
     0
 48
50.0
370
    -2
100
AcDbLine
 10
10913.4815050503
 20
9066.896058145252
 30
0.0
 11
10913.4815050503
 21
7696.896058145242
 31
0.0
  0
INSERT
  5
18D44
330
14598
100
AcDbEntity
  8
寸法
 62
     0
 48
50.0
370
    -2
100
AcDbBlockReference
  2
_DOTSMALL
 10
10913.4815050503
 20
9066.896058145252
 30
0.0
 41
100.0
 42
100.0
 43
100.0
 50
90.0
  0
INSERT
  5
18D45
330
14598
100
AcDbEntity
  8
寸法
 62
     0
 48
50.0
370
    -2
100
AcDbBlockReference
  2
_DOTSMALL
 10
10913.4815050503
 20
7696.896058145242
 30
0.0
 41
100.0
 42
100.0
 43
100.0
 50
270.0
  0
MTEXT
  5
18D46
330
14598
100
AcDbEntity
  8
寸法
 62
     7
 48
50.0
100
AcDbMText
 10
10813.4815050503
 20
8384.08162563565
 30
0.0
 40
120.0
 41
0.0
 71
     5
 72
     1
  1
\A1;1370
  7
STYLE1
 11
0.0000000000000001
 21
1.0
 31
0.0
 73
     1
 44
1.0
1001
ACAD
1000
MTEXTBEGIN
1070
    73
1070
     1
1070
    44
1040
1.0
1070
    74
1070
     0
1000
MTEXTEND
  0
POINT
  5
18D47
330
14598
100
AcDbEntity
  8
DEFPOINTS
 62
     0
 48
50.0
100
AcDbPoint
 10
9975.874179210409
 20
9066.896058145252
 30
0.0
  0
POINT
  5
18D48
330
14598
100
AcDbEntity
  8
DEFPOINTS
 62
     0
 48
50.0
100
AcDbPoint
 10
9975.874179210384
 20
7696.896058145243
 30
0.0
  0
POINT
  5
18D49
330
14598
100
AcDbEntity
  8
DEFPOINTS
 62
     0
 48
50.0
100
AcDbPoint
 10
10913.4815050503
 20
7696.896058145242
 30
0.0
  0
ENDBLK
  5
1492E
330
14598
100
AcDbEntity
  8
0
 48
50.0
100
AcDbBlockEnd
  0
BLOCK
  5
1492F
330
145A4
100
AcDbEntity
  8
0
 48
50.0
100
AcDbBlockBegin
  2
*D4
 70
     1
 10
0.0
 20
0.0
 30
0.0
  3
*D4
  1

  0
LINE
  5
18D36
330
145A4
100
AcDbEntity
  8
寸法
 62
     0
 48
50.0
370
    -2
100
AcDbLine
 10
9995.87417921041
 20
9066.896058145252
 30
0.0
 11
10683.30052494482
 21
9066.896058145252
 31
0.0
  0
LINE
  5
18D37
330
145A4
100
AcDbEntity
  8
寸法
 62
     0
 48
50.0
370
    -2
100
AcDbLine
 10
9995.87417921041
 20
9011.896058145255
 30
0.0
 11
10683.30052494482
 21
9011.896058145255
 31
0.0
  0
LINE
  5
18D38
330
145A4
100
AcDbEntity
  8
寸法
 62
     0
 48
50.0
370
    -2
100
AcDbLine
 10
10623.30052494482
 20
9011.896058145255
 30
0.0
 11
10623.30052494482
 21
8911.896058145256
 31
0.0
  0
LINE
  5
18D39
330
145A4
100
AcDbEntity
  8
寸法
 62
     0
 48
50.0
370
    -2
100
AcDbLine
 10
10623.30052494482
 20
9066.896058145252
 30
0.0
 11
10623.30052494482
 21
9483.866620893728
 31
0.0
  0
LINE
  5
18D3A
330
145A4
100
AcDbEntity
  8
寸法
 62
     0
 48
50.0
370
    -2
100
AcDbLine
 10
10623.30052494482
 20
9011.896058145255
 30
0.0
 11
10623.30052494482
 21
9066.896058145252
 31
0.0
  0
INSERT
  5
18D3B
330
145A4
100
AcDbEntity
  8
寸法
 62
     0
 48
50.0
370
    -2
100
AcDbBlockReference
  2
_DOTSMALL
 10
10623.30052494482
 20
9011.896058145255
 30
0.0
 41
100.0
 42
100.0
 43
100.0
 50
90.0
  0
INSERT
  5
18D3C
330
145A4
100
AcDbEntity
  8
寸法
 62
     0
 48
50.0
370
    -2
100
AcDbBlockReference
  2
_DOTSMALL
 10
10623.30052494482
 20
9066.896058145252
 30
0.0
 41
100.0
 42
100.0
 43
100.0
 50
270.0
  0
MTEXT
  5
18D3D
330
145A4
100
AcDbEntity
  8
寸法
 62
     7
 48
50.0
100
AcDbMText
 10
10523.30052494482
 20
9375.381339519492
 30
0.0
 40
120.0
 41
0.0
 71
     5
 72
     1
  1
\A1;55
  7
STYLE1
 11
0.0000000000000001
 21
1.0
 31
0.0
 73
     1
 44
1.0
1001
ACAD
1000
MTEXTBEGIN
1070
    73
1070
     1
1070
    44
1040
1.0
1070
    74
1070
     0
1000
MTEXTEND
  0
POINT
  5
18D3E
330
145A4
100
AcDbEntity
  8
DEFPOINTS
 62
     0
 48
50.0
100
AcDbPoint
 10
9975.874179210409
 20
9066.896058145252
 30
0.0
  0
POINT
  5
18D3F
330
145A4
100
AcDbEntity
  8
DEFPOINTS
 62
     0
 48
50.0
100
AcDbPoint
 10
9975.874179210409
 20
9011.896058145255
 30
0.0
  0
POINT
  5
18D40
330
145A4
100
AcDbEntity
  8
DEFPOINTS
 62
     0
 48
50.0
100
AcDbPoint
 10
10623.30052494482
 20
9011.896058145255
 30
0.0
  0
ENDBLK
  5
1493B
330
145A4
100
AcDbEntity
  8
0
 48
50.0
100
AcDbBlockEnd
  0
BLOCK
  5
1496A
330
145BE
100
AcDbEntity
  8
0
 48
50.0
100
AcDbBlockBegin
  2
*D5
 70
     1
 10
0.0
 20
0.0
 30
0.0
  3
*D5
  1

  0
LINE
  5
18D2B
330
145BE
100
AcDbEntity
  8
寸法
 62
     0
 48
50.0
370
    -2
100
AcDbLine
 10
9995.874179210384
 20
7751.896058145239
 30
0.0
 11
10683.30052494479
 21
7751.896058145239
 31
0.0
  0
LINE
  5
18D2C
330
145BE
100
AcDbEntity
  8
寸法
 62
     0
 48
50.0
370
    -2
100
AcDbLine
 10
9995.874179210384
 20
7696.896058145243
 30
0.0
 11
10683.30052494479
 21
7696.896058145242
 31
0.0
  0
LINE
  5
18D2D
330
145BE
100
AcDbEntity
  8
寸法
 62
     0
 48
50.0
370
    -2
100
AcDbLine
 10
10623.30052494479
 20
7751.896058145239
 30
0.0
 11
10623.30052494479
 21
7851.896058145239
 31
0.0
  0
LINE
  5
18D2E
330
145BE
100
AcDbEntity
  8
寸法
 62
     0
 48
50.0
370
    -2
100
AcDbLine
 10
10623.30052494479
 20
7696.896058145242
 30
0.0
 11
10623.30052494479
 21
7210.549309866141
 31
0.0
  0
LINE
  5
18D2F
330
145BE
100
AcDbEntity
  8
寸法
 62
     0
 48
50.0
370
    -2
100
AcDbLine
 10
10623.30052494479
 20
7751.896058145239
 30
0.0
 11
10623.30052494479
 21
7696.896058145242
 31
0.0
  0
INSERT
  5
18D30
330
145BE
100
AcDbEntity
  8
寸法
 62
     0
 48
50.0
370
    -2
100
AcDbBlockReference
  2
_DOTSMALL
 10
10623.30052494479
 20
7751.896058145239
 30
0.0
 41
100.0
 42
100.0
 43
100.0
 50
270.0
  0
INSERT
  5
18D31
330
145BE
100
AcDbEntity
  8
寸法
 62
     0
 48
50.0
370
    -2
100
AcDbBlockReference
  2
_DOTSMALL
 10
10623.30052494479
 20
7696.896058145242
 30
0.0
 41
100.0
 42
100.0
 43
100.0
 50
90.0
  0
MTEXT
  5
18D32
330
145BE
100
AcDbEntity
  8
寸法
 62
     7
 48
50.0
100
AcDbMText
 10
10523.30052494479
 20
7319.034591240381
 30
0.0
 40
120.0
 41
0.0
 71
     5
 72
     1
  1
\A1;55
  7
STYLE1
 11
0.0000000000000001
 21
1.0
 31
0.0
 73
     1
 44
1.0
1001
ACAD
1000
MTEXTBEGIN
1070
    73
1070
     1
1070
    44
1040
1.0
1070
    74
1070
     0
1000
MTEXTEND
  0
POINT
  5
18D33
330
145BE
100
AcDbEntity
  8
DEFPOINTS
 62
     0
 48
50.0
100
AcDbPoint
 10
9975.874179210384
 20
7751.896058145239
 30
0.0
  0
POINT
  5
18D34
330
145BE
100
AcDbEntity
  8
DEFPOINTS
 62
     0
 48
50.0
100
AcDbPoint
 10
9975.874179210384
 20
7696.896058145243
 30
0.0
  0
POINT
  5
18D35
330
145BE
100
AcDbEntity
  8
DEFPOINTS
 62
     0
 48
50.0
100
AcDbPoint
 10
10623.30052494479
 20
7696.896058145242
 30
0.0
  0
ENDBLK
  5
14976
330
145BE
100
AcDbEntity
  8
0
 48
50.0
100
AcDbBlockEnd
  0
BLOCK
  5
14949
330
145CC
100
AcDbEntity
  8
0
 48
50.0
100
AcDbBlockBegin
  2
*D6
 70
     1
 10
0.0
 20
0.0
 30
0.0
  3
*D6
  1

  0
LINE
  5
18D22
330
145CC
100
AcDbEntity
  8
寸法
 62
     0
 48
50.0
370
    -2
100
AcDbLine
 10
9995.87417921041
 20
9011.896058145255
 30
0.0
 11
10683.30052494482
 21
9011.896058145255
 31
0.0
  0
LINE
  5
18D23
330
145CC
100
AcDbEntity
  8
寸法
 62
     0
 48
50.0
370
    -2
100
AcDbLine
 10
9995.874179210384
 20
7751.896058145239
 30
0.0
 11
10683.30052494482
 21
7751.896058145239
 31
0.0
  0
LINE
  5
18D24
330
145CC
100
AcDbEntity
  8
寸法
 62
     0
 48
50.0
370
    -2
100
AcDbLine
 10
10623.30052494482
 20
9011.896058145255
 30
0.0
 11
10623.30052494482
 21
7751.896058145239
 31
0.0
  0
INSERT
  5
18D25
330
145CC
100
AcDbEntity
  8
寸法
 62
     0
 48
50.0
370
    -2
100
AcDbBlockReference
  2
_DOTSMALL
 10
10623.30052494482
 20
9011.896058145255
 30
0.0
 41
100.0
 42
100.0
 43
100.0
 50
90.0
  0
INSERT
  5
18D26
330
145CC
100
AcDbEntity
  8
寸法
 62
     0
 48
50.0
370
    -2
100
AcDbBlockReference
  2
_DOTSMALL
 10
10623.30052494482
 20
7751.896058145239
 30
0.0
 41
100.0
 42
100.0
 43
100.0
 50
270.0
  0
MTEXT
  5
18D27
330
145CC
100
AcDbEntity
  8
寸法
 62
     7
 48
50.0
100
AcDbMText
 10
10523.28871392119
 20
8381.896058145249
 30
0.0
 40
120.0
 41
0.0
 71
     5
 72
     1
  1
\A1;3X420=1260
  7
STYLE1
 11
0.0000000000000001
 21
1.0
 31
0.0
 73
     1
 44
1.0
1001
ACAD
1000
MTEXTBEGIN
1070
    73
1070
     1
1070
    44
1040
1.0
1070
    74
1070
     0
1000
MTEXTEND
  0
POINT
  5
18D28
330
145CC
100
AcDbEntity
  8
DEFPOINTS
 62
     0
 48
50.0
100
AcDbPoint
 10
9975.874179210409
 20
9011.896058145255
 30
0.0
  0
POINT
  5
18D29
330
145CC
100
AcDbEntity
  8
DEFPOINTS
 62
     0
 48
50.0
100
AcDbPoint
 10
9975.874179210384
 20
7751.896058145239
 30
0.0
  0
POINT
  5
18D2A
330
145CC
100
AcDbEntity
  8
DEFPOINTS
 62
     0
 48
50.0
100
AcDbPoint
 10
10623.30052494482
 20
7751.896058145239
 30
0.0
  0
ENDBLK
  5
14953
330
145CC
100
AcDbEntity
  8
0
 48
50.0
100
AcDbBlockEnd
  0
BLOCK
  5
16AED
330
145D8
100
AcDbEntity
  8
0
 48
50.0
100
AcDbBlockBegin
  2
*D7
 70
     1
 10
0.0
 20
0.0
 30
0.0
  3
*D7
  1

  0
LINE
  5
18D19
330
145D8
100
AcDbEntity
  8
寸法
 62
     0
 48
50.0
370
    -2
100
AcDbLine
 10
7765.874179210401
 20
7676.89605814508
 30
0.0
 11
7765.874179210401
 21
6872.760088791554
 31
0.0
  0
LINE
  5
18D1A
330
145D8
100
AcDbEntity
  8
寸法
 62
     0
 48
50.0
370
    -2
100
AcDbLine
 10
9975.874179210384
 20
7676.896058145209
 30
0.0
 11
9975.874179210384
 21
6872.760088791554
 31
0.0
  0
LINE
  5
18D1B
330
145D8
100
AcDbEntity
  8
寸法
 62
     0
 48
50.0
370
    -2
100
AcDbLine
 10
7765.874179210401
 20
6932.760088791553
 30
0.0
 11
9975.874179210384
 21
6932.760088791553
 31
0.0
  0
INSERT
  5
18D1C
330
145D8
100
AcDbEntity
  8
寸法
 62
     0
 48
50.0
370
    -2
100
AcDbBlockReference
  2
_DOTSMALL
 10
7765.874179210401
 20
6932.760088791553
 30
0.0
 41
100.0
 42
100.0
 43
100.0
 50
180.0
  0
INSERT
  5
18D1D
330
145D8
100
AcDbEntity
  8
寸法
 62
     0
 48
50.0
370
    -2
100
AcDbBlockReference
  2
_DOTSMALL
 10
9975.874179210384
 20
6932.760088791553
 30
0.0
 41
100.0
 42
100.0
 43
100.0
  0
MTEXT
  5
18D1E
330
145D8
100
AcDbEntity
  8
寸法
 62
     7
 48
50.0
100
AcDbMText
 10
8870.874179210392
 20
7032.771899815177
 30
0.0
 40
120.0
 41
0.0
 71
     5
 72
     1
  1
\A1;2210
  7
STYLE1
 73
     1
 44
1.0
1001
ACAD
1000
MTEXTBEGIN
1070
    73
1070
     1
1070
    44
1040
1.0
1070
    74
1070
     0
1000
MTEXTEND
  0
POINT
  5
18D1F
330
145D8
100
AcDbEntity
  8
DEFPOINTS
 62
     0
 48
50.0
100
AcDbPoint
 10
7765.874179210401
 20
7696.896058145078
 30
0.0
  0
POINT
  5
18D20
330
145D8
100
AcDbEntity
  8
DEFPOINTS
 62
     0
 48
50.0
100
AcDbPoint
 10
9975.874179210384
 20
7696.896058145208
 30
0.0
  0
POINT
  5
18D21
330
145D8
100
AcDbEntity
  8
DEFPOINTS
 62
     0
 48
50.0
100
AcDbPoint
 10
9975.874179210384
 20
6932.760088791553
 30
0.0
  0
ENDBLK
  5
16AF7
330
145D8
100
AcDbEntity
  8
0
 48
50.0
100
AcDbBlockEnd
  0
BLOCK
  5
15417
330
14608
100
AcDbEntity
  8
0
 48
50.0
100
AcDbBlockBegin
  2
*D8
 70
     1
 10
0.0
 20
0.0
 30
0.0
  3
*D8
  1

  0
LINE
  5
18D0E
330
14608
100
AcDbEntity
  8
寸法
 62
     0
 48
50.0
370
    -2
100
AcDbLine
 10
9920.874179210409
 20
9086.896058145253
 30
0.0
 11
9920.874179210409
 21
9562.374408091628
 31
0.0
  0
LINE
  5
18D0F
330
14608
100
AcDbEntity
  8
寸法
 62
     0
 48
50.0
370
    -2
100
AcDbLine
 10
9975.874179210409
 20
9086.896058145253
 30
0.0
 11
9975.874179210409
 21
9562.374408091628
 31
0.0
  0
LINE
  5
18D10
330
14608
100
AcDbEntity
  8
寸法
 62
     0
 48
50.0
370
    -2
100
AcDbLine
 10
9920.874179210409
 20
9502.374408091627
 30
0.0
 11
9820.874179210409
 21
9502.374408091627
 31
0.0
  0
LINE
  5
18D11
330
14608
100
AcDbEntity
  8
寸法
 62
     0
 48
50.0
370
    -2
100
AcDbLine
 10
9975.874179210409
 20
9502.374408091627
 30
0.0
 11
10392.84474195888
 21
9502.374408091627
 31
0.0
  0
LINE
  5
18D12
330
14608
100
AcDbEntity
  8
寸法
 62
     0
 48
50.0
370
    -2
100
AcDbLine
 10
9920.874179210409
 20
9502.374408091627
 30
0.0
 11
9975.874179210409
 21
9502.374408091627
 31
0.0
  0
INSERT
  5
18D13
330
14608
100
AcDbEntity
  8
寸法
 62
     0
 48
50.0
370
    -2
100
AcDbBlockReference
  2
_DOTSMALL
 10
9920.874179210409
 20
9502.374408091627
 30
0.0
 41
100.0
 42
100.0
 43
100.0
  0
INSERT
  5
18D14
330
14608
100
AcDbEntity
  8
寸法
 62
     0
 48
50.0
370
    -2
100
AcDbBlockReference
  2
_DOTSMALL
 10
9975.874179210409
 20
9502.374408091627
 30
0.0
 41
100.0
 42
100.0
 43
100.0
 50
180.0
  0
MTEXT
  5
18D15
330
14608
100
AcDbEntity
  8
寸法
 62
     7
 48
50.0
100
AcDbMText
 10
10284.35946058464
 20
9602.374408091627
 30
0.0
 40
120.0
 41
0.0
 71
     5
 72
     1
  1
\A1;55
  7
STYLE1
 73
     1
 44
1.0
1001
ACAD
1000
MTEXTBEGIN
1070
    73
1070
     1
1070
    44
1040
1.0
1070
    74
1070
     0
1000
MTEXTEND
  0
POINT
  5
18D16
330
14608
100
AcDbEntity
  8
DEFPOINTS
 62
     0
 48
50.0
100
AcDbPoint
 10
9920.874179210409
 20
9066.896058145252
 30
0.0
  0
POINT
  5
18D17
330
14608
100
AcDbEntity
  8
DEFPOINTS
 62
     0
 48
50.0
100
AcDbPoint
 10
9975.874179210409
 20
9066.896058145252
 30
0.0
  0
POINT
  5
18D18
330
14608
100
AcDbEntity
  8
DEFPOINTS
 62
     0
 48
50.0
100
AcDbPoint
 10
9975.874179210409
 20
9502.374408091627
 30
0.0
  0
ENDBLK
  5
15423
330
14608
100
AcDbEntity
  8
0
 48
50.0
100
AcDbBlockEnd
  0
BLOCK
  5
16AD5
330
14616
100
AcDbEntity
  8
0
 48
50.0
100
AcDbBlockBegin
  2
*D9
 70
     1
 10
0.0
 20
0.0
 30
0.0
  3
*D9
  1

  0
LINE
  5
18D05
330
14616
100
AcDbEntity
  8
寸法
 62
     0
 48
50.0
370
    -2
100
AcDbLine
 10
7820.874179210406
 20
9086.896058145125
 30
0.0
 11
7820.874179210406
 21
9562.374408091647
 31
0.0
  0
LINE
  5
18D06
330
14616
100
AcDbEntity
  8
寸法
 62
     0
 48
50.0
370
    -2
100
AcDbLine
 10
9920.874179210409
 20
9086.896058145253
 30
0.0
 11
9920.874179210409
 21
9562.374408091647
 31
0.0
  0
LINE
  5
18D07
330
14616
100
AcDbEntity
  8
寸法
 62
     0
 48
50.0
370
    -2
100
AcDbLine
 10
7820.874179210406
 20
9502.374408091647
 30
0.0
 11
9920.874179210409
 21
9502.374408091647
 31
0.0
  0
INSERT
  5
18D08
330
14616
100
AcDbEntity
  8
寸法
 62
     0
 48
50.0
370
    -2
100
AcDbBlockReference
  2
_DOTSMALL
 10
7820.874179210406
 20
9502.374408091647
 30
0.0
 41
100.0
 42
100.0
 43
100.0
 50
180.0
  0
INSERT
  5
18D09
330
14616
100
AcDbEntity
  8
寸法
 62
     0
 48
50.0
370
    -2
100
AcDbBlockReference
  2
_DOTSMALL
 10
9920.874179210409
 20
9502.374408091647
 30
0.0
 41
100.0
 42
100.0
 43
100.0
  0
MTEXT
  5
18D0A
330
14616
100
AcDbEntity
  8
寸法
 62
     7
 48
50.0
100
AcDbMText
 10
8870.874179210408
 20
9602.38621911527
 30
0.0
 40
120.0
 41
0.0
 71
     5
 72
     1
  1
\A1;5X420=2100
  7
STYLE1
 73
     1
 44
1.0
1001
ACAD
1000
MTEXTBEGIN
1070
    73
1070
     1
1070
    44
1040
1.0
1070
    74
1070
     0
1000
MTEXTEND
  0
POINT
  5
18D0B
330
14616
100
AcDbEntity
  8
DEFPOINTS
 62
     0
 48
50.0
100
AcDbPoint
 10
7820.874179210406
 20
9066.896058145124
 30
0.0
  0
POINT
  5
18D0C
330
14616
100
AcDbEntity
  8
DEFPOINTS
 62
     0
 48
50.0
100
AcDbPoint
 10
9920.874179210409
 20
9066.896058145252
 30
0.0
  0
POINT
  5
18D0D
330
14616
100
AcDbEntity
  8
DEFPOINTS
 62
     0
 48
50.0
100
AcDbPoint
 10
9920.874179210409
 20
9502.374408091647
 30
0.0
  0
ENDBLK
  5
16ADF
330
14616
100
AcDbEntity
  8
0
 48
50.0
100
AcDbBlockEnd
  0
BLOCK
  5
16AF8
330
15640
100
AcDbEntity
  8
0
 48
50.0
100
AcDbBlockBegin
  2
*D10
 70
     1
 10
0.0
 20
0.0
 30
0.0
  3
*D10
  1

  0
LINE
  5
18CFC
330
15640
100
AcDbEntity
  8
寸法
 62
     0
 48
50.0
370
    -2
100
AcDbLine
 10
5555.8741792104
 20
7676.89605814508
 30
0.0
 11
5555.8741792104
 21
6872.760088791554
 31
0.0
  0
LINE
  5
18CFD
330
15640
100
AcDbEntity
  8
寸法
 62
     0
 48
50.0
370
    -2
100
AcDbLine
 10
7765.874179210382
 20
7676.896058145209
 30
0.0
 11
7765.874179210382
 21
6872.760088791554
 31
0.0
  0
LINE
  5
18CFE
330
15640
100
AcDbEntity
  8
寸法
 62
     0
 48
50.0
370
    -2
100
AcDbLine
 10
5555.8741792104
 20
6932.760088791553
 30
0.0
 11
7765.874179210382
 21
6932.760088791553
 31
0.0
  0
INSERT
  5
18CFF
330
15640
100
AcDbEntity
  8
寸法
 62
     0
 48
50.0
370
    -2
100
AcDbBlockReference
  2
_DOTSMALL
 10
5555.8741792104
 20
6932.760088791553
 30
0.0
 41
100.0
 42
100.0
 43
100.0
 50
180.0
  0
INSERT
  5
18D00
330
15640
100
AcDbEntity
  8
寸法
 62
     0
 48
50.0
370
    -2
100
AcDbBlockReference
  2
_DOTSMALL
 10
7765.874179210382
 20
6932.760088791553
 30
0.0
 41
100.0
 42
100.0
 43
100.0
  0
MTEXT
  5
18D01
330
15640
100
AcDbEntity
  8
寸法
 62
     7
 48
50.0
100
AcDbMText
 10
6660.874179210392
 20
7032.771899815177
 30
0.0
 40
120.0
 41
0.0
 71
     5
 72
     1
  1
\A1;2210
  7
STYLE1
 73
     1
 44
1.0
1001
ACAD
1000
MTEXTBEGIN
1070
    73
1070
     1
1070
    44
1040
1.0
1070
    74
1070
     0
1000
MTEXTEND
  0
POINT
  5
18D02
330
15640
100
AcDbEntity
  8
DEFPOINTS
 62
     0
 48
50.0
100
AcDbPoint
 10
5555.8741792104
 20
7696.896058145078
 30
0.0
  0
POINT
  5
18D03
330
15640
100
AcDbEntity
  8
DEFPOINTS
 62
     0
 48
50.0
100
AcDbPoint
 10
7765.874179210382
 20
7696.896058145208
 30
0.0
  0
POINT
  5
18D04
330
15640
100
AcDbEntity
  8
DEFPOINTS
 62
     0
 48
50.0
100
AcDbPoint
 10
7765.874179210382
 20
6932.760088791553
 30
0.0
  0
ENDBLK
  5
16B02
330
15640
100
AcDbEntity
  8
0
 48
50.0
100
AcDbBlockEnd
  0
BLOCK
  5
16AE0
330
1568F
100
AcDbEntity
  8
0
 48
50.0
100
AcDbBlockBegin
  2
*D11
 70
     1
 10
0.0
 20
0.0
 30
0.0
  3
*D11
  1

  0
LINE
  5
18CF3
330
1568F
100
AcDbEntity
  8
寸法
 62
     0
 48
50.0
370
    -2
100
AcDbLine
 10
5610.874179210407
 20
9086.896058145125
 30
0.0
 11
5610.874179210407
 21
9562.374408091647
 31
0.0
  0
LINE
  5
18CF4
330
1568F
100
AcDbEntity
  8
寸法
 62
     0
 48
50.0
370
    -2
100
AcDbLine
 10
7710.874179210406
 20
9086.896058145253
 30
0.0
 11
7710.874179210406
 21
9562.374408091647
 31
0.0
  0
LINE
  5
18CF5
330
1568F
100
AcDbEntity
  8
寸法
 62
     0
 48
50.0
370
    -2
100
AcDbLine
 10
5610.874179210407
 20
9502.374408091647
 30
0.0
 11
7710.874179210406
 21
9502.374408091647
 31
0.0
  0
INSERT
  5
18CF6
330
1568F
100
AcDbEntity
  8
寸法
 62
     0
 48
50.0
370
    -2
100
AcDbBlockReference
  2
_DOTSMALL
 10
5610.874179210407
 20
9502.374408091647
 30
0.0
 41
100.0
 42
100.0
 43
100.0
 50
180.0
  0
INSERT
  5
18CF7
330
1568F
100
AcDbEntity
  8
寸法
 62
     0
 48
50.0
370
    -2
100
AcDbBlockReference
  2
_DOTSMALL
 10
7710.874179210406
 20
9502.374408091647
 30
0.0
 41
100.0
 42
100.0
 43
100.0
  0
MTEXT
  5
18CF8
330
1568F
100
AcDbEntity
  8
寸法
 62
     7
 48
50.0
100
AcDbMText
 10
6660.874179210407
 20
9602.38621911527
 30
0.0
 40
120.0
 41
0.0
 71
     5
 72
     1
  1
\A1;5X420=2100
  7
STYLE1
 73
     1
 44
1.0
1001
ACAD
1000
MTEXTBEGIN
1070
    73
1070
     1
1070
    44
1040
1.0
1070
    74
1070
     0
1000
MTEXTEND
  0
POINT
  5
18CF9
330
1568F
100
AcDbEntity
  8
DEFPOINTS
 62
     0
 48
50.0
100
AcDbPoint
 10
5610.874179210407
 20
9066.896058145124
 30
0.0
  0
POINT
  5
18CFA
330
1568F
100
AcDbEntity
  8
DEFPOINTS
 62
     0
 48
50.0
100
AcDbPoint
 10
7710.874179210406
 20
9066.896058145252
 30
0.0
  0
POINT
  5
18CFB
330
1568F
100
AcDbEntity
  8
DEFPOINTS
 62
     0
 48
50.0
100
AcDbPoint
 10
7710.874179210406
 20
9502.374408091647
 30
0.0
  0
ENDBLK
  5
16AEA
330
1568F
100
AcDbEntity
  8
0
 48
50.0
100
AcDbBlockEnd
  0
BLOCK
  5
1571C
330
1571B
100
AcDbEntity
  8
0
 48
50.0
100
AcDbBlockBegin
  2
*D12
 70
     1
 10
0.0
 20
0.0
 30
0.0
  3
*D12
  1

  0
LINE
  5
18CEA
330
1571B
100
AcDbEntity
  8
寸法
 62
     0
 48
50.0
370
    -2
100
AcDbLine
 10
7820.874179210406
 20
9086.896058145125
 30
0.0
 11
7820.874179210406
 21
9562.374408091647
 31
0.0
  0
LINE
  5
18CEB
330
1571B
100
AcDbEntity
  8
寸法
 62
     0
 48
50.0
370
    -2
100
AcDbLine
 10
7710.874179210406
 20
9086.896058145125
 30
0.0
 11
7710.874179210406
 21
9562.374408091647
 31
0.0
  0
LINE
  5
18CEC
330
1571B
100
AcDbEntity
  8
寸法
 62
     0
 48
50.0
370
    -2
100
AcDbLine
 10
7820.874179210406
 20
9502.374408091647
 30
0.0
 11
7710.874179210406
 21
9502.374408091647
 31
0.0
  0
INSERT
  5
18CED
330
1571B
100
AcDbEntity
  8
寸法
 62
     0
 48
50.0
370
    -2
100
AcDbBlockReference
  2
_DOTSMALL
 10
7820.874179210406
 20
9502.374408091647
 30
0.0
 41
100.0
 42
100.0
 43
100.0
  0
INSERT
  5
18CEE
330
1571B
100
AcDbEntity
  8
寸法
 62
     0
 48
50.0
370
    -2
100
AcDbBlockReference
  2
_DOTSMALL
 10
7710.874179210406
 20
9502.374408091647
 30
0.0
 41
100.0
 42
100.0
 43
100.0
 50
180.0
  0
MTEXT
  5
18CEF
330
1571B
100
AcDbEntity
  8
寸法
 62
     7
 48
50.0
100
AcDbMText
 10
7765.874179210406
 20
9602.374408091648
 30
0.0
 40
120.0
 41
0.0
 71
     5
 72
     1
  1
\A1;110
  7
STYLE1
 73
     1
 44
1.0
1001
ACAD
1000
MTEXTBEGIN
1070
    73
1070
     1
1070
    44
1040
1.0
1070
    74
1070
     0
1000
MTEXTEND
  0
POINT
  5
18CF0
330
1571B
100
AcDbEntity
  8
DEFPOINTS
 62
     0
 48
50.0
100
AcDbPoint
 10
7820.874179210406
 20
9066.896058145124
 30
0.0
  0
POINT
  5
18CF1
330
1571B
100
AcDbEntity
  8
DEFPOINTS
 62
     0
 48
50.0
100
AcDbPoint
 10
7710.874179210406
 20
9066.896058145124
 30
0.0
  0
POINT
  5
18CF2
330
1571B
100
AcDbEntity
  8
DEFPOINTS
 62
     0
 48
50.0
100
AcDbPoint
 10
7710.874179210406
 20
9502.374408091647
 30
0.0
  0
ENDBLK
  5
15726
330
1571B
100
AcDbEntity
  8
0
 48
50.0
100
AcDbBlockEnd
  0
BLOCK
  5
15741
330
15728
100
AcDbEntity
  8
0
 48
50.0
100
AcDbBlockBegin
  2
*D13
 70
     1
 10
0.0
 20
0.0
 30
0.0
  3
*D13
  1

  0
LINE
  5
18CE1
330
15728
100
AcDbEntity
  8
寸法
 62
     0
 48
50.0
370
    -2
100
AcDbLine
 10
5610.874179210407
 20
9086.896058145169
 30
0.0
 11
5610.874179210407
 21
9562.374408091647
 31
0.0
  0
LINE
  5
18CE2
330
15728
100
AcDbEntity
  8
寸法
 62
     0
 48
50.0
370
    -2
100
AcDbLine
 10
5500.874179210407
 20
9086.896058145253
 30
0.0
 11
5500.874179210407
 21
9562.374408091647
 31
0.0
  0
LINE
  5
18CE3
330
15728
100
AcDbEntity
  8
寸法
 62
     0
 48
50.0
370
    -2
100
AcDbLine
 10
5610.874179210407
 20
9502.374408091647
 30
0.0
 11
5500.874179210407
 21
9502.374408091647
 31
0.0
  0
INSERT
  5
18CE4
330
15728
100
AcDbEntity
  8
寸法
 62
     0
 48
50.0
370
    -2
100
AcDbBlockReference
  2
_DOTSMALL
 10
5610.874179210407
 20
9502.374408091647
 30
0.0
 41
100.0
 42
100.0
 43
100.0
  0
INSERT
  5
18CE5
330
15728
100
AcDbEntity
  8
寸法
 62
     0
 48
50.0
370
    -2
100
AcDbBlockReference
  2
_DOTSMALL
 10
5500.874179210407
 20
9502.374408091647
 30
0.0
 41
100.0
 42
100.0
 43
100.0
 50
180.0
  0
MTEXT
  5
18CE6
330
15728
100
AcDbEntity
  8
寸法
 62
     7
 48
50.0
100
AcDbMText
 10
5555.874179210406
 20
9602.374408091648
 30
0.0
 40
120.0
 41
0.0
 71
     5
 72
     1
  1
\A1;110
  7
STYLE1
 73
     1
 44
1.0
1001
ACAD
1000
MTEXTBEGIN
1070
    73
1070
     1
1070
    44
1040
1.0
1070
    74
1070
     0
1000
MTEXTEND
  0
POINT
  5
18CE7
330
15728
100
AcDbEntity
  8
DEFPOINTS
 62
     0
 48
50.0
100
AcDbPoint
 10
5610.874179210407
 20
9066.896058145168
 30
0.0
  0
POINT
  5
18CE8
330
15728
100
AcDbEntity
  8
DEFPOINTS
 62
     0
 48
50.0
100
AcDbPoint
 10
5500.874179210407
 20
9066.896058145252
 30
0.0
  0
POINT
  5
18CE9
330
15728
100
AcDbEntity
  8
DEFPOINTS
 62
     0
 48
50.0
100
AcDbPoint
 10
5500.874179210407
 20
9502.374408091647
 30
0.0
  0
ENDBLK
  5
1574B
330
15728
100
AcDbEntity
  8
0
 48
50.0
100
AcDbBlockEnd
  0
BLOCK
  5
16B6F
330
16B6E
100
AcDbEntity
  8
0
 48
50.0
100
AcDbBlockBegin
  2
*D14
 70
     1
 10
0.0
 20
0.0
 30
0.0
  3
*D14
  1

  0
LINE
  5
19766
330
16B6E
100
AcDbEntity
  8
寸法
 62
     0
 48
50.0
370
    -2
100
AcDbLine
 10
7789.015195361786
 20
8566.896058145157
 30
0.0
 11
7699.293011683053
 21
8232.048310090105
 31
0.0
  0
LINE
  5
19767
330
16B6E
100
AcDbEntity
  8
寸法
 62
     0
 48
50.0
370
    -2
100
AcDbLine
 10
9062.015195361798
 20
8566.89605814515
 30
0.0
 11
8972.293011683067
 21
8232.048310090105
 31
0.0
  0
LINE
  5
19768
330
16B6E
100
AcDbEntity
  8
寸法
 62
     0
 48
50.0
370
    -2
100
AcDbLine
 10
7715.36996322892
 20
8292.048310090104
 30
0.0
 11
8988.369963228933
 21
8292.048310090104
 31
0.0
  0
INSERT
  5
19769
330
16B6E
100
AcDbEntity
  8
寸法
 62
     0
 48
50.0
370
    -2
100
AcDbBlockReference
  2
_DOTSMALL
 10
7715.36996322892
 20
8292.048310090104
 30
0.0
 41
100.0
 42
100.0
 43
100.0
 50
180.0
  0
INSERT
  5
1976A
330
16B6E
100
AcDbEntity
  8
寸法
 62
     0
 48
50.0
370
    -2
100
AcDbBlockReference
  2
_DOTSMALL
 10
8988.369963228933
 20
8292.048310090104
 30
0.0
 41
100.0
 42
100.0
 43
100.0
  0
MTEXT
  5
1976B
330
16B6E
100
AcDbEntity
  8
寸法
 62
     7
 48
50.0
100
AcDbMText
 10
8336.705035130464
 20
8392.060121113726
 30
0.0
 40
120.0
 41
0.0
 71
     5
 72
     1
  1
\A1;1273
  7
STYLE1
 73
     1
 44
1.0
1001
ACAD
1000
MTEXTBEGIN
1070
    73
1070
     1
1070
    44
1040
1.0
1070
    74
1070
     0
1000
MTEXTEND
  0
POINT
  5
1976C
330
16B6E
100
AcDbEntity
  8
DEFPOINTS
 62
     0
 48
50.0
100
AcDbPoint
 10
7794.374179210409
 20
8586.896058145157
 30
0.0
  0
POINT
  5
1976D
330
16B6E
100
AcDbEntity
  8
DEFPOINTS
 62
     0
 48
50.0
100
AcDbPoint
 10
9067.374179210419
 20
8586.89605814515
 30
0.0
  0
POINT
  5
1976E
330
16B6E
100
AcDbEntity
  8
DEFPOINTS
 62
     0
 48
50.0
100
AcDbPoint
 10
8988.369963228933
 20
8292.048310090104
 30
0.0
  0
ENDBLK
  5
16B79
330
16B6E
100
AcDbEntity
  8
0
 48
50.0
100
AcDbBlockEnd
  0
BLOCK
  5
16B7B
330
16B7A
100
AcDbEntity
  8
0
 48
50.0
100
AcDbBlockBegin
  2
*D15
 70
     1
 10
0.0
 20
0.0
 30
0.0
  3
*D15
  1

  0
LINE
  5
18CC6
330
16B7A
100
AcDbEntity
  8
寸法
 62
     0
 48
50.0
370
    -2
100
AcDbLine
 10
9089.015195361785
 20
8566.896058145264
 30
0.0
 11
8999.728454108108
 21
8233.673403344289
 31
0.0
  0
LINE
  5
18CC7
330
16B7A
100
AcDbEntity
  8
寸法
 62
     0
 48
50.0
370
    -2
100
AcDbLine
 10
9942.015195361797
 20
8566.896058145255
 30
0.0
 11
9852.728454108124
 21
8233.673403344289
 31
0.0
  0
LINE
  5
18CC8
330
16B7A
100
AcDbEntity
  8
寸法
 62
     0
 48
50.0
370
    -2
100
AcDbLine
 10
9015.805405653976
 20
8293.673403344289
 30
0.0
 11
9868.80540565399
 21
8293.673403344289
 31
0.0
  0
INSERT
  5
18CC9
330
16B7A
100
AcDbEntity
  8
寸法
 62
     0
 48
50.0
370
    -2
100
AcDbBlockReference
  2
_DOTSMALL
 10
9015.805405653976
 20
8293.673403344289
 30
0.0
 41
100.0
 42
100.0
 43
100.0
 50
180.0
  0
INSERT
  5
18CCA
330
16B7A
100
AcDbEntity
  8
寸法
 62
     0
 48
50.0
370
    -2
100
AcDbBlockReference
  2
_DOTSMALL
 10
9868.80540565399
 20
8293.673403344289
 30
0.0
 41
100.0
 42
100.0
 43
100.0
  0
MTEXT
  5
18CCB
330
16B7A
100
AcDbEntity
  8
寸法
 62
     7
 48
50.0
100
AcDbMText
 10
9473.721241328677
 20
8393.673403344289
 30
0.0
 40
120.0
 41
0.0
 71
     5
 72
     1
  1
\A1;853
  7
STYLE1
 73
     1
 44
1.0
1001
ACAD
1000
MTEXTBEGIN
1070
    73
1070
     1
1070
    44
1040
1.0
1070
    74
1070
     0
1000
MTEXTEND
  0
POINT
  5
18CCC
330
16B7A
100
AcDbEntity
  8
DEFPOINTS
 62
     0
 48
50.0
100
AcDbPoint
 10
9094.374179210406
 20
8586.896058145262
 30
0.0
  0
POINT
  5
18CCD
330
16B7A
100
AcDbEntity
  8
DEFPOINTS
 62
     0
 48
50.0
100
AcDbPoint
 10
9947.37417921042
 20
8586.896058145255
 30
0.0
  0
POINT
  5
18CCE
330
16B7A
100
AcDbEntity
  8
DEFPOINTS
 62
     0
 48
50.0
100
AcDbPoint
 10
9868.80540565399
 20
8293.673403344289
 30
0.0
  0
ENDBLK
  5
16B85
330
16B7A
100
AcDbEntity
  8
0
 48
50.0
100
AcDbBlockEnd
  0
BLOCK
  5
16B87
330
16B86
100
AcDbEntity
  8
0
 48
50.0
100
AcDbBlockBegin
  2
*D16
 70
     1
 10
0.0
 20
0.0
 30
0.0
  3
*D16
  1

  0
LINE
  5
18CD8
330
16B86
100
AcDbEntity
  8
寸法
 62
     0
 48
50.0
370
    -2
100
AcDbLine
 10
9967.374179210409
 20
9031.537074296629
 30
0.0
 11
10362.73190507243
 21
8925.601290930496
 31
0.0
  0
LINE
  5
18CD9
330
16B86
100
AcDbEntity
  8
寸法
 62
     0
 48
50.0
370
    -2
100
AcDbLine
 10
9967.374179210409
 20
8581.537074296633
 30
0.0
 11
10362.73190507243
 21
8475.6012909305
 31
0.0
  0
LINE
  5
18CDA
330
16B86
100
AcDbEntity
  8
寸法
 62
     0
 48
50.0
370
    -2
100
AcDbLine
 10
10302.73190507243
 20
8941.678242476362
 30
0.0
 11
10302.73190507243
 21
8491.678242476366
 31
0.0
  0
INSERT
  5
18CDB
330
16B86
100
AcDbEntity
  8
寸法
 62
     0
 48
50.0
370
    -2
100
AcDbBlockReference
  2
_DOTSMALL
 10
10302.73190507243
 20
8941.678242476362
 30
0.0
 41
100.0
 42
100.0
 43
100.0
 50
90.0
  0
INSERT
  5
18CDC
330
16B86
100
AcDbEntity
  8
寸法
 62
     0
 48
50.0
370
    -2
100
AcDbBlockReference
  2
_DOTSMALL
 10
10302.73190507243
 20
8491.678242476366
 30
0.0
 41
100.0
 42
100.0
 43
100.0
 50
270.0
  0
MTEXT
  5
18CDD
330
16B86
100
AcDbEntity
  8
寸法
 62
     7
 48
50.0
100
AcDbMText
 10
10202.73190507243
 20
8716.678242476367
 30
0.0
 40
120.0
 41
0.0
 71
     5
 72
     1
  1
\A1;450
  7
STYLE1
 11
0.0000000000000001
 21
1.0
 31
0.0
 73
     1
 44
1.0
1001
ACAD
1000
MTEXTBEGIN
1070
    73
1070
     1
1070
    44
1040
1.0
1070
    74
1070
     0
1000
MTEXTEND
  0
POINT
  5
18CDE
330
16B86
100
AcDbEntity
  8
DEFPOINTS
 62
     0
 48
50.0
100
AcDbPoint
 10
9947.374179210408
 20
9036.896058145252
 30
0.0
  0
POINT
  5
18CDF
330
16B86
100
AcDbEntity
  8
DEFPOINTS
 62
     0
 48
50.0
100
AcDbPoint
 10
9947.374179210408
 20
8586.896058145255
 30
0.0
  0
POINT
  5
18CE0
330
16B86
100
AcDbEntity
  8
DEFPOINTS
 62
     0
 48
50.0
100
AcDbPoint
 10
10302.73190507243
 20
8491.678242476366
 30
0.0
  0
ENDBLK
  5
16B91
330
16B86
100
AcDbEntity
  8
0
 48
50.0
100
AcDbBlockEnd
  0
BLOCK
  5
179C1
330
179B6
100
AcDbEntity
  8
0
 48
50.0
100
AcDbBlockBegin
  2
*D17
 70
     1
 10
0.0
 20
0.0
 30
0.0
  3
*D17
  1

  0
LINE
  5
18DD4
330
179B6
100
AcDbEntity
  8
寸法
 62
     0
 48
50.0
370
    -2
100
AcDbLine
 10
11847.02836570538
 20
4997.425311250472
 30
0.0
 11
11194.12819541136
 21
5022.076342490451
 31
0.0
  0
LINE
  5
18DD5
330
179B6
100
AcDbEntity
  8
寸法
 62
     0
 48
50.0
370
    -2
100
AcDbLine
 10
11852.34819985734
 20
5138.324918647355
 30
0.0
 11
11199.44802956315
 21
5162.975949887339
 31
0.0
  0
LINE
  5
18DD6
330
179B6
100
AcDbEntity
  8
寸法
 62
     0
 48
50.0
370
    -2
100
AcDbLine
 10
11254.08547515472
 20
5019.812583276922
 30
0.0
 11
11259.40530930651
 21
5160.712190673812
 31
0.0
  0
LINE
  5
18DD7
330
179B6
100
AcDbEntity
  8
寸法
 62
     0
 48
50.0
370
    -2
100
AcDbLine
 10
11259.40530930651
 20
5160.712190673812
 30
0.0
 11
11272.98786458771
 21
5520.455869134644
 31
0.0
  0
INSERT
  5
18DD8
330
179B6
100
AcDbEntity
  8
寸法
 62
     0
 48
50.0
370
    -2
100
AcDbBlockReference
  2
_DOTSMALL
 10
11254.08547515472
 20
5019.812583276922
 30
0.0
 41
100.0
 42
100.0
 43
100.0
 50
267.8377559871574
  0
INSERT
  5
18DD9
330
179B6
100
AcDbEntity
  8
寸法
 62
     0
 48
50.0
370
    -2
100
AcDbBlockReference
  2
_DOTSMALL
 10
11259.40530930651
 20
5160.712190673812
 30
0.0
 41
100.0
 42
100.0
 43
100.0
 50
87.83775598715742
  0
MTEXT
  5
18DDA
330
179B6
100
AcDbEntity
  8
寸法
 62
     7
 48
50.0
100
AcDbMText
 10
11168.15425338613
 20
5394.321361713251
 30
0.0
 40
120.0
 41
0.0
 71
     5
 72
     1
  1
\A1;141
  7
STYLE1
 11
0.0377293202254805
 21
0.9992879957226159
 31
0.0
 73
     1
 44
1.0
1001
ACAD
1000
MTEXTBEGIN
1070
    73
1070
     1
1070
    44
1040
1.0
1070
    74
1070
     0
1000
MTEXTEND
  0
POINT
  5
18DDB
330
179B6
100
AcDbEntity
  8
DEFPOINTS
 62
     0
 48
50.0
100
AcDbPoint
 10
11867.01412561984
 20
4996.670724845962
 30
0.0
  0
POINT
  5
18DDC
330
179B6
100
AcDbEntity
  8
DEFPOINTS
 62
     0
 48
50.0
100
AcDbPoint
 10
11872.33395977179
 20
5137.570332242845
 30
0.0
  0
POINT
  5
18DDD
330
179B6
100
AcDbEntity
  8
DEFPOINTS
 62
     0
 48
50.0
100
AcDbPoint
 10
11259.40530930651
 20
5160.712190673812
 30
0.0
  0
ENDBLK
  5
179C2
330
179B6
100
AcDbEntity
  8
0
 48
50.0
100
AcDbBlockEnd
  0
BLOCK
  5
179CE
330
179C3
100
AcDbEntity
  8
0
 48
50.0
100
AcDbBlockBegin
  2
*D18
 70
     1
 10
0.0
 20
0.0
 30
0.0
  3
*D18
  1

  0
LINE
  5
18DCA
330
179C3
100
AcDbEntity
  8
寸法
 62
     0
 48
50.0
370
    -2
100
AcDbLine
 10
13281.67156101788
 20
5105.700379388649
 30
0.0
 11
13281.67156101788
 21
5597.547153356299
 31
0.0
  0
LINE
  5
18DCB
330
179C3
100
AcDbEntity
  8
寸法
 62
     0
 48
50.0
370
    -2
100
AcDbLine
 10
13361.67156101788
 20
5103.889699776996
 30
0.0
 11
13361.67156101788
 21
5597.547153356299
 31
0.0
  0
LINE
  5
18DCC
330
179C3
100
AcDbEntity
  8
寸法
 62
     0
 48
50.0
370
    -2
100
AcDbLine
 10
13281.67156101788
 20
5537.5471533563
 30
0.0
 11
13361.67156101788
 21
5537.5471533563
 31
0.0
  0
LINE
  5
18DCD
330
179C3
100
AcDbEntity
  8
寸法
 62
     0
 48
50.0
370
    -2
100
AcDbLine
 10
13361.67156101788
 20
5537.5471533563
 30
0.0
 11
13673.76604920686
 21
5537.5471533563
 31
0.0
  0
INSERT
  5
18DCE
330
179C3
100
AcDbEntity
  8
寸法
 62
     0
 48
50.0
370
    -2
100
AcDbBlockReference
  2
_DOTSMALL
 10
13281.67156101788
 20
5537.5471533563
 30
0.0
 41
100.0
 42
100.0
 43
100.0
 50
180.0
  0
INSERT
  5
18DCF
330
179C3
100
AcDbEntity
  8
寸法
 62
     0
 48
50.0
370
    -2
100
AcDbBlockReference
  2
_DOTSMALL
 10
13361.67156101788
 20
5537.5471533563
 30
0.0
 41
100.0
 42
100.0
 43
100.0
  0
MTEXT
  5
18DD0
330
179C3
100
AcDbEntity
  8
寸法
 62
     7
 48
50.0
100
AcDbMText
 10
13567.71880511237
 20
5637.547153356299
 30
0.0
 40
120.0
 41
0.0
 71
     5
 72
     1
  1
\A1;80
  7
STYLE1
 73
     1
 44
1.0
1001
ACAD
1000
MTEXTBEGIN
1070
    73
1070
     1
1070
    44
1040
1.0
1070
    74
1070
     0
1000
MTEXTEND
  0
POINT
  5
18DD1
330
179C3
100
AcDbEntity
  8
DEFPOINTS
 62
     0
 48
50.0
100
AcDbPoint
 10
13281.67156101788
 20
5085.700379388649
 30
0.0
  0
POINT
  5
18DD2
330
179C3
100
AcDbEntity
  8
DEFPOINTS
 62
     0
 48
50.0
100
AcDbPoint
 10
13361.67156101788
 20
5083.889699776995
 30
0.0
  0
POINT
  5
18DD3
330
179C3
100
AcDbEntity
  8
DEFPOINTS
 62
     0
 48
50.0
100
AcDbPoint
 10
13361.67156101788
 20
5537.5471533563
 30
0.0
  0
ENDBLK
  5
179CF
330
179C3
100
AcDbEntity
  8
0
 48
50.0
100
AcDbBlockEnd
  0
BLOCK
  5
179DA
330
179D0
100
AcDbEntity
  8
0
 48
50.0
100
AcDbBlockBegin
  2
*D19
 70
     1
 10
0.0
 20
0.0
 30
0.0
  3
*D19
  1

  0
LINE
  5
18DC1
330
179D0
100
AcDbEntity
  8
寸法
 62
     0
 48
50.0
370
    -2
100
AcDbLine
 10
13361.67156101788
 20
5103.889699776996
 30
0.0
 11
13361.67156101788
 21
5805.721474548263
 31
0.0
  0
LINE
  5
18DC2
330
179D0
100
AcDbEntity
  8
寸法
 62
     0
 48
50.0
370
    -2
100
AcDbLine
 10
11851.67156101788
 20
5158.889699776999
 30
0.0
 11
11851.67156101788
 21
5805.721474548263
 31
0.0
  0
LINE
  5
18DC3
330
179D0
100
AcDbEntity
  8
寸法
 62
     0
 48
50.0
370
    -2
100
AcDbLine
 10
13361.67156101788
 20
5745.721474548264
 30
0.0
 11
11851.67156101788
 21
5745.721474548264
 31
0.0
  0
INSERT
  5
18DC4
330
179D0
100
AcDbEntity
  8
寸法
 62
     0
 48
50.0
370
    -2
100
AcDbBlockReference
  2
_DOTSMALL
 10
13361.67156101788
 20
5745.721474548264
 30
0.0
 41
100.0
 42
100.0
 43
100.0
  0
INSERT
  5
18DC5
330
179D0
100
AcDbEntity
  8
寸法
 62
     0
 48
50.0
370
    -2
100
AcDbBlockReference
  2
_DOTSMALL
 10
11851.67156101788
 20
5745.721474548264
 30
0.0
 41
100.0
 42
100.0
 43
100.0
 50
180.0
  0
MTEXT
  5
18DC6
330
179D0
100
AcDbEntity
  8
寸法
 62
     7
 48
50.0
100
AcDbMText
 10
12578.79639071971
 20
5845.721474548263
 30
0.0
 40
120.0
 41
0.0
 71
     5
 72
     1
  1
\A1;1510
  7
STYLE1
 73
     1
 44
1.0
1001
ACAD
1000
MTEXTBEGIN
1070
    73
1070
     1
1070
    44
1040
1.0
1070
    74
1070
     0
1000
MTEXTEND
  0
POINT
  5
18DC7
330
179D0
100
AcDbEntity
  8
DEFPOINTS
 62
     0
 48
50.0
100
AcDbPoint
 10
13361.67156101788
 20
5083.889699776995
 30
0.0
  0
POINT
  5
18DC8
330
179D0
100
AcDbEntity
  8
DEFPOINTS
 62
     0
 48
50.0
100
AcDbPoint
 10
11851.67156101788
 20
5138.889699776999
 30
0.0
  0
POINT
  5
18DC9
330
179D0
100
AcDbEntity
  8
DEFPOINTS
 62
     0
 48
50.0
100
AcDbPoint
 10
11851.67156101788
 20
5745.721474548264
 30
0.0
  0
ENDBLK
  5
179DB
330
179D0
100
AcDbEntity
  8
0
 48
50.0
100
AcDbBlockEnd
  0
BLOCK
  5
179E8
330
179DC
100
AcDbEntity
  8
0
 48
50.0
100
AcDbBlockBegin
  2
*D20
 70
     1
 10
0.0
 20
0.0
 30
0.0
  3
*D20
  1

  0
LINE
  5
18DB6
330
179DC
100
AcDbEntity
  8
寸法
 62
     0
 48
50.0
370
    -2
100
AcDbLine
 10
11911.67156101788
 20
5154.891317899972
 30
0.0
 11
11911.67156101788
 21
5597.547153356299
 31
0.0
  0
LINE
  5
18DB7
330
179DC
100
AcDbEntity
  8
寸法
 62
     0
 48
50.0
370
    -2
100
AcDbLine
 10
11851.67156101788
 20
5158.889699776999
 30
0.0
 11
11851.67156101788
 21
5597.547153356299
 31
0.0
  0
LINE
  5
18DB8
330
179DC
100
AcDbEntity
  8
寸法
 62
     0
 48
50.0
370
    -2
100
AcDbLine
 10
11911.67156101788
 20
5537.5471533563
 30
0.0
 11
12011.67156101788
 21
5537.5471533563
 31
0.0
  0
LINE
  5
18DB9
330
179DC
100
AcDbEntity
  8
寸法
 62
     0
 48
50.0
370
    -2
100
AcDbLine
 10
11851.67156101788
 20
5537.5471533563
 30
0.0
 11
11432.3959704667
 21
5537.5471533563
 31
0.0
  0
LINE
  5
18DBA
330
179DC
100
AcDbEntity
  8
寸法
 62
     0
 48
50.0
370
    -2
100
AcDbLine
 10
11911.67156101788
 20
5537.5471533563
 30
0.0
 11
11851.67156101788
 21
5537.5471533563
 31
0.0
  0
INSERT
  5
18DBB
330
179DC
100
AcDbEntity
  8
寸法
 62
     0
 48
50.0
370
    -2
100
AcDbBlockReference
  2
_DOTSMALL
 10
11911.67156101788
 20
5537.5471533563
 30
0.0
 41
100.0
 42
100.0
 43
100.0
 50
180.0
  0
INSERT
  5
18DBC
330
179DC
100
AcDbEntity
  8
寸法
 62
     0
 48
50.0
370
    -2
100
AcDbBlockReference
  2
_DOTSMALL
 10
11851.67156101788
 20
5537.5471533563
 30
0.0
 41
100.0
 42
100.0
 43
100.0
  0
MTEXT
  5
18DBD
330
179DC
100
AcDbEntity
  8
寸法
 62
     7
 48
50.0
100
AcDbMText
 10
11542.03376574229
 20
5637.547153356299
 30
0.0
 40
120.0
 41
0.0
 71
     5
 72
     1
  1
\A1;60
  7
STYLE1
 73
     1
 44
1.0
1001
ACAD
1000
MTEXTBEGIN
1070
    73
1070
     1
1070
    44
1040
1.0
1070
    74
1070
     0
1000
MTEXTEND
  0
POINT
  5
18DBE
330
179DC
100
AcDbEntity
  8
DEFPOINTS
 62
     0
 48
50.0
100
AcDbPoint
 10
11911.67156101788
 20
5134.891317899972
 30
0.0
  0
POINT
  5
18DBF
330
179DC
100
AcDbEntity
  8
DEFPOINTS
 62
     0
 48
50.0
100
AcDbPoint
 10
11851.67156101788
 20
5138.889699776999
 30
0.0
  0
POINT
  5
18DC0
330
179DC
100
AcDbEntity
  8
DEFPOINTS
 62
     0
 48
50.0
100
AcDbPoint
 10
11851.67156101788
 20
5537.5471533563
 30
0.0
  0
ENDBLK
  5
179E9
330
179DC
100
AcDbEntity
  8
0
 48
50.0
100
AcDbBlockEnd
  0
BLOCK
  5
179F4
330
179EA
100
AcDbEntity
  8
0
 48
50.0
100
AcDbBlockBegin
  2
*D21
 70
     1
 10
0.0
 20
0.0
 30
0.0
  3
*D21
  1

  0
LINE
  5
18DAD
330
179EA
100
AcDbEntity
  8
寸法
 62
     0
 48
50.0
370
    -2
100
AcDbLine
 10
13281.67156101788
 20
5105.700379388649
 30
0.0
 11
13281.67156101788
 21
5597.547153356299
 31
0.0
  0
LINE
  5
18DAE
330
179EA
100
AcDbEntity
  8
寸法
 62
     0
 48
50.0
370
    -2
100
AcDbLine
 10
11911.67156101788
 20
5154.891317899972
 30
0.0
 11
11911.67156101788
 21
5597.547153356299
 31
0.0
  0
LINE
  5
18DAF
330
179EA
100
AcDbEntity
  8
寸法
 62
     0
 48
50.0
370
    -2
100
AcDbLine
 10
13281.67156101788
 20
5537.5471533563
 30
0.0
 11
11911.67156101788
 21
5537.5471533563
 31
0.0
  0
INSERT
  5
18DB0
330
179EA
100
AcDbEntity
  8
寸法
 62
     0
 48
50.0
370
    -2
100
AcDbBlockReference
  2
_DOTSMALL
 10
13281.67156101788
 20
5537.5471533563
 30
0.0
 41
100.0
 42
100.0
 43
100.0
  0
INSERT
  5
18DB1
330
179EA
100
AcDbEntity
  8
寸法
 62
     0
 48
50.0
370
    -2
100
AcDbBlockReference
  2
_DOTSMALL
 10
11911.67156101788
 20
5537.5471533563
 30
0.0
 41
100.0
 42
100.0
 43
100.0
 50
180.0
  0
MTEXT
  5
18DB2
330
179EA
100
AcDbEntity
  8
寸法
 62
     7
 48
50.0
100
AcDbMText
 10
12561.49059390843
 20
5637.547153356299
 30
0.0
 40
120.0
 41
0.0
 71
     5
 72
     1
  1
\A1;柱外寸法1370
  7
STYLE1
 73
     1
 44
1.0
1001
ACAD
1000
MTEXTBEGIN
1070
    73
1070
     1
1070
    44
1040
1.0
1070
    74
1070
     0
1000
MTEXTEND
  0
POINT
  5
18DB3
330
179EA
100
AcDbEntity
  8
DEFPOINTS
 62
     0
 48
50.0
100
AcDbPoint
 10
13281.67156101788
 20
5085.700379388649
 30
0.0
  0
POINT
  5
18DB4
330
179EA
100
AcDbEntity
  8
DEFPOINTS
 62
     0
 48
50.0
100
AcDbPoint
 10
11911.67156101788
 20
5134.891317899972
 30
0.0
  0
POINT
  5
18DB5
330
179EA
100
AcDbEntity
  8
DEFPOINTS
 62
     0
 48
50.0
100
AcDbPoint
 10
11911.67156101788
 20
5537.5471533563
 30
0.0
  0
ENDBLK
  5
179F5
330
179EA
100
AcDbEntity
  8
0
 48
50.0
100
AcDbBlockEnd
  0
BLOCK
  5
17A00
330
179F6
100
AcDbEntity
  8
0
 48
50.0
100
AcDbBlockBegin
  2
*D22
 70
     1
 10
0.0
 20
0.0
 30
0.0
  3
*D22
  1

  0
LINE
  5
18DA4
330
179F6
100
AcDbEntity
  8
寸法
 62
     0
 48
50.0
370
    -2
100
AcDbLine
 10
13301.67156101788
 20
3063.889699776995
 30
0.0
 11
13903.58523225698
 21
3063.889699776995
 31
0.0
  0
LINE
  5
18DA5
330
179F6
100
AcDbEntity
  8
寸法
 62
     0
 48
50.0
370
    -2
100
AcDbLine
 10
13381.67156101788
 20
5083.889699776995
 30
0.0
 11
13903.58523225699
 21
5083.889699776995
 31
0.0
  0
LINE
  5
18DA6
330
179F6
100
AcDbEntity
  8
寸法
 62
     0
 48
50.0
370
    -2
100
AcDbLine
 10
13843.58523225698
 20
3063.889699776995
 30
0.0
 11
13843.58523225699
 21
5083.889699776995
 31
0.0
  0
INSERT
  5
18DA7
330
179F6
100
AcDbEntity
  8
寸法
 62
     0
 48
50.0
370
    -2
100
AcDbBlockReference
  2
_DOTSMALL
 10
13843.58523225698
 20
3063.889699776995
 30
0.0
 41
100.0
 42
100.0
 43
100.0
 50
270.0
  0
INSERT
  5
18DA8
330
179F6
100
AcDbEntity
  8
寸法
 62
     0
 48
50.0
370
    -2
100
AcDbBlockReference
  2
_DOTSMALL
 10
13843.58523225699
 20
5083.889699776995
 30
0.0
 41
100.0
 42
100.0
 43
100.0
 50
90.0
  0
MTEXT
  5
18DA9
330
179F6
100
AcDbEntity
  8
寸法
 62
     7
 48
50.0
100
AcDbMText
 10
13743.57342123336
 20
4067.581391109387
 30
0.0
 40
120.0
 41
0.0
 71
     5
 72
     1
  1
\A1;2020
  7
STYLE1
 11
0.0000000000000001
 21
1.0
 31
0.0
 73
     1
 44
1.0
1001
ACAD
1000
MTEXTBEGIN
1070
    73
1070
     1
1070
    44
1040
1.0
1070
    74
1070
     0
1000
MTEXTEND
  0
POINT
  5
18DAA
330
179F6
100
AcDbEntity
  8
DEFPOINTS
 62
     0
 48
50.0
100
AcDbPoint
 10
13281.67156101788
 20
3063.889699776995
 30
0.0
  0
POINT
  5
18DAB
330
179F6
100
AcDbEntity
  8
DEFPOINTS
 62
     0
 48
50.0
100
AcDbPoint
 10
13361.67156101788
 20
5083.889699776995
 30
0.0
  0
POINT
  5
18DAC
330
179F6
100
AcDbEntity
  8
DEFPOINTS
 62
     0
 48
50.0
100
AcDbPoint
 10
13843.58523225699
 20
5083.889699776995
 30
0.0
  0
ENDBLK
  5
17A01
330
179F6
100
AcDbEntity
  8
0
 48
50.0
100
AcDbBlockEnd
  0
BLOCK
  5
17A0E
330
17A02
100
AcDbEntity
  8
0
 48
50.0
100
AcDbBlockBegin
  2
*D23
 70
     1
 10
0.0
 20
0.0
 30
0.0
  3
*D23
  1

  0
LINE
  5
18D99
330
17A02
100
AcDbEntity
  8
寸法
 62
     0
 48
50.0
370
    -2
100
AcDbLine
 10
11891.67156101788
 20
3113.889699776995
 30
0.0
 11
11007.92143183462
 21
3113.889699776996
 31
0.0
  0
LINE
  5
18D9A
330
17A02
100
AcDbEntity
  8
寸法
 62
     0
 48
50.0
370
    -2
100
AcDbLine
 10
11836.67156101788
 20
3063.889699776995
 30
0.0
 11
11007.92143183462
 21
3063.889699776995
 31
0.0
  0
LINE
  5
18D9B
330
17A02
100
AcDbEntity
  8
寸法
 62
     0
 48
50.0
370
    -2
100
AcDbLine
 10
11067.92143183462
 20
3113.889699776996
 30
0.0
 11
11067.92143183462
 21
3213.889699776995
 31
0.0
  0
LINE
  5
18D9C
330
17A02
100
AcDbEntity
  8
寸法
 62
     0
 48
50.0
370
    -2
100
AcDbLine
 10
11067.92143183462
 20
3063.889699776995
 30
0.0
 11
11067.92143183462
 21
2651.795211588015
 31
0.0
  0
LINE
  5
18D9D
330
17A02
100
AcDbEntity
  8
寸法
 62
     0
 48
50.0
370
    -2
100
AcDbLine
 10
11067.92143183462
 20
3113.889699776996
 30
0.0
 11
11067.92143183462
 21
3063.889699776995
 31
0.0
  0
INSERT
  5
18D9E
330
17A02
100
AcDbEntity
  8
寸法
 62
     0
 48
50.0
370
    -2
100
AcDbBlockReference
  2
_DOTSMALL
 10
11067.92143183462
 20
3113.889699776996
 30
0.0
 41
100.0
 42
100.0
 43
100.0
 50
270.0
  0
INSERT
  5
18D9F
330
17A02
100
AcDbEntity
  8
寸法
 62
     0
 48
50.0
370
    -2
100
AcDbBlockReference
  2
_DOTSMALL
 10
11067.92143183462
 20
3063.889699776995
 30
0.0
 41
100.0
 42
100.0
 43
100.0
 50
90.0
  0
MTEXT
  5
18DA0
330
17A02
100
AcDbEntity
  8
寸法
 62
     7
 48
50.0
100
AcDbMText
 10
10967.92143183462
 20
2757.842455682505
 30
0.0
 40
120.0
 41
0.0
 71
     5
 72
     1
  1
\A1;50
  7
STYLE1
 11
0.0000000000000001
 21
1.0
 31
0.0
 73
     1
 44
1.0
1001
ACAD
1000
MTEXTBEGIN
1070
    73
1070
     1
1070
    44
1040
1.0
1070
    74
1070
     0
1000
MTEXTEND
  0
POINT
  5
18DA1
330
17A02
100
AcDbEntity
  8
DEFPOINTS
 62
     0
 48
50.0
100
AcDbPoint
 10
11911.67156101788
 20
3113.889699776995
 30
0.0
  0
POINT
  5
18DA2
330
17A02
100
AcDbEntity
  8
DEFPOINTS
 62
     0
 48
50.0
100
AcDbPoint
 10
11856.67156101788
 20
3063.889699776995
 30
0.0
  0
POINT
  5
18DA3
330
17A02
100
AcDbEntity
  8
DEFPOINTS
 62
     0
 48
50.0
100
AcDbPoint
 10
11067.92143183462
 20
3063.889699776995
 30
0.0
  0
ENDBLK
  5
17A0F
330
17A02
100
AcDbEntity
  8
0
 48
50.0
100
AcDbBlockEnd
  0
BLOCK
  5
17A1A
330
17A10
100
AcDbEntity
  8
0
 48
50.0
100
AcDbBlockBegin
  2
*D24
 70
     1
 10
0.0
 20
0.0
 30
0.0
  3
*D24
  1

  0
LINE
  5
18D90
330
17A10
100
AcDbEntity
  8
寸法
 62
     0
 48
50.0
370
    -2
100
AcDbLine
 10
11891.67156101788
 20
3063.889699776995
 30
0.0
 11
10707.92143183462
 21
3063.889699776995
 31
0.0
  0
LINE
  5
18D91
330
17A10
100
AcDbEntity
  8
寸法
 62
     0
 48
50.0
370
    -2
100
AcDbLine
 10
11831.67156101788
 20
5138.889699776999
 30
0.0
 11
10707.92143183462
 21
5138.889699776999
 31
0.0
  0
LINE
  5
18D92
330
17A10
100
AcDbEntity
  8
寸法
 62
     0
 48
50.0
370
    -2
100
AcDbLine
 10
10767.92143183462
 20
3063.889699776995
 30
0.0
 11
10767.92143183462
 21
5138.889699776999
 31
0.0
  0
INSERT
  5
18D93
330
17A10
100
AcDbEntity
  8
寸法
 62
     0
 48
50.0
370
    -2
100
AcDbBlockReference
  2
_DOTSMALL
 10
10767.92143183462
 20
3063.889699776995
 30
0.0
 41
100.0
 42
100.0
 43
100.0
 50
270.0
  0
INSERT
  5
18D94
330
17A10
100
AcDbEntity
  8
寸法
 62
     0
 48
50.0
370
    -2
100
AcDbBlockReference
  2
_DOTSMALL
 10
10767.92143183462
 20
5138.889699776999
 30
0.0
 41
100.0
 42
100.0
 43
100.0
 50
90.0
  0
MTEXT
  5
18D95
330
17A10
100
AcDbEntity
  8
寸法
 62
     7
 48
50.0
100
AcDbMText
 10
10667.909620811
 20
4101.389699776999
 30
0.0
 40
120.0
 41
0.0
 71
     5
 72
     1
  1
\A1;2075
  7
STYLE1
 11
0.0000000000000001
 21
1.0
 31
0.0
 73
     1
 44
1.0
1001
ACAD
1000
MTEXTBEGIN
1070
    73
1070
     1
1070
    44
1040
1.0
1070
    74
1070
     0
1000
MTEXTEND
  0
POINT
  5
18D96
330
17A10
100
AcDbEntity
  8
DEFPOINTS
 62
     0
 48
50.0
100
AcDbPoint
 10
11911.67156101788
 20
3063.889699776995
 30
0.0
  0
POINT
  5
18D97
330
17A10
100
AcDbEntity
  8
DEFPOINTS
 62
     0
 48
50.0
100
AcDbPoint
 10
11851.67156101788
 20
5138.889699776999
 30
0.0
  0
POINT
  5
18D98
330
17A10
100
AcDbEntity
  8
DEFPOINTS
 62
     0
 48
50.0
100
AcDbPoint
 10
10767.92143183462
 20
5138.889699776999
 30
0.0
  0
ENDBLK
  5
17A1B
330
17A10
100
AcDbEntity
  8
0
 48
50.0
100
AcDbBlockEnd
  0
BLOCK
  5
17A26
330
17A1C
100
AcDbEntity
  8
0
 48
50.0
100
AcDbBlockBegin
  2
*D25
 70
     1
 10
0.0
 20
0.0
 30
0.0
  3
*D25
  1

  0
LINE
  5
18D87
330
17A1C
100
AcDbEntity
  8
寸法
 62
     0
 48
50.0
370
    -2
100
AcDbLine
 10
11891.67156101788
 20
4903.889699776995
 30
0.0
 11
11007.92143183462
 21
4903.889699776995
 31
0.0
  0
LINE
  5
18D88
330
17A1C
100
AcDbEntity
  8
寸法
 62
     0
 48
50.0
370
    -2
100
AcDbLine
 10
11891.67156101788
 20
3113.889699776995
 30
0.0
 11
11007.92143183462
 21
3113.889699776996
 31
0.0
  0
LINE
  5
18D89
330
17A1C
100
AcDbEntity
  8
寸法
 62
     0
 48
50.0
370
    -2
100
AcDbLine
 10
11067.92143183462
 20
4903.889699776995
 30
0.0
 11
11067.92143183462
 21
3113.889699776996
 31
0.0
  0
INSERT
  5
18D8A
330
17A1C
100
AcDbEntity
  8
寸法
 62
     0
 48
50.0
370
    -2
100
AcDbBlockReference
  2
_DOTSMALL
 10
11067.92143183462
 20
4903.889699776995
 30
0.0
 41
100.0
 42
100.0
 43
100.0
 50
90.0
  0
INSERT
  5
18D8B
330
17A1C
100
AcDbEntity
  8
寸法
 62
     0
 48
50.0
370
    -2
100
AcDbBlockReference
  2
_DOTSMALL
 10
11067.92143183462
 20
3113.889699776996
 30
0.0
 41
100.0
 42
100.0
 43
100.0
 50
270.0
  0
MTEXT
  5
18D8C
330
17A1C
100
AcDbEntity
  8
寸法
 62
     7
 48
50.0
100
AcDbMText
 10
10967.92143183462
 20
4008.889699776998
 30
0.0
 40
120.0
 41
0.0
 71
     5
 72
     1
  1
\A1;1790
  7
STYLE1
 11
0.0000000000000001
 21
1.0
 31
0.0
 73
     1
 44
1.0
1001
ACAD
1000
MTEXTBEGIN
1070
    73
1070
     1
1070
    44
1040
1.0
1070
    74
1070
     0
1000
MTEXTEND
  0
POINT
  5
18D8D
330
17A1C
100
AcDbEntity
  8
DEFPOINTS
 62
     0
 48
50.0
100
AcDbPoint
 10
11911.67156101788
 20
4903.889699776995
 30
0.0
  0
POINT
  5
18D8E
330
17A1C
100
AcDbEntity
  8
DEFPOINTS
 62
     0
 48
50.0
100
AcDbPoint
 10
11911.67156101788
 20
3113.889699776995
 30
0.0
  0
POINT
  5
18D8F
330
17A1C
100
AcDbEntity
  8
DEFPOINTS
 62
     0
 48
50.0
100
AcDbPoint
 10
11067.92143183462
 20
3113.889699776996
 30
0.0
  0
ENDBLK
  5
17A27
330
17A1C
100
AcDbEntity
  8
0
 48
50.0
100
AcDbBlockEnd
  0
BLOCK
  5
17A32
330
17A28
100
AcDbEntity
  8
0
 48
50.0
100
AcDbBlockBegin
  2
*D26
 70
     1
 10
0.0
 20
0.0
 30
0.0
  3
*D26
  1

  0
LINE
  5
18D7E
330
17A28
100
AcDbEntity
  8
寸法
 62
     0
 48
50.0
370
    -2
100
AcDbLine
 10
11891.67156101788
 20
4895.889699776995
 30
0.0
 11
11306.76291962063
 21
4895.889699776995
 31
0.0
  0
LINE
  5
18D7F
330
17A28
100
AcDbEntity
  8
寸法
 62
     0
 48
50.0
370
    -2
100
AcDbLine
 10
11891.67156101788
 20
3125.889699776995
 30
0.0
 11
11306.76291962063
 21
3125.889699776995
 31
0.0
  0
LINE
  5
18D80
330
17A28
100
AcDbEntity
  8
寸法
 62
     0
 48
50.0
370
    -2
100
AcDbLine
 10
11366.76291962063
 20
4895.889699776995
 30
0.0
 11
11366.76291962063
 21
3125.889699776995
 31
0.0
  0
INSERT
  5
18D81
330
17A28
100
AcDbEntity
  8
寸法
 62
     0
 48
50.0
370
    -2
100
AcDbBlockReference
  2
_DOTSMALL
 10
11366.76291962063
 20
4895.889699776995
 30
0.0
 41
100.0
 42
100.0
 43
100.0
 50
90.0
  0
INSERT
  5
18D82
330
17A28
100
AcDbEntity
  8
寸法
 62
     0
 48
50.0
370
    -2
100
AcDbBlockReference
  2
_DOTSMALL
 10
11366.76291962063
 20
3125.889699776995
 30
0.0
 41
100.0
 42
100.0
 43
100.0
 50
270.0
  0
MTEXT
  5
18D83
330
17A28
100
AcDbEntity
  8
寸法
 62
     7
 48
50.0
100
AcDbMText
 10
11266.76291962063
 20
4010.889699776997
 30
0.0
 40
120.0
 41
0.0
 71
     5
 72
     1
  1
\A1;有効開口部高サ1770
  7
STYLE1
 11
0.0000000000000001
 21
1.0
 31
0.0
 73
     1
 44
1.0
1001
ACAD
1000
MTEXTBEGIN
1070
    73
1070
     1
1070
    44
1040
1.0
1070
    74
1070
     0
1000
MTEXTEND
  0
POINT
  5
18D84
330
17A28
100
AcDbEntity
  8
DEFPOINTS
 62
     0
 48
50.0
100
AcDbPoint
 10
11911.67156101788
 20
4895.889699776995
 30
0.0
  0
POINT
  5
18D85
330
17A28
100
AcDbEntity
  8
DEFPOINTS
 62
     0
 48
50.0
100
AcDbPoint
 10
11911.67156101788
 20
3125.889699776995
 30
0.0
  0
POINT
  5
18D86
330
17A28
100
AcDbEntity
  8
DEFPOINTS
 62
     0
 48
50.0
100
AcDbPoint
 10
11366.76291962063
 20
3125.889699776995
 30
0.0
  0
ENDBLK
  5
17A33
330
17A28
100
AcDbEntity
  8
0
 48
50.0
100
AcDbBlockEnd
  0
BLOCK
  5
187B8
330
187AE
100
AcDbEntity
  8
0
 48
50.0
100
AcDbBlockBegin
  2
*D27
 70
     1
 10
0.0
 20
0.0
 30
0.0
  3
*D27
  1

  0
LINE
  5
18CBD
330
187AE
100
AcDbEntity
  8
寸法
 62
     0
 48
50.0
370
    -2
100
AcDbLine
 10
4683.8741792104
 20
7676.896058145174
 30
0.0
 11
4683.8741792104
 21
7111.08871754542
 31
0.0
  0
LINE
  5
18CBE
330
187AE
100
AcDbEntity
  8
寸法
 62
     0
 48
50.0
370
    -2
100
AcDbLine
 10
3405.8741792104
 20
7676.896058145112
 30
0.0
 11
3405.8741792104
 21
7111.08871754542
 31
0.0
  0
LINE
  5
18CBF
330
187AE
100
AcDbEntity
  8
寸法
 62
     0
 48
50.0
370
    -2
100
AcDbLine
 10
4683.8741792104
 20
7171.088717545419
 30
0.0
 11
3405.8741792104
 21
7171.088717545419
 31
0.0
  0
INSERT
  5
18CC0
330
187AE
100
AcDbEntity
  8
寸法
 62
     0
 48
50.0
370
    -2
100
AcDbBlockReference
  2
_DOTSMALL
 10
4683.8741792104
 20
7171.088717545419
 30
0.0
 41
100.0
 42
100.0
 43
100.0
  0
INSERT
  5
18CC1
330
187AE
100
AcDbEntity
  8
寸法
 62
     0
 48
50.0
370
    -2
100
AcDbBlockReference
  2
_DOTSMALL
 10
3405.8741792104
 20
7171.088717545419
 30
0.0
 41
100.0
 42
100.0
 43
100.0
 50
180.0
  0
MTEXT
  5
18CC2
330
187AE
100
AcDbEntity
  8
寸法
 62
     7
 48
50.0
100
AcDbMText
 10
4039.465962044407
 20
7371.100528569041
 30
0.0
 40
120.0
 41
0.0
 71
     5
 72
     1
  1
\A1;有効開口部間口\P1278
  7
STYLE1
 73
     1
 44
1.0
1001
ACAD
1000
MTEXTBEGIN
1070
    73
1070
     1
1070
    44
1040
1.0
1070
    74
1070
     0
1000
MTEXTEND
  0
POINT
  5
18CC3
330
187AE
100
AcDbEntity
  8
DEFPOINTS
 62
     0
 48
50.0
100
AcDbPoint
 10
4683.8741792104
 20
7696.896058145174
 30
0.0
  0
POINT
  5
18CC4
330
187AE
100
AcDbEntity
  8
DEFPOINTS
 62
     0
 48
50.0
100
AcDbPoint
 10
3405.8741792104
 20
7696.896058145113
 30
0.0
  0
POINT
  5
18CC5
330
187AE
100
AcDbEntity
  8
DEFPOINTS
 62
     0
 48
50.0
100
AcDbPoint
 10
3405.8741792104
 20
7171.088717545419
 30
0.0
  0
ENDBLK
  5
187B9
330
187AE
100
AcDbEntity
  8
0
 48
50.0
100
AcDbBlockEnd
  0
BLOCK
  5
18902
330
188F8
100
AcDbEntity
  8
0
 48
50.0
100
AcDbBlockBegin
  2
*D28
 70
     1
 10
0.0
 20
0.0
 30
0.0
  3
*D28
  1

  0
LINE
  5
18CB4
330
188F8
100
AcDbEntity
  8
寸法
 62
     0
 48
50.0
370
    -2
100
AcDbLine
 10
6893.874179210399
 20
7676.896058145176
 30
0.0
 11
6893.874179210399
 21
7111.088717545422
 31
0.0
  0
LINE
  5
18CB5
330
188F8
100
AcDbEntity
  8
寸法
 62
     0
 48
50.0
370
    -2
100
AcDbLine
 10
5615.8741792104
 20
7676.896058145115
 30
0.0
 11
5615.8741792104
 21
7111.088717545422
 31
0.0
  0
LINE
  5
18CB6
330
188F8
100
AcDbEntity
  8
寸法
 62
     0
 48
50.0
370
    -2
100
AcDbLine
 10
6893.874179210399
 20
7171.088717545422
 30
0.0
 11
5615.8741792104
 21
7171.088717545422
 31
0.0
  0
INSERT
  5
18CB7
330
188F8
100
AcDbEntity
  8
寸法
 62
     0
 48
50.0
370
    -2
100
AcDbBlockReference
  2
_DOTSMALL
 10
6893.874179210399
 20
7171.088717545422
 30
0.0
 41
100.0
 42
100.0
 43
100.0
  0
INSERT
  5
18CB8
330
188F8
100
AcDbEntity
  8
寸法
 62
     0
 48
50.0
370
    -2
100
AcDbBlockReference
  2
_DOTSMALL
 10
5615.8741792104
 20
7171.088717545422
 30
0.0
 41
100.0
 42
100.0
 43
100.0
 50
180.0
  0
MTEXT
  5
18CB9
330
188F8
100
AcDbEntity
  8
寸法
 62
     7
 48
50.0
100
AcDbMText
 10
6249.465962044407
 20
7371.100528569043
 30
0.0
 40
120.0
 41
0.0
 71
     5
 72
     1
  1
\A1;有効開口部間口\P1278
  7
STYLE1
 73
     1
 44
1.0
1001
ACAD
1000
MTEXTBEGIN
1070
    73
1070
     1
1070
    44
1040
1.0
1070
    74
1070
     0
1000
MTEXTEND
  0
POINT
  5
18CBA
330
188F8
100
AcDbEntity
  8
DEFPOINTS
 62
     0
 48
50.0
100
AcDbPoint
 10
6893.874179210399
 20
7696.896058145177
 30
0.0
  0
POINT
  5
18CBB
330
188F8
100
AcDbEntity
  8
DEFPOINTS
 62
     0
 48
50.0
100
AcDbPoint
 10
5615.8741792104
 20
7696.896058145114
 30
0.0
  0
POINT
  5
18CBC
330
188F8
100
AcDbEntity
  8
DEFPOINTS
 62
     0
 48
50.0
100
AcDbPoint
 10
5615.8741792104
 20
7171.088717545422
 30
0.0
  0
ENDBLK
  5
18903
330
188F8
100
AcDbEntity
  8
0
 48
50.0
100
AcDbBlockEnd
  0
BLOCK
  5
18923
330
18919
100
AcDbEntity
  8
0
 48
50.0
100
AcDbBlockBegin
  2
*D29
 70
     1
 10
0.0
 20
0.0
 30
0.0
  3
*D29
  1

  0
LINE
  5
18CAB
330
18919
100
AcDbEntity
  8
寸法
 62
     0
 48
50.0
370
    -2
100
AcDbLine
 10
9103.8741792104
 20
7676.896058145176
 30
0.0
 11
9103.8741792104
 21
7111.088717545422
 31
0.0
  0
LINE
  5
18CAC
330
18919
100
AcDbEntity
  8
寸法
 62
     0
 48
50.0
370
    -2
100
AcDbLine
 10
7825.8741792104
 20
7676.896058145115
 30
0.0
 11
7825.8741792104
 21
7111.088717545422
 31
0.0
  0
LINE
  5
18CAD
330
18919
100
AcDbEntity
  8
寸法
 62
     0
 48
50.0
370
    -2
100
AcDbLine
 10
9103.8741792104
 20
7171.088717545422
 30
0.0
 11
7825.8741792104
 21
7171.088717545422
 31
0.0
  0
INSERT
  5
18CAE
330
18919
100
AcDbEntity
  8
寸法
 62
     0
 48
50.0
370
    -2
100
AcDbBlockReference
  2
_DOTSMALL
 10
9103.8741792104
 20
7171.088717545422
 30
0.0
 41
100.0
 42
100.0
 43
100.0
  0
INSERT
  5
18CAF
330
18919
100
AcDbEntity
  8
寸法
 62
     0
 48
50.0
370
    -2
100
AcDbBlockReference
  2
_DOTSMALL
 10
7825.8741792104
 20
7171.088717545422
 30
0.0
 41
100.0
 42
100.0
 43
100.0
 50
180.0
  0
MTEXT
  5
18CB0
330
18919
100
AcDbEntity
  8
寸法
 62
     7
 48
50.0
100
AcDbMText
 10
8459.465962044408
 20
7371.100528569043
 30
0.0
 40
120.0
 41
0.0
 71
     5
 72
     1
  1
\A1;有効開口部間口\P1278
  7
STYLE1
 73
     1
 44
1.0
1001
ACAD
1000
MTEXTBEGIN
1070
    73
1070
     1
1070
    44
1040
1.0
1070
    74
1070
     0
1000
MTEXTEND
  0
POINT
  5
18CB1
330
18919
100
AcDbEntity
  8
DEFPOINTS
 62
     0
 48
50.0
100
AcDbPoint
 10
9103.8741792104
 20
7696.896058145177
 30
0.0
  0
POINT
  5
18CB2
330
18919
100
AcDbEntity
  8
DEFPOINTS
 62
     0
 48
50.0
100
AcDbPoint
 10
7825.8741792104
 20
7696.896058145114
 30
0.0
  0
POINT
  5
18CB3
330
18919
100
AcDbEntity
  8
DEFPOINTS
 62
     0
 48
50.0
100
AcDbPoint
 10
7825.8741792104
 20
7171.088717545422
 30
0.0
  0
ENDBLK
  5
18924
330
18919
100
AcDbEntity
  8
0
 48
50.0
100
AcDbBlockEnd
  0
BLOCK
  5
189C3
330
189B7
100
AcDbEntity
  8
0
 48
50.0
100
AcDbBlockBegin
  2
*D30
 70
     1
 10
0.0
 20
0.0
 30
0.0
  3
*D30
  1

  0
LINE
  5
18D61
330
189B7
100
AcDbEntity
  8
寸法
 62
     0
 48
50.0
370
    -2
100
AcDbLine
 10
3345.874179210401
 20
5158.889699777004
 30
0.0
 11
3345.874179210401
 21
5411.431285035241
 31
0.0
  0
LINE
  5
18D62
330
189B7
100
AcDbEntity
  8
寸法
 62
     0
 48
50.0
370
    -2
100
AcDbLine
 10
3295.874179210402
 20
5158.889699777002
 30
0.0
 11
3295.874179210402
 21
5411.431285035241
 31
0.0
  0
LINE
  5
18D63
330
189B7
100
AcDbEntity
  8
寸法
 62
     0
 48
50.0
370
    -2
100
AcDbLine
 10
3345.874179210401
 20
5351.431285035242
 30
0.0
 11
3445.874179210401
 21
5351.431285035242
 31
0.0
  0
LINE
  5
18D64
330
189B7
100
AcDbEntity
  8
寸法
 62
     0
 48
50.0
370
    -2
100
AcDbLine
 10
3295.874179210402
 20
5351.431285035242
 30
0.0
 11
2876.341653741666
 21
5351.431285035242
 31
0.0
  0
LINE
  5
18D65
330
189B7
100
AcDbEntity
  8
寸法
 62
     0
 48
50.0
370
    -2
100
AcDbLine
 10
3345.874179210401
 20
5351.431285035242
 30
0.0
 11
3295.874179210402
 21
5351.431285035242
 31
0.0
  0
INSERT
  5
18D66
330
189B7
100
AcDbEntity
  8
寸法
 62
     0
 48
50.0
370
    -2
100
AcDbBlockReference
  2
_DOTSMALL
 10
3345.874179210401
 20
5351.431285035242
 30
0.0
 41
100.0
 42
100.0
 43
100.0
 50
180.0
  0
INSERT
  5
18D67
330
189B7
100
AcDbEntity
  8
寸法
 62
     0
 48
50.0
370
    -2
100
AcDbBlockReference
  2
_DOTSMALL
 10
3295.874179210402
 20
5351.431285035242
 30
0.0
 41
100.0
 42
100.0
 43
100.0
  0
MTEXT
  5
18D68
330
189B7
100
AcDbEntity
  8
寸法
 62
     7
 48
50.0
100
AcDbMText
 10
2982.388897836154
 20
5451.431285035241
 30
0.0
 40
120.0
 41
0.0
 71
     5
 72
     1
  1
\A1;50
  7
STYLE1
 73
     1
 44
1.0
1001
ACAD
1000
MTEXTBEGIN
1070
    73
1070
     1
1070
    44
1040
1.0
1070
    74
1070
     0
1000
MTEXTEND
  0
POINT
  5
18D69
330
189B7
100
AcDbEntity
  8
DEFPOINTS
 62
     0
 48
50.0
100
AcDbPoint
 10
3345.874179210401
 20
5138.889699777005
 30
0.0
  0
POINT
  5
18D6A
330
189B7
100
AcDbEntity
  8
DEFPOINTS
 62
     0
 48
50.0
100
AcDbPoint
 10
3295.874179210402
 20
5138.889699777003
 30
0.0
  0
POINT
  5
18D6B
330
189B7
100
AcDbEntity
  8
DEFPOINTS
 62
     0
 48
50.0
100
AcDbPoint
 10
3295.874179210402
 20
5351.431285035242
 30
0.0
  0
ENDBLK
  5
189C4
330
189B7
100
AcDbEntity
  8
0
 48
50.0
100
AcDbBlockEnd
  0
BLOCK
  5
189CF
330
189C5
100
AcDbEntity
  8
0
 48
50.0
100
AcDbBlockBegin
  2
*D31
 70
     1
 10
0.0
 20
0.0
 30
0.0
  3
*D31
  1

  0
LINE
  5
18D75
330
189C5
100
AcDbEntity
  8
寸法
 62
     0
 48
50.0
370
    -2
100
AcDbLine
 10
9975.874179210407
 20
5158.889699776999
 30
0.0
 11
9975.874179210407
 21
5411.431285035241
 31
0.0
  0
LINE
  5
18D76
330
189C5
100
AcDbEntity
  8
寸法
 62
     0
 48
50.0
370
    -2
100
AcDbLine
 10
3345.874179210401
 20
5158.889699777004
 30
0.0
 11
3345.874179210401
 21
5411.431285035241
 31
0.0
  0
LINE
  5
18D77
330
189C5
100
AcDbEntity
  8
寸法
 62
     0
 48
50.0
370
    -2
100
AcDbLine
 10
9975.874179210407
 20
5351.431285035242
 30
0.0
 11
3345.874179210401
 21
5351.431285035242
 31
0.0
  0
INSERT
  5
18D78
330
189C5
100
AcDbEntity
  8
寸法
 62
     0
 48
50.0
370
    -2
100
AcDbBlockReference
  2
_DOTSMALL
 10
9975.874179210407
 20
5351.431285035242
 30
0.0
 41
100.0
 42
100.0
 43
100.0
  0
INSERT
  5
18D79
330
189C5
100
AcDbEntity
  8
寸法
 62
     0
 48
50.0
370
    -2
100
AcDbBlockReference
  2
_DOTSMALL
 10
3345.874179210401
 20
5351.431285035242
 30
0.0
 41
100.0
 42
100.0
 43
100.0
 50
180.0
  0
MTEXT
  5
18D7A
330
189C5
100
AcDbEntity
  8
寸法
 62
     7
 48
50.0
100
AcDbMText
 10
6613.014387130682
 20
5451.443096058863
 30
0.0
 40
120.0
 41
0.0
 71
     5
 72
     1
  1
\A1;柱外寸法 N x 2210
  7
STYLE1
 73
     1
 44
1.0
1001
ACAD
1000
MTEXTBEGIN
1070
    73
1070
     1
1070
    44
1040
1.0
1070
    74
1070
     0
1000
MTEXTEND
  0
POINT
  5
18D7B
330
189C5
100
AcDbEntity
  8
DEFPOINTS
 62
     0
 48
50.0
100
AcDbPoint
 10
9975.874179210407
 20
5138.889699776999
 30
0.0
  0
POINT
  5
18D7C
330
189C5
100
AcDbEntity
  8
DEFPOINTS
 62
     0
 48
50.0
100
AcDbPoint
 10
3345.874179210401
 20
5138.889699777005
 30
0.0
  0
POINT
  5
18D7D
330
189C5
100
AcDbEntity
  8
DEFPOINTS
 62
     0
 48
50.0
100
AcDbPoint
 10
3345.874179210401
 20
5351.431285035242
 30
0.0
  0
ENDBLK
  5
189D0
330
189C5
100
AcDbEntity
  8
0
 48
50.0
100
AcDbBlockEnd
  0
BLOCK
  5
189DB
330
189D1
100
AcDbEntity
  8
0
 48
50.0
100
AcDbBlockBegin
  2
*D32
 70
     1
 10
0.0
 20
0.0
 30
0.0
  3
*D32
  1

  0
LINE
  5
18D6C
330
189D1
100
AcDbEntity
  8
寸法
 62
     0
 48
50.0
370
    -2
100
AcDbLine
 10
3295.874179210402
 20
5158.889699777002
 30
0.0
 11
3295.874179210402
 21
5634.388263473091
 31
0.0
  0
LINE
  5
18D6D
330
189D1
100
AcDbEntity
  8
寸法
 62
     0
 48
50.0
370
    -2
100
AcDbLine
 10
10025.87417921041
 20
5158.889699776997
 30
0.0
 11
10025.87417921041
 21
5634.388263473091
 31
0.0
  0
LINE
  5
18D6E
330
189D1
100
AcDbEntity
  8
寸法
 62
     0
 48
50.0
370
    -2
100
AcDbLine
 10
3295.874179210402
 20
5574.388263473091
 30
0.0
 11
10025.87417921041
 21
5574.388263473091
 31
0.0
  0
INSERT
  5
18D6F
330
189D1
100
AcDbEntity
  8
寸法
 62
     0
 48
50.0
370
    -2
100
AcDbBlockReference
  2
_DOTSMALL
 10
3295.874179210402
 20
5574.388263473091
 30
0.0
 41
100.0
 42
100.0
 43
100.0
 50
180.0
  0
INSERT
  5
18D70
330
189D1
100
AcDbEntity
  8
寸法
 62
     0
 48
50.0
370
    -2
100
AcDbBlockReference
  2
_DOTSMALL
 10
10025.87417921041
 20
5574.388263473091
 30
0.0
 41
100.0
 42
100.0
 43
100.0
  0
MTEXT
  5
18D71
330
189D1
100
AcDbEntity
  8
寸法
 62
     7
 48
50.0
100
AcDbMText
 10
6613.014387130682
 20
5674.400074496713
 30
0.0
 40
120.0
 41
0.0
 71
     5
 72
     1
  1
\A1;N x 2210 +100
  7
STYLE1
 73
     1
 44
1.0
1001
ACAD
1000
MTEXTBEGIN
1070
    73
1070
     1
1070
    44
1040
1.0
1070
    74
1070
     0
1000
MTEXTEND
  0
POINT
  5
18D72
330
189D1
100
AcDbEntity
  8
DEFPOINTS
 62
     0
 48
50.0
100
AcDbPoint
 10
3295.874179210402
 20
5138.889699777003
 30
0.0
  0
POINT
  5
18D73
330
189D1
100
AcDbEntity
  8
DEFPOINTS
 62
     0
 48
50.0
100
AcDbPoint
 10
10025.87417921041
 20
5138.889699776997
 30
0.0
  0
POINT
  5
18D74
330
189D1
100
AcDbEntity
  8
DEFPOINTS
 62
     0
 48
50.0
100
AcDbPoint
 10
10025.87417921041
 20
5574.388263473091
 30
0.0
  0
ENDBLK
  5
189DC
330
189D1
100
AcDbEntity
  8
0
 48
50.0
100
AcDbBlockEnd
  0
BLOCK
  5
18A11
330
18A05
100
AcDbEntity
  8
0
 48
50.0
100
AcDbBlockBegin
  2
*D33
 70
     1
 10
0.0
 20
0.0
 30
0.0
  3
*D33
  1

  0
LINE
  5
18D56
330
18A05
100
AcDbEntity
  8
寸法
 62
     0
 48
50.0
370
    -2
100
AcDbLine
 10
10025.87417921041
 20
5158.889699776997
 30
0.0
 11
10025.87417921041
 21
5411.431285035238
 31
0.0
  0
LINE
  5
18D57
330
18A05
100
AcDbEntity
  8
寸法
 62
     0
 48
50.0
370
    -2
100
AcDbLine
 10
9975.874179210407
 20
5158.889699776999
 30
0.0
 11
9975.874179210407
 21
5411.431285035238
 31
0.0
  0
LINE
  5
18D58
330
18A05
100
AcDbEntity
  8
寸法
 62
     0
 48
50.0
370
    -2
100
AcDbLine
 10
9975.874179210407
 20
5351.431285035238
 30
0.0
 11
9875.874179210406
 21
5351.431285035238
 31
0.0
  0
LINE
  5
18D59
330
18A05
100
AcDbEntity
  8
寸法
 62
     0
 48
50.0
370
    -2
100
AcDbLine
 10
10025.87417921041
 20
5351.431285035238
 30
0.0
 11
10445.40670467913
 21
5351.431285035238
 31
0.0
  0
LINE
  5
18D5A
330
18A05
100
AcDbEntity
  8
寸法
 62
     0
 48
50.0
370
    -2
100
AcDbLine
 10
9975.874179210407
 20
5351.431285035238
 30
0.0
 11
10025.87417921041
 21
5351.431285035238
 31
0.0
  0
INSERT
  5
18D5B
330
18A05
100
AcDbEntity
  8
寸法
 62
     0
 48
50.0
370
    -2
100
AcDbBlockReference
  2
_DOTSMALL
 10
9975.874179210407
 20
5351.431285035238
 30
0.0
 41
100.0
 42
100.0
 43
100.0
  0
INSERT
  5
18D5C
330
18A05
100
AcDbEntity
  8
寸法
 62
     0
 48
50.0
370
    -2
100
AcDbBlockReference
  2
_DOTSMALL
 10
10025.87417921041
 20
5351.431285035238
 30
0.0
 41
100.0
 42
100.0
 43
100.0
 50
180.0
  0
MTEXT
  5
18D5D
330
18A05
100
AcDbEntity
  8
寸法
 62
     7
 48
50.0
100
AcDbMText
 10
10339.35946058464
 20
5451.431285035238
 30
0.0
 40
120.0
 41
0.0
 71
     5
 72
     1
  1
\A1;50
  7
STYLE1
 73
     1
 44
1.0
1001
ACAD
1000
MTEXTBEGIN
1070
    73
1070
     1
1070
    44
1040
1.0
1070
    74
1070
     0
1000
MTEXTEND
  0
POINT
  5
18D5E
330
18A05
100
AcDbEntity
  8
DEFPOINTS
 62
     0
 48
50.0
100
AcDbPoint
 10
10025.87417921041
 20
5138.889699776997
 30
0.0
  0
POINT
  5
18D5F
330
18A05
100
AcDbEntity
  8
DEFPOINTS
 62
     0
 48
50.0
100
AcDbPoint
 10
9975.874179210407
 20
5138.889699776999
 30
0.0
  0
POINT
  5
18D60
330
18A05
100
AcDbEntity
  8
DEFPOINTS
 62
     0
 48
50.0
100
AcDbPoint
 10
9975.874179210407
 20
5351.431285035238
 30
0.0
  0
ENDBLK
  5
18A12
330
18A05
100
AcDbEntity
  8
0
 48
50.0
100
AcDbBlockEnd
  0
BLOCK
  5
18EA0
330
18E9F
100
AcDbEntity
  8
0
 48
50.0
100
AcDbBlockBegin
  2
_DOT
 70
     0
 10
0.0
 20
0.0
 30
0.0
  3
_DOT
  1

  0
LWPOLYLINE
  5
18EA1
330
18E9F
100
AcDbEntity
  8
0
  6
ByBlock
 62
     0
 48
50.0
100
AcDbPolyline
 90
        2
 70
     1
 43
0.5
 10
-0.25
 20
0.0
 42
1.0
 10
0.25
 20
0.0
 42
1.0
  0
LINE
  5
18EA2
330
18E9F
100
AcDbEntity
  8
0
  6
ByBlock
 62
     0
 48
50.0
100
AcDbLine
 10
-0.5
 20
0.0
 30
0.0
 11
-1.0
 21
0.0
 31
0.0
  0
ENDBLK
  5
18EA3
330
18E9F
100
AcDbEntity
  8
0
 48
50.0
100
AcDbBlockEnd
  0
ENDSEC
  0
SECTION
  2
ENTITIES
  0
MTEXT
  5
763F
330
747D
100
AcDbEntity
  8
0
100
AcDbMText
 10
302.846345836809
 20
280.1983726409901
 30
0.0
 40
3.5
 41
5.323721266742722
 71
     1
 72
     5
  1

  7
MSMINCHO
 73
     1
 44
1.0
1001
ACAD
1000
MTEXTBEGIN
1070
    73
1070
     1
1070
    44
1040
1.0
1070
    74
1070
     0
1000
MTEXTEND
  0
LINE
  5
10B57
330
747D
100
AcDbEntity
  8
補助
  6
PHANTOM
 62
   230
 48
50.0
100
AcDbLine
 10
139.9999999999995
 20
11409.6
 30
0.0
 11
16307.2
 21
11409.6
 31
0.0
  0
LINE
  5
10B59
330
747D
100
AcDbEntity
  8
仕様書枠
  6
Continuous
 48
50.0
100
AcDbLine
 10
13107.2
 20
1200.0
 30
0.0
 11
13107.2
 21
-0.0000000000000729
 31
0.0
  0
LINE
  5
10B5D
330
747D
100
AcDbEntity
  8
仕様書枠
 48
50.0
100
AcDbLine
 10
140.0
 20
0.0
 30
0.0
 11
16307.2
 21
-0.0000000000000909
 31
0.0
  0
LINE
  5
10B5E
330
747D
100
AcDbEntity
  8
補助
  6
PHANTOM
 62
   230
 48
50.0
100
AcDbLine
 10
16307.2
 20
11409.6
 30
0.0
 11
16307.2
 21
1200.0
 31
0.0
  0
LINE
  5
10B6C
330
747D
100
AcDbEntity
  8
仕様書枠
 48
50.0
100
AcDbLine
 10
13107.2
 20
1200.0
 30
0.0
 11
16307.2
 21
1200.0
 31
0.0
  0
LINE
  5
10B6D
330
747D
100
AcDbEntity
  8
補助
  6
PHANTOM
 62
   230
 48
50.0
100
AcDbLine
 10
13107.2
 20
11409.6
 30
0.0
 11
13107.2
 21
4800.0
 31
0.0
  0
LINE
  5
10B6F
330
747D
100
AcDbEntity
  8
補助
  6
PHANTOM
 62
   230
 48
50.0
100
AcDbLine
 10
13107.2
 20
4800.0
 30
0.0
 11
16307.2
 21
4800.0
 31
0.0
  0
LINE
  5
10B72
330
747D
100
AcDbEntity
  8
文字
 62
     7
 48
50.0
100
AcDbLine
 10
13187.2
 20
400.0
 30
0.0
 11
16227.2
 21
400.0
 31
0.0
  0
TEXT
  5
10B73
330
747D
100
AcDbEntity
  8
文字
 62
     7
 48
50.0
100
AcDbText
 10
13162.9790565769
 20
895.0906074299405
 30
0.0
 40
200.0
  1
外 形 図
  7
STYLE2
100
AcDbText
  0
TEXT
  5
10B74
330
747D
100
AcDbEntity
  8
文字
 62
     7
 48
50.0
100
AcDbText
 10
13201.43669998441
 20
477.2740661031255
 30
0.0
 40
160.0
  1
機種名
  7
STYLE2
100
AcDbText
  0
LINE
  5
10B7B
330
747D
100
AcDbEntity
  8
仕様書枠
 48
50.0
100
AcDbLine
 10
13107.2
 20
800.0
 30
0.0
 11
14251.2
 21
800.0
 31
0.0
  0
LINE
  5
10B88
330
747D
100
AcDbEntity
  8
仕様書枠
  6
Continuous
 48
50.0
100
AcDbLine
 10
14251.2
 20
1200.0
 30
0.0
 11
14251.2
 21
800.0
 31
0.0
  0
LINE
  5
12765
330
747D
100
AcDbEntity
  8
Ｇ．Ｌ
100
AcDbLine
 10
2479.774530930163
 20
2963.889699776995
 30
0.0
 11
4636.533441404324
 21
2963.889699776995
 31
0.0
  0
LINE
  5
127A8
330
747D
100
AcDbEntity
  8
部品1
100
AcDbLine
 10
2579.271542254263
 20
3093.79351034466
 30
0.0
 11
2729.271542254263
 21
3093.79351034466
 31
0.0
  0
LINE
  5
127A9
330
747D
100
AcDbEntity
  8
部品1
100
AcDbLine
 10
2654.271542254262
 20
2963.889699776995
 30
0.0
 11
2579.271542254263
 21
3093.79351034466
 31
0.0
  0
TEXT
  5
127AA
330
747D
100
AcDbEntity
  8
部品1
100
AcDbText
 10
2757.376484379036
 20
2999.996603382897
 30
0.0
 40
125.0
  1
G.L
  7
STYLE2
100
AcDbText
  0
LINE
  5
127AB
330
747D
100
AcDbEntity
  8
部品1
100
AcDbLine
 10
2729.271542254263
 20
3093.79351034466
 30
0.0
 11
2654.271542254262
 21
2963.889699776995
 31
0.0
  0
LINE
  5
13BE8
330
747D
100
AcDbEntity
  8
部品1
100
AcDbLine
 10
3345.8741792104
 20
3063.889699776995
 30
0.0
 11
4618.900743333477
 21
3063.889699776993
 31
0.0
  0
LINE
  5
13BE9
330
747D
100
AcDbEntity
  8
部品1
100
AcDbLine
 10
3345.8741792104
 20
4903.889699776995
 30
0.0
 11
4294.4590988299
 21
4903.889699776995
 31
0.0
  0
LINE
  5
13C1F
330
747D
100
AcDbEntity
  8
部品1
100
AcDbLine
 10
3345.8741792104
 20
4997.889699776999
 30
0.0
 11
3345.8741792104
 21
2963.889699776995
 31
0.0
  0
LINE
  5
13CFC
330
747D
100
AcDbEntity
  8
部品1
100
AcDbLine
 10
9915.874179210401
 20
4903.889699776995
 30
0.0
 11
9915.874179210401
 21
3105.889699777015
 31
0.0
  0
LINE
  5
13CFE
330
747D
100
AcDbEntity
  8
部品1
100
AcDbLine
 10
3405.8741792104
 20
4903.889699776995
 30
0.0
 11
3405.8741792104
 21
3105.889699777
 31
0.0
  0
LINE
  5
13D18
330
747D
100
AcDbEntity
  8
部品1
100
AcDbLine
 10
9975.8741792104
 20
4997.889699776999
 30
0.0
 11
9975.874179210402
 21
2963.889699776995
 31
0.0
  0
DIMENSION
  5
14521
330
747D
100
AcDbEntity
  8
寸法
100
AcDbDimension
  2
*D2
 10
3400.874179210407
 20
9502.374408091498
 30
0.0
 11
3037.388897836133
 21
9502.374408091498
 31
0.0
 70
   160
 71
     5
 42
55.00000000003456
  3
INABA_S40G
100
AcDbAlignedDimension
 13
3345.874179210373
 23
9066.896058145124
 33
0.0
 14
3400.874179210407
 24
9066.896058145124
 34
0.0
100
AcDbRotatedDimension
1001
ACAD
1000
DSTYLE
1002
{
1002
}
  0
LINE
  5
14523
330
747D
100
AcDbEntity
  8
部品1
100
AcDbLine
 10
3345.874179210373
 20
9066.896058145124
 30
0.0
 11
3345.8741792104
 21
7696.896058145114
 31
0.0
  0
LINE
  5
14524
330
747D
100
AcDbEntity
  8
部品1
100
AcDbLine
 10
9920.874179210409
 20
9066.896058145252
 30
0.0
 11
9920.874179210409
 21
9038.896058145253
 31
0.0
  0
LINE
  5
14525
330
747D
100
AcDbEntity
  8
部品1
100
AcDbLine
 10
9920.874179210409
 20
9066.896058145273
 30
0.0
 11
9920.874179210409
 21
9038.896058145272
 31
0.0
  0
DIMENSION
  5
14526
330
747D
100
AcDbEntity
  8
寸法
100
AcDbDimension
  2
*D3
 10
10913.4815050503
 20
7696.896058145242
 30
0.0
 11
10913.4815050503
 21
8384.08162563565
 31
0.0
 70
   160
 71
     5
 42
1370.000000000009
  3
INABA_S40G
100
AcDbAlignedDimension
 13
9975.874179210409
 23
9066.896058145252
 33
0.0
 14
9975.874179210384
 24
7696.896058145243
 34
0.0
 50
90.0
100
AcDbRotatedDimension
1001
ACAD
1000
DSTYLE
1002
{
1002
}
  0
LINE
  5
14527
330
747D
100
AcDbEntity
  8
部品1
100
AcDbLine
 10
9975.874179210409
 20
9066.896058145252
 30
0.0
 11
9975.874179210384
 21
7696.896058145243
 31
0.0
  0
LINE
  5
1452A
330
747D
100
AcDbEntity
  8
部品1
100
AcDbLine
 10
8240.874179210406
 20
9066.896058145273
 30
0.0
 11
8240.874179210406
 21
9038.896058145272
 31
0.0
  0
LINE
  5
1452B
330
747D
100
AcDbEntity
  8
部品1
100
AcDbLine
 10
8240.874179210406
 20
9066.896058145156
 30
0.0
 11
8240.874179210406
 21
9038.896058145155
 31
0.0
  0
LINE
  5
1452C
330
747D
100
AcDbEntity
  8
部品1
100
AcDbLine
 10
8240.874179210406
 20
9066.896058145157
 30
0.0
 11
8240.874179210406
 21
9038.896058145157
 31
0.0
  0
LINE
  5
1452D
330
747D
100
AcDbEntity
  8
部品1
100
AcDbLine
 10
3400.874179210407
 20
9066.896058145157
 30
0.0
 11
3400.874179210407
 21
9038.896058145157
 31
0.0
  0
DIMENSION
  5
1452E
330
747D
100
AcDbEntity
  8
寸法
100
AcDbDimension
  2
*D4
 10
10623.30052494482
 20
9011.896058145255
 30
0.0
 11
10623.30052494482
 21
9375.381339519492
 31
0.0
 70
   160
 71
     5
 42
54.99999999999636
  3
INABA_S40G
100
AcDbAlignedDimension
 13
9975.874179210409
 23
9066.896058145252
 33
0.0
 14
9975.874179210409
 24
9011.896058145255
 34
0.0
 50
90.0
100
AcDbRotatedDimension
1001
ACAD
1000
DSTYLE
1002
{
1002
}
  0
DIMENSION
  5
14530
330
747D
100
AcDbEntity
  8
寸法
100
AcDbDimension
  2
*D5
 10
10623.30052494479
 20
7696.896058145242
 30
0.0
 11
10623.30052494479
 21
7319.034591240381
 31
0.0
 70
   160
 71
     5
 42
54.99999999999636
  3
INABA_S40G
100
AcDbAlignedDimension
 13
9975.874179210384
 23
7751.896058145239
 33
0.0
 14
9975.874179210384
 24
7696.896058145243
 34
0.0
 50
90.0
100
AcDbRotatedDimension
1001
ACAD
1000
DSTYLE
1002
{
1002
}
  0
DIMENSION
  5
14531
330
747D
100
AcDbEntity
  8
寸法
100
AcDbDimension
  2
*D6
 10
10623.30052494482
 20
7751.896058145239
 30
0.0
 11
10623.30052494482
 21
8381.896058145249
 31
0.0
 70
   160
  1
3X420=<>
 71
     5
 42
1260.000000000016
  3
INABA_S40G
100
AcDbAlignedDimension
 13
9975.874179210409
 23
9011.896058145255
 33
0.0
 14
9975.874179210384
 24
7751.896058145239
 34
0.0
 50
90.0
100
AcDbRotatedDimension
1001
ACAD
1000
DSTYLE
1002
{
1002
}
  0
DIMENSION
  5
14532
330
747D
100
AcDbEntity
  8
寸法
100
AcDbDimension
  2
*D7
 10
9975.874179210384
 20
6932.760088791553
 30
0.0
 11
8870.874179210392
 21
6932.760088791553
 31
0.0
 70
   160
 71
     5
 42
2209.999999999983
  3
INABA_S40G
100
AcDbAlignedDimension
 13
7765.874179210401
 23
7696.896058145078
 33
0.0
 14
9975.874179210384
 24
7696.896058145208
 34
0.0
100
AcDbRotatedDimension
1001
ACAD
1000
DSTYLE
1002
{
1002
}
  0
TEXT
  5
14535
330
747D
100
AcDbEntity
  8
部品1
100
AcDbText
 10
6369.058455925209
 20
6557.368946977928
 30
0.0
 40
135.0
  1
平面図
  7
STYLE2
100
AcDbText
  0
LINE
  5
14543
330
747D
100
AcDbEntity
  8
部品1
100
AcDbLine
 10
3400.874179210407
 20
9038.89605814524
 30
0.0
 11
3982.91492588052
 21
9038.896058145246
 31
0.0
  0
LINE
  5
14544
330
747D
100
AcDbEntity
  8
部品1
100
AcDbLine
 10
9975.874179210384
 20
7696.896058145243
 30
0.0
 11
4250.008532347891
 21
7696.896058145021
 31
0.0
  0
LINE
  5
14546
330
747D
100
AcDbEntity
  8
部品1
100
AcDbLine
 10
3373.874179210382
 20
7751.89605814511
 30
0.0
 11
3373.874179210407
 21
9038.896058145157
 31
0.0
  0
LINE
  5
1454A
330
747D
100
AcDbEntity
  8
部品1
100
AcDbLine
 10
7816.8741792104
 20
7696.896058145114
 30
0.0
 11
7765.874179210401
 21
7696.896058145114
 31
0.0
  0
LINE
  5
1454D
330
747D
100
AcDbEntity
  8
部品1
100
AcDbLine
 10
3373.874179210399
 20
7751.896058145127
 30
0.0
 11
3345.874179210399
 21
7751.896058145127
 31
0.0
  0
LINE
  5
1454F
330
747D
100
AcDbEntity
  8
部品1
100
AcDbLine
 10
3405.874179210397
 20
7751.896058145075
 30
0.0
 11
3377.874179210397
 21
7751.896058145075
 31
0.0
  0
LINE
  5
14550
330
747D
100
AcDbEntity
  8
部品1
100
AcDbLine
 10
3396.874179210401
 20
7696.896058145077
 30
0.0
 11
3396.874179210398
 21
7703.896058145113
 31
0.0
  0
LINE
  5
14551
330
747D
100
AcDbEntity
  8
部品1
100
AcDbLine
 10
3405.874179210399
 20
7703.896058145112
 30
0.0
 11
3396.874179210398
 21
7703.896058145113
 31
0.0
  0
LINE
  5
14552
330
747D
100
AcDbEntity
  8
部品1
100
AcDbLine
 10
3405.874179210399
 20
7703.896058145112
 30
0.0
 11
3405.874179210397
 21
7751.896058145077
 31
0.0
  0
LINE
  5
14558
330
747D
100
AcDbEntity
  8
部品1
100
AcDbLine
 10
3373.874179210387
 20
8171.896058145128
 30
0.0
 11
3345.874179210387
 21
8171.896058145128
 31
0.0
  0
LINE
  5
1455D
330
747D
100
AcDbEntity
  8
部品1
100
AcDbLine
 10
3373.874179210407
 20
9038.896058145125
 30
0.0
 11
3982.914925880542
 21
9038.896058145132
 31
0.0
  0
LINE
  5
1455F
330
747D
100
AcDbEntity
  8
部品1
100
AcDbLine
 10
3373.874179210381
 20
8591.896058145128
 30
0.0
 11
3345.874179210381
 21
8591.896058145128
 31
0.0
  0
LINE
  5
14560
330
747D
100
AcDbEntity
  8
部品1
100
AcDbLine
 10
3373.874179210374
 20
9011.896058145129
 30
0.0
 11
3345.874179210374
 21
9011.896058145129
 31
0.0
  0
LINE
  5
14562
330
747D
100
AcDbEntity
  8
部品1
100
AcDbLine
 10
9947.874179210408
 20
9038.896058145253
 30
0.0
 11
9947.874179210383
 21
7751.896058145239
 31
0.0
  0
LINE
  5
1456A
330
747D
100
AcDbEntity
  8
部品1
100
AcDbLine
 10
9975.874179210384
 20
7696.896058145243
 30
0.0
 11
9924.874179210384
 21
7696.896058145243
 31
0.0
  0
LINE
  5
1456B
330
747D
100
AcDbEntity
  8
部品1
100
AcDbLine
 10
9975.874179210384
 20
7751.896058145239
 30
0.0
 11
9975.874179210384
 21
7696.896058145243
 31
0.0
  0
LINE
  5
1456C
330
747D
100
AcDbEntity
  8
部品1
100
AcDbLine
 10
9947.874179210383
 20
7751.896058145239
 30
0.0
 11
9975.874179210384
 21
7751.896058145239
 31
0.0
  0
LINE
  5
1456E
330
747D
100
AcDbEntity
  8
部品1
100
AcDbLine
 10
9915.874179210383
 20
7751.896058145239
 30
0.0
 11
9947.874179210383
 21
7751.896058145239
 31
0.0
  0
LINE
  5
14570
330
747D
100
AcDbEntity
  8
部品1
100
AcDbLine
 10
9924.874179210384
 20
7696.896058145241
 30
0.0
 11
9924.874179210384
 21
7703.896058145243
 31
0.0
  0
LINE
  5
14571
330
747D
100
AcDbEntity
  8
部品1
100
AcDbLine
 10
9924.874179210384
 20
7703.896058145243
 30
0.0
 11
9915.874179210383
 21
7703.896058145243
 31
0.0
  0
LINE
  5
14572
330
747D
100
AcDbEntity
  8
部品1
100
AcDbLine
 10
9915.874179210383
 20
7703.896058145243
 30
0.0
 11
9915.874179210383
 21
7751.896058145239
 31
0.0
  0
LINE
  5
14573
330
747D
100
AcDbEntity
  8
部品1
100
AcDbLine
 10
9947.874179210415
 20
7751.896058145256
 30
0.0
 11
9975.874179210416
 21
7751.896058145256
 31
0.0
  0
LINE
  5
14574
330
747D
100
AcDbEntity
  8
部品1
100
AcDbLine
 10
9947.874179210412
 20
8171.896058145255
 30
0.0
 11
9975.874179210412
 21
8171.896058145255
 31
0.0
  0
LINE
  5
14585
330
747D
100
AcDbEntity
  8
部品1
100
AcDbLine
 10
9947.874179210408
 20
8591.896058145255
 30
0.0
 11
9975.874179210409
 21
8591.896058145255
 31
0.0
  0
LINE
  5
14586
330
747D
100
AcDbEntity
  8
部品1
100
AcDbLine
 10
9947.874179210408
 20
9011.896058145255
 30
0.0
 11
9975.874179210409
 21
9011.896058145255
 31
0.0
  0
DIMENSION
  5
14587
330
747D
100
AcDbEntity
  8
寸法
100
AcDbDimension
  2
*D8
 10
9975.874179210409
 20
9502.374408091627
 30
0.0
 11
10284.35946058464
 21
9502.374408091627
 31
0.0
 70
   160
 71
     5
 42
55.0
  3
INABA_S40G
100
AcDbAlignedDimension
 13
9920.874179210409
 23
9066.896058145252
 33
0.0
 14
9975.874179210409
 24
9066.896058145252
 34
0.0
100
AcDbRotatedDimension
1001
ACAD
1000
DSTYLE
1002
{
1002
}
  0
LINE
  5
14588
330
747D
100
AcDbEntity
  8
部品1
100
AcDbLine
 10
3345.874179210407
 20
9066.896058145124
 30
0.0
 11
3977.977770420702
 21
9066.896058145145
 31
0.0
  0
DIMENSION
  5
14589
330
747D
100
AcDbEntity
  8
寸法
100
AcDbDimension
  2
*D9
 10
9920.874179210409
 20
9502.374408091647
 30
0.0
 11
8870.874179210408
 21
9502.374408091647
 31
0.0
 70
   160
  1
5X420=<>
 71
     5
 42
2100.000000000002
  3
INABA_S40G
100
AcDbAlignedDimension
 13
7820.874179210406
 23
9066.896058145124
 33
0.0
 14
9920.874179210409
 24
9066.896058145252
 34
0.0
100
AcDbRotatedDimension
1001
ACAD
1000
DSTYLE
1002
{
1002
}
  0
TEXT
  5
149A1
330
747D
100
AcDbEntity
  8
部品1
100
AcDbText
 10
6321.804457754419
 20
2277.23149144511
 30
0.0
 40
135.0
  1
正面図
  7
STYLE2
100
AcDbText
  0
TEXT
  5
149A3
330
747D
100
AcDbEntity
  8
部品1
100
AcDbText
 10
12314.38232932727
 20
2277.23149144511
 30
0.0
 40
135.0
  1
側面図
  7
STYLE2
100
AcDbText
  0
LINE
  5
154D6
330
747D
100
AcDbEntity
  8
仕様書枠
 48
50.0
100
AcDbLine
 10
16307.2
 20
1200.0
 30
0.0
 11
16307.2
 21
-0.0000000000000909
 31
0.0
  0
LINE
  5
15531
330
747D
100
AcDbEntity
  8
部品1
100
AcDbLine
 10
7825.874179210401
 20
4903.889699776995
 30
0.0
 11
7825.874179210401
 21
3105.889699777
 31
0.0
  0
LINE
  5
15569
330
747D
100
AcDbEntity
  8
部品1
100
AcDbLine
 10
5615.8741792104
 20
4903.889699776995
 30
0.0
 11
5615.8741792104
 21
3105.889699777
 31
0.0
  0
LINE
  5
155B0
330
747D
100
AcDbEntity
  8
部品1
100
AcDbLine
 10
7705.874179210401
 20
4903.889699776995
 30
0.0
 11
7705.874179210401
 21
3105.889699777
 31
0.0
  0
LINE
  5
155B2
330
747D
100
AcDbEntity
  8
部品1
100
AcDbLine
 10
5495.874179210401
 20
4903.889699776995
 30
0.0
 11
5495.874179210401
 21
3105.889699777
 31
0.0
  0
LINE
  5
155B9
330
747D
100
AcDbEntity
  8
細線
 48
50.0
100
AcDbLine
 10
5555.874179210399
 20
4903.889699776995
 30
0.0
 11
5555.874179210401
 21
4997.889699776999
 31
0.0
  0
LINE
  5
155D2
330
747D
100
AcDbEntity
  8
細線
 48
50.0
100
AcDbLine
 10
5545.874179210399
 20
4997.889699776999
 30
0.0
 11
5545.874179210399
 21
5138.889699776995
 31
0.0
  0
LINE
  5
155D3
330
747D
100
AcDbEntity
  8
細線
 48
50.0
100
AcDbLine
 10
7765.874179210399
 20
4903.889699776995
 30
0.0
 11
7765.874179210401
 21
4997.889699776999
 31
0.0
  0
LINE
  5
155D4
330
747D
100
AcDbEntity
  8
細線
 48
50.0
100
AcDbLine
 10
7755.874179210398
 20
4997.889699776997
 30
0.0
 11
7755.874179210398
 21
5138.889699776989
 31
0.0
  0
LINE
  5
15605
330
747D
100
AcDbEntity
  8
部品1
100
AcDbLine
 10
7816.8741792104
 20
7696.89605814508
 30
0.0
 11
7816.874179210398
 21
7703.896058145116
 31
0.0
  0
LINE
  5
15606
330
747D
100
AcDbEntity
  8
部品1
100
AcDbLine
 10
7825.874179210399
 20
7703.896058145115
 30
0.0
 11
7816.874179210398
 21
7703.896058145116
 31
0.0
  0
LINE
  5
15607
330
747D
100
AcDbEntity
  8
部品1
100
AcDbLine
 10
7825.874179210399
 20
7703.896058145115
 30
0.0
 11
7825.874179210396
 21
7751.89605814508
 31
0.0
  0
LINE
  5
15608
330
747D
100
AcDbEntity
  8
部品1
100
AcDbLine
 10
7705.874179210399
 20
7703.896058145115
 30
0.0
 11
7705.874179210397
 21
7751.89605814508
 31
0.0
  0
LINE
  5
15609
330
747D
100
AcDbEntity
  8
部品1
100
AcDbLine
 10
7714.874179210399
 20
7703.896058145109
 30
0.0
 11
7705.874179210399
 21
7703.896058145111
 31
0.0
  0
LINE
  5
1560A
330
747D
100
AcDbEntity
  8
部品1
100
AcDbLine
 10
7714.874179210401
 20
7696.896058145073
 30
0.0
 11
7714.874179210399
 21
7703.896058145109
 31
0.0
  0
LINE
  5
1560B
330
747D
100
AcDbEntity
  8
部品1
 48
50.0
100
AcDbLine
 10
7705.874179210397
 20
7751.89605814508
 30
0.0
 11
7728.874179210396
 21
7751.89605814508
 31
0.0
  0
LINE
  5
1560C
330
747D
100
AcDbEntity
  8
部品1
 48
50.0
100
AcDbLine
 10
7825.874179210396
 20
7751.89605814508
 30
0.0
 11
7802.874179210397
 21
7751.89605814508
 31
0.0
  0
LINE
  5
15611
330
747D
100
AcDbEntity
  8
部品1
 48
50.0
100
AcDbLine
 10
7793.874179210364
 20
7751.89605814508
 30
0.0
 11
7737.874179210365
 21
7751.89605814508
 31
0.0
  0
LINE
  5
15612
330
747D
100
AcDbEntity
  8
部品1
100
AcDbLine
 10
7820.874179210406
 20
9066.896058145157
 30
0.0
 11
7820.874179210406
 21
9038.896058145157
 31
0.0
  0
LINE
  5
15613
330
747D
100
AcDbEntity
  8
部品1
100
AcDbLine
 10
7793.874179210374
 20
9011.896058145129
 30
0.0
 11
7737.874179210374
 21
9011.896058145129
 31
0.0
  0
LINE
  5
15614
330
747D
100
AcDbEntity
  8
部品1
100
AcDbLine
 10
7710.874179210406
 20
9066.896058145157
 30
0.0
 11
7710.874179210406
 21
9038.896058145157
 31
0.0
  0
LINE
  5
15624
330
747D
100
AcDbEntity
  8
部品1
 48
50.0
100
AcDbLine
 10
7793.874179210374
 20
9011.896058145129
 30
0.0
 11
7793.874179210374
 21
9066.896058145212
 31
0.0
  0
LINE
  5
15625
330
747D
100
AcDbEntity
  8
部品1
 48
50.0
100
AcDbLine
 10
7737.874179210374
 20
9011.896058145129
 30
0.0
 11
7737.874179210374
 21
9038.896058145153
 31
0.0
  0
LINE
  5
1562A
330
747D
100
AcDbEntity
  8
部品1
 48
50.0
100
AcDbLine
 10
7737.874179210374
 20
9038.896058145153
 30
0.0
 11
7765.874179210372
 21
9038.896058145155
 31
0.0
  0
LINE
  5
1562B
330
747D
100
AcDbEntity
  8
部品1
 48
50.0
100
AcDbLine
 10
7765.874179210372
 20
9038.896058145153
 30
0.0
 11
7737.874179210374
 21
9066.896058145209
 31
0.0
  0
LINE
  5
1562C
330
747D
100
AcDbEntity
  8
部品1
100
AcDbLine
 10
7737.874179210338
 20
9038.896058145153
 30
0.0
 11
7737.874179210365
 21
7696.896058145146
 31
0.0
  0
LINE
  5
1562D
330
747D
100
AcDbEntity
  8
部品1
100
AcDbLine
 10
7765.874179210347
 20
7751.896058145141
 30
0.0
 11
7765.874179210372
 21
9011.896058145126
 31
0.0
  0
LINE
  5
1562E
330
747D
100
AcDbEntity
  8
部品1
100
AcDbLine
 10
7765.874179210353
 20
8171.896058145158
 30
0.0
 11
7737.874179210352
 21
8171.896058145158
 31
0.0
  0
LINE
  5
1562F
330
747D
100
AcDbEntity
  8
部品1
100
AcDbLine
 10
7765.874179210347
 20
8591.896058145158
 30
0.0
 11
7737.874179210347
 21
8591.896058145158
 31
0.0
  0
LINE
  5
15630
330
747D
100
AcDbEntity
  8
部品1
100
AcDbLine
 10
7793.87417921034
 20
9011.896058145129
 30
0.0
 11
7793.874179210366
 21
7696.896058145146
 31
0.0
  0
LINE
  5
15631
330
747D
100
AcDbEntity
  8
部品1
 48
50.0
100
AcDbLine
 10
7737.874179210374
 20
9038.89605814526
 30
0.0
 11
7737.874179210372
 21
9066.896058145209
 31
0.0
  0
DIMENSION
  5
15633
330
747D
100
AcDbEntity
  8
寸法
100
AcDbDimension
  2
*D10
 10
7765.874179210382
 20
6932.760088791553
 30
0.0
 11
6660.874179210392
 21
6932.760088791553
 31
0.0
 70
   160
 71
     5
 42
2209.999999999982
  3
INABA_S40G
100
AcDbAlignedDimension
 13
5555.8741792104
 23
7696.896058145078
 33
0.0
 14
7765.874179210382
 24
7696.896058145208
 34
0.0
100
AcDbRotatedDimension
1001
ACAD
1000
DSTYLE
1002
{
1002
}
  0
DIMENSION
  5
1568E
330
747D
100
AcDbEntity
  8
寸法
100
AcDbDimension
  2
*D11
 10
7710.874179210406
 20
9502.374408091647
 30
0.0
 11
6660.874179210407
 21
9502.374408091647
 31
0.0
 70
   160
  1
5X420=<>
 71
     5
 42
2100.000000000001
  3
INABA_S40G
100
AcDbAlignedDimension
 13
5610.874179210407
 23
9066.896058145124
 33
0.0
 14
7710.874179210406
 24
9066.896058145252
 34
0.0
100
AcDbRotatedDimension
1001
ACAD
1000
DSTYLE
1002
{
1002
}
  0
LINE
  5
156DE
330
747D
100
AcDbEntity
  8
部品1
100
AcDbLine
 10
5555.874179210348
 20
7751.896058145141
 30
0.0
 11
5555.874179210372
 21
9011.896058145126
 31
0.0
  0
LINE
  5
156DF
330
747D
100
AcDbEntity
  8
部品1
100
AcDbLine
 10
5583.874179210339
 20
9011.896058145129
 30
0.0
 11
5583.874179210365
 21
7696.896058145146
 31
0.0
  0
LINE
  5
156E0
330
747D
100
AcDbEntity
  8
部品1
100
AcDbLine
 10
5527.874179210338
 20
9038.896058145153
 30
0.0
 11
5527.874179210366
 21
7696.896058145146
 31
0.0
  0
LINE
  5
156E1
330
747D
100
AcDbEntity
  8
部品1
 48
50.0
100
AcDbLine
 10
5583.874179210365
 20
7751.89605814508
 30
0.0
 11
5527.874179210364
 21
7751.89605814508
 31
0.0
  0
LINE
  5
156E2
330
747D
100
AcDbEntity
  8
部品1
 48
50.0
100
AcDbLine
 10
5615.874179210397
 20
7751.89605814508
 30
0.0
 11
5592.874179210396
 21
7751.89605814508
 31
0.0
  0
LINE
  5
156E3
330
747D
100
AcDbEntity
  8
部品1
 48
50.0
100
AcDbLine
 10
5495.874179210396
 20
7751.89605814508
 30
0.0
 11
5518.874179210397
 21
7751.89605814508
 31
0.0
  0
LINE
  5
156E4
330
747D
100
AcDbEntity
  8
部品1
100
AcDbLine
 10
5495.874179210399
 20
7703.896058145115
 30
0.0
 11
5495.874179210396
 21
7751.89605814508
 31
0.0
  0
LINE
  5
156E5
330
747D
100
AcDbEntity
  8
部品1
100
AcDbLine
 10
5615.874179210398
 20
7703.896058145115
 30
0.0
 11
5615.874179210397
 21
7751.89605814508
 31
0.0
  0
LINE
  5
156E6
330
747D
100
AcDbEntity
  8
部品1
100
AcDbLine
 10
5504.874179210398
 20
7703.896058145109
 30
0.0
 11
5495.874179210399
 21
7703.896058145111
 31
0.0
  0
LINE
  5
156E7
330
747D
100
AcDbEntity
  8
部品1
100
AcDbLine
 10
5504.8741792104
 20
7696.896058145073
 30
0.0
 11
5504.874179210398
 21
7703.896058145109
 31
0.0
  0
LINE
  5
156E8
330
747D
100
AcDbEntity
  8
部品1
100
AcDbLine
 10
5615.874179210398
 20
7703.896058145115
 30
0.0
 11
5606.874179210398
 21
7703.896058145116
 31
0.0
  0
LINE
  5
156E9
330
747D
100
AcDbEntity
  8
部品1
100
AcDbLine
 10
5606.8741792104
 20
7696.89605814508
 30
0.0
 11
5606.874179210398
 21
7703.896058145116
 31
0.0
  0
LINE
  5
156EA
330
747D
100
AcDbEntity
  8
部品1
100
AcDbLine
 10
5555.874179210352
 20
8171.896058145158
 30
0.0
 11
5527.874179210352
 21
8171.896058145158
 31
0.0
  0
LINE
  5
156EB
330
747D
100
AcDbEntity
  8
部品1
100
AcDbLine
 10
5555.874179210347
 20
8591.896058145158
 30
0.0
 11
5527.874179210346
 21
8591.896058145158
 31
0.0
  0
LINE
  5
156EC
330
747D
100
AcDbEntity
  8
部品1
 48
50.0
100
AcDbLine
 10
5555.874179210372
 20
9038.896058145153
 30
0.0
 11
5527.874179210374
 21
9066.896058145209
 31
0.0
  0
LINE
  5
156ED
330
747D
100
AcDbEntity
  8
部品1
 48
50.0
100
AcDbLine
 10
5527.874179210374
 20
9038.896058145153
 30
0.0
 11
5555.874179210372
 21
9038.896058145155
 31
0.0
  0
LINE
  5
156EE
330
747D
100
AcDbEntity
  8
部品1
100
AcDbLine
 10
5583.874179210374
 20
9011.896058145129
 30
0.0
 11
5527.874179210374
 21
9011.896058145129
 31
0.0
  0
LINE
  5
156EF
330
747D
100
AcDbEntity
  8
部品1
 48
50.0
100
AcDbLine
 10
5527.874179210374
 20
9038.89605814526
 30
0.0
 11
5527.874179210373
 21
9066.896058145209
 31
0.0
  0
LINE
  5
156F0
330
747D
100
AcDbEntity
  8
部品1
 48
50.0
100
AcDbLine
 10
5583.874179210374
 20
9011.896058145129
 30
0.0
 11
5583.874179210374
 21
9066.896058145212
 31
0.0
  0
LINE
  5
156F1
330
747D
100
AcDbEntity
  8
部品1
100
AcDbLine
 10
5500.874179210407
 20
9066.896058145157
 30
0.0
 11
5500.874179210407
 21
9038.896058145157
 31
0.0
  0
LINE
  5
156F2
330
747D
100
AcDbEntity
  8
部品1
100
AcDbLine
 10
5610.874179210407
 20
9066.896058145157
 30
0.0
 11
5610.874179210407
 21
9038.896058145157
 31
0.0
  0
LINE
  5
156F3
330
747D
100
AcDbEntity
  8
部品1
100
AcDbLine
 10
5583.874179210374
 20
9038.896058145251
 30
0.0
 11
6858.374179210406
 21
9038.896058145256
 31
0.0
  0
DIMENSION
  5
15727
330
747D
100
AcDbEntity
  8
寸法
 48
50.0
100
AcDbDimension
  2
*D12
 10
7710.874179210406
 20
9502.374408091647
 30
0.0
 11
7765.874179210406
 21
9502.374408091647
 31
0.0
 70
   160
 71
     5
 42
110.0
  3
INABA_S40G
100
AcDbAlignedDimension
 13
7820.874179210406
 23
9066.896058145124
 33
0.0
 14
7710.874179210406
 24
9066.896058145124
 34
0.0
100
AcDbRotatedDimension
  0
DIMENSION
  5
15735
330
747D
100
AcDbEntity
  8
寸法
 48
50.0
100
AcDbDimension
  2
*D13
 10
5500.874179210407
 20
9502.374408091647
 30
0.0
 11
5555.874179210406
 21
9502.374408091647
 31
0.0
 70
   160
 71
     5
 42
109.9999999999991
  3
INABA_S40G
100
AcDbAlignedDimension
 13
5610.874179210407
 23
9066.896058145168
 33
0.0
 14
5500.874179210407
 24
9066.896058145252
 34
0.0
100
AcDbRotatedDimension
  0
LINE
  5
157D0
330
747D
100
AcDbEntity
  8
寸法
 48
50.0
100
AcDbLine
 10
4242.0084515006
 20
5201.352102402841
 30
0.0
 11
4410.732853914065
 21
4244.468466469496
 31
0.0
  0
LINE
  5
157D1
330
747D
100
AcDbEntity
  8
寸法
 48
50.0
100
AcDbLine
 10
4272.471249857173
 20
5201.35210240284
 30
0.0
 11
4436.279738510317
 21
4272.347998805217
 31
0.0
  0
LINE
  5
157D7
330
747D
100
AcDbEntity
  8
寸法
 48
50.0
100
AcDbLine
 10
4436.279738510314
 20
4272.347998805218
 30
0.0
 11
4723.357013200071
 21
4247.231991713946
 31
0.0
  0
LINE
  5
157D8
330
747D
100
AcDbEntity
  8
寸法
 48
50.0
100
AcDbLine
 10
4723.357013200071
 20
4247.231991713946
 30
0.0
 11
4281.617149170959
 21
4041.245310204824
 31
0.0
  0
LINE
  5
157D9
330
747D
100
AcDbEntity
  8
寸法
 48
50.0
100
AcDbLine
 10
4410.732853914065
 20
4244.468466469496
 30
0.0
 11
4609.206864092366
 21
4227.104240574365
 31
0.0
  0
LINE
  5
157DA
330
747D
100
AcDbEntity
  8
寸法
 48
50.0
100
AcDbLine
 10
4609.206864092366
 20
4227.104240574365
 30
0.0
 11
4167.467000063253
 21
4021.117559065242
 31
0.0
  0
LINE
  5
157DB
330
747D
100
AcDbEntity
  8
寸法
 48
50.0
100
AcDbLine
 10
4480.091159349259
 20
4023.881084309692
 30
0.0
 11
4691.251890116044
 21
2826.329070894838
 31
0.0
  0
LINE
  5
157DD
330
747D
100
AcDbEntity
  8
寸法
 48
50.0
100
AcDbLine
 10
4454.544274753009
 20
3996.00155197397
 30
0.0
 11
4167.467000063253
 21
4021.117559065242
 31
0.0
  0
LINE
  5
157DE
330
747D
100
AcDbEntity
  8
寸法
 48
50.0
100
AcDbLine
 10
4480.091159349259
 20
4023.881084309692
 30
0.0
 11
4281.617149170961
 21
4041.245310204824
 31
0.0
  0
LINE
  5
157DF
330
747D
100
AcDbEntity
  8
寸法
 48
50.0
100
AcDbLine
 10
4454.544274753009
 20
3996.00155197397
 30
0.0
 11
4660.789091759472
 21
2826.329070894838
 31
0.0
  0
LINE
  5
157E3
330
747D
100
AcDbEntity
  8
Ｇ．Ｌ
100
AcDbLine
 10
4666.996239760893
 20
2963.889699776994
 30
0.0
 11
14079.11997382948
 21
2963.889699776996
 31
0.0
  0
LINE
  5
157E4
330
747D
100
AcDbEntity
  8
部品1
100
AcDbLine
 10
4649.363541690049
 20
3063.889699776995
 30
0.0
 11
9975.874179210402
 21
3063.889699776995
 31
0.0
  0
LINE
  5
157E5
330
747D
100
AcDbEntity
  8
部品1
100
AcDbLine
 10
3345.8741792104
 20
3105.889699776998
 30
0.0
 11
4611.495010143721
 21
3105.889699777001
 31
0.0
  0
LINE
  5
157EC
330
747D
100
AcDbEntity
  8
部品1
100
AcDbLine
 10
4324.921897186474
 20
4903.889699776995
 30
0.0
 11
9975.874179210402
 21
4903.889699776995
 31
0.0
  0
LINE
  5
157F1
330
747D
100
AcDbEntity
  8
寸法
 48
50.0
100
AcDbLine
 10
3996.490921312267
 20
9134.665876564273
 30
0.0
 11
4092.463188715304
 21
8590.380101253945
 31
0.0
  0
LINE
  5
157F2
330
747D
100
AcDbEntity
  8
寸法
 48
50.0
100
AcDbLine
 10
3966.028122955695
 20
9134.665876564271
 30
0.0
 11
4066.916304119053
 21
8562.500568918222
 31
0.0
  0
LINE
  5
157F3
330
747D
100
AcDbEntity
  8
寸法
 48
50.0
100
AcDbLine
 10
4136.274609554248
 20
8341.91318675842
 30
0.0
 11
4261.662915620097
 21
7630.800766174506
 31
0.0
  0
LINE
  5
157F4
330
747D
100
AcDbEntity
  8
寸法
 48
50.0
100
AcDbLine
 10
4110.727724957997
 20
8314.033654422699
 30
0.0
 11
4231.200117263525
 21
7630.800766174506
 31
0.0
  0
LINE
  5
157F5
330
747D
100
AcDbEntity
  8
寸法
 48
50.0
100
AcDbLine
 10
4265.390314297355
 20
8545.136343023093
 30
0.0
 11
3823.650450268242
 21
8339.149661513969
 31
0.0
  0
LINE
  5
157F6
330
747D
100
AcDbEntity
  8
寸法
 48
50.0
100
AcDbLine
 10
4379.540463405059
 20
8565.264094162674
 30
0.0
 11
3937.800599375947
 21
8359.277412653552
 31
0.0
  0
LINE
  5
157F7
330
747D
100
AcDbEntity
  8
寸法
 48
50.0
100
AcDbLine
 10
4136.274609554248
 20
8341.91318675842
 30
0.0
 11
3937.800599375949
 21
8359.277412653552
 31
0.0
  0
LINE
  5
157F8
330
747D
100
AcDbEntity
  8
寸法
 48
50.0
100
AcDbLine
 10
4110.727724957997
 20
8314.033654422699
 30
0.0
 11
3823.650450268242
 21
8339.149661513969
 31
0.0
  0
LINE
  5
157F9
330
747D
100
AcDbEntity
  8
寸法
 48
50.0
100
AcDbLine
 10
4092.463188715302
 20
8590.380101253947
 30
0.0
 11
4379.540463405059
 21
8565.264094162674
 31
0.0
  0
LINE
  5
157FA
330
747D
100
AcDbEntity
  8
寸法
 48
50.0
100
AcDbLine
 10
4066.916304119053
 20
8562.500568918222
 30
0.0
 11
4265.390314297355
 21
8545.136343023093
 31
0.0
  0
LINE
  5
157FC
330
747D
100
AcDbEntity
  8
部品1
100
AcDbLine
 10
4219.545733991319
 20
7696.89605814502
 30
0.0
 11
3345.8741792104
 21
7696.896058144961
 31
0.0
  0
LINE
  5
15808
330
747D
100
AcDbEntity
  8
部品1
100
AcDbLine
 10
4008.440568777273
 20
9066.896058145147
 30
0.0
 11
9975.874179210409
 21
9066.896058145252
 31
0.0
  0
LINE
  5
15809
330
747D
100
AcDbEntity
  8
部品1
100
AcDbLine
 10
4013.377724237112
 20
9038.896058145132
 30
0.0
 11
4648.374179210424
 21
9038.896058145134
 31
0.0
  0
LINE
  5
1580A
330
747D
100
AcDbEntity
  8
寸法
  6
ByBlock
 48
50.0
100
AcDbLine
 10
3345.8741792104
 20
7676.89605814508
 30
0.0
 11
3345.8741792104
 21
6872.760088791554
 31
0.0
  0
LINE
  5
1580B
330
747D
100
AcDbEntity
  8
寸法
  6
ByBlock
 48
50.0
100
AcDbLine
 10
5555.874179210382
 20
7676.896058145209
 30
0.0
 11
5555.874179210382
 21
6872.760088791554
 31
0.0
  0
LINE
  5
1580C
330
747D
100
AcDbEntity
  8
寸法
  6
ByBlock
 48
50.0
100
AcDbLine
 10
3345.8741792104
 20
6932.760088791553
 30
0.0
 11
3845.8741792104
 21
6932.760088791553
 31
0.0
  0
INSERT
  5
1580D
330
747D
100
AcDbEntity
  8
寸法
  6
ByBlock
 48
50.0
100
AcDbBlockReference
  2
_DOTSMALL
 10
3345.8741792104
 20
6932.760088791553
 30
0.0
 41
100.0
 42
100.0
 43
100.0
 50
180.0
  0
INSERT
  5
1580E
330
747D
100
AcDbEntity
  8
寸法
  6
ByBlock
 48
50.0
100
AcDbBlockReference
  2
_DOTSMALL
 10
5555.874179210382
 20
6932.760088791553
 30
0.0
 41
100.0
 42
100.0
 43
100.0
  0
MTEXT
  5
1580F
330
747D
100
AcDbEntity
  8
部品1
  6
ByBlock
 48
50.0
100
AcDbMText
 10
3595.815743391949
 20
7032.760088791554
 30
0.0
 40
120.0
 41
0.0
 71
     5
 72
     1
  1
\A1;2210
  7
STYLE1
 73
     1
 44
1.0
1001
ACAD
1000
MTEXTBEGIN
1070
    73
1070
     1
1070
    44
1040
1.0
1070
    74
1070
     0
1000
MTEXTEND
  0
POINT
  5
15812
330
747D
100
AcDbEntity
  8
寸法
  6
ByBlock
 48
50.0
100
AcDbPoint
 10
5555.874179210382
 20
6932.760088791553
 30
0.0
  0
LINE
  5
15815
330
747D
100
AcDbEntity
  8
寸法
  6
ByBlock
 48
50.0
100
AcDbLine
 10
3400.874179210407
 20
9086.896058145125
 30
0.0
 11
3400.874179210407
 21
9562.374408091647
 31
0.0
  0
LINE
  5
15816
330
747D
100
AcDbEntity
  8
寸法
  6
ByBlock
 48
50.0
100
AcDbLine
 10
5500.874179210407
 20
9086.896058145253
 30
0.0
 11
5500.874179210407
 21
9562.374408091647
 31
0.0
  0
LINE
  5
15817
330
747D
100
AcDbEntity
  8
寸法
  6
ByBlock
 48
50.0
100
AcDbLine
 10
3400.874179210407
 20
9502.374408091647
 30
0.0
 11
3845.8741792104
 21
9502.374408091652
 31
0.0
  0
INSERT
  5
15818
330
747D
100
AcDbEntity
  8
寸法
  6
ByBlock
 48
50.0
100
AcDbBlockReference
  2
_DOTSMALL
 10
3400.874179210407
 20
9502.374408091647
 30
0.0
 41
100.0
 42
100.0
 43
100.0
 50
180.0
  0
INSERT
  5
15819
330
747D
100
AcDbEntity
  8
寸法
  6
ByBlock
 48
50.0
100
AcDbBlockReference
  2
_DOTSMALL
 10
5500.874179210407
 20
9502.374408091647
 30
0.0
 41
100.0
 42
100.0
 43
100.0
  0
MTEXT
  5
1581A
330
747D
100
AcDbEntity
  8
部品1
  6
ByBlock
 48
50.0
100
AcDbMText
 10
3620.488510209988
 20
9602.38621911527
 30
0.0
 40
120.0
 41
0.0
 71
     5
 72
     1
  1
\A1;2100
  7
STYLE1
 73
     1
 44
1.0
1001
ACAD
1000
MTEXTBEGIN
1070
    73
1070
     1
1070
    44
1040
1.0
1070
    74
1070
     0
1000
MTEXTEND
  0
POINT
  5
1581D
330
747D
100
AcDbEntity
  8
寸法
  6
ByBlock
 48
50.0
100
AcDbPoint
 10
5500.874179210407
 20
9502.374408091647
 30
0.0
  0
LINE
  5
1581E
330
747D
100
AcDbEntity
  8
寸法
  6
ByBlock
 48
50.0
100
AcDbLine
 10
5055.874179210382
 20
6932.760088791553
 30
0.0
 11
5555.874179210382
 21
6932.760088791553
 31
0.0
  0
LINE
  5
1581F
330
747D
100
AcDbEntity
  8
寸法
  6
ByBlock
 48
50.0
100
AcDbLine
 10
5055.87417921038
 20
9502.374408091645
 30
0.0
 11
5500.874179210407
 21
9502.374408091647
 31
0.0
  0
MTEXT
  5
1583A
330
747D
100
AcDbEntity
  8
部品1
  6
ByBlock
 48
50.0
100
AcDbMText
 10
5300.319261542609
 20
7032.760088791554
 30
0.0
 40
120.0
 41
0.0
 71
     5
 72
     1
  1
\A1;2210
  7
STYLE1
 73
     1
 44
1.0
1001
ACAD
1000
MTEXTBEGIN
1070
    73
1070
     1
1070
    44
1040
1.0
1070
    74
1070
     0
1000
MTEXTEND
  0
MTEXT
  5
1583B
330
747D
100
AcDbEntity
  8
部品1
  6
ByBlock
 48
50.0
100
AcDbMText
 10
5254.059781372184
 20
9602.38621911527
 30
0.0
 40
120.0
 41
0.0
 71
     5
 72
     1
  1
\A1;2100
  7
STYLE1
 73
     1
 44
1.0
1001
ACAD
1000
MTEXTBEGIN
1070
    73
1070
     1
1070
    44
1040
1.0
1070
    74
1070
     0
1000
MTEXTEND
  0
LINE
  5
15874
330
747D
100
AcDbEntity
  8
部品1
 48
50.0
100
AcDbLine
 10
6030.874179210407
 20
9038.896058145253
 30
0.0
 11
6030.874179210407
 21
9066.896058145182
 31
0.0
  0
LINE
  5
15875
330
747D
100
AcDbEntity
  8
部品1
 48
50.0
100
AcDbLine
 10
6450.874179210408
 20
9038.896058145253
 30
0.0
 11
6450.874179210408
 21
9066.896058145182
 31
0.0
  0
LINE
  5
15876
330
747D
100
AcDbEntity
  8
部品1
 48
50.0
100
AcDbLine
 10
3820.874179210408
 20
9038.896058145253
 30
0.0
 11
3820.874179210408
 21
9066.896058145182
 31
0.0
  0
LINE
  5
15877
330
747D
100
AcDbEntity
  8
部品1
 48
50.0
100
AcDbLine
 10
4240.874179210407
 20
9038.896058145253
 30
0.0
 11
4240.874179210407
 21
9066.896058145182
 31
0.0
  0
LINE
  5
16011
330
747D
100
AcDbEntity
  8
部品1
100
AcDbLine
 10
9500.874179210406
 20
9066.896058145273
 30
0.0
 11
9500.874179210406
 21
9038.896058145272
 31
0.0
  0
LINE
  5
16012
330
747D
100
AcDbEntity
  8
部品1
 48
50.0
100
AcDbLine
 10
6870.874179210407
 20
9038.896058145253
 30
0.0
 11
6870.874179210407
 21
9066.896058145182
 31
0.0
  0
LINE
  5
16013
330
747D
100
AcDbEntity
  8
部品1
 48
50.0
100
AcDbLine
 10
5080.874179210407
 20
9038.896058145253
 30
0.0
 11
5080.874179210407
 21
9066.896058145182
 31
0.0
  0
LINE
  5
16125
330
747D
100
AcDbEntity
  8
部品1
100
AcDbLine
 10
7793.874179210374
 20
9038.89605814526
 30
0.0
 11
9068.374179210406
 21
9038.896058145265
 31
0.0
  0
LINE
  5
161D3
330
747D
100
AcDbEntity
  8
部品1
100
AcDbLine
 10
4641.957808500293
 20
3105.889699777001
 30
0.0
 11
9975.874179210402
 21
3105.889699777015
 31
0.0
  0
LINE
  5
162F9
330
747D
100
AcDbEntity
  8
部品1
100
AcDbLine
 10
7765.874179210401
 20
3105.889699777009
 30
0.0
 11
7765.874179210401
 21
3063.889699776996
 31
0.0
  0
LINE
  5
162FA
330
747D
100
AcDbEntity
  8
部品1
100
AcDbLine
 10
5555.874179210401
 20
3105.889699777009
 30
0.0
 11
5555.874179210401
 21
3063.889699776996
 31
0.0
  0
LINE
  5
16A8E
330
747D
100
AcDbEntity
  8
部品1
100
AcDbLine
 10
8660.874179210408
 20
9066.896058145157
 30
0.0
 11
8660.874179210408
 21
9038.896058145157
 31
0.0
  0
LINE
  5
16A8F
330
747D
100
AcDbEntity
  8
部品1
100
AcDbLine
 10
8660.874179210408
 20
9066.896058145156
 30
0.0
 11
8660.874179210408
 21
9038.896058145155
 31
0.0
  0
LINE
  5
16A90
330
747D
100
AcDbEntity
  8
部品1
100
AcDbLine
 10
8660.874179210408
 20
9066.896058145273
 30
0.0
 11
8660.874179210408
 21
9038.896058145272
 31
0.0
  0
LINE
  5
16B04
330
747D
100
AcDbEntity
  8
部品1
 48
50.0
100
AcDbLine
 10
4660.874179210408
 20
9038.896058145253
 30
0.0
 11
4660.874179210408
 21
9066.896058145182
 31
0.0
  0
LINE
  5
16B05
330
747D
100
AcDbEntity
  8
部品1
 48
50.0
100
AcDbLine
 10
7290.874179210408
 20
9038.896058145253
 30
0.0
 11
7290.874179210408
 21
9066.896058145182
 31
0.0
  0
LINE
  5
16B06
330
747D
100
AcDbEntity
  8
部品1
100
AcDbLine
 10
9080.874179210407
 20
9066.896058145157
 30
0.0
 11
9080.874179210407
 21
9038.896058145157
 31
0.0
  0
LINE
  5
16B07
330
747D
100
AcDbEntity
  8
部品1
100
AcDbLine
 10
9080.874179210407
 20
9066.896058145156
 30
0.0
 11
9080.874179210407
 21
9038.896058145155
 31
0.0
  0
LINE
  5
16B08
330
747D
100
AcDbEntity
  8
部品1
100
AcDbLine
 10
9080.874179210407
 20
9066.896058145273
 30
0.0
 11
9080.874179210407
 21
9038.896058145272
 31
0.0
  0
LINE
  5
16B0A
330
747D
100
AcDbEntity
  8
部品1
100
AcDbLine
 10
9947.374179210408
 20
9036.896058145252
 30
0.0
 11
9947.374179210408
 21
8586.896058145255
 31
0.0
  0
DIMENSION
  5
16B0B
330
747D
100
AcDbEntity
  8
寸法
100
AcDbDimension
  2
*D16
 10
10302.73190507243
 20
8491.678242476366
 30
0.0
 11
10202.73190507243
 21
8716.678242476367
 31
0.0
 70
    32
 71
     5
 42
449.9999999999963
  3
INABA_S40G
100
AcDbAlignedDimension
 13
9947.374179210408
 23
9036.896058145252
 33
0.0
 14
9947.374179210408
 24
8586.896058145255
 34
0.0
 50
90.0
100
AcDbRotatedDimension
1001
ACAD
1000
DSTYLE
1002
{
1002
}
  0
LINE
  5
16B0C
330
747D
100
AcDbEntity
  8
細線
 48
50.0
100
AcDbLine
 10
9947.374179210408
 20
9036.896058145252
 30
0.0
 11
9094.374179210406
 21
8586.896058145262
 31
0.0
  0
LINE
  5
16B0D
330
747D
100
AcDbEntity
  8
部品1
100
AcDbLine
 10
9094.374179210406
 20
9036.896058145259
 30
0.0
 11
9947.374179210408
 21
9036.896058145252
 31
0.0
  0
LINE
  5
16B0E
330
747D
100
AcDbEntity
  8
部品1
 48
50.0
100
AcDbLine
 10
9093.374179210407
 20
9038.896058145263
 30
0.0
 11
9093.374179210407
 21
8586.896058145262
 31
0.0
  0
LINE
  5
16B0F
330
747D
100
AcDbEntity
  8
部品1
 48
50.0
100
AcDbLine
 10
9068.374179210406
 20
9038.896058145267
 30
0.0
 11
9068.374179210406
 21
8586.896058145262
 31
0.0
  0
LINE
  5
16B10
330
747D
100
AcDbEntity
  8
部品1
 48
50.0
100
AcDbLine
 10
9094.374179210406
 20
9036.896058145256
 30
0.0
 11
9094.374179210406
 21
8586.896058145262
 31
0.0
  0
LINE
  5
16B11
330
747D
100
AcDbEntity
  8
部品1
 48
50.0
100
AcDbLine
 10
9067.374179210407
 20
9036.896058145259
 30
0.0
 11
9067.374179210407
 21
8586.896058145262
 31
0.0
  0
LINE
  5
16B12
330
747D
100
AcDbEntity
  8
細線
 48
50.0
100
AcDbLine
 10
9067.374179210407
 20
8586.896058145262
 30
0.0
 11
7794.374179210406
 21
9036.896058145158
 31
0.0
  0
LINE
  5
16B13
330
747D
100
AcDbEntity
  8
細線
 48
50.0
100
AcDbLine
 10
9947.374179210408
 20
8586.896058145255
 30
0.0
 11
9094.374179210406
 21
9036.896058145256
 31
0.0
  0
LINE
  5
16B14
330
747D
100
AcDbEntity
  8
部品1
100
AcDbLine
 10
7794.374179210409
 20
8586.896058145157
 30
0.0
 11
9067.374179210407
 21
8586.896058145262
 31
0.0
  0
DIMENSION
  5
16B15
330
747D
100
AcDbEntity
  8
寸法
100
AcDbDimension
  2
*D14
 10
8988.369963228933
 20
8292.048310090104
 30
0.0
 11
8336.705035130464
 21
8292.048310090104
 31
0.0
 70
   160
 71
     5
 42
1273.000000000011
  3
INABA_S40G
100
AcDbAlignedDimension
 13
7794.374179210409
 23
8586.896058145157
 33
0.0
 14
9067.374179210419
 24
8586.89605814515
 34
0.0
100
AcDbRotatedDimension
1001
ACAD
1000
DSTYLE
1002
{
1002
}
  0
LINE
  5
16B16
330
747D
100
AcDbEntity
  8
部品1
100
AcDbLine
 10
9094.374179210406
 20
8586.896058145262
 30
0.0
 11
9947.374179210408
 21
8586.896058145255
 31
0.0
  0
DIMENSION
  5
16B17
330
747D
100
AcDbEntity
  8
寸法
100
AcDbDimension
  2
*D15
 10
9868.80540565399
 20
8293.673403344289
 30
0.0
 11
9473.721241328677
 21
8293.673403344289
 31
0.0
 70
   160
 71
     5
 42
853.0000000000127
  3
INABA_S40G
100
AcDbAlignedDimension
 13
9094.374179210406
 23
8586.896058145262
 33
0.0
 14
9947.37417921042
 24
8586.896058145255
 34
0.0
100
AcDbRotatedDimension
1001
ACAD
1000
DSTYLE
1002
{
1002
}
  0
LINE
  5
16B18
330
747D
100
AcDbEntity
  8
部品1
100
AcDbLine
 10
9068.374179210406
 20
8586.896058145262
 30
0.0
 11
9093.374179210407
 21
8586.896058145262
 31
0.0
  0
LINE
  5
16B19
330
747D
100
AcDbEntity
  8
細線
 48
50.0
100
AcDbLine
 10
9067.374179210407
 20
9036.896058145259
 30
0.0
 11
7794.374179210406
 21
8586.896058145157
 31
0.0
  0
LINE
  5
16B1A
330
747D
100
AcDbEntity
  8
部品1
100
AcDbLine
 10
7794.374179210406
 20
9036.896058145158
 30
0.0
 11
9067.374179210407
 21
9036.896058145263
 31
0.0
  0
LINE
  5
16B1B
330
747D
100
AcDbEntity
  8
部品1
100
AcDbLine
 10
9045.874179210406
 20
9056.896058145261
 30
0.0
 11
9051.874179210406
 21
9056.896058145261
 31
0.0
  0
LINE
  5
16B1C
330
747D
100
AcDbEntity
  8
部品1
100
AcDbLine
 10
9045.874179210406
 20
9056.896058145261
 30
0.0
 11
9045.874179210406
 21
9038.89605814526
 31
0.0
  0
LINE
  5
16B1D
330
747D
100
AcDbEntity
  8
部品1
100
AcDbLine
 10
9109.874179210406
 20
9056.896058145261
 30
0.0
 11
9115.874179210406
 21
9056.896058145261
 31
0.0
  0
LINE
  5
16B1E
330
747D
100
AcDbEntity
  8
部品1
100
AcDbLine
 10
9115.874179210406
 20
9056.896058145261
 30
0.0
 11
9115.874179210406
 21
9038.89605814526
 31
0.0
  0
LINE
  5
16B1F
330
747D
100
AcDbEntity
  8
部品1
100
AcDbLine
 10
9068.374179210406
 20
9030.896058145255
 30
0.0
 11
9093.374179210407
 21
9030.896058145259
 31
0.0
  0
LINE
  5
16B20
330
747D
100
AcDbEntity
  8
部品1
 48
50.0
100
AcDbLine
 10
7794.374179210406
 20
9036.896058145154
 30
0.0
 11
7794.374179210406
 21
8586.896058145155
 31
0.0
  0
LINE
  5
16B23
330
747D
100
AcDbEntity
  8
部品1
100
AcDbLine
 10
7822.374179210385
 20
8586.896058145255
 30
0.0
 11
7822.374179210398
 21
7827.396058145247
 31
0.0
  0
LINE
  5
16B24
330
747D
100
AcDbEntity
  8
破線
 48
10.0
100
AcDbLine
 10
7845.874179210383
 20
8586.896058145255
 30
0.0
 11
7845.874179210396
 21
7850.89605814515
 31
0.0
  0
LINE
  5
16B25
330
747D
100
AcDbEntity
  8
部品1
 48
50.0
100
AcDbLine
 10
9919.374179210393
 20
8171.896058145255
 30
0.0
 11
7822.374179210392
 21
8171.896058145343
 31
0.0
  0
LINE
  5
16B26
330
747D
100
AcDbEntity
  8
破線
 48
10.0
100
AcDbLine
 10
9191.374179210425
 20
7850.896058145211
 30
0.0
 11
8550.374179210423
 21
7850.896058145181
 31
0.0
  0
LINE
  5
16B27
330
747D
100
AcDbEntity
  8
部品1
100
AcDbLine
 10
9947.874179210385
 20
7798.896058145247
 30
0.0
 11
7793.874179210381
 21
7798.896058145148
 31
0.0
  0
LINE
  5
16B28
330
747D
100
AcDbEntity
  8
部品1
100
AcDbLine
 10
9919.374179210386
 20
7827.396058145247
 30
0.0
 11
7822.374179210301
 21
7827.396058145151
 31
0.0
  0
LINE
  5
16B29
330
747D
100
AcDbEntity
  8
部品1
 48
50.0
100
AcDbLine
 10
7822.374179210398
 20
7827.396058145247
 30
0.0
 11
7793.8741792104
 21
7798.896058145247
 31
0.0
  0
LINE
  5
16B2A
330
747D
100
AcDbEntity
  8
破線
 48
10.0
100
AcDbLine
 10
9895.874179210387
 20
7850.896058145245
 30
0.0
 11
9241.374179210426
 21
7850.896058145216
 31
0.0
  0
LINE
  5
16B2B
330
747D
100
AcDbEntity
  8
部品1
100
AcDbLine
 10
9919.3741792104
 20
8586.896058145255
 30
0.0
 11
9919.374179210386
 21
7827.396058145243
 31
0.0
  0
LINE
  5
16B2C
330
747D
100
AcDbEntity
  8
破線
 48
10.0
100
AcDbLine
 10
9895.874179210402
 20
8586.896058145255
 30
0.0
 11
9895.874179210387
 21
7850.896058145247
 31
0.0
  0
LINE
  5
16B2D
330
747D
100
AcDbEntity
  8
部品1
 48
50.0
100
AcDbLine
 10
9919.374179210386
 20
7827.396058145247
 30
0.0
 11
9947.874179210385
 21
7798.896058145247
 31
0.0
  0
LINE
  5
16B92
330
747D
100
AcDbEntity
  8
部品1
100
AcDbLine
 10
7737.374179210409
 20
9036.896058145217
 30
0.0
 11
7737.374179210409
 21
8586.896058145221
 31
0.0
  0
LINE
  5
16B94
330
747D
100
AcDbEntity
  8
細線
 48
50.0
100
AcDbLine
 10
7737.374179210409
 20
9036.896058145217
 30
0.0
 11
6884.374179210407
 21
8586.896058145228
 31
0.0
  0
LINE
  5
16B95
330
747D
100
AcDbEntity
  8
部品1
100
AcDbLine
 10
6884.374179210407
 20
9036.896058145224
 30
0.0
 11
7737.374179210409
 21
9036.896058145217
 31
0.0
  0
LINE
  5
16B96
330
747D
100
AcDbEntity
  8
部品1
 48
50.0
100
AcDbLine
 10
6883.374179210406
 20
9038.896058145228
 30
0.0
 11
6883.374179210406
 21
8586.896058145228
 31
0.0
  0
LINE
  5
16B97
330
747D
100
AcDbEntity
  8
部品1
 48
50.0
100
AcDbLine
 10
6858.374179210406
 20
9038.896058145232
 30
0.0
 11
6858.374179210406
 21
8586.896058145228
 31
0.0
  0
LINE
  5
16B98
330
747D
100
AcDbEntity
  8
部品1
 48
50.0
100
AcDbLine
 10
6884.374179210407
 20
9036.896058145222
 30
0.0
 11
6884.374179210407
 21
8586.896058145228
 31
0.0
  0
LINE
  5
16B99
330
747D
100
AcDbEntity
  8
部品1
 48
50.0
100
AcDbLine
 10
6857.374179210407
 20
9036.896058145224
 30
0.0
 11
6857.374179210407
 21
8586.896058145228
 31
0.0
  0
LINE
  5
16B9A
330
747D
100
AcDbEntity
  8
細線
 48
50.0
100
AcDbLine
 10
6857.374179210407
 20
8586.896058145228
 30
0.0
 11
5584.374179210406
 21
9036.896058145122
 31
0.0
  0
LINE
  5
16B9B
330
747D
100
AcDbEntity
  8
細線
 48
50.0
100
AcDbLine
 10
7737.374179210409
 20
8586.896058145221
 30
0.0
 11
6884.374179210407
 21
9036.896058145222
 31
0.0
  0
LINE
  5
16B9C
330
747D
100
AcDbEntity
  8
部品1
100
AcDbLine
 10
5584.374179210408
 20
8586.896058145123
 30
0.0
 11
6857.374179210407
 21
8586.896058145228
 31
0.0
  0
LINE
  5
16B9E
330
747D
100
AcDbEntity
  8
部品1
100
AcDbLine
 10
6884.374179210407
 20
8586.896058145228
 30
0.0
 11
7737.374179210409
 21
8586.896058145221
 31
0.0
  0
LINE
  5
16BA0
330
747D
100
AcDbEntity
  8
部品1
100
AcDbLine
 10
6858.374179210406
 20
8586.896058145228
 30
0.0
 11
6883.374179210406
 21
8586.896058145228
 31
0.0
  0
LINE
  5
16BA1
330
747D
100
AcDbEntity
  8
細線
 48
50.0
100
AcDbLine
 10
6857.374179210407
 20
9036.896058145224
 30
0.0
 11
5584.374179210406
 21
8586.896058145123
 31
0.0
  0
LINE
  5
16BA2
330
747D
100
AcDbEntity
  8
部品1
100
AcDbLine
 10
5584.374179210406
 20
9036.896058145122
 30
0.0
 11
6857.374179210407
 21
9036.896058145229
 31
0.0
  0
LINE
  5
16BA3
330
747D
100
AcDbEntity
  8
部品1
100
AcDbLine
 10
6835.874179210406
 20
9056.896058145225
 30
0.0
 11
6841.874179210407
 21
9056.896058145225
 31
0.0
  0
LINE
  5
16BA4
330
747D
100
AcDbEntity
  8
部品1
100
AcDbLine
 10
6835.874179210406
 20
9056.896058145225
 30
0.0
 11
6835.874179210406
 21
9038.896058145224
 31
0.0
  0
LINE
  5
16BA5
330
747D
100
AcDbEntity
  8
部品1
100
AcDbLine
 10
6899.874179210407
 20
9056.896058145225
 30
0.0
 11
6905.874179210407
 21
9056.896058145225
 31
0.0
  0
LINE
  5
16BA6
330
747D
100
AcDbEntity
  8
部品1
100
AcDbLine
 10
6905.874179210407
 20
9056.896058145225
 30
0.0
 11
6905.874179210407
 21
9038.896058145224
 31
0.0
  0
LINE
  5
16BA7
330
747D
100
AcDbEntity
  8
部品1
100
AcDbLine
 10
6858.374179210406
 20
9030.896058145222
 30
0.0
 11
6883.374179210406
 21
9030.896058145225
 31
0.0
  0
LINE
  5
16BA8
330
747D
100
AcDbEntity
  8
部品1
 48
50.0
100
AcDbLine
 10
5584.374179210406
 20
9036.896058145119
 30
0.0
 11
5584.374179210406
 21
8586.89605814512
 31
0.0
  0
LINE
  5
16BAB
330
747D
100
AcDbEntity
  8
部品1
100
AcDbLine
 10
5612.374179210385
 20
8586.896058145221
 30
0.0
 11
5612.374179210398
 21
7827.396058145211
 31
0.0
  0
LINE
  5
16BAC
330
747D
100
AcDbEntity
  8
破線
 48
10.0
100
AcDbLine
 10
5635.874179210382
 20
8586.896058145221
 30
0.0
 11
5635.874179210396
 21
7850.896058145116
 31
0.0
  0
LINE
  5
16BAD
330
747D
100
AcDbEntity
  8
部品1
 48
50.0
100
AcDbLine
 10
7709.374179210392
 20
8171.89605814522
 30
0.0
 11
5612.374179210392
 21
8171.896058145309
 31
0.0
  0
LINE
  5
16BAE
330
747D
100
AcDbEntity
  8
破線
 48
10.0
100
AcDbLine
 10
6981.374179210426
 20
7850.896058145178
 30
0.0
 11
6340.374179210422
 21
7850.896058145146
 31
0.0
  0
LINE
  5
16BAF
330
747D
100
AcDbEntity
  8
部品1
100
AcDbLine
 10
7737.874179210385
 20
7798.896058145212
 30
0.0
 11
5583.874179210381
 21
7798.896058145114
 31
0.0
  0
LINE
  5
16BB0
330
747D
100
AcDbEntity
  8
部品1
100
AcDbLine
 10
7709.374179210387
 20
7827.396058145211
 30
0.0
 11
5612.374179210301
 21
7827.396058145116
 31
0.0
  0
LINE
  5
16BB1
330
747D
100
AcDbEntity
  8
部品1
 48
50.0
100
AcDbLine
 10
5612.374179210398
 20
7827.396058145211
 30
0.0
 11
5583.8741792104
 21
7798.896058145212
 31
0.0
  0
LINE
  5
16BB2
330
747D
100
AcDbEntity
  8
破線
 48
10.0
100
AcDbLine
 10
7685.874179210387
 20
7850.89605814521
 30
0.0
 11
7031.374179210425
 21
7850.896058145181
 31
0.0
  0
LINE
  5
16BB3
330
747D
100
AcDbEntity
  8
部品1
100
AcDbLine
 10
7709.374179210399
 20
8586.896058145221
 30
0.0
 11
7709.374179210384
 21
7827.396058145208
 31
0.0
  0
LINE
  5
16BB4
330
747D
100
AcDbEntity
  8
破線
 48
10.0
100
AcDbLine
 10
7685.874179210401
 20
8586.896058145221
 30
0.0
 11
7685.874179210388
 21
7850.896058145211
 31
0.0
  0
LINE
  5
16BB5
330
747D
100
AcDbEntity
  8
部品1
 48
50.0
100
AcDbLine
 10
7709.374179210387
 20
7827.396058145211
 30
0.0
 11
7737.874179210385
 21
7798.896058145212
 31
0.0
  0
LINE
  5
16C1A
330
747D
100
AcDbEntity
  8
部品1
100
AcDbLine
 10
5527.374179210426
 20
9036.896058145087
 30
0.0
 11
5527.374179210426
 21
8586.896058145091
 31
0.0
  0
LINE
  5
16C1C
330
747D
100
AcDbEntity
  8
細線
 48
50.0
100
AcDbLine
 10
5527.374179210426
 20
9036.896058145087
 30
0.0
 11
4674.374179210424
 21
8586.896058145098
 31
0.0
  0
LINE
  5
16C1D
330
747D
100
AcDbEntity
  8
部品1
100
AcDbLine
 10
4674.374179210424
 20
9036.896058145096
 30
0.0
 11
5527.374179210426
 21
9036.896058145087
 31
0.0
  0
LINE
  5
16C1E
330
747D
100
AcDbEntity
  8
部品1
 48
50.0
100
AcDbLine
 10
4673.374179210425
 20
9038.896058145098
 30
0.0
 11
4673.374179210425
 21
8586.896058145098
 31
0.0
  0
LINE
  5
16C1F
330
747D
100
AcDbEntity
  8
部品1
 48
50.0
100
AcDbLine
 10
4648.374179210424
 20
9038.896058145104
 30
0.0
 11
4648.374179210424
 21
8586.896058145098
 31
0.0
  0
LINE
  5
16C20
330
747D
100
AcDbEntity
  8
部品1
 48
50.0
100
AcDbLine
 10
4674.374179210424
 20
9036.896058145092
 30
0.0
 11
4674.374179210424
 21
8586.896058145098
 31
0.0
  0
LINE
  5
16C21
330
747D
100
AcDbEntity
  8
部品1
 48
50.0
100
AcDbLine
 10
4647.374179210425
 20
9036.896058145096
 30
0.0
 11
4647.374179210425
 21
8586.896058145098
 31
0.0
  0
LINE
  5
16C22
330
747D
100
AcDbEntity
  8
細線
 48
50.0
100
AcDbLine
 10
4647.374179210425
 20
8586.896058145098
 30
0.0
 11
4056.231082071708
 21
8795.86258894821
 31
0.0
  0
LINE
  5
16C23
330
747D
100
AcDbEntity
  8
細線
 48
50.0
100
AcDbLine
 10
5527.374179210426
 20
8586.896058145091
 30
0.0
 11
4674.374179210424
 21
9036.896058145092
 31
0.0
  0
LINE
  5
16C24
330
747D
100
AcDbEntity
  8
部品1
100
AcDbLine
 10
3374.374179210427
 20
8586.896058144994
 30
0.0
 11
4062.61472116078
 21
8586.896058145052
 31
0.0
  0
LINE
  5
16C26
330
747D
100
AcDbEntity
  8
部品1
100
AcDbLine
 10
4674.374179210424
 20
8586.896058145098
 30
0.0
 11
5527.374179210426
 21
8586.896058145091
 31
0.0
  0
LINE
  5
16C28
330
747D
100
AcDbEntity
  8
部品1
100
AcDbLine
 10
4648.374179210424
 20
8586.896058145098
 30
0.0
 11
4673.374179210425
 21
8586.896058145098
 31
0.0
  0
LINE
  5
16C29
330
747D
100
AcDbEntity
  8
細線
 48
50.0
100
AcDbLine
 10
4647.374179210425
 20
9036.896058145096
 30
0.0
 11
4050.908572087168
 21
8826.048043058271
 31
0.0
  0
LINE
  5
16C2A
330
747D
100
AcDbEntity
  8
部品1
100
AcDbLine
 10
3374.374179210425
 20
9036.896058144995
 30
0.0
 11
3983.267579841972
 21
9036.896058145044
 31
0.0
  0
LINE
  5
16C2B
330
747D
100
AcDbEntity
  8
部品1
100
AcDbLine
 10
4625.874179210424
 20
9056.896058145095
 30
0.0
 11
4631.874179210424
 21
9056.896058145095
 31
0.0
  0
LINE
  5
16C2C
330
747D
100
AcDbEntity
  8
部品1
100
AcDbLine
 10
4625.874179210424
 20
9056.896058145095
 30
0.0
 11
4625.874179210424
 21
9038.896058145097
 31
0.0
  0
LINE
  5
16C2D
330
747D
100
AcDbEntity
  8
部品1
100
AcDbLine
 10
4689.874179210424
 20
9056.896058145095
 30
0.0
 11
4695.874179210425
 21
9056.896058145095
 31
0.0
  0
LINE
  5
16C2E
330
747D
100
AcDbEntity
  8
部品1
100
AcDbLine
 10
4695.874179210425
 20
9056.896058145095
 30
0.0
 11
4695.874179210425
 21
9038.896058145097
 31
0.0
  0
LINE
  5
16C2F
330
747D
100
AcDbEntity
  8
部品1
100
AcDbLine
 10
4648.374179210424
 20
9030.896058145092
 30
0.0
 11
4673.374179210425
 21
9030.896058145096
 31
0.0
  0
LINE
  5
16C30
330
747D
100
AcDbEntity
  8
部品1
 48
50.0
100
AcDbLine
 10
3374.374179210425
 20
9036.896058144989
 30
0.0
 11
3374.374179210425
 21
8586.89605814499
 31
0.0
  0
LINE
  5
16C33
330
747D
100
AcDbEntity
  8
部品1
100
AcDbLine
 10
3402.374179210403
 20
8586.896058145091
 30
0.0
 11
3402.374179210415
 21
7827.396058145083
 31
0.0
  0
LINE
  5
16C34
330
747D
100
AcDbEntity
  8
破線
 48
10.0
100
AcDbLine
 10
3425.874179210401
 20
8586.896058145091
 30
0.0
 11
3425.874179210414
 21
7850.896058144987
 31
0.0
  0
LINE
  5
16C35
330
747D
100
AcDbEntity
  8
部品1
 48
50.0
100
AcDbLine
 10
5499.37417921041
 20
8171.896058145092
 30
0.0
 11
4166.253216511349
 21
8171.896058145147
 31
0.0
  0
LINE
  5
16C36
330
747D
100
AcDbEntity
  8
破線
 48
10.0
100
AcDbLine
 10
4771.374179210461
 20
7850.896058145046
 30
0.0
 11
4222.854177318787
 21
7850.896058145022
 31
0.0
  0
LINE
  5
16C37
330
747D
100
AcDbEntity
  8
部品1
100
AcDbLine
 10
5527.874179210403
 20
7798.896058145082
 30
0.0
 11
4232.023180315628
 21
7798.896058145023
 31
0.0
  0
LINE
  5
16C38
330
747D
100
AcDbEntity
  8
部品1
100
AcDbLine
 10
5499.374179210405
 20
7827.396058145083
 30
0.0
 11
4226.997861365436
 21
7827.396058145023
 31
0.0
  0
LINE
  5
16C39
330
747D
100
AcDbEntity
  8
部品1
 48
50.0
100
AcDbLine
 10
3402.374179210415
 20
7827.396058145083
 30
0.0
 11
3373.874179210417
 21
7798.896058145082
 31
0.0
  0
LINE
  5
16C3A
330
747D
100
AcDbEntity
  8
破線
 48
10.0
100
AcDbLine
 10
5475.874179210404
 20
7850.896058145081
 30
0.0
 11
4821.374179210459
 21
7850.896058145052
 31
0.0
  0
LINE
  5
16C3B
330
747D
100
AcDbEntity
  8
部品1
100
AcDbLine
 10
5499.374179210417
 20
8586.896058145091
 30
0.0
 11
5499.374179210403
 21
7827.39605814508
 31
0.0
  0
LINE
  5
16C3C
330
747D
100
AcDbEntity
  8
破線
 48
10.0
100
AcDbLine
 10
5475.874179210419
 20
8586.896058145091
 30
0.0
 11
5475.874179210407
 21
7850.896058145083
 31
0.0
  0
LINE
  5
16C3D
330
747D
100
AcDbEntity
  8
部品1
 48
50.0
100
AcDbLine
 10
5499.374179210405
 20
7827.396058145083
 30
0.0
 11
5527.874179210403
 21
7798.896058145082
 31
0.0
  0
LINE
  5
16CA2
330
747D
100
AcDbEntity
  8
部品1
100
AcDbLine
 10
9093.374179210407
 20
9038.896058145267
 30
0.0
 11
9947.874179210408
 21
9038.896058145271
 31
0.0
  0
LINE
  5
16CA3
330
747D
100
AcDbEntity
  8
部品1
100
AcDbLine
 10
6883.374179210406
 20
9038.896058145258
 30
0.0
 11
7737.874179210374
 21
9038.896058145263
 31
0.0
  0
LINE
  5
16CA4
330
747D
100
AcDbEntity
  8
部品1
100
AcDbLine
 10
4673.374179210425
 20
9038.896058145246
 30
0.0
 11
5555.874179210277
 21
9038.896058145251
 31
0.0
  0
LINE
  5
16CA6
330
747D
100
AcDbEntity
  8
部品1
100
AcDbLine
 10
4013.730378198544
 20
9036.896058145044
 30
0.0
 11
4647.374179210425
 21
9036.896058145099
 31
0.0
  0
LINE
  5
16CA7
330
747D
100
AcDbEntity
  8
細線
 48
50.0
100
AcDbLine
 10
4022.233137264938
 20
8815.911400740908
 30
0.0
 11
3374.374179210425
 21
8586.896058144994
 31
0.0
  0
LINE
  5
16CA8
330
747D
100
AcDbEntity
  8
細線
 48
50.0
100
AcDbLine
 10
4023.743292991422
 20
8807.346882024507
 30
0.0
 11
3374.374179210425
 21
9036.896058144995
 31
0.0
  0
LINE
  5
16CA9
330
747D
100
AcDbEntity
  8
部品1
100
AcDbLine
 10
4132.285983674989
 20
8586.896058145057
 30
0.0
 11
4647.374179210425
 21
8586.896058145098
 31
0.0
  0
LINE
  5
16CAA
330
747D
100
AcDbEntity
  8
部品1
 48
50.0
100
AcDbLine
 10
4135.790418154776
 20
8171.896058145149
 30
0.0
 11
3402.37417921041
 21
8171.896058145179
 31
0.0
  0
LINE
  5
16CAB
330
747D
100
AcDbEntity
  8
破線
 48
10.0
100
AcDbLine
 10
4192.391378962215
 20
7850.896058145021
 30
0.0
 11
4130.374179210458
 21
7850.896058145018
 31
0.0
  0
LINE
  5
16CAC
330
747D
100
AcDbEntity
  8
部品1
100
AcDbLine
 10
4196.535063008864
 20
7827.396058145023
 30
0.0
 11
3402.374179210319
 21
7827.396058144987
 31
0.0
  0
LINE
  5
16CAD
330
747D
100
AcDbEntity
  8
部品1
100
AcDbLine
 10
4201.560381959055
 20
7798.896058145022
 30
0.0
 11
3373.8741792104
 21
7798.896058144984
 31
0.0
  0
TEXT
  5
16DF4
330
747D
100
AcDbEntity
  8
文字
 62
     7
 48
50.0
100
AcDbText
 10
14639.78538849418
 20
879.3493344864453
 30
0.0
 40
100.0
  1
～一般型・多雪地型～
  7
STYLE2
100
AcDbText
  0
TEXT
  5
16DF5
330
747D
100
AcDbEntity
  8
文字
 62
     7
 48
50.0
100
AcDbText
 10
14524.131837222
 20
1031.557706291228
 30
0.0
 40
100.0
  1
NO.09      <縮尺> S=1/40
  7
STYLE2
100
AcDbText
  0
TEXT
  5
16DF6
330
747D
100
AcDbEntity
  8
文字
 62
     7
 48
50.0
100
AcDbText
 10
13209.4053442172
 20
76.09434707649348
 30
0.0
 40
100.0
  1
○床面積 ： N(連続数)×3.03㎡(0.92坪) 　
  7
STYLE2
100
AcDbText
  0
TEXT
  5
16DF7
330
747D
100
AcDbEntity
  8
文字
 62
     7
 48
50.0
100
AcDbText
 10
13209.4053442172
 20
228.5435242569015
 30
0.0
 40
100.0
  1
○有効開口寸法 ： 1278×1770(mm)
  7
STYLE2
100
AcDbText
  0
LINE
  5
16E3A
330
747D
100
AcDbEntity
  8
部品1
 48
50.0
100
AcDbLine
 10
5555.874179210347
 20
8591.896058145158
 30
0.0
 11
5583.874179210348
 21
8591.896058145159
 31
0.0
  0
LINE
  5
16E3B
330
747D
100
AcDbEntity
  8
部品1
 48
50.0
100
AcDbLine
 10
5555.874179210347
 20
8629.896058145158
 30
0.0
 11
5583.874179210348
 21
8629.89605814516
 31
0.0
  0
LINE
  5
16E3C
330
747D
100
AcDbEntity
  8
部品1
 48
50.0
100
AcDbLine
 10
7765.874179210347
 20
8629.896058145114
 30
0.0
 11
7793.874179210348
 21
8629.896058145115
 31
0.0
  0
LINE
  5
16E3D
330
747D
100
AcDbEntity
  8
部品1
 48
50.0
100
AcDbLine
 10
7765.874179210347
 20
8591.896058145115
 30
0.0
 11
7793.874179210348
 21
8591.896058145115
 31
0.0
  0
LINE
  5
16E50
330
747D
100
AcDbEntity
  8
部品1
100
AcDbLine
 10
12224.93622790366
 20
2470.125020663633
 30
0.0
 11
12224.93622790366
 21
2230.232699118101
 31
0.0
  0
LINE
  5
16E51
330
747D
100
AcDbEntity
  8
部品1
100
AcDbLine
 10
12224.93622790366
 20
2230.232699118101
 30
0.0
 11
12988.4068941321
 21
2230.232699118101
 31
0.0
  0
LINE
  5
16E52
330
747D
100
AcDbEntity
  8
部品1
100
AcDbLine
 10
12988.4068941321
 20
2230.232699118101
 30
0.0
 11
12988.4068941321
 21
2470.125020663633
 31
0.0
  0
LINE
  5
16E53
330
747D
100
AcDbEntity
  8
部品1
100
AcDbLine
 10
12988.4068941321
 20
2470.125020663633
 30
0.0
 11
12224.93622790366
 21
2470.125020663633
 31
0.0
  0
LINE
  5
16E54
330
747D
100
AcDbEntity
  8
部品1
100
AcDbLine
 10
6231.279054016463
 20
2470.125020663633
 30
0.0
 11
6231.279054016463
 21
2230.232699118101
 31
0.0
  0
LINE
  5
16E55
330
747D
100
AcDbEntity
  8
部品1
100
AcDbLine
 10
6231.279054016463
 20
2230.232699118101
 30
0.0
 11
6994.749720244903
 21
2230.232699118101
 31
0.0
  0
LINE
  5
16E56
330
747D
100
AcDbEntity
  8
部品1
100
AcDbLine
 10
6994.749720244903
 20
2230.232699118101
 30
0.0
 11
6994.749720244903
 21
2470.125020663633
 31
0.0
  0
LINE
  5
16E57
330
747D
100
AcDbEntity
  8
部品1
100
AcDbLine
 10
6994.749720244903
 20
2470.125020663633
 30
0.0
 11
6231.279054016463
 21
2470.125020663633
 31
0.0
  0
LINE
  5
16E58
330
747D
100
AcDbEntity
  8
部品1
100
AcDbLine
 10
6279.138846096172
 20
6750.262476196451
 30
0.0
 11
6279.138846096172
 21
6510.37015465092
 31
0.0
  0
LINE
  5
16E59
330
747D
100
AcDbEntity
  8
部品1
100
AcDbLine
 10
6279.138846096172
 20
6510.37015465092
 30
0.0
 11
7042.609512324609
 21
6510.37015465092
 31
0.0
  0
LINE
  5
16E5A
330
747D
100
AcDbEntity
  8
部品1
100
AcDbLine
 10
7042.609512324609
 20
6510.37015465092
 30
0.0
 11
7042.609512324609
 21
6750.262476196451
 31
0.0
  0
LINE
  5
16E5B
330
747D
100
AcDbEntity
  8
部品1
100
AcDbLine
 10
7042.609512324609
 20
6750.262476196451
 30
0.0
 11
6279.138846096172
 21
6750.262476196451
 31
0.0
  0
TEXT
  5
17794
330
747D
100
AcDbEntity
  8
文字
 62
     7
 48
50.0
100
AcDbText
 10
13248.77747366448
 20
8550.013745883731
 30
0.0
 40
100.0
  1
16
  7
STYLE1
100
AcDbText
  0
LINE
  5
17795
330
747D
100
AcDbEntity
  8
仕様書枠
 48
50.0
100
AcDbLine
 10
16307.19999999998
 20
8179.600000000002
 30
0.0
 11
13127.19999999999
 21
8179.600000000004
 31
0.0
  0
TEXT
  5
17796
330
747D
100
AcDbEntity
  8
文字
 62
     7
 48
50.0
100
AcDbText
 10
13583.11819016569
 20
10930.01374588372
 30
0.0
 40
100.0
  1
根太
  7
STYLE1
100
AcDbText
  0
TEXT
  5
17797
330
747D
100
AcDbEntity
  8
文字
 62
     7
 48
50.0
100
AcDbText
 10
15022.63965474516
 20
10930.01374588372
 30
0.0
 40
100.0
  1
F12            1.2
  7
STYLE1
100
AcDbText
  0
TEXT
  5
17799
330
747D
100
AcDbEntity
  8
文字
 62
     7
 48
50.0
100
AcDbText
 10
13583.11819016569
 20
9570.013745883727
 30
0.0
 40
100.0
  1
母屋中
  7
STYLE1
100
AcDbText
  0
LINE
  5
1779A
330
747D
100
AcDbEntity
  8
部品1
 48
50.0
100
AcDbLine
 10
12456.67156101788
 20
5269.757838878275
 30
0.0
 11
12756.67156101788
 21
5248.157838878277
 31
0.0
  0
LINE
  5
1779B
330
747D
100
AcDbEntity
  8
細線
 48
50.0
100
AcDbLine
 10
12884.17156101788
 20
4903.889699776995
 30
0.0
 11
12884.17156101788
 21
3113.889699776995
 31
0.0
  0
LINE
  5
1779C
330
747D
100
AcDbEntity
  8
細線
 48
50.0
100
AcDbLine
 10
12869.17156101788
 20
4903.889699776995
 30
0.0
 11
12869.17156101788
 21
3113.889699776995
 31
0.0
  0
LINE
  5
1779D
330
747D
100
AcDbEntity
  8
細線
 48
50.0
100
AcDbLine
 10
13009.17156101788
 20
4903.889699776995
 30
0.0
 11
13009.17156101788
 21
3113.889699776995
 31
0.0
  0
LINE
  5
1779E
330
747D
100
AcDbEntity
  8
細線
 48
50.0
100
AcDbLine
 10
13024.17156101788
 20
4903.889699776995
 30
0.0
 11
13024.17156101788
 21
3113.889699776995
 31
0.0
  0
LINE
  5
1779F
330
747D
100
AcDbEntity
  8
細線
 48
50.0
100
AcDbLine
 10
13164.17156101788
 20
4903.889699776995
 30
0.0
 11
13164.17156101788
 21
3113.889699776995
 31
0.0
  0
LINE
  5
177A0
330
747D
100
AcDbEntity
  8
細線
 48
50.0
100
AcDbLine
 10
13149.17156101788
 20
4903.889699776995
 30
0.0
 11
13149.17156101788
 21
3113.889699776995
 31
0.0
  0
LINE
  5
177A1
330
747D
100
AcDbEntity
  8
部品1
100
AcDbLine
 10
12806.67156101788
 20
4903.889699776995
 30
0.0
 11
12806.67156101788
 21
3113.889699776995
 31
0.0
  0
TEXT
  5
177A2
330
747D
100
AcDbEntity
  8
部品1
 48
50.0
100
AcDbText
 10
12933.76440830574
 20
5168.140602812425
 30
0.0
 40
120.0
  1
71
 50
90.0
  7
STYLE1
100
AcDbText
  0
TEXT
  5
177A3
330
747D
100
AcDbEntity
  8
部品1
 48
50.0
100
AcDbText
 10
12444.93939624161
 20
5305.641861030708
 30
0.0
 40
120.0
  1
1000
  7
STYLE1
100
AcDbText
  0
LINE
  5
177A4
330
747D
100
AcDbEntity
  8
部品1
 48
50.0
100
AcDbLine
 10
12756.67156101788
 20
5269.757838878275
 30
0.0
 11
12756.67156101788
 21
5248.157838878277
 31
0.0
  0
LINE
  5
177A5
330
747D
100
AcDbEntity
  8
部品1
 48
50.0
100
AcDbLine
 10
12456.67156101788
 20
5269.757838878275
 30
0.0
 11
12756.67156101788
 21
5269.757838878275
 31
0.0
  0
DIMENSION
  5
177A6
330
747D
100
AcDbEntity
  8
寸法
 48
50.0
100
AcDbDimension
  2
*D17
 10
11259.40530930651
 20
5160.712190673812
 30
0.0
 11
11268.08305295839
 21
5390.548429690703
 31
0.0
 70
   160
 71
     5
 42
141.0
  3
INABA_S40G
100
AcDbAlignedDimension
 13
11867.01412561984
 23
4996.670724845962
 33
0.0
 14
11872.33395977179
 24
5137.570332242845
 34
0.0
 50
87.83775598715742
100
AcDbRotatedDimension
1001
ACAD
1000
DSTYLE
1002
{
1070
   174
1070
     0
1070
   272
1070
     1
1070
   288
1070
     0
1070
   341
1005
0
1002
}
  0
DIMENSION
  5
177A7
330
747D
100
AcDbEntity
  8
寸法
 48
50.0
100
AcDbDimension
  2
*D18
 10
13361.67156101788
 20
5537.5471533563
 30
0.0
 11
13567.71880511237
 21
5537.5471533563
 31
0.0
 70
   160
 71
     5
 42
80.0
  3
INABA_S40G
100
AcDbAlignedDimension
 13
13281.67156101788
 23
5085.700379388649
 33
0.0
 14
13361.67156101788
 24
5083.889699776995
 34
0.0
100
AcDbRotatedDimension
1001
ACAD
1000
DSTYLE
1002
{
1070
   174
1070
     0
1070
   272
1070
     1
1070
   288
1070
     0
1070
   341
1005
0
1002
}
  0
ARC
  5
177A8
330
747D
100
AcDbEntity
  8
部品1
100
AcDbCircle
 10
13347.29909683182
 20
4977.323500661213
 30
0.0
 40
0.7
100
AcDbArc
 50
275.0921697642102
 51
354.1866997666958
  0
ARC
  5
177A9
330
747D
100
AcDbEntity
  8
部品1
100
AcDbCircle
 10
13358.15844258114
 20
5054.366755479136
 30
0.0
 40
0.7
100
AcDbArc
 50
275.0921697642102
 51
354.1866997665402
  0
ARC
  5
177AA
330
747D
100
AcDbEntity
  8
部品1
100
AcDbCircle
 10
13358.48684782374
 20
5050.681358622046
 30
0.0
 40
3.0
100
AcDbArc
 50
95.09216976441896
 51
174.1866997665402
  0
ARC
  5
177AB
330
747D
100
AcDbEntity
  8
部品1
100
AcDbCircle
 10
13347.62750207442
 20
4973.638103804121
 30
0.0
 40
3.0
100
AcDbArc
 50
95.0921697642102
 51
174.1866997665402
  0
ARC
  5
177AC
330
747D
100
AcDbEntity
  8
部品1
 48
50.0
100
AcDbCircle
 10
13336.59936679931
 20
4964.047359200242
 30
0.0
 40
7.0
100
AcDbArc
 50
267.8377559871574
 51
354.1866997665402
  0
ARC
  5
177AD
330
747D
100
AcDbEntity
  8
部品1
 48
50.0
100
AcDbCircle
 10
13353.92146326383
 20
5074.949906342414
 30
0.0
 40
7.0
100
AcDbArc
 50
354.1866997665402
 51
87.03587545303976
  0
LINE
  5
177AE
330
747D
100
AcDbEntity
  8
部品1
 48
50.0
100
AcDbLine
 10
13344.64293040381
 20
4973.941965521026
 30
0.0
 11
13343.56336736407
 21
4963.338348527468
 31
0.0
  0
LINE
  5
177AF
330
747D
100
AcDbEntity
  8
部品1
 48
50.0
100
AcDbLine
 10
13355.50227615313
 20
5050.985220338949
 30
0.0
 11
13347.99549688829
 21
4977.252599593938
 31
0.0
  0
LINE
  5
177B0
330
747D
100
AcDbEntity
  8
部品1
 48
50.0
100
AcDbLine
 10
13360.88546382858
 20
5074.240895669638
 30
0.0
 11
13358.85484263761
 21
5054.295854411859
 31
0.0
  0
ARC
  5
177B1
330
747D
100
AcDbEntity
  8
部品1
100
AcDbCircle
 10
11857.70865288925
 20
5017.703858735899
 30
0.0
 40
0.7
100
AcDbArc
 50
181.0932240292244
 51
260.1877540314867
  0
ARC
  5
177B2
330
747D
100
AcDbEntity
  8
部品1
100
AcDbCircle
 10
11852.93597929164
 20
5110.56963693602
 30
0.0
 40
0.7
100
AcDbArc
 50
181.0932240292244
 51
260.1877540314867
  0
ARC
  5
177B3
330
747D
100
AcDbEntity
  8
部品1
100
AcDbCircle
 10
11852.30542488862
 20
5106.923762398621
 30
0.0
 40
3.0
100
AcDbArc
 50
1.093224029289586
 51
80.18775403148671
  0
ARC
  5
177B4
330
747D
100
AcDbEntity
  8
部品1
100
AcDbCircle
 10
11857.07809848622
 20
5014.057984198501
 30
0.0
 40
3.0
100
AcDbArc
 50
1.093224029289586
 51
80.18775403148671
  0
ARC
  5
177B5
330
747D
100
AcDbEntity
  8
部品1
 48
50.0
100
AcDbCircle
 10
11867.27823086142
 20
5003.665740816021
 30
0.0
 40
7.0
100
AcDbArc
 50
181.0932240292895
 51
267.8377559871574
  0
ARC
  5
177B6
330
747D
100
AcDbEntity
  8
部品1
 48
50.0
100
AcDbCircle
 10
11858.85457275933
 20
5130.616800349115
 30
0.0
 40
7.0
100
AcDbArc
 50
87.03587545303976
 51
181.0932240292765
  0
LINE
  5
177B7
330
747D
100
AcDbEntity
  8
部品1
 48
50.0
100
AcDbLine
 10
11860.07755241265
 20
5014.115221801684
 30
0.0
 11
11860.27950503309
 21
5003.532186408593
 31
0.0
  0
LINE
  5
177B8
330
747D
100
AcDbEntity
  8
細線
 48
50.0
100
AcDbLine
 10
11857.47145935598
 20
5017.045269920494
 30
0.0
 11
13347.47512378662
 21
4976.645994564425
 31
0.0
  0
LINE
  5
177B9
330
747D
100
AcDbEntity
  8
細線
 48
50.0
100
AcDbLine
 10
11852.71098411869
 20
5109.906781618356
 30
0.0
 11
13358.34696886386
 21
5053.692620595954
 31
0.0
  0
LINE
  5
177BA
330
747D
100
AcDbEntity
  8
部品1
 48
50.0
100
AcDbLine
 10
11855.30487881505
 20
5106.981000001804
 30
0.0
 11
11857.00878030641
 21
5017.690503295158
 31
0.0
  0
LINE
  5
177BB
330
747D
100
AcDbEntity
  8
部品1
 48
50.0
100
AcDbLine
 10
11851.85584693099
 20
5130.483245941689
 30
0.0
 11
11852.2361067088
 21
5110.556281495275
 31
0.0
  0
LINE
  5
177BC
330
747D
100
AcDbEntity
  8
細線
 48
50.0
100
AcDbLine
 10
13328.67156101788
 20
5083.266722430717
 30
0.0
 11
13323.92387812988
 21
4957.520949939972
 31
0.0
  0
LINE
  5
177BD
330
747D
100
AcDbEntity
  8
細線
 48
50.0
100
AcDbLine
 10
11884.67156101788
 20
5136.289376152399
 30
0.0
 11
11879.38245946237
 21
4996.203743525046
 31
0.0
  0
LINE
  5
177BE
330
747D
100
AcDbEntity
  8
部品1
100
AcDbLine
 10
11867.01412561984
 20
4996.670724845962
 30
0.0
 11
13336.33526155773
 21
4957.052343230182
 31
0.0
  0
LINE
  5
177BF
330
747D
100
AcDbEntity
  8
部品1
100
AcDbLine
 10
11859.21654737484
 20
5137.607435111262
 30
0.0
 11
13354.28343787935
 21
5081.940541104559
 31
0.0
  0
LINE
  5
177C0
330
747D
100
AcDbEntity
  8
細線
 48
50.0
100
AcDbLine
 10
12044.17156101788
 20
4903.889699776995
 30
0.0
 11
12044.17156101788
 21
3113.889699776995
 31
0.0
  0
LINE
  5
177C1
330
747D
100
AcDbEntity
  8
細線
 48
50.0
100
AcDbLine
 10
12029.17156101788
 20
4903.889699776995
 30
0.0
 11
12029.17156101788
 21
3113.889699776995
 31
0.0
  0
LINE
  5
177C2
330
747D
100
AcDbEntity
  8
細線
 48
50.0
100
AcDbLine
 10
12169.17156101788
 20
4903.889699776995
 30
0.0
 11
12169.17156101788
 21
3113.889699776995
 31
0.0
  0
LINE
  5
177C3
330
747D
100
AcDbEntity
  8
細線
 48
50.0
100
AcDbLine
 10
12184.17156101788
 20
4903.889699776995
 30
0.0
 11
12184.17156101788
 21
3113.889699776995
 31
0.0
  0
LINE
  5
177C4
330
747D
100
AcDbEntity
  8
細線
 48
50.0
100
AcDbLine
 10
12324.17156101788
 20
4903.889699776995
 30
0.0
 11
12324.17156101788
 21
3113.889699776995
 31
0.0
  0
LINE
  5
177C5
330
747D
100
AcDbEntity
  8
細線
 48
50.0
100
AcDbLine
 10
12309.17156101788
 20
4903.889699776995
 30
0.0
 11
12309.17156101788
 21
3113.889699776995
 31
0.0
  0
LINE
  5
177C6
330
747D
100
AcDbEntity
  8
細線
 48
50.0
100
AcDbLine
 10
12729.17156101788
 20
4903.889699776995
 30
0.0
 11
12729.17156101788
 21
3113.889699776995
 31
0.0
  0
LINE
  5
177C7
330
747D
100
AcDbEntity
  8
細線
 48
50.0
100
AcDbLine
 10
12744.17156101788
 20
4903.889699776995
 30
0.0
 11
12744.17156101788
 21
3113.889699776995
 31
0.0
  0
LINE
  5
177C8
330
747D
100
AcDbEntity
  8
細線
 48
50.0
100
AcDbLine
 10
12604.17156101788
 20
4903.889699776995
 30
0.0
 11
12604.17156101788
 21
3113.889699776995
 31
0.0
  0
LINE
  5
177C9
330
747D
100
AcDbEntity
  8
細線
 48
50.0
100
AcDbLine
 10
12589.17156101788
 20
4903.889699776995
 30
0.0
 11
12589.17156101788
 21
3113.889699776995
 31
0.0
  0
LINE
  5
177CA
330
747D
100
AcDbEntity
  8
細線
 48
50.0
100
AcDbLine
 10
12449.17156101788
 20
4903.889699776995
 30
0.0
 11
12449.17156101788
 21
3113.889699776995
 31
0.0
  0
LINE
  5
177CB
330
747D
100
AcDbEntity
  8
細線
 48
50.0
100
AcDbLine
 10
12464.17156101788
 20
4903.889699776995
 30
0.0
 11
12464.17156101788
 21
3113.889699776995
 31
0.0
  0
TEXT
  5
177CC
330
747D
100
AcDbEntity
  8
文字
 62
     7
 48
50.0
100
AcDbText
 10
13583.11819016568
 20
8720.013745883731
 30
0.0
 40
100.0
  1
棚板
  7
STYLE1
100
AcDbText
  0
TEXT
  5
177CD
330
747D
100
AcDbEntity
  8
文字
 62
     7
 48
50.0
100
AcDbText
 10
15022.63965474515
 20
8720.013745883727
 30
0.0
 40
100.0
  1
F12            0.6
  7
STYLE1
100
AcDbText
  0
TEXT
  5
177CE
330
747D
100
AcDbEntity
  8
文字
 62
     7
 48
50.0
100
AcDbText
 10
13583.11819016568
 20
8890.013745883729
 30
0.0
 40
100.0
  1
扉
  7
STYLE1
100
AcDbText
  0
TEXT
  5
177CF
330
747D
100
AcDbEntity
  8
文字
 62
     7
 48
50.0
100
AcDbText
 10
15022.63965474515
 20
8890.013745883726
 30
0.0
 40
100.0
  1
F12            0.8
  7
STYLE1
100
AcDbText
  0
TEXT
  5
177D0
330
747D
100
AcDbEntity
  8
文字
 62
     7
 48
50.0
100
AcDbText
 10
13583.11819016568
 20
9060.013745883729
 30
0.0
 40
100.0
  1
正面パネル
  7
STYLE1
100
AcDbText
  0
TEXT
  5
177D1
330
747D
100
AcDbEntity
  8
文字
 62
     7
 48
50.0
100
AcDbText
 10
15022.63965474515
 20
9060.013745883725
 30
0.0
 40
100.0
  1
F12            0.7
  7
STYLE1
100
AcDbText
  0
TEXT
  5
177D2
330
747D
100
AcDbEntity
  8
文字
 62
     7
 48
50.0
100
AcDbText
 10
14269.60464131317
 20
483.8967129911411
 30
0.0
 40
160.0
  1
ＮＸＮ－３０ＳＬ－Ｎ
  7
STYLE2
100
AcDbText
  0
TEXT
  5
177D3
330
747D
100
AcDbEntity
  8
文字
 62
     7
 48
50.0
100
AcDbText
 10
15022.63965474517
 20
10590.01374588372
 30
0.0
 40
100.0
  1
F12            1.0
  7
STYLE1
100
AcDbText
  0
TEXT
  5
177D4
330
747D
100
AcDbEntity
  8
文字
 62
     7
 48
50.0
100
AcDbText
 10
13248.77747366447
 20
8890.013745883729
 30
0.0
 40
100.0
  1
14
  7
STYLE1
100
AcDbText
  0
TEXT
  5
177D5
330
747D
100
AcDbEntity
  8
文字
 62
     7
 48
50.0
100
AcDbText
 10
13583.1181901657
 20
10590.01374588373
 30
0.0
 40
100.0
  1
床パネル
 41
0.9
  7
STYLE1
100
AcDbText
  0
LINE
  5
177D6
330
747D
100
AcDbEntity
  8
仕様書枠
 48
50.0
100
AcDbLine
 10
16307.19999999999
 20
8859.6
 30
0.0
 11
13127.19999999999
 21
8859.600000000002
 31
0.0
  0
LINE
  5
177D7
330
747D
100
AcDbEntity
  8
仕様書枠
 48
50.0
100
AcDbLine
 10
13127.2
 20
11409.6
 30
0.0
 11
13127.19999999999
 21
8179.600000000005
 31
0.0
  0
TEXT
  5
177D8
330
747D
100
AcDbEntity
  8
文字
 62
     7
 48
50.0
100
AcDbText
 10
13229.83081656553
 20
8210.013745883733
 30
0.0
 40
100.0
  1
Y10→溶融亜鉛-5％アルミニウム合金めっき鋼板(JIS G 3317)
 41
0.9
  7
STYLE1
100
AcDbText
  0
TEXT
  5
177D9
330
747D
100
AcDbEntity
  8
文字
 62
     7
 48
50.0
100
AcDbText
 10
13229.83081656553
 20
8380.013745883733
 30
0.0
 40
100.0
  1
F12→溶融亜鉛めっき鋼板(JIS G 3302)
  7
STYLE1
100
AcDbText
  0
LINE
  5
177DA
330
747D
100
AcDbEntity
  8
仕様書枠
 48
50.0
100
AcDbLine
 10
16307.19999999998
 20
8349.600000000002
 30
0.0
 11
13127.19999999999
 21
8349.600000000004
 31
0.0
  0
LINE
  5
177DB
330
747D
100
AcDbEntity
  8
仕様書枠
 48
50.0
100
AcDbLine
 10
16307.19999999998
 20
8519.600000000002
 30
0.0
 11
13127.19999999999
 21
8519.600000000004
 31
0.0
  0
TEXT
  5
177DC
330
747D
100
AcDbEntity
  8
文字
 62
     7
 48
50.0
100
AcDbText
 10
15022.63965474515
 20
9230.013745883725
 30
0.0
 40
100.0
  1
F12            0.6
  7
STYLE1
100
AcDbText
  0
TEXT
  5
177DD
330
747D
100
AcDbEntity
  8
文字
 62
     7
 48
50.0
100
AcDbText
 10
15022.63965474517
 20
9400.013745883725
 30
0.0
 40
100.0
  1
Y10            0.5
  7
STYLE1
100
AcDbText
  0
TEXT
  5
177DE
330
747D
100
AcDbEntity
  8
文字
 62
     7
 48
50.0
100
AcDbText
 10
15022.63965474517
 20
9910.013745883725
 30
0.0
 40
100.0
  1
Y10            0.7
  7
STYLE1
100
AcDbText
  0
TEXT
  5
177DF
330
747D
100
AcDbEntity
  8
文字
 62
     7
 48
50.0
100
AcDbText
 10
15022.63965474517
 20
10080.01374588372
 30
0.0
 40
100.0
  1
Y10            0.7
  7
STYLE1
100
AcDbText
  0
TEXT
  5
177E0
330
747D
100
AcDbEntity
  8
文字
 62
     7
 48
50.0
100
AcDbText
 10
15022.63965474517
 20
10250.01374588372
 30
0.0
 40
100.0
  1
Y10            1.0
  7
STYLE1
100
AcDbText
  0
TEXT
  5
177E1
330
747D
100
AcDbEntity
  8
文字
 62
     7
 48
50.0
100
AcDbText
 10
15022.63965474517
 20
10420.01374588372
 30
0.0
 40
100.0
  1
Y10            1.0
  7
STYLE1
100
AcDbText
  0
TEXT
  5
177E2
330
747D
100
AcDbEntity
  8
文字
 62
     7
 48
50.0
100
AcDbText
 10
15022.63965474518
 20
10760.01374588372
 30
0.0
 40
100.0
  1
F12            1.0
  7
STYLE1
100
AcDbText
  0
TEXT
  5
177E3
330
747D
100
AcDbEntity
  8
文字
 62
     7
 48
50.0
100
AcDbText
 10
15022.63965474517
 20
11100.01374588372
 30
0.0
 40
100.0
  1
F12            1.2
  7
STYLE1
100
AcDbText
  0
TEXT
  5
177E4
330
747D
100
AcDbEntity
  8
文字
 62
     7
 48
50.0
100
AcDbText
 10
13248.77747366447
 20
9230.013745883729
 30
0.0
 40
100.0
  1
12
  7
STYLE1
100
AcDbText
  0
TEXT
  5
177E5
330
747D
100
AcDbEntity
  8
文字
 62
     7
 48
50.0
100
AcDbText
 10
13248.77747366447
 20
9060.013745883729
 30
0.0
 40
100.0
  1
13
  7
STYLE1
100
AcDbText
  0
LINE
  5
177E6
330
747D
100
AcDbEntity
  8
仕様書枠
 48
50.0
100
AcDbLine
 10
16307.19999999999
 20
8689.6
 30
0.0
 11
13127.19999999999
 21
8689.600000000003
 31
0.0
  0
LINE
  5
177E7
330
747D
100
AcDbEntity
  8
仕様書枠
 48
50.0
100
AcDbLine
 10
16307.19999999999
 20
9029.6
 30
0.0
 11
13127.19999999999
 21
9029.6
 31
0.0
  0
TEXT
  5
177E8
330
747D
100
AcDbEntity
  8
文字
 62
     7
 48
50.0
100
AcDbText
 10
13248.77747366447
 20
9400.013745883727
 30
0.0
 40
100.0
  1
11
  7
STYLE1
100
AcDbText
  0
LINE
  5
177E9
330
747D
100
AcDbEntity
  8
仕様書枠
 48
50.0
100
AcDbLine
 10
16307.19999999999
 20
9709.6
 30
0.0
 11
13127.19999999999
 21
9709.600000000001
 31
0.0
  0
LINE
  5
177EA
330
747D
100
AcDbEntity
  8
仕様書枠
 48
50.0
100
AcDbLine
 10
16307.19999999999
 20
10219.6
 30
0.0
 11
13127.2
 21
10219.6
 31
0.0
  0
LINE
  5
177EB
330
747D
100
AcDbEntity
  8
仕様書枠
 48
50.0
100
AcDbLine
 10
16307.19999999999
 20
9369.599999999998
 30
0.0
 11
13127.19999999999
 21
9369.600000000001
 31
0.0
  0
LINE
  5
177EC
330
747D
100
AcDbEntity
  8
仕様書枠
 48
50.0
100
AcDbLine
 10
16307.19999999999
 20
9199.599999999998
 30
0.0
 11
13127.19999999999
 21
9199.600000000001
 31
0.0
  0
LINE
  5
177ED
330
747D
100
AcDbEntity
  8
仕様書枠
 48
50.0
100
AcDbLine
 10
16307.19999999999
 20
9539.599999999998
 30
0.0
 11
13127.19999999999
 21
9539.6
 31
0.0
  0
TEXT
  5
177EE
330
747D
100
AcDbEntity
  8
文字
 62
     7
 48
50.0
100
AcDbText
 10
13271.19032244792
 20
10250.01374588373
 30
0.0
 40
100.0
  1
6
  7
STYLE1
100
AcDbText
  0
TEXT
  5
177EF
330
747D
100
AcDbEntity
  8
文字
 62
     7
 48
50.0
100
AcDbText
 10
13271.19032244792
 20
10080.01374588373
 30
0.0
 40
100.0
  1
7
  7
STYLE1
100
AcDbText
  0
TEXT
  5
177F0
330
747D
100
AcDbEntity
  8
文字
 62
     7
 48
50.0
100
AcDbText
 10
13271.19032244792
 20
9740.013745883729
 30
0.0
 40
100.0
  1
9
  7
STYLE1
100
AcDbText
  0
TEXT
  5
177F1
330
747D
100
AcDbEntity
  8
文字
 62
     7
 48
50.0
100
AcDbText
 10
13271.19032244792
 20
9910.01374588373
 30
0.0
 40
100.0
  1
8
  7
STYLE1
100
AcDbText
  0
TEXT
  5
177F2
330
747D
100
AcDbEntity
  8
文字
 62
     7
 48
50.0
100
AcDbText
 10
13583.1181901657
 20
9910.013745883727
 30
0.0
 40
100.0
  1
鼻隠シ前後
  7
STYLE1
100
AcDbText
  0
TEXT
  5
177F3
330
747D
100
AcDbEntity
  8
文字
 62
     7
 48
50.0
100
AcDbText
 10
13583.11819016569
 20
9400.013745883727
 30
0.0
 40
100.0
  1
屋根パネル
  7
STYLE1
100
AcDbText
  0
TEXT
  5
177F4
330
747D
100
AcDbEntity
  8
文字
 62
     7
 48
50.0
100
AcDbText
 10
13583.11819016568
 20
9230.013745883729
 30
0.0
 40
100.0
  1
壁パネル
  7
STYLE1
100
AcDbText
  0
TEXT
  5
177F5
330
747D
100
AcDbEntity
  8
文字
 62
     7
 48
50.0
100
AcDbText
 10
13248.77747366447
 20
9570.013745883727
 30
0.0
 40
100.0
  1
10
  7
STYLE1
100
AcDbText
  0
TEXT
  5
177F6
330
747D
100
AcDbEntity
  8
文字
 62
     7
 48
50.0
100
AcDbText
 10
13583.1181901657
 20
10080.01374588372
 30
0.0
 40
100.0
  1
妻板左右
  7
STYLE1
100
AcDbText
  0
TEXT
  5
177F7
330
747D
100
AcDbEntity
  8
文字
 62
     7
 48
50.0
100
AcDbText
 10
13271.19032244792
 20
10420.01374588372
 30
0.0
 40
100.0
  1
5
  7
STYLE1
100
AcDbText
  0
TEXT
  5
177F8
330
747D
100
AcDbEntity
  8
文字
 62
     7
 48
50.0
100
AcDbText
 10
13583.1181901657
 20
10250.01374588373
 30
0.0
 40
100.0
  1
桁後
  7
STYLE1
100
AcDbText
  0
TEXT
  5
177F9
330
747D
100
AcDbEntity
  8
文字
 62
     7
 48
50.0
100
AcDbText
 10
13583.1181901657
 20
10420.01374588372
 30
0.0
 40
100.0
  1
鴨居
  7
STYLE1
100
AcDbText
  0
TEXT
  5
177FA
330
747D
100
AcDbEntity
  8
文字
 62
     7
 48
50.0
100
AcDbText
 10
13583.1181901657
 20
10760.01374588372
 30
0.0
 40
100.0
  1
柱
  7
STYLE1
100
AcDbText
  0
TEXT
  5
177FB
330
747D
100
AcDbEntity
  8
文字
 62
     7
 48
50.0
100
AcDbText
 10
13583.11819016569
 20
11100.01374588373
 30
0.0
 40
100.0
  1
土台枠
  7
STYLE1
100
AcDbText
  0
TEXT
  5
177FC
330
747D
100
AcDbEntity
  8
文字
 62
     7
 48
50.0
100
AcDbText
 10
14859.79774614482
 20
11270.01374588372
 30
0.0
 40
100.0
  1
材料（材質）　　単位mm
  7
STYLE1
100
AcDbText
  0
TEXT
  5
177FD
330
747D
100
AcDbEntity
  8
文字
 62
     7
 48
50.0
100
AcDbText
 10
13732.03840939434
 20
11270.01374588372
 30
0.0
 40
100.0
  1
部　　品　　名
  7
STYLE1
100
AcDbText
  0
TEXT
  5
177FE
330
747D
100
AcDbEntity
  8
文字
 62
     7
 48
50.0
100
AcDbText
 10
13271.19032244792
 20
10760.01374588373
 30
0.0
 40
100.0
  1
3
  7
STYLE1
100
AcDbText
  0
TEXT
  5
177FF
330
747D
100
AcDbEntity
  8
文字
 62
     7
 48
50.0
100
AcDbText
 10
13271.19032244792
 20
10590.01374588373
 30
0.0
 40
100.0
  1
4
  7
STYLE1
100
AcDbText
  0
TEXT
  5
17800
330
747D
100
AcDbEntity
  8
文字
 62
     7
 48
50.0
100
AcDbText
 10
13271.19032244792
 20
10930.01374588373
 30
0.0
 40
100.0
  1
2
  7
STYLE1
100
AcDbText
  0
TEXT
  5
17801
330
747D
100
AcDbEntity
  8
文字
 62
     7
 48
50.0
100
AcDbText
 10
13271.19032244792
 20
11100.01374588373
 30
0.0
 40
100.0
  1
1
  7
STYLE1
100
AcDbText
  0
TEXT
  5
17802
330
747D
100
AcDbEntity
  8
文字
 62
     7
 48
50.0
100
AcDbText
 10
13197.42518560407
 20
11270.01374588372
 30
0.0
 40
100.0
  1
品番
  7
STYLE1
100
AcDbText
  0
LINE
  5
17803
330
747D
100
AcDbEntity
  8
仕様書枠
 48
50.0
100
AcDbLine
 10
16307.19999999999
 20
10729.6
 30
0.0
 11
13127.19999999999
 21
10729.6
 31
0.0
  0
LINE
  5
17804
330
747D
100
AcDbEntity
  8
仕様書枠
 48
50.0
100
AcDbLine
 10
16307.19999999999
 20
10389.6
 30
0.0
 11
13127.19999999999
 21
10389.6
 31
0.0
  0
LINE
  5
17805
330
747D
100
AcDbEntity
  8
仕様書枠
 48
50.0
100
AcDbLine
 10
16307.19999999999
 20
10559.6
 30
0.0
 11
13127.19999999999
 21
10559.6
 31
0.0
  0
LINE
  5
17806
330
747D
100
AcDbEntity
  8
仕様書枠
 48
50.0
100
AcDbLine
 10
16307.19999999999
 20
11069.6
 30
0.0
 11
13127.2
 21
11069.6
 31
0.0
  0
LINE
  5
17807
330
747D
100
AcDbEntity
  8
仕様書枠
 48
50.0
100
AcDbLine
 10
16307.19999999999
 20
10899.6
 30
0.0
 11
13127.2
 21
10899.6
 31
0.0
  0
LINE
  5
17808
330
747D
100
AcDbEntity
  8
仕様書枠
 48
50.0
100
AcDbLine
 10
16307.19999999999
 20
11239.6
 30
0.0
 11
13127.2
 21
11239.6
 31
0.0
  0
LINE
  5
17809
330
747D
100
AcDbEntity
  8
仕様書枠
 48
50.0
100
AcDbLine
 10
13490.2
 20
11409.6
 30
0.0
 11
13490.20000000001
 21
8519.600000000004
 31
0.0
  0
LINE
  5
1780A
330
747D
100
AcDbEntity
  8
仕様書枠
 48
50.0
100
AcDbLine
 10
14785.2
 20
11409.59999999999
 30
0.0
 11
14785.19999999999
 21
8519.600000000004
 31
0.0
  0
LINE
  5
1780B
330
747D
100
AcDbEntity
  8
仕様書枠
 48
50.0
100
AcDbLine
 10
16307.19999999999
 20
8179.600000000004
 30
0.0
 11
16307.2
 21
11409.6
 31
0.0
  0
LINE
  5
1780C
330
747D
100
AcDbEntity
  8
仕様書枠
 48
50.0
100
AcDbLine
 10
16307.19999999999
 20
11409.6
 30
0.0
 11
13127.2
 21
11409.6
 31
0.0
  0
LINE
  5
1780D
330
747D
100
AcDbEntity
  8
仕様書枠
 48
50.0
100
AcDbLine
 10
16307.19999999999
 20
9879.599999999999
 30
0.0
 11
13127.19999999999
 21
9879.600000000001
 31
0.0
  0
TEXT
  5
1780E
330
747D
100
AcDbEntity
  8
文字
 62
     7
 48
50.0
100
AcDbText
 10
15022.63965474515
 20
8550.013745883722
 30
0.0
 40
100.0
  1
F12            2.3
  7
STYLE1
100
AcDbText
  0
TEXT
  5
1780F
330
747D
100
AcDbEntity
  8
文字
 62
     7
 48
50.0
100
AcDbText
 10
13583.11819016568
 20
8550.013745883727
 30
0.0
 40
100.0
  1
アンカープレート
  7
STYLE1
100
AcDbText
  0
LINE
  5
17810
330
747D
100
AcDbEntity
  8
部品1
100
AcDbLine
 10
11911.67156101788
 20
3063.889699776995
 30
0.0
 11
13281.67156101788
 21
3063.889699776995
 31
0.0
  0
DIMENSION
  5
17811
330
747D
100
AcDbEntity
  8
寸法
 48
50.0
100
AcDbDimension
  2
*D19
 10
11851.67156101788
 20
5745.721474548264
 30
0.0
 11
12578.79639071971
 21
5745.721474548264
 31
0.0
 70
   160
 71
     5
 42
1510.0
  3
INABA_S40G
100
AcDbAlignedDimension
 13
13361.67156101788
 23
5083.889699776995
 33
0.0
 14
11851.67156101788
 24
5138.889699776999
 34
0.0
100
AcDbRotatedDimension
1001
ACAD
1000
DSTYLE
1002
{
1070
   174
1070
     0
1070
   272
1070
     1
1070
   288
1070
     0
1070
   341
1005
0
1002
}
  0
DIMENSION
  5
17812
330
747D
100
AcDbEntity
  8
寸法
 48
50.0
100
AcDbDimension
  2
*D20
 10
11851.67156101788
 20
5537.5471533563
 30
0.0
 11
11542.03376574229
 21
5537.5471533563
 31
0.0
 70
   160
 71
     5
 42
60.0
  3
INABA_S40G
100
AcDbAlignedDimension
 13
11911.67156101788
 23
5134.891317899972
 33
0.0
 14
11851.67156101788
 24
5138.889699776999
 34
0.0
100
AcDbRotatedDimension
1001
ACAD
1000
DSTYLE
1002
{
1070
   174
1070
     0
1070
   272
1070
     1
1070
   288
1070
     0
1070
   341
1005
0
1002
}
  0
DIMENSION
  5
17813
330
747D
100
AcDbEntity
  8
寸法
 48
50.0
100
AcDbDimension
  2
*D21
 10
11911.67156101788
 20
5537.5471533563
 30
0.0
 11
12561.49059390843
 21
5537.5471533563
 31
0.0
 70
   160
  1
柱外寸法<>
 71
     5
 42
1370.0
  3
INABA_S40G
100
AcDbAlignedDimension
 13
13281.67156101788
 23
5085.700379388649
 33
0.0
 14
11911.67156101788
 24
5134.891317899972
 34
0.0
100
AcDbRotatedDimension
1001
ACAD
1000
DSTYLE
1002
{
1070
   174
1070
     0
1070
   272
1070
     1
1070
   288
1070
     0
1070
   341
1005
0
1002
}
  0
DIMENSION
  5
17814
330
747D
100
AcDbEntity
  8
寸法
100
AcDbDimension
  2
*D22
 10
13843.58523225699
 20
5083.889699776995
 30
0.0
 11
13843.58523225698
 21
4067.581391109387
 31
0.0
 70
   160
 71
     5
 42
2020.000000000001
  3
INABA_S40G
100
AcDbAlignedDimension
 13
13281.67156101788
 23
3063.889699776995
 33
0.0
 14
13361.67156101788
 24
5083.889699776995
 34
0.0
 50
90.0
100
AcDbRotatedDimension
1001
ACAD
1000
DSTYLE
1002
{
1070
   174
1070
     0
1070
   272
1070
     1
1070
   288
1070
     0
1070
   341
1005
0
1002
}
  0
LINE
  5
17815
330
747D
100
AcDbEntity
  8
部品1
100
AcDbLine
 10
13226.67156101789
 20
4903.889699776995
 30
0.0
 11
13226.67156101789
 21
3113.889699776995
 31
0.0
  0
LINE
  5
17816
330
747D
100
AcDbEntity
  8
部品1
100
AcDbLine
 10
13281.67156101788
 20
4958.526280612248
 30
0.0
 11
13281.67156101788
 21
2963.889699776995
 31
0.0
  0
LINE
  5
17817
330
747D
100
AcDbEntity
  8
部品1
100
AcDbLine
 10
12386.67156101788
 20
4903.889699776995
 30
0.0
 11
12386.67156101788
 21
3113.889699776995
 31
0.0
  0
DIMENSION
  5
17818
330
747D
100
AcDbEntity
  8
寸法
100
AcDbDimension
  2
*D23
 10
11067.92143183462
 20
3063.889699776995
 30
0.0
 11
11067.92143183462
 21
2757.842455682505
 31
0.0
 70
   160
 71
     5
 42
50.0
  3
INABA_S40G
100
AcDbAlignedDimension
 13
11911.67156101788
 23
3113.889699776995
 33
0.0
 14
11856.67156101788
 24
3063.889699776995
 34
0.0
 50
90.0
100
AcDbRotatedDimension
1001
ACAD
1000
DSTYLE
1002
{
1070
   174
1070
     0
1070
   272
1070
     1
1070
   288
1070
     0
1070
   341
1005
0
1002
}
  0
DIMENSION
  5
17819
330
747D
100
AcDbEntity
  8
寸法
100
AcDbDimension
  2
*D24
 10
10767.92143183462
 20
5138.889699776999
 30
0.0
 11
10667.909620811
 21
4101.389699776999
 31
0.0
 70
    32
 71
     5
 42
2075.000000000004
  3
INABA_S40G
100
AcDbAlignedDimension
 13
11911.67156101788
 23
3063.889699776995
 33
0.0
 14
11851.67156101788
 24
5138.889699776999
 34
0.0
 50
90.0
100
AcDbRotatedDimension
1001
ACAD
1000
DSTYLE
1002
{
1070
   174
1070
     0
1070
   272
1070
     1
1070
   288
1070
     0
1070
   341
1005
0
1002
}
  0
DIMENSION
  5
1781A
330
747D
100
AcDbEntity
  8
寸法
100
AcDbDimension
  2
*D25
 10
11067.92143183462
 20
3113.889699776996
 30
0.0
 11
10967.92143183462
 21
4008.889699776998
 31
0.0
 70
    32
 71
     5
 42
1790.0
  3
INABA_S40G
100
AcDbAlignedDimension
 13
11911.67156101788
 23
4903.889699776995
 33
0.0
 14
11911.67156101788
 24
3113.889699776995
 34
0.0
 50
90.0
100
AcDbRotatedDimension
1001
ACAD
1000
DSTYLE
1002
{
1070
   174
1070
     0
1070
   272
1070
     1
1070
   288
1070
     0
1070
   341
1005
0
1002
}
  0
DIMENSION
  5
1781B
330
747D
100
AcDbEntity
  8
寸法
100
AcDbDimension
  2
*D26
 10
11366.76291962063
 20
3125.889699776995
 30
0.0
 11
11266.76291962063
 21
4010.889699776997
 31
0.0
 70
    32
  1
有効開口部高サ<>
 71
     5
 42
1770.0
  3
INABA_S40G
100
AcDbAlignedDimension
 13
11911.67156101788
 23
4895.889699776995
 33
0.0
 14
11911.67156101788
 24
3125.889699776995
 34
0.0
 50
90.0
100
AcDbRotatedDimension
1001
ACAD
1000
DSTYLE
1002
{
1070
   174
1070
     0
1070
   272
1070
     1
1070
   288
1070
     0
1070
   341
1005
0
1002
}
  0
LINE
  5
1781C
330
747D
100
AcDbEntity
  8
部品1
100
AcDbLine
 10
11911.67156101789
 20
4995.466593717438
 30
0.0
 11
11911.67156101788
 21
2963.889699776995
 31
0.0
  0
LINE
  5
1781D
330
747D
100
AcDbEntity
  8
部品1
100
AcDbLine
 10
11966.67156101788
 20
4903.889699776995
 30
0.0
 11
11966.67156101788
 21
3113.889699776995
 31
0.0
  0
LINE
  5
1781E
330
747D
100
AcDbEntity
  8
部品1
100
AcDbLine
 10
11911.67156101788
 20
3113.889699776995
 30
0.0
 11
13281.67156101789
 21
3113.889699776995
 31
0.0
  0
LINE
  5
1781F
330
747D
100
AcDbEntity
  8
部品1
100
AcDbLine
 10
11911.67156101788
 20
4903.889699776995
 30
0.0
 11
13281.67156101788
 21
4903.889699776995
 31
0.0
  0
LINE
  5
17820
330
747D
100
AcDbEntity
  8
仕様書枠
 48
50.0
100
AcDbLine
 10
16307.19999999999
 20
10049.6
 30
0.0
 11
13127.2
 21
10049.6
 31
0.0
  0
TEXT
  5
17821
330
747D
100
AcDbEntity
  8
文字
 62
     7
 48
50.0
100
AcDbText
 10
13248.77747366448
 20
8720.013745883729
 30
0.0
 40
100.0
  1
15
  7
STYLE1
100
AcDbText
  0
TEXT
  5
17822
330
747D
100
AcDbEntity
  8
文字
 62
     7
 48
50.0
100
AcDbText
 10
15022.63965474516
 20
9740.013745883729
 30
0.0
 40
100.0
  1
F12,Y10       0.7+1.0
  7
STYLE1
100
AcDbText
  0
TEXT
  5
17823
330
747D
100
AcDbEntity
  8
文字
 62
     7
 48
50.0
100
AcDbText
 10
13583.11819016569
 20
9740.013745883729
 30
0.0
 40
100.0
  1
梁中
 41
0.9
  7
STYLE1
100
AcDbText
  0
LINE
  5
17C22
330
747D
100
AcDbEntity
  8
補助
  6
PHANTOM
 62
   230
 48
50.0
100
AcDbLine
 10
139.9999999999995
 20
11409.6
 30
0.0
 11
140.0
 21
0.0
 31
0.0
  0
MTEXT
  5
1811E
330
747D
100
AcDbEntity
  8
寸法
 62
     7
 48
50.0
100
AcDbMText
 10
5120.632922953484
 20
8669.213698654033
 30
0.0
 40
96.0
 41
0.0
 71
     5
 72
     1
  1
棚 2段
  7
STYLE1
 73
     1
 44
1.0
1001
ACAD
1000
MTEXTBEGIN
1070
    73
1070
     1
1070
    44
1040
1.0
1070
    74
1070
     0
1000
MTEXTEND
  0
MTEXT
  5
1811F
330
747D
100
AcDbEntity
  8
寸法
 62
     7
 48
50.0
100
AcDbMText
 10
4096.527539154759
 20
8669.21369865396
 30
0.0
 40
96.0
 41
0.0
 71
     5
 72
     1
  1
棚 2段
  7
STYLE1
 73
     1
 44
1.0
1001
ACAD
1000
MTEXTBEGIN
1070
    73
1070
     1
1070
    44
1040
1.0
1070
    74
1070
     0
1000
MTEXTEND
  0
TEXT
  5
1815A
330
747D
100
AcDbEntity
  8
文字
 62
     7
 48
50.0
100
AcDbText
 10
14798.72402257234
 20
9570.013745883725
 30
0.0
 40
100.0
  1
F12(一般型1.0/多雪地型2.3)
  7
STYLE1
100
AcDbText
  0
DIMENSION
  5
18725
330
747D
100
AcDbEntity
  8
寸法
100
AcDbDimension
  2
*D27
 10
3405.8741792104
 20
7171.088717545419
 30
0.0
 11
4039.465962044407
 21
7171.088717545419
 31
0.0
 70
   160
  1
有効開口部間口\P<>
 71
     5
 42
1278.0
  3
INABA_S40G
100
AcDbAlignedDimension
 13
4683.8741792104
 23
7696.896058145174
 33
0.0
 14
3405.8741792104
 24
7696.896058145113
 34
0.0
100
AcDbRotatedDimension
1001
ACAD
1000
DSTYLE
1002
{
1002
}
  0
LINE
  5
18726
330
747D
100
AcDbEntity
  8
寸法
 48
50.0
100
AcDbLine
 10
3963.140864649659
 20
7627.223655758696
 30
0.0
 11
4182.292804825384
 21
7627.223655758696
 31
0.0
  0
LINE
  5
18727
330
747D
100
AcDbEntity
  8
寸法
 48
50.0
100
AcDbLine
 10
4182.292804825384
 20
7627.223655758696
 30
0.0
 11
4093.008586229962
 21
7651.147290028183
 31
0.0
  0
LINE
  5
18728
330
747D
100
AcDbEntity
  8
寸法
 48
50.0
100
AcDbLine
 10
4093.008586229962
 20
7651.147290028183
 30
0.0
 11
4093.008586229962
 21
7597.483655446393
 31
0.0
  0
LINE
  5
18729
330
747D
100
AcDbEntity
  8
寸法
 48
50.0
100
AcDbLine
 10
3611.271377308405
 20
7594.00169927336
 30
0.0
 11
3662.677385218508
 21
7594.00169927336
 31
0.0
  0
LINE
  5
1872A
330
747D
100
AcDbEntity
  8
寸法
 48
50.0
100
AcDbLine
 10
3662.677385218508
 20
7594.00169927336
 30
0.0
 11
3662.677385218508
 21
7625.311857925526
 31
0.0
  0
LINE
  5
1872B
330
747D
100
AcDbEntity
  8
寸法
 48
50.0
100
AcDbLine
 10
3662.677385218508
 20
7625.311857925526
 30
0.0
 11
3692.438717209931
 21
7625.311857925526
 31
0.0
  0
LINE
  5
1872C
330
747D
100
AcDbEntity
  8
寸法
 48
50.0
100
AcDbLine
 10
3692.438717209931
 20
7625.311857925526
 30
0.0
 11
3636.974381263457
 21
7662.891308854135
 31
0.0
  0
LINE
  5
1872D
330
747D
100
AcDbEntity
  8
寸法
 48
50.0
100
AcDbLine
 10
3581.510045316981
 20
7625.311857925526
 30
0.0
 11
3636.974381263456
 21
7662.891308854138
 31
0.0
  0
LINE
  5
1872E
330
747D
100
AcDbEntity
  8
寸法
 48
50.0
100
AcDbLine
 10
3611.271377308405
 20
7625.311857925526
 30
0.0
 11
3581.510045316981
 21
7625.311857925526
 31
0.0
  0
LINE
  5
1872F
330
747D
100
AcDbEntity
  8
寸法
 48
50.0
100
AcDbLine
 10
3611.271377308405
 20
7594.00169927336
 30
0.0
 11
3611.271377308405
 21
7625.311857925526
 31
0.0
  0
LINE
  5
18730
330
747D
100
AcDbEntity
  8
寸法
 48
50.0
100
AcDbLine
 10
3662.677385218508
 20
7594.00169927336
 30
0.0
 11
3611.271377308405
 21
7594.00169927336
 31
0.0
  0
LINE
  5
18731
330
747D
100
AcDbEntity
  8
細線
100
AcDbLine
 10
4200.8741792104
 20
7699.896058145279
 30
0.0
 11
4100.874179210385
 21
7699.896058145265
 31
0.0
  0
LINE
  5
18732
330
747D
100
AcDbEntity
  8
部品1
100
AcDbLine
 10
3816.8741792104
 20
7696.896058145116
 30
0.0
 11
3765.8741792104
 21
7696.896058145116
 31
0.0
  0
LINE
  5
18733
330
747D
100
AcDbEntity
  8
細線
100
AcDbLine
 10
4537.374179210421
 20
7733.896058145319
 30
0.0
 11
4529.874179210426
 21
7756.896058145248
 31
0.0
  0
LINE
  5
18734
330
747D
100
AcDbEntity
  8
細線
100
AcDbLine
 10
4477.37417921042
 20
7733.89605814533
 30
0.0
 11
4484.874179210426
 21
7756.896058145248
 31
0.0
  0
LINE
  5
18735
330
747D
100
AcDbEntity
  8
細線
100
AcDbLine
 10
3825.874179210318
 20
7699.896058145345
 30
0.0
 11
3833.374179210323
 21
7722.896058145261
 31
0.0
  0
LINE
  5
18736
330
747D
100
AcDbEntity
  8
細線
100
AcDbLine
 10
3885.874179210317
 20
7699.896058145334
 30
0.0
 11
3878.374179210322
 21
7722.896058145261
 31
0.0
  0
LINE
  5
18737
330
747D
100
AcDbEntity
  8
細線
100
AcDbLine
 10
3960.874179210388
 20
7699.896058145258
 30
0.0
 11
3958.54264091962
 21
7704.896058145243
 31
0.0
  0
LINE
  5
18738
330
747D
100
AcDbEntity
  8
細線
100
AcDbLine
 10
3958.542640919621
 20
7704.896058145243
 30
0.0
 11
3893.205717501147
 21
7704.896058145232
 31
0.0
  0
LINE
  5
18739
330
747D
100
AcDbEntity
  8
細線
100
AcDbLine
 10
3890.874179210392
 20
7699.896058145232
 30
0.0
 11
3820.874179210392
 21
7699.89605814522
 31
0.0
  0
LINE
  5
1873A
330
747D
100
AcDbEntity
  8
細線
100
AcDbLine
 10
3750.874179210393
 20
7699.896058145212
 30
0.0
 11
3680.874179210393
 21
7699.896058145203
 31
0.0
  0
LINE
  5
1873B
330
747D
100
AcDbEntity
  8
細線
100
AcDbLine
 10
3890.874179210393
 20
7699.896058145276
 30
0.0
 11
3893.205717501161
 21
7704.896058145262
 31
0.0
  0
LINE
  5
1873C
330
747D
100
AcDbEntity
  8
細線
100
AcDbLine
 10
3818.542640919619
 20
7704.89605814522
 30
0.0
 11
3753.205717501145
 21
7704.896058145211
 31
0.0
  0
LINE
  5
1873D
330
747D
100
AcDbEntity
  8
細線
100
AcDbLine
 10
3820.874179210386
 20
7699.896058145235
 30
0.0
 11
3818.542640919618
 21
7704.89605814522
 31
0.0
  0
LINE
  5
1873E
330
747D
100
AcDbEntity
  8
細線
100
AcDbLine
 10
3750.874179210391
 20
7699.896058145253
 30
0.0
 11
3753.205717501159
 21
7704.896058145239
 31
0.0
  0
LINE
  5
1873F
330
747D
100
AcDbEntity
  8
細線
100
AcDbLine
 10
3678.54264091962
 20
7704.896058145203
 30
0.0
 11
3613.205717501146
 21
7704.896058145192
 31
0.0
  0
LINE
  5
18740
330
747D
100
AcDbEntity
  8
細線
100
AcDbLine
 10
3680.874179210387
 20
7699.896058145218
 30
0.0
 11
3678.542640919619
 21
7704.896058145203
 31
0.0
  0
LINE
  5
18741
330
747D
100
AcDbEntity
  8
細線
100
AcDbLine
 10
3610.874179210392
 20
7699.896058145235
 30
0.0
 11
3613.20571750116
 21
7704.89605814522
 31
0.0
  0
LINE
  5
18742
330
747D
100
AcDbEntity
  8
細線
100
AcDbLine
 10
3562.374179210399
 20
7717.896058145185
 30
0.0
 11
3562.374179210399
 21
7699.896058145161
 31
0.0
  0
LINE
  5
18743
330
747D
100
AcDbEntity
  8
細線
100
AcDbLine
 10
3521.374179210398
 20
7717.896058145178
 30
0.0
 11
3521.374179210398
 21
7699.896058145161
 31
0.0
  0
LINE
  5
18744
330
747D
100
AcDbEntity
  8
細線
100
AcDbLine
 10
3562.374179210399
 20
7717.896058145185
 30
0.0
 11
3521.374179210398
 21
7717.896058145178
 31
0.0
  0
ARC
  5
18745
330
747D
100
AcDbEntity
  8
部品1
100
AcDbCircle
 10
3523.918335087676
 20
7699.396058145183
 30
0.0
 40
1.0
100
AcDbArc
 50
270.0
 51
19.47122063442214
  0
LINE
  5
18746
330
747D
100
AcDbEntity
  8
部品1
 48
0.01
100
AcDbLine
 10
3516.874179210392
 20
7699.896058145185
 30
0.0
 11
3516.874179210392
 21
7698.896058145185
 31
0.0
  0
LINE
  5
18747
330
747D
100
AcDbEntity
  8
部品1
 48
0.01
100
AcDbLine
 10
3517.374179210392
 20
7698.396058145185
 30
0.0
 11
3523.918335087676
 21
7698.396058145182
 31
0.0
  0
ARC
  5
18748
330
747D
100
AcDbEntity
  8
部品1
 48
0.01
100
AcDbCircle
 10
3517.374179210392
 20
7698.896058145185
 30
0.0
 40
0.5
100
AcDbArc
 50
180.0
 51
270.0
  0
ARC
  5
18749
330
747D
100
AcDbEntity
  8
部品1
100
AcDbCircle
 10
3549.374179210392
 20
7708.396058145183
 30
0.0
 40
26.0
100
AcDbArc
 50
180.0
 51
199.4712206344221
  0
ARC
  5
1874A
330
747D
100
AcDbEntity
  8
部品1
 48
0.01
100
AcDbCircle
 10
3525.374179210392
 20
7713.396058145183
 30
0.0
 40
2.0
100
AcDbArc
 50
90.0
 51
180.0
  0
LINE
  5
1874B
330
747D
100
AcDbEntity
  8
部品1
100
AcDbLine
 10
3523.374179210392
 20
7708.396058145183
 30
0.0
 11
3523.374179210392
 21
7713.396058145183
 31
0.0
  0
ARC
  5
1874C
330
747D
100
AcDbEntity
  8
部品1
100
AcDbCircle
 10
3541.874179210392
 20
7724.196058145183
 30
0.0
 40
16.0
100
AcDbArc
 50
218.3930440192126
 51
254.0576313943859
  0
ARC
  5
1874D
330
747D
100
AcDbEntity
  8
部品1
100
AcDbCircle
 10
3526.982570835204
 20
7712.396058145182
 30
0.0
 40
3.0
100
AcDbArc
 50
38.39304401921267
 51
90.0
  0
LINE
  5
1874E
330
747D
100
AcDbEntity
  8
部品1
 48
0.01
100
AcDbLine
 10
3525.374179210392
 20
7715.396058145183
 30
0.0
 11
3526.982570835204
 21
7715.396058145183
 31
0.0
  0
ARC
  5
1874F
330
747D
100
AcDbEntity
  8
部品1
100
AcDbCircle
 10
3541.874179210392
 20
7724.196058145183
 30
0.0
 40
16.0
100
AcDbArc
 50
285.9423686056142
 51
321.6069559807873
  0
LINE
  5
18750
330
747D
100
AcDbEntity
  8
部品1
100
AcDbLine
 10
3545.444893424663
 20
7708.696058145185
 30
0.0
 11
3538.303464996121
 21
7708.696058145185
 31
0.0
  0
ARC
  5
18751
330
747D
100
AcDbEntity
  8
部品1
100
AcDbCircle
 10
3545.444893424663
 20
7711.696058145183
 30
0.0
 40
3.0
100
AcDbArc
 50
270.0
 51
285.9423686056142
  0
ARC
  5
18752
330
747D
100
AcDbEntity
  8
部品1
100
AcDbCircle
 10
3538.303464996121
 20
7711.696058145183
 30
0.0
 40
3.0
100
AcDbArc
 50
254.0576313943859
 51
270.0
  0
LINE
  5
18753
330
747D
100
AcDbEntity
  8
部品1
 48
0.01
100
AcDbLine
 10
3558.374179210392
 20
7715.396058145183
 30
0.0
 11
3556.76578758558
 21
7715.396058145183
 31
0.0
  0
ARC
  5
18754
330
747D
100
AcDbEntity
  8
部品1
100
AcDbCircle
 10
3556.76578758558
 20
7712.396058145182
 30
0.0
 40
3.0
100
AcDbArc
 50
90.0
 51
141.6069559807873
  0
ARC
  5
18755
330
747D
100
AcDbEntity
  8
部品1
 48
0.01
100
AcDbCircle
 10
3558.374179210392
 20
7713.396058145183
 30
0.0
 40
2.0
100
AcDbArc
 50
0.0
 51
90.0
  0
LINE
  5
18756
330
747D
100
AcDbEntity
  8
部品1
100
AcDbLine
 10
3560.374179210392
 20
7708.396058145183
 30
0.0
 11
3560.374179210392
 21
7713.396058145183
 31
0.0
  0
ARC
  5
18757
330
747D
100
AcDbEntity
  8
部品1
100
AcDbCircle
 10
3534.374179210392
 20
7708.396058145183
 30
0.0
 40
26.0
100
AcDbArc
 50
340.5287793655779
 51
0.0
  0
ARC
  5
18758
330
747D
100
AcDbEntity
  8
部品1
100
AcDbCircle
 10
3559.830023333108
 20
7699.396058145183
 30
0.0
 40
1.0
100
AcDbArc
 50
160.5287793655778
 51
270.0
  0
LINE
  5
18759
330
747D
100
AcDbEntity
  8
部品1
 48
0.01
100
AcDbLine
 10
3566.374179210392
 20
7698.396058145185
 30
0.0
 11
3559.761673780329
 21
7698.396058145182
 31
0.0
  0
LINE
  5
1875A
330
747D
100
AcDbEntity
  8
部品1
 48
0.01
100
AcDbLine
 10
3566.874179210393
 20
7699.896058145185
 30
0.0
 11
3566.874179210393
 21
7698.896058145185
 31
0.0
  0
LINE
  5
1875B
330
747D
100
AcDbEntity
  8
部品1
 48
0.01
100
AcDbLine
 10
3566.874179210393
 20
7699.896058145185
 30
0.0
 11
3566.874179210393
 21
7698.896058145185
 31
0.0
  0
ARC
  5
1875C
330
747D
100
AcDbEntity
  8
部品1
 48
0.01
100
AcDbCircle
 10
3566.374179210392
 20
7698.896058145185
 30
0.0
 40
0.5
100
AcDbArc
 50
270.0
 51
0.0
  0
LINE
  5
1875D
330
747D
100
AcDbEntity
  8
細線
100
AcDbLine
 10
4262.374179210405
 20
7733.89605814525
 30
0.0
 11
4264.705717501167
 21
7738.896058145221
 31
0.0
  0
LINE
  5
1875E
330
747D
100
AcDbEntity
  8
細線
100
AcDbLine
 10
4332.374179210393
 20
7733.896058145217
 30
0.0
 11
4330.042640919626
 21
7738.896058145202
 31
0.0
  0
LINE
  5
1875F
330
747D
100
AcDbEntity
  8
細線
100
AcDbLine
 10
4330.042640919627
 20
7738.896058145202
 30
0.0
 11
4264.705717501153
 21
7738.896058145193
 31
0.0
  0
LINE
  5
18760
330
747D
100
AcDbEntity
  8
細線
100
AcDbLine
 10
4402.374179210398
 20
7733.896058145255
 30
0.0
 11
4404.705717501165
 21
7738.896058145241
 31
0.0
  0
LINE
  5
18761
330
747D
100
AcDbEntity
  8
細線
100
AcDbLine
 10
4472.374179210393
 20
7733.896058145238
 30
0.0
 11
4470.042640919625
 21
7738.896058145222
 31
0.0
  0
LINE
  5
18762
330
747D
100
AcDbEntity
  8
細線
100
AcDbLine
 10
4470.042640919626
 20
7738.896058145222
 30
0.0
 11
4404.705717501152
 21
7738.896058145212
 31
0.0
  0
LINE
  5
18763
330
747D
100
AcDbEntity
  8
細線
100
AcDbLine
 10
4542.3741792104
 20
7733.896058145275
 30
0.0
 11
4544.705717501168
 21
7738.896058145261
 31
0.0
  0
LINE
  5
18764
330
747D
100
AcDbEntity
  8
細線
100
AcDbLine
 10
4542.374179210384
 20
7733.896058145242
 30
0.0
 11
4472.374179210389
 21
7733.896058145242
 31
0.0
  0
LINE
  5
18765
330
747D
100
AcDbEntity
  8
細線
100
AcDbLine
 10
4402.374179210393
 20
7733.896058145245
 30
0.0
 11
4332.37417921038
 21
7733.896058145247
 31
0.0
  0
LINE
  5
18766
330
747D
100
AcDbEntity
  8
細線
100
AcDbLine
 10
4262.374179210405
 20
7733.89605814525
 30
0.0
 11
4243.484434061637
 21
7733.896058145252
 31
0.0
  0
LINE
  5
18767
330
747D
100
AcDbEntity
  8
細線
100
AcDbLine
 10
4030.874179210392
 20
7699.896058145232
 30
0.0
 11
3960.874179210392
 21
7699.89605814522
 31
0.0
  0
LINE
  5
18768
330
747D
100
AcDbEntity
  8
細線
100
AcDbLine
 10
4030.874179210393
 20
7699.896058145276
 30
0.0
 11
4033.20571750116
 21
7704.896058145262
 31
0.0
  0
LINE
  5
18769
330
747D
100
AcDbEntity
  8
細線
100
AcDbLine
 10
4098.54264091962
 20
7704.896058145243
 30
0.0
 11
4033.205717501147
 21
7704.896058145232
 31
0.0
  0
LINE
  5
1876A
330
747D
100
AcDbEntity
  8
細線
100
AcDbLine
 10
4100.874179210385
 20
7699.896058145265
 30
0.0
 11
4098.54264091962
 21
7704.896058145243
 31
0.0
  0
ARC
  5
1876B
330
747D
100
AcDbEntity
  8
細線
100
AcDbCircle
 10
3855.874185710291
 20
7725.396058145235
 30
0.0
 40
6.0
100
AcDbArc
 50
204.6243183521304
 51
335.3756816478695
  0
ARC
  5
1876C
330
747D
100
AcDbEntity
  8
細線
100
AcDbCircle
 10
4507.374185710286
 20
7759.396058145251
 30
0.0
 40
6.0
100
AcDbArc
 50
204.6243183521304
 51
335.3756816478695
  0
LINE
  5
1876D
330
747D
100
AcDbEntity
  8
細線
100
AcDbLine
 10
4179.874179210382
 20
7729.896058145264
 30
0.0
 11
4179.874179210384
 21
7733.896058145266
 31
0.0
  0
LINE
  5
1876E
330
747D
100
AcDbEntity
  8
細線
100
AcDbLine
 10
4179.874179210382
 20
7729.896058145264
 30
0.0
 11
4159.874179210393
 21
7729.896058145264
 31
0.0
  0
LINE
  5
1876F
330
747D
100
AcDbEntity
  8
細線
100
AcDbLine
 10
4159.874179210393
 20
7729.896058145264
 30
0.0
 11
4159.874179210404
 21
7763.896058145272
 31
0.0
  0
LINE
  5
18770
330
747D
100
AcDbEntity
  8
細線
100
AcDbLine
 10
4200.8741792104
 20
7699.896058145279
 30
0.0
 11
4200.874179210408
 21
7729.896058145278
 31
0.0
  0
LINE
  5
18771
330
747D
100
AcDbEntity
  8
細線
100
AcDbLine
 10
4200.874179210408
 20
7729.896058145278
 30
0.0
 11
4185.874179210404
 21
7729.896058145276
 31
0.0
  0
LINE
  5
18772
330
747D
100
AcDbEntity
  8
細線
100
AcDbLine
 10
4185.874179210403
 20
7722.896058145275
 30
0.0
 11
4185.874179210404
 21
7729.896058145276
 31
0.0
  0
LINE
  5
18773
330
747D
100
AcDbEntity
  8
細線
100
AcDbLine
 10
4185.874179210383
 20
7733.896058145273
 30
0.0
 11
4179.874179210384
 21
7733.896058145273
 31
0.0
  0
LINE
  5
18774
330
747D
100
AcDbEntity
  8
細線
100
AcDbLine
 10
4191.874179210409
 20
7733.196058145272
 30
0.0
 11
4191.874179210409
 21
7733.896058145273
 31
0.0
  0
ARC
  5
18775
330
747D
100
AcDbEntity
  8
細線
100
AcDbCircle
 10
4189.874179210408
 20
7733.196058145272
 30
0.0
 40
2.0
100
AcDbArc
 50
270.0
 51
0.0
  0
LINE
  5
18776
330
747D
100
AcDbEntity
  8
細線
100
AcDbLine
 10
4187.874179210409
 20
7731.196058145271
 30
0.0
 11
4189.874179210408
 21
7731.196058145271
 31
0.0
  0
LINE
  5
18777
330
747D
100
AcDbEntity
  8
細線
100
AcDbLine
 10
4185.874179210409
 20
7733.196058145272
 30
0.0
 11
4185.874179210409
 21
7733.896058145273
 31
0.0
  0
ARC
  5
18778
330
747D
100
AcDbEntity
  8
細線
100
AcDbCircle
 10
4187.874179210409
 20
7733.196058145272
 30
0.0
 40
2.0
100
AcDbArc
 50
180.0
 51
270.0
  0
LINE
  5
18779
330
747D
100
AcDbEntity
  8
細線
100
AcDbLine
 10
4174.874179210398
 20
7756.89605814525
 30
0.0
 11
4174.874179210402
 21
7763.896058145272
 31
0.0
  0
LINE
  5
1877A
330
747D
100
AcDbEntity
  8
細線
100
AcDbLine
 10
4174.874179210401
 20
7763.896058145272
 30
0.0
 11
4159.874179210402
 21
7763.896058145272
 31
0.0
  0
LINE
  5
1877B
330
747D
100
AcDbEntity
  8
細線
100
AcDbLine
 10
4839.874179210388
 20
7756.896058145243
 30
0.0
 11
4239.428913505343
 21
7756.89605814525
 31
0.0
  0
LINE
  5
1877C
330
747D
100
AcDbEntity
  8
細線
 48
50.0
100
AcDbLine
 10
5495.874179210382
 20
7712.896058145244
 30
0.0
 11
4247.187300656516
 21
7712.896058145246
 31
0.0
  0
LINE
  5
1877D
330
747D
100
AcDbEntity
  8
細線
 48
50.0
100
AcDbLine
 10
4159.874179210397
 20
7746.896058145257
 30
0.0
 11
3405.874179210397
 21
7746.89605814513
 31
0.0
  0
LINE
  5
1877E
330
747D
100
AcDbEntity
  8
細線
100
AcDbLine
 10
4185.874179210402
 20
7722.896058145275
 30
0.0
 11
3420.874179210397
 21
7722.896058145159
 31
0.0
  0
LINE
  5
1877F
330
747D
100
AcDbEntity
  8
細線
100
AcDbLine
 10
3610.874179210393
 20
7699.896058145192
 30
0.0
 11
3396.861872561348
 21
7699.89605814516
 31
0.0
  0
LINE
  5
18780
330
747D
100
AcDbEntity
  8
細線
100
AcDbLine
 10
3420.874179210397
 20
7729.896058145159
 30
0.0
 11
3420.874179210397
 21
7722.896058145159
 31
0.0
  0
LINE
  5
18781
330
747D
100
AcDbEntity
  8
細線
100
AcDbLine
 10
3420.874179210397
 20
7729.896058145159
 30
0.0
 11
3405.874179210397
 21
7729.896058145159
 31
0.0
  0
LINE
  5
18782
330
747D
100
AcDbEntity
  8
細線
100
AcDbLine
 10
3405.874179210399
 20
7703.896058145112
 30
0.0
 11
3405.874179210399
 21
7699.896058145161
 31
0.0
  0
LINE
  5
18783
330
747D
100
AcDbEntity
  8
細線
100
AcDbLine
 10
4610.042640919628
 20
7738.896058145243
 30
0.0
 11
4544.705717501154
 21
7738.896058145233
 31
0.0
  0
LINE
  5
18784
330
747D
100
AcDbEntity
  8
細線
100
AcDbLine
 10
4612.374179210394
 20
7733.896058145258
 30
0.0
 11
4610.042640919627
 21
7738.896058145243
 31
0.0
  0
LINE
  5
18785
330
747D
100
AcDbEntity
  8
細線
100
AcDbLine
 10
4682.374179210387
 20
7733.896058145266
 30
0.0
 11
4612.374179210392
 21
7733.896058145266
 31
0.0
  0
LINE
  5
18786
330
747D
100
AcDbEntity
  8
細線
100
AcDbLine
 10
4682.374179210402
 20
7733.896058145298
 30
0.0
 11
4684.705717501169
 21
7738.896058145283
 31
0.0
  0
LINE
  5
18787
330
747D
100
AcDbEntity
  8
細線
100
AcDbLine
 10
4854.874179210393
 20
7733.896058145242
 30
0.0
 11
4752.374179210413
 21
7733.896058145242
 31
0.0
  0
LINE
  5
18788
330
747D
100
AcDbEntity
  8
細線
100
AcDbLine
 10
4752.374179210413
 20
7733.896058145242
 30
0.0
 11
4750.042640919629
 21
7738.896058145265
 31
0.0
  0
LINE
  5
18789
330
747D
100
AcDbEntity
  8
細線
100
AcDbLine
 10
4750.042640919629
 20
7738.896058145265
 30
0.0
 11
4684.705717501156
 21
7738.896058145254
 31
0.0
  0
LINE
  5
1878A
330
747D
100
AcDbEntity
  8
細線
100
AcDbLine
 10
4833.874179210393
 20
7761.896058145241
 30
0.0
 11
4833.874179210393
 21
7769.896058145241
 31
0.0
  0
LINE
  5
1878B
330
747D
100
AcDbEntity
  8
細線
100
AcDbLine
 10
4833.874179210393
 20
7761.896058145241
 30
0.0
 11
4813.874179210393
 21
7761.896058145241
 31
0.0
  0
LINE
  5
1878C
330
747D
100
AcDbEntity
  8
細線
100
AcDbLine
 10
4813.874179210393
 20
7761.896058145241
 30
0.0
 11
4813.874179210393
 21
7797.896058145247
 31
0.0
  0
LINE
  5
1878D
330
747D
100
AcDbEntity
  8
細線
100
AcDbLine
 10
4854.874179210393
 20
7733.896058145242
 30
0.0
 11
4854.874179210399
 21
7763.896058145239
 31
0.0
  0
LINE
  5
1878E
330
747D
100
AcDbEntity
  8
細線
100
AcDbLine
 10
4854.874179210391
 20
7763.896058145241
 30
0.0
 11
4839.874179210389
 21
7763.896058145238
 31
0.0
  0
LINE
  5
1878F
330
747D
100
AcDbEntity
  8
細線
100
AcDbLine
 10
4839.874179210388
 20
7756.896058145243
 30
0.0
 11
4839.874179210389
 21
7763.896058145238
 31
0.0
  0
LINE
  5
18790
330
747D
100
AcDbEntity
  8
細線
100
AcDbLine
 10
4839.874179210394
 20
7769.896058145241
 30
0.0
 11
4833.874179210393
 21
7769.896058145241
 31
0.0
  0
ARC
  5
18791
330
747D
100
AcDbEntity
  8
細線
100
AcDbCircle
 10
4841.874179210392
 20
7769.19605814524
 30
0.0
 40
2.0
100
AcDbArc
 50
180.0
 51
270.0
  0
LINE
  5
18792
330
747D
100
AcDbEntity
  8
細線
100
AcDbLine
 10
4839.874179210394
 20
7769.196058145242
 30
0.0
 11
4839.874179210394
 21
7769.896058145241
 31
0.0
  0
LINE
  5
18793
330
747D
100
AcDbEntity
  8
細線
100
AcDbLine
 10
4841.874179210393
 20
7767.196058145242
 30
0.0
 11
4843.874179210394
 21
7767.196058145242
 31
0.0
  0
ARC
  5
18794
330
747D
100
AcDbEntity
  8
細線
100
AcDbCircle
 10
4843.874179210393
 20
7769.19605814524
 30
0.0
 40
2.0
100
AcDbArc
 50
270.0
 51
0.0
  0
LINE
  5
18795
330
747D
100
AcDbEntity
  8
細線
100
AcDbLine
 10
4845.874179210394
 20
7769.196058145242
 30
0.0
 11
4845.874179210394
 21
7769.896058145241
 31
0.0
  0
LINE
  5
18796
330
747D
100
AcDbEntity
  8
細線
100
AcDbLine
 10
4828.874179210393
 20
7793.396058145242
 30
0.0
 11
4828.874179210393
 21
7797.896058145237
 31
0.0
  0
LINE
  5
18797
330
747D
100
AcDbEntity
  8
細線
 48
50.0
100
AcDbLine
 10
5495.874179210382
 20
7746.896058145249
 30
0.0
 11
4854.874179210395
 21
7746.89605814525
 31
0.0
  0
LINE
  5
18798
330
747D
100
AcDbEntity
  8
細線
100
AcDbLine
 10
4944.874179210398
 20
7769.896058145246
 30
0.0
 11
4845.874179210394
 21
7769.896058145246
 31
0.0
  0
LINE
  5
18799
330
747D
100
AcDbEntity
  8
細線
100
AcDbLine
 10
5527.874179210384
 20
7797.89605814524
 30
0.0
 11
4813.874179210393
 21
7797.896058145247
 31
0.0
  0
LINE
  5
1879A
330
747D
100
AcDbEntity
  8
細線
100
AcDbLine
 10
5072.874179210384
 20
7797.896058145243
 30
0.0
 11
5072.874179210383
 21
7769.896058145246
 31
0.0
  0
LINE
  5
1879B
330
747D
100
AcDbEntity
  8
細線
100
AcDbLine
 10
5057.874179210385
 20
7797.896058145243
 30
0.0
 11
5042.874179210382
 21
7769.896058145246
 31
0.0
  0
LINE
  5
1879C
330
747D
100
AcDbEntity
  8
細線
100
AcDbLine
 10
5084.874179210392
 20
7769.896058145253
 30
0.0
 11
5087.205717501159
 21
7774.896058145237
 31
0.0
  0
LINE
  5
1879D
330
747D
100
AcDbEntity
  8
細線
100
AcDbLine
 10
5012.542640919621
 20
7774.896058145199
 30
0.0
 11
4947.205717501147
 21
7774.896058145188
 31
0.0
  0
LINE
  5
1879E
330
747D
100
AcDbEntity
  8
細線
100
AcDbLine
 10
5014.874179210387
 20
7769.896058145214
 30
0.0
 11
5012.54264091962
 21
7774.896058145199
 31
0.0
  0
LINE
  5
1879F
330
747D
100
AcDbEntity
  8
細線
100
AcDbLine
 10
4944.874179210398
 20
7769.896058145246
 30
0.0
 11
4947.205717501161
 21
7774.896058145218
 31
0.0
  0
LINE
  5
187A0
330
747D
100
AcDbEntity
  8
細線
100
AcDbLine
 10
5084.874179210387
 20
7769.896058145242
 30
0.0
 11
5014.874179210376
 21
7769.896058145242
 31
0.0
  0
LINE
  5
187A1
330
747D
100
AcDbEntity
  8
細線
100
AcDbLine
 10
5294.874179210388
 20
7769.896058145254
 30
0.0
 11
5292.54264091962
 21
7774.896058145239
 31
0.0
  0
LINE
  5
187A2
330
747D
100
AcDbEntity
  8
細線
100
AcDbLine
 10
5292.542640919622
 20
7774.896058145239
 30
0.0
 11
5227.205717501147
 21
7774.896058145228
 31
0.0
  0
LINE
  5
187A3
330
747D
100
AcDbEntity
  8
細線
100
AcDbLine
 10
5224.874179210394
 20
7769.896058145272
 30
0.0
 11
5227.205717501162
 21
7774.896058145258
 31
0.0
  0
LINE
  5
187A4
330
747D
100
AcDbEntity
  8
細線
100
AcDbLine
 10
5152.542640919619
 20
7774.89605814522
 30
0.0
 11
5087.205717501146
 21
7774.896058145208
 31
0.0
  0
LINE
  5
187A5
330
747D
100
AcDbEntity
  8
細線
100
AcDbLine
 10
5154.874179210387
 20
7769.896058145234
 30
0.0
 11
5152.542640919619
 21
7774.89605814522
 31
0.0
  0
LINE
  5
187A6
330
747D
100
AcDbEntity
  8
細線
100
AcDbLine
 10
5224.87417921038
 20
7769.896058145242
 30
0.0
 11
5154.874179210381
 21
7769.896058145242
 31
0.0
  0
LINE
  5
187A7
330
747D
100
AcDbEntity
  8
細線
100
AcDbLine
 10
5364.874179210382
 20
7769.896058145262
 30
0.0
 11
5294.874179210383
 21
7769.896058145262
 31
0.0
  0
LINE
  5
187A8
330
747D
100
AcDbEntity
  8
細線
100
AcDbLine
 10
5364.874179210396
 20
7769.896058145294
 30
0.0
 11
5367.205717501163
 21
7774.896058145279
 31
0.0
  0
LINE
  5
187A9
330
747D
100
AcDbEntity
  8
細線
100
AcDbLine
 10
5493.874179210382
 20
7769.896058145242
 30
0.0
 11
5434.874179210381
 21
7769.896058145242
 31
0.0
  0
LINE
  5
187AA
330
747D
100
AcDbEntity
  8
細線
100
AcDbLine
 10
5432.542640919623
 20
7774.896058145261
 30
0.0
 11
5367.20571750115
 21
7774.896058145251
 31
0.0
  0
LINE
  5
187AB
330
747D
100
AcDbEntity
  8
細線
100
AcDbLine
 10
5434.87417921039
 20
7769.896058145275
 30
0.0
 11
5432.542640919622
 21
7774.896058145261
 31
0.0
  0
LINE
  5
187AC
330
747D
100
AcDbEntity
  8
細線
100
AcDbLine
 10
5493.874179210382
 20
7751.896058145241
 30
0.0
 11
5493.874179210382
 21
7769.896058145241
 31
0.0
  0
LINE
  5
187AD
330
747D
100
AcDbEntity
  8
細線
 48
50.0
100
AcDbLine
 10
5493.874179210382
 20
7751.896058145241
 30
0.0
 11
5495.874179210382
 21
7751.896058145241
 31
0.0
  0
LINE
  5
187D8
330
747D
100
AcDbEntity
  8
細線
 48
50.0
100
AcDbLine
 10
4216.724502299943
 20
7712.896058145247
 30
0.0
 11
4200.874179210404
 21
7712.896058145246
 31
0.0
  0
LINE
  5
187D9
330
747D
100
AcDbEntity
  8
細線
100
AcDbLine
 10
4213.021635705064
 20
7733.896058145262
 30
0.0
 11
4191.874179210409
 21
7733.896058145273
 31
0.0
  0
LINE
  5
187DA
330
747D
100
AcDbEntity
  8
細線
100
AcDbLine
 10
4208.966115148771
 20
7756.896058145248
 30
0.0
 11
4174.874179210398
 21
7756.89605814525
 31
0.0
  0
LINE
  5
187DB
330
747D
100
AcDbEntity
  8
部品1
100
AcDbLine
 10
6026.8741792104
 20
7696.896058145117
 30
0.0
 11
5975.8741792104
 21
7696.896058145117
 31
0.0
  0
LINE
  5
187DC
330
747D
100
AcDbEntity
  8
細線
100
AcDbLine
 10
6035.874179210317
 20
7699.896058145346
 30
0.0
 11
6043.374179210323
 21
7722.896058145263
 31
0.0
  0
LINE
  5
187DD
330
747D
100
AcDbEntity
  8
細線
100
AcDbLine
 10
6095.874179210317
 20
7699.896058145334
 30
0.0
 11
6088.374179210322
 21
7722.896058145263
 31
0.0
  0
LINE
  5
187DE
330
747D
100
AcDbEntity
  8
細線
100
AcDbLine
 10
6170.874179210387
 20
7699.896058145258
 30
0.0
 11
6168.54264091962
 21
7704.896058145243
 31
0.0
  0
LINE
  5
187DF
330
747D
100
AcDbEntity
  8
細線
100
AcDbLine
 10
6168.542640919621
 20
7704.896058145243
 30
0.0
 11
6103.205717501147
 21
7704.896058145234
 31
0.0
  0
LINE
  5
187E0
330
747D
100
AcDbEntity
  8
細線
100
AcDbLine
 10
6100.874179210392
 20
7699.896058145234
 30
0.0
 11
6030.874179210393
 21
7699.896058145222
 31
0.0
  0
LINE
  5
187E1
330
747D
100
AcDbEntity
  8
細線
100
AcDbLine
 10
5960.874179210392
 20
7699.896058145212
 30
0.0
 11
5890.874179210393
 21
7699.896058145204
 31
0.0
  0
LINE
  5
187E2
330
747D
100
AcDbEntity
  8
細線
100
AcDbLine
 10
6100.874179210393
 20
7699.896058145276
 30
0.0
 11
6103.205717501161
 21
7704.896058145262
 31
0.0
  0
LINE
  5
187E3
330
747D
100
AcDbEntity
  8
細線
100
AcDbLine
 10
6028.542640919619
 20
7704.896058145222
 30
0.0
 11
5963.205717501145
 21
7704.896058145211
 31
0.0
  0
LINE
  5
187E4
330
747D
100
AcDbEntity
  8
細線
100
AcDbLine
 10
6030.874179210385
 20
7699.896058145236
 30
0.0
 11
6028.542640919618
 21
7704.896058145222
 31
0.0
  0
LINE
  5
187E5
330
747D
100
AcDbEntity
  8
細線
100
AcDbLine
 10
5960.874179210391
 20
7699.896058145255
 30
0.0
 11
5963.205717501159
 21
7704.896058145241
 31
0.0
  0
LINE
  5
187E6
330
747D
100
AcDbEntity
  8
細線
100
AcDbLine
 10
5888.54264091962
 20
7704.896058145203
 30
0.0
 11
5823.205717501146
 21
7704.896058145194
 31
0.0
  0
LINE
  5
187E7
330
747D
100
AcDbEntity
  8
細線
100
AcDbLine
 10
5890.874179210387
 20
7699.896058145218
 30
0.0
 11
5888.542640919619
 21
7704.896058145203
 31
0.0
  0
LINE
  5
187E8
330
747D
100
AcDbEntity
  8
細線
100
AcDbLine
 10
5820.874179210392
 20
7699.896058145236
 30
0.0
 11
5823.20571750116
 21
7704.896058145222
 31
0.0
  0
LINE
  5
187E9
330
747D
100
AcDbEntity
  8
細線
100
AcDbLine
 10
5772.374179210398
 20
7717.896058145186
 30
0.0
 11
5772.374179210398
 21
7699.896058145163
 31
0.0
  0
LINE
  5
187EA
330
747D
100
AcDbEntity
  8
細線
100
AcDbLine
 10
5731.374179210398
 20
7717.89605814518
 30
0.0
 11
5731.374179210398
 21
7699.896058145163
 31
0.0
  0
LINE
  5
187EB
330
747D
100
AcDbEntity
  8
細線
100
AcDbLine
 10
5772.374179210398
 20
7717.896058145186
 30
0.0
 11
5731.374179210398
 21
7717.89605814518
 31
0.0
  0
ARC
  5
187EC
330
747D
100
AcDbEntity
  8
部品1
100
AcDbCircle
 10
5733.918335087675
 20
7699.396058145184
 30
0.0
 40
1.0
100
AcDbArc
 50
270.0
 51
19.47122063442214
  0
LINE
  5
187ED
330
747D
100
AcDbEntity
  8
部品1
 48
0.01
100
AcDbLine
 10
5726.874179210392
 20
7699.896058145185
 30
0.0
 11
5726.874179210392
 21
7698.896058145186
 31
0.0
  0
LINE
  5
187EE
330
747D
100
AcDbEntity
  8
部品1
 48
0.01
100
AcDbLine
 10
5727.374179210392
 20
7698.396058145185
 30
0.0
 11
5733.918335087675
 21
7698.396058145184
 31
0.0
  0
ARC
  5
187EF
330
747D
100
AcDbEntity
  8
部品1
 48
0.01
100
AcDbCircle
 10
5727.374179210392
 20
7698.896058145186
 30
0.0
 40
0.5
100
AcDbArc
 50
180.0
 51
270.0
  0
ARC
  5
187F0
330
747D
100
AcDbEntity
  8
部品1
100
AcDbCircle
 10
5759.374179210392
 20
7708.396058145183
 30
0.0
 40
26.0
100
AcDbArc
 50
180.0
 51
199.4712206344221
  0
ARC
  5
187F1
330
747D
100
AcDbEntity
  8
部品1
 48
0.01
100
AcDbCircle
 10
5735.374179210392
 20
7713.396058145185
 30
0.0
 40
2.0
100
AcDbArc
 50
90.0
 51
180.0
  0
LINE
  5
187F2
330
747D
100
AcDbEntity
  8
部品1
100
AcDbLine
 10
5733.374179210392
 20
7708.396058145183
 30
0.0
 11
5733.374179210392
 21
7713.396058145185
 31
0.0
  0
ARC
  5
187F3
330
747D
100
AcDbEntity
  8
部品1
100
AcDbCircle
 10
5751.874179210393
 20
7724.196058145185
 30
0.0
 40
16.0
100
AcDbArc
 50
218.3930440192126
 51
254.0576313943859
  0
ARC
  5
187F4
330
747D
100
AcDbEntity
  8
部品1
100
AcDbCircle
 10
5736.982570835204
 20
7712.396058145184
 30
0.0
 40
3.0
100
AcDbArc
 50
38.39304401921267
 51
90.0
  0
LINE
  5
187F5
330
747D
100
AcDbEntity
  8
部品1
 48
0.01
100
AcDbLine
 10
5735.374179210392
 20
7715.396058145184
 30
0.0
 11
5736.982570835204
 21
7715.396058145184
 31
0.0
  0
ARC
  5
187F6
330
747D
100
AcDbEntity
  8
部品1
100
AcDbCircle
 10
5751.874179210393
 20
7724.196058145185
 30
0.0
 40
16.0
100
AcDbArc
 50
285.9423686056142
 51
321.6069559807873
  0
LINE
  5
187F7
330
747D
100
AcDbEntity
  8
部品1
100
AcDbLine
 10
5755.444893424662
 20
7708.696058145185
 30
0.0
 11
5748.30346499612
 21
7708.696058145185
 31
0.0
  0
ARC
  5
187F8
330
747D
100
AcDbEntity
  8
部品1
100
AcDbCircle
 10
5755.444893424662
 20
7711.696058145185
 30
0.0
 40
3.0
100
AcDbArc
 50
270.0
 51
285.9423686056142
  0
ARC
  5
187F9
330
747D
100
AcDbEntity
  8
部品1
100
AcDbCircle
 10
5748.30346499612
 20
7711.696058145185
 30
0.0
 40
3.0
100
AcDbArc
 50
254.0576313943859
 51
270.0
  0
LINE
  5
187FA
330
747D
100
AcDbEntity
  8
部品1
 48
0.01
100
AcDbLine
 10
5768.374179210392
 20
7715.396058145184
 30
0.0
 11
5766.76578758558
 21
7715.396058145184
 31
0.0
  0
ARC
  5
187FB
330
747D
100
AcDbEntity
  8
部品1
100
AcDbCircle
 10
5766.76578758558
 20
7712.396058145184
 30
0.0
 40
3.0
100
AcDbArc
 50
90.0
 51
141.6069559807873
  0
ARC
  5
187FC
330
747D
100
AcDbEntity
  8
部品1
 48
0.01
100
AcDbCircle
 10
5768.374179210392
 20
7713.396058145185
 30
0.0
 40
2.0
100
AcDbArc
 50
0.0
 51
90.0
  0
LINE
  5
187FD
330
747D
100
AcDbEntity
  8
部品1
100
AcDbLine
 10
5770.374179210392
 20
7708.396058145183
 30
0.0
 11
5770.374179210392
 21
7713.396058145185
 31
0.0
  0
ARC
  5
187FE
330
747D
100
AcDbEntity
  8
部品1
100
AcDbCircle
 10
5744.374179210392
 20
7708.396058145183
 30
0.0
 40
26.0
100
AcDbArc
 50
340.5287793655779
 51
0.0
  0
ARC
  5
187FF
330
747D
100
AcDbEntity
  8
部品1
100
AcDbCircle
 10
5769.830023333107
 20
7699.396058145184
 30
0.0
 40
1.0
100
AcDbArc
 50
160.5287793655778
 51
270.0
  0
LINE
  5
18800
330
747D
100
AcDbEntity
  8
部品1
 48
0.01
100
AcDbLine
 10
5776.374179210392
 20
7698.396058145185
 30
0.0
 11
5769.76167378033
 21
7698.396058145184
 31
0.0
  0
LINE
  5
18801
330
747D
100
AcDbEntity
  8
部品1
 48
0.01
100
AcDbLine
 10
5776.874179210392
 20
7699.896058145185
 30
0.0
 11
5776.874179210392
 21
7698.896058145186
 31
0.0
  0
LINE
  5
18802
330
747D
100
AcDbEntity
  8
部品1
 48
0.01
100
AcDbLine
 10
5776.874179210392
 20
7699.896058145185
 30
0.0
 11
5776.874179210392
 21
7698.896058145186
 31
0.0
  0
ARC
  5
18803
330
747D
100
AcDbEntity
  8
部品1
 48
0.01
100
AcDbCircle
 10
5776.374179210392
 20
7698.896058145186
 30
0.0
 40
0.5
100
AcDbArc
 50
270.0
 51
0.0
  0
ARC
  5
18804
330
747D
100
AcDbEntity
  8
細線
100
AcDbCircle
 10
6065.874185710292
 20
7725.396058145235
 30
0.0
 40
6.0
100
AcDbArc
 50
204.6243183521304
 51
335.3756816478695
  0
LINE
  5
18805
330
747D
100
AcDbEntity
  8
細線
 48
50.0
100
AcDbLine
 10
6369.874179210397
 20
7746.896058145259
 30
0.0
 11
5615.874179210397
 21
7746.896058145131
 31
0.0
  0
LINE
  5
18806
330
747D
100
AcDbEntity
  8
細線
100
AcDbLine
 10
6395.874179210402
 20
7722.896058145277
 30
0.0
 11
5630.874179210398
 21
7722.89605814516
 31
0.0
  0
LINE
  5
18807
330
747D
100
AcDbEntity
  8
細線
100
AcDbLine
 10
5820.874179210393
 20
7699.896058145192
 30
0.0
 11
5606.861872561347
 21
7699.89605814516
 31
0.0
  0
LINE
  5
18808
330
747D
100
AcDbEntity
  8
細線
100
AcDbLine
 10
5630.874179210398
 20
7729.896058145161
 30
0.0
 11
5630.874179210398
 21
7722.89605814516
 31
0.0
  0
LINE
  5
18809
330
747D
100
AcDbEntity
  8
細線
100
AcDbLine
 10
5630.874179210398
 20
7729.896058145161
 30
0.0
 11
5615.874179210397
 21
7729.896058145161
 31
0.0
  0
LINE
  5
1880A
330
747D
100
AcDbEntity
  8
細線
100
AcDbLine
 10
5615.874179210398
 20
7703.896058145113
 30
0.0
 11
5615.874179210398
 21
7699.896058145163
 31
0.0
  0
LINE
  5
1880B
330
747D
100
AcDbEntity
  8
細線
100
AcDbLine
 10
6410.8741792104
 20
7699.896058145281
 30
0.0
 11
6310.874179210385
 21
7699.896058145267
 31
0.0
  0
LINE
  5
1880C
330
747D
100
AcDbEntity
  8
細線
100
AcDbLine
 10
6240.874179210392
 20
7699.896058145234
 30
0.0
 11
6170.874179210392
 21
7699.896058145222
 31
0.0
  0
LINE
  5
1880D
330
747D
100
AcDbEntity
  8
細線
100
AcDbLine
 10
6240.874179210393
 20
7699.896058145276
 30
0.0
 11
6243.205717501161
 21
7704.896058145262
 31
0.0
  0
LINE
  5
1880E
330
747D
100
AcDbEntity
  8
細線
100
AcDbLine
 10
6308.542640919621
 20
7704.896058145243
 30
0.0
 11
6243.205717501147
 21
7704.896058145234
 31
0.0
  0
LINE
  5
1880F
330
747D
100
AcDbEntity
  8
細線
100
AcDbLine
 10
6310.874179210385
 20
7699.896058145267
 30
0.0
 11
6308.54264091962
 21
7704.896058145243
 31
0.0
  0
LINE
  5
18810
330
747D
100
AcDbEntity
  8
細線
100
AcDbLine
 10
6389.874179210382
 20
7729.896058145266
 30
0.0
 11
6389.874179210384
 21
7733.896058145266
 31
0.0
  0
LINE
  5
18811
330
747D
100
AcDbEntity
  8
細線
100
AcDbLine
 10
6389.874179210382
 20
7729.896058145266
 30
0.0
 11
6369.874179210393
 21
7729.896058145266
 31
0.0
  0
LINE
  5
18812
330
747D
100
AcDbEntity
  8
細線
100
AcDbLine
 10
6369.874179210393
 20
7729.896058145266
 30
0.0
 11
6369.874179210404
 21
7763.896058145274
 31
0.0
  0
LINE
  5
18813
330
747D
100
AcDbEntity
  8
細線
100
AcDbLine
 10
6410.8741792104
 20
7699.896058145281
 30
0.0
 11
6410.874179210408
 21
7729.89605814528
 31
0.0
  0
LINE
  5
18814
330
747D
100
AcDbEntity
  8
細線
100
AcDbLine
 10
6410.874179210407
 20
7729.89605814528
 30
0.0
 11
6395.874179210405
 21
7729.896058145276
 31
0.0
  0
LINE
  5
18815
330
747D
100
AcDbEntity
  8
細線
100
AcDbLine
 10
6395.874179210403
 20
7722.896058145277
 30
0.0
 11
6395.874179210405
 21
7729.896058145276
 31
0.0
  0
LINE
  5
18816
330
747D
100
AcDbEntity
  8
細線
100
AcDbLine
 10
6395.874179210384
 20
7733.896058145273
 30
0.0
 11
6389.874179210384
 21
7733.896058145273
 31
0.0
  0
LINE
  5
18817
330
747D
100
AcDbEntity
  8
細線
100
AcDbLine
 10
6401.874179210409
 20
7733.196058145272
 30
0.0
 11
6401.874179210409
 21
7733.896058145273
 31
0.0
  0
ARC
  5
18818
330
747D
100
AcDbEntity
  8
細線
100
AcDbCircle
 10
6399.874179210408
 20
7733.196058145272
 30
0.0
 40
2.0
100
AcDbArc
 50
270.0
 51
0.0
  0
LINE
  5
18819
330
747D
100
AcDbEntity
  8
細線
100
AcDbLine
 10
6397.874179210409
 20
7731.196058145272
 30
0.0
 11
6399.874179210409
 21
7731.196058145272
 31
0.0
  0
LINE
  5
1881A
330
747D
100
AcDbEntity
  8
細線
100
AcDbLine
 10
6395.874179210409
 20
7733.196058145272
 30
0.0
 11
6395.874179210409
 21
7733.896058145273
 31
0.0
  0
ARC
  5
1881B
330
747D
100
AcDbEntity
  8
細線
100
AcDbCircle
 10
6397.874179210408
 20
7733.196058145272
 30
0.0
 40
2.0
100
AcDbArc
 50
180.0
 51
270.0
  0
LINE
  5
1881C
330
747D
100
AcDbEntity
  8
細線
100
AcDbLine
 10
6384.874179210399
 20
7756.896058145251
 30
0.0
 11
6384.874179210402
 21
7763.896058145274
 31
0.0
  0
LINE
  5
1881D
330
747D
100
AcDbEntity
  8
細線
100
AcDbLine
 10
6384.874179210402
 20
7763.896058145274
 30
0.0
 11
6369.874179210402
 21
7763.896058145274
 31
0.0
  0
LINE
  5
1881E
330
747D
100
AcDbEntity
  8
細線
 48
50.0
100
AcDbLine
 10
7705.874179210382
 20
7712.896058145246
 30
0.0
 11
6410.874179210404
 21
7712.896058145247
 31
0.0
  0
LINE
  5
1881F
330
747D
100
AcDbEntity
  8
細線
100
AcDbLine
 10
6747.374179210421
 20
7733.896058145321
 30
0.0
 11
6739.874179210426
 21
7756.89605814525
 31
0.0
  0
LINE
  5
18820
330
747D
100
AcDbEntity
  8
細線
100
AcDbLine
 10
6687.374179210421
 20
7733.89605814533
 30
0.0
 11
6694.874179210427
 21
7756.89605814525
 31
0.0
  0
LINE
  5
18821
330
747D
100
AcDbEntity
  8
細線
100
AcDbLine
 10
6472.374179210405
 20
7733.896058145251
 30
0.0
 11
6474.705717501167
 21
7738.896058145222
 31
0.0
  0
LINE
  5
18822
330
747D
100
AcDbEntity
  8
細線
100
AcDbLine
 10
6542.374179210394
 20
7733.896058145218
 30
0.0
 11
6540.042640919626
 21
7738.896058145204
 31
0.0
  0
LINE
  5
18823
330
747D
100
AcDbEntity
  8
細線
100
AcDbLine
 10
6540.042640919627
 20
7738.896058145204
 30
0.0
 11
6474.705717501153
 21
7738.896058145193
 31
0.0
  0
LINE
  5
18824
330
747D
100
AcDbEntity
  8
細線
100
AcDbLine
 10
6612.374179210398
 20
7733.896058145257
 30
0.0
 11
6614.705717501166
 21
7738.896058145242
 31
0.0
  0
LINE
  5
18825
330
747D
100
AcDbEntity
  8
細線
100
AcDbLine
 10
6682.374179210393
 20
7733.896058145238
 30
0.0
 11
6680.042640919625
 21
7738.896058145224
 31
0.0
  0
LINE
  5
18826
330
747D
100
AcDbEntity
  8
細線
100
AcDbLine
 10
6680.042640919626
 20
7738.896058145224
 30
0.0
 11
6614.705717501152
 21
7738.896058145212
 31
0.0
  0
LINE
  5
18827
330
747D
100
AcDbEntity
  8
細線
100
AcDbLine
 10
6752.3741792104
 20
7733.896058145276
 30
0.0
 11
6754.705717501167
 21
7738.896058145262
 31
0.0
  0
LINE
  5
18828
330
747D
100
AcDbEntity
  8
細線
100
AcDbLine
 10
6752.374179210384
 20
7733.896058145244
 30
0.0
 11
6682.37417921039
 21
7733.896058145244
 31
0.0
  0
LINE
  5
18829
330
747D
100
AcDbEntity
  8
細線
100
AcDbLine
 10
6612.374179210393
 20
7733.896058145245
 30
0.0
 11
6542.37417921038
 21
7733.896058145248
 31
0.0
  0
LINE
  5
1882A
330
747D
100
AcDbEntity
  8
細線
100
AcDbLine
 10
6472.374179210405
 20
7733.896058145251
 30
0.0
 11
6401.874179210409
 21
7733.896058145273
 31
0.0
  0
ARC
  5
1882B
330
747D
100
AcDbEntity
  8
細線
100
AcDbCircle
 10
6717.374185710287
 20
7759.396058145251
 30
0.0
 40
6.0
100
AcDbArc
 50
204.6243183521304
 51
335.3756816478695
  0
LINE
  5
1882C
330
747D
100
AcDbEntity
  8
細線
100
AcDbLine
 10
7049.874179210388
 20
7756.896058145244
 30
0.0
 11
6384.874179210399
 21
7756.896058145251
 31
0.0
  0
LINE
  5
1882D
330
747D
100
AcDbEntity
  8
細線
100
AcDbLine
 10
7064.874179210393
 20
7733.896058145244
 30
0.0
 11
6962.374179210413
 21
7733.896058145244
 31
0.0
  0
LINE
  5
1882E
330
747D
100
AcDbEntity
  8
細線
100
AcDbLine
 10
7043.874179210392
 20
7761.896058145243
 30
0.0
 11
7023.874179210394
 21
7761.896058145243
 31
0.0
  0
LINE
  5
1882F
330
747D
100
AcDbEntity
  8
細線
100
AcDbLine
 10
7064.874179210393
 20
7733.896058145244
 30
0.0
 11
7064.874179210399
 21
7763.896058145241
 31
0.0
  0
LINE
  5
18830
330
747D
100
AcDbEntity
  8
細線
100
AcDbLine
 10
7064.874179210391
 20
7763.896058145242
 30
0.0
 11
7049.87417921039
 21
7763.896058145238
 31
0.0
  0
LINE
  5
18831
330
747D
100
AcDbEntity
  8
細線
100
AcDbLine
 10
7049.874179210388
 20
7756.896058145244
 30
0.0
 11
7049.87417921039
 21
7763.896058145238
 31
0.0
  0
LINE
  5
18832
330
747D
100
AcDbEntity
  8
細線
100
AcDbLine
 10
6820.042640919628
 20
7738.896058145243
 30
0.0
 11
6754.705717501154
 21
7738.896058145233
 31
0.0
  0
LINE
  5
18833
330
747D
100
AcDbEntity
  8
細線
100
AcDbLine
 10
6822.374179210395
 20
7733.896058145258
 30
0.0
 11
6820.042640919627
 21
7738.896058145243
 31
0.0
  0
LINE
  5
18834
330
747D
100
AcDbEntity
  8
細線
100
AcDbLine
 10
6892.374179210387
 20
7733.896058145266
 30
0.0
 11
6822.374179210392
 21
7733.896058145266
 31
0.0
  0
LINE
  5
18835
330
747D
100
AcDbEntity
  8
細線
100
AcDbLine
 10
6962.374179210413
 20
7733.896058145244
 30
0.0
 11
6960.042640919628
 21
7738.896058145266
 31
0.0
  0
LINE
  5
18836
330
747D
100
AcDbEntity
  8
細線
100
AcDbLine
 10
6960.04264091963
 20
7738.896058145266
 30
0.0
 11
6894.705717501157
 21
7738.896058145255
 31
0.0
  0
LINE
  5
18837
330
747D
100
AcDbEntity
  8
細線
100
AcDbLine
 10
6892.374179210403
 20
7733.896058145298
 30
0.0
 11
6894.705717501169
 21
7738.896058145283
 31
0.0
  0
LINE
  5
18838
330
747D
100
AcDbEntity
  8
細線
100
AcDbLine
 10
7043.874179210392
 20
7761.896058145243
 30
0.0
 11
7043.874179210392
 21
7769.896058145242
 31
0.0
  0
LINE
  5
18839
330
747D
100
AcDbEntity
  8
細線
100
AcDbLine
 10
7023.874179210394
 20
7761.896058145243
 30
0.0
 11
7023.874179210394
 21
7797.896058145248
 31
0.0
  0
LINE
  5
1883A
330
747D
100
AcDbEntity
  8
細線
100
AcDbLine
 10
7049.874179210394
 20
7769.896058145242
 30
0.0
 11
7043.874179210392
 21
7769.896058145242
 31
0.0
  0
ARC
  5
1883B
330
747D
100
AcDbEntity
  8
細線
100
AcDbCircle
 10
7051.874179210392
 20
7769.196058145242
 30
0.0
 40
2.0
100
AcDbArc
 50
180.0
 51
270.0
  0
LINE
  5
1883C
330
747D
100
AcDbEntity
  8
細線
100
AcDbLine
 10
7049.874179210394
 20
7769.196058145244
 30
0.0
 11
7049.874179210394
 21
7769.896058145242
 31
0.0
  0
LINE
  5
1883D
330
747D
100
AcDbEntity
  8
細線
100
AcDbLine
 10
7051.874179210393
 20
7767.196058145244
 30
0.0
 11
7053.874179210393
 21
7767.196058145244
 31
0.0
  0
ARC
  5
1883E
330
747D
100
AcDbEntity
  8
細線
100
AcDbCircle
 10
7053.874179210393
 20
7769.196058145242
 30
0.0
 40
2.0
100
AcDbArc
 50
270.0
 51
0.0
  0
LINE
  5
1883F
330
747D
100
AcDbEntity
  8
細線
100
AcDbLine
 10
7055.874179210395
 20
7769.196058145244
 30
0.0
 11
7055.874179210395
 21
7769.896058145242
 31
0.0
  0
LINE
  5
18840
330
747D
100
AcDbEntity
  8
細線
100
AcDbLine
 10
7038.874179210393
 20
7793.396058145244
 30
0.0
 11
7038.874179210393
 21
7797.896058145238
 31
0.0
  0
LINE
  5
18841
330
747D
100
AcDbEntity
  8
細線
100
AcDbLine
 10
7282.874179210385
 20
7797.896058145244
 30
0.0
 11
7282.874179210383
 21
7769.896058145248
 31
0.0
  0
LINE
  5
18842
330
747D
100
AcDbEntity
  8
細線
100
AcDbLine
 10
7267.874179210385
 20
7797.896058145244
 30
0.0
 11
7252.874179210383
 21
7769.896058145248
 31
0.0
  0
LINE
  5
18843
330
747D
100
AcDbEntity
  8
細線
100
AcDbLine
 10
7504.874179210388
 20
7769.896058145255
 30
0.0
 11
7502.542640919621
 21
7774.896058145241
 31
0.0
  0
LINE
  5
18844
330
747D
100
AcDbEntity
  8
細線
100
AcDbLine
 10
7502.542640919621
 20
7774.896058145241
 30
0.0
 11
7437.205717501147
 21
7774.896058145229
 31
0.0
  0
LINE
  5
18845
330
747D
100
AcDbEntity
  8
細線
100
AcDbLine
 10
7434.874179210393
 20
7769.896058145274
 30
0.0
 11
7437.205717501162
 21
7774.896058145258
 31
0.0
  0
LINE
  5
18846
330
747D
100
AcDbEntity
  8
細線
100
AcDbLine
 10
7362.542640919619
 20
7774.896058145221
 30
0.0
 11
7297.205717501146
 21
7774.896058145209
 31
0.0
  0
LINE
  5
18847
330
747D
100
AcDbEntity
  8
細線
100
AcDbLine
 10
7364.874179210386
 20
7769.896058145235
 30
0.0
 11
7362.542640919619
 21
7774.896058145221
 31
0.0
  0
LINE
  5
18848
330
747D
100
AcDbEntity
  8
細線
100
AcDbLine
 10
7294.874179210392
 20
7769.896058145253
 30
0.0
 11
7297.20571750116
 21
7774.896058145237
 31
0.0
  0
LINE
  5
18849
330
747D
100
AcDbEntity
  8
細線
100
AcDbLine
 10
7222.54264091962
 20
7774.896058145201
 30
0.0
 11
7157.205717501146
 21
7774.89605814519
 31
0.0
  0
LINE
  5
1884A
330
747D
100
AcDbEntity
  8
細線
100
AcDbLine
 10
7224.874179210387
 20
7769.896058145215
 30
0.0
 11
7222.54264091962
 21
7774.896058145201
 31
0.0
  0
LINE
  5
1884B
330
747D
100
AcDbEntity
  8
細線
100
AcDbLine
 10
7154.874179210398
 20
7769.896058145248
 30
0.0
 11
7157.20571750116
 21
7774.896058145218
 31
0.0
  0
LINE
  5
1884C
330
747D
100
AcDbEntity
  8
細線
100
AcDbLine
 10
7434.874179210381
 20
7769.896058145244
 30
0.0
 11
7364.874179210381
 21
7769.896058145244
 31
0.0
  0
LINE
  5
1884D
330
747D
100
AcDbEntity
  8
細線
100
AcDbLine
 10
7294.874179210386
 20
7769.896058145244
 30
0.0
 11
7224.874179210376
 21
7769.896058145244
 31
0.0
  0
LINE
  5
1884E
330
747D
100
AcDbEntity
  8
細線
100
AcDbLine
 10
7154.874179210398
 20
7769.896058145248
 30
0.0
 11
7055.874179210395
 21
7769.896058145248
 31
0.0
  0
LINE
  5
1884F
330
747D
100
AcDbEntity
  8
細線
 48
50.0
100
AcDbLine
 10
7705.874179210382
 20
7746.896058145249
 30
0.0
 11
7064.874179210396
 21
7746.89605814525
 31
0.0
  0
LINE
  5
18850
330
747D
100
AcDbEntity
  8
細線
100
AcDbLine
 10
7703.874179210382
 20
7769.896058145244
 30
0.0
 11
7644.874179210382
 21
7769.896058145244
 31
0.0
  0
LINE
  5
18851
330
747D
100
AcDbEntity
  8
細線
100
AcDbLine
 10
7703.874179210382
 20
7751.896058145241
 30
0.0
 11
7703.874179210382
 21
7769.896058145242
 31
0.0
  0
LINE
  5
18852
330
747D
100
AcDbEntity
  8
細線
 48
50.0
100
AcDbLine
 10
7703.874179210382
 20
7751.896058145241
 30
0.0
 11
7705.874179210382
 21
7751.896058145241
 31
0.0
  0
LINE
  5
18853
330
747D
100
AcDbEntity
  8
細線
100
AcDbLine
 10
7574.874179210381
 20
7769.896058145263
 30
0.0
 11
7504.874179210382
 21
7769.896058145263
 31
0.0
  0
LINE
  5
18854
330
747D
100
AcDbEntity
  8
細線
100
AcDbLine
 10
7574.874179210396
 20
7769.896058145295
 30
0.0
 11
7577.205717501164
 21
7774.89605814528
 31
0.0
  0
LINE
  5
18855
330
747D
100
AcDbEntity
  8
細線
100
AcDbLine
 10
7642.542640919623
 20
7774.896058145262
 30
0.0
 11
7577.20571750115
 21
7774.896058145251
 31
0.0
  0
LINE
  5
18856
330
747D
100
AcDbEntity
  8
細線
100
AcDbLine
 10
7644.87417921039
 20
7769.896058145277
 30
0.0
 11
7642.542640919621
 21
7774.896058145262
 31
0.0
  0
LINE
  5
18858
330
747D
100
AcDbEntity
  8
細線
100
AcDbLine
 10
8620.874179210401
 20
7699.896058145283
 30
0.0
 11
8520.874179210386
 21
7699.896058145269
 31
0.0
  0
LINE
  5
18859
330
747D
100
AcDbEntity
  8
部品1
100
AcDbLine
 10
8236.874179210401
 20
7696.89605814512
 30
0.0
 11
8185.874179210399
 21
7696.89605814512
 31
0.0
  0
LINE
  5
1885A
330
747D
100
AcDbEntity
  8
細線
100
AcDbLine
 10
8245.874179210316
 20
7699.896058145348
 30
0.0
 11
8253.374179210323
 21
7722.896058145265
 31
0.0
  0
LINE
  5
1885B
330
747D
100
AcDbEntity
  8
細線
100
AcDbLine
 10
8305.874179210318
 20
7699.896058145339
 30
0.0
 11
8298.374179210322
 21
7722.896058145265
 31
0.0
  0
LINE
  5
1885C
330
747D
100
AcDbEntity
  8
細線
100
AcDbLine
 10
8380.874179210387
 20
7699.896058145262
 30
0.0
 11
8378.542640919619
 21
7704.896058145248
 31
0.0
  0
LINE
  5
1885D
330
747D
100
AcDbEntity
  8
細線
100
AcDbLine
 10
8378.54264091962
 20
7704.896058145248
 30
0.0
 11
8313.205717501146
 21
7704.896058145236
 31
0.0
  0
LINE
  5
1885E
330
747D
100
AcDbEntity
  8
細線
100
AcDbLine
 10
8310.874179210392
 20
7699.896058145236
 30
0.0
 11
8240.874179210392
 21
7699.896058145225
 31
0.0
  0
LINE
  5
1885F
330
747D
100
AcDbEntity
  8
細線
100
AcDbLine
 10
8170.874179210393
 20
7699.896058145217
 30
0.0
 11
8100.874179210393
 21
7699.896058145208
 31
0.0
  0
LINE
  5
18860
330
747D
100
AcDbEntity
  8
細線
100
AcDbLine
 10
8310.874179210394
 20
7699.896058145281
 30
0.0
 11
8313.20571750116
 21
7704.896058145266
 31
0.0
  0
LINE
  5
18861
330
747D
100
AcDbEntity
  8
細線
100
AcDbLine
 10
8238.542640919618
 20
7704.896058145227
 30
0.0
 11
8173.205717501145
 21
7704.896058145215
 31
0.0
  0
LINE
  5
18862
330
747D
100
AcDbEntity
  8
細線
100
AcDbLine
 10
8240.874179210386
 20
7699.896058145241
 30
0.0
 11
8238.542640919618
 21
7704.896058145227
 31
0.0
  0
LINE
  5
18863
330
747D
100
AcDbEntity
  8
細線
100
AcDbLine
 10
8170.874179210391
 20
7699.896058145258
 30
0.0
 11
8173.20571750116
 21
7704.896058145243
 31
0.0
  0
LINE
  5
18864
330
747D
100
AcDbEntity
  8
細線
100
AcDbLine
 10
8098.542640919619
 20
7704.896058145208
 30
0.0
 11
8033.205717501145
 21
7704.896058145196
 31
0.0
  0
LINE
  5
18865
330
747D
100
AcDbEntity
  8
細線
100
AcDbLine
 10
8100.874179210386
 20
7699.896058145222
 30
0.0
 11
8098.542640919619
 21
7704.896058145208
 31
0.0
  0
LINE
  5
18866
330
747D
100
AcDbEntity
  8
細線
100
AcDbLine
 10
8030.874179210391
 20
7699.896058145241
 30
0.0
 11
8033.205717501159
 21
7704.896058145227
 31
0.0
  0
LINE
  5
18867
330
747D
100
AcDbEntity
  8
細線
100
AcDbLine
 10
7982.374179210399
 20
7717.896058145189
 30
0.0
 11
7982.374179210399
 21
7699.896058145165
 31
0.0
  0
LINE
  5
18868
330
747D
100
AcDbEntity
  8
細線
100
AcDbLine
 10
7941.374179210399
 20
7717.896058145185
 30
0.0
 11
7941.374179210399
 21
7699.896058145165
 31
0.0
  0
LINE
  5
18869
330
747D
100
AcDbEntity
  8
細線
100
AcDbLine
 10
7982.374179210399
 20
7717.896058145189
 30
0.0
 11
7941.374179210399
 21
7717.896058145185
 31
0.0
  0
ARC
  5
1886A
330
747D
100
AcDbEntity
  8
部品1
100
AcDbCircle
 10
7943.918335087676
 20
7699.396058145187
 30
0.0
 40
1.0
100
AcDbArc
 50
270.0
 51
19.47122063442214
  0
LINE
  5
1886B
330
747D
100
AcDbEntity
  8
部品1
 48
0.01
100
AcDbLine
 10
7936.874179210391
 20
7699.896058145189
 30
0.0
 11
7936.874179210391
 21
7698.896058145189
 31
0.0
  0
LINE
  5
1886C
330
747D
100
AcDbEntity
  8
部品1
 48
0.01
100
AcDbLine
 10
7937.374179210393
 20
7698.396058145189
 30
0.0
 11
7943.918335087676
 21
7698.396058145188
 31
0.0
  0
ARC
  5
1886D
330
747D
100
AcDbEntity
  8
部品1
 48
0.01
100
AcDbCircle
 10
7937.374179210393
 20
7698.896058145189
 30
0.0
 40
0.5
100
AcDbArc
 50
180.0
 51
270.0
  0
ARC
  5
1886E
330
747D
100
AcDbEntity
  8
部品1
100
AcDbCircle
 10
7969.374179210392
 20
7708.396058145187
 30
0.0
 40
26.0
100
AcDbArc
 50
180.0
 51
199.4712206344221
  0
ARC
  5
1886F
330
747D
100
AcDbEntity
  8
部品1
 48
0.01
100
AcDbCircle
 10
7945.374179210393
 20
7713.396058145187
 30
0.0
 40
2.0
100
AcDbArc
 50
90.0
 51
180.0
  0
LINE
  5
18870
330
747D
100
AcDbEntity
  8
部品1
100
AcDbLine
 10
7943.374179210391
 20
7708.396058145187
 30
0.0
 11
7943.374179210391
 21
7713.396058145187
 31
0.0
  0
ARC
  5
18871
330
747D
100
AcDbEntity
  8
部品1
100
AcDbCircle
 10
7961.874179210392
 20
7724.196058145189
 30
0.0
 40
16.0
100
AcDbArc
 50
218.3930440192126
 51
254.0576313943859
  0
ARC
  5
18872
330
747D
100
AcDbEntity
  8
部品1
100
AcDbCircle
 10
7946.982570835203
 20
7712.396058145188
 30
0.0
 40
3.0
100
AcDbArc
 50
38.39304401921267
 51
90.0
  0
LINE
  5
18873
330
747D
100
AcDbEntity
  8
部品1
 48
0.01
100
AcDbLine
 10
7945.374179210393
 20
7715.396058145187
 30
0.0
 11
7946.982570835203
 21
7715.396058145187
 31
0.0
  0
ARC
  5
18874
330
747D
100
AcDbEntity
  8
部品1
100
AcDbCircle
 10
7961.874179210392
 20
7724.196058145189
 30
0.0
 40
16.0
100
AcDbArc
 50
285.9423686056142
 51
321.6069559807873
  0
LINE
  5
18875
330
747D
100
AcDbEntity
  8
部品1
100
AcDbLine
 10
7965.444893424663
 20
7708.696058145189
 30
0.0
 11
7958.30346499612
 21
7708.696058145189
 31
0.0
  0
ARC
  5
18876
330
747D
100
AcDbEntity
  8
部品1
100
AcDbCircle
 10
7965.444893424663
 20
7711.696058145189
 30
0.0
 40
3.0
100
AcDbArc
 50
270.0
 51
285.9423686056142
  0
ARC
  5
18877
330
747D
100
AcDbEntity
  8
部品1
100
AcDbCircle
 10
7958.30346499612
 20
7711.696058145189
 30
0.0
 40
3.0
100
AcDbArc
 50
254.0576313943859
 51
270.0
  0
LINE
  5
18878
330
747D
100
AcDbEntity
  8
部品1
 48
0.01
100
AcDbLine
 10
7978.374179210392
 20
7715.396058145187
 30
0.0
 11
7976.765787585581
 21
7715.396058145187
 31
0.0
  0
ARC
  5
18879
330
747D
100
AcDbEntity
  8
部品1
100
AcDbCircle
 10
7976.765787585581
 20
7712.396058145188
 30
0.0
 40
3.0
100
AcDbArc
 50
90.0
 51
141.6069559807873
  0
ARC
  5
1887A
330
747D
100
AcDbEntity
  8
部品1
 48
0.01
100
AcDbCircle
 10
7978.374179210392
 20
7713.396058145187
 30
0.0
 40
2.0
100
AcDbArc
 50
0.0
 51
90.0
  0
LINE
  5
1887B
330
747D
100
AcDbEntity
  8
部品1
100
AcDbLine
 10
7980.374179210392
 20
7708.396058145187
 30
0.0
 11
7980.374179210392
 21
7713.396058145187
 31
0.0
  0
ARC
  5
1887C
330
747D
100
AcDbEntity
  8
部品1
100
AcDbCircle
 10
7954.374179210391
 20
7708.396058145187
 30
0.0
 40
26.0
100
AcDbArc
 50
340.5287793655779
 51
0.0
  0
ARC
  5
1887D
330
747D
100
AcDbEntity
  8
部品1
100
AcDbCircle
 10
7979.830023333107
 20
7699.396058145187
 30
0.0
 40
1.0
100
AcDbArc
 50
160.5287793655778
 51
270.0
  0
LINE
  5
1887E
330
747D
100
AcDbEntity
  8
部品1
 48
0.01
100
AcDbLine
 10
7986.374179210392
 20
7698.396058145189
 30
0.0
 11
7979.76167378033
 21
7698.396058145188
 31
0.0
  0
LINE
  5
1887F
330
747D
100
AcDbEntity
  8
部品1
 48
0.01
100
AcDbLine
 10
7986.874179210392
 20
7699.896058145189
 30
0.0
 11
7986.874179210392
 21
7698.896058145189
 31
0.0
  0
LINE
  5
18880
330
747D
100
AcDbEntity
  8
部品1
 48
0.01
100
AcDbLine
 10
7986.874179210392
 20
7699.896058145189
 30
0.0
 11
7986.874179210392
 21
7698.896058145189
 31
0.0
  0
ARC
  5
18881
330
747D
100
AcDbEntity
  8
部品1
 48
0.01
100
AcDbCircle
 10
7986.374179210392
 20
7698.896058145189
 30
0.0
 40
0.5
100
AcDbArc
 50
270.0
 51
0.0
  0
LINE
  5
18882
330
747D
100
AcDbEntity
  8
細線
100
AcDbLine
 10
8450.874179210392
 20
7699.896058145236
 30
0.0
 11
8380.874179210392
 21
7699.896058145225
 31
0.0
  0
LINE
  5
18883
330
747D
100
AcDbEntity
  8
細線
100
AcDbLine
 10
8450.874179210392
 20
7699.896058145281
 30
0.0
 11
8453.205717501161
 21
7704.896058145266
 31
0.0
  0
LINE
  5
18884
330
747D
100
AcDbEntity
  8
細線
100
AcDbLine
 10
8518.542640919621
 20
7704.896058145248
 30
0.0
 11
8453.205717501147
 21
7704.896058145236
 31
0.0
  0
LINE
  5
18885
330
747D
100
AcDbEntity
  8
細線
100
AcDbLine
 10
8520.874179210386
 20
7699.896058145269
 30
0.0
 11
8518.542640919619
 21
7704.896058145248
 31
0.0
  0
ARC
  5
18886
330
747D
100
AcDbEntity
  8
細線
100
AcDbCircle
 10
8275.874185710291
 20
7725.396058145239
 30
0.0
 40
6.0
100
AcDbArc
 50
204.6243183521304
 51
335.3756816478695
  0
LINE
  5
18887
330
747D
100
AcDbEntity
  8
細線
100
AcDbLine
 10
8599.874179210383
 20
7729.896058145269
 30
0.0
 11
8599.874179210383
 21
7733.896058145269
 31
0.0
  0
LINE
  5
18888
330
747D
100
AcDbEntity
  8
細線
100
AcDbLine
 10
8599.874179210383
 20
7729.896058145269
 30
0.0
 11
8579.874179210394
 21
7729.896058145269
 31
0.0
  0
LINE
  5
18889
330
747D
100
AcDbEntity
  8
細線
100
AcDbLine
 10
8579.874179210394
 20
7729.896058145269
 30
0.0
 11
8579.874179210404
 21
7763.896058145276
 31
0.0
  0
LINE
  5
1888A
330
747D
100
AcDbEntity
  8
細線
100
AcDbLine
 10
8620.874179210401
 20
7699.896058145283
 30
0.0
 11
8620.874179210408
 21
7729.896058145285
 31
0.0
  0
LINE
  5
1888B
330
747D
100
AcDbEntity
  8
細線
100
AcDbLine
 10
8620.874179210408
 20
7729.896058145285
 30
0.0
 11
8605.874179210404
 21
7729.89605814528
 31
0.0
  0
LINE
  5
1888C
330
747D
100
AcDbEntity
  8
細線
100
AcDbLine
 10
8605.874179210402
 20
7722.896058145281
 30
0.0
 11
8605.874179210404
 21
7729.89605814528
 31
0.0
  0
LINE
  5
1888D
330
747D
100
AcDbEntity
  8
細線
100
AcDbLine
 10
8605.874179210383
 20
7733.896058145276
 30
0.0
 11
8599.874179210383
 21
7733.896058145276
 31
0.0
  0
LINE
  5
1888E
330
747D
100
AcDbEntity
  8
細線
100
AcDbLine
 10
8611.874179210408
 20
7733.196058145276
 30
0.0
 11
8611.874179210408
 21
7733.896058145276
 31
0.0
  0
ARC
  5
1888F
330
747D
100
AcDbEntity
  8
細線
100
AcDbCircle
 10
8609.874179210407
 20
7733.196058145276
 30
0.0
 40
2.0
100
AcDbArc
 50
270.0
 51
0.0
  0
LINE
  5
18890
330
747D
100
AcDbEntity
  8
細線
100
AcDbLine
 10
8607.874179210408
 20
7731.196058145276
 30
0.0
 11
8609.874179210407
 21
7731.196058145276
 31
0.0
  0
LINE
  5
18891
330
747D
100
AcDbEntity
  8
細線
100
AcDbLine
 10
8605.874179210408
 20
7733.196058145276
 30
0.0
 11
8605.874179210408
 21
7733.896058145276
 31
0.0
  0
ARC
  5
18892
330
747D
100
AcDbEntity
  8
細線
100
AcDbCircle
 10
8607.874179210408
 20
7733.196058145276
 30
0.0
 40
2.0
100
AcDbArc
 50
180.0
 51
270.0
  0
LINE
  5
18893
330
747D
100
AcDbEntity
  8
細線
100
AcDbLine
 10
8594.874179210398
 20
7756.896058145255
 30
0.0
 11
8594.874179210401
 21
7763.896058145276
 31
0.0
  0
LINE
  5
18894
330
747D
100
AcDbEntity
  8
細線
100
AcDbLine
 10
8594.874179210401
 20
7763.896058145276
 30
0.0
 11
8579.874179210401
 21
7763.896058145276
 31
0.0
  0
LINE
  5
18895
330
747D
100
AcDbEntity
  8
細線
100
AcDbLine
 10
9259.874179210388
 20
7756.896058145247
 30
0.0
 11
8594.874179210398
 21
7756.896058145255
 31
0.0
  0
LINE
  5
18896
330
747D
100
AcDbEntity
  8
細線
 48
50.0
100
AcDbLine
 10
9915.874179210383
 20
7712.896058145249
 30
0.0
 11
8620.874179210405
 21
7712.896058145251
 31
0.0
  0
LINE
  5
18897
330
747D
100
AcDbEntity
  8
細線
 48
50.0
100
AcDbLine
 10
8579.874179210397
 20
7746.896058145262
 30
0.0
 11
7825.874179210396
 21
7746.896058145136
 31
0.0
  0
LINE
  5
18898
330
747D
100
AcDbEntity
  8
細線
100
AcDbLine
 10
8605.874179210401
 20
7722.896058145281
 30
0.0
 11
7840.874179210398
 21
7722.896058145164
 31
0.0
  0
LINE
  5
18899
330
747D
100
AcDbEntity
  8
細線
100
AcDbLine
 10
8682.374179210404
 20
7733.896058145255
 30
0.0
 11
8611.874179210408
 21
7733.896058145276
 31
0.0
  0
LINE
  5
1889A
330
747D
100
AcDbEntity
  8
細線
100
AcDbLine
 10
8030.874179210393
 20
7699.896058145196
 30
0.0
 11
7816.861872561348
 21
7699.896058145164
 31
0.0
  0
LINE
  5
1889B
330
747D
100
AcDbEntity
  8
細線
100
AcDbLine
 10
7840.874179210398
 20
7729.896058145164
 30
0.0
 11
7840.874179210398
 21
7722.896058145164
 31
0.0
  0
LINE
  5
1889C
330
747D
100
AcDbEntity
  8
細線
100
AcDbLine
 10
7840.874179210398
 20
7729.896058145164
 30
0.0
 11
7825.874179210398
 21
7729.896058145164
 31
0.0
  0
LINE
  5
1889E
330
747D
100
AcDbEntity
  8
細線
100
AcDbLine
 10
7825.874179210399
 20
7703.896058145116
 30
0.0
 11
7825.874179210399
 21
7699.896058145165
 31
0.0
  0
LINE
  5
1889F
330
747D
100
AcDbEntity
  8
細線
100
AcDbLine
 10
8957.374179210422
 20
7733.896058145323
 30
0.0
 11
8949.874179210427
 21
7756.896058145253
 31
0.0
  0
LINE
  5
188A0
330
747D
100
AcDbEntity
  8
細線
100
AcDbLine
 10
8897.374179210421
 20
7733.896058145335
 30
0.0
 11
8904.874179210427
 21
7756.896058145253
 31
0.0
  0
LINE
  5
188A1
330
747D
100
AcDbEntity
  8
細線
100
AcDbLine
 10
8682.374179210404
 20
7733.896058145255
 30
0.0
 11
8684.705717501167
 21
7738.896058145225
 31
0.0
  0
LINE
  5
188A2
330
747D
100
AcDbEntity
  8
細線
100
AcDbLine
 10
8752.374179210393
 20
7733.896058145223
 30
0.0
 11
8750.042640919627
 21
7738.896058145208
 31
0.0
  0
LINE
  5
188A3
330
747D
100
AcDbEntity
  8
細線
100
AcDbLine
 10
8750.042640919627
 20
7738.896058145208
 30
0.0
 11
8684.705717501154
 21
7738.896058145197
 31
0.0
  0
LINE
  5
188A4
330
747D
100
AcDbEntity
  8
細線
100
AcDbLine
 10
8822.374179210397
 20
7733.896058145261
 30
0.0
 11
8824.705717501165
 21
7738.896058145245
 31
0.0
  0
LINE
  5
188A5
330
747D
100
AcDbEntity
  8
細線
100
AcDbLine
 10
8892.374179210394
 20
7733.896058145242
 30
0.0
 11
8890.042640919626
 21
7738.896058145228
 31
0.0
  0
LINE
  5
188A6
330
747D
100
AcDbEntity
  8
細線
100
AcDbLine
 10
8890.042640919626
 20
7738.896058145228
 30
0.0
 11
8824.705717501151
 21
7738.896058145217
 31
0.0
  0
LINE
  5
188A7
330
747D
100
AcDbEntity
  8
細線
100
AcDbLine
 10
8962.374179210401
 20
7733.896058145281
 30
0.0
 11
8964.705717501168
 21
7738.896058145266
 31
0.0
  0
LINE
  5
188A8
330
747D
100
AcDbEntity
  8
細線
100
AcDbLine
 10
9030.042640919628
 20
7738.896058145248
 30
0.0
 11
8964.705717501153
 21
7738.896058145236
 31
0.0
  0
LINE
  5
188A9
330
747D
100
AcDbEntity
  8
細線
100
AcDbLine
 10
8962.374179210383
 20
7733.896058145248
 30
0.0
 11
8892.37417921039
 21
7733.896058145248
 31
0.0
  0
LINE
  5
188AA
330
747D
100
AcDbEntity
  8
細線
100
AcDbLine
 10
8822.374179210394
 20
7733.89605814525
 30
0.0
 11
8752.374179210379
 21
7733.896058145251
 31
0.0
  0
ARC
  5
188AB
330
747D
100
AcDbEntity
  8
細線
100
AcDbCircle
 10
8927.374185710288
 20
7759.396058145255
 30
0.0
 40
6.0
100
AcDbArc
 50
204.6243183521304
 51
335.3756816478695
  0
LINE
  5
188AC
330
747D
100
AcDbEntity
  8
細線
100
AcDbLine
 10
9274.874179210394
 20
7733.896058145248
 30
0.0
 11
9172.374179210413
 21
7733.896058145248
 31
0.0
  0
LINE
  5
188AD
330
747D
100
AcDbEntity
  8
細線
 48
50.0
100
AcDbLine
 10
9915.874179210383
 20
7746.896058145253
 30
0.0
 11
9274.874179210396
 21
7746.896058145255
 31
0.0
  0
LINE
  5
188AE
330
747D
100
AcDbEntity
  8
細線
100
AcDbLine
 10
9253.874179210393
 20
7761.896058145246
 30
0.0
 11
9253.874179210393
 21
7769.896058145246
 31
0.0
  0
LINE
  5
188AF
330
747D
100
AcDbEntity
  8
細線
100
AcDbLine
 10
9253.874179210393
 20
7761.896058145246
 30
0.0
 11
9233.874179210394
 21
7761.896058145246
 31
0.0
  0
LINE
  5
188B0
330
747D
100
AcDbEntity
  8
細線
100
AcDbLine
 10
9233.874179210394
 20
7761.896058145246
 30
0.0
 11
9233.874179210394
 21
7797.896058145251
 31
0.0
  0
LINE
  5
188B1
330
747D
100
AcDbEntity
  8
細線
100
AcDbLine
 10
9274.874179210394
 20
7733.896058145248
 30
0.0
 11
9274.874179210399
 21
7763.896058145244
 31
0.0
  0
LINE
  5
188B2
330
747D
100
AcDbEntity
  8
細線
100
AcDbLine
 10
9274.874179210392
 20
7763.896058145245
 30
0.0
 11
9259.87417921039
 21
7763.896058145242
 31
0.0
  0
LINE
  5
188B3
330
747D
100
AcDbEntity
  8
細線
100
AcDbLine
 10
9259.874179210388
 20
7756.896058145247
 30
0.0
 11
9259.87417921039
 21
7763.896058145242
 31
0.0
  0
LINE
  5
188B4
330
747D
100
AcDbEntity
  8
細線
100
AcDbLine
 10
9032.374179210394
 20
7733.896058145262
 30
0.0
 11
9030.042640919626
 21
7738.896058145248
 31
0.0
  0
LINE
  5
188B5
330
747D
100
AcDbEntity
  8
細線
100
AcDbLine
 10
9102.374179210386
 20
7733.896058145269
 30
0.0
 11
9032.374179210391
 21
7733.896058145269
 31
0.0
  0
LINE
  5
188B6
330
747D
100
AcDbEntity
  8
細線
100
AcDbLine
 10
9172.374179210413
 20
7733.896058145248
 30
0.0
 11
9170.04264091963
 21
7738.896058145269
 31
0.0
  0
LINE
  5
188B7
330
747D
100
AcDbEntity
  8
細線
100
AcDbLine
 10
9170.04264091963
 20
7738.896058145269
 30
0.0
 11
9104.705717501156
 21
7738.896058145257
 31
0.0
  0
LINE
  5
188B8
330
747D
100
AcDbEntity
  8
細線
100
AcDbLine
 10
9102.374179210402
 20
7733.896058145302
 30
0.0
 11
9104.705717501168
 21
7738.896058145288
 31
0.0
  0
LINE
  5
188B9
330
747D
100
AcDbEntity
  8
細線
100
AcDbLine
 10
9259.874179210394
 20
7769.896058145246
 30
0.0
 11
9253.874179210393
 21
7769.896058145246
 31
0.0
  0
ARC
  5
188BA
330
747D
100
AcDbEntity
  8
細線
100
AcDbCircle
 10
9261.874179210392
 20
7769.196058145245
 30
0.0
 40
2.0
100
AcDbArc
 50
180.0
 51
270.0
  0
LINE
  5
188BB
330
747D
100
AcDbEntity
  8
細線
100
AcDbLine
 10
9259.874179210394
 20
7769.196058145246
 30
0.0
 11
9259.874179210394
 21
7769.896058145246
 31
0.0
  0
LINE
  5
188BC
330
747D
100
AcDbEntity
  8
細線
100
AcDbLine
 10
9261.874179210392
 20
7767.196058145247
 30
0.0
 11
9263.874179210395
 21
7767.196058145247
 31
0.0
  0
ARC
  5
188BD
330
747D
100
AcDbEntity
  8
細線
100
AcDbCircle
 10
9263.874179210395
 20
7769.196058145245
 30
0.0
 40
2.0
100
AcDbArc
 50
270.0
 51
0.0
  0
LINE
  5
188BE
330
747D
100
AcDbEntity
  8
細線
100
AcDbLine
 10
9265.874179210394
 20
7769.196058145246
 30
0.0
 11
9265.874179210394
 21
7769.896058145246
 31
0.0
  0
LINE
  5
188BF
330
747D
100
AcDbEntity
  8
細線
100
AcDbLine
 10
9248.874179210394
 20
7793.396058145248
 30
0.0
 11
9248.874179210394
 21
7797.896058145243
 31
0.0
  0
LINE
  5
188C0
330
747D
100
AcDbEntity
  8
細線
100
AcDbLine
 10
9492.874179210385
 20
7797.896058145248
 30
0.0
 11
9492.874179210383
 21
7769.896058145251
 31
0.0
  0
LINE
  5
188C1
330
747D
100
AcDbEntity
  8
細線
100
AcDbLine
 10
9477.874179210385
 20
7797.896058145248
 30
0.0
 11
9462.874179210382
 21
7769.896058145251
 31
0.0
  0
LINE
  5
188C2
330
747D
100
AcDbEntity
  8
細線
100
AcDbLine
 10
9644.874179210395
 20
7769.896058145277
 30
0.0
 11
9647.205717501162
 21
7774.896058145262
 31
0.0
  0
LINE
  5
188C3
330
747D
100
AcDbEntity
  8
細線
100
AcDbLine
 10
9572.542640919619
 20
7774.896058145223
 30
0.0
 11
9507.205717501147
 21
7774.896058145213
 31
0.0
  0
LINE
  5
188C4
330
747D
100
AcDbEntity
  8
細線
100
AcDbLine
 10
9574.874179210388
 20
7769.896058145238
 30
0.0
 11
9572.542640919619
 21
7774.896058145223
 31
0.0
  0
LINE
  5
188C5
330
747D
100
AcDbEntity
  8
細線
100
AcDbLine
 10
9504.874179210393
 20
7769.896058145256
 30
0.0
 11
9507.205717501159
 21
7774.896058145242
 31
0.0
  0
LINE
  5
188C6
330
747D
100
AcDbEntity
  8
細線
100
AcDbLine
 10
9432.542640919621
 20
7774.896058145204
 30
0.0
 11
9367.205717501148
 21
7774.896058145192
 31
0.0
  0
LINE
  5
188C7
330
747D
100
AcDbEntity
  8
細線
100
AcDbLine
 10
9434.874179210387
 20
7769.896058145218
 30
0.0
 11
9432.542640919619
 21
7774.896058145204
 31
0.0
  0
LINE
  5
188C8
330
747D
100
AcDbEntity
  8
細線
100
AcDbLine
 10
9364.874179210397
 20
7769.896058145251
 30
0.0
 11
9367.205717501162
 21
7774.896058145222
 31
0.0
  0
LINE
  5
188C9
330
747D
100
AcDbEntity
  8
細線
100
AcDbLine
 10
9644.874179210379
 20
7769.896058145248
 30
0.0
 11
9574.874179210381
 21
7769.896058145248
 31
0.0
  0
LINE
  5
188CA
330
747D
100
AcDbEntity
  8
細線
100
AcDbLine
 10
9504.874179210387
 20
7769.896058145248
 30
0.0
 11
9434.874179210375
 21
7769.896058145248
 31
0.0
  0
LINE
  5
188CB
330
747D
100
AcDbEntity
  8
細線
100
AcDbLine
 10
9364.874179210397
 20
7769.896058145251
 30
0.0
 11
9265.874179210394
 21
7769.896058145251
 31
0.0
  0
LINE
  5
188CC
330
747D
100
AcDbEntity
  8
細線
100
AcDbLine
 10
9913.874179210383
 20
7769.896058145248
 30
0.0
 11
9854.874179210382
 21
7769.896058145248
 31
0.0
  0
LINE
  5
188CD
330
747D
100
AcDbEntity
  8
細線
100
AcDbLine
 10
9913.874179210383
 20
7751.896058145246
 30
0.0
 11
9913.874179210383
 21
7769.896058145246
 31
0.0
  0
LINE
  5
188CE
330
747D
100
AcDbEntity
  8
細線
 48
50.0
100
AcDbLine
 10
9913.874179210383
 20
7751.896058145246
 30
0.0
 11
9915.874179210383
 21
7751.896058145246
 31
0.0
  0
LINE
  5
188CF
330
747D
100
AcDbEntity
  8
細線
100
AcDbLine
 10
9714.87417921039
 20
7769.896058145258
 30
0.0
 11
9712.542640919622
 21
7774.896058145244
 31
0.0
  0
LINE
  5
188D0
330
747D
100
AcDbEntity
  8
細線
100
AcDbLine
 10
9712.542640919622
 20
7774.896058145244
 30
0.0
 11
9647.205717501147
 21
7774.896058145234
 31
0.0
  0
LINE
  5
188D1
330
747D
100
AcDbEntity
  8
細線
100
AcDbLine
 10
9784.874179210383
 20
7769.896058145268
 30
0.0
 11
9714.874179210383
 21
7769.896058145268
 31
0.0
  0
LINE
  5
188D2
330
747D
100
AcDbEntity
  8
細線
100
AcDbLine
 10
9784.874179210397
 20
7769.896058145298
 30
0.0
 11
9787.205717501164
 21
7774.896058145284
 31
0.0
  0
LINE
  5
188D3
330
747D
100
AcDbEntity
  8
細線
100
AcDbLine
 10
9852.542640919622
 20
7774.896058145266
 30
0.0
 11
9787.205717501151
 21
7774.896058145255
 31
0.0
  0
LINE
  5
188D4
330
747D
100
AcDbEntity
  8
細線
100
AcDbLine
 10
9854.874179210391
 20
7769.896058145281
 30
0.0
 11
9852.542640919622
 21
7774.896058145266
 31
0.0
  0
LINE
  5
188D5
330
747D
100
AcDbEntity
  8
細線
100
AcDbLine
 10
9947.874179210383
 20
7797.896058145244
 30
0.0
 11
9233.874179210394
 21
7797.896058145251
 31
0.0
  0
LINE
  5
188EB
330
747D
100
AcDbEntity
  8
細線
100
AcDbLine
 10
7737.874179210384
 20
7797.89605814524
 30
0.0
 11
7023.874179210394
 21
7797.896058145248
 31
0.0
  0
DIMENSION
  5
188EC
330
747D
100
AcDbEntity
  8
寸法
100
AcDbDimension
  2
*D28
 10
5615.8741792104
 20
7171.088717545422
 30
0.0
 11
6249.465962044407
 21
7171.088717545422
 31
0.0
 70
   160
  1
有効開口部間口\P<>
 71
     5
 42
1278.0
  3
INABA_S40G
100
AcDbAlignedDimension
 13
6893.874179210399
 23
7696.896058145177
 33
0.0
 14
5615.8741792104
 24
7696.896058145114
 34
0.0
100
AcDbRotatedDimension
1001
ACAD
1000
DSTYLE
1002
{
1002
}
  0
LINE
  5
188ED
330
747D
100
AcDbEntity
  8
寸法
 48
50.0
100
AcDbLine
 10
5872.677385218509
 20
7594.001699273363
 30
0.0
 11
5821.271377308404
 21
7594.001699273363
 31
0.0
  0
LINE
  5
188EE
330
747D
100
AcDbEntity
  8
寸法
 48
50.0
100
AcDbLine
 10
5821.271377308404
 20
7594.001699273363
 30
0.0
 11
5821.271377308404
 21
7625.311857925528
 31
0.0
  0
LINE
  5
188EF
330
747D
100
AcDbEntity
  8
寸法
 48
50.0
100
AcDbLine
 10
5821.271377308404
 20
7625.311857925528
 30
0.0
 11
5791.51004531698
 21
7625.311857925528
 31
0.0
  0
LINE
  5
188F0
330
747D
100
AcDbEntity
  8
寸法
 48
50.0
100
AcDbLine
 10
5791.51004531698
 20
7625.311857925528
 30
0.0
 11
5846.974381263456
 21
7662.891308854141
 31
0.0
  0
LINE
  5
188F1
330
747D
100
AcDbEntity
  8
寸法
 48
50.0
100
AcDbLine
 10
5902.438717209932
 20
7625.311857925528
 30
0.0
 11
5846.974381263457
 21
7662.891308854138
 31
0.0
  0
LINE
  5
188F2
330
747D
100
AcDbEntity
  8
寸法
 48
50.0
100
AcDbLine
 10
5872.677385218509
 20
7625.311857925528
 30
0.0
 11
5902.438717209932
 21
7625.311857925528
 31
0.0
  0
LINE
  5
188F3
330
747D
100
AcDbEntity
  8
寸法
 48
50.0
100
AcDbLine
 10
5872.677385218509
 20
7594.001699273363
 30
0.0
 11
5872.677385218509
 21
7625.311857925528
 31
0.0
  0
LINE
  5
188F4
330
747D
100
AcDbEntity
  8
寸法
 48
50.0
100
AcDbLine
 10
5821.271377308404
 20
7594.001699273363
 30
0.0
 11
5872.677385218509
 21
7594.001699273363
 31
0.0
  0
LINE
  5
188F5
330
747D
100
AcDbEntity
  8
寸法
 48
50.0
100
AcDbLine
 10
6303.008586229963
 20
7651.147290028186
 30
0.0
 11
6303.008586229963
 21
7597.483655446396
 31
0.0
  0
LINE
  5
188F6
330
747D
100
AcDbEntity
  8
寸法
 48
50.0
100
AcDbLine
 10
6392.292804825384
 20
7627.223655758699
 30
0.0
 11
6303.008586229963
 21
7651.147290028186
 31
0.0
  0
LINE
  5
188F7
330
747D
100
AcDbEntity
  8
寸法
 48
50.0
100
AcDbLine
 10
6173.14086464966
 20
7627.223655758699
 30
0.0
 11
6392.292804825384
 21
7627.223655758699
 31
0.0
  0
DIMENSION
  5
1890D
330
747D
100
AcDbEntity
  8
寸法
100
AcDbDimension
  2
*D29
 10
7825.8741792104
 20
7171.088717545422
 30
0.0
 11
8459.465962044408
 21
7171.088717545422
 31
0.0
 70
   160
  1
有効開口部間口\P<>
 71
     5
 42
1278.000000000001
  3
INABA_S40G
100
AcDbAlignedDimension
 13
9103.8741792104
 23
7696.896058145177
 33
0.0
 14
7825.8741792104
 24
7696.896058145114
 34
0.0
100
AcDbRotatedDimension
1001
ACAD
1000
DSTYLE
1002
{
1002
}
  0
LINE
  5
1890E
330
747D
100
AcDbEntity
  8
寸法
 48
50.0
100
AcDbLine
 10
8383.140864649659
 20
7627.223655758699
 30
0.0
 11
8602.292804825387
 21
7627.223655758699
 31
0.0
  0
LINE
  5
1890F
330
747D
100
AcDbEntity
  8
寸法
 48
50.0
100
AcDbLine
 10
8602.292804825387
 20
7627.223655758699
 30
0.0
 11
8513.008586229963
 21
7651.147290028186
 31
0.0
  0
LINE
  5
18910
330
747D
100
AcDbEntity
  8
寸法
 48
50.0
100
AcDbLine
 10
8513.008586229963
 20
7651.147290028186
 30
0.0
 11
8513.008586229963
 21
7597.483655446396
 31
0.0
  0
LINE
  5
18911
330
747D
100
AcDbEntity
  8
寸法
 48
50.0
100
AcDbLine
 10
8031.271377308405
 20
7594.001699273363
 30
0.0
 11
8082.677385218508
 21
7594.001699273363
 31
0.0
  0
LINE
  5
18912
330
747D
100
AcDbEntity
  8
寸法
 48
50.0
100
AcDbLine
 10
8082.677385218508
 20
7594.001699273363
 30
0.0
 11
8082.677385218508
 21
7625.311857925528
 31
0.0
  0
LINE
  5
18913
330
747D
100
AcDbEntity
  8
寸法
 48
50.0
100
AcDbLine
 10
8082.677385218508
 20
7625.311857925528
 30
0.0
 11
8112.438717209931
 21
7625.311857925528
 31
0.0
  0
LINE
  5
18914
330
747D
100
AcDbEntity
  8
寸法
 48
50.0
100
AcDbLine
 10
8112.438717209931
 20
7625.311857925528
 30
0.0
 11
8056.974381263456
 21
7662.891308854138
 31
0.0
  0
LINE
  5
18915
330
747D
100
AcDbEntity
  8
寸法
 48
50.0
100
AcDbLine
 10
8001.510045316981
 20
7625.311857925528
 30
0.0
 11
8056.974381263456
 21
7662.891308854141
 31
0.0
  0
LINE
  5
18916
330
747D
100
AcDbEntity
  8
寸法
 48
50.0
100
AcDbLine
 10
8031.271377308405
 20
7625.311857925528
 30
0.0
 11
8001.510045316981
 21
7625.311857925528
 31
0.0
  0
LINE
  5
18917
330
747D
100
AcDbEntity
  8
寸法
 48
50.0
100
AcDbLine
 10
8031.271377308405
 20
7594.001699273363
 30
0.0
 11
8031.271377308405
 21
7625.311857925528
 31
0.0
  0
LINE
  5
18918
330
747D
100
AcDbEntity
  8
寸法
 48
50.0
100
AcDbLine
 10
8082.677385218508
 20
7594.001699273363
 30
0.0
 11
8031.271377308405
 21
7594.001699273363
 31
0.0
  0
MTEXT
  5
1892E
330
747D
100
AcDbEntity
  8
寸法
 62
     7
 48
50.0
100
AcDbMText
 10
7330.632922953468
 20
8669.213698654164
 30
0.0
 40
96.0
 41
0.0
 71
     5
 72
     1
  1
棚 2段
  7
STYLE1
 73
     1
 44
1.0
1001
ACAD
1000
MTEXTBEGIN
1070
    73
1070
     1
1070
    44
1040
1.0
1070
    74
1070
     0
1000
MTEXTEND
  0
MTEXT
  5
1892F
330
747D
100
AcDbEntity
  8
寸法
 62
     7
 48
50.0
100
AcDbMText
 10
6240.632922953471
 20
8669.213698654091
 30
0.0
 40
96.0
 41
0.0
 71
     5
 72
     1
  1
棚 2段
  7
STYLE1
 73
     1
 44
1.0
1001
ACAD
1000
MTEXTBEGIN
1070
    73
1070
     1
1070
    44
1040
1.0
1070
    74
1070
     0
1000
MTEXTEND
  0
MTEXT
  5
18930
330
747D
100
AcDbEntity
  8
寸法
 62
     7
 48
50.0
100
AcDbMText
 10
9540.632922953466
 20
8669.2136986542
 30
0.0
 40
96.0
 41
0.0
 71
     5
 72
     1
  1
棚 2段
  7
STYLE1
 73
     1
 44
1.0
1001
ACAD
1000
MTEXTBEGIN
1070
    73
1070
     1
1070
    44
1040
1.0
1070
    74
1070
     0
1000
MTEXTEND
  0
MTEXT
  5
18931
330
747D
100
AcDbEntity
  8
寸法
 62
     7
 48
50.0
100
AcDbMText
 10
8450.63292295347
 20
8669.213698654127
 30
0.0
 40
96.0
 41
0.0
 71
     5
 72
     1
  1
棚 2段
  7
STYLE1
 73
     1
 44
1.0
1001
ACAD
1000
MTEXTBEGIN
1070
    73
1070
     1
1070
    44
1040
1.0
1070
    74
1070
     0
1000
MTEXTEND
  0
DIMENSION
  5
189A6
330
747D
100
AcDbEntity
  8
寸法
 48
50.0
100
AcDbDimension
  2
*D31
 10
3345.874179210401
 20
5351.431285035242
 30
0.0
 11
6613.014387130682
 21
5351.431285035242
 31
0.0
 70
   160
  1
柱外寸法 N x 2210
 71
     5
 42
6630.000000000006
  3
INABA_S40G
100
AcDbAlignedDimension
 13
9975.874179210407
 23
5138.889699776999
 33
0.0
 14
3345.874179210401
 24
5138.889699777005
 34
0.0
100
AcDbRotatedDimension
  0
DIMENSION
  5
189A7
330
747D
100
AcDbEntity
  8
寸法
 48
50.0
100
AcDbDimension
  2
*D32
 10
10025.87417921041
 20
5574.388263473091
 30
0.0
 11
6613.014387130682
 21
5574.388263473091
 31
0.0
 70
   160
  1
N x 2210 +100
 71
     5
 42
6730.000000000005
  3
INABA_S40G
100
AcDbAlignedDimension
 13
3295.874179210402
 23
5138.889699777003
 33
0.0
 14
10025.87417921041
 24
5138.889699776997
 34
0.0
100
AcDbRotatedDimension
  0
DIMENSION
  5
189A8
330
747D
100
AcDbEntity
  8
寸法
 48
50.0
100
AcDbDimension
  2
*D30
 10
3295.874179210402
 20
5351.431285035242
 30
0.0
 11
2982.388897836154
 21
5351.431285035242
 31
0.0
 70
   160
 71
     5
 42
50.0
  3
INABA_S40G
100
AcDbAlignedDimension
 13
3345.874179210401
 23
5138.889699777005
 33
0.0
 14
3295.874179210402
 24
5138.889699777003
 34
0.0
100
AcDbRotatedDimension
1001
ACAD
1000
DSTYLE
1002
{
1002
}
  0
LINE
  5
189A9
330
747D
100
AcDbEntity
  8
細線
 48
50.0
100
AcDbLine
 10
3328.874179210399
 20
5138.889699777003
 30
0.0
 11
3328.874179210399
 21
4997.889699776999
 31
0.0
  0
ARC
  5
189AA
330
747D
100
AcDbEntity
  8
部品1
100
AcDbCircle
 10
3303.282600316825
 20
5131.889699777002
 30
0.0
 40
7.0
100
AcDbArc
 50
90.0
 51
183.2473427903377
  0
ARC
  5
189AB
330
747D
100
AcDbEntity
  8
部品1
100
AcDbCircle
 10
3316.497923777863
 20
5004.889699777002
 30
0.0
 40
7.0
100
AcDbArc
 50
183.2473427903377
 51
270.0
  0
ARC
  5
189AC
330
747D
100
AcDbEntity
  8
部品1
 48
50.0
100
AcDbCircle
 10
3298.12611356719
 20
5111.55669893869
 30
0.0
 40
0.7
100
AcDbArc
 50
183.2473427903897
 51
262.3418727924265
  0
ARC
  5
189AD
330
747D
100
AcDbEntity
  8
部品1
 48
50.0
100
AcDbCircle
 10
3306.362144092027
 20
5019.356698938685
 30
0.0
 40
0.7
100
AcDbArc
 50
183.2473427902856
 51
262.3418727924265
  0
ARC
  5
189AE
330
747D
100
AcDbEntity
  8
部品1
 48
50.0
100
AcDbCircle
 10
3305.869074983466
 20
5015.689699777002
 30
0.0
 40
3.0
100
AcDbArc
 50
3.247342790337682
 51
82.34187279284659
  0
ARC
  5
189AF
330
747D
100
AcDbEntity
  8
部品1
 48
50.0
100
AcDbCircle
 10
3297.633044458622
 20
5107.889699777002
 30
0.0
 40
3.0
100
AcDbArc
 50
3.247342790337682
 51
82.34187279284659
  0
LINE
  5
189B0
330
747D
100
AcDbEntity
  8
部品1
100
AcDbLine
 10
3300.628227354808
 20
5108.059639232106
 30
0.0
 11
3305.663268082915
 21
5019.317046399162
 31
0.0
  0
LINE
  5
189B1
330
747D
100
AcDbEntity
  8
部品1
100
AcDbLine
 10
3308.864257879652
 20
5015.859639232105
 30
0.0
 11
3309.509163686767
 21
5004.493174381761
 31
0.0
  0
LINE
  5
189B2
330
747D
100
AcDbEntity
  8
部品1
100
AcDbLine
 10
3296.293840225729
 20
5131.493174381762
 30
0.0
 11
3297.427237558079
 21
5111.517046399164
 31
0.0
  0
LINE
  5
189B3
330
747D
100
AcDbEntity
  8
部品1
 48
50.0
100
AcDbLine
 10
10005.25043464294
 20
4997.889699776999
 30
0.0
 11
4308.347160999878
 21
4997.889699777
 31
0.0
  0
LINE
  5
189B4
330
747D
100
AcDbEntity
  8
細線
 48
50.0
100
AcDbLine
 10
10015.4794976716
 20
5018.662942340188
 30
0.0
 11
4304.684277859063
 21
5018.662942340877
 31
0.0
  0
LINE
  5
189B5
330
747D
100
AcDbEntity
  8
細線
 48
50.0
100
AcDbLine
 10
10023.71552819646
 20
5110.862942340194
 30
0.0
 11
4288.426930237743
 21
5110.862942340879
 31
0.0
  0
LINE
  5
189B6
330
747D
100
AcDbEntity
  8
部品1
 48
50.0
100
AcDbLine
 10
10018.46575810397
 20
5138.889699776982
 30
0.0
 11
4283.485056719984
 21
5138.889699776997
 31
0.0
  0
DIMENSION
  5
189FA
330
747D
100
AcDbEntity
  8
寸法
 48
50.0
100
AcDbDimension
  2
*D33
 10
9975.874179210407
 20
5351.431285035238
 30
0.0
 11
10339.35946058464
 21
5351.431285035238
 31
0.0
 70
   160
 71
     5
 42
50.0
  3
INABA_S40G
100
AcDbAlignedDimension
 13
10025.87417921041
 23
5138.889699776997
 33
0.0
 14
9975.874179210407
 24
5138.889699776999
 34
0.0
100
AcDbRotatedDimension
  0
ARC
  5
189FB
330
747D
100
AcDbEntity
  8
部品1
 48
50.0
100
AcDbCircle
 10
10023.62224485362
 20
5111.556698938684
 30
0.0
 40
0.7
100
AcDbArc
 50
277.6581272075735
 51
356.7526572096103
  0
ARC
  5
189FC
330
747D
100
AcDbEntity
  8
部品1
 48
50.0
100
AcDbCircle
 10
10024.11531396218
 20
5107.889699776999
 30
0.0
 40
3.0
100
AcDbArc
 50
97.65812720715343
 51
176.7526572096623
  0
LINE
  5
189FD
330
747D
100
AcDbEntity
  8
部品1
100
AcDbLine
 10
10025.45451819507
 20
5131.493174381758
 30
0.0
 11
10024.32112086272
 21
5111.517046399158
 31
0.0
  0
ARC
  5
189FE
330
747D
100
AcDbEntity
  8
部品1
100
AcDbCircle
 10
10005.25043464294
 20
5004.889699776999
 30
0.0
 40
7.0
100
AcDbArc
 50
270.0
 51
356.7526572096623
  0
ARC
  5
189FF
330
747D
100
AcDbEntity
  8
部品1
 48
50.0
100
AcDbCircle
 10
10015.38621432877
 20
5019.35669893868
 30
0.0
 40
0.7
100
AcDbArc
 50
277.6581272075735
 51
356.7526572097143
  0
ARC
  5
18A00
330
747D
100
AcDbEntity
  8
部品1
 48
50.0
100
AcDbCircle
 10
10015.87928343733
 20
5015.689699776996
 30
0.0
 40
3.0
100
AcDbArc
 50
97.65812720715343
 51
176.7526572096623
  0
LINE
  5
18A01
330
747D
100
AcDbEntity
  8
部品1
100
AcDbLine
 10
10012.88410054115
 20
5015.859639232099
 30
0.0
 11
10012.23919473404
 21
5004.49317438176
 31
0.0
  0
LINE
  5
18A02
330
747D
100
AcDbEntity
  8
細線
 48
50.0
100
AcDbLine
 10
9992.874179210406
 20
5138.889699776997
 30
0.0
 11
9992.874179210406
 21
4997.889699776997
 31
0.0
  0
ARC
  5
18A03
330
747D
100
AcDbEntity
  8
部品1
100
AcDbCircle
 10
10018.46575810397
 20
5131.889699776997
 30
0.0
 40
7.0
100
AcDbArc
 50
356.7526572096623
 51
90.0
  0
LINE
  5
18A04
330
747D
100
AcDbEntity
  8
部品1
100
AcDbLine
 10
10021.12013106599
 20
5108.0596392321
 30
0.0
 11
10016.08509033788
 21
5019.317046399158
 31
0.0
  0
LINE
  5
18A42
330
747D
100
AcDbEntity
  8
部品1
 48
50.0
100
AcDbLine
 10
4277.884362643306
 20
4997.889699776997
 30
0.0
 11
3316.497923777863
 21
4997.889699776999
 31
0.0
  0
LINE
  5
18A43
330
747D
100
AcDbEntity
  8
細線
 48
50.0
100
AcDbLine
 10
4274.221479502492
 20
5018.66294234088
 30
0.0
 11
3306.268860745646
 21
5018.662942340998
 31
0.0
  0
LINE
  5
18A44
330
747D
100
AcDbEntity
  8
細線
 48
50.0
100
AcDbLine
 10
4257.964131881172
 20
5110.862942340885
 30
0.0
 11
3298.032830220817
 21
5110.862942340999
 31
0.0
  0
LINE
  5
18A45
330
747D
100
AcDbEntity
  8
部品1
 48
50.0
100
AcDbLine
 10
4253.022258363413
 20
5138.889699776997
 30
0.0
 11
3303.282600316825
 21
5138.889699776999
 31
0.0
  0
ARC
  5
18A46
330
747D
100
AcDbEntity
  8
部品1
 48
0.01
100
AcDbCircle
 10
5042.874179210419
 20
4936.389699776995
 30
0.0
 40
2.0
100
AcDbArc
 50
180.0
 51
270.0
  0
ARC
  5
18A47
330
747D
100
AcDbEntity
  8
部品1
 48
0.01
100
AcDbCircle
 10
5042.874179210419
 20
4967.889699776995
 30
0.0
 40
2.0
100
AcDbArc
 50
90.0
 51
180.0
  0
ARC
  5
18A48
330
747D
100
AcDbEntity
  8
部品1
 48
0.01
100
AcDbCircle
 10
5218.87417921042
 20
4936.389699776995
 30
0.0
 40
2.0
100
AcDbArc
 50
270.0
 51
0.0
  0
ARC
  5
18A49
330
747D
100
AcDbEntity
  8
部品1
 48
0.01
100
AcDbCircle
 10
5218.87417921042
 20
4967.889699776995
 30
0.0
 40
2.0
100
AcDbArc
 50
0.0
 51
90.0
  0
LINE
  5
18A4A
330
747D
100
AcDbEntity
  8
細線
100
AcDbLine
 10
5130.874179210419
 20
4940.389699776996
 30
0.0
 11
5056.874179210419
 21
4940.389699776996
 31
0.0
  0
LINE
  5
18A4B
330
747D
100
AcDbEntity
  8
細線
100
AcDbLine
 10
5130.874179210419
 20
4963.389699776995
 30
0.0
 11
5204.87417921042
 21
4963.389699776995
 31
0.0
  0
LINE
  5
18A4C
330
747D
100
AcDbEntity
  8
細線
100
AcDbLine
 10
5204.87417921042
 20
4940.389699776996
 30
0.0
 11
5130.874179210419
 21
4940.389699776996
 31
0.0
  0
LINE
  5
18A4D
330
747D
100
AcDbEntity
  8
細線
100
AcDbLine
 10
5056.874179210419
 20
4963.389699776995
 30
0.0
 11
5130.874179210419
 21
4963.389699776995
 31
0.0
  0
LINE
  5
18A4E
330
747D
100
AcDbEntity
  8
細線
100
AcDbLine
 10
5056.874179210419
 20
4940.389699776996
 30
0.0
 11
5056.874179210419
 21
4963.389699776995
 31
0.0
  0
LINE
  5
18A4F
330
747D
100
AcDbEntity
  8
細線
100
AcDbLine
 10
5204.87417921042
 20
4963.389699776995
 30
0.0
 11
5204.87417921042
 21
4940.389699776996
 31
0.0
  0
LINE
  5
18A50
330
747D
100
AcDbEntity
  8
部品1
 48
0.01
100
AcDbLine
 10
5040.874179210419
 20
4936.389699776995
 30
0.0
 11
5040.874179210419
 21
4967.889699776995
 31
0.0
  0
LINE
  5
18A51
330
747D
100
AcDbEntity
  8
部品1
 48
0.01
100
AcDbLine
 10
5218.87417921042
 20
4934.389699776995
 30
0.0
 11
5042.874179210419
 21
4934.389699776995
 31
0.0
  0
LINE
  5
18A52
330
747D
100
AcDbEntity
  8
部品1
 48
0.01
100
AcDbLine
 10
5220.874179210419
 20
4967.889699776995
 30
0.0
 11
5220.874179210419
 21
4936.389699776995
 31
0.0
  0
LINE
  5
18A53
330
747D
100
AcDbEntity
  8
部品1
 48
0.01
100
AcDbLine
 10
5042.874179210419
 20
4969.889699776995
 30
0.0
 11
5218.87417921042
 21
4969.889699776995
 31
0.0
  0
LINE
  5
18A54
330
747D
100
AcDbEntity
  8
細線
100
AcDbLine
 10
5204.87417921042
 20
4957.389699776996
 30
0.0
 11
5130.874179210419
 21
4957.389699776996
 31
0.0
  0
LINE
  5
18A55
330
747D
100
AcDbEntity
  8
細線
100
AcDbLine
 10
5204.87417921042
 20
4951.389699776996
 30
0.0
 11
5130.874179210419
 21
4951.389699776996
 31
0.0
  0
LINE
  5
18A56
330
747D
100
AcDbEntity
  8
細線
100
AcDbLine
 10
5204.87417921042
 20
4945.389699776995
 30
0.0
 11
5130.874179210419
 21
4945.389699776995
 31
0.0
  0
LINE
  5
18A57
330
747D
100
AcDbEntity
  8
細線
100
AcDbLine
 10
5204.87417921042
 20
4957.389699776996
 30
0.0
 11
5135.874179210419
 21
4957.389699776996
 31
0.0
  0
LINE
  5
18A58
330
747D
100
AcDbEntity
  8
細線
100
AcDbLine
 10
5056.874179210419
 20
4957.389699776996
 30
0.0
 11
5130.874179210419
 21
4957.389699776996
 31
0.0
  0
LINE
  5
18A59
330
747D
100
AcDbEntity
  8
細線
100
AcDbLine
 10
5056.874179210419
 20
4945.389699776995
 30
0.0
 11
5130.874179210419
 21
4945.389699776995
 31
0.0
  0
LINE
  5
18A5A
330
747D
100
AcDbEntity
  8
細線
100
AcDbLine
 10
5056.874179210419
 20
4951.389699776996
 30
0.0
 11
5130.874179210419
 21
4951.389699776996
 31
0.0
  0
LINE
  5
18A5B
330
747D
100
AcDbEntity
  8
細線
100
AcDbLine
 10
5130.874179210419
 20
4963.389699776995
 30
0.0
 11
5130.874179210419
 21
4940.389699776996
 31
0.0
  0
LINE
  5
18A5C
330
747D
100
AcDbEntity
  8
細線
100
AcDbLine
 10
3770.874179210402
 20
4963.389699776995
 30
0.0
 11
3770.874179210399
 21
4940.389699776996
 31
0.0
  0
LINE
  5
18A5D
330
747D
100
AcDbEntity
  8
細線
100
AcDbLine
 10
3844.8741792104
 20
4951.389699776996
 30
0.0
 11
3770.874179210402
 21
4951.389699776996
 31
0.0
  0
LINE
  5
18A5E
330
747D
100
AcDbEntity
  8
細線
100
AcDbLine
 10
3844.8741792104
 20
4945.389699776995
 30
0.0
 11
3770.874179210402
 21
4945.389699776995
 31
0.0
  0
LINE
  5
18A5F
330
747D
100
AcDbEntity
  8
細線
100
AcDbLine
 10
3844.8741792104
 20
4957.389699776996
 30
0.0
 11
3770.874179210402
 21
4957.389699776996
 31
0.0
  0
LINE
  5
18A60
330
747D
100
AcDbEntity
  8
細線
100
AcDbLine
 10
3696.874179210401
 20
4957.389699776996
 30
0.0
 11
3765.874179210401
 21
4957.389699776996
 31
0.0
  0
LINE
  5
18A61
330
747D
100
AcDbEntity
  8
細線
100
AcDbLine
 10
3696.874179210399
 20
4945.389699776995
 30
0.0
 11
3770.874179210402
 21
4945.389699776995
 31
0.0
  0
LINE
  5
18A62
330
747D
100
AcDbEntity
  8
細線
100
AcDbLine
 10
3696.874179210401
 20
4951.389699776996
 30
0.0
 11
3770.874179210402
 21
4951.389699776996
 31
0.0
  0
LINE
  5
18A63
330
747D
100
AcDbEntity
  8
細線
100
AcDbLine
 10
3696.874179210401
 20
4957.389699776996
 30
0.0
 11
3770.874179210402
 21
4957.389699776996
 31
0.0
  0
LINE
  5
18A64
330
747D
100
AcDbEntity
  8
部品1
 48
0.01
100
AcDbLine
 10
3858.874179210401
 20
4969.889699776995
 30
0.0
 11
3682.874179210399
 21
4969.889699776995
 31
0.0
  0
LINE
  5
18A65
330
747D
100
AcDbEntity
  8
部品1
 48
0.01
100
AcDbLine
 10
3680.8741792104
 20
4967.889699776995
 30
0.0
 11
3680.8741792104
 21
4936.389699776995
 31
0.0
  0
LINE
  5
18A66
330
747D
100
AcDbEntity
  8
部品1
 48
0.01
100
AcDbLine
 10
3682.874179210399
 20
4934.389699776995
 30
0.0
 11
3858.874179210399
 21
4934.389699776995
 31
0.0
  0
LINE
  5
18A67
330
747D
100
AcDbEntity
  8
部品1
 48
0.01
100
AcDbLine
 10
3860.874179210399
 20
4936.389699776995
 30
0.0
 11
3860.874179210401
 21
4967.889699776995
 31
0.0
  0
LINE
  5
18A68
330
747D
100
AcDbEntity
  8
細線
100
AcDbLine
 10
3696.874179210401
 20
4963.389699776995
 30
0.0
 11
3696.874179210401
 21
4940.389699776996
 31
0.0
  0
LINE
  5
18A69
330
747D
100
AcDbEntity
  8
細線
100
AcDbLine
 10
3844.874179210401
 20
4940.389699776996
 30
0.0
 11
3844.874179210401
 21
4963.389699776995
 31
0.0
  0
LINE
  5
18A6A
330
747D
100
AcDbEntity
  8
細線
100
AcDbLine
 10
3844.874179210401
 20
4963.389699776995
 30
0.0
 11
3770.874179210402
 21
4963.389699776995
 31
0.0
  0
LINE
  5
18A6B
330
747D
100
AcDbEntity
  8
細線
100
AcDbLine
 10
3696.874179210401
 20
4940.389699776996
 30
0.0
 11
3770.874179210402
 21
4940.389699776996
 31
0.0
  0
LINE
  5
18A6C
330
747D
100
AcDbEntity
  8
細線
100
AcDbLine
 10
3770.874179210402
 20
4963.389699776995
 30
0.0
 11
3696.874179210401
 21
4963.389699776995
 31
0.0
  0
LINE
  5
18A6D
330
747D
100
AcDbEntity
  8
細線
100
AcDbLine
 10
3770.874179210399
 20
4940.389699776996
 30
0.0
 11
3844.874179210401
 21
4940.389699776996
 31
0.0
  0
ARC
  5
18A6E
330
747D
100
AcDbEntity
  8
部品1
 48
0.01
100
AcDbCircle
 10
3682.874179210399
 20
4967.889699776995
 30
0.0
 40
2.0
100
AcDbArc
 50
90.0
 51
180.0
  0
ARC
  5
18A6F
330
747D
100
AcDbEntity
  8
部品1
 48
0.01
100
AcDbCircle
 10
3682.874179210399
 20
4936.389699776995
 30
0.0
 40
2.0
100
AcDbArc
 50
180.0
 51
270.0
  0
ARC
  5
18A70
330
747D
100
AcDbEntity
  8
部品1
 48
0.01
100
AcDbCircle
 10
3858.874179210401
 20
4967.889699776995
 30
0.0
 40
2.0
100
AcDbArc
 50
0.0
 51
90.0
  0
ARC
  5
18A71
330
747D
100
AcDbEntity
  8
部品1
 48
0.01
100
AcDbCircle
 10
3858.874179210399
 20
4936.389699776995
 30
0.0
 40
2.0
100
AcDbArc
 50
270.0
 51
0.0
  0
LINE
  5
18A72
330
747D
100
AcDbEntity
  8
細線
100
AcDbLine
 10
7340.87417921042
 20
4963.389699776995
 30
0.0
 11
7340.87417921042
 21
4940.389699776996
 31
0.0
  0
LINE
  5
18A73
330
747D
100
AcDbEntity
  8
細線
100
AcDbLine
 10
7266.87417921042
 20
4951.389699776996
 30
0.0
 11
7340.87417921042
 21
4951.389699776996
 31
0.0
  0
LINE
  5
18A74
330
747D
100
AcDbEntity
  8
細線
100
AcDbLine
 10
7266.87417921042
 20
4945.389699776995
 30
0.0
 11
7340.87417921042
 21
4945.389699776995
 31
0.0
  0
LINE
  5
18A75
330
747D
100
AcDbEntity
  8
細線
100
AcDbLine
 10
7266.87417921042
 20
4957.389699776996
 30
0.0
 11
7340.87417921042
 21
4957.389699776996
 31
0.0
  0
LINE
  5
18A76
330
747D
100
AcDbEntity
  8
細線
100
AcDbLine
 10
7414.874179210419
 20
4957.389699776996
 30
0.0
 11
7345.874179210419
 21
4957.389699776996
 31
0.0
  0
LINE
  5
18A77
330
747D
100
AcDbEntity
  8
細線
100
AcDbLine
 10
7414.874179210419
 20
4945.389699776995
 30
0.0
 11
7340.87417921042
 21
4945.389699776995
 31
0.0
  0
LINE
  5
18A78
330
747D
100
AcDbEntity
  8
細線
100
AcDbLine
 10
7414.874179210419
 20
4951.389699776996
 30
0.0
 11
7340.87417921042
 21
4951.389699776996
 31
0.0
  0
LINE
  5
18A79
330
747D
100
AcDbEntity
  8
細線
100
AcDbLine
 10
7414.874179210419
 20
4957.389699776996
 30
0.0
 11
7340.87417921042
 21
4957.389699776996
 31
0.0
  0
LINE
  5
18A7A
330
747D
100
AcDbEntity
  8
部品1
 48
0.01
100
AcDbLine
 10
7252.87417921042
 20
4969.889699776995
 30
0.0
 11
7428.874179210419
 21
4969.889699776995
 31
0.0
  0
LINE
  5
18A7B
330
747D
100
AcDbEntity
  8
部品1
 48
0.01
100
AcDbLine
 10
7430.87417921042
 20
4967.889699776995
 30
0.0
 11
7430.87417921042
 21
4936.389699776995
 31
0.0
  0
LINE
  5
18A7C
330
747D
100
AcDbEntity
  8
部品1
 48
0.01
100
AcDbLine
 10
7428.874179210419
 20
4934.389699776995
 30
0.0
 11
7252.87417921042
 21
4934.389699776995
 31
0.0
  0
LINE
  5
18A7D
330
747D
100
AcDbEntity
  8
部品1
 48
0.01
100
AcDbLine
 10
7250.874179210419
 20
4936.389699776995
 30
0.0
 11
7250.874179210419
 21
4967.889699776995
 31
0.0
  0
LINE
  5
18A7E
330
747D
100
AcDbEntity
  8
細線
100
AcDbLine
 10
7414.874179210419
 20
4963.389699776995
 30
0.0
 11
7414.874179210419
 21
4940.389699776996
 31
0.0
  0
LINE
  5
18A7F
330
747D
100
AcDbEntity
  8
細線
100
AcDbLine
 10
7266.87417921042
 20
4940.389699776996
 30
0.0
 11
7266.87417921042
 21
4963.389699776995
 31
0.0
  0
LINE
  5
18A80
330
747D
100
AcDbEntity
  8
細線
100
AcDbLine
 10
7266.87417921042
 20
4963.389699776995
 30
0.0
 11
7340.87417921042
 21
4963.389699776995
 31
0.0
  0
LINE
  5
18A81
330
747D
100
AcDbEntity
  8
細線
100
AcDbLine
 10
7414.874179210419
 20
4940.389699776996
 30
0.0
 11
7340.87417921042
 21
4940.389699776996
 31
0.0
  0
LINE
  5
18A82
330
747D
100
AcDbEntity
  8
細線
100
AcDbLine
 10
7340.87417921042
 20
4963.389699776995
 30
0.0
 11
7414.874179210419
 21
4963.389699776995
 31
0.0
  0
LINE
  5
18A83
330
747D
100
AcDbEntity
  8
細線
100
AcDbLine
 10
7340.87417921042
 20
4940.389699776996
 30
0.0
 11
7266.87417921042
 21
4940.389699776996
 31
0.0
  0
ARC
  5
18A84
330
747D
100
AcDbEntity
  8
部品1
 48
0.01
100
AcDbCircle
 10
7428.874179210419
 20
4967.889699776995
 30
0.0
 40
2.0
100
AcDbArc
 50
0.0
 51
90.0
  0
ARC
  5
18A85
330
747D
100
AcDbEntity
  8
部品1
 48
0.01
100
AcDbCircle
 10
7428.874179210419
 20
4936.389699776995
 30
0.0
 40
2.0
100
AcDbArc
 50
270.0
 51
0.0
  0
ARC
  5
18A86
330
747D
100
AcDbEntity
  8
部品1
 48
0.01
100
AcDbCircle
 10
7252.87417921042
 20
4967.889699776995
 30
0.0
 40
2.0
100
AcDbArc
 50
90.0
 51
180.0
  0
ARC
  5
18A87
330
747D
100
AcDbEntity
  8
部品1
 48
0.01
100
AcDbCircle
 10
7252.87417921042
 20
4936.389699776995
 30
0.0
 40
2.0
100
AcDbArc
 50
180.0
 51
270.0
  0
ARC
  5
18A88
330
747D
100
AcDbEntity
  8
部品1
 48
0.01
100
AcDbCircle
 10
6068.8741792104
 20
4936.389699776995
 30
0.0
 40
2.0
100
AcDbArc
 50
270.0
 51
0.0
  0
ARC
  5
18A89
330
747D
100
AcDbEntity
  8
部品1
 48
0.01
100
AcDbCircle
 10
6068.874179210401
 20
4967.889699776995
 30
0.0
 40
2.0
100
AcDbArc
 50
0.0
 51
90.0
  0
ARC
  5
18A8A
330
747D
100
AcDbEntity
  8
部品1
 48
0.01
100
AcDbCircle
 10
5892.874179210402
 20
4936.389699776995
 30
0.0
 40
2.0
100
AcDbArc
 50
180.0
 51
270.0
  0
ARC
  5
18A8B
330
747D
100
AcDbEntity
  8
部品1
 48
0.01
100
AcDbCircle
 10
5892.874179210402
 20
4967.889699776995
 30
0.0
 40
2.0
100
AcDbArc
 50
90.0
 51
180.0
  0
LINE
  5
18A8C
330
747D
100
AcDbEntity
  8
細線
100
AcDbLine
 10
5980.874179210399
 20
4940.389699776996
 30
0.0
 11
6054.874179210401
 21
4940.389699776996
 31
0.0
  0
LINE
  5
18A8D
330
747D
100
AcDbEntity
  8
細線
100
AcDbLine
 10
5980.874179210401
 20
4963.389699776995
 30
0.0
 11
5906.874179210401
 21
4963.389699776995
 31
0.0
  0
LINE
  5
18A8E
330
747D
100
AcDbEntity
  8
細線
100
AcDbLine
 10
5906.874179210401
 20
4940.389699776996
 30
0.0
 11
5980.874179210401
 21
4940.389699776996
 31
0.0
  0
LINE
  5
18A8F
330
747D
100
AcDbEntity
  8
細線
100
AcDbLine
 10
6054.874179210401
 20
4963.389699776995
 30
0.0
 11
5980.874179210401
 21
4963.389699776995
 31
0.0
  0
LINE
  5
18A90
330
747D
100
AcDbEntity
  8
細線
100
AcDbLine
 10
6054.874179210401
 20
4940.389699776996
 30
0.0
 11
6054.874179210401
 21
4963.389699776995
 31
0.0
  0
LINE
  5
18A91
330
747D
100
AcDbEntity
  8
細線
100
AcDbLine
 10
5906.874179210401
 20
4963.389699776995
 30
0.0
 11
5906.874179210401
 21
4940.389699776996
 31
0.0
  0
LINE
  5
18A92
330
747D
100
AcDbEntity
  8
部品1
 48
0.01
100
AcDbLine
 10
6070.874179210399
 20
4936.389699776995
 30
0.0
 11
6070.874179210401
 21
4967.889699776995
 31
0.0
  0
LINE
  5
18A93
330
747D
100
AcDbEntity
  8
部品1
 48
0.01
100
AcDbLine
 10
5892.874179210402
 20
4934.389699776995
 30
0.0
 11
6068.8741792104
 21
4934.389699776995
 31
0.0
  0
LINE
  5
18A94
330
747D
100
AcDbEntity
  8
部品1
 48
0.01
100
AcDbLine
 10
5890.874179210401
 20
4967.889699776995
 30
0.0
 11
5890.874179210401
 21
4936.389699776995
 31
0.0
  0
LINE
  5
18A95
330
747D
100
AcDbEntity
  8
部品1
 48
0.01
100
AcDbLine
 10
6068.874179210401
 20
4969.889699776995
 30
0.0
 11
5892.874179210402
 21
4969.889699776995
 31
0.0
  0
LINE
  5
18A96
330
747D
100
AcDbEntity
  8
細線
100
AcDbLine
 10
5906.874179210401
 20
4957.389699776996
 30
0.0
 11
5980.874179210401
 21
4957.389699776996
 31
0.0
  0
LINE
  5
18A97
330
747D
100
AcDbEntity
  8
細線
100
AcDbLine
 10
5906.874179210401
 20
4951.389699776996
 30
0.0
 11
5980.874179210401
 21
4951.389699776996
 31
0.0
  0
LINE
  5
18A98
330
747D
100
AcDbEntity
  8
細線
100
AcDbLine
 10
5906.874179210399
 20
4945.389699776995
 30
0.0
 11
5980.874179210401
 21
4945.389699776995
 31
0.0
  0
LINE
  5
18A99
330
747D
100
AcDbEntity
  8
細線
100
AcDbLine
 10
5906.874179210401
 20
4957.389699776996
 30
0.0
 11
5975.874179210401
 21
4957.389699776996
 31
0.0
  0
LINE
  5
18A9A
330
747D
100
AcDbEntity
  8
細線
100
AcDbLine
 10
6054.8741792104
 20
4957.389699776996
 30
0.0
 11
5980.874179210401
 21
4957.389699776996
 31
0.0
  0
LINE
  5
18A9B
330
747D
100
AcDbEntity
  8
細線
100
AcDbLine
 10
6054.8741792104
 20
4945.389699776995
 30
0.0
 11
5980.874179210401
 21
4945.389699776995
 31
0.0
  0
LINE
  5
18A9C
330
747D
100
AcDbEntity
  8
細線
100
AcDbLine
 10
6054.8741792104
 20
4951.389699776996
 30
0.0
 11
5980.874179210401
 21
4951.389699776996
 31
0.0
  0
LINE
  5
18A9D
330
747D
100
AcDbEntity
  8
細線
100
AcDbLine
 10
5980.874179210401
 20
4963.389699776995
 30
0.0
 11
5980.874179210399
 21
4940.389699776996
 31
0.0
  0
ARC
  5
18A9E
330
747D
100
AcDbEntity
  8
部品1
 48
0.01
100
AcDbCircle
 10
9462.87417921042
 20
4936.389699776995
 30
0.0
 40
2.0
100
AcDbArc
 50
180.0
 51
270.0
  0
ARC
  5
18A9F
330
747D
100
AcDbEntity
  8
部品1
 48
0.01
100
AcDbCircle
 10
9462.87417921042
 20
4967.889699776995
 30
0.0
 40
2.0
100
AcDbArc
 50
90.0
 51
180.0
  0
ARC
  5
18AA0
330
747D
100
AcDbEntity
  8
部品1
 48
0.01
100
AcDbCircle
 10
9638.87417921042
 20
4936.389699776995
 30
0.0
 40
2.0
100
AcDbArc
 50
270.0
 51
0.0
  0
ARC
  5
18AA1
330
747D
100
AcDbEntity
  8
部品1
 48
0.01
100
AcDbCircle
 10
9638.87417921042
 20
4967.889699776995
 30
0.0
 40
2.0
100
AcDbArc
 50
0.0
 51
90.0
  0
LINE
  5
18AA2
330
747D
100
AcDbEntity
  8
細線
100
AcDbLine
 10
9550.874179210419
 20
4940.389699776996
 30
0.0
 11
9476.874179210419
 21
4940.389699776996
 31
0.0
  0
LINE
  5
18AA3
330
747D
100
AcDbEntity
  8
細線
100
AcDbLine
 10
9550.874179210419
 20
4963.389699776995
 30
0.0
 11
9624.87417921042
 21
4963.389699776995
 31
0.0
  0
LINE
  5
18AA4
330
747D
100
AcDbEntity
  8
細線
100
AcDbLine
 10
9624.87417921042
 20
4940.389699776996
 30
0.0
 11
9550.874179210419
 21
4940.389699776996
 31
0.0
  0
LINE
  5
18AA5
330
747D
100
AcDbEntity
  8
細線
100
AcDbLine
 10
9476.874179210419
 20
4963.389699776995
 30
0.0
 11
9550.874179210419
 21
4963.389699776995
 31
0.0
  0
LINE
  5
18AA6
330
747D
100
AcDbEntity
  8
細線
100
AcDbLine
 10
9476.874179210419
 20
4940.389699776996
 30
0.0
 11
9476.874179210419
 21
4963.389699776995
 31
0.0
  0
LINE
  5
18AA7
330
747D
100
AcDbEntity
  8
細線
100
AcDbLine
 10
9624.87417921042
 20
4963.389699776995
 30
0.0
 11
9624.87417921042
 21
4940.389699776996
 31
0.0
  0
LINE
  5
18AA8
330
747D
100
AcDbEntity
  8
部品1
 48
0.01
100
AcDbLine
 10
9460.874179210419
 20
4936.389699776995
 30
0.0
 11
9460.874179210419
 21
4967.889699776995
 31
0.0
  0
LINE
  5
18AA9
330
747D
100
AcDbEntity
  8
部品1
 48
0.01
100
AcDbLine
 10
9638.87417921042
 20
4934.389699776995
 30
0.0
 11
9462.87417921042
 21
4934.389699776995
 31
0.0
  0
LINE
  5
18AAA
330
747D
100
AcDbEntity
  8
部品1
 48
0.01
100
AcDbLine
 10
9640.87417921042
 20
4967.889699776995
 30
0.0
 11
9640.87417921042
 21
4936.389699776995
 31
0.0
  0
LINE
  5
18AAB
330
747D
100
AcDbEntity
  8
部品1
 48
0.01
100
AcDbLine
 10
9462.87417921042
 20
4969.889699776995
 30
0.0
 11
9638.87417921042
 21
4969.889699776995
 31
0.0
  0
LINE
  5
18AAC
330
747D
100
AcDbEntity
  8
細線
100
AcDbLine
 10
9624.87417921042
 20
4957.389699776996
 30
0.0
 11
9550.874179210419
 21
4957.389699776996
 31
0.0
  0
LINE
  5
18AAD
330
747D
100
AcDbEntity
  8
細線
100
AcDbLine
 10
9624.87417921042
 20
4951.389699776996
 30
0.0
 11
9550.874179210419
 21
4951.389699776996
 31
0.0
  0
LINE
  5
18AAE
330
747D
100
AcDbEntity
  8
細線
100
AcDbLine
 10
9624.87417921042
 20
4945.389699776995
 30
0.0
 11
9550.874179210419
 21
4945.389699776995
 31
0.0
  0
LINE
  5
18AAF
330
747D
100
AcDbEntity
  8
細線
100
AcDbLine
 10
9624.87417921042
 20
4957.389699776996
 30
0.0
 11
9555.87417921042
 21
4957.389699776996
 31
0.0
  0
LINE
  5
18AB0
330
747D
100
AcDbEntity
  8
細線
100
AcDbLine
 10
9476.874179210419
 20
4957.389699776996
 30
0.0
 11
9550.874179210419
 21
4957.389699776996
 31
0.0
  0
LINE
  5
18AB1
330
747D
100
AcDbEntity
  8
細線
100
AcDbLine
 10
9476.874179210419
 20
4945.389699776995
 30
0.0
 11
9550.874179210419
 21
4945.389699776995
 31
0.0
  0
LINE
  5
18AB2
330
747D
100
AcDbEntity
  8
細線
100
AcDbLine
 10
9476.874179210419
 20
4951.389699776996
 30
0.0
 11
9550.874179210419
 21
4951.389699776996
 31
0.0
  0
LINE
  5
18AB3
330
747D
100
AcDbEntity
  8
細線
100
AcDbLine
 10
9550.874179210419
 20
4963.389699776995
 30
0.0
 11
9550.874179210419
 21
4940.389699776996
 31
0.0
  0
LINE
  5
18AB4
330
747D
100
AcDbEntity
  8
細線
100
AcDbLine
 10
8190.874179210402
 20
4963.389699776995
 30
0.0
 11
8190.8741792104
 21
4940.389699776996
 31
0.0
  0
LINE
  5
18AB5
330
747D
100
AcDbEntity
  8
細線
100
AcDbLine
 10
8264.8741792104
 20
4951.389699776996
 30
0.0
 11
8190.874179210402
 21
4951.389699776996
 31
0.0
  0
LINE
  5
18AB6
330
747D
100
AcDbEntity
  8
細線
100
AcDbLine
 10
8264.8741792104
 20
4945.389699776995
 30
0.0
 11
8190.874179210402
 21
4945.389699776995
 31
0.0
  0
LINE
  5
18AB7
330
747D
100
AcDbEntity
  8
細線
100
AcDbLine
 10
8264.8741792104
 20
4957.389699776996
 30
0.0
 11
8190.874179210402
 21
4957.389699776996
 31
0.0
  0
LINE
  5
18AB8
330
747D
100
AcDbEntity
  8
細線
100
AcDbLine
 10
8116.874179210402
 20
4957.389699776996
 30
0.0
 11
8185.874179210401
 21
4957.389699776996
 31
0.0
  0
LINE
  5
18AB9
330
747D
100
AcDbEntity
  8
細線
100
AcDbLine
 10
8116.8741792104
 20
4945.389699776995
 30
0.0
 11
8190.874179210402
 21
4945.389699776995
 31
0.0
  0
LINE
  5
18ABA
330
747D
100
AcDbEntity
  8
細線
100
AcDbLine
 10
8116.874179210402
 20
4951.389699776996
 30
0.0
 11
8190.874179210402
 21
4951.389699776996
 31
0.0
  0
LINE
  5
18ABB
330
747D
100
AcDbEntity
  8
細線
100
AcDbLine
 10
8116.874179210402
 20
4957.389699776996
 30
0.0
 11
8190.874179210402
 21
4957.389699776996
 31
0.0
  0
LINE
  5
18ABC
330
747D
100
AcDbEntity
  8
部品1
 48
0.01
100
AcDbLine
 10
8278.874179210401
 20
4969.889699776995
 30
0.0
 11
8102.874179210401
 21
4969.889699776995
 31
0.0
  0
LINE
  5
18ABD
330
747D
100
AcDbEntity
  8
部品1
 48
0.01
100
AcDbLine
 10
8100.874179210402
 20
4967.889699776995
 30
0.0
 11
8100.874179210402
 21
4936.389699776995
 31
0.0
  0
LINE
  5
18ABE
330
747D
100
AcDbEntity
  8
部品1
 48
0.01
100
AcDbLine
 10
8102.874179210401
 20
4934.389699776995
 30
0.0
 11
8278.874179210399
 21
4934.389699776995
 31
0.0
  0
LINE
  5
18ABF
330
747D
100
AcDbEntity
  8
部品1
 48
0.01
100
AcDbLine
 10
8280.874179210398
 20
4936.389699776995
 30
0.0
 11
8280.874179210401
 21
4967.889699776995
 31
0.0
  0
LINE
  5
18AC0
330
747D
100
AcDbEntity
  8
細線
100
AcDbLine
 10
8116.874179210402
 20
4963.389699776995
 30
0.0
 11
8116.874179210402
 21
4940.389699776996
 31
0.0
  0
LINE
  5
18AC1
330
747D
100
AcDbEntity
  8
細線
100
AcDbLine
 10
8264.874179210401
 20
4940.389699776996
 30
0.0
 11
8264.874179210401
 21
4963.389699776995
 31
0.0
  0
LINE
  5
18AC2
330
747D
100
AcDbEntity
  8
細線
100
AcDbLine
 10
8264.874179210401
 20
4963.389699776995
 30
0.0
 11
8190.874179210402
 21
4963.389699776995
 31
0.0
  0
LINE
  5
18AC3
330
747D
100
AcDbEntity
  8
細線
100
AcDbLine
 10
8116.874179210402
 20
4940.389699776996
 30
0.0
 11
8190.874179210402
 21
4940.389699776996
 31
0.0
  0
LINE
  5
18AC4
330
747D
100
AcDbEntity
  8
細線
100
AcDbLine
 10
8190.874179210402
 20
4963.389699776995
 30
0.0
 11
8116.874179210402
 21
4963.389699776995
 31
0.0
  0
LINE
  5
18AC5
330
747D
100
AcDbEntity
  8
細線
100
AcDbLine
 10
8190.8741792104
 20
4940.389699776996
 30
0.0
 11
8264.874179210401
 21
4940.389699776996
 31
0.0
  0
ARC
  5
18AC6
330
747D
100
AcDbEntity
  8
部品1
 48
0.01
100
AcDbCircle
 10
8102.874179210401
 20
4967.889699776995
 30
0.0
 40
2.0
100
AcDbArc
 50
90.0
 51
180.0
  0
ARC
  5
18AC7
330
747D
100
AcDbEntity
  8
部品1
 48
0.01
100
AcDbCircle
 10
8102.874179210401
 20
4936.389699776995
 30
0.0
 40
2.0
100
AcDbArc
 50
180.0
 51
270.0
  0
ARC
  5
18AC8
330
747D
100
AcDbEntity
  8
部品1
 48
0.01
100
AcDbCircle
 10
8278.874179210401
 20
4967.889699776995
 30
0.0
 40
2.0
100
AcDbArc
 50
0.0
 51
90.0
  0
ARC
  5
18AC9
330
747D
100
AcDbEntity
  8
部品1
 48
0.01
100
AcDbCircle
 10
8278.874179210399
 20
4936.389699776995
 30
0.0
 40
2.0
100
AcDbArc
 50
270.0
 51
0.0
  0
LINE
  5
18ACA
330
747D
100
AcDbEntity
  8
部品1
100
AcDbLine
 10
4854.874179210398
 20
4895.889699776997
 30
0.0
 11
4854.874179210398
 21
3120.38969977701
 31
0.0
  0
LINE
  5
18ACB
330
747D
100
AcDbEntity
  8
細線
100
AcDbLine
 10
4100.874179210401
 20
4895.889699776995
 30
0.0
 11
4100.874179210401
 21
3112.889699777003
 31
0.0
  0
LINE
  5
18ACC
330
747D
100
AcDbEntity
  8
細線
100
AcDbLine
 10
4030.874179210401
 20
4895.889699776995
 30
0.0
 11
4030.874179210401
 21
3112.889699777003
 31
0.0
  0
LINE
  5
18ACD
330
747D
100
AcDbEntity
  8
細線
100
AcDbLine
 10
3960.874179210401
 20
4895.889699776995
 30
0.0
 11
3960.874179210401
 21
3112.889699777001
 31
0.0
  0
LINE
  5
18ACE
330
747D
100
AcDbEntity
  8
細線
100
AcDbLine
 10
3890.874179210401
 20
4895.889699776995
 30
0.0
 11
3890.874179210401
 21
3112.889699776999
 31
0.0
  0
LINE
  5
18ACF
330
747D
100
AcDbEntity
  8
細線
100
AcDbLine
 10
3820.874179210401
 20
4895.889699776995
 30
0.0
 11
3820.874179210401
 21
3112.889699776999
 31
0.0
  0
LINE
  5
18AD0
330
747D
100
AcDbEntity
  8
細線
100
AcDbLine
 10
3750.874179210401
 20
4895.889699776995
 30
0.0
 11
3750.874179210401
 21
3112.889699776999
 31
0.0
  0
LINE
  5
18AD1
330
747D
100
AcDbEntity
  8
部品1
100
AcDbLine
 10
3566.8741792104
 20
4895.889699776999
 30
0.0
 11
3566.8741792104
 21
3112.889699777001
 31
0.0
  0
LINE
  5
18AD2
330
747D
100
AcDbEntity
  8
部品1
100
AcDbLine
 10
3516.874179210399
 20
4895.889699776999
 30
0.0
 11
3516.874179210399
 21
3112.889699777001
 31
0.0
  0
LINE
  5
18AD3
330
747D
100
AcDbEntity
  8
細線
100
AcDbLine
 10
3558.8741792104
 20
4895.889699776999
 30
0.0
 11
3558.8741792104
 21
3112.889699777001
 31
0.0
  0
LINE
  5
18AD4
330
747D
100
AcDbEntity
  8
細線
100
AcDbLine
 10
3524.874179210399
 20
4895.889699776999
 30
0.0
 11
3524.874179210399
 21
3112.889699777001
 31
0.0
  0
LINE
  5
18AD5
330
747D
100
AcDbEntity
  8
細線
100
AcDbLine
 10
4752.374179210398
 20
4895.889699776995
 30
0.0
 11
4752.374179210398
 21
3120.389699777008
 31
0.0
  0
LINE
  5
18AD6
330
747D
100
AcDbEntity
  8
細線
100
AcDbLine
 10
4682.374179210397
 20
4895.889699776995
 30
0.0
 11
4682.374179210397
 21
4250.817525087208
 31
0.0
  0
LINE
  5
18AD7
330
747D
100
AcDbEntity
  8
細線
100
AcDbLine
 10
4612.374179210397
 20
4895.889699776995
 30
0.0
 11
4612.374179210397
 21
4256.941731534022
 31
0.0
  0
LINE
  5
18AD8
330
747D
100
AcDbEntity
  8
細線
100
AcDbLine
 10
4542.374179210397
 20
4895.889699776995
 30
0.0
 11
4542.374179210397
 21
4263.065937980837
 31
0.0
  0
LINE
  5
18AD9
330
747D
100
AcDbEntity
  8
細線
100
AcDbLine
 10
4472.374179210397
 20
4895.889699776995
 30
0.0
 11
4472.374179210397
 21
4269.190144427652
 31
0.0
  0
LINE
  5
18ADA
330
747D
100
AcDbEntity
  8
細線
100
AcDbLine
 10
4402.374179210397
 20
4895.889699776995
 30
0.0
 11
4402.374179210398
 21
4464.635980846823
 31
0.0
  0
LINE
  5
18ADB
330
747D
100
AcDbEntity
  8
細線
100
AcDbLine
 10
5364.874179210385
 20
4895.889699776995
 30
0.0
 11
5364.874179210385
 21
3120.389699777013
 31
0.0
  0
LINE
  5
18ADC
330
747D
100
AcDbEntity
  8
細線
100
AcDbLine
 10
5294.874179210385
 20
4895.889699776995
 30
0.0
 11
5294.874179210385
 21
3120.389699777013
 31
0.0
  0
LINE
  5
18ADD
330
747D
100
AcDbEntity
  8
細線
100
AcDbLine
 10
5224.874179210384
 20
4895.889699776995
 30
0.0
 11
5224.874179210384
 21
3120.389699777013
 31
0.0
  0
LINE
  5
18ADE
330
747D
100
AcDbEntity
  8
細線
100
AcDbLine
 10
5154.874179210384
 20
4895.889699776995
 30
0.0
 11
5154.874179210384
 21
3120.389699777013
 31
0.0
  0
LINE
  5
18ADF
330
747D
100
AcDbEntity
  8
細線
100
AcDbLine
 10
5084.874179210385
 20
4895.889699776995
 30
0.0
 11
5084.874179210385
 21
3120.389699777013
 31
0.0
  0
LINE
  5
18AE0
330
747D
100
AcDbEntity
  8
細線
100
AcDbLine
 10
5014.874179210385
 20
4895.889699776995
 30
0.0
 11
5014.874179210385
 21
3120.389699777013
 31
0.0
  0
LINE
  5
18AE4
330
747D
100
AcDbEntity
  8
部品1
 48
50.0
100
AcDbLine
 10
3440.8741792104
 20
4069.389699777006
 30
0.0
 11
3493.874179210399
 21
4069.389699777006
 31
0.0
  0
LINE
  5
18AFE
330
747D
100
AcDbEntity
  8
部品1
100
AcDbLine
 10
4200.8741792104
 20
4895.889699776999
 30
0.0
 11
4200.8741792104
 21
4036.695582538913
 31
0.0
  0
LINE
  5
18AFF
330
747D
100
AcDbEntity
  8
細線
100
AcDbLine
 10
3680.8741792104
 20
4895.889699776995
 30
0.0
 11
3680.8741792104
 21
3112.889699776999
 31
0.0
  0
LINE
  5
18B00
330
747D
100
AcDbEntity
  8
細線
100
AcDbLine
 10
3610.874179210399
 20
4895.889699776995
 30
0.0
 11
3610.874179210399
 21
3112.889699776999
 31
0.0
  0
LINE
  5
18B01
330
747D
100
AcDbEntity
  8
細線
100
AcDbLine
 10
4332.374179210397
 20
4895.889699776995
 30
0.0
 11
4332.374179210398
 21
4861.625708220062
 31
0.0
  0
LINE
  5
18B02
330
747D
100
AcDbEntity
  8
細線
100
AcDbLine
 10
4262.374179210397
 20
4895.889699776995
 30
0.0
 11
4262.374179210397
 21
4065.373503515443
 31
0.0
  0
LINE
  5
18B03
330
747D
100
AcDbEntity
  8
細線
100
AcDbLine
 10
5434.874179210385
 20
4895.889699776995
 30
0.0
 11
5434.874179210385
 21
3120.389699777013
 31
0.0
  0
LINE
  5
18B04
330
747D
100
AcDbEntity
  8
細線
100
AcDbLine
 10
4944.874179210384
 20
4895.889699776995
 30
0.0
 11
4944.874179210384
 21
3120.389699777013
 31
0.0
  0
LINE
  5
18B05
330
747D
100
AcDbEntity
  8
部品1
100
AcDbLine
 10
4200.8741792104
 20
3120.389699777003
 30
0.0
 11
4608.938268923446
 21
3120.389699777008
 31
0.0
  0
LINE
  5
18B06
330
747D
100
AcDbEntity
  8
部品1
100
AcDbLine
 10
3405.8741792104
 20
3112.889699776995
 30
0.0
 11
4200.8741792104
 21
3112.889699777003
 31
0.0
  0
LINE
  5
18B07
330
747D
100
AcDbEntity
  8
細線
100
AcDbLine
 10
3405.8741792104
 20
4895.889699776999
 30
0.0
 11
4295.869714675569
 21
4895.889699776998
 31
0.0
  0
LINE
  5
18B08
330
747D
100
AcDbEntity
  8
部品1
100
AcDbLine
 10
7064.874179210398
 20
4895.889699776997
 30
0.0
 11
7064.874179210398
 21
3120.38969977701
 31
0.0
  0
LINE
  5
18B09
330
747D
100
AcDbEntity
  8
細線
100
AcDbLine
 10
6310.874179210401
 20
4895.889699776995
 30
0.0
 11
6310.874179210401
 21
3112.889699777003
 31
0.0
  0
LINE
  5
18B0A
330
747D
100
AcDbEntity
  8
細線
100
AcDbLine
 10
6240.8741792104
 20
4895.889699776995
 30
0.0
 11
6240.8741792104
 21
3112.889699777003
 31
0.0
  0
LINE
  5
18B0B
330
747D
100
AcDbEntity
  8
細線
100
AcDbLine
 10
6170.874179210401
 20
4895.889699776995
 30
0.0
 11
6170.874179210401
 21
3112.889699777001
 31
0.0
  0
LINE
  5
18B0C
330
747D
100
AcDbEntity
  8
細線
100
AcDbLine
 10
6100.874179210401
 20
4895.889699776995
 30
0.0
 11
6100.874179210401
 21
3112.889699776999
 31
0.0
  0
LINE
  5
18B0D
330
747D
100
AcDbEntity
  8
細線
100
AcDbLine
 10
6030.874179210401
 20
4895.889699776995
 30
0.0
 11
6030.874179210401
 21
3112.889699776999
 31
0.0
  0
LINE
  5
18B0E
330
747D
100
AcDbEntity
  8
細線
100
AcDbLine
 10
5960.874179210401
 20
4895.889699776995
 30
0.0
 11
5960.874179210401
 21
3112.889699776999
 31
0.0
  0
LINE
  5
18B0F
330
747D
100
AcDbEntity
  8
部品1
100
AcDbLine
 10
5776.874179210399
 20
4895.889699776999
 30
0.0
 11
5776.874179210401
 21
3112.889699777001
 31
0.0
  0
LINE
  5
18B10
330
747D
100
AcDbEntity
  8
部品1
100
AcDbLine
 10
5726.874179210399
 20
4895.889699776999
 30
0.0
 11
5726.874179210401
 21
3112.889699777001
 31
0.0
  0
LINE
  5
18B11
330
747D
100
AcDbEntity
  8
細線
100
AcDbLine
 10
5768.874179210399
 20
4895.889699776999
 30
0.0
 11
5768.874179210401
 21
3112.889699777001
 31
0.0
  0
LINE
  5
18B12
330
747D
100
AcDbEntity
  8
細線
100
AcDbLine
 10
5734.874179210399
 20
4895.889699776999
 30
0.0
 11
5734.874179210401
 21
3112.889699777001
 31
0.0
  0
LINE
  5
18B13
330
747D
100
AcDbEntity
  8
細線
100
AcDbLine
 10
6962.374179210397
 20
4895.889699776995
 30
0.0
 11
6962.374179210397
 21
3120.389699777008
 31
0.0
  0
LINE
  5
18B14
330
747D
100
AcDbEntity
  8
細線
100
AcDbLine
 10
6892.374179210398
 20
4895.889699776995
 30
0.0
 11
6892.374179210398
 21
3120.389699777008
 31
0.0
  0
LINE
  5
18B15
330
747D
100
AcDbEntity
  8
細線
100
AcDbLine
 10
6822.374179210398
 20
4895.889699776995
 30
0.0
 11
6822.374179210398
 21
3120.389699777008
 31
0.0
  0
LINE
  5
18B16
330
747D
100
AcDbEntity
  8
細線
100
AcDbLine
 10
6752.374179210398
 20
4895.889699776995
 30
0.0
 11
6752.374179210398
 21
3120.389699777008
 31
0.0
  0
LINE
  5
18B17
330
747D
100
AcDbEntity
  8
細線
100
AcDbLine
 10
6682.374179210397
 20
4895.889699776995
 30
0.0
 11
6682.374179210397
 21
3120.389699777008
 31
0.0
  0
LINE
  5
18B18
330
747D
100
AcDbEntity
  8
細線
100
AcDbLine
 10
6612.374179210397
 20
4895.889699776995
 30
0.0
 11
6612.374179210397
 21
3120.389699777008
 31
0.0
  0
LINE
  5
18B19
330
747D
100
AcDbEntity
  8
細線
100
AcDbLine
 10
7574.874179210384
 20
4895.889699776995
 30
0.0
 11
7574.874179210384
 21
3120.389699777013
 31
0.0
  0
LINE
  5
18B1A
330
747D
100
AcDbEntity
  8
細線
100
AcDbLine
 10
7504.874179210386
 20
4895.889699776995
 30
0.0
 11
7504.874179210386
 21
3120.389699777013
 31
0.0
  0
LINE
  5
18B1B
330
747D
100
AcDbEntity
  8
細線
100
AcDbLine
 10
7434.874179210385
 20
4895.889699776995
 30
0.0
 11
7434.874179210385
 21
3120.389699777013
 31
0.0
  0
LINE
  5
18B1C
330
747D
100
AcDbEntity
  8
細線
100
AcDbLine
 10
7364.874179210385
 20
4895.889699776995
 30
0.0
 11
7364.874179210385
 21
3120.389699777013
 31
0.0
  0
LINE
  5
18B1D
330
747D
100
AcDbEntity
  8
細線
100
AcDbLine
 10
7294.874179210385
 20
4895.889699776995
 30
0.0
 11
7294.874179210385
 21
3120.389699777013
 31
0.0
  0
LINE
  5
18B1E
330
747D
100
AcDbEntity
  8
細線
100
AcDbLine
 10
7224.874179210384
 20
4895.889699776995
 30
0.0
 11
7224.874179210384
 21
3120.389699777013
 31
0.0
  0
LINE
  5
18B22
330
747D
100
AcDbEntity
  8
部品1
 48
50.0
100
AcDbLine
 10
5650.874179210401
 20
4069.389699777006
 30
0.0
 11
5703.874179210401
 21
4069.389699777006
 31
0.0
  0
LINE
  5
18B3C
330
747D
100
AcDbEntity
  8
部品1
100
AcDbLine
 10
6410.874179210401
 20
4895.889699776999
 30
0.0
 11
6410.874179210401
 21
3112.889699777003
 31
0.0
  0
LINE
  5
18B3D
330
747D
100
AcDbEntity
  8
細線
100
AcDbLine
 10
5890.874179210401
 20
4895.889699776995
 30
0.0
 11
5890.874179210401
 21
3112.889699776999
 31
0.0
  0
LINE
  5
18B3E
330
747D
100
AcDbEntity
  8
細線
100
AcDbLine
 10
5820.874179210401
 20
4895.889699776995
 30
0.0
 11
5820.874179210401
 21
3112.889699776999
 31
0.0
  0
LINE
  5
18B3F
330
747D
100
AcDbEntity
  8
細線
100
AcDbLine
 10
6542.374179210398
 20
4895.889699776995
 30
0.0
 11
6542.374179210398
 21
3120.389699777008
 31
0.0
  0
LINE
  5
18B40
330
747D
100
AcDbEntity
  8
細線
100
AcDbLine
 10
6472.374179210397
 20
4895.889699776995
 30
0.0
 11
6472.374179210397
 21
3120.389699777008
 31
0.0
  0
LINE
  5
18B41
330
747D
100
AcDbEntity
  8
細線
100
AcDbLine
 10
7644.874179210384
 20
4895.889699776995
 30
0.0
 11
7644.874179210384
 21
3120.389699777013
 31
0.0
  0
LINE
  5
18B42
330
747D
100
AcDbEntity
  8
細線
100
AcDbLine
 10
7154.874179210385
 20
4895.889699776995
 30
0.0
 11
7154.874179210385
 21
3120.389699777013
 31
0.0
  0
LINE
  5
18B43
330
747D
100
AcDbEntity
  8
部品1
100
AcDbLine
 10
6410.874179210401
 20
3120.389699777003
 30
0.0
 11
7705.87417921042
 21
3120.389699777017
 31
0.0
  0
LINE
  5
18B44
330
747D
100
AcDbEntity
  8
部品1
100
AcDbLine
 10
5615.8741792104
 20
3112.889699776995
 30
0.0
 11
6410.874179210401
 21
3112.889699777003
 31
0.0
  0
LINE
  5
18B45
330
747D
100
AcDbEntity
  8
細線
100
AcDbLine
 10
5615.8741792104
 20
4895.889699776999
 30
0.0
 11
7705.874179210417
 21
4895.889699776995
 31
0.0
  0
LINE
  5
18B46
330
747D
100
AcDbEntity
  8
部品1
100
AcDbLine
 10
9274.874179210398
 20
4895.889699776997
 30
0.0
 11
9274.874179210398
 21
3120.38969977701
 31
0.0
  0
LINE
  5
18B47
330
747D
100
AcDbEntity
  8
細線
100
AcDbLine
 10
8520.8741792104
 20
4895.889699776995
 30
0.0
 11
8520.8741792104
 21
3112.889699777003
 31
0.0
  0
LINE
  5
18B48
330
747D
100
AcDbEntity
  8
細線
100
AcDbLine
 10
8450.874179210401
 20
4895.889699776995
 30
0.0
 11
8450.874179210401
 21
3112.889699777003
 31
0.0
  0
LINE
  5
18B49
330
747D
100
AcDbEntity
  8
細線
100
AcDbLine
 10
8380.874179210401
 20
4895.889699776995
 30
0.0
 11
8380.874179210401
 21
3112.889699777001
 31
0.0
  0
LINE
  5
18B4A
330
747D
100
AcDbEntity
  8
細線
100
AcDbLine
 10
8310.874179210401
 20
4895.889699776995
 30
0.0
 11
8310.874179210401
 21
3112.889699776999
 31
0.0
  0
LINE
  5
18B4B
330
747D
100
AcDbEntity
  8
細線
100
AcDbLine
 10
8240.8741792104
 20
4895.889699776995
 30
0.0
 11
8240.8741792104
 21
3112.889699776999
 31
0.0
  0
LINE
  5
18B4C
330
747D
100
AcDbEntity
  8
細線
100
AcDbLine
 10
8170.8741792104
 20
4895.889699776995
 30
0.0
 11
8170.8741792104
 21
3112.889699776999
 31
0.0
  0
LINE
  5
18B4D
330
747D
100
AcDbEntity
  8
部品1
100
AcDbLine
 10
7986.874179210399
 20
4895.889699776999
 30
0.0
 11
7986.874179210402
 21
3112.889699777001
 31
0.0
  0
LINE
  5
18B4E
330
747D
100
AcDbEntity
  8
部品1
100
AcDbLine
 10
7936.874179210398
 20
4895.889699776999
 30
0.0
 11
7936.874179210402
 21
3112.889699777001
 31
0.0
  0
LINE
  5
18B4F
330
747D
100
AcDbEntity
  8
細線
100
AcDbLine
 10
7978.874179210399
 20
4895.889699776999
 30
0.0
 11
7978.8741792104
 21
3112.889699777001
 31
0.0
  0
LINE
  5
18B50
330
747D
100
AcDbEntity
  8
細線
100
AcDbLine
 10
7944.874179210398
 20
4895.889699776999
 30
0.0
 11
7944.874179210401
 21
3112.889699777001
 31
0.0
  0
LINE
  5
18B51
330
747D
100
AcDbEntity
  8
細線
100
AcDbLine
 10
9172.374179210398
 20
4895.889699776995
 30
0.0
 11
9172.374179210398
 21
3120.389699777008
 31
0.0
  0
LINE
  5
18B52
330
747D
100
AcDbEntity
  8
細線
100
AcDbLine
 10
9102.374179210398
 20
4895.889699776995
 30
0.0
 11
9102.374179210398
 21
3120.389699777008
 31
0.0
  0
LINE
  5
18B53
330
747D
100
AcDbEntity
  8
細線
100
AcDbLine
 10
9032.374179210398
 20
4895.889699776995
 30
0.0
 11
9032.374179210398
 21
3120.389699777008
 31
0.0
  0
LINE
  5
18B54
330
747D
100
AcDbEntity
  8
細線
100
AcDbLine
 10
8962.374179210398
 20
4895.889699776995
 30
0.0
 11
8962.374179210398
 21
3120.389699777008
 31
0.0
  0
LINE
  5
18B55
330
747D
100
AcDbEntity
  8
細線
100
AcDbLine
 10
8892.374179210397
 20
4895.889699776995
 30
0.0
 11
8892.374179210397
 21
3120.389699777008
 31
0.0
  0
LINE
  5
18B56
330
747D
100
AcDbEntity
  8
細線
100
AcDbLine
 10
8822.374179210397
 20
4895.889699776995
 30
0.0
 11
8822.374179210397
 21
3120.389699777008
 31
0.0
  0
LINE
  5
18B57
330
747D
100
AcDbEntity
  8
細線
100
AcDbLine
 10
9784.874179210385
 20
4895.889699776995
 30
0.0
 11
9784.874179210385
 21
3120.389699777013
 31
0.0
  0
LINE
  5
18B58
330
747D
100
AcDbEntity
  8
細線
100
AcDbLine
 10
9714.874179210385
 20
4895.889699776995
 30
0.0
 11
9714.874179210385
 21
3120.389699777013
 31
0.0
  0
LINE
  5
18B59
330
747D
100
AcDbEntity
  8
細線
100
AcDbLine
 10
9644.874179210384
 20
4895.889699776995
 30
0.0
 11
9644.874179210384
 21
3120.389699777013
 31
0.0
  0
LINE
  5
18B5A
330
747D
100
AcDbEntity
  8
細線
100
AcDbLine
 10
9574.874179210384
 20
4895.889699776995
 30
0.0
 11
9574.874179210384
 21
3120.389699777013
 31
0.0
  0
LINE
  5
18B5B
330
747D
100
AcDbEntity
  8
細線
100
AcDbLine
 10
9504.874179210386
 20
4895.889699776995
 30
0.0
 11
9504.874179210386
 21
3120.389699777013
 31
0.0
  0
LINE
  5
18B5C
330
747D
100
AcDbEntity
  8
細線
100
AcDbLine
 10
9434.874179210385
 20
4895.889699776995
 30
0.0
 11
9434.874179210385
 21
3120.389699777013
 31
0.0
  0
LINE
  5
18B60
330
747D
100
AcDbEntity
  8
部品1
 48
50.0
100
AcDbLine
 10
7860.874179210401
 20
4069.389699777006
 30
0.0
 11
7913.874179210401
 21
4069.389699777006
 31
0.0
  0
LINE
  5
18B7A
330
747D
100
AcDbEntity
  8
部品1
100
AcDbLine
 10
8620.874179210401
 20
4895.889699776999
 30
0.0
 11
8620.874179210401
 21
3112.889699777003
 31
0.0
  0
LINE
  5
18B7B
330
747D
100
AcDbEntity
  8
細線
100
AcDbLine
 10
8100.874179210402
 20
4895.889699776995
 30
0.0
 11
8100.874179210402
 21
3112.889699776999
 31
0.0
  0
LINE
  5
18B7C
330
747D
100
AcDbEntity
  8
細線
100
AcDbLine
 10
8030.874179210401
 20
4895.889699776995
 30
0.0
 11
8030.874179210401
 21
3112.889699776999
 31
0.0
  0
LINE
  5
18B7D
330
747D
100
AcDbEntity
  8
細線
100
AcDbLine
 10
8752.374179210397
 20
4895.889699776995
 30
0.0
 11
8752.374179210397
 21
3120.389699777008
 31
0.0
  0
LINE
  5
18B7E
330
747D
100
AcDbEntity
  8
細線
100
AcDbLine
 10
8682.374179210397
 20
4895.889699776995
 30
0.0
 11
8682.374179210397
 21
3120.389699777008
 31
0.0
  0
LINE
  5
18B7F
330
747D
100
AcDbEntity
  8
細線
100
AcDbLine
 10
9854.874179210385
 20
4895.889699776995
 30
0.0
 11
9854.874179210385
 21
3120.389699777013
 31
0.0
  0
LINE
  5
18B80
330
747D
100
AcDbEntity
  8
細線
100
AcDbLine
 10
9364.874179210385
 20
4895.889699776995
 30
0.0
 11
9364.874179210385
 21
3120.389699777013
 31
0.0
  0
LINE
  5
18B81
330
747D
100
AcDbEntity
  8
部品1
100
AcDbLine
 10
8620.874179210401
 20
3120.389699777003
 30
0.0
 11
9915.874179210419
 21
3120.389699777017
 31
0.0
  0
LINE
  5
18B82
330
747D
100
AcDbEntity
  8
部品1
100
AcDbLine
 10
7825.874179210401
 20
3112.889699776995
 30
0.0
 11
8620.874179210401
 21
3112.889699777003
 31
0.0
  0
LINE
  5
18B83
330
747D
100
AcDbEntity
  8
細線
100
AcDbLine
 10
7825.874179210401
 20
4895.889699776999
 30
0.0
 11
9915.874179210419
 21
4895.889699776995
 31
0.0
  0
LINE
  5
18DDE
330
747D
100
AcDbEntity
  8
細線
100
AcDbLine
 10
4326.332513032142
 20
4895.889699776999
 30
0.0
 11
5495.874179210417
 21
4895.889699776995
 31
0.0
  0
LINE
  5
18DDF
330
747D
100
AcDbEntity
  8
細線
100
AcDbLine
 10
4332.374179210397
 20
4688.862593725742
 30
0.0
 11
4332.374179210396
 21
4098.015039586292
 31
0.0
  0
LINE
  5
18DE0
330
747D
100
AcDbEntity
  8
細線
100
AcDbLine
 10
4402.374179210397
 20
4291.872866352501
 30
0.0
 11
4402.374179210396
 21
4130.656575657143
 31
0.0
  0
LINE
  5
18DE1
330
747D
100
AcDbEntity
  8
細線
100
AcDbLine
 10
4472.374179210397
 20
4239.075549301354
 30
0.0
 11
4472.374179210397
 21
4163.298111727992
 31
0.0
  0
LINE
  5
18DE2
330
747D
100
AcDbEntity
  8
細線
100
AcDbLine
 10
4542.374179210397
 20
4232.951342854538
 30
0.0
 11
4542.374179210397
 21
4195.939647798843
 31
0.0
  0
LINE
  5
18DE3
330
747D
100
AcDbEntity
  8
細線
100
AcDbLine
 10
4612.374179210397
 20
4195.479846300817
 30
0.0
 11
4612.374179210397
 21
3273.666798727096
 31
0.0
  0
LINE
  5
18DE4
330
747D
100
AcDbEntity
  8
細線
100
AcDbLine
 10
4682.374179210397
 20
4228.121382371667
 30
0.0
 11
4682.374179210397
 21
3120.389699777008
 31
0.0
  0
LINE
  5
18DE5
330
747D
100
AcDbEntity
  8
細線
100
AcDbLine
 10
4542.374179210397
 20
4162.838310229967
 30
0.0
 11
4542.374179210397
 21
3670.656526100336
 31
0.0
  0
LINE
  5
18DE6
330
747D
100
AcDbEntity
  8
細線
100
AcDbLine
 10
4472.374179210397
 20
4130.196774159117
 30
0.0
 11
4472.374179210397
 21
4024.556232588497
 31
0.0
  0
LINE
  5
18DE7
330
747D
100
AcDbEntity
  8
細線
100
AcDbLine
 10
4402.374179210396
 20
4097.555238088267
 30
0.0
 11
4402.374179210397
 21
4030.680439035313
 31
0.0
  0
LINE
  5
18DE8
330
747D
100
AcDbEntity
  8
細線
100
AcDbLine
 10
4332.374179210396
 20
4064.913702017416
 30
0.0
 11
4332.374179210396
 21
4036.804645482129
 31
0.0
  0
LINE
  5
18DE9
330
747D
100
AcDbEntity
  8
細線
100
AcDbLine
 10
4262.374179210397
 20
4012.814256802642
 30
0.0
 11
4262.374179210397
 21
3120.389699777008
 31
0.0
  0
LINE
  5
18DEA
330
747D
100
AcDbEntity
  8
部品1
100
AcDbLine
 10
4200.8741792104
 20
4018.194809609488
 30
0.0
 11
4200.8741792104
 21
3112.889699777003
 31
0.0
  0
LINE
  5
18DEB
330
747D
100
AcDbEntity
  8
細線
100
AcDbLine
 10
4332.374179210396
 20
4006.690050355827
 30
0.0
 11
4332.374179210397
 21
3120.389699777008
 31
0.0
  0
LINE
  5
18DEC
330
747D
100
AcDbEntity
  8
細線
100
AcDbLine
 10
4402.374179210396
 20
4000.565843909012
 30
0.0
 11
4402.374179210397
 21
3120.389699777008
 31
0.0
  0
LINE
  5
18DED
330
747D
100
AcDbEntity
  8
細線
100
AcDbLine
 10
4472.374179210397
 20
3894.883138979262
 30
0.0
 11
4472.374179210397
 21
3120.389699777008
 31
0.0
  0
LINE
  5
18DEE
330
747D
100
AcDbEntity
  8
細線
100
AcDbLine
 10
4542.374179210397
 20
3497.893411606025
 30
0.0
 11
4542.374179210397
 21
3120.389699777008
 31
0.0
  0
LINE
  5
18DEF
330
747D
100
AcDbEntity
  8
部品1
100
AcDbLine
 10
4639.401067280018
 20
3120.389699777008
 30
0.0
 11
5495.874179210419
 21
3120.389699777017
 31
0.0
  0
LINE
  5
1974A
330
747D
100
AcDbEntity
  8
破線
 48
10.0
100
AcDbLine
 10
4130.374179210457
 20
7827.396058145018
 30
0.0
 11
4130.374179210459
 21
8202.613075600757
 31
0.0
  0
LINE
  5
1974B
330
747D
100
AcDbEntity
  8
破線
 48
10.0
100
AcDbLine
 10
4080.374179210461
 20
7827.396058145016
 30
0.0
 11
4080.374179210459
 21
8316.689245573423
 31
0.0
  0
LINE
  5
1974C
330
747D
100
AcDbEntity
  8
破線
 48
10.0
100
AcDbLine
 10
4771.374179210461
 20
7827.396058145048
 30
0.0
 11
4771.374179210459
 21
8586.896058145274
 31
0.0
  0
LINE
  5
1974D
330
747D
100
AcDbEntity
  8
破線
 48
10.0
100
AcDbLine
 10
4821.374179210459
 20
7827.396058145051
 30
0.0
 11
4821.374179210462
 21
8586.896058145269
 31
0.0
  0
LINE
  5
1974E
330
747D
100
AcDbEntity
  8
破線
 48
10.0
100
AcDbLine
 10
4080.374179210461
 20
7850.896058145015
 30
0.0
 11
3425.874179210412
 21
7850.896058144984
 31
0.0
  0
LINE
  5
1974F
330
747D
100
AcDbEntity
  8
破線
 48
10.0
100
AcDbLine
 10
4130.37417921046
 20
8342.429407523429
 30
0.0
 11
4130.37417921046
 21
8449.075947688708
 31
0.0
  0
LINE
  5
19750
330
747D
100
AcDbEntity
  8
破線
 48
10.0
100
AcDbLine
 10
4080.374179210458
 20
8346.803840699722
 30
0.0
 11
4080.374179210458
 21
8425.760564780958
 31
0.0
  0
LINE
  5
19751
330
747D
100
AcDbEntity
  8
破線
 48
10.0
100
AcDbLine
 10
4080.374179210459
 20
8458.861902349834
 30
0.0
 11
4080.374179210457
 21
8561.323157412578
 31
0.0
  0
LINE
  5
19752
330
747D
100
AcDbEntity
  8
破線
 48
10.0
100
AcDbLine
 10
4130.374179210461
 20
8482.177285257584
 30
0.0
 11
4130.374179210461
 21
8556.948724236281
 31
0.0
  0
LINE
  5
19753
330
747D
100
AcDbEntity
  8
破線
 48
10.0
100
AcDbLine
 10
6340.374179210423
 20
7827.396058145149
 30
0.0
 11
6340.374179210426
 21
8586.896058145175
 31
0.0
  0
LINE
  5
19754
330
747D
100
AcDbEntity
  8
破線
 48
10.0
100
AcDbLine
 10
6290.374179210426
 20
7827.396058145147
 30
0.0
 11
6290.374179210423
 21
8586.896058145169
 31
0.0
  0
LINE
  5
19755
330
747D
100
AcDbEntity
  8
破線
 48
10.0
100
AcDbLine
 10
6981.374179210425
 20
7827.396058145179
 30
0.0
 11
6981.374179210425
 21
8586.89605814524
 31
0.0
  0
LINE
  5
19756
330
747D
100
AcDbEntity
  8
破線
 48
10.0
100
AcDbLine
 10
7031.374179210425
 20
7827.39605814518
 30
0.0
 11
7031.374179210428
 21
8586.896058145235
 31
0.0
  0
LINE
  5
19757
330
747D
100
AcDbEntity
  8
破線
 48
10.0
100
AcDbLine
 10
6290.374179210427
 20
7850.896058145146
 30
0.0
 11
5635.874179210394
 21
7850.896058145114
 31
0.0
  0
LINE
  5
19758
330
747D
100
AcDbEntity
  8
破線
 48
10.0
100
AcDbLine
 10
9241.374179210426
 20
7827.396058145215
 30
0.0
 11
9241.37417921043
 21
8586.896058145269
 31
0.0
  0
LINE
  5
19759
330
747D
100
AcDbEntity
  8
破線
 48
10.0
100
AcDbLine
 10
9191.374179210425
 20
7827.396058145213
 30
0.0
 11
9191.374179210425
 21
8586.896058145274
 31
0.0
  0
LINE
  5
1975A
330
747D
100
AcDbEntity
  8
破線
 48
10.0
100
AcDbLine
 10
8500.374179210426
 20
7827.396058145182
 30
0.0
 11
8500.374179210423
 21
8586.896058145205
 31
0.0
  0
LINE
  5
1975B
330
747D
100
AcDbEntity
  8
破線
 48
10.0
100
AcDbLine
 10
8550.374179210423
 20
7827.396058145184
 30
0.0
 11
8550.374179210427
 21
8586.896058145208
 31
0.0
  0
LINE
  5
1975C
330
747D
100
AcDbEntity
  8
破線
 48
10.0
100
AcDbLine
 10
8500.374179210428
 20
7850.89605814518
 30
0.0
 11
7845.874179210394
 21
7850.896058145149
 31
0.0
  0
LWPOLYLINE
  5
197A8
330
747D
100
AcDbEntity
  8
部品1
 48
50.0
100
AcDbPolyline
 90
        4
 70
     1
 43
0.0
 10
3465.924179210399
 20
3984.139699777006
 10
3468.8241792104
 20
3984.139699777006
 10
3468.8241792104
 20
3993.639699777006
 10
3465.924179210399
 20
3993.639699777006
  0
CIRCLE
  5
197A9
330
747D
100
AcDbEntity
  8
部品1
 48
50.0
100
AcDbCircle
 10
3467.3741792104
 20
3988.889699777006
 30
0.0
 40
9.0
  0
ARC
  5
197AA
330
747D
100
AcDbEntity
  8
細線
 48
50.0
100
AcDbCircle
 10
3467.3741792104
 20
3988.889699777006
 30
0.0
 40
4.0
100
AcDbArc
 50
111.2538091853375
 51
248.7461908146625
  0
ARC
  5
197AB
330
747D
100
AcDbEntity
  8
細線
 48
50.0
100
AcDbCircle
 10
3467.3741792104
 20
3988.889699777006
 30
0.0
 40
17.5
100
AcDbArc
 50
306.4837370612677
 51
233.5162629387323
  0
LINE
  5
197AC
330
747D
100
AcDbEntity
  8
細線
 48
50.0
100
AcDbLine
 10
3477.374179210396
 20
3965.030739196123
 30
0.0
 11
3477.374179210399
 21
3974.015224996365
 31
0.0
  0
LINE
  5
197AD
330
747D
100
AcDbEntity
  8
細線
 48
50.0
100
AcDbLine
 10
3457.3741792104
 20
3965.030739196125
 30
0.0
 11
3457.3741792104
 21
3974.015224996362
 31
0.0
  0
ARC
  5
197AE
330
747D
100
AcDbEntity
  8
細線
 48
50.0
100
AcDbCircle
 10
3467.3741792104
 20
3988.889699777006
 30
0.0
 40
26.5
100
AcDbArc
 50
249.3326835063939
 51
290.6673164933835
  0
ARC
  5
197AF
330
747D
100
AcDbEntity
  8
細線
 48
50.0
100
AcDbCircle
 10
3476.374179210392
 20
3965.030739196123
 30
0.0
 40
1.0
100
AcDbArc
 50
290.6673164936062
 51
359.9999999998958
  0
ARC
  5
197B0
330
747D
100
AcDbEntity
  8
細線
 48
50.0
100
AcDbCircle
 10
3458.374179210399
 20
3965.030739196125
 30
0.0
 40
1.0
100
AcDbArc
 50
180.0
 51
249.3326835066164
  0
ARC
  5
197B1
330
747D
100
AcDbEntity
  8
細線
 48
50.0
100
AcDbCircle
 10
3456.374179210399
 20
3974.015224996362
 30
0.0
 40
1.0
100
AcDbArc
 50
0.0
 51
53.51626293873231
  0
ARC
  5
197B2
330
747D
100
AcDbEntity
  8
細線
 48
50.0
100
AcDbCircle
 10
3478.374179210403
 20
3974.015224996365
 30
0.0
 40
1.0
100
AcDbArc
 50
126.4837370614917
 51
180.0
  0
ARC
  5
197B3
330
747D
100
AcDbEntity
  8
細線
 48
50.0
100
AcDbCircle
 10
3467.3741792104
 20
3988.889699777006
 30
0.0
 40
21.5
100
AcDbArc
 50
255.8014401250294
 51
284.1985598749706
  0
ARC
  5
197B4
330
747D
100
AcDbEntity
  8
細線
 48
50.0
100
AcDbCircle
 10
3467.3741792104
 20
3988.889699777006
 30
0.0
 40
16.5
100
AcDbArc
 50
251.9694646069326
 51
288.0305353930674
  0
LINE
  5
197B5
330
747D
100
AcDbEntity
  8
細線
 48
50.0
100
AcDbLine
 10
3472.8741792104
 20
3968.3373276512
 30
0.0
 11
3472.8741792104
 21
3972.914719338536
 31
0.0
  0
LINE
  5
197B6
330
747D
100
AcDbEntity
  8
細線
 48
50.0
100
AcDbLine
 10
3461.8741792104
 20
3968.3373276512
 30
0.0
 11
3461.8741792104
 21
3972.914719338535
 31
0.0
  0
ARC
  5
197B7
330
747D
100
AcDbEntity
  8
細線
 48
50.0
100
AcDbCircle
 10
3462.174179210403
 20
3972.914719338535
 30
0.0
 40
0.3
100
AcDbArc
 50
71.96946460693259
 51
180.0
  0
ARC
  5
197B8
330
747D
100
AcDbEntity
  8
細線
 48
50.0
100
AcDbCircle
 10
3472.574179210401
 20
3972.914719338536
 30
0.0
 40
0.3
100
AcDbArc
 50
0.0
 51
108.0305353930674
  0
ARC
  5
197B9
330
747D
100
AcDbEntity
  8
細線
 48
50.0
100
AcDbCircle
 10
3472.574179210397
 20
3968.3373276512
 30
0.0
 40
0.3
100
AcDbArc
 50
284.1985598747622
 51
0.0000000001042204
  0
ARC
  5
197BA
330
747D
100
AcDbEntity
  8
細線
 48
50.0
100
AcDbCircle
 10
3462.174179210403
 20
3968.3373276512
 30
0.0
 40
0.3
100
AcDbArc
 50
180.0
 51
255.8014401248081
  0
CIRCLE
  5
197BB
330
747D
100
AcDbEntity
  8
細線
 48
50.0
100
AcDbCircle
 10
3467.3741792104
 20
3988.889699777006
 30
0.0
 40
12.0
  0
ARC
  5
197BC
330
747D
100
AcDbEntity
  8
部品1
 48
50.0
100
AcDbCircle
 10
3467.3741792104
 20
4038.889699777006
 30
0.0
 40
8.5
100
AcDbArc
 50
114.315739171091
 51
245.684260828909
  0
CIRCLE
  5
197BD
330
747D
100
AcDbEntity
  8
細線
 48
50.0
100
AcDbCircle
 10
3467.3741792104
 20
4038.889699777006
 30
0.0
 40
4.5
  0
LWPOLYLINE
  5
197BE
330
747D
100
AcDbEntity
  8
部品1
 48
50.0
100
AcDbPolyline
 90
        2
 70
     0
 43
0.0
 10
3463.874179210399
 20
4057.564549173989
 10
3463.874179210399
 20
4046.635666469421
  0
CIRCLE
  5
197BF
330
747D
100
AcDbEntity
  8
部品1
 48
50.0
100
AcDbCircle
 10
3467.3741792104
 20
4038.889699777006
 30
0.0
 40
19.0
  0
LWPOLYLINE
  5
197C0
330
747D
100
AcDbEntity
  8
部品1
 48
50.0
100
AcDbPolyline
 90
        2
 70
     0
 43
0.0
 10
3463.874179210399
 20
4031.143733084591
 10
3463.874179210399
 20
4020.214850380024
  0
LWPOLYLINE
  5
197C1
330
747D
100
AcDbEntity
  8
部品1
 48
50.0
100
AcDbPolyline
 90
        2
 70
     0
 43
0.0
 10
3470.8741792104
 20
4046.635666469421
 10
3470.8741792104
 20
4057.564549173989
  0
ARC
  5
197C2
330
747D
100
AcDbEntity
  8
部品1
 48
50.0
100
AcDbCircle
 10
3467.3741792104
 20
4038.889699777006
 30
0.0
 40
8.5
100
AcDbArc
 50
294.315739171091
 51
65.68426082890896
  0
LWPOLYLINE
  5
197C3
330
747D
100
AcDbEntity
  8
部品1
 48
50.0
100
AcDbPolyline
 90
        2
 70
     0
 43
0.0
 10
3470.8741792104
 20
4020.214850380024
 10
3470.8741792104
 20
4031.143733084591
  0
ARC
  5
197C4
330
747D
100
AcDbEntity
  8
細線
 48
50.0
100
AcDbCircle
 10
3467.3741792104
 20
4038.889699777006
 30
0.0
 40
16.5
100
AcDbArc
 50
332.0012352654316
 51
27.99876473456844
  0
ARC
  5
197C5
330
747D
100
AcDbEntity
  8
細線
 48
50.0
100
AcDbCircle
 10
3467.3741792104
 20
4038.889699777006
 30
0.0
 40
14.0
100
AcDbArc
 50
326.4074436112843
 51
33.59255638871576
  0
LINE
  5
197C6
330
747D
100
AcDbEntity
  8
細線
 48
50.0
100
AcDbLine
 10
3452.805376926068
 20
4046.635666469421
 30
0.0
 11
3455.712275420711
 21
4046.635666469421
 31
0.0
  0
LINE
  5
197C7
330
747D
100
AcDbEntity
  8
細線
 48
50.0
100
AcDbLine
 10
3452.805376926068
 20
4031.143733084591
 30
0.0
 11
3455.712275420711
 21
4031.143733084591
 31
0.0
  0
LINE
  5
197C8
330
747D
100
AcDbEntity
  8
細線
 48
50.0
100
AcDbLine
 10
3479.036083000089
 20
4046.635666469421
 30
0.0
 11
3481.942981494734
 21
4046.635666469421
 31
0.0
  0
LINE
  5
197C9
330
747D
100
AcDbEntity
  8
細線
 48
50.0
100
AcDbLine
 10
3479.036083000089
 20
4031.143733084591
 30
0.0
 11
3481.942981494734
 21
4031.143733084591
 31
0.0
  0
ARC
  5
197CA
330
747D
100
AcDbEntity
  8
細線
 48
50.0
100
AcDbCircle
 10
3467.3741792104
 20
4038.889699777006
 30
0.0
 40
14.0
100
AcDbArc
 50
146.4074436112842
 51
213.5925563887158
  0
ARC
  5
197CB
330
747D
100
AcDbEntity
  8
細線
 48
50.0
100
AcDbCircle
 10
3467.3741792104
 20
4038.889699777006
 30
0.0
 40
16.5
100
AcDbArc
 50
152.0012352654315
 51
207.9987647345685
  0
ARC
  5
197CC
330
747D
100
AcDbEntity
  8
部品1
 48
50.0
100
AcDbCircle
 10
3440.8741792104
 20
4064.389699777006
 30
0.0
 40
5.0
100
AcDbArc
 50
90.0
 51
180.0
  0
ARC
  5
197CD
330
747D
100
AcDbEntity
  8
部品1
 48
50.0
100
AcDbCircle
 10
3440.8741792104
 20
3953.389699777007
 30
0.0
 40
5.0
100
AcDbArc
 50
180.0
 51
270.0
  0
ARC
  5
197CE
330
747D
100
AcDbEntity
  8
部品1
 48
50.0
100
AcDbCircle
 10
3493.874179210399
 20
3953.389699777007
 30
0.0
 40
5.0
100
AcDbArc
 50
270.0
 51
0.0
  0
ARC
  5
197CF
330
747D
100
AcDbEntity
  8
部品1
 48
50.0
100
AcDbCircle
 10
3493.874179210399
 20
4064.389699777006
 30
0.0
 40
5.0
100
AcDbArc
 50
0.0
 51
90.0
  0
LINE
  5
197D0
330
747D
100
AcDbEntity
  8
部品1
 48
50.0
100
AcDbLine
 10
3435.874179210399
 20
3953.389699777007
 30
0.0
 11
3435.874179210399
 21
4064.389699777006
 31
0.0
  0
LINE
  5
197D1
330
747D
100
AcDbEntity
  8
部品1
 48
50.0
100
AcDbLine
 10
3493.874179210399
 20
3948.389699777006
 30
0.0
 11
3440.8741792104
 21
3948.389699777006
 31
0.0
  0
LINE
  5
197D2
330
747D
100
AcDbEntity
  8
部品1
 48
50.0
100
AcDbLine
 10
3498.8741792104
 20
4064.389699777006
 30
0.0
 11
3498.8741792104
 21
3953.389699777007
 31
0.0
  0
LWPOLYLINE
  5
19802
330
747D
100
AcDbEntity
  8
部品1
 48
50.0
100
AcDbPolyline
 90
        4
 70
     1
 43
0.0
 10
5675.924179210401
 20
3984.139699777006
 10
5678.824179210401
 20
3984.139699777006
 10
5678.824179210401
 20
3993.639699777006
 10
5675.924179210401
 20
3993.639699777006
  0
CIRCLE
  5
19803
330
747D
100
AcDbEntity
  8
部品1
 48
50.0
100
AcDbCircle
 10
5677.374179210401
 20
3988.889699777006
 30
0.0
 40
9.0
  0
ARC
  5
19804
330
747D
100
AcDbEntity
  8
細線
 48
50.0
100
AcDbCircle
 10
5677.374179210401
 20
3988.889699777006
 30
0.0
 40
4.0
100
AcDbArc
 50
111.2538091853132
 51
248.7461908146868
  0
ARC
  5
19805
330
747D
100
AcDbEntity
  8
細線
 48
50.0
100
AcDbCircle
 10
5677.374179210401
 20
3988.889699777006
 30
0.0
 40
17.5
100
AcDbArc
 50
306.4837370612677
 51
233.5162629387323
  0
LINE
  5
19806
330
747D
100
AcDbEntity
  8
細線
 48
50.0
100
AcDbLine
 10
5687.374179210397
 20
3965.030739196123
 30
0.0
 11
5687.374179210401
 21
3974.015224996365
 31
0.0
  0
LINE
  5
19807
330
747D
100
AcDbEntity
  8
細線
 48
50.0
100
AcDbLine
 10
5667.374179210401
 20
3965.030739196125
 30
0.0
 11
5667.374179210401
 21
3974.015224996362
 31
0.0
  0
ARC
  5
19808
330
747D
100
AcDbEntity
  8
細線
 48
50.0
100
AcDbCircle
 10
5677.374179210401
 20
3988.889699777006
 30
0.0
 40
26.5
100
AcDbArc
 50
249.3326835063939
 51
290.6673164933835
  0
ARC
  5
19809
330
747D
100
AcDbEntity
  8
細線
 48
50.0
100
AcDbCircle
 10
5686.374179210393
 20
3965.030739196123
 30
0.0
 40
1.0
100
AcDbArc
 50
290.6673164936062
 51
359.9999999998958
  0
ARC
  5
1980A
330
747D
100
AcDbEntity
  8
細線
 48
50.0
100
AcDbCircle
 10
5668.374179210401
 20
3965.030739196125
 30
0.0
 40
1.0
100
AcDbArc
 50
180.0
 51
249.3326835066164
  0
ARC
  5
1980B
330
747D
100
AcDbEntity
  8
細線
 48
50.0
100
AcDbCircle
 10
5666.374179210401
 20
3974.015224996362
 30
0.0
 40
1.0
100
AcDbArc
 50
0.0
 51
53.51626293873231
  0
ARC
  5
1980C
330
747D
100
AcDbEntity
  8
細線
 48
50.0
100
AcDbCircle
 10
5688.374179210405
 20
3974.015224996365
 30
0.0
 40
1.0
100
AcDbArc
 50
126.4837370615127
 51
180.0
  0
ARC
  5
1980D
330
747D
100
AcDbEntity
  8
細線
 48
50.0
100
AcDbCircle
 10
5677.374179210401
 20
3988.889699777006
 30
0.0
 40
21.5
100
AcDbArc
 50
255.8014401250294
 51
284.1985598749706
  0
ARC
  5
1980E
330
747D
100
AcDbEntity
  8
細線
 48
50.0
100
AcDbCircle
 10
5677.374179210401
 20
3988.889699777006
 30
0.0
 40
16.5
100
AcDbArc
 50
251.9694646069326
 51
288.0305353930674
  0
LINE
  5
1980F
330
747D
100
AcDbEntity
  8
細線
 48
50.0
100
AcDbLine
 10
5682.874179210401
 20
3968.3373276512
 30
0.0
 11
5682.874179210401
 21
3972.914719338536
 31
0.0
  0
LINE
  5
19810
330
747D
100
AcDbEntity
  8
細線
 48
50.0
100
AcDbLine
 10
5671.874179210401
 20
3968.3373276512
 30
0.0
 11
5671.874179210401
 21
3972.914719338535
 31
0.0
  0
ARC
  5
19811
330
747D
100
AcDbEntity
  8
細線
 48
50.0
100
AcDbCircle
 10
5672.174179210404
 20
3972.914719338535
 30
0.0
 40
0.3
100
AcDbArc
 50
71.96946460693259
 51
180.0
  0
ARC
  5
19812
330
747D
100
AcDbEntity
  8
細線
 48
50.0
100
AcDbCircle
 10
5682.574179210401
 20
3972.914719338536
 30
0.0
 40
0.3
100
AcDbArc
 50
0.0
 51
108.0305353930674
  0
ARC
  5
19813
330
747D
100
AcDbEntity
  8
細線
 48
50.0
100
AcDbCircle
 10
5682.574179210398
 20
3968.3373276512
 30
0.0
 40
0.3
100
AcDbArc
 50
284.1985598747622
 51
0.0000000001042204
  0
ARC
  5
19814
330
747D
100
AcDbEntity
  8
細線
 48
50.0
100
AcDbCircle
 10
5672.174179210404
 20
3968.3373276512
 30
0.0
 40
0.3
100
AcDbArc
 50
180.0
 51
255.8014401248081
  0
CIRCLE
  5
19815
330
747D
100
AcDbEntity
  8
細線
 48
50.0
100
AcDbCircle
 10
5677.374179210401
 20
3988.889699777006
 30
0.0
 40
12.0
  0
ARC
  5
19816
330
747D
100
AcDbEntity
  8
部品1
 48
50.0
100
AcDbCircle
 10
5677.374179210401
 20
4038.889699777006
 30
0.0
 40
8.5
100
AcDbArc
 50
114.315739171091
 51
245.684260828909
  0
CIRCLE
  5
19817
330
747D
100
AcDbEntity
  8
細線
 48
50.0
100
AcDbCircle
 10
5677.374179210401
 20
4038.889699777006
 30
0.0
 40
4.5
  0
LWPOLYLINE
  5
19818
330
747D
100
AcDbEntity
  8
部品1
 48
50.0
100
AcDbPolyline
 90
        2
 70
     0
 43
0.0
 10
5673.8741792104
 20
4057.564549173989
 10
5673.8741792104
 20
4046.635666469421
  0
CIRCLE
  5
19819
330
747D
100
AcDbEntity
  8
部品1
 48
50.0
100
AcDbCircle
 10
5677.374179210401
 20
4038.889699777006
 30
0.0
 40
19.0
  0
LWPOLYLINE
  5
1981A
330
747D
100
AcDbEntity
  8
部品1
 48
50.0
100
AcDbPolyline
 90
        2
 70
     0
 43
0.0
 10
5673.8741792104
 20
4031.143733084591
 10
5673.8741792104
 20
4020.214850380024
  0
LWPOLYLINE
  5
1981B
330
747D
100
AcDbEntity
  8
部品1
 48
50.0
100
AcDbPolyline
 90
        2
 70
     0
 43
0.0
 10
5680.874179210401
 20
4046.635666469421
 10
5680.874179210401
 20
4057.564549173989
  0
ARC
  5
1981C
330
747D
100
AcDbEntity
  8
部品1
 48
50.0
100
AcDbCircle
 10
5677.374179210401
 20
4038.889699777006
 30
0.0
 40
8.5
100
AcDbArc
 50
294.315739171091
 51
65.68426082890896
  0
LWPOLYLINE
  5
1981D
330
747D
100
AcDbEntity
  8
部品1
 48
50.0
100
AcDbPolyline
 90
        2
 70
     0
 43
0.0
 10
5680.874179210401
 20
4020.214850380024
 10
5680.874179210401
 20
4031.143733084591
  0
ARC
  5
1981E
330
747D
100
AcDbEntity
  8
細線
 48
50.0
100
AcDbCircle
 10
5677.374179210401
 20
4038.889699777006
 30
0.0
 40
16.5
100
AcDbArc
 50
332.0012352654438
 51
27.99876473455621
  0
ARC
  5
1981F
330
747D
100
AcDbEntity
  8
細線
 48
50.0
100
AcDbCircle
 10
5677.374179210401
 20
4038.889699777006
 30
0.0
 40
14.0
100
AcDbArc
 50
326.4074436112986
 51
33.59255638870134
  0
LINE
  5
19820
330
747D
100
AcDbEntity
  8
細線
 48
50.0
100
AcDbLine
 10
5662.805376926069
 20
4046.635666469421
 30
0.0
 11
5665.712275420712
 21
4046.635666469421
 31
0.0
  0
LINE
  5
19821
330
747D
100
AcDbEntity
  8
細線
 48
50.0
100
AcDbLine
 10
5662.805376926069
 20
4031.143733084591
 30
0.0
 11
5665.712275420712
 21
4031.143733084591
 31
0.0
  0
LINE
  5
19822
330
747D
100
AcDbEntity
  8
細線
 48
50.0
100
AcDbLine
 10
5689.03608300009
 20
4046.635666469421
 30
0.0
 11
5691.942981494737
 21
4046.635666469421
 31
0.0
  0
LINE
  5
19823
330
747D
100
AcDbEntity
  8
細線
 48
50.0
100
AcDbLine
 10
5689.03608300009
 20
4031.143733084591
 30
0.0
 11
5691.942981494737
 21
4031.143733084591
 31
0.0
  0
ARC
  5
19824
330
747D
100
AcDbEntity
  8
細線
 48
50.0
100
AcDbCircle
 10
5677.374179210401
 20
4038.889699777006
 30
0.0
 40
14.0
100
AcDbArc
 50
146.4074436112986
 51
213.5925563887013
  0
ARC
  5
19825
330
747D
100
AcDbEntity
  8
細線
 48
50.0
100
AcDbCircle
 10
5677.374179210401
 20
4038.889699777006
 30
0.0
 40
16.5
100
AcDbArc
 50
152.0012352654438
 51
207.9987647345562
  0
ARC
  5
19826
330
747D
100
AcDbEntity
  8
部品1
 48
50.0
100
AcDbCircle
 10
5650.874179210401
 20
4064.389699777006
 30
0.0
 40
5.0
100
AcDbArc
 50
90.0
 51
180.0
  0
ARC
  5
19827
330
747D
100
AcDbEntity
  8
部品1
 48
50.0
100
AcDbCircle
 10
5650.874179210401
 20
3953.389699777007
 30
0.0
 40
5.0
100
AcDbArc
 50
180.0
 51
270.0
  0
ARC
  5
19828
330
747D
100
AcDbEntity
  8
部品1
 48
50.0
100
AcDbCircle
 10
5703.874179210401
 20
3953.389699777007
 30
0.0
 40
5.0
100
AcDbArc
 50
270.0
 51
0.0
  0
ARC
  5
19829
330
747D
100
AcDbEntity
  8
部品1
 48
50.0
100
AcDbCircle
 10
5703.874179210401
 20
4064.389699777006
 30
0.0
 40
5.0
100
AcDbArc
 50
0.0
 51
90.0
  0
LINE
  5
1982A
330
747D
100
AcDbEntity
  8
部品1
 48
50.0
100
AcDbLine
 10
5645.874179210402
 20
3953.389699777007
 30
0.0
 11
5645.874179210402
 21
4064.389699777006
 31
0.0
  0
LINE
  5
1982B
330
747D
100
AcDbEntity
  8
部品1
 48
50.0
100
AcDbLine
 10
5703.874179210401
 20
3948.389699777006
 30
0.0
 11
5650.874179210401
 21
3948.389699777006
 31
0.0
  0
LINE
  5
1982C
330
747D
100
AcDbEntity
  8
部品1
 48
50.0
100
AcDbLine
 10
5708.8741792104
 20
4064.389699777006
 30
0.0
 11
5708.8741792104
 21
3953.389699777007
 31
0.0
  0
LWPOLYLINE
  5
1985C
330
747D
100
AcDbEntity
  8
部品1
 48
50.0
100
AcDbPolyline
 90
        4
 70
     1
 43
0.0
 10
7885.9241792104
 20
3984.139699777006
 10
7888.824179210402
 20
3984.139699777006
 10
7888.824179210402
 20
3993.639699777006
 10
7885.9241792104
 20
3993.639699777006
  0
CIRCLE
  5
1985D
330
747D
100
AcDbEntity
  8
部品1
 48
50.0
100
AcDbCircle
 10
7887.374179210401
 20
3988.889699777006
 30
0.0
 40
9.0
  0
ARC
  5
1985E
330
747D
100
AcDbEntity
  8
細線
 48
50.0
100
AcDbCircle
 10
7887.374179210401
 20
3988.889699777006
 30
0.0
 40
4.0
100
AcDbArc
 50
111.2538091853132
 51
248.7461908146868
  0
ARC
  5
1985F
330
747D
100
AcDbEntity
  8
細線
 48
50.0
100
AcDbCircle
 10
7887.374179210401
 20
3988.889699777006
 30
0.0
 40
17.5
100
AcDbArc
 50
306.4837370612677
 51
233.5162629387323
  0
LINE
  5
19860
330
747D
100
AcDbEntity
  8
細線
 48
50.0
100
AcDbLine
 10
7897.374179210398
 20
3965.030739196123
 30
0.0
 11
7897.374179210401
 21
3974.015224996365
 31
0.0
  0
LINE
  5
19861
330
747D
100
AcDbEntity
  8
細線
 48
50.0
100
AcDbLine
 10
7877.374179210402
 20
3965.030739196125
 30
0.0
 11
7877.374179210402
 21
3974.015224996362
 31
0.0
  0
ARC
  5
19862
330
747D
100
AcDbEntity
  8
細線
 48
50.0
100
AcDbCircle
 10
7887.374179210401
 20
3988.889699777006
 30
0.0
 40
26.5
100
AcDbArc
 50
249.3326835063939
 51
290.6673164933835
  0
ARC
  5
19863
330
747D
100
AcDbEntity
  8
細線
 48
50.0
100
AcDbCircle
 10
7896.374179210394
 20
3965.030739196123
 30
0.0
 40
1.0
100
AcDbArc
 50
290.6673164936062
 51
359.9999999998958
  0
ARC
  5
19864
330
747D
100
AcDbEntity
  8
細線
 48
50.0
100
AcDbCircle
 10
7878.374179210401
 20
3965.030739196125
 30
0.0
 40
1.0
100
AcDbArc
 50
180.0
 51
249.3326835066164
  0
ARC
  5
19865
330
747D
100
AcDbEntity
  8
細線
 48
50.0
100
AcDbCircle
 10
7876.374179210401
 20
3974.015224996362
 30
0.0
 40
1.0
100
AcDbArc
 50
0.0
 51
53.51626293873231
  0
ARC
  5
19866
330
747D
100
AcDbEntity
  8
細線
 48
50.0
100
AcDbCircle
 10
7898.374179210406
 20
3974.015224996365
 30
0.0
 40
1.0
100
AcDbArc
 50
126.4837370615127
 51
180.0
  0
ARC
  5
19867
330
747D
100
AcDbEntity
  8
細線
 48
50.0
100
AcDbCircle
 10
7887.374179210401
 20
3988.889699777006
 30
0.0
 40
21.5
100
AcDbArc
 50
255.8014401250294
 51
284.1985598749706
  0
ARC
  5
19868
330
747D
100
AcDbEntity
  8
細線
 48
50.0
100
AcDbCircle
 10
7887.374179210401
 20
3988.889699777006
 30
0.0
 40
16.5
100
AcDbArc
 50
251.9694646069326
 51
288.0305353930674
  0
LINE
  5
19869
330
747D
100
AcDbEntity
  8
細線
 48
50.0
100
AcDbLine
 10
7892.874179210401
 20
3968.3373276512
 30
0.0
 11
7892.874179210401
 21
3972.914719338536
 31
0.0
  0
LINE
  5
1986A
330
747D
100
AcDbEntity
  8
細線
 48
50.0
100
AcDbLine
 10
7881.874179210401
 20
3968.3373276512
 30
0.0
 11
7881.874179210401
 21
3972.914719338535
 31
0.0
  0
ARC
  5
1986B
330
747D
100
AcDbEntity
  8
細線
 48
50.0
100
AcDbCircle
 10
7882.174179210403
 20
3972.914719338535
 30
0.0
 40
0.3
100
AcDbArc
 50
71.96946460693259
 51
180.0
  0
ARC
  5
1986C
330
747D
100
AcDbEntity
  8
細線
 48
50.0
100
AcDbCircle
 10
7892.574179210402
 20
3972.914719338536
 30
0.0
 40
0.3
100
AcDbArc
 50
0.0
 51
108.0305353930674
  0
ARC
  5
1986D
330
747D
100
AcDbEntity
  8
細線
 48
50.0
100
AcDbCircle
 10
7892.574179210398
 20
3968.3373276512
 30
0.0
 40
0.3
100
AcDbArc
 50
284.1985598747622
 51
0.0000000001042204
  0
ARC
  5
1986E
330
747D
100
AcDbEntity
  8
細線
 48
50.0
100
AcDbCircle
 10
7882.174179210403
 20
3968.3373276512
 30
0.0
 40
0.3
100
AcDbArc
 50
180.0
 51
255.8014401248081
  0
CIRCLE
  5
1986F
330
747D
100
AcDbEntity
  8
細線
 48
50.0
100
AcDbCircle
 10
7887.374179210401
 20
3988.889699777006
 30
0.0
 40
12.0
  0
ARC
  5
19870
330
747D
100
AcDbEntity
  8
部品1
 48
50.0
100
AcDbCircle
 10
7887.374179210401
 20
4038.889699777006
 30
0.0
 40
8.5
100
AcDbArc
 50
114.315739171091
 51
245.684260828909
  0
CIRCLE
  5
19871
330
747D
100
AcDbEntity
  8
細線
 48
50.0
100
AcDbCircle
 10
7887.374179210401
 20
4038.889699777006
 30
0.0
 40
4.5
  0
LWPOLYLINE
  5
19872
330
747D
100
AcDbEntity
  8
部品1
 48
50.0
100
AcDbPolyline
 90
        2
 70
     0
 43
0.0
 10
7883.874179210401
 20
4057.564549173989
 10
7883.874179210401
 20
4046.635666469421
  0
CIRCLE
  5
19873
330
747D
100
AcDbEntity
  8
部品1
 48
50.0
100
AcDbCircle
 10
7887.374179210401
 20
4038.889699777006
 30
0.0
 40
19.0
  0
LWPOLYLINE
  5
19874
330
747D
100
AcDbEntity
  8
部品1
 48
50.0
100
AcDbPolyline
 90
        2
 70
     0
 43
0.0
 10
7883.874179210401
 20
4031.143733084591
 10
7883.874179210401
 20
4020.214850380024
  0
LWPOLYLINE
  5
19875
330
747D
100
AcDbEntity
  8
部品1
 48
50.0
100
AcDbPolyline
 90
        2
 70
     0
 43
0.0
 10
7890.874179210401
 20
4046.635666469421
 10
7890.874179210401
 20
4057.564549173989
  0
ARC
  5
19876
330
747D
100
AcDbEntity
  8
部品1
 48
50.0
100
AcDbCircle
 10
7887.374179210401
 20
4038.889699777006
 30
0.0
 40
8.5
100
AcDbArc
 50
294.315739171091
 51
65.68426082890896
  0
LWPOLYLINE
  5
19877
330
747D
100
AcDbEntity
  8
部品1
 48
50.0
100
AcDbPolyline
 90
        2
 70
     0
 43
0.0
 10
7890.874179210401
 20
4020.214850380024
 10
7890.874179210401
 20
4031.143733084591
  0
ARC
  5
19878
330
747D
100
AcDbEntity
  8
細線
 48
50.0
100
AcDbCircle
 10
7887.374179210401
 20
4038.889699777006
 30
0.0
 40
16.5
100
AcDbArc
 50
332.0012352654438
 51
27.99876473455621
  0
ARC
  5
19879
330
747D
100
AcDbEntity
  8
細線
 48
50.0
100
AcDbCircle
 10
7887.374179210401
 20
4038.889699777006
 30
0.0
 40
14.0
100
AcDbArc
 50
326.4074436112986
 51
33.59255638870134
  0
LINE
  5
1987A
330
747D
100
AcDbEntity
  8
細線
 48
50.0
100
AcDbLine
 10
7872.80537692607
 20
4046.635666469421
 30
0.0
 11
7875.712275420712
 21
4046.635666469421
 31
0.0
  0
LINE
  5
1987B
330
747D
100
AcDbEntity
  8
細線
 48
50.0
100
AcDbLine
 10
7872.80537692607
 20
4031.143733084591
 30
0.0
 11
7875.712275420712
 21
4031.143733084591
 31
0.0
  0
LINE
  5
1987C
330
747D
100
AcDbEntity
  8
細線
 48
50.0
100
AcDbLine
 10
7899.03608300009
 20
4046.635666469421
 30
0.0
 11
7901.942981494736
 21
4046.635666469421
 31
0.0
  0
LINE
  5
1987D
330
747D
100
AcDbEntity
  8
細線
 48
50.0
100
AcDbLine
 10
7899.03608300009
 20
4031.143733084591
 30
0.0
 11
7901.942981494736
 21
4031.143733084591
 31
0.0
  0
ARC
  5
1987E
330
747D
100
AcDbEntity
  8
細線
 48
50.0
100
AcDbCircle
 10
7887.374179210401
 20
4038.889699777006
 30
0.0
 40
14.0
100
AcDbArc
 50
146.4074436112986
 51
213.5925563887013
  0
ARC
  5
1987F
330
747D
100
AcDbEntity
  8
細線
 48
50.0
100
AcDbCircle
 10
7887.374179210401
 20
4038.889699777006
 30
0.0
 40
16.5
100
AcDbArc
 50
152.0012352654438
 51
207.9987647345562
  0
ARC
  5
19880
330
747D
100
AcDbEntity
  8
部品1
 48
50.0
100
AcDbCircle
 10
7860.874179210401
 20
4064.389699777006
 30
0.0
 40
5.0
100
AcDbArc
 50
90.0
 51
180.0
  0
ARC
  5
19881
330
747D
100
AcDbEntity
  8
部品1
 48
50.0
100
AcDbCircle
 10
7860.874179210401
 20
3953.389699777007
 30
0.0
 40
5.0
100
AcDbArc
 50
180.0
 51
270.0
  0
ARC
  5
19882
330
747D
100
AcDbEntity
  8
部品1
 48
50.0
100
AcDbCircle
 10
7913.874179210401
 20
3953.389699777007
 30
0.0
 40
5.0
100
AcDbArc
 50
270.0
 51
0.0
  0
ARC
  5
19883
330
747D
100
AcDbEntity
  8
部品1
 48
50.0
100
AcDbCircle
 10
7913.874179210401
 20
4064.389699777006
 30
0.0
 40
5.0
100
AcDbArc
 50
0.0
 51
90.0
  0
LINE
  5
19884
330
747D
100
AcDbEntity
  8
部品1
 48
50.0
100
AcDbLine
 10
7855.874179210402
 20
3953.389699777007
 30
0.0
 11
7855.874179210402
 21
4064.389699777006
 31
0.0
  0
LINE
  5
19885
330
747D
100
AcDbEntity
  8
部品1
 48
50.0
100
AcDbLine
 10
7913.874179210401
 20
3948.389699777006
 30
0.0
 11
7860.874179210401
 21
3948.389699777006
 31
0.0
  0
LINE
  5
19886
330
747D
100
AcDbEntity
  8
部品1
 48
50.0
100
AcDbLine
 10
7918.874179210401
 20
4064.389699777006
 30
0.0
 11
7918.874179210401
 21
3953.389699777007
 31
0.0
  0
ENDSEC
  0
SECTION
  2
OBJECTS
  0
DICTIONARY
  5
7471
330
0
100
AcDbDictionary
281
     1
  3
ACAD_COLOR
350
16E6A
  3
ACAD_GROUP
350
7472
  3
ACAD_LAYOUT
350
16E6B
  3
ACAD_MATERIAL
350
16E69
  3
ACAD_MLINESTYLE
350
7473
  3
ACAD_PLOTSETTINGS
350
16E6C
  3
ACAD_PLOTSTYLENAME
350
16E67
  3
ACDBHEADERROUNDTRIPXREC
350
19895
  3
AcDbVariableDictionary
350
19891
  3
CONTENTDICTIONARY
350
E71C
  3
DRAWINGVARIABLESDICT
350
F3B9
  0
DICTIONARY
  5
17012
330
7467
100
AcDbDictionary
280
     1
281
     1
  3
ACAD_LAYERSTATES
360
17013
  0
DICTIONARY
  5
16E6A
102
{ACAD_REACTORS
330
7471
102
}
330
7471
100
AcDbDictionary
281
     1
  0
DICTIONARY
  5
7472
102
{ACAD_REACTORS
330
7471
102
}
330
7471
100
AcDbDictionary
281
     1
  0
DICTIONARY
  5
16E6B
102
{ACAD_REACTORS
330
7471
102
}
330
7471
100
AcDbDictionary
281
     1
  3
Model
350
16E6D
  3
レイアウト1
350
16E6E
  0
DICTIONARY
  5
16E69
102
{ACAD_REACTORS
330
7471
102
}
330
7471
100
AcDbDictionary
281
     1
  0
DICTIONARY
  5
7473
102
{ACAD_REACTORS
330
7471
102
}
330
7471
100
AcDbDictionary
281
     1
  3
STANDARD
350
7480
  0
DICTIONARY
  5
16E6C
102
{ACAD_REACTORS
330
7471
102
}
330
7471
100
AcDbDictionary
281
     1
  0
ACDBDICTIONARYWDFLT
  5
16E67
102
{ACAD_REACTORS
330
7471
102
}
330
7471
100
AcDbDictionary
281
     1
  3
Normal
350
16E68
100
AcDbDictionaryWithDefault
340
16E68
  0
DICTIONARY
  5
19895
102
{ACAD_REACTORS
330
7471
102
}
330
7471
100
AcDbDictionary
281
     1
  3
COLORDICT
350
19897
  3
MATERIALDICT
350
19896
  0
DICTIONARY
  5
19891
102
{ACAD_REACTORS
330
7471
102
}
330
7471
100
AcDbDictionary
281
     1
  3
DIMASSOC
350
19892
  3
PROJECTNAME
350
19893
  0
DICTIONARY
  5
E71C
102
{ACAD_REACTORS
330
7471
102
}
330
7471
100
AcDbDictionary
281
     1
  0
DICTIONARY
  5
F3B9
102
{ACAD_REACTORS
330
7471
102
}
330
7471
100
AcDbDictionary
281
     1
1001
DRAWINGVARIABLESXDATA
1000
POLARMODE
1000
1
  0
DICTIONARY
  5
17013
102
{ACAD_REACTORS
330
17012
102
}
330
17012
100
AcDbDictionary
281
     1
  0
LAYOUT
  5
16E6D
102
{ACAD_XDICTIONARY
360
19898
102
}
102
{ACAD_REACTORS
330
16E6B
102
}
330
16E6B
100
AcDbPlotSettings
  1

  2
EPSON LP-7000C
  4

  6

 40
0.0
 41
0.0
 42
0.0
 43
0.0
 44
0.0
 45
0.0
 46
0.0
 47
0.0
 48
0.0
 49
0.0
140
0.0
141
0.0
142
1.0
143
1.0
 70
  1712
 72
     0
 73
     0
 74
     0
  7

 75
     0
147
1.0
148
0.0
149
0.0
100
AcDbLayout
  1
Model
 70
     1
 71
     0
 10
0.0
 20
0.0
 11
12.0
 21
9.0
 12
0.0
 22
0.0
 32
0.0
 14
0.0
 24
0.0
 34
0.0
 15
0.0
 25
0.0
 35
0.0
146
0.0
 13
0.0
 23
0.0
 33
0.0
 16
1.0
 26
0.0
 36
0.0
 17
0.0
 27
1.0
 37
0.0
 76
     0
330
747D
  0
LAYOUT
  5
16E6E
102
{ACAD_XDICTIONARY
360
1989A
102
}
102
{ACAD_REACTORS
330
16E6B
102
}
330
16E6B
100
AcDbPlotSettings
  1

  2
EPSON LP-7000C
  4

  6

 40
0.0
 41
0.0
 42
0.0
 43
0.0
 44
0.0
 45
0.0
 46
0.0
 47
0.0
 48
0.0
 49
0.0
140
0.0
141
0.0
142
1.0
143
1.0
 70
   688
 72
     0
 73
     0
 74
     5
  7

 75
    16
147
1.0
148
0.0
149
0.0
100
AcDbLayout
  1
レイアウト1
 70
     0
 71
     1
 10
0.0
 20
0.0
 11
420.0
 21
297.0
 12
0.0
 22
0.0
 32
0.0
 14
1.000000000000000E+20
 24
1.000000000000000E+20
 34
1.000000000000000E+20
 15
-1.000000000000000E+20
 25
-1.000000000000000E+20
 35
-1.000000000000000E+20
146
0.0
 13
0.0
 23
0.0
 33
0.0
 16
1.0
 26
0.0
 36
0.0
 17
0.0
 27
1.0
 37
0.0
 76
     0
330
747A
  0
MLINESTYLE
  5
7480
102
{ACAD_REACTORS
330
7473
102
}
330
7473
100
AcDbMlineStyle
  2
STANDARD
 70
     0
  3

 62
     0
 51
90.0
 52
90.0
 71
     2
 49
0.5
 62
   256
  6
BYLAYER
 49
-0.5
 62
   256
  6
BYLAYER
  0
ACDBPLACEHOLDER
  5
16E68
102
{ACAD_REACTORS
330
16E67
102
}
330
16E67
  0
XRECORD
  5
19897
102
{ACAD_REACTORS
330
19895
102
}
330
19895
100
AcDbXrecord
280
     1
340
16E6A
  0
XRECORD
  5
19896
102
{ACAD_REACTORS
330
19895
102
}
330
19895
100
AcDbXrecord
280
     1
340
16E69
  0
DICTIONARYVAR
  5
19892
102
{ACAD_REACTORS
330
19891
102
}
330
19891
100
DictionaryVariables
280
     0
  1
1
  0
DICTIONARYVAR
  5
19893
102
{ACAD_REACTORS
330
19891
102
}
330
19891
100
DictionaryVariables
280
     0
  1

  0
DICTIONARY
  5
19898
330
16E6D
100
AcDbDictionary
280
     1
281
     1
  3
ACAD_XREC_ROUNDTRIP
360
19899
  0
DICTIONARY
  5
1989A
330
16E6E
100
AcDbDictionary
280
     1
281
     1
  3
ACAD_XREC_ROUNDTRIP
360
1989B
  0
XRECORD
  5
19899
102
{ACAD_REACTORS
330
19898
102
}
330
19898
100
AcDbXrecord
280
     1
102
SHADEPLOT
 70
     0
102
SHADEPLOTRESLEVEL
 70
     2
102
SHADEPLOTCUSTOMDPI
 70
   300
  0
XRECORD
  5
1989B
102
{ACAD_REACTORS
330
1989A
102
}
330
1989A
100
AcDbXrecord
280
     1
102
SHADEPLOT
 70
     0
102
SHADEPLOTRESLEVEL
 70
     2
102
SHADEPLOTCUSTOMDPI
 70
   300
  0
ENDSEC
  0
EOF
