  0
SECTION
  2
HEADER
  9
$ACADVER
  1
AC1015
  9
$ACADMAINTVER
 70
    20
  9
$DWGCODEPAGE
  3
ANSI_932
  9
$INSBASE
 10
0.0
 20
0.0
 30
0.0
  9
$EXTMIN
 10
139.9999999999995
 20
-0.0000000000000909
 30
0.0
  9
$EXTMAX
 10
16307.2
 20
11409.6
 30
0.0
  9
$LIMMIN
 10
0.0
 20
0.0
  9
$LIMMAX
 10
16800.0
 20
11880.0
  9
$ORTHOMODE
 70
     0
  9
$REGENMODE
 70
     1
  9
$FILLMODE
 70
     1
  9
$QTEXTMODE
 70
     0
  9
$MIRRTEXT
 70
     1
  9
$LTSCALE
 40
20.0
  9
$ATTMODE
 70
     1
  9
$TEXTSIZE
 40
120.0
  9
$TRACEWID
 40
1.0
  9
$TEXTSTYLE
  7
STYLE1
  9
$CLAYER
  8
部品1
  9
$CELTYPE
  6
BYLAYER
  9
$CECOLOR
 62
   256
  9
$CELTSCALE
 40
50.0
  9
$DISPSILH
 70
     0
  9
$DIMSCALE
 40
40.0
  9
$DIMASZ
 40
2.5
  9
$DIMEXO
 40
0.5
  9
$DIMDLI
 40
7.0
  9
$DIMRND
 40
0.0
  9
$DIMDLE
 40
0.0
  9
$DIMEXE
 40
1.5
  9
$DIMTP
 40
0.0
  9
$DIMTM
 40
0.0
  9
$DIMTXT
 40
3.0
  9
$DIMCEN
 40
0.0
  9
$DIMTSZ
 40
0.0
  9
$DIMTOL
 70
     0
  9
$DIMLIM
 70
     0
  9
$DIMTIH
 70
     0
  9
$DIMTOH
 70
     0
  9
$DIMSE1
 70
     0
  9
$DIMSE2
 70
     0
  9
$DIMTAD
 70
     3
  9
$DIMZIN
 70
     8
  9
$DIMBLK
  1

  9
$DIMASO
 70
     1
  9
$DIMSHO
 70
     1
  9
$DIMPOST
  1

  9
$DIMAPOST
  1

  9
$DIMALT
 70
     0
  9
$DIMALTD
 70
     2
  9
$DIMALTF
 40
0.0394
  9
$DIMLFAC
 40
1.0
  9
$DIMTOFL
 70
     1
  9
$DIMTVP
 40
0.0
  9
$DIMTIX
 70
     1
  9
$DIMSOXD
 70
     0
  9
$DIMSAH
 70
     1
  9
$DIMBLK1
  1
DOTSMALL
  9
$DIMBLK2
  1
DOTSMALL
  9
$DIMSTYLE
  2
INABA_S40G
  9
$DIMCLRD
 70
     0
  9
$DIMCLRE
 70
     0
  9
$DIMCLRT
 70
     7
  9
$DIMTFAC
 40
1.0
  9
$DIMGAP
 40
1.0
  9
$DIMJUST
 70
     0
  9
$DIMSD1
 70
     0
  9
$DIMSD2
 70
     0
  9
$DIMTOLJ
 70
     1
  9
$DIMTZIN
 70
     0
  9
$DIMALTZ
 70
     0
  9
$DIMALTTZ
 70
     0
  9
$DIMUPT
 70
     1
  9
$DIMDEC
 70
     1
  9
$DIMTDEC
 70
     4
  9
$DIMALTU
 70
     2
  9
$DIMALTTD
 70
     2
  9
$DIMTXSTY
  7
STYLE1
  9
$DIMAUNIT
 70
     0
  9
$DIMADEC
 70
     0
  9
$DIMALTRND
 40
0.0
  9
$DIMAZIN
 70
     0
  9
$DIMDSEP
 70
    46
  9
$DIMATFIT
 70
     3
  9
$DIMFRAC
 70
     0
  9
$DIMLDRBLK
  1

  9
$DIMLUNIT
 70
     2
  9
$DIMLWD
 70
    -2
  9
$DIMLWE
 70
    -2
  9
$DIMTMOVE
 70
     0
  9
$LUNITS
 70
     2
  9
$LUPREC
 70
     1
  9
$SKETCHINC
 40
1.0
  9
$FILLETRAD
 40
3.0
  9
$AUNITS
 70
     0
  9
$AUPREC
 70
     0
  9
$MENU
  1
acad
  9
$ELEVATION
 40
0.0
  9
$PELEVATION
 40
0.0
  9
$THICKNESS
 40
0.0
  9
$LIMCHECK
 70
     0
  9
$CHAMFERA
 40
0.0
  9
$CHAMFERB
 40
0.0
  9
$CHAMFERC
 40
0.0
  9
$CHAMFERD
 40
0.0
  9
$SKPOLY
 70
     0
  9
$TDCREATE
 40
2451368.612993866
  9
$TDUCREATE
 40
2451368.237993866
  9
$TDUPDATE
 40
2455575.688212882
  9
$TDUUPDATE
 40
2455575.313212882
  9
$TDINDWG
 40
0.6001488889
  9
$TDUSRTIMER
 40
0.6001488889
  9
$USRTIMER
 70
     1
  9
$ANGBASE
 50
0.0
  9
$ANGDIR
 70
     0
  9
$PDMODE
 70
     3
  9
$PDSIZE
 40
2.0
  9
$PLINEWID
 40
0.0
  9
$SPLFRAME
 70
     0
  9
$SPLINETYPE
 70
     6
  9
$SPLINESEGS
 70
     8
  9
$HANDSEED
  5
1A518
  9
$SURFTAB1
 70
     6
  9
$SURFTAB2
 70
     6
  9
$SURFTYPE
 70
     6
  9
$SURFU
 70
     6
  9
$SURFV
 70
     6
  9
$UCSBASE
  2

  9
$UCSNAME
  2

  9
$UCSORG
 10
0.0
 20
0.0
 30
0.0
  9
$UCSXDIR
 10
1.0
 20
0.0
 30
0.0
  9
$UCSYDIR
 10
0.0
 20
1.0
 30
0.0
  9
$UCSORTHOREF
  2

  9
$UCSORTHOVIEW
 70
     0
  9
$UCSORGTOP
 10
0.0
 20
0.0
 30
0.0
  9
$UCSORGBOTTOM
 10
0.0
 20
0.0
 30
0.0
  9
$UCSORGLEFT
 10
0.0
 20
0.0
 30
0.0
  9
$UCSORGRIGHT
 10
0.0
 20
0.0
 30
0.0
  9
$UCSORGFRONT
 10
0.0
 20
0.0
 30
0.0
  9
$UCSORGBACK
 10
0.0
 20
0.0
 30
0.0
  9
$PUCSBASE
  2

  9
$PUCSNAME
  2

  9
$PUCSORG
 10
0.0
 20
0.0
 30
0.0
  9
$PUCSXDIR
 10
1.0
 20
0.0
 30
0.0
  9
$PUCSYDIR
 10
0.0
 20
1.0
 30
0.0
  9
$PUCSORTHOREF
  2

  9
$PUCSORTHOVIEW
 70
     0
  9
$PUCSORGTOP
 10
0.0
 20
0.0
 30
0.0
  9
$PUCSORGBOTTOM
 10
0.0
 20
0.0
 30
0.0
  9
$PUCSORGLEFT
 10
0.0
 20
0.0
 30
0.0
  9
$PUCSORGRIGHT
 10
0.0
 20
0.0
 30
0.0
  9
$PUCSORGFRONT
 10
0.0
 20
0.0
 30
0.0
  9
$PUCSORGBACK
 10
0.0
 20
0.0
 30
0.0
  9
$USERI1
 70
     0
  9
$USERI2
 70
     0
  9
$USERI3
 70
     0
  9
$USERI4
 70
     0
  9
$USERI5
 70
     0
  9
$USERR1
 40
0.0
  9
$USERR2
 40
0.0
  9
$USERR3
 40
0.0
  9
$USERR4
 40
0.0
  9
$USERR5
 40
0.0
  9
$WORLDVIEW
 70
     1
  9
$SHADEDGE
 70
     3
  9
$SHADEDIF
 70
    70
  9
$TILEMODE
 70
     1
  9
$MAXACTVP
 70
    16
  9
$PINSBASE
 10
0.0
 20
0.0
 30
0.0
  9
$PLIMCHECK
 70
     0
  9
$PEXTMIN
 10
1.000000000000000E+20
 20
1.000000000000000E+20
 30
1.000000000000000E+20
  9
$PEXTMAX
 10
-1.000000000000000E+20
 20
-1.000000000000000E+20
 30
-1.000000000000000E+20
  9
$PLIMMIN
 10
0.0
 20
0.0
  9
$PLIMMAX
 10
420.0
 20
297.0
  9
$UNITMODE
 70
     0
  9
$VISRETAIN
 70
     0
  9
$PLINEGEN
 70
     0
  9
$PSLTSCALE
 70
     0
  9
$TREEDEPTH
 70
  3020
  9
$CMLSTYLE
  2
STANDARD
  9
$CMLJUST
 70
     0
  9
$CMLSCALE
 40
1.0
  9
$PROXYGRAPHICS
 70
     1
  9
$MEASUREMENT
 70
     1
  9
$CELWEIGHT
370
    -1
  9
$ENDCAPS
280
     0
  9
$JOINSTYLE
280
     0
  9
$LWDISPLAY
290
     0
  9
$INSUNITS
 70
     0
  9
$HYPERLINKBASE
  1

  9
$STYLESHEET
  1

  9
$XEDIT
290
     1
  9
$CEPSNTYPE
380
     0
  9
$PSTYLEMODE
290
     1
  9
$FINGERPRINTGUID
  2
{14F5BDDF-B0FE-492B-8D35-F18F21FF08D8}
  9
$VERSIONGUID
  2
{B1FBEB2A-40F0-45EB-8ED5-E4576357DF9A}
  9
$EXTNAMES
290
     1
  9
$PSVPSCALE
 40
0.0
  9
$OLESTARTUP
290
     0
  0
ENDSEC
  0
SECTION
  2
CLASSES
  0
CLASS
  1
ACDBDICTIONARYWDFLT
  2
AcDbDictionaryWithDefault
  3
ObjectDBX Classes
 90
        0
280
     0
281
     0
  0
CLASS
  1
DICTIONARYVAR
  2
AcDbDictionaryVar
  3
ObjectDBX Classes
 90
        0
280
     0
281
     0
  0
CLASS
  1
ACDBPLACEHOLDER
  2
AcDbPlaceHolder
  3
ObjectDBX Classes
 90
        0
280
     0
281
     0
  0
CLASS
  1
LAYOUT
  2
AcDbLayout
  3
ObjectDBX Classes
 90
        0
280
     0
281
     0
  0
ENDSEC
  0
SECTION
  2
TABLES
  0
TABLE
  2
VPORT
  5
746D
330
0
100
AcDbSymbolTable
 70
     2
  0
VPORT
  5
1A510
330
746D
100
AcDbSymbolTableRecord
100
AcDbViewportTableRecord
  2
*Active
 70
     0
 10
0.0
 20
0.0
 11
1.0
 21
1.0
 12
8223.761025238502
 22
6348.725984059456
 13
0.0
 23
0.0
 14
10.0
 24
10.0
 15
10.0
 25
10.0
 16
0.0
 26
0.0
 36
1.0
 17
0.0
 27
0.0
 37
0.0
 40
12805.99015605642
 41
1.525925925925925
 42
50.0
 43
0.0
 44
0.0
 50
0.0
 51
0.0
 71
     0
 72
     0
 73
     1
 74
     0
 75
     0
 76
     0
 77
     0
 78
     0
281
     0
 65
     1
110
0.0
120
0.0
130
0.0
111
1.0
121
0.0
131
0.0
112
0.0
122
1.0
132
0.0
 79
     0
146
0.0
  0
ENDTAB
  0
TABLE
  2
LTYPE
  5
746A
330
0
100
AcDbSymbolTable
 70
     4
  0
LTYPE
  5
7477
330
746A
100
AcDbSymbolTableRecord
100
AcDbLinetypeTableRecord
  2
BYBLOCK
 70
     0
  3

 72
    65
 73
     0
 40
0.0
  0
LTYPE
  5
7478
330
746A
100
AcDbSymbolTableRecord
100
AcDbLinetypeTableRecord
  2
BYLAYER
 70
     0
  3

 72
    65
 73
     0
 40
0.0
  0
LTYPE
  5
7479
330
746A
100
AcDbSymbolTableRecord
100
AcDbLinetypeTableRecord
  2
CONTINUOUS
 70
     0
  3
Solid line
 72
    65
 73
     0
 40
0.0
  0
LTYPE
  5
7816
330
746A
100
AcDbSymbolTableRecord
100
AcDbLinetypeTableRecord
  2
CENTER
 70
     0
  3
____ _ ____ _ ____ _ ____ _ ____ _ ____ _ ____ 
 72
    65
 73
     4
 40
2.0
 49
1.25
 74
     0
 49
-0.25
 74
     0
 49
0.25
 74
     0
 49
-0.25
 74
     0
  0
LTYPE
  5
781A
330
746A
100
AcDbSymbolTableRecord
100
AcDbLinetypeTableRecord
  2
HIDDEN
 70
     0
  3
__ __ __ __ __ __ __ __ __ __ __ __ __ __ __ __
 72
    65
 73
     2
 40
0.375
 49
0.25
 74
     0
 49
-0.125
 74
     0
  0
LTYPE
  5
781B
330
746A
100
AcDbSymbolTableRecord
100
AcDbLinetypeTableRecord
  2
PHANTOM
 70
     0
  3
______  __  __  ______  __  __  ______  __  __ 
 72
    65
 73
     6
 40
2.5
 49
1.25
 74
     0
 49
-0.25
 74
     0
 49
0.25
 74
     0
 49
-0.25
 74
     0
 49
0.25
 74
     0
 49
-0.25
 74
     0
  0
ENDTAB
  0
TABLE
  2
LAYER
  5
7467
102
{ACAD_XDICTIONARY
360
1804B
102
}
330
0
100
AcDbSymbolTable
 70
    12
  0
LAYER
  5
7474
330
7467
100
AcDbSymbolTableRecord
100
AcDbLayerTableRecord
  2
0
 70
     0
 62
     7
  6
CONTINUOUS
370
    -3
390
17EA1
  0
LAYER
  5
DEB2
330
7467
100
AcDbSymbolTableRecord
100
AcDbLayerTableRecord
  2
センター
 70
     0
 62
     3
  6
CENTER
370
    -3
390
17EA1
  0
LAYER
  5
DEB3
330
7467
100
AcDbSymbolTableRecord
100
AcDbLayerTableRecord
  2
寸法
 70
     0
 62
     4
  6
CONTINUOUS
370
    -3
390
17EA1
  0
LAYER
  5
DEB4
330
7467
100
AcDbSymbolTableRecord
100
AcDbLayerTableRecord
  2
部品1
 70
     0
 62
     7
  6
CONTINUOUS
370
    -3
390
17EA1
  0
LAYER
  5
DEB5
330
7467
100
AcDbSymbolTableRecord
100
AcDbLayerTableRecord
  2
補助
 70
     0
 62
    -1
  6
CONTINUOUS
370
    -3
390
17EA1
  0
LAYER
  5
DEB6
330
7467
100
AcDbSymbolTableRecord
100
AcDbLayerTableRecord
  2
文字
 70
     0
 62
     7
  6
CONTINUOUS
370
    -3
390
17EA1
  0
LAYER
  5
F255
330
7467
100
AcDbSymbolTableRecord
100
AcDbLayerTableRecord
  2
DEFPOINTS
 70
     0
 62
     7
  6
CONTINUOUS
290
     0
370
    -3
390
17EA1
  0
LAYER
  5
10B54
330
7467
100
AcDbSymbolTableRecord
100
AcDbLayerTableRecord
  2
仕様書枠
 70
     0
 62
   230
  6
CONTINUOUS
370
    -3
390
17EA1
  0
LAYER
  5
11729
330
7467
100
AcDbSymbolTableRecord
100
AcDbLayerTableRecord
  2
Ｇ．Ｌ
 70
     0
 62
    30
  6
CONTINUOUS
370
    -3
390
17EA1
  0
LAYER
  5
1173F
330
7467
100
AcDbSymbolTableRecord
100
AcDbLayerTableRecord
  2
細線
 70
     0
 62
     5
  6
CONTINUOUS
370
    -3
390
17EA1
  0
LAYER
  5
12CC4
330
7467
100
AcDbSymbolTableRecord
100
AcDbLayerTableRecord
  2
想像線
 70
     0
 62
     6
  6
PHANTOM
370
    -3
390
17EA1
  0
LAYER
  5
142E2
330
7467
100
AcDbSymbolTableRecord
100
AcDbLayerTableRecord
  2
破線
 70
     0
 62
     2
  6
HIDDEN
370
    -3
390
17EA1
  0
ENDTAB
  0
TABLE
  2
STYLE
  5
7468
330
0
100
AcDbSymbolTable
 70
     5
  0
STYLE
  5
7475
330
7468
100
AcDbSymbolTableRecord
100
AcDbTextStyleTableRecord
  2
STANDARD
 70
     0
 40
0.0
 41
1.0
 50
0.0
 71
     0
 42
4.0
  3
txt
  4
C:\AutoCAD LT\bigfont.shx
  0
STYLE
  5
763C
330
7468
100
AcDbSymbolTableRecord
100
AcDbTextStyleTableRecord
  2
MSMINCHO
 70
     0
 40
0.0
 41
1.0
 50
0.0
 71
     0
 42
1.199999999999999
  3
C:\AutoCAD LT\msminch2.TTF
  4

  0
STYLE
  5
F706
330
7468
100
AcDbSymbolTableRecord
100
AcDbTextStyleTableRecord
  2
STYLE1
 70
     0
 40
0.0
 41
1.0
 50
0.0
 71
     0
 42
120.0
  3
isocp.shx
  4
bigfont.shx
  0
STYLE
  5
103BF
330
7468
100
AcDbSymbolTableRecord
100
AcDbTextStyleTableRecord
  2
STYLE2
 70
     0
 40
0.0
 41
1.0
 50
0.0
 71
     0
 42
100.0
  3
MS PGothic.ttf
  4

1001
ACAD
1000
MS PGothic
1071
    32818
  0
STYLE
  5
10BAA
330
7468
100
AcDbSymbolTableRecord
100
AcDbTextStyleTableRecord
  2
STYLE3
 70
     0
 40
0.0
 41
1.0
 50
0.0
 71
     0
 42
100.0
  3

  4

1001
ACAD
1000
DFPGothic-EB
1071
    32818
  0
ENDTAB
  0
TABLE
  2
VIEW
  5
746B
330
0
100
AcDbSymbolTable
 70
     0
  0
ENDTAB
  0
TABLE
  2
UCS
  5
746C
330
0
100
AcDbSymbolTable
 70
     0
  0
ENDTAB
  0
TABLE
  2
APPID
  5
746E
330
0
100
AcDbSymbolTable
 70
     6
  0
APPID
  5
7476
330
746E
100
AcDbSymbolTableRecord
100
AcDbRegAppTableRecord
  2
ACAD
 70
     0
  0
APPID
  5
DEA9
330
746E
100
AcDbSymbolTableRecord
100
AcDbRegAppTableRecord
  2
CONTENTBLOCKICON
 70
     0
  0
APPID
  5
DEAA
330
746E
100
AcDbSymbolTableRecord
100
AcDbRegAppTableRecord
  2
CONTENTBLOCKDESCRIPTION
 70
     0
  0
APPID
  5
E71D
330
746E
100
AcDbSymbolTableRecord
100
AcDbRegAppTableRecord
  2
CONTENTTABDATA
 70
     0
  0
APPID
  5
E71E
330
746E
100
AcDbSymbolTableRecord
100
AcDbRegAppTableRecord
  2
CONTENTCURRENTTAB
 70
     0
  0
APPID
  5
F3BA
330
746E
100
AcDbSymbolTableRecord
100
AcDbRegAppTableRecord
  2
DRAWINGVARIABLESXDATA
 70
     0
  0
ENDTAB
  0
TABLE
  2
DIMSTYLE
  5
746F
330
0
100
AcDbSymbolTable
 70
     4
100
AcDbDimStyleTable
 71
     1
340
F71F
  0
DIMSTYLE
105
7484
330
746F
100
AcDbSymbolTableRecord
100
AcDbDimStyleTableRecord
  2
JIS
 70
     0
 41
2.5
 42
1.0
 43
7.0
 44
1.0
 73
     0
 74
     0
 77
     1
 78
     8
140
2.5
141
0.0
143
0.0394
147
0.0
172
     1
174
     1
175
     1
340
7475
  0
DIMSTYLE
105
F236
330
746F
100
AcDbSymbolTableRecord
100
AcDbDimStyleTableRecord
  2
INABA_S40
 70
     0
 40
40.0
 41
2.5
 42
0.5
 43
7.0
 44
1.5
 73
     0
 74
     0
 77
     3
 78
     8
140
3.0
141
0.0
143
0.0394
147
1.0
172
     1
173
     1
174
     1
175
     1
178
     7
289
     0
340
7475
341
DEAC
343
DEAC
344
DEAC
  0
DIMSTYLE
105
F71F
102
{ACAD_REACTORS
330
1540B
330
15633
330
15727
330
15735
330
1603B
330
1603C
330
17387
330
1739E
330
173AA
330
173AD
330
14521
330
14526
330
1452E
330
14530
330
14531
330
14532
330
14587
330
173AB
330
173AC
330
184AE
330
184C1
330
184E7
330
184E8
330
184E9
330
184EA
330
184EE
330
184EF
330
184F0
330
184F1
330
196D6
330
1983C
330
1985D
330
1989B
330
1989A
330
19899
330
198ED
102
}
330
746F
100
AcDbSymbolTableRecord
100
AcDbDimStyleTableRecord
  2
INABA_S40G
 70
     0
 40
40.0
 41
2.5
 42
0.5
 43
7.0
 44
1.5
 73
     0
 74
     0
 77
     3
 78
     8
140
3.0
141
0.0
143
0.0394
147
1.0
172
     1
173
     1
174
     1
178
     7
271
     1
288
     1
340
F706
341
F770
343
F770
344
F770
  0
DIMSTYLE
105
1A3F4
330
746F
100
AcDbSymbolTableRecord
100
AcDbDimStyleTableRecord
  2
INABA_S20G
 70
     0
 40
20.0
 41
2.5
 42
0.5
 43
7.0
 44
1.5
 73
     0
 74
     0
 77
     3
 78
     8
140
3.0
141
0.0
143
0.0394
147
1.0
172
     1
173
     1
174
     1
178
     7
271
     1
340
F706
341
F770
343
F770
344
F770
  0
ENDTAB
  0
TABLE
  2
BLOCK_RECORD
  5
7466
330
0
100
AcDbSymbolTable
 70
    38
  0
BLOCK_RECORD
  5
747D
330
7466
100
AcDbSymbolTableRecord
100
AcDbBlockTableRecord
  2
*MODEL_SPACE
340
17EA6
  0
BLOCK_RECORD
  5
747A
330
7466
100
AcDbSymbolTableRecord
100
AcDbBlockTableRecord
  2
*PAPER_SPACE
340
17EA7
  0
BLOCK_RECORD
  5
DEAC
330
7466
100
AcDbSymbolTableRecord
100
AcDbBlockTableRecord
  2
_OPEN
340
0
  0
BLOCK_RECORD
  5
F770
330
7466
100
AcDbSymbolTableRecord
100
AcDbBlockTableRecord
  2
_DOTSMALL
340
0
102
{BLKREFS
331
1580D
331
1580E
331
15818
331
15819
331
19C74
331
19C75
331
19C7D
331
19C7E
331
19C86
331
19C87
331
19C8F
331
19C90
331
19C97
331
19C98
331
19C9F
331
19CA0
331
19CA7
331
19CA8
331
19CAF
331
19CB0
331
19CB8
331
19CB9
331
19CC1
331
19CC2
331
19CCA
331
19CCB
331
19CD3
331
19CD4
331
19CDC
331
19CDD
331
19CE5
331
19CE6
331
19CEE
331
19CEF
331
19CF9
331
19CFA
331
19D02
331
19D03
331
19D0B
331
19D0C
331
19D16
331
19D17
331
19D21
331
19D22
331
19D2A
331
19D2B
331
19D35
331
19D36
331
1A368
331
1A369
331
1A373
331
1A374
331
1A37C
331
1A37D
331
1A385
331
1A386
331
1A38E
331
1A38F
331
1A397
331
1A398
331
1A3A0
331
1A3A1
331
1A3AB
331
1A3AC
331
1A3B4
331
1A3B5
331
1A3BD
331
1A3BE
331
1A3C8
331
1A3C9
331
1A3D1
331
1A3D2
331
1A3DB
331
1A3DC
331
1A3E5
331
1A3E6
102
}
  0
BLOCK_RECORD
  5
1458A
330
7466
100
AcDbSymbolTableRecord
100
AcDbBlockTableRecord
  2
*D2
340
0
  0
BLOCK_RECORD
  5
14598
330
7466
100
AcDbSymbolTableRecord
100
AcDbBlockTableRecord
  2
*D3
340
0
  0
BLOCK_RECORD
  5
145A4
330
7466
100
AcDbSymbolTableRecord
100
AcDbBlockTableRecord
  2
*D4
340
0
  0
BLOCK_RECORD
  5
145BE
330
7466
100
AcDbSymbolTableRecord
100
AcDbBlockTableRecord
  2
*D5
340
0
  0
BLOCK_RECORD
  5
145CC
330
7466
100
AcDbSymbolTableRecord
100
AcDbBlockTableRecord
  2
*D6
340
0
  0
BLOCK_RECORD
  5
145D8
330
7466
100
AcDbSymbolTableRecord
100
AcDbBlockTableRecord
  2
*D7
340
0
  0
BLOCK_RECORD
  5
14608
330
7466
100
AcDbSymbolTableRecord
100
AcDbBlockTableRecord
  2
*D8
340
0
  0
BLOCK_RECORD
  5
153FF
330
7466
100
AcDbSymbolTableRecord
100
AcDbBlockTableRecord
  2
*D9
340
0
  0
BLOCK_RECORD
  5
15640
330
7466
100
AcDbSymbolTableRecord
100
AcDbBlockTableRecord
  2
*D10
340
0
  0
BLOCK_RECORD
  5
1571B
330
7466
100
AcDbSymbolTableRecord
100
AcDbBlockTableRecord
  2
*D11
340
0
  0
BLOCK_RECORD
  5
15728
330
7466
100
AcDbSymbolTableRecord
100
AcDbBlockTableRecord
  2
*D12
340
0
  0
BLOCK_RECORD
  5
1603D
330
7466
100
AcDbSymbolTableRecord
100
AcDbBlockTableRecord
  2
*D13
340
0
  0
BLOCK_RECORD
  5
16049
330
7466
100
AcDbSymbolTableRecord
100
AcDbBlockTableRecord
  2
*D14
340
0
  0
BLOCK_RECORD
  5
1737A
330
7466
100
AcDbSymbolTableRecord
100
AcDbBlockTableRecord
  2
*D15
340
0
  0
BLOCK_RECORD
  5
17393
330
7466
100
AcDbSymbolTableRecord
100
AcDbBlockTableRecord
  2
*D16
340
0
  0
BLOCK_RECORD
  5
1739F
330
7466
100
AcDbSymbolTableRecord
100
AcDbBlockTableRecord
  2
*D17
340
0
  0
BLOCK_RECORD
  5
173AE
330
7466
100
AcDbSymbolTableRecord
100
AcDbBlockTableRecord
  2
*D18
340
0
  0
BLOCK_RECORD
  5
173BA
330
7466
100
AcDbSymbolTableRecord
100
AcDbBlockTableRecord
  2
*D19
340
0
  0
BLOCK_RECORD
  5
173C5
330
7466
100
AcDbSymbolTableRecord
100
AcDbBlockTableRecord
  2
*D20
340
0
  0
BLOCK_RECORD
  5
18A15
330
7466
100
AcDbSymbolTableRecord
100
AcDbBlockTableRecord
  2
*D21
340
0
  0
BLOCK_RECORD
  5
18A22
330
7466
100
AcDbSymbolTableRecord
100
AcDbBlockTableRecord
  2
*D22
340
0
  0
BLOCK_RECORD
  5
18A2F
330
7466
100
AcDbSymbolTableRecord
100
AcDbBlockTableRecord
  2
*D23
340
0
  0
BLOCK_RECORD
  5
18A3B
330
7466
100
AcDbSymbolTableRecord
100
AcDbBlockTableRecord
  2
*D24
340
0
  0
BLOCK_RECORD
  5
18A49
330
7466
100
AcDbSymbolTableRecord
100
AcDbBlockTableRecord
  2
*D25
340
0
  0
BLOCK_RECORD
  5
18A55
330
7466
100
AcDbSymbolTableRecord
100
AcDbBlockTableRecord
  2
*D26
340
0
  0
BLOCK_RECORD
  5
18A61
330
7466
100
AcDbSymbolTableRecord
100
AcDbBlockTableRecord
  2
*D27
340
0
  0
BLOCK_RECORD
  5
18A6F
330
7466
100
AcDbSymbolTableRecord
100
AcDbBlockTableRecord
  2
*D28
340
0
  0
BLOCK_RECORD
  5
18A7B
330
7466
100
AcDbSymbolTableRecord
100
AcDbBlockTableRecord
  2
*D29
340
0
  0
BLOCK_RECORD
  5
18A87
330
7466
100
AcDbSymbolTableRecord
100
AcDbBlockTableRecord
  2
*D30
340
0
  0
BLOCK_RECORD
  5
19744
330
7466
100
AcDbSymbolTableRecord
100
AcDbBlockTableRecord
  2
*D31
340
0
  0
BLOCK_RECORD
  5
19848
330
7466
100
AcDbSymbolTableRecord
100
AcDbBlockTableRecord
  2
*D32
340
0
  0
BLOCK_RECORD
  5
19869
330
7466
100
AcDbSymbolTableRecord
100
AcDbBlockTableRecord
  2
*D33
340
0
  0
BLOCK_RECORD
  5
198AA
330
7466
100
AcDbSymbolTableRecord
100
AcDbBlockTableRecord
  2
*D34
340
0
  0
BLOCK_RECORD
  5
198B8
330
7466
100
AcDbSymbolTableRecord
100
AcDbBlockTableRecord
  2
*D35
340
0
  0
BLOCK_RECORD
  5
198C4
330
7466
100
AcDbSymbolTableRecord
100
AcDbBlockTableRecord
  2
*D36
340
0
  0
BLOCK_RECORD
  5
198F8
330
7466
100
AcDbSymbolTableRecord
100
AcDbBlockTableRecord
  2
*D37
340
0
  0
ENDTAB
  0
ENDSEC
  0
SECTION
  2
BLOCKS
  0
BLOCK
  5
7489
330
747D
100
AcDbEntity
  8
0
100
AcDbBlockBegin
  2
*MODEL_SPACE
 70
     0
 10
0.0
 20
0.0
 30
0.0
  3
*MODEL_SPACE
  1

  0
ENDBLK
  5
748A
330
747D
100
AcDbEntity
  8
0
100
AcDbBlockEnd
  0
BLOCK
  5
7487
330
747A
100
AcDbEntity
 67
     1
  8
0
100
AcDbBlockBegin
  2
*PAPER_SPACE
 70
     0
 10
0.0
 20
0.0
 30
0.0
  3
*PAPER_SPACE
  1

  0
ENDBLK
  5
7488
330
747A
100
AcDbEntity
 67
     1
  8
0
100
AcDbBlockEnd
  0
BLOCK
  5
DEAD
330
DEAC
100
AcDbEntity
  8
0
100
AcDbBlockBegin
  2
_OPEN
 70
     0
 10
0.0
 20
0.0
 30
0.0
  3
_OPEN
  1

  0
LINE
  5
DEAE
330
DEAC
100
AcDbEntity
  8
0
  6
ByBlock
 62
     0
100
AcDbLine
 10
-1.0
 20
0.1666666666666666
 30
0.0
 11
0.0
 21
0.0
 31
0.0
  0
LINE
  5
DEAF
330
DEAC
100
AcDbEntity
  8
0
  6
ByBlock
 62
     0
100
AcDbLine
 10
0.0
 20
0.0
 30
0.0
 11
-1.0
 21
-0.1666666666666666
 31
0.0
  0
LINE
  5
DEB0
330
DEAC
100
AcDbEntity
  8
0
  6
ByBlock
 62
     0
100
AcDbLine
 10
0.0
 20
0.0
 30
0.0
 11
-1.0
 21
0.0
 31
0.0
  0
ENDBLK
  5
DEB1
330
DEAC
100
AcDbEntity
  8
0
100
AcDbBlockEnd
  0
BLOCK
  5
F771
330
F770
100
AcDbEntity
  8
0
 48
50.0
100
AcDbBlockBegin
  2
_DOTSMALL
 70
     0
 10
0.0
 20
0.0
 30
0.0
  3
_DOTSMALL
  1

  0
LWPOLYLINE
  5
F772
330
F770
100
AcDbEntity
  8
0
  6
ByBlock
 62
     0
 48
50.0
100
AcDbPolyline
 90
        2
 70
     1
 43
0.5
 10
-0.0625
 20
0.0
 42
1.0
 10
0.0625
 20
0.0
 42
1.0
  0
ENDBLK
  5
F776
330
F770
100
AcDbEntity
  8
0
 48
50.0
100
AcDbBlockEnd
  0
BLOCK
  5
15424
330
1458A
100
AcDbEntity
  8
0
 48
50.0
100
AcDbBlockBegin
  2
*D2
 70
     1
 10
0.0
 20
0.0
 30
0.0
  3
*D2
  1

  0
LINE
  5
19D30
330
1458A
100
AcDbEntity
  8
寸法
 62
     0
 48
50.0
370
    -2
100
AcDbLine
 10
4259.10827045947
 20
9474.601167301495
 30
0.0
 11
4259.10827045947
 21
9950.079517247869
 31
0.0
  0
LINE
  5
19D31
330
1458A
100
AcDbEntity
  8
寸法
 62
     0
 48
50.0
370
    -2
100
AcDbLine
 10
4314.108270459505
 20
9474.601167301495
 30
0.0
 11
4314.108270459505
 21
9950.079517247869
 31
0.0
  0
LINE
  5
19D32
330
1458A
100
AcDbEntity
  8
寸法
 62
     0
 48
50.0
370
    -2
100
AcDbLine
 10
4314.108270459505
 20
9890.079517247869
 30
0.0
 11
4414.108270459505
 21
9890.079517247869
 31
0.0
  0
LINE
  5
19D33
330
1458A
100
AcDbEntity
  8
寸法
 62
     0
 48
50.0
370
    -2
100
AcDbLine
 10
4259.10827045947
 20
9890.079517247869
 30
0.0
 11
3842.137707710993
 21
9890.079517247869
 31
0.0
  0
LINE
  5
19D34
330
1458A
100
AcDbEntity
  8
寸法
 62
     0
 48
50.0
370
    -2
100
AcDbLine
 10
4314.108270459505
 20
9890.079517247869
 30
0.0
 11
4259.10827045947
 21
9890.079517247869
 31
0.0
  0
INSERT
  5
19D35
330
1458A
100
AcDbEntity
  8
寸法
 62
     0
 48
50.0
370
    -2
100
AcDbBlockReference
  2
_DOTSMALL
 10
4314.108270459505
 20
9890.079517247869
 30
0.0
 41
100.0
 42
100.0
 43
100.0
 50
180.0
  0
INSERT
  5
19D36
330
1458A
100
AcDbEntity
  8
寸法
 62
     0
 48
50.0
370
    -2
100
AcDbBlockReference
  2
_DOTSMALL
 10
4259.10827045947
 20
9890.079517247869
 30
0.0
 41
100.0
 42
100.0
 43
100.0
  0
MTEXT
  5
19D37
330
1458A
100
AcDbEntity
  8
寸法
 62
     7
 48
50.0
100
AcDbMText
 10
3950.622989085232
 20
9990.079517247869
 30
0.0
 40
120.0
 41
0.0
 71
     5
 72
     1
  1
\A1;55
  7
STYLE1
 73
     1
 44
1.0
1001
ACAD
1000
MTEXTBEGIN
1070
    73
1070
     1
1070
    44
1040
1.0
1070
    74
1070
     0
1000
MTEXTEND
  0
POINT
  5
19D38
330
1458A
100
AcDbEntity
  8
DEFPOINTS
 62
     0
 48
50.0
100
AcDbPoint
 10
4259.10827045947
 20
9454.601167301495
 30
0.0
  0
POINT
  5
19D39
330
1458A
100
AcDbEntity
  8
DEFPOINTS
 62
     0
 48
50.0
100
AcDbPoint
 10
4314.108270459505
 20
9454.601167301495
 30
0.0
  0
POINT
  5
19D3A
330
1458A
100
AcDbEntity
  8
DEFPOINTS
 62
     0
 48
50.0
100
AcDbPoint
 10
4314.108270459505
 20
9890.079517247869
 30
0.0
  0
ENDBLK
  5
15430
330
1458A
100
AcDbEntity
  8
0
 48
50.0
100
AcDbBlockEnd
  0
BLOCK
  5
17C78
330
14598
100
AcDbEntity
  8
0
 48
50.0
100
AcDbBlockBegin
  2
*D3
 70
     1
 10
0.0
 20
0.0
 30
0.0
  3
*D3
  1

  0
LINE
  5
19D27
330
14598
100
AcDbEntity
  8
寸法
 62
     0
 48
50.0
370
    -2
100
AcDbLine
 10
8869.108270459506
 20
9454.601167301623
 30
0.0
 11
9921.641557933551
 21
9454.601167301623
 31
0.0
  0
LINE
  5
19D28
330
14598
100
AcDbEntity
  8
寸法
 62
     0
 48
50.0
370
    -2
100
AcDbLine
 10
8869.108270459481
 20
7664.601167301613
 30
0.0
 11
9921.641557933551
 21
7664.601167301613
 31
0.0
  0
LINE
  5
19D29
330
14598
100
AcDbEntity
  8
寸法
 62
     0
 48
50.0
370
    -2
100
AcDbLine
 10
9861.64155793355
 20
9454.601167301623
 30
0.0
 11
9861.64155793355
 21
7664.601167301613
 31
0.0
  0
INSERT
  5
19D2A
330
14598
100
AcDbEntity
  8
寸法
 62
     0
 48
50.0
370
    -2
100
AcDbBlockReference
  2
_DOTSMALL
 10
9861.64155793355
 20
9454.601167301623
 30
0.0
 41
100.0
 42
100.0
 43
100.0
 50
90.0
  0
INSERT
  5
19D2B
330
14598
100
AcDbEntity
  8
寸法
 62
     0
 48
50.0
370
    -2
100
AcDbBlockReference
  2
_DOTSMALL
 10
9861.64155793355
 20
7664.601167301613
 30
0.0
 41
100.0
 42
100.0
 43
100.0
 50
270.0
  0
MTEXT
  5
19D2C
330
14598
100
AcDbEntity
  8
寸法
 62
     7
 48
50.0
100
AcDbMText
 10
9761.641557933549
 20
8559.601167301618
 30
0.0
 40
120.0
 41
0.0
 71
     5
 72
     1
  1
\A1;1790
  7
STYLE1
 11
0.0000000000000001
 21
1.0
 31
0.0
 73
     1
 44
1.0
1001
ACAD
1000
MTEXTBEGIN
1070
    73
1070
     1
1070
    44
1040
1.0
1070
    74
1070
     0
1000
MTEXTEND
  0
POINT
  5
19D2D
330
14598
100
AcDbEntity
  8
DEFPOINTS
 62
     0
 48
50.0
100
AcDbPoint
 10
8849.108270459508
 20
9454.601167301623
 30
0.0
  0
POINT
  5
19D2E
330
14598
100
AcDbEntity
  8
DEFPOINTS
 62
     0
 48
50.0
100
AcDbPoint
 10
8849.108270459481
 20
7664.601167301613
 30
0.0
  0
POINT
  5
19D2F
330
14598
100
AcDbEntity
  8
DEFPOINTS
 62
     0
 48
50.0
100
AcDbPoint
 10
9861.64155793355
 20
7664.601167301613
 30
0.0
  0
ENDBLK
  5
17C82
330
14598
100
AcDbEntity
  8
0
 48
50.0
100
AcDbBlockEnd
  0
BLOCK
  5
1492F
330
145A4
100
AcDbEntity
  8
0
 48
50.0
100
AcDbBlockBegin
  2
*D4
 70
     1
 10
0.0
 20
0.0
 30
0.0
  3
*D4
  1

  0
LINE
  5
19D1C
330
145A4
100
AcDbEntity
  8
寸法
 62
     0
 48
50.0
370
    -2
100
AcDbLine
 10
8869.108270459506
 20
9454.601167301623
 30
0.0
 11
9556.534616193918
 21
9454.601167301623
 31
0.0
  0
LINE
  5
19D1D
330
145A4
100
AcDbEntity
  8
寸法
 62
     0
 48
50.0
370
    -2
100
AcDbLine
 10
8869.108270459506
 20
9399.601167301625
 30
0.0
 11
9556.534616193918
 21
9399.601167301625
 31
0.0
  0
LINE
  5
19D1E
330
145A4
100
AcDbEntity
  8
寸法
 62
     0
 48
50.0
370
    -2
100
AcDbLine
 10
9496.534616193917
 20
9399.601167301625
 30
0.0
 11
9496.534616193917
 21
9299.601167301625
 31
0.0
  0
LINE
  5
19D1F
330
145A4
100
AcDbEntity
  8
寸法
 62
     0
 48
50.0
370
    -2
100
AcDbLine
 10
9496.534616193917
 20
9454.601167301623
 30
0.0
 11
9496.534616193917
 21
9871.571730050099
 31
0.0
  0
LINE
  5
19D20
330
145A4
100
AcDbEntity
  8
寸法
 62
     0
 48
50.0
370
    -2
100
AcDbLine
 10
9496.534616193917
 20
9399.601167301625
 30
0.0
 11
9496.534616193917
 21
9454.601167301623
 31
0.0
  0
INSERT
  5
19D21
330
145A4
100
AcDbEntity
  8
寸法
 62
     0
 48
50.0
370
    -2
100
AcDbBlockReference
  2
_DOTSMALL
 10
9496.534616193917
 20
9399.601167301625
 30
0.0
 41
100.0
 42
100.0
 43
100.0
 50
90.0
  0
INSERT
  5
19D22
330
145A4
100
AcDbEntity
  8
寸法
 62
     0
 48
50.0
370
    -2
100
AcDbBlockReference
  2
_DOTSMALL
 10
9496.534616193917
 20
9454.601167301623
 30
0.0
 41
100.0
 42
100.0
 43
100.0
 50
270.0
  0
MTEXT
  5
19D23
330
145A4
100
AcDbEntity
  8
寸法
 62
     7
 48
50.0
100
AcDbMText
 10
9396.534616193916
 20
9763.086448675863
 30
0.0
 40
120.0
 41
0.0
 71
     5
 72
     1
  1
\A1;55
  7
STYLE1
 11
0.0000000000000001
 21
1.0
 31
0.0
 73
     1
 44
1.0
1001
ACAD
1000
MTEXTBEGIN
1070
    73
1070
     1
1070
    44
1040
1.0
1070
    74
1070
     0
1000
MTEXTEND
  0
POINT
  5
19D24
330
145A4
100
AcDbEntity
  8
DEFPOINTS
 62
     0
 48
50.0
100
AcDbPoint
 10
8849.108270459508
 20
9454.601167301623
 30
0.0
  0
POINT
  5
19D25
330
145A4
100
AcDbEntity
  8
DEFPOINTS
 62
     0
 48
50.0
100
AcDbPoint
 10
8849.108270459508
 20
9399.601167301625
 30
0.0
  0
POINT
  5
19D26
330
145A4
100
AcDbEntity
  8
DEFPOINTS
 62
     0
 48
50.0
100
AcDbPoint
 10
9496.534616193917
 20
9399.601167301625
 30
0.0
  0
ENDBLK
  5
1493B
330
145A4
100
AcDbEntity
  8
0
 48
50.0
100
AcDbBlockEnd
  0
BLOCK
  5
1496A
330
145BE
100
AcDbEntity
  8
0
 48
50.0
100
AcDbBlockBegin
  2
*D5
 70
     1
 10
0.0
 20
0.0
 30
0.0
  3
*D5
  1

  0
LINE
  5
19D11
330
145BE
100
AcDbEntity
  8
寸法
 62
     0
 48
50.0
370
    -2
100
AcDbLine
 10
8869.108270459481
 20
7719.601167301608
 30
0.0
 11
9556.534616193891
 21
7719.601167301608
 31
0.0
  0
LINE
  5
19D12
330
145BE
100
AcDbEntity
  8
寸法
 62
     0
 48
50.0
370
    -2
100
AcDbLine
 10
8869.108270459481
 20
7664.601167301613
 30
0.0
 11
9556.534616193891
 21
7664.601167301613
 31
0.0
  0
LINE
  5
19D13
330
145BE
100
AcDbEntity
  8
寸法
 62
     0
 48
50.0
370
    -2
100
AcDbLine
 10
9496.534616193892
 20
7719.601167301608
 30
0.0
 11
9496.534616193892
 21
7819.601167301609
 31
0.0
  0
LINE
  5
19D14
330
145BE
100
AcDbEntity
  8
寸法
 62
     0
 48
50.0
370
    -2
100
AcDbLine
 10
9496.534616193892
 20
7664.601167301613
 30
0.0
 11
9496.534616193892
 21
7178.254419022512
 31
0.0
  0
LINE
  5
19D15
330
145BE
100
AcDbEntity
  8
寸法
 62
     0
 48
50.0
370
    -2
100
AcDbLine
 10
9496.534616193892
 20
7719.601167301608
 30
0.0
 11
9496.534616193892
 21
7664.601167301613
 31
0.0
  0
INSERT
  5
19D16
330
145BE
100
AcDbEntity
  8
寸法
 62
     0
 48
50.0
370
    -2
100
AcDbBlockReference
  2
_DOTSMALL
 10
9496.534616193892
 20
7719.601167301608
 30
0.0
 41
100.0
 42
100.0
 43
100.0
 50
270.0
  0
INSERT
  5
19D17
330
145BE
100
AcDbEntity
  8
寸法
 62
     0
 48
50.0
370
    -2
100
AcDbBlockReference
  2
_DOTSMALL
 10
9496.534616193892
 20
7664.601167301613
 30
0.0
 41
100.0
 42
100.0
 43
100.0
 50
90.0
  0
MTEXT
  5
19D18
330
145BE
100
AcDbEntity
  8
寸法
 62
     7
 48
50.0
100
AcDbMText
 10
9396.534616193891
 20
7286.739700396752
 30
0.0
 40
120.0
 41
0.0
 71
     5
 72
     1
  1
\A1;55
  7
STYLE1
 11
0.0000000000000001
 21
1.0
 31
0.0
 73
     1
 44
1.0
1001
ACAD
1000
MTEXTBEGIN
1070
    73
1070
     1
1070
    44
1040
1.0
1070
    74
1070
     0
1000
MTEXTEND
  0
POINT
  5
19D19
330
145BE
100
AcDbEntity
  8
DEFPOINTS
 62
     0
 48
50.0
100
AcDbPoint
 10
8849.108270459481
 20
7719.601167301608
 30
0.0
  0
POINT
  5
19D1A
330
145BE
100
AcDbEntity
  8
DEFPOINTS
 62
     0
 48
50.0
100
AcDbPoint
 10
8849.108270459481
 20
7664.601167301613
 30
0.0
  0
POINT
  5
19D1B
330
145BE
100
AcDbEntity
  8
DEFPOINTS
 62
     0
 48
50.0
100
AcDbPoint
 10
9496.534616193892
 20
7664.601167301613
 30
0.0
  0
ENDBLK
  5
14976
330
145BE
100
AcDbEntity
  8
0
 48
50.0
100
AcDbBlockEnd
  0
BLOCK
  5
17C8E
330
145CC
100
AcDbEntity
  8
0
 48
50.0
100
AcDbBlockBegin
  2
*D6
 70
     1
 10
0.0
 20
0.0
 30
0.0
  3
*D6
  1

  0
LINE
  5
19D08
330
145CC
100
AcDbEntity
  8
寸法
 62
     0
 48
50.0
370
    -2
100
AcDbLine
 10
8869.108270459506
 20
9399.601167301625
 30
0.0
 11
9556.534616193916
 21
9399.601167301625
 31
0.0
  0
LINE
  5
19D09
330
145CC
100
AcDbEntity
  8
寸法
 62
     0
 48
50.0
370
    -2
100
AcDbLine
 10
8869.108270459481
 20
7719.601167301608
 30
0.0
 11
9556.534616193916
 21
7719.601167301608
 31
0.0
  0
LINE
  5
19D0A
330
145CC
100
AcDbEntity
  8
寸法
 62
     0
 48
50.0
370
    -2
100
AcDbLine
 10
9496.534616193917
 20
9399.601167301625
 30
0.0
 11
9496.534616193917
 21
7719.601167301608
 31
0.0
  0
INSERT
  5
19D0B
330
145CC
100
AcDbEntity
  8
寸法
 62
     0
 48
50.0
370
    -2
100
AcDbBlockReference
  2
_DOTSMALL
 10
9496.534616193917
 20
9399.601167301625
 30
0.0
 41
100.0
 42
100.0
 43
100.0
 50
90.0
  0
INSERT
  5
19D0C
330
145CC
100
AcDbEntity
  8
寸法
 62
     0
 48
50.0
370
    -2
100
AcDbBlockReference
  2
_DOTSMALL
 10
9496.534616193917
 20
7719.601167301608
 30
0.0
 41
100.0
 42
100.0
 43
100.0
 50
270.0
  0
MTEXT
  5
19D0D
330
145CC
100
AcDbEntity
  8
寸法
 62
     7
 48
50.0
100
AcDbMText
 10
9396.522805170292
 20
8559.601167301618
 30
0.0
 40
120.0
 41
0.0
 71
     5
 72
     1
  1
\A1;4X420=1680
  7
STYLE1
 11
0.0000000000000001
 21
1.0
 31
0.0
 73
     1
 44
1.0
1001
ACAD
1000
MTEXTBEGIN
1070
    73
1070
     1
1070
    44
1040
1.0
1070
    74
1070
     0
1000
MTEXTEND
  0
POINT
  5
19D0E
330
145CC
100
AcDbEntity
  8
DEFPOINTS
 62
     0
 48
50.0
100
AcDbPoint
 10
8849.108270459508
 20
9399.601167301625
 30
0.0
  0
POINT
  5
19D0F
330
145CC
100
AcDbEntity
  8
DEFPOINTS
 62
     0
 48
50.0
100
AcDbPoint
 10
8849.108270459481
 20
7719.601167301608
 30
0.0
  0
POINT
  5
19D10
330
145CC
100
AcDbEntity
  8
DEFPOINTS
 62
     0
 48
50.0
100
AcDbPoint
 10
9496.534616193917
 20
7719.601167301608
 30
0.0
  0
ENDBLK
  5
17C98
330
145CC
100
AcDbEntity
  8
0
 48
50.0
100
AcDbBlockEnd
  0
BLOCK
  5
17453
330
145D8
100
AcDbEntity
  8
0
 48
50.0
100
AcDbBlockBegin
  2
*D7
 70
     1
 10
0.0
 20
0.0
 30
0.0
  3
*D7
  1

  0
LINE
  5
19CFF
330
145D8
100
AcDbEntity
  8
寸法
 62
     0
 48
50.0
370
    -2
100
AcDbLine
 10
7319.108270459499
 20
7644.601167301449
 30
0.0
 11
7319.108270459499
 21
6840.465197947924
 31
0.0
  0
LINE
  5
19D00
330
145D8
100
AcDbEntity
  8
寸法
 62
     0
 48
50.0
370
    -2
100
AcDbLine
 10
8849.108270459481
 20
7644.601167301579
 30
0.0
 11
8849.108270459481
 21
6840.465197947924
 31
0.0
  0
LINE
  5
19D01
330
145D8
100
AcDbEntity
  8
寸法
 62
     0
 48
50.0
370
    -2
100
AcDbLine
 10
7319.108270459499
 20
6900.465197947925
 30
0.0
 11
8849.108270459481
 21
6900.465197947925
 31
0.0
  0
INSERT
  5
19D02
330
145D8
100
AcDbEntity
  8
寸法
 62
     0
 48
50.0
370
    -2
100
AcDbBlockReference
  2
_DOTSMALL
 10
7319.108270459499
 20
6900.465197947925
 30
0.0
 41
100.0
 42
100.0
 43
100.0
 50
180.0
  0
INSERT
  5
19D03
330
145D8
100
AcDbEntity
  8
寸法
 62
     0
 48
50.0
370
    -2
100
AcDbBlockReference
  2
_DOTSMALL
 10
8849.108270459481
 20
6900.465197947925
 30
0.0
 41
100.0
 42
100.0
 43
100.0
  0
MTEXT
  5
19D04
330
145D8
100
AcDbEntity
  8
寸法
 62
     7
 48
50.0
100
AcDbMText
 10
8027.78398469141
 20
7000.465197947924
 30
0.0
 40
120.0
 41
0.0
 71
     5
 72
     1
  1
\A1;1530
  7
STYLE1
 73
     1
 44
1.0
1001
ACAD
1000
MTEXTBEGIN
1070
    73
1070
     1
1070
    44
1040
1.0
1070
    74
1070
     0
1000
MTEXTEND
  0
POINT
  5
19D05
330
145D8
100
AcDbEntity
  8
DEFPOINTS
 62
     0
 48
50.0
100
AcDbPoint
 10
7319.108270459499
 20
7664.60116730145
 30
0.0
  0
POINT
  5
19D06
330
145D8
100
AcDbEntity
  8
DEFPOINTS
 62
     0
 48
50.0
100
AcDbPoint
 10
8849.108270459481
 20
7664.601167301578
 30
0.0
  0
POINT
  5
19D07
330
145D8
100
AcDbEntity
  8
DEFPOINTS
 62
     0
 48
50.0
100
AcDbPoint
 10
8849.108270459481
 20
6900.465197947925
 30
0.0
  0
ENDBLK
  5
1745D
330
145D8
100
AcDbEntity
  8
0
 48
50.0
100
AcDbBlockEnd
  0
BLOCK
  5
15417
330
14608
100
AcDbEntity
  8
0
 48
50.0
100
AcDbBlockBegin
  2
*D8
 70
     1
 10
0.0
 20
0.0
 30
0.0
  3
*D8
  1

  0
LINE
  5
19CF4
330
14608
100
AcDbEntity
  8
寸法
 62
     0
 48
50.0
370
    -2
100
AcDbLine
 10
8794.108270459506
 20
9474.601167301623
 30
0.0
 11
8794.108270459506
 21
9950.079517247999
 31
0.0
  0
LINE
  5
19CF5
330
14608
100
AcDbEntity
  8
寸法
 62
     0
 48
50.0
370
    -2
100
AcDbLine
 10
8849.108270459508
 20
9474.601167301623
 30
0.0
 11
8849.108270459508
 21
9950.079517247999
 31
0.0
  0
LINE
  5
19CF6
330
14608
100
AcDbEntity
  8
寸法
 62
     0
 48
50.0
370
    -2
100
AcDbLine
 10
8794.108270459506
 20
9890.079517247997
 30
0.0
 11
8694.108270459507
 21
9890.079517247997
 31
0.0
  0
LINE
  5
19CF7
330
14608
100
AcDbEntity
  8
寸法
 62
     0
 48
50.0
370
    -2
100
AcDbLine
 10
8849.108270459508
 20
9890.079517247997
 30
0.0
 11
9266.078833207982
 21
9890.079517247997
 31
0.0
  0
LINE
  5
19CF8
330
14608
100
AcDbEntity
  8
寸法
 62
     0
 48
50.0
370
    -2
100
AcDbLine
 10
8794.108270459506
 20
9890.079517247997
 30
0.0
 11
8849.108270459508
 21
9890.079517247997
 31
0.0
  0
INSERT
  5
19CF9
330
14608
100
AcDbEntity
  8
寸法
 62
     0
 48
50.0
370
    -2
100
AcDbBlockReference
  2
_DOTSMALL
 10
8794.108270459506
 20
9890.079517247997
 30
0.0
 41
100.0
 42
100.0
 43
100.0
  0
INSERT
  5
19CFA
330
14608
100
AcDbEntity
  8
寸法
 62
     0
 48
50.0
370
    -2
100
AcDbBlockReference
  2
_DOTSMALL
 10
8849.108270459508
 20
9890.079517247997
 30
0.0
 41
100.0
 42
100.0
 43
100.0
 50
180.0
  0
MTEXT
  5
19CFB
330
14608
100
AcDbEntity
  8
寸法
 62
     7
 48
50.0
100
AcDbMText
 10
9157.593551833745
 20
9990.079517247998
 30
0.0
 40
120.0
 41
0.0
 71
     5
 72
     1
  1
\A1;55
  7
STYLE1
 73
     1
 44
1.0
1001
ACAD
1000
MTEXTBEGIN
1070
    73
1070
     1
1070
    44
1040
1.0
1070
    74
1070
     0
1000
MTEXTEND
  0
POINT
  5
19CFC
330
14608
100
AcDbEntity
  8
DEFPOINTS
 62
     0
 48
50.0
100
AcDbPoint
 10
8794.108270459506
 20
9454.601167301623
 30
0.0
  0
POINT
  5
19CFD
330
14608
100
AcDbEntity
  8
DEFPOINTS
 62
     0
 48
50.0
100
AcDbPoint
 10
8849.108270459508
 20
9454.601167301623
 30
0.0
  0
POINT
  5
19CFE
330
14608
100
AcDbEntity
  8
DEFPOINTS
 62
     0
 48
50.0
100
AcDbPoint
 10
8849.108270459508
 20
9890.079517247997
 30
0.0
  0
ENDBLK
  5
15423
330
14608
100
AcDbEntity
  8
0
 48
50.0
100
AcDbBlockEnd
  0
BLOCK
  5
15447
330
153FF
100
AcDbEntity
  8
0
 48
50.0
100
AcDbBlockBegin
  2
*D9
 70
     1
 10
0.0
 20
0.0
 30
0.0
  3
*D9
  1

  0
LINE
  5
19CEB
330
153FF
100
AcDbEntity
  8
寸法
 62
     0
 48
50.0
370
    -2
100
AcDbLine
 10
8810.749286610878
 20
9442.101167301643
 30
0.0
 11
8729.222128776596
 21
9746.364662535867
 31
0.0
  0
LINE
  5
19CEC
330
153FF
100
AcDbEntity
  8
寸法
 62
     0
 48
50.0
370
    -2
100
AcDbLine
 10
8360.749286610881
 20
9442.101167301641
 30
0.0
 11
8279.222128776599
 21
9746.364662535867
 31
0.0
  0
LINE
  5
19CED
330
153FF
100
AcDbEntity
  8
寸法
 62
     0
 48
50.0
370
    -2
100
AcDbLine
 10
8745.299080322466
 20
9686.364662535867
 30
0.0
 11
8295.299080322466
 21
9686.364662535867
 31
0.0
  0
INSERT
  5
19CEE
330
153FF
100
AcDbEntity
  8
寸法
 62
     0
 48
50.0
370
    -2
100
AcDbBlockReference
  2
_DOTSMALL
 10
8745.299080322466
 20
9686.364662535867
 30
0.0
 41
100.0
 42
100.0
 43
100.0
  0
INSERT
  5
19CEF
330
153FF
100
AcDbEntity
  8
寸法
 62
     0
 48
50.0
370
    -2
100
AcDbBlockReference
  2
_DOTSMALL
 10
8295.299080322466
 20
9686.364662535867
 30
0.0
 41
100.0
 42
100.0
 43
100.0
 50
180.0
  0
MTEXT
  5
19CF0
330
153FF
100
AcDbEntity
  8
寸法
 62
     7
 48
50.0
100
AcDbMText
 10
8531.884899921598
 20
9786.364662535866
 30
0.0
 40
120.0
 41
0.0
 71
     5
 72
     1
  1
\A1;450
  7
STYLE1
 73
     1
 44
1.0
1001
ACAD
1000
MTEXTBEGIN
1070
    73
1070
     1
1070
    44
1040
1.0
1070
    74
1070
     0
1000
MTEXTEND
  0
POINT
  5
19CF1
330
153FF
100
AcDbEntity
  8
DEFPOINTS
 62
     0
 48
50.0
100
AcDbPoint
 10
8816.108270459501
 20
9422.101167301644
 30
0.0
  0
POINT
  5
19CF2
330
153FF
100
AcDbEntity
  8
DEFPOINTS
 62
     0
 48
50.0
100
AcDbPoint
 10
8366.108270459504
 20
9422.101167301642
 30
0.0
  0
POINT
  5
19CF3
330
153FF
100
AcDbEntity
  8
DEFPOINTS
 62
     0
 48
50.0
100
AcDbPoint
 10
8295.299080322466
 20
9686.364662535867
 30
0.0
  0
ENDBLK
  5
15451
330
153FF
100
AcDbEntity
  8
0
 48
50.0
100
AcDbBlockEnd
  0
BLOCK
  5
1734E
330
15640
100
AcDbEntity
  8
0
 48
50.0
100
AcDbBlockBegin
  2
*D10
 70
     1
 10
0.0
 20
0.0
 30
0.0
  3
*D10
  1

  0
LINE
  5
19CE2
330
15640
100
AcDbEntity
  8
寸法
 62
     0
 48
50.0
370
    -2
100
AcDbLine
 10
5789.108270459498
 20
7644.601167301449
 30
0.0
 11
5789.108270459498
 21
6840.465197947924
 31
0.0
  0
LINE
  5
19CE3
330
15640
100
AcDbEntity
  8
寸法
 62
     0
 48
50.0
370
    -2
100
AcDbLine
 10
7319.10827045948
 20
7644.601167301579
 30
0.0
 11
7319.10827045948
 21
6840.465197947924
 31
0.0
  0
LINE
  5
19CE4
330
15640
100
AcDbEntity
  8
寸法
 62
     0
 48
50.0
370
    -2
100
AcDbLine
 10
5789.108270459498
 20
6900.465197947925
 30
0.0
 11
7319.10827045948
 21
6900.465197947925
 31
0.0
  0
INSERT
  5
19CE5
330
15640
100
AcDbEntity
  8
寸法
 62
     0
 48
50.0
370
    -2
100
AcDbBlockReference
  2
_DOTSMALL
 10
5789.108270459498
 20
6900.465197947925
 30
0.0
 41
100.0
 42
100.0
 43
100.0
 50
180.0
  0
INSERT
  5
19CE6
330
15640
100
AcDbEntity
  8
寸法
 62
     0
 48
50.0
370
    -2
100
AcDbBlockReference
  2
_DOTSMALL
 10
7319.10827045948
 20
6900.465197947925
 30
0.0
 41
100.0
 42
100.0
 43
100.0
  0
MTEXT
  5
19CE7
330
15640
100
AcDbEntity
  8
寸法
 62
     7
 48
50.0
100
AcDbMText
 10
6474.108270459488
 20
7000.465197947924
 30
0.0
 40
120.0
 41
0.0
 71
     5
 72
     1
  1
\A1;1530
  7
STYLE1
 73
     1
 44
1.0
1001
ACAD
1000
MTEXTBEGIN
1070
    73
1070
     1
1070
    44
1040
1.0
1070
    74
1070
     0
1000
MTEXTEND
  0
POINT
  5
19CE8
330
15640
100
AcDbEntity
  8
DEFPOINTS
 62
     0
 48
50.0
100
AcDbPoint
 10
5789.108270459498
 20
7664.60116730145
 30
0.0
  0
POINT
  5
19CE9
330
15640
100
AcDbEntity
  8
DEFPOINTS
 62
     0
 48
50.0
100
AcDbPoint
 10
7319.10827045948
 20
7664.601167301578
 30
0.0
  0
POINT
  5
19CEA
330
15640
100
AcDbEntity
  8
DEFPOINTS
 62
     0
 48
50.0
100
AcDbPoint
 10
7319.10827045948
 20
6900.465197947925
 30
0.0
  0
ENDBLK
  5
17358
330
15640
100
AcDbEntity
  8
0
 48
50.0
100
AcDbBlockEnd
  0
BLOCK
  5
1571C
330
1571B
100
AcDbEntity
  8
0
 48
50.0
100
AcDbBlockBegin
  2
*D11
 70
     1
 10
0.0
 20
0.0
 30
0.0
  3
*D11
  1

  0
LINE
  5
19CD9
330
1571B
100
AcDbEntity
  8
寸法
 62
     0
 48
50.0
370
    -2
100
AcDbLine
 10
7374.108270459505
 20
9474.601167301495
 30
0.0
 11
7374.108270459505
 21
9950.079517248019
 31
0.0
  0
LINE
  5
19CDA
330
1571B
100
AcDbEntity
  8
寸法
 62
     0
 48
50.0
370
    -2
100
AcDbLine
 10
7264.108270459505
 20
9474.601167301495
 30
0.0
 11
7264.108270459505
 21
9950.079517248019
 31
0.0
  0
LINE
  5
19CDB
330
1571B
100
AcDbEntity
  8
寸法
 62
     0
 48
50.0
370
    -2
100
AcDbLine
 10
7374.108270459505
 20
9890.079517248018
 30
0.0
 11
7264.108270459505
 21
9890.079517248018
 31
0.0
  0
INSERT
  5
19CDC
330
1571B
100
AcDbEntity
  8
寸法
 62
     0
 48
50.0
370
    -2
100
AcDbBlockReference
  2
_DOTSMALL
 10
7374.108270459505
 20
9890.079517248018
 30
0.0
 41
100.0
 42
100.0
 43
100.0
  0
INSERT
  5
19CDD
330
1571B
100
AcDbEntity
  8
寸法
 62
     0
 48
50.0
370
    -2
100
AcDbBlockReference
  2
_DOTSMALL
 10
7264.108270459505
 20
9890.079517248018
 30
0.0
 41
100.0
 42
100.0
 43
100.0
 50
180.0
  0
MTEXT
  5
19CDE
330
1571B
100
AcDbEntity
  8
寸法
 62
     7
 48
50.0
100
AcDbMText
 10
7319.108270459505
 20
9990.079517248018
 30
0.0
 40
120.0
 41
0.0
 71
     5
 72
     1
  1
\A1;110
  7
STYLE1
 73
     1
 44
1.0
1001
ACAD
1000
MTEXTBEGIN
1070
    73
1070
     1
1070
    44
1040
1.0
1070
    74
1070
     0
1000
MTEXTEND
  0
POINT
  5
19CDF
330
1571B
100
AcDbEntity
  8
DEFPOINTS
 62
     0
 48
50.0
100
AcDbPoint
 10
7374.108270459505
 20
9454.601167301495
 30
0.0
  0
POINT
  5
19CE0
330
1571B
100
AcDbEntity
  8
DEFPOINTS
 62
     0
 48
50.0
100
AcDbPoint
 10
7264.108270459505
 20
9454.601167301495
 30
0.0
  0
POINT
  5
19CE1
330
1571B
100
AcDbEntity
  8
DEFPOINTS
 62
     0
 48
50.0
100
AcDbPoint
 10
7264.108270459505
 20
9890.079517248018
 30
0.0
  0
ENDBLK
  5
15726
330
1571B
100
AcDbEntity
  8
0
 48
50.0
100
AcDbBlockEnd
  0
BLOCK
  5
15741
330
15728
100
AcDbEntity
  8
0
 48
50.0
100
AcDbBlockBegin
  2
*D12
 70
     1
 10
0.0
 20
0.0
 30
0.0
  3
*D12
  1

  0
LINE
  5
19CD0
330
15728
100
AcDbEntity
  8
寸法
 62
     0
 48
50.0
370
    -2
100
AcDbLine
 10
5844.108270459504
 20
9474.601167301539
 30
0.0
 11
5844.108270459504
 21
9950.079517248019
 31
0.0
  0
LINE
  5
19CD1
330
15728
100
AcDbEntity
  8
寸法
 62
     0
 48
50.0
370
    -2
100
AcDbLine
 10
5734.108270459506
 20
9474.601167301623
 30
0.0
 11
5734.108270459506
 21
9950.079517248019
 31
0.0
  0
LINE
  5
19CD2
330
15728
100
AcDbEntity
  8
寸法
 62
     0
 48
50.0
370
    -2
100
AcDbLine
 10
5844.108270459504
 20
9890.079517248018
 30
0.0
 11
5734.108270459506
 21
9890.079517248018
 31
0.0
  0
INSERT
  5
19CD3
330
15728
100
AcDbEntity
  8
寸法
 62
     0
 48
50.0
370
    -2
100
AcDbBlockReference
  2
_DOTSMALL
 10
5844.108270459504
 20
9890.079517248018
 30
0.0
 41
100.0
 42
100.0
 43
100.0
  0
INSERT
  5
19CD4
330
15728
100
AcDbEntity
  8
寸法
 62
     0
 48
50.0
370
    -2
100
AcDbBlockReference
  2
_DOTSMALL
 10
5734.108270459506
 20
9890.079517248018
 30
0.0
 41
100.0
 42
100.0
 43
100.0
 50
180.0
  0
MTEXT
  5
19CD5
330
15728
100
AcDbEntity
  8
寸法
 62
     7
 48
50.0
100
AcDbMText
 10
5789.108270459505
 20
9990.079517248018
 30
0.0
 40
120.0
 41
0.0
 71
     5
 72
     1
  1
\A1;110
  7
STYLE1
 73
     1
 44
1.0
1001
ACAD
1000
MTEXTBEGIN
1070
    73
1070
     1
1070
    44
1040
1.0
1070
    74
1070
     0
1000
MTEXTEND
  0
POINT
  5
19CD6
330
15728
100
AcDbEntity
  8
DEFPOINTS
 62
     0
 48
50.0
100
AcDbPoint
 10
5844.108270459504
 20
9454.601167301538
 30
0.0
  0
POINT
  5
19CD7
330
15728
100
AcDbEntity
  8
DEFPOINTS
 62
     0
 48
50.0
100
AcDbPoint
 10
5734.108270459506
 20
9454.601167301623
 30
0.0
  0
POINT
  5
19CD8
330
15728
100
AcDbEntity
  8
DEFPOINTS
 62
     0
 48
50.0
100
AcDbPoint
 10
5734.108270459506
 20
9890.079517248018
 30
0.0
  0
ENDBLK
  5
1574B
330
15728
100
AcDbEntity
  8
0
 48
50.0
100
AcDbBlockEnd
  0
BLOCK
  5
17C99
330
1603D
100
AcDbEntity
  8
0
 48
50.0
100
AcDbBlockBegin
  2
*D13
 70
     1
 10
0.0
 20
0.0
 30
0.0
  3
*D13
  1

  0
LINE
  5
19CC7
330
1603D
100
AcDbEntity
  8
寸法
 62
     0
 48
50.0
370
    -2
100
AcDbLine
 10
8836.108270459506
 20
9420.492183453051
 30
0.0
 11
9291.291477860204
 21
9298.526210621826
 31
0.0
  0
LINE
  5
19CC8
330
1603D
100
AcDbEntity
  8
寸法
 62
     0
 48
50.0
370
    -2
100
AcDbLine
 10
8836.108270459718
 20
8567.492183453046
 30
0.0
 11
9291.291477860204
 21
8445.526210621878
 31
0.0
  0
LINE
  5
19CC9
330
1603D
100
AcDbEntity
  8
寸法
 62
     0
 48
50.0
370
    -2
100
AcDbLine
 10
9231.291477860201
 20
9314.603162167692
 30
0.0
 11
9231.291477860201
 21
8461.603162167746
 31
0.0
  0
INSERT
  5
19CCA
330
1603D
100
AcDbEntity
  8
寸法
 62
     0
 48
50.0
370
    -2
100
AcDbBlockReference
  2
_DOTSMALL
 10
9231.291477860201
 20
9314.603162167692
 30
0.0
 41
100.0
 42
100.0
 43
100.0
 50
90.0
  0
INSERT
  5
19CCB
330
1603D
100
AcDbEntity
  8
寸法
 62
     0
 48
50.0
370
    -2
100
AcDbBlockReference
  2
_DOTSMALL
 10
9231.291477860201
 20
8461.603162167746
 30
0.0
 41
100.0
 42
100.0
 43
100.0
 50
270.0
  0
MTEXT
  5
19CCC
330
1603D
100
AcDbEntity
  8
寸法
 62
     7
 48
50.0
100
AcDbMText
 10
9131.2914778602
 20
8888.103162167722
 30
0.0
 40
120.0
 41
0.0
 71
     5
 72
     1
  1
\A1;853
  7
STYLE1
 11
0.0000000000000001
 21
1.0
 31
0.0
 73
     1
 44
1.0
1001
ACAD
1000
MTEXTBEGIN
1070
    73
1070
     1
1070
    44
1040
1.0
1070
    74
1070
     0
1000
MTEXTEND
  0
POINT
  5
19CCD
330
1603D
100
AcDbEntity
  8
DEFPOINTS
 62
     0
 48
50.0
100
AcDbPoint
 10
8816.108270459507
 20
9425.851167301672
 30
0.0
  0
POINT
  5
19CCE
330
1603D
100
AcDbEntity
  8
DEFPOINTS
 62
     0
 48
50.0
100
AcDbPoint
 10
8816.108270459718
 20
8572.851167301669
 30
0.0
  0
POINT
  5
19CCF
330
1603D
100
AcDbEntity
  8
DEFPOINTS
 62
     0
 48
50.0
100
AcDbPoint
 10
9231.291477860201
 20
8461.603162167746
 30
0.0
  0
ENDBLK
  5
17CA3
330
1603D
100
AcDbEntity
  8
0
 48
50.0
100
AcDbBlockEnd
  0
BLOCK
  5
1604A
330
16049
100
AcDbEntity
  8
0
 48
50.0
100
AcDbBlockBegin
  2
*D14
 70
     1
 10
0.0
 20
0.0
 30
0.0
  3
*D14
  1

  0
LINE
  5
19CBE
330
16049
100
AcDbEntity
  8
寸法
 62
     0
 48
50.0
370
    -2
100
AcDbLine
 10
8836.108270459503
 20
8532.74218345304
 30
0.0
 11
9291.291477860204
 21
8410.776210621813
 31
0.0
  0
LINE
  5
19CBF
330
16049
100
AcDbEntity
  8
寸法
 62
     0
 48
50.0
370
    -2
100
AcDbLine
 10
8836.108270459718
 20
7736.742183453036
 30
0.0
 11
9291.291477860204
 21
7614.776210621866
 31
0.0
  0
LINE
  5
19CC0
330
16049
100
AcDbEntity
  8
寸法
 62
     0
 48
50.0
370
    -2
100
AcDbLine
 10
9231.291477860205
 20
8426.853162167679
 30
0.0
 11
9231.291477860205
 21
7630.853162167735
 31
0.0
  0
INSERT
  5
19CC1
330
16049
100
AcDbEntity
  8
寸法
 62
     0
 48
50.0
370
    -2
100
AcDbBlockReference
  2
_DOTSMALL
 10
9231.291477860205
 20
8426.853162167679
 30
0.0
 41
100.0
 42
100.0
 43
100.0
 50
90.0
  0
INSERT
  5
19CC2
330
16049
100
AcDbEntity
  8
寸法
 62
     0
 48
50.0
370
    -2
100
AcDbBlockReference
  2
_DOTSMALL
 10
9231.291477860205
 20
7630.853162167735
 30
0.0
 41
100.0
 42
100.0
 43
100.0
 50
270.0
  0
MTEXT
  5
19CC3
330
16049
100
AcDbEntity
  8
寸法
 62
     7
 48
50.0
100
AcDbMText
 10
9131.291477860202
 20
8047.507875105759
 30
0.0
 40
120.0
 41
0.0
 71
     5
 72
     1
  1
\A1;796
  7
STYLE1
 11
0.0000000000000001
 21
1.0
 31
0.0
 73
     1
 44
1.0
1001
ACAD
1000
MTEXTBEGIN
1070
    73
1070
     1
1070
    44
1040
1.0
1070
    74
1070
     0
1000
MTEXTEND
  0
POINT
  5
19CC4
330
16049
100
AcDbEntity
  8
DEFPOINTS
 62
     0
 48
50.0
100
AcDbPoint
 10
8816.108270459503
 20
8538.101167301661
 30
0.0
  0
POINT
  5
19CC5
330
16049
100
AcDbEntity
  8
DEFPOINTS
 62
     0
 48
50.0
100
AcDbPoint
 10
8816.108270459718
 20
7742.101167301658
 30
0.0
  0
POINT
  5
19CC6
330
16049
100
AcDbEntity
  8
DEFPOINTS
 62
     0
 48
50.0
100
AcDbPoint
 10
9231.291477860205
 20
7630.853162167735
 30
0.0
  0
ENDBLK
  5
16054
330
16049
100
AcDbEntity
  8
0
 48
50.0
100
AcDbBlockEnd
  0
BLOCK
  5
17388
330
1737A
100
AcDbEntity
  8
0
 48
50.0
100
AcDbBlockBegin
  2
*D15
 70
     1
 10
0.0
 20
0.0
 30
0.0
  3
*D15
  1

  0
LINE
  5
19CB5
330
1737A
100
AcDbEntity
  8
寸法
 62
     0
 48
50.0
370
    -2
100
AcDbLine
 10
7264.108270459505
 20
9474.601167301495
 30
0.0
 11
7264.108270459505
 21
9950.079517248019
 31
0.0
  0
LINE
  5
19CB6
330
1737A
100
AcDbEntity
  8
寸法
 62
     0
 48
50.0
370
    -2
100
AcDbLine
 10
6844.108270459506
 20
9474.601167301569
 30
0.0
 11
6844.108270459506
 21
9950.079517248019
 31
0.0
  0
LINE
  5
19CB7
330
1737A
100
AcDbEntity
  8
寸法
 62
     0
 48
50.0
370
    -2
100
AcDbLine
 10
7264.108270459505
 20
9890.079517248018
 30
0.0
 11
6844.108270459506
 21
9890.079517248018
 31
0.0
  0
INSERT
  5
19CB8
330
1737A
100
AcDbEntity
  8
寸法
 62
     0
 48
50.0
370
    -2
100
AcDbBlockReference
  2
_DOTSMALL
 10
7264.108270459505
 20
9890.079517248018
 30
0.0
 41
100.0
 42
100.0
 43
100.0
  0
INSERT
  5
19CB9
330
1737A
100
AcDbEntity
  8
寸法
 62
     0
 48
50.0
370
    -2
100
AcDbBlockReference
  2
_DOTSMALL
 10
6844.108270459506
 20
9890.079517248018
 30
0.0
 41
100.0
 42
100.0
 43
100.0
 50
180.0
  0
MTEXT
  5
19CBA
330
1737A
100
AcDbEntity
  8
寸法
 62
     7
 48
50.0
100
AcDbMText
 10
7015.793751205295
 20
9990.091328271638
 30
0.0
 40
120.0
 41
0.0
 71
     5
 72
     1
  1
\A1;420
  7
STYLE1
 73
     1
 44
1.0
1001
ACAD
1000
MTEXTBEGIN
1070
    73
1070
     1
1070
    44
1040
1.0
1070
    74
1070
     0
1000
MTEXTEND
  0
POINT
  5
19CBB
330
1737A
100
AcDbEntity
  8
DEFPOINTS
 62
     0
 48
50.0
100
AcDbPoint
 10
7264.108270459505
 20
9454.601167301495
 30
0.0
  0
POINT
  5
19CBC
330
1737A
100
AcDbEntity
  8
DEFPOINTS
 62
     0
 48
50.0
100
AcDbPoint
 10
6844.108270459506
 20
9454.60116730157
 30
0.0
  0
POINT
  5
19CBD
330
1737A
100
AcDbEntity
  8
DEFPOINTS
 62
     0
 48
50.0
100
AcDbPoint
 10
6844.108270459506
 20
9890.079517248018
 30
0.0
  0
ENDBLK
  5
17392
330
1737A
100
AcDbEntity
  8
0
 48
50.0
100
AcDbBlockEnd
  0
BLOCK
  5
17394
330
17393
100
AcDbEntity
  8
0
 48
50.0
100
AcDbBlockBegin
  2
*D16
 70
     1
 10
0.0
 20
0.0
 30
0.0
  3
*D16
  1

  0
LINE
  5
19CAD
330
17393
100
AcDbEntity
  8
寸法
 62
     0
 48
50.0
370
    -2
100
AcDbLine
 10
6264.108270459505
 20
9474.601167301553
 30
0.0
 11
6264.108270459505
 21
9950.079517248019
 31
0.0
  0
LINE
  5
19CAE
330
17393
100
AcDbEntity
  8
寸法
 62
     0
 48
50.0
370
    -2
100
AcDbLine
 10
6844.108270459506
 20
9890.079517248018
 30
0.0
 11
6264.108270459505
 21
9890.079517248018
 31
0.0
  0
INSERT
  5
19CAF
330
17393
100
AcDbEntity
  8
寸法
 62
     0
 48
50.0
370
    -2
100
AcDbBlockReference
  2
_DOTSMALL
 10
6844.108270459506
 20
9890.079517248018
 30
0.0
 41
100.0
 42
100.0
 43
100.0
  0
INSERT
  5
19CB0
330
17393
100
AcDbEntity
  8
寸法
 62
     0
 48
50.0
370
    -2
100
AcDbBlockReference
  2
_DOTSMALL
 10
6264.108270459505
 20
9890.079517248018
 30
0.0
 41
100.0
 42
100.0
 43
100.0
 50
180.0
  0
MTEXT
  5
19CB1
330
17393
100
AcDbEntity
  8
寸法
 62
     7
 48
50.0
100
AcDbMText
 10
6554.108270459505
 20
9990.079517248018
 30
0.0
 40
120.0
 41
0.0
 71
     5
 72
     1
  1
\A1;580
  7
STYLE1
 73
     1
 44
1.0
1001
ACAD
1000
MTEXTBEGIN
1070
    73
1070
     1
1070
    44
1040
1.0
1070
    74
1070
     0
1000
MTEXTEND
  0
POINT
  5
19CB2
330
17393
100
AcDbEntity
  8
DEFPOINTS
 62
     0
 48
50.0
100
AcDbPoint
 10
6844.108270459506
 20
9454.60116730157
 30
0.0
  0
POINT
  5
19CB3
330
17393
100
AcDbEntity
  8
DEFPOINTS
 62
     0
 48
50.0
100
AcDbPoint
 10
6264.108270459505
 20
9454.601167301552
 30
0.0
  0
POINT
  5
19CB4
330
17393
100
AcDbEntity
  8
DEFPOINTS
 62
     0
 48
50.0
100
AcDbPoint
 10
6264.108270459505
 20
9890.079517248018
 30
0.0
  0
ENDBLK
  5
1739D
330
17393
100
AcDbEntity
  8
0
 48
50.0
100
AcDbBlockEnd
  0
BLOCK
  5
173A0
330
1739F
100
AcDbEntity
  8
0
 48
50.0
100
AcDbBlockBegin
  2
*D17
 70
     1
 10
0.0
 20
0.0
 30
0.0
  3
*D17
  1

  0
LINE
  5
19CA5
330
1739F
100
AcDbEntity
  8
寸法
 62
     0
 48
50.0
370
    -2
100
AcDbLine
 10
5844.108270459504
 20
9474.601167301527
 30
0.0
 11
5844.108270459504
 21
9950.079517248019
 31
0.0
  0
LINE
  5
19CA6
330
1739F
100
AcDbEntity
  8
寸法
 62
     0
 48
50.0
370
    -2
100
AcDbLine
 10
6264.108270459505
 20
9890.079517248018
 30
0.0
 11
5844.108270459504
 21
9890.079517248018
 31
0.0
  0
INSERT
  5
19CA7
330
1739F
100
AcDbEntity
  8
寸法
 62
     0
 48
50.0
370
    -2
100
AcDbBlockReference
  2
_DOTSMALL
 10
6264.108270459505
 20
9890.079517248018
 30
0.0
 41
100.0
 42
100.0
 43
100.0
  0
INSERT
  5
19CA8
330
1739F
100
AcDbEntity
  8
寸法
 62
     0
 48
50.0
370
    -2
100
AcDbBlockReference
  2
_DOTSMALL
 10
5844.108270459504
 20
9890.079517248018
 30
0.0
 41
100.0
 42
100.0
 43
100.0
 50
180.0
  0
MTEXT
  5
19CA9
330
1739F
100
AcDbEntity
  8
寸法
 62
     7
 48
50.0
100
AcDbMText
 10
6054.108270459504
 20
9990.091328271638
 30
0.0
 40
120.0
 41
0.0
 71
     5
 72
     1
  1
\A1;420
  7
STYLE1
 73
     1
 44
1.0
1001
ACAD
1000
MTEXTBEGIN
1070
    73
1070
     1
1070
    44
1040
1.0
1070
    74
1070
     0
1000
MTEXTEND
  0
POINT
  5
19CAA
330
1739F
100
AcDbEntity
  8
DEFPOINTS
 62
     0
 48
50.0
100
AcDbPoint
 10
6264.108270459505
 20
9454.601167301552
 30
0.0
  0
POINT
  5
19CAB
330
1739F
100
AcDbEntity
  8
DEFPOINTS
 62
     0
 48
50.0
100
AcDbPoint
 10
5844.108270459504
 20
9454.601167301527
 30
0.0
  0
POINT
  5
19CAC
330
1739F
100
AcDbEntity
  8
DEFPOINTS
 62
     0
 48
50.0
100
AcDbPoint
 10
5844.108270459504
 20
9890.079517248018
 30
0.0
  0
ENDBLK
  5
173A9
330
1739F
100
AcDbEntity
  8
0
 48
50.0
100
AcDbBlockEnd
  0
BLOCK
  5
173AF
330
173AE
100
AcDbEntity
  8
0
 48
50.0
100
AcDbBlockBegin
  2
*D18
 70
     1
 10
0.0
 20
0.0
 30
0.0
  3
*D18
  1

  0
LINE
  5
19C8C
330
173AE
100
AcDbEntity
  8
寸法
 62
     0
 48
50.0
370
    -2
100
AcDbLine
 10
8794.108270459505
 20
9474.601167301495
 30
0.0
 11
8794.108270459505
 21
9950.079517248019
 31
0.0
  0
LINE
  5
19C8D
330
173AE
100
AcDbEntity
  8
寸法
 62
     0
 48
50.0
370
    -2
100
AcDbLine
 10
8374.108270459506
 20
9474.601167301569
 30
0.0
 11
8374.108270459506
 21
9950.079517248019
 31
0.0
  0
LINE
  5
19C8E
330
173AE
100
AcDbEntity
  8
寸法
 62
     0
 48
50.0
370
    -2
100
AcDbLine
 10
8794.108270459505
 20
9890.079517248018
 30
0.0
 11
8374.108270459506
 21
9890.079517248018
 31
0.0
  0
INSERT
  5
19C8F
330
173AE
100
AcDbEntity
  8
寸法
 62
     0
 48
50.0
370
    -2
100
AcDbBlockReference
  2
_DOTSMALL
 10
8794.108270459505
 20
9890.079517248018
 30
0.0
 41
100.0
 42
100.0
 43
100.0
  0
INSERT
  5
19C90
330
173AE
100
AcDbEntity
  8
寸法
 62
     0
 48
50.0
370
    -2
100
AcDbBlockReference
  2
_DOTSMALL
 10
8374.108270459506
 20
9890.079517248018
 30
0.0
 41
100.0
 42
100.0
 43
100.0
 50
180.0
  0
MTEXT
  5
19C91
330
173AE
100
AcDbEntity
  8
寸法
 62
     7
 48
50.0
100
AcDbMText
 10
8545.793751205296
 20
9990.091328271638
 30
0.0
 40
120.0
 41
0.0
 71
     5
 72
     1
  1
\A1;420
  7
STYLE1
 73
     1
 44
1.0
1001
ACAD
1000
MTEXTBEGIN
1070
    73
1070
     1
1070
    44
1040
1.0
1070
    74
1070
     0
1000
MTEXTEND
  0
POINT
  5
19C92
330
173AE
100
AcDbEntity
  8
DEFPOINTS
 62
     0
 48
50.0
100
AcDbPoint
 10
8794.108270459505
 20
9454.601167301495
 30
0.0
  0
POINT
  5
19C93
330
173AE
100
AcDbEntity
  8
DEFPOINTS
 62
     0
 48
50.0
100
AcDbPoint
 10
8374.108270459506
 20
9454.60116730157
 30
0.0
  0
POINT
  5
19C94
330
173AE
100
AcDbEntity
  8
DEFPOINTS
 62
     0
 48
50.0
100
AcDbPoint
 10
8374.108270459506
 20
9890.079517248018
 30
0.0
  0
ENDBLK
  5
173B9
330
173AE
100
AcDbEntity
  8
0
 48
50.0
100
AcDbBlockEnd
  0
BLOCK
  5
173BB
330
173BA
100
AcDbEntity
  8
0
 48
50.0
100
AcDbBlockBegin
  2
*D19
 70
     1
 10
0.0
 20
0.0
 30
0.0
  3
*D19
  1

  0
LINE
  5
19C95
330
173BA
100
AcDbEntity
  8
寸法
 62
     0
 48
50.0
370
    -2
100
AcDbLine
 10
7794.108270459506
 20
9474.601167301553
 30
0.0
 11
7794.108270459506
 21
9950.079517248019
 31
0.0
  0
LINE
  5
19C96
330
173BA
100
AcDbEntity
  8
寸法
 62
     0
 48
50.0
370
    -2
100
AcDbLine
 10
8374.108270459506
 20
9890.079517248018
 30
0.0
 11
7794.108270459506
 21
9890.079517248018
 31
0.0
  0
INSERT
  5
19C97
330
173BA
100
AcDbEntity
  8
寸法
 62
     0
 48
50.0
370
    -2
100
AcDbBlockReference
  2
_DOTSMALL
 10
8374.108270459506
 20
9890.079517248018
 30
0.0
 41
100.0
 42
100.0
 43
100.0
  0
INSERT
  5
19C98
330
173BA
100
AcDbEntity
  8
寸法
 62
     0
 48
50.0
370
    -2
100
AcDbBlockReference
  2
_DOTSMALL
 10
7794.108270459506
 20
9890.079517248018
 30
0.0
 41
100.0
 42
100.0
 43
100.0
 50
180.0
  0
MTEXT
  5
19C99
330
173BA
100
AcDbEntity
  8
寸法
 62
     7
 48
50.0
100
AcDbMText
 10
8084.108270459507
 20
9990.079517248018
 30
0.0
 40
120.0
 41
0.0
 71
     5
 72
     1
  1
\A1;580
  7
STYLE1
 73
     1
 44
1.0
1001
ACAD
1000
MTEXTBEGIN
1070
    73
1070
     1
1070
    44
1040
1.0
1070
    74
1070
     0
1000
MTEXTEND
  0
POINT
  5
19C9A
330
173BA
100
AcDbEntity
  8
DEFPOINTS
 62
     0
 48
50.0
100
AcDbPoint
 10
8374.108270459506
 20
9454.60116730157
 30
0.0
  0
POINT
  5
19C9B
330
173BA
100
AcDbEntity
  8
DEFPOINTS
 62
     0
 48
50.0
100
AcDbPoint
 10
7794.108270459506
 20
9454.601167301552
 30
0.0
  0
POINT
  5
19C9C
330
173BA
100
AcDbEntity
  8
DEFPOINTS
 62
     0
 48
50.0
100
AcDbPoint
 10
7794.108270459506
 20
9890.079517248018
 30
0.0
  0
ENDBLK
  5
173C4
330
173BA
100
AcDbEntity
  8
0
 48
50.0
100
AcDbBlockEnd
  0
BLOCK
  5
173C6
330
173C5
100
AcDbEntity
  8
0
 48
50.0
100
AcDbBlockBegin
  2
*D20
 70
     1
 10
0.0
 20
0.0
 30
0.0
  3
*D20
  1

  0
LINE
  5
19C9D
330
173C5
100
AcDbEntity
  8
寸法
 62
     0
 48
50.0
370
    -2
100
AcDbLine
 10
7374.108270459505
 20
9474.601167301527
 30
0.0
 11
7374.108270459505
 21
9950.079517248019
 31
0.0
  0
LINE
  5
19C9E
330
173C5
100
AcDbEntity
  8
寸法
 62
     0
 48
50.0
370
    -2
100
AcDbLine
 10
7794.108270459506
 20
9890.079517248018
 30
0.0
 11
7374.108270459505
 21
9890.079517248018
 31
0.0
  0
INSERT
  5
19C9F
330
173C5
100
AcDbEntity
  8
寸法
 62
     0
 48
50.0
370
    -2
100
AcDbBlockReference
  2
_DOTSMALL
 10
7794.108270459506
 20
9890.079517248018
 30
0.0
 41
100.0
 42
100.0
 43
100.0
  0
INSERT
  5
19CA0
330
173C5
100
AcDbEntity
  8
寸法
 62
     0
 48
50.0
370
    -2
100
AcDbBlockReference
  2
_DOTSMALL
 10
7374.108270459505
 20
9890.079517248018
 30
0.0
 41
100.0
 42
100.0
 43
100.0
 50
180.0
  0
MTEXT
  5
19CA1
330
173C5
100
AcDbEntity
  8
寸法
 62
     7
 48
50.0
100
AcDbMText
 10
7584.108270459505
 20
9990.091328271638
 30
0.0
 40
120.0
 41
0.0
 71
     5
 72
     1
  1
\A1;420
  7
STYLE1
 73
     1
 44
1.0
1001
ACAD
1000
MTEXTBEGIN
1070
    73
1070
     1
1070
    44
1040
1.0
1070
    74
1070
     0
1000
MTEXTEND
  0
POINT
  5
19CA2
330
173C5
100
AcDbEntity
  8
DEFPOINTS
 62
     0
 48
50.0
100
AcDbPoint
 10
7794.108270459506
 20
9454.601167301552
 30
0.0
  0
POINT
  5
19CA3
330
173C5
100
AcDbEntity
  8
DEFPOINTS
 62
     0
 48
50.0
100
AcDbPoint
 10
7374.108270459505
 20
9454.601167301527
 30
0.0
  0
POINT
  5
19CA4
330
173C5
100
AcDbEntity
  8
DEFPOINTS
 62
     0
 48
50.0
100
AcDbPoint
 10
7374.108270459505
 20
9890.079517248018
 30
0.0
  0
ENDBLK
  5
173CF
330
173C5
100
AcDbEntity
  8
0
 48
50.0
100
AcDbBlockEnd
  0
BLOCK
  5
18A20
330
18A15
100
AcDbEntity
  8
0
 48
50.0
100
AcDbBlockBegin
  2
*D21
 70
     1
 10
0.0
 20
0.0
 30
0.0
  3
*D21
  1

  0
LINE
  5
1A3E1
330
18A15
100
AcDbEntity
  8
寸法
 62
     0
 48
50.0
370
    -2
100
AcDbLine
 10
10724.30993855806
 20
5016.420467513788
 30
0.0
 11
10108.37549945278
 21
5034.134617788118
 31
0.0
  0
LINE
  5
1A3E2
330
18A15
100
AcDbEntity
  8
寸法
 62
     0
 48
50.0
370
    -2
100
AcDbLine
 10
10720.25648300143
 20
4875.478743748075
 30
0.0
 11
10104.32204389615
 21
4893.192894022405
 31
0.0
  0
LINE
  5
1A3E3
330
18A15
100
AcDbEntity
  8
寸法
 62
     0
 48
50.0
370
    -2
100
AcDbLine
 10
10164.29724549859
 20
4891.468019317458
 30
0.0
 11
10168.35070105521
 21
5032.409743083171
 31
0.0
  0
LINE
  5
1A3E4
330
18A15
100
AcDbEntity
  8
寸法
 62
     0
 48
50.0
370
    -2
100
AcDbLine
 10
10168.35070105521
 20
5032.409743083171
 30
0.0
 11
10178.6999492849
 21
5392.260952697757
 31
0.0
  0
INSERT
  5
1A3E5
330
18A15
100
AcDbEntity
  8
寸法
 62
     0
 48
50.0
370
    -2
100
AcDbBlockReference
  2
_DOTSMALL
 10
10164.29724549859
 20
4891.468019317458
 30
0.0
 41
100.0
 42
100.0
 43
100.0
 50
268.3526390256378
  0
INSERT
  5
1A3E6
330
18A15
100
AcDbEntity
  8
寸法
 62
     0
 48
50.0
370
    -2
100
AcDbBlockReference
  2
_DOTSMALL
 10
10168.35070105521
 20
5032.409743083171
 30
0.0
 41
100.0
 42
100.0
 43
100.0
 50
88.35263902563776
  0
MTEXT
  5
1A3E7
330
18A15
100
AcDbEntity
  8
寸法
 62
     7
 48
50.0
100
AcDbMText
 10
10075.00405142012
 20
5265.189473734068
 30
0.0
 40
120.0
 41
0.0
 71
     5
 72
     1
  1
\A1;141
  7
STYLE1
 11
0.0287479117491237
 21
0.9995866933738488
 31
0.0
 73
     1
 44
1.0
1001
ACAD
1000
MTEXTBEGIN
1070
    73
1070
     1
1070
    44
1040
1.0
1070
    74
1070
     0
1000
MTEXTEND
  0
POINT
  5
1A3E8
330
18A15
100
AcDbEntity
  8
DEFPOINTS
 62
     0
 48
50.0
100
AcDbPoint
 10
10744.30167242554
 20
5015.845509278805
 30
0.0
  0
POINT
  5
1A3E9
330
18A15
100
AcDbEntity
  8
DEFPOINTS
 62
     0
 48
50.0
100
AcDbPoint
 10
10740.24821686891
 20
4874.903785513093
 30
0.0
  0
POINT
  5
1A3EA
330
18A15
100
AcDbEntity
  8
DEFPOINTS
 62
     0
 48
50.0
100
AcDbPoint
 10
10164.29724549859
 20
4891.468019317458
 30
0.0
  0
ENDBLK
  5
18A21
330
18A15
100
AcDbEntity
  8
0
 48
50.0
100
AcDbBlockEnd
  0
BLOCK
  5
18A2D
330
18A22
100
AcDbEntity
  8
0
 48
50.0
100
AcDbBlockBegin
  2
*D22
 70
     1
 10
0.0
 20
0.0
 30
0.0
  3
*D22
  1

  0
LINE
  5
1A3D7
330
18A22
100
AcDbEntity
  8
寸法
 62
     0
 48
50.0
370
    -2
100
AcDbLine
 10
12574.90565226696
 20
4983.93344005578
 30
0.0
 11
12574.90565226696
 21
5475.780214023431
 31
0.0
  0
LINE
  5
1A3D8
330
18A22
100
AcDbEntity
  8
寸法
 62
     0
 48
50.0
370
    -2
100
AcDbLine
 10
12654.90565226696
 20
4982.122760444127
 30
0.0
 11
12654.90565226696
 21
5475.780214023431
 31
0.0
  0
LINE
  5
1A3D9
330
18A22
100
AcDbEntity
  8
寸法
 62
     0
 48
50.0
370
    -2
100
AcDbLine
 10
12574.90565226696
 20
5415.780214023431
 30
0.0
 11
12654.90565226696
 21
5415.780214023431
 31
0.0
  0
LINE
  5
1A3DA
330
18A22
100
AcDbEntity
  8
寸法
 62
     0
 48
50.0
370
    -2
100
AcDbLine
 10
12654.90565226696
 20
5415.780214023431
 30
0.0
 11
12967.00014045594
 21
5415.780214023431
 31
0.0
  0
INSERT
  5
1A3DB
330
18A22
100
AcDbEntity
  8
寸法
 62
     0
 48
50.0
370
    -2
100
AcDbBlockReference
  2
_DOTSMALL
 10
12574.90565226696
 20
5415.780214023431
 30
0.0
 41
100.0
 42
100.0
 43
100.0
 50
180.0
  0
INSERT
  5
1A3DC
330
18A22
100
AcDbEntity
  8
寸法
 62
     0
 48
50.0
370
    -2
100
AcDbBlockReference
  2
_DOTSMALL
 10
12654.90565226696
 20
5415.780214023431
 30
0.0
 41
100.0
 42
100.0
 43
100.0
  0
MTEXT
  5
1A3DD
330
18A22
100
AcDbEntity
  8
寸法
 62
     7
 48
50.0
100
AcDbMText
 10
12860.95289636145
 20
5515.780214023431
 30
0.0
 40
120.0
 41
0.0
 71
     5
 72
     1
  1
\A1;80
  7
STYLE1
 73
     1
 44
1.0
1001
ACAD
1000
MTEXTBEGIN
1070
    73
1070
     1
1070
    44
1040
1.0
1070
    74
1070
     0
1000
MTEXTEND
  0
POINT
  5
1A3DE
330
18A22
100
AcDbEntity
  8
DEFPOINTS
 62
     0
 48
50.0
100
AcDbPoint
 10
12574.90565226696
 20
4963.93344005578
 30
0.0
  0
POINT
  5
1A3DF
330
18A22
100
AcDbEntity
  8
DEFPOINTS
 62
     0
 48
50.0
100
AcDbPoint
 10
12654.90565226696
 20
4962.122760444127
 30
0.0
  0
POINT
  5
1A3E0
330
18A22
100
AcDbEntity
  8
DEFPOINTS
 62
     0
 48
50.0
100
AcDbPoint
 10
12654.90565226696
 20
5415.780214023431
 30
0.0
  0
ENDBLK
  5
18A2E
330
18A22
100
AcDbEntity
  8
0
 48
50.0
100
AcDbBlockEnd
  0
BLOCK
  5
18A39
330
18A2F
100
AcDbEntity
  8
0
 48
50.0
100
AcDbBlockBegin
  2
*D23
 70
     1
 10
0.0
 20
0.0
 30
0.0
  3
*D23
  1

  0
LINE
  5
1A3CE
330
18A2F
100
AcDbEntity
  8
寸法
 62
     0
 48
50.0
370
    -2
100
AcDbLine
 10
12654.90565226696
 20
4982.122760444127
 30
0.0
 11
12654.90565226696
 21
5692.742029402045
 31
0.0
  0
LINE
  5
1A3CF
330
18A2F
100
AcDbEntity
  8
寸法
 62
     0
 48
50.0
370
    -2
100
AcDbLine
 10
10724.90565226696
 20
5037.12276044413
 30
0.0
 11
10724.90565226696
 21
5692.742029402045
 31
0.0
  0
LINE
  5
1A3D0
330
18A2F
100
AcDbEntity
  8
寸法
 62
     0
 48
50.0
370
    -2
100
AcDbLine
 10
12654.90565226696
 20
5632.742029402045
 30
0.0
 11
10724.90565226696
 21
5632.742029402045
 31
0.0
  0
INSERT
  5
1A3D1
330
18A2F
100
AcDbEntity
  8
寸法
 62
     0
 48
50.0
370
    -2
100
AcDbBlockReference
  2
_DOTSMALL
 10
12654.90565226696
 20
5632.742029402045
 30
0.0
 41
100.0
 42
100.0
 43
100.0
  0
INSERT
  5
1A3D2
330
18A2F
100
AcDbEntity
  8
寸法
 62
     0
 48
50.0
370
    -2
100
AcDbBlockReference
  2
_DOTSMALL
 10
10724.90565226696
 20
5632.742029402045
 30
0.0
 41
100.0
 42
100.0
 43
100.0
 50
180.0
  0
MTEXT
  5
1A3D3
330
18A2F
100
AcDbEntity
  8
寸法
 62
     7
 48
50.0
100
AcDbMText
 10
11630.71140351793
 20
5732.742029402045
 30
0.0
 40
120.0
 41
0.0
 71
     5
 72
     1
  1
\A1;1930
  7
STYLE1
 73
     1
 44
1.0
1001
ACAD
1000
MTEXTBEGIN
1070
    73
1070
     1
1070
    44
1040
1.0
1070
    74
1070
     0
1000
MTEXTEND
  0
POINT
  5
1A3D4
330
18A2F
100
AcDbEntity
  8
DEFPOINTS
 62
     0
 48
50.0
100
AcDbPoint
 10
12654.90565226696
 20
4962.122760444127
 30
0.0
  0
POINT
  5
1A3D5
330
18A2F
100
AcDbEntity
  8
DEFPOINTS
 62
     0
 48
50.0
100
AcDbPoint
 10
10724.90565226696
 20
5017.12276044413
 30
0.0
  0
POINT
  5
1A3D6
330
18A2F
100
AcDbEntity
  8
DEFPOINTS
 62
     0
 48
50.0
100
AcDbPoint
 10
10724.90565226696
 20
5632.742029402045
 30
0.0
  0
ENDBLK
  5
18A3A
330
18A2F
100
AcDbEntity
  8
0
 48
50.0
100
AcDbBlockEnd
  0
BLOCK
  5
18A47
330
18A3B
100
AcDbEntity
  8
0
 48
50.0
100
AcDbBlockBegin
  2
*D24
 70
     1
 10
0.0
 20
0.0
 30
0.0
  3
*D24
  1

  0
LINE
  5
1A3C3
330
18A3B
100
AcDbEntity
  8
寸法
 62
     0
 48
50.0
370
    -2
100
AcDbLine
 10
10784.90565226696
 20
5033.124378567103
 30
0.0
 11
10784.90565226696
 21
5475.780214023431
 31
0.0
  0
LINE
  5
1A3C4
330
18A3B
100
AcDbEntity
  8
寸法
 62
     0
 48
50.0
370
    -2
100
AcDbLine
 10
10724.90565226696
 20
5037.12276044413
 30
0.0
 11
10724.90565226696
 21
5475.780214023431
 31
0.0
  0
LINE
  5
1A3C5
330
18A3B
100
AcDbEntity
  8
寸法
 62
     0
 48
50.0
370
    -2
100
AcDbLine
 10
10784.90565226696
 20
5415.780214023431
 30
0.0
 11
10884.90565226696
 21
5415.780214023431
 31
0.0
  0
LINE
  5
1A3C6
330
18A3B
100
AcDbEntity
  8
寸法
 62
     0
 48
50.0
370
    -2
100
AcDbLine
 10
10724.90565226696
 20
5415.780214023431
 30
0.0
 11
10305.63006171578
 21
5415.780214023431
 31
0.0
  0
LINE
  5
1A3C7
330
18A3B
100
AcDbEntity
  8
寸法
 62
     0
 48
50.0
370
    -2
100
AcDbLine
 10
10784.90565226696
 20
5415.780214023431
 30
0.0
 11
10724.90565226696
 21
5415.780214023431
 31
0.0
  0
INSERT
  5
1A3C8
330
18A3B
100
AcDbEntity
  8
寸法
 62
     0
 48
50.0
370
    -2
100
AcDbBlockReference
  2
_DOTSMALL
 10
10784.90565226696
 20
5415.780214023431
 30
0.0
 41
100.0
 42
100.0
 43
100.0
 50
180.0
  0
INSERT
  5
1A3C9
330
18A3B
100
AcDbEntity
  8
寸法
 62
     0
 48
50.0
370
    -2
100
AcDbBlockReference
  2
_DOTSMALL
 10
10724.90565226696
 20
5415.780214023431
 30
0.0
 41
100.0
 42
100.0
 43
100.0
  0
MTEXT
  5
1A3CA
330
18A3B
100
AcDbEntity
  8
寸法
 62
     7
 48
50.0
100
AcDbMText
 10
10415.26785699137
 20
5515.780214023431
 30
0.0
 40
120.0
 41
0.0
 71
     5
 72
     1
  1
\A1;60
  7
STYLE1
 73
     1
 44
1.0
1001
ACAD
1000
MTEXTBEGIN
1070
    73
1070
     1
1070
    44
1040
1.0
1070
    74
1070
     0
1000
MTEXTEND
  0
POINT
  5
1A3CB
330
18A3B
100
AcDbEntity
  8
DEFPOINTS
 62
     0
 48
50.0
100
AcDbPoint
 10
10784.90565226696
 20
5013.124378567103
 30
0.0
  0
POINT
  5
1A3CC
330
18A3B
100
AcDbEntity
  8
DEFPOINTS
 62
     0
 48
50.0
100
AcDbPoint
 10
10724.90565226696
 20
5017.12276044413
 30
0.0
  0
POINT
  5
1A3CD
330
18A3B
100
AcDbEntity
  8
DEFPOINTS
 62
     0
 48
50.0
100
AcDbPoint
 10
10724.90565226696
 20
5415.780214023431
 30
0.0
  0
ENDBLK
  5
18A48
330
18A3B
100
AcDbEntity
  8
0
 48
50.0
100
AcDbBlockEnd
  0
BLOCK
  5
18A53
330
18A49
100
AcDbEntity
  8
0
 48
50.0
100
AcDbBlockBegin
  2
*D25
 70
     1
 10
0.0
 20
0.0
 30
0.0
  3
*D25
  1

  0
LINE
  5
1A3BA
330
18A49
100
AcDbEntity
  8
寸法
 62
     0
 48
50.0
370
    -2
100
AcDbLine
 10
12574.90565226696
 20
4983.93344005578
 30
0.0
 11
12574.90565226696
 21
5476.215929783599
 31
0.0
  0
LINE
  5
1A3BB
330
18A49
100
AcDbEntity
  8
寸法
 62
     0
 48
50.0
370
    -2
100
AcDbLine
 10
10784.90565226696
 20
5033.124378567103
 30
0.0
 11
10784.90565226696
 21
5476.215929783599
 31
0.0
  0
LINE
  5
1A3BC
330
18A49
100
AcDbEntity
  8
寸法
 62
     0
 48
50.0
370
    -2
100
AcDbLine
 10
12574.90565226696
 20
5416.215929783599
 30
0.0
 11
10784.90565226696
 21
5416.215929783599
 31
0.0
  0
INSERT
  5
1A3BD
330
18A49
100
AcDbEntity
  8
寸法
 62
     0
 48
50.0
370
    -2
100
AcDbBlockReference
  2
_DOTSMALL
 10
12574.90565226696
 20
5416.215929783599
 30
0.0
 41
100.0
 42
100.0
 43
100.0
  0
INSERT
  5
1A3BE
330
18A49
100
AcDbEntity
  8
寸法
 62
     0
 48
50.0
370
    -2
100
AcDbBlockReference
  2
_DOTSMALL
 10
10784.90565226696
 20
5416.215929783599
 30
0.0
 41
100.0
 42
100.0
 43
100.0
 50
180.0
  0
MTEXT
  5
1A3BF
330
18A49
100
AcDbEntity
  8
寸法
 62
     7
 48
50.0
100
AcDbMText
 10
11694.50130094344
 20
5516.215929783599
 30
0.0
 40
120.0
 41
0.0
 71
     5
 72
     1
  1
\A1;柱外寸法1790
  7
STYLE1
 73
     1
 44
1.0
1001
ACAD
1000
MTEXTBEGIN
1070
    73
1070
     1
1070
    44
1040
1.0
1070
    74
1070
     0
1000
MTEXTEND
  0
POINT
  5
1A3C0
330
18A49
100
AcDbEntity
  8
DEFPOINTS
 62
     0
 48
50.0
100
AcDbPoint
 10
12574.90565226696
 20
4963.93344005578
 30
0.0
  0
POINT
  5
1A3C1
330
18A49
100
AcDbEntity
  8
DEFPOINTS
 62
     0
 48
50.0
100
AcDbPoint
 10
10784.90565226696
 20
5013.124378567103
 30
0.0
  0
POINT
  5
1A3C2
330
18A49
100
AcDbEntity
  8
DEFPOINTS
 62
     0
 48
50.0
100
AcDbPoint
 10
10784.90565226696
 20
5416.215929783599
 30
0.0
  0
ENDBLK
  5
18A54
330
18A49
100
AcDbEntity
  8
0
 48
50.0
100
AcDbBlockEnd
  0
BLOCK
  5
18A5F
330
18A55
100
AcDbEntity
  8
0
 48
50.0
100
AcDbBlockBegin
  2
*D26
 70
     1
 10
0.0
 20
0.0
 30
0.0
  3
*D26
  1

  0
LINE
  5
1A3B1
330
18A55
100
AcDbEntity
  8
寸法
 62
     0
 48
50.0
370
    -2
100
AcDbLine
 10
12594.90565226696
 20
2942.122760444126
 30
0.0
 11
13220.50092082415
 21
2942.122760444126
 31
0.0
  0
LINE
  5
1A3B2
330
18A55
100
AcDbEntity
  8
寸法
 62
     0
 48
50.0
370
    -2
100
AcDbLine
 10
12674.90565226696
 20
4962.122760444127
 30
0.0
 11
13220.50092082416
 21
4962.122760444127
 31
0.0
  0
LINE
  5
1A3B3
330
18A55
100
AcDbEntity
  8
寸法
 62
     0
 48
50.0
370
    -2
100
AcDbLine
 10
13160.50092082415
 20
2942.122760444126
 30
0.0
 11
13160.50092082416
 21
4962.122760444127
 31
0.0
  0
INSERT
  5
1A3B4
330
18A55
100
AcDbEntity
  8
寸法
 62
     0
 48
50.0
370
    -2
100
AcDbBlockReference
  2
_DOTSMALL
 10
13160.50092082415
 20
2942.122760444126
 30
0.0
 41
100.0
 42
100.0
 43
100.0
 50
270.0
  0
INSERT
  5
1A3B5
330
18A55
100
AcDbEntity
  8
寸法
 62
     0
 48
50.0
370
    -2
100
AcDbBlockReference
  2
_DOTSMALL
 10
13160.50092082416
 20
4962.122760444127
 30
0.0
 41
100.0
 42
100.0
 43
100.0
 50
90.0
  0
MTEXT
  5
1A3B6
330
18A55
100
AcDbEntity
  8
寸法
 62
     7
 48
50.0
100
AcDbMText
 10
13060.48910980053
 20
3953.117427768543
 30
0.0
 40
120.0
 41
0.0
 71
     5
 72
     1
  1
\A1;2020
  7
STYLE1
 11
0.0000000000000001
 21
1.0
 31
0.0
 73
     1
 44
1.0
1001
ACAD
1000
MTEXTBEGIN
1070
    73
1070
     1
1070
    44
1040
1.0
1070
    74
1070
     0
1000
MTEXTEND
  0
POINT
  5
1A3B7
330
18A55
100
AcDbEntity
  8
DEFPOINTS
 62
     0
 48
50.0
100
AcDbPoint
 10
12574.90565226696
 20
2942.122760444126
 30
0.0
  0
POINT
  5
1A3B8
330
18A55
100
AcDbEntity
  8
DEFPOINTS
 62
     0
 48
50.0
100
AcDbPoint
 10
12654.90565226696
 20
4962.122760444127
 30
0.0
  0
POINT
  5
1A3B9
330
18A55
100
AcDbEntity
  8
DEFPOINTS
 62
     0
 48
50.0
100
AcDbPoint
 10
13160.50092082416
 20
4962.122760444127
 30
0.0
  0
ENDBLK
  5
18A60
330
18A55
100
AcDbEntity
  8
0
 48
50.0
100
AcDbBlockEnd
  0
BLOCK
  5
18A6D
330
18A61
100
AcDbEntity
  8
0
 48
50.0
100
AcDbBlockBegin
  2
*D27
 70
     1
 10
0.0
 20
0.0
 30
0.0
  3
*D27
  1

  0
LINE
  5
1A3A6
330
18A61
100
AcDbEntity
  8
寸法
 62
     0
 48
50.0
370
    -2
100
AcDbLine
 10
10764.90565226696
 20
2992.122760444126
 30
0.0
 11
9881.1555230837
 21
2992.122760444126
 31
0.0
  0
LINE
  5
1A3A7
330
18A61
100
AcDbEntity
  8
寸法
 62
     0
 48
50.0
370
    -2
100
AcDbLine
 10
10709.90565226696
 20
2942.122760444126
 30
0.0
 11
9881.1555230837
 21
2942.122760444126
 31
0.0
  0
LINE
  5
1A3A8
330
18A61
100
AcDbEntity
  8
寸法
 62
     0
 48
50.0
370
    -2
100
AcDbLine
 10
9941.1555230837
 20
2992.122760444126
 30
0.0
 11
9941.1555230837
 21
3092.122760444126
 31
0.0
  0
LINE
  5
1A3A9
330
18A61
100
AcDbEntity
  8
寸法
 62
     0
 48
50.0
370
    -2
100
AcDbLine
 10
9941.1555230837
 20
2942.122760444126
 30
0.0
 11
9941.1555230837
 21
2530.028272255146
 31
0.0
  0
LINE
  5
1A3AA
330
18A61
100
AcDbEntity
  8
寸法
 62
     0
 48
50.0
370
    -2
100
AcDbLine
 10
9941.1555230837
 20
2992.122760444126
 30
0.0
 11
9941.1555230837
 21
2942.122760444126
 31
0.0
  0
INSERT
  5
1A3AB
330
18A61
100
AcDbEntity
  8
寸法
 62
     0
 48
50.0
370
    -2
100
AcDbBlockReference
  2
_DOTSMALL
 10
9941.1555230837
 20
2992.122760444126
 30
0.0
 41
100.0
 42
100.0
 43
100.0
 50
270.0
  0
INSERT
  5
1A3AC
330
18A61
100
AcDbEntity
  8
寸法
 62
     0
 48
50.0
370
    -2
100
AcDbBlockReference
  2
_DOTSMALL
 10
9941.1555230837
 20
2942.122760444126
 30
0.0
 41
100.0
 42
100.0
 43
100.0
 50
90.0
  0
MTEXT
  5
1A3AD
330
18A61
100
AcDbEntity
  8
寸法
 62
     7
 48
50.0
100
AcDbMText
 10
9841.155523083701
 20
2636.075516349636
 30
0.0
 40
120.0
 41
0.0
 71
     5
 72
     1
  1
\A1;50
  7
STYLE1
 11
0.0000000000000001
 21
1.0
 31
0.0
 73
     1
 44
1.0
1001
ACAD
1000
MTEXTBEGIN
1070
    73
1070
     1
1070
    44
1040
1.0
1070
    74
1070
     0
1000
MTEXTEND
  0
POINT
  5
1A3AE
330
18A61
100
AcDbEntity
  8
DEFPOINTS
 62
     0
 48
50.0
100
AcDbPoint
 10
10784.90565226696
 20
2992.122760444126
 30
0.0
  0
POINT
  5
1A3AF
330
18A61
100
AcDbEntity
  8
DEFPOINTS
 62
     0
 48
50.0
100
AcDbPoint
 10
10729.90565226696
 20
2942.122760444126
 30
0.0
  0
POINT
  5
1A3B0
330
18A61
100
AcDbEntity
  8
DEFPOINTS
 62
     0
 48
50.0
100
AcDbPoint
 10
9941.1555230837
 20
2942.122760444126
 30
0.0
  0
ENDBLK
  5
18A6E
330
18A61
100
AcDbEntity
  8
0
 48
50.0
100
AcDbBlockEnd
  0
BLOCK
  5
18A79
330
18A6F
100
AcDbEntity
  8
0
 48
50.0
100
AcDbBlockBegin
  2
*D28
 70
     1
 10
0.0
 20
0.0
 30
0.0
  3
*D28
  1

  0
LINE
  5
1A39D
330
18A6F
100
AcDbEntity
  8
寸法
 62
     0
 48
50.0
370
    -2
100
AcDbLine
 10
10764.90565226696
 20
2942.122760444126
 30
0.0
 11
9581.155523083699
 21
2942.122760444126
 31
0.0
  0
LINE
  5
1A39E
330
18A6F
100
AcDbEntity
  8
寸法
 62
     0
 48
50.0
370
    -2
100
AcDbLine
 10
10704.90565226696
 20
5017.12276044413
 30
0.0
 11
9581.155523083699
 21
5017.122760444131
 31
0.0
  0
LINE
  5
1A39F
330
18A6F
100
AcDbEntity
  8
寸法
 62
     0
 48
50.0
370
    -2
100
AcDbLine
 10
9641.155523083698
 20
2942.122760444126
 30
0.0
 11
9641.155523083702
 21
5017.122760444131
 31
0.0
  0
INSERT
  5
1A3A0
330
18A6F
100
AcDbEntity
  8
寸法
 62
     0
 48
50.0
370
    -2
100
AcDbBlockReference
  2
_DOTSMALL
 10
9641.155523083698
 20
2942.122760444126
 30
0.0
 41
100.0
 42
100.0
 43
100.0
 50
270.0
  0
INSERT
  5
1A3A1
330
18A6F
100
AcDbEntity
  8
寸法
 62
     0
 48
50.0
370
    -2
100
AcDbBlockReference
  2
_DOTSMALL
 10
9641.155523083702
 20
5017.122760444131
 30
0.0
 41
100.0
 42
100.0
 43
100.0
 50
90.0
  0
MTEXT
  5
1A3A2
330
18A6F
100
AcDbEntity
  8
寸法
 62
     7
 48
50.0
100
AcDbMText
 10
9541.143712060076
 20
3979.62276044413
 30
0.0
 40
120.0
 41
0.0
 71
     5
 72
     1
  1
\A1;2075
  7
STYLE1
 11
0.0000000000000001
 21
1.0
 31
0.0
 73
     1
 44
1.0
1001
ACAD
1000
MTEXTBEGIN
1070
    73
1070
     1
1070
    44
1040
1.0
1070
    74
1070
     0
1000
MTEXTEND
  0
POINT
  5
1A3A3
330
18A6F
100
AcDbEntity
  8
DEFPOINTS
 62
     0
 48
50.0
100
AcDbPoint
 10
10784.90565226696
 20
2942.122760444126
 30
0.0
  0
POINT
  5
1A3A4
330
18A6F
100
AcDbEntity
  8
DEFPOINTS
 62
     0
 48
50.0
100
AcDbPoint
 10
10724.90565226696
 20
5017.12276044413
 30
0.0
  0
POINT
  5
1A3A5
330
18A6F
100
AcDbEntity
  8
DEFPOINTS
 62
     0
 48
50.0
100
AcDbPoint
 10
9641.155523083702
 20
5017.122760444131
 30
0.0
  0
ENDBLK
  5
18A7A
330
18A6F
100
AcDbEntity
  8
0
 48
50.0
100
AcDbBlockEnd
  0
BLOCK
  5
18A85
330
18A7B
100
AcDbEntity
  8
0
 48
50.0
100
AcDbBlockBegin
  2
*D29
 70
     1
 10
0.0
 20
0.0
 30
0.0
  3
*D29
  1

  0
LINE
  5
1A394
330
18A7B
100
AcDbEntity
  8
寸法
 62
     0
 48
50.0
370
    -2
100
AcDbLine
 10
10764.90565226696
 20
4782.122760444127
 30
0.0
 11
9881.155523083704
 21
4782.122760444127
 31
0.0
  0
LINE
  5
1A395
330
18A7B
100
AcDbEntity
  8
寸法
 62
     0
 48
50.0
370
    -2
100
AcDbLine
 10
10764.90565226696
 20
2992.122760444126
 30
0.0
 11
9881.1555230837
 21
2992.122760444126
 31
0.0
  0
LINE
  5
1A396
330
18A7B
100
AcDbEntity
  8
寸法
 62
     0
 48
50.0
370
    -2
100
AcDbLine
 10
9941.155523083702
 20
4782.122760444127
 30
0.0
 11
9941.1555230837
 21
2992.122760444126
 31
0.0
  0
INSERT
  5
1A397
330
18A7B
100
AcDbEntity
  8
寸法
 62
     0
 48
50.0
370
    -2
100
AcDbBlockReference
  2
_DOTSMALL
 10
9941.155523083702
 20
4782.122760444127
 30
0.0
 41
100.0
 42
100.0
 43
100.0
 50
90.0
  0
INSERT
  5
1A398
330
18A7B
100
AcDbEntity
  8
寸法
 62
     0
 48
50.0
370
    -2
100
AcDbBlockReference
  2
_DOTSMALL
 10
9941.1555230837
 20
2992.122760444126
 30
0.0
 41
100.0
 42
100.0
 43
100.0
 50
270.0
  0
MTEXT
  5
1A399
330
18A7B
100
AcDbEntity
  8
寸法
 62
     7
 48
50.0
100
AcDbMText
 10
9841.155523083701
 20
3887.122760444128
 30
0.0
 40
120.0
 41
0.0
 71
     5
 72
     1
  1
\A1;1790
  7
STYLE1
 11
0.0000000000000001
 21
1.0
 31
0.0
 73
     1
 44
1.0
1001
ACAD
1000
MTEXTBEGIN
1070
    73
1070
     1
1070
    44
1040
1.0
1070
    74
1070
     0
1000
MTEXTEND
  0
POINT
  5
1A39A
330
18A7B
100
AcDbEntity
  8
DEFPOINTS
 62
     0
 48
50.0
100
AcDbPoint
 10
10784.90565226696
 20
4782.122760444127
 30
0.0
  0
POINT
  5
1A39B
330
18A7B
100
AcDbEntity
  8
DEFPOINTS
 62
     0
 48
50.0
100
AcDbPoint
 10
10784.90565226696
 20
2992.122760444126
 30
0.0
  0
POINT
  5
1A39C
330
18A7B
100
AcDbEntity
  8
DEFPOINTS
 62
     0
 48
50.0
100
AcDbPoint
 10
9941.1555230837
 20
2992.122760444126
 30
0.0
  0
ENDBLK
  5
18A86
330
18A7B
100
AcDbEntity
  8
0
 48
50.0
100
AcDbBlockEnd
  0
BLOCK
  5
18A91
330
18A87
100
AcDbEntity
  8
0
 48
50.0
100
AcDbBlockBegin
  2
*D30
 70
     1
 10
0.0
 20
0.0
 30
0.0
  3
*D30
  1

  0
LINE
  5
1A38B
330
18A87
100
AcDbEntity
  8
寸法
 62
     0
 48
50.0
370
    -2
100
AcDbLine
 10
10764.90565226696
 20
4774.122760444126
 30
0.0
 11
10179.99701086971
 21
4774.122760444128
 31
0.0
  0
LINE
  5
1A38C
330
18A87
100
AcDbEntity
  8
寸法
 62
     0
 48
50.0
370
    -2
100
AcDbLine
 10
10764.90565226696
 20
3004.122760444126
 30
0.0
 11
10179.9970108697
 21
3004.122760444126
 31
0.0
  0
LINE
  5
1A38D
330
18A87
100
AcDbEntity
  8
寸法
 62
     0
 48
50.0
370
    -2
100
AcDbLine
 10
10239.99701086971
 20
4774.122760444128
 30
0.0
 11
10239.9970108697
 21
3004.122760444126
 31
0.0
  0
INSERT
  5
1A38E
330
18A87
100
AcDbEntity
  8
寸法
 62
     0
 48
50.0
370
    -2
100
AcDbBlockReference
  2
_DOTSMALL
 10
10239.99701086971
 20
4774.122760444128
 30
0.0
 41
100.0
 42
100.0
 43
100.0
 50
90.0
  0
INSERT
  5
1A38F
330
18A87
100
AcDbEntity
  8
寸法
 62
     0
 48
50.0
370
    -2
100
AcDbBlockReference
  2
_DOTSMALL
 10
10239.9970108697
 20
3004.122760444126
 30
0.0
 41
100.0
 42
100.0
 43
100.0
 50
270.0
  0
MTEXT
  5
1A390
330
18A87
100
AcDbEntity
  8
寸法
 62
     7
 48
50.0
100
AcDbMText
 10
10139.9970108697
 20
3889.122760444129
 30
0.0
 40
120.0
 41
0.0
 71
     5
 72
     1
  1
\A1;有効開口部高サ1770
  7
STYLE1
 11
0.0000000000000001
 21
1.0
 31
0.0
 73
     1
 44
1.0
1001
ACAD
1000
MTEXTBEGIN
1070
    73
1070
     1
1070
    44
1040
1.0
1070
    74
1070
     0
1000
MTEXTEND
  0
POINT
  5
1A391
330
18A87
100
AcDbEntity
  8
DEFPOINTS
 62
     0
 48
50.0
100
AcDbPoint
 10
10784.90565226696
 20
4774.122760444126
 30
0.0
  0
POINT
  5
1A392
330
18A87
100
AcDbEntity
  8
DEFPOINTS
 62
     0
 48
50.0
100
AcDbPoint
 10
10784.90565226696
 20
3004.122760444126
 30
0.0
  0
POINT
  5
1A393
330
18A87
100
AcDbEntity
  8
DEFPOINTS
 62
     0
 48
50.0
100
AcDbPoint
 10
10239.9970108697
 20
3004.122760444126
 30
0.0
  0
ENDBLK
  5
18A92
330
18A87
100
AcDbEntity
  8
0
 48
50.0
100
AcDbBlockEnd
  0
BLOCK
  5
1974E
330
19744
100
AcDbEntity
  8
0
 48
50.0
100
AcDbBlockBegin
  2
*D31
 70
     1
 10
0.0
 20
0.0
 30
0.0
  3
*D31
  1

  0
LINE
  5
19C83
330
19744
100
AcDbEntity
  8
寸法
 62
     0
 48
50.0
370
    -2
100
AcDbLine
 10
5143.708270459497
 20
7644.601167301589
 30
0.0
 11
5143.708270459497
 21
7066.60382314938
 31
0.0
  0
LINE
  5
19C84
330
19744
100
AcDbEntity
  8
寸法
 62
     0
 48
50.0
370
    -2
100
AcDbLine
 10
4319.108270459498
 20
7644.60116730148
 30
0.0
 11
4319.108270459498
 21
7066.60382314938
 31
0.0
  0
LINE
  5
19C85
330
19744
100
AcDbEntity
  8
寸法
 62
     0
 48
50.0
370
    -2
100
AcDbLine
 10
5143.708270459497
 20
7126.60382314938
 30
0.0
 11
4319.108270459498
 21
7126.60382314938
 31
0.0
  0
INSERT
  5
19C86
330
19744
100
AcDbEntity
  8
寸法
 62
     0
 48
50.0
370
    -2
100
AcDbBlockReference
  2
_DOTSMALL
 10
5143.708270459497
 20
7126.60382314938
 30
0.0
 41
100.0
 42
100.0
 43
100.0
  0
INSERT
  5
19C87
330
19744
100
AcDbEntity
  8
寸法
 62
     0
 48
50.0
370
    -2
100
AcDbBlockReference
  2
_DOTSMALL
 10
4319.108270459498
 20
7126.60382314938
 30
0.0
 41
100.0
 42
100.0
 43
100.0
 50
180.0
  0
MTEXT
  5
19C88
330
19744
100
AcDbEntity
  8
寸法
 62
     7
 48
50.0
100
AcDbMText
 10
4731.408270459497
 20
7326.615634173002
 30
0.0
 40
120.0
 41
0.0
 71
     5
 72
     1
  1
\A1;有効開口部間口\P824
  7
STYLE1
 73
     1
 44
1.0
1001
ACAD
1000
MTEXTBEGIN
1070
    73
1070
     1
1070
    44
1040
1.0
1070
    74
1070
     0
1000
MTEXTEND
  0
POINT
  5
19C89
330
19744
100
AcDbEntity
  8
DEFPOINTS
 62
     0
 48
50.0
100
AcDbPoint
 10
5143.708270459497
 20
7664.601167301589
 30
0.0
  0
POINT
  5
19C8A
330
19744
100
AcDbEntity
  8
DEFPOINTS
 62
     0
 48
50.0
100
AcDbPoint
 10
4319.108270459498
 20
7664.60116730148
 30
0.0
  0
POINT
  5
19C8B
330
19744
100
AcDbEntity
  8
DEFPOINTS
 62
     0
 48
50.0
100
AcDbPoint
 10
4319.108270459498
 20
7126.60382314938
 30
0.0
  0
ENDBLK
  5
1974F
330
19744
100
AcDbEntity
  8
0
 48
50.0
100
AcDbBlockEnd
  0
BLOCK
  5
19852
330
19848
100
AcDbEntity
  8
0
 48
50.0
100
AcDbBlockBegin
  2
*D32
 70
     1
 10
0.0
 20
0.0
 30
0.0
  3
*D32
  1

  0
LINE
  5
19C7A
330
19848
100
AcDbEntity
  8
寸法
 62
     0
 48
50.0
370
    -2
100
AcDbLine
 10
6673.708270459496
 20
7644.601167301591
 30
0.0
 11
6673.708270459496
 21
7066.603823149383
 31
0.0
  0
LINE
  5
19C7B
330
19848
100
AcDbEntity
  8
寸法
 62
     0
 48
50.0
370
    -2
100
AcDbLine
 10
5849.108270459499
 20
7644.601167301482
 30
0.0
 11
5849.108270459499
 21
7066.603823149383
 31
0.0
  0
LINE
  5
19C7C
330
19848
100
AcDbEntity
  8
寸法
 62
     0
 48
50.0
370
    -2
100
AcDbLine
 10
6673.708270459496
 20
7126.603823149384
 30
0.0
 11
5849.108270459499
 21
7126.603823149384
 31
0.0
  0
INSERT
  5
19C7D
330
19848
100
AcDbEntity
  8
寸法
 62
     0
 48
50.0
370
    -2
100
AcDbBlockReference
  2
_DOTSMALL
 10
6673.708270459496
 20
7126.603823149384
 30
0.0
 41
100.0
 42
100.0
 43
100.0
  0
INSERT
  5
19C7E
330
19848
100
AcDbEntity
  8
寸法
 62
     0
 48
50.0
370
    -2
100
AcDbBlockReference
  2
_DOTSMALL
 10
5849.108270459499
 20
7126.603823149384
 30
0.0
 41
100.0
 42
100.0
 43
100.0
 50
180.0
  0
MTEXT
  5
19C7F
330
19848
100
AcDbEntity
  8
寸法
 62
     7
 48
50.0
100
AcDbMText
 10
6261.408270459497
 20
7326.615634173005
 30
0.0
 40
120.0
 41
0.0
 71
     5
 72
     1
  1
\A1;有効開口部間口\P824
  7
STYLE1
 73
     1
 44
1.0
1001
ACAD
1000
MTEXTBEGIN
1070
    73
1070
     1
1070
    44
1040
1.0
1070
    74
1070
     0
1000
MTEXTEND
  0
POINT
  5
19C80
330
19848
100
AcDbEntity
  8
DEFPOINTS
 62
     0
 48
50.0
100
AcDbPoint
 10
6673.708270459496
 20
7664.601167301592
 30
0.0
  0
POINT
  5
19C81
330
19848
100
AcDbEntity
  8
DEFPOINTS
 62
     0
 48
50.0
100
AcDbPoint
 10
5849.108270459499
 20
7664.601167301483
 30
0.0
  0
POINT
  5
19C82
330
19848
100
AcDbEntity
  8
DEFPOINTS
 62
     0
 48
50.0
100
AcDbPoint
 10
5849.108270459499
 20
7126.603823149384
 30
0.0
  0
ENDBLK
  5
19853
330
19848
100
AcDbEntity
  8
0
 48
50.0
100
AcDbBlockEnd
  0
BLOCK
  5
19873
330
19869
100
AcDbEntity
  8
0
 48
50.0
100
AcDbBlockBegin
  2
*D33
 70
     1
 10
0.0
 20
0.0
 30
0.0
  3
*D33
  1

  0
LINE
  5
19C71
330
19869
100
AcDbEntity
  8
寸法
 62
     0
 48
50.0
370
    -2
100
AcDbLine
 10
8203.708270459499
 20
7644.601167301591
 30
0.0
 11
8203.708270459499
 21
7066.603823149383
 31
0.0
  0
LINE
  5
19C72
330
19869
100
AcDbEntity
  8
寸法
 62
     0
 48
50.0
370
    -2
100
AcDbLine
 10
7379.108270459498
 20
7644.601167301482
 30
0.0
 11
7379.108270459498
 21
7066.603823149383
 31
0.0
  0
LINE
  5
19C73
330
19869
100
AcDbEntity
  8
寸法
 62
     0
 48
50.0
370
    -2
100
AcDbLine
 10
8203.708270459499
 20
7126.603823149384
 30
0.0
 11
7379.108270459498
 21
7126.603823149384
 31
0.0
  0
INSERT
  5
19C74
330
19869
100
AcDbEntity
  8
寸法
 62
     0
 48
50.0
370
    -2
100
AcDbBlockReference
  2
_DOTSMALL
 10
8203.708270459499
 20
7126.603823149384
 30
0.0
 41
100.0
 42
100.0
 43
100.0
  0
INSERT
  5
19C75
330
19869
100
AcDbEntity
  8
寸法
 62
     0
 48
50.0
370
    -2
100
AcDbBlockReference
  2
_DOTSMALL
 10
7379.108270459498
 20
7126.603823149384
 30
0.0
 41
100.0
 42
100.0
 43
100.0
 50
180.0
  0
MTEXT
  5
19C76
330
19869
100
AcDbEntity
  8
寸法
 62
     7
 48
50.0
100
AcDbMText
 10
7791.408270459498
 20
7326.615634173005
 30
0.0
 40
120.0
 41
0.0
 71
     5
 72
     1
  1
\A1;有効開口部間口\P824
  7
STYLE1
 73
     1
 44
1.0
1001
ACAD
1000
MTEXTBEGIN
1070
    73
1070
     1
1070
    44
1040
1.0
1070
    74
1070
     0
1000
MTEXTEND
  0
POINT
  5
19C77
330
19869
100
AcDbEntity
  8
DEFPOINTS
 62
     0
 48
50.0
100
AcDbPoint
 10
8203.708270459499
 20
7664.601167301592
 30
0.0
  0
POINT
  5
19C78
330
19869
100
AcDbEntity
  8
DEFPOINTS
 62
     0
 48
50.0
100
AcDbPoint
 10
7379.108270459498
 20
7664.601167301483
 30
0.0
  0
POINT
  5
19C79
330
19869
100
AcDbEntity
  8
DEFPOINTS
 62
     0
 48
50.0
100
AcDbPoint
 10
7379.108270459498
 20
7126.603823149384
 30
0.0
  0
ENDBLK
  5
19874
330
19869
100
AcDbEntity
  8
0
 48
50.0
100
AcDbBlockEnd
  0
BLOCK
  5
198B6
330
198AA
100
AcDbEntity
  8
0
 48
50.0
100
AcDbBlockBegin
  2
*D34
 70
     1
 10
0.0
 20
0.0
 30
0.0
  3
*D34
  1

  0
LINE
  5
1A36E
330
198AA
100
AcDbEntity
  8
寸法
 62
     0
 48
50.0
370
    -2
100
AcDbLine
 10
4259.108270459477
 20
5037.122760444136
 30
0.0
 11
4259.108270459477
 21
5289.664345702373
 31
0.0
  0
LINE
  5
1A36F
330
198AA
100
AcDbEntity
  8
寸法
 62
     0
 48
50.0
370
    -2
100
AcDbLine
 10
4209.108270459477
 20
5037.122760444134
 30
0.0
 11
4209.108270459477
 21
5289.664345702373
 31
0.0
  0
LINE
  5
1A370
330
198AA
100
AcDbEntity
  8
寸法
 62
     0
 48
50.0
370
    -2
100
AcDbLine
 10
4259.108270459477
 20
5229.664345702373
 30
0.0
 11
4359.108270459477
 21
5229.664345702373
 31
0.0
  0
LINE
  5
1A371
330
198AA
100
AcDbEntity
  8
寸法
 62
     0
 48
50.0
370
    -2
100
AcDbLine
 10
4209.108270459477
 20
5229.664345702373
 30
0.0
 11
3789.575744990742
 21
5229.664345702373
 31
0.0
  0
LINE
  5
1A372
330
198AA
100
AcDbEntity
  8
寸法
 62
     0
 48
50.0
370
    -2
100
AcDbLine
 10
4259.108270459477
 20
5229.664345702373
 30
0.0
 11
4209.108270459477
 21
5229.664345702373
 31
0.0
  0
INSERT
  5
1A373
330
198AA
100
AcDbEntity
  8
寸法
 62
     0
 48
50.0
370
    -2
100
AcDbBlockReference
  2
_DOTSMALL
 10
4259.108270459477
 20
5229.664345702373
 30
0.0
 41
100.0
 42
100.0
 43
100.0
 50
180.0
  0
INSERT
  5
1A374
330
198AA
100
AcDbEntity
  8
寸法
 62
     0
 48
50.0
370
    -2
100
AcDbBlockReference
  2
_DOTSMALL
 10
4209.108270459477
 20
5229.664345702373
 30
0.0
 41
100.0
 42
100.0
 43
100.0
  0
MTEXT
  5
1A375
330
198AA
100
AcDbEntity
  8
寸法
 62
     7
 48
50.0
100
AcDbMText
 10
3895.62298908523
 20
5329.664345702372
 30
0.0
 40
120.0
 41
0.0
 71
     5
 72
     1
  1
\A1;50
  7
STYLE1
 73
     1
 44
1.0
1001
ACAD
1000
MTEXTBEGIN
1070
    73
1070
     1
1070
    44
1040
1.0
1070
    74
1070
     0
1000
MTEXTEND
  0
POINT
  5
1A376
330
198AA
100
AcDbEntity
  8
DEFPOINTS
 62
     0
 48
50.0
100
AcDbPoint
 10
4259.108270459477
 20
5017.122760444135
 30
0.0
  0
POINT
  5
1A377
330
198AA
100
AcDbEntity
  8
DEFPOINTS
 62
     0
 48
50.0
100
AcDbPoint
 10
4209.108270459477
 20
5017.122760444134
 30
0.0
  0
POINT
  5
1A378
330
198AA
100
AcDbEntity
  8
DEFPOINTS
 62
     0
 48
50.0
100
AcDbPoint
 10
4209.108270459477
 20
5229.664345702373
 30
0.0
  0
ENDBLK
  5
198B7
330
198AA
100
AcDbEntity
  8
0
 48
50.0
100
AcDbBlockEnd
  0
BLOCK
  5
198C2
330
198B8
100
AcDbEntity
  8
0
 48
50.0
100
AcDbBlockBegin
  2
*D35
 70
     1
 10
0.0
 20
0.0
 30
0.0
  3
*D35
  1

  0
LINE
  5
1A379
330
198B8
100
AcDbEntity
  8
寸法
 62
     0
 48
50.0
370
    -2
100
AcDbLine
 10
4209.108270459477
 20
5037.122760444134
 30
0.0
 11
4209.108270459477
 21
5512.621324140222
 31
0.0
  0
LINE
  5
1A37A
330
198B8
100
AcDbEntity
  8
寸法
 62
     0
 48
50.0
370
    -2
100
AcDbLine
 10
8899.108270459482
 20
5037.122760444129
 30
0.0
 11
8899.108270459482
 21
5512.621324140222
 31
0.0
  0
LINE
  5
1A37B
330
198B8
100
AcDbEntity
  8
寸法
 62
     0
 48
50.0
370
    -2
100
AcDbLine
 10
4209.108270459477
 20
5452.621324140221
 30
0.0
 11
8899.108270459482
 21
5452.621324140221
 31
0.0
  0
INSERT
  5
1A37C
330
198B8
100
AcDbEntity
  8
寸法
 62
     0
 48
50.0
370
    -2
100
AcDbBlockReference
  2
_DOTSMALL
 10
4209.108270459477
 20
5452.621324140221
 30
0.0
 41
100.0
 42
100.0
 43
100.0
 50
180.0
  0
INSERT
  5
1A37D
330
198B8
100
AcDbEntity
  8
寸法
 62
     0
 48
50.0
370
    -2
100
AcDbBlockReference
  2
_DOTSMALL
 10
8899.108270459482
 20
5452.621324140221
 30
0.0
 41
100.0
 42
100.0
 43
100.0
  0
MTEXT
  5
1A37E
330
198B8
100
AcDbEntity
  8
寸法
 62
     7
 48
50.0
100
AcDbMText
 10
6506.248478379743
 20
5552.621324140222
 30
0.0
 40
120.0
 41
0.0
 71
     5
 72
     1
  1
\A1;N x 1530 +100
  7
STYLE1
 73
     1
 44
1.0
1001
ACAD
1000
MTEXTBEGIN
1070
    73
1070
     1
1070
    44
1040
1.0
1070
    74
1070
     0
1000
MTEXTEND
  0
POINT
  5
1A37F
330
198B8
100
AcDbEntity
  8
DEFPOINTS
 62
     0
 48
50.0
100
AcDbPoint
 10
4209.108270459477
 20
5017.122760444134
 30
0.0
  0
POINT
  5
1A380
330
198B8
100
AcDbEntity
  8
DEFPOINTS
 62
     0
 48
50.0
100
AcDbPoint
 10
8899.108270459482
 20
5017.122760444128
 30
0.0
  0
POINT
  5
1A381
330
198B8
100
AcDbEntity
  8
DEFPOINTS
 62
     0
 48
50.0
100
AcDbPoint
 10
8899.108270459482
 20
5452.621324140221
 30
0.0
  0
ENDBLK
  5
198C3
330
198B8
100
AcDbEntity
  8
0
 48
50.0
100
AcDbBlockEnd
  0
BLOCK
  5
198CE
330
198C4
100
AcDbEntity
  8
0
 48
50.0
100
AcDbBlockBegin
  2
*D36
 70
     1
 10
0.0
 20
0.0
 30
0.0
  3
*D36
  1

  0
LINE
  5
1A382
330
198C4
100
AcDbEntity
  8
寸法
 62
     0
 48
50.0
370
    -2
100
AcDbLine
 10
8849.108270459481
 20
5037.12276044413
 30
0.0
 11
8849.108270459481
 21
5289.664345702373
 31
0.0
  0
LINE
  5
1A383
330
198C4
100
AcDbEntity
  8
寸法
 62
     0
 48
50.0
370
    -2
100
AcDbLine
 10
4259.108270459477
 20
5037.122760444136
 30
0.0
 11
4259.108270459477
 21
5289.664345702373
 31
0.0
  0
LINE
  5
1A384
330
198C4
100
AcDbEntity
  8
寸法
 62
     0
 48
50.0
370
    -2
100
AcDbLine
 10
8849.108270459481
 20
5229.664345702373
 30
0.0
 11
4259.108270459477
 21
5229.664345702373
 31
0.0
  0
INSERT
  5
1A385
330
198C4
100
AcDbEntity
  8
寸法
 62
     0
 48
50.0
370
    -2
100
AcDbBlockReference
  2
_DOTSMALL
 10
8849.108270459481
 20
5229.664345702373
 30
0.0
 41
100.0
 42
100.0
 43
100.0
  0
INSERT
  5
1A386
330
198C4
100
AcDbEntity
  8
寸法
 62
     0
 48
50.0
370
    -2
100
AcDbBlockReference
  2
_DOTSMALL
 10
4259.108270459477
 20
5229.664345702373
 30
0.0
 41
100.0
 42
100.0
 43
100.0
 50
180.0
  0
MTEXT
  5
1A387
330
198C4
100
AcDbEntity
  8
寸法
 62
     7
 48
50.0
100
AcDbMText
 10
6506.248478379743
 20
5329.664345702372
 30
0.0
 40
120.0
 41
0.0
 71
     5
 72
     1
  1
\A1;柱外寸法 N x 1530
  7
STYLE1
 73
     1
 44
1.0
1001
ACAD
1000
MTEXTBEGIN
1070
    73
1070
     1
1070
    44
1040
1.0
1070
    74
1070
     0
1000
MTEXTEND
  0
POINT
  5
1A388
330
198C4
100
AcDbEntity
  8
DEFPOINTS
 62
     0
 48
50.0
100
AcDbPoint
 10
8849.108270459481
 20
5017.12276044413
 30
0.0
  0
POINT
  5
1A389
330
198C4
100
AcDbEntity
  8
DEFPOINTS
 62
     0
 48
50.0
100
AcDbPoint
 10
4259.108270459477
 20
5017.122760444135
 30
0.0
  0
POINT
  5
1A38A
330
198C4
100
AcDbEntity
  8
DEFPOINTS
 62
     0
 48
50.0
100
AcDbPoint
 10
4259.108270459477
 20
5229.664345702373
 30
0.0
  0
ENDBLK
  5
198CF
330
198C4
100
AcDbEntity
  8
0
 48
50.0
100
AcDbBlockEnd
  0
BLOCK
  5
19904
330
198F8
100
AcDbEntity
  8
0
 48
50.0
100
AcDbBlockBegin
  2
*D37
 70
     1
 10
0.0
 20
0.0
 30
0.0
  3
*D37
  1

  0
LINE
  5
1A363
330
198F8
100
AcDbEntity
  8
寸法
 62
     0
 48
50.0
370
    -2
100
AcDbLine
 10
8899.108270459482
 20
5037.122760444129
 30
0.0
 11
8899.108270459482
 21
5289.664345702369
 31
0.0
  0
LINE
  5
1A364
330
198F8
100
AcDbEntity
  8
寸法
 62
     0
 48
50.0
370
    -2
100
AcDbLine
 10
8849.108270459481
 20
5037.12276044413
 30
0.0
 11
8849.108270459481
 21
5289.664345702369
 31
0.0
  0
LINE
  5
1A365
330
198F8
100
AcDbEntity
  8
寸法
 62
     0
 48
50.0
370
    -2
100
AcDbLine
 10
8849.108270459481
 20
5229.664345702369
 30
0.0
 11
8749.108270459482
 21
5229.664345702369
 31
0.0
  0
LINE
  5
1A366
330
198F8
100
AcDbEntity
  8
寸法
 62
     0
 48
50.0
370
    -2
100
AcDbLine
 10
8899.108270459482
 20
5229.664345702369
 30
0.0
 11
9318.640795928205
 21
5229.664345702369
 31
0.0
  0
LINE
  5
1A367
330
198F8
100
AcDbEntity
  8
寸法
 62
     0
 48
50.0
370
    -2
100
AcDbLine
 10
8849.108270459481
 20
5229.664345702369
 30
0.0
 11
8899.108270459482
 21
5229.664345702369
 31
0.0
  0
INSERT
  5
1A368
330
198F8
100
AcDbEntity
  8
寸法
 62
     0
 48
50.0
370
    -2
100
AcDbBlockReference
  2
_DOTSMALL
 10
8849.108270459481
 20
5229.664345702369
 30
0.0
 41
100.0
 42
100.0
 43
100.0
  0
INSERT
  5
1A369
330
198F8
100
AcDbEntity
  8
寸法
 62
     0
 48
50.0
370
    -2
100
AcDbBlockReference
  2
_DOTSMALL
 10
8899.108270459482
 20
5229.664345702369
 30
0.0
 41
100.0
 42
100.0
 43
100.0
 50
180.0
  0
MTEXT
  5
1A36A
330
198F8
100
AcDbEntity
  8
寸法
 62
     7
 48
50.0
100
AcDbMText
 10
9212.593551833718
 20
5329.664345702369
 30
0.0
 40
120.0
 41
0.0
 71
     5
 72
     1
  1
\A1;50
  7
STYLE1
 73
     1
 44
1.0
1001
ACAD
1000
MTEXTBEGIN
1070
    73
1070
     1
1070
    44
1040
1.0
1070
    74
1070
     0
1000
MTEXTEND
  0
POINT
  5
1A36B
330
198F8
100
AcDbEntity
  8
DEFPOINTS
 62
     0
 48
50.0
100
AcDbPoint
 10
8899.108270459482
 20
5017.122760444128
 30
0.0
  0
POINT
  5
1A36C
330
198F8
100
AcDbEntity
  8
DEFPOINTS
 62
     0
 48
50.0
100
AcDbPoint
 10
8849.108270459481
 20
5017.12276044413
 30
0.0
  0
POINT
  5
1A36D
330
198F8
100
AcDbEntity
  8
DEFPOINTS
 62
     0
 48
50.0
100
AcDbPoint
 10
8849.108270459481
 20
5229.664345702369
 30
0.0
  0
ENDBLK
  5
19905
330
198F8
100
AcDbEntity
  8
0
 48
50.0
100
AcDbBlockEnd
  0
ENDSEC
  0
SECTION
  2
ENTITIES
  0
MTEXT
  5
763F
330
747D
100
AcDbEntity
  8
0
100
AcDbMText
 10
302.846345836809
 20
280.1983726409901
 30
0.0
 40
3.5
 41
5.323721266742722
 71
     1
 72
     5
  1

  7
MSMINCHO
 73
     1
 44
1.0
1001
ACAD
1000
MTEXTBEGIN
1070
    73
1070
     1
1070
    44
1040
1.0
1070
    74
1070
     0
1000
MTEXTEND
  0
LINE
  5
10B57
330
747D
100
AcDbEntity
  8
補助
  6
PHANTOM
 62
   230
 48
50.0
100
AcDbLine
 10
139.9999999999995
 20
11409.6
 30
0.0
 11
16307.2
 21
11409.6
 31
0.0
  0
LINE
  5
10B59
330
747D
100
AcDbEntity
  8
仕様書枠
  6
Continuous
 48
50.0
100
AcDbLine
 10
13107.2
 20
1200.0
 30
0.0
 11
13107.2
 21
-0.0000000000000729
 31
0.0
  0
LINE
  5
10B5D
330
747D
100
AcDbEntity
  8
仕様書枠
 48
50.0
100
AcDbLine
 10
140.0
 20
0.0
 30
0.0
 11
16307.2
 21
-0.0000000000000909
 31
0.0
  0
LINE
  5
10B5E
330
747D
100
AcDbEntity
  8
補助
  6
PHANTOM
 62
   230
 48
50.0
100
AcDbLine
 10
16307.2
 20
11409.6
 30
0.0
 11
16307.2
 21
1200.0
 31
0.0
  0
LINE
  5
10B6C
330
747D
100
AcDbEntity
  8
仕様書枠
 48
50.0
100
AcDbLine
 10
13107.2
 20
1200.0
 30
0.0
 11
16307.2
 21
1200.0
 31
0.0
  0
LINE
  5
10B6D
330
747D
100
AcDbEntity
  8
補助
  6
PHANTOM
 62
   230
 48
50.0
100
AcDbLine
 10
13107.2
 20
11409.6
 30
0.0
 11
13107.2
 21
4800.0
 31
0.0
  0
LINE
  5
10B6F
330
747D
100
AcDbEntity
  8
補助
  6
PHANTOM
 62
   230
 48
50.0
100
AcDbLine
 10
13107.2
 20
4800.0
 30
0.0
 11
16307.2
 21
4800.0
 31
0.0
  0
LINE
  5
10B72
330
747D
100
AcDbEntity
  8
文字
 62
     7
 48
50.0
100
AcDbLine
 10
13187.2
 20
400.0
 30
0.0
 11
16227.2
 21
400.0
 31
0.0
  0
TEXT
  5
10B73
330
747D
100
AcDbEntity
  8
文字
 62
     7
 48
50.0
100
AcDbText
 10
13162.9790565769
 20
895.0906074299405
 30
0.0
 40
200.0
  1
外 形 図
  7
STYLE2
100
AcDbText
  0
TEXT
  5
10B74
330
747D
100
AcDbEntity
  8
文字
 62
     7
 48
50.0
100
AcDbText
 10
13201.43669998441
 20
477.2740661031255
 30
0.0
 40
160.0
  1
機種名
  7
STYLE2
100
AcDbText
  0
LINE
  5
10B7B
330
747D
100
AcDbEntity
  8
仕様書枠
 48
50.0
100
AcDbLine
 10
13107.2
 20
800.0
 30
0.0
 11
14251.2
 21
800.0
 31
0.0
  0
LINE
  5
10B88
330
747D
100
AcDbEntity
  8
仕様書枠
  6
Continuous
 48
50.0
100
AcDbLine
 10
14251.2
 20
1200.0
 30
0.0
 11
14251.2
 21
800.0
 31
0.0
  0
LINE
  5
12765
330
747D
100
AcDbEntity
  8
Ｇ．Ｌ
100
AcDbLine
 10
3393.008622179241
 20
2842.122760444127
 30
0.0
 11
5247.629833713559
 21
2842.122760444126
 31
0.0
  0
LINE
  5
127A8
330
747D
100
AcDbEntity
  8
部品1
100
AcDbLine
 10
3492.50563350334
 20
2972.026571011791
 30
0.0
 11
3642.50563350334
 21
2972.026571011791
 31
0.0
  0
LINE
  5
127A9
330
747D
100
AcDbEntity
  8
部品1
100
AcDbLine
 10
3567.505633503341
 20
2842.122760444127
 30
0.0
 11
3492.50563350334
 21
2972.026571011791
 31
0.0
  0
TEXT
  5
127AA
330
747D
100
AcDbEntity
  8
部品1
100
AcDbText
 10
3670.610575628114
 20
2878.229664050028
 30
0.0
 40
125.0
  1
G.L
  7
STYLE2
100
AcDbText
  0
LINE
  5
127AB
330
747D
100
AcDbEntity
  8
部品1
100
AcDbLine
 10
3642.50563350334
 20
2972.026571011791
 30
0.0
 11
3567.505633503341
 21
2842.122760444127
 31
0.0
  0
LINE
  5
13BE8
330
747D
100
AcDbEntity
  8
部品1
100
AcDbLine
 10
4259.108270459477
 20
2942.122760444127
 30
0.0
 11
5229.997135642712
 21
2942.122760444125
 31
0.0
  0
LINE
  5
13BE9
330
747D
100
AcDbEntity
  8
部品1
100
AcDbLine
 10
4259.108270459477
 20
4782.122760444127
 30
0.0
 11
4905.555491139137
 21
4782.122760444127
 31
0.0
  0
LINE
  5
13C1F
330
747D
100
AcDbEntity
  8
部品1
100
AcDbLine
 10
4259.108270459477
 20
4876.12276044413
 30
0.0
 11
4259.108270459477
 21
2842.122760444127
 31
0.0
  0
LINE
  5
13CFC
330
747D
100
AcDbEntity
  8
部品1
100
AcDbLine
 10
8789.108270459477
 20
4782.122760444127
 30
0.0
 11
8789.108270459477
 21
2984.122760444146
 31
0.0
  0
LINE
  5
13CFE
330
747D
100
AcDbEntity
  8
部品1
100
AcDbLine
 10
4319.108270459477
 20
4782.122760444127
 30
0.0
 11
4319.108270459477
 21
2984.122760444131
 31
0.0
  0
LINE
  5
13D18
330
747D
100
AcDbEntity
  8
部品1
100
AcDbLine
 10
8849.108270459478
 20
4876.122760444131
 30
0.0
 11
8849.108270459478
 21
2842.122760444127
 31
0.0
  0
DIMENSION
  5
14521
330
747D
100
AcDbEntity
  8
寸法
100
AcDbDimension
  2
*D2
 10
4314.108270459505
 20
9890.079517247869
 30
0.0
 11
3950.622989085232
 21
9890.079517247869
 31
0.0
 70
   160
 71
     5
 42
55.00000000003456
  3
INABA_S40G
100
AcDbAlignedDimension
 13
4259.10827045947
 23
9454.601167301495
 33
0.0
 14
4314.108270459505
 24
9454.601167301495
 34
0.0
100
AcDbRotatedDimension
1001
ACAD
1000
DSTYLE
1002
{
1002
}
  0
LINE
  5
14523
330
747D
100
AcDbEntity
  8
部品1
100
AcDbLine
 10
4259.10827045947
 20
9454.601167301495
 30
0.0
 11
4259.108270459498
 21
7664.601167301483
 31
0.0
  0
LINE
  5
14524
330
747D
100
AcDbEntity
  8
部品1
100
AcDbLine
 10
8794.108270459506
 20
9454.601167301623
 30
0.0
 11
8794.108270459506
 21
9426.601167301623
 31
0.0
  0
LINE
  5
14525
330
747D
100
AcDbEntity
  8
部品1
100
AcDbLine
 10
8794.108270459506
 20
9454.601167301643
 30
0.0
 11
8794.108270459506
 21
9426.601167301642
 31
0.0
  0
DIMENSION
  5
14526
330
747D
100
AcDbEntity
  8
寸法
100
AcDbDimension
  2
*D3
 10
9861.64155793355
 20
7664.601167301613
 30
0.0
 11
9761.641557933549
 21
8559.601167301618
 31
0.0
 70
    32
 71
     5
 42
1790.000000000009
  3
INABA_S40G
100
AcDbAlignedDimension
 13
8849.108270459508
 23
9454.601167301623
 33
0.0
 14
8849.108270459481
 24
7664.601167301613
 34
0.0
 50
90.0
100
AcDbRotatedDimension
1001
ACAD
1000
DSTYLE
1002
{
1002
}
  0
LINE
  5
14527
330
747D
100
AcDbEntity
  8
部品1
100
AcDbLine
 10
8849.108270459508
 20
9454.601167301623
 30
0.0
 11
8849.108270459481
 21
7664.601167301613
 31
0.0
  0
LINE
  5
14529
330
747D
100
AcDbEntity
  8
部品1
100
AcDbLine
 10
8374.108270459505
 20
9454.601167301643
 30
0.0
 11
8374.108270459505
 21
9426.601167301642
 31
0.0
  0
LINE
  5
1452A
330
747D
100
AcDbEntity
  8
部品1
100
AcDbLine
 10
7794.108270459505
 20
9454.601167301643
 30
0.0
 11
7794.108270459505
 21
9426.601167301642
 31
0.0
  0
LINE
  5
1452B
330
747D
100
AcDbEntity
  8
部品1
100
AcDbLine
 10
7794.108270459505
 20
9454.601167301525
 30
0.0
 11
7794.108270459505
 21
9426.601167301525
 31
0.0
  0
LINE
  5
1452C
330
747D
100
AcDbEntity
  8
部品1
100
AcDbLine
 10
7794.108270459505
 20
9454.601167301527
 30
0.0
 11
7794.108270459505
 21
9426.601167301527
 31
0.0
  0
LINE
  5
1452D
330
747D
100
AcDbEntity
  8
部品1
100
AcDbLine
 10
4314.108270459505
 20
9454.601167301527
 30
0.0
 11
4314.108270459505
 21
9426.601167301527
 31
0.0
  0
DIMENSION
  5
1452E
330
747D
100
AcDbEntity
  8
寸法
100
AcDbDimension
  2
*D4
 10
9496.534616193917
 20
9399.601167301625
 30
0.0
 11
9496.534616193917
 21
9763.086448675863
 31
0.0
 70
   160
 71
     5
 42
54.99999999999636
  3
INABA_S40G
100
AcDbAlignedDimension
 13
8849.108270459508
 23
9454.601167301623
 33
0.0
 14
8849.108270459508
 24
9399.601167301625
 34
0.0
 50
90.0
100
AcDbRotatedDimension
1001
ACAD
1000
DSTYLE
1002
{
1002
}
  0
DIMENSION
  5
14530
330
747D
100
AcDbEntity
  8
寸法
100
AcDbDimension
  2
*D5
 10
9496.534616193892
 20
7664.601167301613
 30
0.0
 11
9496.534616193891
 21
7286.739700396752
 31
0.0
 70
   160
 71
     5
 42
54.99999999999636
  3
INABA_S40G
100
AcDbAlignedDimension
 13
8849.108270459481
 23
7719.601167301608
 33
0.0
 14
8849.108270459481
 24
7664.601167301613
 34
0.0
 50
90.0
100
AcDbRotatedDimension
1001
ACAD
1000
DSTYLE
1002
{
1002
}
  0
DIMENSION
  5
14531
330
747D
100
AcDbEntity
  8
寸法
100
AcDbDimension
  2
*D6
 10
9496.534616193917
 20
7719.601167301608
 30
0.0
 11
9396.522805170292
 21
8559.601167301618
 31
0.0
 70
    32
  1
4X420=<>
 71
     5
 42
1680.000000000016
  3
INABA_S40G
100
AcDbAlignedDimension
 13
8849.108270459508
 23
9399.601167301625
 33
0.0
 14
8849.108270459481
 24
7719.601167301608
 34
0.0
 50
90.0
100
AcDbRotatedDimension
1001
ACAD
1000
DSTYLE
1002
{
1002
}
  0
DIMENSION
  5
14532
330
747D
100
AcDbEntity
  8
寸法
100
AcDbDimension
  2
*D7
 10
8849.108270459481
 20
6900.465197947925
 30
0.0
 11
8027.78398469141
 21
6900.465197947925
 31
0.0
 70
   160
 71
     5
 42
1529.999999999982
  3
INABA_S40G
100
AcDbAlignedDimension
 13
7319.108270459499
 23
7664.60116730145
 33
0.0
 14
8849.108270459481
 24
7664.601167301578
 34
0.0
100
AcDbRotatedDimension
1001
ACAD
1000
DSTYLE
1002
{
1002
}
  0
TEXT
  5
14535
330
747D
100
AcDbEntity
  8
部品1
100
AcDbText
 10
6262.292547174308
 20
6433.352838486539
 30
0.0
 40
135.0
  1
平面図
  7
STYLE2
100
AcDbText
  0
LINE
  5
14538
330
747D
100
AcDbEntity
  8
部品1
100
AcDbLine
 10
8366.108270459706
 20
7766.601167301582
 30
0.0
 11
7347.108270459479
 21
7766.601167301516
 31
0.0
  0
LINE
  5
14542
330
747D
100
AcDbEntity
  8
部品1
100
AcDbLine
 10
8816.108270459507
 20
9425.851167301654
 30
0.0
 11
8816.108270459613
 21
8572.851167301852
 31
0.0
  0
LINE
  5
14543
330
747D
100
AcDbEntity
  8
部品1
100
AcDbLine
 10
4314.108270459505
 20
9426.60116730161
 30
0.0
 11
4945.063019283286
 21
9426.601167301617
 31
0.0
  0
LINE
  5
14544
330
747D
100
AcDbEntity
  8
部品1
100
AcDbLine
 10
8849.108270459481
 20
7664.601167301613
 30
0.0
 11
5286.213957648211
 21
7664.601167301391
 31
0.0
  0
LINE
  5
14546
330
747D
100
AcDbEntity
  8
部品1
100
AcDbLine
 10
4287.10827045948
 20
7719.601167301481
 30
0.0
 11
4287.108270459504
 21
9426.601167301527
 31
0.0
  0
LINE
  5
1454A
330
747D
100
AcDbEntity
  8
部品1
100
AcDbLine
 10
7370.108270459498
 20
7664.601167301483
 30
0.0
 11
7319.108270459499
 21
7664.601167301483
 31
0.0
  0
LINE
  5
1454D
330
747D
100
AcDbEntity
  8
部品1
100
AcDbLine
 10
4287.108270459497
 20
7719.601167301497
 30
0.0
 11
4259.108270459496
 21
7719.601167301497
 31
0.0
  0
LINE
  5
1454F
330
747D
100
AcDbEntity
  8
部品1
100
AcDbLine
 10
4319.108270459494
 20
7719.601167301445
 30
0.0
 11
4291.108270459495
 21
7719.601167301445
 31
0.0
  0
LINE
  5
14550
330
747D
100
AcDbEntity
  8
部品1
100
AcDbLine
 10
4310.108270459498
 20
7664.601167301447
 30
0.0
 11
4310.108270459497
 21
7671.601167301483
 31
0.0
  0
LINE
  5
14551
330
747D
100
AcDbEntity
  8
部品1
100
AcDbLine
 10
4319.108270459497
 20
7671.601167301481
 30
0.0
 11
4310.108270459497
 21
7671.601167301483
 31
0.0
  0
LINE
  5
14552
330
747D
100
AcDbEntity
  8
部品1
100
AcDbLine
 10
4319.108270459497
 20
7671.601167301481
 30
0.0
 11
4319.108270459494
 21
7719.601167301447
 31
0.0
  0
LINE
  5
14558
330
747D
100
AcDbEntity
  8
部品1
100
AcDbLine
 10
4287.108270459484
 20
8139.601167301497
 30
0.0
 11
4259.108270459484
 21
8139.601167301497
 31
0.0
  0
LINE
  5
1455D
330
747D
100
AcDbEntity
  8
部品1
100
AcDbLine
 10
4287.108270459504
 20
9426.601167301495
 30
0.0
 11
4945.063019283306
 21
9426.601167301502
 31
0.0
  0
LINE
  5
1455E
330
747D
100
AcDbEntity
  8
部品1
 48
50.0
100
AcDbLine
 10
8816.108270459499
 20
9425.851167301653
 30
0.0
 11
8366.108270459502
 21
9425.851167301651
 31
0.0
  0
LINE
  5
1455F
330
747D
100
AcDbEntity
  8
部品1
100
AcDbLine
 10
4287.108270459479
 20
8559.601167301497
 30
0.0
 11
4259.108270459479
 21
8559.601167301497
 31
0.0
  0
LINE
  5
14560
330
747D
100
AcDbEntity
  8
部品1
100
AcDbLine
 10
4287.108270459472
 20
9399.601167301499
 30
0.0
 11
4259.108270459472
 21
9399.601167301499
 31
0.0
  0
LINE
  5
14562
330
747D
100
AcDbEntity
  8
部品1
100
AcDbLine
 10
8821.108270459507
 20
9426.601167301623
 30
0.0
 11
8821.108270459495
 21
8572.101167301621
 31
0.0
  0
LINE
  5
1456A
330
747D
100
AcDbEntity
  8
部品1
100
AcDbLine
 10
8849.108270459481
 20
7664.601167301613
 30
0.0
 11
8798.108270459481
 21
7664.601167301613
 31
0.0
  0
LINE
  5
1456B
330
747D
100
AcDbEntity
  8
部品1
100
AcDbLine
 10
8849.108270459481
 20
7719.601167301608
 30
0.0
 11
8849.108270459481
 21
7664.601167301613
 31
0.0
  0
LINE
  5
1456C
330
747D
100
AcDbEntity
  8
部品1
100
AcDbLine
 10
8821.108270459481
 20
7719.601167301608
 30
0.0
 11
8849.108270459481
 21
7719.601167301608
 31
0.0
  0
LINE
  5
1456E
330
747D
100
AcDbEntity
  8
部品1
100
AcDbLine
 10
8789.108270459481
 20
7719.601167301608
 30
0.0
 11
8821.108270459481
 21
7719.601167301608
 31
0.0
  0
LINE
  5
14570
330
747D
100
AcDbEntity
  8
部品1
100
AcDbLine
 10
8798.108270459481
 20
7664.601167301611
 30
0.0
 11
8798.108270459481
 21
7671.601167301613
 31
0.0
  0
LINE
  5
14571
330
747D
100
AcDbEntity
  8
部品1
100
AcDbLine
 10
8798.108270459481
 20
7671.601167301613
 30
0.0
 11
8789.108270459481
 21
7671.601167301613
 31
0.0
  0
LINE
  5
14572
330
747D
100
AcDbEntity
  8
部品1
100
AcDbLine
 10
8789.108270459481
 20
7671.601167301613
 30
0.0
 11
8789.108270459481
 21
7719.601167301608
 31
0.0
  0
LINE
  5
14573
330
747D
100
AcDbEntity
  8
部品1
100
AcDbLine
 10
8821.108270459514
 20
7719.601167301625
 30
0.0
 11
8849.108270459515
 21
7719.601167301625
 31
0.0
  0
LINE
  5
14574
330
747D
100
AcDbEntity
  8
部品1
100
AcDbLine
 10
8821.108270459509
 20
8139.601167301625
 30
0.0
 11
8849.10827045951
 21
8139.601167301625
 31
0.0
  0
LINE
  5
14584
330
747D
100
AcDbEntity
  8
部品1
100
AcDbLine
 10
8816.108270459599
 20
7742.10116730164
 30
0.0
 11
8366.108270459601
 21
7742.10116730164
 31
0.0
  0
LINE
  5
14585
330
747D
100
AcDbEntity
  8
部品1
100
AcDbLine
 10
8821.108270459507
 20
8559.601167301627
 30
0.0
 11
8849.108270459508
 21
8559.601167301627
 31
0.0
  0
LINE
  5
14586
330
747D
100
AcDbEntity
  8
部品1
100
AcDbLine
 10
8821.108270459507
 20
9399.601167301625
 30
0.0
 11
8849.108270459508
 21
9399.601167301625
 31
0.0
  0
DIMENSION
  5
14587
330
747D
100
AcDbEntity
  8
寸法
100
AcDbDimension
  2
*D8
 10
8849.108270459508
 20
9890.079517247997
 30
0.0
 11
9157.593551833745
 21
9890.079517247997
 31
0.0
 70
   160
 71
     5
 42
55.0
  3
INABA_S40G
100
AcDbAlignedDimension
 13
8794.108270459506
 23
9454.601167301623
 33
0.0
 14
8849.108270459508
 24
9454.601167301623
 34
0.0
100
AcDbRotatedDimension
1001
ACAD
1000
DSTYLE
1002
{
1002
}
  0
LINE
  5
14588
330
747D
100
AcDbEntity
  8
部品1
100
AcDbLine
 10
4259.108270459504
 20
9454.601167301495
 30
0.0
 11
4940.125863823467
 21
9454.601167301515
 31
0.0
  0
TEXT
  5
149A1
330
747D
100
AcDbEntity
  8
部品1
100
AcDbText
 10
6215.03854900348
 20
2218.724408153955
 30
0.0
 40
135.0
  1
正面図
  7
STYLE2
100
AcDbText
  0
TEXT
  5
149A3
330
747D
100
AcDbEntity
  8
部品1
100
AcDbText
 10
11397.61642057635
 20
2218.724408153954
 30
0.0
 40
135.0
  1
側面図
  7
STYLE2
100
AcDbText
  0
LINE
  5
149E3
330
747D
100
AcDbEntity
  8
部品1
100
AcDbLine
 10
4259.108270459477
 20
2984.12276044413
 30
0.0
 11
5222.591402452955
 21
2984.122760444133
 31
0.0
  0
LINE
  5
14C0C
330
747D
100
AcDbEntity
  8
部品1
100
AcDbLine
 10
8366.108270459703
 20
7795.101167301583
 30
0.0
 11
7375.608270459399
 21
7795.101167301519
 31
0.0
  0
LINE
  5
14C0E
330
747D
100
AcDbEntity
  8
破線
 48
10.0
100
AcDbLine
 10
8366.108270459699
 20
7818.601167301586
 30
0.0
 11
7399.108270459492
 21
7818.601167301519
 31
0.0
  0
LINE
  5
14C31
330
747D
100
AcDbEntity
  8
部品1
100
AcDbLine
 10
7375.608270459473
 20
9398.101167301645
 30
0.0
 11
7375.608270459494
 21
7795.101167301614
 31
0.0
  0
LINE
  5
14C32
330
747D
100
AcDbEntity
  8
破線
 48
10.0
100
AcDbLine
 10
7399.108270459473
 20
9374.601167301644
 30
0.0
 11
7399.108270459499
 21
8622.601167301567
 31
0.0
  0
LINE
  5
14C33
330
747D
100
AcDbEntity
  8
部品1
 48
50.0
100
AcDbLine
 10
7375.608270459494
 20
7795.101167301615
 30
0.0
 11
7347.108270459496
 21
7766.601167301617
 31
0.0
  0
LINE
  5
15381
330
747D
100
AcDbEntity
  8
破線
 48
10.0
100
AcDbLine
 10
8366.108270459511
 20
9374.601167301708
 30
0.0
 11
7399.108270459473
 21
9374.601167301644
 31
0.0
  0
LINE
  5
15382
330
747D
100
AcDbEntity
  8
部品1
100
AcDbLine
 10
7375.608270459473
 20
9398.101167301645
 30
0.0
 11
8366.108270459506
 21
9398.101167301643
 31
0.0
  0
LINE
  5
153C1
330
747D
100
AcDbEntity
  8
部品1
 48
50.0
100
AcDbLine
 10
7847.108270459506
 20
9398.101167301645
 30
0.0
 11
7847.108270459596
 21
7795.10116730155
 31
0.0
  0
DIMENSION
  5
1540B
330
747D
100
AcDbEntity
  8
寸法
 48
50.0
100
AcDbDimension
  2
*D9
 10
8295.299080322466
 20
9686.364662535867
 30
0.0
 11
8531.884899921598
 21
9686.364662535867
 31
0.0
 70
   160
 71
     5
 42
449.9999999999982
  3
INABA_S40G
100
AcDbAlignedDimension
 13
8816.108270459501
 23
9422.101167301644
 33
0.0
 14
8366.108270459504
 24
9422.101167301642
 34
0.0
100
AcDbRotatedDimension
  0
LINE
  5
154D6
330
747D
100
AcDbEntity
  8
仕様書枠
 48
50.0
100
AcDbLine
 10
16307.2
 20
1200.0
 30
0.0
 11
16307.2
 21
-0.0000000000000909
 31
0.0
  0
LINE
  5
15531
330
747D
100
AcDbEntity
  8
部品1
100
AcDbLine
 10
7379.108270459477
 20
4782.122760444127
 30
0.0
 11
7379.108270459477
 21
2984.122760444131
 31
0.0
  0
LINE
  5
15569
330
747D
100
AcDbEntity
  8
部品1
100
AcDbLine
 10
5849.108270459478
 20
4782.122760444127
 30
0.0
 11
5849.108270459478
 21
2984.122760444131
 31
0.0
  0
LINE
  5
155B0
330
747D
100
AcDbEntity
  8
部品1
100
AcDbLine
 10
7259.108270459477
 20
4782.122760444127
 30
0.0
 11
7259.108270459477
 21
2984.122760444131
 31
0.0
  0
LINE
  5
155B2
330
747D
100
AcDbEntity
  8
部品1
100
AcDbLine
 10
5729.108270459477
 20
4782.122760444127
 30
0.0
 11
5729.108270459477
 21
2984.122760444131
 31
0.0
  0
LINE
  5
155B9
330
747D
100
AcDbEntity
  8
細線
 48
50.0
100
AcDbLine
 10
5789.108270459476
 20
4782.122760444127
 30
0.0
 11
5789.108270459477
 21
4876.122760444133
 31
0.0
  0
LINE
  5
155D2
330
747D
100
AcDbEntity
  8
細線
 48
50.0
100
AcDbLine
 10
5779.108270459475
 20
4876.122760444131
 30
0.0
 11
5779.108270459476
 21
5017.122760444125
 31
0.0
  0
LINE
  5
155D3
330
747D
100
AcDbEntity
  8
細線
 48
50.0
100
AcDbLine
 10
7319.108270459476
 20
4782.122760444127
 30
0.0
 11
7319.108270459479
 21
4876.122760444133
 31
0.0
  0
LINE
  5
155D4
330
747D
100
AcDbEntity
  8
細線
 48
50.0
100
AcDbLine
 10
7309.108270459475
 20
4876.122760444131
 30
0.0
 11
7309.108270459477
 21
5017.12276044412
 31
0.0
  0
LINE
  5
15605
330
747D
100
AcDbEntity
  8
部品1
100
AcDbLine
 10
7370.108270459498
 20
7664.60116730145
 30
0.0
 11
7370.108270459496
 21
7671.601167301486
 31
0.0
  0
LINE
  5
15606
330
747D
100
AcDbEntity
  8
部品1
100
AcDbLine
 10
7379.108270459497
 20
7671.601167301485
 30
0.0
 11
7370.108270459496
 21
7671.601167301486
 31
0.0
  0
LINE
  5
15607
330
747D
100
AcDbEntity
  8
部品1
100
AcDbLine
 10
7379.108270459497
 20
7671.601167301485
 30
0.0
 11
7379.108270459494
 21
7719.601167301449
 31
0.0
  0
LINE
  5
15608
330
747D
100
AcDbEntity
  8
部品1
100
AcDbLine
 10
7259.108270459496
 20
7671.601167301485
 30
0.0
 11
7259.108270459496
 21
7719.601167301449
 31
0.0
  0
LINE
  5
15609
330
747D
100
AcDbEntity
  8
部品1
100
AcDbLine
 10
7268.108270459497
 20
7671.601167301479
 30
0.0
 11
7259.108270459496
 21
7671.601167301481
 31
0.0
  0
LINE
  5
1560A
330
747D
100
AcDbEntity
  8
部品1
100
AcDbLine
 10
7268.108270459499
 20
7664.601167301443
 30
0.0
 11
7268.108270459497
 21
7671.601167301479
 31
0.0
  0
LINE
  5
1560B
330
747D
100
AcDbEntity
  8
部品1
 48
50.0
100
AcDbLine
 10
7259.108270459496
 20
7719.601167301449
 30
0.0
 11
7282.108270459494
 21
7719.601167301449
 31
0.0
  0
LINE
  5
1560C
330
747D
100
AcDbEntity
  8
部品1
 48
50.0
100
AcDbLine
 10
7379.108270459494
 20
7719.601167301449
 30
0.0
 11
7356.108270459495
 21
7719.601167301449
 31
0.0
  0
LINE
  5
15611
330
747D
100
AcDbEntity
  8
部品1
 48
50.0
100
AcDbLine
 10
7347.108270459464
 20
7719.601167301449
 30
0.0
 11
7291.108270459464
 21
7719.601167301449
 31
0.0
  0
LINE
  5
15612
330
747D
100
AcDbEntity
  8
部品1
100
AcDbLine
 10
7374.108270459505
 20
9454.601167301527
 30
0.0
 11
7374.108270459505
 21
9426.601167301527
 31
0.0
  0
LINE
  5
15613
330
747D
100
AcDbEntity
  8
部品1
100
AcDbLine
 10
7347.108270459472
 20
9399.601167301499
 30
0.0
 11
7291.108270459472
 21
9399.601167301499
 31
0.0
  0
LINE
  5
15614
330
747D
100
AcDbEntity
  8
部品1
100
AcDbLine
 10
7264.108270459505
 20
9454.601167301527
 30
0.0
 11
7264.108270459505
 21
9426.601167301527
 31
0.0
  0
LINE
  5
15624
330
747D
100
AcDbEntity
  8
部品1
 48
50.0
100
AcDbLine
 10
7347.108270459472
 20
9399.601167301499
 30
0.0
 11
7347.108270459472
 21
9454.601167301582
 31
0.0
  0
LINE
  5
15625
330
747D
100
AcDbEntity
  8
部品1
 48
50.0
100
AcDbLine
 10
7291.108270459472
 20
9399.601167301499
 30
0.0
 11
7291.108270459472
 21
9426.601167301525
 31
0.0
  0
LINE
  5
15628
330
747D
100
AcDbEntity
  8
部品1
100
AcDbLine
 10
7374.108270459505
 20
9426.601167301527
 30
0.0
 11
7794.108270459505
 21
9426.601167301532
 31
0.0
  0
LINE
  5
15629
330
747D
100
AcDbEntity
  8
部品1
100
AcDbLine
 10
7347.108270459472
 20
9426.601167301631
 30
0.0
 11
8821.108270459507
 21
9426.60116730164
 31
0.0
  0
LINE
  5
1562A
330
747D
100
AcDbEntity
  8
部品1
 48
50.0
100
AcDbLine
 10
7291.108270459472
 20
9426.601167301525
 30
0.0
 11
7319.10827045947
 21
9426.601167301525
 31
0.0
  0
LINE
  5
1562B
330
747D
100
AcDbEntity
  8
部品1
 48
50.0
100
AcDbLine
 10
7319.10827045947
 20
9426.601167301525
 30
0.0
 11
7291.108270459472
 21
9454.601167301579
 31
0.0
  0
LINE
  5
1562C
330
747D
100
AcDbEntity
  8
部品1
100
AcDbLine
 10
7291.108270459436
 20
9426.601167301525
 30
0.0
 11
7291.10827045945
 21
8572.101167301621
 31
0.0
  0
LINE
  5
1562D
330
747D
100
AcDbEntity
  8
部品1
100
AcDbLine
 10
7319.108270459445
 20
7719.601167301511
 30
0.0
 11
7319.10827045947
 21
9399.601167301495
 31
0.0
  0
LINE
  5
1562E
330
747D
100
AcDbEntity
  8
部品1
100
AcDbLine
 10
7319.108270459451
 20
8139.601167301528
 30
0.0
 11
7291.10827045945
 21
8139.601167301528
 31
0.0
  0
LINE
  5
1562F
330
747D
100
AcDbEntity
  8
部品1
100
AcDbLine
 10
7319.108270459445
 20
8559.601167301527
 30
0.0
 11
7291.108270459445
 21
8559.601167301527
 31
0.0
  0
LINE
  5
15630
330
747D
100
AcDbEntity
  8
部品1
100
AcDbLine
 10
7347.108270459438
 20
9399.601167301499
 30
0.0
 11
7347.108270459464
 21
7664.601167301515
 31
0.0
  0
LINE
  5
15631
330
747D
100
AcDbEntity
  8
部品1
 48
50.0
100
AcDbLine
 10
7291.108270459472
 20
9426.60116730163
 30
0.0
 11
7291.108270459471
 21
9454.601167301579
 31
0.0
  0
DIMENSION
  5
15633
330
747D
100
AcDbEntity
  8
寸法
100
AcDbDimension
  2
*D10
 10
7319.10827045948
 20
6900.465197947925
 30
0.0
 11
6474.108270459488
 21
6900.465197947925
 31
0.0
 70
   160
 71
     5
 42
1529.999999999982
  3
INABA_S40G
100
AcDbAlignedDimension
 13
5789.108270459498
 23
7664.60116730145
 33
0.0
 14
7319.10827045948
 24
7664.601167301578
 34
0.0
100
AcDbRotatedDimension
1001
ACAD
1000
DSTYLE
1002
{
1002
}
  0
LINE
  5
15682
330
747D
100
AcDbEntity
  8
破線
 48
10.0
100
AcDbLine
 10
6836.1082704597
 20
7818.601167301586
 30
0.0
 11
5869.108270459491
 21
7818.601167301519
 31
0.0
  0
LINE
  5
15683
330
747D
100
AcDbEntity
  8
部品1
100
AcDbLine
 10
6836.108270459703
 20
7795.101167301583
 30
0.0
 11
5845.6082704594
 21
7795.101167301519
 31
0.0
  0
LINE
  5
15684
330
747D
100
AcDbEntity
  8
部品1
100
AcDbLine
 10
6836.108270459708
 20
7766.601167301582
 30
0.0
 11
5817.108270459479
 21
7766.601167301516
 31
0.0
  0
LINE
  5
15685
330
747D
100
AcDbEntity
  8
部品1
 48
50.0
100
AcDbLine
 10
6317.108270459506
 20
9398.101167301645
 30
0.0
 11
6317.108270459596
 21
7795.10116730155
 31
0.0
  0
LINE
  5
15686
330
747D
100
AcDbEntity
  8
破線
 48
10.0
100
AcDbLine
 10
5869.108270459473
 20
9374.601167301644
 30
0.0
 11
5869.108270459485
 21
8622.601167301567
 31
0.0
  0
LINE
  5
15687
330
747D
100
AcDbEntity
  8
部品1
100
AcDbLine
 10
5845.608270459473
 20
9398.101167301645
 30
0.0
 11
5845.608270459495
 21
7795.101167301614
 31
0.0
  0
LINE
  5
15688
330
747D
100
AcDbEntity
  8
部品1
 48
50.0
100
AcDbLine
 10
5845.608270459495
 20
7795.101167301615
 30
0.0
 11
5817.108270459496
 21
7766.601167301617
 31
0.0
  0
LINE
  5
15689
330
747D
100
AcDbEntity
  8
部品1
100
AcDbLine
 10
5845.608270459473
 20
9398.101167301645
 30
0.0
 11
6836.108270459508
 21
9398.101167301643
 31
0.0
  0
LINE
  5
1568A
330
747D
100
AcDbEntity
  8
破線
 48
10.0
100
AcDbLine
 10
6836.108270459511
 20
9374.601167301708
 30
0.0
 11
5869.108270459473
 21
9374.601167301644
 31
0.0
  0
LINE
  5
156C2
330
747D
100
AcDbEntity
  8
部品1
100
AcDbLine
 10
5756.108270459599
 20
7742.10116730164
 30
0.0
 11
5306.108270459714
 21
7742.101167301639
 31
0.0
  0
LINE
  5
156C5
330
747D
100
AcDbEntity
  8
破線
 48
10.0
100
AcDbLine
 10
5306.108270459699
 20
7818.601167301586
 30
0.0
 11
5259.059602619075
 21
7818.601167301584
 31
0.0
  0
LINE
  5
156C6
330
747D
100
AcDbEntity
  8
部品1
100
AcDbLine
 10
5306.108270459704
 20
7795.101167301583
 30
0.0
 11
5263.203286665722
 21
7795.101167301581
 31
0.0
  0
LINE
  5
156C7
330
747D
100
AcDbEntity
  8
部品1
100
AcDbLine
 10
5306.108270459708
 20
7766.601167301582
 30
0.0
 11
5268.228605615913
 21
7766.601167301582
 31
0.0
  0
LINE
  5
156C8
330
747D
100
AcDbEntity
  8
部品1
 48
50.0
100
AcDbLine
 10
4787.108270459507
 20
9398.101167301645
 30
0.0
 11
4787.1082704596
 21
7795.101167301545
 31
0.0
  0
LINE
  5
156C9
330
747D
100
AcDbEntity
  8
破線
 48
10.0
100
AcDbLine
 10
4339.108270459473
 20
9374.601167301644
 30
0.0
 11
4339.108270459499
 21
8622.601167301567
 31
0.0
  0
LINE
  5
156CA
330
747D
100
AcDbEntity
  8
部品1
100
AcDbLine
 10
4315.608270459473
 20
9398.101167301645
 30
0.0
 11
4315.608270459494
 21
7795.101167301614
 31
0.0
  0
LINE
  5
156CB
330
747D
100
AcDbEntity
  8
部品1
 48
50.0
100
AcDbLine
 10
4315.608270459494
 20
7795.101167301615
 30
0.0
 11
4287.108270459497
 21
7766.601167301617
 31
0.0
  0
LINE
  5
156CC
330
747D
100
AcDbEntity
  8
部品1
100
AcDbLine
 10
4315.608270459473
 20
9398.101167301645
 30
0.0
 11
4950.088338233474
 21
9398.101167301648
 31
0.0
  0
LINE
  5
156CD
330
747D
100
AcDbEntity
  8
破線
 48
10.0
100
AcDbLine
 10
5306.10827045951
 20
9374.601167301708
 30
0.0
 11
4984.69482063668
 21
9374.601167301696
 31
0.0
  0
LINE
  5
156DE
330
747D
100
AcDbEntity
  8
部品1
100
AcDbLine
 10
5789.108270459445
 20
7719.601167301511
 30
0.0
 11
5789.10827045947
 21
9399.601167301495
 31
0.0
  0
LINE
  5
156DF
330
747D
100
AcDbEntity
  8
部品1
100
AcDbLine
 10
5817.108270459438
 20
9399.601167301499
 30
0.0
 11
5817.108270459463
 21
7664.601167301515
 31
0.0
  0
LINE
  5
156E0
330
747D
100
AcDbEntity
  8
部品1
100
AcDbLine
 10
5761.108270459437
 20
9426.601167301525
 30
0.0
 11
5761.10827045945
 21
8572.101167301621
 31
0.0
  0
LINE
  5
156E1
330
747D
100
AcDbEntity
  8
部品1
 48
50.0
100
AcDbLine
 10
5817.108270459463
 20
7719.601167301449
 30
0.0
 11
5761.108270459462
 21
7719.601167301449
 31
0.0
  0
LINE
  5
156E2
330
747D
100
AcDbEntity
  8
部品1
 48
50.0
100
AcDbLine
 10
5849.108270459494
 20
7719.601167301449
 30
0.0
 11
5826.108270459495
 21
7719.601167301449
 31
0.0
  0
LINE
  5
156E3
330
747D
100
AcDbEntity
  8
部品1
 48
50.0
100
AcDbLine
 10
5729.108270459494
 20
7719.601167301449
 30
0.0
 11
5752.108270459494
 21
7719.601167301449
 31
0.0
  0
LINE
  5
156E4
330
747D
100
AcDbEntity
  8
部品1
100
AcDbLine
 10
5729.108270459496
 20
7671.601167301485
 30
0.0
 11
5729.108270459494
 21
7719.601167301449
 31
0.0
  0
LINE
  5
156E5
330
747D
100
AcDbEntity
  8
部品1
100
AcDbLine
 10
5849.108270459496
 20
7671.601167301485
 30
0.0
 11
5849.108270459494
 21
7719.601167301449
 31
0.0
  0
LINE
  5
156E6
330
747D
100
AcDbEntity
  8
部品1
100
AcDbLine
 10
5738.108270459497
 20
7671.601167301479
 30
0.0
 11
5729.108270459496
 21
7671.601167301481
 31
0.0
  0
LINE
  5
156E7
330
747D
100
AcDbEntity
  8
部品1
100
AcDbLine
 10
5738.108270459498
 20
7664.601167301443
 30
0.0
 11
5738.108270459497
 21
7671.601167301479
 31
0.0
  0
LINE
  5
156E8
330
747D
100
AcDbEntity
  8
部品1
100
AcDbLine
 10
5849.108270459496
 20
7671.601167301485
 30
0.0
 11
5840.108270459496
 21
7671.601167301486
 31
0.0
  0
LINE
  5
156E9
330
747D
100
AcDbEntity
  8
部品1
100
AcDbLine
 10
5840.108270459499
 20
7664.60116730145
 30
0.0
 11
5840.108270459496
 21
7671.601167301486
 31
0.0
  0
LINE
  5
156EA
330
747D
100
AcDbEntity
  8
部品1
100
AcDbLine
 10
5789.10827045945
 20
8139.601167301528
 30
0.0
 11
5761.10827045945
 21
8139.601167301528
 31
0.0
  0
LINE
  5
156EB
330
747D
100
AcDbEntity
  8
部品1
100
AcDbLine
 10
5789.108270459444
 20
8559.601167301527
 30
0.0
 11
5761.108270459445
 21
8559.601167301527
 31
0.0
  0
LINE
  5
156EC
330
747D
100
AcDbEntity
  8
部品1
 48
50.0
100
AcDbLine
 10
5789.10827045947
 20
9426.601167301525
 30
0.0
 11
5761.108270459472
 21
9454.601167301579
 31
0.0
  0
LINE
  5
156ED
330
747D
100
AcDbEntity
  8
部品1
 48
50.0
100
AcDbLine
 10
5761.108270459472
 20
9426.601167301525
 30
0.0
 11
5789.10827045947
 21
9426.601167301525
 31
0.0
  0
LINE
  5
156EE
330
747D
100
AcDbEntity
  8
部品1
100
AcDbLine
 10
5817.108270459471
 20
9399.601167301499
 30
0.0
 11
5761.108270459472
 21
9399.601167301499
 31
0.0
  0
LINE
  5
156EF
330
747D
100
AcDbEntity
  8
部品1
 48
50.0
100
AcDbLine
 10
5761.108270459472
 20
9426.60116730163
 30
0.0
 11
5761.10827045947
 21
9454.601167301579
 31
0.0
  0
LINE
  5
156F0
330
747D
100
AcDbEntity
  8
部品1
 48
50.0
100
AcDbLine
 10
5817.108270459471
 20
9399.601167301499
 30
0.0
 11
5817.108270459471
 21
9454.601167301582
 31
0.0
  0
LINE
  5
156F1
330
747D
100
AcDbEntity
  8
部品1
100
AcDbLine
 10
5734.108270459504
 20
9454.601167301527
 30
0.0
 11
5734.108270459504
 21
9426.601167301527
 31
0.0
  0
LINE
  5
156F2
330
747D
100
AcDbEntity
  8
部品1
100
AcDbLine
 10
5844.108270459504
 20
9454.601167301527
 30
0.0
 11
5844.108270459504
 21
9426.601167301527
 31
0.0
  0
LINE
  5
156F3
330
747D
100
AcDbEntity
  8
部品1
100
AcDbLine
 10
5817.108270459471
 20
9426.601167301621
 30
0.0
 11
7291.108270459472
 21
9426.60116730163
 31
0.0
  0
LINE
  5
156F4
330
747D
100
AcDbEntity
  8
部品1
100
AcDbLine
 10
5817.108270459471
 20
9426.601167301507
 30
0.0
 11
7264.108270459505
 21
9426.601167301525
 31
0.0
  0
DIMENSION
  5
15727
330
747D
100
AcDbEntity
  8
寸法
 48
50.0
100
AcDbDimension
  2
*D11
 10
7264.108270459505
 20
9890.079517248018
 30
0.0
 11
7319.108270459505
 21
9890.079517248018
 31
0.0
 70
   160
 71
     5
 42
110.0
  3
INABA_S40G
100
AcDbAlignedDimension
 13
7374.108270459505
 23
9454.601167301495
 33
0.0
 14
7264.108270459505
 24
9454.601167301495
 34
0.0
100
AcDbRotatedDimension
  0
DIMENSION
  5
15735
330
747D
100
AcDbEntity
  8
寸法
 48
50.0
100
AcDbDimension
  2
*D12
 10
5734.108270459506
 20
9890.079517248018
 30
0.0
 11
5789.108270459505
 21
9890.079517248018
 31
0.0
 70
   160
 71
     5
 42
109.9999999999991
  3
INABA_S40G
100
AcDbAlignedDimension
 13
5844.108270459504
 23
9454.601167301538
 33
0.0
 14
5734.108270459506
 24
9454.601167301623
 34
0.0
100
AcDbRotatedDimension
  0
LINE
  5
157D0
330
747D
100
AcDbEntity
  8
寸法
 48
50.0
100
AcDbLine
 10
4853.104843809836
 20
5079.585163069973
 30
0.0
 11
5021.8292462233
 21
4122.701527136626
 31
0.0
  0
LINE
  5
157D1
330
747D
100
AcDbEntity
  8
寸法
 48
50.0
100
AcDbLine
 10
4883.567642166408
 20
5079.585163069971
 30
0.0
 11
5047.37613081955
 21
4150.581059472349
 31
0.0
  0
LINE
  5
157D7
330
747D
100
AcDbEntity
  8
寸法
 48
50.0
100
AcDbLine
 10
5047.37613081955
 20
4150.58105947235
 30
0.0
 11
5334.453405509306
 21
4125.465052381078
 31
0.0
  0
LINE
  5
157D8
330
747D
100
AcDbEntity
  8
寸法
 48
50.0
100
AcDbLine
 10
5334.453405509306
 20
4125.465052381078
 30
0.0
 11
4892.713541480194
 21
3919.478370871956
 31
0.0
  0
LINE
  5
157D9
330
747D
100
AcDbEntity
  8
寸法
 48
50.0
100
AcDbLine
 10
5021.8292462233
 20
4122.701527136626
 30
0.0
 11
5220.303256401602
 21
4105.337301241496
 31
0.0
  0
LINE
  5
157DA
330
747D
100
AcDbEntity
  8
寸法
 48
50.0
100
AcDbLine
 10
5220.303256401602
 20
4105.337301241496
 30
0.0
 11
4778.563392372489
 21
3899.350619732373
 31
0.0
  0
LINE
  5
157DB
330
747D
100
AcDbEntity
  8
寸法
 48
50.0
100
AcDbLine
 10
5091.187551658495
 20
3902.114144976824
 30
0.0
 11
5302.348282425279
 21
2704.562131561969
 31
0.0
  0
LINE
  5
157DD
330
747D
100
AcDbEntity
  8
寸法
 48
50.0
100
AcDbLine
 10
5065.640667062244
 20
3874.234612641102
 30
0.0
 11
4778.563392372489
 21
3899.350619732373
 31
0.0
  0
LINE
  5
157DE
330
747D
100
AcDbEntity
  8
寸法
 48
50.0
100
AcDbLine
 10
5091.187551658495
 20
3902.114144976824
 30
0.0
 11
4892.713541480196
 21
3919.478370871956
 31
0.0
  0
LINE
  5
157DF
330
747D
100
AcDbEntity
  8
寸法
 48
50.0
100
AcDbLine
 10
5065.640667062244
 20
3874.234612641102
 30
0.0
 11
5271.885484068707
 21
2704.562131561969
 31
0.0
  0
LINE
  5
157E3
330
747D
100
AcDbEntity
  8
Ｇ．Ｌ
100
AcDbLine
 10
5278.092632070129
 20
2842.122760444126
 30
0.0
 11
13531.11970558626
 21
2842.122760444127
 31
0.0
  0
LINE
  5
157E4
330
747D
100
AcDbEntity
  8
部品1
100
AcDbLine
 10
5260.459933999283
 20
2942.122760444126
 30
0.0
 11
8849.108270459478
 21
2942.122760444127
 31
0.0
  0
LINE
  5
157E5
330
747D
100
AcDbEntity
  8
部品1
100
AcDbLine
 10
5253.054200809527
 20
2984.122760444133
 30
0.0
 11
8849.108270459478
 21
2984.122760444146
 31
0.0
  0
LINE
  5
157EC
330
747D
100
AcDbEntity
  8
部品1
100
AcDbLine
 10
4936.018289495709
 20
4782.122760444127
 30
0.0
 11
8849.108270459478
 21
4782.122760444127
 31
0.0
  0
LINE
  5
157F1
330
747D
100
AcDbEntity
  8
寸法
 48
50.0
100
AcDbLine
 10
4961.343704657966
 20
9507.031926819555
 30
0.0
 11
5091.639948066845
 21
8768.08521041031
 31
0.0
  0
LINE
  5
157F2
330
747D
100
AcDbEntity
  8
寸法
 48
50.0
100
AcDbLine
 10
4930.880906301399
 20
9507.031926819555
 30
0.0
 11
5066.093063470595
 21
8740.205678074588
 31
0.0
  0
LINE
  5
157F3
330
747D
100
AcDbEntity
  8
寸法
 48
50.0
100
AcDbLine
 10
5135.45136890579
 20
8519.618295914785
 30
0.0
 11
5295.458915170279
 21
7612.170407783344
 31
0.0
  0
LINE
  5
157F4
330
747D
100
AcDbEntity
  8
寸法
 48
50.0
100
AcDbLine
 10
5109.904484309539
 20
8491.738763579062
 30
0.0
 11
5264.996116813708
 21
7612.170407783344
 31
0.0
  0
LINE
  5
157F5
330
747D
100
AcDbEntity
  8
寸法
 48
50.0
100
AcDbLine
 10
5264.567073648897
 20
8722.841452179459
 30
0.0
 11
4822.827209619783
 21
8516.854770670336
 31
0.0
  0
LINE
  5
157F6
330
747D
100
AcDbEntity
  8
寸法
 48
50.0
100
AcDbLine
 10
5378.717222756601
 20
8742.96920331904
 30
0.0
 11
4936.977358727489
 21
8536.982521809918
 31
0.0
  0
LINE
  5
157F7
330
747D
100
AcDbEntity
  8
寸法
 48
50.0
100
AcDbLine
 10
5135.45136890579
 20
8519.618295914785
 30
0.0
 11
4936.97735872749
 21
8536.982521809918
 31
0.0
  0
LINE
  5
157F8
330
747D
100
AcDbEntity
  8
寸法
 48
50.0
100
AcDbLine
 10
5109.904484309539
 20
8491.738763579062
 30
0.0
 11
4822.827209619783
 21
8516.854770670336
 31
0.0
  0
LINE
  5
157F9
330
747D
100
AcDbEntity
  8
寸法
 48
50.0
100
AcDbLine
 10
5091.639948066845
 20
8768.08521041031
 30
0.0
 11
5378.717222756601
 21
8742.96920331904
 31
0.0
  0
LINE
  5
157FA
330
747D
100
AcDbEntity
  8
寸法
 48
50.0
100
AcDbLine
 10
5066.093063470595
 20
8740.205678074588
 30
0.0
 11
5264.567073648897
 21
8722.841452179459
 31
0.0
  0
LINE
  5
157FC
330
747D
100
AcDbEntity
  8
部品1
100
AcDbLine
 10
5255.75115929164
 20
7664.601167301388
 30
0.0
 11
4259.108270459498
 21
7664.601167301331
 31
0.0
  0
LINE
  5
15800
330
747D
100
AcDbEntity
  8
部品1
100
AcDbLine
 10
5237.765807259342
 20
7766.601167301576
 30
0.0
 11
4287.108270459479
 21
7766.601167301516
 31
0.0
  0
LINE
  5
15801
330
747D
100
AcDbEntity
  8
部品1
100
AcDbLine
 10
5232.740488309151
 20
7795.101167301578
 30
0.0
 11
4315.608270459398
 21
7795.101167301519
 31
0.0
  0
LINE
  5
15802
330
747D
100
AcDbEntity
  8
破線
 48
10.0
100
AcDbLine
 10
5228.596804262502
 20
7818.601167301578
 30
0.0
 11
4339.108270459492
 21
7818.601167301519
 31
0.0
  0
LINE
  5
15805
330
747D
100
AcDbEntity
  8
破線
 48
10.0
100
AcDbLine
 10
4954.232022280113
 20
9374.601167301683
 30
0.0
 11
4339.108270459473
 21
9374.601167301644
 31
0.0
  0
LINE
  5
15806
330
747D
100
AcDbEntity
  8
部品1
100
AcDbLine
 10
4980.551136590039
 20
9398.101167301648
 30
0.0
 11
5306.108270459507
 21
9398.101167301643
 31
0.0
  0
LINE
  5
15807
330
747D
100
AcDbEntity
  8
部品1
100
AcDbLine
 10
4975.525817639854
 20
9426.601167301623
 30
0.0
 11
5789.108270459375
 21
9426.601167301621
 31
0.0
  0
LINE
  5
15808
330
747D
100
AcDbEntity
  8
部品1
100
AcDbLine
 10
4970.588662180034
 20
9454.601167301518
 30
0.0
 11
8849.108270459508
 21
9454.601167301623
 31
0.0
  0
LINE
  5
1580A
330
747D
100
AcDbEntity
  8
寸法
  6
ByBlock
 48
50.0
100
AcDbLine
 10
4259.108270459498
 20
7644.601167301449
 30
0.0
 11
4259.108270459498
 21
6840.465197947924
 31
0.0
  0
LINE
  5
1580B
330
747D
100
AcDbEntity
  8
寸法
  6
ByBlock
 48
50.0
100
AcDbLine
 10
5789.10827045948
 20
7644.601167301579
 30
0.0
 11
5789.10827045948
 21
6840.465197947924
 31
0.0
  0
LINE
  5
1580C
330
747D
100
AcDbEntity
  8
寸法
  6
ByBlock
 48
50.0
100
AcDbLine
 10
4259.108270459498
 20
6900.465197947925
 30
0.0
 11
4605.331599857017
 21
6900.465197947925
 31
0.0
  0
INSERT
  5
1580D
330
747D
100
AcDbEntity
  8
寸法
  6
ByBlock
 48
50.0
100
AcDbBlockReference
  2
_DOTSMALL
 10
4259.108270459498
 20
6900.465197947925
 30
0.0
 41
100.0
 42
100.0
 43
100.0
 50
180.0
  0
INSERT
  5
1580E
330
747D
100
AcDbEntity
  8
寸法
  6
ByBlock
 48
50.0
100
AcDbBlockReference
  2
_DOTSMALL
 10
5789.10827045948
 20
6900.465197947925
 30
0.0
 41
100.0
 42
100.0
 43
100.0
  0
MTEXT
  5
1580F
330
747D
100
AcDbEntity
  8
部品1
  6
ByBlock
 48
50.0
100
AcDbMText
 10
4461.188101692832
 20
7000.465197947924
 30
0.0
 40
120.0
 41
0.0
 71
     5
 72
     1
  1
\A1;1530
  7
STYLE1
 73
     1
 44
1.0
1001
ACAD
1000
MTEXTBEGIN
1070
    73
1070
     1
1070
    44
1040
1.0
1070
    74
1070
     0
1000
MTEXTEND
  0
POINT
  5
15812
330
747D
100
AcDbEntity
  8
寸法
  6
ByBlock
 48
50.0
100
AcDbPoint
 10
5789.10827045948
 20
6900.465197947925
 30
0.0
  0
LINE
  5
15815
330
747D
100
AcDbEntity
  8
寸法
  6
ByBlock
 48
50.0
100
AcDbLine
 10
4314.108270459505
 20
9474.601167301495
 30
0.0
 11
4314.108270459505
 21
9950.079517248019
 31
0.0
  0
LINE
  5
15816
330
747D
100
AcDbEntity
  8
寸法
  6
ByBlock
 48
50.0
100
AcDbLine
 10
5734.108270459506
 20
9474.601167301623
 30
0.0
 11
5734.108270459506
 21
9950.079517248019
 31
0.0
  0
LINE
  5
15817
330
747D
100
AcDbEntity
  8
寸法
  6
ByBlock
 48
50.0
100
AcDbLine
 10
4314.108270459505
 20
9890.079517248018
 30
0.0
 11
4655.561760568533
 21
9890.079517248018
 31
0.0
  0
INSERT
  5
15818
330
747D
100
AcDbEntity
  8
寸法
  6
ByBlock
 48
50.0
100
AcDbBlockReference
  2
_DOTSMALL
 10
4314.108270459505
 20
9890.079517248018
 30
0.0
 41
100.0
 42
100.0
 43
100.0
 50
180.0
  0
INSERT
  5
15819
330
747D
100
AcDbEntity
  8
寸法
  6
ByBlock
 48
50.0
100
AcDbBlockReference
  2
_DOTSMALL
 10
5734.108270459506
 20
9890.079517248018
 30
0.0
 41
100.0
 42
100.0
 43
100.0
  0
MTEXT
  5
1581A
330
747D
100
AcDbEntity
  8
部品1
  6
ByBlock
 48
50.0
100
AcDbMText
 10
4502.028536965511
 20
9990.091328271638
 30
0.0
 40
120.0
 41
0.0
 71
     5
 72
     1
  1
\A1;1420
  7
STYLE1
 73
     1
 44
1.0
1001
ACAD
1000
MTEXTBEGIN
1070
    73
1070
     1
1070
    44
1040
1.0
1070
    74
1070
     0
1000
MTEXTEND
  0
POINT
  5
1581D
330
747D
100
AcDbEntity
  8
寸法
  6
ByBlock
 48
50.0
100
AcDbPoint
 10
5734.108270459506
 20
9890.079517248018
 30
0.0
  0
LINE
  5
1581E
330
747D
100
AcDbEntity
  8
寸法
  6
ByBlock
 48
50.0
100
AcDbLine
 10
5433.020408474425
 20
6900.465197947925
 30
0.0
 11
5789.10827045948
 21
6900.465197947925
 31
0.0
  0
LINE
  5
1581F
330
747D
100
AcDbEntity
  8
寸法
  6
ByBlock
 48
50.0
100
AcDbLine
 10
5283.051220318324
 20
9890.079517248018
 30
0.0
 11
5734.108270459506
 21
9890.079517248018
 31
0.0
  0
MTEXT
  5
1583A
330
747D
100
AcDbEntity
  8
部品1
  6
ByBlock
 48
50.0
100
AcDbMText
 10
5570.370074353873
 20
7000.465197947924
 30
0.0
 40
120.0
 41
0.0
 71
     5
 72
     1
  1
\A1;1530
  7
STYLE1
 73
     1
 44
1.0
1001
ACAD
1000
MTEXTBEGIN
1070
    73
1070
     1
1070
    44
1040
1.0
1070
    74
1070
     0
1000
MTEXTEND
  0
MTEXT
  5
1583B
330
747D
100
AcDbEntity
  8
部品1
  6
ByBlock
 48
50.0
100
AcDbMText
 10
5439.752750467896
 20
9990.091328271638
 30
0.0
 40
120.0
 41
0.0
 71
     5
 72
     1
  1
\A1;1420
  7
STYLE1
 73
     1
 44
1.0
1001
ACAD
1000
MTEXTBEGIN
1070
    73
1070
     1
1070
    44
1040
1.0
1070
    74
1070
     0
1000
MTEXTEND
  0
LINE
  5
15874
330
747D
100
AcDbEntity
  8
部品1
 48
50.0
100
AcDbLine
 10
6264.108270459505
 20
9426.601167301623
 30
0.0
 11
6264.108270459505
 21
9454.601167301552
 31
0.0
  0
LINE
  5
15875
330
747D
100
AcDbEntity
  8
部品1
 48
50.0
100
AcDbLine
 10
6844.108270459506
 20
9426.601167301623
 30
0.0
 11
6844.108270459506
 21
9454.601167301552
 31
0.0
  0
LINE
  5
15876
330
747D
100
AcDbEntity
  8
部品1
 48
50.0
100
AcDbLine
 10
4734.108270459506
 20
9426.601167301623
 30
0.0
 11
4734.108270459506
 21
9454.601167301552
 31
0.0
  0
LINE
  5
15877
330
747D
100
AcDbEntity
  8
部品1
 48
50.0
100
AcDbLine
 10
5314.108270459506
 20
9426.601167301623
 30
0.0
 11
5314.108270459506
 21
9454.601167301552
 31
0.0
  0
LINE
  5
16023
330
747D
100
AcDbEntity
  8
破線
 48
10.0
100
AcDbLine
 10
4339.108270459499
 20
8572.601167301568
 30
0.0
 11
4339.108270459493
 21
7818.601167301519
 31
0.0
  0
LINE
  5
16024
330
747D
100
AcDbEntity
  8
破線
 48
10.0
100
AcDbLine
 10
5869.108270459485
 20
8572.601167301568
 30
0.0
 11
5869.108270459492
 21
7818.601167301519
 31
0.0
  0
LINE
  5
1602A
330
747D
100
AcDbEntity
  8
部品1
100
AcDbLine
 10
8833.108270459481
 20
8585.601167301618
 30
0.0
 11
8821.108270459481
 21
8585.601167301618
 31
0.0
  0
LINE
  5
1602C
330
747D
100
AcDbEntity
  8
部品1
100
AcDbLine
 10
8833.108270459481
 20
8533.601167301618
 30
0.0
 11
8821.108270459481
 21
8533.601167301618
 31
0.0
  0
LINE
  5
1602D
330
747D
100
AcDbEntity
  8
部品1
100
AcDbLine
 10
8791.108270459478
 20
8572.101167301617
 30
0.0
 11
8791.108270459481
 21
8547.101167301617
 31
0.0
  0
LINE
  5
1602E
330
747D
100
AcDbEntity
  8
部品1
 48
50.0
100
AcDbLine
 10
8821.108270459484
 20
8547.101167301617
 30
0.0
 11
8369.108270459484
 21
8547.101167301617
 31
0.0
  0
LINE
  5
1602F
330
747D
100
AcDbEntity
  8
部品1
 48
50.0
100
AcDbLine
 10
8821.108270459488
 20
8572.101167301621
 30
0.0
 11
8369.108270459484
 21
8572.101167301617
 31
0.0
  0
LINE
  5
16030
330
747D
100
AcDbEntity
  8
細線
 48
50.0
100
AcDbLine
 10
8816.108270459711
 20
8572.851167301665
 30
0.0
 11
8366.108270459504
 21
9425.851167301653
 31
0.0
  0
LINE
  5
16031
330
747D
100
AcDbEntity
  8
部品1
100
AcDbLine
 10
8816.108270459597
 20
8572.851167301651
 30
0.0
 11
8366.108270459601
 21
8572.851167301651
 31
0.0
  0
LINE
  5
16032
330
747D
100
AcDbEntity
  8
部品1
 48
50.0
100
AcDbLine
 10
8816.108270459503
 20
8538.101167301645
 30
0.0
 11
8366.108270459506
 21
8538.101167301642
 31
0.0
  0
LINE
  5
16033
330
747D
100
AcDbEntity
  8
細線
 48
50.0
100
AcDbLine
 10
8366.108270459713
 20
7742.101167301655
 30
0.0
 11
8816.108270459507
 21
8538.101167301645
 31
0.0
  0
LINE
  5
16034
330
747D
100
AcDbEntity
  8
細線
 48
50.0
100
AcDbLine
 10
8366.10827045971
 20
8572.851167301665
 30
0.0
 11
8816.108270459507
 21
9425.851167301654
 31
0.0
  0
LINE
  5
16035
330
747D
100
AcDbEntity
  8
部品1
100
AcDbLine
 10
8366.108270459504
 20
9425.851167301651
 30
0.0
 11
8366.10827045971
 21
8572.851167301665
 31
0.0
  0
LINE
  5
16036
330
747D
100
AcDbEntity
  8
細線
 48
50.0
100
AcDbLine
 10
8816.108270459711
 20
7742.101167301655
 30
0.0
 11
8366.108270459506
 21
8538.101167301642
 31
0.0
  0
LINE
  5
16037
330
747D
100
AcDbEntity
  8
部品1
100
AcDbLine
 10
8366.108270459506
 20
8538.10116730164
 30
0.0
 11
8366.108270459713
 21
7742.101167301655
 31
0.0
  0
LINE
  5
16038
330
747D
100
AcDbEntity
  8
部品1
100
AcDbLine
 10
8369.108270459484
 20
8572.101167301617
 30
0.0
 11
8369.108270459484
 21
8547.101167301617
 31
0.0
  0
LINE
  5
16039
330
747D
100
AcDbEntity
  8
部品1
100
AcDbLine
 10
8821.108270459495
 20
8547.101167301617
 30
0.0
 11
8821.108270459481
 21
7719.601167301608
 31
0.0
  0
LINE
  5
1603A
330
747D
100
AcDbEntity
  8
部品1
100
AcDbLine
 10
8816.108270459618
 20
8538.101167301645
 30
0.0
 11
8816.108270459713
 21
7742.101167301655
 31
0.0
  0
DIMENSION
  5
1603B
330
747D
100
AcDbEntity
  8
寸法
 48
50.0
100
AcDbDimension
  2
*D13
 10
9231.291477860201
 20
8461.603162167746
 30
0.0
 11
9131.2914778602
 21
8888.103162167722
 31
0.0
 70
    32
 71
     5
 42
853.0000000000036
  3
INABA_S40G
100
AcDbAlignedDimension
 13
8816.108270459507
 23
9425.851167301672
 33
0.0
 14
8816.108270459718
 24
8572.851167301669
 34
0.0
 50
90.0
100
AcDbRotatedDimension
  0
DIMENSION
  5
1603C
330
747D
100
AcDbEntity
  8
寸法
 48
50.0
100
AcDbDimension
  2
*D14
 10
9231.291477860205
 20
7630.853162167735
 30
0.0
 11
9231.291477860201
 21
8047.507875105759
 31
0.0
 70
   160
 71
     5
 42
796.0000000000036
  3
INABA_S40G
100
AcDbAlignedDimension
 13
8816.108270459503
 23
8538.101167301661
 33
0.0
 14
8816.108270459718
 24
7742.101167301658
 34
0.0
 50
90.0
100
AcDbRotatedDimension
  0
LINE
  5
16077
330
747D
100
AcDbEntity
  8
細線
 48
50.0
100
AcDbLine
 10
7286.108270459711
 20
7742.101167301655
 30
0.0
 11
6836.108270459506
 21
8538.101167301642
 31
0.0
  0
LINE
  5
16078
330
747D
100
AcDbEntity
  8
細線
 48
50.0
100
AcDbLine
 10
6836.10827045971
 20
8572.851167301665
 30
0.0
 11
7286.108270459506
 21
9425.851167301654
 31
0.0
  0
LINE
  5
16079
330
747D
100
AcDbEntity
  8
細線
 48
50.0
100
AcDbLine
 10
6836.108270459714
 20
7742.101167301655
 30
0.0
 11
7286.108270459506
 21
8538.101167301645
 31
0.0
  0
LINE
  5
1607A
330
747D
100
AcDbEntity
  8
部品1
 48
50.0
100
AcDbLine
 10
7286.108270459504
 20
8538.101167301645
 30
0.0
 11
6836.108270459506
 21
8538.101167301642
 31
0.0
  0
LINE
  5
1607B
330
747D
100
AcDbEntity
  8
部品1
100
AcDbLine
 10
7286.108270459597
 20
8572.851167301651
 30
0.0
 11
6836.108270459601
 21
8572.851167301651
 31
0.0
  0
LINE
  5
1607C
330
747D
100
AcDbEntity
  8
細線
 48
50.0
100
AcDbLine
 10
7286.108270459711
 20
8572.851167301665
 30
0.0
 11
6836.108270459503
 21
9425.851167301653
 31
0.0
  0
LINE
  5
1607D
330
747D
100
AcDbEntity
  8
部品1
 48
50.0
100
AcDbLine
 10
7291.108270459488
 20
8572.101167301621
 30
0.0
 11
6839.108270459485
 21
8572.101167301617
 31
0.0
  0
LINE
  5
1607E
330
747D
100
AcDbEntity
  8
部品1
 48
50.0
100
AcDbLine
 10
7291.108270459485
 20
8547.101167301617
 30
0.0
 11
6839.108270459485
 21
8547.101167301617
 31
0.0
  0
LINE
  5
1607F
330
747D
100
AcDbEntity
  8
部品1
100
AcDbLine
 10
6836.108270459503
 20
9425.851167301651
 30
0.0
 11
6836.10827045971
 21
8572.851167301665
 31
0.0
  0
LINE
  5
16080
330
747D
100
AcDbEntity
  8
部品1
100
AcDbLine
 10
6836.108270459506
 20
8538.10116730164
 30
0.0
 11
6836.108270459714
 21
7742.101167301655
 31
0.0
  0
LINE
  5
16081
330
747D
100
AcDbEntity
  8
部品1
100
AcDbLine
 10
6839.108270459485
 20
8572.101167301617
 30
0.0
 11
6839.108270459485
 21
8547.101167301617
 31
0.0
  0
LINE
  5
16082
330
747D
100
AcDbEntity
  8
部品1
 48
50.0
100
AcDbLine
 10
7286.108270459499
 20
9425.851167301653
 30
0.0
 11
6836.108270459501
 21
9425.851167301651
 31
0.0
  0
LINE
  5
16083
330
747D
100
AcDbEntity
  8
部品1
100
AcDbLine
 10
7286.108270459506
 20
9425.851167301654
 30
0.0
 11
7286.108270459611
 21
8572.851167301852
 31
0.0
  0
LINE
  5
16084
330
747D
100
AcDbEntity
  8
部品1
100
AcDbLine
 10
7303.108270459481
 20
8585.601167301618
 30
0.0
 11
7291.108270459481
 21
8585.601167301618
 31
0.0
  0
LINE
  5
16086
330
747D
100
AcDbEntity
  8
部品1
100
AcDbLine
 10
7261.108270459478
 20
8572.101167301617
 30
0.0
 11
7261.10827045948
 21
8547.101167301617
 31
0.0
  0
LINE
  5
16087
330
747D
100
AcDbEntity
  8
部品1
100
AcDbLine
 10
7303.108270459481
 20
8533.601167301618
 30
0.0
 11
7291.108270459481
 21
8533.601167301618
 31
0.0
  0
LINE
  5
16089
330
747D
100
AcDbEntity
  8
部品1
100
AcDbLine
 10
7286.108270459617
 20
8538.101167301645
 30
0.0
 11
7286.108270459713
 21
7742.101167301655
 31
0.0
  0
LINE
  5
1608A
330
747D
100
AcDbEntity
  8
部品1
100
AcDbLine
 10
7286.1082704596
 20
7742.10116730164
 30
0.0
 11
6836.108270459601
 21
7742.10116730164
 31
0.0
  0
LINE
  5
1608B
330
747D
100
AcDbEntity
  8
部品1
100
AcDbLine
 10
5756.108270459506
 20
9425.851167301654
 30
0.0
 11
5756.108270459612
 21
8572.851167301852
 31
0.0
  0
LINE
  5
1608D
330
747D
100
AcDbEntity
  8
部品1
 48
50.0
100
AcDbLine
 10
5756.108270459499
 20
9425.851167301653
 30
0.0
 11
5306.108270459501
 21
9425.851167301651
 31
0.0
  0
LINE
  5
1608E
330
747D
100
AcDbEntity
  8
部品1
100
AcDbLine
 10
5306.108270459503
 20
9425.851167301651
 30
0.0
 11
5306.108270459741
 21
8749.321663515509
 31
0.0
  0
LINE
  5
16090
330
747D
100
AcDbEntity
  8
部品1
 48
50.0
100
AcDbLine
 10
5761.108270459485
 20
8547.101167301617
 30
0.0
 11
5309.108270459485
 21
8547.101167301617
 31
0.0
  0
LINE
  5
16091
330
747D
100
AcDbEntity
  8
部品1
 48
50.0
100
AcDbLine
 10
5761.108270459488
 20
8572.101167301621
 30
0.0
 11
5309.108270459485
 21
8572.101167301617
 31
0.0
  0
LINE
  5
16092
330
747D
100
AcDbEntity
  8
部品1
100
AcDbLine
 10
5756.108270459598
 20
8572.851167301651
 30
0.0
 11
5306.108270459601
 21
8572.851167301651
 31
0.0
  0
LINE
  5
16093
330
747D
100
AcDbEntity
  8
部品1
 48
50.0
100
AcDbLine
 10
5756.108270459503
 20
8538.101167301645
 30
0.0
 11
5306.108270459507
 21
8538.101167301642
 31
0.0
  0
LINE
  5
16094
330
747D
100
AcDbEntity
  8
部品1
100
AcDbLine
 10
5309.108270459485
 20
8572.101167301617
 30
0.0
 11
5309.108270459485
 21
8547.101167301617
 31
0.0
  0
LINE
  5
16095
330
747D
100
AcDbEntity
  8
部品1
100
AcDbLine
 10
5306.108270459507
 20
8538.10116730164
 30
0.0
 11
5306.108270459715
 21
7742.10116730164
 31
0.0
  0
LINE
  5
16096
330
747D
100
AcDbEntity
  8
細線
 48
50.0
100
AcDbLine
 10
5756.10827045971
 20
7742.101167301655
 30
0.0
 11
5306.108270459507
 21
8538.101167301642
 31
0.0
  0
LINE
  5
16098
330
747D
100
AcDbEntity
  8
部品1
100
AcDbLine
 10
5773.108270459481
 20
8585.601167301618
 30
0.0
 11
5761.108270459481
 21
8585.601167301618
 31
0.0
  0
LINE
  5
16099
330
747D
100
AcDbEntity
  8
部品1
100
AcDbLine
 10
5731.108270459477
 20
8572.101167301617
 30
0.0
 11
5731.108270459481
 21
8547.101167301617
 31
0.0
  0
LINE
  5
1609B
330
747D
100
AcDbEntity
  8
部品1
100
AcDbLine
 10
5773.108270459481
 20
8533.601167301618
 30
0.0
 11
5761.108270459481
 21
8533.601167301618
 31
0.0
  0
LINE
  5
1609C
330
747D
100
AcDbEntity
  8
部品1
100
AcDbLine
 10
5756.108270459617
 20
8538.101167301645
 30
0.0
 11
5756.108270459714
 21
7742.101167301655
 31
0.0
  0
LINE
  5
1609D
330
747D
100
AcDbEntity
  8
細線
 48
50.0
100
AcDbLine
 10
5306.108270459705
 20
7742.10116730164
 30
0.0
 11
5756.108270459506
 21
8538.101167301645
 31
0.0
  0
LINE
  5
1609F
330
747D
100
AcDbEntity
  8
部品1
100
AcDbLine
 10
7291.10827045945
 20
8547.101167301617
 30
0.0
 11
7291.108270459464
 21
7664.601167301515
 31
0.0
  0
LINE
  5
160A0
330
747D
100
AcDbEntity
  8
部品1
100
AcDbLine
 10
5761.10827045945
 20
8547.101167301617
 30
0.0
 11
5761.108270459463
 21
7664.601167301515
 31
0.0
  0
LINE
  5
160A1
330
747D
100
AcDbEntity
  8
部品1
100
AcDbLine
 10
5306.108270459699
 20
8709.111092812385
 30
0.0
 11
5306.10827045971
 21
8572.851167301665
 31
0.0
  0
LINE
  5
160A5
330
747D
100
AcDbEntity
  8
部品1
100
AcDbLine
 10
4287.108270459479
 20
8979.601167301495
 30
0.0
 11
4259.108270459479
 21
8979.601167301495
 31
0.0
  0
LINE
  5
160A6
330
747D
100
AcDbEntity
  8
部品1
100
AcDbLine
 10
5789.108270459444
 20
8979.601167301527
 30
0.0
 11
5761.108270459445
 21
8979.601167301527
 31
0.0
  0
LINE
  5
160A7
330
747D
100
AcDbEntity
  8
部品1
100
AcDbLine
 10
7319.108270459445
 20
8979.601167301527
 30
0.0
 11
7291.108270459445
 21
8979.601167301527
 31
0.0
  0
LINE
  5
160A8
330
747D
100
AcDbEntity
  8
部品1
100
AcDbLine
 10
8821.108270459507
 20
8979.601167301625
 30
0.0
 11
8849.108270459508
 21
8979.601167301625
 31
0.0
  0
LINE
  5
160AB
330
747D
100
AcDbEntity
  8
破線
 48
10.0
100
AcDbLine
 10
7399.108270459499
 20
8572.601167301568
 30
0.0
 11
7399.108270459493
 21
7818.601167301519
 31
0.0
  0
LINE
  5
16AEB
330
747D
100
AcDbEntity
  8
細線
 48
50.0
100
AcDbLine
 10
5306.10827045971
 20
8572.851167301665
 30
0.0
 11
5756.108270459506
 21
9425.851167301654
 31
0.0
  0
LINE
  5
16AEC
330
747D
100
AcDbEntity
  8
細線
 48
50.0
100
AcDbLine
 10
5756.10827045971
 20
8572.851167301665
 30
0.0
 11
5306.108270459503
 21
9425.851167301653
 31
0.0
  0
LINE
  5
17347
330
747D
100
AcDbEntity
  8
細線
100
AcDbLine
 10
5727.108270459498
 20
7719.601167301481
 30
0.0
 11
5727.108270459498
 21
7737.60116730148
 31
0.0
  0
LINE
  5
17348
330
747D
100
AcDbEntity
  8
細線
 48
50.0
100
AcDbLine
 10
5727.108270459498
 20
7719.601167301481
 30
0.0
 11
5729.108270459498
 21
7719.601167301481
 31
0.0
  0
DIMENSION
  5
17387
330
747D
100
AcDbEntity
  8
寸法
 48
50.0
100
AcDbDimension
  2
*D15
 10
6844.108270459506
 20
9890.079517248018
 30
0.0
 11
7015.793751205295
 21
9890.079517248018
 31
0.0
 70
   160
 71
     5
 42
419.9999999999991
  3
INABA_S40G
100
AcDbAlignedDimension
 13
7264.108270459505
 23
9454.601167301495
 33
0.0
 14
6844.108270459506
 24
9454.60116730157
 34
0.0
100
AcDbRotatedDimension
  0
DIMENSION
  5
1739E
330
747D
100
AcDbEntity
  8
寸法
 48
50.0
100
AcDbDimension
  2
*D16
 10
6264.108270459505
 20
9890.079517248018
 30
0.0
 11
6554.108270459505
 21
9990.079517248018
 31
0.0
 70
    32
 71
     5
 42
580.0
  3
INABA_S40G
100
AcDbAlignedDimension
 13
6844.108270459506
 23
9454.60116730157
 33
0.0
 14
6264.108270459505
 24
9454.601167301552
 34
0.0
100
AcDbRotatedDimension
1001
ACAD
1000
DSTYLE
1002
{
1070
    75
1070
     1
1070
   279
1070
     1
1002
}
  0
DIMENSION
  5
173AA
330
747D
100
AcDbEntity
  8
寸法
 48
50.0
100
AcDbDimension
  2
*D17
 10
5844.108270459504
 20
9890.079517248018
 30
0.0
 11
6054.108270459504
 21
9990.091328271638
 31
0.0
 70
    32
 71
     5
 42
420.0000000000009
  3
INABA_S40G
100
AcDbAlignedDimension
 13
6264.108270459505
 23
9454.601167301552
 33
0.0
 14
5844.108270459504
 24
9454.601167301527
 34
0.0
100
AcDbRotatedDimension
1001
ACAD
1000
DSTYLE
1002
{
1070
    75
1070
     1
1070
   279
1070
     1
1002
}
  0
DIMENSION
  5
173AB
330
747D
100
AcDbEntity
  8
寸法
 48
50.0
100
AcDbDimension
  2
*D20
 10
7374.108270459505
 20
9890.079517248018
 30
0.0
 11
7584.108270459505
 21
9990.091328271638
 31
0.0
 70
    32
 71
     5
 42
420.0000000000009
  3
INABA_S40G
100
AcDbAlignedDimension
 13
7794.108270459506
 23
9454.601167301552
 33
0.0
 14
7374.108270459505
 24
9454.601167301527
 34
0.0
100
AcDbRotatedDimension
1001
ACAD
1000
DSTYLE
1002
{
1070
    75
1070
     1
1070
   279
1070
     1
1002
}
  0
DIMENSION
  5
173AC
330
747D
100
AcDbEntity
  8
寸法
 48
50.0
100
AcDbDimension
  2
*D19
 10
7794.108270459506
 20
9890.079517248018
 30
0.0
 11
8084.108270459507
 21
9990.079517248018
 31
0.0
 70
    32
 71
     5
 42
580.0000000000009
  3
INABA_S40G
100
AcDbAlignedDimension
 13
8374.108270459506
 23
9454.60116730157
 33
0.0
 14
7794.108270459506
 24
9454.601167301552
 34
0.0
100
AcDbRotatedDimension
1001
ACAD
1000
DSTYLE
1002
{
1070
    75
1070
     1
1070
   279
1070
     1
1002
}
  0
DIMENSION
  5
173AD
330
747D
100
AcDbEntity
  8
寸法
 48
50.0
100
AcDbDimension
  2
*D18
 10
8374.108270459506
 20
9890.079517248018
 30
0.0
 11
8545.793751205296
 21
9890.079517248018
 31
0.0
 70
   160
 71
     5
 42
419.9999999999981
  3
INABA_S40G
100
AcDbAlignedDimension
 13
8794.108270459505
 23
9454.601167301495
 33
0.0
 14
8374.108270459506
 24
9454.60116730157
 34
0.0
100
AcDbRotatedDimension
  0
LINE
  5
17586
330
747D
100
AcDbEntity
  8
部品1
100
AcDbLine
 10
7319.108270459477
 20
2984.122760444141
 30
0.0
 11
7319.108270459479
 21
2942.122760444127
 31
0.0
  0
LINE
  5
17587
330
747D
100
AcDbEntity
  8
部品1
100
AcDbLine
 10
5789.108270459477
 20
2984.122760444141
 30
0.0
 11
5789.108270459479
 21
2942.122760444127
 31
0.0
  0
LINE
  5
175A5
330
747D
100
AcDbEntity
  8
部品1
 48
50.0
100
AcDbLine
 10
8321.108270459507
 20
9398.101167301645
 30
0.0
 11
8321.108270459594
 21
7795.10116730155
 31
0.0
  0
LINE
  5
175A6
330
747D
100
AcDbEntity
  8
部品1
 48
50.0
100
AcDbLine
 10
6791.108270459506
 20
9398.101167301645
 30
0.0
 11
6791.108270459595
 21
7795.10116730155
 31
0.0
  0
LINE
  5
175A7
330
747D
100
AcDbEntity
  8
部品1
 48
50.0
100
AcDbLine
 10
5261.108270459506
 20
9398.101167301645
 30
0.0
 11
5261.108270459566
 21
8753.25865337419
 31
0.0
  0
LINE
  5
175A9
330
747D
100
AcDbEntity
  8
部品1
 48
50.0
100
AcDbLine
 10
5261.108270459558
 20
8688.127248195344
 30
0.0
 11
5261.1082704596
 21
7818.601167301584
 31
0.0
  0
TEXT
  5
175DC
330
747D
100
AcDbEntity
  8
文字
 62
     7
 48
50.0
100
AcDbText
 10
14524.131837222
 20
1031.557706291228
 30
0.0
 40
100.0
  1
NO.05     <縮尺> S=1/40
  7
STYLE2
100
AcDbText
  0
TEXT
  5
175DD
330
747D
100
AcDbEntity
  8
文字
 62
     7
 48
50.0
100
AcDbText
 10
14675.04888958281
 20
874.5644127973662
 30
0.0
 40
100.0
  1
～一般型・多雪地型～
  7
STYLE2
100
AcDbText
  0
TEXT
  5
175DE
330
747D
100
AcDbEntity
  8
文字
 62
     7
 48
50.0
100
AcDbText
 10
13209.4053442172
 20
76.09434707649348
 30
0.0
 40
100.0
  1
○床面積 ： N(連続数)×2.74㎡(0.83坪) 　
  7
STYLE2
100
AcDbText
  0
TEXT
  5
175DF
330
747D
100
AcDbEntity
  8
文字
 62
     7
 48
50.0
100
AcDbText
 10
13209.4053442172
 20
228.5435242569015
 30
0.0
 40
100.0
  1
○有効開口寸法 ： 824×1770(mm)
  7
STYLE2
100
AcDbText
  0
LINE
  5
17632
330
747D
100
AcDbEntity
  8
部品1
 48
50.0
100
AcDbLine
 10
4287.108270459504
 20
9426.601167301495
 30
0.0
 11
4315.608270459473
 21
9398.101167301645
 31
0.0
  0
LINE
  5
17633
330
747D
100
AcDbEntity
  8
部品1
 48
50.0
100
AcDbLine
 10
5817.108270459471
 20
9426.601167301507
 30
0.0
 11
5845.608270459473
 21
9398.101167301645
 31
0.0
  0
LINE
  5
17634
330
747D
100
AcDbEntity
  8
部品1
 48
50.0
100
AcDbLine
 10
7347.108270459472
 20
9426.601167301631
 30
0.0
 11
7375.608270459473
 21
9398.101167301645
 31
0.0
  0
LINE
  5
17647
330
747D
100
AcDbEntity
  8
部品1
100
AcDbLine
 10
6172.37293734527
 20
6626.246367705063
 30
0.0
 11
6172.37293734527
 21
6386.354046159531
 31
0.0
  0
LINE
  5
17648
330
747D
100
AcDbEntity
  8
部品1
100
AcDbLine
 10
6172.37293734527
 20
6386.354046159531
 30
0.0
 11
6935.84360357371
 21
6386.354046159531
 31
0.0
  0
LINE
  5
17649
330
747D
100
AcDbEntity
  8
部品1
100
AcDbLine
 10
6935.84360357371
 20
6386.354046159531
 30
0.0
 11
6935.84360357371
 21
6626.246367705063
 31
0.0
  0
LINE
  5
1764A
330
747D
100
AcDbEntity
  8
部品1
100
AcDbLine
 10
6935.84360357371
 20
6626.246367705063
 30
0.0
 11
6172.37293734527
 21
6626.246367705063
 31
0.0
  0
LINE
  5
1764B
330
747D
100
AcDbEntity
  8
部品1
100
AcDbLine
 10
6124.513145265525
 20
2411.617937372479
 30
0.0
 11
6124.513145265525
 21
2171.725615826946
 31
0.0
  0
LINE
  5
1764C
330
747D
100
AcDbEntity
  8
部品1
100
AcDbLine
 10
6124.513145265525
 20
2171.725615826946
 30
0.0
 11
6887.983811493964
 21
2171.725615826946
 31
0.0
  0
LINE
  5
1764D
330
747D
100
AcDbEntity
  8
部品1
100
AcDbLine
 10
6887.983811493964
 20
2171.725615826946
 30
0.0
 11
6887.983811493964
 21
2411.617937372479
 31
0.0
  0
LINE
  5
1764E
330
747D
100
AcDbEntity
  8
部品1
100
AcDbLine
 10
6887.983811493964
 20
2411.617937372479
 30
0.0
 11
6124.513145265525
 21
2411.617937372479
 31
0.0
  0
LINE
  5
1764F
330
747D
100
AcDbEntity
  8
部品1
100
AcDbLine
 10
11308.17031915274
 20
2411.617937372478
 30
0.0
 11
11308.17031915274
 21
2171.725615826946
 31
0.0
  0
LINE
  5
17650
330
747D
100
AcDbEntity
  8
部品1
100
AcDbLine
 10
11308.17031915274
 20
2171.725615826946
 30
0.0
 11
12071.64098538118
 21
2171.725615826946
 31
0.0
  0
LINE
  5
17651
330
747D
100
AcDbEntity
  8
部品1
100
AcDbLine
 10
12071.64098538118
 20
2171.725615826946
 30
0.0
 11
12071.64098538118
 21
2411.617937372478
 31
0.0
  0
LINE
  5
17652
330
747D
100
AcDbEntity
  8
部品1
100
AcDbLine
 10
12071.64098538118
 20
2411.617937372478
 30
0.0
 11
11308.17031915274
 21
2411.617937372478
 31
0.0
  0
LINE
  5
17E81
330
747D
100
AcDbEntity
  8
破線
 48
10.0
100
AcDbLine
 10
8366.108270459697
 20
8622.601167301636
 30
0.0
 11
7375.608270459486
 21
8622.601167301567
 31
0.0
  0
LINE
  5
17E82
330
747D
100
AcDbEntity
  8
破線
 48
10.0
100
AcDbLine
 10
8366.10827045971
 20
8572.601167301638
 30
0.0
 11
7375.608270459486
 21
8572.601167301566
 31
0.0
  0
LINE
  5
17E83
330
747D
100
AcDbEntity
  8
破線
 48
10.0
100
AcDbLine
 10
6836.10827045971
 20
8572.601167301638
 30
0.0
 11
5845.608270459486
 21
8572.601167301566
 31
0.0
  0
LINE
  5
17E84
330
747D
100
AcDbEntity
  8
破線
 48
10.0
100
AcDbLine
 10
6836.108270459698
 20
8622.601167301636
 30
0.0
 11
5845.608270459486
 21
8622.601167301567
 31
0.0
  0
LINE
  5
17E85
330
747D
100
AcDbEntity
  8
破線
 48
10.0
100
AcDbLine
 10
5306.108270459698
 20
8622.601167301636
 30
0.0
 11
5120.587136509108
 21
8622.601167301624
 31
0.0
  0
LINE
  5
17E86
330
747D
100
AcDbEntity
  8
破線
 48
10.0
100
AcDbLine
 10
5306.10827045971
 20
8572.601167301638
 30
0.0
 11
5013.361790483612
 21
8572.601167301616
 31
0.0
  0
LINE
  5
17E87
330
747D
100
AcDbEntity
  8
破線
 48
10.0
100
AcDbLine
 10
5049.601089014518
 20
8622.601167301619
 30
0.0
 11
4315.608270459486
 21
8622.601167301567
 31
0.0
  0
LINE
  5
17E88
330
747D
100
AcDbEntity
  8
破線
 48
10.0
100
AcDbLine
 10
4942.375742989025
 20
8572.601167301609
 30
0.0
 11
4315.608270459486
 21
8572.601167301566
 31
0.0
  0
TEXT
  5
184A9
330
747D
100
AcDbEntity
  8
文字
 62
     7
 48
50.0
100
AcDbText
 10
15022.63965474516
 20
10930.01374588372
 30
0.0
 40
100.0
  1
F12            1.2
  7
STYLE1
100
AcDbText
  0
TEXT
  5
184AA
330
747D
100
AcDbEntity
  8
文字
 62
     7
 48
50.0
100
AcDbText
 10
13583.11819016569
 20
10930.01374588372
 30
0.0
 40
100.0
  1
根太
  7
STYLE1
100
AcDbText
  0
TEXT
  5
184AB
330
747D
100
AcDbEntity
  8
文字
 62
     7
 48
50.0
100
AcDbText
 10
13248.77747366448
 20
8550.013745883731
 30
0.0
 40
100.0
  1
16
  7
STYLE1
100
AcDbText
  0
LINE
  5
184AC
330
747D
100
AcDbEntity
  8
仕様書枠
 48
50.0
100
AcDbLine
 10
16307.19999999998
 20
8179.600000000002
 30
0.0
 11
13127.19999999999
 21
8179.600000000004
 31
0.0
  0
LINE
  5
184AD
330
747D
100
AcDbEntity
  8
部品1
 48
50.0
100
AcDbLine
 10
11529.90565226696
 20
5147.990899545406
 30
0.0
 11
11829.90565226696
 21
5131.790899545407
 31
0.0
  0
DIMENSION
  5
184AE
330
747D
100
AcDbEntity
  8
寸法
 48
50.0
100
AcDbDimension
  2
*D21
 10
10164.29724549859
 20
4891.468019317458
 30
0.0
 11
10174.96272075751
 21
5262.314682559156
 31
0.0
 70
   161
 71
     5
 42
141.0
  3
INABA_S40G
100
AcDbAlignedDimension
 13
10744.30167242554
 23
5015.845509278807
 33
0.0
 14
10740.24821686891
 24
4874.903785513094
 34
0.0
1001
ACAD
1000
DSTYLE
1002
{
1070
   174
1070
     0
1070
   272
1070
     1
1070
   288
1070
     0
1070
   341
1005
0
1002
}
  0
LINE
  5
184AF
330
747D
100
AcDbEntity
  8
細線
 48
50.0
100
AcDbLine
 10
12442.40565226697
 20
4782.122760444127
 30
0.0
 11
12442.40565226697
 21
2992.122760444126
 31
0.0
  0
LINE
  5
184B0
330
747D
100
AcDbEntity
  8
細線
 48
50.0
100
AcDbLine
 10
12457.40565226697
 20
4782.122760444127
 30
0.0
 11
12457.40565226697
 21
2992.122760444126
 31
0.0
  0
LINE
  5
184B1
330
747D
100
AcDbEntity
  8
細線
 48
50.0
100
AcDbLine
 10
12317.40565226697
 20
4782.122760444127
 30
0.0
 11
12317.40565226697
 21
2992.122760444126
 31
0.0
  0
LINE
  5
184B2
330
747D
100
AcDbEntity
  8
細線
 48
50.0
100
AcDbLine
 10
12302.40565226697
 20
4782.122760444127
 30
0.0
 11
12302.40565226697
 21
2992.122760444126
 31
0.0
  0
LINE
  5
184B3
330
747D
100
AcDbEntity
  8
細線
 48
50.0
100
AcDbLine
 10
12162.40565226696
 20
4782.122760444127
 30
0.0
 11
12162.40565226696
 21
2992.122760444126
 31
0.0
  0
LINE
  5
184B4
330
747D
100
AcDbEntity
  8
細線
 48
50.0
100
AcDbLine
 10
12177.40565226697
 20
4782.122760444127
 30
0.0
 11
12177.40565226697
 21
2992.122760444126
 31
0.0
  0
LINE
  5
184B5
330
747D
100
AcDbEntity
  8
部品1
100
AcDbLine
 10
12099.90565226696
 20
4782.122760444127
 30
0.0
 11
12099.90565226696
 21
2992.122760444126
 31
0.0
  0
LINE
  5
184B6
330
747D
100
AcDbEntity
  8
細線
 48
50.0
100
AcDbLine
 10
11757.40565226696
 20
4782.122760444127
 30
0.0
 11
11757.40565226696
 21
2992.122760444126
 31
0.0
  0
LINE
  5
184B7
330
747D
100
AcDbEntity
  8
細線
 48
50.0
100
AcDbLine
 10
11742.40565226696
 20
4782.122760444127
 30
0.0
 11
11742.40565226696
 21
2992.122760444126
 31
0.0
  0
LINE
  5
184B8
330
747D
100
AcDbEntity
  8
細線
 48
50.0
100
AcDbLine
 10
11882.40565226696
 20
4782.122760444127
 30
0.0
 11
11882.40565226696
 21
2992.122760444126
 31
0.0
  0
LINE
  5
184B9
330
747D
100
AcDbEntity
  8
細線
 48
50.0
100
AcDbLine
 10
11897.40565226696
 20
4782.122760444127
 30
0.0
 11
11897.40565226696
 21
2992.122760444126
 31
0.0
  0
LINE
  5
184BA
330
747D
100
AcDbEntity
  8
細線
 48
50.0
100
AcDbLine
 10
12037.40565226696
 20
4782.122760444127
 30
0.0
 11
12037.40565226696
 21
2992.122760444126
 31
0.0
  0
LINE
  5
184BB
330
747D
100
AcDbEntity
  8
細線
 48
50.0
100
AcDbLine
 10
12022.40565226696
 20
4782.122760444127
 30
0.0
 11
12022.40565226696
 21
2992.122760444126
 31
0.0
  0
LINE
  5
184BC
330
747D
100
AcDbEntity
  8
部品1
100
AcDbLine
 10
11679.90565226696
 20
4782.122760444127
 30
0.0
 11
11679.90565226696
 21
2992.122760444126
 31
0.0
  0
TEXT
  5
184BD
330
747D
100
AcDbEntity
  8
部品1
 48
50.0
100
AcDbText
 10
12006.99849955482
 20
5046.373663479556
 30
0.0
 40
120.0
  1
54
 50
90.0
  7
STYLE1
100
AcDbText
  0
TEXT
  5
184BE
330
747D
100
AcDbEntity
  8
部品1
 48
50.0
100
AcDbText
 10
11518.17348749069
 20
5183.874921697839
 30
0.0
 40
120.0
  1
1000
  7
STYLE1
100
AcDbText
  0
LINE
  5
184BF
330
747D
100
AcDbEntity
  8
部品1
 48
50.0
100
AcDbLine
 10
11829.90565226696
 20
5147.990899545406
 30
0.0
 11
11829.90565226696
 21
5131.790899545407
 31
0.0
  0
LINE
  5
184C0
330
747D
100
AcDbEntity
  8
部品1
 48
50.0
100
AcDbLine
 10
11529.90565226696
 20
5147.990899545406
 30
0.0
 11
11829.90565226696
 21
5147.990899545406
 31
0.0
  0
DIMENSION
  5
184C1
330
747D
100
AcDbEntity
  8
寸法
 48
50.0
100
AcDbDimension
  2
*D22
 10
12654.90565226696
 20
5415.780214023431
 30
0.0
 11
12860.95289636145
 21
5415.780214023431
 31
0.0
 70
   160
 71
     5
 42
80.0
  3
INABA_S40G
100
AcDbAlignedDimension
 13
12574.90565226696
 23
4963.93344005578
 33
0.0
 14
12654.90565226696
 24
4962.122760444127
 34
0.0
100
AcDbRotatedDimension
1001
ACAD
1000
DSTYLE
1002
{
1070
   174
1070
     0
1070
   272
1070
     1
1070
   288
1070
     0
1070
   341
1005
0
1002
}
  0
ARC
  5
184C2
330
747D
100
AcDbEntity
  8
部品1
100
AcDbCircle
 10
12640.5331880809
 20
4856.14651770992
 30
0.0
 40
0.7
100
AcDbArc
 50
275.0921697642102
 51
354.1866997666828
  0
ARC
  5
184C3
330
747D
100
AcDbEntity
  8
部品1
100
AcDbCircle
 10
12651.39253383022
 20
4933.189772527843
 30
0.0
 40
0.7
100
AcDbArc
 50
275.0921697642102
 51
354.1866997665273
  0
ARC
  5
184C4
330
747D
100
AcDbEntity
  8
部品1
100
AcDbCircle
 10
12651.72093907282
 20
4929.504375670752
 30
0.0
 40
3.0
100
AcDbArc
 50
95.0921697642102
 51
174.1866997665272
  0
ARC
  5
184C5
330
747D
100
AcDbEntity
  8
部品1
100
AcDbCircle
 10
12640.86159332349
 20
4852.461120852829
 30
0.0
 40
3.0
100
AcDbArc
 50
95.0921697642102
 51
174.1866997665272
  0
ARC
  5
184C6
330
747D
100
AcDbEntity
  8
部品1
 48
50.0
100
AcDbCircle
 10
12629.83345804839
 20
4842.870376248946
 30
0.0
 40
7.0
100
AcDbArc
 50
267.8377559869492
 51
354.1866997665273
  0
ARC
  5
184C7
330
747D
100
AcDbEntity
  8
部品1
 48
50.0
100
AcDbCircle
 10
12647.1555545129
 20
4953.772923391119
 30
0.0
 40
7.0
100
AcDbArc
 50
354.1866997665273
 51
87.03587545283093
  0
LINE
  5
184C8
330
747D
100
AcDbEntity
  8
部品1
 48
50.0
100
AcDbLine
 10
12637.87702165289
 20
4852.764982569731
 30
0.0
 11
12636.79745861314
 21
4842.161365576172
 31
0.0
  0
LINE
  5
184C9
330
747D
100
AcDbEntity
  8
部品1
 48
50.0
100
AcDbLine
 10
12648.73636740221
 20
4929.808237387657
 30
0.0
 11
12641.22958813737
 21
4856.075616642644
 31
0.0
  0
LINE
  5
184CA
330
747D
100
AcDbEntity
  8
部品1
 48
50.0
100
AcDbLine
 10
12654.11955507766
 20
4953.063912718346
 30
0.0
 11
12652.08893388669
 21
4933.118871460565
 31
0.0
  0
ARC
  5
184CB
330
747D
100
AcDbEntity
  8
部品1
100
AcDbCircle
 10
10730.94274413832
 20
4895.936919403029
 30
0.0
 40
0.7
100
AcDbArc
 50
181.0932240292375
 51
260.187754031489
  0
ARC
  5
184CC
330
747D
100
AcDbEntity
  8
部品1
100
AcDbCircle
 10
10726.17007054071
 20
4988.80269760315
 30
0.0
 40
0.7
100
AcDbArc
 50
181.0932240292375
 51
260.187754031489
  0
ARC
  5
184CD
330
747D
100
AcDbEntity
  8
部品1
100
AcDbCircle
 10
10725.53951613769
 20
4985.156823065752
 30
0.0
 40
3.0
100
AcDbArc
 50
1.093224029289586
 51
80.18775403169431
  0
ARC
  5
184CE
330
747D
100
AcDbEntity
  8
部品1
100
AcDbCircle
 10
10730.3121897353
 20
4892.291044865633
 30
0.0
 40
3.0
100
AcDbArc
 50
1.093224029289586
 51
80.18775403148449
  0
ARC
  5
184CF
330
747D
100
AcDbEntity
  8
部品1
 48
50.0
100
AcDbCircle
 10
10740.5123221105
 20
4881.898801483152
 30
0.0
 40
7.0
100
AcDbArc
 50
181.0932240292895
 51
267.8377559869492
  0
ARC
  5
184D0
330
747D
100
AcDbEntity
  8
部品1
 48
50.0
100
AcDbCircle
 10
10732.08866400841
 20
5008.849861016246
 30
0.0
 40
7.0
100
AcDbArc
 50
87.03587545283093
 51
181.0932240292895
  0
LINE
  5
184D1
330
747D
100
AcDbEntity
  8
部品1
 48
50.0
100
AcDbLine
 10
10733.31164366173
 20
4892.348282468816
 30
0.0
 11
10733.51359628216
 21
4881.765247075724
 31
0.0
  0
LINE
  5
184D2
330
747D
100
AcDbEntity
  8
細線
 48
50.0
100
AcDbLine
 10
10730.70555060506
 20
4895.278330587625
 30
0.0
 11
12640.70921503569
 21
4855.469011613132
 31
0.0
  0
LINE
  5
184D3
330
747D
100
AcDbEntity
  8
細線
 48
50.0
100
AcDbLine
 10
10725.94507536777
 20
4988.139842285487
 30
0.0
 11
12651.58106011294
 21
4932.515637644661
 31
0.0
  0
LINE
  5
184D4
330
747D
100
AcDbEntity
  8
部品1
 48
50.0
100
AcDbLine
 10
10728.53897006412
 20
4985.214060668935
 30
0.0
 11
10730.24287155549
 21
4895.92356396229
 31
0.0
  0
LINE
  5
184D5
330
747D
100
AcDbEntity
  8
部品1
 48
50.0
100
AcDbLine
 10
10725.08993818007
 20
5008.716306608819
 30
0.0
 11
10725.47019795788
 21
4988.789342162407
 31
0.0
  0
LINE
  5
184D6
330
747D
100
AcDbEntity
  8
細線
 48
50.0
100
AcDbLine
 10
12621.90565226696
 20
4962.089739479423
 30
0.0
 11
12617.15796937896
 21
4836.343966988679
 31
0.0
  0
LINE
  5
184D7
330
747D
100
AcDbEntity
  8
細線
 48
50.0
100
AcDbLine
 10
10757.90565226696
 20
5014.522436819531
 30
0.0
 11
10752.61655071145
 21
4874.436804192177
 31
0.0
  0
LINE
  5
184D8
330
747D
100
AcDbEntity
  8
部品1
100
AcDbLine
 10
10740.24821686891
 20
4874.903785513094
 30
0.0
 11
12629.5693528068
 21
4835.875360278889
 31
0.0
  0
LINE
  5
184D9
330
747D
100
AcDbEntity
  8
部品1
100
AcDbLine
 10
10732.45063862392
 20
5015.840495778394
 30
0.0
 11
12647.51752912842
 21
4960.763558153267
 31
0.0
  0
LINE
  5
184DA
330
747D
100
AcDbEntity
  8
細線
 48
50.0
100
AcDbLine
 10
10917.40565226696
 20
4782.122760444127
 30
0.0
 11
10917.40565226696
 21
2992.122760444126
 31
0.0
  0
LINE
  5
184DB
330
747D
100
AcDbEntity
  8
細線
 48
50.0
100
AcDbLine
 10
10902.40565226696
 20
4782.122760444127
 30
0.0
 11
10902.40565226696
 21
2992.122760444126
 31
0.0
  0
LINE
  5
184DC
330
747D
100
AcDbEntity
  8
細線
 48
50.0
100
AcDbLine
 10
11042.40565226696
 20
4782.122760444127
 30
0.0
 11
11042.40565226696
 21
2992.122760444126
 31
0.0
  0
LINE
  5
184DD
330
747D
100
AcDbEntity
  8
細線
 48
50.0
100
AcDbLine
 10
11057.40565226696
 20
4782.122760444127
 30
0.0
 11
11057.40565226696
 21
2992.122760444126
 31
0.0
  0
LINE
  5
184DE
330
747D
100
AcDbEntity
  8
細線
 48
50.0
100
AcDbLine
 10
11197.40565226696
 20
4782.122760444127
 30
0.0
 11
11197.40565226696
 21
2992.122760444126
 31
0.0
  0
LINE
  5
184DF
330
747D
100
AcDbEntity
  8
細線
 48
50.0
100
AcDbLine
 10
11182.40565226696
 20
4782.122760444127
 30
0.0
 11
11182.40565226696
 21
2992.122760444126
 31
0.0
  0
LINE
  5
184E0
330
747D
100
AcDbEntity
  8
細線
 48
50.0
100
AcDbLine
 10
11602.40565226696
 20
4782.122760444127
 30
0.0
 11
11602.40565226696
 21
2992.122760444126
 31
0.0
  0
LINE
  5
184E1
330
747D
100
AcDbEntity
  8
細線
 48
50.0
100
AcDbLine
 10
11617.40565226696
 20
4782.122760444127
 30
0.0
 11
11617.40565226696
 21
2992.122760444126
 31
0.0
  0
LINE
  5
184E2
330
747D
100
AcDbEntity
  8
細線
 48
50.0
100
AcDbLine
 10
11477.40565226696
 20
4782.122760444127
 30
0.0
 11
11477.40565226696
 21
2992.122760444126
 31
0.0
  0
LINE
  5
184E3
330
747D
100
AcDbEntity
  8
細線
 48
50.0
100
AcDbLine
 10
11462.40565226696
 20
4782.122760444127
 30
0.0
 11
11462.40565226696
 21
2992.122760444126
 31
0.0
  0
LINE
  5
184E4
330
747D
100
AcDbEntity
  8
細線
 48
50.0
100
AcDbLine
 10
11322.40565226696
 20
4782.122760444127
 30
0.0
 11
11322.40565226696
 21
2992.122760444126
 31
0.0
  0
LINE
  5
184E5
330
747D
100
AcDbEntity
  8
細線
 48
50.0
100
AcDbLine
 10
11337.40565226696
 20
4782.122760444127
 30
0.0
 11
11337.40565226696
 21
2992.122760444126
 31
0.0
  0
LINE
  5
184E6
330
747D
100
AcDbEntity
  8
部品1
100
AcDbLine
 10
10784.90565226696
 20
2942.122760444126
 30
0.0
 11
12574.90565226696
 21
2942.122760444126
 31
0.0
  0
DIMENSION
  5
184E7
330
747D
100
AcDbEntity
  8
寸法
 48
50.0
100
AcDbDimension
  2
*D23
 10
10724.90565226696
 20
5632.742029402045
 30
0.0
 11
11630.71140351793
 21
5632.742029402045
 31
0.0
 70
   160
 71
     5
 42
1930.0
  3
INABA_S40G
100
AcDbAlignedDimension
 13
12654.90565226696
 23
4962.122760444127
 33
0.0
 14
10724.90565226696
 24
5017.12276044413
 34
0.0
100
AcDbRotatedDimension
1001
ACAD
1000
DSTYLE
1002
{
1070
   174
1070
     0
1070
   272
1070
     1
1070
   288
1070
     0
1070
   341
1005
0
1002
}
  0
DIMENSION
  5
184E8
330
747D
100
AcDbEntity
  8
寸法
 48
50.0
100
AcDbDimension
  2
*D24
 10
10724.90565226696
 20
5415.780214023431
 30
0.0
 11
10415.26785699137
 21
5415.780214023431
 31
0.0
 70
   160
 71
     5
 42
60.0
  3
INABA_S40G
100
AcDbAlignedDimension
 13
10784.90565226696
 23
5013.124378567103
 33
0.0
 14
10724.90565226696
 24
5017.12276044413
 34
0.0
100
AcDbRotatedDimension
1001
ACAD
1000
DSTYLE
1002
{
1070
   174
1070
     0
1070
   272
1070
     1
1070
   288
1070
     0
1070
   341
1005
0
1002
}
  0
DIMENSION
  5
184E9
330
747D
100
AcDbEntity
  8
寸法
 48
50.0
100
AcDbDimension
  2
*D25
 10
10784.90565226696
 20
5416.215929783599
 30
0.0
 11
11694.50130094344
 21
5416.215929783599
 31
0.0
 70
   160
  1
柱外寸法<>
 71
     5
 42
1790.0
  3
INABA_S40G
100
AcDbAlignedDimension
 13
12574.90565226696
 23
4963.93344005578
 33
0.0
 14
10784.90565226696
 24
5013.124378567103
 34
0.0
100
AcDbRotatedDimension
1001
ACAD
1000
DSTYLE
1002
{
1070
   174
1070
     0
1070
   272
1070
     1
1070
   288
1070
     0
1070
   341
1005
0
1002
}
  0
DIMENSION
  5
184EA
330
747D
100
AcDbEntity
  8
寸法
100
AcDbDimension
  2
*D26
 10
13160.50092082416
 20
4962.122760444127
 30
0.0
 11
13160.50092082415
 21
3953.117427768543
 31
0.0
 70
   160
 71
     5
 42
2020.000000000001
  3
INABA_S40G
100
AcDbAlignedDimension
 13
12574.90565226696
 23
2942.122760444126
 33
0.0
 14
12654.90565226696
 24
4962.122760444127
 34
0.0
 50
90.0
100
AcDbRotatedDimension
1001
ACAD
1000
DSTYLE
1002
{
1070
   174
1070
     0
1070
   272
1070
     1
1070
   288
1070
     0
1070
   341
1005
0
1002
}
  0
LINE
  5
184EB
330
747D
100
AcDbEntity
  8
部品1
100
AcDbLine
 10
12519.90565226696
 20
4782.122760444127
 30
0.0
 11
12519.90565226696
 21
2992.122760444126
 31
0.0
  0
LINE
  5
184EC
330
747D
100
AcDbEntity
  8
部品1
100
AcDbLine
 10
12574.90565226696
 20
4837.004569130133
 30
0.0
 11
12574.90565226696
 21
2842.122760444126
 31
0.0
  0
LINE
  5
184ED
330
747D
100
AcDbEntity
  8
部品1
100
AcDbLine
 10
11259.90565226696
 20
4782.122760444127
 30
0.0
 11
11259.90565226696
 21
2992.122760444126
 31
0.0
  0
DIMENSION
  5
184EE
330
747D
100
AcDbEntity
  8
寸法
100
AcDbDimension
  2
*D27
 10
9941.1555230837
 20
2942.122760444126
 30
0.0
 11
9941.1555230837
 21
2636.075516349636
 31
0.0
 70
   160
 71
     5
 42
50.0
  3
INABA_S40G
100
AcDbAlignedDimension
 13
10784.90565226696
 23
2992.122760444126
 33
0.0
 14
10729.90565226696
 24
2942.122760444126
 34
0.0
 50
90.0
100
AcDbRotatedDimension
1001
ACAD
1000
DSTYLE
1002
{
1070
   174
1070
     0
1070
   272
1070
     1
1070
   288
1070
     0
1070
   341
1005
0
1002
}
  0
DIMENSION
  5
184EF
330
747D
100
AcDbEntity
  8
寸法
100
AcDbDimension
  2
*D28
 10
9641.155523083702
 20
5017.122760444131
 30
0.0
 11
9541.143712060076
 21
3979.62276044413
 31
0.0
 70
    32
 71
     5
 42
2075.000000000005
  3
INABA_S40G
100
AcDbAlignedDimension
 13
10784.90565226696
 23
2942.122760444126
 33
0.0
 14
10724.90565226696
 24
5017.12276044413
 34
0.0
 50
90.0
100
AcDbRotatedDimension
1001
ACAD
1000
DSTYLE
1002
{
1070
   174
1070
     0
1070
   272
1070
     1
1070
   288
1070
     0
1070
   341
1005
0
1002
}
  0
DIMENSION
  5
184F0
330
747D
100
AcDbEntity
  8
寸法
100
AcDbDimension
  2
*D29
 10
9941.1555230837
 20
2992.122760444126
 30
0.0
 11
9841.155523083701
 21
3887.122760444128
 31
0.0
 70
    32
 71
     5
 42
1790.000000000001
  3
INABA_S40G
100
AcDbAlignedDimension
 13
10784.90565226696
 23
4782.122760444127
 33
0.0
 14
10784.90565226696
 24
2992.122760444126
 34
0.0
 50
90.0
100
AcDbRotatedDimension
1001
ACAD
1000
DSTYLE
1002
{
1070
   174
1070
     0
1070
   272
1070
     1
1070
   288
1070
     0
1070
   341
1005
0
1002
}
  0
DIMENSION
  5
184F1
330
747D
100
AcDbEntity
  8
寸法
100
AcDbDimension
  2
*D30
 10
10239.9970108697
 20
3004.122760444126
 30
0.0
 11
10139.9970108697
 21
3889.122760444129
 31
0.0
 70
    32
  1
有効開口部高サ<>
 71
     5
 42
1770.000000000001
  3
INABA_S40G
100
AcDbAlignedDimension
 13
10784.90565226696
 23
4774.122760444126
 33
0.0
 14
10784.90565226696
 24
3004.122760444126
 34
0.0
 50
90.0
100
AcDbRotatedDimension
1001
ACAD
1000
DSTYLE
1002
{
1070
   174
1070
     0
1070
   272
1070
     1
1070
   288
1070
     0
1070
   341
1005
0
1002
}
  0
LINE
  5
184F2
330
747D
100
AcDbEntity
  8
部品1
100
AcDbLine
 10
10784.90565226696
 20
4873.981279886375
 30
0.0
 11
10784.90565226696
 21
2842.122760444126
 31
0.0
  0
LINE
  5
184F3
330
747D
100
AcDbEntity
  8
部品1
100
AcDbLine
 10
10839.90565226696
 20
4782.122760444127
 30
0.0
 11
10839.90565226696
 21
2992.122760444126
 31
0.0
  0
LINE
  5
184F4
330
747D
100
AcDbEntity
  8
部品1
100
AcDbLine
 10
10784.90565226696
 20
2992.122760444126
 30
0.0
 11
12574.90565226696
 21
2992.122760444126
 31
0.0
  0
LINE
  5
184F5
330
747D
100
AcDbEntity
  8
部品1
100
AcDbLine
 10
10784.90565226696
 20
4782.122760444127
 30
0.0
 11
12574.90565226696
 21
4782.122760444127
 31
0.0
  0
TEXT
  5
1866C
330
747D
100
AcDbEntity
  8
文字
 62
     7
 48
50.0
100
AcDbText
 10
15022.63965474516
 20
9570.013745883725
 30
0.0
 40
100.0
  1
F12            1.0
  7
STYLE1
100
AcDbText
  0
TEXT
  5
1866D
330
747D
100
AcDbEntity
  8
文字
 62
     7
 48
50.0
100
AcDbText
 10
13583.11819016569
 20
9570.013745883727
 30
0.0
 40
100.0
  1
母屋中
  7
STYLE1
100
AcDbText
  0
TEXT
  5
1866E
330
747D
100
AcDbEntity
  8
文字
 62
     7
 48
50.0
100
AcDbText
 10
13583.11819016568
 20
8720.013745883731
 30
0.0
 40
100.0
  1
棚板
  7
STYLE1
100
AcDbText
  0
TEXT
  5
1866F
330
747D
100
AcDbEntity
  8
文字
 62
     7
 48
50.0
100
AcDbText
 10
15022.63965474515
 20
8720.013745883727
 30
0.0
 40
100.0
  1
F12            0.6
  7
STYLE1
100
AcDbText
  0
TEXT
  5
18670
330
747D
100
AcDbEntity
  8
文字
 62
     7
 48
50.0
100
AcDbText
 10
13583.11819016568
 20
8890.013745883729
 30
0.0
 40
100.0
  1
扉
  7
STYLE1
100
AcDbText
  0
TEXT
  5
18671
330
747D
100
AcDbEntity
  8
文字
 62
     7
 48
50.0
100
AcDbText
 10
15022.63965474515
 20
8890.013745883726
 30
0.0
 40
100.0
  1
F12            0.8
  7
STYLE1
100
AcDbText
  0
TEXT
  5
18672
330
747D
100
AcDbEntity
  8
文字
 62
     7
 48
50.0
100
AcDbText
 10
13583.11819016567
 20
9060.013745883729
 30
0.0
 40
100.0
  1
正面パネル
  7
STYLE1
100
AcDbText
  0
TEXT
  5
18673
330
747D
100
AcDbEntity
  8
文字
 62
     7
 48
50.0
100
AcDbText
 10
15022.63965474514
 20
9060.013745883725
 30
0.0
 40
100.0
  1
F12            0.7
  7
STYLE1
100
AcDbText
  0
TEXT
  5
18674
330
747D
100
AcDbEntity
  8
文字
 62
     7
 48
50.0
100
AcDbText
 10
14269.60464131317
 20
483.8967129911416
 30
0.0
 40
160.0
  1
ＮＸＮ－２８ＣＳＬ－Ｎ
  7
STYLE2
100
AcDbText
  0
TEXT
  5
18675
330
747D
100
AcDbEntity
  8
文字
 62
     7
 48
50.0
100
AcDbText
 10
15022.63965474516
 20
10590.01374588372
 30
0.0
 40
100.0
  1
F12            1.0
  7
STYLE1
100
AcDbText
  0
TEXT
  5
18676
330
747D
100
AcDbEntity
  8
文字
 62
     7
 48
50.0
100
AcDbText
 10
13248.77747366447
 20
8890.013745883729
 30
0.0
 40
100.0
  1
14
  7
STYLE1
100
AcDbText
  0
TEXT
  5
18677
330
747D
100
AcDbEntity
  8
文字
 62
     7
 48
50.0
100
AcDbText
 10
13583.11819016569
 20
10590.01374588373
 30
0.0
 40
100.0
  1
床パネル
 41
0.9
  7
STYLE1
100
AcDbText
  0
LINE
  5
18678
330
747D
100
AcDbEntity
  8
仕様書枠
 48
50.0
100
AcDbLine
 10
16307.19999999999
 20
8859.6
 30
0.0
 11
13127.19999999999
 21
8859.600000000002
 31
0.0
  0
LINE
  5
18679
330
747D
100
AcDbEntity
  8
仕様書枠
 48
50.0
100
AcDbLine
 10
13127.2
 20
11409.6
 30
0.0
 11
13127.19999999999
 21
8179.600000000004
 31
0.0
  0
TEXT
  5
1867A
330
747D
100
AcDbEntity
  8
文字
 62
     7
 48
50.0
100
AcDbText
 10
13229.83081656553
 20
8210.013745883733
 30
0.0
 40
100.0
  1
Y10→溶融亜鉛-5％アルミニウム合金めっき鋼板(JIS G 3317)
 41
0.9
  7
STYLE1
100
AcDbText
  0
TEXT
  5
1867B
330
747D
100
AcDbEntity
  8
文字
 62
     7
 48
50.0
100
AcDbText
 10
13229.83081656553
 20
8380.013745883733
 30
0.0
 40
100.0
  1
F12→溶融亜鉛めっき鋼板(JIS G 3302)
  7
STYLE1
100
AcDbText
  0
LINE
  5
1867C
330
747D
100
AcDbEntity
  8
仕様書枠
 48
50.0
100
AcDbLine
 10
16307.19999999998
 20
8349.600000000002
 30
0.0
 11
13127.19999999999
 21
8349.600000000004
 31
0.0
  0
LINE
  5
1867D
330
747D
100
AcDbEntity
  8
仕様書枠
 48
50.0
100
AcDbLine
 10
16307.19999999998
 20
8519.600000000002
 30
0.0
 11
13127.19999999999
 21
8519.600000000004
 31
0.0
  0
TEXT
  5
1867E
330
747D
100
AcDbEntity
  8
文字
 62
     7
 48
50.0
100
AcDbText
 10
15022.63965474515
 20
9230.013745883725
 30
0.0
 40
100.0
  1
F12            0.6
  7
STYLE1
100
AcDbText
  0
TEXT
  5
1867F
330
747D
100
AcDbEntity
  8
文字
 62
     7
 48
50.0
100
AcDbText
 10
15022.63965474517
 20
9400.013745883725
 30
0.0
 40
100.0
  1
Y10            0.5
  7
STYLE1
100
AcDbText
  0
TEXT
  5
18680
330
747D
100
AcDbEntity
  8
文字
 62
     7
 48
50.0
100
AcDbText
 10
15022.63965474516
 20
9910.013745883725
 30
0.0
 40
100.0
  1
Y10            0.7
  7
STYLE1
100
AcDbText
  0
TEXT
  5
18681
330
747D
100
AcDbEntity
  8
文字
 62
     7
 48
50.0
100
AcDbText
 10
15022.63965474516
 20
10080.01374588372
 30
0.0
 40
100.0
  1
Y10            0.7
  7
STYLE1
100
AcDbText
  0
TEXT
  5
18682
330
747D
100
AcDbEntity
  8
文字
 62
     7
 48
50.0
100
AcDbText
 10
15022.63965474516
 20
10250.01374588372
 30
0.0
 40
100.0
  1
Y10            1.0
  7
STYLE1
100
AcDbText
  0
TEXT
  5
18683
330
747D
100
AcDbEntity
  8
文字
 62
     7
 48
50.0
100
AcDbText
 10
15022.63965474516
 20
10420.01374588372
 30
0.0
 40
100.0
  1
Y10            1.0
  7
STYLE1
100
AcDbText
  0
TEXT
  5
18684
330
747D
100
AcDbEntity
  8
文字
 62
     7
 48
50.0
100
AcDbText
 10
15022.63965474517
 20
10760.01374588372
 30
0.0
 40
100.0
  1
F12            1.0
  7
STYLE1
100
AcDbText
  0
TEXT
  5
18685
330
747D
100
AcDbEntity
  8
文字
 62
     7
 48
50.0
100
AcDbText
 10
15022.63965474517
 20
11100.01374588372
 30
0.0
 40
100.0
  1
F12            1.2
  7
STYLE1
100
AcDbText
  0
TEXT
  5
18686
330
747D
100
AcDbEntity
  8
文字
 62
     7
 48
50.0
100
AcDbText
 10
13248.77747366447
 20
9230.013745883729
 30
0.0
 40
100.0
  1
12
  7
STYLE1
100
AcDbText
  0
TEXT
  5
18687
330
747D
100
AcDbEntity
  8
文字
 62
     7
 48
50.0
100
AcDbText
 10
13248.77747366447
 20
9060.013745883729
 30
0.0
 40
100.0
  1
13
  7
STYLE1
100
AcDbText
  0
LINE
  5
18688
330
747D
100
AcDbEntity
  8
仕様書枠
 48
50.0
100
AcDbLine
 10
16307.19999999999
 20
8689.6
 30
0.0
 11
13127.19999999999
 21
8689.600000000003
 31
0.0
  0
LINE
  5
18689
330
747D
100
AcDbEntity
  8
仕様書枠
 48
50.0
100
AcDbLine
 10
16307.19999999999
 20
9029.6
 30
0.0
 11
13127.19999999999
 21
9029.6
 31
0.0
  0
TEXT
  5
1868A
330
747D
100
AcDbEntity
  8
文字
 62
     7
 48
50.0
100
AcDbText
 10
13248.77747366447
 20
9400.013745883727
 30
0.0
 40
100.0
  1
11
  7
STYLE1
100
AcDbText
  0
LINE
  5
1868B
330
747D
100
AcDbEntity
  8
仕様書枠
 48
50.0
100
AcDbLine
 10
16307.19999999999
 20
9709.6
 30
0.0
 11
13127.19999999999
 21
9709.600000000001
 31
0.0
  0
LINE
  5
1868C
330
747D
100
AcDbEntity
  8
仕様書枠
 48
50.0
100
AcDbLine
 10
16307.19999999999
 20
10219.6
 30
0.0
 11
13127.2
 21
10219.6
 31
0.0
  0
LINE
  5
1868D
330
747D
100
AcDbEntity
  8
仕様書枠
 48
50.0
100
AcDbLine
 10
16307.19999999999
 20
9369.599999999998
 30
0.0
 11
13127.19999999999
 21
9369.600000000001
 31
0.0
  0
LINE
  5
1868E
330
747D
100
AcDbEntity
  8
仕様書枠
 48
50.0
100
AcDbLine
 10
16307.19999999999
 20
9199.599999999998
 30
0.0
 11
13127.19999999999
 21
9199.600000000001
 31
0.0
  0
LINE
  5
1868F
330
747D
100
AcDbEntity
  8
仕様書枠
 48
50.0
100
AcDbLine
 10
16307.19999999999
 20
9539.599999999998
 30
0.0
 11
13127.19999999999
 21
9539.6
 31
0.0
  0
TEXT
  5
18690
330
747D
100
AcDbEntity
  8
文字
 62
     7
 48
50.0
100
AcDbText
 10
13271.19032244792
 20
10250.01374588373
 30
0.0
 40
100.0
  1
6
  7
STYLE1
100
AcDbText
  0
TEXT
  5
18691
330
747D
100
AcDbEntity
  8
文字
 62
     7
 48
50.0
100
AcDbText
 10
13271.19032244792
 20
10080.01374588373
 30
0.0
 40
100.0
  1
7
  7
STYLE1
100
AcDbText
  0
TEXT
  5
18692
330
747D
100
AcDbEntity
  8
文字
 62
     7
 48
50.0
100
AcDbText
 10
13271.19032244792
 20
9740.013745883729
 30
0.0
 40
100.0
  1
9
  7
STYLE1
100
AcDbText
  0
TEXT
  5
18693
330
747D
100
AcDbEntity
  8
文字
 62
     7
 48
50.0
100
AcDbText
 10
13271.19032244792
 20
9910.01374588373
 30
0.0
 40
100.0
  1
8
  7
STYLE1
100
AcDbText
  0
TEXT
  5
18694
330
747D
100
AcDbEntity
  8
文字
 62
     7
 48
50.0
100
AcDbText
 10
13583.11819016569
 20
9910.013745883727
 30
0.0
 40
100.0
  1
鼻隠シ前後
  7
STYLE1
100
AcDbText
  0
TEXT
  5
18695
330
747D
100
AcDbEntity
  8
文字
 62
     7
 48
50.0
100
AcDbText
 10
13583.11819016569
 20
9400.013745883727
 30
0.0
 40
100.0
  1
屋根パネル
  7
STYLE1
100
AcDbText
  0
TEXT
  5
18696
330
747D
100
AcDbEntity
  8
文字
 62
     7
 48
50.0
100
AcDbText
 10
13583.11819016568
 20
9230.013745883729
 30
0.0
 40
100.0
  1
壁パネル
  7
STYLE1
100
AcDbText
  0
TEXT
  5
18697
330
747D
100
AcDbEntity
  8
文字
 62
     7
 48
50.0
100
AcDbText
 10
13248.77747366447
 20
9570.013745883727
 30
0.0
 40
100.0
  1
10
  7
STYLE1
100
AcDbText
  0
TEXT
  5
18698
330
747D
100
AcDbEntity
  8
文字
 62
     7
 48
50.0
100
AcDbText
 10
13583.11819016569
 20
10080.01374588372
 30
0.0
 40
100.0
  1
妻板左右
  7
STYLE1
100
AcDbText
  0
TEXT
  5
18699
330
747D
100
AcDbEntity
  8
文字
 62
     7
 48
50.0
100
AcDbText
 10
13271.19032244792
 20
10420.01374588372
 30
0.0
 40
100.0
  1
5
  7
STYLE1
100
AcDbText
  0
TEXT
  5
1869A
330
747D
100
AcDbEntity
  8
文字
 62
     7
 48
50.0
100
AcDbText
 10
13583.11819016569
 20
10250.01374588373
 30
0.0
 40
100.0
  1
桁後
  7
STYLE1
100
AcDbText
  0
TEXT
  5
1869B
330
747D
100
AcDbEntity
  8
文字
 62
     7
 48
50.0
100
AcDbText
 10
13583.11819016569
 20
10420.01374588372
 30
0.0
 40
100.0
  1
鴨居
  7
STYLE1
100
AcDbText
  0
TEXT
  5
1869C
330
747D
100
AcDbEntity
  8
文字
 62
     7
 48
50.0
100
AcDbText
 10
13583.11819016569
 20
10760.01374588372
 30
0.0
 40
100.0
  1
柱
  7
STYLE1
100
AcDbText
  0
TEXT
  5
1869D
330
747D
100
AcDbEntity
  8
文字
 62
     7
 48
50.0
100
AcDbText
 10
13583.11819016569
 20
11100.01374588373
 30
0.0
 40
100.0
  1
土台枠
  7
STYLE1
100
AcDbText
  0
TEXT
  5
1869E
330
747D
100
AcDbEntity
  8
文字
 62
     7
 48
50.0
100
AcDbText
 10
14859.79774614482
 20
11270.01374588372
 30
0.0
 40
100.0
  1
材料（材質）　　単位mm
  7
STYLE1
100
AcDbText
  0
TEXT
  5
1869F
330
747D
100
AcDbEntity
  8
文字
 62
     7
 48
50.0
100
AcDbText
 10
13732.03840939434
 20
11270.01374588372
 30
0.0
 40
100.0
  1
部　　品　　名
  7
STYLE1
100
AcDbText
  0
TEXT
  5
186A0
330
747D
100
AcDbEntity
  8
文字
 62
     7
 48
50.0
100
AcDbText
 10
13271.19032244792
 20
10760.01374588373
 30
0.0
 40
100.0
  1
3
  7
STYLE1
100
AcDbText
  0
TEXT
  5
186A1
330
747D
100
AcDbEntity
  8
文字
 62
     7
 48
50.0
100
AcDbText
 10
13271.19032244792
 20
10590.01374588373
 30
0.0
 40
100.0
  1
4
  7
STYLE1
100
AcDbText
  0
TEXT
  5
186A2
330
747D
100
AcDbEntity
  8
文字
 62
     7
 48
50.0
100
AcDbText
 10
13271.19032244792
 20
10930.01374588373
 30
0.0
 40
100.0
  1
2
  7
STYLE1
100
AcDbText
  0
TEXT
  5
186A3
330
747D
100
AcDbEntity
  8
文字
 62
     7
 48
50.0
100
AcDbText
 10
13271.19032244792
 20
11100.01374588373
 30
0.0
 40
100.0
  1
1
  7
STYLE1
100
AcDbText
  0
TEXT
  5
186A4
330
747D
100
AcDbEntity
  8
文字
 62
     7
 48
50.0
100
AcDbText
 10
13197.42518560407
 20
11270.01374588372
 30
0.0
 40
100.0
  1
品番
  7
STYLE1
100
AcDbText
  0
LINE
  5
186A5
330
747D
100
AcDbEntity
  8
仕様書枠
 48
50.0
100
AcDbLine
 10
16307.19999999999
 20
10729.6
 30
0.0
 11
13127.19999999999
 21
10729.6
 31
0.0
  0
LINE
  5
186A6
330
747D
100
AcDbEntity
  8
仕様書枠
 48
50.0
100
AcDbLine
 10
16307.19999999999
 20
10389.6
 30
0.0
 11
13127.19999999999
 21
10389.6
 31
0.0
  0
LINE
  5
186A7
330
747D
100
AcDbEntity
  8
仕様書枠
 48
50.0
100
AcDbLine
 10
16307.19999999999
 20
10559.6
 30
0.0
 11
13127.19999999999
 21
10559.6
 31
0.0
  0
LINE
  5
186A8
330
747D
100
AcDbEntity
  8
仕様書枠
 48
50.0
100
AcDbLine
 10
16307.19999999999
 20
11069.6
 30
0.0
 11
13127.2
 21
11069.6
 31
0.0
  0
LINE
  5
186A9
330
747D
100
AcDbEntity
  8
仕様書枠
 48
50.0
100
AcDbLine
 10
16307.19999999999
 20
10899.6
 30
0.0
 11
13127.2
 21
10899.6
 31
0.0
  0
LINE
  5
186AA
330
747D
100
AcDbEntity
  8
仕様書枠
 48
50.0
100
AcDbLine
 10
16307.19999999999
 20
11239.6
 30
0.0
 11
13127.2
 21
11239.6
 31
0.0
  0
LINE
  5
186AB
330
747D
100
AcDbEntity
  8
仕様書枠
 48
50.0
100
AcDbLine
 10
13490.2
 20
11409.6
 30
0.0
 11
13490.20000000001
 21
8519.600000000004
 31
0.0
  0
LINE
  5
186AC
330
747D
100
AcDbEntity
  8
仕様書枠
 48
50.0
100
AcDbLine
 10
14785.2
 20
11409.59999999999
 30
0.0
 11
14785.19999999999
 21
8519.600000000004
 31
0.0
  0
LINE
  5
186AD
330
747D
100
AcDbEntity
  8
仕様書枠
 48
50.0
100
AcDbLine
 10
16307.19999999999
 20
8179.600000000002
 30
0.0
 11
16307.2
 21
11409.6
 31
0.0
  0
LINE
  5
186AE
330
747D
100
AcDbEntity
  8
仕様書枠
 48
50.0
100
AcDbLine
 10
16307.19999999999
 20
11409.6
 30
0.0
 11
13127.2
 21
11409.6
 31
0.0
  0
LINE
  5
186AF
330
747D
100
AcDbEntity
  8
仕様書枠
 48
50.0
100
AcDbLine
 10
16307.19999999999
 20
9879.599999999999
 30
0.0
 11
13127.19999999999
 21
9879.600000000001
 31
0.0
  0
TEXT
  5
186B0
330
747D
100
AcDbEntity
  8
文字
 62
     7
 48
50.0
100
AcDbText
 10
15022.63965474514
 20
8550.013745883722
 30
0.0
 40
100.0
  1
F12            2.3
  7
STYLE1
100
AcDbText
  0
TEXT
  5
186B1
330
747D
100
AcDbEntity
  8
文字
 62
     7
 48
50.0
100
AcDbText
 10
13583.11819016568
 20
8550.013745883727
 30
0.0
 40
100.0
  1
アンカープレート
  7
STYLE1
100
AcDbText
  0
LINE
  5
187F5
330
747D
100
AcDbEntity
  8
仕様書枠
 48
50.0
100
AcDbLine
 10
16307.19999999999
 20
10049.6
 30
0.0
 11
13127.2
 21
10049.6
 31
0.0
  0
TEXT
  5
187F6
330
747D
100
AcDbEntity
  8
文字
 62
     7
 48
50.0
100
AcDbText
 10
13248.77747366448
 20
8720.013745883729
 30
0.0
 40
100.0
  1
15
  7
STYLE1
100
AcDbText
  0
TEXT
  5
187F7
330
747D
100
AcDbEntity
  8
文字
 62
     7
 48
50.0
100
AcDbText
 10
15022.63965474516
 20
9740.013745883729
 30
0.0
 40
100.0
  1
F12,Y10        1.0
  7
STYLE1
100
AcDbText
  0
TEXT
  5
187F8
330
747D
100
AcDbEntity
  8
文字
 62
     7
 48
50.0
100
AcDbText
 10
13583.11819016569
 20
9740.013745883729
 30
0.0
 40
100.0
  1
梁中
 41
0.9
  7
STYLE1
100
AcDbText
  0
DIMENSION
  5
196D6
330
747D
100
AcDbEntity
  8
寸法
100
AcDbDimension
  2
*D31
 10
4319.108270459498
 20
7126.60382314938
 30
0.0
 11
4731.408270459497
 21
7126.60382314938
 31
0.0
 70
   160
  1
有効開口部間口\P824
 71
     5
 42
824.5999999999986
  3
INABA_S40G
100
AcDbAlignedDimension
 13
5143.708270459497
 23
7664.601167301589
 33
0.0
 14
4319.108270459498
 24
7664.60116730148
 34
0.0
100
AcDbRotatedDimension
1001
ACAD
1000
DSTYLE
1002
{
1002
}
  0
LINE
  5
196D7
330
747D
100
AcDbEntity
  8
細線
100
AcDbLine
 10
4887.408270459496
 20
7667.60116730153
 30
0.0
 11
4787.408270459488
 21
7667.601167301516
 31
0.0
  0
LINE
  5
196D8
330
747D
100
AcDbEntity
  8
細線
100
AcDbLine
 10
4866.40827045947
 20
7697.601167301515
 30
0.0
 11
4866.408270459472
 21
7701.601167301515
 31
0.0
  0
LINE
  5
196D9
330
747D
100
AcDbEntity
  8
細線
100
AcDbLine
 10
4866.40827045947
 20
7697.601167301515
 30
0.0
 11
4846.408270459481
 21
7697.601167301515
 31
0.0
  0
LINE
  5
196DA
330
747D
100
AcDbEntity
  8
細線
100
AcDbLine
 10
4846.408270459481
 20
7697.601167301515
 30
0.0
 11
4846.40827045949
 21
7731.601167301523
 31
0.0
  0
LINE
  5
196DB
330
747D
100
AcDbEntity
  8
細線
100
AcDbLine
 10
4887.408270459488
 20
7667.60116730153
 30
0.0
 11
4887.408270459498
 21
7697.601167301529
 31
0.0
  0
LINE
  5
196DC
330
747D
100
AcDbEntity
  8
寸法
 48
50.0
100
AcDbLine
 10
4834.483855107751
 20
7594.928764915064
 30
0.0
 11
5053.635795283476
 21
7594.928764915064
 31
0.0
  0
LINE
  5
196DD
330
747D
100
AcDbEntity
  8
寸法
 48
50.0
100
AcDbLine
 10
5053.635795283476
 20
7594.928764915064
 30
0.0
 11
4964.351576688055
 21
7618.852399184548
 31
0.0
  0
LINE
  5
196DE
330
747D
100
AcDbEntity
  8
寸法
 48
50.0
100
AcDbLine
 10
4964.351576688055
 20
7618.852399184548
 30
0.0
 11
4964.351576688055
 21
7565.188764602758
 31
0.0
  0
LINE
  5
196DF
330
747D
100
AcDbEntity
  8
寸法
 48
50.0
100
AcDbLine
 10
4584.464399904772
 20
7561.706808429725
 30
0.0
 11
4635.870407814876
 21
7561.706808429725
 31
0.0
  0
LINE
  5
196E0
330
747D
100
AcDbEntity
  8
寸法
 48
50.0
100
AcDbLine
 10
4635.870407814876
 20
7561.706808429725
 30
0.0
 11
4635.870407814876
 21
7593.016967081893
 31
0.0
  0
LINE
  5
196E1
330
747D
100
AcDbEntity
  8
寸法
 48
50.0
100
AcDbLine
 10
4635.870407814876
 20
7593.016967081893
 30
0.0
 11
4665.6317398063
 21
7593.016967081893
 31
0.0
  0
LINE
  5
196E2
330
747D
100
AcDbEntity
  8
寸法
 48
50.0
100
AcDbLine
 10
4665.6317398063
 20
7593.016967081893
 30
0.0
 11
4610.167403859824
 21
7630.596418010504
 31
0.0
  0
LINE
  5
196E3
330
747D
100
AcDbEntity
  8
寸法
 48
50.0
100
AcDbLine
 10
4554.703067913348
 20
7593.016967081893
 30
0.0
 11
4610.167403859824
 21
7630.596418010506
 31
0.0
  0
LINE
  5
196E4
330
747D
100
AcDbEntity
  8
寸法
 48
50.0
100
AcDbLine
 10
4584.464399904772
 20
7593.016967081893
 30
0.0
 11
4554.703067913348
 21
7593.016967081893
 31
0.0
  0
LINE
  5
196E5
330
747D
100
AcDbEntity
  8
寸法
 48
50.0
100
AcDbLine
 10
4584.464399904772
 20
7561.706808429725
 30
0.0
 11
4584.464399904772
 21
7593.016967081893
 31
0.0
  0
LINE
  5
196E6
330
747D
100
AcDbEntity
  8
寸法
 48
50.0
100
AcDbLine
 10
4635.870407814876
 20
7561.706808429725
 30
0.0
 11
4584.464399904772
 21
7561.706808429725
 31
0.0
  0
LINE
  5
196E7
330
747D
100
AcDbEntity
  8
細線
100
AcDbLine
 10
4887.408270459496
 20
7697.601167301529
 30
0.0
 11
4872.408270459494
 21
7697.601167301525
 31
0.0
  0
LINE
  5
196E8
330
747D
100
AcDbEntity
  8
細線
100
AcDbLine
 10
4872.408270459492
 20
7690.601167301608
 30
0.0
 11
4872.408270459494
 21
7697.601167301525
 31
0.0
  0
LINE
  5
196E9
330
747D
100
AcDbEntity
  8
細線
100
AcDbLine
 10
4872.408270459472
 20
7701.60116730152
 30
0.0
 11
4866.408270459472
 21
7701.601167301522
 31
0.0
  0
LINE
  5
196EA
330
747D
100
AcDbEntity
  8
細線
100
AcDbLine
 10
5110.558270459516
 20
7701.601167301635
 30
0.0
 11
5103.058270459521
 21
7724.601167301566
 31
0.0
  0
LINE
  5
196EB
330
747D
100
AcDbEntity
  8
細線
100
AcDbLine
 10
5050.558270459515
 20
7701.601167301645
 30
0.0
 11
5058.058270459521
 21
7724.601167301566
 31
0.0
  0
LINE
  5
196EC
330
747D
100
AcDbEntity
  8
細線
100
AcDbLine
 10
4652.408270459421
 20
7667.601167301619
 30
0.0
 11
4659.908270459428
 21
7690.601167301537
 31
0.0
  0
LINE
  5
196ED
330
747D
100
AcDbEntity
  8
細線
100
AcDbLine
 10
4712.408270459421
 20
7667.601167301608
 30
0.0
 11
4704.908270459426
 21
7690.601167301537
 31
0.0
  0
LINE
  5
196EE
330
747D
100
AcDbEntity
  8
細線
100
AcDbLine
 10
4787.408270459492
 20
7667.601167301531
 30
0.0
 11
4785.076732168724
 21
7672.601167301516
 31
0.0
  0
LINE
  5
196EF
330
747D
100
AcDbEntity
  8
細線
100
AcDbLine
 10
4785.076732168726
 20
7672.601167301516
 30
0.0
 11
4719.73980875025
 21
7672.601167301505
 31
0.0
  0
LINE
  5
196F0
330
747D
100
AcDbEntity
  8
細線
100
AcDbLine
 10
4717.408270459497
 20
7667.601167301505
 30
0.0
 11
4647.408270459497
 21
7667.601167301497
 31
0.0
  0
LINE
  5
196F1
330
747D
100
AcDbEntity
  8
細線
100
AcDbLine
 10
4717.408270459497
 20
7667.601167301549
 30
0.0
 11
4719.739808750265
 21
7672.601167301535
 31
0.0
  0
LINE
  5
196F2
330
747D
100
AcDbEntity
  8
細線
100
AcDbLine
 10
4645.076732168723
 20
7672.601167301497
 30
0.0
 11
4579.73980875025
 21
7672.601167301485
 31
0.0
  0
LINE
  5
196F3
330
747D
100
AcDbEntity
  8
細線
100
AcDbLine
 10
4647.40827045949
 20
7667.601167301511
 30
0.0
 11
4645.076732168723
 21
7672.601167301497
 31
0.0
  0
LINE
  5
196F4
330
747D
100
AcDbEntity
  8
細線
100
AcDbLine
 10
4577.408270459495
 20
7667.60116730153
 30
0.0
 11
4579.739808750264
 21
7672.601167301515
 31
0.0
  0
LINE
  5
196F5
330
747D
100
AcDbEntity
  8
細線
100
AcDbLine
 10
4975.55827045949
 20
7701.601167301578
 30
0.0
 11
4977.889808750258
 21
7706.601167301563
 31
0.0
  0
LINE
  5
196F6
330
747D
100
AcDbEntity
  8
細線
100
AcDbLine
 10
5045.558270459484
 20
7701.60116730156
 30
0.0
 11
5043.226732168717
 21
7706.601167301545
 31
0.0
  0
LINE
  5
196F7
330
747D
100
AcDbEntity
  8
細線
100
AcDbLine
 10
5043.226732168717
 20
7706.601167301545
 30
0.0
 11
4977.889808750244
 21
7706.601167301535
 31
0.0
  0
LINE
  5
196F8
330
747D
100
AcDbEntity
  8
細線
100
AcDbLine
 10
5115.558270459488
 20
7701.601167301598
 30
0.0
 11
5117.889808750256
 21
7706.601167301584
 31
0.0
  0
LINE
  5
196F9
330
747D
100
AcDbEntity
  8
細線
100
AcDbLine
 10
5185.558270459484
 20
7701.601167301579
 30
0.0
 11
5183.226732168717
 21
7706.601167301565
 31
0.0
  0
LINE
  5
196FA
330
747D
100
AcDbEntity
  8
細線
100
AcDbLine
 10
5183.226732168717
 20
7706.601167301565
 30
0.0
 11
5117.889808750243
 21
7706.601167301555
 31
0.0
  0
LINE
  5
196FB
330
747D
100
AcDbEntity
  8
細線
100
AcDbLine
 10
5115.558270459485
 20
7701.601167301588
 30
0.0
 11
5045.558270459469
 21
7701.601167301588
 31
0.0
  0
LINE
  5
196FC
330
747D
100
AcDbEntity
  8
細線
100
AcDbLine
 10
4975.558270459492
 20
7701.601167301577
 30
0.0
 11
4878.408270459498
 21
7701.60116730152
 31
0.0
  0
ARC
  5
196FD
330
747D
100
AcDbEntity
  8
細線
100
AcDbCircle
 10
5080.558276959479
 20
7727.101167301563
 30
0.0
 40
6.0
100
AcDbArc
 50
204.6243183522686
 51
335.3756816477314
  0
ARC
  5
196FE
330
747D
100
AcDbEntity
  8
細線
100
AcDbCircle
 10
4682.408276959394
 20
7693.101167301508
 30
0.0
 40
6.0
100
AcDbArc
 50
204.6243183522686
 51
335.3756816477314
  0
LINE
  5
196FF
330
747D
100
AcDbEntity
  8
細線
100
AcDbLine
 10
4878.408270459498
 20
7700.901167301521
 30
0.0
 11
4878.408270459498
 21
7701.60116730152
 31
0.0
  0
ARC
  5
19700
330
747D
100
AcDbEntity
  8
細線
100
AcDbCircle
 10
4876.408270459497
 20
7700.90116730152
 30
0.0
 40
2.0
100
AcDbArc
 50
270.0
 51
0.0
  0
LINE
  5
19701
330
747D
100
AcDbEntity
  8
細線
100
AcDbLine
 10
4874.408270459497
 20
7698.901167301521
 30
0.0
 11
4876.408270459497
 21
7698.901167301521
 31
0.0
  0
LINE
  5
19702
330
747D
100
AcDbEntity
  8
細線
100
AcDbLine
 10
4872.408270459498
 20
7700.901167301521
 30
0.0
 11
4872.408270459498
 21
7701.60116730152
 31
0.0
  0
ARC
  5
19703
330
747D
100
AcDbEntity
  8
細線
100
AcDbCircle
 10
4874.408270459497
 20
7700.90116730152
 30
0.0
 40
2.0
100
AcDbArc
 50
180.0
 51
270.0
  0
LINE
  5
19704
330
747D
100
AcDbEntity
  8
細線
100
AcDbLine
 10
4861.408270459486
 20
7724.601167301521
 30
0.0
 11
4861.408270459491
 21
7731.601167301523
 31
0.0
  0
LINE
  5
19705
330
747D
100
AcDbEntity
  8
細線
100
AcDbLine
 10
4861.408270459491
 20
7731.601167301523
 30
0.0
 11
4846.40827045949
 21
7731.601167301523
 31
0.0
  0
LINE
  5
19706
330
747D
100
AcDbEntity
  8
細線
100
AcDbLine
 10
5299.708270459486
 20
7724.601167301614
 30
0.0
 11
5275.634338805662
 21
7724.601167301614
 31
0.0
  0
LINE
  5
19707
330
747D
100
AcDbEntity
  8
細線
 48
50.0
100
AcDbLine
 10
5729.108270459498
 20
7680.601167301613
 30
0.0
 11
5283.392725956833
 21
7680.601167301611
 31
0.0
  0
LINE
  5
19708
330
747D
100
AcDbEntity
  8
細線
 48
50.0
100
AcDbLine
 10
4846.408270459487
 20
7714.601167301584
 30
0.0
 11
4319.108270459494
 21
7714.601167301497
 31
0.0
  0
LINE
  5
19709
330
747D
100
AcDbEntity
  8
細線
100
AcDbLine
 10
4872.408270459492
 20
7690.601167301608
 30
0.0
 11
4334.108270459494
 21
7690.601167301527
 31
0.0
  0
LINE
  5
1970A
330
747D
100
AcDbEntity
  8
細線
100
AcDbLine
 10
4475.608270459495
 20
7685.601167301552
 30
0.0
 11
4475.608270459495
 21
7667.60116730153
 31
0.0
  0
LINE
  5
1970B
330
747D
100
AcDbEntity
  8
細線
100
AcDbLine
 10
4434.608270459494
 20
7685.601167301547
 30
0.0
 11
4434.608270459494
 21
7667.60116730153
 31
0.0
  0
LINE
  5
1970C
330
747D
100
AcDbEntity
  8
細線
100
AcDbLine
 10
4475.608270459495
 20
7685.601167301552
 30
0.0
 11
4434.608270459494
 21
7685.601167301547
 31
0.0
  0
ARC
  5
1970D
330
747D
100
AcDbEntity
  8
部品1
100
AcDbCircle
 10
4437.152426336773
 20
7667.101167301551
 30
0.0
 40
1.0
100
AcDbArc
 50
270.0
 51
19.47122063442214
  0
LINE
  5
1970E
330
747D
100
AcDbEntity
  8
部品1
 48
0.01
100
AcDbLine
 10
4430.108270459489
 20
7667.601167301551
 30
0.0
 11
4430.108270459489
 21
7666.601167301552
 31
0.0
  0
LINE
  5
1970F
330
747D
100
AcDbEntity
  8
部品1
 48
0.01
100
AcDbLine
 10
4430.608270459489
 20
7666.101167301551
 30
0.0
 11
4437.152426336773
 21
7666.101167301551
 31
0.0
  0
ARC
  5
19710
330
747D
100
AcDbEntity
  8
部品1
 48
0.01
100
AcDbCircle
 10
4430.608270459489
 20
7666.601167301552
 30
0.0
 40
0.5
100
AcDbArc
 50
180.0
 51
270.0
  0
ARC
  5
19711
330
747D
100
AcDbEntity
  8
部品1
100
AcDbCircle
 10
4462.608270459489
 20
7676.101167301552
 30
0.0
 40
26.0
100
AcDbArc
 50
180.0
 51
199.4712206344221
  0
ARC
  5
19712
330
747D
100
AcDbEntity
  8
部品1
 48
0.01
100
AcDbCircle
 10
4438.608270459488
 20
7681.101167301552
 30
0.0
 40
2.0
100
AcDbArc
 50
90.0
 51
180.0
  0
LINE
  5
19713
330
747D
100
AcDbEntity
  8
部品1
100
AcDbLine
 10
4436.60827045949
 20
7676.101167301552
 30
0.0
 11
4436.60827045949
 21
7681.101167301552
 31
0.0
  0
ARC
  5
19714
330
747D
100
AcDbEntity
  8
部品1
100
AcDbCircle
 10
4455.108270459489
 20
7691.90116730155
 30
0.0
 40
16.0
100
AcDbArc
 50
218.393044019262
 51
254.0576313943358
  0
ARC
  5
19715
330
747D
100
AcDbEntity
  8
部品1
100
AcDbCircle
 10
4440.216662084301
 20
7680.10116730155
 30
0.0
 40
3.0
100
AcDbArc
 50
38.39304401926199
 51
90.0
  0
LINE
  5
19716
330
747D
100
AcDbEntity
  8
部品1
 48
0.01
100
AcDbLine
 10
4438.608270459488
 20
7683.101167301551
 30
0.0
 11
4440.216662084301
 21
7683.101167301551
 31
0.0
  0
ARC
  5
19717
330
747D
100
AcDbEntity
  8
部品1
100
AcDbCircle
 10
4455.108270459489
 20
7691.90116730155
 30
0.0
 40
16.0
100
AcDbArc
 50
285.9423686056642
 51
321.606955980738
  0
LINE
  5
19718
330
747D
100
AcDbEntity
  8
部品1
100
AcDbLine
 10
4458.67898467376
 20
7676.40116730155
 30
0.0
 11
4451.537556245216
 21
7676.40116730155
 31
0.0
  0
ARC
  5
19719
330
747D
100
AcDbEntity
  8
部品1
100
AcDbCircle
 10
4458.67898467376
 20
7679.40116730155
 30
0.0
 40
3.0
100
AcDbArc
 50
270.0
 51
285.9423686056642
  0
ARC
  5
1971A
330
747D
100
AcDbEntity
  8
部品1
100
AcDbCircle
 10
4451.537556245216
 20
7679.40116730155
 30
0.0
 40
3.0
100
AcDbArc
 50
254.0576313943358
 51
270.0
  0
LINE
  5
1971B
330
747D
100
AcDbEntity
  8
部品1
 48
0.01
100
AcDbLine
 10
4471.608270459489
 20
7683.101167301551
 30
0.0
 11
4469.999878834677
 21
7683.101167301551
 31
0.0
  0
ARC
  5
1971C
330
747D
100
AcDbEntity
  8
部品1
100
AcDbCircle
 10
4469.999878834677
 20
7680.10116730155
 30
0.0
 40
3.0
100
AcDbArc
 50
90.0
 51
141.606955980738
  0
ARC
  5
1971D
330
747D
100
AcDbEntity
  8
部品1
 48
0.01
100
AcDbCircle
 10
4471.608270459489
 20
7681.101167301552
 30
0.0
 40
2.0
100
AcDbArc
 50
0.0
 51
90.0
  0
LINE
  5
1971E
330
747D
100
AcDbEntity
  8
部品1
100
AcDbLine
 10
4473.608270459489
 20
7676.101167301552
 30
0.0
 11
4473.608270459489
 21
7681.101167301552
 31
0.0
  0
ARC
  5
1971F
330
747D
100
AcDbEntity
  8
部品1
100
AcDbCircle
 10
4447.608270459489
 20
7676.101167301552
 30
0.0
 40
26.0
100
AcDbArc
 50
340.5287793655779
 51
0.0
  0
ARC
  5
19720
330
747D
100
AcDbEntity
  8
部品1
100
AcDbCircle
 10
4473.064114582204
 20
7667.101167301551
 30
0.0
 40
1.0
100
AcDbArc
 50
160.5287793655778
 51
270.0
  0
LINE
  5
19721
330
747D
100
AcDbEntity
  8
部品1
 48
0.01
100
AcDbLine
 10
4479.608270459489
 20
7666.101167301551
 30
0.0
 11
4472.995765029426
 21
7666.101167301551
 31
0.0
  0
LINE
  5
19722
330
747D
100
AcDbEntity
  8
部品1
 48
0.01
100
AcDbLine
 10
4480.108270459489
 20
7667.601167301551
 30
0.0
 11
4480.108270459489
 21
7666.601167301552
 31
0.0
  0
LINE
  5
19723
330
747D
100
AcDbEntity
  8
部品1
 48
0.01
100
AcDbLine
 10
4480.108270459489
 20
7667.601167301551
 30
0.0
 11
4480.108270459489
 21
7666.601167301552
 31
0.0
  0
ARC
  5
19724
330
747D
100
AcDbEntity
  8
部品1
 48
0.01
100
AcDbCircle
 10
4479.608270459489
 20
7666.601167301552
 30
0.0
 40
0.5
100
AcDbArc
 50
270.0
 51
0.0
  0
LINE
  5
19725
330
747D
100
AcDbEntity
  8
細線
100
AcDbLine
 10
4577.408270459513
 20
7667.601167301565
 30
0.0
 11
4310.095963810446
 21
7667.601167301528
 31
0.0
  0
LINE
  5
19726
330
747D
100
AcDbEntity
  8
細線
100
AcDbLine
 10
4319.108270459494
 20
7671.601167301479
 30
0.0
 11
4319.108270459494
 21
7667.60116730153
 31
0.0
  0
LINE
  5
19727
330
747D
100
AcDbEntity
  8
細線
100
AcDbLine
 10
4334.108270459494
 20
7697.601167301527
 30
0.0
 11
4334.108270459494
 21
7690.601167301527
 31
0.0
  0
LINE
  5
19728
330
747D
100
AcDbEntity
  8
細線
100
AcDbLine
 10
4334.108270459494
 20
7697.601167301527
 30
0.0
 11
4319.108270459494
 21
7697.601167301527
 31
0.0
  0
LINE
  5
19729
330
747D
100
AcDbEntity
  8
細線
100
AcDbLine
 10
5314.708270459491
 20
7701.601167301612
 30
0.0
 11
5279.689859361957
 21
7701.601167301612
 31
0.0
  0
LINE
  5
1972A
330
747D
100
AcDbEntity
  8
細線
100
AcDbLine
 10
5306.108270459715
 20
7765.60116730161
 30
0.0
 11
5273.708270459493
 21
7765.60116730161
 31
0.0
  0
LINE
  5
1972B
330
747D
100
AcDbEntity
  8
細線
100
AcDbLine
 10
5293.708270459493
 20
7729.601167301613
 30
0.0
 11
5293.708270459493
 21
7737.601167301612
 31
0.0
  0
LINE
  5
1972C
330
747D
100
AcDbEntity
  8
細線
100
AcDbLine
 10
5293.708270459493
 20
7729.601167301613
 30
0.0
 11
5274.75270390212
 21
7729.601167301613
 31
0.0
  0
LINE
  5
1972D
330
747D
100
AcDbEntity
  8
細線
100
AcDbLine
 10
5273.708270459493
 20
7735.524443696589
 30
0.0
 11
5273.708270459493
 21
7765.60116730161
 31
0.0
  0
LINE
  5
1972E
330
747D
100
AcDbEntity
  8
細線
100
AcDbLine
 10
5314.708270459491
 20
7701.601167301612
 30
0.0
 11
5314.708270459498
 21
7731.601167301613
 31
0.0
  0
LINE
  5
1972F
330
747D
100
AcDbEntity
  8
細線
100
AcDbLine
 10
5314.708270459491
 20
7731.601167301613
 30
0.0
 11
5299.70827045949
 21
7731.601167301609
 31
0.0
  0
LINE
  5
19730
330
747D
100
AcDbEntity
  8
細線
100
AcDbLine
 10
5299.708270459486
 20
7724.60116730161
 30
0.0
 11
5299.70827045949
 21
7731.601167301609
 31
0.0
  0
LINE
  5
19731
330
747D
100
AcDbEntity
  8
細線
100
AcDbLine
 10
5299.708270459493
 20
7737.601167301612
 30
0.0
 11
5293.708270459493
 21
7737.601167301612
 31
0.0
  0
ARC
  5
19732
330
747D
100
AcDbEntity
  8
細線
100
AcDbCircle
 10
5301.708270459493
 20
7736.901167301612
 30
0.0
 40
2.0
100
AcDbArc
 50
180.0
 51
270.0
  0
LINE
  5
19733
330
747D
100
AcDbEntity
  8
細線
100
AcDbLine
 10
5299.708270459493
 20
7736.901167301612
 30
0.0
 11
5299.708270459493
 21
7737.601167301612
 31
0.0
  0
LINE
  5
19734
330
747D
100
AcDbEntity
  8
細線
100
AcDbLine
 10
5301.708270459493
 20
7734.901167301612
 30
0.0
 11
5303.708270459493
 21
7734.901167301612
 31
0.0
  0
ARC
  5
19735
330
747D
100
AcDbEntity
  8
細線
100
AcDbCircle
 10
5303.708270459493
 20
7736.901167301612
 30
0.0
 40
2.0
100
AcDbArc
 50
270.0
 51
0.0
  0
LINE
  5
19736
330
747D
100
AcDbEntity
  8
細線
100
AcDbLine
 10
5305.708270459494
 20
7736.901167301612
 30
0.0
 11
5305.708270459494
 21
7737.601167301612
 31
0.0
  0
LINE
  5
19737
330
747D
100
AcDbEntity
  8
細線
100
AcDbLine
 10
5288.708270459493
 20
7761.101167301614
 30
0.0
 11
5288.708270459493
 21
7765.60116730161
 31
0.0
  0
LINE
  5
19738
330
747D
100
AcDbEntity
  8
細線
100
AcDbLine
 10
5306.108270459491
 20
7739.307018364332
 30
0.0
 11
5306.108270459491
 21
7764.207018364333
 31
0.0
  0
LINE
  5
19739
330
747D
100
AcDbEntity
  8
細線
100
AcDbLine
 10
5318.108270459491
 20
7739.307018364332
 30
0.0
 11
5306.108270459491
 21
7739.307018364332
 31
0.0
  0
LINE
  5
1973A
330
747D
100
AcDbEntity
  8
細線
100
AcDbLine
 10
5306.108270459491
 20
7764.207018364333
 30
0.0
 11
5274.922219042753
 21
7764.207018364333
 31
0.0
  0
LINE
  5
1973B
330
747D
100
AcDbEntity
  8
細線
100
AcDbLine
 10
5412.908270459492
 20
7737.601167301611
 30
0.0
 11
5305.708270459494
 21
7737.601167301612
 31
0.0
  0
LINE
  5
1973C
330
747D
100
AcDbEntity
  8
細線
 48
50.0
100
AcDbLine
 10
5729.108270459496
 20
7714.601167301616
 30
0.0
 11
5314.708270459494
 21
7714.601167301616
 31
0.0
  0
LINE
  5
1973D
330
747D
100
AcDbEntity
  8
細線
100
AcDbLine
 10
5552.908270459504
 20
7737.60116730159
 30
0.0
 11
5555.006654921209
 21
7742.101167301611
 31
0.0
  0
LINE
  5
1973E
330
747D
100
AcDbEntity
  8
細線
100
AcDbLine
 10
5482.908270459486
 20
7737.601167301583
 30
0.0
 11
5480.809885997778
 21
7742.101167301611
 31
0.0
  0
LINE
  5
1973F
330
747D
100
AcDbEntity
  8
細線
100
AcDbLine
 10
5552.908270459497
 20
7737.601167301582
 30
0.0
 11
5482.908270459486
 21
7737.601167301583
 31
0.0
  0
LINE
  5
19740
330
747D
100
AcDbEntity
  8
細線
100
AcDbLine
 10
5727.108270459498
 20
7737.601167301609
 30
0.0
 11
5622.908270459482
 21
7737.601167301612
 31
0.0
  0
LINE
  5
19741
330
747D
100
AcDbEntity
  8
細線
100
AcDbLine
 10
5727.108270459498
 20
7719.601167301608
 30
0.0
 11
5727.108270459498
 21
7737.601167301608
 31
0.0
  0
LINE
  5
19742
330
747D
100
AcDbEntity
  8
細線
 48
50.0
100
AcDbLine
 10
5727.108270459498
 20
7719.601167301608
 30
0.0
 11
5729.108270459498
 21
7719.601167301608
 31
0.0
  0
LINE
  5
19743
330
747D
100
AcDbEntity
  8
細線
100
AcDbLine
 10
5622.908270459498
 20
7737.601167301573
 30
0.0
 11
5620.809885997786
 21
7742.101167301611
 31
0.0
  0
LINE
  5
1976B
330
747D
100
AcDbEntity
  8
細線
100
AcDbLine
 10
5412.908270459492
 20
7737.601167301611
 30
0.0
 11
5415.006654921192
 21
7742.101167301619
 31
0.0
  0
LINE
  5
19776
330
747D
100
AcDbEntity
  8
細線
100
AcDbLine
 10
6396.40827045947
 20
7697.601167301519
 30
0.0
 11
6396.408270459472
 21
7701.60116730152
 31
0.0
  0
LINE
  5
19777
330
747D
100
AcDbEntity
  8
細線
100
AcDbLine
 10
6396.40827045947
 20
7697.601167301519
 30
0.0
 11
6376.408270459481
 21
7697.601167301519
 31
0.0
  0
LINE
  5
19778
330
747D
100
AcDbEntity
  8
細線
100
AcDbLine
 10
6376.408270459481
 20
7697.601167301519
 30
0.0
 11
6376.40827045949
 21
7731.601167301526
 31
0.0
  0
LINE
  5
19779
330
747D
100
AcDbEntity
  8
細線
100
AcDbLine
 10
6417.408270459488
 20
7667.601167301533
 30
0.0
 11
6417.408270459498
 21
7697.601167301534
 31
0.0
  0
LINE
  5
1977A
330
747D
100
AcDbEntity
  8
細線
100
AcDbLine
 10
6417.408270459495
 20
7697.601167301534
 30
0.0
 11
6402.408270459495
 21
7697.601167301531
 31
0.0
  0
LINE
  5
1977B
330
747D
100
AcDbEntity
  8
細線
100
AcDbLine
 10
6402.408270459492
 20
7690.601167301612
 30
0.0
 11
6402.408270459495
 21
7697.601167301531
 31
0.0
  0
LINE
  5
1977C
330
747D
100
AcDbEntity
  8
細線
100
AcDbLine
 10
6402.408270459472
 20
7701.601167301524
 30
0.0
 11
6396.408270459472
 21
7701.601167301527
 31
0.0
  0
LINE
  5
1977D
330
747D
100
AcDbEntity
  8
細線
100
AcDbLine
 10
6408.408270459498
 20
7700.901167301525
 30
0.0
 11
6408.408270459498
 21
7701.601167301524
 31
0.0
  0
ARC
  5
1977E
330
747D
100
AcDbEntity
  8
細線
100
AcDbCircle
 10
6406.408270459498
 20
7700.901167301523
 30
0.0
 40
2.0
100
AcDbArc
 50
270.0
 51
0.0
  0
LINE
  5
1977F
330
747D
100
AcDbEntity
  8
細線
100
AcDbLine
 10
6404.408270459497
 20
7698.901167301525
 30
0.0
 11
6406.408270459498
 21
7698.901167301525
 31
0.0
  0
LINE
  5
19780
330
747D
100
AcDbEntity
  8
細線
100
AcDbLine
 10
6402.408270459497
 20
7700.901167301525
 30
0.0
 11
6402.408270459497
 21
7701.601167301524
 31
0.0
  0
ARC
  5
19781
330
747D
100
AcDbEntity
  8
細線
100
AcDbCircle
 10
6404.408270459497
 20
7700.901167301523
 30
0.0
 40
2.0
100
AcDbArc
 50
180.0
 51
270.0
  0
LINE
  5
19782
330
747D
100
AcDbEntity
  8
細線
100
AcDbLine
 10
6391.408270459487
 20
7724.601167301526
 30
0.0
 11
6391.40827045949
 21
7731.601167301526
 31
0.0
  0
LINE
  5
19783
330
747D
100
AcDbEntity
  8
細線
100
AcDbLine
 10
6391.40827045949
 20
7731.601167301526
 30
0.0
 11
6376.40827045949
 21
7731.601167301526
 31
0.0
  0
LINE
  5
19784
330
747D
100
AcDbEntity
  8
細線
100
AcDbLine
 10
6829.708270459486
 20
7724.60116730162
 30
0.0
 11
6391.408270459487
 21
7724.601167301621
 31
0.0
  0
LINE
  5
19785
330
747D
100
AcDbEntity
  8
細線
 48
50.0
100
AcDbLine
 10
7259.108270459498
 20
7680.601167301617
 30
0.0
 11
6417.408270459491
 21
7680.601167301616
 31
0.0
  0
LINE
  5
19786
330
747D
100
AcDbEntity
  8
細線
100
AcDbLine
 10
6402.408270459492
 20
7690.601167301612
 30
0.0
 11
5864.108270459495
 21
7690.601167301531
 31
0.0
  0
LINE
  5
19787
330
747D
100
AcDbEntity
  8
細線
100
AcDbLine
 10
6505.558270459491
 20
7701.601167301581
 30
0.0
 11
6408.408270459498
 21
7701.601167301524
 31
0.0
  0
LINE
  5
19788
330
747D
100
AcDbEntity
  8
細線
100
AcDbLine
 10
6417.408270459495
 20
7667.601167301533
 30
0.0
 11
6317.408270459488
 21
7667.601167301519
 31
0.0
  0
LINE
  5
19789
330
747D
100
AcDbEntity
  8
細線
 48
50.0
100
AcDbLine
 10
6376.408270459487
 20
7714.601167301587
 30
0.0
 11
5849.108270459494
 21
7714.601167301501
 31
0.0
  0
LINE
  5
1978A
330
747D
100
AcDbEntity
  8
細線
100
AcDbLine
 10
6182.408270459421
 20
7667.601167301623
 30
0.0
 11
6189.908270459429
 21
7690.601167301541
 31
0.0
  0
LINE
  5
1978B
330
747D
100
AcDbEntity
  8
細線
100
AcDbLine
 10
6242.408270459421
 20
7667.601167301612
 30
0.0
 11
6234.908270459427
 21
7690.601167301541
 31
0.0
  0
LINE
  5
1978C
330
747D
100
AcDbEntity
  8
細線
100
AcDbLine
 10
6317.408270459492
 20
7667.601167301535
 30
0.0
 11
6315.076732168725
 21
7672.601167301521
 31
0.0
  0
LINE
  5
1978D
330
747D
100
AcDbEntity
  8
細線
100
AcDbLine
 10
6315.076732168726
 20
7672.601167301521
 30
0.0
 11
6249.739808750251
 21
7672.601167301511
 31
0.0
  0
LINE
  5
1978E
330
747D
100
AcDbEntity
  8
細線
100
AcDbLine
 10
6247.408270459498
 20
7667.601167301509
 30
0.0
 11
6177.408270459498
 21
7667.601167301501
 31
0.0
  0
LINE
  5
1978F
330
747D
100
AcDbEntity
  8
細線
100
AcDbLine
 10
6247.408270459498
 20
7667.601167301554
 30
0.0
 11
6249.739808750265
 21
7672.601167301539
 31
0.0
  0
LINE
  5
19790
330
747D
100
AcDbEntity
  8
細線
100
AcDbLine
 10
6175.076732168722
 20
7672.6011673015
 30
0.0
 11
6109.739808750251
 21
7672.60116730149
 31
0.0
  0
LINE
  5
19791
330
747D
100
AcDbEntity
  8
細線
100
AcDbLine
 10
6177.408270459491
 20
7667.601167301516
 30
0.0
 11
6175.076732168722
 21
7672.6011673015
 31
0.0
  0
LINE
  5
19792
330
747D
100
AcDbEntity
  8
細線
100
AcDbLine
 10
6107.408270459496
 20
7667.601167301533
 30
0.0
 11
6109.739808750263
 21
7672.601167301519
 31
0.0
  0
LINE
  5
19793
330
747D
100
AcDbEntity
  8
細線
100
AcDbLine
 10
6005.608270459495
 20
7685.601167301555
 30
0.0
 11
6005.608270459495
 21
7667.601167301533
 31
0.0
  0
LINE
  5
19794
330
747D
100
AcDbEntity
  8
細線
100
AcDbLine
 10
5964.608270459494
 20
7685.601167301552
 30
0.0
 11
5964.608270459494
 21
7667.601167301533
 31
0.0
  0
LINE
  5
19795
330
747D
100
AcDbEntity
  8
細線
100
AcDbLine
 10
6005.608270459495
 20
7685.601167301555
 30
0.0
 11
5964.608270459494
 21
7685.601167301552
 31
0.0
  0
ARC
  5
19796
330
747D
100
AcDbEntity
  8
部品1
100
AcDbCircle
 10
5967.152426336773
 20
7667.101167301556
 30
0.0
 40
1.0
100
AcDbArc
 50
270.0
 51
19.47122063442214
  0
LINE
  5
19797
330
747D
100
AcDbEntity
  8
部品1
 48
0.01
100
AcDbLine
 10
5960.108270459489
 20
7667.601167301555
 30
0.0
 11
5960.108270459489
 21
7666.601167301556
 31
0.0
  0
LINE
  5
19798
330
747D
100
AcDbEntity
  8
部品1
 48
0.01
100
AcDbLine
 10
5960.608270459489
 20
7666.101167301555
 30
0.0
 11
5967.152426336773
 21
7666.101167301555
 31
0.0
  0
ARC
  5
19799
330
747D
100
AcDbEntity
  8
部品1
 48
0.01
100
AcDbCircle
 10
5960.608270459489
 20
7666.601167301556
 30
0.0
 40
0.5
100
AcDbArc
 50
180.0
 51
270.0
  0
ARC
  5
1979A
330
747D
100
AcDbEntity
  8
部品1
100
AcDbCircle
 10
5992.608270459489
 20
7676.101167301556
 30
0.0
 40
26.0
100
AcDbArc
 50
180.0
 51
199.4712206344221
  0
ARC
  5
1979B
330
747D
100
AcDbEntity
  8
部品1
 48
0.01
100
AcDbCircle
 10
5968.60827045949
 20
7681.101167301555
 30
0.0
 40
2.0
100
AcDbArc
 50
90.0
 51
180.0
  0
LINE
  5
1979C
330
747D
100
AcDbEntity
  8
部品1
100
AcDbLine
 10
5966.608270459489
 20
7676.101167301556
 30
0.0
 11
5966.608270459489
 21
7681.101167301555
 31
0.0
  0
ARC
  5
1979D
330
747D
100
AcDbEntity
  8
部品1
100
AcDbCircle
 10
5985.108270459489
 20
7691.901167301555
 30
0.0
 40
16.0
100
AcDbArc
 50
218.393044019262
 51
254.0576313943358
  0
ARC
  5
1979E
330
747D
100
AcDbEntity
  8
部品1
100
AcDbCircle
 10
5970.2166620843
 20
7680.101167301555
 30
0.0
 40
3.0
100
AcDbArc
 50
38.39304401926199
 51
90.0
  0
LINE
  5
1979F
330
747D
100
AcDbEntity
  8
部品1
 48
0.01
100
AcDbLine
 10
5968.60827045949
 20
7683.101167301555
 30
0.0
 11
5970.2166620843
 21
7683.101167301555
 31
0.0
  0
ARC
  5
197A0
330
747D
100
AcDbEntity
  8
部品1
100
AcDbCircle
 10
5985.108270459489
 20
7691.901167301555
 30
0.0
 40
16.0
100
AcDbArc
 50
285.9423686056642
 51
321.606955980738
  0
LINE
  5
197A1
330
747D
100
AcDbEntity
  8
部品1
100
AcDbLine
 10
5988.67898467376
 20
7676.401167301555
 30
0.0
 11
5981.537556245217
 21
7676.401167301555
 31
0.0
  0
ARC
  5
197A2
330
747D
100
AcDbEntity
  8
部品1
100
AcDbCircle
 10
5988.67898467376
 20
7679.401167301555
 30
0.0
 40
3.0
100
AcDbArc
 50
270.0
 51
285.9423686056642
  0
ARC
  5
197A3
330
747D
100
AcDbEntity
  8
部品1
100
AcDbCircle
 10
5981.537556245217
 20
7679.401167301555
 30
0.0
 40
3.0
100
AcDbArc
 50
254.0576313943358
 51
270.0
  0
LINE
  5
197A4
330
747D
100
AcDbEntity
  8
部品1
 48
0.01
100
AcDbLine
 10
6001.608270459489
 20
7683.101167301555
 30
0.0
 11
5999.999878834677
 21
7683.101167301555
 31
0.0
  0
ARC
  5
197A5
330
747D
100
AcDbEntity
  8
部品1
100
AcDbCircle
 10
5999.999878834677
 20
7680.101167301555
 30
0.0
 40
3.0
100
AcDbArc
 50
90.0
 51
141.606955980738
  0
ARC
  5
197A6
330
747D
100
AcDbEntity
  8
部品1
 48
0.01
100
AcDbCircle
 10
6001.608270459489
 20
7681.101167301555
 30
0.0
 40
2.0
100
AcDbArc
 50
0.0
 51
90.0
  0
LINE
  5
197A7
330
747D
100
AcDbEntity
  8
部品1
100
AcDbLine
 10
6003.608270459489
 20
7676.101167301556
 30
0.0
 11
6003.608270459489
 21
7681.101167301555
 31
0.0
  0
ARC
  5
197A8
330
747D
100
AcDbEntity
  8
部品1
100
AcDbCircle
 10
5977.608270459489
 20
7676.101167301556
 30
0.0
 40
26.0
100
AcDbArc
 50
340.5287793655779
 51
0.0
  0
ARC
  5
197A9
330
747D
100
AcDbEntity
  8
部品1
100
AcDbCircle
 10
6003.064114582204
 20
7667.101167301556
 30
0.0
 40
1.0
100
AcDbArc
 50
160.5287793655778
 51
270.0
  0
LINE
  5
197AA
330
747D
100
AcDbEntity
  8
部品1
 48
0.01
100
AcDbLine
 10
6009.608270459489
 20
7666.101167301555
 30
0.0
 11
6002.995765029426
 21
7666.101167301555
 31
0.0
  0
LINE
  5
197AB
330
747D
100
AcDbEntity
  8
部品1
 48
0.01
100
AcDbLine
 10
6010.10827045949
 20
7667.601167301555
 30
0.0
 11
6010.10827045949
 21
7666.601167301556
 31
0.0
  0
LINE
  5
197AC
330
747D
100
AcDbEntity
  8
部品1
 48
0.01
100
AcDbLine
 10
6010.10827045949
 20
7667.601167301555
 30
0.0
 11
6010.10827045949
 21
7666.601167301556
 31
0.0
  0
ARC
  5
197AD
330
747D
100
AcDbEntity
  8
部品1
 48
0.01
100
AcDbCircle
 10
6009.608270459489
 20
7666.601167301556
 30
0.0
 40
0.5
100
AcDbArc
 50
270.0
 51
0.0
  0
ARC
  5
197AE
330
747D
100
AcDbEntity
  8
細線
100
AcDbCircle
 10
6212.408276959394
 20
7693.101167301512
 30
0.0
 40
6.0
100
AcDbArc
 50
204.6243183522686
 51
335.3756816477314
  0
LINE
  5
197AF
330
747D
100
AcDbEntity
  8
細線
100
AcDbLine
 10
6107.408270459514
 20
7667.601167301571
 30
0.0
 11
5840.095963810446
 21
7667.601167301532
 31
0.0
  0
LINE
  5
197B0
330
747D
100
AcDbEntity
  8
細線
100
AcDbLine
 10
5849.108270459494
 20
7671.601167301483
 30
0.0
 11
5849.108270459494
 21
7667.601167301533
 31
0.0
  0
LINE
  5
197B1
330
747D
100
AcDbEntity
  8
細線
100
AcDbLine
 10
5864.108270459495
 20
7697.601167301532
 30
0.0
 11
5864.108270459495
 21
7690.601167301531
 31
0.0
  0
LINE
  5
197B2
330
747D
100
AcDbEntity
  8
細線
100
AcDbLine
 10
5864.108270459495
 20
7697.601167301532
 30
0.0
 11
5849.108270459494
 21
7697.601167301532
 31
0.0
  0
LINE
  5
197B3
330
747D
100
AcDbEntity
  8
細線
100
AcDbLine
 10
6844.708270459491
 20
7701.601167301618
 30
0.0
 11
6715.558270459471
 21
7701.601167301618
 31
0.0
  0
LINE
  5
197B4
330
747D
100
AcDbEntity
  8
細線
100
AcDbLine
 10
6823.708270459494
 20
7729.601167301618
 30
0.0
 11
6823.708270459494
 21
7737.601167301618
 31
0.0
  0
LINE
  5
197B5
330
747D
100
AcDbEntity
  8
細線
100
AcDbLine
 10
6823.708270459494
 20
7729.601167301618
 30
0.0
 11
6803.708270459494
 21
7729.601167301618
 31
0.0
  0
LINE
  5
197B6
330
747D
100
AcDbEntity
  8
細線
100
AcDbLine
 10
6844.708270459491
 20
7701.601167301618
 30
0.0
 11
6844.708270459499
 21
7731.601167301618
 31
0.0
  0
LINE
  5
197B7
330
747D
100
AcDbEntity
  8
細線
100
AcDbLine
 10
6844.708270459491
 20
7731.601167301618
 30
0.0
 11
6829.70827045949
 21
7731.601167301613
 31
0.0
  0
LINE
  5
197B8
330
747D
100
AcDbEntity
  8
細線
100
AcDbLine
 10
6829.708270459486
 20
7724.601167301614
 30
0.0
 11
6829.70827045949
 21
7731.601167301613
 31
0.0
  0
LINE
  5
197B9
330
747D
100
AcDbEntity
  8
細線
100
AcDbLine
 10
6829.708270459493
 20
7737.601167301618
 30
0.0
 11
6823.708270459494
 21
7737.601167301618
 31
0.0
  0
LINE
  5
197BA
330
747D
100
AcDbEntity
  8
細線
100
AcDbLine
 10
6640.558270459516
 20
7701.601167301639
 30
0.0
 11
6633.058270459521
 21
7724.60116730157
 31
0.0
  0
LINE
  5
197BB
330
747D
100
AcDbEntity
  8
細線
100
AcDbLine
 10
6580.558270459516
 20
7701.60116730165
 30
0.0
 11
6588.058270459521
 21
7724.60116730157
 31
0.0
  0
LINE
  5
197BC
330
747D
100
AcDbEntity
  8
細線
100
AcDbLine
 10
6505.55827045949
 20
7701.601167301582
 30
0.0
 11
6507.889808750258
 21
7706.601167301568
 31
0.0
  0
LINE
  5
197BD
330
747D
100
AcDbEntity
  8
細線
100
AcDbLine
 10
6575.558270459485
 20
7701.601167301565
 30
0.0
 11
6573.226732168717
 21
7706.601167301549
 31
0.0
  0
LINE
  5
197BE
330
747D
100
AcDbEntity
  8
細線
100
AcDbLine
 10
6573.226732168717
 20
7706.601167301549
 30
0.0
 11
6507.889808750245
 21
7706.601167301539
 31
0.0
  0
LINE
  5
197BF
330
747D
100
AcDbEntity
  8
細線
100
AcDbLine
 10
6645.558270459488
 20
7701.601167301602
 30
0.0
 11
6647.889808750256
 21
7706.601167301588
 31
0.0
  0
LINE
  5
197C0
330
747D
100
AcDbEntity
  8
細線
100
AcDbLine
 10
6715.558270459485
 20
7701.601167301586
 30
0.0
 11
6713.226732168717
 21
7706.60116730157
 31
0.0
  0
LINE
  5
197C1
330
747D
100
AcDbEntity
  8
細線
100
AcDbLine
 10
6713.226732168717
 20
7706.60116730157
 30
0.0
 11
6647.889808750242
 21
7706.60116730156
 31
0.0
  0
LINE
  5
197C2
330
747D
100
AcDbEntity
  8
細線
100
AcDbLine
 10
6645.558270459485
 20
7701.601167301593
 30
0.0
 11
6575.55827045947
 21
7701.601167301593
 31
0.0
  0
ARC
  5
197C3
330
747D
100
AcDbEntity
  8
細線
100
AcDbCircle
 10
6610.558276959479
 20
7727.101167301568
 30
0.0
 40
6.0
100
AcDbArc
 50
204.6243183522686
 51
335.3756816477314
  0
ARC
  5
197C4
330
747D
100
AcDbEntity
  8
細線
100
AcDbCircle
 10
6831.708270459493
 20
7736.901167301617
 30
0.0
 40
2.0
100
AcDbArc
 50
180.0
 51
270.0
  0
LINE
  5
197C5
330
747D
100
AcDbEntity
  8
細線
100
AcDbLine
 10
6829.708270459493
 20
7736.901167301617
 30
0.0
 11
6829.708270459493
 21
7737.601167301618
 31
0.0
  0
LINE
  5
197C6
330
747D
100
AcDbEntity
  8
細線
100
AcDbLine
 10
6831.708270459493
 20
7734.901167301616
 30
0.0
 11
6833.708270459493
 21
7734.901167301616
 31
0.0
  0
ARC
  5
197C7
330
747D
100
AcDbEntity
  8
細線
100
AcDbCircle
 10
6833.708270459493
 20
7736.901167301617
 30
0.0
 40
2.0
100
AcDbArc
 50
270.0
 51
0.0
  0
LINE
  5
197C8
330
747D
100
AcDbEntity
  8
細線
100
AcDbLine
 10
6835.708270459493
 20
7736.901167301617
 30
0.0
 11
6835.708270459493
 21
7737.601167301618
 31
0.0
  0
LINE
  5
197C9
330
747D
100
AcDbEntity
  8
細線
100
AcDbLine
 10
6848.108270459491
 20
7739.307018364337
 30
0.0
 11
6836.10827045949
 21
7739.307018364337
 31
0.0
  0
LINE
  5
197CA
330
747D
100
AcDbEntity
  8
細線
100
AcDbLine
 10
6836.108270459715
 20
7765.601167301614
 30
0.0
 11
6803.708270459494
 21
7765.601167301614
 31
0.0
  0
LINE
  5
197CB
330
747D
100
AcDbEntity
  8
細線
100
AcDbLine
 10
6803.708270459494
 20
7729.601167301618
 30
0.0
 11
6803.708270459494
 21
7765.601167301614
 31
0.0
  0
LINE
  5
197CC
330
747D
100
AcDbEntity
  8
細線
100
AcDbLine
 10
6942.908270459494
 20
7737.601167301606
 30
0.0
 11
6945.006654921193
 21
7742.101167301616
 31
0.0
  0
LINE
  5
197CD
330
747D
100
AcDbEntity
  8
細線
100
AcDbLine
 10
6942.908270459492
 20
7737.601167301615
 30
0.0
 11
6835.708270459493
 21
7737.601167301618
 31
0.0
  0
LINE
  5
197CE
330
747D
100
AcDbEntity
  8
細線
100
AcDbLine
 10
6818.708270459493
 20
7761.101167301617
 30
0.0
 11
6818.708270459493
 21
7765.601167301614
 31
0.0
  0
LINE
  5
197CF
330
747D
100
AcDbEntity
  8
細線
100
AcDbLine
 10
6836.10827045949
 20
7739.307018364337
 30
0.0
 11
6836.10827045949
 21
7764.207018364337
 31
0.0
  0
LINE
  5
197D0
330
747D
100
AcDbEntity
  8
細線
100
AcDbLine
 10
6836.10827045949
 20
7764.207018364337
 30
0.0
 11
6804.922219042753
 21
7764.207018364337
 31
0.0
  0
LINE
  5
197D1
330
747D
100
AcDbEntity
  8
細線
 48
50.0
100
AcDbLine
 10
7259.108270459496
 20
7714.601167301622
 30
0.0
 11
6844.708270459493
 21
7714.601167301622
 31
0.0
  0
LINE
  5
197D2
330
747D
100
AcDbEntity
  8
細線
100
AcDbLine
 10
7082.908270459505
 20
7737.601167301595
 30
0.0
 11
7085.006654921208
 21
7742.101167301616
 31
0.0
  0
LINE
  5
197D3
330
747D
100
AcDbEntity
  8
細線
100
AcDbLine
 10
7012.908270459487
 20
7737.601167301588
 30
0.0
 11
7010.809885997779
 21
7742.101167301616
 31
0.0
  0
LINE
  5
197D4
330
747D
100
AcDbEntity
  8
細線
100
AcDbLine
 10
7082.908270459498
 20
7737.601167301587
 30
0.0
 11
7012.908270459487
 21
7737.601167301588
 31
0.0
  0
LINE
  5
197D5
330
747D
100
AcDbEntity
  8
細線
100
AcDbLine
 10
7257.108270459498
 20
7737.601167301614
 30
0.0
 11
7152.908270459481
 21
7737.601167301618
 31
0.0
  0
LINE
  5
197D6
330
747D
100
AcDbEntity
  8
細線
100
AcDbLine
 10
7257.108270459498
 20
7719.601167301611
 30
0.0
 11
7257.108270459498
 21
7737.601167301612
 31
0.0
  0
LINE
  5
197D7
330
747D
100
AcDbEntity
  8
細線
 48
50.0
100
AcDbLine
 10
7257.108270459498
 20
7719.601167301611
 30
0.0
 11
7259.108270459498
 21
7719.601167301611
 31
0.0
  0
LINE
  5
197D8
330
747D
100
AcDbEntity
  8
細線
100
AcDbLine
 10
7152.908270459498
 20
7737.601167301578
 30
0.0
 11
7150.809885997786
 21
7742.101167301616
 31
0.0
  0
LINE
  5
197D9
330
747D
100
AcDbEntity
  8
細線
100
AcDbLine
 10
8612.908270459499
 20
7737.601167301611
 30
0.0
 11
8542.908270459488
 21
7737.601167301612
 31
0.0
  0
LINE
  5
197DA
330
747D
100
AcDbEntity
  8
細線
100
AcDbLine
 10
8542.908270459488
 20
7737.601167301612
 30
0.0
 11
8540.809885997779
 21
7742.10116730164
 31
0.0
  0
LINE
  5
197DB
330
747D
100
AcDbEntity
  8
細線
100
AcDbLine
 10
8612.908270459506
 20
7737.601167301621
 30
0.0
 11
8615.006654921209
 21
7742.10116730164
 31
0.0
  0
LINE
  5
197DC
330
747D
100
AcDbEntity
  8
細線
100
AcDbLine
 10
8366.108270459491
 20
7764.207018364361
 30
0.0
 11
8334.922219042754
 21
7764.207018364361
 31
0.0
  0
LINE
  5
197DD
330
747D
100
AcDbEntity
  8
細線
100
AcDbLine
 10
8366.108270459491
 20
7739.307018364361
 30
0.0
 11
8366.108270459491
 21
7764.207018364361
 31
0.0
  0
LINE
  5
197DE
330
747D
100
AcDbEntity
  8
細線
100
AcDbLine
 10
8348.708270459495
 20
7761.101167301642
 30
0.0
 11
8348.708270459495
 21
7765.601167301638
 31
0.0
  0
LINE
  5
197DF
330
747D
100
AcDbEntity
  8
細線
100
AcDbLine
 10
8472.908270459491
 20
7737.60116730164
 30
0.0
 11
8365.708270459494
 21
7737.601167301642
 31
0.0
  0
LINE
  5
197E0
330
747D
100
AcDbEntity
  8
細線
100
AcDbLine
 10
8472.908270459495
 20
7737.60116730163
 30
0.0
 11
8475.006654921195
 21
7742.10116730164
 31
0.0
  0
LINE
  5
197E1
330
747D
100
AcDbEntity
  8
細線
100
AcDbLine
 10
8333.708270459494
 20
7729.601167301642
 30
0.0
 11
8333.708270459494
 21
7765.601167301638
 31
0.0
  0
LINE
  5
197E2
330
747D
100
AcDbEntity
  8
細線
100
AcDbLine
 10
8366.108270459713
 20
7765.601167301638
 30
0.0
 11
8333.708270459494
 21
7765.601167301638
 31
0.0
  0
LINE
  5
197E3
330
747D
100
AcDbEntity
  8
細線
100
AcDbLine
 10
8378.108270459492
 20
7739.307018364361
 30
0.0
 11
8366.108270459491
 21
7739.307018364361
 31
0.0
  0
LINE
  5
197E4
330
747D
100
AcDbEntity
  8
細線
100
AcDbLine
 10
8365.708270459494
 20
7736.901167301642
 30
0.0
 11
8365.708270459494
 21
7737.601167301642
 31
0.0
  0
ARC
  5
197E5
330
747D
100
AcDbEntity
  8
細線
100
AcDbCircle
 10
8363.708270459495
 20
7736.901167301642
 30
0.0
 40
2.0
100
AcDbArc
 50
270.0
 51
0.0
  0
LINE
  5
197E6
330
747D
100
AcDbEntity
  8
細線
100
AcDbLine
 10
8361.708270459494
 20
7734.901167301642
 30
0.0
 11
8363.708270459495
 21
7734.901167301642
 31
0.0
  0
LINE
  5
197E7
330
747D
100
AcDbEntity
  8
細線
100
AcDbLine
 10
8359.708270459494
 20
7736.901167301642
 30
0.0
 11
8359.708270459494
 21
7737.601167301642
 31
0.0
  0
ARC
  5
197E8
330
747D
100
AcDbEntity
  8
細線
100
AcDbCircle
 10
8361.708270459494
 20
7736.901167301642
 30
0.0
 40
2.0
100
AcDbArc
 50
180.0
 51
270.0
  0
LINE
  5
197E9
330
747D
100
AcDbEntity
  8
細線
100
AcDbLine
 10
8359.708270459494
 20
7737.601167301642
 30
0.0
 11
8353.708270459494
 21
7737.601167301642
 31
0.0
  0
LINE
  5
197EA
330
747D
100
AcDbEntity
  8
細線
100
AcDbLine
 10
8359.708270459487
 20
7724.601167301639
 30
0.0
 11
8359.70827045949
 21
7731.601167301639
 31
0.0
  0
LINE
  5
197EB
330
747D
100
AcDbEntity
  8
細線
100
AcDbLine
 10
8374.708270459491
 20
7731.601167301642
 30
0.0
 11
8359.70827045949
 21
7731.601167301639
 31
0.0
  0
LINE
  5
197EC
330
747D
100
AcDbEntity
  8
細線
100
AcDbLine
 10
8374.708270459491
 20
7701.601167301642
 30
0.0
 11
8374.708270459498
 21
7731.601167301642
 31
0.0
  0
LINE
  5
197ED
330
747D
100
AcDbEntity
  8
細線
100
AcDbLine
 10
8353.708270459494
 20
7729.601167301642
 30
0.0
 11
8333.708270459494
 21
7729.601167301642
 31
0.0
  0
LINE
  5
197EE
330
747D
100
AcDbEntity
  8
細線
100
AcDbLine
 10
8353.708270459494
 20
7729.601167301642
 30
0.0
 11
8353.708270459494
 21
7737.601167301642
 31
0.0
  0
LINE
  5
197EF
330
747D
100
AcDbEntity
  8
細線
 48
50.0
100
AcDbLine
 10
8789.108270459495
 20
7714.601167301646
 30
0.0
 11
8374.708270459494
 21
7714.601167301646
 31
0.0
  0
LINE
  5
197F0
330
747D
100
AcDbEntity
  8
細線
 48
50.0
100
AcDbLine
 10
8789.108270459498
 20
7680.601167301642
 30
0.0
 11
7947.40827045949
 21
7680.60116730164
 31
0.0
  0
LINE
  5
197F1
330
747D
100
AcDbEntity
  8
細線
100
AcDbLine
 10
8682.908270459497
 20
7737.601167301602
 30
0.0
 11
8680.809885997787
 21
7742.10116730164
 31
0.0
  0
LINE
  5
197F2
330
747D
100
AcDbEntity
  8
細線
 48
50.0
100
AcDbLine
 10
8787.1082704595
 20
7719.601167301637
 30
0.0
 11
8789.108270459498
 21
7719.601167301637
 31
0.0
  0
LINE
  5
197F3
330
747D
100
AcDbEntity
  8
細線
100
AcDbLine
 10
8787.1082704595
 20
7719.601167301637
 30
0.0
 11
8787.1082704595
 21
7737.601167301637
 31
0.0
  0
LINE
  5
197F4
330
747D
100
AcDbEntity
  8
細線
100
AcDbLine
 10
8787.1082704595
 20
7737.601167301638
 30
0.0
 11
8682.908270459481
 21
7737.601167301642
 31
0.0
  0
ARC
  5
197F5
330
747D
100
AcDbEntity
  8
細線
100
AcDbCircle
 10
8140.558276959479
 20
7727.101167301594
 30
0.0
 40
6.0
100
AcDbArc
 50
204.6243183522686
 51
335.3756816477314
  0
LINE
  5
197F6
330
747D
100
AcDbEntity
  8
細線
100
AcDbLine
 10
8175.558270459484
 20
7701.601167301617
 30
0.0
 11
8105.55827045947
 21
7701.601167301617
 31
0.0
  0
LINE
  5
197F7
330
747D
100
AcDbEntity
  8
細線
100
AcDbLine
 10
8243.226732168718
 20
7706.601167301595
 30
0.0
 11
8177.889808750242
 21
7706.601167301584
 31
0.0
  0
LINE
  5
197F8
330
747D
100
AcDbEntity
  8
細線
100
AcDbLine
 10
8245.558270459486
 20
7701.60116730161
 30
0.0
 11
8243.226732168718
 21
7706.601167301595
 31
0.0
  0
LINE
  5
197F9
330
747D
100
AcDbEntity
  8
細線
100
AcDbLine
 10
8175.558270459488
 20
7701.601167301628
 30
0.0
 11
8177.889808750256
 21
7706.601167301613
 31
0.0
  0
LINE
  5
197FA
330
747D
100
AcDbEntity
  8
細線
100
AcDbLine
 10
8103.226732168717
 20
7706.601167301575
 30
0.0
 11
8037.889808750245
 21
7706.601167301563
 31
0.0
  0
LINE
  5
197FB
330
747D
100
AcDbEntity
  8
細線
100
AcDbLine
 10
8105.558270459484
 20
7701.601167301589
 30
0.0
 11
8103.226732168717
 21
7706.601167301575
 31
0.0
  0
LINE
  5
197FC
330
747D
100
AcDbEntity
  8
細線
100
AcDbLine
 10
8035.558270459489
 20
7701.601167301608
 30
0.0
 11
8037.889808750257
 21
7706.601167301593
 31
0.0
  0
LINE
  5
197FD
330
747D
100
AcDbEntity
  8
細線
100
AcDbLine
 10
8110.558270459515
 20
7701.601167301674
 30
0.0
 11
8118.05827045952
 21
7724.601167301594
 31
0.0
  0
LINE
  5
197FE
330
747D
100
AcDbEntity
  8
細線
100
AcDbLine
 10
8170.558270459515
 20
7701.601167301664
 30
0.0
 11
8163.05827045952
 21
7724.601167301594
 31
0.0
  0
LINE
  5
197FF
330
747D
100
AcDbEntity
  8
細線
100
AcDbLine
 10
8374.708270459491
 20
7701.601167301642
 30
0.0
 11
8245.55827045947
 21
7701.601167301642
 31
0.0
  0
LINE
  5
19800
330
747D
100
AcDbEntity
  8
細線
100
AcDbLine
 10
7777.408270459497
 20
7667.601167301578
 30
0.0
 11
7779.739808750266
 21
7672.601167301563
 31
0.0
  0
LINE
  5
19801
330
747D
100
AcDbEntity
  8
細線
100
AcDbLine
 10
7845.076732168727
 20
7672.601167301547
 30
0.0
 11
7779.739808750251
 21
7672.601167301535
 31
0.0
  0
LINE
  5
19802
330
747D
100
AcDbEntity
  8
細線
100
AcDbLine
 10
7847.408270459492
 20
7667.601167301561
 30
0.0
 11
7845.076732168725
 21
7672.601167301547
 31
0.0
  0
LINE
  5
19803
330
747D
100
AcDbEntity
  8
細線
100
AcDbLine
 10
7772.408270459421
 20
7667.601167301636
 30
0.0
 11
7764.908270459426
 21
7690.601167301565
 31
0.0
  0
LINE
  5
19804
330
747D
100
AcDbEntity
  8
細線
100
AcDbLine
 10
7947.408270459496
 20
7667.601167301558
 30
0.0
 11
7847.408270459489
 21
7667.601167301544
 31
0.0
  0
LINE
  5
19805
330
747D
100
AcDbEntity
  8
細線
100
AcDbLine
 10
8035.558270459493
 20
7701.601167301605
 30
0.0
 11
7938.408270459497
 21
7701.60116730155
 31
0.0
  0
LINE
  5
19806
330
747D
100
AcDbEntity
  8
細線
100
AcDbLine
 10
8359.708270459487
 20
7724.601167301644
 30
0.0
 11
7921.408270459487
 21
7724.601167301646
 31
0.0
  0
LINE
  5
19807
330
747D
100
AcDbEntity
  8
細線
100
AcDbLine
 10
7921.40827045949
 20
7731.601167301551
 30
0.0
 11
7906.408270459491
 21
7731.601167301551
 31
0.0
  0
LINE
  5
19808
330
747D
100
AcDbEntity
  8
細線
100
AcDbLine
 10
7921.408270459487
 20
7724.601167301551
 30
0.0
 11
7921.40827045949
 21
7731.601167301551
 31
0.0
  0
ARC
  5
19809
330
747D
100
AcDbEntity
  8
細線
100
AcDbCircle
 10
7934.408270459498
 20
7700.901167301548
 30
0.0
 40
2.0
100
AcDbArc
 50
180.0
 51
270.0
  0
LINE
  5
1980A
330
747D
100
AcDbEntity
  8
細線
100
AcDbLine
 10
7932.408270459497
 20
7700.901167301551
 30
0.0
 11
7932.408270459497
 21
7701.60116730155
 31
0.0
  0
LINE
  5
1980B
330
747D
100
AcDbEntity
  8
細線
100
AcDbLine
 10
7934.408270459498
 20
7698.901167301549
 30
0.0
 11
7936.408270459498
 21
7698.901167301549
 31
0.0
  0
ARC
  5
1980C
330
747D
100
AcDbEntity
  8
細線
100
AcDbCircle
 10
7936.408270459498
 20
7700.901167301548
 30
0.0
 40
2.0
100
AcDbArc
 50
270.0
 51
0.0
  0
LINE
  5
1980D
330
747D
100
AcDbEntity
  8
細線
100
AcDbLine
 10
7938.408270459497
 20
7700.901167301551
 30
0.0
 11
7938.408270459497
 21
7701.60116730155
 31
0.0
  0
LINE
  5
1980E
330
747D
100
AcDbEntity
  8
細線
100
AcDbLine
 10
7932.408270459472
 20
7701.60116730155
 30
0.0
 11
7926.408270459472
 21
7701.601167301551
 31
0.0
  0
LINE
  5
1980F
330
747D
100
AcDbEntity
  8
細線
100
AcDbLine
 10
7932.408270459493
 20
7690.601167301636
 30
0.0
 11
7932.408270459494
 21
7697.601167301555
 31
0.0
  0
LINE
  5
19810
330
747D
100
AcDbEntity
  8
細線
100
AcDbLine
 10
7947.408270459496
 20
7697.601167301558
 30
0.0
 11
7932.408270459494
 21
7697.601167301555
 31
0.0
  0
LINE
  5
19811
330
747D
100
AcDbEntity
  8
細線
100
AcDbLine
 10
7947.408270459489
 20
7667.601167301558
 30
0.0
 11
7947.408270459497
 21
7697.601167301558
 31
0.0
  0
LINE
  5
19812
330
747D
100
AcDbEntity
  8
細線
100
AcDbLine
 10
7906.408270459481
 20
7697.601167301543
 30
0.0
 11
7906.408270459491
 21
7731.601167301551
 31
0.0
  0
LINE
  5
19813
330
747D
100
AcDbEntity
  8
細線
100
AcDbLine
 10
7926.40827045947
 20
7697.601167301543
 30
0.0
 11
7906.408270459481
 21
7697.601167301543
 31
0.0
  0
LINE
  5
19814
330
747D
100
AcDbEntity
  8
細線
100
AcDbLine
 10
7926.40827045947
 20
7697.601167301543
 30
0.0
 11
7926.408270459472
 21
7701.601167301544
 31
0.0
  0
ARC
  5
19815
330
747D
100
AcDbEntity
  8
細線
100
AcDbCircle
 10
7742.408276959394
 20
7693.101167301536
 30
0.0
 40
6.0
100
AcDbArc
 50
204.6243183522686
 51
335.3756816477314
  0
ARC
  5
19816
330
747D
100
AcDbEntity
  8
部品1
 48
0.01
100
AcDbCircle
 10
7539.608270459488
 20
7666.60116730158
 30
0.0
 40
0.5
100
AcDbArc
 50
270.0
 51
0.0
  0
LINE
  5
19817
330
747D
100
AcDbEntity
  8
部品1
 48
0.01
100
AcDbLine
 10
7540.10827045949
 20
7667.60116730158
 30
0.0
 11
7540.10827045949
 21
7666.60116730158
 31
0.0
  0
LINE
  5
19818
330
747D
100
AcDbEntity
  8
部品1
 48
0.01
100
AcDbLine
 10
7540.10827045949
 20
7667.60116730158
 30
0.0
 11
7540.10827045949
 21
7666.60116730158
 31
0.0
  0
LINE
  5
19819
330
747D
100
AcDbEntity
  8
部品1
 48
0.01
100
AcDbLine
 10
7539.608270459488
 20
7666.10116730158
 30
0.0
 11
7532.995765029426
 21
7666.10116730158
 31
0.0
  0
ARC
  5
1981A
330
747D
100
AcDbEntity
  8
部品1
100
AcDbCircle
 10
7533.064114582204
 20
7667.10116730158
 30
0.0
 40
1.0
100
AcDbArc
 50
160.5287793655778
 51
270.0
  0
ARC
  5
1981B
330
747D
100
AcDbEntity
  8
部品1
100
AcDbCircle
 10
7507.608270459489
 20
7676.10116730158
 30
0.0
 40
26.0
100
AcDbArc
 50
340.5287793655779
 51
0.0
  0
LINE
  5
1981C
330
747D
100
AcDbEntity
  8
部品1
100
AcDbLine
 10
7533.608270459488
 20
7676.10116730158
 30
0.0
 11
7533.608270459488
 21
7681.10116730158
 31
0.0
  0
ARC
  5
1981D
330
747D
100
AcDbEntity
  8
部品1
 48
0.01
100
AcDbCircle
 10
7531.608270459489
 20
7681.10116730158
 30
0.0
 40
2.0
100
AcDbArc
 50
0.0
 51
90.0
  0
ARC
  5
1981E
330
747D
100
AcDbEntity
  8
部品1
100
AcDbCircle
 10
7529.999878834677
 20
7680.101167301581
 30
0.0
 40
3.0
100
AcDbArc
 50
90.0
 51
141.606955980738
  0
LINE
  5
1981F
330
747D
100
AcDbEntity
  8
部品1
 48
0.01
100
AcDbLine
 10
7531.608270459489
 20
7683.101167301581
 30
0.0
 11
7529.999878834677
 21
7683.101167301581
 31
0.0
  0
ARC
  5
19820
330
747D
100
AcDbEntity
  8
部品1
100
AcDbCircle
 10
7511.537556245217
 20
7679.401167301579
 30
0.0
 40
3.0
100
AcDbArc
 50
254.0576313943358
 51
270.0
  0
ARC
  5
19821
330
747D
100
AcDbEntity
  8
部品1
100
AcDbCircle
 10
7518.678984673759
 20
7679.401167301579
 30
0.0
 40
3.0
100
AcDbArc
 50
270.0
 51
285.9423686056642
  0
LINE
  5
19822
330
747D
100
AcDbEntity
  8
部品1
100
AcDbLine
 10
7518.678984673759
 20
7676.40116730158
 30
0.0
 11
7511.537556245217
 21
7676.40116730158
 31
0.0
  0
ARC
  5
19823
330
747D
100
AcDbEntity
  8
部品1
100
AcDbCircle
 10
7515.10827045949
 20
7691.901167301579
 30
0.0
 40
16.0
100
AcDbArc
 50
285.9423686056642
 51
321.606955980738
  0
LINE
  5
19824
330
747D
100
AcDbEntity
  8
部品1
 48
0.01
100
AcDbLine
 10
7498.608270459489
 20
7683.101167301581
 30
0.0
 11
7500.216662084302
 21
7683.101167301581
 31
0.0
  0
ARC
  5
19825
330
747D
100
AcDbEntity
  8
部品1
100
AcDbCircle
 10
7500.216662084302
 20
7680.101167301581
 30
0.0
 40
3.0
100
AcDbArc
 50
38.39304401926199
 51
90.0
  0
ARC
  5
19826
330
747D
100
AcDbEntity
  8
部品1
100
AcDbCircle
 10
7515.10827045949
 20
7691.901167301579
 30
0.0
 40
16.0
100
AcDbArc
 50
218.393044019262
 51
254.0576313943358
  0
LINE
  5
19827
330
747D
100
AcDbEntity
  8
部品1
100
AcDbLine
 10
7496.608270459489
 20
7676.10116730158
 30
0.0
 11
7496.608270459489
 21
7681.10116730158
 31
0.0
  0
ARC
  5
19828
330
747D
100
AcDbEntity
  8
部品1
 48
0.01
100
AcDbCircle
 10
7498.608270459489
 20
7681.10116730158
 30
0.0
 40
2.0
100
AcDbArc
 50
90.0
 51
180.0
  0
ARC
  5
19829
330
747D
100
AcDbEntity
  8
部品1
100
AcDbCircle
 10
7522.608270459489
 20
7676.10116730158
 30
0.0
 40
26.0
100
AcDbArc
 50
180.0
 51
199.4712206344221
  0
ARC
  5
1982A
330
747D
100
AcDbEntity
  8
部品1
 48
0.01
100
AcDbCircle
 10
7490.608270459489
 20
7666.60116730158
 30
0.0
 40
0.5
100
AcDbArc
 50
180.0
 51
270.0
  0
LINE
  5
1982B
330
747D
100
AcDbEntity
  8
部品1
 48
0.01
100
AcDbLine
 10
7490.608270459489
 20
7666.10116730158
 30
0.0
 11
7497.152426336772
 21
7666.10116730158
 31
0.0
  0
LINE
  5
1982C
330
747D
100
AcDbEntity
  8
部品1
 48
0.01
100
AcDbLine
 10
7490.10827045949
 20
7667.60116730158
 30
0.0
 11
7490.10827045949
 21
7666.60116730158
 31
0.0
  0
ARC
  5
1982D
330
747D
100
AcDbEntity
  8
部品1
100
AcDbCircle
 10
7497.152426336772
 20
7667.10116730158
 30
0.0
 40
1.0
100
AcDbArc
 50
270.0
 51
19.47122063442214
  0
LINE
  5
1982E
330
747D
100
AcDbEntity
  8
細線
100
AcDbLine
 10
7535.608270459495
 20
7685.60116730158
 30
0.0
 11
7494.608270459494
 21
7685.601167301577
 31
0.0
  0
LINE
  5
1982F
330
747D
100
AcDbEntity
  8
細線
100
AcDbLine
 10
7494.608270459494
 20
7685.601167301577
 30
0.0
 11
7494.608270459494
 21
7667.601167301558
 31
0.0
  0
LINE
  5
19830
330
747D
100
AcDbEntity
  8
細線
100
AcDbLine
 10
7535.608270459495
 20
7685.60116730158
 30
0.0
 11
7535.608270459495
 21
7667.601167301558
 31
0.0
  0
LINE
  5
19831
330
747D
100
AcDbEntity
  8
細線
100
AcDbLine
 10
7637.408270459495
 20
7667.601167301558
 30
0.0
 11
7639.739808750263
 21
7672.601167301543
 31
0.0
  0
LINE
  5
19832
330
747D
100
AcDbEntity
  8
細線
100
AcDbLine
 10
7707.40827045949
 20
7667.60116730154
 30
0.0
 11
7705.076732168723
 21
7672.601167301525
 31
0.0
  0
LINE
  5
19833
330
747D
100
AcDbEntity
  8
細線
100
AcDbLine
 10
7705.076732168723
 20
7672.601167301525
 30
0.0
 11
7639.739808750251
 21
7672.601167301515
 31
0.0
  0
LINE
  5
19834
330
747D
100
AcDbEntity
  8
細線
100
AcDbLine
 10
7777.408270459497
 20
7667.601167301535
 30
0.0
 11
7707.408270459497
 21
7667.601167301525
 31
0.0
  0
LINE
  5
19835
330
747D
100
AcDbEntity
  8
細線
100
AcDbLine
 10
7712.408270459421
 20
7667.601167301647
 30
0.0
 11
7719.908270459429
 21
7690.601167301565
 31
0.0
  0
LINE
  5
19836
330
747D
100
AcDbEntity
  8
細線
100
AcDbLine
 10
7932.408270459493
 20
7690.601167301636
 30
0.0
 11
7394.108270459494
 21
7690.601167301557
 31
0.0
  0
LINE
  5
19837
330
747D
100
AcDbEntity
  8
細線
 48
50.0
100
AcDbLine
 10
7906.408270459486
 20
7714.601167301613
 30
0.0
 11
7379.108270459494
 21
7714.601167301525
 31
0.0
  0
LINE
  5
19838
330
747D
100
AcDbEntity
  8
細線
100
AcDbLine
 10
7637.408270459514
 20
7667.601167301595
 30
0.0
 11
7370.095963810446
 21
7667.601167301556
 31
0.0
  0
LINE
  5
19839
330
747D
100
AcDbEntity
  8
細線
100
AcDbLine
 10
7394.108270459494
 20
7697.601167301556
 30
0.0
 11
7379.108270459494
 21
7697.601167301556
 31
0.0
  0
LINE
  5
1983A
330
747D
100
AcDbEntity
  8
細線
100
AcDbLine
 10
7394.108270459494
 20
7697.601167301556
 30
0.0
 11
7394.108270459494
 21
7690.601167301557
 31
0.0
  0
LINE
  5
1983B
330
747D
100
AcDbEntity
  8
細線
100
AcDbLine
 10
7379.108270459494
 20
7671.601167301507
 30
0.0
 11
7379.108270459494
 21
7667.601167301558
 31
0.0
  0
DIMENSION
  5
1983C
330
747D
100
AcDbEntity
  8
寸法
100
AcDbDimension
  2
*D32
 10
5849.108270459499
 20
7126.603823149384
 30
0.0
 11
6261.408270459497
 21
7126.603823149384
 31
0.0
 70
   160
  1
有効開口部間口\P824
 71
     5
 42
824.5999999999986
  3
INABA_S40G
100
AcDbAlignedDimension
 13
6673.708270459496
 23
7664.601167301592
 33
0.0
 14
5849.108270459499
 24
7664.601167301483
 34
0.0
100
AcDbRotatedDimension
1001
ACAD
1000
DSTYLE
1002
{
1002
}
  0
LINE
  5
1983D
330
747D
100
AcDbEntity
  8
寸法
 48
50.0
100
AcDbLine
 10
6165.870407814876
 20
7561.706808429729
 30
0.0
 11
6114.464399904772
 21
7561.706808429729
 31
0.0
  0
LINE
  5
1983E
330
747D
100
AcDbEntity
  8
寸法
 48
50.0
100
AcDbLine
 10
6114.464399904772
 20
7561.706808429729
 30
0.0
 11
6114.464399904772
 21
7593.016967081895
 31
0.0
  0
LINE
  5
1983F
330
747D
100
AcDbEntity
  8
寸法
 48
50.0
100
AcDbLine
 10
6114.464399904772
 20
7593.016967081895
 30
0.0
 11
6084.703067913348
 21
7593.016967081895
 31
0.0
  0
LINE
  5
19840
330
747D
100
AcDbEntity
  8
寸法
 48
50.0
100
AcDbLine
 10
6084.703067913348
 20
7593.016967081895
 30
0.0
 11
6140.167403859823
 21
7630.596418010508
 31
0.0
  0
LINE
  5
19841
330
747D
100
AcDbEntity
  8
寸法
 48
50.0
100
AcDbLine
 10
6195.631739806299
 20
7593.016967081895
 30
0.0
 11
6140.167403859823
 21
7630.596418010506
 31
0.0
  0
LINE
  5
19842
330
747D
100
AcDbEntity
  8
寸法
 48
50.0
100
AcDbLine
 10
6165.870407814876
 20
7593.016967081895
 30
0.0
 11
6195.631739806299
 21
7593.016967081895
 31
0.0
  0
LINE
  5
19843
330
747D
100
AcDbEntity
  8
寸法
 48
50.0
100
AcDbLine
 10
6165.870407814876
 20
7561.706808429729
 30
0.0
 11
6165.870407814876
 21
7593.016967081895
 31
0.0
  0
LINE
  5
19844
330
747D
100
AcDbEntity
  8
寸法
 48
50.0
100
AcDbLine
 10
6114.464399904772
 20
7561.706808429729
 30
0.0
 11
6165.870407814876
 21
7561.706808429729
 31
0.0
  0
LINE
  5
19845
330
747D
100
AcDbEntity
  8
寸法
 48
50.0
100
AcDbLine
 10
6494.351576688055
 20
7618.852399184551
 30
0.0
 11
6494.351576688055
 21
7565.188764602762
 31
0.0
  0
LINE
  5
19846
330
747D
100
AcDbEntity
  8
寸法
 48
50.0
100
AcDbLine
 10
6583.635795283476
 20
7594.928764915066
 30
0.0
 11
6494.351576688055
 21
7618.852399184551
 31
0.0
  0
LINE
  5
19847
330
747D
100
AcDbEntity
  8
寸法
 48
50.0
100
AcDbLine
 10
6364.483855107751
 20
7594.928764915066
 30
0.0
 11
6583.635795283476
 21
7594.928764915066
 31
0.0
  0
DIMENSION
  5
1985D
330
747D
100
AcDbEntity
  8
寸法
100
AcDbDimension
  2
*D33
 10
7379.108270459498
 20
7126.603823149384
 30
0.0
 11
7791.408270459498
 21
7126.603823149384
 31
0.0
 70
   160
  1
有効開口部間口\P824
 71
     5
 42
824.5999999999995
  3
INABA_S40G
100
AcDbAlignedDimension
 13
8203.708270459499
 23
7664.601167301592
 33
0.0
 14
7379.108270459498
 24
7664.601167301483
 34
0.0
100
AcDbRotatedDimension
1001
ACAD
1000
DSTYLE
1002
{
1002
}
  0
LINE
  5
1985E
330
747D
100
AcDbEntity
  8
寸法
 48
50.0
100
AcDbLine
 10
7894.48385510775
 20
7594.928764915066
 30
0.0
 11
8113.635795283476
 21
7594.928764915066
 31
0.0
  0
LINE
  5
1985F
330
747D
100
AcDbEntity
  8
寸法
 48
50.0
100
AcDbLine
 10
8113.635795283476
 20
7594.928764915066
 30
0.0
 11
8024.351576688054
 21
7618.852399184551
 31
0.0
  0
LINE
  5
19860
330
747D
100
AcDbEntity
  8
寸法
 48
50.0
100
AcDbLine
 10
8024.351576688054
 20
7618.852399184551
 30
0.0
 11
8024.351576688054
 21
7565.188764602762
 31
0.0
  0
LINE
  5
19861
330
747D
100
AcDbEntity
  8
寸法
 48
50.0
100
AcDbLine
 10
7644.464399904773
 20
7561.706808429729
 30
0.0
 11
7695.870407814876
 21
7561.706808429729
 31
0.0
  0
LINE
  5
19862
330
747D
100
AcDbEntity
  8
寸法
 48
50.0
100
AcDbLine
 10
7695.870407814876
 20
7561.706808429729
 30
0.0
 11
7695.870407814876
 21
7593.016967081895
 31
0.0
  0
LINE
  5
19863
330
747D
100
AcDbEntity
  8
寸法
 48
50.0
100
AcDbLine
 10
7695.870407814876
 20
7593.016967081895
 30
0.0
 11
7725.631739806299
 21
7593.016967081895
 31
0.0
  0
LINE
  5
19864
330
747D
100
AcDbEntity
  8
寸法
 48
50.0
100
AcDbLine
 10
7725.631739806299
 20
7593.016967081895
 30
0.0
 11
7670.167403859824
 21
7630.596418010506
 31
0.0
  0
LINE
  5
19865
330
747D
100
AcDbEntity
  8
寸法
 48
50.0
100
AcDbLine
 10
7614.70306791335
 20
7593.016967081895
 30
0.0
 11
7670.167403859824
 21
7630.596418010508
 31
0.0
  0
LINE
  5
19866
330
747D
100
AcDbEntity
  8
寸法
 48
50.0
100
AcDbLine
 10
7644.464399904773
 20
7593.016967081895
 30
0.0
 11
7614.70306791335
 21
7593.016967081895
 31
0.0
  0
LINE
  5
19867
330
747D
100
AcDbEntity
  8
寸法
 48
50.0
100
AcDbLine
 10
7644.464399904773
 20
7561.706808429729
 30
0.0
 11
7644.464399904773
 21
7593.016967081895
 31
0.0
  0
LINE
  5
19868
330
747D
100
AcDbEntity
  8
寸法
 48
50.0
100
AcDbLine
 10
7695.870407814876
 20
7561.706808429729
 30
0.0
 11
7644.464399904773
 21
7561.706808429729
 31
0.0
  0
DIMENSION
  5
19899
330
747D
100
AcDbEntity
  8
寸法
 48
50.0
100
AcDbDimension
  2
*D36
 10
4259.108270459477
 20
5229.664345702373
 30
0.0
 11
6506.248478379743
 21
5229.664345702373
 31
0.0
 70
   160
  1
柱外寸法 N x 1530
 71
     5
 42
4590.000000000003
  3
INABA_S40G
100
AcDbAlignedDimension
 13
8849.108270459481
 23
5017.12276044413
 33
0.0
 14
4259.108270459477
 24
5017.122760444135
 34
0.0
100
AcDbRotatedDimension
  0
DIMENSION
  5
1989A
330
747D
100
AcDbEntity
  8
寸法
 48
50.0
100
AcDbDimension
  2
*D35
 10
8899.108270459482
 20
5452.621324140221
 30
0.0
 11
6506.248478379743
 21
5452.621324140221
 31
0.0
 70
   160
  1
N x 1530 +100
 71
     5
 42
4690.000000000003
  3
INABA_S40G
100
AcDbAlignedDimension
 13
4209.108270459477
 23
5017.122760444134
 33
0.0
 14
8899.108270459482
 24
5017.122760444128
 34
0.0
100
AcDbRotatedDimension
  0
DIMENSION
  5
1989B
330
747D
100
AcDbEntity
  8
寸法
 48
50.0
100
AcDbDimension
  2
*D34
 10
4209.108270459477
 20
5229.664345702373
 30
0.0
 11
3895.62298908523
 21
5229.664345702373
 31
0.0
 70
   160
 71
     5
 42
50.0
  3
INABA_S40G
100
AcDbAlignedDimension
 13
4259.108270459477
 23
5017.122760444135
 33
0.0
 14
4209.108270459477
 24
5017.122760444134
 34
0.0
100
AcDbRotatedDimension
1001
ACAD
1000
DSTYLE
1002
{
1002
}
  0
LINE
  5
1989C
330
747D
100
AcDbEntity
  8
部品1
100
AcDbLine
 10
4209.527931474807
 20
5009.726235048892
 30
0.0
 11
4210.661328807156
 21
4989.750107066295
 31
0.0
  0
LINE
  5
1989D
330
747D
100
AcDbEntity
  8
部品1
100
AcDbLine
 10
4222.09834912873
 20
4894.092699899236
 30
0.0
 11
4222.743254935845
 21
4882.726235048893
 31
0.0
  0
LINE
  5
1989E
330
747D
100
AcDbEntity
  8
部品1
100
AcDbLine
 10
4213.862318603886
 20
4986.292699899237
 30
0.0
 11
4218.897359331993
 21
4897.550107066294
 31
0.0
  0
ARC
  5
1989F
330
747D
100
AcDbEntity
  8
部品1
 48
50.0
100
AcDbCircle
 10
4210.8671357077
 20
4986.122760444134
 30
0.0
 40
3.0
100
AcDbArc
 50
3.247342790337682
 51
82.34187279284483
  0
ARC
  5
198A0
330
747D
100
AcDbEntity
  8
部品1
 48
50.0
100
AcDbCircle
 10
4219.103166232544
 20
4893.922760444133
 30
0.0
 40
3.0
100
AcDbArc
 50
3.247342790337682
 51
82.34187279284483
  0
ARC
  5
198A1
330
747D
100
AcDbEntity
  8
部品1
 48
50.0
100
AcDbCircle
 10
4219.596235341105
 20
4897.589759605817
 30
0.0
 40
0.7
100
AcDbArc
 50
183.2473427902856
 51
262.3418727924247
  0
ARC
  5
198A2
330
747D
100
AcDbEntity
  8
部品1
 48
50.0
100
AcDbCircle
 10
4211.360204816268
 20
4989.789759605821
 30
0.0
 40
0.7
100
AcDbArc
 50
183.2473427903897
 51
262.3418727924247
  0
ARC
  5
198A3
330
747D
100
AcDbEntity
  8
部品1
100
AcDbCircle
 10
4229.73201502694
 20
4883.122760444134
 30
0.0
 40
7.0
100
AcDbArc
 50
183.2473427903377
 51
270.0
  0
ARC
  5
198A4
330
747D
100
AcDbEntity
  8
部品1
100
AcDbCircle
 10
4216.516691565902
 20
5010.122760444134
 30
0.0
 40
7.0
100
AcDbArc
 50
90.0
 51
183.2473427903377
  0
LINE
  5
198A5
330
747D
100
AcDbEntity
  8
細線
 48
50.0
100
AcDbLine
 10
4242.108270459477
 20
5017.122760444134
 30
0.0
 11
4242.108270459477
 21
4876.12276044413
 31
0.0
  0
LINE
  5
198A6
330
747D
100
AcDbEntity
  8
部品1
 48
50.0
100
AcDbLine
 10
8878.484525892014
 20
4876.12276044413
 30
0.0
 11
4919.443553309111
 21
4876.122760444131
 31
0.0
  0
LINE
  5
198A7
330
747D
100
AcDbEntity
  8
細線
 48
50.0
100
AcDbLine
 10
8888.713588920106
 20
4896.896003007569
 30
0.0
 11
4915.780670168293
 21
4896.896003008045
 31
0.0
  0
LINE
  5
198A8
330
747D
100
AcDbEntity
  8
部品1
 48
50.0
100
AcDbLine
 10
8891.699849353049
 20
5017.122760444116
 30
0.0
 11
4894.58144902922
 21
5017.122760444127
 31
0.0
  0
LINE
  5
198A9
330
747D
100
AcDbEntity
  8
細線
 48
50.0
100
AcDbLine
 10
8896.949619444862
 20
4989.09600300756
 30
0.0
 11
4899.523322546972
 21
4989.096003008047
 31
0.0
  0
DIMENSION
  5
198ED
330
747D
100
AcDbEntity
  8
寸法
 48
50.0
100
AcDbDimension
  2
*D37
 10
8849.108270459481
 20
5229.664345702369
 30
0.0
 11
9212.593551833718
 21
5229.664345702369
 31
0.0
 70
   160
 71
     5
 42
50.0
  3
INABA_S40G
100
AcDbAlignedDimension
 13
8899.108270459482
 23
5017.122760444128
 33
0.0
 14
8849.108270459481
 24
5017.12276044413
 34
0.0
100
AcDbRotatedDimension
  0
LINE
  5
198EE
330
747D
100
AcDbEntity
  8
部品1
100
AcDbLine
 10
8894.354222315069
 20
4986.292699899231
 30
0.0
 11
8889.319181586959
 21
4897.550107066289
 31
0.0
  0
ARC
  5
198EF
330
747D
100
AcDbEntity
  8
部品1
100
AcDbCircle
 10
8891.699849353049
 20
5010.122760444128
 30
0.0
 40
7.0
100
AcDbArc
 50
356.7526572096623
 51
90.0
  0
LINE
  5
198F0
330
747D
100
AcDbEntity
  8
細線
 48
50.0
100
AcDbLine
 10
8866.108270459482
 20
5017.122760444128
 30
0.0
 11
8866.108270459482
 21
4876.122760444128
 31
0.0
  0
LINE
  5
198F1
330
747D
100
AcDbEntity
  8
部品1
100
AcDbLine
 10
8886.118191790226
 20
4894.092699899231
 30
0.0
 11
8885.473285983113
 21
4882.726235048891
 31
0.0
  0
ARC
  5
198F2
330
747D
100
AcDbEntity
  8
部品1
 48
50.0
100
AcDbCircle
 10
8889.113374686411
 20
4893.922760444127
 30
0.0
 40
3.0
100
AcDbArc
 50
97.65812720715516
 51
176.7526572096623
  0
ARC
  5
198F3
330
747D
100
AcDbEntity
  8
部品1
 48
50.0
100
AcDbCircle
 10
8888.62030557785
 20
4897.589759605811
 30
0.0
 40
0.7
100
AcDbArc
 50
277.6581272075753
 51
356.7526572097143
  0
ARC
  5
198F4
330
747D
100
AcDbEntity
  8
部品1
100
AcDbCircle
 10
8878.484525892014
 20
4883.12276044413
 30
0.0
 40
7.0
100
AcDbArc
 50
270.0
 51
356.7526572096623
  0
LINE
  5
198F5
330
747D
100
AcDbEntity
  8
部品1
100
AcDbLine
 10
8898.688609444148
 20
5009.726235048889
 30
0.0
 11
8897.555212111802
 21
4989.750107066289
 31
0.0
  0
ARC
  5
198F6
330
747D
100
AcDbEntity
  8
部品1
 48
50.0
100
AcDbCircle
 10
8897.349405211254
 20
4986.12276044413
 30
0.0
 40
3.0
100
AcDbArc
 50
97.65812720715516
 51
176.7526572096623
  0
ARC
  5
198F7
330
747D
100
AcDbEntity
  8
部品1
 48
50.0
100
AcDbCircle
 10
8896.856336102693
 20
4989.789759605816
 30
0.0
 40
0.7
100
AcDbArc
 50
277.6581272075753
 51
356.7526572096103
  0
MTEXT
  5
1996E
330
747D
100
AcDbEntity
  8
寸法
 62
     7
 48
50.0
100
AcDbMText
 10
5370.648260172822
 20
8156.088356739898
 30
0.0
 40
96.0
 41
0.0
 71
     5
 72
     1
  1
棚 2段
  7
STYLE1
 11
0.0000000000000001
 21
1.0
 31
0.0
 73
     1
 44
1.0
1001
ACAD
1000
MTEXTBEGIN
1070
    73
1070
     1
1070
    44
1040
1.0
1070
    74
1070
     0
1000
MTEXTEND
  0
MTEXT
  5
1996F
330
747D
100
AcDbEntity
  8
寸法
 62
     7
 48
50.0
100
AcDbMText
 10
5370.648260172822
 20
9015.33835673991
 30
0.0
 40
96.0
 41
0.0
 71
     5
 72
     1
  1
棚 2段
  7
STYLE1
 11
0.0000000000000001
 21
1.0
 31
0.0
 73
     1
 44
1.0
1001
ACAD
1000
MTEXTBEGIN
1070
    73
1070
     1
1070
    44
1040
1.0
1070
    74
1070
     0
1000
MTEXTEND
  0
MTEXT
  5
19970
330
747D
100
AcDbEntity
  8
寸法
 62
     7
 48
50.0
100
AcDbMText
 10
6900.648260172824
 20
9015.33835673991
 30
0.0
 40
96.0
 41
0.0
 71
     5
 72
     1
  1
棚 2段
  7
STYLE1
 11
0.0000000000000001
 21
1.0
 31
0.0
 73
     1
 44
1.0
1001
ACAD
1000
MTEXTBEGIN
1070
    73
1070
     1
1070
    44
1040
1.0
1070
    74
1070
     0
1000
MTEXTEND
  0
MTEXT
  5
19971
330
747D
100
AcDbEntity
  8
寸法
 62
     7
 48
50.0
100
AcDbMText
 10
6900.648260172824
 20
8156.088356739898
 30
0.0
 40
96.0
 41
0.0
 71
     5
 72
     1
  1
棚 2段
  7
STYLE1
 11
0.0000000000000001
 21
1.0
 31
0.0
 73
     1
 44
1.0
1001
ACAD
1000
MTEXTBEGIN
1070
    73
1070
     1
1070
    44
1040
1.0
1070
    74
1070
     0
1000
MTEXTEND
  0
MTEXT
  5
19972
330
747D
100
AcDbEntity
  8
寸法
 62
     7
 48
50.0
100
AcDbMText
 10
8430.648260172823
 20
9015.33835673991
 30
0.0
 40
96.0
 41
0.0
 71
     5
 72
     1
  1
棚 2段
  7
STYLE1
 11
0.0000000000000001
 21
1.0
 31
0.0
 73
     1
 44
1.0
1001
ACAD
1000
MTEXTBEGIN
1070
    73
1070
     1
1070
    44
1040
1.0
1070
    74
1070
     0
1000
MTEXTEND
  0
MTEXT
  5
19973
330
747D
100
AcDbEntity
  8
寸法
 62
     7
 48
50.0
100
AcDbMText
 10
8430.648260172823
 20
8156.088356739898
 30
0.0
 40
96.0
 41
0.0
 71
     5
 72
     1
  1
棚 2段
  7
STYLE1
 11
0.0000000000000001
 21
1.0
 31
0.0
 73
     1
 44
1.0
1001
ACAD
1000
MTEXTBEGIN
1070
    73
1070
     1
1070
    44
1040
1.0
1070
    74
1070
     0
1000
MTEXTEND
  0
LINE
  5
19986
330
747D
100
AcDbEntity
  8
部品1
 48
50.0
100
AcDbLine
 10
4864.118650672647
 20
5017.122760444128
 30
0.0
 11
4216.516691565902
 21
5017.12276044413
 31
0.0
  0
LINE
  5
19987
330
747D
100
AcDbEntity
  8
細線
 48
50.0
100
AcDbLine
 10
4869.0605241904
 20
4989.09600300805
 30
0.0
 11
4211.266921469895
 21
4989.096003008129
 31
0.0
  0
LINE
  5
19988
330
747D
100
AcDbEntity
  8
細線
 48
50.0
100
AcDbLine
 10
4885.31787181172
 20
4896.896003008048
 30
0.0
 11
4219.502951994724
 21
4896.896003008129
 31
0.0
  0
LINE
  5
19989
330
747D
100
AcDbEntity
  8
部品1
 48
50.0
100
AcDbLine
 10
4888.980754952541
 20
4876.12276044413
 30
0.0
 11
4229.73201502694
 21
4876.12276044413
 31
0.0
  0
LINE
  5
1998A
330
747D
100
AcDbEntity
  8
部品1
100
AcDbLine
 10
4887.408270459477
 20
4774.122760444128
 30
0.0
 11
4887.408270459477
 21
3950.105819935283
 31
0.0
  0
LINE
  5
1998B
330
747D
100
AcDbEntity
  8
細線
100
AcDbLine
 10
4787.408270459477
 20
4774.122760444128
 30
0.0
 11
4787.408270459477
 21
3903.475054119783
 31
0.0
  0
LINE
  5
1998C
330
747D
100
AcDbEntity
  8
細線
100
AcDbLine
 10
4717.408270459476
 20
4774.122760444128
 30
0.0
 11
4717.408270459476
 21
2991.122760444134
 31
0.0
  0
LINE
  5
1998D
330
747D
100
AcDbEntity
  8
細線
100
AcDbLine
 10
4647.408270459476
 20
4774.122760444128
 30
0.0
 11
4647.408270459476
 21
2991.122760444134
 31
0.0
  0
LINE
  5
1998E
330
747D
100
AcDbEntity
  8
細線
100
AcDbLine
 10
4577.408270459477
 20
4774.122760444128
 30
0.0
 11
4577.408270459477
 21
2991.122760444132
 31
0.0
  0
LINE
  5
1998F
330
747D
100
AcDbEntity
  8
部品1
100
AcDbLine
 10
4480.108270459477
 20
4774.12276044413
 30
0.0
 11
4480.108270459477
 21
2991.122760444132
 31
0.0
  0
LINE
  5
19990
330
747D
100
AcDbEntity
  8
部品1
100
AcDbLine
 10
4430.108270459477
 20
4774.12276044413
 30
0.0
 11
4430.108270459477
 21
2991.122760444132
 31
0.0
  0
LINE
  5
19991
330
747D
100
AcDbEntity
  8
細線
100
AcDbLine
 10
4472.108270459477
 20
4774.12276044413
 30
0.0
 11
4472.108270459477
 21
2991.122760444132
 31
0.0
  0
LINE
  5
19992
330
747D
100
AcDbEntity
  8
細線
100
AcDbLine
 10
4438.108270459477
 20
4774.12276044413
 30
0.0
 11
4438.108270459477
 21
2991.122760444132
 31
0.0
  0
LINE
  5
19996
330
747D
100
AcDbEntity
  8
部品1
 48
50.0
100
AcDbLine
 10
4354.108270459477
 20
3947.622760444138
 30
0.0
 11
4407.108270459477
 21
3947.622760444138
 31
0.0
  0
LINE
  5
199B0
330
747D
100
AcDbEntity
  8
細線
100
AcDbLine
 10
4975.558270459478
 20
4774.122760444128
 30
0.0
 11
4975.558270459478
 21
4557.880385256271
 31
0.0
  0
LINE
  5
199B1
330
747D
100
AcDbEntity
  8
細線
100
AcDbLine
 10
5045.558270459478
 20
4774.122760444128
 30
0.0
 11
5045.558270459478
 21
4160.890657883032
 31
0.0
  0
LINE
  5
199B2
330
747D
100
AcDbEntity
  8
細線
100
AcDbLine
 10
5115.558270459478
 20
4774.122760444128
 30
0.0
 11
5115.558270459477
 21
4144.615895198914
 31
0.0
  0
LINE
  5
199B3
330
747D
100
AcDbEntity
  8
細線
100
AcDbLine
 10
5185.558270459478
 20
4774.122760444128
 30
0.0
 11
5185.558270459478
 21
4138.491688752099
 31
0.0
  0
LINE
  5
199B4
330
747D
100
AcDbEntity
  8
部品1
100
AcDbLine
 10
5314.708270459476
 20
4774.122760444128
 30
0.0
 11
5314.708270459476
 21
2998.622760444138
 31
0.0
  0
LINE
  5
199B5
330
747D
100
AcDbEntity
  8
細線
100
AcDbLine
 10
5615.408270459477
 20
4774.12276044413
 30
0.0
 11
5615.408270459477
 21
2998.622760444143
 31
0.0
  0
LINE
  5
199B6
330
747D
100
AcDbEntity
  8
細線
100
AcDbLine
 10
5545.408270459477
 20
4774.12276044413
 30
0.0
 11
5545.408270459477
 21
2998.622760444143
 31
0.0
  0
LINE
  5
199B7
330
747D
100
AcDbEntity
  8
細線
100
AcDbLine
 10
5475.408270459476
 20
4774.12276044413
 30
0.0
 11
5475.408270459476
 21
2998.622760444143
 31
0.0
  0
LINE
  5
199B8
330
747D
100
AcDbEntity
  8
細線
100
AcDbLine
 10
5405.408270459477
 20
4774.12276044413
 30
0.0
 11
5405.408270459477
 21
2998.622760444143
 31
0.0
  0
LINE
  5
199B9
330
747D
100
AcDbEntity
  8
部品1
100
AcDbLine
 10
4887.408270459477
 20
2998.622760444136
 30
0.0
 11
5220.034661232681
 21
2998.622760444139
 31
0.0
  0
LINE
  5
199BA
330
747D
100
AcDbEntity
  8
部品1
100
AcDbLine
 10
4319.108270459477
 20
2991.12276044413
 30
0.0
 11
4887.408270459477
 21
2991.122760444136
 31
0.0
  0
LINE
  5
199BB
330
747D
100
AcDbEntity
  8
細線
100
AcDbLine
 10
4319.108270459477
 20
4774.12276044413
 30
0.0
 11
4906.966106984802
 21
4774.12276044413
 31
0.0
  0
LINE
  5
199BC
330
747D
100
AcDbEntity
  8
部品1
100
AcDbLine
 10
6417.408270459477
 20
4774.122760444128
 30
0.0
 11
6417.408270459477
 21
2991.122760444136
 31
0.0
  0
LINE
  5
199BD
330
747D
100
AcDbEntity
  8
細線
100
AcDbLine
 10
6317.408270459477
 20
4774.122760444128
 30
0.0
 11
6317.408270459477
 21
2991.122760444134
 31
0.0
  0
LINE
  5
199BE
330
747D
100
AcDbEntity
  8
細線
100
AcDbLine
 10
6247.408270459477
 20
4774.122760444128
 30
0.0
 11
6247.408270459477
 21
2991.122760444134
 31
0.0
  0
LINE
  5
199BF
330
747D
100
AcDbEntity
  8
細線
100
AcDbLine
 10
6177.408270459476
 20
4774.122760444128
 30
0.0
 11
6177.408270459476
 21
2991.122760444134
 31
0.0
  0
LINE
  5
199C0
330
747D
100
AcDbEntity
  8
細線
100
AcDbLine
 10
6107.408270459476
 20
4774.122760444128
 30
0.0
 11
6107.408270459476
 21
2991.122760444132
 31
0.0
  0
LINE
  5
199C1
330
747D
100
AcDbEntity
  8
部品1
100
AcDbLine
 10
6010.108270459477
 20
4774.12276044413
 30
0.0
 11
6010.108270459477
 21
2991.122760444132
 31
0.0
  0
LINE
  5
199C2
330
747D
100
AcDbEntity
  8
部品1
100
AcDbLine
 10
5960.108270459477
 20
4774.12276044413
 30
0.0
 11
5960.108270459477
 21
2991.122760444132
 31
0.0
  0
LINE
  5
199C3
330
747D
100
AcDbEntity
  8
細線
100
AcDbLine
 10
6002.108270459477
 20
4774.12276044413
 30
0.0
 11
6002.108270459477
 21
2991.122760444132
 31
0.0
  0
LINE
  5
199C4
330
747D
100
AcDbEntity
  8
細線
100
AcDbLine
 10
5968.108270459477
 20
4774.12276044413
 30
0.0
 11
5968.108270459477
 21
2991.122760444132
 31
0.0
  0
LINE
  5
199C8
330
747D
100
AcDbEntity
  8
部品1
 48
50.0
100
AcDbLine
 10
5884.108270459478
 20
3947.622760444138
 30
0.0
 11
5937.108270459478
 21
3947.622760444138
 31
0.0
  0
LINE
  5
199E2
330
747D
100
AcDbEntity
  8
細線
100
AcDbLine
 10
6505.558270459478
 20
4774.122760444128
 30
0.0
 11
6505.558270459478
 21
2998.622760444138
 31
0.0
  0
LINE
  5
199E3
330
747D
100
AcDbEntity
  8
細線
100
AcDbLine
 10
6575.558270459478
 20
4774.122760444128
 30
0.0
 11
6575.558270459478
 21
2998.622760444138
 31
0.0
  0
LINE
  5
199E4
330
747D
100
AcDbEntity
  8
細線
100
AcDbLine
 10
6645.558270459478
 20
4774.122760444128
 30
0.0
 11
6645.558270459478
 21
2998.622760444138
 31
0.0
  0
LINE
  5
199E5
330
747D
100
AcDbEntity
  8
細線
100
AcDbLine
 10
6715.558270459478
 20
4774.122760444128
 30
0.0
 11
6715.558270459478
 21
2998.622760444138
 31
0.0
  0
LINE
  5
199E6
330
747D
100
AcDbEntity
  8
部品1
100
AcDbLine
 10
6844.708270459476
 20
4774.122760444128
 30
0.0
 11
6844.708270459476
 21
2998.622760444138
 31
0.0
  0
LINE
  5
199E7
330
747D
100
AcDbEntity
  8
細線
100
AcDbLine
 10
7145.408270459476
 20
4774.12276044413
 30
0.0
 11
7145.408270459476
 21
2998.622760444143
 31
0.0
  0
LINE
  5
199E8
330
747D
100
AcDbEntity
  8
細線
100
AcDbLine
 10
7075.408270459476
 20
4774.12276044413
 30
0.0
 11
7075.408270459476
 21
2998.622760444143
 31
0.0
  0
LINE
  5
199E9
330
747D
100
AcDbEntity
  8
細線
100
AcDbLine
 10
7005.408270459476
 20
4774.12276044413
 30
0.0
 11
7005.408270459476
 21
2998.622760444143
 31
0.0
  0
LINE
  5
199EA
330
747D
100
AcDbEntity
  8
細線
100
AcDbLine
 10
6935.408270459477
 20
4774.12276044413
 30
0.0
 11
6935.408270459477
 21
2998.622760444143
 31
0.0
  0
LINE
  5
199EB
330
747D
100
AcDbEntity
  8
部品1
100
AcDbLine
 10
5849.108270459478
 20
2991.12276044413
 30
0.0
 11
6417.408270459477
 21
2991.122760444136
 31
0.0
  0
LINE
  5
199EC
330
747D
100
AcDbEntity
  8
部品1
100
AcDbLine
 10
6417.408270459477
 20
2998.622760444136
 30
0.0
 11
7259.108270459477
 21
2998.622760444145
 31
0.0
  0
LINE
  5
199ED
330
747D
100
AcDbEntity
  8
細線
100
AcDbLine
 10
5849.108270459478
 20
4774.12276044413
 30
0.0
 11
7259.108270459477
 21
4774.12276044413
 31
0.0
  0
LINE
  5
199EE
330
747D
100
AcDbEntity
  8
部品1
100
AcDbLine
 10
7947.408270459476
 20
4774.122760444128
 30
0.0
 11
7947.408270459476
 21
2991.122760444136
 31
0.0
  0
LINE
  5
199EF
330
747D
100
AcDbEntity
  8
細線
100
AcDbLine
 10
7847.408270459476
 20
4774.122760444128
 30
0.0
 11
7847.408270459476
 21
2991.122760444134
 31
0.0
  0
LINE
  5
199F0
330
747D
100
AcDbEntity
  8
細線
100
AcDbLine
 10
7777.408270459476
 20
4774.122760444128
 30
0.0
 11
7777.408270459476
 21
2991.122760444134
 31
0.0
  0
LINE
  5
199F1
330
747D
100
AcDbEntity
  8
細線
100
AcDbLine
 10
7707.408270459477
 20
4774.122760444128
 30
0.0
 11
7707.408270459477
 21
2991.122760444134
 31
0.0
  0
LINE
  5
199F2
330
747D
100
AcDbEntity
  8
細線
100
AcDbLine
 10
7637.408270459477
 20
4774.122760444128
 30
0.0
 11
7637.408270459477
 21
2991.122760444132
 31
0.0
  0
LINE
  5
199F3
330
747D
100
AcDbEntity
  8
部品1
100
AcDbLine
 10
7540.108270459477
 20
4774.12276044413
 30
0.0
 11
7540.108270459477
 21
2991.122760444132
 31
0.0
  0
LINE
  5
199F4
330
747D
100
AcDbEntity
  8
部品1
100
AcDbLine
 10
7490.108270459477
 20
4774.12276044413
 30
0.0
 11
7490.108270459477
 21
2991.122760444132
 31
0.0
  0
LINE
  5
199F5
330
747D
100
AcDbEntity
  8
細線
100
AcDbLine
 10
7532.108270459477
 20
4774.12276044413
 30
0.0
 11
7532.108270459477
 21
2991.122760444132
 31
0.0
  0
LINE
  5
199F6
330
747D
100
AcDbEntity
  8
細線
100
AcDbLine
 10
7498.108270459477
 20
4774.12276044413
 30
0.0
 11
7498.108270459477
 21
2991.122760444132
 31
0.0
  0
LINE
  5
199FA
330
747D
100
AcDbEntity
  8
部品1
 48
50.0
100
AcDbLine
 10
7414.108270459478
 20
3947.622760444138
 30
0.0
 11
7467.108270459478
 21
3947.622760444138
 31
0.0
  0
LINE
  5
19A14
330
747D
100
AcDbEntity
  8
細線
100
AcDbLine
 10
8035.558270459478
 20
4774.122760444128
 30
0.0
 11
8035.558270459478
 21
2998.622760444138
 31
0.0
  0
LINE
  5
19A15
330
747D
100
AcDbEntity
  8
細線
100
AcDbLine
 10
8105.558270459479
 20
4774.122760444128
 30
0.0
 11
8105.558270459479
 21
2998.622760444138
 31
0.0
  0
LINE
  5
19A16
330
747D
100
AcDbEntity
  8
細線
100
AcDbLine
 10
8175.558270459479
 20
4774.122760444128
 30
0.0
 11
8175.558270459479
 21
2998.622760444138
 31
0.0
  0
LINE
  5
19A17
330
747D
100
AcDbEntity
  8
細線
100
AcDbLine
 10
8245.558270459479
 20
4774.122760444128
 30
0.0
 11
8245.558270459479
 21
2998.622760444138
 31
0.0
  0
LINE
  5
19A18
330
747D
100
AcDbEntity
  8
部品1
100
AcDbLine
 10
8374.708270459477
 20
4774.122760444128
 30
0.0
 11
8374.708270459477
 21
2998.622760444138
 31
0.0
  0
LINE
  5
19A19
330
747D
100
AcDbEntity
  8
細線
100
AcDbLine
 10
8675.408270459476
 20
4774.12276044413
 30
0.0
 11
8675.408270459476
 21
2998.622760444143
 31
0.0
  0
LINE
  5
19A1A
330
747D
100
AcDbEntity
  8
細線
100
AcDbLine
 10
8605.408270459475
 20
4774.12276044413
 30
0.0
 11
8605.408270459475
 21
2998.622760444143
 31
0.0
  0
LINE
  5
19A1B
330
747D
100
AcDbEntity
  8
細線
100
AcDbLine
 10
8535.408270459477
 20
4774.12276044413
 30
0.0
 11
8535.408270459477
 21
2998.622760444143
 31
0.0
  0
LINE
  5
19A1C
330
747D
100
AcDbEntity
  8
細線
100
AcDbLine
 10
8465.408270459477
 20
4774.12276044413
 30
0.0
 11
8465.408270459477
 21
2998.622760444143
 31
0.0
  0
LINE
  5
19A1D
330
747D
100
AcDbEntity
  8
部品1
100
AcDbLine
 10
7947.408270459476
 20
2998.622760444136
 30
0.0
 11
8789.108270459477
 21
2998.622760444145
 31
0.0
  0
LINE
  5
19A1E
330
747D
100
AcDbEntity
  8
部品1
100
AcDbLine
 10
7379.108270459477
 20
2991.12276044413
 30
0.0
 11
7947.408270459476
 21
2991.122760444136
 31
0.0
  0
LINE
  5
19A1F
330
747D
100
AcDbEntity
  8
細線
100
AcDbLine
 10
7379.108270459477
 20
4774.12276044413
 30
0.0
 11
8789.108270459477
 21
4774.12276044413
 31
0.0
  0
LINE
  5
19BD5
330
747D
100
AcDbEntity
  8
細線
100
AcDbLine
 10
4937.428905341376
 20
4774.12276044413
 30
0.0
 11
5729.108270459477
 21
4774.12276044413
 31
0.0
  0
LINE
  5
19BD6
330
747D
100
AcDbEntity
  8
細線
100
AcDbLine
 10
4975.55827045948
 20
4385.117270761961
 30
0.0
 11
4975.55827045948
 21
3991.210840001648
 31
0.0
  0
LINE
  5
19BD7
330
747D
100
AcDbEntity
  8
細線
100
AcDbLine
 10
5045.558270459478
 20
4120.625506519429
 30
0.0
 11
5045.558270459477
 21
4023.852376072496
 31
0.0
  0
LINE
  5
19BD8
330
747D
100
AcDbEntity
  8
細線
100
AcDbLine
 10
5115.558270459478
 20
4114.501300072613
 30
0.0
 11
5115.558270459479
 21
4056.493912143346
 31
0.0
  0
LINE
  5
19BD9
330
747D
100
AcDbEntity
  8
細線
100
AcDbLine
 10
5185.558270459477
 20
4108.377093625799
 30
0.0
 11
5185.558270459475
 21
4089.135448214194
 31
0.0
  0
LINE
  5
19BDA
330
747D
100
AcDbEntity
  8
細線
100
AcDbLine
 10
5185.558270459477
 20
4056.034110645319
 30
0.0
 11
5185.558270459477
 21
3366.91120313656
 31
0.0
  0
LINE
  5
19BDB
330
747D
100
AcDbEntity
  8
細線
100
AcDbLine
 10
5115.558270459478
 20
4023.39257457447
 30
0.0
 11
5115.558270459478
 21
3763.900930509795
 31
0.0
  0
LINE
  5
19BDC
330
747D
100
AcDbEntity
  8
細線
100
AcDbLine
 10
5045.558270459478
 20
3990.751038503621
 30
0.0
 11
5045.558270459478
 21
3906.106189806575
 31
0.0
  0
LINE
  5
19BDD
330
747D
100
AcDbEntity
  8
細線
100
AcDbLine
 10
4975.55827045948
 20
3958.109502432772
 30
0.0
 11
4975.55827045948
 21
3912.23039625339
 31
0.0
  0
LINE
  5
19BDE
330
747D
100
AcDbEntity
  8
部品1
100
AcDbLine
 10
4887.408270459475
 20
3889.8279268169
 30
0.0
 11
4887.408270459477
 21
2991.122760444136
 31
0.0
  0
LINE
  5
19BDF
330
747D
100
AcDbEntity
  8
細線
100
AcDbLine
 10
4975.55827045948
 20
3882.115801127089
 30
0.0
 11
4975.558270459478
 21
2998.622760444138
 31
0.0
  0
LINE
  5
19BE0
330
747D
100
AcDbEntity
  8
細線
100
AcDbLine
 10
5045.558270459478
 20
3875.991594680276
 30
0.0
 11
5045.558270459478
 21
2998.622760444138
 31
0.0
  0
LINE
  5
19BE1
330
747D
100
AcDbEntity
  8
細線
100
AcDbLine
 10
5115.558270459478
 20
3591.137816015483
 30
0.0
 11
5115.558270459478
 21
2998.622760444138
 31
0.0
  0
LINE
  5
19BE2
330
747D
100
AcDbEntity
  8
細線
100
AcDbLine
 10
4787.408270459477
 20
3898.576793169494
 30
0.0
 11
4787.408270459477
 21
2991.122760444134
 31
0.0
  0
LINE
  5
19BE3
330
747D
100
AcDbEntity
  8
細線
100
AcDbLine
 10
5185.558270459478
 20
3194.148088642243
 30
0.0
 11
5185.558270459478
 21
2998.622760444138
 31
0.0
  0
LINE
  5
19BE4
330
747D
100
AcDbEntity
  8
部品1
100
AcDbLine
 10
5250.497459589253
 20
2998.62276044414
 30
0.0
 11
5729.108270459477
 21
2998.622760444145
 31
0.0
  0
LINE
  5
19BE5
330
747D
100
AcDbEntity
  8
細線
 48
50.0
100
AcDbLine
 10
5252.929927600265
 20
7680.601167301613
 30
0.0
 11
4887.40827045949
 21
7680.601167301611
 31
0.0
  0
LINE
  5
19BE6
330
747D
100
AcDbEntity
  8
細線
100
AcDbLine
 10
5249.227061005386
 20
7701.601167301612
 30
0.0
 11
5185.55827045947
 21
7701.601167301612
 31
0.0
  0
LINE
  5
19BE7
330
747D
100
AcDbEntity
  8
細線
100
AcDbLine
 10
5245.171540449092
 20
7724.601167301614
 30
0.0
 11
4861.408270459486
 21
7724.601167301617
 31
0.0
  0
LINE
  5
19BE8
330
747D
100
AcDbEntity
  8
補助
  6
PHANTOM
 62
   230
 48
50.0
100
AcDbLine
 10
140.0
 20
0.0
 30
0.0
 11
139.9999999999995
 21
11409.6
 31
0.0
  0
ARC
  5
1A2C7
330
747D
100
AcDbEntity
  8
部品1
 48
0.01
100
AcDbCircle
 10
5326.108270459478
 20
4814.622760444127
 30
0.0
 40
2.0
100
AcDbArc
 50
180.0
 51
270.0
  0
ARC
  5
1A2C8
330
747D
100
AcDbEntity
  8
部品1
 48
0.01
100
AcDbCircle
 10
5326.108270459478
 20
4846.122760444126
 30
0.0
 40
2.0
100
AcDbArc
 50
90.0
 51
180.0
  0
ARC
  5
1A2C9
330
747D
100
AcDbEntity
  8
部品1
 48
0.01
100
AcDbCircle
 10
5502.108270459477
 20
4814.622760444127
 30
0.0
 40
2.0
100
AcDbArc
 50
270.0
 51
0.0
  0
ARC
  5
1A2CA
330
747D
100
AcDbEntity
  8
部品1
 48
0.01
100
AcDbCircle
 10
5502.108270459477
 20
4846.122760444126
 30
0.0
 40
2.0
100
AcDbArc
 50
0.0
 51
90.0
  0
LINE
  5
1A2CB
330
747D
100
AcDbEntity
  8
細線
100
AcDbLine
 10
5414.108270459477
 20
4818.622760444126
 30
0.0
 11
5340.108270459477
 21
4818.622760444126
 31
0.0
  0
LINE
  5
1A2CC
330
747D
100
AcDbEntity
  8
細線
100
AcDbLine
 10
5414.108270459477
 20
4841.622760444127
 30
0.0
 11
5488.108270459477
 21
4841.622760444127
 31
0.0
  0
LINE
  5
1A2CD
330
747D
100
AcDbEntity
  8
細線
100
AcDbLine
 10
5488.108270459477
 20
4818.622760444126
 30
0.0
 11
5414.108270459477
 21
4818.622760444126
 31
0.0
  0
LINE
  5
1A2CE
330
747D
100
AcDbEntity
  8
細線
100
AcDbLine
 10
5340.108270459477
 20
4841.622760444127
 30
0.0
 11
5414.108270459477
 21
4841.622760444127
 31
0.0
  0
LINE
  5
1A2CF
330
747D
100
AcDbEntity
  8
細線
100
AcDbLine
 10
5340.108270459477
 20
4818.622760444126
 30
0.0
 11
5340.108270459477
 21
4841.622760444127
 31
0.0
  0
LINE
  5
1A2D0
330
747D
100
AcDbEntity
  8
細線
100
AcDbLine
 10
5488.108270459477
 20
4841.622760444127
 30
0.0
 11
5488.108270459477
 21
4818.622760444126
 31
0.0
  0
LINE
  5
1A2D1
330
747D
100
AcDbEntity
  8
部品1
 48
0.01
100
AcDbLine
 10
5324.108270459477
 20
4814.622760444127
 30
0.0
 11
5324.108270459477
 21
4846.122760444126
 31
0.0
  0
LINE
  5
1A2D2
330
747D
100
AcDbEntity
  8
部品1
 48
0.01
100
AcDbLine
 10
5502.108270459477
 20
4812.622760444127
 30
0.0
 11
5326.108270459478
 21
4812.622760444127
 31
0.0
  0
LINE
  5
1A2D3
330
747D
100
AcDbEntity
  8
部品1
 48
0.01
100
AcDbLine
 10
5504.108270459477
 20
4846.122760444126
 30
0.0
 11
5504.108270459477
 21
4814.622760444127
 31
0.0
  0
LINE
  5
1A2D4
330
747D
100
AcDbEntity
  8
部品1
 48
0.01
100
AcDbLine
 10
5326.108270459478
 20
4848.122760444127
 30
0.0
 11
5502.108270459477
 21
4848.122760444127
 31
0.0
  0
LINE
  5
1A2D5
330
747D
100
AcDbEntity
  8
細線
100
AcDbLine
 10
5488.108270459477
 20
4835.622760444127
 30
0.0
 11
5414.108270459477
 21
4835.622760444127
 31
0.0
  0
LINE
  5
1A2D6
330
747D
100
AcDbEntity
  8
細線
100
AcDbLine
 10
5488.108270459477
 20
4829.622760444126
 30
0.0
 11
5414.108270459477
 21
4829.622760444126
 31
0.0
  0
LINE
  5
1A2D7
330
747D
100
AcDbEntity
  8
細線
100
AcDbLine
 10
5488.108270459477
 20
4823.622760444127
 30
0.0
 11
5414.108270459477
 21
4823.622760444127
 31
0.0
  0
LINE
  5
1A2D8
330
747D
100
AcDbEntity
  8
細線
100
AcDbLine
 10
5488.108270459477
 20
4835.622760444127
 30
0.0
 11
5419.108270459478
 21
4835.622760444127
 31
0.0
  0
LINE
  5
1A2D9
330
747D
100
AcDbEntity
  8
細線
100
AcDbLine
 10
5340.108270459477
 20
4835.622760444127
 30
0.0
 11
5414.108270459477
 21
4835.622760444127
 31
0.0
  0
LINE
  5
1A2DA
330
747D
100
AcDbEntity
  8
細線
100
AcDbLine
 10
5340.108270459477
 20
4823.622760444127
 30
0.0
 11
5414.108270459477
 21
4823.622760444127
 31
0.0
  0
LINE
  5
1A2DB
330
747D
100
AcDbEntity
  8
細線
100
AcDbLine
 10
5340.108270459477
 20
4829.622760444126
 30
0.0
 11
5414.108270459477
 21
4829.622760444126
 31
0.0
  0
LINE
  5
1A2DC
330
747D
100
AcDbEntity
  8
細線
100
AcDbLine
 10
5414.108270459477
 20
4841.622760444127
 30
0.0
 11
5414.108270459477
 21
4818.622760444126
 31
0.0
  0
LINE
  5
1A2DD
330
747D
100
AcDbEntity
  8
細線
100
AcDbLine
 10
4634.108270459477
 20
4841.622760444127
 30
0.0
 11
4634.108270459477
 21
4818.622760444126
 31
0.0
  0
LINE
  5
1A2DE
330
747D
100
AcDbEntity
  8
細線
100
AcDbLine
 10
4708.108270459478
 20
4829.622760444126
 30
0.0
 11
4634.108270459477
 21
4829.622760444126
 31
0.0
  0
LINE
  5
1A2DF
330
747D
100
AcDbEntity
  8
細線
100
AcDbLine
 10
4708.108270459478
 20
4823.622760444124
 30
0.0
 11
4634.108270459477
 21
4823.622760444127
 31
0.0
  0
LINE
  5
1A2E0
330
747D
100
AcDbEntity
  8
細線
100
AcDbLine
 10
4708.108270459478
 20
4835.622760444124
 30
0.0
 11
4634.108270459477
 21
4835.622760444127
 31
0.0
  0
LINE
  5
1A2E1
330
747D
100
AcDbEntity
  8
細線
100
AcDbLine
 10
4560.108270459477
 20
4835.622760444127
 30
0.0
 11
4629.108270459477
 21
4835.622760444127
 31
0.0
  0
LINE
  5
1A2E2
330
747D
100
AcDbEntity
  8
細線
100
AcDbLine
 10
4560.108270459477
 20
4823.622760444127
 30
0.0
 11
4634.108270459477
 21
4823.622760444127
 31
0.0
  0
LINE
  5
1A2E3
330
747D
100
AcDbEntity
  8
細線
100
AcDbLine
 10
4560.108270459477
 20
4829.622760444126
 30
0.0
 11
4634.108270459477
 21
4829.622760444126
 31
0.0
  0
LINE
  5
1A2E4
330
747D
100
AcDbEntity
  8
細線
100
AcDbLine
 10
4560.108270459477
 20
4835.622760444127
 30
0.0
 11
4634.108270459477
 21
4835.622760444127
 31
0.0
  0
LINE
  5
1A2E5
330
747D
100
AcDbEntity
  8
部品1
 48
0.01
100
AcDbLine
 10
4722.108270459477
 20
4848.122760444127
 30
0.0
 11
4546.108270459477
 21
4848.122760444127
 31
0.0
  0
LINE
  5
1A2E6
330
747D
100
AcDbEntity
  8
部品1
 48
0.01
100
AcDbLine
 10
4544.108270459477
 20
4846.122760444126
 30
0.0
 11
4544.108270459477
 21
4814.622760444127
 31
0.0
  0
LINE
  5
1A2E7
330
747D
100
AcDbEntity
  8
部品1
 48
0.01
100
AcDbLine
 10
4546.108270459477
 20
4812.622760444127
 30
0.0
 11
4722.108270459477
 21
4812.622760444127
 31
0.0
  0
LINE
  5
1A2E8
330
747D
100
AcDbEntity
  8
部品1
 48
0.01
100
AcDbLine
 10
4724.108270459477
 20
4814.622760444127
 30
0.0
 11
4724.108270459477
 21
4846.122760444126
 31
0.0
  0
LINE
  5
1A2E9
330
747D
100
AcDbEntity
  8
細線
100
AcDbLine
 10
4560.108270459477
 20
4841.622760444127
 30
0.0
 11
4560.108270459477
 21
4818.622760444126
 31
0.0
  0
LINE
  5
1A2EA
330
747D
100
AcDbEntity
  8
細線
100
AcDbLine
 10
4708.108270459478
 20
4818.622760444126
 30
0.0
 11
4708.108270459478
 21
4841.622760444127
 31
0.0
  0
LINE
  5
1A2EB
330
747D
100
AcDbEntity
  8
細線
100
AcDbLine
 10
4708.108270459478
 20
4841.622760444127
 30
0.0
 11
4634.108270459477
 21
4841.622760444127
 31
0.0
  0
LINE
  5
1A2EC
330
747D
100
AcDbEntity
  8
細線
100
AcDbLine
 10
4560.108270459477
 20
4818.622760444126
 30
0.0
 11
4634.108270459477
 21
4818.622760444126
 31
0.0
  0
LINE
  5
1A2ED
330
747D
100
AcDbEntity
  8
細線
100
AcDbLine
 10
4634.108270459477
 20
4841.622760444127
 30
0.0
 11
4560.108270459477
 21
4841.622760444127
 31
0.0
  0
LINE
  5
1A2EE
330
747D
100
AcDbEntity
  8
細線
100
AcDbLine
 10
4634.108270459477
 20
4818.622760444126
 30
0.0
 11
4708.108270459478
 21
4818.622760444126
 31
0.0
  0
ARC
  5
1A2EF
330
747D
100
AcDbEntity
  8
部品1
 48
0.01
100
AcDbCircle
 10
4546.108270459477
 20
4846.122760444126
 30
0.0
 40
2.0
100
AcDbArc
 50
90.0
 51
180.0
  0
ARC
  5
1A2F0
330
747D
100
AcDbEntity
  8
部品1
 48
0.01
100
AcDbCircle
 10
4546.108270459477
 20
4814.622760444127
 30
0.0
 40
2.0
100
AcDbArc
 50
180.0
 51
270.0
  0
ARC
  5
1A2F1
330
747D
100
AcDbEntity
  8
部品1
 48
0.01
100
AcDbCircle
 10
4722.108270459477
 20
4846.122760444126
 30
0.0
 40
2.0
100
AcDbArc
 50
0.0
 51
90.0
  0
ARC
  5
1A2F2
330
747D
100
AcDbEntity
  8
部品1
 48
0.01
100
AcDbCircle
 10
4722.108270459477
 20
4814.622760444127
 30
0.0
 40
2.0
100
AcDbArc
 50
270.0
 51
0.0
  0
ARC
  5
1A2F3
330
747D
100
AcDbEntity
  8
部品1
 48
0.01
100
AcDbCircle
 10
6252.108270459475
 20
4814.622760444127
 30
0.0
 40
2.0
100
AcDbArc
 50
270.0
 51
0.0
  0
ARC
  5
1A2F4
330
747D
100
AcDbEntity
  8
部品1
 48
0.01
100
AcDbCircle
 10
6252.108270459475
 20
4846.122760444126
 30
0.0
 40
2.0
100
AcDbArc
 50
0.0
 51
90.0
  0
ARC
  5
1A2F5
330
747D
100
AcDbEntity
  8
部品1
 48
0.01
100
AcDbCircle
 10
6076.108270459475
 20
4814.622760444127
 30
0.0
 40
2.0
100
AcDbArc
 50
180.0
 51
270.0
  0
ARC
  5
1A2F6
330
747D
100
AcDbEntity
  8
部品1
 48
0.01
100
AcDbCircle
 10
6076.108270459475
 20
4846.122760444126
 30
0.0
 40
2.0
100
AcDbArc
 50
90.0
 51
180.0
  0
LINE
  5
1A2F7
330
747D
100
AcDbEntity
  8
細線
100
AcDbLine
 10
6164.108270459475
 20
4818.622760444126
 30
0.0
 11
6238.108270459475
 21
4818.622760444126
 31
0.0
  0
LINE
  5
1A2F8
330
747D
100
AcDbEntity
  8
細線
100
AcDbLine
 10
6164.108270459475
 20
4841.622760444127
 30
0.0
 11
6090.108270459476
 21
4841.622760444127
 31
0.0
  0
LINE
  5
1A2F9
330
747D
100
AcDbEntity
  8
細線
100
AcDbLine
 10
6090.108270459476
 20
4818.622760444126
 30
0.0
 11
6164.108270459475
 21
4818.622760444126
 31
0.0
  0
LINE
  5
1A2FA
330
747D
100
AcDbEntity
  8
細線
100
AcDbLine
 10
6238.108270459475
 20
4841.622760444127
 30
0.0
 11
6164.108270459475
 21
4841.622760444127
 31
0.0
  0
LINE
  5
1A2FB
330
747D
100
AcDbEntity
  8
細線
100
AcDbLine
 10
6238.108270459475
 20
4818.622760444126
 30
0.0
 11
6238.108270459475
 21
4841.622760444127
 31
0.0
  0
LINE
  5
1A2FC
330
747D
100
AcDbEntity
  8
細線
100
AcDbLine
 10
6090.108270459476
 20
4841.622760444127
 30
0.0
 11
6090.108270459476
 21
4818.622760444126
 31
0.0
  0
LINE
  5
1A2FD
330
747D
100
AcDbEntity
  8
部品1
 48
0.01
100
AcDbLine
 10
6254.108270459475
 20
4814.622760444127
 30
0.0
 11
6254.108270459475
 21
4846.122760444126
 31
0.0
  0
LINE
  5
1A2FE
330
747D
100
AcDbEntity
  8
部品1
 48
0.01
100
AcDbLine
 10
6076.108270459475
 20
4812.622760444127
 30
0.0
 11
6252.108270459475
 21
4812.622760444127
 31
0.0
  0
LINE
  5
1A2FF
330
747D
100
AcDbEntity
  8
部品1
 48
0.01
100
AcDbLine
 10
6074.108270459475
 20
4846.122760444126
 30
0.0
 11
6074.108270459475
 21
4814.622760444127
 31
0.0
  0
LINE
  5
1A300
330
747D
100
AcDbEntity
  8
部品1
 48
0.01
100
AcDbLine
 10
6252.108270459475
 20
4848.122760444127
 30
0.0
 11
6076.108270459475
 21
4848.122760444127
 31
0.0
  0
LINE
  5
1A301
330
747D
100
AcDbEntity
  8
細線
100
AcDbLine
 10
6090.108270459476
 20
4835.622760444127
 30
0.0
 11
6164.108270459475
 21
4835.622760444127
 31
0.0
  0
LINE
  5
1A302
330
747D
100
AcDbEntity
  8
細線
100
AcDbLine
 10
6090.108270459476
 20
4829.622760444126
 30
0.0
 11
6164.108270459475
 21
4829.622760444126
 31
0.0
  0
LINE
  5
1A303
330
747D
100
AcDbEntity
  8
細線
100
AcDbLine
 10
6090.108270459476
 20
4823.622760444127
 30
0.0
 11
6164.108270459475
 21
4823.622760444127
 31
0.0
  0
LINE
  5
1A304
330
747D
100
AcDbEntity
  8
細線
100
AcDbLine
 10
6090.108270459476
 20
4835.622760444127
 30
0.0
 11
6159.108270459475
 21
4835.622760444127
 31
0.0
  0
LINE
  5
1A305
330
747D
100
AcDbEntity
  8
細線
100
AcDbLine
 10
6238.108270459475
 20
4835.622760444124
 30
0.0
 11
6164.108270459475
 21
4835.622760444127
 31
0.0
  0
LINE
  5
1A306
330
747D
100
AcDbEntity
  8
細線
100
AcDbLine
 10
6238.108270459475
 20
4823.622760444124
 30
0.0
 11
6164.108270459475
 21
4823.622760444127
 31
0.0
  0
LINE
  5
1A307
330
747D
100
AcDbEntity
  8
細線
100
AcDbLine
 10
6238.108270459475
 20
4829.622760444126
 30
0.0
 11
6164.108270459475
 21
4829.622760444126
 31
0.0
  0
LINE
  5
1A308
330
747D
100
AcDbEntity
  8
細線
100
AcDbLine
 10
6164.108270459475
 20
4841.622760444127
 30
0.0
 11
6164.108270459475
 21
4818.622760444126
 31
0.0
  0
LINE
  5
1A309
330
747D
100
AcDbEntity
  8
細線
100
AcDbLine
 10
6944.108270459476
 20
4841.622760444127
 30
0.0
 11
6944.108270459476
 21
4818.622760444126
 31
0.0
  0
LINE
  5
1A30A
330
747D
100
AcDbEntity
  8
細線
100
AcDbLine
 10
6870.108270459475
 20
4829.622760444126
 30
0.0
 11
6944.108270459476
 21
4829.622760444126
 31
0.0
  0
LINE
  5
1A30B
330
747D
100
AcDbEntity
  8
細線
100
AcDbLine
 10
6870.108270459475
 20
4823.622760444127
 30
0.0
 11
6944.108270459476
 21
4823.622760444127
 31
0.0
  0
LINE
  5
1A30C
330
747D
100
AcDbEntity
  8
細線
100
AcDbLine
 10
6870.108270459475
 20
4835.622760444127
 30
0.0
 11
6944.108270459476
 21
4835.622760444127
 31
0.0
  0
LINE
  5
1A30D
330
747D
100
AcDbEntity
  8
細線
100
AcDbLine
 10
7018.108270459475
 20
4835.622760444127
 30
0.0
 11
6949.108270459475
 21
4835.622760444127
 31
0.0
  0
LINE
  5
1A30E
330
747D
100
AcDbEntity
  8
細線
100
AcDbLine
 10
7018.108270459475
 20
4823.622760444127
 30
0.0
 11
6944.108270459476
 21
4823.622760444127
 31
0.0
  0
LINE
  5
1A30F
330
747D
100
AcDbEntity
  8
細線
100
AcDbLine
 10
7018.108270459475
 20
4829.622760444126
 30
0.0
 11
6944.108270459476
 21
4829.622760444126
 31
0.0
  0
LINE
  5
1A310
330
747D
100
AcDbEntity
  8
細線
100
AcDbLine
 10
7018.108270459475
 20
4835.622760444127
 30
0.0
 11
6944.108270459476
 21
4835.622760444127
 31
0.0
  0
LINE
  5
1A311
330
747D
100
AcDbEntity
  8
部品1
 48
0.01
100
AcDbLine
 10
6856.108270459476
 20
4848.122760444127
 30
0.0
 11
7032.108270459476
 21
4848.122760444127
 31
0.0
  0
LINE
  5
1A312
330
747D
100
AcDbEntity
  8
部品1
 48
0.01
100
AcDbLine
 10
7034.108270459475
 20
4846.122760444126
 30
0.0
 11
7034.108270459475
 21
4814.622760444127
 31
0.0
  0
LINE
  5
1A313
330
747D
100
AcDbEntity
  8
部品1
 48
0.01
100
AcDbLine
 10
7032.108270459476
 20
4812.622760444127
 30
0.0
 11
6856.108270459476
 21
4812.622760444127
 31
0.0
  0
LINE
  5
1A314
330
747D
100
AcDbEntity
  8
部品1
 48
0.01
100
AcDbLine
 10
6854.108270459476
 20
4814.622760444127
 30
0.0
 11
6854.108270459476
 21
4846.122760444126
 31
0.0
  0
LINE
  5
1A315
330
747D
100
AcDbEntity
  8
細線
100
AcDbLine
 10
7018.108270459475
 20
4841.622760444127
 30
0.0
 11
7018.108270459475
 21
4818.622760444126
 31
0.0
  0
LINE
  5
1A316
330
747D
100
AcDbEntity
  8
細線
100
AcDbLine
 10
6870.108270459475
 20
4818.622760444126
 30
0.0
 11
6870.108270459475
 21
4841.622760444127
 31
0.0
  0
LINE
  5
1A317
330
747D
100
AcDbEntity
  8
細線
100
AcDbLine
 10
6870.108270459475
 20
4841.622760444127
 30
0.0
 11
6944.108270459476
 21
4841.622760444127
 31
0.0
  0
LINE
  5
1A318
330
747D
100
AcDbEntity
  8
細線
100
AcDbLine
 10
7018.108270459475
 20
4818.622760444126
 30
0.0
 11
6944.108270459476
 21
4818.622760444126
 31
0.0
  0
LINE
  5
1A319
330
747D
100
AcDbEntity
  8
細線
100
AcDbLine
 10
6944.108270459476
 20
4841.622760444127
 30
0.0
 11
7018.108270459475
 21
4841.622760444127
 31
0.0
  0
LINE
  5
1A31A
330
747D
100
AcDbEntity
  8
細線
100
AcDbLine
 10
6944.108270459476
 20
4818.622760444126
 30
0.0
 11
6870.108270459475
 21
4818.622760444126
 31
0.0
  0
ARC
  5
1A31B
330
747D
100
AcDbEntity
  8
部品1
 48
0.01
100
AcDbCircle
 10
7032.108270459476
 20
4846.122760444126
 30
0.0
 40
2.0
100
AcDbArc
 50
0.0
 51
90.0
  0
ARC
  5
1A31C
330
747D
100
AcDbEntity
  8
部品1
 48
0.01
100
AcDbCircle
 10
7032.108270459476
 20
4814.622760444127
 30
0.0
 40
2.0
100
AcDbArc
 50
270.0
 51
0.0
  0
ARC
  5
1A31D
330
747D
100
AcDbEntity
  8
部品1
 48
0.01
100
AcDbCircle
 10
6856.108270459476
 20
4846.122760444126
 30
0.0
 40
2.0
100
AcDbArc
 50
90.0
 51
180.0
  0
ARC
  5
1A31E
330
747D
100
AcDbEntity
  8
部品1
 48
0.01
100
AcDbCircle
 10
6856.108270459476
 20
4814.622760444127
 30
0.0
 40
2.0
100
AcDbArc
 50
180.0
 51
270.0
  0
LINE
  5
1A31F
330
747D
100
AcDbEntity
  8
細線
100
AcDbLine
 10
7694.108270459476
 20
4841.622760444127
 30
0.0
 11
7694.108270459476
 21
4818.622760444126
 31
0.0
  0
LINE
  5
1A320
330
747D
100
AcDbEntity
  8
細線
100
AcDbLine
 10
7768.108270459475
 20
4829.622760444126
 30
0.0
 11
7694.108270459476
 21
4829.622760444126
 31
0.0
  0
LINE
  5
1A321
330
747D
100
AcDbEntity
  8
細線
100
AcDbLine
 10
7768.108270459475
 20
4823.622760444124
 30
0.0
 11
7694.108270459476
 21
4823.622760444127
 31
0.0
  0
LINE
  5
1A322
330
747D
100
AcDbEntity
  8
細線
100
AcDbLine
 10
7768.108270459475
 20
4835.622760444124
 30
0.0
 11
7694.108270459476
 21
4835.622760444127
 31
0.0
  0
LINE
  5
1A323
330
747D
100
AcDbEntity
  8
細線
100
AcDbLine
 10
7620.108270459475
 20
4835.622760444127
 30
0.0
 11
7689.108270459475
 21
4835.622760444127
 31
0.0
  0
LINE
  5
1A324
330
747D
100
AcDbEntity
  8
細線
100
AcDbLine
 10
7620.108270459475
 20
4823.622760444127
 30
0.0
 11
7694.108270459476
 21
4823.622760444127
 31
0.0
  0
LINE
  5
1A325
330
747D
100
AcDbEntity
  8
細線
100
AcDbLine
 10
7620.108270459475
 20
4829.622760444126
 30
0.0
 11
7694.108270459476
 21
4829.622760444126
 31
0.0
  0
LINE
  5
1A326
330
747D
100
AcDbEntity
  8
細線
100
AcDbLine
 10
7620.108270459475
 20
4835.622760444127
 30
0.0
 11
7694.108270459476
 21
4835.622760444127
 31
0.0
  0
LINE
  5
1A327
330
747D
100
AcDbEntity
  8
部品1
 48
0.01
100
AcDbLine
 10
7782.108270459476
 20
4848.122760444127
 30
0.0
 11
7606.108270459476
 21
4848.122760444127
 31
0.0
  0
LINE
  5
1A328
330
747D
100
AcDbEntity
  8
部品1
 48
0.01
100
AcDbLine
 10
7604.108270459476
 20
4846.122760444126
 30
0.0
 11
7604.108270459476
 21
4814.622760444127
 31
0.0
  0
LINE
  5
1A329
330
747D
100
AcDbEntity
  8
部品1
 48
0.01
100
AcDbLine
 10
7606.108270459476
 20
4812.622760444127
 30
0.0
 11
7782.108270459476
 21
4812.622760444127
 31
0.0
  0
LINE
  5
1A32A
330
747D
100
AcDbEntity
  8
部品1
 48
0.01
100
AcDbLine
 10
7784.108270459475
 20
4814.622760444127
 30
0.0
 11
7784.108270459475
 21
4846.122760444126
 31
0.0
  0
LINE
  5
1A32B
330
747D
100
AcDbEntity
  8
細線
100
AcDbLine
 10
7620.108270459475
 20
4841.622760444127
 30
0.0
 11
7620.108270459475
 21
4818.622760444126
 31
0.0
  0
LINE
  5
1A32C
330
747D
100
AcDbEntity
  8
細線
100
AcDbLine
 10
7768.108270459475
 20
4818.622760444126
 30
0.0
 11
7768.108270459475
 21
4841.622760444127
 31
0.0
  0
LINE
  5
1A32D
330
747D
100
AcDbEntity
  8
細線
100
AcDbLine
 10
7768.108270459475
 20
4841.622760444127
 30
0.0
 11
7694.108270459476
 21
4841.622760444127
 31
0.0
  0
LINE
  5
1A32E
330
747D
100
AcDbEntity
  8
細線
100
AcDbLine
 10
7620.108270459475
 20
4818.622760444126
 30
0.0
 11
7694.108270459476
 21
4818.622760444126
 31
0.0
  0
LINE
  5
1A32F
330
747D
100
AcDbEntity
  8
細線
100
AcDbLine
 10
7694.108270459476
 20
4841.622760444127
 30
0.0
 11
7620.108270459475
 21
4841.622760444127
 31
0.0
  0
LINE
  5
1A330
330
747D
100
AcDbEntity
  8
細線
100
AcDbLine
 10
7694.108270459476
 20
4818.622760444126
 30
0.0
 11
7768.108270459475
 21
4818.622760444126
 31
0.0
  0
ARC
  5
1A331
330
747D
100
AcDbEntity
  8
部品1
 48
0.01
100
AcDbCircle
 10
7606.108270459476
 20
4846.122760444126
 30
0.0
 40
2.0
100
AcDbArc
 50
90.0
 51
180.0
  0
ARC
  5
1A332
330
747D
100
AcDbEntity
  8
部品1
 48
0.01
100
AcDbCircle
 10
7606.108270459476
 20
4814.622760444127
 30
0.0
 40
2.0
100
AcDbArc
 50
180.0
 51
270.0
  0
ARC
  5
1A333
330
747D
100
AcDbEntity
  8
部品1
 48
0.01
100
AcDbCircle
 10
7782.108270459476
 20
4846.122760444126
 30
0.0
 40
2.0
100
AcDbArc
 50
0.0
 51
90.0
  0
ARC
  5
1A334
330
747D
100
AcDbEntity
  8
部品1
 48
0.01
100
AcDbCircle
 10
7782.108270459476
 20
4814.622760444127
 30
0.0
 40
2.0
100
AcDbArc
 50
270.0
 51
0.0
  0
ARC
  5
1A335
330
747D
100
AcDbEntity
  8
部品1
 48
0.01
100
AcDbCircle
 10
8386.108270459475
 20
4814.622760444127
 30
0.0
 40
2.0
100
AcDbArc
 50
180.0
 51
270.0
  0
ARC
  5
1A336
330
747D
100
AcDbEntity
  8
部品1
 48
0.01
100
AcDbCircle
 10
8386.108270459475
 20
4846.122760444126
 30
0.0
 40
2.0
100
AcDbArc
 50
90.0
 51
180.0
  0
ARC
  5
1A337
330
747D
100
AcDbEntity
  8
部品1
 48
0.01
100
AcDbCircle
 10
8562.108270459475
 20
4814.622760444127
 30
0.0
 40
2.0
100
AcDbArc
 50
270.0
 51
0.0
  0
ARC
  5
1A338
330
747D
100
AcDbEntity
  8
部品1
 48
0.01
100
AcDbCircle
 10
8562.108270459475
 20
4846.122760444126
 30
0.0
 40
2.0
100
AcDbArc
 50
0.0
 51
90.0
  0
LINE
  5
1A339
330
747D
100
AcDbEntity
  8
細線
100
AcDbLine
 10
8474.108270459476
 20
4818.622760444126
 30
0.0
 11
8400.108270459474
 21
4818.622760444126
 31
0.0
  0
LINE
  5
1A33A
330
747D
100
AcDbEntity
  8
細線
100
AcDbLine
 10
8474.108270459476
 20
4841.622760444127
 30
0.0
 11
8548.108270459476
 21
4841.622760444127
 31
0.0
  0
LINE
  5
1A33B
330
747D
100
AcDbEntity
  8
細線
100
AcDbLine
 10
8548.108270459476
 20
4818.622760444126
 30
0.0
 11
8474.108270459476
 21
4818.622760444126
 31
0.0
  0
LINE
  5
1A33C
330
747D
100
AcDbEntity
  8
細線
100
AcDbLine
 10
8400.108270459474
 20
4841.622760444127
 30
0.0
 11
8474.108270459476
 21
4841.622760444127
 31
0.0
  0
LINE
  5
1A33D
330
747D
100
AcDbEntity
  8
細線
100
AcDbLine
 10
8400.108270459474
 20
4818.622760444126
 30
0.0
 11
8400.108270459474
 21
4841.622760444127
 31
0.0
  0
LINE
  5
1A33E
330
747D
100
AcDbEntity
  8
細線
100
AcDbLine
 10
8548.108270459476
 20
4841.622760444127
 30
0.0
 11
8548.108270459476
 21
4818.622760444126
 31
0.0
  0
LINE
  5
1A33F
330
747D
100
AcDbEntity
  8
部品1
 48
0.01
100
AcDbLine
 10
8384.108270459476
 20
4814.622760444127
 30
0.0
 11
8384.108270459476
 21
4846.122760444126
 31
0.0
  0
LINE
  5
1A340
330
747D
100
AcDbEntity
  8
部品1
 48
0.01
100
AcDbLine
 10
8562.108270459475
 20
4812.622760444127
 30
0.0
 11
8386.108270459475
 21
4812.622760444127
 31
0.0
  0
LINE
  5
1A341
330
747D
100
AcDbEntity
  8
部品1
 48
0.01
100
AcDbLine
 10
8564.108270459476
 20
4846.122760444126
 30
0.0
 11
8564.108270459476
 21
4814.622760444127
 31
0.0
  0
LINE
  5
1A342
330
747D
100
AcDbEntity
  8
部品1
 48
0.01
100
AcDbLine
 10
8386.108270459475
 20
4848.122760444127
 30
0.0
 11
8562.108270459475
 21
4848.122760444127
 31
0.0
  0
LINE
  5
1A343
330
747D
100
AcDbEntity
  8
細線
100
AcDbLine
 10
8548.108270459476
 20
4835.622760444127
 30
0.0
 11
8474.108270459476
 21
4835.622760444127
 31
0.0
  0
LINE
  5
1A344
330
747D
100
AcDbEntity
  8
細線
100
AcDbLine
 10
8548.108270459476
 20
4829.622760444126
 30
0.0
 11
8474.108270459476
 21
4829.622760444126
 31
0.0
  0
LINE
  5
1A345
330
747D
100
AcDbEntity
  8
細線
100
AcDbLine
 10
8548.108270459476
 20
4823.622760444127
 30
0.0
 11
8474.108270459476
 21
4823.622760444127
 31
0.0
  0
LINE
  5
1A346
330
747D
100
AcDbEntity
  8
細線
100
AcDbLine
 10
8548.108270459476
 20
4835.622760444127
 30
0.0
 11
8479.108270459475
 21
4835.622760444127
 31
0.0
  0
LINE
  5
1A347
330
747D
100
AcDbEntity
  8
細線
100
AcDbLine
 10
8400.108270459474
 20
4835.622760444127
 30
0.0
 11
8474.108270459476
 21
4835.622760444127
 31
0.0
  0
LINE
  5
1A348
330
747D
100
AcDbEntity
  8
細線
100
AcDbLine
 10
8400.108270459474
 20
4823.622760444127
 30
0.0
 11
8474.108270459476
 21
4823.622760444127
 31
0.0
  0
LINE
  5
1A349
330
747D
100
AcDbEntity
  8
細線
100
AcDbLine
 10
8400.108270459474
 20
4829.622760444126
 30
0.0
 11
8474.108270459476
 21
4829.622760444126
 31
0.0
  0
LINE
  5
1A34A
330
747D
100
AcDbEntity
  8
細線
100
AcDbLine
 10
8474.108270459476
 20
4841.622760444127
 30
0.0
 11
8474.108270459476
 21
4818.622760444126
 31
0.0
  0
LWPOLYLINE
  5
1A424
330
747D
100
AcDbEntity
  8
部品1
 48
50.0
100
AcDbPolyline
 90
        4
 70
     1
 43
0.0
 10
4379.158270459476
 20
3862.372760444138
 10
4382.058270459478
 20
3862.372760444138
 10
4382.058270459478
 20
3871.872760444137
 10
4379.158270459476
 20
3871.872760444137
  0
CIRCLE
  5
1A425
330
747D
100
AcDbEntity
  8
部品1
 48
50.0
100
AcDbCircle
 10
4380.608270459477
 20
3867.122760444138
 30
0.0
 40
9.0
  0
ARC
  5
1A426
330
747D
100
AcDbEntity
  8
細線
 48
50.0
100
AcDbCircle
 10
4380.608270459477
 20
3867.122760444138
 30
0.0
 40
4.0
100
AcDbArc
 50
111.2538091853132
 51
248.7461908146868
  0
ARC
  5
1A427
330
747D
100
AcDbEntity
  8
細線
 48
50.0
100
AcDbCircle
 10
4380.608270459477
 20
3867.122760444138
 30
0.0
 40
17.5
100
AcDbArc
 50
306.4837370612677
 51
233.5162629387323
  0
LINE
  5
1A428
330
747D
100
AcDbEntity
  8
細線
 48
50.0
100
AcDbLine
 10
4390.608270459473
 20
3843.263799863255
 30
0.0
 11
4390.608270459477
 21
3852.248285663496
 31
0.0
  0
LINE
  5
1A429
330
747D
100
AcDbEntity
  8
細線
 48
50.0
100
AcDbLine
 10
4370.608270459477
 20
3843.263799863257
 30
0.0
 11
4370.608270459477
 21
3852.248285663492
 31
0.0
  0
ARC
  5
1A42A
330
747D
100
AcDbEntity
  8
細線
 48
50.0
100
AcDbCircle
 10
4380.608270459477
 20
3867.122760444138
 30
0.0
 40
26.5
100
AcDbArc
 50
249.3326835063939
 51
290.6673164933835
  0
ARC
  5
1A42B
330
747D
100
AcDbEntity
  8
細線
 48
50.0
100
AcDbCircle
 10
4389.60827045947
 20
3843.263799863255
 30
0.0
 40
1.0
100
AcDbArc
 50
290.6673164936062
 51
359.9999999998958
  0
ARC
  5
1A42C
330
747D
100
AcDbEntity
  8
細線
 48
50.0
100
AcDbCircle
 10
4371.608270459478
 20
3843.263799863257
 30
0.0
 40
1.0
100
AcDbArc
 50
180.0
 51
249.3326835066164
  0
ARC
  5
1A42D
330
747D
100
AcDbEntity
  8
細線
 48
50.0
100
AcDbCircle
 10
4369.608270459477
 20
3852.248285663492
 30
0.0
 40
1.0
100
AcDbArc
 50
0.0
 51
53.51626293873231
  0
ARC
  5
1A42E
330
747D
100
AcDbEntity
  8
細線
 48
50.0
100
AcDbCircle
 10
4391.608270459481
 20
3852.248285663496
 30
0.0
 40
1.0
100
AcDbArc
 50
126.4837370615127
 51
180.0
  0
ARC
  5
1A42F
330
747D
100
AcDbEntity
  8
細線
 48
50.0
100
AcDbCircle
 10
4380.608270459477
 20
3867.122760444138
 30
0.0
 40
21.5
100
AcDbArc
 50
255.8014401250294
 51
284.1985598749706
  0
ARC
  5
1A430
330
747D
100
AcDbEntity
  8
細線
 48
50.0
100
AcDbCircle
 10
4380.608270459477
 20
3867.122760444138
 30
0.0
 40
16.5
100
AcDbArc
 50
251.9694646069326
 51
288.0305353930674
  0
LINE
  5
1A431
330
747D
100
AcDbEntity
  8
細線
 48
50.0
100
AcDbLine
 10
4386.108270459477
 20
3846.570388318331
 30
0.0
 11
4386.108270459477
 21
3851.147780005668
 31
0.0
  0
LINE
  5
1A432
330
747D
100
AcDbEntity
  8
細線
 48
50.0
100
AcDbLine
 10
4375.108270459477
 20
3846.570388318331
 30
0.0
 11
4375.108270459477
 21
3851.147780005666
 31
0.0
  0
ARC
  5
1A433
330
747D
100
AcDbEntity
  8
細線
 48
50.0
100
AcDbCircle
 10
4375.408270459479
 20
3851.147780005666
 30
0.0
 40
0.3
100
AcDbArc
 50
71.96946460693259
 51
180.0
  0
ARC
  5
1A434
330
747D
100
AcDbEntity
  8
細線
 48
50.0
100
AcDbCircle
 10
4385.808270459477
 20
3851.147780005668
 30
0.0
 40
0.3
100
AcDbArc
 50
0.0
 51
108.0305353930674
  0
ARC
  5
1A435
330
747D
100
AcDbEntity
  8
細線
 48
50.0
100
AcDbCircle
 10
4385.808270459474
 20
3846.570388318331
 30
0.0
 40
0.3
100
AcDbArc
 50
284.1985598747622
 51
0.0000000001042204
  0
ARC
  5
1A436
330
747D
100
AcDbEntity
  8
細線
 48
50.0
100
AcDbCircle
 10
4375.408270459479
 20
3846.570388318331
 30
0.0
 40
0.3
100
AcDbArc
 50
180.0
 51
255.8014401248081
  0
CIRCLE
  5
1A437
330
747D
100
AcDbEntity
  8
細線
 48
50.0
100
AcDbCircle
 10
4380.608270459477
 20
3867.122760444138
 30
0.0
 40
12.0
  0
ARC
  5
1A438
330
747D
100
AcDbEntity
  8
部品1
 48
50.0
100
AcDbCircle
 10
4380.608270459477
 20
3917.122760444138
 30
0.0
 40
8.5
100
AcDbArc
 50
114.315739171091
 51
245.684260828909
  0
CIRCLE
  5
1A439
330
747D
100
AcDbEntity
  8
細線
 48
50.0
100
AcDbCircle
 10
4380.608270459477
 20
3917.122760444138
 30
0.0
 40
4.5
  0
LWPOLYLINE
  5
1A43A
330
747D
100
AcDbEntity
  8
部品1
 48
50.0
100
AcDbPolyline
 90
        2
 70
     0
 43
0.0
 10
4377.108270459477
 20
3935.79760984112
 10
4377.108270459477
 20
3924.868727136553
  0
CIRCLE
  5
1A43B
330
747D
100
AcDbEntity
  8
部品1
 48
50.0
100
AcDbCircle
 10
4380.608270459477
 20
3917.122760444138
 30
0.0
 40
19.0
  0
LWPOLYLINE
  5
1A43C
330
747D
100
AcDbEntity
  8
部品1
 48
50.0
100
AcDbPolyline
 90
        2
 70
     0
 43
0.0
 10
4377.108270459477
 20
3909.376793751722
 10
4377.108270459477
 20
3898.447911047155
  0
LWPOLYLINE
  5
1A43D
330
747D
100
AcDbEntity
  8
部品1
 48
50.0
100
AcDbPolyline
 90
        2
 70
     0
 43
0.0
 10
4384.108270459477
 20
3924.868727136553
 10
4384.108270459477
 20
3935.79760984112
  0
ARC
  5
1A43E
330
747D
100
AcDbEntity
  8
部品1
 48
50.0
100
AcDbCircle
 10
4380.608270459477
 20
3917.122760444138
 30
0.0
 40
8.5
100
AcDbArc
 50
294.315739171091
 51
65.68426082890896
  0
LWPOLYLINE
  5
1A43F
330
747D
100
AcDbEntity
  8
部品1
 48
50.0
100
AcDbPolyline
 90
        2
 70
     0
 43
0.0
 10
4384.108270459477
 20
3898.447911047155
 10
4384.108270459477
 20
3909.376793751722
  0
ARC
  5
1A440
330
747D
100
AcDbEntity
  8
細線
 48
50.0
100
AcDbCircle
 10
4380.608270459477
 20
3917.122760444138
 30
0.0
 40
16.5
100
AcDbArc
 50
332.0012352654438
 51
27.99876473455621
  0
ARC
  5
1A441
330
747D
100
AcDbEntity
  8
細線
 48
50.0
100
AcDbCircle
 10
4380.608270459477
 20
3917.122760444138
 30
0.0
 40
14.0
100
AcDbArc
 50
326.4074436112986
 51
33.59255638870134
  0
LINE
  5
1A442
330
747D
100
AcDbEntity
  8
細線
 48
50.0
100
AcDbLine
 10
4366.039468175146
 20
3924.868727136553
 30
0.0
 11
4368.946366669788
 21
3924.868727136553
 31
0.0
  0
LINE
  5
1A443
330
747D
100
AcDbEntity
  8
細線
 48
50.0
100
AcDbLine
 10
4366.039468175146
 20
3909.376793751722
 30
0.0
 11
4368.946366669788
 21
3909.376793751722
 31
0.0
  0
LINE
  5
1A444
330
747D
100
AcDbEntity
  8
細線
 48
50.0
100
AcDbLine
 10
4392.270174249166
 20
3924.868727136553
 30
0.0
 11
4395.177072743812
 21
3924.868727136553
 31
0.0
  0
LINE
  5
1A445
330
747D
100
AcDbEntity
  8
細線
 48
50.0
100
AcDbLine
 10
4392.270174249166
 20
3909.376793751722
 30
0.0
 11
4395.177072743812
 21
3909.376793751722
 31
0.0
  0
ARC
  5
1A446
330
747D
100
AcDbEntity
  8
細線
 48
50.0
100
AcDbCircle
 10
4380.608270459477
 20
3917.122760444138
 30
0.0
 40
14.0
100
AcDbArc
 50
146.4074436112986
 51
213.5925563887013
  0
ARC
  5
1A447
330
747D
100
AcDbEntity
  8
細線
 48
50.0
100
AcDbCircle
 10
4380.608270459477
 20
3917.122760444138
 30
0.0
 40
16.5
100
AcDbArc
 50
152.0012352654438
 51
207.9987647345562
  0
ARC
  5
1A448
330
747D
100
AcDbEntity
  8
部品1
 48
50.0
100
AcDbCircle
 10
4354.108270459477
 20
3942.622760444137
 30
0.0
 40
5.0
100
AcDbArc
 50
90.0
 51
180.0
  0
ARC
  5
1A449
330
747D
100
AcDbEntity
  8
部品1
 48
50.0
100
AcDbCircle
 10
4354.108270459477
 20
3831.622760444137
 30
0.0
 40
5.0
100
AcDbArc
 50
180.0
 51
270.0
  0
ARC
  5
1A44A
330
747D
100
AcDbEntity
  8
部品1
 48
50.0
100
AcDbCircle
 10
4407.108270459477
 20
3831.622760444137
 30
0.0
 40
5.0
100
AcDbArc
 50
270.0
 51
0.0
  0
ARC
  5
1A44B
330
747D
100
AcDbEntity
  8
部品1
 48
50.0
100
AcDbCircle
 10
4407.108270459477
 20
3942.622760444137
 30
0.0
 40
5.0
100
AcDbArc
 50
0.0
 51
90.0
  0
LINE
  5
1A44C
330
747D
100
AcDbEntity
  8
部品1
 48
50.0
100
AcDbLine
 10
4349.108270459477
 20
3831.622760444137
 30
0.0
 11
4349.108270459477
 21
3942.622760444137
 31
0.0
  0
LINE
  5
1A44D
330
747D
100
AcDbEntity
  8
部品1
 48
50.0
100
AcDbLine
 10
4407.108270459477
 20
3826.622760444138
 30
0.0
 11
4354.108270459477
 21
3826.622760444138
 31
0.0
  0
LINE
  5
1A44E
330
747D
100
AcDbEntity
  8
部品1
 48
50.0
100
AcDbLine
 10
4412.108270459477
 20
3942.622760444137
 30
0.0
 11
4412.108270459477
 21
3831.622760444137
 31
0.0
  0
LWPOLYLINE
  5
1A47E
330
747D
100
AcDbEntity
  8
部品1
 48
50.0
100
AcDbPolyline
 90
        4
 70
     1
 43
0.0
 10
5909.158270459477
 20
3862.372760444138
 10
5912.058270459478
 20
3862.372760444138
 10
5912.058270459478
 20
3871.872760444137
 10
5909.158270459477
 20
3871.872760444137
  0
CIRCLE
  5
1A47F
330
747D
100
AcDbEntity
  8
部品1
 48
50.0
100
AcDbCircle
 10
5910.608270459477
 20
3867.122760444138
 30
0.0
 40
9.0
  0
ARC
  5
1A480
330
747D
100
AcDbEntity
  8
細線
 48
50.0
100
AcDbCircle
 10
5910.608270459477
 20
3867.122760444138
 30
0.0
 40
4.0
100
AcDbArc
 50
111.2538091853132
 51
248.7461908146868
  0
ARC
  5
1A481
330
747D
100
AcDbEntity
  8
細線
 48
50.0
100
AcDbCircle
 10
5910.608270459477
 20
3867.122760444138
 30
0.0
 40
17.5
100
AcDbArc
 50
306.4837370612677
 51
233.5162629387323
  0
LINE
  5
1A482
330
747D
100
AcDbEntity
  8
細線
 48
50.0
100
AcDbLine
 10
5920.608270459474
 20
3843.263799863255
 30
0.0
 11
5920.608270459478
 21
3852.248285663496
 31
0.0
  0
LINE
  5
1A483
330
747D
100
AcDbEntity
  8
細線
 48
50.0
100
AcDbLine
 10
5900.608270459477
 20
3843.263799863257
 30
0.0
 11
5900.608270459477
 21
3852.248285663492
 31
0.0
  0
ARC
  5
1A484
330
747D
100
AcDbEntity
  8
細線
 48
50.0
100
AcDbCircle
 10
5910.608270459477
 20
3867.122760444138
 30
0.0
 40
26.5
100
AcDbArc
 50
249.3326835063939
 51
290.6673164933835
  0
ARC
  5
1A485
330
747D
100
AcDbEntity
  8
細線
 48
50.0
100
AcDbCircle
 10
5919.60827045947
 20
3843.263799863255
 30
0.0
 40
1.0
100
AcDbArc
 50
290.6673164936062
 51
359.9999999998958
  0
ARC
  5
1A486
330
747D
100
AcDbEntity
  8
細線
 48
50.0
100
AcDbCircle
 10
5901.608270459477
 20
3843.263799863257
 30
0.0
 40
1.0
100
AcDbArc
 50
180.0
 51
249.3326835066164
  0
ARC
  5
1A487
330
747D
100
AcDbEntity
  8
細線
 48
50.0
100
AcDbCircle
 10
5899.608270459477
 20
3852.248285663492
 30
0.0
 40
1.0
100
AcDbArc
 50
0.0
 51
53.51626293873231
  0
ARC
  5
1A488
330
747D
100
AcDbEntity
  8
細線
 48
50.0
100
AcDbCircle
 10
5921.608270459481
 20
3852.248285663496
 30
0.0
 40
1.0
100
AcDbArc
 50
126.4837370615127
 51
180.0
  0
ARC
  5
1A489
330
747D
100
AcDbEntity
  8
細線
 48
50.0
100
AcDbCircle
 10
5910.608270459477
 20
3867.122760444138
 30
0.0
 40
21.5
100
AcDbArc
 50
255.8014401250294
 51
284.1985598749706
  0
ARC
  5
1A48A
330
747D
100
AcDbEntity
  8
細線
 48
50.0
100
AcDbCircle
 10
5910.608270459477
 20
3867.122760444138
 30
0.0
 40
16.5
100
AcDbArc
 50
251.9694646069326
 51
288.0305353930674
  0
LINE
  5
1A48B
330
747D
100
AcDbEntity
  8
細線
 48
50.0
100
AcDbLine
 10
5916.108270459478
 20
3846.570388318331
 30
0.0
 11
5916.108270459478
 21
3851.147780005668
 31
0.0
  0
LINE
  5
1A48C
330
747D
100
AcDbEntity
  8
細線
 48
50.0
100
AcDbLine
 10
5905.108270459478
 20
3846.570388318331
 30
0.0
 11
5905.108270459478
 21
3851.147780005666
 31
0.0
  0
ARC
  5
1A48D
330
747D
100
AcDbEntity
  8
細線
 48
50.0
100
AcDbCircle
 10
5905.408270459481
 20
3851.147780005666
 30
0.0
 40
0.3
100
AcDbArc
 50
71.96946460693259
 51
180.0
  0
ARC
  5
1A48E
330
747D
100
AcDbEntity
  8
細線
 48
50.0
100
AcDbCircle
 10
5915.808270459478
 20
3851.147780005668
 30
0.0
 40
0.3
100
AcDbArc
 50
0.0
 51
108.0305353930674
  0
ARC
  5
1A48F
330
747D
100
AcDbEntity
  8
細線
 48
50.0
100
AcDbCircle
 10
5915.808270459475
 20
3846.570388318331
 30
0.0
 40
0.3
100
AcDbArc
 50
284.1985598747622
 51
0.0000000001042204
  0
ARC
  5
1A490
330
747D
100
AcDbEntity
  8
細線
 48
50.0
100
AcDbCircle
 10
5905.408270459481
 20
3846.570388318331
 30
0.0
 40
0.3
100
AcDbArc
 50
180.0
 51
255.8014401248081
  0
CIRCLE
  5
1A491
330
747D
100
AcDbEntity
  8
細線
 48
50.0
100
AcDbCircle
 10
5910.608270459477
 20
3867.122760444138
 30
0.0
 40
12.0
  0
ARC
  5
1A492
330
747D
100
AcDbEntity
  8
部品1
 48
50.0
100
AcDbCircle
 10
5910.608270459477
 20
3917.122760444138
 30
0.0
 40
8.5
100
AcDbArc
 50
114.315739171091
 51
245.684260828909
  0
CIRCLE
  5
1A493
330
747D
100
AcDbEntity
  8
細線
 48
50.0
100
AcDbCircle
 10
5910.608270459477
 20
3917.122760444138
 30
0.0
 40
4.5
  0
LWPOLYLINE
  5
1A494
330
747D
100
AcDbEntity
  8
部品1
 48
50.0
100
AcDbPolyline
 90
        2
 70
     0
 43
0.0
 10
5907.108270459477
 20
3935.79760984112
 10
5907.108270459477
 20
3924.868727136553
  0
CIRCLE
  5
1A495
330
747D
100
AcDbEntity
  8
部品1
 48
50.0
100
AcDbCircle
 10
5910.608270459477
 20
3917.122760444138
 30
0.0
 40
19.0
  0
LWPOLYLINE
  5
1A496
330
747D
100
AcDbEntity
  8
部品1
 48
50.0
100
AcDbPolyline
 90
        2
 70
     0
 43
0.0
 10
5907.108270459477
 20
3909.376793751722
 10
5907.108270459477
 20
3898.447911047155
  0
LWPOLYLINE
  5
1A497
330
747D
100
AcDbEntity
  8
部品1
 48
50.0
100
AcDbPolyline
 90
        2
 70
     0
 43
0.0
 10
5914.108270459477
 20
3924.868727136553
 10
5914.108270459477
 20
3935.79760984112
  0
ARC
  5
1A498
330
747D
100
AcDbEntity
  8
部品1
 48
50.0
100
AcDbCircle
 10
5910.608270459477
 20
3917.122760444138
 30
0.0
 40
8.5
100
AcDbArc
 50
294.315739171091
 51
65.68426082890896
  0
LWPOLYLINE
  5
1A499
330
747D
100
AcDbEntity
  8
部品1
 48
50.0
100
AcDbPolyline
 90
        2
 70
     0
 43
0.0
 10
5914.108270459477
 20
3898.447911047155
 10
5914.108270459477
 20
3909.376793751722
  0
ARC
  5
1A49A
330
747D
100
AcDbEntity
  8
細線
 48
50.0
100
AcDbCircle
 10
5910.608270459477
 20
3917.122760444138
 30
0.0
 40
16.5
100
AcDbArc
 50
332.0012352654438
 51
27.99876473455621
  0
ARC
  5
1A49B
330
747D
100
AcDbEntity
  8
細線
 48
50.0
100
AcDbCircle
 10
5910.608270459477
 20
3917.122760444138
 30
0.0
 40
14.0
100
AcDbArc
 50
326.4074436112986
 51
33.59255638870134
  0
LINE
  5
1A49C
330
747D
100
AcDbEntity
  8
細線
 48
50.0
100
AcDbLine
 10
5896.039468175146
 20
3924.868727136553
 30
0.0
 11
5898.946366669789
 21
3924.868727136553
 31
0.0
  0
LINE
  5
1A49D
330
747D
100
AcDbEntity
  8
細線
 48
50.0
100
AcDbLine
 10
5896.039468175146
 20
3909.376793751722
 30
0.0
 11
5898.946366669789
 21
3909.376793751722
 31
0.0
  0
LINE
  5
1A49E
330
747D
100
AcDbEntity
  8
細線
 48
50.0
100
AcDbLine
 10
5922.270174249167
 20
3924.868727136553
 30
0.0
 11
5925.177072743813
 21
3924.868727136553
 31
0.0
  0
LINE
  5
1A49F
330
747D
100
AcDbEntity
  8
細線
 48
50.0
100
AcDbLine
 10
5922.270174249167
 20
3909.376793751722
 30
0.0
 11
5925.177072743813
 21
3909.376793751722
 31
0.0
  0
ARC
  5
1A4A0
330
747D
100
AcDbEntity
  8
細線
 48
50.0
100
AcDbCircle
 10
5910.608270459477
 20
3917.122760444138
 30
0.0
 40
14.0
100
AcDbArc
 50
146.4074436112986
 51
213.5925563887013
  0
ARC
  5
1A4A1
330
747D
100
AcDbEntity
  8
細線
 48
50.0
100
AcDbCircle
 10
5910.608270459477
 20
3917.122760444138
 30
0.0
 40
16.5
100
AcDbArc
 50
152.0012352654438
 51
207.9987647345562
  0
ARC
  5
1A4A2
330
747D
100
AcDbEntity
  8
部品1
 48
50.0
100
AcDbCircle
 10
5884.108270459478
 20
3942.622760444137
 30
0.0
 40
5.0
100
AcDbArc
 50
90.0
 51
180.0
  0
ARC
  5
1A4A3
330
747D
100
AcDbEntity
  8
部品1
 48
50.0
100
AcDbCircle
 10
5884.108270459478
 20
3831.622760444137
 30
0.0
 40
5.0
100
AcDbArc
 50
180.0
 51
270.0
  0
ARC
  5
1A4A4
330
747D
100
AcDbEntity
  8
部品1
 48
50.0
100
AcDbCircle
 10
5937.108270459478
 20
3831.622760444137
 30
0.0
 40
5.0
100
AcDbArc
 50
270.0
 51
0.0
  0
ARC
  5
1A4A5
330
747D
100
AcDbEntity
  8
部品1
 48
50.0
100
AcDbCircle
 10
5937.108270459478
 20
3942.622760444137
 30
0.0
 40
5.0
100
AcDbArc
 50
0.0
 51
90.0
  0
LINE
  5
1A4A6
330
747D
100
AcDbEntity
  8
部品1
 48
50.0
100
AcDbLine
 10
5879.108270459477
 20
3831.622760444137
 30
0.0
 11
5879.108270459477
 21
3942.622760444137
 31
0.0
  0
LINE
  5
1A4A7
330
747D
100
AcDbEntity
  8
部品1
 48
50.0
100
AcDbLine
 10
5937.108270459478
 20
3826.622760444138
 30
0.0
 11
5884.108270459478
 21
3826.622760444138
 31
0.0
  0
LINE
  5
1A4A8
330
747D
100
AcDbEntity
  8
部品1
 48
50.0
100
AcDbLine
 10
5942.108270459478
 20
3942.622760444137
 30
0.0
 11
5942.108270459478
 21
3831.622760444137
 31
0.0
  0
LWPOLYLINE
  5
1A4D8
330
747D
100
AcDbEntity
  8
部品1
 48
50.0
100
AcDbPolyline
 90
        4
 70
     1
 43
0.0
 10
7439.158270459476
 20
3862.372760444138
 10
7442.058270459478
 20
3862.372760444138
 10
7442.058270459478
 20
3871.872760444137
 10
7439.158270459476
 20
3871.872760444137
  0
CIRCLE
  5
1A4D9
330
747D
100
AcDbEntity
  8
部品1
 48
50.0
100
AcDbCircle
 10
7440.608270459478
 20
3867.122760444138
 30
0.0
 40
9.0
  0
ARC
  5
1A4DA
330
747D
100
AcDbEntity
  8
細線
 48
50.0
100
AcDbCircle
 10
7440.608270459478
 20
3867.122760444138
 30
0.0
 40
4.0
100
AcDbArc
 50
111.2538091853132
 51
248.7461908146868
  0
ARC
  5
1A4DB
330
747D
100
AcDbEntity
  8
細線
 48
50.0
100
AcDbCircle
 10
7440.608270459478
 20
3867.122760444138
 30
0.0
 40
17.5
100
AcDbArc
 50
306.4837370612677
 51
233.5162629387323
  0
LINE
  5
1A4DC
330
747D
100
AcDbEntity
  8
細線
 48
50.0
100
AcDbLine
 10
7450.608270459473
 20
3843.263799863255
 30
0.0
 11
7450.608270459477
 21
3852.248285663496
 31
0.0
  0
LINE
  5
1A4DD
330
747D
100
AcDbEntity
  8
細線
 48
50.0
100
AcDbLine
 10
7430.608270459477
 20
3843.263799863257
 30
0.0
 11
7430.608270459477
 21
3852.248285663492
 31
0.0
  0
ARC
  5
1A4DE
330
747D
100
AcDbEntity
  8
細線
 48
50.0
100
AcDbCircle
 10
7440.608270459478
 20
3867.122760444138
 30
0.0
 40
26.5
100
AcDbArc
 50
249.3326835063939
 51
290.6673164933835
  0
ARC
  5
1A4DF
330
747D
100
AcDbEntity
  8
細線
 48
50.0
100
AcDbCircle
 10
7449.60827045947
 20
3843.263799863255
 30
0.0
 40
1.0
100
AcDbArc
 50
290.6673164936062
 51
359.9999999998958
  0
ARC
  5
1A4E0
330
747D
100
AcDbEntity
  8
細線
 48
50.0
100
AcDbCircle
 10
7431.608270459477
 20
3843.263799863257
 30
0.0
 40
1.0
100
AcDbArc
 50
180.0
 51
249.3326835066164
  0
ARC
  5
1A4E1
330
747D
100
AcDbEntity
  8
細線
 48
50.0
100
AcDbCircle
 10
7429.608270459478
 20
3852.248285663492
 30
0.0
 40
1.0
100
AcDbArc
 50
0.0
 51
53.51626293873231
  0
ARC
  5
1A4E2
330
747D
100
AcDbEntity
  8
細線
 48
50.0
100
AcDbCircle
 10
7451.60827045948
 20
3852.248285663496
 30
0.0
 40
1.0
100
AcDbArc
 50
126.4837370615127
 51
180.0
  0
ARC
  5
1A4E3
330
747D
100
AcDbEntity
  8
細線
 48
50.0
100
AcDbCircle
 10
7440.608270459478
 20
3867.122760444138
 30
0.0
 40
21.5
100
AcDbArc
 50
255.8014401250294
 51
284.1985598749706
  0
ARC
  5
1A4E4
330
747D
100
AcDbEntity
  8
細線
 48
50.0
100
AcDbCircle
 10
7440.608270459478
 20
3867.122760444138
 30
0.0
 40
16.5
100
AcDbArc
 50
251.9694646069326
 51
288.0305353930674
  0
LINE
  5
1A4E5
330
747D
100
AcDbEntity
  8
細線
 48
50.0
100
AcDbLine
 10
7446.108270459477
 20
3846.570388318331
 30
0.0
 11
7446.108270459477
 21
3851.147780005668
 31
0.0
  0
LINE
  5
1A4E6
330
747D
100
AcDbEntity
  8
細線
 48
50.0
100
AcDbLine
 10
7435.108270459477
 20
3846.570388318331
 30
0.0
 11
7435.108270459477
 21
3851.147780005666
 31
0.0
  0
ARC
  5
1A4E7
330
747D
100
AcDbEntity
  8
細線
 48
50.0
100
AcDbCircle
 10
7435.40827045948
 20
3851.147780005666
 30
0.0
 40
0.3
100
AcDbArc
 50
71.96946460693259
 51
180.0
  0
ARC
  5
1A4E8
330
747D
100
AcDbEntity
  8
細線
 48
50.0
100
AcDbCircle
 10
7445.808270459479
 20
3851.147780005668
 30
0.0
 40
0.3
100
AcDbArc
 50
0.0
 51
108.0305353930674
  0
ARC
  5
1A4E9
330
747D
100
AcDbEntity
  8
細線
 48
50.0
100
AcDbCircle
 10
7445.808270459474
 20
3846.570388318331
 30
0.0
 40
0.3
100
AcDbArc
 50
284.1985598747622
 51
0.0000000001042204
  0
ARC
  5
1A4EA
330
747D
100
AcDbEntity
  8
細線
 48
50.0
100
AcDbCircle
 10
7435.40827045948
 20
3846.570388318331
 30
0.0
 40
0.3
100
AcDbArc
 50
180.0
 51
255.8014401248081
  0
CIRCLE
  5
1A4EB
330
747D
100
AcDbEntity
  8
細線
 48
50.0
100
AcDbCircle
 10
7440.608270459478
 20
3867.122760444138
 30
0.0
 40
12.0
  0
ARC
  5
1A4EC
330
747D
100
AcDbEntity
  8
部品1
 48
50.0
100
AcDbCircle
 10
7440.608270459478
 20
3917.122760444138
 30
0.0
 40
8.5
100
AcDbArc
 50
114.315739171091
 51
245.684260828909
  0
CIRCLE
  5
1A4ED
330
747D
100
AcDbEntity
  8
細線
 48
50.0
100
AcDbCircle
 10
7440.608270459478
 20
3917.122760444138
 30
0.0
 40
4.5
  0
LWPOLYLINE
  5
1A4EE
330
747D
100
AcDbEntity
  8
部品1
 48
50.0
100
AcDbPolyline
 90
        2
 70
     0
 43
0.0
 10
7437.108270459477
 20
3935.79760984112
 10
7437.108270459477
 20
3924.868727136553
  0
CIRCLE
  5
1A4EF
330
747D
100
AcDbEntity
  8
部品1
 48
50.0
100
AcDbCircle
 10
7440.608270459478
 20
3917.122760444138
 30
0.0
 40
19.0
  0
LWPOLYLINE
  5
1A4F0
330
747D
100
AcDbEntity
  8
部品1
 48
50.0
100
AcDbPolyline
 90
        2
 70
     0
 43
0.0
 10
7437.108270459477
 20
3909.376793751722
 10
7437.108270459477
 20
3898.447911047155
  0
LWPOLYLINE
  5
1A4F1
330
747D
100
AcDbEntity
  8
部品1
 48
50.0
100
AcDbPolyline
 90
        2
 70
     0
 43
0.0
 10
7444.108270459477
 20
3924.868727136553
 10
7444.108270459477
 20
3935.79760984112
  0
ARC
  5
1A4F2
330
747D
100
AcDbEntity
  8
部品1
 48
50.0
100
AcDbCircle
 10
7440.608270459478
 20
3917.122760444138
 30
0.0
 40
8.5
100
AcDbArc
 50
294.315739171091
 51
65.68426082890896
  0
LWPOLYLINE
  5
1A4F3
330
747D
100
AcDbEntity
  8
部品1
 48
50.0
100
AcDbPolyline
 90
        2
 70
     0
 43
0.0
 10
7444.108270459477
 20
3898.447911047155
 10
7444.108270459477
 20
3909.376793751722
  0
ARC
  5
1A4F4
330
747D
100
AcDbEntity
  8
細線
 48
50.0
100
AcDbCircle
 10
7440.608270459478
 20
3917.122760444138
 30
0.0
 40
16.5
100
AcDbArc
 50
332.0012352654438
 51
27.99876473455621
  0
ARC
  5
1A4F5
330
747D
100
AcDbEntity
  8
細線
 48
50.0
100
AcDbCircle
 10
7440.608270459478
 20
3917.122760444138
 30
0.0
 40
14.0
100
AcDbArc
 50
326.4074436112986
 51
33.59255638870134
  0
LINE
  5
1A4F6
330
747D
100
AcDbEntity
  8
細線
 48
50.0
100
AcDbLine
 10
7426.039468175146
 20
3924.868727136553
 30
0.0
 11
7428.946366669788
 21
3924.868727136553
 31
0.0
  0
LINE
  5
1A4F7
330
747D
100
AcDbEntity
  8
細線
 48
50.0
100
AcDbLine
 10
7426.039468175146
 20
3909.376793751722
 30
0.0
 11
7428.946366669788
 21
3909.376793751722
 31
0.0
  0
LINE
  5
1A4F8
330
747D
100
AcDbEntity
  8
細線
 48
50.0
100
AcDbLine
 10
7452.270174249166
 20
3924.868727136553
 30
0.0
 11
7455.177072743812
 21
3924.868727136553
 31
0.0
  0
LINE
  5
1A4F9
330
747D
100
AcDbEntity
  8
細線
 48
50.0
100
AcDbLine
 10
7452.270174249166
 20
3909.376793751722
 30
0.0
 11
7455.177072743812
 21
3909.376793751722
 31
0.0
  0
ARC
  5
1A4FA
330
747D
100
AcDbEntity
  8
細線
 48
50.0
100
AcDbCircle
 10
7440.608270459478
 20
3917.122760444138
 30
0.0
 40
14.0
100
AcDbArc
 50
146.4074436112986
 51
213.5925563887013
  0
ARC
  5
1A4FB
330
747D
100
AcDbEntity
  8
細線
 48
50.0
100
AcDbCircle
 10
7440.608270459478
 20
3917.122760444138
 30
0.0
 40
16.5
100
AcDbArc
 50
152.0012352654438
 51
207.9987647345562
  0
ARC
  5
1A4FC
330
747D
100
AcDbEntity
  8
部品1
 48
50.0
100
AcDbCircle
 10
7414.108270459478
 20
3942.622760444137
 30
0.0
 40
5.0
100
AcDbArc
 50
90.0
 51
180.0
  0
ARC
  5
1A4FD
330
747D
100
AcDbEntity
  8
部品1
 48
50.0
100
AcDbCircle
 10
7414.108270459478
 20
3831.622760444137
 30
0.0
 40
5.0
100
AcDbArc
 50
180.0
 51
270.0
  0
ARC
  5
1A4FE
330
747D
100
AcDbEntity
  8
部品1
 48
50.0
100
AcDbCircle
 10
7467.108270459478
 20
3831.622760444137
 30
0.0
 40
5.0
100
AcDbArc
 50
270.0
 51
0.0
  0
ARC
  5
1A4FF
330
747D
100
AcDbEntity
  8
部品1
 48
50.0
100
AcDbCircle
 10
7467.108270459478
 20
3942.622760444137
 30
0.0
 40
5.0
100
AcDbArc
 50
0.0
 51
90.0
  0
LINE
  5
1A500
330
747D
100
AcDbEntity
  8
部品1
 48
50.0
100
AcDbLine
 10
7409.108270459476
 20
3831.622760444137
 30
0.0
 11
7409.108270459476
 21
3942.622760444137
 31
0.0
  0
LINE
  5
1A501
330
747D
100
AcDbEntity
  8
部品1
 48
50.0
100
AcDbLine
 10
7467.108270459478
 20
3826.622760444138
 30
0.0
 11
7414.108270459478
 21
3826.622760444138
 31
0.0
  0
LINE
  5
1A502
330
747D
100
AcDbEntity
  8
部品1
 48
50.0
100
AcDbLine
 10
7472.108270459478
 20
3942.622760444137
 30
0.0
 11
7472.108270459478
 21
3831.622760444137
 31
0.0
  0
ENDSEC
  0
SECTION
  2
OBJECTS
  0
DICTIONARY
  5
7471
330
0
100
AcDbDictionary
281
     1
  3
ACAD_COLOR
350
17EA3
  3
ACAD_GROUP
350
7472
  3
ACAD_LAYOUT
350
17EA4
  3
ACAD_MATERIAL
350
17EA2
  3
ACAD_MLINESTYLE
350
7473
  3
ACAD_PLOTSETTINGS
350
17EA5
  3
ACAD_PLOTSTYLENAME
350
17EA0
  3
ACDBHEADERROUNDTRIPXREC
350
1A511
  3
AcDbVariableDictionary
350
1A50D
  3
CONTENTDICTIONARY
350
E71C
  3
DRAWINGVARIABLESDICT
350
F3B9
  0
DICTIONARY
  5
1804B
330
7467
100
AcDbDictionary
280
     1
281
     1
  3
ACAD_LAYERSTATES
360
1804C
  0
DICTIONARY
  5
17EA3
102
{ACAD_REACTORS
330
7471
102
}
330
7471
100
AcDbDictionary
281
     1
  0
DICTIONARY
  5
7472
102
{ACAD_REACTORS
330
7471
102
}
330
7471
100
AcDbDictionary
281
     1
  0
DICTIONARY
  5
17EA4
102
{ACAD_REACTORS
330
7471
102
}
330
7471
100
AcDbDictionary
281
     1
  3
Model
350
17EA6
  3
レイアウト1
350
17EA7
  0
DICTIONARY
  5
17EA2
102
{ACAD_REACTORS
330
7471
102
}
330
7471
100
AcDbDictionary
281
     1
  0
DICTIONARY
  5
7473
102
{ACAD_REACTORS
330
7471
102
}
330
7471
100
AcDbDictionary
281
     1
  3
STANDARD
350
7480
  0
DICTIONARY
  5
17EA5
102
{ACAD_REACTORS
330
7471
102
}
330
7471
100
AcDbDictionary
281
     1
  0
ACDBDICTIONARYWDFLT
  5
17EA0
102
{ACAD_REACTORS
330
7471
102
}
330
7471
100
AcDbDictionary
281
     1
  3
Normal
350
17EA1
100
AcDbDictionaryWithDefault
340
17EA1
  0
DICTIONARY
  5
1A511
102
{ACAD_REACTORS
330
7471
102
}
330
7471
100
AcDbDictionary
281
     1
  3
COLORDICT
350
1A513
  3
MATERIALDICT
350
1A512
  0
DICTIONARY
  5
1A50D
102
{ACAD_REACTORS
330
7471
102
}
330
7471
100
AcDbDictionary
281
     1
  3
DIMASSOC
350
1A50E
  3
PROJECTNAME
350
1A50F
  0
DICTIONARY
  5
E71C
102
{ACAD_REACTORS
330
7471
102
}
330
7471
100
AcDbDictionary
281
     1
  0
DICTIONARY
  5
F3B9
102
{ACAD_REACTORS
330
7471
102
}
330
7471
100
AcDbDictionary
281
     1
1001
DRAWINGVARIABLESXDATA
1000
POLARMODE
1000
1
  0
DICTIONARY
  5
1804C
102
{ACAD_REACTORS
330
1804B
102
}
330
1804B
100
AcDbDictionary
281
     1
  0
LAYOUT
  5
17EA6
102
{ACAD_XDICTIONARY
360
1A514
102
}
102
{ACAD_REACTORS
330
17EA4
102
}
330
17EA4
100
AcDbPlotSettings
  1

  2
EPSON LP-7000C
  4

  6

 40
0.0
 41
0.0
 42
0.0
 43
0.0
 44
0.0
 45
0.0
 46
0.0
 47
0.0
 48
0.0
 49
0.0
140
0.0
141
0.0
142
1.0
143
1.0
 70
  1712
 72
     0
 73
     0
 74
     0
  7

 75
     0
147
1.0
148
0.0
149
0.0
100
AcDbLayout
  1
Model
 70
     1
 71
     0
 10
0.0
 20
0.0
 11
12.0
 21
9.0
 12
0.0
 22
0.0
 32
0.0
 14
0.0
 24
0.0
 34
0.0
 15
0.0
 25
0.0
 35
0.0
146
0.0
 13
0.0
 23
0.0
 33
0.0
 16
1.0
 26
0.0
 36
0.0
 17
0.0
 27
1.0
 37
0.0
 76
     0
330
747D
  0
LAYOUT
  5
17EA7
102
{ACAD_XDICTIONARY
360
1A516
102
}
102
{ACAD_REACTORS
330
17EA4
102
}
330
17EA4
100
AcDbPlotSettings
  1

  2
EPSON LP-7000C
  4

  6

 40
0.0
 41
0.0
 42
0.0
 43
0.0
 44
0.0
 45
0.0
 46
0.0
 47
0.0
 48
0.0
 49
0.0
140
0.0
141
0.0
142
1.0
143
1.0
 70
   688
 72
     0
 73
     0
 74
     5
  7

 75
    16
147
1.0
148
0.0
149
0.0
100
AcDbLayout
  1
レイアウト1
 70
     0
 71
     1
 10
0.0
 20
0.0
 11
420.0
 21
297.0
 12
0.0
 22
0.0
 32
0.0
 14
1.000000000000000E+20
 24
1.000000000000000E+20
 34
1.000000000000000E+20
 15
-1.000000000000000E+20
 25
-1.000000000000000E+20
 35
-1.000000000000000E+20
146
0.0
 13
0.0
 23
0.0
 33
0.0
 16
1.0
 26
0.0
 36
0.0
 17
0.0
 27
1.0
 37
0.0
 76
     0
330
747A
  0
MLINESTYLE
  5
7480
102
{ACAD_REACTORS
330
7473
102
}
330
7473
100
AcDbMlineStyle
  2
STANDARD
 70
     0
  3

 62
     0
 51
90.0
 52
90.0
 71
     2
 49
0.5
 62
   256
  6
BYLAYER
 49
-0.5
 62
   256
  6
BYLAYER
  0
ACDBPLACEHOLDER
  5
17EA1
102
{ACAD_REACTORS
330
17EA0
102
}
330
17EA0
  0
XRECORD
  5
1A513
102
{ACAD_REACTORS
330
1A511
102
}
330
1A511
100
AcDbXrecord
280
     1
340
17EA3
  0
XRECORD
  5
1A512
102
{ACAD_REACTORS
330
1A511
102
}
330
1A511
100
AcDbXrecord
280
     1
340
17EA2
  0
DICTIONARYVAR
  5
1A50E
102
{ACAD_REACTORS
330
1A50D
102
}
330
1A50D
100
DictionaryVariables
280
     0
  1
1
  0
DICTIONARYVAR
  5
1A50F
102
{ACAD_REACTORS
330
1A50D
102
}
330
1A50D
100
DictionaryVariables
280
     0
  1

  0
DICTIONARY
  5
1A514
330
17EA6
100
AcDbDictionary
280
     1
281
     1
  3
ACAD_XREC_ROUNDTRIP
360
1A515
  0
DICTIONARY
  5
1A516
330
17EA7
100
AcDbDictionary
280
     1
281
     1
  3
ACAD_XREC_ROUNDTRIP
360
1A517
  0
XRECORD
  5
1A515
102
{ACAD_REACTORS
330
1A514
102
}
330
1A514
100
AcDbXrecord
280
     1
102
SHADEPLOT
 70
     0
102
SHADEPLOTRESLEVEL
 70
     2
102
SHADEPLOTCUSTOMDPI
 70
   300
  0
XRECORD
  5
1A517
102
{ACAD_REACTORS
330
1A516
102
}
330
1A516
100
AcDbXrecord
280
     1
102
SHADEPLOT
 70
     0
102
SHADEPLOTRESLEVEL
 70
     2
102
SHADEPLOTCUSTOMDPI
 70
   300
  0
ENDSEC
  0
EOF
