  0
SECTION
  2
HEADER
  9
$ACADVER
  1
AC1015
  9
$ACADMAINTVER
 70
    20
  9
$DWGCODEPAGE
  3
ANSI_932
  9
$INSBASE
 10
0.0
 20
0.0
 30
0.0
  9
$EXTMIN
 10
139.9999999999995
 20
-0.0000000000000909
 30
0.0
  9
$EXTMAX
 10
16307.2
 20
11409.6
 30
0.0
  9
$LIMMIN
 10
0.0
 20
0.0
  9
$LIMMAX
 10
16800.0
 20
11880.0
  9
$ORTHOMODE
 70
     0
  9
$REGENMODE
 70
     1
  9
$FILLMODE
 70
     1
  9
$QTEXTMODE
 70
     0
  9
$MIRRTEXT
 70
     1
  9
$LTSCALE
 40
20.0
  9
$ATTMODE
 70
     1
  9
$TEXTSIZE
 40
120.0
  9
$TRACEWID
 40
1.0
  9
$TEXTSTYLE
  7
STYLE1
  9
$CLAYER
  8
部品1
  9
$CELTYPE
  6
BYLAYER
  9
$CECOLOR
 62
   256
  9
$CELTSCALE
 40
50.0
  9
$DISPSILH
 70
     0
  9
$DIMSCALE
 40
40.0
  9
$DIMASZ
 40
2.5
  9
$DIMEXO
 40
0.5
  9
$DIMDLI
 40
7.0
  9
$DIMRND
 40
0.0
  9
$DIMDLE
 40
0.0
  9
$DIMEXE
 40
1.5
  9
$DIMTP
 40
0.0
  9
$DIMTM
 40
0.0
  9
$DIMTXT
 40
3.0
  9
$DIMCEN
 40
0.0
  9
$DIMTSZ
 40
0.0
  9
$DIMTOL
 70
     0
  9
$DIMLIM
 70
     0
  9
$DIMTIH
 70
     0
  9
$DIMTOH
 70
     0
  9
$DIMSE1
 70
     0
  9
$DIMSE2
 70
     0
  9
$DIMTAD
 70
     3
  9
$DIMZIN
 70
     8
  9
$DIMBLK
  1

  9
$DIMASO
 70
     1
  9
$DIMSHO
 70
     1
  9
$DIMPOST
  1

  9
$DIMAPOST
  1

  9
$DIMALT
 70
     0
  9
$DIMALTD
 70
     2
  9
$DIMALTF
 40
0.0394
  9
$DIMLFAC
 40
1.0
  9
$DIMTOFL
 70
     1
  9
$DIMTVP
 40
0.0
  9
$DIMTIX
 70
     1
  9
$DIMSOXD
 70
     0
  9
$DIMSAH
 70
     1
  9
$DIMBLK1
  1
DOTSMALL
  9
$DIMBLK2
  1
DOTSMALL
  9
$DIMSTYLE
  2
INABA_S40G
  9
$DIMCLRD
 70
     0
  9
$DIMCLRE
 70
     0
  9
$DIMCLRT
 70
     7
  9
$DIMTFAC
 40
1.0
  9
$DIMGAP
 40
1.0
  9
$DIMJUST
 70
     0
  9
$DIMSD1
 70
     0
  9
$DIMSD2
 70
     0
  9
$DIMTOLJ
 70
     1
  9
$DIMTZIN
 70
     0
  9
$DIMALTZ
 70
     0
  9
$DIMALTTZ
 70
     0
  9
$DIMUPT
 70
     1
  9
$DIMDEC
 70
     1
  9
$DIMTDEC
 70
     4
  9
$DIMALTU
 70
     2
  9
$DIMALTTD
 70
     2
  9
$DIMTXSTY
  7
STYLE1
  9
$DIMAUNIT
 70
     0
  9
$DIMADEC
 70
     0
  9
$DIMALTRND
 40
0.0
  9
$DIMAZIN
 70
     0
  9
$DIMDSEP
 70
    46
  9
$DIMATFIT
 70
     3
  9
$DIMFRAC
 70
     0
  9
$DIMLDRBLK
  1

  9
$DIMLUNIT
 70
     2
  9
$DIMLWD
 70
    -2
  9
$DIMLWE
 70
    -2
  9
$DIMTMOVE
 70
     0
  9
$LUNITS
 70
     2
  9
$LUPREC
 70
     1
  9
$SKETCHINC
 40
1.0
  9
$FILLETRAD
 40
3.0
  9
$AUNITS
 70
     0
  9
$AUPREC
 70
     0
  9
$MENU
  1
acad
  9
$ELEVATION
 40
0.0
  9
$PELEVATION
 40
0.0
  9
$THICKNESS
 40
0.0
  9
$LIMCHECK
 70
     0
  9
$CHAMFERA
 40
0.0
  9
$CHAMFERB
 40
0.0
  9
$CHAMFERC
 40
0.0
  9
$CHAMFERD
 40
0.0
  9
$SKPOLY
 70
     0
  9
$TDCREATE
 40
2451368.612993866
  9
$TDUCREATE
 40
2451368.237993866
  9
$TDUPDATE
 40
2455575.688303669
  9
$TDUUPDATE
 40
2455575.313303669
  9
$TDINDWG
 40
0.6666752083
  9
$TDUSRTIMER
 40
0.6666752083
  9
$USRTIMER
 70
     1
  9
$ANGBASE
 50
0.0
  9
$ANGDIR
 70
     0
  9
$PDMODE
 70
     3
  9
$PDSIZE
 40
2.0
  9
$PLINEWID
 40
0.0
  9
$SPLFRAME
 70
     0
  9
$SPLINETYPE
 70
     6
  9
$SPLINESEGS
 70
     8
  9
$HANDSEED
  5
18441
  9
$SURFTAB1
 70
     6
  9
$SURFTAB2
 70
     6
  9
$SURFTYPE
 70
     6
  9
$SURFU
 70
     6
  9
$SURFV
 70
     6
  9
$UCSBASE
  2

  9
$UCSNAME
  2

  9
$UCSORG
 10
0.0
 20
0.0
 30
0.0
  9
$UCSXDIR
 10
1.0
 20
0.0
 30
0.0
  9
$UCSYDIR
 10
0.0
 20
1.0
 30
0.0
  9
$UCSORTHOREF
  2

  9
$UCSORTHOVIEW
 70
     0
  9
$UCSORGTOP
 10
0.0
 20
0.0
 30
0.0
  9
$UCSORGBOTTOM
 10
0.0
 20
0.0
 30
0.0
  9
$UCSORGLEFT
 10
0.0
 20
0.0
 30
0.0
  9
$UCSORGRIGHT
 10
0.0
 20
0.0
 30
0.0
  9
$UCSORGFRONT
 10
0.0
 20
0.0
 30
0.0
  9
$UCSORGBACK
 10
0.0
 20
0.0
 30
0.0
  9
$PUCSBASE
  2

  9
$PUCSNAME
  2

  9
$PUCSORG
 10
0.0
 20
0.0
 30
0.0
  9
$PUCSXDIR
 10
1.0
 20
0.0
 30
0.0
  9
$PUCSYDIR
 10
0.0
 20
1.0
 30
0.0
  9
$PUCSORTHOREF
  2

  9
$PUCSORTHOVIEW
 70
     0
  9
$PUCSORGTOP
 10
0.0
 20
0.0
 30
0.0
  9
$PUCSORGBOTTOM
 10
0.0
 20
0.0
 30
0.0
  9
$PUCSORGLEFT
 10
0.0
 20
0.0
 30
0.0
  9
$PUCSORGRIGHT
 10
0.0
 20
0.0
 30
0.0
  9
$PUCSORGFRONT
 10
0.0
 20
0.0
 30
0.0
  9
$PUCSORGBACK
 10
0.0
 20
0.0
 30
0.0
  9
$USERI1
 70
     0
  9
$USERI2
 70
     0
  9
$USERI3
 70
     0
  9
$USERI4
 70
     0
  9
$USERI5
 70
     0
  9
$USERR1
 40
0.0
  9
$USERR2
 40
0.0
  9
$USERR3
 40
0.0
  9
$USERR4
 40
0.0
  9
$USERR5
 40
0.0
  9
$WORLDVIEW
 70
     1
  9
$SHADEDGE
 70
     3
  9
$SHADEDIF
 70
    70
  9
$TILEMODE
 70
     1
  9
$MAXACTVP
 70
    16
  9
$PINSBASE
 10
0.0
 20
0.0
 30
0.0
  9
$PLIMCHECK
 70
     0
  9
$PEXTMIN
 10
1.000000000000000E+20
 20
1.000000000000000E+20
 30
1.000000000000000E+20
  9
$PEXTMAX
 10
-1.000000000000000E+20
 20
-1.000000000000000E+20
 30
-1.000000000000000E+20
  9
$PLIMMIN
 10
0.0
 20
0.0
  9
$PLIMMAX
 10
420.0
 20
297.0
  9
$UNITMODE
 70
     0
  9
$VISRETAIN
 70
     0
  9
$PLINEGEN
 70
     0
  9
$PSLTSCALE
 70
     0
  9
$TREEDEPTH
 70
  3020
  9
$CMLSTYLE
  2
STANDARD
  9
$CMLJUST
 70
     0
  9
$CMLSCALE
 40
1.0
  9
$PROXYGRAPHICS
 70
     1
  9
$MEASUREMENT
 70
     1
  9
$CELWEIGHT
370
    -1
  9
$ENDCAPS
280
     0
  9
$JOINSTYLE
280
     0
  9
$LWDISPLAY
290
     0
  9
$INSUNITS
 70
     0
  9
$HYPERLINKBASE
  1

  9
$STYLESHEET
  1

  9
$XEDIT
290
     1
  9
$CEPSNTYPE
380
     0
  9
$PSTYLEMODE
290
     1
  9
$FINGERPRINTGUID
  2
{9ADD93C9-2ED3-4215-B68C-00DF2F1C8847}
  9
$VERSIONGUID
  2
{557E71BF-3AFF-4DCA-9758-AB335D2F6484}
  9
$EXTNAMES
290
     1
  9
$PSVPSCALE
 40
0.0
  9
$OLESTARTUP
290
     0
  0
ENDSEC
  0
SECTION
  2
CLASSES
  0
CLASS
  1
ACDBDICTIONARYWDFLT
  2
AcDbDictionaryWithDefault
  3
ObjectDBX Classes
 90
        0
280
     0
281
     0
  0
CLASS
  1
DICTIONARYVAR
  2
AcDbDictionaryVar
  3
ObjectDBX Classes
 90
        0
280
     0
281
     0
  0
CLASS
  1
ACDBPLACEHOLDER
  2
AcDbPlaceHolder
  3
ObjectDBX Classes
 90
        0
280
     0
281
     0
  0
CLASS
  1
LAYOUT
  2
AcDbLayout
  3
ObjectDBX Classes
 90
        0
280
     0
281
     0
  0
ENDSEC
  0
SECTION
  2
TABLES
  0
TABLE
  2
VPORT
  5
746D
330
0
100
AcDbSymbolTable
 70
     2
  0
VPORT
  5
18439
330
746D
100
AcDbSymbolTableRecord
100
AcDbViewportTableRecord
  2
*Active
 70
     0
 10
0.0
 20
0.0
 11
1.0
 21
1.0
 12
8222.806293607884
 22
6349.056767074161
 13
0.0
 23
0.0
 14
10.0
 24
10.0
 15
10.0
 25
10.0
 16
0.0
 26
0.0
 36
1.0
 17
0.0
 27
0.0
 37
0.0
 40
12806.85367858949
 41
1.525925925925925
 42
50.0
 43
0.0
 44
0.0
 50
0.0
 51
0.0
 71
     0
 72
     0
 73
     1
 74
     0
 75
     0
 76
     0
 77
     0
 78
     0
281
     0
 65
     1
110
0.0
120
0.0
130
0.0
111
1.0
121
0.0
131
0.0
112
0.0
122
1.0
132
0.0
 79
     0
146
0.0
  0
ENDTAB
  0
TABLE
  2
LTYPE
  5
746A
330
0
100
AcDbSymbolTable
 70
     4
  0
LTYPE
  5
7477
330
746A
100
AcDbSymbolTableRecord
100
AcDbLinetypeTableRecord
  2
BYBLOCK
 70
     0
  3

 72
    65
 73
     0
 40
0.0
  0
LTYPE
  5
7478
330
746A
100
AcDbSymbolTableRecord
100
AcDbLinetypeTableRecord
  2
BYLAYER
 70
     0
  3

 72
    65
 73
     0
 40
0.0
  0
LTYPE
  5
7479
330
746A
100
AcDbSymbolTableRecord
100
AcDbLinetypeTableRecord
  2
CONTINUOUS
 70
     0
  3
Solid line
 72
    65
 73
     0
 40
0.0
  0
LTYPE
  5
7816
330
746A
100
AcDbSymbolTableRecord
100
AcDbLinetypeTableRecord
  2
CENTER
 70
     0
  3
____ _ ____ _ ____ _ ____ _ ____ _ ____ _ ____ 
 72
    65
 73
     4
 40
2.0
 49
1.25
 74
     0
 49
-0.25
 74
     0
 49
0.25
 74
     0
 49
-0.25
 74
     0
  0
LTYPE
  5
781A
330
746A
100
AcDbSymbolTableRecord
100
AcDbLinetypeTableRecord
  2
HIDDEN
 70
     0
  3
__ __ __ __ __ __ __ __ __ __ __ __ __ __ __ __
 72
    65
 73
     2
 40
0.375
 49
0.25
 74
     0
 49
-0.125
 74
     0
  0
LTYPE
  5
781B
330
746A
100
AcDbSymbolTableRecord
100
AcDbLinetypeTableRecord
  2
PHANTOM
 70
     0
  3
______  __  __  ______  __  __  ______  __  __ 
 72
    65
 73
     6
 40
2.5
 49
1.25
 74
     0
 49
-0.25
 74
     0
 49
0.25
 74
     0
 49
-0.25
 74
     0
 49
0.25
 74
     0
 49
-0.25
 74
     0
  0
ENDTAB
  0
TABLE
  2
LAYER
  5
7467
102
{ACAD_XDICTIONARY
360
16597
102
}
330
0
100
AcDbSymbolTable
 70
    12
  0
LAYER
  5
7474
330
7467
100
AcDbSymbolTableRecord
100
AcDbLayerTableRecord
  2
0
 70
     0
 62
     7
  6
CONTINUOUS
370
    -3
390
163F8
  0
LAYER
  5
DEB2
330
7467
100
AcDbSymbolTableRecord
100
AcDbLayerTableRecord
  2
センター
 70
     0
 62
     3
  6
CENTER
370
    -3
390
163F8
  0
LAYER
  5
DEB3
330
7467
100
AcDbSymbolTableRecord
100
AcDbLayerTableRecord
  2
寸法
 70
     0
 62
     4
  6
CONTINUOUS
370
    -3
390
163F8
  0
LAYER
  5
DEB4
330
7467
100
AcDbSymbolTableRecord
100
AcDbLayerTableRecord
  2
部品1
 70
     0
 62
     7
  6
CONTINUOUS
370
    -3
390
163F8
  0
LAYER
  5
DEB5
330
7467
100
AcDbSymbolTableRecord
100
AcDbLayerTableRecord
  2
補助
 70
     0
 62
    -1
  6
CONTINUOUS
370
    -3
390
163F8
  0
LAYER
  5
DEB6
330
7467
100
AcDbSymbolTableRecord
100
AcDbLayerTableRecord
  2
文字
 70
     0
 62
     7
  6
CONTINUOUS
370
    -3
390
163F8
  0
LAYER
  5
F255
330
7467
100
AcDbSymbolTableRecord
100
AcDbLayerTableRecord
  2
DEFPOINTS
 70
     0
 62
     7
  6
CONTINUOUS
290
     0
370
    -3
390
163F8
  0
LAYER
  5
10B54
330
7467
100
AcDbSymbolTableRecord
100
AcDbLayerTableRecord
  2
仕様書枠
 70
     0
 62
   230
  6
CONTINUOUS
370
    -3
390
163F8
  0
LAYER
  5
11729
330
7467
100
AcDbSymbolTableRecord
100
AcDbLayerTableRecord
  2
Ｇ．Ｌ
 70
     0
 62
    30
  6
CONTINUOUS
370
    -3
390
163F8
  0
LAYER
  5
1173F
330
7467
100
AcDbSymbolTableRecord
100
AcDbLayerTableRecord
  2
細線
 70
     0
 62
     5
  6
CONTINUOUS
370
    -3
390
163F8
  0
LAYER
  5
12CC4
330
7467
100
AcDbSymbolTableRecord
100
AcDbLayerTableRecord
  2
想像線
 70
     0
 62
     6
  6
PHANTOM
370
    -3
390
163F8
  0
LAYER
  5
142E2
330
7467
100
AcDbSymbolTableRecord
100
AcDbLayerTableRecord
  2
破線
 70
     0
 62
     2
  6
HIDDEN
370
    -3
390
163F8
  0
ENDTAB
  0
TABLE
  2
STYLE
  5
7468
330
0
100
AcDbSymbolTable
 70
     5
  0
STYLE
  5
7475
330
7468
100
AcDbSymbolTableRecord
100
AcDbTextStyleTableRecord
  2
STANDARD
 70
     0
 40
0.0
 41
1.0
 50
0.0
 71
     0
 42
4.0
  3
txt
  4
C:\AutoCAD LT\bigfont.shx
  0
STYLE
  5
763C
330
7468
100
AcDbSymbolTableRecord
100
AcDbTextStyleTableRecord
  2
MSMINCHO
 70
     0
 40
0.0
 41
1.0
 50
0.0
 71
     0
 42
1.199999999999999
  3
C:\AutoCAD LT\msminch2.TTF
  4

  0
STYLE
  5
F706
330
7468
100
AcDbSymbolTableRecord
100
AcDbTextStyleTableRecord
  2
STYLE1
 70
     0
 40
0.0
 41
1.0
 50
0.0
 71
     0
 42
120.0
  3
isocp.shx
  4
bigfont.shx
  0
STYLE
  5
103BF
330
7468
100
AcDbSymbolTableRecord
100
AcDbTextStyleTableRecord
  2
STYLE2
 70
     0
 40
0.0
 41
1.0
 50
0.0
 71
     0
 42
100.0
  3
MS PGothic.ttf
  4

1001
ACAD
1000
MS PGothic
1071
    32818
  0
STYLE
  5
10BAA
330
7468
100
AcDbSymbolTableRecord
100
AcDbTextStyleTableRecord
  2
STYLE3
 70
     0
 40
0.0
 41
1.0
 50
0.0
 71
     0
 42
100.0
  3

  4

1001
ACAD
1000
DFPGothic-EB
1071
    32818
  0
ENDTAB
  0
TABLE
  2
VIEW
  5
746B
330
0
100
AcDbSymbolTable
 70
     0
  0
ENDTAB
  0
TABLE
  2
UCS
  5
746C
330
0
100
AcDbSymbolTable
 70
     0
  0
ENDTAB
  0
TABLE
  2
APPID
  5
746E
330
0
100
AcDbSymbolTable
 70
     6
  0
APPID
  5
7476
330
746E
100
AcDbSymbolTableRecord
100
AcDbRegAppTableRecord
  2
ACAD
 70
     0
  0
APPID
  5
DEA9
330
746E
100
AcDbSymbolTableRecord
100
AcDbRegAppTableRecord
  2
CONTENTBLOCKICON
 70
     0
  0
APPID
  5
DEAA
330
746E
100
AcDbSymbolTableRecord
100
AcDbRegAppTableRecord
  2
CONTENTBLOCKDESCRIPTION
 70
     0
  0
APPID
  5
E71D
330
746E
100
AcDbSymbolTableRecord
100
AcDbRegAppTableRecord
  2
CONTENTTABDATA
 70
     0
  0
APPID
  5
E71E
330
746E
100
AcDbSymbolTableRecord
100
AcDbRegAppTableRecord
  2
CONTENTCURRENTTAB
 70
     0
  0
APPID
  5
F3BA
330
746E
100
AcDbSymbolTableRecord
100
AcDbRegAppTableRecord
  2
DRAWINGVARIABLESXDATA
 70
     0
  0
ENDTAB
  0
TABLE
  2
DIMSTYLE
  5
746F
330
0
100
AcDbSymbolTable
 70
     4
100
AcDbDimStyleTable
 71
     1
340
F71F
  0
DIMSTYLE
105
7484
330
746F
100
AcDbSymbolTableRecord
100
AcDbDimStyleTableRecord
  2
JIS
 70
     0
 41
2.5
 42
1.0
 43
7.0
 44
1.0
 73
     0
 74
     0
 77
     1
 78
     8
140
2.5
141
0.0
143
0.0394
147
0.0
172
     1
174
     1
175
     1
340
7475
  0
DIMSTYLE
105
F236
330
746F
100
AcDbSymbolTableRecord
100
AcDbDimStyleTableRecord
  2
INABA_S40
 70
     0
 40
40.0
 41
2.5
 42
0.5
 43
7.0
 44
1.5
 73
     0
 74
     0
 77
     3
 78
     8
140
3.0
141
0.0
143
0.0394
147
1.0
172
     1
173
     1
174
     1
175
     1
178
     7
289
     0
340
7475
341
DEAC
343
DEAC
344
DEAC
  0
DIMSTYLE
105
F71F
102
{ACAD_REACTORS
330
15633
330
1568E
330
15727
330
15735
330
16019
330
16015
330
16014
330
14521
330
14526
330
1452E
330
14530
330
14531
330
14532
330
14587
330
14589
330
16C58
330
16C59
330
16C5A
330
16C5B
330
16C5F
330
16C60
330
16C61
330
16C62
330
16CCC
330
16CCD
330
17AB9
330
17BCC
330
17BF3
330
17EBC
330
17EBB
330
17EBD
330
17F0F
102
}
330
746F
100
AcDbSymbolTableRecord
100
AcDbDimStyleTableRecord
  2
INABA_S40G
 70
     0
 40
40.0
 41
2.5
 42
0.5
 43
7.0
 44
1.5
 73
     0
 74
     0
 77
     3
 78
     8
140
3.0
141
0.0
143
0.0394
147
1.0
172
     1
173
     1
174
     1
178
     7
271
     1
288
     1
340
F706
341
F770
343
F770
344
F770
  0
DIMSTYLE
105
1831D
330
746F
100
AcDbSymbolTableRecord
100
AcDbDimStyleTableRecord
  2
INABA_S20G
 70
     0
 40
20.0
 41
2.5
 42
0.5
 43
7.0
 44
1.5
 73
     0
 74
     0
 77
     3
 78
     8
140
3.0
141
0.0
143
0.0394
147
1.0
172
     1
173
     1
174
     1
178
     7
271
     1
340
F706
341
F770
343
F770
344
F770
  0
ENDTAB
  0
TABLE
  2
BLOCK_RECORD
  5
7466
330
0
100
AcDbSymbolTable
 70
    34
  0
BLOCK_RECORD
  5
747D
330
7466
100
AcDbSymbolTableRecord
100
AcDbBlockTableRecord
  2
*MODEL_SPACE
340
163FD
  0
BLOCK_RECORD
  5
747A
330
7466
100
AcDbSymbolTableRecord
100
AcDbBlockTableRecord
  2
*PAPER_SPACE
340
163FE
  0
BLOCK_RECORD
  5
DEAC
330
7466
100
AcDbSymbolTableRecord
100
AcDbBlockTableRecord
  2
_OPEN
340
0
  0
BLOCK_RECORD
  5
F770
330
7466
100
AcDbSymbolTableRecord
100
AcDbBlockTableRecord
  2
_DOTSMALL
340
0
102
{BLKREFS
331
1580D
331
1580E
331
15818
331
15819
331
181E7
331
181E8
331
181F2
331
181F3
331
181FB
331
181FC
331
18204
331
18205
331
1820E
331
1820F
331
18218
331
18219
331
18221
331
18222
331
1822C
331
1822D
331
18235
331
18236
331
1823E
331
1823F
331
18249
331
1824A
331
18252
331
18253
331
1825B
331
1825C
331
18264
331
18265
331
1826D
331
1826E
331
18276
331
18277
331
1827F
331
18280
331
18288
331
18289
331
18291
331
18292
331
1829A
331
1829B
331
182A3
331
182A4
331
182AC
331
182AD
331
182B5
331
182B6
331
182BE
331
182BF
331
182C7
331
182C8
331
182D2
331
182D3
331
182DB
331
182DC
331
182E4
331
182E5
331
182EF
331
182F0
331
182FA
331
182FB
331
18303
331
18304
331
1830E
331
1830F
102
}
  0
BLOCK_RECORD
  5
1458A
330
7466
100
AcDbSymbolTableRecord
100
AcDbBlockTableRecord
  2
*D2
340
0
  0
BLOCK_RECORD
  5
14598
330
7466
100
AcDbSymbolTableRecord
100
AcDbBlockTableRecord
  2
*D3
340
0
  0
BLOCK_RECORD
  5
145A4
330
7466
100
AcDbSymbolTableRecord
100
AcDbBlockTableRecord
  2
*D4
340
0
  0
BLOCK_RECORD
  5
145BE
330
7466
100
AcDbSymbolTableRecord
100
AcDbBlockTableRecord
  2
*D5
340
0
  0
BLOCK_RECORD
  5
145CC
330
7466
100
AcDbSymbolTableRecord
100
AcDbBlockTableRecord
  2
*D6
340
0
  0
BLOCK_RECORD
  5
145D8
330
7466
100
AcDbSymbolTableRecord
100
AcDbBlockTableRecord
  2
*D7
340
0
  0
BLOCK_RECORD
  5
14608
330
7466
100
AcDbSymbolTableRecord
100
AcDbBlockTableRecord
  2
*D8
340
0
  0
BLOCK_RECORD
  5
14616
330
7466
100
AcDbSymbolTableRecord
100
AcDbBlockTableRecord
  2
*D9
340
0
  0
BLOCK_RECORD
  5
15640
330
7466
100
AcDbSymbolTableRecord
100
AcDbBlockTableRecord
  2
*D10
340
0
  0
BLOCK_RECORD
  5
1568F
330
7466
100
AcDbSymbolTableRecord
100
AcDbBlockTableRecord
  2
*D11
340
0
  0
BLOCK_RECORD
  5
1571B
330
7466
100
AcDbSymbolTableRecord
100
AcDbBlockTableRecord
  2
*D12
340
0
  0
BLOCK_RECORD
  5
15728
330
7466
100
AcDbSymbolTableRecord
100
AcDbBlockTableRecord
  2
*D13
340
0
  0
BLOCK_RECORD
  5
1606C
330
7466
100
AcDbSymbolTableRecord
100
AcDbBlockTableRecord
  2
*D14
340
0
  0
BLOCK_RECORD
  5
16084
330
7466
100
AcDbSymbolTableRecord
100
AcDbBlockTableRecord
  2
*D15
340
0
  0
BLOCK_RECORD
  5
16090
330
7466
100
AcDbSymbolTableRecord
100
AcDbBlockTableRecord
  2
*D16
340
0
  0
BLOCK_RECORD
  5
16E55
330
7466
100
AcDbSymbolTableRecord
100
AcDbBlockTableRecord
  2
*D17
340
0
  0
BLOCK_RECORD
  5
16E61
330
7466
100
AcDbSymbolTableRecord
100
AcDbBlockTableRecord
  2
*D18
340
0
  0
BLOCK_RECORD
  5
16E6D
330
7466
100
AcDbSymbolTableRecord
100
AcDbBlockTableRecord
  2
*D19
340
0
  0
BLOCK_RECORD
  5
16E79
330
7466
100
AcDbSymbolTableRecord
100
AcDbBlockTableRecord
  2
*D20
340
0
  0
BLOCK_RECORD
  5
16E87
330
7466
100
AcDbSymbolTableRecord
100
AcDbBlockTableRecord
  2
*D21
340
0
  0
BLOCK_RECORD
  5
16E93
330
7466
100
AcDbSymbolTableRecord
100
AcDbBlockTableRecord
  2
*D22
340
0
  0
BLOCK_RECORD
  5
16E9F
330
7466
100
AcDbSymbolTableRecord
100
AcDbBlockTableRecord
  2
*D23
340
0
  0
BLOCK_RECORD
  5
16EAD
330
7466
100
AcDbSymbolTableRecord
100
AcDbBlockTableRecord
  2
*D24
340
0
  0
BLOCK_RECORD
  5
16EB9
330
7466
100
AcDbSymbolTableRecord
100
AcDbBlockTableRecord
  2
*D25
340
0
  0
BLOCK_RECORD
  5
16EC6
330
7466
100
AcDbSymbolTableRecord
100
AcDbBlockTableRecord
  2
*D26
340
0
  0
BLOCK_RECORD
  5
17B35
330
7466
100
AcDbSymbolTableRecord
100
AcDbBlockTableRecord
  2
*D27
340
0
  0
BLOCK_RECORD
  5
17BD6
330
7466
100
AcDbSymbolTableRecord
100
AcDbBlockTableRecord
  2
*D28
340
0
  0
BLOCK_RECORD
  5
17C6F
330
7466
100
AcDbSymbolTableRecord
100
AcDbBlockTableRecord
  2
*D29
340
0
  0
BLOCK_RECORD
  5
17ECC
330
7466
100
AcDbSymbolTableRecord
100
AcDbBlockTableRecord
  2
*D30
340
0
  0
BLOCK_RECORD
  5
17ED8
330
7466
100
AcDbSymbolTableRecord
100
AcDbBlockTableRecord
  2
*D31
340
0
  0
BLOCK_RECORD
  5
17EE4
330
7466
100
AcDbSymbolTableRecord
100
AcDbBlockTableRecord
  2
*D32
340
0
  0
BLOCK_RECORD
  5
17F1A
330
7466
100
AcDbSymbolTableRecord
100
AcDbBlockTableRecord
  2
*D33
340
0
  0
ENDTAB
  0
ENDSEC
  0
SECTION
  2
BLOCKS
  0
BLOCK
  5
7489
330
747D
100
AcDbEntity
  8
0
100
AcDbBlockBegin
  2
*MODEL_SPACE
 70
     0
 10
0.0
 20
0.0
 30
0.0
  3
*MODEL_SPACE
  1

  0
ENDBLK
  5
748A
330
747D
100
AcDbEntity
  8
0
100
AcDbBlockEnd
  0
BLOCK
  5
7487
330
747A
100
AcDbEntity
 67
     1
  8
0
100
AcDbBlockBegin
  2
*PAPER_SPACE
 70
     0
 10
0.0
 20
0.0
 30
0.0
  3
*PAPER_SPACE
  1

  0
ENDBLK
  5
7488
330
747A
100
AcDbEntity
 67
     1
  8
0
100
AcDbBlockEnd
  0
BLOCK
  5
DEAD
330
DEAC
100
AcDbEntity
  8
0
100
AcDbBlockBegin
  2
_OPEN
 70
     0
 10
0.0
 20
0.0
 30
0.0
  3
_OPEN
  1

  0
LINE
  5
DEAE
330
DEAC
100
AcDbEntity
  8
0
  6
ByBlock
 62
     0
100
AcDbLine
 10
-1.0
 20
0.1666666666666666
 30
0.0
 11
0.0
 21
0.0
 31
0.0
  0
LINE
  5
DEAF
330
DEAC
100
AcDbEntity
  8
0
  6
ByBlock
 62
     0
100
AcDbLine
 10
0.0
 20
0.0
 30
0.0
 11
-1.0
 21
-0.1666666666666666
 31
0.0
  0
LINE
  5
DEB0
330
DEAC
100
AcDbEntity
  8
0
  6
ByBlock
 62
     0
100
AcDbLine
 10
0.0
 20
0.0
 30
0.0
 11
-1.0
 21
0.0
 31
0.0
  0
ENDBLK
  5
DEB1
330
DEAC
100
AcDbEntity
  8
0
100
AcDbBlockEnd
  0
BLOCK
  5
F771
330
F770
100
AcDbEntity
  8
0
 48
50.0
100
AcDbBlockBegin
  2
_DOTSMALL
 70
     0
 10
0.0
 20
0.0
 30
0.0
  3
_DOTSMALL
  1

  0
LWPOLYLINE
  5
F772
330
F770
100
AcDbEntity
  8
0
  6
ByBlock
 62
     0
 48
50.0
100
AcDbPolyline
 90
        2
 70
     1
 43
0.5
 10
-0.0625
 20
0.0
 42
1.0
 10
0.0625
 20
0.0
 42
1.0
  0
ENDBLK
  5
F776
330
F770
100
AcDbEntity
  8
0
 48
50.0
100
AcDbBlockEnd
  0
BLOCK
  5
15424
330
1458A
100
AcDbEntity
  8
0
 48
50.0
100
AcDbBlockBegin
  2
*D2
 70
     1
 10
0.0
 20
0.0
 30
0.0
  3
*D2
  1

  0
LINE
  5
18309
330
1458A
100
AcDbEntity
  8
寸法
 62
     0
 48
50.0
370
    -2
100
AcDbLine
 10
3946.32583002307
 20
8999.012512816422
 30
0.0
 11
3946.32583002307
 21
9474.490862762797
 31
0.0
  0
LINE
  5
1830A
330
1458A
100
AcDbEntity
  8
寸法
 62
     0
 48
50.0
370
    -2
100
AcDbLine
 10
4001.325830023104
 20
8999.012512816422
 30
0.0
 11
4001.325830023104
 21
9474.490862762797
 31
0.0
  0
LINE
  5
1830B
330
1458A
100
AcDbEntity
  8
寸法
 62
     0
 48
50.0
370
    -2
100
AcDbLine
 10
4001.325830023104
 20
9414.490862762795
 30
0.0
 11
4101.325830023104
 21
9414.490862762795
 31
0.0
  0
LINE
  5
1830C
330
1458A
100
AcDbEntity
  8
寸法
 62
     0
 48
50.0
370
    -2
100
AcDbLine
 10
3946.32583002307
 20
9414.490862762795
 30
0.0
 11
3529.355267274592
 21
9414.490862762795
 31
0.0
  0
LINE
  5
1830D
330
1458A
100
AcDbEntity
  8
寸法
 62
     0
 48
50.0
370
    -2
100
AcDbLine
 10
4001.325830023104
 20
9414.490862762795
 30
0.0
 11
3946.32583002307
 21
9414.490862762795
 31
0.0
  0
INSERT
  5
1830E
330
1458A
100
AcDbEntity
  8
寸法
 62
     0
 48
50.0
370
    -2
100
AcDbBlockReference
  2
_DOTSMALL
 10
4001.325830023104
 20
9414.490862762795
 30
0.0
 41
100.0
 42
100.0
 43
100.0
 50
180.0
  0
INSERT
  5
1830F
330
1458A
100
AcDbEntity
  8
寸法
 62
     0
 48
50.0
370
    -2
100
AcDbBlockReference
  2
_DOTSMALL
 10
3946.32583002307
 20
9414.490862762795
 30
0.0
 41
100.0
 42
100.0
 43
100.0
  0
MTEXT
  5
18310
330
1458A
100
AcDbEntity
  8
寸法
 62
     7
 48
50.0
100
AcDbMText
 10
3637.840548648831
 20
9514.490862762796
 30
0.0
 40
120.0
 41
0.0
 71
     5
 72
     1
  1
\A1;55
  7
STYLE1
 73
     1
 44
1.0
1001
ACAD
1000
MTEXTBEGIN
1070
    73
1070
     1
1070
    44
1040
1.0
1070
    74
1070
     0
1000
MTEXTEND
  0
POINT
  5
18311
330
1458A
100
AcDbEntity
  8
DEFPOINTS
 62
     0
 48
50.0
100
AcDbPoint
 10
3946.32583002307
 20
8979.012512816423
 30
0.0
  0
POINT
  5
18312
330
1458A
100
AcDbEntity
  8
DEFPOINTS
 62
     0
 48
50.0
100
AcDbPoint
 10
4001.325830023104
 20
8979.012512816423
 30
0.0
  0
POINT
  5
18313
330
1458A
100
AcDbEntity
  8
DEFPOINTS
 62
     0
 48
50.0
100
AcDbPoint
 10
4001.325830023104
 20
9414.490862762795
 30
0.0
  0
ENDBLK
  5
15430
330
1458A
100
AcDbEntity
  8
0
 48
50.0
100
AcDbBlockEnd
  0
BLOCK
  5
14924
330
14598
100
AcDbEntity
  8
0
 48
50.0
100
AcDbBlockBegin
  2
*D3
 70
     1
 10
0.0
 20
0.0
 30
0.0
  3
*D3
  1

  0
LINE
  5
18300
330
14598
100
AcDbEntity
  8
寸法
 62
     0
 48
50.0
370
    -2
100
AcDbLine
 10
9336.325830023106
 20
8979.01251281655
 30
0.0
 11
10388.85911749715
 21
8979.01251281655
 31
0.0
  0
LINE
  5
18301
330
14598
100
AcDbEntity
  8
寸法
 62
     0
 48
50.0
370
    -2
100
AcDbLine
 10
9336.325830023081
 20
7609.01251281654
 30
0.0
 11
10388.85911749715
 21
7609.01251281654
 31
0.0
  0
LINE
  5
18302
330
14598
100
AcDbEntity
  8
寸法
 62
     0
 48
50.0
370
    -2
100
AcDbLine
 10
10328.85911749715
 20
8979.01251281655
 30
0.0
 11
10328.85911749715
 21
7609.01251281654
 31
0.0
  0
INSERT
  5
18303
330
14598
100
AcDbEntity
  8
寸法
 62
     0
 48
50.0
370
    -2
100
AcDbBlockReference
  2
_DOTSMALL
 10
10328.85911749715
 20
8979.01251281655
 30
0.0
 41
100.0
 42
100.0
 43
100.0
 50
90.0
  0
INSERT
  5
18304
330
14598
100
AcDbEntity
  8
寸法
 62
     0
 48
50.0
370
    -2
100
AcDbBlockReference
  2
_DOTSMALL
 10
10328.85911749715
 20
7609.01251281654
 30
0.0
 41
100.0
 42
100.0
 43
100.0
 50
270.0
  0
MTEXT
  5
18305
330
14598
100
AcDbEntity
  8
寸法
 62
     7
 48
50.0
100
AcDbMText
 10
10228.85911749715
 20
8294.012512816546
 30
0.0
 40
120.0
 41
0.0
 71
     5
 72
     1
  1
\A1;1370
  7
STYLE1
 11
0.0000000000000001
 21
1.0
 31
0.0
 73
     1
 44
1.0
1001
ACAD
1000
MTEXTBEGIN
1070
    73
1070
     1
1070
    44
1040
1.0
1070
    74
1070
     0
1000
MTEXTEND
  0
POINT
  5
18306
330
14598
100
AcDbEntity
  8
DEFPOINTS
 62
     0
 48
50.0
100
AcDbPoint
 10
9316.325830023107
 20
8979.01251281655
 30
0.0
  0
POINT
  5
18307
330
14598
100
AcDbEntity
  8
DEFPOINTS
 62
     0
 48
50.0
100
AcDbPoint
 10
9316.32583002308
 20
7609.01251281654
 30
0.0
  0
POINT
  5
18308
330
14598
100
AcDbEntity
  8
DEFPOINTS
 62
     0
 48
50.0
100
AcDbPoint
 10
10328.85911749715
 20
7609.01251281654
 30
0.0
  0
ENDBLK
  5
1492E
330
14598
100
AcDbEntity
  8
0
 48
50.0
100
AcDbBlockEnd
  0
BLOCK
  5
1492F
330
145A4
100
AcDbEntity
  8
0
 48
50.0
100
AcDbBlockBegin
  2
*D4
 70
     1
 10
0.0
 20
0.0
 30
0.0
  3
*D4
  1

  0
LINE
  5
182F5
330
145A4
100
AcDbEntity
  8
寸法
 62
     0
 48
50.0
370
    -2
100
AcDbLine
 10
9336.325830023106
 20
8979.01251281655
 30
0.0
 11
10023.75217575752
 21
8979.01251281655
 31
0.0
  0
LINE
  5
182F6
330
145A4
100
AcDbEntity
  8
寸法
 62
     0
 48
50.0
370
    -2
100
AcDbLine
 10
9336.325830023106
 20
8924.012512816553
 30
0.0
 11
10023.75217575752
 21
8924.012512816553
 31
0.0
  0
LINE
  5
182F7
330
145A4
100
AcDbEntity
  8
寸法
 62
     0
 48
50.0
370
    -2
100
AcDbLine
 10
9963.75217575752
 20
8924.012512816553
 30
0.0
 11
9963.75217575752
 21
8824.012512816553
 31
0.0
  0
LINE
  5
182F8
330
145A4
100
AcDbEntity
  8
寸法
 62
     0
 48
50.0
370
    -2
100
AcDbLine
 10
9963.75217575752
 20
8979.01251281655
 30
0.0
 11
9963.75217575752
 21
9395.983075565025
 31
0.0
  0
LINE
  5
182F9
330
145A4
100
AcDbEntity
  8
寸法
 62
     0
 48
50.0
370
    -2
100
AcDbLine
 10
9963.75217575752
 20
8924.012512816553
 30
0.0
 11
9963.75217575752
 21
8979.01251281655
 31
0.0
  0
INSERT
  5
182FA
330
145A4
100
AcDbEntity
  8
寸法
 62
     0
 48
50.0
370
    -2
100
AcDbBlockReference
  2
_DOTSMALL
 10
9963.75217575752
 20
8924.012512816553
 30
0.0
 41
100.0
 42
100.0
 43
100.0
 50
90.0
  0
INSERT
  5
182FB
330
145A4
100
AcDbEntity
  8
寸法
 62
     0
 48
50.0
370
    -2
100
AcDbBlockReference
  2
_DOTSMALL
 10
9963.75217575752
 20
8979.01251281655
 30
0.0
 41
100.0
 42
100.0
 43
100.0
 50
270.0
  0
MTEXT
  5
182FC
330
145A4
100
AcDbEntity
  8
寸法
 62
     7
 48
50.0
100
AcDbMText
 10
9863.752175757516
 20
9287.497794190789
 30
0.0
 40
120.0
 41
0.0
 71
     5
 72
     1
  1
\A1;55
  7
STYLE1
 11
0.0000000000000001
 21
1.0
 31
0.0
 73
     1
 44
1.0
1001
ACAD
1000
MTEXTBEGIN
1070
    73
1070
     1
1070
    44
1040
1.0
1070
    74
1070
     0
1000
MTEXTEND
  0
POINT
  5
182FD
330
145A4
100
AcDbEntity
  8
DEFPOINTS
 62
     0
 48
50.0
100
AcDbPoint
 10
9316.325830023107
 20
8979.01251281655
 30
0.0
  0
POINT
  5
182FE
330
145A4
100
AcDbEntity
  8
DEFPOINTS
 62
     0
 48
50.0
100
AcDbPoint
 10
9316.325830023107
 20
8924.012512816553
 30
0.0
  0
POINT
  5
182FF
330
145A4
100
AcDbEntity
  8
DEFPOINTS
 62
     0
 48
50.0
100
AcDbPoint
 10
9963.75217575752
 20
8924.012512816553
 30
0.0
  0
ENDBLK
  5
1493B
330
145A4
100
AcDbEntity
  8
0
 48
50.0
100
AcDbBlockEnd
  0
BLOCK
  5
1496A
330
145BE
100
AcDbEntity
  8
0
 48
50.0
100
AcDbBlockBegin
  2
*D5
 70
     1
 10
0.0
 20
0.0
 30
0.0
  3
*D5
  1

  0
LINE
  5
182EA
330
145BE
100
AcDbEntity
  8
寸法
 62
     0
 48
50.0
370
    -2
100
AcDbLine
 10
9336.325830023081
 20
7664.012512816537
 30
0.0
 11
10023.75217575749
 21
7664.012512816537
 31
0.0
  0
LINE
  5
182EB
330
145BE
100
AcDbEntity
  8
寸法
 62
     0
 48
50.0
370
    -2
100
AcDbLine
 10
9336.325830023081
 20
7609.01251281654
 30
0.0
 11
10023.75217575749
 21
7609.01251281654
 31
0.0
  0
LINE
  5
182EC
330
145BE
100
AcDbEntity
  8
寸法
 62
     0
 48
50.0
370
    -2
100
AcDbLine
 10
9963.752175757493
 20
7664.012512816537
 30
0.0
 11
9963.752175757493
 21
7764.012512816536
 31
0.0
  0
LINE
  5
182ED
330
145BE
100
AcDbEntity
  8
寸法
 62
     0
 48
50.0
370
    -2
100
AcDbLine
 10
9963.752175757493
 20
7609.01251281654
 30
0.0
 11
9963.752175757493
 21
7122.665764537439
 31
0.0
  0
LINE
  5
182EE
330
145BE
100
AcDbEntity
  8
寸法
 62
     0
 48
50.0
370
    -2
100
AcDbLine
 10
9963.752175757493
 20
7664.012512816537
 30
0.0
 11
9963.752175757493
 21
7609.01251281654
 31
0.0
  0
INSERT
  5
182EF
330
145BE
100
AcDbEntity
  8
寸法
 62
     0
 48
50.0
370
    -2
100
AcDbBlockReference
  2
_DOTSMALL
 10
9963.752175757493
 20
7664.012512816537
 30
0.0
 41
100.0
 42
100.0
 43
100.0
 50
270.0
  0
INSERT
  5
182F0
330
145BE
100
AcDbEntity
  8
寸法
 62
     0
 48
50.0
370
    -2
100
AcDbBlockReference
  2
_DOTSMALL
 10
9963.752175757493
 20
7609.01251281654
 30
0.0
 41
100.0
 42
100.0
 43
100.0
 50
90.0
  0
MTEXT
  5
182F1
330
145BE
100
AcDbEntity
  8
寸法
 62
     7
 48
50.0
100
AcDbMText
 10
9863.75217575749
 20
7231.151045911679
 30
0.0
 40
120.0
 41
0.0
 71
     5
 72
     1
  1
\A1;55
  7
STYLE1
 11
0.0000000000000001
 21
1.0
 31
0.0
 73
     1
 44
1.0
1001
ACAD
1000
MTEXTBEGIN
1070
    73
1070
     1
1070
    44
1040
1.0
1070
    74
1070
     0
1000
MTEXTEND
  0
POINT
  5
182F2
330
145BE
100
AcDbEntity
  8
DEFPOINTS
 62
     0
 48
50.0
100
AcDbPoint
 10
9316.32583002308
 20
7664.012512816537
 30
0.0
  0
POINT
  5
182F3
330
145BE
100
AcDbEntity
  8
DEFPOINTS
 62
     0
 48
50.0
100
AcDbPoint
 10
9316.32583002308
 20
7609.01251281654
 30
0.0
  0
POINT
  5
182F4
330
145BE
100
AcDbEntity
  8
DEFPOINTS
 62
     0
 48
50.0
100
AcDbPoint
 10
9963.752175757493
 20
7609.01251281654
 30
0.0
  0
ENDBLK
  5
14976
330
145BE
100
AcDbEntity
  8
0
 48
50.0
100
AcDbBlockEnd
  0
BLOCK
  5
14949
330
145CC
100
AcDbEntity
  8
0
 48
50.0
100
AcDbBlockBegin
  2
*D6
 70
     1
 10
0.0
 20
0.0
 30
0.0
  3
*D6
  1

  0
LINE
  5
182E1
330
145CC
100
AcDbEntity
  8
寸法
 62
     0
 48
50.0
370
    -2
100
AcDbLine
 10
9336.325830023106
 20
8924.012512816553
 30
0.0
 11
10023.75217575752
 21
8924.012512816553
 31
0.0
  0
LINE
  5
182E2
330
145CC
100
AcDbEntity
  8
寸法
 62
     0
 48
50.0
370
    -2
100
AcDbLine
 10
9336.325830023081
 20
7664.012512816537
 30
0.0
 11
10023.75217575752
 21
7664.012512816537
 31
0.0
  0
LINE
  5
182E3
330
145CC
100
AcDbEntity
  8
寸法
 62
     0
 48
50.0
370
    -2
100
AcDbLine
 10
9963.75217575752
 20
8924.012512816553
 30
0.0
 11
9963.75217575752
 21
7664.012512816537
 31
0.0
  0
INSERT
  5
182E4
330
145CC
100
AcDbEntity
  8
寸法
 62
     0
 48
50.0
370
    -2
100
AcDbBlockReference
  2
_DOTSMALL
 10
9963.75217575752
 20
8924.012512816553
 30
0.0
 41
100.0
 42
100.0
 43
100.0
 50
90.0
  0
INSERT
  5
182E5
330
145CC
100
AcDbEntity
  8
寸法
 62
     0
 48
50.0
370
    -2
100
AcDbBlockReference
  2
_DOTSMALL
 10
9963.75217575752
 20
7664.012512816537
 30
0.0
 41
100.0
 42
100.0
 43
100.0
 50
270.0
  0
MTEXT
  5
182E6
330
145CC
100
AcDbEntity
  8
寸法
 62
     7
 48
50.0
100
AcDbMText
 10
9863.740364733894
 20
8294.012512816546
 30
0.0
 40
120.0
 41
0.0
 71
     5
 72
     1
  1
\A1;3X420=1260
  7
STYLE1
 11
0.0000000000000001
 21
1.0
 31
0.0
 73
     1
 44
1.0
1001
ACAD
1000
MTEXTBEGIN
1070
    73
1070
     1
1070
    44
1040
1.0
1070
    74
1070
     0
1000
MTEXTEND
  0
POINT
  5
182E7
330
145CC
100
AcDbEntity
  8
DEFPOINTS
 62
     0
 48
50.0
100
AcDbPoint
 10
9316.325830023107
 20
8924.012512816553
 30
0.0
  0
POINT
  5
182E8
330
145CC
100
AcDbEntity
  8
DEFPOINTS
 62
     0
 48
50.0
100
AcDbPoint
 10
9316.32583002308
 20
7664.012512816537
 30
0.0
  0
POINT
  5
182E9
330
145CC
100
AcDbEntity
  8
DEFPOINTS
 62
     0
 48
50.0
100
AcDbPoint
 10
9963.75217575752
 20
7664.012512816537
 30
0.0
  0
ENDBLK
  5
14953
330
145CC
100
AcDbEntity
  8
0
 48
50.0
100
AcDbBlockEnd
  0
BLOCK
  5
1612A
330
145D8
100
AcDbEntity
  8
0
 48
50.0
100
AcDbBlockBegin
  2
*D7
 70
     1
 10
0.0
 20
0.0
 30
0.0
  3
*D7
  1

  0
LINE
  5
182D8
330
145D8
100
AcDbEntity
  8
寸法
 62
     0
 48
50.0
370
    -2
100
AcDbLine
 10
7526.325830023099
 20
7589.012512816376
 30
0.0
 11
7526.325830023099
 21
6784.876543462852
 31
0.0
  0
LINE
  5
182D9
330
145D8
100
AcDbEntity
  8
寸法
 62
     0
 48
50.0
370
    -2
100
AcDbLine
 10
9316.32583002308
 20
7589.012512816506
 30
0.0
 11
9316.32583002308
 21
6784.876543462852
 31
0.0
  0
LINE
  5
182DA
330
145D8
100
AcDbEntity
  8
寸法
 62
     0
 48
50.0
370
    -2
100
AcDbLine
 10
7526.325830023099
 20
6844.876543462851
 30
0.0
 11
9316.32583002308
 21
6844.876543462851
 31
0.0
  0
INSERT
  5
182DB
330
145D8
100
AcDbEntity
  8
寸法
 62
     0
 48
50.0
370
    -2
100
AcDbBlockReference
  2
_DOTSMALL
 10
7526.325830023099
 20
6844.876543462851
 30
0.0
 41
100.0
 42
100.0
 43
100.0
 50
180.0
  0
INSERT
  5
182DC
330
145D8
100
AcDbEntity
  8
寸法
 62
     0
 48
50.0
370
    -2
100
AcDbBlockReference
  2
_DOTSMALL
 10
9316.32583002308
 20
6844.876543462851
 30
0.0
 41
100.0
 42
100.0
 43
100.0
  0
MTEXT
  5
182DD
330
145D8
100
AcDbEntity
  8
寸法
 62
     7
 48
50.0
100
AcDbMText
 10
8421.325830023091
 20
6944.876543462851
 30
0.0
 40
120.0
 41
0.0
 71
     5
 72
     1
  1
\A1;1790
  7
STYLE1
 73
     1
 44
1.0
1001
ACAD
1000
MTEXTBEGIN
1070
    73
1070
     1
1070
    44
1040
1.0
1070
    74
1070
     0
1000
MTEXTEND
  0
POINT
  5
182DE
330
145D8
100
AcDbEntity
  8
DEFPOINTS
 62
     0
 48
50.0
100
AcDbPoint
 10
7526.325830023099
 20
7609.012512816376
 30
0.0
  0
POINT
  5
182DF
330
145D8
100
AcDbEntity
  8
DEFPOINTS
 62
     0
 48
50.0
100
AcDbPoint
 10
9316.32583002308
 20
7609.012512816505
 30
0.0
  0
POINT
  5
182E0
330
145D8
100
AcDbEntity
  8
DEFPOINTS
 62
     0
 48
50.0
100
AcDbPoint
 10
9316.32583002308
 20
6844.876543462851
 30
0.0
  0
ENDBLK
  5
16134
330
145D8
100
AcDbEntity
  8
0
 48
50.0
100
AcDbBlockEnd
  0
BLOCK
  5
15417
330
14608
100
AcDbEntity
  8
0
 48
50.0
100
AcDbBlockBegin
  2
*D8
 70
     1
 10
0.0
 20
0.0
 30
0.0
  3
*D8
  1

  0
LINE
  5
182CD
330
14608
100
AcDbEntity
  8
寸法
 62
     0
 48
50.0
370
    -2
100
AcDbLine
 10
9261.325830023107
 20
8999.012512816548
 30
0.0
 11
9261.325830023107
 21
9474.490862762925
 31
0.0
  0
LINE
  5
182CE
330
14608
100
AcDbEntity
  8
寸法
 62
     0
 48
50.0
370
    -2
100
AcDbLine
 10
9316.325830023107
 20
8999.012512816548
 30
0.0
 11
9316.325830023107
 21
9474.490862762925
 31
0.0
  0
LINE
  5
182CF
330
14608
100
AcDbEntity
  8
寸法
 62
     0
 48
50.0
370
    -2
100
AcDbLine
 10
9261.325830023107
 20
9414.490862762924
 30
0.0
 11
9161.325830023107
 21
9414.490862762924
 31
0.0
  0
LINE
  5
182D0
330
14608
100
AcDbEntity
  8
寸法
 62
     0
 48
50.0
370
    -2
100
AcDbLine
 10
9316.325830023107
 20
9414.490862762924
 30
0.0
 11
9733.296392771583
 21
9414.490862762924
 31
0.0
  0
LINE
  5
182D1
330
14608
100
AcDbEntity
  8
寸法
 62
     0
 48
50.0
370
    -2
100
AcDbLine
 10
9261.325830023107
 20
9414.490862762924
 30
0.0
 11
9316.325830023107
 21
9414.490862762924
 31
0.0
  0
INSERT
  5
182D2
330
14608
100
AcDbEntity
  8
寸法
 62
     0
 48
50.0
370
    -2
100
AcDbBlockReference
  2
_DOTSMALL
 10
9261.325830023107
 20
9414.490862762924
 30
0.0
 41
100.0
 42
100.0
 43
100.0
  0
INSERT
  5
182D3
330
14608
100
AcDbEntity
  8
寸法
 62
     0
 48
50.0
370
    -2
100
AcDbBlockReference
  2
_DOTSMALL
 10
9316.325830023107
 20
9414.490862762924
 30
0.0
 41
100.0
 42
100.0
 43
100.0
 50
180.0
  0
MTEXT
  5
182D4
330
14608
100
AcDbEntity
  8
寸法
 62
     7
 48
50.0
100
AcDbMText
 10
9624.811111397345
 20
9514.490862762924
 30
0.0
 40
120.0
 41
0.0
 71
     5
 72
     1
  1
\A1;55
  7
STYLE1
 73
     1
 44
1.0
1001
ACAD
1000
MTEXTBEGIN
1070
    73
1070
     1
1070
    44
1040
1.0
1070
    74
1070
     0
1000
MTEXTEND
  0
POINT
  5
182D5
330
14608
100
AcDbEntity
  8
DEFPOINTS
 62
     0
 48
50.0
100
AcDbPoint
 10
9261.325830023107
 20
8979.01251281655
 30
0.0
  0
POINT
  5
182D6
330
14608
100
AcDbEntity
  8
DEFPOINTS
 62
     0
 48
50.0
100
AcDbPoint
 10
9316.325830023107
 20
8979.01251281655
 30
0.0
  0
POINT
  5
182D7
330
14608
100
AcDbEntity
  8
DEFPOINTS
 62
     0
 48
50.0
100
AcDbPoint
 10
9316.325830023107
 20
9414.490862762924
 30
0.0
  0
ENDBLK
  5
15423
330
14608
100
AcDbEntity
  8
0
 48
50.0
100
AcDbBlockEnd
  0
BLOCK
  5
16159
330
14616
100
AcDbEntity
  8
0
 48
50.0
100
AcDbBlockBegin
  2
*D9
 70
     1
 10
0.0
 20
0.0
 30
0.0
  3
*D9
  1

  0
LINE
  5
182C4
330
14616
100
AcDbEntity
  8
寸法
 62
     0
 48
50.0
370
    -2
100
AcDbLine
 10
7581.325830023104
 20
8999.012512816422
 30
0.0
 11
7581.325830023104
 21
9474.490862762944
 31
0.0
  0
LINE
  5
182C5
330
14616
100
AcDbEntity
  8
寸法
 62
     0
 48
50.0
370
    -2
100
AcDbLine
 10
9261.325830023107
 20
8999.012512816548
 30
0.0
 11
9261.325830023107
 21
9474.490862762944
 31
0.0
  0
LINE
  5
182C6
330
14616
100
AcDbEntity
  8
寸法
 62
     0
 48
50.0
370
    -2
100
AcDbLine
 10
7581.325830023104
 20
9414.490862762944
 30
0.0
 11
9261.325830023107
 21
9414.490862762944
 31
0.0
  0
INSERT
  5
182C7
330
14616
100
AcDbEntity
  8
寸法
 62
     0
 48
50.0
370
    -2
100
AcDbBlockReference
  2
_DOTSMALL
 10
7581.325830023104
 20
9414.490862762944
 30
0.0
 41
100.0
 42
100.0
 43
100.0
 50
180.0
  0
INSERT
  5
182C8
330
14616
100
AcDbEntity
  8
寸法
 62
     0
 48
50.0
370
    -2
100
AcDbBlockReference
  2
_DOTSMALL
 10
9261.325830023107
 20
9414.490862762944
 30
0.0
 41
100.0
 42
100.0
 43
100.0
  0
MTEXT
  5
182C9
330
14616
100
AcDbEntity
  8
寸法
 62
     7
 48
50.0
100
AcDbMText
 10
8421.325830023105
 20
9514.502673786566
 30
0.0
 40
120.0
 41
0.0
 71
     5
 72
     1
  1
\A1;4X420=1680
  7
STYLE1
 73
     1
 44
1.0
1001
ACAD
1000
MTEXTBEGIN
1070
    73
1070
     1
1070
    44
1040
1.0
1070
    74
1070
     0
1000
MTEXTEND
  0
POINT
  5
182CA
330
14616
100
AcDbEntity
  8
DEFPOINTS
 62
     0
 48
50.0
100
AcDbPoint
 10
7581.325830023104
 20
8979.012512816423
 30
0.0
  0
POINT
  5
182CB
330
14616
100
AcDbEntity
  8
DEFPOINTS
 62
     0
 48
50.0
100
AcDbPoint
 10
9261.325830023107
 20
8979.01251281655
 30
0.0
  0
POINT
  5
182CC
330
14616
100
AcDbEntity
  8
DEFPOINTS
 62
     0
 48
50.0
100
AcDbPoint
 10
9261.325830023107
 20
9414.490862762944
 30
0.0
  0
ENDBLK
  5
16163
330
14616
100
AcDbEntity
  8
0
 48
50.0
100
AcDbBlockEnd
  0
BLOCK
  5
16135
330
15640
100
AcDbEntity
  8
0
 48
50.0
100
AcDbBlockBegin
  2
*D10
 70
     1
 10
0.0
 20
0.0
 30
0.0
  3
*D10
  1

  0
LINE
  5
182BB
330
15640
100
AcDbEntity
  8
寸法
 62
     0
 48
50.0
370
    -2
100
AcDbLine
 10
5736.325830023098
 20
7589.012512816376
 30
0.0
 11
5736.325830023098
 21
6784.876543462852
 31
0.0
  0
LINE
  5
182BC
330
15640
100
AcDbEntity
  8
寸法
 62
     0
 48
50.0
370
    -2
100
AcDbLine
 10
7526.32583002308
 20
7589.012512816506
 30
0.0
 11
7526.32583002308
 21
6784.876543462852
 31
0.0
  0
LINE
  5
182BD
330
15640
100
AcDbEntity
  8
寸法
 62
     0
 48
50.0
370
    -2
100
AcDbLine
 10
5736.325830023098
 20
6844.876543462851
 30
0.0
 11
7526.32583002308
 21
6844.876543462851
 31
0.0
  0
INSERT
  5
182BE
330
15640
100
AcDbEntity
  8
寸法
 62
     0
 48
50.0
370
    -2
100
AcDbBlockReference
  2
_DOTSMALL
 10
5736.325830023098
 20
6844.876543462851
 30
0.0
 41
100.0
 42
100.0
 43
100.0
 50
180.0
  0
INSERT
  5
182BF
330
15640
100
AcDbEntity
  8
寸法
 62
     0
 48
50.0
370
    -2
100
AcDbBlockReference
  2
_DOTSMALL
 10
7526.32583002308
 20
6844.876543462851
 30
0.0
 41
100.0
 42
100.0
 43
100.0
  0
MTEXT
  5
182C0
330
15640
100
AcDbEntity
  8
寸法
 62
     7
 48
50.0
100
AcDbMText
 10
6631.32583002309
 20
6944.876543462851
 30
0.0
 40
120.0
 41
0.0
 71
     5
 72
     1
  1
\A1;1790
  7
STYLE1
 73
     1
 44
1.0
1001
ACAD
1000
MTEXTBEGIN
1070
    73
1070
     1
1070
    44
1040
1.0
1070
    74
1070
     0
1000
MTEXTEND
  0
POINT
  5
182C1
330
15640
100
AcDbEntity
  8
DEFPOINTS
 62
     0
 48
50.0
100
AcDbPoint
 10
5736.325830023098
 20
7609.012512816376
 30
0.0
  0
POINT
  5
182C2
330
15640
100
AcDbEntity
  8
DEFPOINTS
 62
     0
 48
50.0
100
AcDbPoint
 10
7526.32583002308
 20
7609.012512816505
 30
0.0
  0
POINT
  5
182C3
330
15640
100
AcDbEntity
  8
DEFPOINTS
 62
     0
 48
50.0
100
AcDbPoint
 10
7526.32583002308
 20
6844.876543462851
 30
0.0
  0
ENDBLK
  5
1613F
330
15640
100
AcDbEntity
  8
0
 48
50.0
100
AcDbBlockEnd
  0
BLOCK
  5
16164
330
1568F
100
AcDbEntity
  8
0
 48
50.0
100
AcDbBlockBegin
  2
*D11
 70
     1
 10
0.0
 20
0.0
 30
0.0
  3
*D11
  1

  0
LINE
  5
182B2
330
1568F
100
AcDbEntity
  8
寸法
 62
     0
 48
50.0
370
    -2
100
AcDbLine
 10
5791.325830023104
 20
8999.012512816422
 30
0.0
 11
5791.325830023104
 21
9474.490862762944
 31
0.0
  0
LINE
  5
182B3
330
1568F
100
AcDbEntity
  8
寸法
 62
     0
 48
50.0
370
    -2
100
AcDbLine
 10
7471.325830023106
 20
8999.012512816548
 30
0.0
 11
7471.325830023106
 21
9474.490862762944
 31
0.0
  0
LINE
  5
182B4
330
1568F
100
AcDbEntity
  8
寸法
 62
     0
 48
50.0
370
    -2
100
AcDbLine
 10
5791.325830023104
 20
9414.490862762944
 30
0.0
 11
7471.325830023106
 21
9414.490862762944
 31
0.0
  0
INSERT
  5
182B5
330
1568F
100
AcDbEntity
  8
寸法
 62
     0
 48
50.0
370
    -2
100
AcDbBlockReference
  2
_DOTSMALL
 10
5791.325830023104
 20
9414.490862762944
 30
0.0
 41
100.0
 42
100.0
 43
100.0
 50
180.0
  0
INSERT
  5
182B6
330
1568F
100
AcDbEntity
  8
寸法
 62
     0
 48
50.0
370
    -2
100
AcDbBlockReference
  2
_DOTSMALL
 10
7471.325830023106
 20
9414.490862762944
 30
0.0
 41
100.0
 42
100.0
 43
100.0
  0
MTEXT
  5
182B7
330
1568F
100
AcDbEntity
  8
寸法
 62
     7
 48
50.0
100
AcDbMText
 10
6631.325830023104
 20
9514.502673786566
 30
0.0
 40
120.0
 41
0.0
 71
     5
 72
     1
  1
\A1;4X420=1680
  7
STYLE1
 73
     1
 44
1.0
1001
ACAD
1000
MTEXTBEGIN
1070
    73
1070
     1
1070
    44
1040
1.0
1070
    74
1070
     0
1000
MTEXTEND
  0
POINT
  5
182B8
330
1568F
100
AcDbEntity
  8
DEFPOINTS
 62
     0
 48
50.0
100
AcDbPoint
 10
5791.325830023104
 20
8979.012512816423
 30
0.0
  0
POINT
  5
182B9
330
1568F
100
AcDbEntity
  8
DEFPOINTS
 62
     0
 48
50.0
100
AcDbPoint
 10
7471.325830023106
 20
8979.01251281655
 30
0.0
  0
POINT
  5
182BA
330
1568F
100
AcDbEntity
  8
DEFPOINTS
 62
     0
 48
50.0
100
AcDbPoint
 10
7471.325830023106
 20
9414.490862762944
 30
0.0
  0
ENDBLK
  5
1616E
330
1568F
100
AcDbEntity
  8
0
 48
50.0
100
AcDbBlockEnd
  0
BLOCK
  5
1571C
330
1571B
100
AcDbEntity
  8
0
 48
50.0
100
AcDbBlockBegin
  2
*D12
 70
     1
 10
0.0
 20
0.0
 30
0.0
  3
*D12
  1

  0
LINE
  5
182A9
330
1571B
100
AcDbEntity
  8
寸法
 62
     0
 48
50.0
370
    -2
100
AcDbLine
 10
7581.325830023104
 20
8999.012512816422
 30
0.0
 11
7581.325830023104
 21
9474.490862762944
 31
0.0
  0
LINE
  5
182AA
330
1571B
100
AcDbEntity
  8
寸法
 62
     0
 48
50.0
370
    -2
100
AcDbLine
 10
7471.325830023104
 20
8999.012512816422
 30
0.0
 11
7471.325830023104
 21
9474.490862762944
 31
0.0
  0
LINE
  5
182AB
330
1571B
100
AcDbEntity
  8
寸法
 62
     0
 48
50.0
370
    -2
100
AcDbLine
 10
7581.325830023104
 20
9414.490862762944
 30
0.0
 11
7471.325830023104
 21
9414.490862762944
 31
0.0
  0
INSERT
  5
182AC
330
1571B
100
AcDbEntity
  8
寸法
 62
     0
 48
50.0
370
    -2
100
AcDbBlockReference
  2
_DOTSMALL
 10
7581.325830023104
 20
9414.490862762944
 30
0.0
 41
100.0
 42
100.0
 43
100.0
  0
INSERT
  5
182AD
330
1571B
100
AcDbEntity
  8
寸法
 62
     0
 48
50.0
370
    -2
100
AcDbBlockReference
  2
_DOTSMALL
 10
7471.325830023104
 20
9414.490862762944
 30
0.0
 41
100.0
 42
100.0
 43
100.0
 50
180.0
  0
MTEXT
  5
182AE
330
1571B
100
AcDbEntity
  8
寸法
 62
     7
 48
50.0
100
AcDbMText
 10
7526.325830023104
 20
9514.490862762945
 30
0.0
 40
120.0
 41
0.0
 71
     5
 72
     1
  1
\A1;110
  7
STYLE1
 73
     1
 44
1.0
1001
ACAD
1000
MTEXTBEGIN
1070
    73
1070
     1
1070
    44
1040
1.0
1070
    74
1070
     0
1000
MTEXTEND
  0
POINT
  5
182AF
330
1571B
100
AcDbEntity
  8
DEFPOINTS
 62
     0
 48
50.0
100
AcDbPoint
 10
7581.325830023104
 20
8979.012512816423
 30
0.0
  0
POINT
  5
182B0
330
1571B
100
AcDbEntity
  8
DEFPOINTS
 62
     0
 48
50.0
100
AcDbPoint
 10
7471.325830023104
 20
8979.012512816423
 30
0.0
  0
POINT
  5
182B1
330
1571B
100
AcDbEntity
  8
DEFPOINTS
 62
     0
 48
50.0
100
AcDbPoint
 10
7471.325830023104
 20
9414.490862762944
 30
0.0
  0
ENDBLK
  5
15726
330
1571B
100
AcDbEntity
  8
0
 48
50.0
100
AcDbBlockEnd
  0
BLOCK
  5
15741
330
15728
100
AcDbEntity
  8
0
 48
50.0
100
AcDbBlockBegin
  2
*D13
 70
     1
 10
0.0
 20
0.0
 30
0.0
  3
*D13
  1

  0
LINE
  5
182A0
330
15728
100
AcDbEntity
  8
寸法
 62
     0
 48
50.0
370
    -2
100
AcDbLine
 10
5791.325830023104
 20
8999.012512816465
 30
0.0
 11
5791.325830023104
 21
9474.490862762944
 31
0.0
  0
LINE
  5
182A1
330
15728
100
AcDbEntity
  8
寸法
 62
     0
 48
50.0
370
    -2
100
AcDbLine
 10
5681.325830023105
 20
8999.012512816548
 30
0.0
 11
5681.325830023105
 21
9474.490862762944
 31
0.0
  0
LINE
  5
182A2
330
15728
100
AcDbEntity
  8
寸法
 62
     0
 48
50.0
370
    -2
100
AcDbLine
 10
5791.325830023104
 20
9414.490862762944
 30
0.0
 11
5681.325830023105
 21
9414.490862762944
 31
0.0
  0
INSERT
  5
182A3
330
15728
100
AcDbEntity
  8
寸法
 62
     0
 48
50.0
370
    -2
100
AcDbBlockReference
  2
_DOTSMALL
 10
5791.325830023104
 20
9414.490862762944
 30
0.0
 41
100.0
 42
100.0
 43
100.0
  0
INSERT
  5
182A4
330
15728
100
AcDbEntity
  8
寸法
 62
     0
 48
50.0
370
    -2
100
AcDbBlockReference
  2
_DOTSMALL
 10
5681.325830023105
 20
9414.490862762944
 30
0.0
 41
100.0
 42
100.0
 43
100.0
 50
180.0
  0
MTEXT
  5
182A5
330
15728
100
AcDbEntity
  8
寸法
 62
     7
 48
50.0
100
AcDbMText
 10
5736.325830023105
 20
9514.490862762945
 30
0.0
 40
120.0
 41
0.0
 71
     5
 72
     1
  1
\A1;110
  7
STYLE1
 73
     1
 44
1.0
1001
ACAD
1000
MTEXTBEGIN
1070
    73
1070
     1
1070
    44
1040
1.0
1070
    74
1070
     0
1000
MTEXTEND
  0
POINT
  5
182A6
330
15728
100
AcDbEntity
  8
DEFPOINTS
 62
     0
 48
50.0
100
AcDbPoint
 10
5791.325830023104
 20
8979.012512816465
 30
0.0
  0
POINT
  5
182A7
330
15728
100
AcDbEntity
  8
DEFPOINTS
 62
     0
 48
50.0
100
AcDbPoint
 10
5681.325830023105
 20
8979.01251281655
 30
0.0
  0
POINT
  5
182A8
330
15728
100
AcDbEntity
  8
DEFPOINTS
 62
     0
 48
50.0
100
AcDbPoint
 10
5681.325830023105
 20
9414.490862762944
 30
0.0
  0
ENDBLK
  5
1574B
330
15728
100
AcDbEntity
  8
0
 48
50.0
100
AcDbBlockEnd
  0
BLOCK
  5
1606D
330
1606C
100
AcDbEntity
  8
0
 48
50.0
100
AcDbBlockBegin
  2
*D14
 70
     1
 10
0.0
 20
0.0
 30
0.0
  3
*D14
  1

  0
LINE
  5
18285
330
1606C
100
AcDbEntity
  8
寸法
 62
     0
 48
50.0
370
    -2
100
AcDbLine
 10
7549.466846174484
 20
8479.012512816453
 30
0.0
 11
7460.180104920808
 21
8145.789858015481
 31
0.0
  0
LINE
  5
18286
330
1606C
100
AcDbEntity
  8
寸法
 62
     0
 48
50.0
370
    -2
100
AcDbLine
 10
8402.466846174496
 20
8479.012512816447
 30
0.0
 11
8313.180104920821
 21
8145.789858015481
 31
0.0
  0
LINE
  5
18287
330
1606C
100
AcDbEntity
  8
寸法
 62
     0
 48
50.0
370
    -2
100
AcDbLine
 10
7476.257056466676
 20
8205.78985801548
 30
0.0
 11
8329.257056466687
 21
8205.78985801548
 31
0.0
  0
INSERT
  5
18288
330
1606C
100
AcDbEntity
  8
寸法
 62
     0
 48
50.0
370
    -2
100
AcDbBlockReference
  2
_DOTSMALL
 10
7476.257056466676
 20
8205.78985801548
 30
0.0
 41
100.0
 42
100.0
 43
100.0
 50
180.0
  0
INSERT
  5
18289
330
1606C
100
AcDbEntity
  8
寸法
 62
     0
 48
50.0
370
    -2
100
AcDbBlockReference
  2
_DOTSMALL
 10
8329.257056466687
 20
8205.78985801548
 30
0.0
 41
100.0
 42
100.0
 43
100.0
  0
MTEXT
  5
1828A
330
1606C
100
AcDbEntity
  8
寸法
 62
     7
 48
50.0
100
AcDbMText
 10
7934.172892141375
 20
8305.789858015479
 30
0.0
 40
120.0
 41
0.0
 71
     5
 72
     1
  1
\A1;853
  7
STYLE1
 73
     1
 44
1.0
1001
ACAD
1000
MTEXTBEGIN
1070
    73
1070
     1
1070
    44
1040
1.0
1070
    74
1070
     0
1000
MTEXTEND
  0
POINT
  5
1828B
330
1606C
100
AcDbEntity
  8
DEFPOINTS
 62
     0
 48
50.0
100
AcDbPoint
 10
7554.825830023107
 20
8499.012512816454
 30
0.0
  0
POINT
  5
1828C
330
1606C
100
AcDbEntity
  8
DEFPOINTS
 62
     0
 48
50.0
100
AcDbPoint
 10
8407.825830023117
 20
8499.012512816447
 30
0.0
  0
POINT
  5
1828D
330
1606C
100
AcDbEntity
  8
DEFPOINTS
 62
     0
 48
50.0
100
AcDbPoint
 10
8329.257056466687
 20
8205.78985801548
 30
0.0
  0
ENDBLK
  5
16077
330
1606C
100
AcDbEntity
  8
0
 48
50.0
100
AcDbBlockEnd
  0
BLOCK
  5
16085
330
16084
100
AcDbEntity
  8
0
 48
50.0
100
AcDbBlockBegin
  2
*D15
 70
     1
 10
0.0
 20
0.0
 30
0.0
  3
*D15
  1

  0
LINE
  5
1828E
330
16084
100
AcDbEntity
  8
寸法
 62
     0
 48
50.0
370
    -2
100
AcDbLine
 10
8429.466846174484
 20
8479.012512816558
 30
0.0
 11
8340.180104920808
 21
8145.789858015586
 31
0.0
  0
LINE
  5
1828F
330
16084
100
AcDbEntity
  8
寸法
 62
     0
 48
50.0
370
    -2
100
AcDbLine
 10
9282.466846174495
 20
8479.012512816552
 30
0.0
 11
9193.18010492082
 21
8145.789858015586
 31
0.0
  0
LINE
  5
18290
330
16084
100
AcDbEntity
  8
寸法
 62
     0
 48
50.0
370
    -2
100
AcDbLine
 10
8356.257056466676
 20
8205.789858015585
 30
0.0
 11
9209.257056466688
 21
8205.789858015585
 31
0.0
  0
INSERT
  5
18291
330
16084
100
AcDbEntity
  8
寸法
 62
     0
 48
50.0
370
    -2
100
AcDbBlockReference
  2
_DOTSMALL
 10
8356.257056466676
 20
8205.789858015585
 30
0.0
 41
100.0
 42
100.0
 43
100.0
 50
180.0
  0
INSERT
  5
18292
330
16084
100
AcDbEntity
  8
寸法
 62
     0
 48
50.0
370
    -2
100
AcDbBlockReference
  2
_DOTSMALL
 10
9209.257056466688
 20
8205.789858015585
 30
0.0
 41
100.0
 42
100.0
 43
100.0
  0
MTEXT
  5
18293
330
16084
100
AcDbEntity
  8
寸法
 62
     7
 48
50.0
100
AcDbMText
 10
8814.172892141375
 20
8305.789858015584
 30
0.0
 40
120.0
 41
0.0
 71
     5
 72
     1
  1
\A1;853
  7
STYLE1
 73
     1
 44
1.0
1001
ACAD
1000
MTEXTBEGIN
1070
    73
1070
     1
1070
    44
1040
1.0
1070
    74
1070
     0
1000
MTEXTEND
  0
POINT
  5
18294
330
16084
100
AcDbEntity
  8
DEFPOINTS
 62
     0
 48
50.0
100
AcDbPoint
 10
8434.825830023106
 20
8499.012512816559
 30
0.0
  0
POINT
  5
18295
330
16084
100
AcDbEntity
  8
DEFPOINTS
 62
     0
 48
50.0
100
AcDbPoint
 10
9287.825830023118
 20
8499.012512816554
 30
0.0
  0
POINT
  5
18296
330
16084
100
AcDbEntity
  8
DEFPOINTS
 62
     0
 48
50.0
100
AcDbPoint
 10
9209.257056466688
 20
8205.789858015585
 30
0.0
  0
ENDBLK
  5
1608F
330
16084
100
AcDbEntity
  8
0
 48
50.0
100
AcDbBlockEnd
  0
BLOCK
  5
16091
330
16090
100
AcDbEntity
  8
0
 48
50.0
100
AcDbBlockBegin
  2
*D16
 70
     1
 10
0.0
 20
0.0
 30
0.0
  3
*D16
  1

  0
LINE
  5
18297
330
16090
100
AcDbEntity
  8
寸法
 62
     0
 48
50.0
370
    -2
100
AcDbLine
 10
9307.825830023107
 20
8943.653528967926
 30
0.0
 11
9703.183555885132
 21
8837.717745601793
 31
0.0
  0
LINE
  5
18298
330
16090
100
AcDbEntity
  8
寸法
 62
     0
 48
50.0
370
    -2
100
AcDbLine
 10
9307.825830023107
 20
8493.653528967929
 30
0.0
 11
9703.183555885132
 21
8387.717745601795
 31
0.0
  0
LINE
  5
18299
330
16090
100
AcDbEntity
  8
寸法
 62
     0
 48
50.0
370
    -2
100
AcDbLine
 10
9643.18355588513
 20
8853.794697147661
 30
0.0
 11
9643.18355588513
 21
8403.794697147661
 31
0.0
  0
INSERT
  5
1829A
330
16090
100
AcDbEntity
  8
寸法
 62
     0
 48
50.0
370
    -2
100
AcDbBlockReference
  2
_DOTSMALL
 10
9643.18355588513
 20
8853.794697147661
 30
0.0
 41
100.0
 42
100.0
 43
100.0
 50
90.0
  0
INSERT
  5
1829B
330
16090
100
AcDbEntity
  8
寸法
 62
     0
 48
50.0
370
    -2
100
AcDbBlockReference
  2
_DOTSMALL
 10
9643.18355588513
 20
8403.794697147661
 30
0.0
 41
100.0
 42
100.0
 43
100.0
 50
270.0
  0
MTEXT
  5
1829C
330
16090
100
AcDbEntity
  8
寸法
 62
     7
 48
50.0
100
AcDbMText
 10
9543.183555885129
 20
8628.794697147663
 30
0.0
 40
120.0
 41
0.0
 71
     5
 72
     1
  1
\A1;450
  7
STYLE1
 11
0.0000000000000001
 21
1.0
 31
0.0
 73
     1
 44
1.0
1001
ACAD
1000
MTEXTBEGIN
1070
    73
1070
     1
1070
    44
1040
1.0
1070
    74
1070
     0
1000
MTEXTEND
  0
POINT
  5
1829D
330
16090
100
AcDbEntity
  8
DEFPOINTS
 62
     0
 48
50.0
100
AcDbPoint
 10
9287.825830023107
 20
8949.012512816549
 30
0.0
  0
POINT
  5
1829E
330
16090
100
AcDbEntity
  8
DEFPOINTS
 62
     0
 48
50.0
100
AcDbPoint
 10
9287.825830023107
 20
8499.012512816552
 30
0.0
  0
POINT
  5
1829F
330
16090
100
AcDbEntity
  8
DEFPOINTS
 62
     0
 48
50.0
100
AcDbPoint
 10
9643.18355588513
 20
8403.794697147661
 30
0.0
  0
ENDBLK
  5
1609B
330
16090
100
AcDbEntity
  8
0
 48
50.0
100
AcDbBlockEnd
  0
BLOCK
  5
16E5F
330
16E55
100
AcDbEntity
  8
0
 48
50.0
100
AcDbBlockBegin
  2
*D17
 70
     1
 10
0.0
 20
0.0
 30
0.0
  3
*D17
  1

  0
LINE
  5
18261
330
16E55
100
AcDbEntity
  8
寸法
 62
     0
 48
50.0
370
    -2
100
AcDbLine
 10
11232.12321183059
 20
4911.418029843932
 30
0.0
 11
10647.21457043333
 21
4911.418029843932
 31
0.0
  0
LINE
  5
18262
330
16E55
100
AcDbEntity
  8
寸法
 62
     0
 48
50.0
370
    -2
100
AcDbLine
 10
11232.12321183059
 20
3141.418029843932
 30
0.0
 11
10647.21457043333
 21
3141.418029843932
 31
0.0
  0
LINE
  5
18263
330
16E55
100
AcDbEntity
  8
寸法
 62
     0
 48
50.0
370
    -2
100
AcDbLine
 10
10707.21457043333
 20
4911.418029843932
 30
0.0
 11
10707.21457043333
 21
3141.418029843932
 31
0.0
  0
INSERT
  5
18264
330
16E55
100
AcDbEntity
  8
寸法
 62
     0
 48
50.0
370
    -2
100
AcDbBlockReference
  2
_DOTSMALL
 10
10707.21457043333
 20
4911.418029843932
 30
0.0
 41
100.0
 42
100.0
 43
100.0
 50
90.0
  0
INSERT
  5
18265
330
16E55
100
AcDbEntity
  8
寸法
 62
     0
 48
50.0
370
    -2
100
AcDbBlockReference
  2
_DOTSMALL
 10
10707.21457043333
 20
3141.418029843932
 30
0.0
 41
100.0
 42
100.0
 43
100.0
 50
270.0
  0
MTEXT
  5
18266
330
16E55
100
AcDbEntity
  8
寸法
 62
     7
 48
50.0
100
AcDbMText
 10
10607.21457043333
 20
4026.418029843934
 30
0.0
 40
120.0
 41
0.0
 71
     5
 72
     1
  1
\A1;有効開口部高サ1770
  7
STYLE1
 11
0.0000000000000001
 21
1.0
 31
0.0
 73
     1
 44
1.0
1001
ACAD
1000
MTEXTBEGIN
1070
    73
1070
     1
1070
    44
1040
1.0
1070
    74
1070
     0
1000
MTEXTEND
  0
POINT
  5
18267
330
16E55
100
AcDbEntity
  8
DEFPOINTS
 62
     0
 48
50.0
100
AcDbPoint
 10
11252.12321183059
 20
4911.418029843932
 30
0.0
  0
POINT
  5
18268
330
16E55
100
AcDbEntity
  8
DEFPOINTS
 62
     0
 48
50.0
100
AcDbPoint
 10
11252.12321183059
 20
3141.418029843932
 30
0.0
  0
POINT
  5
18269
330
16E55
100
AcDbEntity
  8
DEFPOINTS
 62
     0
 48
50.0
100
AcDbPoint
 10
10707.21457043333
 20
3141.418029843932
 30
0.0
  0
ENDBLK
  5
16E60
330
16E55
100
AcDbEntity
  8
0
 48
50.0
100
AcDbBlockEnd
  0
BLOCK
  5
16E6B
330
16E61
100
AcDbEntity
  8
0
 48
50.0
100
AcDbBlockBegin
  2
*D18
 70
     1
 10
0.0
 20
0.0
 30
0.0
  3
*D18
  1

  0
LINE
  5
18258
330
16E61
100
AcDbEntity
  8
寸法
 62
     0
 48
50.0
370
    -2
100
AcDbLine
 10
11232.12321183059
 20
4919.418029843932
 30
0.0
 11
10348.37308264733
 21
4919.418029843932
 31
0.0
  0
LINE
  5
18259
330
16E61
100
AcDbEntity
  8
寸法
 62
     0
 48
50.0
370
    -2
100
AcDbLine
 10
11232.12321183059
 20
3129.418029843932
 30
0.0
 11
10348.37308264733
 21
3129.418029843932
 31
0.0
  0
LINE
  5
1825A
330
16E61
100
AcDbEntity
  8
寸法
 62
     0
 48
50.0
370
    -2
100
AcDbLine
 10
10408.37308264733
 20
4919.418029843932
 30
0.0
 11
10408.37308264733
 21
3129.418029843932
 31
0.0
  0
INSERT
  5
1825B
330
16E61
100
AcDbEntity
  8
寸法
 62
     0
 48
50.0
370
    -2
100
AcDbBlockReference
  2
_DOTSMALL
 10
10408.37308264733
 20
4919.418029843932
 30
0.0
 41
100.0
 42
100.0
 43
100.0
 50
90.0
  0
INSERT
  5
1825C
330
16E61
100
AcDbEntity
  8
寸法
 62
     0
 48
50.0
370
    -2
100
AcDbBlockReference
  2
_DOTSMALL
 10
10408.37308264733
 20
3129.418029843932
 30
0.0
 41
100.0
 42
100.0
 43
100.0
 50
270.0
  0
MTEXT
  5
1825D
330
16E61
100
AcDbEntity
  8
寸法
 62
     7
 48
50.0
100
AcDbMText
 10
10308.37308264733
 20
4024.418029843934
 30
0.0
 40
120.0
 41
0.0
 71
     5
 72
     1
  1
\A1;1790
  7
STYLE1
 11
0.0000000000000001
 21
1.0
 31
0.0
 73
     1
 44
1.0
1001
ACAD
1000
MTEXTBEGIN
1070
    73
1070
     1
1070
    44
1040
1.0
1070
    74
1070
     0
1000
MTEXTEND
  0
POINT
  5
1825E
330
16E61
100
AcDbEntity
  8
DEFPOINTS
 62
     0
 48
50.0
100
AcDbPoint
 10
11252.12321183059
 20
4919.418029843932
 30
0.0
  0
POINT
  5
1825F
330
16E61
100
AcDbEntity
  8
DEFPOINTS
 62
     0
 48
50.0
100
AcDbPoint
 10
11252.12321183059
 20
3129.418029843932
 30
0.0
  0
POINT
  5
18260
330
16E61
100
AcDbEntity
  8
DEFPOINTS
 62
     0
 48
50.0
100
AcDbPoint
 10
10408.37308264733
 20
3129.418029843932
 30
0.0
  0
ENDBLK
  5
16E6C
330
16E61
100
AcDbEntity
  8
0
 48
50.0
100
AcDbBlockEnd
  0
BLOCK
  5
16E77
330
16E6D
100
AcDbEntity
  8
0
 48
50.0
100
AcDbBlockBegin
  2
*D19
 70
     1
 10
0.0
 20
0.0
 30
0.0
  3
*D19
  1

  0
LINE
  5
1824F
330
16E6D
100
AcDbEntity
  8
寸法
 62
     0
 48
50.0
370
    -2
100
AcDbLine
 10
11232.12321183059
 20
3079.418029843932
 30
0.0
 11
10048.37308264733
 21
3079.418029843932
 31
0.0
  0
LINE
  5
18250
330
16E6D
100
AcDbEntity
  8
寸法
 62
     0
 48
50.0
370
    -2
100
AcDbLine
 10
11172.12321183059
 20
5154.418029843935
 30
0.0
 11
10048.37308264733
 21
5154.418029843937
 31
0.0
  0
LINE
  5
18251
330
16E6D
100
AcDbEntity
  8
寸法
 62
     0
 48
50.0
370
    -2
100
AcDbLine
 10
10108.37308264733
 20
3079.418029843932
 30
0.0
 11
10108.37308264733
 21
5154.418029843937
 31
0.0
  0
INSERT
  5
18252
330
16E6D
100
AcDbEntity
  8
寸法
 62
     0
 48
50.0
370
    -2
100
AcDbBlockReference
  2
_DOTSMALL
 10
10108.37308264733
 20
3079.418029843932
 30
0.0
 41
100.0
 42
100.0
 43
100.0
 50
270.0
  0
INSERT
  5
18253
330
16E6D
100
AcDbEntity
  8
寸法
 62
     0
 48
50.0
370
    -2
100
AcDbBlockReference
  2
_DOTSMALL
 10
10108.37308264733
 20
5154.418029843937
 30
0.0
 41
100.0
 42
100.0
 43
100.0
 50
90.0
  0
MTEXT
  5
18254
330
16E6D
100
AcDbEntity
  8
寸法
 62
     7
 48
50.0
100
AcDbMText
 10
10008.3612716237
 20
4116.918029843935
 30
0.0
 40
120.0
 41
0.0
 71
     5
 72
     1
  1
\A1;2075
  7
STYLE1
 11
0.0000000000000001
 21
1.0
 31
0.0
 73
     1
 44
1.0
1001
ACAD
1000
MTEXTBEGIN
1070
    73
1070
     1
1070
    44
1040
1.0
1070
    74
1070
     0
1000
MTEXTEND
  0
POINT
  5
18255
330
16E6D
100
AcDbEntity
  8
DEFPOINTS
 62
     0
 48
50.0
100
AcDbPoint
 10
11252.12321183059
 20
3079.418029843932
 30
0.0
  0
POINT
  5
18256
330
16E6D
100
AcDbEntity
  8
DEFPOINTS
 62
     0
 48
50.0
100
AcDbPoint
 10
11192.12321183059
 20
5154.418029843935
 30
0.0
  0
POINT
  5
18257
330
16E6D
100
AcDbEntity
  8
DEFPOINTS
 62
     0
 48
50.0
100
AcDbPoint
 10
10108.37308264733
 20
5154.418029843937
 30
0.0
  0
ENDBLK
  5
16E78
330
16E6D
100
AcDbEntity
  8
0
 48
50.0
100
AcDbBlockEnd
  0
BLOCK
  5
16E85
330
16E79
100
AcDbEntity
  8
0
 48
50.0
100
AcDbBlockBegin
  2
*D20
 70
     1
 10
0.0
 20
0.0
 30
0.0
  3
*D20
  1

  0
LINE
  5
18244
330
16E79
100
AcDbEntity
  8
寸法
 62
     0
 48
50.0
370
    -2
100
AcDbLine
 10
11232.12321183059
 20
3129.418029843932
 30
0.0
 11
10348.37308264733
 21
3129.418029843932
 31
0.0
  0
LINE
  5
18245
330
16E79
100
AcDbEntity
  8
寸法
 62
     0
 48
50.0
370
    -2
100
AcDbLine
 10
11177.12321183059
 20
3079.418029843932
 30
0.0
 11
10348.37308264733
 21
3079.418029843932
 31
0.0
  0
LINE
  5
18246
330
16E79
100
AcDbEntity
  8
寸法
 62
     0
 48
50.0
370
    -2
100
AcDbLine
 10
10408.37308264733
 20
3129.418029843932
 30
0.0
 11
10408.37308264733
 21
3229.418029843932
 31
0.0
  0
LINE
  5
18247
330
16E79
100
AcDbEntity
  8
寸法
 62
     0
 48
50.0
370
    -2
100
AcDbLine
 10
10408.37308264733
 20
3079.418029843932
 30
0.0
 11
10408.37308264733
 21
2667.323541654952
 31
0.0
  0
LINE
  5
18248
330
16E79
100
AcDbEntity
  8
寸法
 62
     0
 48
50.0
370
    -2
100
AcDbLine
 10
10408.37308264733
 20
3129.418029843932
 30
0.0
 11
10408.37308264733
 21
3079.418029843932
 31
0.0
  0
INSERT
  5
18249
330
16E79
100
AcDbEntity
  8
寸法
 62
     0
 48
50.0
370
    -2
100
AcDbBlockReference
  2
_DOTSMALL
 10
10408.37308264733
 20
3129.418029843932
 30
0.0
 41
100.0
 42
100.0
 43
100.0
 50
270.0
  0
INSERT
  5
1824A
330
16E79
100
AcDbEntity
  8
寸法
 62
     0
 48
50.0
370
    -2
100
AcDbBlockReference
  2
_DOTSMALL
 10
10408.37308264733
 20
3079.418029843932
 30
0.0
 41
100.0
 42
100.0
 43
100.0
 50
90.0
  0
MTEXT
  5
1824B
330
16E79
100
AcDbEntity
  8
寸法
 62
     7
 48
50.0
100
AcDbMText
 10
10308.37308264733
 20
2773.370785749442
 30
0.0
 40
120.0
 41
0.0
 71
     5
 72
     1
  1
\A1;50
  7
STYLE1
 11
0.0000000000000001
 21
1.0
 31
0.0
 73
     1
 44
1.0
1001
ACAD
1000
MTEXTBEGIN
1070
    73
1070
     1
1070
    44
1040
1.0
1070
    74
1070
     0
1000
MTEXTEND
  0
POINT
  5
1824C
330
16E79
100
AcDbEntity
  8
DEFPOINTS
 62
     0
 48
50.0
100
AcDbPoint
 10
11252.12321183059
 20
3129.418029843932
 30
0.0
  0
POINT
  5
1824D
330
16E79
100
AcDbEntity
  8
DEFPOINTS
 62
     0
 48
50.0
100
AcDbPoint
 10
11197.12321183059
 20
3079.418029843932
 30
0.0
  0
POINT
  5
1824E
330
16E79
100
AcDbEntity
  8
DEFPOINTS
 62
     0
 48
50.0
100
AcDbPoint
 10
10408.37308264733
 20
3079.418029843932
 30
0.0
  0
ENDBLK
  5
16E86
330
16E79
100
AcDbEntity
  8
0
 48
50.0
100
AcDbBlockEnd
  0
BLOCK
  5
16E91
330
16E87
100
AcDbEntity
  8
0
 48
50.0
100
AcDbBlockBegin
  2
*D21
 70
     1
 10
0.0
 20
0.0
 30
0.0
  3
*D21
  1

  0
LINE
  5
1823B
330
16E87
100
AcDbEntity
  8
寸法
 62
     0
 48
50.0
370
    -2
100
AcDbLine
 10
12642.12321183059
 20
3079.418029843932
 30
0.0
 11
13244.03688306969
 21
3079.418029843932
 31
0.0
  0
LINE
  5
1823C
330
16E87
100
AcDbEntity
  8
寸法
 62
     0
 48
50.0
370
    -2
100
AcDbLine
 10
12722.12321183059
 20
5099.418029843932
 30
0.0
 11
13244.03688306969
 21
5099.418029843932
 31
0.0
  0
LINE
  5
1823D
330
16E87
100
AcDbEntity
  8
寸法
 62
     0
 48
50.0
370
    -2
100
AcDbLine
 10
13184.03688306969
 20
3079.418029843932
 30
0.0
 11
13184.03688306969
 21
5099.418029843932
 31
0.0
  0
INSERT
  5
1823E
330
16E87
100
AcDbEntity
  8
寸法
 62
     0
 48
50.0
370
    -2
100
AcDbBlockReference
  2
_DOTSMALL
 10
13184.03688306969
 20
3079.418029843932
 30
0.0
 41
100.0
 42
100.0
 43
100.0
 50
270.0
  0
INSERT
  5
1823F
330
16E87
100
AcDbEntity
  8
寸法
 62
     0
 48
50.0
370
    -2
100
AcDbBlockReference
  2
_DOTSMALL
 10
13184.03688306969
 20
5099.418029843932
 30
0.0
 41
100.0
 42
100.0
 43
100.0
 50
90.0
  0
MTEXT
  5
18240
330
16E87
100
AcDbEntity
  8
寸法
 62
     7
 48
50.0
100
AcDbMText
 10
13084.02507204607
 20
4083.109721176323
 30
0.0
 40
120.0
 41
0.0
 71
     5
 72
     1
  1
\A1;2020
  7
STYLE1
 11
0.0000000000000001
 21
1.0
 31
0.0
 73
     1
 44
1.0
1001
ACAD
1000
MTEXTBEGIN
1070
    73
1070
     1
1070
    44
1040
1.0
1070
    74
1070
     0
1000
MTEXTEND
  0
POINT
  5
18241
330
16E87
100
AcDbEntity
  8
DEFPOINTS
 62
     0
 48
50.0
100
AcDbPoint
 10
12622.12321183059
 20
3079.418029843932
 30
0.0
  0
POINT
  5
18242
330
16E87
100
AcDbEntity
  8
DEFPOINTS
 62
     0
 48
50.0
100
AcDbPoint
 10
12702.12321183059
 20
5099.418029843932
 30
0.0
  0
POINT
  5
18243
330
16E87
100
AcDbEntity
  8
DEFPOINTS
 62
     0
 48
50.0
100
AcDbPoint
 10
13184.03688306969
 20
5099.418029843932
 30
0.0
  0
ENDBLK
  5
16E92
330
16E87
100
AcDbEntity
  8
0
 48
50.0
100
AcDbBlockEnd
  0
BLOCK
  5
16E9D
330
16E93
100
AcDbEntity
  8
0
 48
50.0
100
AcDbBlockBegin
  2
*D22
 70
     1
 10
0.0
 20
0.0
 30
0.0
  3
*D22
  1

  0
LINE
  5
18232
330
16E93
100
AcDbEntity
  8
寸法
 62
     0
 48
50.0
370
    -2
100
AcDbLine
 10
12622.12321183059
 20
5121.228709455585
 30
0.0
 11
12622.12321183059
 21
5613.075483423235
 31
0.0
  0
LINE
  5
18233
330
16E93
100
AcDbEntity
  8
寸法
 62
     0
 48
50.0
370
    -2
100
AcDbLine
 10
11252.12321183059
 20
5170.419647966908
 30
0.0
 11
11252.12321183059
 21
5613.075483423235
 31
0.0
  0
LINE
  5
18234
330
16E93
100
AcDbEntity
  8
寸法
 62
     0
 48
50.0
370
    -2
100
AcDbLine
 10
12622.12321183059
 20
5553.075483423236
 30
0.0
 11
11252.12321183059
 21
5553.075483423236
 31
0.0
  0
INSERT
  5
18235
330
16E93
100
AcDbEntity
  8
寸法
 62
     0
 48
50.0
370
    -2
100
AcDbBlockReference
  2
_DOTSMALL
 10
12622.12321183059
 20
5553.075483423236
 30
0.0
 41
100.0
 42
100.0
 43
100.0
  0
INSERT
  5
18236
330
16E93
100
AcDbEntity
  8
寸法
 62
     0
 48
50.0
370
    -2
100
AcDbBlockReference
  2
_DOTSMALL
 10
11252.12321183059
 20
5553.075483423236
 30
0.0
 41
100.0
 42
100.0
 43
100.0
 50
180.0
  0
MTEXT
  5
18237
330
16E93
100
AcDbEntity
  8
寸法
 62
     7
 48
50.0
100
AcDbMText
 10
11901.94224472113
 20
5653.075483423236
 30
0.0
 40
120.0
 41
0.0
 71
     5
 72
     1
  1
\A1;柱外寸法1370
  7
STYLE1
 73
     1
 44
1.0
1001
ACAD
1000
MTEXTBEGIN
1070
    73
1070
     1
1070
    44
1040
1.0
1070
    74
1070
     0
1000
MTEXTEND
  0
POINT
  5
18238
330
16E93
100
AcDbEntity
  8
DEFPOINTS
 62
     0
 48
50.0
100
AcDbPoint
 10
12622.12321183059
 20
5101.228709455585
 30
0.0
  0
POINT
  5
18239
330
16E93
100
AcDbEntity
  8
DEFPOINTS
 62
     0
 48
50.0
100
AcDbPoint
 10
11252.12321183059
 20
5150.419647966908
 30
0.0
  0
POINT
  5
1823A
330
16E93
100
AcDbEntity
  8
DEFPOINTS
 62
     0
 48
50.0
100
AcDbPoint
 10
11252.12321183059
 20
5553.075483423236
 30
0.0
  0
ENDBLK
  5
16E9E
330
16E93
100
AcDbEntity
  8
0
 48
50.0
100
AcDbBlockEnd
  0
BLOCK
  5
16EAB
330
16E9F
100
AcDbEntity
  8
0
 48
50.0
100
AcDbBlockBegin
  2
*D23
 70
     1
 10
0.0
 20
0.0
 30
0.0
  3
*D23
  1

  0
LINE
  5
18227
330
16E9F
100
AcDbEntity
  8
寸法
 62
     0
 48
50.0
370
    -2
100
AcDbLine
 10
11252.12321183059
 20
5170.419647966908
 30
0.0
 11
11252.12321183059
 21
5613.075483423235
 31
0.0
  0
LINE
  5
18228
330
16E9F
100
AcDbEntity
  8
寸法
 62
     0
 48
50.0
370
    -2
100
AcDbLine
 10
11192.12321183059
 20
5174.418029843936
 30
0.0
 11
11192.12321183059
 21
5613.075483423235
 31
0.0
  0
LINE
  5
18229
330
16E9F
100
AcDbEntity
  8
寸法
 62
     0
 48
50.0
370
    -2
100
AcDbLine
 10
11252.12321183059
 20
5553.075483423236
 30
0.0
 11
11352.12321183059
 21
5553.075483423236
 31
0.0
  0
LINE
  5
1822A
330
16E9F
100
AcDbEntity
  8
寸法
 62
     0
 48
50.0
370
    -2
100
AcDbLine
 10
11192.12321183059
 20
5553.075483423236
 30
0.0
 11
10772.84762127941
 21
5553.075483423236
 31
0.0
  0
LINE
  5
1822B
330
16E9F
100
AcDbEntity
  8
寸法
 62
     0
 48
50.0
370
    -2
100
AcDbLine
 10
11252.12321183059
 20
5553.075483423236
 30
0.0
 11
11192.12321183059
 21
5553.075483423236
 31
0.0
  0
INSERT
  5
1822C
330
16E9F
100
AcDbEntity
  8
寸法
 62
     0
 48
50.0
370
    -2
100
AcDbBlockReference
  2
_DOTSMALL
 10
11252.12321183059
 20
5553.075483423236
 30
0.0
 41
100.0
 42
100.0
 43
100.0
 50
180.0
  0
INSERT
  5
1822D
330
16E9F
100
AcDbEntity
  8
寸法
 62
     0
 48
50.0
370
    -2
100
AcDbBlockReference
  2
_DOTSMALL
 10
11192.12321183059
 20
5553.075483423236
 30
0.0
 41
100.0
 42
100.0
 43
100.0
  0
MTEXT
  5
1822E
330
16E9F
100
AcDbEntity
  8
寸法
 62
     7
 48
50.0
100
AcDbMText
 10
10882.485416555
 20
5653.075483423236
 30
0.0
 40
120.0
 41
0.0
 71
     5
 72
     1
  1
\A1;60
  7
STYLE1
 73
     1
 44
1.0
1001
ACAD
1000
MTEXTBEGIN
1070
    73
1070
     1
1070
    44
1040
1.0
1070
    74
1070
     0
1000
MTEXTEND
  0
POINT
  5
1822F
330
16E9F
100
AcDbEntity
  8
DEFPOINTS
 62
     0
 48
50.0
100
AcDbPoint
 10
11252.12321183059
 20
5150.419647966908
 30
0.0
  0
POINT
  5
18230
330
16E9F
100
AcDbEntity
  8
DEFPOINTS
 62
     0
 48
50.0
100
AcDbPoint
 10
11192.12321183059
 20
5154.418029843935
 30
0.0
  0
POINT
  5
18231
330
16E9F
100
AcDbEntity
  8
DEFPOINTS
 62
     0
 48
50.0
100
AcDbPoint
 10
11192.12321183059
 20
5553.075483423236
 30
0.0
  0
ENDBLK
  5
16EAC
330
16E9F
100
AcDbEntity
  8
0
 48
50.0
100
AcDbBlockEnd
  0
BLOCK
  5
16EB7
330
16EAD
100
AcDbEntity
  8
0
 48
50.0
100
AcDbBlockBegin
  2
*D24
 70
     1
 10
0.0
 20
0.0
 30
0.0
  3
*D24
  1

  0
LINE
  5
1821E
330
16EAD
100
AcDbEntity
  8
寸法
 62
     0
 48
50.0
370
    -2
100
AcDbLine
 10
12702.12321183059
 20
5119.418029843933
 30
0.0
 11
12702.12321183059
 21
5821.2498046152
 31
0.0
  0
LINE
  5
1821F
330
16EAD
100
AcDbEntity
  8
寸法
 62
     0
 48
50.0
370
    -2
100
AcDbLine
 10
11192.12321183059
 20
5174.418029843936
 30
0.0
 11
11192.12321183059
 21
5821.2498046152
 31
0.0
  0
LINE
  5
18220
330
16EAD
100
AcDbEntity
  8
寸法
 62
     0
 48
50.0
370
    -2
100
AcDbLine
 10
12702.12321183059
 20
5761.2498046152
 30
0.0
 11
11192.12321183059
 21
5761.2498046152
 31
0.0
  0
INSERT
  5
18221
330
16EAD
100
AcDbEntity
  8
寸法
 62
     0
 48
50.0
370
    -2
100
AcDbBlockReference
  2
_DOTSMALL
 10
12702.12321183059
 20
5761.2498046152
 30
0.0
 41
100.0
 42
100.0
 43
100.0
  0
INSERT
  5
18222
330
16EAD
100
AcDbEntity
  8
寸法
 62
     0
 48
50.0
370
    -2
100
AcDbBlockReference
  2
_DOTSMALL
 10
11192.12321183059
 20
5761.2498046152
 30
0.0
 41
100.0
 42
100.0
 43
100.0
 50
180.0
  0
MTEXT
  5
18223
330
16EAD
100
AcDbEntity
  8
寸法
 62
     7
 48
50.0
100
AcDbMText
 10
11919.24804153241
 20
5861.2498046152
 30
0.0
 40
120.0
 41
0.0
 71
     5
 72
     1
  1
\A1;1510
  7
STYLE1
 73
     1
 44
1.0
1001
ACAD
1000
MTEXTBEGIN
1070
    73
1070
     1
1070
    44
1040
1.0
1070
    74
1070
     0
1000
MTEXTEND
  0
POINT
  5
18224
330
16EAD
100
AcDbEntity
  8
DEFPOINTS
 62
     0
 48
50.0
100
AcDbPoint
 10
12702.12321183059
 20
5099.418029843932
 30
0.0
  0
POINT
  5
18225
330
16EAD
100
AcDbEntity
  8
DEFPOINTS
 62
     0
 48
50.0
100
AcDbPoint
 10
11192.12321183059
 20
5154.418029843935
 30
0.0
  0
POINT
  5
18226
330
16EAD
100
AcDbEntity
  8
DEFPOINTS
 62
     0
 48
50.0
100
AcDbPoint
 10
11192.12321183059
 20
5761.2498046152
 30
0.0
  0
ENDBLK
  5
16EB8
330
16EAD
100
AcDbEntity
  8
0
 48
50.0
100
AcDbBlockEnd
  0
BLOCK
  5
16EC4
330
16EB9
100
AcDbEntity
  8
0
 48
50.0
100
AcDbBlockBegin
  2
*D25
 70
     1
 10
0.0
 20
0.0
 30
0.0
  3
*D25
  1

  0
LINE
  5
18214
330
16EB9
100
AcDbEntity
  8
寸法
 62
     0
 48
50.0
370
    -2
100
AcDbLine
 10
12622.12321183059
 20
5121.228709455585
 30
0.0
 11
12622.12321183059
 21
5613.075483423235
 31
0.0
  0
LINE
  5
18215
330
16EB9
100
AcDbEntity
  8
寸法
 62
     0
 48
50.0
370
    -2
100
AcDbLine
 10
12702.12321183059
 20
5119.418029843933
 30
0.0
 11
12702.12321183059
 21
5613.075483423235
 31
0.0
  0
LINE
  5
18216
330
16EB9
100
AcDbEntity
  8
寸法
 62
     0
 48
50.0
370
    -2
100
AcDbLine
 10
12622.12321183059
 20
5553.075483423236
 30
0.0
 11
12702.12321183059
 21
5553.075483423236
 31
0.0
  0
LINE
  5
18217
330
16EB9
100
AcDbEntity
  8
寸法
 62
     0
 48
50.0
370
    -2
100
AcDbLine
 10
12702.12321183059
 20
5553.075483423236
 30
0.0
 11
13014.21770001957
 21
5553.075483423236
 31
0.0
  0
INSERT
  5
18218
330
16EB9
100
AcDbEntity
  8
寸法
 62
     0
 48
50.0
370
    -2
100
AcDbBlockReference
  2
_DOTSMALL
 10
12622.12321183059
 20
5553.075483423236
 30
0.0
 41
100.0
 42
100.0
 43
100.0
 50
180.0
  0
INSERT
  5
18219
330
16EB9
100
AcDbEntity
  8
寸法
 62
     0
 48
50.0
370
    -2
100
AcDbBlockReference
  2
_DOTSMALL
 10
12702.12321183059
 20
5553.075483423236
 30
0.0
 41
100.0
 42
100.0
 43
100.0
  0
MTEXT
  5
1821A
330
16EB9
100
AcDbEntity
  8
寸法
 62
     7
 48
50.0
100
AcDbMText
 10
12908.17045592508
 20
5653.075483423236
 30
0.0
 40
120.0
 41
0.0
 71
     5
 72
     1
  1
\A1;80
  7
STYLE1
 73
     1
 44
1.0
1001
ACAD
1000
MTEXTBEGIN
1070
    73
1070
     1
1070
    44
1040
1.0
1070
    74
1070
     0
1000
MTEXTEND
  0
POINT
  5
1821B
330
16EB9
100
AcDbEntity
  8
DEFPOINTS
 62
     0
 48
50.0
100
AcDbPoint
 10
12622.12321183059
 20
5101.228709455585
 30
0.0
  0
POINT
  5
1821C
330
16EB9
100
AcDbEntity
  8
DEFPOINTS
 62
     0
 48
50.0
100
AcDbPoint
 10
12702.12321183059
 20
5099.418029843932
 30
0.0
  0
POINT
  5
1821D
330
16EB9
100
AcDbEntity
  8
DEFPOINTS
 62
     0
 48
50.0
100
AcDbPoint
 10
12702.12321183059
 20
5553.075483423236
 30
0.0
  0
ENDBLK
  5
16EC5
330
16EB9
100
AcDbEntity
  8
0
 48
50.0
100
AcDbBlockEnd
  0
BLOCK
  5
16ED1
330
16EC6
100
AcDbEntity
  8
0
 48
50.0
100
AcDbBlockBegin
  2
*D26
 70
     1
 10
0.0
 20
0.0
 30
0.0
  3
*D26
  1

  0
LINE
  5
1820A
330
16EC6
100
AcDbEntity
  8
寸法
 62
     0
 48
50.0
370
    -2
100
AcDbLine
 10
11187.48001651809
 20
5012.953641317409
 30
0.0
 11
10534.57984622407
 21
5037.604672557387
 31
0.0
  0
LINE
  5
1820B
330
16EC6
100
AcDbEntity
  8
寸法
 62
     0
 48
50.0
370
    -2
100
AcDbLine
 10
11192.79985067004
 20
5153.853248714291
 30
0.0
 11
10539.89968037586
 21
5178.504279954276
 31
0.0
  0
LINE
  5
1820C
330
16EC6
100
AcDbEntity
  8
寸法
 62
     0
 48
50.0
370
    -2
100
AcDbLine
 10
10594.53712596742
 20
5035.340913343858
 30
0.0
 11
10599.85696011922
 21
5176.240520740748
 31
0.0
  0
LINE
  5
1820D
330
16EC6
100
AcDbEntity
  8
寸法
 62
     0
 48
50.0
370
    -2
100
AcDbLine
 10
10599.85696011922
 20
5176.240520740748
 30
0.0
 11
10613.43951540041
 21
5535.984199201583
 31
0.0
  0
INSERT
  5
1820E
330
16EC6
100
AcDbEntity
  8
寸法
 62
     0
 48
50.0
370
    -2
100
AcDbBlockReference
  2
_DOTSMALL
 10
10594.53712596742
 20
5035.340913343858
 30
0.0
 41
100.0
 42
100.0
 43
100.0
 50
267.8377559871574
  0
INSERT
  5
1820F
330
16EC6
100
AcDbEntity
  8
寸法
 62
     0
 48
50.0
370
    -2
100
AcDbBlockReference
  2
_DOTSMALL
 10
10599.85696011922
 20
5176.240520740748
 30
0.0
 41
100.0
 42
100.0
 43
100.0
 50
87.83775598715742
  0
MTEXT
  5
18210
330
16EC6
100
AcDbEntity
  8
寸法
 62
     7
 48
50.0
100
AcDbMText
 10
10508.60590419884
 20
5409.84969178019
 30
0.0
 40
120.0
 41
0.0
 71
     5
 72
     1
  1
\A1;141
  7
STYLE1
 11
0.0377293202254805
 21
0.9992879957226159
 31
0.0
 73
     1
 44
1.0
1001
ACAD
1000
MTEXTBEGIN
1070
    73
1070
     1
1070
    44
1040
1.0
1070
    74
1070
     0
1000
MTEXTEND
  0
POINT
  5
18211
330
16EC6
100
AcDbEntity
  8
DEFPOINTS
 62
     0
 48
50.0
100
AcDbPoint
 10
11207.46577643254
 20
5012.199054912898
 30
0.0
  0
POINT
  5
18212
330
16EC6
100
AcDbEntity
  8
DEFPOINTS
 62
     0
 48
50.0
100
AcDbPoint
 10
11212.7856105845
 20
5153.098662309782
 30
0.0
  0
POINT
  5
18213
330
16EC6
100
AcDbEntity
  8
DEFPOINTS
 62
     0
 48
50.0
100
AcDbPoint
 10
10599.85696011922
 20
5176.240520740748
 30
0.0
  0
ENDBLK
  5
16ED2
330
16EC6
100
AcDbEntity
  8
0
 48
50.0
100
AcDbBlockEnd
  0
BLOCK
  5
17B3F
330
17B35
100
AcDbEntity
  8
0
 48
50.0
100
AcDbBlockBegin
  2
*D27
 70
     1
 10
0.0
 20
0.0
 30
0.0
  3
*D27
  1

  0
LINE
  5
1827C
330
17B35
100
AcDbEntity
  8
寸法
 62
     0
 48
50.0
370
    -2
100
AcDbLine
 10
5004.325830023097
 20
7589.012512816516
 30
0.0
 11
5004.325830023097
 21
7015.670023430063
 31
0.0
  0
LINE
  5
1827D
330
17B35
100
AcDbEntity
  8
寸法
 62
     0
 48
50.0
370
    -2
100
AcDbLine
 10
4006.325830023098
 20
7589.012512816407
 30
0.0
 11
4006.325830023098
 21
7015.670023430063
 31
0.0
  0
LINE
  5
1827E
330
17B35
100
AcDbEntity
  8
寸法
 62
     0
 48
50.0
370
    -2
100
AcDbLine
 10
5004.325830023097
 20
7075.670023430062
 30
0.0
 11
4006.325830023098
 21
7075.670023430062
 31
0.0
  0
INSERT
  5
1827F
330
17B35
100
AcDbEntity
  8
寸法
 62
     0
 48
50.0
370
    -2
100
AcDbBlockReference
  2
_DOTSMALL
 10
5004.325830023097
 20
7075.670023430062
 30
0.0
 41
100.0
 42
100.0
 43
100.0
  0
INSERT
  5
18280
330
17B35
100
AcDbEntity
  8
寸法
 62
     0
 48
50.0
370
    -2
100
AcDbBlockReference
  2
_DOTSMALL
 10
4006.325830023098
 20
7075.670023430062
 30
0.0
 41
100.0
 42
100.0
 43
100.0
 50
180.0
  0
MTEXT
  5
18281
330
17B35
100
AcDbEntity
  8
寸法
 62
     7
 48
50.0
100
AcDbMText
 10
4505.325830023097
 20
7275.670023430063
 30
0.0
 40
120.0
 41
0.0
 71
     5
 72
     1
  1
\A1;有効開口部間口\P998
  7
STYLE1
 73
     1
 44
1.0
1001
ACAD
1000
MTEXTBEGIN
1070
    73
1070
     1
1070
    44
1040
1.0
1070
    74
1070
     0
1000
MTEXTEND
  0
POINT
  5
18282
330
17B35
100
AcDbEntity
  8
DEFPOINTS
 62
     0
 48
50.0
100
AcDbPoint
 10
5004.325830023097
 20
7609.012512816517
 30
0.0
  0
POINT
  5
18283
330
17B35
100
AcDbEntity
  8
DEFPOINTS
 62
     0
 48
50.0
100
AcDbPoint
 10
4006.325830023098
 20
7609.012512816407
 30
0.0
  0
POINT
  5
18284
330
17B35
100
AcDbEntity
  8
DEFPOINTS
 62
     0
 48
50.0
100
AcDbPoint
 10
4006.325830023098
 20
7075.670023430062
 30
0.0
  0
ENDBLK
  5
17B40
330
17B35
100
AcDbEntity
  8
0
 48
50.0
100
AcDbBlockEnd
  0
BLOCK
  5
17BE0
330
17BD6
100
AcDbEntity
  8
0
 48
50.0
100
AcDbBlockBegin
  2
*D28
 70
     1
 10
0.0
 20
0.0
 30
0.0
  3
*D28
  1

  0
LINE
  5
18273
330
17BD6
100
AcDbEntity
  8
寸法
 62
     0
 48
50.0
370
    -2
100
AcDbLine
 10
6794.325830023097
 20
7589.01251281652
 30
0.0
 11
6794.325830023097
 21
7015.670023430065
 31
0.0
  0
LINE
  5
18274
330
17BD6
100
AcDbEntity
  8
寸法
 62
     0
 48
50.0
370
    -2
100
AcDbLine
 10
5796.325830023098
 20
7589.01251281641
 30
0.0
 11
5796.325830023098
 21
7015.670023430065
 31
0.0
  0
LINE
  5
18275
330
17BD6
100
AcDbEntity
  8
寸法
 62
     0
 48
50.0
370
    -2
100
AcDbLine
 10
6794.325830023097
 20
7075.670023430065
 30
0.0
 11
5796.325830023098
 21
7075.670023430065
 31
0.0
  0
INSERT
  5
18276
330
17BD6
100
AcDbEntity
  8
寸法
 62
     0
 48
50.0
370
    -2
100
AcDbBlockReference
  2
_DOTSMALL
 10
6794.325830023097
 20
7075.670023430065
 30
0.0
 41
100.0
 42
100.0
 43
100.0
  0
INSERT
  5
18277
330
17BD6
100
AcDbEntity
  8
寸法
 62
     0
 48
50.0
370
    -2
100
AcDbBlockReference
  2
_DOTSMALL
 10
5796.325830023098
 20
7075.670023430065
 30
0.0
 41
100.0
 42
100.0
 43
100.0
 50
180.0
  0
MTEXT
  5
18278
330
17BD6
100
AcDbEntity
  8
寸法
 62
     7
 48
50.0
100
AcDbMText
 10
6295.325830023098
 20
7275.670023430065
 30
0.0
 40
120.0
 41
0.0
 71
     5
 72
     1
  1
\A1;有効開口部間口\P998
  7
STYLE1
 73
     1
 44
1.0
1001
ACAD
1000
MTEXTBEGIN
1070
    73
1070
     1
1070
    44
1040
1.0
1070
    74
1070
     0
1000
MTEXTEND
  0
POINT
  5
18279
330
17BD6
100
AcDbEntity
  8
DEFPOINTS
 62
     0
 48
50.0
100
AcDbPoint
 10
6794.325830023097
 20
7609.012512816519
 30
0.0
  0
POINT
  5
1827A
330
17BD6
100
AcDbEntity
  8
DEFPOINTS
 62
     0
 48
50.0
100
AcDbPoint
 10
5796.325830023098
 20
7609.01251281641
 30
0.0
  0
POINT
  5
1827B
330
17BD6
100
AcDbEntity
  8
DEFPOINTS
 62
     0
 48
50.0
100
AcDbPoint
 10
5796.325830023098
 20
7075.670023430065
 30
0.0
  0
ENDBLK
  5
17BE1
330
17BD6
100
AcDbEntity
  8
0
 48
50.0
100
AcDbBlockEnd
  0
BLOCK
  5
17C79
330
17C6F
100
AcDbEntity
  8
0
 48
50.0
100
AcDbBlockBegin
  2
*D29
 70
     1
 10
0.0
 20
0.0
 30
0.0
  3
*D29
  1

  0
LINE
  5
1826A
330
17C6F
100
AcDbEntity
  8
寸法
 62
     0
 48
50.0
370
    -2
100
AcDbLine
 10
8584.325830023095
 20
7589.01251281652
 30
0.0
 11
8584.325830023095
 21
7015.670023430065
 31
0.0
  0
LINE
  5
1826B
330
17C6F
100
AcDbEntity
  8
寸法
 62
     0
 48
50.0
370
    -2
100
AcDbLine
 10
7586.325830023098
 20
7589.01251281641
 30
0.0
 11
7586.325830023098
 21
7015.670023430065
 31
0.0
  0
LINE
  5
1826C
330
17C6F
100
AcDbEntity
  8
寸法
 62
     0
 48
50.0
370
    -2
100
AcDbLine
 10
8584.325830023095
 20
7075.670023430065
 30
0.0
 11
7586.325830023098
 21
7075.670023430065
 31
0.0
  0
INSERT
  5
1826D
330
17C6F
100
AcDbEntity
  8
寸法
 62
     0
 48
50.0
370
    -2
100
AcDbBlockReference
  2
_DOTSMALL
 10
8584.325830023095
 20
7075.670023430065
 30
0.0
 41
100.0
 42
100.0
 43
100.0
  0
INSERT
  5
1826E
330
17C6F
100
AcDbEntity
  8
寸法
 62
     0
 48
50.0
370
    -2
100
AcDbBlockReference
  2
_DOTSMALL
 10
7586.325830023098
 20
7075.670023430065
 30
0.0
 41
100.0
 42
100.0
 43
100.0
 50
180.0
  0
MTEXT
  5
1826F
330
17C6F
100
AcDbEntity
  8
寸法
 62
     7
 48
50.0
100
AcDbMText
 10
8085.325830023098
 20
7275.670023430065
 30
0.0
 40
120.0
 41
0.0
 71
     5
 72
     1
  1
\A1;有効開口部間口\P998
  7
STYLE1
 73
     1
 44
1.0
1001
ACAD
1000
MTEXTBEGIN
1070
    73
1070
     1
1070
    44
1040
1.0
1070
    74
1070
     0
1000
MTEXTEND
  0
POINT
  5
18270
330
17C6F
100
AcDbEntity
  8
DEFPOINTS
 62
     0
 48
50.0
100
AcDbPoint
 10
8584.325830023095
 20
7609.012512816519
 30
0.0
  0
POINT
  5
18271
330
17C6F
100
AcDbEntity
  8
DEFPOINTS
 62
     0
 48
50.0
100
AcDbPoint
 10
7586.325830023098
 20
7609.01251281641
 30
0.0
  0
POINT
  5
18272
330
17C6F
100
AcDbEntity
  8
DEFPOINTS
 62
     0
 48
50.0
100
AcDbPoint
 10
7586.325830023098
 20
7075.670023430065
 30
0.0
  0
ENDBLK
  5
17C7A
330
17C6F
100
AcDbEntity
  8
0
 48
50.0
100
AcDbBlockEnd
  0
BLOCK
  5
17ED6
330
17ECC
100
AcDbEntity
  8
0
 48
50.0
100
AcDbBlockBegin
  2
*D30
 70
     1
 10
0.0
 20
0.0
 30
0.0
  3
*D30
  1

  0
LINE
  5
181F8
330
17ECC
100
AcDbEntity
  8
寸法
 62
     0
 48
50.0
370
    -2
100
AcDbLine
 10
9316.325830023112
 20
5174.418029843935
 30
0.0
 11
9316.325830023112
 21
5426.959615102178
 31
0.0
  0
LINE
  5
181F9
330
17ECC
100
AcDbEntity
  8
寸法
 62
     0
 48
50.0
370
    -2
100
AcDbLine
 10
3946.325830023108
 20
5174.41802984394
 30
0.0
 11
3946.325830023108
 21
5426.959615102178
 31
0.0
  0
LINE
  5
181FA
330
17ECC
100
AcDbEntity
  8
寸法
 62
     0
 48
50.0
370
    -2
100
AcDbLine
 10
9316.325830023112
 20
5366.959615102178
 30
0.0
 11
3946.325830023108
 21
5366.959615102178
 31
0.0
  0
INSERT
  5
181FB
330
17ECC
100
AcDbEntity
  8
寸法
 62
     0
 48
50.0
370
    -2
100
AcDbBlockReference
  2
_DOTSMALL
 10
9316.325830023112
 20
5366.959615102178
 30
0.0
 41
100.0
 42
100.0
 43
100.0
  0
INSERT
  5
181FC
330
17ECC
100
AcDbEntity
  8
寸法
 62
     0
 48
50.0
370
    -2
100
AcDbBlockReference
  2
_DOTSMALL
 10
3946.325830023108
 20
5366.959615102178
 30
0.0
 41
100.0
 42
100.0
 43
100.0
 50
180.0
  0
MTEXT
  5
181FD
330
17ECC
100
AcDbEntity
  8
寸法
 62
     7
 48
50.0
100
AcDbMText
 10
6631.32583002311
 20
5466.959615102178
 30
0.0
 40
120.0
 41
0.0
 71
     5
 72
     1
  1
\A1;柱外寸法 N x 1790
  7
STYLE1
 73
     1
 44
1.0
1001
ACAD
1000
MTEXTBEGIN
1070
    73
1070
     1
1070
    44
1040
1.0
1070
    74
1070
     0
1000
MTEXTEND
  0
POINT
  5
181FE
330
17ECC
100
AcDbEntity
  8
DEFPOINTS
 62
     0
 48
50.0
100
AcDbPoint
 10
9316.325830023112
 20
5154.418029843935
 30
0.0
  0
POINT
  5
181FF
330
17ECC
100
AcDbEntity
  8
DEFPOINTS
 62
     0
 48
50.0
100
AcDbPoint
 10
3946.325830023108
 20
5154.418029843941
 30
0.0
  0
POINT
  5
18200
330
17ECC
100
AcDbEntity
  8
DEFPOINTS
 62
     0
 48
50.0
100
AcDbPoint
 10
3946.325830023108
 20
5366.959615102178
 30
0.0
  0
ENDBLK
  5
17ED7
330
17ECC
100
AcDbEntity
  8
0
 48
50.0
100
AcDbBlockEnd
  0
BLOCK
  5
17EE2
330
17ED8
100
AcDbEntity
  8
0
 48
50.0
100
AcDbBlockBegin
  2
*D31
 70
     1
 10
0.0
 20
0.0
 30
0.0
  3
*D31
  1

  0
LINE
  5
18201
330
17ED8
100
AcDbEntity
  8
寸法
 62
     0
 48
50.0
370
    -2
100
AcDbLine
 10
3896.325830023108
 20
5174.418029843939
 30
0.0
 11
3896.325830023108
 21
5649.916593540027
 31
0.0
  0
LINE
  5
18202
330
17ED8
100
AcDbEntity
  8
寸法
 62
     0
 48
50.0
370
    -2
100
AcDbLine
 10
9366.325830023113
 20
5174.418029843933
 30
0.0
 11
9366.325830023113
 21
5649.916593540027
 31
0.0
  0
LINE
  5
18203
330
17ED8
100
AcDbEntity
  8
寸法
 62
     0
 48
50.0
370
    -2
100
AcDbLine
 10
3896.325830023108
 20
5589.916593540027
 30
0.0
 11
9366.325830023113
 21
5589.916593540027
 31
0.0
  0
INSERT
  5
18204
330
17ED8
100
AcDbEntity
  8
寸法
 62
     0
 48
50.0
370
    -2
100
AcDbBlockReference
  2
_DOTSMALL
 10
3896.325830023108
 20
5589.916593540027
 30
0.0
 41
100.0
 42
100.0
 43
100.0
 50
180.0
  0
INSERT
  5
18205
330
17ED8
100
AcDbEntity
  8
寸法
 62
     0
 48
50.0
370
    -2
100
AcDbBlockReference
  2
_DOTSMALL
 10
9366.325830023113
 20
5589.916593540027
 30
0.0
 41
100.0
 42
100.0
 43
100.0
  0
MTEXT
  5
18206
330
17ED8
100
AcDbEntity
  8
寸法
 62
     7
 48
50.0
100
AcDbMText
 10
6631.325830023104
 20
5689.916593540027
 30
0.0
 40
120.0
 41
0.0
 71
     5
 72
     1
  1
\A1;N x 1790 +100
  7
STYLE1
 73
     1
 44
1.0
1001
ACAD
1000
MTEXTBEGIN
1070
    73
1070
     1
1070
    44
1040
1.0
1070
    74
1070
     0
1000
MTEXTEND
  0
POINT
  5
18207
330
17ED8
100
AcDbEntity
  8
DEFPOINTS
 62
     0
 48
50.0
100
AcDbPoint
 10
3896.325830023108
 20
5154.418029843938
 30
0.0
  0
POINT
  5
18208
330
17ED8
100
AcDbEntity
  8
DEFPOINTS
 62
     0
 48
50.0
100
AcDbPoint
 10
9366.325830023113
 20
5154.418029843934
 30
0.0
  0
POINT
  5
18209
330
17ED8
100
AcDbEntity
  8
DEFPOINTS
 62
     0
 48
50.0
100
AcDbPoint
 10
9366.325830023113
 20
5589.916593540027
 30
0.0
  0
ENDBLK
  5
17EE3
330
17ED8
100
AcDbEntity
  8
0
 48
50.0
100
AcDbBlockEnd
  0
BLOCK
  5
17EF0
330
17EE4
100
AcDbEntity
  8
0
 48
50.0
100
AcDbBlockBegin
  2
*D32
 70
     1
 10
0.0
 20
0.0
 30
0.0
  3
*D32
  1

  0
LINE
  5
181ED
330
17EE4
100
AcDbEntity
  8
寸法
 62
     0
 48
50.0
370
    -2
100
AcDbLine
 10
3946.325830023108
 20
5174.41802984394
 30
0.0
 11
3946.325830023108
 21
5426.959615102178
 31
0.0
  0
LINE
  5
181EE
330
17EE4
100
AcDbEntity
  8
寸法
 62
     0
 48
50.0
370
    -2
100
AcDbLine
 10
3896.325830023108
 20
5174.418029843939
 30
0.0
 11
3896.325830023108
 21
5426.959615102178
 31
0.0
  0
LINE
  5
181EF
330
17EE4
100
AcDbEntity
  8
寸法
 62
     0
 48
50.0
370
    -2
100
AcDbLine
 10
3946.325830023108
 20
5366.959615102178
 30
0.0
 11
4046.325830023108
 21
5366.959615102178
 31
0.0
  0
LINE
  5
181F0
330
17EE4
100
AcDbEntity
  8
寸法
 62
     0
 48
50.0
370
    -2
100
AcDbLine
 10
3896.325830023108
 20
5366.959615102178
 30
0.0
 11
3476.793304554373
 21
5366.959615102178
 31
0.0
  0
LINE
  5
181F1
330
17EE4
100
AcDbEntity
  8
寸法
 62
     0
 48
50.0
370
    -2
100
AcDbLine
 10
3946.325830023108
 20
5366.959615102178
 30
0.0
 11
3896.325830023108
 21
5366.959615102178
 31
0.0
  0
INSERT
  5
181F2
330
17EE4
100
AcDbEntity
  8
寸法
 62
     0
 48
50.0
370
    -2
100
AcDbBlockReference
  2
_DOTSMALL
 10
3946.325830023108
 20
5366.959615102178
 30
0.0
 41
100.0
 42
100.0
 43
100.0
 50
180.0
  0
INSERT
  5
181F3
330
17EE4
100
AcDbEntity
  8
寸法
 62
     0
 48
50.0
370
    -2
100
AcDbBlockReference
  2
_DOTSMALL
 10
3896.325830023108
 20
5366.959615102178
 30
0.0
 41
100.0
 42
100.0
 43
100.0
  0
MTEXT
  5
181F4
330
17EE4
100
AcDbEntity
  8
寸法
 62
     7
 48
50.0
100
AcDbMText
 10
3582.840548648861
 20
5466.959615102178
 30
0.0
 40
120.0
 41
0.0
 71
     5
 72
     1
  1
\A1;50
  7
STYLE1
 73
     1
 44
1.0
1001
ACAD
1000
MTEXTBEGIN
1070
    73
1070
     1
1070
    44
1040
1.0
1070
    74
1070
     0
1000
MTEXTEND
  0
POINT
  5
181F5
330
17EE4
100
AcDbEntity
  8
DEFPOINTS
 62
     0
 48
50.0
100
AcDbPoint
 10
3946.325830023108
 20
5154.418029843941
 30
0.0
  0
POINT
  5
181F6
330
17EE4
100
AcDbEntity
  8
DEFPOINTS
 62
     0
 48
50.0
100
AcDbPoint
 10
3896.325830023108
 20
5154.418029843938
 30
0.0
  0
POINT
  5
181F7
330
17EE4
100
AcDbEntity
  8
DEFPOINTS
 62
     0
 48
50.0
100
AcDbPoint
 10
3896.325830023108
 20
5366.959615102178
 30
0.0
  0
ENDBLK
  5
17EF1
330
17EE4
100
AcDbEntity
  8
0
 48
50.0
100
AcDbBlockEnd
  0
BLOCK
  5
17F26
330
17F1A
100
AcDbEntity
  8
0
 48
50.0
100
AcDbBlockBegin
  2
*D33
 70
     1
 10
0.0
 20
0.0
 30
0.0
  3
*D33
  1

  0
LINE
  5
181E2
330
17F1A
100
AcDbEntity
  8
寸法
 62
     0
 48
50.0
370
    -2
100
AcDbLine
 10
9366.325830023113
 20
5174.418029843933
 30
0.0
 11
9366.325830023113
 21
5426.959615102174
 31
0.0
  0
LINE
  5
181E3
330
17F1A
100
AcDbEntity
  8
寸法
 62
     0
 48
50.0
370
    -2
100
AcDbLine
 10
9316.325830023112
 20
5174.418029843935
 30
0.0
 11
9316.325830023112
 21
5426.959615102174
 31
0.0
  0
LINE
  5
181E4
330
17F1A
100
AcDbEntity
  8
寸法
 62
     0
 48
50.0
370
    -2
100
AcDbLine
 10
9316.325830023112
 20
5366.959615102175
 30
0.0
 11
9216.325830023112
 21
5366.959615102175
 31
0.0
  0
LINE
  5
181E5
330
17F1A
100
AcDbEntity
  8
寸法
 62
     0
 48
50.0
370
    -2
100
AcDbLine
 10
9366.325830023113
 20
5366.959615102175
 30
0.0
 11
9785.858355491837
 21
5366.959615102175
 31
0.0
  0
LINE
  5
181E6
330
17F1A
100
AcDbEntity
  8
寸法
 62
     0
 48
50.0
370
    -2
100
AcDbLine
 10
9316.325830023112
 20
5366.959615102175
 30
0.0
 11
9366.325830023113
 21
5366.959615102175
 31
0.0
  0
INSERT
  5
181E7
330
17F1A
100
AcDbEntity
  8
寸法
 62
     0
 48
50.0
370
    -2
100
AcDbBlockReference
  2
_DOTSMALL
 10
9316.325830023112
 20
5366.959615102175
 30
0.0
 41
100.0
 42
100.0
 43
100.0
  0
INSERT
  5
181E8
330
17F1A
100
AcDbEntity
  8
寸法
 62
     0
 48
50.0
370
    -2
100
AcDbBlockReference
  2
_DOTSMALL
 10
9366.325830023113
 20
5366.959615102175
 30
0.0
 41
100.0
 42
100.0
 43
100.0
 50
180.0
  0
MTEXT
  5
181E9
330
17F1A
100
AcDbEntity
  8
寸法
 62
     7
 48
50.0
100
AcDbMText
 10
9679.811111397349
 20
5466.959615102174
 30
0.0
 40
120.0
 41
0.0
 71
     5
 72
     1
  1
\A1;50
  7
STYLE1
 73
     1
 44
1.0
1001
ACAD
1000
MTEXTBEGIN
1070
    73
1070
     1
1070
    44
1040
1.0
1070
    74
1070
     0
1000
MTEXTEND
  0
POINT
  5
181EA
330
17F1A
100
AcDbEntity
  8
DEFPOINTS
 62
     0
 48
50.0
100
AcDbPoint
 10
9366.325830023113
 20
5154.418029843934
 30
0.0
  0
POINT
  5
181EB
330
17F1A
100
AcDbEntity
  8
DEFPOINTS
 62
     0
 48
50.0
100
AcDbPoint
 10
9316.325830023112
 20
5154.418029843935
 30
0.0
  0
POINT
  5
181EC
330
17F1A
100
AcDbEntity
  8
DEFPOINTS
 62
     0
 48
50.0
100
AcDbPoint
 10
9316.325830023112
 20
5366.959615102175
 30
0.0
  0
ENDBLK
  5
17F27
330
17F1A
100
AcDbEntity
  8
0
 48
50.0
100
AcDbBlockEnd
  0
ENDSEC
  0
SECTION
  2
ENTITIES
  0
MTEXT
  5
763F
330
747D
100
AcDbEntity
  8
0
100
AcDbMText
 10
302.846345836809
 20
280.1983726409901
 30
0.0
 40
3.5
 41
5.323721266742722
 71
     1
 72
     5
  1

  7
MSMINCHO
 73
     1
 44
1.0
1001
ACAD
1000
MTEXTBEGIN
1070
    73
1070
     1
1070
    44
1040
1.0
1070
    74
1070
     0
1000
MTEXTEND
  0
LINE
  5
10B57
330
747D
100
AcDbEntity
  8
補助
  6
PHANTOM
 62
   230
 48
50.0
100
AcDbLine
 10
139.9999999999995
 20
11409.6
 30
0.0
 11
16307.2
 21
11409.6
 31
0.0
  0
LINE
  5
10B59
330
747D
100
AcDbEntity
  8
仕様書枠
  6
Continuous
 48
50.0
100
AcDbLine
 10
13107.2
 20
1200.0
 30
0.0
 11
13107.2
 21
-0.0000000000000729
 31
0.0
  0
LINE
  5
10B5D
330
747D
100
AcDbEntity
  8
仕様書枠
 48
50.0
100
AcDbLine
 10
140.0
 20
0.0
 30
0.0
 11
16307.2
 21
-0.0000000000000909
 31
0.0
  0
LINE
  5
10B5E
330
747D
100
AcDbEntity
  8
補助
  6
PHANTOM
 62
   230
 48
50.0
100
AcDbLine
 10
16307.2
 20
11409.6
 30
0.0
 11
16307.2
 21
1200.0
 31
0.0
  0
LINE
  5
10B6C
330
747D
100
AcDbEntity
  8
仕様書枠
 48
50.0
100
AcDbLine
 10
13107.2
 20
1200.0
 30
0.0
 11
16307.2
 21
1200.0
 31
0.0
  0
LINE
  5
10B6D
330
747D
100
AcDbEntity
  8
補助
  6
PHANTOM
 62
   230
 48
50.0
100
AcDbLine
 10
13107.2
 20
11409.6
 30
0.0
 11
13107.2
 21
4800.0
 31
0.0
  0
LINE
  5
10B6F
330
747D
100
AcDbEntity
  8
補助
  6
PHANTOM
 62
   230
 48
50.0
100
AcDbLine
 10
13107.2
 20
4800.0
 30
0.0
 11
16307.2
 21
4800.0
 31
0.0
  0
LINE
  5
10B72
330
747D
100
AcDbEntity
  8
文字
 62
     7
 48
50.0
100
AcDbLine
 10
13187.2
 20
400.0
 30
0.0
 11
16227.2
 21
400.0
 31
0.0
  0
TEXT
  5
10B73
330
747D
100
AcDbEntity
  8
文字
 62
     7
 48
50.0
100
AcDbText
 10
13162.9790565769
 20
895.0906074299405
 30
0.0
 40
200.0
  1
外 形 図
  7
STYLE2
100
AcDbText
  0
TEXT
  5
10B74
330
747D
100
AcDbEntity
  8
文字
 62
     7
 48
50.0
100
AcDbText
 10
13201.43669998441
 20
477.2740661031255
 30
0.0
 40
160.0
  1
機種名
  7
STYLE2
100
AcDbText
  0
LINE
  5
10B7B
330
747D
100
AcDbEntity
  8
仕様書枠
 48
50.0
100
AcDbLine
 10
13107.2
 20
800.0
 30
0.0
 11
14251.2
 21
800.0
 31
0.0
  0
LINE
  5
10B88
330
747D
100
AcDbEntity
  8
仕様書枠
  6
Continuous
 48
50.0
100
AcDbLine
 10
14251.2
 20
1200.0
 30
0.0
 11
14251.2
 21
800.0
 31
0.0
  0
LINE
  5
12765
330
747D
100
AcDbEntity
  8
Ｇ．Ｌ
100
AcDbLine
 10
3080.22618174287
 20
2979.418029843932
 30
0.0
 11
5008.206363745645
 21
2979.418029843932
 31
0.0
  0
LINE
  5
127A8
330
747D
100
AcDbEntity
  8
部品1
100
AcDbLine
 10
3179.72319306697
 20
3109.321840411596
 30
0.0
 11
3329.72319306697
 21
3109.321840411596
 31
0.0
  0
LINE
  5
127A9
330
747D
100
AcDbEntity
  8
部品1
100
AcDbLine
 10
3254.72319306697
 20
2979.418029843932
 30
0.0
 11
3179.72319306697
 21
3109.321840411596
 31
0.0
  0
TEXT
  5
127AA
330
747D
100
AcDbEntity
  8
部品1
100
AcDbText
 10
3357.828135191744
 20
3015.524933449833
 30
0.0
 40
125.0
  1
G.L
  7
STYLE2
100
AcDbText
  0
LINE
  5
127AB
330
747D
100
AcDbEntity
  8
部品1
100
AcDbLine
 10
3329.72319306697
 20
3109.321840411596
 30
0.0
 11
3254.72319306697
 21
2979.418029843932
 31
0.0
  0
LINE
  5
13BE8
330
747D
100
AcDbEntity
  8
部品1
100
AcDbLine
 10
3946.325830023107
 20
3079.418029843932
 30
0.0
 11
4990.573665674798
 21
3079.41802984393
 31
0.0
  0
LINE
  5
13BE9
330
747D
100
AcDbEntity
  8
部品1
100
AcDbLine
 10
3946.325830023107
 20
4919.418029843932
 30
0.0
 11
4666.132021171223
 21
4919.418029843932
 31
0.0
  0
LINE
  5
13C1F
330
747D
100
AcDbEntity
  8
部品1
100
AcDbLine
 10
3946.325830023107
 20
5013.418029843936
 30
0.0
 11
3946.325830023107
 21
2979.418029843932
 31
0.0
  0
LINE
  5
13CFC
330
747D
100
AcDbEntity
  8
部品1
100
AcDbLine
 10
9256.325830023106
 20
4919.418029843932
 30
0.0
 11
9256.325830023106
 21
3121.418029843952
 31
0.0
  0
LINE
  5
13CFE
330
747D
100
AcDbEntity
  8
部品1
100
AcDbLine
 10
4006.325830023106
 20
4919.418029843932
 30
0.0
 11
4006.325830023106
 21
3121.418029843936
 31
0.0
  0
LINE
  5
13D18
330
747D
100
AcDbEntity
  8
部品1
100
AcDbLine
 10
9316.325830023107
 20
5013.418029843929
 30
0.0
 11
9316.325830023107
 21
2979.418029843932
 31
0.0
  0
DIMENSION
  5
14521
330
747D
100
AcDbEntity
  8
寸法
100
AcDbDimension
  2
*D2
 10
4001.325830023104
 20
9414.490862762795
 30
0.0
 11
3637.840548648831
 21
9414.490862762795
 31
0.0
 70
   160
 71
     5
 42
55.00000000003456
  3
INABA_S40G
100
AcDbAlignedDimension
 13
3946.32583002307
 23
8979.012512816423
 33
0.0
 14
4001.325830023104
 24
8979.012512816423
 34
0.0
100
AcDbRotatedDimension
1001
ACAD
1000
DSTYLE
1002
{
1002
}
  0
LINE
  5
14523
330
747D
100
AcDbEntity
  8
部品1
100
AcDbLine
 10
3946.32583002307
 20
8979.012512816423
 30
0.0
 11
3946.325830023099
 21
7609.01251281641
 31
0.0
  0
LINE
  5
14524
330
747D
100
AcDbEntity
  8
部品1
100
AcDbLine
 10
9261.325830023107
 20
8979.01251281655
 30
0.0
 11
9261.325830023107
 21
8951.01251281655
 31
0.0
  0
LINE
  5
14525
330
747D
100
AcDbEntity
  8
部品1
100
AcDbLine
 10
9261.325830023107
 20
8979.01251281657
 30
0.0
 11
9261.325830023107
 21
8951.01251281657
 31
0.0
  0
DIMENSION
  5
14526
330
747D
100
AcDbEntity
  8
寸法
100
AcDbDimension
  2
*D3
 10
10328.85911749715
 20
7609.01251281654
 30
0.0
 11
10328.85911749715
 21
8294.012512816546
 31
0.0
 70
   160
 71
     5
 42
1370.000000000009
  3
INABA_S40G
100
AcDbAlignedDimension
 13
9316.325830023107
 23
8979.01251281655
 33
0.0
 14
9316.32583002308
 24
7609.01251281654
 34
0.0
 50
90.0
100
AcDbRotatedDimension
1001
ACAD
1000
DSTYLE
1002
{
1002
}
  0
LINE
  5
14527
330
747D
100
AcDbEntity
  8
部品1
100
AcDbLine
 10
9316.325830023107
 20
8979.01251281655
 30
0.0
 11
9316.32583002308
 21
7609.01251281654
 31
0.0
  0
LINE
  5
14529
330
747D
100
AcDbEntity
  8
部品1
100
AcDbLine
 10
8421.325830023105
 20
8979.01251281657
 30
0.0
 11
8421.325830023105
 21
8951.01251281657
 31
0.0
  0
LINE
  5
1452A
330
747D
100
AcDbEntity
  8
部品1
100
AcDbLine
 10
8001.325830023104
 20
8979.01251281657
 30
0.0
 11
8001.325830023104
 21
8951.01251281657
 31
0.0
  0
LINE
  5
1452B
330
747D
100
AcDbEntity
  8
部品1
100
AcDbLine
 10
8001.325830023104
 20
8979.012512816453
 30
0.0
 11
8001.325830023104
 21
8951.012512816452
 31
0.0
  0
LINE
  5
1452C
330
747D
100
AcDbEntity
  8
部品1
100
AcDbLine
 10
8001.325830023104
 20
8979.012512816455
 30
0.0
 11
8001.325830023104
 21
8951.012512816454
 31
0.0
  0
LINE
  5
1452D
330
747D
100
AcDbEntity
  8
部品1
100
AcDbLine
 10
4001.325830023104
 20
8979.012512816455
 30
0.0
 11
4001.325830023104
 21
8951.012512816454
 31
0.0
  0
DIMENSION
  5
1452E
330
747D
100
AcDbEntity
  8
寸法
100
AcDbDimension
  2
*D4
 10
9963.75217575752
 20
8924.012512816553
 30
0.0
 11
9963.752175757516
 21
9287.497794190789
 31
0.0
 70
   160
 71
     5
 42
54.99999999999636
  3
INABA_S40G
100
AcDbAlignedDimension
 13
9316.325830023107
 23
8979.01251281655
 33
0.0
 14
9316.325830023107
 24
8924.012512816553
 34
0.0
 50
90.0
100
AcDbRotatedDimension
1001
ACAD
1000
DSTYLE
1002
{
1002
}
  0
DIMENSION
  5
14530
330
747D
100
AcDbEntity
  8
寸法
100
AcDbDimension
  2
*D5
 10
9963.752175757493
 20
7609.01251281654
 30
0.0
 11
9963.752175757491
 21
7231.151045911679
 31
0.0
 70
   160
 71
     5
 42
54.99999999999636
  3
INABA_S40G
100
AcDbAlignedDimension
 13
9316.32583002308
 23
7664.012512816537
 33
0.0
 14
9316.32583002308
 24
7609.01251281654
 34
0.0
 50
90.0
100
AcDbRotatedDimension
1001
ACAD
1000
DSTYLE
1002
{
1002
}
  0
DIMENSION
  5
14531
330
747D
100
AcDbEntity
  8
寸法
100
AcDbDimension
  2
*D6
 10
9963.75217575752
 20
7664.012512816537
 30
0.0
 11
9963.752175757516
 21
8294.012512816546
 31
0.0
 70
   160
  1
3X420=<>
 71
     5
 42
1260.000000000016
  3
INABA_S40G
100
AcDbAlignedDimension
 13
9316.325830023107
 23
8924.012512816553
 33
0.0
 14
9316.32583002308
 24
7664.012512816537
 34
0.0
 50
90.0
100
AcDbRotatedDimension
1001
ACAD
1000
DSTYLE
1002
{
1002
}
  0
DIMENSION
  5
14532
330
747D
100
AcDbEntity
  8
寸法
100
AcDbDimension
  2
*D7
 10
9316.32583002308
 20
6844.876543462851
 30
0.0
 11
8421.325830023091
 21
6844.876543462851
 31
0.0
 70
   160
 71
     5
 42
1789.999999999983
  3
INABA_S40G
100
AcDbAlignedDimension
 13
7526.325830023099
 23
7609.012512816376
 33
0.0
 14
9316.32583002308
 24
7609.012512816505
 34
0.0
100
AcDbRotatedDimension
1001
ACAD
1000
DSTYLE
1002
{
1002
}
  0
TEXT
  5
14535
330
747D
100
AcDbEntity
  8
部品1
100
AcDbText
 10
6339.510106737923
 20
6416.65872652389
 30
0.0
 40
135.0
  1
平面図
  7
STYLE2
100
AcDbText
  0
LINE
  5
14543
330
747D
100
AcDbEntity
  8
部品1
100
AcDbLine
 10
4001.325830023104
 20
8951.012512816538
 30
0.0
 11
4583.366576693218
 21
8951.012512816543
 31
0.0
  0
LINE
  5
14544
330
747D
100
AcDbEntity
  8
部品1
100
AcDbLine
 10
9316.32583002308
 20
7609.01251281654
 30
0.0
 11
4850.460183160589
 21
7609.012512816319
 31
0.0
  0
LINE
  5
14546
330
747D
100
AcDbEntity
  8
部品1
100
AcDbLine
 10
3974.32583002308
 20
7664.012512816407
 30
0.0
 11
3974.325830023105
 21
8951.012512816454
 31
0.0
  0
LINE
  5
1454A
330
747D
100
AcDbEntity
  8
部品1
100
AcDbLine
 10
7577.325830023098
 20
7609.01251281641
 30
0.0
 11
7526.325830023099
 21
7609.01251281641
 31
0.0
  0
LINE
  5
1454D
330
747D
100
AcDbEntity
  8
部品1
100
AcDbLine
 10
3974.325830023096
 20
7664.012512816424
 30
0.0
 11
3946.325830023096
 21
7664.012512816424
 31
0.0
  0
LINE
  5
1454F
330
747D
100
AcDbEntity
  8
部品1
100
AcDbLine
 10
4006.325830023095
 20
7664.012512816373
 30
0.0
 11
3978.325830023095
 21
7664.012512816373
 31
0.0
  0
LINE
  5
14550
330
747D
100
AcDbEntity
  8
部品1
100
AcDbLine
 10
3997.325830023098
 20
7609.012512816375
 30
0.0
 11
3997.325830023097
 21
7616.012512816411
 31
0.0
  0
LINE
  5
14551
330
747D
100
AcDbEntity
  8
部品1
100
AcDbLine
 10
4006.325830023096
 20
7616.01251281641
 30
0.0
 11
3997.325830023097
 21
7616.012512816411
 31
0.0
  0
LINE
  5
14552
330
747D
100
AcDbEntity
  8
部品1
100
AcDbLine
 10
4006.325830023096
 20
7616.01251281641
 30
0.0
 11
4006.325830023095
 21
7664.012512816374
 31
0.0
  0
LINE
  5
14558
330
747D
100
AcDbEntity
  8
部品1
100
AcDbLine
 10
3974.325830023085
 20
8084.012512816423
 30
0.0
 11
3946.325830023085
 21
8084.012512816423
 31
0.0
  0
LINE
  5
1455D
330
747D
100
AcDbEntity
  8
部品1
100
AcDbLine
 10
3974.325830023105
 20
8951.012512816422
 30
0.0
 11
4583.366576693239
 21
8951.012512816429
 31
0.0
  0
LINE
  5
1455F
330
747D
100
AcDbEntity
  8
部品1
100
AcDbLine
 10
3974.325830023079
 20
8504.012512816423
 30
0.0
 11
3946.325830023079
 21
8504.012512816423
 31
0.0
  0
LINE
  5
14560
330
747D
100
AcDbEntity
  8
部品1
100
AcDbLine
 10
3974.325830023072
 20
8924.012512816425
 30
0.0
 11
3946.325830023072
 21
8924.012512816425
 31
0.0
  0
LINE
  5
14562
330
747D
100
AcDbEntity
  8
部品1
100
AcDbLine
 10
9288.325830023106
 20
8951.01251281655
 30
0.0
 11
9288.325830023081
 21
7664.012512816537
 31
0.0
  0
LINE
  5
1456A
330
747D
100
AcDbEntity
  8
部品1
100
AcDbLine
 10
9316.32583002308
 20
7609.01251281654
 30
0.0
 11
9265.325830023082
 21
7609.01251281654
 31
0.0
  0
LINE
  5
1456B
330
747D
100
AcDbEntity
  8
部品1
100
AcDbLine
 10
9316.32583002308
 20
7664.012512816537
 30
0.0
 11
9316.32583002308
 21
7609.01251281654
 31
0.0
  0
LINE
  5
1456C
330
747D
100
AcDbEntity
  8
部品1
100
AcDbLine
 10
9288.325830023081
 20
7664.012512816537
 30
0.0
 11
9316.32583002308
 21
7664.012512816537
 31
0.0
  0
LINE
  5
1456E
330
747D
100
AcDbEntity
  8
部品1
100
AcDbLine
 10
9256.325830023081
 20
7664.012512816537
 30
0.0
 11
9288.325830023081
 21
7664.012512816537
 31
0.0
  0
LINE
  5
14570
330
747D
100
AcDbEntity
  8
部品1
100
AcDbLine
 10
9265.325830023082
 20
7609.012512816538
 30
0.0
 11
9265.325830023082
 21
7616.01251281654
 31
0.0
  0
LINE
  5
14571
330
747D
100
AcDbEntity
  8
部品1
100
AcDbLine
 10
9265.325830023082
 20
7616.01251281654
 30
0.0
 11
9256.325830023081
 21
7616.01251281654
 31
0.0
  0
LINE
  5
14572
330
747D
100
AcDbEntity
  8
部品1
100
AcDbLine
 10
9256.325830023081
 20
7616.01251281654
 30
0.0
 11
9256.325830023081
 21
7664.012512816537
 31
0.0
  0
LINE
  5
14573
330
747D
100
AcDbEntity
  8
部品1
100
AcDbLine
 10
9288.325830023113
 20
7664.012512816554
 30
0.0
 11
9316.325830023114
 21
7664.012512816554
 31
0.0
  0
LINE
  5
14574
330
747D
100
AcDbEntity
  8
部品1
100
AcDbLine
 10
9288.32583002311
 20
8084.012512816553
 30
0.0
 11
9316.32583002311
 21
8084.012512816553
 31
0.0
  0
LINE
  5
14585
330
747D
100
AcDbEntity
  8
部品1
100
AcDbLine
 10
9288.325830023106
 20
8504.012512816553
 30
0.0
 11
9316.325830023107
 21
8504.012512816553
 31
0.0
  0
LINE
  5
14586
330
747D
100
AcDbEntity
  8
部品1
100
AcDbLine
 10
9288.325830023106
 20
8924.012512816553
 30
0.0
 11
9316.325830023107
 21
8924.012512816553
 31
0.0
  0
DIMENSION
  5
14587
330
747D
100
AcDbEntity
  8
寸法
100
AcDbDimension
  2
*D8
 10
9316.325830023107
 20
9414.490862762924
 30
0.0
 11
9624.811111397345
 21
9414.490862762924
 31
0.0
 70
   160
 71
     5
 42
55.0
  3
INABA_S40G
100
AcDbAlignedDimension
 13
9261.325830023107
 23
8979.01251281655
 33
0.0
 14
9316.325830023107
 24
8979.01251281655
 34
0.0
100
AcDbRotatedDimension
1001
ACAD
1000
DSTYLE
1002
{
1002
}
  0
LINE
  5
14588
330
747D
100
AcDbEntity
  8
部品1
100
AcDbLine
 10
3946.325830023105
 20
8979.012512816423
 30
0.0
 11
4578.4294212334
 21
8979.012512816442
 31
0.0
  0
DIMENSION
  5
14589
330
747D
100
AcDbEntity
  8
寸法
100
AcDbDimension
  2
*D9
 10
9261.325830023107
 20
9414.490862762944
 30
0.0
 11
8421.325830023105
 21
9414.490862762944
 31
0.0
 70
   160
  1
4X420=<>
 71
     5
 42
1680.000000000002
  3
INABA_S40G
100
AcDbAlignedDimension
 13
7581.325830023104
 23
8979.012512816423
 33
0.0
 14
9261.325830023107
 24
8979.01251281655
 34
0.0
100
AcDbRotatedDimension
1001
ACAD
1000
DSTYLE
1002
{
1002
}
  0
TEXT
  5
149A1
330
747D
100
AcDbEntity
  8
部品1
100
AcDbText
 10
6340.11590064684
 20
2243.294324546598
 30
0.0
 40
135.0
  1
正面図
  7
STYLE2
100
AcDbText
  0
TEXT
  5
149A3
330
747D
100
AcDbEntity
  8
部品1
100
AcDbText
 10
11654.83398013998
 20
2243.294324546598
 30
0.0
 40
135.0
  1
側面図
  7
STYLE2
100
AcDbText
  0
LINE
  5
154D6
330
747D
100
AcDbEntity
  8
仕様書枠
 48
50.0
100
AcDbLine
 10
16307.2
 20
1200.0
 30
0.0
 11
16307.2
 21
-0.0000000000000909
 31
0.0
  0
LINE
  5
15531
330
747D
100
AcDbEntity
  8
部品1
100
AcDbLine
 10
7586.325830023106
 20
4919.418029843932
 30
0.0
 11
7586.325830023106
 21
3121.418029843936
 31
0.0
  0
LINE
  5
15569
330
747D
100
AcDbEntity
  8
部品1
100
AcDbLine
 10
5796.325830023107
 20
4919.418029843932
 30
0.0
 11
5796.325830023107
 21
3121.418029843936
 31
0.0
  0
LINE
  5
155B0
330
747D
100
AcDbEntity
  8
部品1
100
AcDbLine
 10
7466.325830023106
 20
4919.418029843932
 30
0.0
 11
7466.325830023106
 21
3121.418029843936
 31
0.0
  0
LINE
  5
155B2
330
747D
100
AcDbEntity
  8
部品1
100
AcDbLine
 10
5676.325830023106
 20
4919.418029843932
 30
0.0
 11
5676.325830023106
 21
3121.418029843936
 31
0.0
  0
LINE
  5
155B9
330
747D
100
AcDbEntity
  8
細線
 48
50.0
100
AcDbLine
 10
5736.325830023107
 20
4919.418029843932
 30
0.0
 11
5736.325830023107
 21
5013.418029843934
 31
0.0
  0
LINE
  5
155D2
330
747D
100
AcDbEntity
  8
細線
 48
50.0
100
AcDbLine
 10
5726.325830023103
 20
5013.418029843934
 30
0.0
 11
5726.325830023106
 21
5154.418029843932
 31
0.0
  0
LINE
  5
155D3
330
747D
100
AcDbEntity
  8
細線
 48
50.0
100
AcDbLine
 10
7526.325830023106
 20
4919.418029843932
 30
0.0
 11
7526.325830023107
 21
5013.418029843932
 31
0.0
  0
LINE
  5
155D4
330
747D
100
AcDbEntity
  8
細線
 48
50.0
100
AcDbLine
 10
7516.325830023103
 20
5013.418029843932
 30
0.0
 11
7516.325830023106
 21
5154.41802984393
 31
0.0
  0
LINE
  5
15605
330
747D
100
AcDbEntity
  8
部品1
100
AcDbLine
 10
7577.325830023098
 20
7609.012512816377
 30
0.0
 11
7577.325830023096
 21
7616.012512816414
 31
0.0
  0
LINE
  5
15606
330
747D
100
AcDbEntity
  8
部品1
100
AcDbLine
 10
7586.325830023096
 20
7616.012512816412
 30
0.0
 11
7577.325830023096
 21
7616.012512816414
 31
0.0
  0
LINE
  5
15607
330
747D
100
AcDbEntity
  8
部品1
100
AcDbLine
 10
7586.325830023096
 20
7616.012512816412
 30
0.0
 11
7586.325830023096
 21
7664.012512816377
 31
0.0
  0
LINE
  5
15608
330
747D
100
AcDbEntity
  8
部品1
100
AcDbLine
 10
7466.325830023096
 20
7616.012512816412
 30
0.0
 11
7466.325830023095
 21
7664.012512816377
 31
0.0
  0
LINE
  5
15609
330
747D
100
AcDbEntity
  8
部品1
100
AcDbLine
 10
7475.325830023097
 20
7616.012512816407
 30
0.0
 11
7466.325830023096
 21
7616.012512816408
 31
0.0
  0
LINE
  5
1560A
330
747D
100
AcDbEntity
  8
部品1
100
AcDbLine
 10
7475.325830023098
 20
7609.01251281637
 30
0.0
 11
7475.325830023097
 21
7616.012512816407
 31
0.0
  0
LINE
  5
1560B
330
747D
100
AcDbEntity
  8
部品1
 48
50.0
100
AcDbLine
 10
7466.325830023095
 20
7664.012512816377
 30
0.0
 11
7489.325830023095
 21
7664.012512816377
 31
0.0
  0
LINE
  5
1560C
330
747D
100
AcDbEntity
  8
部品1
 48
50.0
100
AcDbLine
 10
7586.325830023096
 20
7664.012512816377
 30
0.0
 11
7563.325830023095
 21
7664.012512816377
 31
0.0
  0
LINE
  5
15611
330
747D
100
AcDbEntity
  8
部品1
 48
50.0
100
AcDbLine
 10
7554.325830023064
 20
7664.012512816376
 30
0.0
 11
7498.325830023063
 21
7664.012512816376
 31
0.0
  0
LINE
  5
15612
330
747D
100
AcDbEntity
  8
部品1
100
AcDbLine
 10
7581.325830023104
 20
8979.012512816455
 30
0.0
 11
7581.325830023104
 21
8951.012512816454
 31
0.0
  0
LINE
  5
15613
330
747D
100
AcDbEntity
  8
部品1
100
AcDbLine
 10
7554.325830023072
 20
8924.012512816425
 30
0.0
 11
7498.325830023071
 21
8924.012512816425
 31
0.0
  0
LINE
  5
15614
330
747D
100
AcDbEntity
  8
部品1
100
AcDbLine
 10
7471.325830023104
 20
8979.012512816455
 30
0.0
 11
7471.325830023104
 21
8951.012512816454
 31
0.0
  0
LINE
  5
15624
330
747D
100
AcDbEntity
  8
部品1
 48
50.0
100
AcDbLine
 10
7554.325830023072
 20
8924.012512816425
 30
0.0
 11
7554.325830023072
 21
8979.012512816508
 31
0.0
  0
LINE
  5
15625
330
747D
100
AcDbEntity
  8
部品1
 48
50.0
100
AcDbLine
 10
7498.325830023071
 20
8924.012512816425
 30
0.0
 11
7498.325830023071
 21
8951.012512816452
 31
0.0
  0
LINE
  5
15628
330
747D
100
AcDbEntity
  8
部品1
100
AcDbLine
 10
7581.325830023104
 20
8951.012512816454
 30
0.0
 11
8001.325830023104
 21
8951.012512816459
 31
0.0
  0
LINE
  5
15629
330
747D
100
AcDbEntity
  8
部品1
100
AcDbLine
 10
7554.325830023072
 20
8951.012512816559
 30
0.0
 11
8408.825830023104
 21
8951.012512816562
 31
0.0
  0
LINE
  5
1562A
330
747D
100
AcDbEntity
  8
部品1
 48
50.0
100
AcDbLine
 10
7498.325830023071
 20
8951.012512816452
 30
0.0
 11
7526.32583002307
 21
8951.012512816452
 31
0.0
  0
LINE
  5
1562B
330
747D
100
AcDbEntity
  8
部品1
 48
50.0
100
AcDbLine
 10
7526.32583002307
 20
8951.012512816452
 30
0.0
 11
7498.325830023071
 21
8979.012512816506
 31
0.0
  0
LINE
  5
1562C
330
747D
100
AcDbEntity
  8
部品1
100
AcDbLine
 10
7498.325830023036
 20
8951.012512816452
 30
0.0
 11
7498.325830023064
 21
7609.012512816441
 31
0.0
  0
LINE
  5
1562D
330
747D
100
AcDbEntity
  8
部品1
100
AcDbLine
 10
7526.325830023046
 20
7664.012512816438
 30
0.0
 11
7526.32583002307
 21
8924.012512816423
 31
0.0
  0
LINE
  5
1562E
330
747D
100
AcDbEntity
  8
部品1
100
AcDbLine
 10
7526.325830023051
 20
8084.012512816455
 30
0.0
 11
7498.32583002305
 21
8084.012512816455
 31
0.0
  0
LINE
  5
1562F
330
747D
100
AcDbEntity
  8
部品1
100
AcDbLine
 10
7526.325830023044
 20
8504.012512816455
 30
0.0
 11
7498.325830023045
 21
8504.012512816455
 31
0.0
  0
LINE
  5
15630
330
747D
100
AcDbEntity
  8
部品1
100
AcDbLine
 10
7554.325830023038
 20
8924.012512816425
 30
0.0
 11
7554.325830023064
 21
7609.012512816441
 31
0.0
  0
LINE
  5
15631
330
747D
100
AcDbEntity
  8
部品1
 48
50.0
100
AcDbLine
 10
7498.325830023071
 20
8951.012512816557
 30
0.0
 11
7498.325830023071
 21
8979.012512816506
 31
0.0
  0
DIMENSION
  5
15633
330
747D
100
AcDbEntity
  8
寸法
100
AcDbDimension
  2
*D10
 10
7526.32583002308
 20
6844.876543462851
 30
0.0
 11
6631.32583002309
 21
6844.876543462851
 31
0.0
 70
   160
 71
     5
 42
1789.999999999982
  3
INABA_S40G
100
AcDbAlignedDimension
 13
5736.325830023098
 23
7609.012512816376
 33
0.0
 14
7526.32583002308
 24
7609.012512816505
 34
0.0
100
AcDbRotatedDimension
1001
ACAD
1000
DSTYLE
1002
{
1002
}
  0
DIMENSION
  5
1568E
330
747D
100
AcDbEntity
  8
寸法
100
AcDbDimension
  2
*D11
 10
7471.325830023106
 20
9414.490862762944
 30
0.0
 11
6631.325830023104
 21
9414.490862762944
 31
0.0
 70
   160
  1
4X420=<>
 71
     5
 42
1680.000000000001
  3
INABA_S40G
100
AcDbAlignedDimension
 13
5791.325830023104
 23
8979.012512816423
 33
0.0
 14
7471.325830023106
 24
8979.01251281655
 34
0.0
100
AcDbRotatedDimension
1001
ACAD
1000
DSTYLE
1002
{
1002
}
  0
LINE
  5
156DE
330
747D
100
AcDbEntity
  8
部品1
100
AcDbLine
 10
5736.325830023045
 20
7664.012512816438
 30
0.0
 11
5736.32583002307
 21
8924.012512816423
 31
0.0
  0
LINE
  5
156DF
330
747D
100
AcDbEntity
  8
部品1
100
AcDbLine
 10
5764.325830023037
 20
8924.012512816425
 30
0.0
 11
5764.325830023063
 21
7609.012512816441
 31
0.0
  0
LINE
  5
156E0
330
747D
100
AcDbEntity
  8
部品1
100
AcDbLine
 10
5708.325830023036
 20
8951.012512816452
 30
0.0
 11
5708.325830023063
 21
7609.012512816441
 31
0.0
  0
LINE
  5
156E1
330
747D
100
AcDbEntity
  8
部品1
 48
50.0
100
AcDbLine
 10
5764.325830023063
 20
7664.012512816376
 30
0.0
 11
5708.325830023063
 21
7664.012512816376
 31
0.0
  0
LINE
  5
156E2
330
747D
100
AcDbEntity
  8
部品1
 48
50.0
100
AcDbLine
 10
5796.325830023095
 20
7664.012512816377
 30
0.0
 11
5773.325830023094
 21
7664.012512816377
 31
0.0
  0
LINE
  5
156E3
330
747D
100
AcDbEntity
  8
部品1
 48
50.0
100
AcDbLine
 10
5676.325830023094
 20
7664.012512816377
 30
0.0
 11
5699.325830023095
 21
7664.012512816377
 31
0.0
  0
LINE
  5
156E4
330
747D
100
AcDbEntity
  8
部品1
100
AcDbLine
 10
5676.325830023096
 20
7616.012512816412
 30
0.0
 11
5676.325830023094
 21
7664.012512816377
 31
0.0
  0
LINE
  5
156E5
330
747D
100
AcDbEntity
  8
部品1
100
AcDbLine
 10
5796.325830023096
 20
7616.012512816412
 30
0.0
 11
5796.325830023095
 21
7664.012512816377
 31
0.0
  0
LINE
  5
156E6
330
747D
100
AcDbEntity
  8
部品1
100
AcDbLine
 10
5685.325830023096
 20
7616.012512816407
 30
0.0
 11
5676.325830023096
 21
7616.012512816408
 31
0.0
  0
LINE
  5
156E7
330
747D
100
AcDbEntity
  8
部品1
100
AcDbLine
 10
5685.325830023098
 20
7609.01251281637
 30
0.0
 11
5685.325830023096
 21
7616.012512816407
 31
0.0
  0
LINE
  5
156E8
330
747D
100
AcDbEntity
  8
部品1
100
AcDbLine
 10
5796.325830023096
 20
7616.012512816412
 30
0.0
 11
5787.325830023096
 21
7616.012512816414
 31
0.0
  0
LINE
  5
156E9
330
747D
100
AcDbEntity
  8
部品1
100
AcDbLine
 10
5787.325830023099
 20
7609.012512816377
 30
0.0
 11
5787.325830023096
 21
7616.012512816414
 31
0.0
  0
LINE
  5
156EA
330
747D
100
AcDbEntity
  8
部品1
100
AcDbLine
 10
5736.32583002305
 20
8084.012512816455
 30
0.0
 11
5708.32583002305
 21
8084.012512816455
 31
0.0
  0
LINE
  5
156EB
330
747D
100
AcDbEntity
  8
部品1
100
AcDbLine
 10
5736.325830023044
 20
8504.012512816455
 30
0.0
 11
5708.325830023045
 21
8504.012512816455
 31
0.0
  0
LINE
  5
156EC
330
747D
100
AcDbEntity
  8
部品1
 48
50.0
100
AcDbLine
 10
5736.32583002307
 20
8951.012512816452
 30
0.0
 11
5708.325830023071
 21
8979.012512816506
 31
0.0
  0
LINE
  5
156ED
330
747D
100
AcDbEntity
  8
部品1
 48
50.0
100
AcDbLine
 10
5708.325830023071
 20
8951.012512816452
 30
0.0
 11
5736.32583002307
 21
8951.012512816452
 31
0.0
  0
LINE
  5
156EE
330
747D
100
AcDbEntity
  8
部品1
100
AcDbLine
 10
5764.325830023071
 20
8924.012512816425
 30
0.0
 11
5708.325830023071
 21
8924.012512816425
 31
0.0
  0
LINE
  5
156EF
330
747D
100
AcDbEntity
  8
部品1
 48
50.0
100
AcDbLine
 10
5708.325830023071
 20
8951.012512816557
 30
0.0
 11
5708.325830023071
 21
8979.012512816506
 31
0.0
  0
LINE
  5
156F0
330
747D
100
AcDbEntity
  8
部品1
 48
50.0
100
AcDbLine
 10
5764.325830023071
 20
8924.012512816425
 30
0.0
 11
5764.325830023071
 21
8979.012512816508
 31
0.0
  0
LINE
  5
156F1
330
747D
100
AcDbEntity
  8
部品1
100
AcDbLine
 10
5681.325830023105
 20
8979.012512816455
 30
0.0
 11
5681.325830023105
 21
8951.012512816454
 31
0.0
  0
LINE
  5
156F2
330
747D
100
AcDbEntity
  8
部品1
100
AcDbLine
 10
5791.325830023104
 20
8979.012512816455
 30
0.0
 11
5791.325830023104
 21
8951.012512816454
 31
0.0
  0
LINE
  5
156F3
330
747D
100
AcDbEntity
  8
部品1
100
AcDbLine
 10
5764.325830023071
 20
8951.012512816546
 30
0.0
 11
6618.825830023123
 21
8951.012512816552
 31
0.0
  0
DIMENSION
  5
15727
330
747D
100
AcDbEntity
  8
寸法
 48
50.0
100
AcDbDimension
  2
*D12
 10
7471.325830023104
 20
9414.490862762944
 30
0.0
 11
7526.325830023104
 21
9414.490862762944
 31
0.0
 70
   160
 71
     5
 42
110.0
  3
INABA_S40G
100
AcDbAlignedDimension
 13
7581.325830023104
 23
8979.012512816423
 33
0.0
 14
7471.325830023104
 24
8979.012512816423
 34
0.0
100
AcDbRotatedDimension
  0
DIMENSION
  5
15735
330
747D
100
AcDbEntity
  8
寸法
 48
50.0
100
AcDbDimension
  2
*D13
 10
5681.325830023105
 20
9414.490862762944
 30
0.0
 11
5736.325830023105
 21
9414.490862762944
 31
0.0
 70
   160
 71
     5
 42
109.9999999999991
  3
INABA_S40G
100
AcDbAlignedDimension
 13
5791.325830023104
 23
8979.012512816465
 33
0.0
 14
5681.325830023105
 24
8979.01251281655
 34
0.0
100
AcDbRotatedDimension
  0
LINE
  5
157D0
330
747D
100
AcDbEntity
  8
寸法
 48
50.0
100
AcDbLine
 10
4613.681373841922
 20
5216.880432469777
 30
0.0
 11
4782.405776255385
 21
4259.996796536432
 31
0.0
  0
LINE
  5
157D1
330
747D
100
AcDbEntity
  8
寸法
 48
50.0
100
AcDbLine
 10
4644.144172198492
 20
5216.880432469777
 30
0.0
 11
4807.952660851635
 21
4287.876328872154
 31
0.0
  0
LINE
  5
157D7
330
747D
100
AcDbEntity
  8
寸法
 48
50.0
100
AcDbLine
 10
4807.952660851635
 20
4287.876328872155
 30
0.0
 11
5095.029935541392
 21
4262.760321780882
 31
0.0
  0
LINE
  5
157D8
330
747D
100
AcDbEntity
  8
寸法
 48
50.0
100
AcDbLine
 10
5095.029935541392
 20
4262.760321780882
 30
0.0
 11
4653.290071512279
 21
4056.773640271759
 31
0.0
  0
LINE
  5
157D9
330
747D
100
AcDbEntity
  8
寸法
 48
50.0
100
AcDbLine
 10
4782.405776255385
 20
4259.996796536432
 30
0.0
 11
4980.879786433689
 21
4242.6325706413
 31
0.0
  0
LINE
  5
157DA
330
747D
100
AcDbEntity
  8
寸法
 48
50.0
100
AcDbLine
 10
4980.879786433689
 20
4242.6325706413
 30
0.0
 11
4539.139922404575
 21
4036.645889132178
 31
0.0
  0
LINE
  5
157DB
330
747D
100
AcDbEntity
  8
寸法
 48
50.0
100
AcDbLine
 10
4851.76408169058
 20
4039.409414376629
 30
0.0
 11
5062.924812457364
 21
2841.857400961773
 31
0.0
  0
LINE
  5
157DD
330
747D
100
AcDbEntity
  8
寸法
 48
50.0
100
AcDbLine
 10
4826.217197094331
 20
4011.529882040906
 30
0.0
 11
4539.139922404575
 21
4036.645889132178
 31
0.0
  0
LINE
  5
157DE
330
747D
100
AcDbEntity
  8
寸法
 48
50.0
100
AcDbLine
 10
4851.76408169058
 20
4039.409414376629
 30
0.0
 11
4653.290071512281
 21
4056.773640271759
 31
0.0
  0
LINE
  5
157DF
330
747D
100
AcDbEntity
  8
寸法
 48
50.0
100
AcDbLine
 10
4826.217197094331
 20
4011.529882040906
 30
0.0
 11
5032.462014100793
 21
2841.857400961773
 31
0.0
  0
LINE
  5
157E3
330
747D
100
AcDbEntity
  8
Ｇ．Ｌ
100
AcDbLine
 10
5038.669162102214
 20
2979.418029843932
 30
0.0
 11
13740.09996538331
 21
2979.418029843932
 31
0.0
  0
LINE
  5
157E4
330
747D
100
AcDbEntity
  8
部品1
100
AcDbLine
 10
5021.036464031369
 20
3079.418029843932
 30
0.0
 11
9316.325830023107
 21
3079.418029843932
 31
0.0
  0
LINE
  5
157E5
330
747D
100
AcDbEntity
  8
部品1
100
AcDbLine
 10
3946.325830023107
 20
3121.418029843936
 30
0.0
 11
4983.167932485041
 21
3121.418029843937
 31
0.0
  0
LINE
  5
157EC
330
747D
100
AcDbEntity
  8
部品1
100
AcDbLine
 10
4696.594819527795
 20
4919.418029843932
 30
0.0
 11
9316.325830023107
 21
4919.418029843932
 31
0.0
  0
LINE
  5
157F1
330
747D
100
AcDbEntity
  8
寸法
 48
50.0
100
AcDbLine
 10
4596.942572124965
 20
9046.78233123557
 30
0.0
 11
4692.914839528001
 21
8502.496555925242
 31
0.0
  0
LINE
  5
157F2
330
747D
100
AcDbEntity
  8
寸法
 48
50.0
100
AcDbLine
 10
4566.479773768393
 20
9046.782331235569
 30
0.0
 11
4667.367954931751
 21
8474.617023589521
 31
0.0
  0
LINE
  5
157F3
330
747D
100
AcDbEntity
  8
寸法
 48
50.0
100
AcDbLine
 10
4736.726260366945
 20
8254.029641429717
 30
0.0
 11
4862.114566432795
 21
7542.917220845804
 31
0.0
  0
LINE
  5
157F4
330
747D
100
AcDbEntity
  8
寸法
 48
50.0
100
AcDbLine
 10
4711.179375770695
 20
8226.150109093994
 30
0.0
 11
4831.651768076222
 21
7542.917220845803
 31
0.0
  0
LINE
  5
157F5
330
747D
100
AcDbEntity
  8
寸法
 48
50.0
100
AcDbLine
 10
4865.841965110053
 20
8457.252797694389
 30
0.0
 11
4424.102101080939
 21
8251.266116185266
 31
0.0
  0
LINE
  5
157F6
330
747D
100
AcDbEntity
  8
寸法
 48
50.0
100
AcDbLine
 10
4979.992114217758
 20
8477.380548833972
 30
0.0
 11
4538.252250188644
 21
8271.393867324849
 31
0.0
  0
LINE
  5
157F7
330
747D
100
AcDbEntity
  8
寸法
 48
50.0
100
AcDbLine
 10
4736.726260366945
 20
8254.029641429717
 30
0.0
 11
4538.252250188647
 21
8271.393867324849
 31
0.0
  0
LINE
  5
157F8
330
747D
100
AcDbEntity
  8
寸法
 48
50.0
100
AcDbLine
 10
4711.179375770695
 20
8226.150109093994
 30
0.0
 11
4424.102101080939
 21
8251.266116185266
 31
0.0
  0
LINE
  5
157F9
330
747D
100
AcDbEntity
  8
寸法
 48
50.0
100
AcDbLine
 10
4692.914839528
 20
8502.496555925244
 30
0.0
 11
4979.992114217758
 21
8477.380548833972
 31
0.0
  0
LINE
  5
157FA
330
747D
100
AcDbEntity
  8
寸法
 48
50.0
100
AcDbLine
 10
4667.367954931751
 20
8474.617023589521
 30
0.0
 11
4865.841965110053
 21
8457.252797694389
 31
0.0
  0
LINE
  5
157FC
330
747D
100
AcDbEntity
  8
部品1
100
AcDbLine
 10
4819.997384804017
 20
7609.012512816318
 30
0.0
 11
3946.325830023099
 21
7609.012512816256
 31
0.0
  0
LINE
  5
15807
330
747D
100
AcDbEntity
  8
部品1
100
AcDbLine
 10
4613.829375049789
 20
8951.012512816545
 30
0.0
 11
5736.325830022974
 21
8951.012512816546
 31
0.0
  0
LINE
  5
15808
330
747D
100
AcDbEntity
  8
部品1
100
AcDbLine
 10
4608.892219589971
 20
8979.012512816444
 30
0.0
 11
9316.325830023107
 21
8979.01251281655
 31
0.0
  0
LINE
  5
15809
330
747D
100
AcDbEntity
  8
部品1
100
AcDbLine
 10
4613.82937504981
 20
8951.012512816429
 30
0.0
 11
5736.325830023087
 21
8951.012512816435
 31
0.0
  0
LINE
  5
1580A
330
747D
100
AcDbEntity
  8
寸法
  6
ByBlock
 48
50.0
100
AcDbLine
 10
3946.325830023099
 20
7589.012512816376
 30
0.0
 11
3946.325830023099
 21
6784.876543462852
 31
0.0
  0
LINE
  5
1580B
330
747D
100
AcDbEntity
  8
寸法
  6
ByBlock
 48
50.0
100
AcDbLine
 10
5736.32583002308
 20
7589.012512816506
 30
0.0
 11
5736.32583002308
 21
6784.876543462852
 31
0.0
  0
LINE
  5
1580C
330
747D
100
AcDbEntity
  8
寸法
  6
ByBlock
 48
50.0
100
AcDbLine
 10
3946.325830023099
 20
6844.876543462851
 30
0.0
 11
4292.549159420618
 21
6844.876543462851
 31
0.0
  0
INSERT
  5
1580D
330
747D
100
AcDbEntity
  8
寸法
  6
ByBlock
 48
50.0
100
AcDbBlockReference
  2
_DOTSMALL
 10
3946.325830023099
 20
6844.876543462851
 30
0.0
 41
100.0
 42
100.0
 43
100.0
 50
180.0
  0
INSERT
  5
1580E
330
747D
100
AcDbEntity
  8
寸法
  6
ByBlock
 48
50.0
100
AcDbBlockReference
  2
_DOTSMALL
 10
5736.32583002308
 20
6844.876543462851
 30
0.0
 41
100.0
 42
100.0
 43
100.0
  0
MTEXT
  5
1580F
330
747D
100
AcDbEntity
  8
部品1
  6
ByBlock
 48
50.0
100
AcDbMText
 10
4148.405661256432
 20
6944.876543462851
 30
0.0
 40
120.0
 41
0.0
 71
     5
 72
     1
  1
\A1;1790
  7
STYLE1
 73
     1
 44
1.0
1001
ACAD
1000
MTEXTBEGIN
1070
    73
1070
     1
1070
    44
1040
1.0
1070
    74
1070
     0
1000
MTEXTEND
  0
POINT
  5
15812
330
747D
100
AcDbEntity
  8
寸法
  6
ByBlock
 48
50.0
100
AcDbPoint
 10
5736.32583002308
 20
6844.876543462851
 30
0.0
  0
LINE
  5
15815
330
747D
100
AcDbEntity
  8
寸法
  6
ByBlock
 48
50.0
100
AcDbLine
 10
4001.325830023104
 20
8999.012512816422
 30
0.0
 11
4001.325830023104
 21
9474.490862762944
 31
0.0
  0
LINE
  5
15816
330
747D
100
AcDbEntity
  8
寸法
  6
ByBlock
 48
50.0
100
AcDbLine
 10
5681.325830023105
 20
8999.012512816548
 30
0.0
 11
5681.325830023105
 21
9474.490862762944
 31
0.0
  0
LINE
  5
15817
330
747D
100
AcDbEntity
  8
寸法
  6
ByBlock
 48
50.0
100
AcDbLine
 10
4001.325830023104
 20
9414.490862762944
 30
0.0
 11
4342.779320132133
 21
9414.490862762944
 31
0.0
  0
INSERT
  5
15818
330
747D
100
AcDbEntity
  8
寸法
  6
ByBlock
 48
50.0
100
AcDbBlockReference
  2
_DOTSMALL
 10
4001.325830023104
 20
9414.490862762944
 30
0.0
 41
100.0
 42
100.0
 43
100.0
 50
180.0
  0
INSERT
  5
15819
330
747D
100
AcDbEntity
  8
寸法
  6
ByBlock
 48
50.0
100
AcDbBlockReference
  2
_DOTSMALL
 10
5681.325830023105
 20
9414.490862762944
 30
0.0
 41
100.0
 42
100.0
 43
100.0
  0
MTEXT
  5
1581A
330
747D
100
AcDbEntity
  8
部品1
  6
ByBlock
 48
50.0
100
AcDbMText
 10
4189.246096529111
 20
9514.502673786566
 30
0.0
 40
120.0
 41
0.0
 71
     5
 72
     1
  1
\A1;1680
  7
STYLE1
 73
     1
 44
1.0
1001
ACAD
1000
MTEXTBEGIN
1070
    73
1070
     1
1070
    44
1040
1.0
1070
    74
1070
     0
1000
MTEXTEND
  0
POINT
  5
1581D
330
747D
100
AcDbEntity
  8
寸法
  6
ByBlock
 48
50.0
100
AcDbPoint
 10
5681.325830023105
 20
9414.490862762944
 30
0.0
  0
LINE
  5
1581E
330
747D
100
AcDbEntity
  8
寸法
  6
ByBlock
 48
50.0
100
AcDbLine
 10
5380.237968038025
 20
6844.876543462851
 30
0.0
 11
5736.32583002308
 21
6844.876543462851
 31
0.0
  0
LINE
  5
1581F
330
747D
100
AcDbEntity
  8
寸法
  6
ByBlock
 48
50.0
100
AcDbLine
 10
5230.268779881924
 20
9414.490862762944
 30
0.0
 11
5681.325830023105
 21
9414.490862762944
 31
0.0
  0
MTEXT
  5
1583A
330
747D
100
AcDbEntity
  8
部品1
  6
ByBlock
 48
50.0
100
AcDbMText
 10
5517.587633917472
 20
6944.876543462851
 30
0.0
 40
120.0
 41
0.0
 71
     5
 72
     1
  1
\A1;1790
  7
STYLE1
 73
     1
 44
1.0
1001
ACAD
1000
MTEXTBEGIN
1070
    73
1070
     1
1070
    44
1040
1.0
1070
    74
1070
     0
1000
MTEXTEND
  0
MTEXT
  5
1583B
330
747D
100
AcDbEntity
  8
部品1
  6
ByBlock
 48
50.0
100
AcDbMText
 10
5386.970310031496
 20
9514.502673786566
 30
0.0
 40
120.0
 41
0.0
 71
     5
 72
     1
  1
\A1;1680
  7
STYLE1
 73
     1
 44
1.0
1001
ACAD
1000
MTEXTBEGIN
1070
    73
1070
     1
1070
    44
1040
1.0
1070
    74
1070
     0
1000
MTEXTEND
  0
LINE
  5
15874
330
747D
100
AcDbEntity
  8
部品1
 48
50.0
100
AcDbLine
 10
6211.325830023106
 20
8951.01251281655
 30
0.0
 11
6211.325830023106
 21
8979.012512816479
 31
0.0
  0
LINE
  5
15875
330
747D
100
AcDbEntity
  8
部品1
 48
50.0
100
AcDbLine
 10
6631.325830023105
 20
8951.01251281655
 30
0.0
 11
6631.325830023105
 21
8979.012512816479
 31
0.0
  0
LINE
  5
15876
330
747D
100
AcDbEntity
  8
部品1
 48
50.0
100
AcDbLine
 10
4421.325830023105
 20
8951.01251281655
 30
0.0
 11
4421.325830023105
 21
8979.012512816479
 31
0.0
  0
LINE
  5
15877
330
747D
100
AcDbEntity
  8
部品1
 48
50.0
100
AcDbLine
 10
4841.325830023105
 20
8951.01251281655
 30
0.0
 11
4841.325830023105
 21
8979.012512816479
 31
0.0
  0
LINE
  5
16011
330
747D
100
AcDbEntity
  8
部品1
100
AcDbLine
 10
8841.325830023105
 20
8979.01251281657
 30
0.0
 11
8841.325830023105
 21
8951.01251281657
 31
0.0
  0
LINE
  5
16012
330
747D
100
AcDbEntity
  8
部品1
 48
50.0
100
AcDbLine
 10
7051.325830023106
 20
8951.01251281655
 30
0.0
 11
7051.325830023106
 21
8979.012512816479
 31
0.0
  0
LINE
  5
16013
330
747D
100
AcDbEntity
  8
部品1
 48
50.0
100
AcDbLine
 10
5261.325830023105
 20
8951.01251281655
 30
0.0
 11
5261.325830023105
 21
8979.012512816479
 31
0.0
  0
DIMENSION
  5
16014
330
747D
100
AcDbEntity
  8
寸法
100
AcDbDimension
  2
*D16
 10
9643.18355588513
 20
8403.794697147661
 30
0.0
 11
9543.183555885129
 21
8628.794697147663
 31
0.0
 70
    32
 71
     5
 42
449.9999999999982
  3
INABA_S40G
100
AcDbAlignedDimension
 13
9287.825830023107
 23
8949.012512816549
 33
0.0
 14
9287.825830023107
 24
8499.012512816552
 34
0.0
 50
90.0
100
AcDbRotatedDimension
1001
ACAD
1000
DSTYLE
1002
{
1002
}
  0
DIMENSION
  5
16015
330
747D
100
AcDbEntity
  8
寸法
100
AcDbDimension
  2
*D15
 10
9209.257056466688
 20
8205.789858015585
 30
0.0
 11
8814.172892141375
 21
8205.789858015585
 31
0.0
 70
   160
 71
     5
 42
853.0000000000109
  3
INABA_S40G
100
AcDbAlignedDimension
 13
8434.825830023106
 23
8499.012512816559
 33
0.0
 14
9287.825830023118
 24
8499.012512816554
 34
0.0
100
AcDbRotatedDimension
1001
ACAD
1000
DSTYLE
1002
{
1002
}
  0
LINE
  5
16016
330
747D
100
AcDbEntity
  8
部品1
 48
50.0
100
AcDbLine
 10
9259.825830023087
 20
8084.012512816553
 30
0.0
 11
7582.825830023089
 21
8084.01251281664
 31
0.0
  0
LINE
  5
16017
330
747D
100
AcDbEntity
  8
破線
 48
10.0
100
AcDbLine
 10
8446.325830023075
 20
7739.512512816495
 30
0.0
 11
8446.325830023077
 21
8499.012512816559
 31
0.0
  0
LINE
  5
16018
330
747D
100
AcDbEntity
  8
破線
 48
10.0
100
AcDbLine
 10
8396.325830023078
 20
7739.512512816495
 30
0.0
 11
8396.325830023078
 21
8499.012512816559
 31
0.0
  0
DIMENSION
  5
16019
330
747D
100
AcDbEntity
  8
寸法
100
AcDbDimension
  2
*D14
 10
8329.257056466687
 20
8205.78985801548
 30
0.0
 11
7934.172892141375
 21
8205.78985801548
 31
0.0
 70
   160
 71
     5
 42
853.0000000000109
  3
INABA_S40G
100
AcDbAlignedDimension
 13
7554.825830023107
 23
8499.012512816454
 33
0.0
 14
8407.825830023117
 24
8499.012512816447
 34
0.0
100
AcDbRotatedDimension
1001
ACAD
1000
DSTYLE
1002
{
1002
}
  0
LINE
  5
1601A
330
747D
100
AcDbEntity
  8
部品1
100
AcDbLine
 10
8434.825830023106
 20
8949.012512816556
 30
0.0
 11
9287.825830023107
 21
8949.012512816549
 31
0.0
  0
LINE
  5
1601B
330
747D
100
AcDbEntity
  8
部品1
100
AcDbLine
 10
9287.825830023107
 20
8949.012512816549
 30
0.0
 11
9287.825830023107
 21
8499.012512816552
 31
0.0
  0
LINE
  5
1601C
330
747D
100
AcDbEntity
  8
細線
 48
50.0
100
AcDbLine
 10
9287.825830023107
 20
8949.012512816549
 30
0.0
 11
8434.825830023106
 21
8499.012512816559
 31
0.0
  0
LINE
  5
1601D
330
747D
100
AcDbEntity
  8
細線
 48
50.0
100
AcDbLine
 10
9287.825830023107
 20
8499.012512816552
 30
0.0
 11
8434.825830023106
 21
8949.012512816553
 31
0.0
  0
LINE
  5
1601E
330
747D
100
AcDbEntity
  8
部品1
100
AcDbLine
 10
8434.825830023106
 20
8499.012512816559
 30
0.0
 11
9287.825830023107
 21
8499.012512816552
 31
0.0
  0
LINE
  5
1601F
330
747D
100
AcDbEntity
  8
細線
 48
50.0
100
AcDbLine
 10
8407.825830023105
 20
8499.012512816559
 30
0.0
 11
7554.825830023104
 21
8949.012512816455
 31
0.0
  0
LINE
  5
16020
330
747D
100
AcDbEntity
  8
細線
 48
50.0
100
AcDbLine
 10
8407.825830023107
 20
8949.012512816556
 30
0.0
 11
7554.825830023105
 21
8499.012512816454
 31
0.0
  0
LINE
  5
16021
330
747D
100
AcDbEntity
  8
部品1
100
AcDbLine
 10
7554.825830023107
 20
8499.012512816454
 30
0.0
 11
8407.825830023105
 21
8499.012512816559
 31
0.0
  0
LINE
  5
16022
330
747D
100
AcDbEntity
  8
部品1
 48
50.0
100
AcDbLine
 10
8408.825830023104
 20
8951.012512816564
 30
0.0
 11
8408.825830023106
 21
8499.012512816559
 31
0.0
  0
LINE
  5
16023
330
747D
100
AcDbEntity
  8
部品1
 48
50.0
100
AcDbLine
 10
8433.825830023106
 20
8951.012512816559
 30
0.0
 11
8433.825830023106
 21
8499.012512816559
 31
0.0
  0
LINE
  5
16024
330
747D
100
AcDbEntity
  8
部品1
 48
50.0
100
AcDbLine
 10
8407.825830023107
 20
8949.012512816556
 30
0.0
 11
8407.825830023107
 21
8499.012512816559
 31
0.0
  0
LINE
  5
16025
330
747D
100
AcDbEntity
  8
部品1
 48
50.0
100
AcDbLine
 10
8434.825830023106
 20
8949.012512816553
 30
0.0
 11
8434.825830023106
 21
8499.012512816559
 31
0.0
  0
LINE
  5
16026
330
747D
100
AcDbEntity
  8
部品1
100
AcDbLine
 10
8408.825830023106
 20
8499.012512816559
 30
0.0
 11
8433.825830023106
 21
8499.012512816559
 31
0.0
  0
LINE
  5
16027
330
747D
100
AcDbEntity
  8
破線
 48
10.0
100
AcDbLine
 10
7606.325830023081
 20
8499.012512816554
 30
0.0
 11
7606.325830023094
 21
7763.012512816445
 31
0.0
  0
LINE
  5
16028
330
747D
100
AcDbEntity
  8
部品1
100
AcDbLine
 10
7582.825830023082
 20
8499.012512816552
 30
0.0
 11
7582.825830023096
 21
7739.512512816542
 31
0.0
  0
LINE
  5
16029
330
747D
100
AcDbEntity
  8
部品1
100
AcDbLine
 10
7554.825830023104
 20
8949.012512816455
 30
0.0
 11
8407.825830023107
 21
8949.01251281656
 31
0.0
  0
LINE
  5
1602A
330
747D
100
AcDbEntity
  8
部品1
100
AcDbLine
 10
8408.825830023106
 20
8943.012512816553
 30
0.0
 11
8433.825830023106
 21
8943.012512816556
 31
0.0
  0
LINE
  5
1602B
330
747D
100
AcDbEntity
  8
部品1
100
AcDbLine
 10
8386.325830023107
 20
8969.012512816556
 30
0.0
 11
8386.325830023107
 21
8951.012512816557
 31
0.0
  0
LINE
  5
1602C
330
747D
100
AcDbEntity
  8
部品1
100
AcDbLine
 10
8386.325830023107
 20
8969.012512816556
 30
0.0
 11
8392.325830023107
 21
8969.012512816556
 31
0.0
  0
LINE
  5
1602D
330
747D
100
AcDbEntity
  8
部品1
100
AcDbLine
 10
8456.325830023107
 20
8969.012512816556
 30
0.0
 11
8456.325830023107
 21
8951.012512816557
 31
0.0
  0
LINE
  5
1602E
330
747D
100
AcDbEntity
  8
部品1
100
AcDbLine
 10
8450.325830023107
 20
8969.012512816556
 30
0.0
 11
8456.325830023107
 21
8969.012512816556
 31
0.0
  0
LINE
  5
1602F
330
747D
100
AcDbEntity
  8
部品1
 48
50.0
100
AcDbLine
 10
7554.825830023104
 20
8949.01251281645
 30
0.0
 11
7554.825830023105
 21
8499.012512816451
 31
0.0
  0
LINE
  5
16030
330
747D
100
AcDbEntity
  8
部品1
100
AcDbLine
 10
9259.825830023086
 20
7739.512512816542
 30
0.0
 11
7582.825830023001
 21
7739.512512816448
 31
0.0
  0
LINE
  5
16031
330
747D
100
AcDbEntity
  8
部品1
100
AcDbLine
 10
9288.325830023083
 20
7711.012512816544
 30
0.0
 11
7554.32583002308
 21
7711.012512816444
 31
0.0
  0
LINE
  5
16032
330
747D
100
AcDbEntity
  8
破線
 48
10.0
100
AcDbLine
 10
8396.325830023078
 20
7763.012512816493
 30
0.0
 11
7606.325830023092
 21
7763.012512816445
 31
0.0
  0
LINE
  5
16033
330
747D
100
AcDbEntity
  8
部品1
 48
50.0
100
AcDbLine
 10
7582.825830023096
 20
7739.512512816542
 30
0.0
 11
7554.325830023097
 21
7711.012512816544
 31
0.0
  0
LINE
  5
16049
330
747D
100
AcDbEntity
  8
破線
 48
10.0
100
AcDbLine
 10
9236.325830023085
 20
7763.012512816541
 30
0.0
 11
8446.325830023077
 21
7763.012512816496
 31
0.0
  0
LINE
  5
1605D
330
747D
100
AcDbEntity
  8
破線
 48
10.0
100
AcDbLine
 10
9236.325830023099
 20
8499.012512816554
 30
0.0
 11
9236.325830023087
 21
7763.012512816541
 31
0.0
  0
LINE
  5
1605E
330
747D
100
AcDbEntity
  8
部品1
100
AcDbLine
 10
9259.825830023098
 20
8499.012512816552
 30
0.0
 11
9259.825830023082
 21
7739.512512816543
 31
0.0
  0
LINE
  5
1605F
330
747D
100
AcDbEntity
  8
部品1
 48
50.0
100
AcDbLine
 10
9259.825830023086
 20
7739.512512816542
 30
0.0
 11
9288.325830023083
 21
7711.012512816544
 31
0.0
  0
LINE
  5
1609E
330
747D
100
AcDbEntity
  8
部品1
 48
50.0
100
AcDbLine
 10
7469.825830023106
 20
8084.012512816389
 30
0.0
 11
5792.825830023107
 21
8084.012512816476
 31
0.0
  0
LINE
  5
1609F
330
747D
100
AcDbEntity
  8
破線
 48
10.0
100
AcDbLine
 10
6656.325830023092
 20
7739.512512816332
 30
0.0
 11
6656.325830023094
 21
8499.012512816396
 31
0.0
  0
LINE
  5
160A0
330
747D
100
AcDbEntity
  8
破線
 48
10.0
100
AcDbLine
 10
6606.325830023095
 20
7739.512512816332
 30
0.0
 11
6606.325830023094
 21
8499.012512816396
 31
0.0
  0
LINE
  5
160A2
330
747D
100
AcDbEntity
  8
部品1
100
AcDbLine
 10
6644.825830023123
 20
8949.012512816393
 30
0.0
 11
7497.825830023123
 21
8949.012512816386
 31
0.0
  0
LINE
  5
160A3
330
747D
100
AcDbEntity
  8
部品1
100
AcDbLine
 10
7497.825830023123
 20
8949.012512816386
 30
0.0
 11
7497.825830023123
 21
8499.012512816387
 31
0.0
  0
LINE
  5
160A4
330
747D
100
AcDbEntity
  8
細線
 48
50.0
100
AcDbLine
 10
7497.825830023123
 20
8949.012512816386
 30
0.0
 11
6644.825830023122
 21
8499.012512816396
 31
0.0
  0
LINE
  5
160A5
330
747D
100
AcDbEntity
  8
細線
 48
50.0
100
AcDbLine
 10
7497.825830023123
 20
8499.012512816387
 30
0.0
 11
6644.825830023123
 21
8949.012512816389
 31
0.0
  0
LINE
  5
160A6
330
747D
100
AcDbEntity
  8
部品1
100
AcDbLine
 10
6644.825830023122
 20
8499.012512816396
 30
0.0
 11
7497.825830023123
 21
8499.012512816387
 31
0.0
  0
LINE
  5
160A7
330
747D
100
AcDbEntity
  8
細線
 48
50.0
100
AcDbLine
 10
6617.825830023122
 20
8499.012512816396
 30
0.0
 11
5764.825830023122
 21
8949.012512816292
 31
0.0
  0
LINE
  5
160A8
330
747D
100
AcDbEntity
  8
細線
 48
50.0
100
AcDbLine
 10
6617.825830023123
 20
8949.012512816393
 30
0.0
 11
5764.825830023123
 21
8499.012512816289
 31
0.0
  0
LINE
  5
160A9
330
747D
100
AcDbEntity
  8
部品1
100
AcDbLine
 10
5764.825830023124
 20
8499.012512816289
 30
0.0
 11
6617.825830023122
 21
8499.012512816396
 31
0.0
  0
LINE
  5
160AA
330
747D
100
AcDbEntity
  8
部品1
 48
50.0
100
AcDbLine
 10
6618.825830023123
 20
8951.012512816401
 30
0.0
 11
6618.825830023123
 21
8499.012512816396
 31
0.0
  0
LINE
  5
160AB
330
747D
100
AcDbEntity
  8
部品1
 48
50.0
100
AcDbLine
 10
6643.825830023122
 20
8951.012512816395
 30
0.0
 11
6643.825830023122
 21
8499.012512816396
 31
0.0
  0
LINE
  5
160AC
330
747D
100
AcDbEntity
  8
部品1
 48
50.0
100
AcDbLine
 10
6617.825830023123
 20
8949.012512816393
 30
0.0
 11
6617.825830023123
 21
8499.012512816396
 31
0.0
  0
LINE
  5
160AD
330
747D
100
AcDbEntity
  8
部品1
 48
50.0
100
AcDbLine
 10
6644.825830023123
 20
8949.012512816389
 30
0.0
 11
6644.825830023123
 21
8499.012512816396
 31
0.0
  0
LINE
  5
160AE
330
747D
100
AcDbEntity
  8
部品1
100
AcDbLine
 10
6618.825830023123
 20
8499.012512816396
 30
0.0
 11
6643.825830023122
 21
8499.012512816396
 31
0.0
  0
LINE
  5
160AF
330
747D
100
AcDbEntity
  8
破線
 48
10.0
100
AcDbLine
 10
5816.325830023099
 20
8499.01251281639
 30
0.0
 11
5816.325830023111
 21
7763.012512816281
 31
0.0
  0
LINE
  5
160B0
330
747D
100
AcDbEntity
  8
部品1
100
AcDbLine
 10
5792.8258300231
 20
8499.012512816387
 30
0.0
 11
5792.825830023113
 21
7739.512512816379
 31
0.0
  0
LINE
  5
160B1
330
747D
100
AcDbEntity
  8
部品1
100
AcDbLine
 10
5764.825830023122
 20
8949.012512816292
 30
0.0
 11
6617.825830023123
 21
8949.012512816397
 31
0.0
  0
LINE
  5
160B2
330
747D
100
AcDbEntity
  8
部品1
100
AcDbLine
 10
6618.825830023123
 20
8943.012512816389
 30
0.0
 11
6643.825830023122
 21
8943.012512816393
 31
0.0
  0
LINE
  5
160B3
330
747D
100
AcDbEntity
  8
部品1
100
AcDbLine
 10
6596.325830023123
 20
8969.012512816393
 30
0.0
 11
6596.325830023123
 21
8951.012512816394
 31
0.0
  0
LINE
  5
160B4
330
747D
100
AcDbEntity
  8
部品1
100
AcDbLine
 10
6596.325830023123
 20
8969.012512816393
 30
0.0
 11
6602.325830023123
 21
8969.012512816393
 31
0.0
  0
LINE
  5
160B5
330
747D
100
AcDbEntity
  8
部品1
100
AcDbLine
 10
6666.325830023123
 20
8969.012512816393
 30
0.0
 11
6666.325830023123
 21
8951.012512816394
 31
0.0
  0
LINE
  5
160B6
330
747D
100
AcDbEntity
  8
部品1
100
AcDbLine
 10
6660.325830023123
 20
8969.012512816393
 30
0.0
 11
6666.325830023123
 21
8969.012512816393
 31
0.0
  0
LINE
  5
160B7
330
747D
100
AcDbEntity
  8
部品1
 48
50.0
100
AcDbLine
 10
5764.825830023122
 20
8949.012512816286
 30
0.0
 11
5764.825830023123
 21
8499.012512816287
 31
0.0
  0
LINE
  5
160B8
330
747D
100
AcDbEntity
  8
部品1
100
AcDbLine
 10
7469.825830023101
 20
7739.512512816379
 30
0.0
 11
5792.825830023017
 21
7739.512512816283
 31
0.0
  0
LINE
  5
160B9
330
747D
100
AcDbEntity
  8
部品1
100
AcDbLine
 10
7498.3258300231
 20
7711.01251281638
 30
0.0
 11
5764.325830023097
 21
7711.012512816281
 31
0.0
  0
LINE
  5
160BA
330
747D
100
AcDbEntity
  8
破線
 48
10.0
100
AcDbLine
 10
6606.325830023095
 20
7763.012512816328
 30
0.0
 11
5816.32583002311
 21
7763.012512816281
 31
0.0
  0
LINE
  5
160BB
330
747D
100
AcDbEntity
  8
部品1
 48
50.0
100
AcDbLine
 10
5792.825830023113
 20
7739.512512816379
 30
0.0
 11
5764.325830023114
 21
7711.01251281638
 31
0.0
  0
LINE
  5
160D1
330
747D
100
AcDbEntity
  8
破線
 48
10.0
100
AcDbLine
 10
7446.325830023102
 20
7763.012512816378
 30
0.0
 11
6656.325830023094
 21
7763.012512816333
 31
0.0
  0
LINE
  5
160E5
330
747D
100
AcDbEntity
  8
破線
 48
10.0
100
AcDbLine
 10
7446.325830023116
 20
8499.01251281639
 30
0.0
 11
7446.325830023103
 21
7763.012512816378
 31
0.0
  0
LINE
  5
160E6
330
747D
100
AcDbEntity
  8
部品1
100
AcDbLine
 10
7469.825830023115
 20
8499.012512816387
 30
0.0
 11
7469.825830023101
 21
7739.512512816379
 31
0.0
  0
LINE
  5
160E7
330
747D
100
AcDbEntity
  8
部品1
 48
50.0
100
AcDbLine
 10
7469.825830023101
 20
7739.512512816379
 30
0.0
 11
7498.3258300231
 21
7711.01251281638
 31
0.0
  0
LINE
  5
16125
330
747D
100
AcDbEntity
  8
部品1
100
AcDbLine
 10
8433.825830023105
 20
8951.012512816562
 30
0.0
 11
9288.325830023106
 21
8951.012512816566
 31
0.0
  0
LINE
  5
16126
330
747D
100
AcDbEntity
  8
部品1
100
AcDbLine
 10
6643.825830023122
 20
8951.012512816443
 30
0.0
 11
7471.325830023104
 21
8951.012512816452
 31
0.0
  0
LINE
  5
1616F
330
747D
100
AcDbEntity
  8
部品1
100
AcDbLine
 10
4854.825830023105
 20
8949.012512816366
 30
0.0
 11
5707.825830023105
 21
8949.012512816359
 31
0.0
  0
LINE
  5
16170
330
747D
100
AcDbEntity
  8
細線
 48
50.0
100
AcDbLine
 10
5707.825830023105
 20
8949.012512816359
 30
0.0
 11
4854.825830023104
 21
8499.012512816371
 31
0.0
  0
LINE
  5
16172
330
747D
100
AcDbEntity
  8
部品1
100
AcDbLine
 10
5707.825830023105
 20
8949.012512816359
 30
0.0
 11
5707.825830023105
 21
8499.012512816364
 31
0.0
  0
LINE
  5
16173
330
747D
100
AcDbEntity
  8
細線
 48
50.0
100
AcDbLine
 10
5707.825830023105
 20
8499.012512816364
 30
0.0
 11
4854.825830023105
 21
8949.012512816365
 31
0.0
  0
LINE
  5
16174
330
747D
100
AcDbEntity
  8
部品1
100
AcDbLine
 10
4854.825830023104
 20
8499.012512816371
 30
0.0
 11
5707.825830023105
 21
8499.012512816364
 31
0.0
  0
LINE
  5
16175
330
747D
100
AcDbEntity
  8
部品1
100
AcDbLine
 10
4876.325830023104
 20
8969.012512816368
 30
0.0
 11
4876.325830023104
 21
8951.012512816367
 31
0.0
  0
LINE
  5
16176
330
747D
100
AcDbEntity
  8
部品1
100
AcDbLine
 10
4870.325830023105
 20
8969.012512816368
 30
0.0
 11
4876.325830023104
 21
8969.012512816368
 31
0.0
  0
LINE
  5
16177
330
747D
100
AcDbEntity
  8
部品1
100
AcDbLine
 10
4806.325830023105
 20
8969.012512816368
 30
0.0
 11
4806.325830023105
 21
8951.012512816367
 31
0.0
  0
LINE
  5
16178
330
747D
100
AcDbEntity
  8
部品1
100
AcDbLine
 10
4806.325830023105
 20
8969.012512816368
 30
0.0
 11
4812.325830023104
 21
8969.012512816368
 31
0.0
  0
LINE
  5
16179
330
747D
100
AcDbEntity
  8
部品1
100
AcDbLine
 10
4828.825830023105
 20
8943.012512816364
 30
0.0
 11
4853.825830023104
 21
8943.012512816368
 31
0.0
  0
LINE
  5
1617A
330
747D
100
AcDbEntity
  8
部品1
 48
50.0
100
AcDbLine
 10
4854.825830023105
 20
8949.012512816365
 30
0.0
 11
4854.825830023105
 21
8499.012512816371
 31
0.0
  0
LINE
  5
1617B
330
747D
100
AcDbEntity
  8
部品1
 48
50.0
100
AcDbLine
 10
4828.825830023103
 20
8951.012512816374
 30
0.0
 11
4828.825830023105
 21
8499.012512816371
 31
0.0
  0
LINE
  5
1617C
330
747D
100
AcDbEntity
  8
部品1
 48
50.0
100
AcDbLine
 10
4853.825830023104
 20
8951.012512816371
 30
0.0
 11
4853.825830023104
 21
8499.012512816371
 31
0.0
  0
LINE
  5
1617D
330
747D
100
AcDbEntity
  8
部品1
 48
50.0
100
AcDbLine
 10
4827.825830023105
 20
8949.012512816366
 30
0.0
 11
4827.825830023105
 21
8499.012512816371
 31
0.0
  0
LINE
  5
1617E
330
747D
100
AcDbEntity
  8
細線
 48
50.0
100
AcDbLine
 10
4827.825830023105
 20
8949.012512816366
 30
0.0
 11
4632.364124627255
 21
8845.896724506694
 31
0.0
  0
LINE
  5
1617F
330
747D
100
AcDbEntity
  8
部品1
100
AcDbLine
 10
3974.825830023103
 20
8949.012512816265
 30
0.0
 11
4583.71923065467
 21
8949.01251281634
 31
0.0
  0
LINE
  5
16180
330
747D
100
AcDbEntity
  8
細線
 48
50.0
100
AcDbLine
 10
4827.825830023104
 20
8499.012512816371
 30
0.0
 11
4679.755478530508
 21
8577.127000708108
 31
0.0
  0
LINE
  5
16181
330
747D
100
AcDbEntity
  8
部品1
 48
50.0
100
AcDbLine
 10
3974.825830023103
 20
8949.012512816262
 30
0.0
 11
3974.825830023105
 21
8499.012512816262
 31
0.0
  0
LINE
  5
16182
330
747D
100
AcDbEntity
  8
部品1
100
AcDbLine
 10
3974.825830023106
 20
8499.012512816266
 30
0.0
 11
4663.066371973478
 21
8499.012512816351
 31
0.0
  0
LINE
  5
16183
330
747D
100
AcDbEntity
  8
部品1
100
AcDbLine
 10
4828.825830023105
 20
8499.012512816371
 30
0.0
 11
4853.825830023104
 21
8499.012512816371
 31
0.0
  0
LINE
  5
16184
330
747D
100
AcDbEntity
  8
部品1
 48
50.0
100
AcDbLine
 10
5679.825830023088
 20
8084.012512816363
 30
0.0
 11
4766.704867324054
 21
8084.012512816412
 31
0.0
  0
LINE
  5
16185
330
747D
100
AcDbEntity
  8
破線
 48
10.0
100
AcDbLine
 10
4866.325830023074
 20
7739.512512816306
 30
0.0
 11
4866.325830023075
 21
8424.377090039968
 31
0.0
  0
LINE
  5
16186
330
747D
100
AcDbEntity
  8
破線
 48
10.0
100
AcDbLine
 10
4816.325830023077
 20
7802.598049189504
 30
0.0
 11
4816.325830023076
 21
8401.061707132219
 31
0.0
  0
LINE
  5
16187
330
747D
100
AcDbEntity
  8
破線
 48
10.0
100
AcDbLine
 10
4026.32583002308
 20
8499.012512816364
 30
0.0
 11
4026.325830023092
 21
7763.012512816257
 31
0.0
  0
LINE
  5
16188
330
747D
100
AcDbEntity
  8
部品1
100
AcDbLine
 10
4002.825830023081
 20
8499.012512816364
 30
0.0
 11
4002.825830023094
 21
7739.512512816354
 31
0.0
  0
LINE
  5
16189
330
747D
100
AcDbEntity
  8
部品1
100
AcDbLine
 10
5679.825830023084
 20
7739.512512816354
 30
0.0
 11
4827.449512178138
 21
7739.512512816304
 31
0.0
  0
LINE
  5
1618A
330
747D
100
AcDbEntity
  8
破線
 48
10.0
100
AcDbLine
 10
4792.843029774917
 20
7763.012512816302
 30
0.0
 11
4026.325830023091
 21
7763.012512816257
 31
0.0
  0
LINE
  5
1618B
330
747D
100
AcDbEntity
  8
部品1
 48
50.0
100
AcDbLine
 10
4002.825830023094
 20
7739.512512816354
 30
0.0
 11
3974.325830023096
 21
7711.012512816356
 31
0.0
  0
LINE
  5
1618C
330
747D
100
AcDbEntity
  8
破線
 48
10.0
100
AcDbLine
 10
5656.325830023083
 20
7763.012512816354
 30
0.0
 11
4866.325830023076
 21
7763.012512816309
 31
0.0
  0
LINE
  5
1618D
330
747D
100
AcDbEntity
  8
部品1
100
AcDbLine
 10
5708.325830023081
 20
7711.012512816356
 30
0.0
 11
4832.47483112833
 21
7711.012512816305
 31
0.0
  0
LINE
  5
1618E
330
747D
100
AcDbEntity
  8
破線
 48
10.0
100
AcDbLine
 10
5656.325830023098
 20
8499.012512816364
 30
0.0
 11
5656.325830023085
 21
7763.012512816354
 31
0.0
  0
LINE
  5
1618F
330
747D
100
AcDbEntity
  8
部品1
100
AcDbLine
 10
5679.825830023096
 20
8499.012512816364
 30
0.0
 11
5679.825830023082
 21
7739.512512816355
 31
0.0
  0
LINE
  5
16190
330
747D
100
AcDbEntity
  8
部品1
 48
50.0
100
AcDbLine
 10
5679.825830023084
 20
7739.512512816354
 30
0.0
 11
5708.325830023081
 21
7711.012512816356
 31
0.0
  0
LINE
  5
161C8
330
747D
100
AcDbEntity
  8
部品1
100
AcDbLine
 10
4802.012032771756
 20
7711.012512816303
 30
0.0
 11
3974.325830023079
 21
7711.012512816255
 31
0.0
  0
LINE
  5
161C9
330
747D
100
AcDbEntity
  8
部品1
100
AcDbLine
 10
4796.986713821564
 20
7739.512512816301
 30
0.0
 11
4002.825830022999
 21
7739.512512816259
 31
0.0
  0
LINE
  5
161CA
330
747D
100
AcDbEntity
  8
部品1
 48
50.0
100
AcDbLine
 10
4736.24206896748
 20
8084.012512816411
 30
0.0
 11
4002.825830023089
 21
8084.012512816451
 31
0.0
  0
LINE
  5
161CB
330
747D
100
AcDbEntity
  8
部品1
100
AcDbLine
 10
4732.737634487643
 20
8499.01251281636
 30
0.0
 11
4827.825830023104
 21
8499.012512816371
 31
0.0
  0
LINE
  5
161CC
330
747D
100
AcDbEntity
  8
破線
 48
10.0
100
AcDbLine
 10
4816.325830023076
 20
8434.163044701094
 30
0.0
 11
4816.325830023076
 21
8461.584898176118
 31
0.0
  0
LINE
  5
161CD
330
747D
100
AcDbEntity
  8
破線
 48
10.0
100
AcDbLine
 10
4866.325830023075
 20
8487.325060126121
 30
0.0
 11
4866.325830023076
 21
8499.012512816371
 31
0.0
  0
LINE
  5
161CE
330
747D
100
AcDbEntity
  8
破線
 48
10.0
100
AcDbLine
 10
4816.325830023076
 20
8491.699493302419
 30
0.0
 11
4816.325830023076
 21
8499.012512816371
 31
0.0
  0
LINE
  5
161CF
330
747D
100
AcDbEntity
  8
細線
 48
50.0
100
AcDbLine
 10
4646.168364223906
 20
8594.845876954259
 30
0.0
 11
3974.825830023103
 21
8949.012512816265
 31
0.0
  0
LINE
  5
161D0
330
747D
100
AcDbEntity
  8
細線
 48
50.0
100
AcDbLine
 10
4604.493854159756
 20
8831.193768222545
 30
0.0
 11
3974.825830023105
 21
8499.012512816266
 31
0.0
  0
LINE
  5
161D1
330
747D
100
AcDbEntity
  8
部品1
100
AcDbLine
 10
4614.182029011242
 20
8949.012512816345
 30
0.0
 11
4827.825830023105
 21
8949.012512816372
 31
0.0
  0
LINE
  5
161D3
330
747D
100
AcDbEntity
  8
部品1
100
AcDbLine
 10
5013.630730841613
 20
3121.418029843937
 30
0.0
 11
9316.325830023107
 21
3121.418029843952
 31
0.0
  0
LINE
  5
162F9
330
747D
100
AcDbEntity
  8
部品1
100
AcDbLine
 10
7526.325830023107
 20
3121.418029843946
 30
0.0
 11
7526.325830023107
 21
3079.418029843932
 31
0.0
  0
LINE
  5
162FA
330
747D
100
AcDbEntity
  8
部品1
100
AcDbLine
 10
5736.325830023107
 20
3121.418029843946
 30
0.0
 11
5736.325830023107
 21
3079.418029843932
 31
0.0
  0
TEXT
  5
16358
330
747D
100
AcDbEntity
  8
文字
 62
     7
 48
50.0
100
AcDbText
 10
14524.131837222
 20
1031.557706291228
 30
0.0
 40
100.0
  1
NO.08     <縮尺> S=1/40
  7
STYLE2
100
AcDbText
  0
TEXT
  5
16359
330
747D
100
AcDbEntity
  8
文字
 62
     7
 48
50.0
100
AcDbText
 10
14675.04888958281
 20
874.5644127973662
 30
0.0
 40
100.0
  1
～一般型・多雪地型～
  7
STYLE2
100
AcDbText
  0
TEXT
  5
1635A
330
747D
100
AcDbEntity
  8
文字
 62
     7
 48
50.0
100
AcDbText
 10
13209.4053442172
 20
76.09434707649348
 30
0.0
 40
100.0
  1
○床面積 ： N(連続数)×2.45㎡(0.74坪) 　
  7
STYLE2
100
AcDbText
  0
TEXT
  5
1635B
330
747D
100
AcDbEntity
  8
文字
 62
     7
 48
50.0
100
AcDbText
 10
13209.4053442172
 20
228.5435242569015
 30
0.0
 40
100.0
  1
○有効開口寸法 ： 998×1770(mm)
  7
STYLE2
100
AcDbText
  0
LINE
  5
163B0
330
747D
100
AcDbEntity
  8
部品1
 48
50.0
100
AcDbLine
 10
5736.325830023062
 20
8504.012512816455
 30
0.0
 11
5764.325830023046
 21
8504.012512816457
 31
0.0
  0
LINE
  5
163B1
330
747D
100
AcDbEntity
  8
部品1
 48
50.0
100
AcDbLine
 10
5736.325830023062
 20
8542.012512816453
 30
0.0
 11
5764.325830023046
 21
8542.012512816457
 31
0.0
  0
LINE
  5
163CC
330
747D
100
AcDbEntity
  8
部品1
 48
50.0
100
AcDbLine
 10
7526.325830023061
 20
8542.01251281642
 30
0.0
 11
7554.325830023045
 21
8542.012512816421
 31
0.0
  0
LINE
  5
163CD
330
747D
100
AcDbEntity
  8
部品1
 48
50.0
100
AcDbLine
 10
7526.325830023044
 20
8504.012512816455
 30
0.0
 11
7554.325830023028
 21
8504.012512816457
 31
0.0
  0
LINE
  5
163E0
330
747D
100
AcDbEntity
  8
部品1
100
AcDbLine
 10
6249.590496908886
 20
6609.552255742413
 30
0.0
 11
6249.590496908886
 21
6369.659934196881
 31
0.0
  0
LINE
  5
163E1
330
747D
100
AcDbEntity
  8
部品1
100
AcDbLine
 10
6249.590496908886
 20
6369.659934196881
 30
0.0
 11
7013.061163137324
 21
6369.659934196881
 31
0.0
  0
LINE
  5
163E2
330
747D
100
AcDbEntity
  8
部品1
100
AcDbLine
 10
7013.061163137324
 20
6369.659934196881
 30
0.0
 11
7013.061163137324
 21
6609.552255742413
 31
0.0
  0
LINE
  5
163E3
330
747D
100
AcDbEntity
  8
部品1
100
AcDbLine
 10
7013.061163137324
 20
6609.552255742413
 30
0.0
 11
6249.590496908886
 21
6609.552255742413
 31
0.0
  0
LINE
  5
163E4
330
747D
100
AcDbEntity
  8
部品1
100
AcDbLine
 10
6249.590496908886
 20
2436.187853765121
 30
0.0
 11
6249.590496908886
 21
2196.295532219588
 31
0.0
  0
LINE
  5
163E5
330
747D
100
AcDbEntity
  8
部品1
100
AcDbLine
 10
6249.590496908886
 20
2196.295532219588
 30
0.0
 11
7013.061163137322
 21
2196.295532219588
 31
0.0
  0
LINE
  5
163E6
330
747D
100
AcDbEntity
  8
部品1
100
AcDbLine
 10
7013.061163137322
 20
2196.295532219588
 30
0.0
 11
7013.061163137322
 21
2436.187853765121
 31
0.0
  0
LINE
  5
163E7
330
747D
100
AcDbEntity
  8
部品1
100
AcDbLine
 10
7013.061163137322
 20
2436.187853765121
 30
0.0
 11
6249.590496908886
 21
2436.187853765121
 31
0.0
  0
LINE
  5
163E8
330
747D
100
AcDbEntity
  8
部品1
100
AcDbLine
 10
11565.38787871637
 20
2436.187853765121
 30
0.0
 11
11565.38787871637
 21
2196.295532219588
 31
0.0
  0
LINE
  5
163E9
330
747D
100
AcDbEntity
  8
部品1
100
AcDbLine
 10
11565.38787871637
 20
2196.295532219588
 30
0.0
 11
12328.85854494481
 21
2196.295532219588
 31
0.0
  0
LINE
  5
163EA
330
747D
100
AcDbEntity
  8
部品1
100
AcDbLine
 10
12328.85854494481
 20
2196.295532219588
 30
0.0
 11
12328.85854494481
 21
2436.187853765121
 31
0.0
  0
LINE
  5
163EB
330
747D
100
AcDbEntity
  8
部品1
100
AcDbLine
 10
12328.85854494481
 20
2436.187853765121
 30
0.0
 11
11565.38787871637
 21
2436.187853765121
 31
0.0
  0
LINE
  5
16410
330
747D
100
AcDbEntity
  8
補助
  6
PHANTOM
 62
   230
 48
50.0
100
AcDbLine
 10
140.0
 20
0.0
 30
0.0
 11
140.0
 21
11409.6
 31
0.0
  0
TEXT
  5
169C7
330
747D
100
AcDbEntity
  8
文字
 62
     7
 48
50.0
100
AcDbText
 10
13583.11819016569
 20
9740.013745883729
 30
0.0
 40
100.0
  1
梁中
 41
0.9
  7
STYLE1
100
AcDbText
  0
TEXT
  5
169C8
330
747D
100
AcDbEntity
  8
文字
 62
     7
 48
50.0
100
AcDbText
 10
15022.63965474516
 20
9740.013745883729
 30
0.0
 40
100.0
  1
F12,Y10       0.7+1.0
  7
STYLE1
100
AcDbText
  0
TEXT
  5
169C9
330
747D
100
AcDbEntity
  8
文字
 62
     7
 48
50.0
100
AcDbText
 10
13248.77747366448
 20
8720.013745883729
 30
0.0
 40
100.0
  1
15
  7
STYLE1
100
AcDbText
  0
LINE
  5
169CA
330
747D
100
AcDbEntity
  8
仕様書枠
 48
50.0
100
AcDbLine
 10
16307.19999999999
 20
10049.6
 30
0.0
 11
13127.2
 21
10049.6
 31
0.0
  0
LINE
  5
16C54
330
747D
100
AcDbEntity
  8
部品1
100
AcDbLine
 10
11252.12321183059
 20
4919.418029843932
 30
0.0
 11
12622.12321183059
 21
4919.418029843932
 31
0.0
  0
LINE
  5
16C55
330
747D
100
AcDbEntity
  8
部品1
100
AcDbLine
 10
11252.12321183059
 20
3129.418029843932
 30
0.0
 11
12622.12321183059
 21
3129.418029843932
 31
0.0
  0
LINE
  5
16C56
330
747D
100
AcDbEntity
  8
部品1
100
AcDbLine
 10
11307.12321183059
 20
4919.418029843932
 30
0.0
 11
11307.12321183059
 21
3129.418029843932
 31
0.0
  0
LINE
  5
16C57
330
747D
100
AcDbEntity
  8
部品1
100
AcDbLine
 10
11252.12321183059
 20
5010.994923784374
 30
0.0
 11
11252.12321183059
 21
2979.418029843932
 31
0.0
  0
DIMENSION
  5
16C58
330
747D
100
AcDbEntity
  8
寸法
100
AcDbDimension
  2
*D17
 10
10707.21457043333
 20
3141.418029843932
 30
0.0
 11
10607.21457043333
 21
4026.418029843934
 31
0.0
 70
    32
  1
有効開口部高サ<>
 71
     5
 42
1770.0
  3
INABA_S40G
100
AcDbAlignedDimension
 13
11252.12321183059
 23
4911.418029843932
 33
0.0
 14
11252.12321183059
 24
3141.418029843932
 34
0.0
 50
90.0
100
AcDbRotatedDimension
1001
ACAD
1000
DSTYLE
1002
{
1070
   174
1070
     0
1070
   272
1070
     1
1070
   288
1070
     0
1070
   341
1005
0
1002
}
  0
DIMENSION
  5
16C59
330
747D
100
AcDbEntity
  8
寸法
100
AcDbDimension
  2
*D18
 10
10408.37308264733
 20
3129.418029843932
 30
0.0
 11
10308.37308264733
 21
4024.418029843934
 31
0.0
 70
    32
 71
     5
 42
1790.0
  3
INABA_S40G
100
AcDbAlignedDimension
 13
11252.12321183059
 23
4919.418029843932
 33
0.0
 14
11252.12321183059
 24
3129.418029843932
 34
0.0
 50
90.0
100
AcDbRotatedDimension
1001
ACAD
1000
DSTYLE
1002
{
1070
   174
1070
     0
1070
   272
1070
     1
1070
   288
1070
     0
1070
   341
1005
0
1002
}
  0
DIMENSION
  5
16C5A
330
747D
100
AcDbEntity
  8
寸法
100
AcDbDimension
  2
*D19
 10
10108.37308264733
 20
5154.418029843937
 30
0.0
 11
10008.3612716237
 21
4116.918029843935
 31
0.0
 70
    32
 71
     5
 42
2075.000000000005
  3
INABA_S40G
100
AcDbAlignedDimension
 13
11252.12321183059
 23
3079.418029843932
 33
0.0
 14
11192.12321183059
 24
5154.418029843935
 34
0.0
 50
90.0
100
AcDbRotatedDimension
1001
ACAD
1000
DSTYLE
1002
{
1070
   174
1070
     0
1070
   272
1070
     1
1070
   288
1070
     0
1070
   341
1005
0
1002
}
  0
DIMENSION
  5
16C5B
330
747D
100
AcDbEntity
  8
寸法
100
AcDbDimension
  2
*D20
 10
10408.37308264733
 20
3079.418029843932
 30
0.0
 11
10408.37308264733
 21
2773.370785749442
 31
0.0
 70
   160
 71
     5
 42
50.0
  3
INABA_S40G
100
AcDbAlignedDimension
 13
11252.12321183059
 23
3129.418029843932
 33
0.0
 14
11197.12321183059
 24
3079.418029843932
 34
0.0
 50
90.0
100
AcDbRotatedDimension
1001
ACAD
1000
DSTYLE
1002
{
1070
   174
1070
     0
1070
   272
1070
     1
1070
   288
1070
     0
1070
   341
1005
0
1002
}
  0
LINE
  5
16C5C
330
747D
100
AcDbEntity
  8
部品1
100
AcDbLine
 10
11727.12321183059
 20
4919.418029843932
 30
0.0
 11
11727.12321183059
 21
3129.418029843932
 31
0.0
  0
LINE
  5
16C5D
330
747D
100
AcDbEntity
  8
部品1
100
AcDbLine
 10
12622.12321183059
 20
4974.054610679185
 30
0.0
 11
12622.12321183059
 21
2979.418029843932
 31
0.0
  0
LINE
  5
16C5E
330
747D
100
AcDbEntity
  8
部品1
100
AcDbLine
 10
12567.12321183059
 20
4919.418029843932
 30
0.0
 11
12567.12321183059
 21
3129.418029843932
 31
0.0
  0
DIMENSION
  5
16C5F
330
747D
100
AcDbEntity
  8
寸法
100
AcDbDimension
  2
*D21
 10
13184.03688306969
 20
5099.418029843932
 30
0.0
 11
13184.03688306969
 21
4083.109721176323
 31
0.0
 70
   160
 71
     5
 42
2020.000000000001
  3
INABA_S40G
100
AcDbAlignedDimension
 13
12622.12321183059
 23
3079.418029843932
 33
0.0
 14
12702.12321183059
 24
5099.418029843932
 34
0.0
 50
90.0
100
AcDbRotatedDimension
1001
ACAD
1000
DSTYLE
1002
{
1070
   174
1070
     0
1070
   272
1070
     1
1070
   288
1070
     0
1070
   341
1005
0
1002
}
  0
DIMENSION
  5
16C60
330
747D
100
AcDbEntity
  8
寸法
 48
50.0
100
AcDbDimension
  2
*D22
 10
11252.12321183059
 20
5553.075483423236
 30
0.0
 11
11901.94224472113
 21
5553.075483423236
 31
0.0
 70
   160
  1
柱外寸法<>
 71
     5
 42
1370.0
  3
INABA_S40G
100
AcDbAlignedDimension
 13
12622.12321183059
 23
5101.228709455585
 33
0.0
 14
11252.12321183059
 24
5150.419647966908
 34
0.0
100
AcDbRotatedDimension
1001
ACAD
1000
DSTYLE
1002
{
1070
   174
1070
     0
1070
   272
1070
     1
1070
   288
1070
     0
1070
   341
1005
0
1002
}
  0
DIMENSION
  5
16C61
330
747D
100
AcDbEntity
  8
寸法
 48
50.0
100
AcDbDimension
  2
*D23
 10
11192.12321183059
 20
5553.075483423236
 30
0.0
 11
10882.485416555
 21
5553.075483423236
 31
0.0
 70
   160
 71
     5
 42
60.0
  3
INABA_S40G
100
AcDbAlignedDimension
 13
11252.12321183059
 23
5150.419647966908
 33
0.0
 14
11192.12321183059
 24
5154.418029843935
 34
0.0
100
AcDbRotatedDimension
1001
ACAD
1000
DSTYLE
1002
{
1070
   174
1070
     0
1070
   272
1070
     1
1070
   288
1070
     0
1070
   341
1005
0
1002
}
  0
DIMENSION
  5
16C62
330
747D
100
AcDbEntity
  8
寸法
 48
50.0
100
AcDbDimension
  2
*D24
 10
11192.12321183059
 20
5761.2498046152
 30
0.0
 11
11919.24804153241
 21
5761.2498046152
 31
0.0
 70
   160
 71
     5
 42
1510.0
  3
INABA_S40G
100
AcDbAlignedDimension
 13
12702.12321183059
 23
5099.418029843932
 33
0.0
 14
11192.12321183059
 24
5154.418029843935
 34
0.0
100
AcDbRotatedDimension
1001
ACAD
1000
DSTYLE
1002
{
1070
   174
1070
     0
1070
   272
1070
     1
1070
   288
1070
     0
1070
   341
1005
0
1002
}
  0
LINE
  5
16C63
330
747D
100
AcDbEntity
  8
部品1
100
AcDbLine
 10
11252.12321183058
 20
3079.418029843932
 30
0.0
 11
12622.12321183059
 21
3079.418029843932
 31
0.0
  0
TEXT
  5
16C64
330
747D
100
AcDbEntity
  8
文字
 62
     7
 48
50.0
100
AcDbText
 10
13583.11819016568
 20
8550.013745883727
 30
0.0
 40
100.0
  1
アンカープレート
  7
STYLE1
100
AcDbText
  0
TEXT
  5
16C65
330
747D
100
AcDbEntity
  8
文字
 62
     7
 48
50.0
100
AcDbText
 10
15022.63965474515
 20
8550.013745883722
 30
0.0
 40
100.0
  1
F12            2.3
  7
STYLE1
100
AcDbText
  0
LINE
  5
16C66
330
747D
100
AcDbEntity
  8
仕様書枠
 48
50.0
100
AcDbLine
 10
16307.19999999999
 20
9879.599999999999
 30
0.0
 11
13127.19999999999
 21
9879.600000000001
 31
0.0
  0
LINE
  5
16C67
330
747D
100
AcDbEntity
  8
仕様書枠
 48
50.0
100
AcDbLine
 10
16307.19999999999
 20
11409.6
 30
0.0
 11
13127.2
 21
11409.6
 31
0.0
  0
LINE
  5
16C68
330
747D
100
AcDbEntity
  8
仕様書枠
 48
50.0
100
AcDbLine
 10
16307.19999999999
 20
8179.600000000004
 30
0.0
 11
16307.2
 21
11409.6
 31
0.0
  0
LINE
  5
16C69
330
747D
100
AcDbEntity
  8
仕様書枠
 48
50.0
100
AcDbLine
 10
14785.2
 20
11409.59999999999
 30
0.0
 11
14785.19999999999
 21
8519.600000000004
 31
0.0
  0
LINE
  5
16C6A
330
747D
100
AcDbEntity
  8
仕様書枠
 48
50.0
100
AcDbLine
 10
13490.2
 20
11409.6
 30
0.0
 11
13490.20000000001
 21
8519.600000000004
 31
0.0
  0
LINE
  5
16C6B
330
747D
100
AcDbEntity
  8
仕様書枠
 48
50.0
100
AcDbLine
 10
16307.19999999999
 20
11239.6
 30
0.0
 11
13127.2
 21
11239.6
 31
0.0
  0
LINE
  5
16C6C
330
747D
100
AcDbEntity
  8
仕様書枠
 48
50.0
100
AcDbLine
 10
16307.19999999999
 20
10899.6
 30
0.0
 11
13127.2
 21
10899.6
 31
0.0
  0
LINE
  5
16C6D
330
747D
100
AcDbEntity
  8
仕様書枠
 48
50.0
100
AcDbLine
 10
16307.19999999999
 20
11069.6
 30
0.0
 11
13127.2
 21
11069.6
 31
0.0
  0
LINE
  5
16C6E
330
747D
100
AcDbEntity
  8
仕様書枠
 48
50.0
100
AcDbLine
 10
16307.19999999999
 20
10559.6
 30
0.0
 11
13127.19999999999
 21
10559.6
 31
0.0
  0
LINE
  5
16C6F
330
747D
100
AcDbEntity
  8
仕様書枠
 48
50.0
100
AcDbLine
 10
16307.19999999999
 20
10389.6
 30
0.0
 11
13127.19999999999
 21
10389.6
 31
0.0
  0
LINE
  5
16C70
330
747D
100
AcDbEntity
  8
仕様書枠
 48
50.0
100
AcDbLine
 10
16307.19999999999
 20
10729.6
 30
0.0
 11
13127.19999999999
 21
10729.6
 31
0.0
  0
TEXT
  5
16C71
330
747D
100
AcDbEntity
  8
文字
 62
     7
 48
50.0
100
AcDbText
 10
13197.42518560407
 20
11270.01374588372
 30
0.0
 40
100.0
  1
品番
  7
STYLE1
100
AcDbText
  0
TEXT
  5
16C72
330
747D
100
AcDbEntity
  8
文字
 62
     7
 48
50.0
100
AcDbText
 10
13271.19032244792
 20
11100.01374588373
 30
0.0
 40
100.0
  1
1
  7
STYLE1
100
AcDbText
  0
TEXT
  5
16C73
330
747D
100
AcDbEntity
  8
文字
 62
     7
 48
50.0
100
AcDbText
 10
13271.19032244792
 20
10930.01374588373
 30
0.0
 40
100.0
  1
2
  7
STYLE1
100
AcDbText
  0
TEXT
  5
16C74
330
747D
100
AcDbEntity
  8
文字
 62
     7
 48
50.0
100
AcDbText
 10
13271.19032244792
 20
10590.01374588373
 30
0.0
 40
100.0
  1
4
  7
STYLE1
100
AcDbText
  0
TEXT
  5
16C75
330
747D
100
AcDbEntity
  8
文字
 62
     7
 48
50.0
100
AcDbText
 10
13271.19032244792
 20
10760.01374588373
 30
0.0
 40
100.0
  1
3
  7
STYLE1
100
AcDbText
  0
TEXT
  5
16C76
330
747D
100
AcDbEntity
  8
文字
 62
     7
 48
50.0
100
AcDbText
 10
13732.03840939434
 20
11270.01374588372
 30
0.0
 40
100.0
  1
部　　品　　名
  7
STYLE1
100
AcDbText
  0
TEXT
  5
16C77
330
747D
100
AcDbEntity
  8
文字
 62
     7
 48
50.0
100
AcDbText
 10
14859.79774614482
 20
11270.01374588372
 30
0.0
 40
100.0
  1
材料（材質）　　単位mm
  7
STYLE1
100
AcDbText
  0
TEXT
  5
16C78
330
747D
100
AcDbEntity
  8
文字
 62
     7
 48
50.0
100
AcDbText
 10
13583.11819016569
 20
11100.01374588373
 30
0.0
 40
100.0
  1
土台枠
  7
STYLE1
100
AcDbText
  0
TEXT
  5
16C79
330
747D
100
AcDbEntity
  8
文字
 62
     7
 48
50.0
100
AcDbText
 10
13583.1181901657
 20
10760.01374588372
 30
0.0
 40
100.0
  1
柱
  7
STYLE1
100
AcDbText
  0
TEXT
  5
16C7A
330
747D
100
AcDbEntity
  8
文字
 62
     7
 48
50.0
100
AcDbText
 10
13583.1181901657
 20
10420.01374588372
 30
0.0
 40
100.0
  1
鴨居
  7
STYLE1
100
AcDbText
  0
TEXT
  5
16C7B
330
747D
100
AcDbEntity
  8
文字
 62
     7
 48
50.0
100
AcDbText
 10
13583.1181901657
 20
10250.01374588373
 30
0.0
 40
100.0
  1
桁後
  7
STYLE1
100
AcDbText
  0
TEXT
  5
16C7C
330
747D
100
AcDbEntity
  8
文字
 62
     7
 48
50.0
100
AcDbText
 10
13271.19032244792
 20
10420.01374588372
 30
0.0
 40
100.0
  1
5
  7
STYLE1
100
AcDbText
  0
TEXT
  5
16C7D
330
747D
100
AcDbEntity
  8
文字
 62
     7
 48
50.0
100
AcDbText
 10
13583.1181901657
 20
10080.01374588372
 30
0.0
 40
100.0
  1
妻板左右
  7
STYLE1
100
AcDbText
  0
TEXT
  5
16C7E
330
747D
100
AcDbEntity
  8
文字
 62
     7
 48
50.0
100
AcDbText
 10
13248.77747366447
 20
9570.013745883727
 30
0.0
 40
100.0
  1
10
  7
STYLE1
100
AcDbText
  0
TEXT
  5
16C7F
330
747D
100
AcDbEntity
  8
文字
 62
     7
 48
50.0
100
AcDbText
 10
13583.11819016568
 20
9230.013745883729
 30
0.0
 40
100.0
  1
壁パネル
  7
STYLE1
100
AcDbText
  0
TEXT
  5
16C80
330
747D
100
AcDbEntity
  8
文字
 62
     7
 48
50.0
100
AcDbText
 10
13583.11819016569
 20
9400.013745883727
 30
0.0
 40
100.0
  1
屋根パネル
  7
STYLE1
100
AcDbText
  0
TEXT
  5
16C81
330
747D
100
AcDbEntity
  8
文字
 62
     7
 48
50.0
100
AcDbText
 10
13583.1181901657
 20
9910.013745883727
 30
0.0
 40
100.0
  1
鼻隠シ前後
  7
STYLE1
100
AcDbText
  0
TEXT
  5
16C82
330
747D
100
AcDbEntity
  8
文字
 62
     7
 48
50.0
100
AcDbText
 10
13271.19032244792
 20
9910.01374588373
 30
0.0
 40
100.0
  1
8
  7
STYLE1
100
AcDbText
  0
TEXT
  5
16C83
330
747D
100
AcDbEntity
  8
文字
 62
     7
 48
50.0
100
AcDbText
 10
13271.19032244792
 20
9740.013745883729
 30
0.0
 40
100.0
  1
9
  7
STYLE1
100
AcDbText
  0
TEXT
  5
16C84
330
747D
100
AcDbEntity
  8
文字
 62
     7
 48
50.0
100
AcDbText
 10
13271.19032244792
 20
10080.01374588373
 30
0.0
 40
100.0
  1
7
  7
STYLE1
100
AcDbText
  0
TEXT
  5
16C85
330
747D
100
AcDbEntity
  8
文字
 62
     7
 48
50.0
100
AcDbText
 10
13271.19032244792
 20
10250.01374588373
 30
0.0
 40
100.0
  1
6
  7
STYLE1
100
AcDbText
  0
LINE
  5
16C86
330
747D
100
AcDbEntity
  8
仕様書枠
 48
50.0
100
AcDbLine
 10
16307.19999999999
 20
9539.599999999998
 30
0.0
 11
13127.19999999999
 21
9539.6
 31
0.0
  0
LINE
  5
16C87
330
747D
100
AcDbEntity
  8
仕様書枠
 48
50.0
100
AcDbLine
 10
16307.19999999999
 20
9199.599999999998
 30
0.0
 11
13127.19999999999
 21
9199.600000000001
 31
0.0
  0
LINE
  5
16C88
330
747D
100
AcDbEntity
  8
仕様書枠
 48
50.0
100
AcDbLine
 10
16307.19999999999
 20
9369.599999999998
 30
0.0
 11
13127.19999999999
 21
9369.600000000001
 31
0.0
  0
LINE
  5
16C89
330
747D
100
AcDbEntity
  8
仕様書枠
 48
50.0
100
AcDbLine
 10
16307.19999999999
 20
10219.6
 30
0.0
 11
13127.2
 21
10219.6
 31
0.0
  0
LINE
  5
16C8A
330
747D
100
AcDbEntity
  8
仕様書枠
 48
50.0
100
AcDbLine
 10
16307.19999999999
 20
9709.6
 30
0.0
 11
13127.19999999999
 21
9709.600000000001
 31
0.0
  0
TEXT
  5
16C8B
330
747D
100
AcDbEntity
  8
文字
 62
     7
 48
50.0
100
AcDbText
 10
13248.77747366447
 20
9400.013745883727
 30
0.0
 40
100.0
  1
11
  7
STYLE1
100
AcDbText
  0
LINE
  5
16C8C
330
747D
100
AcDbEntity
  8
仕様書枠
 48
50.0
100
AcDbLine
 10
16307.19999999999
 20
9029.6
 30
0.0
 11
13127.19999999999
 21
9029.6
 31
0.0
  0
LINE
  5
16C8D
330
747D
100
AcDbEntity
  8
仕様書枠
 48
50.0
100
AcDbLine
 10
16307.19999999999
 20
8689.6
 30
0.0
 11
13127.19999999999
 21
8689.600000000003
 31
0.0
  0
TEXT
  5
16C8E
330
747D
100
AcDbEntity
  8
文字
 62
     7
 48
50.0
100
AcDbText
 10
13248.77747366447
 20
9060.013745883729
 30
0.0
 40
100.0
  1
13
  7
STYLE1
100
AcDbText
  0
TEXT
  5
16C8F
330
747D
100
AcDbEntity
  8
文字
 62
     7
 48
50.0
100
AcDbText
 10
13248.77747366447
 20
9230.013745883729
 30
0.0
 40
100.0
  1
12
  7
STYLE1
100
AcDbText
  0
TEXT
  5
16C90
330
747D
100
AcDbEntity
  8
文字
 62
     7
 48
50.0
100
AcDbText
 10
15022.63965474517
 20
11100.01374588372
 30
0.0
 40
100.0
  1
F12            1.2
  7
STYLE1
100
AcDbText
  0
TEXT
  5
16C91
330
747D
100
AcDbEntity
  8
文字
 62
     7
 48
50.0
100
AcDbText
 10
15022.63965474518
 20
10760.01374588372
 30
0.0
 40
100.0
  1
F12            1.0
  7
STYLE1
100
AcDbText
  0
TEXT
  5
16C92
330
747D
100
AcDbEntity
  8
文字
 62
     7
 48
50.0
100
AcDbText
 10
15022.63965474517
 20
10420.01374588372
 30
0.0
 40
100.0
  1
Y10            1.0
  7
STYLE1
100
AcDbText
  0
TEXT
  5
16C93
330
747D
100
AcDbEntity
  8
文字
 62
     7
 48
50.0
100
AcDbText
 10
15022.63965474517
 20
10250.01374588372
 30
0.0
 40
100.0
  1
Y10            1.0
  7
STYLE1
100
AcDbText
  0
TEXT
  5
16C94
330
747D
100
AcDbEntity
  8
文字
 62
     7
 48
50.0
100
AcDbText
 10
15022.63965474517
 20
10080.01374588372
 30
0.0
 40
100.0
  1
Y10            0.7
  7
STYLE1
100
AcDbText
  0
TEXT
  5
16C95
330
747D
100
AcDbEntity
  8
文字
 62
     7
 48
50.0
100
AcDbText
 10
15022.63965474517
 20
9910.013745883725
 30
0.0
 40
100.0
  1
Y10            0.7
  7
STYLE1
100
AcDbText
  0
TEXT
  5
16C96
330
747D
100
AcDbEntity
  8
文字
 62
     7
 48
50.0
100
AcDbText
 10
15022.63965474517
 20
9400.013745883725
 30
0.0
 40
100.0
  1
Y10            0.5
  7
STYLE1
100
AcDbText
  0
TEXT
  5
16C97
330
747D
100
AcDbEntity
  8
文字
 62
     7
 48
50.0
100
AcDbText
 10
15022.63965474515
 20
9230.013745883725
 30
0.0
 40
100.0
  1
F12            0.6
  7
STYLE1
100
AcDbText
  0
LINE
  5
16C98
330
747D
100
AcDbEntity
  8
仕様書枠
 48
50.0
100
AcDbLine
 10
16307.19999999998
 20
8519.600000000002
 30
0.0
 11
13127.19999999999
 21
8519.600000000004
 31
0.0
  0
LINE
  5
16C99
330
747D
100
AcDbEntity
  8
仕様書枠
 48
50.0
100
AcDbLine
 10
16307.19999999998
 20
8349.600000000002
 30
0.0
 11
13127.19999999999
 21
8349.600000000004
 31
0.0
  0
TEXT
  5
16C9A
330
747D
100
AcDbEntity
  8
文字
 62
     7
 48
50.0
100
AcDbText
 10
13229.83081656553
 20
8380.013745883733
 30
0.0
 40
100.0
  1
F12→溶融亜鉛めっき鋼板(JIS G 3302)
  7
STYLE1
100
AcDbText
  0
TEXT
  5
16C9B
330
747D
100
AcDbEntity
  8
文字
 62
     7
 48
50.0
100
AcDbText
 10
13229.83081656553
 20
8210.013745883733
 30
0.0
 40
100.0
  1
Y10→溶融亜鉛-5％アルミニウム合金めっき鋼板(JIS G 3317)
 41
0.9
  7
STYLE1
100
AcDbText
  0
LINE
  5
16C9C
330
747D
100
AcDbEntity
  8
仕様書枠
 48
50.0
100
AcDbLine
 10
13127.2
 20
11409.6
 30
0.0
 11
13127.19999999999
 21
8179.600000000005
 31
0.0
  0
LINE
  5
16C9D
330
747D
100
AcDbEntity
  8
仕様書枠
 48
50.0
100
AcDbLine
 10
16307.19999999999
 20
8859.6
 30
0.0
 11
13127.19999999999
 21
8859.600000000002
 31
0.0
  0
TEXT
  5
16C9E
330
747D
100
AcDbEntity
  8
文字
 62
     7
 48
50.0
100
AcDbText
 10
13583.1181901657
 20
10590.01374588373
 30
0.0
 40
100.0
  1
床パネル
 41
0.9
  7
STYLE1
100
AcDbText
  0
TEXT
  5
16C9F
330
747D
100
AcDbEntity
  8
文字
 62
     7
 48
50.0
100
AcDbText
 10
13248.77747366447
 20
8890.013745883729
 30
0.0
 40
100.0
  1
14
  7
STYLE1
100
AcDbText
  0
TEXT
  5
16CA0
330
747D
100
AcDbEntity
  8
文字
 62
     7
 48
50.0
100
AcDbText
 10
15022.63965474517
 20
10590.01374588372
 30
0.0
 40
100.0
  1
F12            1.0
  7
STYLE1
100
AcDbText
  0
TEXT
  5
16CA1
330
747D
100
AcDbEntity
  8
文字
 62
     7
 48
50.0
100
AcDbText
 10
14269.60464131317
 20
483.8967129911411
 30
0.0
 40
160.0
  1
ＮＸＮ－２５ＳＬ－Ｎ
  7
STYLE2
100
AcDbText
  0
TEXT
  5
16CA2
330
747D
100
AcDbEntity
  8
文字
 62
     7
 48
50.0
100
AcDbText
 10
15022.63965474515
 20
9060.013745883725
 30
0.0
 40
100.0
  1
F12            0.7
  7
STYLE1
100
AcDbText
  0
TEXT
  5
16CA3
330
747D
100
AcDbEntity
  8
文字
 62
     7
 48
50.0
100
AcDbText
 10
13583.11819016568
 20
9060.013745883729
 30
0.0
 40
100.0
  1
正面パネル
  7
STYLE1
100
AcDbText
  0
TEXT
  5
16CA4
330
747D
100
AcDbEntity
  8
文字
 62
     7
 48
50.0
100
AcDbText
 10
15022.63965474515
 20
8890.013745883726
 30
0.0
 40
100.0
  1
F12            0.8
  7
STYLE1
100
AcDbText
  0
TEXT
  5
16CA5
330
747D
100
AcDbEntity
  8
文字
 62
     7
 48
50.0
100
AcDbText
 10
13583.11819016568
 20
8890.013745883729
 30
0.0
 40
100.0
  1
扉
  7
STYLE1
100
AcDbText
  0
TEXT
  5
16CA6
330
747D
100
AcDbEntity
  8
文字
 62
     7
 48
50.0
100
AcDbText
 10
15022.63965474515
 20
8720.013745883727
 30
0.0
 40
100.0
  1
F12            0.6
  7
STYLE1
100
AcDbText
  0
TEXT
  5
16CA7
330
747D
100
AcDbEntity
  8
文字
 62
     7
 48
50.0
100
AcDbText
 10
13583.11819016568
 20
8720.013745883731
 30
0.0
 40
100.0
  1
棚板
  7
STYLE1
100
AcDbText
  0
LINE
  5
16CA8
330
747D
100
AcDbEntity
  8
細線
 48
50.0
100
AcDbLine
 10
11804.62321183059
 20
4919.418029843932
 30
0.0
 11
11804.62321183059
 21
3129.418029843932
 31
0.0
  0
LINE
  5
16CA9
330
747D
100
AcDbEntity
  8
細線
 48
50.0
100
AcDbLine
 10
11789.62321183059
 20
4919.418029843932
 30
0.0
 11
11789.62321183059
 21
3129.418029843932
 31
0.0
  0
LINE
  5
16CAA
330
747D
100
AcDbEntity
  8
細線
 48
50.0
100
AcDbLine
 10
11929.62321183059
 20
4919.418029843932
 30
0.0
 11
11929.62321183059
 21
3129.418029843932
 31
0.0
  0
LINE
  5
16CAB
330
747D
100
AcDbEntity
  8
細線
 48
50.0
100
AcDbLine
 10
11944.62321183059
 20
4919.418029843932
 30
0.0
 11
11944.62321183059
 21
3129.418029843932
 31
0.0
  0
LINE
  5
16CAC
330
747D
100
AcDbEntity
  8
細線
 48
50.0
100
AcDbLine
 10
12084.62321183059
 20
4919.418029843932
 30
0.0
 11
12084.62321183059
 21
3129.418029843932
 31
0.0
  0
LINE
  5
16CAD
330
747D
100
AcDbEntity
  8
細線
 48
50.0
100
AcDbLine
 10
12069.62321183059
 20
4919.418029843932
 30
0.0
 11
12069.62321183059
 21
3129.418029843932
 31
0.0
  0
LINE
  5
16CAE
330
747D
100
AcDbEntity
  8
細線
 48
50.0
100
AcDbLine
 10
11649.62321183059
 20
4919.418029843932
 30
0.0
 11
11649.62321183059
 21
3129.418029843932
 31
0.0
  0
LINE
  5
16CAF
330
747D
100
AcDbEntity
  8
細線
 48
50.0
100
AcDbLine
 10
11664.62321183059
 20
4919.418029843932
 30
0.0
 11
11664.62321183059
 21
3129.418029843932
 31
0.0
  0
LINE
  5
16CB0
330
747D
100
AcDbEntity
  8
細線
 48
50.0
100
AcDbLine
 10
11524.62321183059
 20
4919.418029843932
 30
0.0
 11
11524.62321183059
 21
3129.418029843932
 31
0.0
  0
LINE
  5
16CB1
330
747D
100
AcDbEntity
  8
細線
 48
50.0
100
AcDbLine
 10
11509.62321183059
 20
4919.418029843932
 30
0.0
 11
11509.62321183059
 21
3129.418029843932
 31
0.0
  0
LINE
  5
16CB2
330
747D
100
AcDbEntity
  8
細線
 48
50.0
100
AcDbLine
 10
11369.62321183059
 20
4919.418029843932
 30
0.0
 11
11369.62321183059
 21
3129.418029843932
 31
0.0
  0
LINE
  5
16CB3
330
747D
100
AcDbEntity
  8
細線
 48
50.0
100
AcDbLine
 10
11384.62321183059
 20
4919.418029843932
 30
0.0
 11
11384.62321183059
 21
3129.418029843932
 31
0.0
  0
LINE
  5
16CB4
330
747D
100
AcDbEntity
  8
部品1
100
AcDbLine
 10
11199.66819818755
 20
5153.135765178198
 30
0.0
 11
12694.73508869205
 21
5097.468871171495
 31
0.0
  0
LINE
  5
16CB5
330
747D
100
AcDbEntity
  8
部品1
100
AcDbLine
 10
11207.46577643254
 20
5012.199054912898
 30
0.0
 11
12676.78691237043
 21
4972.580673297118
 31
0.0
  0
LINE
  5
16CB6
330
747D
100
AcDbEntity
  8
細線
 48
50.0
100
AcDbLine
 10
11225.12321183059
 20
5151.817706219335
 30
0.0
 11
11219.83411027508
 21
5011.732073591982
 31
0.0
  0
LINE
  5
16CB7
330
747D
100
AcDbEntity
  8
細線
 48
50.0
100
AcDbLine
 10
12669.12321183059
 20
5098.795052497653
 30
0.0
 11
12664.37552894259
 21
4973.049280006907
 31
0.0
  0
LINE
  5
16CB8
330
747D
100
AcDbEntity
  8
部品1
 48
50.0
100
AcDbLine
 10
11192.3074977437
 20
5146.011576008625
 30
0.0
 11
11192.68775752151
 21
5126.084611562212
 31
0.0
  0
LINE
  5
16CB9
330
747D
100
AcDbEntity
  8
部品1
 48
50.0
100
AcDbLine
 10
11195.75652962775
 20
5122.509330068741
 30
0.0
 11
11197.46043111912
 21
5033.218833362094
 31
0.0
  0
LINE
  5
16CBA
330
747D
100
AcDbEntity
  8
細線
 48
50.0
100
AcDbLine
 10
11193.1626349314
 20
5125.435111685292
 30
0.0
 11
12698.79861967657
 21
5069.22095066289
 31
0.0
  0
LINE
  5
16CBB
330
747D
100
AcDbEntity
  8
細線
 48
50.0
100
AcDbLine
 10
11197.92311016869
 20
5032.57359998743
 30
0.0
 11
12687.92677459932
 21
4992.174324631362
 31
0.0
  0
LINE
  5
16CBC
330
747D
100
AcDbEntity
  8
部品1
 48
50.0
100
AcDbLine
 10
11200.52920322536
 20
5029.643551868621
 30
0.0
 11
11200.73115584579
 21
5019.060516475529
 31
0.0
  0
ARC
  5
16CBD
330
747D
100
AcDbEntity
  8
部品1
 48
50.0
100
AcDbCircle
 10
11199.30622357203
 20
5146.145130416051
 30
0.0
 40
7.0
100
AcDbArc
 50
87.03587545303976
 51
181.0932240292765
  0
ARC
  5
16CBE
330
747D
100
AcDbEntity
  8
部品1
 48
50.0
100
AcDbCircle
 10
11207.72988167413
 20
5019.194070882956
 30
0.0
 40
7.0
100
AcDbArc
 50
181.0932240292895
 51
267.8377559871574
  0
ARC
  5
16CBF
330
747D
100
AcDbEntity
  8
部品1
100
AcDbCircle
 10
11197.52974929893
 20
5029.586314265438
 30
0.0
 40
3.0
100
AcDbArc
 50
1.093224029289586
 51
80.18775403148671
  0
ARC
  5
16CC0
330
747D
100
AcDbEntity
  8
部品1
100
AcDbCircle
 10
11192.75707570132
 20
5122.452092465557
 30
0.0
 40
3.0
100
AcDbArc
 50
1.093224029289586
 51
80.18775403148671
  0
ARC
  5
16CC1
330
747D
100
AcDbEntity
  8
部品1
100
AcDbCircle
 10
11193.38763010434
 20
5126.097967002955
 30
0.0
 40
0.7
100
AcDbArc
 50
181.0932240292244
 51
260.1877540314867
  0
ARC
  5
16CC2
330
747D
100
AcDbEntity
  8
部品1
100
AcDbCircle
 10
11198.16030370195
 20
5033.232188802834
 30
0.0
 40
0.7
100
AcDbArc
 50
181.0932240292244
 51
260.1877540314867
  0
LINE
  5
16CC3
330
747D
100
AcDbEntity
  8
部品1
 48
50.0
100
AcDbLine
 10
12701.33711464129
 20
5089.769225736574
 30
0.0
 11
12699.30649345032
 21
5069.824184478796
 31
0.0
  0
LINE
  5
16CC4
330
747D
100
AcDbEntity
  8
部品1
 48
50.0
100
AcDbLine
 10
12695.95392696584
 20
5066.513550405885
 30
0.0
 11
12688.447147701
 21
4992.780929660874
 31
0.0
  0
LINE
  5
16CC5
330
747D
100
AcDbEntity
  8
部品1
 48
50.0
100
AcDbLine
 10
12685.09458121651
 20
4989.470295587962
 30
0.0
 11
12684.01501817677
 21
4978.866678594404
 31
0.0
  0
ARC
  5
16CC6
330
747D
100
AcDbEntity
  8
部品1
 48
50.0
100
AcDbCircle
 10
12694.37311407653
 20
5090.478236409349
 30
0.0
 40
7.0
100
AcDbArc
 50
354.1866997665402
 51
87.03587545303976
  0
ARC
  5
16CC7
330
747D
100
AcDbEntity
  8
部品1
 48
50.0
100
AcDbCircle
 10
12677.05101761202
 20
4979.575689267178
 30
0.0
 40
7.0
100
AcDbArc
 50
267.8377559871574
 51
354.1866997665402
  0
ARC
  5
16CC8
330
747D
100
AcDbEntity
  8
部品1
100
AcDbCircle
 10
12688.07915288712
 20
4989.166433871059
 30
0.0
 40
3.0
100
AcDbArc
 50
95.0921697642102
 51
174.1866997665402
  0
ARC
  5
16CC9
330
747D
100
AcDbEntity
  8
部品1
100
AcDbCircle
 10
12698.93849863645
 20
5066.209688688983
 30
0.0
 40
3.0
100
AcDbArc
 50
95.09216976441896
 51
174.1866997665402
  0
ARC
  5
16CCA
330
747D
100
AcDbEntity
  8
部品1
100
AcDbCircle
 10
12698.61009339384
 20
5069.895085546072
 30
0.0
 40
0.7
100
AcDbArc
 50
275.0921697642102
 51
354.1866997665402
  0
ARC
  5
16CCB
330
747D
100
AcDbEntity
  8
部品1
100
AcDbCircle
 10
12687.75074764452
 20
4992.851830728149
 30
0.0
 40
0.7
100
AcDbArc
 50
275.0921697642102
 51
354.1866997666958
  0
DIMENSION
  5
16CCC
330
747D
100
AcDbEntity
  8
寸法
 48
50.0
100
AcDbDimension
  2
*D25
 10
12702.12321183059
 20
5553.075483423236
 30
0.0
 11
12908.17045592508
 21
5553.075483423236
 31
0.0
 70
   160
 71
     5
 42
80.0
  3
INABA_S40G
100
AcDbAlignedDimension
 13
12622.12321183059
 23
5101.228709455585
 33
0.0
 14
12702.12321183059
 24
5099.418029843932
 34
0.0
100
AcDbRotatedDimension
1001
ACAD
1000
DSTYLE
1002
{
1070
   174
1070
     0
1070
   272
1070
     1
1070
   288
1070
     0
1070
   341
1005
0
1002
}
  0
DIMENSION
  5
16CCD
330
747D
100
AcDbEntity
  8
寸法
 48
50.0
100
AcDbDimension
  2
*D26
 10
10599.85696011922
 20
5176.240520740748
 30
0.0
 11
10608.5347037711
 21
5406.076759757642
 31
0.0
 70
   160
 71
     5
 42
141.0000000000009
  3
INABA_S40G
100
AcDbAlignedDimension
 13
11207.46577643254
 23
5012.199054912898
 33
0.0
 14
11212.7856105845
 24
5153.098662309782
 34
0.0
 50
87.83775598715742
100
AcDbRotatedDimension
1001
ACAD
1000
DSTYLE
1002
{
1070
   174
1070
     0
1070
   272
1070
     1
1070
   288
1070
     0
1070
   341
1005
0
1002
}
  0
LINE
  5
16CCE
330
747D
100
AcDbEntity
  8
部品1
 48
50.0
100
AcDbLine
 10
11797.12321183059
 20
5285.286168945211
 30
0.0
 11
12097.12321183059
 21
5285.286168945211
 31
0.0
  0
LINE
  5
16CCF
330
747D
100
AcDbEntity
  8
部品1
 48
50.0
100
AcDbLine
 10
12097.12321183059
 20
5285.286168945211
 30
0.0
 11
12097.12321183059
 21
5263.686168945213
 31
0.0
  0
TEXT
  5
16CD0
330
747D
100
AcDbEntity
  8
部品1
 48
50.0
100
AcDbText
 10
11785.39104705432
 20
5321.170191097644
 30
0.0
 40
120.0
  1
1000
  7
STYLE1
100
AcDbText
  0
TEXT
  5
16CD1
330
747D
100
AcDbEntity
  8
部品1
 48
50.0
100
AcDbText
 10
12274.21605911845
 20
5183.668932879362
 30
0.0
 40
120.0
  1
71
 50
90.0
  7
STYLE1
100
AcDbText
  0
LINE
  5
16CD2
330
747D
100
AcDbEntity
  8
部品1
100
AcDbLine
 10
12147.12321183059
 20
4919.418029843932
 30
0.0
 11
12147.12321183059
 21
3129.418029843932
 31
0.0
  0
LINE
  5
16CD3
330
747D
100
AcDbEntity
  8
細線
 48
50.0
100
AcDbLine
 10
12489.62321183059
 20
4919.418029843932
 30
0.0
 11
12489.62321183059
 21
3129.418029843932
 31
0.0
  0
LINE
  5
16CD4
330
747D
100
AcDbEntity
  8
細線
 48
50.0
100
AcDbLine
 10
12504.62321183059
 20
4919.418029843932
 30
0.0
 11
12504.62321183059
 21
3129.418029843932
 31
0.0
  0
LINE
  5
16CD5
330
747D
100
AcDbEntity
  8
細線
 48
50.0
100
AcDbLine
 10
12364.62321183059
 20
4919.418029843932
 30
0.0
 11
12364.62321183059
 21
3129.418029843932
 31
0.0
  0
LINE
  5
16CD6
330
747D
100
AcDbEntity
  8
細線
 48
50.0
100
AcDbLine
 10
12349.62321183059
 20
4919.418029843932
 30
0.0
 11
12349.62321183059
 21
3129.418029843932
 31
0.0
  0
LINE
  5
16CD7
330
747D
100
AcDbEntity
  8
細線
 48
50.0
100
AcDbLine
 10
12209.62321183059
 20
4919.418029843932
 30
0.0
 11
12209.62321183059
 21
3129.418029843932
 31
0.0
  0
LINE
  5
16CD8
330
747D
100
AcDbEntity
  8
細線
 48
50.0
100
AcDbLine
 10
12224.62321183059
 20
4919.418029843932
 30
0.0
 11
12224.62321183059
 21
3129.418029843932
 31
0.0
  0
LINE
  5
16CD9
330
747D
100
AcDbEntity
  8
部品1
 48
50.0
100
AcDbLine
 10
11797.12321183059
 20
5285.286168945211
 30
0.0
 11
12097.12321183059
 21
5263.686168945213
 31
0.0
  0
TEXT
  5
16CDA
330
747D
100
AcDbEntity
  8
文字
 62
     7
 48
50.0
100
AcDbText
 10
13583.11819016569
 20
9570.013745883727
 30
0.0
 40
100.0
  1
母屋中
  7
STYLE1
100
AcDbText
  0
TEXT
  5
16CDB
330
747D
100
AcDbEntity
  8
文字
 62
     7
 48
50.0
100
AcDbText
 10
15022.63965474517
 20
9570.013745883725
 30
0.0
 40
100.0
  1
F12            1.0
  7
STYLE1
100
AcDbText
  0
TEXT
  5
17578
330
747D
100
AcDbEntity
  8
文字
 62
     7
 48
50.0
100
AcDbText
 10
15022.63965474516
 20
10930.01374588372
 30
0.0
 40
100.0
  1
F12            1.2
  7
STYLE1
100
AcDbText
  0
TEXT
  5
1757A
330
747D
100
AcDbEntity
  8
文字
 62
     7
 48
50.0
100
AcDbText
 10
13583.11819016569
 20
10930.01374588372
 30
0.0
 40
100.0
  1
根太
  7
STYLE1
100
AcDbText
  0
LINE
  5
17921
330
747D
100
AcDbEntity
  8
仕様書枠
 48
50.0
100
AcDbLine
 10
16307.19999999998
 20
8179.600000000002
 30
0.0
 11
13127.19999999999
 21
8179.600000000004
 31
0.0
  0
TEXT
  5
17922
330
747D
100
AcDbEntity
  8
文字
 62
     7
 48
50.0
100
AcDbText
 10
13248.77747366448
 20
8550.013745883731
 30
0.0
 40
100.0
  1
16
  7
STYLE1
100
AcDbText
  0
DIMENSION
  5
17AB9
330
747D
100
AcDbEntity
  8
寸法
100
AcDbDimension
  2
*D27
 10
4006.325830023098
 20
7075.670023430062
 30
0.0
 11
4505.325830023097
 21
7075.670023430062
 31
0.0
 70
   160
  1
有効開口部間口\P<>
 71
     5
 42
997.9999999999982
  3
INABA_S40G
100
AcDbAlignedDimension
 13
5004.325830023097
 23
7609.012512816517
 33
0.0
 14
4006.325830023098
 24
7609.012512816407
 34
0.0
100
AcDbRotatedDimension
1001
ACAD
1000
DSTYLE
1002
{
1002
}
  0
LINE
  5
17ABA
330
747D
100
AcDbEntity
  8
細線
100
AcDbLine
 10
4661.325830023097
 20
7612.012512816551
 30
0.0
 11
4561.325830023091
 21
7612.012512816537
 31
0.0
  0
LINE
  5
17ABB
330
747D
100
AcDbEntity
  8
寸法
 48
50.0
100
AcDbLine
 10
4561.341378380308
 20
7539.340110429989
 30
0.0
 11
4780.493318556032
 21
7539.340110429989
 31
0.0
  0
LINE
  5
17ABC
330
747D
100
AcDbEntity
  8
寸法
 48
50.0
100
AcDbLine
 10
4780.493318556032
 20
7539.340110429989
 30
0.0
 11
4691.209099960611
 21
7563.263744699476
 31
0.0
  0
LINE
  5
17ABD
330
747D
100
AcDbEntity
  8
寸法
 48
50.0
100
AcDbLine
 10
4691.209099960611
 20
7563.263744699476
 30
0.0
 11
4691.209099960611
 21
7509.600110117687
 31
0.0
  0
LINE
  5
17ABE
330
747D
100
AcDbEntity
  8
寸法
 48
50.0
100
AcDbLine
 10
4271.681959468372
 20
7506.118153944654
 30
0.0
 11
4323.087967378476
 21
7506.118153944654
 31
0.0
  0
LINE
  5
17ABF
330
747D
100
AcDbEntity
  8
寸法
 48
50.0
100
AcDbLine
 10
4323.087967378476
 20
7506.118153944654
 30
0.0
 11
4323.087967378476
 21
7537.428312596819
 31
0.0
  0
LINE
  5
17AC0
330
747D
100
AcDbEntity
  8
寸法
 48
50.0
100
AcDbLine
 10
4323.087967378476
 20
7537.428312596819
 30
0.0
 11
4352.849299369899
 21
7537.428312596819
 31
0.0
  0
LINE
  5
17AC1
330
747D
100
AcDbEntity
  8
寸法
 48
50.0
100
AcDbLine
 10
4352.849299369899
 20
7537.428312596819
 30
0.0
 11
4297.384963423424
 21
7575.007763525431
 31
0.0
  0
LINE
  5
17AC2
330
747D
100
AcDbEntity
  8
寸法
 48
50.0
100
AcDbLine
 10
4241.920627476948
 20
7537.428312596819
 30
0.0
 11
4297.384963423424
 21
7575.007763525433
 31
0.0
  0
LINE
  5
17AC3
330
747D
100
AcDbEntity
  8
寸法
 48
50.0
100
AcDbLine
 10
4271.681959468372
 20
7537.428312596819
 30
0.0
 11
4241.920627476948
 21
7537.428312596819
 31
0.0
  0
LINE
  5
17AC4
330
747D
100
AcDbEntity
  8
寸法
 48
50.0
100
AcDbLine
 10
4271.681959468372
 20
7506.118153944654
 30
0.0
 11
4271.681959468372
 21
7537.428312596819
 31
0.0
  0
LINE
  5
17AC5
330
747D
100
AcDbEntity
  8
寸法
 48
50.0
100
AcDbLine
 10
4323.087967378476
 20
7506.118153944654
 30
0.0
 11
4271.681959468372
 21
7506.118153944654
 31
0.0
  0
LINE
  5
17AC6
330
747D
100
AcDbEntity
  8
細線
100
AcDbLine
 10
4997.825830023118
 20
7646.012512816612
 30
0.0
 11
4990.325830023123
 21
7669.012512816543
 31
0.0
  0
LINE
  5
17AC7
330
747D
100
AcDbEntity
  8
細線
100
AcDbLine
 10
4937.825830023118
 20
7646.012512816624
 30
0.0
 11
4945.325830023124
 21
7669.012512816543
 31
0.0
  0
LINE
  5
17AC8
330
747D
100
AcDbEntity
  8
細線
100
AcDbLine
 10
4561.325830023085
 20
7612.012512816551
 30
0.0
 11
4558.994291732317
 21
7617.012512816536
 31
0.0
  0
LINE
  5
17AC9
330
747D
100
AcDbEntity
  8
細線
100
AcDbLine
 10
4558.994291732318
 20
7617.012512816536
 30
0.0
 11
4493.657368313844
 21
7617.012512816526
 31
0.0
  0
LINE
  5
17ACA
330
747D
100
AcDbEntity
  8
細線
100
AcDbLine
 10
4491.32583002309
 20
7612.012512816526
 30
0.0
 11
4421.325830023089
 21
7612.012512816517
 31
0.0
  0
LINE
  5
17ACB
330
747D
100
AcDbEntity
  8
細線
100
AcDbLine
 10
4351.325830023091
 20
7612.012512816507
 30
0.0
 11
4281.325830023091
 21
7612.012512816497
 31
0.0
  0
LINE
  5
17ACC
330
747D
100
AcDbEntity
  8
細線
100
AcDbLine
 10
4491.32583002309
 20
7612.012512816569
 30
0.0
 11
4493.657368313858
 21
7617.012512816555
 31
0.0
  0
LINE
  5
17ACD
330
747D
100
AcDbEntity
  8
細線
100
AcDbLine
 10
4418.994291732317
 20
7617.012512816517
 30
0.0
 11
4353.657368313843
 21
7617.012512816505
 31
0.0
  0
LINE
  5
17ACE
330
747D
100
AcDbEntity
  8
細線
100
AcDbLine
 10
4421.325830023084
 20
7612.012512816531
 30
0.0
 11
4418.994291732316
 21
7617.012512816517
 31
0.0
  0
LINE
  5
17ACF
330
747D
100
AcDbEntity
  8
細線
100
AcDbLine
 10
4351.325830023089
 20
7612.01251281655
 30
0.0
 11
4353.657368313856
 21
7617.012512816535
 31
0.0
  0
LINE
  5
17AD0
330
747D
100
AcDbEntity
  8
細線
100
AcDbLine
 10
4281.325830023084
 20
7612.012512816511
 30
0.0
 11
4278.994291732316
 21
7617.012512816497
 31
0.0
  0
LINE
  5
17AD1
330
747D
100
AcDbEntity
  8
細線
100
AcDbLine
 10
4722.825830023096
 20
7646.012512816532
 30
0.0
 11
4725.157368313864
 21
7651.012512816517
 31
0.0
  0
LINE
  5
17AD2
330
747D
100
AcDbEntity
  8
細線
100
AcDbLine
 10
4792.82583002309
 20
7646.012512816513
 30
0.0
 11
4790.494291732323
 21
7651.012512816499
 31
0.0
  0
LINE
  5
17AD3
330
747D
100
AcDbEntity
  8
細線
100
AcDbLine
 10
4790.494291732324
 20
7651.012512816499
 30
0.0
 11
4725.15736831385
 21
7651.012512816487
 31
0.0
  0
LINE
  5
17AD4
330
747D
100
AcDbEntity
  8
細線
100
AcDbLine
 10
4862.825830023095
 20
7646.012512816551
 30
0.0
 11
4865.157368313862
 21
7651.012512816537
 31
0.0
  0
LINE
  5
17AD5
330
747D
100
AcDbEntity
  8
細線
100
AcDbLine
 10
4932.82583002309
 20
7646.012512816533
 30
0.0
 11
4930.494291732323
 21
7651.012512816518
 31
0.0
  0
LINE
  5
17AD6
330
747D
100
AcDbEntity
  8
細線
100
AcDbLine
 10
4930.494291732323
 20
7651.012512816518
 30
0.0
 11
4865.157368313849
 21
7651.012512816507
 31
0.0
  0
LINE
  5
17AD7
330
747D
100
AcDbEntity
  8
細線
100
AcDbLine
 10
5002.825830023097
 20
7646.012512816572
 30
0.0
 11
5005.157368313865
 21
7651.012512816556
 31
0.0
  0
LINE
  5
17AD8
330
747D
100
AcDbEntity
  8
細線
100
AcDbLine
 10
5002.825830023081
 20
7646.012512816539
 30
0.0
 11
4932.825830023087
 21
7646.012512816539
 31
0.0
  0
LINE
  5
17AD9
330
747D
100
AcDbEntity
  8
細線
100
AcDbLine
 10
4862.825830023091
 20
7646.01251281654
 30
0.0
 11
4792.825830023077
 21
7646.01251281654
 31
0.0
  0
LINE
  5
17ADA
330
747D
100
AcDbEntity
  8
細線
100
AcDbLine
 10
4722.825830023102
 20
7646.01251281654
 30
0.0
 11
4652.325830023107
 21
7646.012512816544
 31
0.0
  0
LINE
  5
17ADB
330
747D
100
AcDbEntity
  8
細線
100
AcDbLine
 10
4640.32583002308
 20
7642.012512816537
 30
0.0
 11
4640.325830023082
 21
7646.012512816539
 31
0.0
  0
LINE
  5
17ADC
330
747D
100
AcDbEntity
  8
細線
100
AcDbLine
 10
4640.32583002308
 20
7642.012512816537
 30
0.0
 11
4620.32583002309
 21
7642.012512816537
 31
0.0
  0
LINE
  5
17ADD
330
747D
100
AcDbEntity
  8
細線
100
AcDbLine
 10
4620.32583002309
 20
7642.012512816537
 30
0.0
 11
4620.325830023101
 21
7676.012512816544
 31
0.0
  0
LINE
  5
17ADE
330
747D
100
AcDbEntity
  8
細線
100
AcDbLine
 10
4661.325830023097
 20
7612.012512816551
 30
0.0
 11
4661.325830023106
 21
7642.012512816551
 31
0.0
  0
LINE
  5
17ADF
330
747D
100
AcDbEntity
  8
細線
100
AcDbLine
 10
4661.325830023105
 20
7642.012512816551
 30
0.0
 11
4646.325830023102
 21
7642.012512816548
 31
0.0
  0
LINE
  5
17AE0
330
747D
100
AcDbEntity
  8
細線
100
AcDbLine
 10
4646.3258300231
 20
7635.012512816548
 30
0.0
 11
4646.325830023102
 21
7642.012512816548
 31
0.0
  0
LINE
  5
17AE1
330
747D
100
AcDbEntity
  8
細線
100
AcDbLine
 10
4646.325830023082
 20
7646.012512816544
 30
0.0
 11
4640.325830023082
 21
7646.012512816544
 31
0.0
  0
LINE
  5
17AE2
330
747D
100
AcDbEntity
  8
細線
100
AcDbLine
 10
4652.325830023107
 20
7645.312512816542
 30
0.0
 11
4652.325830023107
 21
7646.012512816544
 31
0.0
  0
ARC
  5
17AE3
330
747D
100
AcDbEntity
  8
細線
100
AcDbCircle
 10
4650.325830023106
 20
7645.312512816542
 30
0.0
 40
2.0
100
AcDbArc
 50
270.0
 51
0.0
  0
LINE
  5
17AE4
330
747D
100
AcDbEntity
  8
細線
100
AcDbLine
 10
4648.325830023106
 20
7643.312512816542
 30
0.0
 11
4650.325830023107
 21
7643.312512816542
 31
0.0
  0
LINE
  5
17AE5
330
747D
100
AcDbEntity
  8
細線
100
AcDbLine
 10
4646.325830023108
 20
7645.312512816542
 30
0.0
 11
4646.325830023108
 21
7646.012512816544
 31
0.0
  0
ARC
  5
17AE6
330
747D
100
AcDbEntity
  8
細線
100
AcDbCircle
 10
4648.325830023106
 20
7645.312512816542
 30
0.0
 40
2.0
100
AcDbArc
 50
180.0
 51
270.0
  0
LINE
  5
17AE7
330
747D
100
AcDbEntity
  8
細線
100
AcDbLine
 10
4635.325830023098
 20
7669.012512816543
 30
0.0
 11
4635.325830023099
 21
7676.012512816545
 31
0.0
  0
ARC
  5
17AE8
330
747D
100
AcDbEntity
  8
細線
100
AcDbCircle
 10
4456.325836522988
 20
7637.512512816529
 30
0.0
 40
6.0
100
AcDbArc
 50
204.6243183521304
 51
335.3756816478695
  0
LINE
  5
17AE9
330
747D
100
AcDbEntity
  8
細線
100
AcDbLine
 10
4486.325830023015
 20
7612.012512816628
 30
0.0
 11
4478.82583002302
 21
7635.012512816558
 31
0.0
  0
LINE
  5
17AEA
330
747D
100
AcDbEntity
  8
細線
100
AcDbLine
 10
4426.325830023015
 20
7612.012512816638
 30
0.0
 11
4433.82583002302
 21
7635.012512816558
 31
0.0
  0
ARC
  5
17AEB
330
747D
100
AcDbEntity
  8
細線
100
AcDbCircle
 10
4967.825836523083
 20
7671.512512816542
 30
0.0
 40
6.0
100
AcDbArc
 50
204.6243183521304
 51
335.3756816478695
  0
LINE
  5
17AEC
330
747D
100
AcDbEntity
  8
細線
100
AcDbLine
 10
4635.325830023099
 20
7676.012512816545
 30
0.0
 11
4620.3258300231
 21
7676.012512816544
 31
0.0
  0
LINE
  5
17AED
330
747D
100
AcDbEntity
  8
細線
100
AcDbLine
 10
4278.994291732318
 20
7617.012512816497
 30
0.0
 11
4213.657368313844
 21
7617.012512816486
 31
0.0
  0
LINE
  5
17AEE
330
747D
100
AcDbEntity
  8
細線
100
AcDbLine
 10
4211.32583002309
 20
7612.01251281653
 30
0.0
 11
4213.657368313858
 21
7617.012512816515
 31
0.0
  0
LINE
  5
17AEF
330
747D
100
AcDbEntity
  8
細線
100
AcDbLine
 10
4162.825830023097
 20
7630.012512816477
 30
0.0
 11
4162.825830023097
 21
7612.012512816455
 31
0.0
  0
LINE
  5
17AF0
330
747D
100
AcDbEntity
  8
細線
100
AcDbLine
 10
4121.825830023096
 20
7630.012512816475
 30
0.0
 11
4121.825830023096
 21
7612.012512816455
 31
0.0
  0
LINE
  5
17AF1
330
747D
100
AcDbEntity
  8
細線
100
AcDbLine
 10
4162.825830023097
 20
7630.012512816477
 30
0.0
 11
4121.825830023096
 21
7630.012512816475
 31
0.0
  0
ARC
  5
17AF2
330
747D
100
AcDbEntity
  8
部品1
100
AcDbCircle
 10
4124.369985900374
 20
7611.512512816478
 30
0.0
 40
1.0
100
AcDbArc
 50
270.0
 51
19.47122063442214
  0
LINE
  5
17AF3
330
747D
100
AcDbEntity
  8
部品1
 48
0.01
100
AcDbLine
 10
4117.32583002309
 20
7612.012512816479
 30
0.0
 11
4117.32583002309
 21
7611.012512816478
 31
0.0
  0
LINE
  5
17AF4
330
747D
100
AcDbEntity
  8
部品1
 48
0.01
100
AcDbLine
 10
4117.82583002309
 20
7610.512512816479
 30
0.0
 11
4124.369985900374
 21
7610.512512816479
 31
0.0
  0
ARC
  5
17AF5
330
747D
100
AcDbEntity
  8
部品1
 48
0.01
100
AcDbCircle
 10
4117.82583002309
 20
7611.012512816478
 30
0.0
 40
0.5
100
AcDbArc
 50
180.0
 51
270.0
  0
ARC
  5
17AF6
330
747D
100
AcDbEntity
  8
部品1
100
AcDbCircle
 10
4149.82583002309
 20
7620.512512816478
 30
0.0
 40
26.0
100
AcDbArc
 50
180.0
 51
199.4712206344221
  0
ARC
  5
17AF7
330
747D
100
AcDbEntity
  8
部品1
 48
0.01
100
AcDbCircle
 10
4125.82583002309
 20
7625.512512816477
 30
0.0
 40
2.0
100
AcDbArc
 50
90.0
 51
180.0
  0
LINE
  5
17AF8
330
747D
100
AcDbEntity
  8
部品1
100
AcDbLine
 10
4123.82583002309
 20
7620.512512816478
 30
0.0
 11
4123.82583002309
 21
7625.512512816477
 31
0.0
  0
ARC
  5
17AF9
330
747D
100
AcDbEntity
  8
部品1
100
AcDbCircle
 10
4142.325830023089
 20
7636.312512816478
 30
0.0
 40
16.0
100
AcDbArc
 50
218.3930440192126
 51
254.0576313943859
  0
ARC
  5
17AFA
330
747D
100
AcDbEntity
  8
部品1
100
AcDbCircle
 10
4127.434221647901
 20
7624.512512816479
 30
0.0
 40
3.0
100
AcDbArc
 50
38.39304401921267
 51
90.0
  0
LINE
  5
17AFB
330
747D
100
AcDbEntity
  8
部品1
 48
0.01
100
AcDbLine
 10
4125.82583002309
 20
7627.512512816479
 30
0.0
 11
4127.434221647901
 21
7627.512512816479
 31
0.0
  0
ARC
  5
17AFC
330
747D
100
AcDbEntity
  8
部品1
100
AcDbCircle
 10
4142.325830023089
 20
7636.312512816478
 30
0.0
 40
16.0
100
AcDbArc
 50
285.9423686056142
 51
321.6069559807873
  0
LINE
  5
17AFD
330
747D
100
AcDbEntity
  8
部品1
100
AcDbLine
 10
4145.896544237361
 20
7620.812512816478
 30
0.0
 11
4138.755115808818
 21
7620.812512816478
 31
0.0
  0
ARC
  5
17AFE
330
747D
100
AcDbEntity
  8
部品1
100
AcDbCircle
 10
4145.896544237361
 20
7623.812512816478
 30
0.0
 40
3.0
100
AcDbArc
 50
270.0
 51
285.9423686056142
  0
ARC
  5
17AFF
330
747D
100
AcDbEntity
  8
部品1
100
AcDbCircle
 10
4138.755115808818
 20
7623.812512816478
 30
0.0
 40
3.0
100
AcDbArc
 50
254.0576313943859
 51
270.0
  0
LINE
  5
17B00
330
747D
100
AcDbEntity
  8
部品1
 48
0.01
100
AcDbLine
 10
4158.825830023089
 20
7627.512512816479
 30
0.0
 11
4157.217438398278
 21
7627.512512816479
 31
0.0
  0
ARC
  5
17B01
330
747D
100
AcDbEntity
  8
部品1
100
AcDbCircle
 10
4157.217438398278
 20
7624.512512816479
 30
0.0
 40
3.0
100
AcDbArc
 50
90.0
 51
141.6069559807873
  0
ARC
  5
17B02
330
747D
100
AcDbEntity
  8
部品1
 48
0.01
100
AcDbCircle
 10
4158.825830023089
 20
7625.512512816477
 30
0.0
 40
2.0
100
AcDbArc
 50
0.0
 51
90.0
  0
LINE
  5
17B03
330
747D
100
AcDbEntity
  8
部品1
100
AcDbLine
 10
4160.82583002309
 20
7620.512512816478
 30
0.0
 11
4160.82583002309
 21
7625.512512816477
 31
0.0
  0
ARC
  5
17B04
330
747D
100
AcDbEntity
  8
部品1
100
AcDbCircle
 10
4134.82583002309
 20
7620.512512816478
 30
0.0
 40
26.0
100
AcDbArc
 50
340.5287793655779
 51
0.0
  0
ARC
  5
17B05
330
747D
100
AcDbEntity
  8
部品1
100
AcDbCircle
 10
4160.281674145806
 20
7611.512512816478
 30
0.0
 40
1.0
100
AcDbArc
 50
160.5287793655778
 51
270.0
  0
LINE
  5
17B06
330
747D
100
AcDbEntity
  8
部品1
 48
0.01
100
AcDbLine
 10
4166.82583002309
 20
7610.512512816479
 30
0.0
 11
4160.213324593027
 21
7610.512512816479
 31
0.0
  0
LINE
  5
17B07
330
747D
100
AcDbEntity
  8
部品1
 48
0.01
100
AcDbLine
 10
4167.32583002309
 20
7612.012512816479
 30
0.0
 11
4167.32583002309
 21
7611.012512816478
 31
0.0
  0
LINE
  5
17B08
330
747D
100
AcDbEntity
  8
部品1
 48
0.01
100
AcDbLine
 10
4167.32583002309
 20
7612.012512816479
 30
0.0
 11
4167.32583002309
 21
7611.012512816478
 31
0.0
  0
ARC
  5
17B09
330
747D
100
AcDbEntity
  8
部品1
 48
0.01
100
AcDbCircle
 10
4166.82583002309
 20
7611.012512816478
 30
0.0
 40
0.5
100
AcDbArc
 50
270.0
 51
0.0
  0
LINE
  5
17B0A
330
747D
100
AcDbEntity
  8
細線
 48
50.0
100
AcDbLine
 10
4620.325830023086
 20
7659.012512816527
 30
0.0
 11
4006.325830023095
 21
7659.012512816423
 31
0.0
  0
LINE
  5
17B0B
330
747D
100
AcDbEntity
  8
細線
100
AcDbLine
 10
4646.325830023094
 20
7635.012512816548
 30
0.0
 11
4021.325830023095
 21
7635.012512816455
 31
0.0
  0
LINE
  5
17B0C
330
747D
100
AcDbEntity
  8
細線
100
AcDbLine
 10
4211.325830023091
 20
7612.012512816486
 30
0.0
 11
3997.313523374046
 21
7612.012512816455
 31
0.0
  0
LINE
  5
17B0D
330
747D
100
AcDbEntity
  8
細線
100
AcDbLine
 10
4006.325830023096
 20
7616.012512816405
 30
0.0
 11
4006.325830023096
 21
7612.012512816455
 31
0.0
  0
LINE
  5
17B0E
330
747D
100
AcDbEntity
  8
細線
100
AcDbLine
 10
4021.325830023095
 20
7642.012512816454
 30
0.0
 11
4021.325830023095
 21
7635.012512816455
 31
0.0
  0
LINE
  5
17B0F
330
747D
100
AcDbEntity
  8
細線
100
AcDbLine
 10
4021.325830023095
 20
7642.012512816454
 30
0.0
 11
4006.325830023095
 21
7642.012512816454
 31
0.0
  0
LINE
  5
17B10
330
747D
100
AcDbEntity
  8
細線
100
AcDbLine
 10
5160.325830023093
 20
7669.012512816538
 30
0.0
 11
4635.325830023098
 21
7669.012512816546
 31
0.0
  0
LINE
  5
17B11
330
747D
100
AcDbEntity
  8
細線
 48
50.0
100
AcDbLine
 10
5676.32583002308
 20
7625.012512816538
 30
0.0
 11
4661.325830023094
 21
7625.012512816541
 31
0.0
  0
LINE
  5
17B12
330
747D
100
AcDbEntity
  8
細線
100
AcDbLine
 10
5070.494291732325
 20
7651.012512816539
 30
0.0
 11
5005.157368313851
 21
7651.012512816527
 31
0.0
  0
LINE
  5
17B13
330
747D
100
AcDbEntity
  8
細線
100
AcDbLine
 10
5072.825830023091
 20
7646.012512816553
 30
0.0
 11
5070.494291732324
 21
7651.012512816539
 31
0.0
  0
LINE
  5
17B14
330
747D
100
AcDbEntity
  8
細線
100
AcDbLine
 10
5175.325830023098
 20
7646.012512816539
 30
0.0
 11
5072.8258300231
 21
7646.012512816539
 31
0.0
  0
LINE
  5
17B15
330
747D
100
AcDbEntity
  8
細線
100
AcDbLine
 10
5154.3258300231
 20
7674.012512816538
 30
0.0
 11
5154.3258300231
 21
7682.012512816538
 31
0.0
  0
LINE
  5
17B16
330
747D
100
AcDbEntity
  8
細線
100
AcDbLine
 10
5154.3258300231
 20
7674.012512816538
 30
0.0
 11
5134.325830023099
 21
7674.012512816538
 31
0.0
  0
LINE
  5
17B17
330
747D
100
AcDbEntity
  8
細線
100
AcDbLine
 10
5134.325830023099
 20
7674.012512816538
 30
0.0
 11
5134.325830023099
 21
7710.012512816534
 31
0.0
  0
LINE
  5
17B18
330
747D
100
AcDbEntity
  8
細線
100
AcDbLine
 10
5175.325830023098
 20
7646.012512816539
 30
0.0
 11
5175.325830023105
 21
7676.012512816537
 31
0.0
  0
LINE
  5
17B19
330
747D
100
AcDbEntity
  8
細線
100
AcDbLine
 10
5175.325830023098
 20
7676.012512816538
 30
0.0
 11
5160.325830023095
 21
7676.012512816534
 31
0.0
  0
LINE
  5
17B1A
330
747D
100
AcDbEntity
  8
細線
100
AcDbLine
 10
5160.325830023094
 20
7669.012512816536
 30
0.0
 11
5160.325830023095
 21
7676.012512816534
 31
0.0
  0
LINE
  5
17B1B
330
747D
100
AcDbEntity
  8
細線
100
AcDbLine
 10
5160.325830023101
 20
7682.012512816538
 30
0.0
 11
5154.3258300231
 21
7682.012512816538
 31
0.0
  0
LINE
  5
17B1C
330
747D
100
AcDbEntity
  8
細線
100
AcDbLine
 10
5253.325830023083
 20
7710.012512816536
 30
0.0
 11
5253.325830023081
 21
7682.01251281654
 31
0.0
  0
LINE
  5
17B1D
330
747D
100
AcDbEntity
  8
細線
100
AcDbLine
 10
5238.325830023082
 20
7710.012512816536
 30
0.0
 11
5223.325830023081
 21
7682.01251281654
 31
0.0
  0
LINE
  5
17B1E
330
747D
100
AcDbEntity
  8
細線
100
AcDbLine
 10
5265.325830023078
 20
7682.012512816527
 30
0.0
 11
5267.657368313845
 21
7687.012512816512
 31
0.0
  0
LINE
  5
17B1F
330
747D
100
AcDbEntity
  8
細線
100
AcDbLine
 10
5265.325830023082
 20
7682.012512816537
 30
0.0
 11
5166.325830023101
 21
7682.012512816538
 31
0.0
  0
ARC
  5
17B20
330
747D
100
AcDbEntity
  8
細線
100
AcDbCircle
 10
5162.3258300231
 20
7681.312512816538
 30
0.0
 40
2.0
100
AcDbArc
 50
180.0
 51
270.0
  0
LINE
  5
17B21
330
747D
100
AcDbEntity
  8
細線
100
AcDbLine
 10
5160.325830023101
 20
7681.312512816539
 30
0.0
 11
5160.325830023101
 21
7682.012512816538
 31
0.0
  0
LINE
  5
17B22
330
747D
100
AcDbEntity
  8
細線
100
AcDbLine
 10
5162.3258300231
 20
7679.31251281654
 30
0.0
 11
5164.3258300231
 21
7679.31251281654
 31
0.0
  0
ARC
  5
17B23
330
747D
100
AcDbEntity
  8
細線
100
AcDbCircle
 10
5164.325830023098
 20
7681.312512816538
 30
0.0
 40
2.0
100
AcDbArc
 50
270.0
 51
0.0
  0
LINE
  5
17B24
330
747D
100
AcDbEntity
  8
細線
100
AcDbLine
 10
5166.3258300231
 20
7681.312512816539
 30
0.0
 11
5166.3258300231
 21
7682.012512816538
 31
0.0
  0
LINE
  5
17B25
330
747D
100
AcDbEntity
  8
細線
100
AcDbLine
 10
5149.325830023099
 20
7705.51251281654
 30
0.0
 11
5149.325830023099
 21
7710.012512816534
 31
0.0
  0
LINE
  5
17B26
330
747D
100
AcDbEntity
  8
細線
 48
50.0
100
AcDbLine
 10
5676.32583002308
 20
7659.012512816542
 30
0.0
 11
5175.325830023101
 21
7659.012512816544
 31
0.0
  0
LINE
  5
17B27
330
747D
100
AcDbEntity
  8
細線
100
AcDbLine
 10
5405.325830023077
 20
7682.012512816547
 30
0.0
 11
5407.657368313845
 21
7687.012512816533
 31
0.0
  0
LINE
  5
17B28
330
747D
100
AcDbEntity
  8
細線
100
AcDbLine
 10
5332.994291732306
 20
7687.012512816494
 30
0.0
 11
5267.657368313832
 21
7687.012512816484
 31
0.0
  0
LINE
  5
17B29
330
747D
100
AcDbEntity
  8
細線
100
AcDbLine
 10
5335.325830023073
 20
7682.012512816509
 30
0.0
 11
5332.994291732305
 21
7687.012512816494
 31
0.0
  0
LINE
  5
17B2A
330
747D
100
AcDbEntity
  8
細線
100
AcDbLine
 10
5405.325830023071
 20
7682.012512816537
 30
0.0
 11
5335.325830023061
 21
7682.012512816537
 31
0.0
  0
LINE
  5
17B2B
330
747D
100
AcDbEntity
  8
細線
100
AcDbLine
 10
5708.325830023081
 20
7710.012512816533
 30
0.0
 11
5134.325830023099
 21
7710.012512816539
 31
0.0
  0
LINE
  5
17B2C
330
747D
100
AcDbEntity
  8
細線
100
AcDbLine
 10
5545.325830023079
 20
7682.012512816567
 30
0.0
 11
5547.657368313847
 21
7687.012512816552
 31
0.0
  0
LINE
  5
17B2D
330
747D
100
AcDbEntity
  8
細線
100
AcDbLine
 10
5472.994291732305
 20
7687.012512816514
 30
0.0
 11
5407.657368313831
 21
7687.012512816504
 31
0.0
  0
LINE
  5
17B2E
330
747D
100
AcDbEntity
  8
細線
100
AcDbLine
 10
5475.325830023072
 20
7682.012512816529
 30
0.0
 11
5472.994291732304
 21
7687.012512816514
 31
0.0
  0
LINE
  5
17B2F
330
747D
100
AcDbEntity
  8
細線
100
AcDbLine
 10
5545.325830023066
 20
7682.012512816537
 30
0.0
 11
5475.325830023066
 21
7682.012512816537
 31
0.0
  0
LINE
  5
17B30
330
747D
100
AcDbEntity
  8
細線
100
AcDbLine
 10
5674.32583002308
 20
7682.012512816537
 30
0.0
 11
5615.325830023079
 21
7682.012512816537
 31
0.0
  0
LINE
  5
17B31
330
747D
100
AcDbEntity
  8
細線
100
AcDbLine
 10
5674.32583002308
 20
7664.012512816535
 30
0.0
 11
5674.32583002308
 21
7682.012512816534
 31
0.0
  0
LINE
  5
17B32
330
747D
100
AcDbEntity
  8
細線
 48
50.0
100
AcDbLine
 10
5674.32583002308
 20
7664.012512816535
 30
0.0
 11
5676.32583002308
 21
7664.012512816535
 31
0.0
  0
LINE
  5
17B33
330
747D
100
AcDbEntity
  8
細線
100
AcDbLine
 10
5615.325830023074
 20
7682.012512816548
 30
0.0
 11
5612.994291732306
 21
7687.012512816534
 31
0.0
  0
LINE
  5
17B34
330
747D
100
AcDbEntity
  8
細線
100
AcDbLine
 10
5612.994291732307
 20
7687.012512816534
 30
0.0
 11
5547.657368313833
 21
7687.012512816524
 31
0.0
  0
LINE
  5
17B5C
330
747D
100
AcDbEntity
  8
細線
100
AcDbLine
 10
6965.325830023099
 20
7646.012512816544
 30
0.0
 11
6862.825830023099
 21
7646.012512816544
 31
0.0
  0
LINE
  5
17B5D
330
747D
100
AcDbEntity
  8
細線
100
AcDbLine
 10
6950.325830023093
 20
7669.012512816545
 30
0.0
 11
6425.325830023097
 21
7669.012512816552
 31
0.0
  0
LINE
  5
17B5E
330
747D
100
AcDbEntity
  8
細線
100
AcDbLine
 10
6451.325830023098
 20
7612.012512816557
 30
0.0
 11
6351.325830023091
 21
7612.012512816543
 31
0.0
  0
LINE
  5
17B5F
330
747D
100
AcDbEntity
  8
細線
100
AcDbLine
 10
6944.3258300231
 20
7674.012512816545
 30
0.0
 11
6944.3258300231
 21
7682.012512816545
 31
0.0
  0
LINE
  5
17B60
330
747D
100
AcDbEntity
  8
細線
100
AcDbLine
 10
6944.3258300231
 20
7674.012512816545
 30
0.0
 11
6924.325830023099
 21
7674.012512816545
 31
0.0
  0
LINE
  5
17B61
330
747D
100
AcDbEntity
  8
細線
100
AcDbLine
 10
6924.325830023099
 20
7674.012512816545
 30
0.0
 11
6924.325830023099
 21
7710.012512816541
 31
0.0
  0
LINE
  5
17B62
330
747D
100
AcDbEntity
  8
細線
100
AcDbLine
 10
6965.325830023099
 20
7646.012512816544
 30
0.0
 11
6965.325830023106
 21
7676.012512816543
 31
0.0
  0
LINE
  5
17B63
330
747D
100
AcDbEntity
  8
細線
100
AcDbLine
 10
6965.325830023099
 20
7676.012512816544
 30
0.0
 11
6950.325830023095
 21
7676.012512816541
 31
0.0
  0
LINE
  5
17B64
330
747D
100
AcDbEntity
  8
細線
100
AcDbLine
 10
6950.325830023094
 20
7669.012512816543
 30
0.0
 11
6950.325830023095
 21
7676.012512816541
 31
0.0
  0
LINE
  5
17B65
330
747D
100
AcDbEntity
  8
細線
100
AcDbLine
 10
6950.3258300231
 20
7682.012512816545
 30
0.0
 11
6944.3258300231
 21
7682.012512816545
 31
0.0
  0
LINE
  5
17B66
330
747D
100
AcDbEntity
  8
細線
100
AcDbLine
 10
7043.325830023083
 20
7710.012512816543
 30
0.0
 11
7043.32583002308
 21
7682.012512816547
 31
0.0
  0
LINE
  5
17B67
330
747D
100
AcDbEntity
  8
細線
100
AcDbLine
 10
7028.325830023082
 20
7710.012512816543
 30
0.0
 11
7013.325830023081
 21
7682.012512816547
 31
0.0
  0
LINE
  5
17B68
330
747D
100
AcDbEntity
  8
細線
100
AcDbLine
 10
6787.825830023118
 20
7646.01251281662
 30
0.0
 11
6780.325830023123
 21
7669.01251281655
 31
0.0
  0
LINE
  5
17B69
330
747D
100
AcDbEntity
  8
細線
100
AcDbLine
 10
6727.825830023118
 20
7646.012512816629
 30
0.0
 11
6735.325830023123
 21
7669.01251281655
 31
0.0
  0
LINE
  5
17B6A
330
747D
100
AcDbEntity
  8
細線
100
AcDbLine
 10
6351.325830023085
 20
7612.012512816557
 30
0.0
 11
6348.994291732317
 21
7617.012512816542
 31
0.0
  0
LINE
  5
17B6B
330
747D
100
AcDbEntity
  8
細線
100
AcDbLine
 10
6348.994291732319
 20
7617.012512816542
 30
0.0
 11
6283.657368313845
 21
7617.012512816533
 31
0.0
  0
LINE
  5
17B6C
330
747D
100
AcDbEntity
  8
細線
100
AcDbLine
 10
6281.32583002309
 20
7612.012512816533
 30
0.0
 11
6211.32583002309
 21
7612.012512816523
 31
0.0
  0
LINE
  5
17B6D
330
747D
100
AcDbEntity
  8
細線
100
AcDbLine
 10
6141.325830023091
 20
7612.012512816514
 30
0.0
 11
6071.325830023091
 21
7612.012512816503
 31
0.0
  0
LINE
  5
17B6E
330
747D
100
AcDbEntity
  8
細線
100
AcDbLine
 10
6281.325830023091
 20
7612.012512816575
 30
0.0
 11
6283.657368313859
 21
7617.012512816561
 31
0.0
  0
LINE
  5
17B6F
330
747D
100
AcDbEntity
  8
細線
100
AcDbLine
 10
6208.994291732317
 20
7617.012512816522
 30
0.0
 11
6143.657368313843
 21
7617.012512816512
 31
0.0
  0
LINE
  5
17B70
330
747D
100
AcDbEntity
  8
細線
100
AcDbLine
 10
6211.325830023084
 20
7612.012512816537
 30
0.0
 11
6208.994291732317
 21
7617.012512816522
 31
0.0
  0
LINE
  5
17B71
330
747D
100
AcDbEntity
  8
細線
100
AcDbLine
 10
6141.325830023089
 20
7612.012512816555
 30
0.0
 11
6143.657368313856
 21
7617.012512816541
 31
0.0
  0
LINE
  5
17B72
330
747D
100
AcDbEntity
  8
細線
100
AcDbLine
 10
6068.994291732318
 20
7617.012512816502
 30
0.0
 11
6003.657368313844
 21
7617.012512816493
 31
0.0
  0
LINE
  5
17B73
330
747D
100
AcDbEntity
  8
細線
100
AcDbLine
 10
6071.325830023084
 20
7612.012512816517
 30
0.0
 11
6068.994291732317
 21
7617.012512816502
 31
0.0
  0
LINE
  5
17B74
330
747D
100
AcDbEntity
  8
細線
100
AcDbLine
 10
6001.32583002309
 20
7612.012512816535
 30
0.0
 11
6003.657368313858
 21
7617.012512816521
 31
0.0
  0
LINE
  5
17B75
330
747D
100
AcDbEntity
  8
細線
100
AcDbLine
 10
5952.825830023097
 20
7630.012512816485
 30
0.0
 11
5952.825830023097
 21
7612.012512816463
 31
0.0
  0
LINE
  5
17B76
330
747D
100
AcDbEntity
  8
細線
100
AcDbLine
 10
5911.825830023096
 20
7630.012512816481
 30
0.0
 11
5911.825830023096
 21
7612.012512816463
 31
0.0
  0
LINE
  5
17B77
330
747D
100
AcDbEntity
  8
細線
100
AcDbLine
 10
5952.825830023097
 20
7630.012512816485
 30
0.0
 11
5911.825830023096
 21
7630.012512816481
 31
0.0
  0
ARC
  5
17B78
330
747D
100
AcDbEntity
  8
部品1
100
AcDbCircle
 10
5914.369985900374
 20
7611.512512816485
 30
0.0
 40
1.0
100
AcDbArc
 50
270.0
 51
19.47122063442214
  0
LINE
  5
17B79
330
747D
100
AcDbEntity
  8
部品1
 48
0.01
100
AcDbLine
 10
5907.32583002309
 20
7612.012512816484
 30
0.0
 11
5907.32583002309
 21
7611.012512816485
 31
0.0
  0
LINE
  5
17B7A
330
747D
100
AcDbEntity
  8
部品1
 48
0.01
100
AcDbLine
 10
5907.82583002309
 20
7610.512512816484
 30
0.0
 11
5914.369985900374
 21
7610.512512816484
 31
0.0
  0
ARC
  5
17B7B
330
747D
100
AcDbEntity
  8
部品1
 48
0.01
100
AcDbCircle
 10
5907.82583002309
 20
7611.012512816485
 30
0.0
 40
0.5
100
AcDbArc
 50
180.0
 51
270.0
  0
ARC
  5
17B7C
330
747D
100
AcDbEntity
  8
部品1
100
AcDbCircle
 10
5939.82583002309
 20
7620.512512816485
 30
0.0
 40
26.0
100
AcDbArc
 50
180.0
 51
199.4712206344221
  0
ARC
  5
17B7D
330
747D
100
AcDbEntity
  8
部品1
 48
0.01
100
AcDbCircle
 10
5915.82583002309
 20
7625.512512816484
 30
0.0
 40
2.0
100
AcDbArc
 50
90.0
 51
180.0
  0
LINE
  5
17B7E
330
747D
100
AcDbEntity
  8
部品1
100
AcDbLine
 10
5913.82583002309
 20
7620.512512816485
 30
0.0
 11
5913.82583002309
 21
7625.512512816484
 31
0.0
  0
ARC
  5
17B7F
330
747D
100
AcDbEntity
  8
部品1
100
AcDbCircle
 10
5932.32583002309
 20
7636.312512816484
 30
0.0
 40
16.0
100
AcDbArc
 50
218.3930440192126
 51
254.0576313943859
  0
ARC
  5
17B80
330
747D
100
AcDbEntity
  8
部品1
100
AcDbCircle
 10
5917.434221647901
 20
7624.512512816484
 30
0.0
 40
3.0
100
AcDbArc
 50
38.39304401921267
 51
90.0
  0
LINE
  5
17B81
330
747D
100
AcDbEntity
  8
部品1
 48
0.01
100
AcDbLine
 10
5915.82583002309
 20
7627.512512816484
 30
0.0
 11
5917.434221647901
 21
7627.512512816484
 31
0.0
  0
ARC
  5
17B82
330
747D
100
AcDbEntity
  8
部品1
100
AcDbCircle
 10
5932.32583002309
 20
7636.312512816484
 30
0.0
 40
16.0
100
AcDbArc
 50
285.9423686056142
 51
321.6069559807873
  0
LINE
  5
17B83
330
747D
100
AcDbEntity
  8
部品1
100
AcDbLine
 10
5935.896544237361
 20
7620.812512816484
 30
0.0
 11
5928.755115808819
 21
7620.812512816484
 31
0.0
  0
ARC
  5
17B84
330
747D
100
AcDbEntity
  8
部品1
100
AcDbCircle
 10
5935.896544237361
 20
7623.812512816484
 30
0.0
 40
3.0
100
AcDbArc
 50
270.0
 51
285.9423686056142
  0
ARC
  5
17B85
330
747D
100
AcDbEntity
  8
部品1
100
AcDbCircle
 10
5928.755115808819
 20
7623.812512816484
 30
0.0
 40
3.0
100
AcDbArc
 50
254.0576313943859
 51
270.0
  0
LINE
  5
17B86
330
747D
100
AcDbEntity
  8
部品1
 48
0.01
100
AcDbLine
 10
5948.82583002309
 20
7627.512512816484
 30
0.0
 11
5947.217438398278
 21
7627.512512816484
 31
0.0
  0
ARC
  5
17B87
330
747D
100
AcDbEntity
  8
部品1
100
AcDbCircle
 10
5947.217438398278
 20
7624.512512816484
 30
0.0
 40
3.0
100
AcDbArc
 50
90.0
 51
141.6069559807873
  0
ARC
  5
17B88
330
747D
100
AcDbEntity
  8
部品1
 48
0.01
100
AcDbCircle
 10
5948.82583002309
 20
7625.512512816484
 30
0.0
 40
2.0
100
AcDbArc
 50
0.0
 51
90.0
  0
LINE
  5
17B89
330
747D
100
AcDbEntity
  8
部品1
100
AcDbLine
 10
5950.82583002309
 20
7620.512512816485
 30
0.0
 11
5950.82583002309
 21
7625.512512816484
 31
0.0
  0
ARC
  5
17B8A
330
747D
100
AcDbEntity
  8
部品1
100
AcDbCircle
 10
5924.82583002309
 20
7620.512512816485
 30
0.0
 40
26.0
100
AcDbArc
 50
340.5287793655779
 51
0.0
  0
ARC
  5
17B8B
330
747D
100
AcDbEntity
  8
部品1
100
AcDbCircle
 10
5950.281674145806
 20
7611.512512816485
 30
0.0
 40
1.0
100
AcDbArc
 50
160.5287793655778
 51
270.0
  0
LINE
  5
17B8C
330
747D
100
AcDbEntity
  8
部品1
 48
0.01
100
AcDbLine
 10
5956.82583002309
 20
7610.512512816484
 30
0.0
 11
5950.213324593027
 21
7610.512512816484
 31
0.0
  0
LINE
  5
17B8D
330
747D
100
AcDbEntity
  8
部品1
 48
0.01
100
AcDbLine
 10
5957.325830023091
 20
7612.012512816484
 30
0.0
 11
5957.325830023091
 21
7611.012512816485
 31
0.0
  0
LINE
  5
17B8E
330
747D
100
AcDbEntity
  8
部品1
 48
0.01
100
AcDbLine
 10
5957.325830023091
 20
7612.012512816484
 30
0.0
 11
5957.325830023091
 21
7611.012512816485
 31
0.0
  0
ARC
  5
17B8F
330
747D
100
AcDbEntity
  8
部品1
 48
0.01
100
AcDbCircle
 10
5956.82583002309
 20
7611.012512816485
 30
0.0
 40
0.5
100
AcDbArc
 50
270.0
 51
0.0
  0
LINE
  5
17B90
330
747D
100
AcDbEntity
  8
細線
100
AcDbLine
 10
6512.825830023096
 20
7646.012512816537
 30
0.0
 11
6515.157368313864
 21
7651.012512816523
 31
0.0
  0
LINE
  5
17B91
330
747D
100
AcDbEntity
  8
細線
100
AcDbLine
 10
6582.825830023091
 20
7646.012512816518
 30
0.0
 11
6580.494291732323
 21
7651.012512816504
 31
0.0
  0
LINE
  5
17B92
330
747D
100
AcDbEntity
  8
細線
100
AcDbLine
 10
6580.494291732325
 20
7651.012512816504
 30
0.0
 11
6515.15736831385
 21
7651.012512816494
 31
0.0
  0
LINE
  5
17B93
330
747D
100
AcDbEntity
  8
細線
100
AcDbLine
 10
6652.825830023096
 20
7646.012512816557
 30
0.0
 11
6655.157368313862
 21
7651.012512816542
 31
0.0
  0
LINE
  5
17B94
330
747D
100
AcDbEntity
  8
細線
100
AcDbLine
 10
6722.82583002309
 20
7646.012512816539
 30
0.0
 11
6720.494291732322
 21
7651.012512816524
 31
0.0
  0
LINE
  5
17B95
330
747D
100
AcDbEntity
  8
細線
100
AcDbLine
 10
6720.494291732324
 20
7651.012512816524
 30
0.0
 11
6655.15736831385
 21
7651.012512816514
 31
0.0
  0
LINE
  5
17B96
330
747D
100
AcDbEntity
  8
細線
100
AcDbLine
 10
6792.825830023097
 20
7646.012512816577
 30
0.0
 11
6795.157368313865
 21
7651.012512816563
 31
0.0
  0
LINE
  5
17B97
330
747D
100
AcDbEntity
  8
細線
100
AcDbLine
 10
6860.494291732326
 20
7651.012512816544
 30
0.0
 11
6795.157368313851
 21
7651.012512816534
 31
0.0
  0
LINE
  5
17B98
330
747D
100
AcDbEntity
  8
細線
100
AcDbLine
 10
6862.825830023092
 20
7646.012512816558
 30
0.0
 11
6860.494291732324
 21
7651.012512816544
 31
0.0
  0
LINE
  5
17B99
330
747D
100
AcDbEntity
  8
細線
100
AcDbLine
 10
7055.325830023078
 20
7682.012512816534
 30
0.0
 11
7057.657368313846
 21
7687.01251281652
 31
0.0
  0
LINE
  5
17B9A
330
747D
100
AcDbEntity
  8
細線
100
AcDbLine
 10
7055.325830023083
 20
7682.012512816543
 30
0.0
 11
6956.325830023101
 21
7682.012512816545
 31
0.0
  0
LINE
  5
17B9B
330
747D
100
AcDbEntity
  8
細線
100
AcDbLine
 10
6792.825830023082
 20
7646.012512816544
 30
0.0
 11
6722.825830023087
 21
7646.012512816544
 31
0.0
  0
LINE
  5
17B9C
330
747D
100
AcDbEntity
  8
細線
100
AcDbLine
 10
6652.82583002309
 20
7646.012512816547
 30
0.0
 11
6582.825830023077
 21
7646.012512816547
 31
0.0
  0
LINE
  5
17B9D
330
747D
100
AcDbEntity
  8
細線
100
AcDbLine
 10
6512.825830023103
 20
7646.012512816547
 30
0.0
 11
6442.325830023107
 21
7646.01251281655
 31
0.0
  0
LINE
  5
17B9E
330
747D
100
AcDbEntity
  8
細線
100
AcDbLine
 10
6430.325830023079
 20
7642.012512816542
 30
0.0
 11
6430.325830023083
 21
7646.012512816544
 31
0.0
  0
LINE
  5
17B9F
330
747D
100
AcDbEntity
  8
細線
100
AcDbLine
 10
6430.325830023079
 20
7642.012512816542
 30
0.0
 11
6410.32583002309
 21
7642.012512816542
 31
0.0
  0
LINE
  5
17BA0
330
747D
100
AcDbEntity
  8
細線
100
AcDbLine
 10
6410.32583002309
 20
7642.012512816542
 30
0.0
 11
6410.325830023101
 21
7676.01251281655
 31
0.0
  0
LINE
  5
17BA1
330
747D
100
AcDbEntity
  8
細線
100
AcDbLine
 10
6451.325830023098
 20
7612.012512816557
 30
0.0
 11
6451.325830023106
 21
7642.012512816558
 31
0.0
  0
LINE
  5
17BA2
330
747D
100
AcDbEntity
  8
細線
100
AcDbLine
 10
6451.325830023106
 20
7642.012512816558
 30
0.0
 11
6436.325830023102
 21
7642.012512816553
 31
0.0
  0
LINE
  5
17BA3
330
747D
100
AcDbEntity
  8
細線
100
AcDbLine
 10
6436.3258300231
 20
7635.012512816555
 30
0.0
 11
6436.325830023102
 21
7642.012512816553
 31
0.0
  0
LINE
  5
17BA4
330
747D
100
AcDbEntity
  8
細線
100
AcDbLine
 10
6436.325830023083
 20
7646.01251281655
 30
0.0
 11
6430.325830023083
 21
7646.01251281655
 31
0.0
  0
LINE
  5
17BA5
330
747D
100
AcDbEntity
  8
細線
100
AcDbLine
 10
6442.325830023107
 20
7645.312512816549
 30
0.0
 11
6442.325830023107
 21
7646.01251281655
 31
0.0
  0
ARC
  5
17BA6
330
747D
100
AcDbEntity
  8
細線
100
AcDbCircle
 10
6440.325830023105
 20
7645.312512816549
 30
0.0
 40
2.0
100
AcDbArc
 50
270.0
 51
0.0
  0
LINE
  5
17BA7
330
747D
100
AcDbEntity
  8
細線
100
AcDbLine
 10
6438.325830023107
 20
7643.312512816549
 30
0.0
 11
6440.325830023107
 21
7643.312512816549
 31
0.0
  0
LINE
  5
17BA8
330
747D
100
AcDbEntity
  8
細線
100
AcDbLine
 10
6436.325830023108
 20
7645.312512816549
 30
0.0
 11
6436.325830023108
 21
7646.01251281655
 31
0.0
  0
ARC
  5
17BA9
330
747D
100
AcDbEntity
  8
細線
100
AcDbCircle
 10
6438.325830023106
 20
7645.312512816549
 30
0.0
 40
2.0
100
AcDbArc
 50
180.0
 51
270.0
  0
LINE
  5
17BAA
330
747D
100
AcDbEntity
  8
細線
100
AcDbLine
 10
6425.325830023097
 20
7669.01251281655
 30
0.0
 11
6425.325830023099
 21
7676.012512816552
 31
0.0
  0
ARC
  5
17BAB
330
747D
100
AcDbEntity
  8
細線
100
AcDbCircle
 10
6246.325836522988
 20
7637.512512816535
 30
0.0
 40
6.0
100
AcDbArc
 50
204.6243183521304
 51
335.3756816478695
  0
LINE
  5
17BAC
330
747D
100
AcDbEntity
  8
細線
100
AcDbLine
 10
6276.325830023015
 20
7612.012512816633
 30
0.0
 11
6268.82583002302
 21
7635.012512816564
 31
0.0
  0
LINE
  5
17BAD
330
747D
100
AcDbEntity
  8
細線
100
AcDbLine
 10
6216.325830023015
 20
7612.012512816645
 30
0.0
 11
6223.82583002302
 21
7635.012512816564
 31
0.0
  0
ARC
  5
17BAE
330
747D
100
AcDbEntity
  8
細線
100
AcDbCircle
 10
6757.825836523082
 20
7671.512512816548
 30
0.0
 40
6.0
100
AcDbArc
 50
204.6243183521304
 51
335.3756816478695
  0
ARC
  5
17BAF
330
747D
100
AcDbEntity
  8
細線
100
AcDbCircle
 10
6952.325830023099
 20
7681.312512816544
 30
0.0
 40
2.0
100
AcDbArc
 50
180.0
 51
270.0
  0
LINE
  5
17BB0
330
747D
100
AcDbEntity
  8
細線
100
AcDbLine
 10
6950.3258300231
 20
7681.312512816545
 30
0.0
 11
6950.3258300231
 21
7682.012512816545
 31
0.0
  0
LINE
  5
17BB1
330
747D
100
AcDbEntity
  8
細線
100
AcDbLine
 10
6952.325830023101
 20
7679.312512816546
 30
0.0
 11
6954.3258300231
 21
7679.312512816546
 31
0.0
  0
ARC
  5
17BB2
330
747D
100
AcDbEntity
  8
細線
100
AcDbCircle
 10
6954.325830023099
 20
7681.312512816544
 30
0.0
 40
2.0
100
AcDbArc
 50
270.0
 51
0.0
  0
LINE
  5
17BB3
330
747D
100
AcDbEntity
  8
細線
100
AcDbLine
 10
6956.3258300231
 20
7681.312512816545
 30
0.0
 11
6956.3258300231
 21
7682.012512816545
 31
0.0
  0
LINE
  5
17BB4
330
747D
100
AcDbEntity
  8
細線
100
AcDbLine
 10
6425.325830023099
 20
7676.012512816552
 30
0.0
 11
6410.325830023101
 21
7676.01251281655
 31
0.0
  0
LINE
  5
17BB5
330
747D
100
AcDbEntity
  8
細線
100
AcDbLine
 10
6939.3258300231
 20
7705.512512816547
 30
0.0
 11
6939.3258300231
 21
7710.012512816541
 31
0.0
  0
LINE
  5
17BB6
330
747D
100
AcDbEntity
  8
細線
 48
50.0
100
AcDbLine
 10
6410.325830023087
 20
7659.012512816534
 30
0.0
 11
5796.325830023095
 21
7659.01251281643
 31
0.0
  0
LINE
  5
17BB7
330
747D
100
AcDbEntity
  8
細線
100
AcDbLine
 10
6436.325830023095
 20
7635.012512816555
 30
0.0
 11
5811.325830023095
 21
7635.01251281646
 31
0.0
  0
LINE
  5
17BB8
330
747D
100
AcDbEntity
  8
細線
100
AcDbLine
 10
6001.325830023091
 20
7612.012512816491
 30
0.0
 11
5787.313523374046
 21
7612.012512816462
 31
0.0
  0
LINE
  5
17BB9
330
747D
100
AcDbEntity
  8
細線
100
AcDbLine
 10
5811.325830023095
 20
7642.012512816461
 30
0.0
 11
5811.325830023095
 21
7635.01251281646
 31
0.0
  0
LINE
  5
17BBA
330
747D
100
AcDbEntity
  8
細線
100
AcDbLine
 10
5811.325830023095
 20
7642.012512816461
 30
0.0
 11
5796.325830023095
 21
7642.012512816461
 31
0.0
  0
LINE
  5
17BBB
330
747D
100
AcDbEntity
  8
細線
100
AcDbLine
 10
5796.325830023096
 20
7616.012512816412
 30
0.0
 11
5796.325830023096
 21
7612.012512816463
 31
0.0
  0
LINE
  5
17BBC
330
747D
100
AcDbEntity
  8
細線
 48
50.0
100
AcDbLine
 10
7466.32583002308
 20
7625.012512816545
 30
0.0
 11
6451.325830023094
 21
7625.012512816546
 31
0.0
  0
LINE
  5
17BBD
330
747D
100
AcDbEntity
  8
細線
 48
50.0
100
AcDbLine
 10
7466.32583002308
 20
7659.012512816548
 30
0.0
 11
6965.325830023101
 21
7659.012512816549
 31
0.0
  0
LINE
  5
17BBE
330
747D
100
AcDbEntity
  8
細線
100
AcDbLine
 10
7498.325830023081
 20
7710.012512816539
 30
0.0
 11
6924.325830023099
 21
7710.012512816544
 31
0.0
  0
LINE
  5
17BBF
330
747D
100
AcDbEntity
  8
細線
100
AcDbLine
 10
7262.994291732304
 20
7687.012512816521
 30
0.0
 11
7197.657368313831
 21
7687.01251281651
 31
0.0
  0
LINE
  5
17BC0
330
747D
100
AcDbEntity
  8
細線
100
AcDbLine
 10
7265.325830023072
 20
7682.012512816536
 30
0.0
 11
7262.994291732304
 21
7687.012512816521
 31
0.0
  0
LINE
  5
17BC1
330
747D
100
AcDbEntity
  8
細線
100
AcDbLine
 10
7195.325830023077
 20
7682.012512816554
 30
0.0
 11
7197.657368313845
 21
7687.01251281654
 31
0.0
  0
LINE
  5
17BC2
330
747D
100
AcDbEntity
  8
細線
100
AcDbLine
 10
7122.994291732306
 20
7687.012512816501
 30
0.0
 11
7057.657368313832
 21
7687.01251281649
 31
0.0
  0
LINE
  5
17BC3
330
747D
100
AcDbEntity
  8
細線
100
AcDbLine
 10
7125.325830023072
 20
7682.012512816516
 30
0.0
 11
7122.994291732306
 21
7687.012512816501
 31
0.0
  0
LINE
  5
17BC4
330
747D
100
AcDbEntity
  8
細線
100
AcDbLine
 10
7195.325830023072
 20
7682.012512816543
 30
0.0
 11
7125.325830023061
 21
7682.012512816543
 31
0.0
  0
LINE
  5
17BC5
330
747D
100
AcDbEntity
  8
細線
100
AcDbLine
 10
7402.994291732307
 20
7687.012512816541
 30
0.0
 11
7337.657368313833
 21
7687.012512816529
 31
0.0
  0
LINE
  5
17BC6
330
747D
100
AcDbEntity
  8
細線
100
AcDbLine
 10
7335.325830023079
 20
7682.012512816574
 30
0.0
 11
7337.657368313847
 21
7687.01251281656
 31
0.0
  0
LINE
  5
17BC7
330
747D
100
AcDbEntity
  8
細線
100
AcDbLine
 10
7335.325830023065
 20
7682.012512816543
 30
0.0
 11
7265.325830023066
 21
7682.012512816543
 31
0.0
  0
LINE
  5
17BC8
330
747D
100
AcDbEntity
  8
細線
100
AcDbLine
 10
7464.32583002308
 20
7682.012512816543
 30
0.0
 11
7405.325830023079
 21
7682.012512816543
 31
0.0
  0
LINE
  5
17BC9
330
747D
100
AcDbEntity
  8
細線
100
AcDbLine
 10
7464.32583002308
 20
7664.01251281654
 30
0.0
 11
7464.32583002308
 21
7682.012512816541
 31
0.0
  0
LINE
  5
17BCA
330
747D
100
AcDbEntity
  8
細線
 48
50.0
100
AcDbLine
 10
7464.32583002308
 20
7664.01251281654
 30
0.0
 11
7466.32583002308
 21
7664.01251281654
 31
0.0
  0
LINE
  5
17BCB
330
747D
100
AcDbEntity
  8
細線
100
AcDbLine
 10
7405.325830023073
 20
7682.012512816555
 30
0.0
 11
7402.994291732305
 21
7687.012512816541
 31
0.0
  0
DIMENSION
  5
17BCC
330
747D
100
AcDbEntity
  8
寸法
100
AcDbDimension
  2
*D28
 10
5796.325830023098
 20
7075.670023430065
 30
0.0
 11
6295.325830023098
 21
7075.670023430065
 31
0.0
 70
   160
  1
有効開口部間口\P<>
 71
     5
 42
997.9999999999982
  3
INABA_S40G
100
AcDbAlignedDimension
 13
6794.325830023097
 23
7609.012512816519
 33
0.0
 14
5796.325830023098
 24
7609.01251281641
 34
0.0
100
AcDbRotatedDimension
1001
ACAD
1000
DSTYLE
1002
{
1002
}
  0
LINE
  5
17BD3
330
747D
100
AcDbEntity
  8
寸法
 48
50.0
100
AcDbLine
 10
6481.209099960612
 20
7563.263744699479
 30
0.0
 11
6481.209099960612
 21
7509.600110117689
 31
0.0
  0
LINE
  5
17BD4
330
747D
100
AcDbEntity
  8
寸法
 48
50.0
100
AcDbLine
 10
6570.493318556032
 20
7539.340110429993
 30
0.0
 11
6481.209099960612
 21
7563.263744699479
 31
0.0
  0
LINE
  5
17BD5
330
747D
100
AcDbEntity
  8
寸法
 48
50.0
100
AcDbLine
 10
6351.341378380308
 20
7539.340110429993
 30
0.0
 11
6570.493318556032
 21
7539.340110429993
 31
0.0
  0
LINE
  5
17BEB
330
747D
100
AcDbEntity
  8
寸法
 48
50.0
100
AcDbLine
 10
6113.087967378476
 20
7506.118153944658
 30
0.0
 11
6061.681959468372
 21
7506.118153944658
 31
0.0
  0
LINE
  5
17BEC
330
747D
100
AcDbEntity
  8
寸法
 48
50.0
100
AcDbLine
 10
6061.681959468372
 20
7506.118153944658
 30
0.0
 11
6061.681959468372
 21
7537.428312596825
 31
0.0
  0
LINE
  5
17BED
330
747D
100
AcDbEntity
  8
寸法
 48
50.0
100
AcDbLine
 10
6061.681959468372
 20
7537.428312596825
 30
0.0
 11
6031.920627476949
 21
7537.428312596825
 31
0.0
  0
LINE
  5
17BEE
330
747D
100
AcDbEntity
  8
寸法
 48
50.0
100
AcDbLine
 10
6031.920627476949
 20
7537.428312596825
 30
0.0
 11
6087.384963423424
 21
7575.007763525437
 31
0.0
  0
LINE
  5
17BEF
330
747D
100
AcDbEntity
  8
寸法
 48
50.0
100
AcDbLine
 10
6142.849299369899
 20
7537.428312596825
 30
0.0
 11
6087.384963423424
 21
7575.007763525436
 31
0.0
  0
LINE
  5
17BF0
330
747D
100
AcDbEntity
  8
寸法
 48
50.0
100
AcDbLine
 10
6113.087967378476
 20
7537.428312596825
 30
0.0
 11
6142.849299369899
 21
7537.428312596825
 31
0.0
  0
LINE
  5
17BF1
330
747D
100
AcDbEntity
  8
寸法
 48
50.0
100
AcDbLine
 10
6113.087967378476
 20
7506.118153944658
 30
0.0
 11
6113.087967378476
 21
7537.428312596825
 31
0.0
  0
LINE
  5
17BF2
330
747D
100
AcDbEntity
  8
寸法
 48
50.0
100
AcDbLine
 10
6061.681959468372
 20
7506.118153944658
 30
0.0
 11
6113.087967378476
 21
7506.118153944658
 31
0.0
  0
DIMENSION
  5
17BF3
330
747D
100
AcDbEntity
  8
寸法
100
AcDbDimension
  2
*D29
 10
7586.325830023098
 20
7075.670023430065
 30
0.0
 11
8085.325830023098
 21
7075.670023430065
 31
0.0
 70
   160
  1
有効開口部間口\P<>
 71
     5
 42
997.9999999999973
  3
INABA_S40G
100
AcDbAlignedDimension
 13
8584.325830023095
 23
7609.012512816519
 33
0.0
 14
7586.325830023098
 24
7609.01251281641
 34
0.0
100
AcDbRotatedDimension
1001
ACAD
1000
DSTYLE
1002
{
1002
}
  0
LINE
  5
17BF4
330
747D
100
AcDbEntity
  8
寸法
 48
50.0
100
AcDbLine
 10
7851.681959468372
 20
7506.118153944658
 30
0.0
 11
7903.087967378475
 21
7506.118153944658
 31
0.0
  0
LINE
  5
17BF5
330
747D
100
AcDbEntity
  8
寸法
 48
50.0
100
AcDbLine
 10
7903.087967378475
 20
7506.118153944658
 30
0.0
 11
7903.087967378475
 21
7537.428312596825
 31
0.0
  0
LINE
  5
17BF6
330
747D
100
AcDbEntity
  8
寸法
 48
50.0
100
AcDbLine
 10
7903.087967378475
 20
7537.428312596825
 30
0.0
 11
7932.849299369898
 21
7537.428312596825
 31
0.0
  0
LINE
  5
17BF7
330
747D
100
AcDbEntity
  8
寸法
 48
50.0
100
AcDbLine
 10
7932.849299369898
 20
7537.428312596825
 30
0.0
 11
7877.384963423425
 21
7575.007763525436
 31
0.0
  0
LINE
  5
17BF8
330
747D
100
AcDbEntity
  8
寸法
 48
50.0
100
AcDbLine
 10
7821.920627476949
 20
7537.428312596825
 30
0.0
 11
7877.384963423423
 21
7575.007763525437
 31
0.0
  0
LINE
  5
17BF9
330
747D
100
AcDbEntity
  8
寸法
 48
50.0
100
AcDbLine
 10
7851.681959468372
 20
7537.428312596825
 30
0.0
 11
7821.920627476949
 21
7537.428312596825
 31
0.0
  0
LINE
  5
17BFA
330
747D
100
AcDbEntity
  8
寸法
 48
50.0
100
AcDbLine
 10
7851.681959468372
 20
7506.118153944658
 30
0.0
 11
7851.681959468372
 21
7537.428312596825
 31
0.0
  0
LINE
  5
17BFB
330
747D
100
AcDbEntity
  8
寸法
 48
50.0
100
AcDbLine
 10
7903.087967378475
 20
7506.118153944658
 30
0.0
 11
7851.681959468372
 21
7506.118153944658
 31
0.0
  0
LINE
  5
17BFC
330
747D
100
AcDbEntity
  8
寸法
 48
50.0
100
AcDbLine
 10
8141.341378380309
 20
7539.340110429993
 30
0.0
 11
8360.493318556033
 21
7539.340110429993
 31
0.0
  0
LINE
  5
17BFD
330
747D
100
AcDbEntity
  8
寸法
 48
50.0
100
AcDbLine
 10
8360.493318556033
 20
7539.340110429993
 30
0.0
 11
8271.209099960612
 21
7563.263744699479
 31
0.0
  0
LINE
  5
17BFE
330
747D
100
AcDbEntity
  8
寸法
 48
50.0
100
AcDbLine
 10
8271.209099960612
 20
7563.263744699479
 30
0.0
 11
8271.209099960612
 21
7509.600110117689
 31
0.0
  0
LINE
  5
17BFF
330
747D
100
AcDbEntity
  8
細線
100
AcDbLine
 10
8915.325830023073
 20
7682.012512816516
 30
0.0
 11
8912.994291732307
 21
7687.012512816501
 31
0.0
  0
LINE
  5
17C00
330
747D
100
AcDbEntity
  8
細線
100
AcDbLine
 10
8912.994291732307
 20
7687.012512816501
 30
0.0
 11
8847.657368313832
 21
7687.01251281649
 31
0.0
  0
LINE
  5
17C01
330
747D
100
AcDbEntity
  8
細線
100
AcDbLine
 10
8729.325830023098
 20
7705.512512816547
 30
0.0
 11
8729.325830023098
 21
7710.012512816541
 31
0.0
  0
LINE
  5
17C02
330
747D
100
AcDbEntity
  8
細線
100
AcDbLine
 10
8215.325830023099
 20
7676.012512816552
 30
0.0
 11
8200.3258300231
 21
7676.01251281655
 31
0.0
  0
LINE
  5
17C03
330
747D
100
AcDbEntity
  8
細線
100
AcDbLine
 10
8746.325830023099
 20
7681.312512816545
 30
0.0
 11
8746.325830023099
 21
7682.012512816545
 31
0.0
  0
ARC
  5
17C04
330
747D
100
AcDbEntity
  8
細線
100
AcDbCircle
 10
8744.325830023099
 20
7681.312512816544
 30
0.0
 40
2.0
100
AcDbArc
 50
270.0
 51
0.0
  0
LINE
  5
17C05
330
747D
100
AcDbEntity
  8
細線
100
AcDbLine
 10
8742.3258300231
 20
7679.312512816546
 30
0.0
 11
8744.325830023099
 21
7679.312512816546
 31
0.0
  0
LINE
  5
17C06
330
747D
100
AcDbEntity
  8
細線
100
AcDbLine
 10
8740.325830023099
 20
7681.312512816545
 30
0.0
 11
8740.325830023099
 21
7682.012512816545
 31
0.0
  0
ARC
  5
17C07
330
747D
100
AcDbEntity
  8
細線
100
AcDbCircle
 10
8742.3258300231
 20
7681.312512816544
 30
0.0
 40
2.0
100
AcDbArc
 50
180.0
 51
270.0
  0
ARC
  5
17C08
330
747D
100
AcDbEntity
  8
細線
100
AcDbCircle
 10
8547.825836523083
 20
7671.512512816548
 30
0.0
 40
6.0
100
AcDbArc
 50
204.6243183521304
 51
335.3756816478695
  0
LINE
  5
17C09
330
747D
100
AcDbEntity
  8
細線
100
AcDbLine
 10
8006.325830023016
 20
7612.012512816645
 30
0.0
 11
8013.825830023021
 21
7635.012512816564
 31
0.0
  0
LINE
  5
17C0A
330
747D
100
AcDbEntity
  8
細線
100
AcDbLine
 10
8066.325830023016
 20
7612.012512816633
 30
0.0
 11
8058.825830023021
 21
7635.012512816564
 31
0.0
  0
ARC
  5
17C0B
330
747D
100
AcDbEntity
  8
細線
100
AcDbCircle
 10
8036.325836522989
 20
7637.512512816535
 30
0.0
 40
6.0
100
AcDbArc
 50
204.6243183521304
 51
335.3756816478695
  0
LINE
  5
17C0C
330
747D
100
AcDbEntity
  8
細線
100
AcDbLine
 10
8215.325830023097
 20
7669.01251281655
 30
0.0
 11
8215.325830023099
 21
7676.012512816552
 31
0.0
  0
ARC
  5
17C0D
330
747D
100
AcDbEntity
  8
細線
100
AcDbCircle
 10
8228.325830023107
 20
7645.312512816549
 30
0.0
 40
2.0
100
AcDbArc
 50
180.0
 51
270.0
  0
LINE
  5
17C0E
330
747D
100
AcDbEntity
  8
細線
100
AcDbLine
 10
8226.325830023107
 20
7645.312512816549
 30
0.0
 11
8226.325830023107
 21
7646.01251281655
 31
0.0
  0
LINE
  5
17C0F
330
747D
100
AcDbEntity
  8
細線
100
AcDbLine
 10
8228.325830023107
 20
7643.312512816549
 30
0.0
 11
8230.325830023106
 21
7643.312512816549
 31
0.0
  0
ARC
  5
17C10
330
747D
100
AcDbEntity
  8
細線
100
AcDbCircle
 10
8230.325830023106
 20
7645.312512816549
 30
0.0
 40
2.0
100
AcDbArc
 50
270.0
 51
0.0
  0
LINE
  5
17C11
330
747D
100
AcDbEntity
  8
細線
100
AcDbLine
 10
8232.325830023105
 20
7645.312512816549
 30
0.0
 11
8232.325830023105
 21
7646.01251281655
 31
0.0
  0
LINE
  5
17C12
330
747D
100
AcDbEntity
  8
細線
100
AcDbLine
 10
8226.325830023082
 20
7646.01251281655
 30
0.0
 11
8220.325830023082
 21
7646.01251281655
 31
0.0
  0
LINE
  5
17C13
330
747D
100
AcDbEntity
  8
細線
100
AcDbLine
 10
8226.325830023101
 20
7635.012512816555
 30
0.0
 11
8226.325830023103
 21
7642.012512816553
 31
0.0
  0
LINE
  5
17C14
330
747D
100
AcDbEntity
  8
細線
100
AcDbLine
 10
8241.325830023106
 20
7642.012512816558
 30
0.0
 11
8226.325830023103
 21
7642.012512816553
 31
0.0
  0
LINE
  5
17C15
330
747D
100
AcDbEntity
  8
細線
100
AcDbLine
 10
8241.325830023098
 20
7612.012512816557
 30
0.0
 11
8241.325830023106
 21
7642.012512816558
 31
0.0
  0
LINE
  5
17C16
330
747D
100
AcDbEntity
  8
細線
100
AcDbLine
 10
8200.325830023093
 20
7642.012512816542
 30
0.0
 11
8200.325830023102
 21
7676.01251281655
 31
0.0
  0
LINE
  5
17C17
330
747D
100
AcDbEntity
  8
細線
100
AcDbLine
 10
8220.325830023082
 20
7642.012512816542
 30
0.0
 11
8200.325830023093
 21
7642.012512816542
 31
0.0
  0
LINE
  5
17C18
330
747D
100
AcDbEntity
  8
細線
100
AcDbLine
 10
8220.325830023082
 20
7642.012512816542
 30
0.0
 11
8220.325830023082
 21
7646.012512816544
 31
0.0
  0
LINE
  5
17C19
330
747D
100
AcDbEntity
  8
細線
100
AcDbLine
 10
8302.825830023103
 20
7646.012512816547
 30
0.0
 11
8232.325830023105
 21
7646.01251281655
 31
0.0
  0
LINE
  5
17C1A
330
747D
100
AcDbEntity
  8
細線
100
AcDbLine
 10
8442.825830023091
 20
7646.012512816547
 30
0.0
 11
8372.825830023078
 21
7646.012512816547
 31
0.0
  0
LINE
  5
17C1B
330
747D
100
AcDbEntity
  8
細線
100
AcDbLine
 10
8582.825830023081
 20
7646.012512816544
 30
0.0
 11
8512.825830023087
 21
7646.012512816544
 31
0.0
  0
LINE
  5
17C1C
330
747D
100
AcDbEntity
  8
細線
100
AcDbLine
 10
8845.325830023082
 20
7682.012512816543
 30
0.0
 11
8746.325830023101
 21
7682.012512816545
 31
0.0
  0
LINE
  5
17C1D
330
747D
100
AcDbEntity
  8
細線
100
AcDbLine
 10
8845.325830023076
 20
7682.012512816534
 30
0.0
 11
8847.657368313845
 21
7687.01251281652
 31
0.0
  0
LINE
  5
17C1E
330
747D
100
AcDbEntity
  8
細線
100
AcDbLine
 10
8652.825830023092
 20
7646.012512816558
 30
0.0
 11
8650.494291732325
 21
7651.012512816544
 31
0.0
  0
LINE
  5
17C1F
330
747D
100
AcDbEntity
  8
細線
100
AcDbLine
 10
8650.494291732325
 20
7651.012512816544
 30
0.0
 11
8585.157368313852
 21
7651.012512816534
 31
0.0
  0
LINE
  5
17C20
330
747D
100
AcDbEntity
  8
細線
100
AcDbLine
 10
8582.825830023097
 20
7646.012512816577
 30
0.0
 11
8585.157368313865
 21
7651.012512816563
 31
0.0
  0
LINE
  5
17C21
330
747D
100
AcDbEntity
  8
細線
100
AcDbLine
 10
8510.494291732324
 20
7651.012512816524
 30
0.0
 11
8445.157368313848
 21
7651.012512816514
 31
0.0
  0
LINE
  5
17C22
330
747D
100
AcDbEntity
  8
細線
100
AcDbLine
 10
8512.825830023089
 20
7646.012512816539
 30
0.0
 11
8510.494291732323
 21
7651.012512816524
 31
0.0
  0
LINE
  5
17C23
330
747D
100
AcDbEntity
  8
細線
100
AcDbLine
 10
8442.825830023094
 20
7646.012512816557
 30
0.0
 11
8445.157368313862
 21
7651.012512816542
 31
0.0
  0
LINE
  5
17C24
330
747D
100
AcDbEntity
  8
細線
100
AcDbLine
 10
8370.494291732324
 20
7651.012512816504
 30
0.0
 11
8305.157368313849
 21
7651.012512816494
 31
0.0
  0
LINE
  5
17C25
330
747D
100
AcDbEntity
  8
細線
100
AcDbLine
 10
8372.825830023092
 20
7646.012512816518
 30
0.0
 11
8370.494291732324
 21
7651.012512816504
 31
0.0
  0
LINE
  5
17C26
330
747D
100
AcDbEntity
  8
細線
100
AcDbLine
 10
8302.825830023095
 20
7646.012512816537
 30
0.0
 11
8305.157368313862
 21
7651.012512816523
 31
0.0
  0
LINE
  5
17C27
330
747D
100
AcDbEntity
  8
細線
100
AcDbLine
 10
7791.32583002309
 20
7612.012512816535
 30
0.0
 11
7793.657368313858
 21
7617.012512816521
 31
0.0
  0
LINE
  5
17C28
330
747D
100
AcDbEntity
  8
細線
100
AcDbLine
 10
7861.325830023085
 20
7612.012512816517
 30
0.0
 11
7858.994291732317
 21
7617.012512816502
 31
0.0
  0
LINE
  5
17C29
330
747D
100
AcDbEntity
  8
細線
100
AcDbLine
 10
7858.994291732319
 20
7617.012512816502
 30
0.0
 11
7793.657368313844
 21
7617.012512816493
 31
0.0
  0
LINE
  5
17C2A
330
747D
100
AcDbEntity
  8
細線
100
AcDbLine
 10
7931.32583002309
 20
7612.012512816555
 30
0.0
 11
7933.657368313856
 21
7617.012512816541
 31
0.0
  0
LINE
  5
17C2B
330
747D
100
AcDbEntity
  8
細線
100
AcDbLine
 10
8001.325830023084
 20
7612.012512816537
 30
0.0
 11
7998.994291732316
 21
7617.012512816522
 31
0.0
  0
LINE
  5
17C2C
330
747D
100
AcDbEntity
  8
細線
100
AcDbLine
 10
7998.994291732318
 20
7617.012512816522
 30
0.0
 11
7933.657368313844
 21
7617.012512816512
 31
0.0
  0
LINE
  5
17C2D
330
747D
100
AcDbEntity
  8
細線
100
AcDbLine
 10
8071.32583002309
 20
7612.012512816575
 30
0.0
 11
8073.657368313858
 21
7617.012512816561
 31
0.0
  0
LINE
  5
17C2E
330
747D
100
AcDbEntity
  8
細線
100
AcDbLine
 10
7931.325830023091
 20
7612.012512816514
 30
0.0
 11
7861.325830023091
 21
7612.012512816503
 31
0.0
  0
LINE
  5
17C2F
330
747D
100
AcDbEntity
  8
細線
100
AcDbLine
 10
8071.32583002309
 20
7612.012512816533
 30
0.0
 11
8001.325830023089
 21
7612.012512816523
 31
0.0
  0
LINE
  5
17C30
330
747D
100
AcDbEntity
  8
細線
100
AcDbLine
 10
8138.994291732318
 20
7617.012512816542
 30
0.0
 11
8073.657368313844
 21
7617.012512816533
 31
0.0
  0
LINE
  5
17C31
330
747D
100
AcDbEntity
  8
細線
100
AcDbLine
 10
8141.325830023085
 20
7612.012512816557
 30
0.0
 11
8138.994291732318
 21
7617.012512816542
 31
0.0
  0
LINE
  5
17C32
330
747D
100
AcDbEntity
  8
細線
100
AcDbLine
 10
8517.825830023118
 20
7646.012512816629
 30
0.0
 11
8525.325830023126
 21
7669.01251281655
 31
0.0
  0
LINE
  5
17C33
330
747D
100
AcDbEntity
  8
細線
100
AcDbLine
 10
8577.825830023117
 20
7646.01251281662
 30
0.0
 11
8570.325830023122
 21
7669.01251281655
 31
0.0
  0
LINE
  5
17C34
330
747D
100
AcDbEntity
  8
細線
100
AcDbLine
 10
8818.325830023082
 20
7710.012512816543
 30
0.0
 11
8803.325830023082
 21
7682.012512816547
 31
0.0
  0
LINE
  5
17C35
330
747D
100
AcDbEntity
  8
細線
100
AcDbLine
 10
8833.325830023083
 20
7710.012512816543
 30
0.0
 11
8833.325830023081
 21
7682.012512816547
 31
0.0
  0
LINE
  5
17C36
330
747D
100
AcDbEntity
  8
細線
100
AcDbLine
 10
8740.325830023099
 20
7682.012512816545
 30
0.0
 11
8734.325830023101
 21
7682.012512816545
 31
0.0
  0
LINE
  5
17C37
330
747D
100
AcDbEntity
  8
細線
100
AcDbLine
 10
8740.325830023094
 20
7669.012512816543
 30
0.0
 11
8740.325830023095
 21
7676.012512816541
 31
0.0
  0
LINE
  5
17C38
330
747D
100
AcDbEntity
  8
細線
100
AcDbLine
 10
8755.3258300231
 20
7676.012512816544
 30
0.0
 11
8740.325830023095
 21
7676.012512816541
 31
0.0
  0
LINE
  5
17C39
330
747D
100
AcDbEntity
  8
細線
100
AcDbLine
 10
8755.3258300231
 20
7646.012512816544
 30
0.0
 11
8755.325830023107
 21
7676.012512816543
 31
0.0
  0
LINE
  5
17C3A
330
747D
100
AcDbEntity
  8
細線
100
AcDbLine
 10
8714.325830023099
 20
7674.012512816545
 30
0.0
 11
8714.325830023099
 21
7710.012512816541
 31
0.0
  0
LINE
  5
17C3B
330
747D
100
AcDbEntity
  8
細線
100
AcDbLine
 10
8734.325830023101
 20
7674.012512816545
 30
0.0
 11
8714.325830023099
 21
7674.012512816545
 31
0.0
  0
LINE
  5
17C3C
330
747D
100
AcDbEntity
  8
細線
100
AcDbLine
 10
8734.325830023101
 20
7674.012512816545
 30
0.0
 11
8734.325830023101
 21
7682.012512816545
 31
0.0
  0
LINE
  5
17C3D
330
747D
100
AcDbEntity
  8
細線
100
AcDbLine
 10
8241.325830023098
 20
7612.012512816557
 30
0.0
 11
8141.32583002309
 21
7612.012512816543
 31
0.0
  0
LINE
  5
17C3E
330
747D
100
AcDbEntity
  8
細線
100
AcDbLine
 10
8740.325830023092
 20
7669.012512816545
 30
0.0
 11
8215.325830023097
 21
7669.012512816552
 31
0.0
  0
LINE
  5
17C3F
330
747D
100
AcDbEntity
  8
細線
100
AcDbLine
 10
8755.3258300231
 20
7646.012512816544
 30
0.0
 11
8652.825830023099
 21
7646.012512816544
 31
0.0
  0
LINE
  5
17C40
330
747D
100
AcDbEntity
  8
細線
 48
50.0
100
AcDbLine
 10
9256.325830023081
 20
7625.012512816545
 30
0.0
 11
8241.325830023095
 21
7625.012512816546
 31
0.0
  0
LINE
  5
17C41
330
747D
100
AcDbEntity
  8
細線
100
AcDbLine
 10
8226.325830023096
 20
7635.012512816555
 30
0.0
 11
7601.325830023096
 21
7635.01251281646
 31
0.0
  0
LINE
  5
17C42
330
747D
100
AcDbEntity
  8
細線
 48
50.0
100
AcDbLine
 10
8200.325830023087
 20
7659.012512816534
 30
0.0
 11
7586.325830023096
 21
7659.01251281643
 31
0.0
  0
ARC
  5
17C43
330
747D
100
AcDbEntity
  8
部品1
 48
0.01
100
AcDbCircle
 10
7746.82583002309
 20
7611.012512816485
 30
0.0
 40
0.5
100
AcDbArc
 50
270.0
 51
0.0
  0
LINE
  5
17C44
330
747D
100
AcDbEntity
  8
部品1
 48
0.01
100
AcDbLine
 10
7747.32583002309
 20
7612.012512816484
 30
0.0
 11
7747.32583002309
 21
7611.012512816485
 31
0.0
  0
LINE
  5
17C45
330
747D
100
AcDbEntity
  8
部品1
 48
0.01
100
AcDbLine
 10
7747.32583002309
 20
7612.012512816484
 30
0.0
 11
7747.32583002309
 21
7611.012512816485
 31
0.0
  0
LINE
  5
17C46
330
747D
100
AcDbEntity
  8
部品1
 48
0.01
100
AcDbLine
 10
7746.82583002309
 20
7610.512512816484
 30
0.0
 11
7740.213324593027
 21
7610.512512816484
 31
0.0
  0
ARC
  5
17C47
330
747D
100
AcDbEntity
  8
部品1
100
AcDbCircle
 10
7740.281674145805
 20
7611.512512816485
 30
0.0
 40
1.0
100
AcDbArc
 50
160.5287793655778
 51
270.0
  0
ARC
  5
17C48
330
747D
100
AcDbEntity
  8
部品1
100
AcDbCircle
 10
7714.825830023091
 20
7620.512512816485
 30
0.0
 40
26.0
100
AcDbArc
 50
340.5287793655779
 51
0.0
  0
LINE
  5
17C49
330
747D
100
AcDbEntity
  8
部品1
100
AcDbLine
 10
7740.82583002309
 20
7620.512512816485
 30
0.0
 11
7740.82583002309
 21
7625.512512816484
 31
0.0
  0
ARC
  5
17C4A
330
747D
100
AcDbEntity
  8
部品1
 48
0.01
100
AcDbCircle
 10
7738.82583002309
 20
7625.512512816484
 30
0.0
 40
2.0
100
AcDbArc
 50
0.0
 51
90.0
  0
ARC
  5
17C4B
330
747D
100
AcDbEntity
  8
部品1
100
AcDbCircle
 10
7737.217438398278
 20
7624.512512816484
 30
0.0
 40
3.0
100
AcDbArc
 50
90.0
 51
141.6069559807873
  0
LINE
  5
17C4C
330
747D
100
AcDbEntity
  8
部品1
 48
0.01
100
AcDbLine
 10
7738.82583002309
 20
7627.512512816484
 30
0.0
 11
7737.217438398278
 21
7627.512512816484
 31
0.0
  0
ARC
  5
17C4D
330
747D
100
AcDbEntity
  8
部品1
100
AcDbCircle
 10
7718.755115808818
 20
7623.812512816484
 30
0.0
 40
3.0
100
AcDbArc
 50
254.0576313943859
 51
270.0
  0
ARC
  5
17C4E
330
747D
100
AcDbEntity
  8
部品1
100
AcDbCircle
 10
7725.896544237361
 20
7623.812512816484
 30
0.0
 40
3.0
100
AcDbArc
 50
270.0
 51
285.9423686056142
  0
LINE
  5
17C4F
330
747D
100
AcDbEntity
  8
部品1
100
AcDbLine
 10
7725.896544237361
 20
7620.812512816484
 30
0.0
 11
7718.755115808818
 21
7620.812512816484
 31
0.0
  0
ARC
  5
17C50
330
747D
100
AcDbEntity
  8
部品1
100
AcDbCircle
 10
7722.325830023089
 20
7636.312512816484
 30
0.0
 40
16.0
100
AcDbArc
 50
285.9423686056142
 51
321.6069559807873
  0
LINE
  5
17C51
330
747D
100
AcDbEntity
  8
部品1
 48
0.01
100
AcDbLine
 10
7705.825830023091
 20
7627.512512816484
 30
0.0
 11
7707.434221647902
 21
7627.512512816484
 31
0.0
  0
ARC
  5
17C52
330
747D
100
AcDbEntity
  8
部品1
100
AcDbCircle
 10
7707.434221647902
 20
7624.512512816484
 30
0.0
 40
3.0
100
AcDbArc
 50
38.39304401921267
 51
90.0
  0
ARC
  5
17C53
330
747D
100
AcDbEntity
  8
部品1
100
AcDbCircle
 10
7722.325830023089
 20
7636.312512816484
 30
0.0
 40
16.0
100
AcDbArc
 50
218.3930440192126
 51
254.0576313943859
  0
LINE
  5
17C54
330
747D
100
AcDbEntity
  8
部品1
100
AcDbLine
 10
7703.825830023091
 20
7620.512512816485
 30
0.0
 11
7703.825830023091
 21
7625.512512816484
 31
0.0
  0
ARC
  5
17C55
330
747D
100
AcDbEntity
  8
部品1
 48
0.01
100
AcDbCircle
 10
7705.825830023091
 20
7625.512512816484
 30
0.0
 40
2.0
100
AcDbArc
 50
90.0
 51
180.0
  0
ARC
  5
17C56
330
747D
100
AcDbEntity
  8
部品1
100
AcDbCircle
 10
7729.82583002309
 20
7620.512512816485
 30
0.0
 40
26.0
100
AcDbArc
 50
180.0
 51
199.4712206344221
  0
ARC
  5
17C57
330
747D
100
AcDbEntity
  8
部品1
 48
0.01
100
AcDbCircle
 10
7697.825830023091
 20
7611.012512816485
 30
0.0
 40
0.5
100
AcDbArc
 50
180.0
 51
270.0
  0
LINE
  5
17C58
330
747D
100
AcDbEntity
  8
部品1
 48
0.01
100
AcDbLine
 10
7697.825830023091
 20
7610.512512816484
 30
0.0
 11
7704.369985900374
 21
7610.512512816484
 31
0.0
  0
LINE
  5
17C59
330
747D
100
AcDbEntity
  8
部品1
 48
0.01
100
AcDbLine
 10
7697.325830023089
 20
7612.012512816484
 30
0.0
 11
7697.325830023089
 21
7611.012512816485
 31
0.0
  0
ARC
  5
17C5A
330
747D
100
AcDbEntity
  8
部品1
100
AcDbCircle
 10
7704.369985900374
 20
7611.512512816485
 30
0.0
 40
1.0
100
AcDbArc
 50
270.0
 51
19.47122063442214
  0
LINE
  5
17C5B
330
747D
100
AcDbEntity
  8
細線
100
AcDbLine
 10
7742.825830023097
 20
7630.012512816485
 30
0.0
 11
7701.825830023096
 21
7630.012512816481
 31
0.0
  0
LINE
  5
17C5C
330
747D
100
AcDbEntity
  8
細線
100
AcDbLine
 10
7701.825830023096
 20
7630.012512816481
 30
0.0
 11
7701.825830023096
 21
7612.012512816463
 31
0.0
  0
LINE
  5
17C5D
330
747D
100
AcDbEntity
  8
細線
100
AcDbLine
 10
7742.825830023097
 20
7630.012512816485
 30
0.0
 11
7742.825830023097
 21
7612.012512816463
 31
0.0
  0
LINE
  5
17C5E
330
747D
100
AcDbEntity
  8
細線
100
AcDbLine
 10
7791.32583002309
 20
7612.012512816491
 30
0.0
 11
7577.313523374046
 21
7612.012512816462
 31
0.0
  0
LINE
  5
17C5F
330
747D
100
AcDbEntity
  8
細線
100
AcDbLine
 10
7586.325830023096
 20
7616.012512816412
 30
0.0
 11
7586.325830023096
 21
7612.012512816463
 31
0.0
  0
LINE
  5
17C60
330
747D
100
AcDbEntity
  8
細線
100
AcDbLine
 10
7601.325830023096
 20
7642.012512816461
 30
0.0
 11
7586.325830023096
 21
7642.012512816461
 31
0.0
  0
LINE
  5
17C61
330
747D
100
AcDbEntity
  8
細線
100
AcDbLine
 10
7601.325830023096
 20
7642.012512816461
 30
0.0
 11
7601.325830023096
 21
7635.01251281646
 31
0.0
  0
LINE
  5
17C62
330
747D
100
AcDbEntity
  8
細線
 48
50.0
100
AcDbLine
 10
9256.325830023081
 20
7659.012512816548
 30
0.0
 11
8755.325830023103
 21
7659.012512816549
 31
0.0
  0
LINE
  5
17C63
330
747D
100
AcDbEntity
  8
細線
100
AcDbLine
 10
9125.325830023067
 20
7682.012512816543
 30
0.0
 11
9055.325830023067
 21
7682.012512816543
 31
0.0
  0
LINE
  5
17C64
330
747D
100
AcDbEntity
  8
細線
100
AcDbLine
 10
9125.325830023079
 20
7682.012512816574
 30
0.0
 11
9127.657368313846
 21
7687.01251281656
 31
0.0
  0
LINE
  5
17C65
330
747D
100
AcDbEntity
  8
細線
100
AcDbLine
 10
9192.994291732306
 20
7687.012512816541
 30
0.0
 11
9127.657368313833
 21
7687.012512816529
 31
0.0
  0
LINE
  5
17C66
330
747D
100
AcDbEntity
  8
細線
100
AcDbLine
 10
8985.325830023072
 20
7682.012512816543
 30
0.0
 11
8915.325830023061
 21
7682.012512816543
 31
0.0
  0
LINE
  5
17C67
330
747D
100
AcDbEntity
  8
細線
100
AcDbLine
 10
8985.325830023077
 20
7682.012512816554
 30
0.0
 11
8987.657368313845
 21
7687.01251281654
 31
0.0
  0
LINE
  5
17C68
330
747D
100
AcDbEntity
  8
細線
100
AcDbLine
 10
9055.325830023072
 20
7682.012512816536
 30
0.0
 11
9052.994291732304
 21
7687.012512816521
 31
0.0
  0
LINE
  5
17C69
330
747D
100
AcDbEntity
  8
細線
100
AcDbLine
 10
9052.994291732305
 20
7687.012512816521
 30
0.0
 11
8987.657368313831
 21
7687.01251281651
 31
0.0
  0
LINE
  5
17C6A
330
747D
100
AcDbEntity
  8
細線
100
AcDbLine
 10
9195.325830023074
 20
7682.012512816555
 30
0.0
 11
9192.994291732306
 21
7687.012512816541
 31
0.0
  0
LINE
  5
17C6B
330
747D
100
AcDbEntity
  8
細線
 48
50.0
100
AcDbLine
 10
9254.325830023082
 20
7664.01251281654
 30
0.0
 11
9256.325830023081
 21
7664.01251281654
 31
0.0
  0
LINE
  5
17C6C
330
747D
100
AcDbEntity
  8
細線
100
AcDbLine
 10
9254.325830023082
 20
7664.01251281654
 30
0.0
 11
9254.325830023082
 21
7682.012512816541
 31
0.0
  0
LINE
  5
17C6D
330
747D
100
AcDbEntity
  8
細線
100
AcDbLine
 10
9254.325830023082
 20
7682.012512816543
 30
0.0
 11
9195.325830023078
 21
7682.012512816543
 31
0.0
  0
LINE
  5
17C6E
330
747D
100
AcDbEntity
  8
細線
100
AcDbLine
 10
9288.325830023081
 20
7710.012512816539
 30
0.0
 11
8714.325830023099
 21
7710.012512816544
 31
0.0
  0
MTEXT
  5
17C84
330
747D
100
AcDbEntity
  8
寸法
 62
     7
 48
50.0
100
AcDbMText
 10
5294.041028095738
 20
8563.418781783441
 30
0.0
 40
96.0
 41
0.0
 71
     5
 72
     1
  1
棚 2段
  7
STYLE1
 73
     1
 44
1.0
1001
ACAD
1000
MTEXTBEGIN
1070
    73
1070
     1
1070
    44
1040
1.0
1070
    74
1070
     0
1000
MTEXTEND
  0
MTEXT
  5
17C85
330
747D
100
AcDbEntity
  8
寸法
 62
     7
 48
50.0
100
AcDbMText
 10
4414.041028095738
 20
8563.418781783395
 30
0.0
 40
96.0
 41
0.0
 71
     5
 72
     1
  1
棚 2段
  7
STYLE1
 73
     1
 44
1.0
1001
ACAD
1000
MTEXTBEGIN
1070
    73
1070
     1
1070
    44
1040
1.0
1070
    74
1070
     0
1000
MTEXTEND
  0
MTEXT
  5
17C86
330
747D
100
AcDbEntity
  8
寸法
 62
     7
 48
50.0
100
AcDbMText
 10
7084.041028095755
 20
8563.418781783465
 30
0.0
 40
96.0
 41
0.0
 71
     5
 72
     1
  1
棚 2段
  7
STYLE1
 73
     1
 44
1.0
1001
ACAD
1000
MTEXTBEGIN
1070
    73
1070
     1
1070
    44
1040
1.0
1070
    74
1070
     0
1000
MTEXTEND
  0
MTEXT
  5
17C87
330
747D
100
AcDbEntity
  8
寸法
 62
     7
 48
50.0
100
AcDbMText
 10
6204.041028095756
 20
8563.418781783418
 30
0.0
 40
96.0
 41
0.0
 71
     5
 72
     1
  1
棚 2段
  7
STYLE1
 73
     1
 44
1.0
1001
ACAD
1000
MTEXTBEGIN
1070
    73
1070
     1
1070
    44
1040
1.0
1070
    74
1070
     0
1000
MTEXTEND
  0
MTEXT
  5
17C88
330
747D
100
AcDbEntity
  8
寸法
 62
     7
 48
50.0
100
AcDbMText
 10
8874.041028095739
 20
8563.418781783628
 30
0.0
 40
96.0
 41
0.0
 71
     5
 72
     1
  1
棚 2段
  7
STYLE1
 73
     1
 44
1.0
1001
ACAD
1000
MTEXTBEGIN
1070
    73
1070
     1
1070
    44
1040
1.0
1070
    74
1070
     0
1000
MTEXTEND
  0
MTEXT
  5
17C89
330
747D
100
AcDbEntity
  8
寸法
 62
     7
 48
50.0
100
AcDbMText
 10
7994.04102809574
 20
8563.418781783582
 30
0.0
 40
96.0
 41
0.0
 71
     5
 72
     1
  1
棚 2段
  7
STYLE1
 73
     1
 44
1.0
1001
ACAD
1000
MTEXTBEGIN
1070
    73
1070
     1
1070
    44
1040
1.0
1070
    74
1070
     0
1000
MTEXTEND
  0
DIMENSION
  5
17EBB
330
747D
100
AcDbEntity
  8
寸法
 48
50.0
100
AcDbDimension
  2
*D31
 10
9366.325830023113
 20
5589.916593540027
 30
0.0
 11
6631.325830023104
 21
5589.916593540027
 31
0.0
 70
   160
  1
N x 1790 +100
 71
     5
 42
5470.000000000004
  3
INABA_S40G
100
AcDbAlignedDimension
 13
3896.325830023108
 23
5154.418029843938
 33
0.0
 14
9366.325830023113
 24
5154.418029843934
 34
0.0
100
AcDbRotatedDimension
  0
DIMENSION
  5
17EBC
330
747D
100
AcDbEntity
  8
寸法
 48
50.0
100
AcDbDimension
  2
*D30
 10
3946.325830023108
 20
5366.959615102178
 30
0.0
 11
6631.32583002311
 21
5366.959615102178
 31
0.0
 70
   160
  1
柱外寸法 N x 1790
 71
     5
 42
5370.000000000004
  3
INABA_S40G
100
AcDbAlignedDimension
 13
9316.325830023112
 23
5154.418029843935
 33
0.0
 14
3946.325830023108
 24
5154.418029843941
 34
0.0
100
AcDbRotatedDimension
  0
DIMENSION
  5
17EBD
330
747D
100
AcDbEntity
  8
寸法
 48
50.0
100
AcDbDimension
  2
*D32
 10
3896.325830023108
 20
5366.959615102178
 30
0.0
 11
3582.840548648861
 21
5366.959615102178
 31
0.0
 70
   160
 71
     5
 42
50.0
  3
INABA_S40G
100
AcDbAlignedDimension
 13
3946.325830023108
 23
5154.418029843941
 33
0.0
 14
3896.325830023108
 24
5154.418029843938
 34
0.0
100
AcDbRotatedDimension
1001
ACAD
1000
DSTYLE
1002
{
1002
}
  0
LINE
  5
17EBE
330
747D
100
AcDbEntity
  8
細線
 48
50.0
100
AcDbLine
 10
3929.325830023108
 20
5154.418029843938
 30
0.0
 11
3929.325830023108
 21
5013.418029843936
 31
0.0
  0
ARC
  5
17EBF
330
747D
100
AcDbEntity
  8
部品1
100
AcDbCircle
 10
3903.734251129534
 20
5147.418029843938
 30
0.0
 40
7.0
100
AcDbArc
 50
90.0
 51
183.2473427903377
  0
ARC
  5
17EC0
330
747D
100
AcDbEntity
  8
部品1
100
AcDbCircle
 10
3916.949574590571
 20
5020.41802984394
 30
0.0
 40
7.0
100
AcDbArc
 50
183.2473427903377
 51
270.0
  0
ARC
  5
17EC1
330
747D
100
AcDbEntity
  8
部品1
 48
50.0
100
AcDbCircle
 10
3898.577764379899
 20
5127.085029005625
 30
0.0
 40
0.7
100
AcDbArc
 50
183.2473427903897
 51
262.3418727924265
  0
ARC
  5
17EC2
330
747D
100
AcDbEntity
  8
部品1
 48
50.0
100
AcDbCircle
 10
3906.813794904736
 20
5034.885029005621
 30
0.0
 40
0.7
100
AcDbArc
 50
183.2473427902856
 51
262.3418727924265
  0
ARC
  5
17EC3
330
747D
100
AcDbEntity
  8
部品1
 48
50.0
100
AcDbCircle
 10
3906.320725796175
 20
5031.218029843937
 30
0.0
 40
3.0
100
AcDbArc
 50
3.247342790337682
 51
82.34187279284659
  0
ARC
  5
17EC4
330
747D
100
AcDbEntity
  8
部品1
 48
50.0
100
AcDbCircle
 10
3898.084695271331
 20
5123.418029843938
 30
0.0
 40
3.0
100
AcDbArc
 50
3.247342790337682
 51
82.34187279284659
  0
LINE
  5
17EC5
330
747D
100
AcDbEntity
  8
部品1
100
AcDbLine
 10
3901.079878167517
 20
5123.587969299041
 30
0.0
 11
3906.114918895625
 21
5034.845376466098
 31
0.0
  0
LINE
  5
17EC6
330
747D
100
AcDbEntity
  8
部品1
100
AcDbLine
 10
3909.315908692361
 20
5031.38796929904
 30
0.0
 11
3909.960814499476
 21
5020.021504448699
 31
0.0
  0
LINE
  5
17EC7
330
747D
100
AcDbEntity
  8
部品1
100
AcDbLine
 10
3896.745491038439
 20
5147.021504448697
 30
0.0
 11
3897.878888370788
 21
5127.045376466099
 31
0.0
  0
LINE
  5
17EC8
330
747D
100
AcDbEntity
  8
細線
 48
50.0
100
AcDbLine
 10
9364.167179010328
 20
5126.391272407287
 30
0.0
 11
4660.099852579058
 21
5126.391272407843
 31
0.0
  0
LINE
  5
17EC9
330
747D
100
AcDbEntity
  8
部品1
 48
50.0
100
AcDbLine
 10
9358.91740891668
 20
5154.418029843926
 30
0.0
 11
4655.157979061303
 21
5154.418029843934
 31
0.0
  0
LINE
  5
17ECA
330
747D
100
AcDbEntity
  8
細線
 48
50.0
100
AcDbLine
 10
9355.931148485518
 20
5034.191272407287
 30
0.0
 11
4676.357200200379
 21
5034.191272407843
 31
0.0
  0
LINE
  5
17ECB
330
747D
100
AcDbEntity
  8
部品1
 48
50.0
100
AcDbLine
 10
9345.702085455645
 20
5013.418029843929
 30
0.0
 11
4680.020083341196
 21
5013.418029843934
 31
0.0
  0
DIMENSION
  5
17F0F
330
747D
100
AcDbEntity
  8
寸法
 48
50.0
100
AcDbDimension
  2
*D33
 10
9316.325830023112
 20
5366.959615102175
 30
0.0
 11
9679.811111397349
 21
5366.959615102175
 31
0.0
 70
   160
 71
     5
 42
50.0
  3
INABA_S40G
100
AcDbAlignedDimension
 13
9366.325830023113
 23
5154.418029843934
 33
0.0
 14
9316.325830023112
 24
5154.418029843935
 34
0.0
100
AcDbRotatedDimension
  0
ARC
  5
17F10
330
747D
100
AcDbEntity
  8
部品1
 48
50.0
100
AcDbCircle
 10
9364.073895666324
 20
5127.085029005621
 30
0.0
 40
0.7
100
AcDbArc
 50
277.6581272075735
 51
356.7526572096103
  0
ARC
  5
17F11
330
747D
100
AcDbEntity
  8
部品1
 48
50.0
100
AcDbCircle
 10
9364.566964774885
 20
5123.418029843936
 30
0.0
 40
3.0
100
AcDbArc
 50
97.65812720715343
 51
176.7526572096623
  0
LINE
  5
17F12
330
747D
100
AcDbEntity
  8
部品1
100
AcDbLine
 10
9365.906169007777
 20
5147.021504448694
 30
0.0
 11
9364.772771675433
 21
5127.045376466094
 31
0.0
  0
ARC
  5
17F13
330
747D
100
AcDbEntity
  8
部品1
100
AcDbCircle
 10
9345.702085455645
 20
5020.418029843935
 30
0.0
 40
7.0
100
AcDbArc
 50
270.0
 51
356.7526572096623
  0
ARC
  5
17F14
330
747D
100
AcDbEntity
  8
部品1
 48
50.0
100
AcDbCircle
 10
9355.837865141481
 20
5034.885029005616
 30
0.0
 40
0.7
100
AcDbArc
 50
277.6581272075735
 51
356.7526572097143
  0
ARC
  5
17F15
330
747D
100
AcDbEntity
  8
部品1
 48
50.0
100
AcDbCircle
 10
9356.330934250042
 20
5031.218029843933
 30
0.0
 40
3.0
100
AcDbArc
 50
97.65812720715343
 51
176.7526572096623
  0
LINE
  5
17F16
330
747D
100
AcDbEntity
  8
部品1
100
AcDbLine
 10
9353.335751353856
 20
5031.387969299036
 30
0.0
 11
9352.690845546744
 21
5020.021504448695
 31
0.0
  0
LINE
  5
17F17
330
747D
100
AcDbEntity
  8
細線
 48
50.0
100
AcDbLine
 10
9333.325830023111
 20
5154.418029843934
 30
0.0
 11
9333.325830023111
 21
5013.418029843933
 31
0.0
  0
ARC
  5
17F18
330
747D
100
AcDbEntity
  8
部品1
100
AcDbCircle
 10
9358.91740891668
 20
5147.418029843933
 30
0.0
 40
7.0
100
AcDbArc
 50
356.7526572096623
 51
90.0
  0
LINE
  5
17F19
330
747D
100
AcDbEntity
  8
部品1
100
AcDbLine
 10
9361.5717818787
 20
5123.587969299037
 30
0.0
 11
9356.536741150589
 21
5034.845376466094
 31
0.0
  0
LINE
  5
17F6B
330
747D
100
AcDbEntity
  8
部品1
 48
50.0
100
AcDbLine
 10
4649.557284984626
 20
5013.418029843935
 30
0.0
 11
3916.949574590571
 21
5013.418029843936
 31
0.0
  0
LINE
  5
17F6C
330
747D
100
AcDbEntity
  8
細線
 48
50.0
100
AcDbLine
 10
4645.894401843808
 20
5034.191272407845
 30
0.0
 11
3906.720511558355
 21
5034.191272407933
 31
0.0
  0
LINE
  5
17F6D
330
747D
100
AcDbEntity
  8
細線
 48
50.0
100
AcDbLine
 10
4629.637054222487
 20
5126.391272407847
 30
0.0
 11
3898.484481033526
 21
5126.391272407934
 31
0.0
  0
LINE
  5
17F6E
330
747D
100
AcDbEntity
  8
部品1
 48
50.0
100
AcDbLine
 10
4624.695180704733
 20
5154.418029843934
 30
0.0
 11
3903.734251129534
 21
5154.418029843935
 31
0.0
  0
ARC
  5
17F6F
330
747D
100
AcDbEntity
  8
部品1
 48
0.01
100
AcDbCircle
 10
5223.325830023107
 20
4951.918029843931
 30
0.0
 40
2.0
100
AcDbArc
 50
180.0
 51
270.0
  0
ARC
  5
17F70
330
747D
100
AcDbEntity
  8
部品1
 48
0.01
100
AcDbCircle
 10
5223.325830023107
 20
4983.418029843932
 30
0.0
 40
2.0
100
AcDbArc
 50
90.0
 51
180.0
  0
ARC
  5
17F71
330
747D
100
AcDbEntity
  8
部品1
 48
0.01
100
AcDbCircle
 10
5399.325830023106
 20
4951.918029843931
 30
0.0
 40
2.0
100
AcDbArc
 50
270.0
 51
0.0
  0
ARC
  5
17F72
330
747D
100
AcDbEntity
  8
部品1
 48
0.01
100
AcDbCircle
 10
5399.325830023106
 20
4983.418029843932
 30
0.0
 40
2.0
100
AcDbArc
 50
0.0
 51
90.0
  0
LINE
  5
17F73
330
747D
100
AcDbEntity
  8
細線
100
AcDbLine
 10
5311.325830023107
 20
4955.918029843932
 30
0.0
 11
5237.325830023106
 21
4955.918029843932
 31
0.0
  0
LINE
  5
17F74
330
747D
100
AcDbEntity
  8
細線
100
AcDbLine
 10
5311.325830023107
 20
4978.918029843931
 30
0.0
 11
5385.325830023106
 21
4978.918029843931
 31
0.0
  0
LINE
  5
17F75
330
747D
100
AcDbEntity
  8
細線
100
AcDbLine
 10
5385.325830023106
 20
4955.918029843932
 30
0.0
 11
5311.325830023107
 21
4955.918029843932
 31
0.0
  0
LINE
  5
17F76
330
747D
100
AcDbEntity
  8
細線
100
AcDbLine
 10
5237.325830023106
 20
4978.918029843931
 30
0.0
 11
5311.325830023107
 21
4978.918029843931
 31
0.0
  0
LINE
  5
17F77
330
747D
100
AcDbEntity
  8
細線
100
AcDbLine
 10
5237.325830023106
 20
4955.918029843932
 30
0.0
 11
5237.325830023106
 21
4978.918029843931
 31
0.0
  0
LINE
  5
17F78
330
747D
100
AcDbEntity
  8
細線
100
AcDbLine
 10
5385.325830023106
 20
4978.918029843931
 30
0.0
 11
5385.325830023106
 21
4955.918029843932
 31
0.0
  0
LINE
  5
17F79
330
747D
100
AcDbEntity
  8
部品1
 48
0.01
100
AcDbLine
 10
5221.325830023107
 20
4951.918029843931
 30
0.0
 11
5221.325830023107
 21
4983.418029843932
 31
0.0
  0
LINE
  5
17F7A
330
747D
100
AcDbEntity
  8
部品1
 48
0.01
100
AcDbLine
 10
5399.325830023106
 20
4949.918029843932
 30
0.0
 11
5223.325830023107
 21
4949.918029843932
 31
0.0
  0
LINE
  5
17F7B
330
747D
100
AcDbEntity
  8
部品1
 48
0.01
100
AcDbLine
 10
5401.325830023107
 20
4983.418029843932
 30
0.0
 11
5401.325830023107
 21
4951.918029843931
 31
0.0
  0
LINE
  5
17F7C
330
747D
100
AcDbEntity
  8
部品1
 48
0.01
100
AcDbLine
 10
5223.325830023107
 20
4985.418029843931
 30
0.0
 11
5399.325830023106
 21
4985.418029843931
 31
0.0
  0
LINE
  5
17F7D
330
747D
100
AcDbEntity
  8
細線
100
AcDbLine
 10
5385.325830023106
 20
4972.918029843931
 30
0.0
 11
5311.325830023107
 21
4972.918029843931
 31
0.0
  0
LINE
  5
17F7E
330
747D
100
AcDbEntity
  8
細線
100
AcDbLine
 10
5385.325830023106
 20
4966.918029843931
 30
0.0
 11
5311.325830023107
 21
4966.918029843931
 31
0.0
  0
LINE
  5
17F7F
330
747D
100
AcDbEntity
  8
細線
100
AcDbLine
 10
5385.325830023106
 20
4960.918029843931
 30
0.0
 11
5311.325830023107
 21
4960.918029843931
 31
0.0
  0
LINE
  5
17F80
330
747D
100
AcDbEntity
  8
細線
100
AcDbLine
 10
5385.325830023106
 20
4972.918029843931
 30
0.0
 11
5316.325830023107
 21
4972.918029843931
 31
0.0
  0
LINE
  5
17F81
330
747D
100
AcDbEntity
  8
細線
100
AcDbLine
 10
5237.325830023106
 20
4972.918029843929
 30
0.0
 11
5311.325830023107
 21
4972.918029843931
 31
0.0
  0
LINE
  5
17F82
330
747D
100
AcDbEntity
  8
細線
100
AcDbLine
 10
5237.325830023106
 20
4960.91802984393
 30
0.0
 11
5311.325830023107
 21
4960.918029843931
 31
0.0
  0
LINE
  5
17F83
330
747D
100
AcDbEntity
  8
細線
100
AcDbLine
 10
5237.325830023106
 20
4966.918029843931
 30
0.0
 11
5311.325830023107
 21
4966.918029843931
 31
0.0
  0
LINE
  5
17F84
330
747D
100
AcDbEntity
  8
細線
100
AcDbLine
 10
5311.325830023107
 20
4978.918029843931
 30
0.0
 11
5311.325830023107
 21
4955.918029843932
 31
0.0
  0
LINE
  5
17F85
330
747D
100
AcDbEntity
  8
細線
100
AcDbLine
 10
4371.325830023106
 20
4978.918029843931
 30
0.0
 11
4371.325830023106
 21
4955.918029843932
 31
0.0
  0
LINE
  5
17F86
330
747D
100
AcDbEntity
  8
細線
100
AcDbLine
 10
4445.325830023106
 20
4966.918029843931
 30
0.0
 11
4371.325830023106
 21
4966.918029843931
 31
0.0
  0
LINE
  5
17F87
330
747D
100
AcDbEntity
  8
細線
100
AcDbLine
 10
4445.325830023106
 20
4960.91802984393
 30
0.0
 11
4371.325830023106
 21
4960.918029843931
 31
0.0
  0
LINE
  5
17F88
330
747D
100
AcDbEntity
  8
細線
100
AcDbLine
 10
4445.325830023106
 20
4972.918029843929
 30
0.0
 11
4371.325830023106
 21
4972.918029843931
 31
0.0
  0
LINE
  5
17F89
330
747D
100
AcDbEntity
  8
細線
100
AcDbLine
 10
4297.325830023106
 20
4972.918029843931
 30
0.0
 11
4366.325830023106
 21
4972.918029843931
 31
0.0
  0
LINE
  5
17F8A
330
747D
100
AcDbEntity
  8
細線
100
AcDbLine
 10
4297.325830023106
 20
4960.918029843931
 30
0.0
 11
4371.325830023106
 21
4960.918029843931
 31
0.0
  0
LINE
  5
17F8B
330
747D
100
AcDbEntity
  8
細線
100
AcDbLine
 10
4297.325830023106
 20
4966.918029843931
 30
0.0
 11
4371.325830023106
 21
4966.918029843931
 31
0.0
  0
LINE
  5
17F8C
330
747D
100
AcDbEntity
  8
細線
100
AcDbLine
 10
4297.325830023106
 20
4972.918029843931
 30
0.0
 11
4371.325830023106
 21
4972.918029843931
 31
0.0
  0
LINE
  5
17F8D
330
747D
100
AcDbEntity
  8
部品1
 48
0.01
100
AcDbLine
 10
4459.325830023106
 20
4985.418029843931
 30
0.0
 11
4283.325830023106
 21
4985.418029843931
 31
0.0
  0
LINE
  5
17F8E
330
747D
100
AcDbEntity
  8
部品1
 48
0.01
100
AcDbLine
 10
4281.325830023106
 20
4983.418029843932
 30
0.0
 11
4281.325830023106
 21
4951.918029843931
 31
0.0
  0
LINE
  5
17F8F
330
747D
100
AcDbEntity
  8
部品1
 48
0.01
100
AcDbLine
 10
4283.325830023106
 20
4949.918029843932
 30
0.0
 11
4459.325830023106
 21
4949.918029843932
 31
0.0
  0
LINE
  5
17F90
330
747D
100
AcDbEntity
  8
部品1
 48
0.01
100
AcDbLine
 10
4461.325830023106
 20
4951.918029843931
 30
0.0
 11
4461.325830023106
 21
4983.418029843932
 31
0.0
  0
LINE
  5
17F91
330
747D
100
AcDbEntity
  8
細線
100
AcDbLine
 10
4297.325830023106
 20
4978.918029843931
 30
0.0
 11
4297.325830023106
 21
4955.918029843932
 31
0.0
  0
LINE
  5
17F92
330
747D
100
AcDbEntity
  8
細線
100
AcDbLine
 10
4445.325830023106
 20
4955.918029843932
 30
0.0
 11
4445.325830023106
 21
4978.918029843931
 31
0.0
  0
LINE
  5
17F93
330
747D
100
AcDbEntity
  8
細線
100
AcDbLine
 10
4445.325830023106
 20
4978.918029843931
 30
0.0
 11
4371.325830023106
 21
4978.918029843931
 31
0.0
  0
LINE
  5
17F94
330
747D
100
AcDbEntity
  8
細線
100
AcDbLine
 10
4297.325830023106
 20
4955.918029843932
 30
0.0
 11
4371.325830023106
 21
4955.918029843932
 31
0.0
  0
LINE
  5
17F95
330
747D
100
AcDbEntity
  8
細線
100
AcDbLine
 10
4371.325830023106
 20
4978.918029843931
 30
0.0
 11
4297.325830023106
 21
4978.918029843931
 31
0.0
  0
LINE
  5
17F96
330
747D
100
AcDbEntity
  8
細線
100
AcDbLine
 10
4371.325830023106
 20
4955.918029843932
 30
0.0
 11
4445.325830023106
 21
4955.918029843932
 31
0.0
  0
ARC
  5
17F97
330
747D
100
AcDbEntity
  8
部品1
 48
0.01
100
AcDbCircle
 10
4283.325830023106
 20
4983.418029843932
 30
0.0
 40
2.0
100
AcDbArc
 50
90.0
 51
180.0
  0
ARC
  5
17F98
330
747D
100
AcDbEntity
  8
部品1
 48
0.01
100
AcDbCircle
 10
4283.325830023106
 20
4951.918029843931
 30
0.0
 40
2.0
100
AcDbArc
 50
180.0
 51
270.0
  0
ARC
  5
17F99
330
747D
100
AcDbEntity
  8
部品1
 48
0.01
100
AcDbCircle
 10
4459.325830023106
 20
4983.418029843932
 30
0.0
 40
2.0
100
AcDbArc
 50
0.0
 51
90.0
  0
ARC
  5
17F9A
330
747D
100
AcDbEntity
  8
部品1
 48
0.01
100
AcDbCircle
 10
4459.325830023106
 20
4951.918029843931
 30
0.0
 40
2.0
100
AcDbArc
 50
270.0
 51
0.0
  0
LINE
  5
17F9B
330
747D
100
AcDbEntity
  8
細線
100
AcDbLine
 10
7101.325830023107
 20
4978.918029843931
 30
0.0
 11
7101.325830023107
 21
4955.918029843932
 31
0.0
  0
LINE
  5
17F9C
330
747D
100
AcDbEntity
  8
細線
100
AcDbLine
 10
7027.325830023106
 20
4966.918029843931
 30
0.0
 11
7101.325830023107
 21
4966.918029843931
 31
0.0
  0
LINE
  5
17F9D
330
747D
100
AcDbEntity
  8
細線
100
AcDbLine
 10
7027.325830023106
 20
4960.91802984393
 30
0.0
 11
7101.325830023107
 21
4960.918029843931
 31
0.0
  0
LINE
  5
17F9E
330
747D
100
AcDbEntity
  8
細線
100
AcDbLine
 10
7027.325830023106
 20
4972.918029843929
 30
0.0
 11
7101.325830023107
 21
4972.918029843931
 31
0.0
  0
LINE
  5
17F9F
330
747D
100
AcDbEntity
  8
細線
100
AcDbLine
 10
7175.325830023107
 20
4972.918029843931
 30
0.0
 11
7106.325830023107
 21
4972.918029843931
 31
0.0
  0
LINE
  5
17FA0
330
747D
100
AcDbEntity
  8
細線
100
AcDbLine
 10
7175.325830023107
 20
4960.918029843931
 30
0.0
 11
7101.325830023107
 21
4960.918029843931
 31
0.0
  0
LINE
  5
17FA1
330
747D
100
AcDbEntity
  8
細線
100
AcDbLine
 10
7175.325830023107
 20
4966.918029843931
 30
0.0
 11
7101.325830023107
 21
4966.918029843931
 31
0.0
  0
LINE
  5
17FA2
330
747D
100
AcDbEntity
  8
細線
100
AcDbLine
 10
7175.325830023107
 20
4972.918029843931
 30
0.0
 11
7101.325830023107
 21
4972.918029843931
 31
0.0
  0
LINE
  5
17FA3
330
747D
100
AcDbEntity
  8
部品1
 48
0.01
100
AcDbLine
 10
7013.325830023106
 20
4985.418029843931
 30
0.0
 11
7189.325830023107
 21
4985.418029843931
 31
0.0
  0
LINE
  5
17FA4
330
747D
100
AcDbEntity
  8
部品1
 48
0.01
100
AcDbLine
 10
7191.325830023107
 20
4983.418029843932
 30
0.0
 11
7191.325830023107
 21
4951.918029843931
 31
0.0
  0
LINE
  5
17FA5
330
747D
100
AcDbEntity
  8
部品1
 48
0.01
100
AcDbLine
 10
7189.325830023107
 20
4949.918029843932
 30
0.0
 11
7013.325830023106
 21
4949.918029843932
 31
0.0
  0
LINE
  5
17FA6
330
747D
100
AcDbEntity
  8
部品1
 48
0.01
100
AcDbLine
 10
7011.325830023107
 20
4951.918029843931
 30
0.0
 11
7011.325830023107
 21
4983.418029843932
 31
0.0
  0
LINE
  5
17FA7
330
747D
100
AcDbEntity
  8
細線
100
AcDbLine
 10
7175.325830023107
 20
4978.918029843931
 30
0.0
 11
7175.325830023107
 21
4955.918029843932
 31
0.0
  0
LINE
  5
17FA8
330
747D
100
AcDbEntity
  8
細線
100
AcDbLine
 10
7027.325830023106
 20
4955.918029843932
 30
0.0
 11
7027.325830023106
 21
4978.918029843931
 31
0.0
  0
LINE
  5
17FA9
330
747D
100
AcDbEntity
  8
細線
100
AcDbLine
 10
7027.325830023106
 20
4978.918029843931
 30
0.0
 11
7101.325830023107
 21
4978.918029843931
 31
0.0
  0
LINE
  5
17FAA
330
747D
100
AcDbEntity
  8
細線
100
AcDbLine
 10
7175.325830023107
 20
4955.918029843932
 30
0.0
 11
7101.325830023107
 21
4955.918029843932
 31
0.0
  0
LINE
  5
17FAB
330
747D
100
AcDbEntity
  8
細線
100
AcDbLine
 10
7101.325830023107
 20
4978.918029843931
 30
0.0
 11
7175.325830023107
 21
4978.918029843931
 31
0.0
  0
LINE
  5
17FAC
330
747D
100
AcDbEntity
  8
細線
100
AcDbLine
 10
7101.325830023107
 20
4955.918029843932
 30
0.0
 11
7027.325830023106
 21
4955.918029843932
 31
0.0
  0
ARC
  5
17FAD
330
747D
100
AcDbEntity
  8
部品1
 48
0.01
100
AcDbCircle
 10
7189.325830023107
 20
4983.418029843932
 30
0.0
 40
2.0
100
AcDbArc
 50
0.0
 51
90.0
  0
ARC
  5
17FAE
330
747D
100
AcDbEntity
  8
部品1
 48
0.01
100
AcDbCircle
 10
7189.325830023107
 20
4951.918029843931
 30
0.0
 40
2.0
100
AcDbArc
 50
270.0
 51
0.0
  0
ARC
  5
17FAF
330
747D
100
AcDbEntity
  8
部品1
 48
0.01
100
AcDbCircle
 10
7013.325830023106
 20
4983.418029843932
 30
0.0
 40
2.0
100
AcDbArc
 50
90.0
 51
180.0
  0
ARC
  5
17FB0
330
747D
100
AcDbEntity
  8
部品1
 48
0.01
100
AcDbCircle
 10
7013.325830023106
 20
4951.918029843931
 30
0.0
 40
2.0
100
AcDbArc
 50
180.0
 51
270.0
  0
ARC
  5
17FB1
330
747D
100
AcDbEntity
  8
部品1
 48
0.01
100
AcDbCircle
 10
6249.325830023106
 20
4951.918029843931
 30
0.0
 40
2.0
100
AcDbArc
 50
270.0
 51
0.0
  0
ARC
  5
17FB2
330
747D
100
AcDbEntity
  8
部品1
 48
0.01
100
AcDbCircle
 10
6249.325830023106
 20
4983.418029843932
 30
0.0
 40
2.0
100
AcDbArc
 50
0.0
 51
90.0
  0
ARC
  5
17FB3
330
747D
100
AcDbEntity
  8
部品1
 48
0.01
100
AcDbCircle
 10
6073.325830023106
 20
4951.918029843931
 30
0.0
 40
2.0
100
AcDbArc
 50
180.0
 51
270.0
  0
ARC
  5
17FB4
330
747D
100
AcDbEntity
  8
部品1
 48
0.01
100
AcDbCircle
 10
6073.325830023106
 20
4983.418029843932
 30
0.0
 40
2.0
100
AcDbArc
 50
90.0
 51
180.0
  0
LINE
  5
17FB5
330
747D
100
AcDbEntity
  8
細線
100
AcDbLine
 10
6161.325830023106
 20
4955.918029843932
 30
0.0
 11
6235.325830023107
 21
4955.918029843932
 31
0.0
  0
LINE
  5
17FB6
330
747D
100
AcDbEntity
  8
細線
100
AcDbLine
 10
6161.325830023106
 20
4978.918029843931
 30
0.0
 11
6087.325830023107
 21
4978.918029843931
 31
0.0
  0
LINE
  5
17FB7
330
747D
100
AcDbEntity
  8
細線
100
AcDbLine
 10
6087.325830023107
 20
4955.918029843932
 30
0.0
 11
6161.325830023106
 21
4955.918029843932
 31
0.0
  0
LINE
  5
17FB8
330
747D
100
AcDbEntity
  8
細線
100
AcDbLine
 10
6235.325830023107
 20
4978.918029843931
 30
0.0
 11
6161.325830023106
 21
4978.918029843931
 31
0.0
  0
LINE
  5
17FB9
330
747D
100
AcDbEntity
  8
細線
100
AcDbLine
 10
6235.325830023107
 20
4955.918029843932
 30
0.0
 11
6235.325830023107
 21
4978.918029843931
 31
0.0
  0
LINE
  5
17FBA
330
747D
100
AcDbEntity
  8
細線
100
AcDbLine
 10
6087.325830023107
 20
4978.918029843931
 30
0.0
 11
6087.325830023107
 21
4955.918029843932
 31
0.0
  0
LINE
  5
17FBB
330
747D
100
AcDbEntity
  8
部品1
 48
0.01
100
AcDbLine
 10
6251.325830023106
 20
4951.918029843931
 30
0.0
 11
6251.325830023106
 21
4983.418029843932
 31
0.0
  0
LINE
  5
17FBC
330
747D
100
AcDbEntity
  8
部品1
 48
0.01
100
AcDbLine
 10
6073.325830023106
 20
4949.918029843932
 30
0.0
 11
6249.325830023106
 21
4949.918029843932
 31
0.0
  0
LINE
  5
17FBD
330
747D
100
AcDbEntity
  8
部品1
 48
0.01
100
AcDbLine
 10
6071.325830023106
 20
4983.418029843932
 30
0.0
 11
6071.325830023106
 21
4951.918029843931
 31
0.0
  0
LINE
  5
17FBE
330
747D
100
AcDbEntity
  8
部品1
 48
0.01
100
AcDbLine
 10
6249.325830023106
 20
4985.418029843931
 30
0.0
 11
6073.325830023106
 21
4985.418029843931
 31
0.0
  0
LINE
  5
17FBF
330
747D
100
AcDbEntity
  8
細線
100
AcDbLine
 10
6087.325830023107
 20
4972.918029843931
 30
0.0
 11
6161.325830023106
 21
4972.918029843931
 31
0.0
  0
LINE
  5
17FC0
330
747D
100
AcDbEntity
  8
細線
100
AcDbLine
 10
6087.325830023107
 20
4966.918029843931
 30
0.0
 11
6161.325830023106
 21
4966.918029843931
 31
0.0
  0
LINE
  5
17FC1
330
747D
100
AcDbEntity
  8
細線
100
AcDbLine
 10
6087.325830023107
 20
4960.918029843931
 30
0.0
 11
6161.325830023106
 21
4960.918029843931
 31
0.0
  0
LINE
  5
17FC2
330
747D
100
AcDbEntity
  8
細線
100
AcDbLine
 10
6087.325830023107
 20
4972.918029843931
 30
0.0
 11
6156.325830023106
 21
4972.918029843931
 31
0.0
  0
LINE
  5
17FC3
330
747D
100
AcDbEntity
  8
細線
100
AcDbLine
 10
6235.325830023107
 20
4972.918029843929
 30
0.0
 11
6161.325830023106
 21
4972.918029843931
 31
0.0
  0
LINE
  5
17FC4
330
747D
100
AcDbEntity
  8
細線
100
AcDbLine
 10
6235.325830023107
 20
4960.91802984393
 30
0.0
 11
6161.325830023106
 21
4960.918029843931
 31
0.0
  0
LINE
  5
17FC5
330
747D
100
AcDbEntity
  8
細線
100
AcDbLine
 10
6235.325830023107
 20
4966.918029843931
 30
0.0
 11
6161.325830023106
 21
4966.918029843931
 31
0.0
  0
LINE
  5
17FC6
330
747D
100
AcDbEntity
  8
細線
100
AcDbLine
 10
6161.325830023106
 20
4978.918029843931
 30
0.0
 11
6161.325830023106
 21
4955.918029843932
 31
0.0
  0
LINE
  5
17FC7
330
747D
100
AcDbEntity
  8
細線
100
AcDbLine
 10
7951.325830023107
 20
4978.918029843931
 30
0.0
 11
7951.325830023107
 21
4955.918029843932
 31
0.0
  0
LINE
  5
17FC8
330
747D
100
AcDbEntity
  8
細線
100
AcDbLine
 10
8025.325830023106
 20
4966.918029843931
 30
0.0
 11
7951.325830023107
 21
4966.918029843931
 31
0.0
  0
LINE
  5
17FC9
330
747D
100
AcDbEntity
  8
細線
100
AcDbLine
 10
8025.325830023106
 20
4960.91802984393
 30
0.0
 11
7951.325830023107
 21
4960.918029843931
 31
0.0
  0
LINE
  5
17FCA
330
747D
100
AcDbEntity
  8
細線
100
AcDbLine
 10
8025.325830023106
 20
4972.918029843929
 30
0.0
 11
7951.325830023107
 21
4972.918029843931
 31
0.0
  0
LINE
  5
17FCB
330
747D
100
AcDbEntity
  8
細線
100
AcDbLine
 10
7877.325830023107
 20
4972.918029843931
 30
0.0
 11
7946.325830023106
 21
4972.918029843931
 31
0.0
  0
LINE
  5
17FCC
330
747D
100
AcDbEntity
  8
細線
100
AcDbLine
 10
7877.325830023107
 20
4960.918029843931
 30
0.0
 11
7951.325830023107
 21
4960.918029843931
 31
0.0
  0
LINE
  5
17FCD
330
747D
100
AcDbEntity
  8
細線
100
AcDbLine
 10
7877.325830023107
 20
4966.918029843931
 30
0.0
 11
7951.325830023107
 21
4966.918029843931
 31
0.0
  0
LINE
  5
17FCE
330
747D
100
AcDbEntity
  8
細線
100
AcDbLine
 10
7877.325830023107
 20
4972.918029843931
 30
0.0
 11
7951.325830023107
 21
4972.918029843931
 31
0.0
  0
LINE
  5
17FCF
330
747D
100
AcDbEntity
  8
部品1
 48
0.01
100
AcDbLine
 10
8039.325830023107
 20
4985.418029843931
 30
0.0
 11
7863.325830023106
 21
4985.418029843931
 31
0.0
  0
LINE
  5
17FD0
330
747D
100
AcDbEntity
  8
部品1
 48
0.01
100
AcDbLine
 10
7861.325830023107
 20
4983.418029843932
 30
0.0
 11
7861.325830023107
 21
4951.918029843931
 31
0.0
  0
LINE
  5
17FD1
330
747D
100
AcDbEntity
  8
部品1
 48
0.01
100
AcDbLine
 10
7863.325830023106
 20
4949.918029843932
 30
0.0
 11
8039.325830023107
 21
4949.918029843932
 31
0.0
  0
LINE
  5
17FD2
330
747D
100
AcDbEntity
  8
部品1
 48
0.01
100
AcDbLine
 10
8041.325830023106
 20
4951.918029843931
 30
0.0
 11
8041.325830023106
 21
4983.418029843932
 31
0.0
  0
LINE
  5
17FD3
330
747D
100
AcDbEntity
  8
細線
100
AcDbLine
 10
7877.325830023107
 20
4978.918029843931
 30
0.0
 11
7877.325830023107
 21
4955.918029843932
 31
0.0
  0
LINE
  5
17FD4
330
747D
100
AcDbEntity
  8
細線
100
AcDbLine
 10
8025.325830023106
 20
4955.918029843932
 30
0.0
 11
8025.325830023106
 21
4978.918029843931
 31
0.0
  0
LINE
  5
17FD5
330
747D
100
AcDbEntity
  8
細線
100
AcDbLine
 10
8025.325830023106
 20
4978.918029843931
 30
0.0
 11
7951.325830023107
 21
4978.918029843931
 31
0.0
  0
LINE
  5
17FD6
330
747D
100
AcDbEntity
  8
細線
100
AcDbLine
 10
7877.325830023107
 20
4955.918029843932
 30
0.0
 11
7951.325830023107
 21
4955.918029843932
 31
0.0
  0
LINE
  5
17FD7
330
747D
100
AcDbEntity
  8
細線
100
AcDbLine
 10
7951.325830023107
 20
4978.918029843931
 30
0.0
 11
7877.325830023107
 21
4978.918029843931
 31
0.0
  0
LINE
  5
17FD8
330
747D
100
AcDbEntity
  8
細線
100
AcDbLine
 10
7951.325830023107
 20
4955.918029843932
 30
0.0
 11
8025.325830023106
 21
4955.918029843932
 31
0.0
  0
ARC
  5
17FD9
330
747D
100
AcDbEntity
  8
部品1
 48
0.01
100
AcDbCircle
 10
7863.325830023106
 20
4983.418029843932
 30
0.0
 40
2.0
100
AcDbArc
 50
90.0
 51
180.0
  0
ARC
  5
17FDA
330
747D
100
AcDbEntity
  8
部品1
 48
0.01
100
AcDbCircle
 10
7863.325830023106
 20
4951.918029843931
 30
0.0
 40
2.0
100
AcDbArc
 50
180.0
 51
270.0
  0
ARC
  5
17FDB
330
747D
100
AcDbEntity
  8
部品1
 48
0.01
100
AcDbCircle
 10
8039.325830023107
 20
4983.418029843932
 30
0.0
 40
2.0
100
AcDbArc
 50
0.0
 51
90.0
  0
ARC
  5
17FDC
330
747D
100
AcDbEntity
  8
部品1
 48
0.01
100
AcDbCircle
 10
8039.325830023107
 20
4951.918029843931
 30
0.0
 40
2.0
100
AcDbArc
 50
270.0
 51
0.0
  0
ARC
  5
17FDD
330
747D
100
AcDbEntity
  8
部品1
 48
0.01
100
AcDbCircle
 10
8803.325830023107
 20
4951.918029843931
 30
0.0
 40
2.0
100
AcDbArc
 50
180.0
 51
270.0
  0
ARC
  5
17FDE
330
747D
100
AcDbEntity
  8
部品1
 48
0.01
100
AcDbCircle
 10
8803.325830023107
 20
4983.418029843932
 30
0.0
 40
2.0
100
AcDbArc
 50
90.0
 51
180.0
  0
ARC
  5
17FDF
330
747D
100
AcDbEntity
  8
部品1
 48
0.01
100
AcDbCircle
 10
8979.325830023105
 20
4951.918029843931
 30
0.0
 40
2.0
100
AcDbArc
 50
270.0
 51
0.0
  0
ARC
  5
17FE0
330
747D
100
AcDbEntity
  8
部品1
 48
0.01
100
AcDbCircle
 10
8979.325830023105
 20
4983.418029843932
 30
0.0
 40
2.0
100
AcDbArc
 50
0.0
 51
90.0
  0
LINE
  5
17FE1
330
747D
100
AcDbEntity
  8
細線
100
AcDbLine
 10
8891.325830023106
 20
4955.918029843932
 30
0.0
 11
8817.325830023106
 21
4955.918029843932
 31
0.0
  0
LINE
  5
17FE2
330
747D
100
AcDbEntity
  8
細線
100
AcDbLine
 10
8891.325830023106
 20
4978.918029843931
 30
0.0
 11
8965.325830023106
 21
4978.918029843931
 31
0.0
  0
LINE
  5
17FE3
330
747D
100
AcDbEntity
  8
細線
100
AcDbLine
 10
8965.325830023106
 20
4955.918029843932
 30
0.0
 11
8891.325830023106
 21
4955.918029843932
 31
0.0
  0
LINE
  5
17FE4
330
747D
100
AcDbEntity
  8
細線
100
AcDbLine
 10
8817.325830023106
 20
4978.918029843931
 30
0.0
 11
8891.325830023106
 21
4978.918029843931
 31
0.0
  0
LINE
  5
17FE5
330
747D
100
AcDbEntity
  8
細線
100
AcDbLine
 10
8817.325830023106
 20
4955.918029843932
 30
0.0
 11
8817.325830023106
 21
4978.918029843931
 31
0.0
  0
LINE
  5
17FE6
330
747D
100
AcDbEntity
  8
細線
100
AcDbLine
 10
8965.325830023106
 20
4978.918029843931
 30
0.0
 11
8965.325830023106
 21
4955.918029843932
 31
0.0
  0
LINE
  5
17FE7
330
747D
100
AcDbEntity
  8
部品1
 48
0.01
100
AcDbLine
 10
8801.325830023108
 20
4951.918029843931
 30
0.0
 11
8801.325830023108
 21
4983.418029843932
 31
0.0
  0
LINE
  5
17FE8
330
747D
100
AcDbEntity
  8
部品1
 48
0.01
100
AcDbLine
 10
8979.325830023105
 20
4949.918029843932
 30
0.0
 11
8803.325830023107
 21
4949.918029843932
 31
0.0
  0
LINE
  5
17FE9
330
747D
100
AcDbEntity
  8
部品1
 48
0.01
100
AcDbLine
 10
8981.325830023108
 20
4983.418029843932
 30
0.0
 11
8981.325830023108
 21
4951.918029843931
 31
0.0
  0
LINE
  5
17FEA
330
747D
100
AcDbEntity
  8
部品1
 48
0.01
100
AcDbLine
 10
8803.325830023107
 20
4985.418029843931
 30
0.0
 11
8979.325830023105
 21
4985.418029843931
 31
0.0
  0
LINE
  5
17FEB
330
747D
100
AcDbEntity
  8
細線
100
AcDbLine
 10
8965.325830023106
 20
4972.918029843931
 30
0.0
 11
8891.325830023106
 21
4972.918029843931
 31
0.0
  0
LINE
  5
17FEC
330
747D
100
AcDbEntity
  8
細線
100
AcDbLine
 10
8965.325830023106
 20
4966.918029843931
 30
0.0
 11
8891.325830023106
 21
4966.918029843931
 31
0.0
  0
LINE
  5
17FED
330
747D
100
AcDbEntity
  8
細線
100
AcDbLine
 10
8965.325830023106
 20
4960.918029843931
 30
0.0
 11
8891.325830023106
 21
4960.918029843931
 31
0.0
  0
LINE
  5
17FEE
330
747D
100
AcDbEntity
  8
細線
100
AcDbLine
 10
8965.325830023106
 20
4972.918029843931
 30
0.0
 11
8896.325830023107
 21
4972.918029843931
 31
0.0
  0
LINE
  5
17FEF
330
747D
100
AcDbEntity
  8
細線
100
AcDbLine
 10
8817.325830023106
 20
4972.918029843929
 30
0.0
 11
8891.325830023106
 21
4972.918029843931
 31
0.0
  0
LINE
  5
17FF0
330
747D
100
AcDbEntity
  8
細線
100
AcDbLine
 10
8817.325830023106
 20
4960.91802984393
 30
0.0
 11
8891.325830023106
 21
4960.918029843931
 31
0.0
  0
LINE
  5
17FF1
330
747D
100
AcDbEntity
  8
細線
100
AcDbLine
 10
8817.325830023106
 20
4966.918029843931
 30
0.0
 11
8891.325830023106
 21
4966.918029843931
 31
0.0
  0
LINE
  5
17FF2
330
747D
100
AcDbEntity
  8
細線
100
AcDbLine
 10
8891.325830023106
 20
4978.918029843931
 30
0.0
 11
8891.325830023106
 21
4955.918029843932
 31
0.0
  0
LINE
  5
17FF3
330
747D
100
AcDbEntity
  8
部品1
100
AcDbLine
 10
6451.325830023106
 20
4911.418029843933
 30
0.0
 11
6451.325830023106
 21
3128.418029843941
 31
0.0
  0
LINE
  5
17FF4
330
747D
100
AcDbEntity
  8
部品1
100
AcDbLine
 10
6965.325830023106
 20
4911.418029843933
 30
0.0
 11
6965.325830023106
 21
3135.918029843946
 31
0.0
  0
LINE
  5
17FF5
330
747D
100
AcDbEntity
  8
細線
100
AcDbLine
 10
6351.325830023107
 20
4911.418029843933
 30
0.0
 11
6351.325830023107
 21
3128.418029843941
 31
0.0
  0
LINE
  5
17FF6
330
747D
100
AcDbEntity
  8
細線
100
AcDbLine
 10
6281.325830023106
 20
4911.418029843933
 30
0.0
 11
6281.325830023106
 21
3128.418029843941
 31
0.0
  0
LINE
  5
17FF7
330
747D
100
AcDbEntity
  8
細線
100
AcDbLine
 10
6211.325830023106
 20
4911.418029843933
 30
0.0
 11
6211.325830023106
 21
3128.418029843939
 31
0.0
  0
LINE
  5
17FF8
330
747D
100
AcDbEntity
  8
細線
100
AcDbLine
 10
6141.325830023106
 20
4911.418029843933
 30
0.0
 11
6141.325830023106
 21
3128.418029843937
 31
0.0
  0
LINE
  5
17FF9
330
747D
100
AcDbEntity
  8
細線
100
AcDbLine
 10
6071.325830023106
 20
4911.418029843933
 30
0.0
 11
6071.325830023106
 21
3128.418029843937
 31
0.0
  0
LINE
  5
17FFA
330
747D
100
AcDbEntity
  8
細線
100
AcDbLine
 10
6001.325830023106
 20
4911.418029843933
 30
0.0
 11
6001.325830023106
 21
3128.418029843937
 31
0.0
  0
LINE
  5
17FFB
330
747D
100
AcDbEntity
  8
部品1
100
AcDbLine
 10
5957.325830023107
 20
4911.418029843933
 30
0.0
 11
5957.325830023107
 21
3128.418029843937
 31
0.0
  0
LINE
  5
17FFC
330
747D
100
AcDbEntity
  8
部品1
100
AcDbLine
 10
5907.325830023107
 20
4911.418029843933
 30
0.0
 11
5907.325830023107
 21
3128.418029843937
 31
0.0
  0
LINE
  5
17FFD
330
747D
100
AcDbEntity
  8
細線
100
AcDbLine
 10
5949.325830023106
 20
4911.418029843933
 30
0.0
 11
5949.325830023106
 21
3128.418029843937
 31
0.0
  0
LINE
  5
17FFE
330
747D
100
AcDbEntity
  8
細線
100
AcDbLine
 10
5915.325830023107
 20
4911.418029843933
 30
0.0
 11
5915.325830023107
 21
3128.418029843937
 31
0.0
  0
LINE
  5
17FFF
330
747D
100
AcDbEntity
  8
細線
100
AcDbLine
 10
6862.825830023107
 20
4911.418029843933
 30
0.0
 11
6862.825830023107
 21
3135.918029843946
 31
0.0
  0
LINE
  5
18000
330
747D
100
AcDbEntity
  8
細線
100
AcDbLine
 10
6792.825830023106
 20
4911.418029843933
 30
0.0
 11
6792.825830023106
 21
3135.918029843946
 31
0.0
  0
LINE
  5
18001
330
747D
100
AcDbEntity
  8
細線
100
AcDbLine
 10
6722.825830023106
 20
4911.418029843933
 30
0.0
 11
6722.825830023106
 21
3135.918029843946
 31
0.0
  0
LINE
  5
18002
330
747D
100
AcDbEntity
  8
細線
100
AcDbLine
 10
6652.825830023106
 20
4911.418029843933
 30
0.0
 11
6652.825830023106
 21
3135.918029843946
 31
0.0
  0
LINE
  5
18003
330
747D
100
AcDbEntity
  8
細線
100
AcDbLine
 10
6582.825830023107
 20
4911.418029843933
 30
0.0
 11
6582.825830023107
 21
3135.918029843946
 31
0.0
  0
LINE
  5
18004
330
747D
100
AcDbEntity
  8
細線
100
AcDbLine
 10
6512.825830023107
 20
4911.418029843933
 30
0.0
 11
6512.825830023107
 21
3135.918029843946
 31
0.0
  0
LINE
  5
18005
330
747D
100
AcDbEntity
  8
細線
100
AcDbLine
 10
7405.325830023106
 20
4911.418029843933
 30
0.0
 11
7405.325830023106
 21
3135.918029843951
 31
0.0
  0
LINE
  5
18006
330
747D
100
AcDbEntity
  8
細線
100
AcDbLine
 10
7335.325830023106
 20
4911.418029843933
 30
0.0
 11
7335.325830023106
 21
3135.918029843951
 31
0.0
  0
LINE
  5
18007
330
747D
100
AcDbEntity
  8
細線
100
AcDbLine
 10
7265.325830023106
 20
4911.418029843933
 30
0.0
 11
7265.325830023106
 21
3135.918029843951
 31
0.0
  0
LINE
  5
18008
330
747D
100
AcDbEntity
  8
細線
100
AcDbLine
 10
7195.325830023107
 20
4911.418029843933
 30
0.0
 11
7195.325830023107
 21
3135.918029843951
 31
0.0
  0
LINE
  5
18009
330
747D
100
AcDbEntity
  8
細線
100
AcDbLine
 10
7125.325830023107
 20
4911.418029843933
 30
0.0
 11
7125.325830023107
 21
3135.918029843951
 31
0.0
  0
LINE
  5
1800A
330
747D
100
AcDbEntity
  8
細線
100
AcDbLine
 10
7055.325830023106
 20
4911.418029843933
 30
0.0
 11
7055.325830023106
 21
3135.918029843951
 31
0.0
  0
LINE
  5
1800E
330
747D
100
AcDbEntity
  8
部品1
 48
50.0
100
AcDbLine
 10
5831.325830023106
 20
4084.918029843942
 30
0.0
 11
5884.325830023106
 21
4084.918029843944
 31
0.0
  0
LINE
  5
18028
330
747D
100
AcDbEntity
  8
部品1
100
AcDbLine
 10
6451.325830023106
 20
3135.918029843941
 30
0.0
 11
7466.325830023106
 21
3135.918029843951
 31
0.0
  0
LINE
  5
18029
330
747D
100
AcDbEntity
  8
部品1
100
AcDbLine
 10
5796.325830023107
 20
3128.418029843935
 30
0.0
 11
6451.325830023106
 21
3128.418029843941
 31
0.0
  0
LINE
  5
1802A
330
747D
100
AcDbEntity
  8
細線
100
AcDbLine
 10
5796.325830023107
 20
4911.418029843933
 30
0.0
 11
7466.325830023106
 21
4911.418029843933
 31
0.0
  0
LINE
  5
1802B
330
747D
100
AcDbEntity
  8
部品1
100
AcDbLine
 10
8241.325830023106
 20
4911.418029843933
 30
0.0
 11
8241.325830023106
 21
3128.418029843941
 31
0.0
  0
LINE
  5
1802C
330
747D
100
AcDbEntity
  8
部品1
100
AcDbLine
 10
8755.325830023107
 20
4911.418029843933
 30
0.0
 11
8755.325830023107
 21
3135.918029843946
 31
0.0
  0
LINE
  5
1802D
330
747D
100
AcDbEntity
  8
細線
100
AcDbLine
 10
8141.325830023106
 20
4911.418029843933
 30
0.0
 11
8141.325830023106
 21
3128.418029843941
 31
0.0
  0
LINE
  5
1802E
330
747D
100
AcDbEntity
  8
細線
100
AcDbLine
 10
8071.325830023106
 20
4911.418029843933
 30
0.0
 11
8071.325830023106
 21
3128.418029843941
 31
0.0
  0
LINE
  5
1802F
330
747D
100
AcDbEntity
  8
細線
100
AcDbLine
 10
8001.325830023107
 20
4911.418029843933
 30
0.0
 11
8001.325830023107
 21
3128.418029843939
 31
0.0
  0
LINE
  5
18030
330
747D
100
AcDbEntity
  8
細線
100
AcDbLine
 10
7931.325830023107
 20
4911.418029843933
 30
0.0
 11
7931.325830023107
 21
3128.418029843937
 31
0.0
  0
LINE
  5
18031
330
747D
100
AcDbEntity
  8
細線
100
AcDbLine
 10
7861.325830023107
 20
4911.418029843933
 30
0.0
 11
7861.325830023107
 21
3128.418029843937
 31
0.0
  0
LINE
  5
18032
330
747D
100
AcDbEntity
  8
細線
100
AcDbLine
 10
7791.325830023106
 20
4911.418029843933
 30
0.0
 11
7791.325830023106
 21
3128.418029843937
 31
0.0
  0
LINE
  5
18033
330
747D
100
AcDbEntity
  8
部品1
100
AcDbLine
 10
7747.325830023107
 20
4911.418029843933
 30
0.0
 11
7747.325830023107
 21
3128.418029843937
 31
0.0
  0
LINE
  5
18034
330
747D
100
AcDbEntity
  8
部品1
100
AcDbLine
 10
7697.325830023107
 20
4911.418029843933
 30
0.0
 11
7697.325830023107
 21
3128.418029843937
 31
0.0
  0
LINE
  5
18035
330
747D
100
AcDbEntity
  8
細線
100
AcDbLine
 10
7739.325830023107
 20
4911.418029843933
 30
0.0
 11
7739.325830023107
 21
3128.418029843937
 31
0.0
  0
LINE
  5
18036
330
747D
100
AcDbEntity
  8
細線
100
AcDbLine
 10
7705.325830023106
 20
4911.418029843933
 30
0.0
 11
7705.325830023106
 21
3128.418029843937
 31
0.0
  0
LINE
  5
18037
330
747D
100
AcDbEntity
  8
細線
100
AcDbLine
 10
8652.825830023106
 20
4911.418029843933
 30
0.0
 11
8652.825830023106
 21
3135.918029843946
 31
0.0
  0
LINE
  5
18038
330
747D
100
AcDbEntity
  8
細線
100
AcDbLine
 10
8582.825830023107
 20
4911.418029843933
 30
0.0
 11
8582.825830023107
 21
3135.918029843946
 31
0.0
  0
LINE
  5
18039
330
747D
100
AcDbEntity
  8
細線
100
AcDbLine
 10
8512.825830023107
 20
4911.418029843933
 30
0.0
 11
8512.825830023107
 21
3135.918029843946
 31
0.0
  0
LINE
  5
1803A
330
747D
100
AcDbEntity
  8
細線
100
AcDbLine
 10
8442.825830023107
 20
4911.418029843933
 30
0.0
 11
8442.825830023107
 21
3135.918029843946
 31
0.0
  0
LINE
  5
1803B
330
747D
100
AcDbEntity
  8
細線
100
AcDbLine
 10
8372.825830023106
 20
4911.418029843933
 30
0.0
 11
8372.825830023106
 21
3135.918029843946
 31
0.0
  0
LINE
  5
1803C
330
747D
100
AcDbEntity
  8
細線
100
AcDbLine
 10
8302.825830023106
 20
4911.418029843933
 30
0.0
 11
8302.825830023106
 21
3135.918029843946
 31
0.0
  0
LINE
  5
1803D
330
747D
100
AcDbEntity
  8
細線
100
AcDbLine
 10
9195.325830023106
 20
4911.418029843933
 30
0.0
 11
9195.325830023106
 21
3135.918029843951
 31
0.0
  0
LINE
  5
1803E
330
747D
100
AcDbEntity
  8
細線
100
AcDbLine
 10
9125.325830023106
 20
4911.418029843933
 30
0.0
 11
9125.325830023106
 21
3135.918029843951
 31
0.0
  0
LINE
  5
1803F
330
747D
100
AcDbEntity
  8
細線
100
AcDbLine
 10
9055.325830023106
 20
4911.418029843933
 30
0.0
 11
9055.325830023106
 21
3135.918029843951
 31
0.0
  0
LINE
  5
18040
330
747D
100
AcDbEntity
  8
細線
100
AcDbLine
 10
8985.325830023105
 20
4911.418029843933
 30
0.0
 11
8985.325830023105
 21
3135.918029843951
 31
0.0
  0
LINE
  5
18041
330
747D
100
AcDbEntity
  8
細線
100
AcDbLine
 10
8915.325830023105
 20
4911.418029843933
 30
0.0
 11
8915.325830023105
 21
3135.918029843951
 31
0.0
  0
LINE
  5
18042
330
747D
100
AcDbEntity
  8
細線
100
AcDbLine
 10
8845.325830023107
 20
4911.418029843933
 30
0.0
 11
8845.325830023107
 21
3135.918029843951
 31
0.0
  0
LINE
  5
18046
330
747D
100
AcDbEntity
  8
部品1
 48
50.0
100
AcDbLine
 10
7621.325830023106
 20
4084.918029843942
 30
0.0
 11
7674.325830023106
 21
4084.918029843944
 31
0.0
  0
LINE
  5
18060
330
747D
100
AcDbEntity
  8
部品1
100
AcDbLine
 10
8241.325830023106
 20
3135.918029843941
 30
0.0
 11
9256.325830023106
 21
3135.918029843951
 31
0.0
  0
LINE
  5
18061
330
747D
100
AcDbEntity
  8
部品1
100
AcDbLine
 10
7586.325830023106
 20
3128.418029843935
 30
0.0
 11
8241.325830023106
 21
3128.418029843941
 31
0.0
  0
LINE
  5
18062
330
747D
100
AcDbEntity
  8
細線
100
AcDbLine
 10
7586.325830023106
 20
4911.418029843933
 30
0.0
 11
9256.325830023106
 21
4911.418029843933
 31
0.0
  0
LINE
  5
18063
330
747D
100
AcDbEntity
  8
部品1
100
AcDbLine
 10
4661.325830023106
 20
4911.418029843933
 30
0.0
 11
4661.325830023106
 21
4093.622113573317
 31
0.0
  0
LINE
  5
18064
330
747D
100
AcDbEntity
  8
部品1
100
AcDbLine
 10
5175.325830023107
 20
4911.418029843933
 30
0.0
 11
5175.325830023107
 21
3135.918029843946
 31
0.0
  0
LINE
  5
18065
330
747D
100
AcDbEntity
  8
細線
100
AcDbLine
 10
4561.325830023107
 20
4911.418029843933
 30
0.0
 11
4561.325830023107
 21
4046.99134775782
 31
0.0
  0
LINE
  5
18066
330
747D
100
AcDbEntity
  8
細線
100
AcDbLine
 10
4491.325830023106
 20
4911.418029843933
 30
0.0
 11
4491.325830023106
 21
3128.418029843941
 31
0.0
  0
LINE
  5
18067
330
747D
100
AcDbEntity
  8
細線
100
AcDbLine
 10
4421.325830023106
 20
4911.418029843933
 30
0.0
 11
4421.325830023106
 21
3128.418029843939
 31
0.0
  0
LINE
  5
18068
330
747D
100
AcDbEntity
  8
細線
100
AcDbLine
 10
4351.325830023106
 20
4911.418029843933
 30
0.0
 11
4351.325830023106
 21
3128.418029843937
 31
0.0
  0
LINE
  5
18069
330
747D
100
AcDbEntity
  8
細線
100
AcDbLine
 10
4281.325830023106
 20
4911.418029843933
 30
0.0
 11
4281.325830023106
 21
3128.418029843937
 31
0.0
  0
LINE
  5
1806A
330
747D
100
AcDbEntity
  8
細線
100
AcDbLine
 10
4211.325830023106
 20
4911.418029843933
 30
0.0
 11
4211.325830023106
 21
3128.418029843937
 31
0.0
  0
LINE
  5
1806B
330
747D
100
AcDbEntity
  8
部品1
100
AcDbLine
 10
4167.325830023106
 20
4911.418029843933
 30
0.0
 11
4167.325830023106
 21
3128.418029843937
 31
0.0
  0
LINE
  5
1806C
330
747D
100
AcDbEntity
  8
部品1
100
AcDbLine
 10
4117.325830023106
 20
4911.418029843933
 30
0.0
 11
4117.325830023106
 21
3128.418029843937
 31
0.0
  0
LINE
  5
1806D
330
747D
100
AcDbEntity
  8
細線
100
AcDbLine
 10
4159.325830023106
 20
4911.418029843933
 30
0.0
 11
4159.325830023106
 21
3128.418029843937
 31
0.0
  0
LINE
  5
1806E
330
747D
100
AcDbEntity
  8
細線
100
AcDbLine
 10
4125.325830023107
 20
4911.418029843933
 30
0.0
 11
4125.325830023107
 21
3128.418029843937
 31
0.0
  0
LINE
  5
1806F
330
747D
100
AcDbEntity
  8
細線
100
AcDbLine
 10
5072.825830023106
 20
4911.418029843933
 30
0.0
 11
5072.825830023106
 21
4264.702929297466
 31
0.0
  0
LINE
  5
18070
330
747D
100
AcDbEntity
  8
細線
100
AcDbLine
 10
5002.825830023106
 20
4911.418029843933
 30
0.0
 11
5002.825830023106
 21
4270.827135744281
 31
0.0
  0
LINE
  5
18071
330
747D
100
AcDbEntity
  8
細線
100
AcDbLine
 10
4932.825830023106
 20
4911.418029843933
 30
0.0
 11
4932.825830023106
 21
4276.951342191095
 31
0.0
  0
LINE
  5
18072
330
747D
100
AcDbEntity
  8
細線
100
AcDbLine
 10
4862.825830023107
 20
4911.418029843933
 30
0.0
 11
4862.825830023107
 21
4283.075548637911
 31
0.0
  0
LINE
  5
18073
330
747D
100
AcDbEntity
  8
細線
100
AcDbLine
 10
4792.825830023106
 20
4911.418029843933
 30
0.0
 11
4792.825830023106
 21
4373.664849538427
 31
0.0
  0
LINE
  5
18074
330
747D
100
AcDbEntity
  8
細線
100
AcDbLine
 10
4722.825830023106
 20
4911.418029843933
 30
0.0
 11
4722.825830023106
 21
4770.654576911662
 31
0.0
  0
LINE
  5
18075
330
747D
100
AcDbEntity
  8
細線
100
AcDbLine
 10
5615.325830023106
 20
4911.418029843933
 30
0.0
 11
5615.325830023106
 21
3135.918029843951
 31
0.0
  0
LINE
  5
18076
330
747D
100
AcDbEntity
  8
細線
100
AcDbLine
 10
5545.325830023106
 20
4911.418029843933
 30
0.0
 11
5545.325830023106
 21
3135.918029843951
 31
0.0
  0
LINE
  5
18077
330
747D
100
AcDbEntity
  8
細線
100
AcDbLine
 10
5475.325830023106
 20
4911.418029843933
 30
0.0
 11
5475.325830023106
 21
3135.918029843951
 31
0.0
  0
LINE
  5
18078
330
747D
100
AcDbEntity
  8
細線
100
AcDbLine
 10
5405.325830023106
 20
4911.418029843933
 30
0.0
 11
5405.325830023106
 21
3135.918029843951
 31
0.0
  0
LINE
  5
18079
330
747D
100
AcDbEntity
  8
細線
100
AcDbLine
 10
5335.325830023106
 20
4911.418029843933
 30
0.0
 11
5335.325830023106
 21
3135.918029843951
 31
0.0
  0
LINE
  5
1807A
330
747D
100
AcDbEntity
  8
細線
100
AcDbLine
 10
5265.325830023106
 20
4911.418029843933
 30
0.0
 11
5265.325830023106
 21
3135.918029843951
 31
0.0
  0
LINE
  5
1807E
330
747D
100
AcDbEntity
  8
部品1
 48
50.0
100
AcDbLine
 10
4041.325830023106
 20
4084.918029843942
 30
0.0
 11
4094.325830023106
 21
4084.918029843944
 31
0.0
  0
LINE
  5
18098
330
747D
100
AcDbEntity
  8
部品1
100
AcDbLine
 10
4661.325830023106
 20
3135.918029843941
 30
0.0
 11
4980.611191264767
 21
3135.918029843943
 31
0.0
  0
LINE
  5
18099
330
747D
100
AcDbEntity
  8
部品1
100
AcDbLine
 10
4006.325830023106
 20
3128.418029843935
 30
0.0
 11
4661.325830023106
 21
3128.418029843941
 31
0.0
  0
LINE
  5
1809A
330
747D
100
AcDbEntity
  8
細線
100
AcDbLine
 10
4006.325830023106
 20
4911.418029843933
 30
0.0
 11
4667.542637016889
 21
4911.418029843933
 31
0.0
  0
LINE
  5
1809B
330
747D
100
AcDbEntity
  8
部品1
100
AcDbLine
 10
5011.073989621339
 20
3135.918029843944
 30
0.0
 11
5676.325830023106
 21
3135.918029843951
 31
0.0
  0
LINE
  5
1809C
330
747D
100
AcDbEntity
  8
細線
100
AcDbLine
 10
4932.825830023106
 20
3406.922280297642
 30
0.0
 11
4932.825830023106
 21
3135.918029843946
 31
0.0
  0
LINE
  5
1809D
330
747D
100
AcDbEntity
  8
細線
100
AcDbLine
 10
4862.825830023107
 20
3803.912007670883
 30
0.0
 11
4862.825830023107
 21
3135.918029843946
 31
0.0
  0
LINE
  5
1809E
330
747D
100
AcDbEntity
  8
細線
100
AcDbLine
 10
4792.825830023106
 20
4014.451248119272
 30
0.0
 11
4792.825830023106
 21
3135.918029843946
 31
0.0
  0
LINE
  5
1809F
330
747D
100
AcDbEntity
  8
細線
100
AcDbLine
 10
4722.825830023106
 20
4020.575454566086
 30
0.0
 11
4722.825830023106
 21
3135.918029843946
 31
0.0
  0
LINE
  5
180A0
330
747D
100
AcDbEntity
  8
部品1
100
AcDbLine
 10
4661.325830023106
 20
4025.956007372929
 30
0.0
 11
4661.325830023106
 21
3128.418029843941
 31
0.0
  0
LINE
  5
180A1
330
747D
100
AcDbEntity
  8
部品1
100
AcDbLine
 10
4661.325830023106
 20
4060.520776004443
 30
0.0
 11
4661.325830023106
 21
4056.070602499228
 31
0.0
  0
LINE
  5
180A2
330
747D
100
AcDbEntity
  8
細線
100
AcDbLine
 10
4561.325830023107
 20
4034.704873725524
 30
0.0
 11
4561.325830023107
 21
3128.418029843941
 31
0.0
  0
LINE
  5
180A3
330
747D
100
AcDbEntity
  8
細線
100
AcDbLine
 10
4722.825830023106
 20
4089.198696980974
 30
0.0
 11
4722.825830023106
 21
4050.690049692388
 31
0.0
  0
LINE
  5
180A4
330
747D
100
AcDbEntity
  8
細線
100
AcDbLine
 10
4792.825830023106
 20
4121.840233051826
 30
0.0
 11
4792.825830023106
 21
4044.565843245571
 31
0.0
  0
LINE
  5
180A5
330
747D
100
AcDbEntity
  8
細線
100
AcDbLine
 10
4862.825830023107
 20
4154.481769122674
 30
0.0
 11
4862.825830023107
 21
3976.67512216519
 31
0.0
  0
LINE
  5
180A6
330
747D
100
AcDbEntity
  8
細線
100
AcDbLine
 10
4932.825830023106
 20
4187.123305193523
 30
0.0
 11
4932.825830023106
 21
3579.68539479195
 31
0.0
  0
LINE
  5
180A7
330
747D
100
AcDbEntity
  8
細線
100
AcDbLine
 10
5002.825830023106
 20
4219.764841264374
 30
0.0
 11
5002.825830023106
 21
3182.695667418708
 31
0.0
  0
LINE
  5
180A8
330
747D
100
AcDbEntity
  8
細線
100
AcDbLine
 10
5072.825830023106
 20
4252.406377335224
 30
0.0
 11
5072.825830023106
 21
3135.918029843946
 31
0.0
  0
LINE
  5
180A9
330
747D
100
AcDbEntity
  8
細線
100
AcDbLine
 10
4932.825830023106
 20
4246.836747064795
 30
0.0
 11
4932.825830023106
 21
4220.224642762401
 31
0.0
  0
LINE
  5
180AA
330
747D
100
AcDbEntity
  8
細線
100
AcDbLine
 10
4862.825830023107
 20
4252.96095351161
 30
0.0
 11
4862.825830023107
 21
4187.58310669155
 31
0.0
  0
LINE
  5
180AB
330
747D
100
AcDbEntity
  8
細線
100
AcDbLine
 10
4792.825830023106
 20
4259.085159958425
 30
0.0
 11
4792.825830023106
 21
4154.9415706207
 31
0.0
  0
LINE
  5
180AC
330
747D
100
AcDbEntity
  8
細線
100
AcDbLine
 10
4722.825830023106
 20
4597.89146241736
 30
0.0
 11
4722.825830023106
 21
4122.300034549851
 31
0.0
  0
LINE
  5
180AD
330
747D
100
AcDbEntity
  8
細線
100
AcDbLine
 10
4698.005435373459
 20
4911.418029843932
 30
0.0
 11
5676.325830023106
 21
4911.418029843933
 31
0.0
  0
LWPOLYLINE
  5
1834D
330
747D
100
AcDbEntity
  8
部品1
 48
50.0
100
AcDbPolyline
 90
        4
 70
     1
 43
0.0
 10
4066.375830023106
 20
3999.668029843944
 10
4069.275830023107
 20
3999.668029843944
 10
4069.275830023107
 20
4009.168029843944
 10
4066.375830023106
 20
4009.168029843944
  0
CIRCLE
  5
1834E
330
747D
100
AcDbEntity
  8
部品1
 48
50.0
100
AcDbCircle
 10
4067.825830023106
 20
4004.418029843943
 30
0.0
 40
9.0
  0
ARC
  5
1834F
330
747D
100
AcDbEntity
  8
細線
 48
50.0
100
AcDbCircle
 10
4067.825830023106
 20
4004.418029843943
 30
0.0
 40
4.0
100
AcDbArc
 50
111.2538091853375
 51
248.7461908146625
  0
ARC
  5
18350
330
747D
100
AcDbEntity
  8
細線
 48
50.0
100
AcDbCircle
 10
4067.825830023106
 20
4004.418029843943
 30
0.0
 40
17.5
100
AcDbArc
 50
306.4837370612677
 51
233.5162629387323
  0
LINE
  5
18351
330
747D
100
AcDbEntity
  8
細線
 48
50.0
100
AcDbLine
 10
4077.825830023103
 20
3980.55906926306
 30
0.0
 11
4077.825830023106
 21
3989.543555063302
 31
0.0
  0
LINE
  5
18352
330
747D
100
AcDbEntity
  8
細線
 48
50.0
100
AcDbLine
 10
4057.825830023106
 20
3980.559069263062
 30
0.0
 11
4057.825830023106
 21
3989.543555063298
 31
0.0
  0
ARC
  5
18353
330
747D
100
AcDbEntity
  8
細線
 48
50.0
100
AcDbCircle
 10
4067.825830023106
 20
4004.418029843943
 30
0.0
 40
26.5
100
AcDbArc
 50
249.3326835063939
 51
290.6673164933835
  0
ARC
  5
18354
330
747D
100
AcDbEntity
  8
細線
 48
50.0
100
AcDbCircle
 10
4076.825830023099
 20
3980.55906926306
 30
0.0
 40
1.0
100
AcDbArc
 50
290.6673164936062
 51
359.9999999998958
  0
ARC
  5
18355
330
747D
100
AcDbEntity
  8
細線
 48
50.0
100
AcDbCircle
 10
4058.825830023106
 20
3980.559069263062
 30
0.0
 40
1.0
100
AcDbArc
 50
180.0
 51
249.3326835066164
  0
ARC
  5
18356
330
747D
100
AcDbEntity
  8
細線
 48
50.0
100
AcDbCircle
 10
4056.825830023107
 20
3989.543555063298
 30
0.0
 40
1.0
100
AcDbArc
 50
0.0
 51
53.51626293873231
  0
ARC
  5
18357
330
747D
100
AcDbEntity
  8
細線
 48
50.0
100
AcDbCircle
 10
4078.825830023109
 20
3989.543555063302
 30
0.0
 40
1.0
100
AcDbArc
 50
126.4837370614917
 51
180.0
  0
ARC
  5
18358
330
747D
100
AcDbEntity
  8
細線
 48
50.0
100
AcDbCircle
 10
4067.825830023106
 20
4004.418029843943
 30
0.0
 40
21.5
100
AcDbArc
 50
255.8014401250294
 51
284.1985598749706
  0
ARC
  5
18359
330
747D
100
AcDbEntity
  8
細線
 48
50.0
100
AcDbCircle
 10
4067.825830023106
 20
4004.418029843943
 30
0.0
 40
16.5
100
AcDbArc
 50
251.9694646069326
 51
288.0305353930674
  0
LINE
  5
1835A
330
747D
100
AcDbEntity
  8
細線
 48
50.0
100
AcDbLine
 10
4073.325830023106
 20
3983.865657718137
 30
0.0
 11
4073.325830023106
 21
3988.443049405474
 31
0.0
  0
LINE
  5
1835B
330
747D
100
AcDbEntity
  8
細線
 48
50.0
100
AcDbLine
 10
4062.325830023106
 20
3983.865657718137
 30
0.0
 11
4062.325830023106
 21
3988.443049405471
 31
0.0
  0
ARC
  5
1835C
330
747D
100
AcDbEntity
  8
細線
 48
50.0
100
AcDbCircle
 10
4062.625830023109
 20
3988.443049405471
 30
0.0
 40
0.3
100
AcDbArc
 50
71.96946460693259
 51
180.0
  0
ARC
  5
1835D
330
747D
100
AcDbEntity
  8
細線
 48
50.0
100
AcDbCircle
 10
4073.025830023107
 20
3988.443049405474
 30
0.0
 40
0.3
100
AcDbArc
 50
0.0
 51
108.0305353930674
  0
ARC
  5
1835E
330
747D
100
AcDbEntity
  8
細線
 48
50.0
100
AcDbCircle
 10
4073.025830023103
 20
3983.865657718137
 30
0.0
 40
0.3
100
AcDbArc
 50
284.1985598747622
 51
0.0000000001042204
  0
ARC
  5
1835F
330
747D
100
AcDbEntity
  8
細線
 48
50.0
100
AcDbCircle
 10
4062.625830023109
 20
3983.865657718137
 30
0.0
 40
0.3
100
AcDbArc
 50
180.0
 51
255.8014401248081
  0
CIRCLE
  5
18360
330
747D
100
AcDbEntity
  8
細線
 48
50.0
100
AcDbCircle
 10
4067.825830023106
 20
4004.418029843943
 30
0.0
 40
12.0
  0
ARC
  5
18361
330
747D
100
AcDbEntity
  8
部品1
 48
50.0
100
AcDbCircle
 10
4067.825830023106
 20
4054.418029843943
 30
0.0
 40
8.5
100
AcDbArc
 50
114.315739171091
 51
245.684260828909
  0
CIRCLE
  5
18362
330
747D
100
AcDbEntity
  8
細線
 48
50.0
100
AcDbCircle
 10
4067.825830023106
 20
4054.418029843943
 30
0.0
 40
4.5
  0
LWPOLYLINE
  5
18363
330
747D
100
AcDbEntity
  8
部品1
 48
50.0
100
AcDbPolyline
 90
        2
 70
     0
 43
0.0
 10
4064.325830023107
 20
4073.092879240926
 10
4064.325830023107
 20
4062.163996536358
  0
CIRCLE
  5
18364
330
747D
100
AcDbEntity
  8
部品1
 48
50.0
100
AcDbCircle
 10
4067.825830023106
 20
4054.418029843943
 30
0.0
 40
19.0
  0
LWPOLYLINE
  5
18365
330
747D
100
AcDbEntity
  8
部品1
 48
50.0
100
AcDbPolyline
 90
        2
 70
     0
 43
0.0
 10
4064.325830023107
 20
4046.672063151528
 10
4064.325830023107
 20
4035.74318044696
  0
LWPOLYLINE
  5
18366
330
747D
100
AcDbEntity
  8
部品1
 48
50.0
100
AcDbPolyline
 90
        2
 70
     0
 43
0.0
 10
4071.325830023106
 20
4062.163996536358
 10
4071.325830023106
 20
4073.092879240926
  0
ARC
  5
18367
330
747D
100
AcDbEntity
  8
部品1
 48
50.0
100
AcDbCircle
 10
4067.825830023106
 20
4054.418029843943
 30
0.0
 40
8.5
100
AcDbArc
 50
294.315739171091
 51
65.68426082890896
  0
LWPOLYLINE
  5
18368
330
747D
100
AcDbEntity
  8
部品1
 48
50.0
100
AcDbPolyline
 90
        2
 70
     0
 43
0.0
 10
4071.325830023106
 20
4035.74318044696
 10
4071.325830023106
 20
4046.672063151528
  0
ARC
  5
18369
330
747D
100
AcDbEntity
  8
細線
 48
50.0
100
AcDbCircle
 10
4067.825830023106
 20
4054.418029843943
 30
0.0
 40
16.5
100
AcDbArc
 50
332.0012352654316
 51
27.99876473456844
  0
ARC
  5
1836A
330
747D
100
AcDbEntity
  8
細線
 48
50.0
100
AcDbCircle
 10
4067.825830023106
 20
4054.418029843943
 30
0.0
 40
14.0
100
AcDbArc
 50
326.4074436112843
 51
33.59255638871576
  0
LINE
  5
1836B
330
747D
100
AcDbEntity
  8
細線
 48
50.0
100
AcDbLine
 10
4053.257027738775
 20
4062.163996536358
 30
0.0
 11
4056.163926233417
 21
4062.163996536358
 31
0.0
  0
LINE
  5
1836C
330
747D
100
AcDbEntity
  8
細線
 48
50.0
100
AcDbLine
 10
4053.257027738775
 20
4046.672063151528
 30
0.0
 11
4056.163926233417
 21
4046.672063151528
 31
0.0
  0
LINE
  5
1836D
330
747D
100
AcDbEntity
  8
細線
 48
50.0
100
AcDbLine
 10
4079.487733812795
 20
4062.163996536358
 30
0.0
 11
4082.394632307441
 21
4062.163996536358
 31
0.0
  0
LINE
  5
1836E
330
747D
100
AcDbEntity
  8
細線
 48
50.0
100
AcDbLine
 10
4079.487733812795
 20
4046.672063151528
 30
0.0
 11
4082.394632307441
 21
4046.672063151528
 31
0.0
  0
ARC
  5
1836F
330
747D
100
AcDbEntity
  8
細線
 48
50.0
100
AcDbCircle
 10
4067.825830023106
 20
4054.418029843943
 30
0.0
 40
14.0
100
AcDbArc
 50
146.4074436112842
 51
213.5925563887158
  0
ARC
  5
18370
330
747D
100
AcDbEntity
  8
細線
 48
50.0
100
AcDbCircle
 10
4067.825830023106
 20
4054.418029843943
 30
0.0
 40
16.5
100
AcDbArc
 50
152.0012352654315
 51
207.9987647345685
  0
ARC
  5
18371
330
747D
100
AcDbEntity
  8
部品1
 48
50.0
100
AcDbCircle
 10
4041.325830023106
 20
4079.918029843943
 30
0.0
 40
5.0
100
AcDbArc
 50
90.0
 51
180.0
  0
ARC
  5
18372
330
747D
100
AcDbEntity
  8
部品1
 48
50.0
100
AcDbCircle
 10
4041.325830023106
 20
3968.918029843943
 30
0.0
 40
5.0
100
AcDbArc
 50
180.0
 51
270.0
  0
ARC
  5
18373
330
747D
100
AcDbEntity
  8
部品1
 48
50.0
100
AcDbCircle
 10
4094.325830023106
 20
3968.918029843943
 30
0.0
 40
5.0
100
AcDbArc
 50
270.0
 51
0.0
  0
ARC
  5
18374
330
747D
100
AcDbEntity
  8
部品1
 48
50.0
100
AcDbCircle
 10
4094.325830023106
 20
4079.918029843943
 30
0.0
 40
5.0
100
AcDbArc
 50
0.0
 51
90.0
  0
LINE
  5
18375
330
747D
100
AcDbEntity
  8
部品1
 48
50.0
100
AcDbLine
 10
4036.325830023106
 20
3968.918029843943
 30
0.0
 11
4036.325830023106
 21
4079.918029843943
 31
0.0
  0
LINE
  5
18376
330
747D
100
AcDbEntity
  8
部品1
 48
50.0
100
AcDbLine
 10
4094.325830023106
 20
3963.918029843944
 30
0.0
 11
4041.325830023106
 21
3963.918029843944
 31
0.0
  0
LINE
  5
18377
330
747D
100
AcDbEntity
  8
部品1
 48
50.0
100
AcDbLine
 10
4099.325830023106
 20
4079.918029843943
 30
0.0
 11
4099.325830023106
 21
3968.918029843943
 31
0.0
  0
LWPOLYLINE
  5
183A7
330
747D
100
AcDbEntity
  8
部品1
 48
50.0
100
AcDbPolyline
 90
        4
 70
     1
 43
0.0
 10
5856.375830023106
 20
3999.668029843944
 10
5859.275830023108
 20
3999.668029843944
 10
5859.275830023108
 20
4009.168029843944
 10
5856.375830023106
 20
4009.168029843944
  0
CIRCLE
  5
183A8
330
747D
100
AcDbEntity
  8
部品1
 48
50.0
100
AcDbCircle
 10
5857.825830023106
 20
4004.418029843943
 30
0.0
 40
9.0
  0
ARC
  5
183A9
330
747D
100
AcDbEntity
  8
細線
 48
50.0
100
AcDbCircle
 10
5857.825830023106
 20
4004.418029843943
 30
0.0
 40
4.0
100
AcDbArc
 50
111.2538091853132
 51
248.7461908146868
  0
ARC
  5
183AA
330
747D
100
AcDbEntity
  8
細線
 48
50.0
100
AcDbCircle
 10
5857.825830023106
 20
4004.418029843943
 30
0.0
 40
17.5
100
AcDbArc
 50
306.4837370612677
 51
233.5162629387323
  0
LINE
  5
183AB
330
747D
100
AcDbEntity
  8
細線
 48
50.0
100
AcDbLine
 10
5867.825830023103
 20
3980.55906926306
 30
0.0
 11
5867.825830023106
 21
3989.543555063302
 31
0.0
  0
LINE
  5
183AC
330
747D
100
AcDbEntity
  8
細線
 48
50.0
100
AcDbLine
 10
5847.825830023106
 20
3980.559069263062
 30
0.0
 11
5847.825830023106
 21
3989.543555063298
 31
0.0
  0
ARC
  5
183AD
330
747D
100
AcDbEntity
  8
細線
 48
50.0
100
AcDbCircle
 10
5857.825830023106
 20
4004.418029843943
 30
0.0
 40
26.5
100
AcDbArc
 50
249.3326835063939
 51
290.6673164933835
  0
ARC
  5
183AE
330
747D
100
AcDbEntity
  8
細線
 48
50.0
100
AcDbCircle
 10
5866.825830023099
 20
3980.55906926306
 30
0.0
 40
1.0
100
AcDbArc
 50
290.6673164936062
 51
359.9999999998958
  0
ARC
  5
183AF
330
747D
100
AcDbEntity
  8
細線
 48
50.0
100
AcDbCircle
 10
5848.825830023106
 20
3980.559069263062
 30
0.0
 40
1.0
100
AcDbArc
 50
180.0
 51
249.3326835066164
  0
ARC
  5
183B0
330
747D
100
AcDbEntity
  8
細線
 48
50.0
100
AcDbCircle
 10
5846.825830023107
 20
3989.543555063298
 30
0.0
 40
1.0
100
AcDbArc
 50
0.0
 51
53.51626293873231
  0
ARC
  5
183B1
330
747D
100
AcDbEntity
  8
細線
 48
50.0
100
AcDbCircle
 10
5868.825830023109
 20
3989.543555063302
 30
0.0
 40
1.0
100
AcDbArc
 50
126.4837370615127
 51
180.0
  0
ARC
  5
183B2
330
747D
100
AcDbEntity
  8
細線
 48
50.0
100
AcDbCircle
 10
5857.825830023106
 20
4004.418029843943
 30
0.0
 40
21.5
100
AcDbArc
 50
255.8014401250294
 51
284.1985598749706
  0
ARC
  5
183B3
330
747D
100
AcDbEntity
  8
細線
 48
50.0
100
AcDbCircle
 10
5857.825830023106
 20
4004.418029843943
 30
0.0
 40
16.5
100
AcDbArc
 50
251.9694646069326
 51
288.0305353930674
  0
LINE
  5
183B4
330
747D
100
AcDbEntity
  8
細線
 48
50.0
100
AcDbLine
 10
5863.325830023106
 20
3983.865657718137
 30
0.0
 11
5863.325830023106
 21
3988.443049405474
 31
0.0
  0
LINE
  5
183B5
330
747D
100
AcDbEntity
  8
細線
 48
50.0
100
AcDbLine
 10
5852.325830023106
 20
3983.865657718137
 30
0.0
 11
5852.325830023106
 21
3988.443049405471
 31
0.0
  0
ARC
  5
183B6
330
747D
100
AcDbEntity
  8
細線
 48
50.0
100
AcDbCircle
 10
5852.625830023109
 20
3988.443049405471
 30
0.0
 40
0.3
100
AcDbArc
 50
71.96946460693259
 51
180.0
  0
ARC
  5
183B7
330
747D
100
AcDbEntity
  8
細線
 48
50.0
100
AcDbCircle
 10
5863.025830023107
 20
3988.443049405474
 30
0.0
 40
0.3
100
AcDbArc
 50
0.0
 51
108.0305353930674
  0
ARC
  5
183B8
330
747D
100
AcDbEntity
  8
細線
 48
50.0
100
AcDbCircle
 10
5863.025830023103
 20
3983.865657718137
 30
0.0
 40
0.3
100
AcDbArc
 50
284.1985598747622
 51
0.0000000001042204
  0
ARC
  5
183B9
330
747D
100
AcDbEntity
  8
細線
 48
50.0
100
AcDbCircle
 10
5852.625830023109
 20
3983.865657718137
 30
0.0
 40
0.3
100
AcDbArc
 50
180.0
 51
255.8014401248081
  0
CIRCLE
  5
183BA
330
747D
100
AcDbEntity
  8
細線
 48
50.0
100
AcDbCircle
 10
5857.825830023106
 20
4004.418029843943
 30
0.0
 40
12.0
  0
ARC
  5
183BB
330
747D
100
AcDbEntity
  8
部品1
 48
50.0
100
AcDbCircle
 10
5857.825830023106
 20
4054.418029843943
 30
0.0
 40
8.5
100
AcDbArc
 50
114.315739171091
 51
245.684260828909
  0
CIRCLE
  5
183BC
330
747D
100
AcDbEntity
  8
細線
 48
50.0
100
AcDbCircle
 10
5857.825830023106
 20
4054.418029843943
 30
0.0
 40
4.5
  0
LWPOLYLINE
  5
183BD
330
747D
100
AcDbEntity
  8
部品1
 48
50.0
100
AcDbPolyline
 90
        2
 70
     0
 43
0.0
 10
5854.325830023107
 20
4073.092879240926
 10
5854.325830023107
 20
4062.163996536358
  0
CIRCLE
  5
183BE
330
747D
100
AcDbEntity
  8
部品1
 48
50.0
100
AcDbCircle
 10
5857.825830023106
 20
4054.418029843943
 30
0.0
 40
19.0
  0
LWPOLYLINE
  5
183BF
330
747D
100
AcDbEntity
  8
部品1
 48
50.0
100
AcDbPolyline
 90
        2
 70
     0
 43
0.0
 10
5854.325830023107
 20
4046.672063151528
 10
5854.325830023107
 20
4035.74318044696
  0
LWPOLYLINE
  5
183C0
330
747D
100
AcDbEntity
  8
部品1
 48
50.0
100
AcDbPolyline
 90
        2
 70
     0
 43
0.0
 10
5861.325830023107
 20
4062.163996536358
 10
5861.325830023107
 20
4073.092879240926
  0
ARC
  5
183C1
330
747D
100
AcDbEntity
  8
部品1
 48
50.0
100
AcDbCircle
 10
5857.825830023106
 20
4054.418029843943
 30
0.0
 40
8.5
100
AcDbArc
 50
294.315739171091
 51
65.68426082890896
  0
LWPOLYLINE
  5
183C2
330
747D
100
AcDbEntity
  8
部品1
 48
50.0
100
AcDbPolyline
 90
        2
 70
     0
 43
0.0
 10
5861.325830023107
 20
4035.74318044696
 10
5861.325830023107
 20
4046.672063151528
  0
ARC
  5
183C3
330
747D
100
AcDbEntity
  8
細線
 48
50.0
100
AcDbCircle
 10
5857.825830023106
 20
4054.418029843943
 30
0.0
 40
16.5
100
AcDbArc
 50
332.0012352654438
 51
27.99876473455621
  0
ARC
  5
183C4
330
747D
100
AcDbEntity
  8
細線
 48
50.0
100
AcDbCircle
 10
5857.825830023106
 20
4054.418029843943
 30
0.0
 40
14.0
100
AcDbArc
 50
326.4074436112986
 51
33.59255638870134
  0
LINE
  5
183C5
330
747D
100
AcDbEntity
  8
細線
 48
50.0
100
AcDbLine
 10
5843.257027738776
 20
4062.163996536358
 30
0.0
 11
5846.163926233417
 21
4062.163996536358
 31
0.0
  0
LINE
  5
183C6
330
747D
100
AcDbEntity
  8
細線
 48
50.0
100
AcDbLine
 10
5843.257027738776
 20
4046.672063151528
 30
0.0
 11
5846.163926233417
 21
4046.672063151528
 31
0.0
  0
LINE
  5
183C7
330
747D
100
AcDbEntity
  8
細線
 48
50.0
100
AcDbLine
 10
5869.487733812795
 20
4062.163996536358
 30
0.0
 11
5872.394632307441
 21
4062.163996536358
 31
0.0
  0
LINE
  5
183C8
330
747D
100
AcDbEntity
  8
細線
 48
50.0
100
AcDbLine
 10
5869.487733812795
 20
4046.672063151528
 30
0.0
 11
5872.394632307441
 21
4046.672063151528
 31
0.0
  0
ARC
  5
183C9
330
747D
100
AcDbEntity
  8
細線
 48
50.0
100
AcDbCircle
 10
5857.825830023106
 20
4054.418029843943
 30
0.0
 40
14.0
100
AcDbArc
 50
146.4074436112986
 51
213.5925563887013
  0
ARC
  5
183CA
330
747D
100
AcDbEntity
  8
細線
 48
50.0
100
AcDbCircle
 10
5857.825830023106
 20
4054.418029843943
 30
0.0
 40
16.5
100
AcDbArc
 50
152.0012352654438
 51
207.9987647345562
  0
ARC
  5
183CB
330
747D
100
AcDbEntity
  8
部品1
 48
50.0
100
AcDbCircle
 10
5831.325830023106
 20
4079.918029843943
 30
0.0
 40
5.0
100
AcDbArc
 50
90.0
 51
180.0
  0
ARC
  5
183CC
330
747D
100
AcDbEntity
  8
部品1
 48
50.0
100
AcDbCircle
 10
5831.325830023106
 20
3968.918029843943
 30
0.0
 40
5.0
100
AcDbArc
 50
180.0
 51
270.0
  0
ARC
  5
183CD
330
747D
100
AcDbEntity
  8
部品1
 48
50.0
100
AcDbCircle
 10
5884.325830023106
 20
3968.918029843943
 30
0.0
 40
5.0
100
AcDbArc
 50
270.0
 51
0.0
  0
ARC
  5
183CE
330
747D
100
AcDbEntity
  8
部品1
 48
50.0
100
AcDbCircle
 10
5884.325830023106
 20
4079.918029843943
 30
0.0
 40
5.0
100
AcDbArc
 50
0.0
 51
90.0
  0
LINE
  5
183CF
330
747D
100
AcDbEntity
  8
部品1
 48
50.0
100
AcDbLine
 10
5826.325830023106
 20
3968.918029843943
 30
0.0
 11
5826.325830023106
 21
4079.918029843943
 31
0.0
  0
LINE
  5
183D0
330
747D
100
AcDbEntity
  8
部品1
 48
50.0
100
AcDbLine
 10
5884.325830023106
 20
3963.918029843944
 30
0.0
 11
5831.325830023106
 21
3963.918029843944
 31
0.0
  0
LINE
  5
183D1
330
747D
100
AcDbEntity
  8
部品1
 48
50.0
100
AcDbLine
 10
5889.325830023107
 20
4079.918029843943
 30
0.0
 11
5889.325830023107
 21
3968.918029843943
 31
0.0
  0
LWPOLYLINE
  5
18401
330
747D
100
AcDbEntity
  8
部品1
 48
50.0
100
AcDbPolyline
 90
        4
 70
     1
 43
0.0
 10
7646.375830023107
 20
3999.668029843944
 10
7649.275830023107
 20
3999.668029843944
 10
7649.275830023107
 20
4009.168029843944
 10
7646.375830023107
 20
4009.168029843944
  0
CIRCLE
  5
18402
330
747D
100
AcDbEntity
  8
部品1
 48
50.0
100
AcDbCircle
 10
7647.825830023106
 20
4004.418029843943
 30
0.0
 40
9.0
  0
ARC
  5
18403
330
747D
100
AcDbEntity
  8
細線
 48
50.0
100
AcDbCircle
 10
7647.825830023106
 20
4004.418029843943
 30
0.0
 40
4.0
100
AcDbArc
 50
111.2538091853132
 51
248.7461908146868
  0
ARC
  5
18404
330
747D
100
AcDbEntity
  8
細線
 48
50.0
100
AcDbCircle
 10
7647.825830023106
 20
4004.418029843943
 30
0.0
 40
17.5
100
AcDbArc
 50
306.4837370612677
 51
233.5162629387323
  0
LINE
  5
18405
330
747D
100
AcDbEntity
  8
細線
 48
50.0
100
AcDbLine
 10
7657.825830023103
 20
3980.55906926306
 30
0.0
 11
7657.825830023107
 21
3989.543555063302
 31
0.0
  0
LINE
  5
18406
330
747D
100
AcDbEntity
  8
細線
 48
50.0
100
AcDbLine
 10
7637.825830023107
 20
3980.559069263062
 30
0.0
 11
7637.825830023107
 21
3989.543555063298
 31
0.0
  0
ARC
  5
18407
330
747D
100
AcDbEntity
  8
細線
 48
50.0
100
AcDbCircle
 10
7647.825830023106
 20
4004.418029843943
 30
0.0
 40
26.5
100
AcDbArc
 50
249.3326835063939
 51
290.6673164933835
  0
ARC
  5
18408
330
747D
100
AcDbEntity
  8
細線
 48
50.0
100
AcDbCircle
 10
7656.825830023099
 20
3980.55906926306
 30
0.0
 40
1.0
100
AcDbArc
 50
290.6673164936062
 51
359.9999999998958
  0
ARC
  5
18409
330
747D
100
AcDbEntity
  8
細線
 48
50.0
100
AcDbCircle
 10
7638.825830023107
 20
3980.559069263062
 30
0.0
 40
1.0
100
AcDbArc
 50
180.0
 51
249.3326835066164
  0
ARC
  5
1840A
330
747D
100
AcDbEntity
  8
細線
 48
50.0
100
AcDbCircle
 10
7636.825830023106
 20
3989.543555063298
 30
0.0
 40
1.0
100
AcDbArc
 50
0.0
 51
53.51626293873231
  0
ARC
  5
1840B
330
747D
100
AcDbEntity
  8
細線
 48
50.0
100
AcDbCircle
 10
7658.82583002311
 20
3989.543555063302
 30
0.0
 40
1.0
100
AcDbArc
 50
126.4837370615127
 51
180.0
  0
ARC
  5
1840C
330
747D
100
AcDbEntity
  8
細線
 48
50.0
100
AcDbCircle
 10
7647.825830023106
 20
4004.418029843943
 30
0.0
 40
21.5
100
AcDbArc
 50
255.8014401250294
 51
284.1985598749706
  0
ARC
  5
1840D
330
747D
100
AcDbEntity
  8
細線
 48
50.0
100
AcDbCircle
 10
7647.825830023106
 20
4004.418029843943
 30
0.0
 40
16.5
100
AcDbArc
 50
251.9694646069326
 51
288.0305353930674
  0
LINE
  5
1840E
330
747D
100
AcDbEntity
  8
細線
 48
50.0
100
AcDbLine
 10
7653.325830023106
 20
3983.865657718137
 30
0.0
 11
7653.325830023106
 21
3988.443049405474
 31
0.0
  0
LINE
  5
1840F
330
747D
100
AcDbEntity
  8
細線
 48
50.0
100
AcDbLine
 10
7642.325830023107
 20
3983.865657718137
 30
0.0
 11
7642.325830023107
 21
3988.443049405471
 31
0.0
  0
ARC
  5
18410
330
747D
100
AcDbEntity
  8
細線
 48
50.0
100
AcDbCircle
 10
7642.62583002311
 20
3988.443049405471
 30
0.0
 40
0.3
100
AcDbArc
 50
71.96946460693259
 51
180.0
  0
ARC
  5
18411
330
747D
100
AcDbEntity
  8
細線
 48
50.0
100
AcDbCircle
 10
7653.025830023107
 20
3988.443049405474
 30
0.0
 40
0.3
100
AcDbArc
 50
0.0
 51
108.0305353930674
  0
ARC
  5
18412
330
747D
100
AcDbEntity
  8
細線
 48
50.0
100
AcDbCircle
 10
7653.025830023103
 20
3983.865657718137
 30
0.0
 40
0.3
100
AcDbArc
 50
284.1985598747622
 51
0.0000000001042204
  0
ARC
  5
18413
330
747D
100
AcDbEntity
  8
細線
 48
50.0
100
AcDbCircle
 10
7642.62583002311
 20
3983.865657718137
 30
0.0
 40
0.3
100
AcDbArc
 50
180.0
 51
255.8014401248081
  0
CIRCLE
  5
18414
330
747D
100
AcDbEntity
  8
細線
 48
50.0
100
AcDbCircle
 10
7647.825830023106
 20
4004.418029843943
 30
0.0
 40
12.0
  0
ARC
  5
18415
330
747D
100
AcDbEntity
  8
部品1
 48
50.0
100
AcDbCircle
 10
7647.825830023106
 20
4054.418029843943
 30
0.0
 40
8.5
100
AcDbArc
 50
114.315739171091
 51
245.684260828909
  0
CIRCLE
  5
18416
330
747D
100
AcDbEntity
  8
細線
 48
50.0
100
AcDbCircle
 10
7647.825830023106
 20
4054.418029843943
 30
0.0
 40
4.5
  0
LWPOLYLINE
  5
18417
330
747D
100
AcDbEntity
  8
部品1
 48
50.0
100
AcDbPolyline
 90
        2
 70
     0
 43
0.0
 10
7644.325830023106
 20
4073.092879240926
 10
7644.325830023106
 20
4062.163996536358
  0
CIRCLE
  5
18418
330
747D
100
AcDbEntity
  8
部品1
 48
50.0
100
AcDbCircle
 10
7647.825830023106
 20
4054.418029843943
 30
0.0
 40
19.0
  0
LWPOLYLINE
  5
18419
330
747D
100
AcDbEntity
  8
部品1
 48
50.0
100
AcDbPolyline
 90
        2
 70
     0
 43
0.0
 10
7644.325830023106
 20
4046.672063151528
 10
7644.325830023106
 20
4035.74318044696
  0
LWPOLYLINE
  5
1841A
330
747D
100
AcDbEntity
  8
部品1
 48
50.0
100
AcDbPolyline
 90
        2
 70
     0
 43
0.0
 10
7651.325830023107
 20
4062.163996536358
 10
7651.325830023107
 20
4073.092879240926
  0
ARC
  5
1841B
330
747D
100
AcDbEntity
  8
部品1
 48
50.0
100
AcDbCircle
 10
7647.825830023106
 20
4054.418029843943
 30
0.0
 40
8.5
100
AcDbArc
 50
294.315739171091
 51
65.68426082890896
  0
LWPOLYLINE
  5
1841C
330
747D
100
AcDbEntity
  8
部品1
 48
50.0
100
AcDbPolyline
 90
        2
 70
     0
 43
0.0
 10
7651.325830023107
 20
4035.74318044696
 10
7651.325830023107
 20
4046.672063151528
  0
ARC
  5
1841D
330
747D
100
AcDbEntity
  8
細線
 48
50.0
100
AcDbCircle
 10
7647.825830023106
 20
4054.418029843943
 30
0.0
 40
16.5
100
AcDbArc
 50
332.0012352654438
 51
27.99876473455621
  0
ARC
  5
1841E
330
747D
100
AcDbEntity
  8
細線
 48
50.0
100
AcDbCircle
 10
7647.825830023106
 20
4054.418029843943
 30
0.0
 40
14.0
100
AcDbArc
 50
326.4074436112986
 51
33.59255638870134
  0
LINE
  5
1841F
330
747D
100
AcDbEntity
  8
細線
 48
50.0
100
AcDbLine
 10
7633.257027738775
 20
4062.163996536358
 30
0.0
 11
7636.163926233418
 21
4062.163996536358
 31
0.0
  0
LINE
  5
18420
330
747D
100
AcDbEntity
  8
細線
 48
50.0
100
AcDbLine
 10
7633.257027738775
 20
4046.672063151528
 30
0.0
 11
7636.163926233418
 21
4046.672063151528
 31
0.0
  0
LINE
  5
18421
330
747D
100
AcDbEntity
  8
細線
 48
50.0
100
AcDbLine
 10
7659.487733812795
 20
4062.163996536358
 30
0.0
 11
7662.394632307442
 21
4062.163996536358
 31
0.0
  0
LINE
  5
18422
330
747D
100
AcDbEntity
  8
細線
 48
50.0
100
AcDbLine
 10
7659.487733812795
 20
4046.672063151528
 30
0.0
 11
7662.394632307442
 21
4046.672063151528
 31
0.0
  0
ARC
  5
18423
330
747D
100
AcDbEntity
  8
細線
 48
50.0
100
AcDbCircle
 10
7647.825830023106
 20
4054.418029843943
 30
0.0
 40
14.0
100
AcDbArc
 50
146.4074436112986
 51
213.5925563887013
  0
ARC
  5
18424
330
747D
100
AcDbEntity
  8
細線
 48
50.0
100
AcDbCircle
 10
7647.825830023106
 20
4054.418029843943
 30
0.0
 40
16.5
100
AcDbArc
 50
152.0012352654438
 51
207.9987647345562
  0
ARC
  5
18425
330
747D
100
AcDbEntity
  8
部品1
 48
50.0
100
AcDbCircle
 10
7621.325830023106
 20
4079.918029843943
 30
0.0
 40
5.0
100
AcDbArc
 50
90.0
 51
180.0
  0
ARC
  5
18426
330
747D
100
AcDbEntity
  8
部品1
 48
50.0
100
AcDbCircle
 10
7621.325830023106
 20
3968.918029843943
 30
0.0
 40
5.0
100
AcDbArc
 50
180.0
 51
270.0
  0
ARC
  5
18427
330
747D
100
AcDbEntity
  8
部品1
 48
50.0
100
AcDbCircle
 10
7674.325830023106
 20
3968.918029843943
 30
0.0
 40
5.0
100
AcDbArc
 50
270.0
 51
0.0
  0
ARC
  5
18428
330
747D
100
AcDbEntity
  8
部品1
 48
50.0
100
AcDbCircle
 10
7674.325830023106
 20
4079.918029843943
 30
0.0
 40
5.0
100
AcDbArc
 50
0.0
 51
90.0
  0
LINE
  5
18429
330
747D
100
AcDbEntity
  8
部品1
 48
50.0
100
AcDbLine
 10
7616.325830023106
 20
3968.918029843943
 30
0.0
 11
7616.325830023106
 21
4079.918029843943
 31
0.0
  0
LINE
  5
1842A
330
747D
100
AcDbEntity
  8
部品1
 48
50.0
100
AcDbLine
 10
7674.325830023106
 20
3963.918029843944
 30
0.0
 11
7621.325830023106
 21
3963.918029843944
 31
0.0
  0
LINE
  5
1842B
330
747D
100
AcDbEntity
  8
部品1
 48
50.0
100
AcDbLine
 10
7679.325830023106
 20
4079.918029843943
 30
0.0
 11
7679.325830023106
 21
3968.918029843943
 31
0.0
  0
ENDSEC
  0
SECTION
  2
OBJECTS
  0
DICTIONARY
  5
7471
330
0
100
AcDbDictionary
281
     1
  3
ACAD_COLOR
350
163FA
  3
ACAD_GROUP
350
7472
  3
ACAD_LAYOUT
350
163FB
  3
ACAD_MATERIAL
350
163F9
  3
ACAD_MLINESTYLE
350
7473
  3
ACAD_PLOTSETTINGS
350
163FC
  3
ACAD_PLOTSTYLENAME
350
163F7
  3
ACDBHEADERROUNDTRIPXREC
350
1843A
  3
AcDbVariableDictionary
350
18436
  3
CONTENTDICTIONARY
350
E71C
  3
DRAWINGVARIABLESDICT
350
F3B9
  0
DICTIONARY
  5
16597
330
7467
100
AcDbDictionary
280
     1
281
     1
  3
ACAD_LAYERSTATES
360
16598
  0
DICTIONARY
  5
163FA
102
{ACAD_REACTORS
330
7471
102
}
330
7471
100
AcDbDictionary
281
     1
  0
DICTIONARY
  5
7472
102
{ACAD_REACTORS
330
7471
102
}
330
7471
100
AcDbDictionary
281
     1
  0
DICTIONARY
  5
163FB
102
{ACAD_REACTORS
330
7471
102
}
330
7471
100
AcDbDictionary
281
     1
  3
Model
350
163FD
  3
レイアウト1
350
163FE
  0
DICTIONARY
  5
163F9
102
{ACAD_REACTORS
330
7471
102
}
330
7471
100
AcDbDictionary
281
     1
  0
DICTIONARY
  5
7473
102
{ACAD_REACTORS
330
7471
102
}
330
7471
100
AcDbDictionary
281
     1
  3
STANDARD
350
7480
  0
DICTIONARY
  5
163FC
102
{ACAD_REACTORS
330
7471
102
}
330
7471
100
AcDbDictionary
281
     1
  0
ACDBDICTIONARYWDFLT
  5
163F7
102
{ACAD_REACTORS
330
7471
102
}
330
7471
100
AcDbDictionary
281
     1
  3
Normal
350
163F8
100
AcDbDictionaryWithDefault
340
163F8
  0
DICTIONARY
  5
1843A
102
{ACAD_REACTORS
330
7471
102
}
330
7471
100
AcDbDictionary
281
     1
  3
COLORDICT
350
1843C
  3
MATERIALDICT
350
1843B
  0
DICTIONARY
  5
18436
102
{ACAD_REACTORS
330
7471
102
}
330
7471
100
AcDbDictionary
281
     1
  3
DIMASSOC
350
18437
  3
PROJECTNAME
350
18438
  0
DICTIONARY
  5
E71C
102
{ACAD_REACTORS
330
7471
102
}
330
7471
100
AcDbDictionary
281
     1
  0
DICTIONARY
  5
F3B9
102
{ACAD_REACTORS
330
7471
102
}
330
7471
100
AcDbDictionary
281
     1
1001
DRAWINGVARIABLESXDATA
1000
POLARMODE
1000
1
  0
DICTIONARY
  5
16598
102
{ACAD_REACTORS
330
16597
102
}
330
16597
100
AcDbDictionary
281
     1
  0
LAYOUT
  5
163FD
102
{ACAD_XDICTIONARY
360
1843D
102
}
102
{ACAD_REACTORS
330
163FB
102
}
330
163FB
100
AcDbPlotSettings
  1

  2
EPSON LP-7000C
  4

  6

 40
0.0
 41
0.0
 42
0.0
 43
0.0
 44
0.0
 45
0.0
 46
0.0
 47
0.0
 48
0.0
 49
0.0
140
0.0
141
0.0
142
1.0
143
1.0
 70
  1712
 72
     0
 73
     0
 74
     0
  7

 75
     0
147
1.0
148
0.0
149
0.0
100
AcDbLayout
  1
Model
 70
     1
 71
     0
 10
0.0
 20
0.0
 11
12.0
 21
9.0
 12
0.0
 22
0.0
 32
0.0
 14
0.0
 24
0.0
 34
0.0
 15
0.0
 25
0.0
 35
0.0
146
0.0
 13
0.0
 23
0.0
 33
0.0
 16
1.0
 26
0.0
 36
0.0
 17
0.0
 27
1.0
 37
0.0
 76
     0
330
747D
  0
LAYOUT
  5
163FE
102
{ACAD_XDICTIONARY
360
1843F
102
}
102
{ACAD_REACTORS
330
163FB
102
}
330
163FB
100
AcDbPlotSettings
  1

  2
EPSON LP-7000C
  4

  6

 40
0.0
 41
0.0
 42
0.0
 43
0.0
 44
0.0
 45
0.0
 46
0.0
 47
0.0
 48
0.0
 49
0.0
140
0.0
141
0.0
142
1.0
143
1.0
 70
   688
 72
     0
 73
     0
 74
     5
  7

 75
    16
147
1.0
148
0.0
149
0.0
100
AcDbLayout
  1
レイアウト1
 70
     0
 71
     1
 10
0.0
 20
0.0
 11
420.0
 21
297.0
 12
0.0
 22
0.0
 32
0.0
 14
1.000000000000000E+20
 24
1.000000000000000E+20
 34
1.000000000000000E+20
 15
-1.000000000000000E+20
 25
-1.000000000000000E+20
 35
-1.000000000000000E+20
146
0.0
 13
0.0
 23
0.0
 33
0.0
 16
1.0
 26
0.0
 36
0.0
 17
0.0
 27
1.0
 37
0.0
 76
     0
330
747A
  0
MLINESTYLE
  5
7480
102
{ACAD_REACTORS
330
7473
102
}
330
7473
100
AcDbMlineStyle
  2
STANDARD
 70
     0
  3

 62
     0
 51
90.0
 52
90.0
 71
     2
 49
0.5
 62
   256
  6
BYLAYER
 49
-0.5
 62
   256
  6
BYLAYER
  0
ACDBPLACEHOLDER
  5
163F8
102
{ACAD_REACTORS
330
163F7
102
}
330
163F7
  0
XRECORD
  5
1843C
102
{ACAD_REACTORS
330
1843A
102
}
330
1843A
100
AcDbXrecord
280
     1
340
163FA
  0
XRECORD
  5
1843B
102
{ACAD_REACTORS
330
1843A
102
}
330
1843A
100
AcDbXrecord
280
     1
340
163F9
  0
DICTIONARYVAR
  5
18437
102
{ACAD_REACTORS
330
18436
102
}
330
18436
100
DictionaryVariables
280
     0
  1
1
  0
DICTIONARYVAR
  5
18438
102
{ACAD_REACTORS
330
18436
102
}
330
18436
100
DictionaryVariables
280
     0
  1

  0
DICTIONARY
  5
1843D
330
163FD
100
AcDbDictionary
280
     1
281
     1
  3
ACAD_XREC_ROUNDTRIP
360
1843E
  0
DICTIONARY
  5
1843F
330
163FE
100
AcDbDictionary
280
     1
281
     1
  3
ACAD_XREC_ROUNDTRIP
360
18440
  0
XRECORD
  5
1843E
102
{ACAD_REACTORS
330
1843D
102
}
330
1843D
100
AcDbXrecord
280
     1
102
SHADEPLOT
 70
     0
102
SHADEPLOTRESLEVEL
 70
     2
102
SHADEPLOTCUSTOMDPI
 70
   300
  0
XRECORD
  5
18440
102
{ACAD_REACTORS
330
1843F
102
}
330
1843F
100
AcDbXrecord
280
     1
102
SHADEPLOT
 70
     0
102
SHADEPLOTRESLEVEL
 70
     2
102
SHADEPLOTCUSTOMDPI
 70
   300
  0
ENDSEC
  0
EOF
