  0
SECTION
  2
HEADER
  9
$ACADVER
  1
AC1015
  9
$ACADMAINTVER
 70
    20
  9
$DWGCODEPAGE
  3
ANSI_932
  9
$INSBASE
 10
0.0
 20
0.0
 30
0.0
  9
$EXTMIN
 10
139.9999999999995
 20
-0.0000000000000909
 30
0.0
  9
$EXTMAX
 10
16307.2
 20
11409.6
 30
0.0
  9
$LIMMIN
 10
0.0
 20
0.0
  9
$LIMMAX
 10
16800.0
 20
11880.0
  9
$ORTHOMODE
 70
     0
  9
$REGENMODE
 70
     1
  9
$FILLMODE
 70
     1
  9
$QTEXTMODE
 70
     0
  9
$MIRRTEXT
 70
     1
  9
$LTSCALE
 40
20.0
  9
$ATTMODE
 70
     1
  9
$TEXTSIZE
 40
120.0
  9
$TRACEWID
 40
1.0
  9
$TEXTSTYLE
  7
STYLE1
  9
$CLAYER
  8
部品1
  9
$CELTYPE
  6
BYLAYER
  9
$CECOLOR
 62
   256
  9
$CELTSCALE
 40
50.0
  9
$DISPSILH
 70
     0
  9
$DIMSCALE
 40
40.0
  9
$DIMASZ
 40
2.5
  9
$DIMEXO
 40
0.5
  9
$DIMDLI
 40
7.0
  9
$DIMRND
 40
0.0
  9
$DIMDLE
 40
0.0
  9
$DIMEXE
 40
1.5
  9
$DIMTP
 40
0.0
  9
$DIMTM
 40
0.0
  9
$DIMTXT
 40
3.0
  9
$DIMCEN
 40
0.0
  9
$DIMTSZ
 40
0.0
  9
$DIMTOL
 70
     0
  9
$DIMLIM
 70
     0
  9
$DIMTIH
 70
     0
  9
$DIMTOH
 70
     0
  9
$DIMSE1
 70
     0
  9
$DIMSE2
 70
     0
  9
$DIMTAD
 70
     3
  9
$DIMZIN
 70
     8
  9
$DIMBLK
  1

  9
$DIMASO
 70
     1
  9
$DIMSHO
 70
     1
  9
$DIMPOST
  1

  9
$DIMAPOST
  1

  9
$DIMALT
 70
     0
  9
$DIMALTD
 70
     2
  9
$DIMALTF
 40
0.0394
  9
$DIMLFAC
 40
1.0
  9
$DIMTOFL
 70
     0
  9
$DIMTVP
 40
0.0
  9
$DIMTIX
 70
     1
  9
$DIMSOXD
 70
     0
  9
$DIMSAH
 70
     1
  9
$DIMBLK1
  1
DOTSMALL
  9
$DIMBLK2
  1
DOTSMALL
  9
$DIMSTYLE
  2
INABA_S40G
  9
$DIMCLRD
 70
     0
  9
$DIMCLRE
 70
     0
  9
$DIMCLRT
 70
     7
  9
$DIMTFAC
 40
1.0
  9
$DIMGAP
 40
1.0
  9
$DIMJUST
 70
     0
  9
$DIMSD1
 70
     0
  9
$DIMSD2
 70
     0
  9
$DIMTOLJ
 70
     1
  9
$DIMTZIN
 70
     0
  9
$DIMALTZ
 70
     0
  9
$DIMALTTZ
 70
     0
  9
$DIMUPT
 70
     1
  9
$DIMDEC
 70
     1
  9
$DIMTDEC
 70
     4
  9
$DIMALTU
 70
     2
  9
$DIMALTTD
 70
     2
  9
$DIMTXSTY
  7
STYLE1
  9
$DIMAUNIT
 70
     0
  9
$DIMADEC
 70
     0
  9
$DIMALTRND
 40
0.0
  9
$DIMAZIN
 70
     0
  9
$DIMDSEP
 70
    46
  9
$DIMATFIT
 70
     3
  9
$DIMFRAC
 70
     0
  9
$DIMLDRBLK
  1

  9
$DIMLUNIT
 70
     2
  9
$DIMLWD
 70
    -2
  9
$DIMLWE
 70
    -2
  9
$DIMTMOVE
 70
     0
  9
$LUNITS
 70
     2
  9
$LUPREC
 70
     1
  9
$SKETCHINC
 40
1.0
  9
$FILLETRAD
 40
3.0
  9
$AUNITS
 70
     0
  9
$AUPREC
 70
     0
  9
$MENU
  1
acad
  9
$ELEVATION
 40
0.0
  9
$PELEVATION
 40
0.0
  9
$THICKNESS
 40
0.0
  9
$LIMCHECK
 70
     0
  9
$CHAMFERA
 40
0.0
  9
$CHAMFERB
 40
0.0
  9
$CHAMFERC
 40
0.0
  9
$CHAMFERD
 40
0.0
  9
$SKPOLY
 70
     0
  9
$TDCREATE
 40
2451368.612993866
  9
$TDUCREATE
 40
2451368.237993866
  9
$TDUPDATE
 40
2455575.688088646
  9
$TDUUPDATE
 40
2455575.313088646
  9
$TDINDWG
 40
0.6009678819
  9
$TDUSRTIMER
 40
0.6009678819
  9
$USRTIMER
 70
     1
  9
$ANGBASE
 50
0.0
  9
$ANGDIR
 70
     0
  9
$PDMODE
 70
     3
  9
$PDSIZE
 40
2.0
  9
$PLINEWID
 40
0.0
  9
$SPLFRAME
 70
     0
  9
$SPLINETYPE
 70
     6
  9
$SPLINESEGS
 70
     8
  9
$HANDSEED
  5
18073
  9
$SURFTAB1
 70
     6
  9
$SURFTAB2
 70
     6
  9
$SURFTYPE
 70
     6
  9
$SURFU
 70
     6
  9
$SURFV
 70
     6
  9
$UCSBASE
  2

  9
$UCSNAME
  2

  9
$UCSORG
 10
0.0
 20
0.0
 30
0.0
  9
$UCSXDIR
 10
1.0
 20
0.0
 30
0.0
  9
$UCSYDIR
 10
0.0
 20
1.0
 30
0.0
  9
$UCSORTHOREF
  2

  9
$UCSORTHOVIEW
 70
     0
  9
$UCSORGTOP
 10
0.0
 20
0.0
 30
0.0
  9
$UCSORGBOTTOM
 10
0.0
 20
0.0
 30
0.0
  9
$UCSORGLEFT
 10
0.0
 20
0.0
 30
0.0
  9
$UCSORGRIGHT
 10
0.0
 20
0.0
 30
0.0
  9
$UCSORGFRONT
 10
0.0
 20
0.0
 30
0.0
  9
$UCSORGBACK
 10
0.0
 20
0.0
 30
0.0
  9
$PUCSBASE
  2

  9
$PUCSNAME
  2

  9
$PUCSORG
 10
0.0
 20
0.0
 30
0.0
  9
$PUCSXDIR
 10
1.0
 20
0.0
 30
0.0
  9
$PUCSYDIR
 10
0.0
 20
1.0
 30
0.0
  9
$PUCSORTHOREF
  2

  9
$PUCSORTHOVIEW
 70
     0
  9
$PUCSORGTOP
 10
0.0
 20
0.0
 30
0.0
  9
$PUCSORGBOTTOM
 10
0.0
 20
0.0
 30
0.0
  9
$PUCSORGLEFT
 10
0.0
 20
0.0
 30
0.0
  9
$PUCSORGRIGHT
 10
0.0
 20
0.0
 30
0.0
  9
$PUCSORGFRONT
 10
0.0
 20
0.0
 30
0.0
  9
$PUCSORGBACK
 10
0.0
 20
0.0
 30
0.0
  9
$USERI1
 70
     0
  9
$USERI2
 70
     0
  9
$USERI3
 70
     0
  9
$USERI4
 70
     0
  9
$USERI5
 70
     0
  9
$USERR1
 40
0.0
  9
$USERR2
 40
0.0
  9
$USERR3
 40
0.0
  9
$USERR4
 40
0.0
  9
$USERR5
 40
0.0
  9
$WORLDVIEW
 70
     1
  9
$SHADEDGE
 70
     3
  9
$SHADEDIF
 70
    70
  9
$TILEMODE
 70
     1
  9
$MAXACTVP
 70
    16
  9
$PINSBASE
 10
0.0
 20
0.0
 30
0.0
  9
$PLIMCHECK
 70
     0
  9
$PEXTMIN
 10
1.000000000000000E+20
 20
1.000000000000000E+20
 30
1.000000000000000E+20
  9
$PEXTMAX
 10
-1.000000000000000E+20
 20
-1.000000000000000E+20
 30
-1.000000000000000E+20
  9
$PLIMMIN
 10
0.0
 20
0.0
  9
$PLIMMAX
 10
420.0
 20
297.0
  9
$UNITMODE
 70
     0
  9
$VISRETAIN
 70
     0
  9
$PLINEGEN
 70
     0
  9
$PSLTSCALE
 70
     0
  9
$TREEDEPTH
 70
  3020
  9
$CMLSTYLE
  2
STANDARD
  9
$CMLJUST
 70
     0
  9
$CMLSCALE
 40
1.0
  9
$PROXYGRAPHICS
 70
     1
  9
$MEASUREMENT
 70
     1
  9
$CELWEIGHT
370
    -1
  9
$ENDCAPS
280
     0
  9
$JOINSTYLE
280
     0
  9
$LWDISPLAY
290
     0
  9
$INSUNITS
 70
     0
  9
$HYPERLINKBASE
  1

  9
$STYLESHEET
  1

  9
$XEDIT
290
     1
  9
$CEPSNTYPE
380
     0
  9
$PSTYLEMODE
290
     1
  9
$FINGERPRINTGUID
  2
{391E6D0E-93E5-4F94-ABC1-44C57F2BB4DF}
  9
$VERSIONGUID
  2
{006625F7-0D9B-4189-BC64-BD7E9F61991B}
  9
$EXTNAMES
290
     1
  9
$PSVPSCALE
 40
0.0
  9
$OLESTARTUP
290
     0
  0
ENDSEC
  0
SECTION
  2
CLASSES
  0
CLASS
  1
ACDBDICTIONARYWDFLT
  2
AcDbDictionaryWithDefault
  3
ObjectDBX Classes
 90
        0
280
     0
281
     0
  0
CLASS
  1
DICTIONARYVAR
  2
AcDbDictionaryVar
  3
ObjectDBX Classes
 90
        0
280
     0
281
     0
  0
CLASS
  1
ACDBPLACEHOLDER
  2
AcDbPlaceHolder
  3
ObjectDBX Classes
 90
        0
280
     0
281
     0
  0
CLASS
  1
LAYOUT
  2
AcDbLayout
  3
ObjectDBX Classes
 90
        0
280
     0
281
     0
  0
ENDSEC
  0
SECTION
  2
TABLES
  0
TABLE
  2
VPORT
  5
746D
330
0
100
AcDbSymbolTable
 70
     2
  0
VPORT
  5
1806B
330
746D
100
AcDbSymbolTableRecord
100
AcDbViewportTableRecord
  2
*Active
 70
     0
 10
0.0
 20
0.0
 11
1.0
 21
1.0
 12
8223.761025238502
 22
6348.703162895247
 13
0.0
 23
0.0
 14
10.0
 24
10.0
 15
10.0
 25
10.0
 16
0.0
 26
0.0
 36
1.0
 17
0.0
 27
0.0
 37
0.0
 40
12805.60689082044
 41
1.525925925925925
 42
50.0
 43
0.0
 44
0.0
 50
0.0
 51
0.0
 71
     0
 72
     0
 73
     1
 74
     0
 75
     0
 76
     0
 77
     0
 78
     0
281
     0
 65
     1
110
0.0
120
0.0
130
0.0
111
1.0
121
0.0
131
0.0
112
0.0
122
1.0
132
0.0
 79
     0
146
0.0
  0
ENDTAB
  0
TABLE
  2
LTYPE
  5
746A
330
0
100
AcDbSymbolTable
 70
     4
  0
LTYPE
  5
7477
330
746A
100
AcDbSymbolTableRecord
100
AcDbLinetypeTableRecord
  2
BYBLOCK
 70
     0
  3

 72
    65
 73
     0
 40
0.0
  0
LTYPE
  5
7478
330
746A
100
AcDbSymbolTableRecord
100
AcDbLinetypeTableRecord
  2
BYLAYER
 70
     0
  3

 72
    65
 73
     0
 40
0.0
  0
LTYPE
  5
7479
330
746A
100
AcDbSymbolTableRecord
100
AcDbLinetypeTableRecord
  2
CONTINUOUS
 70
     0
  3
Solid line
 72
    65
 73
     0
 40
0.0
  0
LTYPE
  5
7816
330
746A
100
AcDbSymbolTableRecord
100
AcDbLinetypeTableRecord
  2
CENTER
 70
     0
  3
____ _ ____ _ ____ _ ____ _ ____ _ ____ _ ____ 
 72
    65
 73
     4
 40
2.0
 49
1.25
 74
     0
 49
-0.25
 74
     0
 49
0.25
 74
     0
 49
-0.25
 74
     0
  0
LTYPE
  5
781A
330
746A
100
AcDbSymbolTableRecord
100
AcDbLinetypeTableRecord
  2
HIDDEN
 70
     0
  3
__ __ __ __ __ __ __ __ __ __ __ __ __ __ __ __
 72
    65
 73
     2
 40
0.375
 49
0.25
 74
     0
 49
-0.125
 74
     0
  0
LTYPE
  5
781B
330
746A
100
AcDbSymbolTableRecord
100
AcDbLinetypeTableRecord
  2
PHANTOM
 70
     0
  3
______  __  __  ______  __  __  ______  __  __ 
 72
    65
 73
     6
 40
2.5
 49
1.25
 74
     0
 49
-0.25
 74
     0
 49
0.25
 74
     0
 49
-0.25
 74
     0
 49
0.25
 74
     0
 49
-0.25
 74
     0
  0
ENDTAB
  0
TABLE
  2
LAYER
  5
7467
102
{ACAD_XDICTIONARY
360
16690
102
}
330
0
100
AcDbSymbolTable
 70
    12
  0
LAYER
  5
7474
330
7467
100
AcDbSymbolTableRecord
100
AcDbLayerTableRecord
  2
0
 70
     0
 62
     7
  6
CONTINUOUS
370
    -3
390
16508
  0
LAYER
  5
DEB2
330
7467
100
AcDbSymbolTableRecord
100
AcDbLayerTableRecord
  2
センター
 70
     0
 62
     3
  6
CENTER
370
    -3
390
16508
  0
LAYER
  5
DEB3
330
7467
100
AcDbSymbolTableRecord
100
AcDbLayerTableRecord
  2
寸法
 70
     0
 62
     4
  6
CONTINUOUS
370
    -3
390
16508
  0
LAYER
  5
DEB4
330
7467
100
AcDbSymbolTableRecord
100
AcDbLayerTableRecord
  2
部品1
 70
     0
 62
     7
  6
CONTINUOUS
370
    -3
390
16508
  0
LAYER
  5
DEB5
330
7467
100
AcDbSymbolTableRecord
100
AcDbLayerTableRecord
  2
補助
 70
     0
 62
    -1
  6
CONTINUOUS
370
    -3
390
16508
  0
LAYER
  5
DEB6
330
7467
100
AcDbSymbolTableRecord
100
AcDbLayerTableRecord
  2
文字
 70
     0
 62
     7
  6
CONTINUOUS
370
    -3
390
16508
  0
LAYER
  5
F255
330
7467
100
AcDbSymbolTableRecord
100
AcDbLayerTableRecord
  2
DEFPOINTS
 70
     0
 62
     7
  6
CONTINUOUS
290
     0
370
    -3
390
16508
  0
LAYER
  5
10B54
330
7467
100
AcDbSymbolTableRecord
100
AcDbLayerTableRecord
  2
仕様書枠
 70
     0
 62
   230
  6
CONTINUOUS
370
    -3
390
16508
  0
LAYER
  5
11729
330
7467
100
AcDbSymbolTableRecord
100
AcDbLayerTableRecord
  2
Ｇ．Ｌ
 70
     0
 62
    30
  6
CONTINUOUS
370
    -3
390
16508
  0
LAYER
  5
1173F
330
7467
100
AcDbSymbolTableRecord
100
AcDbLayerTableRecord
  2
細線
 70
     0
 62
     5
  6
CONTINUOUS
370
    -3
390
16508
  0
LAYER
  5
12CC4
330
7467
100
AcDbSymbolTableRecord
100
AcDbLayerTableRecord
  2
想像線
 70
     0
 62
     6
  6
PHANTOM
370
    -3
390
16508
  0
LAYER
  5
142E2
330
7467
100
AcDbSymbolTableRecord
100
AcDbLayerTableRecord
  2
破線
 70
     0
 62
     2
  6
HIDDEN
370
    -3
390
16508
  0
ENDTAB
  0
TABLE
  2
STYLE
  5
7468
330
0
100
AcDbSymbolTable
 70
     5
  0
STYLE
  5
7475
330
7468
100
AcDbSymbolTableRecord
100
AcDbTextStyleTableRecord
  2
STANDARD
 70
     0
 40
0.0
 41
1.0
 50
0.0
 71
     0
 42
4.0
  3
txt
  4
C:\AutoCAD LT\bigfont.shx
  0
STYLE
  5
763C
330
7468
100
AcDbSymbolTableRecord
100
AcDbTextStyleTableRecord
  2
MSMINCHO
 70
     0
 40
0.0
 41
1.0
 50
0.0
 71
     0
 42
1.199999999999999
  3
C:\AutoCAD LT\msminch2.TTF
  4

  0
STYLE
  5
F706
330
7468
100
AcDbSymbolTableRecord
100
AcDbTextStyleTableRecord
  2
STYLE1
 70
     0
 40
0.0
 41
1.0
 50
0.0
 71
     0
 42
120.0
  3
isocp.shx
  4
bigfont.shx
  0
STYLE
  5
103BF
330
7468
100
AcDbSymbolTableRecord
100
AcDbTextStyleTableRecord
  2
STYLE2
 70
     0
 40
0.0
 41
1.0
 50
0.0
 71
     0
 42
100.0
  3
MS PGothic.ttf
  4

1001
ACAD
1000
MS PGothic
1071
    32818
  0
STYLE
  5
10BAA
330
7468
100
AcDbSymbolTableRecord
100
AcDbTextStyleTableRecord
  2
STYLE3
 70
     0
 40
0.0
 41
1.0
 50
0.0
 71
     0
 42
100.0
  3

  4

1001
ACAD
1000
DFPGothic-EB
1071
    32818
  0
ENDTAB
  0
TABLE
  2
VIEW
  5
746B
330
0
100
AcDbSymbolTable
 70
     0
  0
ENDTAB
  0
TABLE
  2
UCS
  5
746C
330
0
100
AcDbSymbolTable
 70
     0
  0
ENDTAB
  0
TABLE
  2
APPID
  5
746E
330
0
100
AcDbSymbolTable
 70
     6
  0
APPID
  5
7476
330
746E
100
AcDbSymbolTableRecord
100
AcDbRegAppTableRecord
  2
ACAD
 70
     0
  0
APPID
  5
DEA9
330
746E
100
AcDbSymbolTableRecord
100
AcDbRegAppTableRecord
  2
CONTENTBLOCKICON
 70
     0
  0
APPID
  5
DEAA
330
746E
100
AcDbSymbolTableRecord
100
AcDbRegAppTableRecord
  2
CONTENTBLOCKDESCRIPTION
 70
     0
  0
APPID
  5
E71D
330
746E
100
AcDbSymbolTableRecord
100
AcDbRegAppTableRecord
  2
CONTENTTABDATA
 70
     0
  0
APPID
  5
E71E
330
746E
100
AcDbSymbolTableRecord
100
AcDbRegAppTableRecord
  2
CONTENTCURRENTTAB
 70
     0
  0
APPID
  5
F3BA
330
746E
100
AcDbSymbolTableRecord
100
AcDbRegAppTableRecord
  2
DRAWINGVARIABLESXDATA
 70
     0
  0
ENDTAB
  0
TABLE
  2
DIMSTYLE
  5
746F
330
0
100
AcDbSymbolTable
 70
     4
100
AcDbDimStyleTable
 71
     1
340
F71F
  0
DIMSTYLE
105
7484
330
746F
100
AcDbSymbolTableRecord
100
AcDbDimStyleTableRecord
  2
JIS
 70
     0
 41
2.5
 42
1.0
 43
7.0
 44
1.0
 73
     0
 74
     0
 77
     1
 78
     8
140
2.5
141
0.0
143
0.0394
147
0.0
172
     1
174
     1
175
     1
340
7475
  0
DIMSTYLE
105
F236
330
746F
100
AcDbSymbolTableRecord
100
AcDbDimStyleTableRecord
  2
INABA_S40
 70
     0
 40
40.0
 41
2.5
 42
0.5
 43
7.0
 44
1.5
 73
     0
 74
     0
 77
     3
 78
     8
140
3.0
141
0.0
143
0.0394
147
1.0
172
     1
173
     1
174
     1
175
     1
178
     7
289
     0
340
7475
341
DEAC
343
DEAC
344
DEAC
  0
DIMSTYLE
105
F71F
102
{ACAD_REACTORS
330
15F2F
330
15F30
330
15F31
330
15F37
330
15F5B
330
1605B
330
1605E
330
16067
330
1607F
330
16098
330
16099
330
1609B
330
1609C
330
16972
330
16973
330
16A64
330
16A65
330
16A66
330
16A6A
330
16A6E
330
16A70
330
16A71
330
16A72
330
16E97
330
16F80
330
17007
330
1702C
330
17A43
330
17A42
330
17A41
330
17A8B
102
}
330
746F
100
AcDbSymbolTableRecord
100
AcDbDimStyleTableRecord
  2
INABA_S40G
 70
     0
 40
40.0
 41
2.5
 42
0.5
 43
7.0
 44
1.5
 73
     0
 74
     0
 77
     3
 78
     8
140
3.0
141
0.0
143
0.0394
147
1.0
172
     1
173
     1
174
     1
178
     7
271
     1
288
     1
340
F706
341
F770
343
F770
344
F770
  0
DIMSTYLE
105
17F04
330
746F
100
AcDbSymbolTableRecord
100
AcDbDimStyleTableRecord
  2
INABA_S20G
 70
     0
 40
20.0
 41
2.5
 42
0.5
 43
7.0
 44
1.5
 73
     0
 74
     0
 77
     3
 78
     8
140
3.0
141
0.0
143
0.0394
147
1.0
172
     1
173
     1
174
     1
178
     7
271
     1
340
F706
341
F770
343
F770
344
F770
  0
ENDTAB
  0
TABLE
  2
BLOCK_RECORD
  5
7466
330
0
100
AcDbSymbolTable
 70
    37
  0
BLOCK_RECORD
  5
747D
330
7466
100
AcDbSymbolTableRecord
100
AcDbBlockTableRecord
  2
*MODEL_SPACE
340
1650D
  0
BLOCK_RECORD
  5
747A
330
7466
100
AcDbSymbolTableRecord
100
AcDbBlockTableRecord
  2
*PAPER_SPACE
340
1650E
  0
BLOCK_RECORD
  5
DEAC
330
7466
100
AcDbSymbolTableRecord
100
AcDbBlockTableRecord
  2
_OPEN
340
0
  0
BLOCK_RECORD
  5
F770
330
7466
100
AcDbSymbolTableRecord
100
AcDbBlockTableRecord
  2
_DOTSMALL
340
0
102
{BLKREFS
331
15F61
331
15F65
331
1606B
331
1607E
331
17D2D
331
17D2E
331
17D36
331
17D37
331
17D3F
331
17D40
331
17D4A
331
17D4B
331
17D53
331
17D54
331
17D5C
331
17D5D
331
17D65
331
17D66
331
17D70
331
17D71
331
17D79
331
17D7A
331
17D82
331
17D83
331
17D8D
331
17D8E
331
17D96
331
17D97
331
17DA0
331
17DA1
331
17DAA
331
17DAB
331
17DB3
331
17DB4
331
17DBC
331
17DBD
331
17DC5
331
17DC6
331
17DCE
331
17DCF
331
17DD9
331
17DDA
331
17DE2
331
17DE3
331
17DED
331
17DEE
331
17DF6
331
17DF7
331
17DFF
331
17E00
331
17E0A
331
17E0B
331
17E13
331
17E14
331
17E1C
331
17E1D
331
17E25
331
17E26
331
17E2E
331
17E2F
331
17E39
331
17E3A
331
17E42
331
17E43
331
17E4B
331
17E4C
331
1801F
331
18020
331
18040
331
18041
331
1804D
331
1804E
102
}
  0
BLOCK_RECORD
  5
161E4
330
7466
100
AcDbSymbolTableRecord
100
AcDbBlockTableRecord
  2
*D2
340
0
  0
BLOCK_RECORD
  5
161F0
330
7466
100
AcDbSymbolTableRecord
100
AcDbBlockTableRecord
  2
*D3
340
0
  0
BLOCK_RECORD
  5
161FC
330
7466
100
AcDbSymbolTableRecord
100
AcDbBlockTableRecord
  2
*D4
340
0
  0
BLOCK_RECORD
  5
1620A
330
7466
100
AcDbSymbolTableRecord
100
AcDbBlockTableRecord
  2
*D5
340
0
  0
BLOCK_RECORD
  5
16216
330
7466
100
AcDbSymbolTableRecord
100
AcDbBlockTableRecord
  2
*D6
340
0
  0
BLOCK_RECORD
  5
1623A
330
7466
100
AcDbSymbolTableRecord
100
AcDbBlockTableRecord
  2
*D7
340
0
  0
BLOCK_RECORD
  5
16246
330
7466
100
AcDbSymbolTableRecord
100
AcDbBlockTableRecord
  2
*D8
340
0
  0
BLOCK_RECORD
  5
16252
330
7466
100
AcDbSymbolTableRecord
100
AcDbBlockTableRecord
  2
*D9
340
0
  0
BLOCK_RECORD
  5
16260
330
7466
100
AcDbSymbolTableRecord
100
AcDbBlockTableRecord
  2
*D10
340
0
  0
BLOCK_RECORD
  5
16278
330
7466
100
AcDbSymbolTableRecord
100
AcDbBlockTableRecord
  2
*D11
340
0
  0
BLOCK_RECORD
  5
16284
330
7466
100
AcDbSymbolTableRecord
100
AcDbBlockTableRecord
  2
*D12
340
0
  0
BLOCK_RECORD
  5
16292
330
7466
100
AcDbSymbolTableRecord
100
AcDbBlockTableRecord
  2
*D13
340
0
  0
BLOCK_RECORD
  5
1629E
330
7466
100
AcDbSymbolTableRecord
100
AcDbBlockTableRecord
  2
*D14
340
0
  0
BLOCK_RECORD
  5
16ABE
330
7466
100
AcDbSymbolTableRecord
100
AcDbBlockTableRecord
  2
*D15
340
0
  0
BLOCK_RECORD
  5
16ACB
330
7466
100
AcDbSymbolTableRecord
100
AcDbBlockTableRecord
  2
*D16
340
0
  0
BLOCK_RECORD
  5
16B80
330
7466
100
AcDbSymbolTableRecord
100
AcDbBlockTableRecord
  2
*D17
340
0
  0
BLOCK_RECORD
  5
16B8C
330
7466
100
AcDbSymbolTableRecord
100
AcDbBlockTableRecord
  2
*D18
340
0
  0
BLOCK_RECORD
  5
16B9A
330
7466
100
AcDbSymbolTableRecord
100
AcDbBlockTableRecord
  2
*D19
340
0
  0
BLOCK_RECORD
  5
16BA6
330
7466
100
AcDbSymbolTableRecord
100
AcDbBlockTableRecord
  2
*D20
340
0
  0
BLOCK_RECORD
  5
16BB2
330
7466
100
AcDbSymbolTableRecord
100
AcDbBlockTableRecord
  2
*D21
340
0
  0
BLOCK_RECORD
  5
16BCD
330
7466
100
AcDbSymbolTableRecord
100
AcDbBlockTableRecord
  2
*D22
340
0
  0
BLOCK_RECORD
  5
16BD9
330
7466
100
AcDbSymbolTableRecord
100
AcDbBlockTableRecord
  2
*D23
340
0
  0
BLOCK_RECORD
  5
16BE5
330
7466
100
AcDbSymbolTableRecord
100
AcDbBlockTableRecord
  2
*D24
340
0
  0
BLOCK_RECORD
  5
16EFE
330
7466
100
AcDbSymbolTableRecord
100
AcDbBlockTableRecord
  2
*D25
340
0
  0
BLOCK_RECORD
  5
16F8C
330
7466
100
AcDbSymbolTableRecord
100
AcDbBlockTableRecord
  2
*D26
340
0
  0
BLOCK_RECORD
  5
17013
330
7466
100
AcDbSymbolTableRecord
100
AcDbBlockTableRecord
  2
*D27
340
0
  0
BLOCK_RECORD
  5
1702D
330
7466
100
AcDbSymbolTableRecord
100
AcDbBlockTableRecord
  2
*D28
340
0
  0
BLOCK_RECORD
  5
17074
330
7466
100
AcDbSymbolTableRecord
100
AcDbBlockTableRecord
  2
_DOT
340
0
  0
BLOCK_RECORD
  5
17A48
330
7466
100
AcDbSymbolTableRecord
100
AcDbBlockTableRecord
  2
*D30
340
0
  0
BLOCK_RECORD
  5
17A54
330
7466
100
AcDbSymbolTableRecord
100
AcDbBlockTableRecord
  2
*D31
340
0
  0
BLOCK_RECORD
  5
17A60
330
7466
100
AcDbSymbolTableRecord
100
AcDbBlockTableRecord
  2
*D32
340
0
  0
BLOCK_RECORD
  5
17A96
330
7466
100
AcDbSymbolTableRecord
100
AcDbBlockTableRecord
  2
*D33
340
0
  0
ENDTAB
  0
ENDSEC
  0
SECTION
  2
BLOCKS
  0
BLOCK
  5
7489
330
747D
100
AcDbEntity
  8
0
100
AcDbBlockBegin
  2
*MODEL_SPACE
 70
     0
 10
0.0
 20
0.0
 30
0.0
  3
*MODEL_SPACE
  1

  0
ENDBLK
  5
748A
330
747D
100
AcDbEntity
  8
0
100
AcDbBlockEnd
  0
BLOCK
  5
7487
330
747A
100
AcDbEntity
 67
     1
  8
0
100
AcDbBlockBegin
  2
*PAPER_SPACE
 70
     0
 10
0.0
 20
0.0
 30
0.0
  3
*PAPER_SPACE
  1

  0
ENDBLK
  5
7488
330
747A
100
AcDbEntity
 67
     1
  8
0
100
AcDbBlockEnd
  0
BLOCK
  5
DEAD
330
DEAC
100
AcDbEntity
  8
0
100
AcDbBlockBegin
  2
_OPEN
 70
     0
 10
0.0
 20
0.0
 30
0.0
  3
_OPEN
  1

  0
LINE
  5
DEAE
330
DEAC
100
AcDbEntity
  8
0
  6
ByBlock
 62
     0
100
AcDbLine
 10
-1.0
 20
0.1666666666666666
 30
0.0
 11
0.0
 21
0.0
 31
0.0
  0
LINE
  5
DEAF
330
DEAC
100
AcDbEntity
  8
0
  6
ByBlock
 62
     0
100
AcDbLine
 10
0.0
 20
0.0
 30
0.0
 11
-1.0
 21
-0.1666666666666666
 31
0.0
  0
LINE
  5
DEB0
330
DEAC
100
AcDbEntity
  8
0
  6
ByBlock
 62
     0
100
AcDbLine
 10
0.0
 20
0.0
 30
0.0
 11
-1.0
 21
0.0
 31
0.0
  0
ENDBLK
  5
DEB1
330
DEAC
100
AcDbEntity
  8
0
100
AcDbBlockEnd
  0
BLOCK
  5
F771
330
F770
100
AcDbEntity
  8
0
 48
50.0
100
AcDbBlockBegin
  2
_DOTSMALL
 70
     0
 10
0.0
 20
0.0
 30
0.0
  3
_DOTSMALL
  1

  0
LWPOLYLINE
  5
F772
330
F770
100
AcDbEntity
  8
0
  6
ByBlock
 62
     0
 48
50.0
100
AcDbPolyline
 90
        2
 70
     1
 43
0.5
 10
-0.0625
 20
0.0
 42
1.0
 10
0.0625
 20
0.0
 42
1.0
  0
ENDBLK
  5
F776
330
F770
100
AcDbEntity
  8
0
 48
50.0
100
AcDbBlockEnd
  0
BLOCK
  5
162EC
330
161E4
100
AcDbEntity
  8
0
 48
50.0
100
AcDbBlockBegin
  2
*D2
 70
     1
 10
0.0
 20
0.0
 30
0.0
  3
*D2
  1

  0
LINE
  5
17E48
330
161E4
100
AcDbEntity
  8
寸法
 62
     0
 48
50.0
370
    -2
100
AcDbLine
 10
8563.685695753106
 20
8851.357263431768
 30
0.0
 11
8477.91640972502
 21
9171.452596617491
 31
0.0
  0
LINE
  5
17E49
330
161E4
100
AcDbEntity
  8
寸法
 62
     0
 48
50.0
370
    -2
100
AcDbLine
 10
8113.685695753108
 20
8851.357263431767
 30
0.0
 11
8027.916409725021
 21
9171.452596617491
 31
0.0
  0
LINE
  5
17E4A
330
161E4
100
AcDbEntity
  8
寸法
 62
     0
 48
50.0
370
    -2
100
AcDbLine
 10
8493.993361270886
 20
9111.452596617493
 30
0.0
 11
8043.993361270889
 21
9111.452596617493
 31
0.0
  0
INSERT
  5
17E4B
330
161E4
100
AcDbEntity
  8
寸法
 62
     0
 48
50.0
370
    -2
100
AcDbBlockReference
  2
_DOTSMALL
 10
8493.993361270886
 20
9111.452596617493
 30
0.0
 41
100.0
 42
100.0
 43
100.0
  0
INSERT
  5
17E4C
330
161E4
100
AcDbEntity
  8
寸法
 62
     0
 48
50.0
370
    -2
100
AcDbBlockReference
  2
_DOTSMALL
 10
8043.993361270889
 20
9111.452596617493
 30
0.0
 41
100.0
 42
100.0
 43
100.0
 50
180.0
  0
MTEXT
  5
17E4D
330
161E4
100
AcDbEntity
  8
寸法
 62
     7
 48
50.0
100
AcDbMText
 10
8247.480471993743
 20
9211.452596617492
 30
0.0
 40
120.0
 41
0.0
 71
     5
 72
     1
  1
\A1;450
  7
STYLE1
 73
     1
 44
1.0
1001
ACAD
1000
MTEXTBEGIN
1070
    73
1070
     1
1070
    44
1040
1.0
1070
    74
1070
     0
1000
MTEXTEND
  0
POINT
  5
17E4E
330
161E4
100
AcDbEntity
  8
DEFPOINTS
 62
     0
 48
50.0
100
AcDbPoint
 10
8569.044679601729
 20
8831.357263431767
 30
0.0
  0
POINT
  5
17E4F
330
161E4
100
AcDbEntity
  8
DEFPOINTS
 62
     0
 48
50.0
100
AcDbPoint
 10
8119.04467960173
 20
8831.357263431767
 30
0.0
  0
POINT
  5
17E50
330
161E4
100
AcDbEntity
  8
DEFPOINTS
 62
     0
 48
50.0
100
AcDbPoint
 10
8043.993361270889
 20
9111.452596617493
 30
0.0
  0
ENDBLK
  5
162F6
330
161E4
100
AcDbEntity
  8
0
 48
50.0
100
AcDbBlockEnd
  0
BLOCK
  5
162F7
330
161F0
100
AcDbEntity
  8
0
 48
50.0
100
AcDbBlockBegin
  2
*D3
 70
     1
 10
0.0
 20
0.0
 30
0.0
  3
*D3
  1

  0
LINE
  5
17E3F
330
161F0
100
AcDbEntity
  8
寸法
 62
     0
 48
50.0
370
    -2
100
AcDbLine
 10
7287.044679601732
 20
8883.85726343162
 30
0.0
 11
7287.044679601732
 21
9359.33561337814
 31
0.0
  0
LINE
  5
17E40
330
161F0
100
AcDbEntity
  8
寸法
 62
     0
 48
50.0
370
    -2
100
AcDbLine
 10
8547.044679601732
 20
8883.857263431746
 30
0.0
 11
8547.044679601732
 21
9359.33561337814
 31
0.0
  0
LINE
  5
17E41
330
161F0
100
AcDbEntity
  8
寸法
 62
     0
 48
50.0
370
    -2
100
AcDbLine
 10
7287.044679601732
 20
9299.335613378142
 30
0.0
 11
8547.044679601732
 21
9299.335613378142
 31
0.0
  0
INSERT
  5
17E42
330
161F0
100
AcDbEntity
  8
寸法
 62
     0
 48
50.0
370
    -2
100
AcDbBlockReference
  2
_DOTSMALL
 10
7287.044679601732
 20
9299.335613378142
 30
0.0
 41
100.0
 42
100.0
 43
100.0
 50
180.0
  0
INSERT
  5
17E43
330
161F0
100
AcDbEntity
  8
寸法
 62
     0
 48
50.0
370
    -2
100
AcDbBlockReference
  2
_DOTSMALL
 10
8547.044679601732
 20
9299.335613378142
 30
0.0
 41
100.0
 42
100.0
 43
100.0
  0
MTEXT
  5
17E44
330
161F0
100
AcDbEntity
  8
寸法
 62
     7
 48
50.0
100
AcDbMText
 10
7917.04467960173
 20
9399.347424401764
 30
0.0
 40
120.0
 41
0.0
 71
     5
 72
     1
  1
\A1;3X420=1260
  7
STYLE1
 73
     1
 44
1.0
1001
ACAD
1000
MTEXTBEGIN
1070
    73
1070
     1
1070
    44
1040
1.0
1070
    74
1070
     0
1000
MTEXTEND
  0
POINT
  5
17E45
330
161F0
100
AcDbEntity
  8
DEFPOINTS
 62
     0
 48
50.0
100
AcDbPoint
 10
7287.044679601732
 20
8863.857263431619
 30
0.0
  0
POINT
  5
17E46
330
161F0
100
AcDbEntity
  8
DEFPOINTS
 62
     0
 48
50.0
100
AcDbPoint
 10
8547.044679601732
 20
8863.857263431746
 30
0.0
  0
POINT
  5
17E47
330
161F0
100
AcDbEntity
  8
DEFPOINTS
 62
     0
 48
50.0
100
AcDbPoint
 10
8547.044679601732
 20
9299.335613378142
 30
0.0
  0
ENDBLK
  5
16301
330
161F0
100
AcDbEntity
  8
0
 48
50.0
100
AcDbBlockEnd
  0
BLOCK
  5
16302
330
161FC
100
AcDbEntity
  8
0
 48
50.0
100
AcDbBlockBegin
  2
*D4
 70
     1
 10
0.0
 20
0.0
 30
0.0
  3
*D4
  1

  0
LINE
  5
17E34
330
161FC
100
AcDbEntity
  8
寸法
 62
     0
 48
50.0
370
    -2
100
AcDbLine
 10
8547.044679601732
 20
8883.857263431746
 30
0.0
 11
8547.044679601732
 21
9359.335613378121
 31
0.0
  0
LINE
  5
17E35
330
161FC
100
AcDbEntity
  8
寸法
 62
     0
 48
50.0
370
    -2
100
AcDbLine
 10
8602.044679601734
 20
8883.857263431746
 30
0.0
 11
8602.044679601734
 21
9359.335613378121
 31
0.0
  0
LINE
  5
17E36
330
161FC
100
AcDbEntity
  8
寸法
 62
     0
 48
50.0
370
    -2
100
AcDbLine
 10
8547.044679601732
 20
9299.335613378122
 30
0.0
 11
8447.044679601733
 21
9299.335613378122
 31
0.0
  0
LINE
  5
17E37
330
161FC
100
AcDbEntity
  8
寸法
 62
     0
 48
50.0
370
    -2
100
AcDbLine
 10
8602.044679601734
 20
9299.335613378122
 30
0.0
 11
9019.01524235021
 21
9299.335613378122
 31
0.0
  0
LINE
  5
17E38
330
161FC
100
AcDbEntity
  8
寸法
 62
     0
 48
50.0
370
    -2
100
AcDbLine
 10
8547.044679601732
 20
9299.335613378122
 30
0.0
 11
8602.044679601734
 21
9299.335613378122
 31
0.0
  0
INSERT
  5
17E39
330
161FC
100
AcDbEntity
  8
寸法
 62
     0
 48
50.0
370
    -2
100
AcDbBlockReference
  2
_DOTSMALL
 10
8547.044679601732
 20
9299.335613378122
 30
0.0
 41
100.0
 42
100.0
 43
100.0
  0
INSERT
  5
17E3A
330
161FC
100
AcDbEntity
  8
寸法
 62
     0
 48
50.0
370
    -2
100
AcDbBlockReference
  2
_DOTSMALL
 10
8602.044679601734
 20
9299.335613378122
 30
0.0
 41
100.0
 42
100.0
 43
100.0
 50
180.0
  0
MTEXT
  5
17E3B
330
161FC
100
AcDbEntity
  8
寸法
 62
     7
 48
50.0
100
AcDbMText
 10
8910.529960975971
 20
9399.335613378122
 30
0.0
 40
120.0
 41
0.0
 71
     5
 72
     1
  1
\A1;55
  7
STYLE1
 73
     1
 44
1.0
1001
ACAD
1000
MTEXTBEGIN
1070
    73
1070
     1
1070
    44
1040
1.0
1070
    74
1070
     0
1000
MTEXTEND
  0
POINT
  5
17E3C
330
161FC
100
AcDbEntity
  8
DEFPOINTS
 62
     0
 48
50.0
100
AcDbPoint
 10
8547.044679601732
 20
8863.857263431746
 30
0.0
  0
POINT
  5
17E3D
330
161FC
100
AcDbEntity
  8
DEFPOINTS
 62
     0
 48
50.0
100
AcDbPoint
 10
8602.044679601734
 20
8863.857263431746
 30
0.0
  0
POINT
  5
17E3E
330
161FC
100
AcDbEntity
  8
DEFPOINTS
 62
     0
 48
50.0
100
AcDbPoint
 10
8602.044679601734
 20
9299.335613378122
 30
0.0
  0
ENDBLK
  5
1630E
330
161FC
100
AcDbEntity
  8
0
 48
50.0
100
AcDbBlockEnd
  0
BLOCK
  5
1630F
330
1620A
100
AcDbEntity
  8
0
 48
50.0
100
AcDbBlockBegin
  2
*D5
 70
     1
 10
0.0
 20
0.0
 30
0.0
  3
*D5
  1

  0
LINE
  5
17E2B
330
1620A
100
AcDbEntity
  8
寸法
 62
     0
 48
50.0
370
    -2
100
AcDbLine
 10
7232.044679601725
 20
7473.857263431573
 30
0.0
 11
7232.044679601725
 21
6669.721294078049
 31
0.0
  0
LINE
  5
17E2C
330
1620A
100
AcDbEntity
  8
寸法
 62
     0
 48
50.0
370
    -2
100
AcDbLine
 10
8602.044679601709
 20
7473.857263431702
 30
0.0
 11
8602.044679601709
 21
6669.721294078049
 31
0.0
  0
LINE
  5
17E2D
330
1620A
100
AcDbEntity
  8
寸法
 62
     0
 48
50.0
370
    -2
100
AcDbLine
 10
7232.044679601725
 20
6729.721294078048
 30
0.0
 11
8602.044679601709
 21
6729.721294078048
 31
0.0
  0
INSERT
  5
17E2E
330
1620A
100
AcDbEntity
  8
寸法
 62
     0
 48
50.0
370
    -2
100
AcDbBlockReference
  2
_DOTSMALL
 10
7232.044679601725
 20
6729.721294078048
 30
0.0
 41
100.0
 42
100.0
 43
100.0
 50
180.0
  0
INSERT
  5
17E2F
330
1620A
100
AcDbEntity
  8
寸法
 62
     0
 48
50.0
370
    -2
100
AcDbBlockReference
  2
_DOTSMALL
 10
8602.044679601709
 20
6729.721294078048
 30
0.0
 41
100.0
 42
100.0
 43
100.0
  0
MTEXT
  5
17E30
330
1620A
100
AcDbEntity
  8
寸法
 62
     7
 48
50.0
100
AcDbMText
 10
7917.044679601715
 20
6829.721294078048
 30
0.0
 40
120.0
 41
0.0
 71
     5
 72
     1
  1
\A1;1370
  7
STYLE1
 73
     1
 44
1.0
1001
ACAD
1000
MTEXTBEGIN
1070
    73
1070
     1
1070
    44
1040
1.0
1070
    74
1070
     0
1000
MTEXTEND
  0
POINT
  5
17E31
330
1620A
100
AcDbEntity
  8
DEFPOINTS
 62
     0
 48
50.0
100
AcDbPoint
 10
7232.044679601725
 20
7493.857263431573
 30
0.0
  0
POINT
  5
17E32
330
1620A
100
AcDbEntity
  8
DEFPOINTS
 62
     0
 48
50.0
100
AcDbPoint
 10
8602.044679601709
 20
7493.857263431703
 30
0.0
  0
POINT
  5
17E33
330
1620A
100
AcDbEntity
  8
DEFPOINTS
 62
     0
 48
50.0
100
AcDbPoint
 10
8602.044679601709
 20
6729.721294078048
 30
0.0
  0
ENDBLK
  5
16319
330
1620A
100
AcDbEntity
  8
0
 48
50.0
100
AcDbBlockEnd
  0
BLOCK
  5
1631A
330
16216
100
AcDbEntity
  8
0
 48
50.0
100
AcDbBlockBegin
  2
*D6
 70
     1
 10
0.0
 20
0.0
 30
0.0
  3
*D6
  1

  0
LINE
  5
17E22
330
16216
100
AcDbEntity
  8
寸法
 62
     0
 48
50.0
370
    -2
100
AcDbLine
 10
5862.044679601725
 20
7473.857263431573
 30
0.0
 11
5862.044679601725
 21
6669.721294078049
 31
0.0
  0
LINE
  5
17E23
330
16216
100
AcDbEntity
  8
寸法
 62
     0
 48
50.0
370
    -2
100
AcDbLine
 10
7232.044679601706
 20
7473.857263431702
 30
0.0
 11
7232.044679601706
 21
6669.721294078049
 31
0.0
  0
LINE
  5
17E24
330
16216
100
AcDbEntity
  8
寸法
 62
     0
 48
50.0
370
    -2
100
AcDbLine
 10
5862.044679601725
 20
6729.721294078048
 30
0.0
 11
7232.044679601706
 21
6729.721294078048
 31
0.0
  0
INSERT
  5
17E25
330
16216
100
AcDbEntity
  8
寸法
 62
     0
 48
50.0
370
    -2
100
AcDbBlockReference
  2
_DOTSMALL
 10
5862.044679601725
 20
6729.721294078048
 30
0.0
 41
100.0
 42
100.0
 43
100.0
 50
180.0
  0
INSERT
  5
17E26
330
16216
100
AcDbEntity
  8
寸法
 62
     0
 48
50.0
370
    -2
100
AcDbBlockReference
  2
_DOTSMALL
 10
7232.044679601706
 20
6729.721294078048
 30
0.0
 41
100.0
 42
100.0
 43
100.0
  0
MTEXT
  5
17E27
330
16216
100
AcDbEntity
  8
寸法
 62
     7
 48
50.0
100
AcDbMText
 10
6547.044679601715
 20
6829.721294078048
 30
0.0
 40
120.0
 41
0.0
 71
     5
 72
     1
  1
\A1;1370
  7
STYLE1
 73
     1
 44
1.0
1001
ACAD
1000
MTEXTBEGIN
1070
    73
1070
     1
1070
    44
1040
1.0
1070
    74
1070
     0
1000
MTEXTEND
  0
POINT
  5
17E28
330
16216
100
AcDbEntity
  8
DEFPOINTS
 62
     0
 48
50.0
100
AcDbPoint
 10
5862.044679601725
 20
7493.857263431573
 30
0.0
  0
POINT
  5
17E29
330
16216
100
AcDbEntity
  8
DEFPOINTS
 62
     0
 48
50.0
100
AcDbPoint
 10
7232.044679601706
 20
7493.857263431703
 30
0.0
  0
POINT
  5
17E2A
330
16216
100
AcDbEntity
  8
DEFPOINTS
 62
     0
 48
50.0
100
AcDbPoint
 10
7232.044679601706
 20
6729.721294078048
 30
0.0
  0
ENDBLK
  5
16324
330
16216
100
AcDbEntity
  8
0
 48
50.0
100
AcDbBlockEnd
  0
BLOCK
  5
1633B
330
1623A
100
AcDbEntity
  8
0
 48
50.0
100
AcDbBlockBegin
  2
*D7
 70
     1
 10
0.0
 20
0.0
 30
0.0
  3
*D7
  1

  0
LINE
  5
17E19
330
1623A
100
AcDbEntity
  8
寸法
 62
     0
 48
50.0
370
    -2
100
AcDbLine
 10
5917.044679601731
 20
8883.857263431663
 30
0.0
 11
5917.044679601731
 21
9359.33561337814
 31
0.0
  0
LINE
  5
17E1A
330
1623A
100
AcDbEntity
  8
寸法
 62
     0
 48
50.0
370
    -2
100
AcDbLine
 10
5807.044679601732
 20
8883.857263431746
 30
0.0
 11
5807.044679601732
 21
9359.33561337814
 31
0.0
  0
LINE
  5
17E1B
330
1623A
100
AcDbEntity
  8
寸法
 62
     0
 48
50.0
370
    -2
100
AcDbLine
 10
5917.044679601731
 20
9299.335613378142
 30
0.0
 11
5807.044679601732
 21
9299.335613378142
 31
0.0
  0
INSERT
  5
17E1C
330
1623A
100
AcDbEntity
  8
寸法
 62
     0
 48
50.0
370
    -2
100
AcDbBlockReference
  2
_DOTSMALL
 10
5917.044679601731
 20
9299.335613378142
 30
0.0
 41
100.0
 42
100.0
 43
100.0
  0
INSERT
  5
17E1D
330
1623A
100
AcDbEntity
  8
寸法
 62
     0
 48
50.0
370
    -2
100
AcDbBlockReference
  2
_DOTSMALL
 10
5807.044679601732
 20
9299.335613378142
 30
0.0
 41
100.0
 42
100.0
 43
100.0
 50
180.0
  0
MTEXT
  5
17E1E
330
1623A
100
AcDbEntity
  8
寸法
 62
     7
 48
50.0
100
AcDbMText
 10
5862.044679601731
 20
9399.335613378141
 30
0.0
 40
120.0
 41
0.0
 71
     5
 72
     1
  1
\A1;110
  7
STYLE1
 73
     1
 44
1.0
1001
ACAD
1000
MTEXTBEGIN
1070
    73
1070
     1
1070
    44
1040
1.0
1070
    74
1070
     0
1000
MTEXTEND
  0
POINT
  5
17E1F
330
1623A
100
AcDbEntity
  8
DEFPOINTS
 62
     0
 48
50.0
100
AcDbPoint
 10
5917.044679601731
 20
8863.857263431663
 30
0.0
  0
POINT
  5
17E20
330
1623A
100
AcDbEntity
  8
DEFPOINTS
 62
     0
 48
50.0
100
AcDbPoint
 10
5807.044679601732
 20
8863.857263431746
 30
0.0
  0
POINT
  5
17E21
330
1623A
100
AcDbEntity
  8
DEFPOINTS
 62
     0
 48
50.0
100
AcDbPoint
 10
5807.044679601732
 20
9299.335613378142
 30
0.0
  0
ENDBLK
  5
16345
330
1623A
100
AcDbEntity
  8
0
 48
50.0
100
AcDbBlockEnd
  0
BLOCK
  5
16346
330
16246
100
AcDbEntity
  8
0
 48
50.0
100
AcDbBlockBegin
  2
*D8
 70
     1
 10
0.0
 20
0.0
 30
0.0
  3
*D8
  1

  0
LINE
  5
17E10
330
16246
100
AcDbEntity
  8
寸法
 62
     0
 48
50.0
370
    -2
100
AcDbLine
 10
5917.044679601731
 20
8883.85726343162
 30
0.0
 11
5917.044679601731
 21
9359.33561337814
 31
0.0
  0
LINE
  5
17E11
330
16246
100
AcDbEntity
  8
寸法
 62
     0
 48
50.0
370
    -2
100
AcDbLine
 10
7177.044679601732
 20
8883.857263431746
 30
0.0
 11
7177.044679601732
 21
9359.33561337814
 31
0.0
  0
LINE
  5
17E12
330
16246
100
AcDbEntity
  8
寸法
 62
     0
 48
50.0
370
    -2
100
AcDbLine
 10
5917.044679601731
 20
9299.335613378142
 30
0.0
 11
7177.044679601732
 21
9299.335613378142
 31
0.0
  0
INSERT
  5
17E13
330
16246
100
AcDbEntity
  8
寸法
 62
     0
 48
50.0
370
    -2
100
AcDbBlockReference
  2
_DOTSMALL
 10
5917.044679601731
 20
9299.335613378142
 30
0.0
 41
100.0
 42
100.0
 43
100.0
 50
180.0
  0
INSERT
  5
17E14
330
16246
100
AcDbEntity
  8
寸法
 62
     0
 48
50.0
370
    -2
100
AcDbBlockReference
  2
_DOTSMALL
 10
7177.044679601732
 20
9299.335613378142
 30
0.0
 41
100.0
 42
100.0
 43
100.0
  0
MTEXT
  5
17E15
330
16246
100
AcDbEntity
  8
寸法
 62
     7
 48
50.0
100
AcDbMText
 10
6547.04467960173
 20
9399.347424401764
 30
0.0
 40
120.0
 41
0.0
 71
     5
 72
     1
  1
\A1;3X420=1260
  7
STYLE1
 73
     1
 44
1.0
1001
ACAD
1000
MTEXTBEGIN
1070
    73
1070
     1
1070
    44
1040
1.0
1070
    74
1070
     0
1000
MTEXTEND
  0
POINT
  5
17E16
330
16246
100
AcDbEntity
  8
DEFPOINTS
 62
     0
 48
50.0
100
AcDbPoint
 10
5917.044679601731
 20
8863.857263431619
 30
0.0
  0
POINT
  5
17E17
330
16246
100
AcDbEntity
  8
DEFPOINTS
 62
     0
 48
50.0
100
AcDbPoint
 10
7177.044679601732
 20
8863.857263431746
 30
0.0
  0
POINT
  5
17E18
330
16246
100
AcDbEntity
  8
DEFPOINTS
 62
     0
 48
50.0
100
AcDbPoint
 10
7177.044679601732
 20
9299.335613378142
 30
0.0
  0
ENDBLK
  5
16350
330
16246
100
AcDbEntity
  8
0
 48
50.0
100
AcDbBlockEnd
  0
BLOCK
  5
16351
330
16252
100
AcDbEntity
  8
0
 48
50.0
100
AcDbBlockBegin
  2
*D9
 70
     1
 10
0.0
 20
0.0
 30
0.0
  3
*D9
  1

  0
LINE
  5
17E05
330
16252
100
AcDbEntity
  8
寸法
 62
     0
 48
50.0
370
    -2
100
AcDbLine
 10
4492.044679601696
 20
8883.85726343162
 30
0.0
 11
4492.044679601696
 21
9359.335613377991
 31
0.0
  0
LINE
  5
17E06
330
16252
100
AcDbEntity
  8
寸法
 62
     0
 48
50.0
370
    -2
100
AcDbLine
 10
4547.044679601731
 20
8883.85726343162
 30
0.0
 11
4547.044679601731
 21
9359.335613377991
 31
0.0
  0
LINE
  5
17E07
330
16252
100
AcDbEntity
  8
寸法
 62
     0
 48
50.0
370
    -2
100
AcDbLine
 10
4547.044679601731
 20
9299.335613377992
 30
0.0
 11
4647.044679601731
 21
9299.335613377992
 31
0.0
  0
LINE
  5
17E08
330
16252
100
AcDbEntity
  8
寸法
 62
     0
 48
50.0
370
    -2
100
AcDbLine
 10
4492.044679601696
 20
9299.335613377992
 30
0.0
 11
4075.074116853219
 21
9299.335613377992
 31
0.0
  0
LINE
  5
17E09
330
16252
100
AcDbEntity
  8
寸法
 62
     0
 48
50.0
370
    -2
100
AcDbLine
 10
4547.044679601731
 20
9299.335613377992
 30
0.0
 11
4492.044679601696
 21
9299.335613377992
 31
0.0
  0
INSERT
  5
17E0A
330
16252
100
AcDbEntity
  8
寸法
 62
     0
 48
50.0
370
    -2
100
AcDbBlockReference
  2
_DOTSMALL
 10
4547.044679601731
 20
9299.335613377992
 30
0.0
 41
100.0
 42
100.0
 43
100.0
 50
180.0
  0
INSERT
  5
17E0B
330
16252
100
AcDbEntity
  8
寸法
 62
     0
 48
50.0
370
    -2
100
AcDbBlockReference
  2
_DOTSMALL
 10
4492.044679601696
 20
9299.335613377992
 30
0.0
 41
100.0
 42
100.0
 43
100.0
  0
MTEXT
  5
17E0C
330
16252
100
AcDbEntity
  8
寸法
 62
     7
 48
50.0
100
AcDbMText
 10
4183.559398227458
 20
9399.335613377992
 30
0.0
 40
120.0
 41
0.0
 71
     5
 72
     1
  1
\A1;55
  7
STYLE1
 73
     1
 44
1.0
1001
ACAD
1000
MTEXTBEGIN
1070
    73
1070
     1
1070
    44
1040
1.0
1070
    74
1070
     0
1000
MTEXTEND
  0
POINT
  5
17E0D
330
16252
100
AcDbEntity
  8
DEFPOINTS
 62
     0
 48
50.0
100
AcDbPoint
 10
4492.044679601696
 20
8863.857263431619
 30
0.0
  0
POINT
  5
17E0E
330
16252
100
AcDbEntity
  8
DEFPOINTS
 62
     0
 48
50.0
100
AcDbPoint
 10
4547.044679601731
 20
8863.857263431619
 30
0.0
  0
POINT
  5
17E0F
330
16252
100
AcDbEntity
  8
DEFPOINTS
 62
     0
 48
50.0
100
AcDbPoint
 10
4547.044679601731
 20
9299.335613377992
 30
0.0
  0
ENDBLK
  5
1635D
330
16252
100
AcDbEntity
  8
0
 48
50.0
100
AcDbBlockEnd
  0
BLOCK
  5
1635E
330
16260
100
AcDbEntity
  8
0
 48
50.0
100
AcDbBlockBegin
  2
*D10
 70
     1
 10
0.0
 20
0.0
 30
0.0
  3
*D10
  1

  0
LINE
  5
17DFC
330
16260
100
AcDbEntity
  8
寸法
 62
     0
 48
50.0
370
    -2
100
AcDbLine
 10
7287.044679601732
 20
8883.85726343162
 30
0.0
 11
7287.044679601732
 21
9359.33561337814
 31
0.0
  0
LINE
  5
17DFD
330
16260
100
AcDbEntity
  8
寸法
 62
     0
 48
50.0
370
    -2
100
AcDbLine
 10
7177.044679601731
 20
8883.85726343162
 30
0.0
 11
7177.044679601731
 21
9359.33561337814
 31
0.0
  0
LINE
  5
17DFE
330
16260
100
AcDbEntity
  8
寸法
 62
     0
 48
50.0
370
    -2
100
AcDbLine
 10
7287.044679601732
 20
9299.335613378142
 30
0.0
 11
7177.044679601731
 21
9299.335613378142
 31
0.0
  0
INSERT
  5
17DFF
330
16260
100
AcDbEntity
  8
寸法
 62
     0
 48
50.0
370
    -2
100
AcDbBlockReference
  2
_DOTSMALL
 10
7287.044679601732
 20
9299.335613378142
 30
0.0
 41
100.0
 42
100.0
 43
100.0
  0
INSERT
  5
17E00
330
16260
100
AcDbEntity
  8
寸法
 62
     0
 48
50.0
370
    -2
100
AcDbBlockReference
  2
_DOTSMALL
 10
7177.044679601731
 20
9299.335613378142
 30
0.0
 41
100.0
 42
100.0
 43
100.0
 50
180.0
  0
MTEXT
  5
17E01
330
16260
100
AcDbEntity
  8
寸法
 62
     7
 48
50.0
100
AcDbMText
 10
7232.044679601732
 20
9399.335613378141
 30
0.0
 40
120.0
 41
0.0
 71
     5
 72
     1
  1
\A1;110
  7
STYLE1
 73
     1
 44
1.0
1001
ACAD
1000
MTEXTBEGIN
1070
    73
1070
     1
1070
    44
1040
1.0
1070
    74
1070
     0
1000
MTEXTEND
  0
POINT
  5
17E02
330
16260
100
AcDbEntity
  8
DEFPOINTS
 62
     0
 48
50.0
100
AcDbPoint
 10
7287.044679601732
 20
8863.857263431619
 30
0.0
  0
POINT
  5
17E03
330
16260
100
AcDbEntity
  8
DEFPOINTS
 62
     0
 48
50.0
100
AcDbPoint
 10
7177.044679601731
 20
8863.857263431619
 30
0.0
  0
POINT
  5
17E04
330
16260
100
AcDbEntity
  8
DEFPOINTS
 62
     0
 48
50.0
100
AcDbPoint
 10
7177.044679601731
 20
9299.335613378142
 30
0.0
  0
ENDBLK
  5
16368
330
16260
100
AcDbEntity
  8
0
 48
50.0
100
AcDbBlockEnd
  0
BLOCK
  5
16461
330
16278
100
AcDbEntity
  8
0
 48
50.0
100
AcDbBlockBegin
  2
*D11
 70
     1
 10
0.0
 20
0.0
 30
0.0
  3
*D11
  1

  0
LINE
  5
17DF3
330
16278
100
AcDbEntity
  8
寸法
 62
     0
 48
50.0
370
    -2
100
AcDbLine
 10
8622.044679601733
 20
8808.85726343175
 30
0.0
 11
9309.471025336144
 21
8808.85726343175
 31
0.0
  0
LINE
  5
17DF4
330
16278
100
AcDbEntity
  8
寸法
 62
     0
 48
50.0
370
    -2
100
AcDbLine
 10
8622.044679601707
 20
7548.857263431734
 30
0.0
 11
9309.471025336144
 21
7548.857263431734
 31
0.0
  0
LINE
  5
17DF5
330
16278
100
AcDbEntity
  8
寸法
 62
     0
 48
50.0
370
    -2
100
AcDbLine
 10
9249.471025336145
 20
8808.85726343175
 30
0.0
 11
9249.471025336145
 21
7548.857263431734
 31
0.0
  0
INSERT
  5
17DF6
330
16278
100
AcDbEntity
  8
寸法
 62
     0
 48
50.0
370
    -2
100
AcDbBlockReference
  2
_DOTSMALL
 10
9249.471025336145
 20
8808.85726343175
 30
0.0
 41
100.0
 42
100.0
 43
100.0
 50
90.0
  0
INSERT
  5
17DF7
330
16278
100
AcDbEntity
  8
寸法
 62
     0
 48
50.0
370
    -2
100
AcDbBlockReference
  2
_DOTSMALL
 10
9249.471025336145
 20
7548.857263431734
 30
0.0
 41
100.0
 42
100.0
 43
100.0
 50
270.0
  0
MTEXT
  5
17DF8
330
16278
100
AcDbEntity
  8
寸法
 62
     7
 48
50.0
100
AcDbMText
 10
9149.459214312521
 20
8254.810019337261
 30
0.0
 40
120.0
 41
0.0
 71
     5
 72
     1
  1
\A1;3X420=1260
  7
STYLE1
 11
0.0000000000000001
 21
1.0
 31
0.0
 73
     1
 44
1.0
1001
ACAD
1000
MTEXTBEGIN
1070
    73
1070
     1
1070
    44
1040
1.0
1070
    74
1070
     0
1000
MTEXTEND
  0
POINT
  5
17DF9
330
16278
100
AcDbEntity
  8
DEFPOINTS
 62
     0
 48
50.0
100
AcDbPoint
 10
8602.044679601734
 20
8808.85726343175
 30
0.0
  0
POINT
  5
17DFA
330
16278
100
AcDbEntity
  8
DEFPOINTS
 62
     0
 48
50.0
100
AcDbPoint
 10
8602.044679601709
 20
7548.857263431734
 30
0.0
  0
POINT
  5
17DFB
330
16278
100
AcDbEntity
  8
DEFPOINTS
 62
     0
 48
50.0
100
AcDbPoint
 10
9249.471025336145
 20
7548.857263431734
 30
0.0
  0
ENDBLK
  5
1646B
330
16278
100
AcDbEntity
  8
0
 48
50.0
100
AcDbBlockEnd
  0
BLOCK
  5
1637F
330
16284
100
AcDbEntity
  8
0
 48
50.0
100
AcDbBlockBegin
  2
*D12
 70
     1
 10
0.0
 20
0.0
 30
0.0
  3
*D12
  1

  0
LINE
  5
17DE8
330
16284
100
AcDbEntity
  8
寸法
 62
     0
 48
50.0
370
    -2
100
AcDbLine
 10
8622.044679601733
 20
8863.857263431746
 30
0.0
 11
9309.471025336144
 21
8863.857263431746
 31
0.0
  0
LINE
  5
17DE9
330
16284
100
AcDbEntity
  8
寸法
 62
     0
 48
50.0
370
    -2
100
AcDbLine
 10
8622.044679601733
 20
8808.85726343175
 30
0.0
 11
9309.471025336144
 21
8808.85726343175
 31
0.0
  0
LINE
  5
17DEA
330
16284
100
AcDbEntity
  8
寸法
 62
     0
 48
50.0
370
    -2
100
AcDbLine
 10
9249.471025336145
 20
8808.85726343175
 30
0.0
 11
9249.471025336145
 21
8708.857263431751
 31
0.0
  0
LINE
  5
17DEB
330
16284
100
AcDbEntity
  8
寸法
 62
     0
 48
50.0
370
    -2
100
AcDbLine
 10
9249.471025336145
 20
8863.857263431746
 30
0.0
 11
9249.471025336145
 21
9280.827826180223
 31
0.0
  0
LINE
  5
17DEC
330
16284
100
AcDbEntity
  8
寸法
 62
     0
 48
50.0
370
    -2
100
AcDbLine
 10
9249.471025336145
 20
8808.85726343175
 30
0.0
 11
9249.471025336145
 21
8863.857263431746
 31
0.0
  0
INSERT
  5
17DED
330
16284
100
AcDbEntity
  8
寸法
 62
     0
 48
50.0
370
    -2
100
AcDbBlockReference
  2
_DOTSMALL
 10
9249.471025336145
 20
8808.85726343175
 30
0.0
 41
100.0
 42
100.0
 43
100.0
 50
90.0
  0
INSERT
  5
17DEE
330
16284
100
AcDbEntity
  8
寸法
 62
     0
 48
50.0
370
    -2
100
AcDbBlockReference
  2
_DOTSMALL
 10
9249.471025336145
 20
8863.857263431746
 30
0.0
 41
100.0
 42
100.0
 43
100.0
 50
270.0
  0
MTEXT
  5
17DEF
330
16284
100
AcDbEntity
  8
寸法
 62
     7
 48
50.0
100
AcDbMText
 10
9149.471025336143
 20
9172.342544805985
 30
0.0
 40
120.0
 41
0.0
 71
     5
 72
     1
  1
\A1;55
  7
STYLE1
 11
0.0000000000000001
 21
1.0
 31
0.0
 73
     1
 44
1.0
1001
ACAD
1000
MTEXTBEGIN
1070
    73
1070
     1
1070
    44
1040
1.0
1070
    74
1070
     0
1000
MTEXTEND
  0
POINT
  5
17DF0
330
16284
100
AcDbEntity
  8
DEFPOINTS
 62
     0
 48
50.0
100
AcDbPoint
 10
8602.044679601734
 20
8863.857263431746
 30
0.0
  0
POINT
  5
17DF1
330
16284
100
AcDbEntity
  8
DEFPOINTS
 62
     0
 48
50.0
100
AcDbPoint
 10
8602.044679601734
 20
8808.85726343175
 30
0.0
  0
POINT
  5
17DF2
330
16284
100
AcDbEntity
  8
DEFPOINTS
 62
     0
 48
50.0
100
AcDbPoint
 10
9249.471025336145
 20
8808.85726343175
 30
0.0
  0
ENDBLK
  5
1638B
330
16284
100
AcDbEntity
  8
0
 48
50.0
100
AcDbBlockEnd
  0
BLOCK
  5
1646C
330
16292
100
AcDbEntity
  8
0
 48
50.0
100
AcDbBlockBegin
  2
*D13
 70
     1
 10
0.0
 20
0.0
 30
0.0
  3
*D13
  1

  0
LINE
  5
17DDF
330
16292
100
AcDbEntity
  8
寸法
 62
     0
 48
50.0
370
    -2
100
AcDbLine
 10
8622.044679601733
 20
8863.857263431746
 30
0.0
 11
9587.487090248544
 21
8863.857263431746
 31
0.0
  0
LINE
  5
17DE0
330
16292
100
AcDbEntity
  8
寸法
 62
     0
 48
50.0
370
    -2
100
AcDbLine
 10
8622.044679601707
 20
7493.857263431737
 30
0.0
 11
9587.487090248544
 21
7493.857263431737
 31
0.0
  0
LINE
  5
17DE1
330
16292
100
AcDbEntity
  8
寸法
 62
     0
 48
50.0
370
    -2
100
AcDbLine
 10
9527.487090248543
 20
8863.857263431746
 30
0.0
 11
9527.487090248543
 21
7493.857263431737
 31
0.0
  0
INSERT
  5
17DE2
330
16292
100
AcDbEntity
  8
寸法
 62
     0
 48
50.0
370
    -2
100
AcDbBlockReference
  2
_DOTSMALL
 10
9527.487090248543
 20
8863.857263431746
 30
0.0
 41
100.0
 42
100.0
 43
100.0
 50
90.0
  0
INSERT
  5
17DE3
330
16292
100
AcDbEntity
  8
寸法
 62
     0
 48
50.0
370
    -2
100
AcDbBlockReference
  2
_DOTSMALL
 10
9527.487090248543
 20
7493.857263431737
 30
0.0
 41
100.0
 42
100.0
 43
100.0
 50
270.0
  0
MTEXT
  5
17DE4
330
16292
100
AcDbEntity
  8
寸法
 62
     7
 48
50.0
100
AcDbMText
 10
9427.487090248542
 20
8179.851675542654
 30
0.0
 40
120.0
 41
0.0
 71
     5
 72
     1
  1
\A1;1370
  7
STYLE1
 11
0.0000000000000001
 21
1.0
 31
0.0
 73
     1
 44
1.0
1001
ACAD
1000
MTEXTBEGIN
1070
    73
1070
     1
1070
    44
1040
1.0
1070
    74
1070
     0
1000
MTEXTEND
  0
POINT
  5
17DE5
330
16292
100
AcDbEntity
  8
DEFPOINTS
 62
     0
 48
50.0
100
AcDbPoint
 10
8602.044679601734
 20
8863.857263431746
 30
0.0
  0
POINT
  5
17DE6
330
16292
100
AcDbEntity
  8
DEFPOINTS
 62
     0
 48
50.0
100
AcDbPoint
 10
8602.044679601709
 20
7493.857263431737
 30
0.0
  0
POINT
  5
17DE7
330
16292
100
AcDbEntity
  8
DEFPOINTS
 62
     0
 48
50.0
100
AcDbPoint
 10
9527.487090248543
 20
7493.857263431737
 30
0.0
  0
ENDBLK
  5
16476
330
16292
100
AcDbEntity
  8
0
 48
50.0
100
AcDbBlockEnd
  0
BLOCK
  5
16397
330
1629E
100
AcDbEntity
  8
0
 48
50.0
100
AcDbBlockBegin
  2
*D14
 70
     1
 10
0.0
 20
0.0
 30
0.0
  3
*D14
  1

  0
LINE
  5
17DD4
330
1629E
100
AcDbEntity
  8
寸法
 62
     0
 48
50.0
370
    -2
100
AcDbLine
 10
8622.044679601707
 20
7548.857263431734
 30
0.0
 11
9309.471025336119
 21
7548.857263431734
 31
0.0
  0
LINE
  5
17DD5
330
1629E
100
AcDbEntity
  8
寸法
 62
     0
 48
50.0
370
    -2
100
AcDbLine
 10
8622.044679601707
 20
7493.857263431737
 30
0.0
 11
9309.471025336119
 21
7493.857263431737
 31
0.0
  0
LINE
  5
17DD6
330
1629E
100
AcDbEntity
  8
寸法
 62
     0
 48
50.0
370
    -2
100
AcDbLine
 10
9249.471025336118
 20
7548.857263431734
 30
0.0
 11
9249.471025336118
 21
7648.857263431733
 31
0.0
  0
LINE
  5
17DD7
330
1629E
100
AcDbEntity
  8
寸法
 62
     0
 48
50.0
370
    -2
100
AcDbLine
 10
9249.471025336118
 20
7493.857263431737
 30
0.0
 11
9249.471025336118
 21
7007.510515152636
 31
0.0
  0
LINE
  5
17DD8
330
1629E
100
AcDbEntity
  8
寸法
 62
     0
 48
50.0
370
    -2
100
AcDbLine
 10
9249.471025336118
 20
7548.857263431734
 30
0.0
 11
9249.471025336118
 21
7493.857263431737
 31
0.0
  0
INSERT
  5
17DD9
330
1629E
100
AcDbEntity
  8
寸法
 62
     0
 48
50.0
370
    -2
100
AcDbBlockReference
  2
_DOTSMALL
 10
9249.471025336118
 20
7548.857263431734
 30
0.0
 41
100.0
 42
100.0
 43
100.0
 50
270.0
  0
INSERT
  5
17DDA
330
1629E
100
AcDbEntity
  8
寸法
 62
     0
 48
50.0
370
    -2
100
AcDbBlockReference
  2
_DOTSMALL
 10
9249.471025336118
 20
7493.857263431737
 30
0.0
 41
100.0
 42
100.0
 43
100.0
 50
90.0
  0
MTEXT
  5
17DDB
330
1629E
100
AcDbEntity
  8
寸法
 62
     7
 48
50.0
100
AcDbMText
 10
9149.471025336117
 20
7115.995796526876
 30
0.0
 40
120.0
 41
0.0
 71
     5
 72
     1
  1
\A1;55
  7
STYLE1
 11
0.0000000000000001
 21
1.0
 31
0.0
 73
     1
 44
1.0
1001
ACAD
1000
MTEXTBEGIN
1070
    73
1070
     1
1070
    44
1040
1.0
1070
    74
1070
     0
1000
MTEXTEND
  0
POINT
  5
17DDC
330
1629E
100
AcDbEntity
  8
DEFPOINTS
 62
     0
 48
50.0
100
AcDbPoint
 10
8602.044679601709
 20
7548.857263431734
 30
0.0
  0
POINT
  5
17DDD
330
1629E
100
AcDbEntity
  8
DEFPOINTS
 62
     0
 48
50.0
100
AcDbPoint
 10
8602.044679601709
 20
7493.857263431737
 30
0.0
  0
POINT
  5
17DDE
330
1629E
100
AcDbEntity
  8
DEFPOINTS
 62
     0
 48
50.0
100
AcDbPoint
 10
9249.471025336118
 20
7493.857263431737
 30
0.0
  0
ENDBLK
  5
163A3
330
1629E
100
AcDbEntity
  8
0
 48
50.0
100
AcDbBlockEnd
  0
BLOCK
  5
16AC9
330
16ABE
100
AcDbEntity
  8
0
 48
50.0
100
AcDbBlockBegin
  2
*D15
 70
     1
 10
0.0
 20
0.0
 30
0.0
  3
*D15
  1

  0
LINE
  5
17DA6
330
16ABE
100
AcDbEntity
  8
寸法
 62
     0
 48
50.0
370
    -2
100
AcDbLine
 10
10473.19886609669
 20
4845.93901531166
 30
0.0
 11
9820.298695802668
 21
4870.590046551638
 31
0.0
  0
LINE
  5
17DA7
330
16ABE
100
AcDbEntity
  8
寸法
 62
     0
 48
50.0
370
    -2
100
AcDbLine
 10
10478.51870024865
 20
4986.838622708543
 30
0.0
 11
9825.618529954461
 21
5011.489653948527
 31
0.0
  0
LINE
  5
17DA8
330
16ABE
100
AcDbEntity
  8
寸法
 62
     0
 48
50.0
370
    -2
100
AcDbLine
 10
9880.255975546026
 20
4868.32628733811
 30
0.0
 11
9885.575809697819
 21
5009.225894734998
 31
0.0
  0
LINE
  5
17DA9
330
16ABE
100
AcDbEntity
  8
寸法
 62
     0
 48
50.0
370
    -2
100
AcDbLine
 10
9885.575809697819
 20
5009.225894734998
 30
0.0
 11
9899.158364979015
 21
5368.969573195837
 31
0.0
  0
INSERT
  5
17DAA
330
16ABE
100
AcDbEntity
  8
寸法
 62
     0
 48
50.0
370
    -2
100
AcDbBlockReference
  2
_DOTSMALL
 10
9880.255975546026
 20
4868.32628733811
 30
0.0
 41
100.0
 42
100.0
 43
100.0
 50
267.8377559871574
  0
INSERT
  5
17DAB
330
16ABE
100
AcDbEntity
  8
寸法
 62
     0
 48
50.0
370
    -2
100
AcDbBlockReference
  2
_DOTSMALL
 10
9885.575809697819
 20
5009.225894734998
 30
0.0
 41
100.0
 42
100.0
 43
100.0
 50
87.83775598715743
  0
MTEXT
  5
17DAC
330
16ABE
100
AcDbEntity
  8
寸法
 62
     7
 48
50.0
100
AcDbMText
 10
9794.324753777441
 20
5242.835065774443
 30
0.0
 40
120.0
 41
0.0
 71
     5
 72
     1
  1
\A1;141
  7
STYLE1
 11
0.03772932022548
 21
0.9992879957226159
 31
0.0
 73
     1
 44
1.0
1001
ACAD
1000
MTEXTBEGIN
1070
    73
1070
     1
1070
    44
1040
1.0
1070
    74
1070
     0
1000
MTEXTEND
  0
POINT
  5
17DAD
330
16ABE
100
AcDbEntity
  8
DEFPOINTS
 62
     0
 48
50.0
100
AcDbPoint
 10
10493.18462601114
 20
4845.184428907151
 30
0.0
  0
POINT
  5
17DAE
330
16ABE
100
AcDbEntity
  8
DEFPOINTS
 62
     0
 48
50.0
100
AcDbPoint
 10
10498.5044601631
 20
4986.084036304032
 30
0.0
  0
POINT
  5
17DAF
330
16ABE
100
AcDbEntity
  8
DEFPOINTS
 62
     0
 48
50.0
100
AcDbPoint
 10
9885.575809697819
 20
5009.225894734998
 30
0.0
  0
ENDBLK
  5
16ACA
330
16ABE
100
AcDbEntity
  8
0
 48
50.0
100
AcDbBlockEnd
  0
BLOCK
  5
16AD6
330
16ACB
100
AcDbEntity
  8
0
 48
50.0
100
AcDbBlockBegin
  2
*D16
 70
     1
 10
0.0
 20
0.0
 30
0.0
  3
*D16
  1

  0
LINE
  5
17D9C
330
16ACB
100
AcDbEntity
  8
寸法
 62
     0
 48
50.0
370
    -2
100
AcDbLine
 10
11907.84206140919
 20
4954.214083449837
 30
0.0
 11
11907.84206140919
 21
5446.060857417488
 31
0.0
  0
LINE
  5
17D9D
330
16ACB
100
AcDbEntity
  8
寸法
 62
     0
 48
50.0
370
    -2
100
AcDbLine
 10
11987.84206140919
 20
4952.403403838184
 30
0.0
 11
11987.84206140919
 21
5446.060857417488
 31
0.0
  0
LINE
  5
17D9E
330
16ACB
100
AcDbEntity
  8
寸法
 62
     0
 48
50.0
370
    -2
100
AcDbLine
 10
11907.84206140919
 20
5386.060857417487
 30
0.0
 11
11987.84206140919
 21
5386.060857417487
 31
0.0
  0
LINE
  5
17D9F
330
16ACB
100
AcDbEntity
  8
寸法
 62
     0
 48
50.0
370
    -2
100
AcDbLine
 10
11987.84206140919
 20
5386.060857417487
 30
0.0
 11
12299.93654959817
 21
5386.060857417487
 31
0.0
  0
INSERT
  5
17DA0
330
16ACB
100
AcDbEntity
  8
寸法
 62
     0
 48
50.0
370
    -2
100
AcDbBlockReference
  2
_DOTSMALL
 10
11907.84206140919
 20
5386.060857417487
 30
0.0
 41
100.0
 42
100.0
 43
100.0
 50
180.0
  0
INSERT
  5
17DA1
330
16ACB
100
AcDbEntity
  8
寸法
 62
     0
 48
50.0
370
    -2
100
AcDbBlockReference
  2
_DOTSMALL
 10
11987.84206140919
 20
5386.060857417487
 30
0.0
 41
100.0
 42
100.0
 43
100.0
  0
MTEXT
  5
17DA2
330
16ACB
100
AcDbEntity
  8
寸法
 62
     7
 48
50.0
100
AcDbMText
 10
12193.88930550368
 20
5486.060857417488
 30
0.0
 40
120.0
 41
0.0
 71
     5
 72
     1
  1
\A1;80
  7
STYLE1
 73
     1
 44
1.0
1001
ACAD
1000
MTEXTBEGIN
1070
    73
1070
     1
1070
    44
1040
1.0
1070
    74
1070
     0
1000
MTEXTEND
  0
POINT
  5
17DA3
330
16ACB
100
AcDbEntity
  8
DEFPOINTS
 62
     0
 48
50.0
100
AcDbPoint
 10
11907.84206140919
 20
4934.214083449837
 30
0.0
  0
POINT
  5
17DA4
330
16ACB
100
AcDbEntity
  8
DEFPOINTS
 62
     0
 48
50.0
100
AcDbPoint
 10
11987.84206140919
 20
4932.403403838184
 30
0.0
  0
POINT
  5
17DA5
330
16ACB
100
AcDbEntity
  8
DEFPOINTS
 62
     0
 48
50.0
100
AcDbPoint
 10
11987.84206140919
 20
5386.060857417487
 30
0.0
  0
ENDBLK
  5
16AD7
330
16ACB
100
AcDbEntity
  8
0
 48
50.0
100
AcDbBlockEnd
  0
BLOCK
  5
16B8A
330
16B80
100
AcDbEntity
  8
0
 48
50.0
100
AcDbBlockBegin
  2
*D17
 70
     1
 10
0.0
 20
0.0
 30
0.0
  3
*D17
  1

  0
LINE
  5
17D93
330
16B80
100
AcDbEntity
  8
寸法
 62
     0
 48
50.0
370
    -2
100
AcDbLine
 10
11987.84206140919
 20
4952.403403838184
 30
0.0
 11
11987.84206140919
 21
5654.235178609451
 31
0.0
  0
LINE
  5
17D94
330
16B80
100
AcDbEntity
  8
寸法
 62
     0
 48
50.0
370
    -2
100
AcDbLine
 10
10477.84206140919
 20
5007.403403838188
 30
0.0
 11
10477.84206140919
 21
5654.235178609451
 31
0.0
  0
LINE
  5
17D95
330
16B80
100
AcDbEntity
  8
寸法
 62
     0
 48
50.0
370
    -2
100
AcDbLine
 10
11987.84206140919
 20
5594.235178609451
 30
0.0
 11
10477.84206140919
 21
5594.235178609451
 31
0.0
  0
INSERT
  5
17D96
330
16B80
100
AcDbEntity
  8
寸法
 62
     0
 48
50.0
370
    -2
100
AcDbBlockReference
  2
_DOTSMALL
 10
11987.84206140919
 20
5594.235178609451
 30
0.0
 41
100.0
 42
100.0
 43
100.0
  0
INSERT
  5
17D97
330
16B80
100
AcDbEntity
  8
寸法
 62
     0
 48
50.0
370
    -2
100
AcDbBlockReference
  2
_DOTSMALL
 10
10477.84206140919
 20
5594.235178609451
 30
0.0
 41
100.0
 42
100.0
 43
100.0
 50
180.0
  0
MTEXT
  5
17D98
330
16B80
100
AcDbEntity
  8
寸法
 62
     7
 48
50.0
100
AcDbMText
 10
11204.96689111101
 20
5694.235178609451
 30
0.0
 40
120.0
 41
0.0
 71
     5
 72
     1
  1
\A1;1510
  7
STYLE1
 73
     1
 44
1.0
1001
ACAD
1000
MTEXTBEGIN
1070
    73
1070
     1
1070
    44
1040
1.0
1070
    74
1070
     0
1000
MTEXTEND
  0
POINT
  5
17D99
330
16B80
100
AcDbEntity
  8
DEFPOINTS
 62
     0
 48
50.0
100
AcDbPoint
 10
11987.84206140919
 20
4932.403403838184
 30
0.0
  0
POINT
  5
17D9A
330
16B80
100
AcDbEntity
  8
DEFPOINTS
 62
     0
 48
50.0
100
AcDbPoint
 10
10477.84206140919
 20
4987.403403838188
 30
0.0
  0
POINT
  5
17D9B
330
16B80
100
AcDbEntity
  8
DEFPOINTS
 62
     0
 48
50.0
100
AcDbPoint
 10
10477.84206140919
 20
5594.235178609451
 30
0.0
  0
ENDBLK
  5
16B8B
330
16B80
100
AcDbEntity
  8
0
 48
50.0
100
AcDbBlockEnd
  0
BLOCK
  5
16B98
330
16B8C
100
AcDbEntity
  8
0
 48
50.0
100
AcDbBlockBegin
  2
*D18
 70
     1
 10
0.0
 20
0.0
 30
0.0
  3
*D18
  1

  0
LINE
  5
17D88
330
16B8C
100
AcDbEntity
  8
寸法
 62
     0
 48
50.0
370
    -2
100
AcDbLine
 10
10537.84206140919
 20
5003.40502196116
 30
0.0
 11
10537.84206140919
 21
5446.060857417488
 31
0.0
  0
LINE
  5
17D89
330
16B8C
100
AcDbEntity
  8
寸法
 62
     0
 48
50.0
370
    -2
100
AcDbLine
 10
10477.84206140919
 20
5007.403403838188
 30
0.0
 11
10477.84206140919
 21
5446.060857417488
 31
0.0
  0
LINE
  5
17D8A
330
16B8C
100
AcDbEntity
  8
寸法
 62
     0
 48
50.0
370
    -2
100
AcDbLine
 10
10537.84206140919
 20
5386.060857417487
 30
0.0
 11
10637.84206140919
 21
5386.060857417487
 31
0.0
  0
LINE
  5
17D8B
330
16B8C
100
AcDbEntity
  8
寸法
 62
     0
 48
50.0
370
    -2
100
AcDbLine
 10
10477.84206140919
 20
5386.060857417487
 30
0.0
 11
10058.56647085801
 21
5386.060857417487
 31
0.0
  0
LINE
  5
17D8C
330
16B8C
100
AcDbEntity
  8
寸法
 62
     0
 48
50.0
370
    -2
100
AcDbLine
 10
10537.84206140919
 20
5386.060857417487
 30
0.0
 11
10477.84206140919
 21
5386.060857417487
 31
0.0
  0
INSERT
  5
17D8D
330
16B8C
100
AcDbEntity
  8
寸法
 62
     0
 48
50.0
370
    -2
100
AcDbBlockReference
  2
_DOTSMALL
 10
10537.84206140919
 20
5386.060857417487
 30
0.0
 41
100.0
 42
100.0
 43
100.0
 50
180.0
  0
INSERT
  5
17D8E
330
16B8C
100
AcDbEntity
  8
寸法
 62
     0
 48
50.0
370
    -2
100
AcDbBlockReference
  2
_DOTSMALL
 10
10477.84206140919
 20
5386.060857417487
 30
0.0
 41
100.0
 42
100.0
 43
100.0
  0
MTEXT
  5
17D8F
330
16B8C
100
AcDbEntity
  8
寸法
 62
     7
 48
50.0
100
AcDbMText
 10
10168.2042661336
 20
5486.060857417488
 30
0.0
 40
120.0
 41
0.0
 71
     5
 72
     1
  1
\A1;60
  7
STYLE1
 73
     1
 44
1.0
1001
ACAD
1000
MTEXTBEGIN
1070
    73
1070
     1
1070
    44
1040
1.0
1070
    74
1070
     0
1000
MTEXTEND
  0
POINT
  5
17D90
330
16B8C
100
AcDbEntity
  8
DEFPOINTS
 62
     0
 48
50.0
100
AcDbPoint
 10
10537.84206140919
 20
4983.40502196116
 30
0.0
  0
POINT
  5
17D91
330
16B8C
100
AcDbEntity
  8
DEFPOINTS
 62
     0
 48
50.0
100
AcDbPoint
 10
10477.84206140919
 20
4987.403403838188
 30
0.0
  0
POINT
  5
17D92
330
16B8C
100
AcDbEntity
  8
DEFPOINTS
 62
     0
 48
50.0
100
AcDbPoint
 10
10477.84206140919
 20
5386.060857417487
 30
0.0
  0
ENDBLK
  5
16B99
330
16B8C
100
AcDbEntity
  8
0
 48
50.0
100
AcDbBlockEnd
  0
BLOCK
  5
16BA4
330
16B9A
100
AcDbEntity
  8
0
 48
50.0
100
AcDbBlockBegin
  2
*D19
 70
     1
 10
0.0
 20
0.0
 30
0.0
  3
*D19
  1

  0
LINE
  5
17D7F
330
16B9A
100
AcDbEntity
  8
寸法
 62
     0
 48
50.0
370
    -2
100
AcDbLine
 10
11907.84206140919
 20
4954.214083449837
 30
0.0
 11
11907.84206140919
 21
5446.060857417488
 31
0.0
  0
LINE
  5
17D80
330
16B9A
100
AcDbEntity
  8
寸法
 62
     0
 48
50.0
370
    -2
100
AcDbLine
 10
10537.84206140919
 20
5003.40502196116
 30
0.0
 11
10537.84206140919
 21
5446.060857417488
 31
0.0
  0
LINE
  5
17D81
330
16B9A
100
AcDbEntity
  8
寸法
 62
     0
 48
50.0
370
    -2
100
AcDbLine
 10
11907.84206140919
 20
5386.060857417487
 30
0.0
 11
10537.84206140919
 21
5386.060857417487
 31
0.0
  0
INSERT
  5
17D82
330
16B9A
100
AcDbEntity
  8
寸法
 62
     0
 48
50.0
370
    -2
100
AcDbBlockReference
  2
_DOTSMALL
 10
11907.84206140919
 20
5386.060857417487
 30
0.0
 41
100.0
 42
100.0
 43
100.0
  0
INSERT
  5
17D83
330
16B9A
100
AcDbEntity
  8
寸法
 62
     0
 48
50.0
370
    -2
100
AcDbBlockReference
  2
_DOTSMALL
 10
10537.84206140919
 20
5386.060857417487
 30
0.0
 41
100.0
 42
100.0
 43
100.0
 50
180.0
  0
MTEXT
  5
17D84
330
16B9A
100
AcDbEntity
  8
寸法
 62
     7
 48
50.0
100
AcDbMText
 10
11187.66109429974
 20
5486.060857417488
 30
0.0
 40
120.0
 41
0.0
 71
     5
 72
     1
  1
\A1;柱外寸法1370
  7
STYLE1
 73
     1
 44
1.0
1001
ACAD
1000
MTEXTBEGIN
1070
    73
1070
     1
1070
    44
1040
1.0
1070
    74
1070
     0
1000
MTEXTEND
  0
POINT
  5
17D85
330
16B9A
100
AcDbEntity
  8
DEFPOINTS
 62
     0
 48
50.0
100
AcDbPoint
 10
11907.84206140919
 20
4934.214083449837
 30
0.0
  0
POINT
  5
17D86
330
16B9A
100
AcDbEntity
  8
DEFPOINTS
 62
     0
 48
50.0
100
AcDbPoint
 10
10537.84206140919
 20
4983.40502196116
 30
0.0
  0
POINT
  5
17D87
330
16B9A
100
AcDbEntity
  8
DEFPOINTS
 62
     0
 48
50.0
100
AcDbPoint
 10
10537.84206140919
 20
5386.060857417487
 30
0.0
  0
ENDBLK
  5
16BA5
330
16B9A
100
AcDbEntity
  8
0
 48
50.0
100
AcDbBlockEnd
  0
BLOCK
  5
16BB0
330
16BA6
100
AcDbEntity
  8
0
 48
50.0
100
AcDbBlockBegin
  2
*D20
 70
     1
 10
0.0
 20
0.0
 30
0.0
  3
*D20
  1

  0
LINE
  5
17D76
330
16BA6
100
AcDbEntity
  8
寸法
 62
     0
 48
50.0
370
    -2
100
AcDbLine
 10
11927.84206140919
 20
2912.403403838183
 30
0.0
 11
12529.75573264829
 21
2912.403403838183
 31
0.0
  0
LINE
  5
17D77
330
16BA6
100
AcDbEntity
  8
寸法
 62
     0
 48
50.0
370
    -2
100
AcDbLine
 10
12007.84206140919
 20
4932.403403838184
 30
0.0
 11
12529.75573264829
 21
4932.403403838184
 31
0.0
  0
LINE
  5
17D78
330
16BA6
100
AcDbEntity
  8
寸法
 62
     0
 48
50.0
370
    -2
100
AcDbLine
 10
12469.75573264829
 20
2912.403403838183
 30
0.0
 11
12469.75573264829
 21
4932.403403838184
 31
0.0
  0
INSERT
  5
17D79
330
16BA6
100
AcDbEntity
  8
寸法
 62
     0
 48
50.0
370
    -2
100
AcDbBlockReference
  2
_DOTSMALL
 10
12469.75573264829
 20
2912.403403838183
 30
0.0
 41
100.0
 42
100.0
 43
100.0
 50
270.0
  0
INSERT
  5
17D7A
330
16BA6
100
AcDbEntity
  8
寸法
 62
     0
 48
50.0
370
    -2
100
AcDbBlockReference
  2
_DOTSMALL
 10
12469.75573264829
 20
4932.403403838184
 30
0.0
 41
100.0
 42
100.0
 43
100.0
 50
90.0
  0
MTEXT
  5
17D7B
330
16BA6
100
AcDbEntity
  8
寸法
 62
     7
 48
50.0
100
AcDbMText
 10
12369.74392162467
 20
3916.095095170574
 30
0.0
 40
120.0
 41
0.0
 71
     5
 72
     1
  1
\A1;2020
  7
STYLE1
 11
0.0000000000000001
 21
1.0
 31
0.0
 73
     1
 44
1.0
1001
ACAD
1000
MTEXTBEGIN
1070
    73
1070
     1
1070
    44
1040
1.0
1070
    74
1070
     0
1000
MTEXTEND
  0
POINT
  5
17D7C
330
16BA6
100
AcDbEntity
  8
DEFPOINTS
 62
     0
 48
50.0
100
AcDbPoint
 10
11907.84206140919
 20
2912.403403838183
 30
0.0
  0
POINT
  5
17D7D
330
16BA6
100
AcDbEntity
  8
DEFPOINTS
 62
     0
 48
50.0
100
AcDbPoint
 10
11987.84206140919
 20
4932.403403838184
 30
0.0
  0
POINT
  5
17D7E
330
16BA6
100
AcDbEntity
  8
DEFPOINTS
 62
     0
 48
50.0
100
AcDbPoint
 10
12469.75573264829
 20
4932.403403838184
 30
0.0
  0
ENDBLK
  5
16BB1
330
16BA6
100
AcDbEntity
  8
0
 48
50.0
100
AcDbBlockEnd
  0
BLOCK
  5
16BBE
330
16BB2
100
AcDbEntity
  8
0
 48
50.0
100
AcDbBlockBegin
  2
*D21
 70
     1
 10
0.0
 20
0.0
 30
0.0
  3
*D21
  1

  0
LINE
  5
17D6B
330
16BB2
100
AcDbEntity
  8
寸法
 62
     0
 48
50.0
370
    -2
100
AcDbLine
 10
10517.84206140919
 20
2962.403403838183
 30
0.0
 11
9634.091932225931
 21
2962.403403838183
 31
0.0
  0
LINE
  5
17D6C
330
16BB2
100
AcDbEntity
  8
寸法
 62
     0
 48
50.0
370
    -2
100
AcDbLine
 10
10462.84206140919
 20
2912.403403838183
 30
0.0
 11
9634.091932225931
 21
2912.403403838183
 31
0.0
  0
LINE
  5
17D6D
330
16BB2
100
AcDbEntity
  8
寸法
 62
     0
 48
50.0
370
    -2
100
AcDbLine
 10
9694.09193222593
 20
2962.403403838183
 30
0.0
 11
9694.09193222593
 21
3062.403403838183
 31
0.0
  0
LINE
  5
17D6E
330
16BB2
100
AcDbEntity
  8
寸法
 62
     0
 48
50.0
370
    -2
100
AcDbLine
 10
9694.09193222593
 20
2912.403403838183
 30
0.0
 11
9694.09193222593
 21
2500.308915649203
 31
0.0
  0
LINE
  5
17D6F
330
16BB2
100
AcDbEntity
  8
寸法
 62
     0
 48
50.0
370
    -2
100
AcDbLine
 10
9694.09193222593
 20
2962.403403838183
 30
0.0
 11
9694.09193222593
 21
2912.403403838183
 31
0.0
  0
INSERT
  5
17D70
330
16BB2
100
AcDbEntity
  8
寸法
 62
     0
 48
50.0
370
    -2
100
AcDbBlockReference
  2
_DOTSMALL
 10
9694.09193222593
 20
2962.403403838183
 30
0.0
 41
100.0
 42
100.0
 43
100.0
 50
270.0
  0
INSERT
  5
17D71
330
16BB2
100
AcDbEntity
  8
寸法
 62
     0
 48
50.0
370
    -2
100
AcDbBlockReference
  2
_DOTSMALL
 10
9694.09193222593
 20
2912.403403838183
 30
0.0
 41
100.0
 42
100.0
 43
100.0
 50
90.0
  0
MTEXT
  5
17D72
330
16BB2
100
AcDbEntity
  8
寸法
 62
     7
 48
50.0
100
AcDbMText
 10
9594.09193222593
 20
2606.356159743694
 30
0.0
 40
120.0
 41
0.0
 71
     5
 72
     1
  1
\A1;50
  7
STYLE1
 11
0.0000000000000001
 21
1.0
 31
0.0
 73
     1
 44
1.0
1001
ACAD
1000
MTEXTBEGIN
1070
    73
1070
     1
1070
    44
1040
1.0
1070
    74
1070
     0
1000
MTEXTEND
  0
POINT
  5
17D73
330
16BB2
100
AcDbEntity
  8
DEFPOINTS
 62
     0
 48
50.0
100
AcDbPoint
 10
10537.84206140919
 20
2962.403403838183
 30
0.0
  0
POINT
  5
17D74
330
16BB2
100
AcDbEntity
  8
DEFPOINTS
 62
     0
 48
50.0
100
AcDbPoint
 10
10482.84206140919
 20
2912.403403838183
 30
0.0
  0
POINT
  5
17D75
330
16BB2
100
AcDbEntity
  8
DEFPOINTS
 62
     0
 48
50.0
100
AcDbPoint
 10
9694.09193222593
 20
2912.403403838183
 30
0.0
  0
ENDBLK
  5
16BBF
330
16BB2
100
AcDbEntity
  8
0
 48
50.0
100
AcDbBlockEnd
  0
BLOCK
  5
16BD7
330
16BCD
100
AcDbEntity
  8
0
 48
50.0
100
AcDbBlockBegin
  2
*D22
 70
     1
 10
0.0
 20
0.0
 30
0.0
  3
*D22
  1

  0
LINE
  5
17D62
330
16BCD
100
AcDbEntity
  8
寸法
 62
     0
 48
50.0
370
    -2
100
AcDbLine
 10
10517.84206140919
 20
2912.403403838183
 30
0.0
 11
9334.091932225929
 21
2912.403403838183
 31
0.0
  0
LINE
  5
17D63
330
16BCD
100
AcDbEntity
  8
寸法
 62
     0
 48
50.0
370
    -2
100
AcDbLine
 10
10457.84206140919
 20
4987.403403838188
 30
0.0
 11
9334.091932225931
 21
4987.403403838189
 31
0.0
  0
LINE
  5
17D64
330
16BCD
100
AcDbEntity
  8
寸法
 62
     0
 48
50.0
370
    -2
100
AcDbLine
 10
9394.091932225929
 20
2912.403403838183
 30
0.0
 11
9394.091932225931
 21
4987.403403838189
 31
0.0
  0
INSERT
  5
17D65
330
16BCD
100
AcDbEntity
  8
寸法
 62
     0
 48
50.0
370
    -2
100
AcDbBlockReference
  2
_DOTSMALL
 10
9394.091932225929
 20
2912.403403838183
 30
0.0
 41
100.0
 42
100.0
 43
100.0
 50
270.0
  0
INSERT
  5
17D66
330
16BCD
100
AcDbEntity
  8
寸法
 62
     0
 48
50.0
370
    -2
100
AcDbBlockReference
  2
_DOTSMALL
 10
9394.091932225931
 20
4987.403403838189
 30
0.0
 41
100.0
 42
100.0
 43
100.0
 50
90.0
  0
MTEXT
  5
17D67
330
16BCD
100
AcDbEntity
  8
寸法
 62
     7
 48
50.0
100
AcDbMText
 10
9294.080121202307
 20
3949.903403838187
 30
0.0
 40
120.0
 41
0.0
 71
     5
 72
     1
  1
\A1;2075
  7
STYLE1
 11
0.0000000000000001
 21
1.0
 31
0.0
 73
     1
 44
1.0
1001
ACAD
1000
MTEXTBEGIN
1070
    73
1070
     1
1070
    44
1040
1.0
1070
    74
1070
     0
1000
MTEXTEND
  0
POINT
  5
17D68
330
16BCD
100
AcDbEntity
  8
DEFPOINTS
 62
     0
 48
50.0
100
AcDbPoint
 10
10537.84206140919
 20
2912.403403838183
 30
0.0
  0
POINT
  5
17D69
330
16BCD
100
AcDbEntity
  8
DEFPOINTS
 62
     0
 48
50.0
100
AcDbPoint
 10
10477.84206140919
 20
4987.403403838188
 30
0.0
  0
POINT
  5
17D6A
330
16BCD
100
AcDbEntity
  8
DEFPOINTS
 62
     0
 48
50.0
100
AcDbPoint
 10
9394.091932225931
 20
4987.403403838189
 30
0.0
  0
ENDBLK
  5
16BD8
330
16BCD
100
AcDbEntity
  8
0
 48
50.0
100
AcDbBlockEnd
  0
BLOCK
  5
16BE3
330
16BD9
100
AcDbEntity
  8
0
 48
50.0
100
AcDbBlockBegin
  2
*D23
 70
     1
 10
0.0
 20
0.0
 30
0.0
  3
*D23
  1

  0
LINE
  5
17D59
330
16BD9
100
AcDbEntity
  8
寸法
 62
     0
 48
50.0
370
    -2
100
AcDbLine
 10
10517.84206140919
 20
4752.403403838183
 30
0.0
 11
9634.091932225933
 21
4752.403403838184
 31
0.0
  0
LINE
  5
17D5A
330
16BD9
100
AcDbEntity
  8
寸法
 62
     0
 48
50.0
370
    -2
100
AcDbLine
 10
10517.84206140919
 20
2962.403403838183
 30
0.0
 11
9634.091932225931
 21
2962.403403838183
 31
0.0
  0
LINE
  5
17D5B
330
16BD9
100
AcDbEntity
  8
寸法
 62
     0
 48
50.0
370
    -2
100
AcDbLine
 10
9694.091932225934
 20
4752.403403838184
 30
0.0
 11
9694.09193222593
 21
2962.403403838183
 31
0.0
  0
INSERT
  5
17D5C
330
16BD9
100
AcDbEntity
  8
寸法
 62
     0
 48
50.0
370
    -2
100
AcDbBlockReference
  2
_DOTSMALL
 10
9694.091932225934
 20
4752.403403838184
 30
0.0
 41
100.0
 42
100.0
 43
100.0
 50
90.0
  0
INSERT
  5
17D5D
330
16BD9
100
AcDbEntity
  8
寸法
 62
     0
 48
50.0
370
    -2
100
AcDbBlockReference
  2
_DOTSMALL
 10
9694.09193222593
 20
2962.403403838183
 30
0.0
 41
100.0
 42
100.0
 43
100.0
 50
270.0
  0
MTEXT
  5
17D5E
330
16BD9
100
AcDbEntity
  8
寸法
 62
     7
 48
50.0
100
AcDbMText
 10
9594.09193222593
 20
3857.403403838186
 30
0.0
 40
120.0
 41
0.0
 71
     5
 72
     1
  1
\A1;1790
  7
STYLE1
 11
0.0000000000000001
 21
1.0
 31
0.0
 73
     1
 44
1.0
1001
ACAD
1000
MTEXTBEGIN
1070
    73
1070
     1
1070
    44
1040
1.0
1070
    74
1070
     0
1000
MTEXTEND
  0
POINT
  5
17D5F
330
16BD9
100
AcDbEntity
  8
DEFPOINTS
 62
     0
 48
50.0
100
AcDbPoint
 10
10537.84206140919
 20
4752.403403838183
 30
0.0
  0
POINT
  5
17D60
330
16BD9
100
AcDbEntity
  8
DEFPOINTS
 62
     0
 48
50.0
100
AcDbPoint
 10
10537.84206140919
 20
2962.403403838183
 30
0.0
  0
POINT
  5
17D61
330
16BD9
100
AcDbEntity
  8
DEFPOINTS
 62
     0
 48
50.0
100
AcDbPoint
 10
9694.09193222593
 20
2962.403403838183
 30
0.0
  0
ENDBLK
  5
16BE4
330
16BD9
100
AcDbEntity
  8
0
 48
50.0
100
AcDbBlockEnd
  0
BLOCK
  5
16BEF
330
16BE5
100
AcDbEntity
  8
0
 48
50.0
100
AcDbBlockBegin
  2
*D24
 70
     1
 10
0.0
 20
0.0
 30
0.0
  3
*D24
  1

  0
LINE
  5
17D50
330
16BE5
100
AcDbEntity
  8
寸法
 62
     0
 48
50.0
370
    -2
100
AcDbLine
 10
10517.84206140919
 20
4744.403403838183
 30
0.0
 11
9932.933420011938
 21
4744.403403838184
 31
0.0
  0
LINE
  5
17D51
330
16BE5
100
AcDbEntity
  8
寸法
 62
     0
 48
50.0
370
    -2
100
AcDbLine
 10
10517.84206140919
 20
2974.403403838183
 30
0.0
 11
9932.933420011936
 21
2974.403403838183
 31
0.0
  0
LINE
  5
17D52
330
16BE5
100
AcDbEntity
  8
寸法
 62
     0
 48
50.0
370
    -2
100
AcDbLine
 10
9992.933420011937
 20
4744.403403838184
 30
0.0
 11
9992.933420011937
 21
2974.403403838183
 31
0.0
  0
INSERT
  5
17D53
330
16BE5
100
AcDbEntity
  8
寸法
 62
     0
 48
50.0
370
    -2
100
AcDbBlockReference
  2
_DOTSMALL
 10
9992.933420011937
 20
4744.403403838184
 30
0.0
 41
100.0
 42
100.0
 43
100.0
 50
90.0
  0
INSERT
  5
17D54
330
16BE5
100
AcDbEntity
  8
寸法
 62
     0
 48
50.0
370
    -2
100
AcDbBlockReference
  2
_DOTSMALL
 10
9992.933420011937
 20
2974.403403838183
 30
0.0
 41
100.0
 42
100.0
 43
100.0
 50
270.0
  0
MTEXT
  5
17D55
330
16BE5
100
AcDbEntity
  8
寸法
 62
     7
 48
50.0
100
AcDbMText
 10
9892.933420011935
 20
3859.403403838186
 30
0.0
 40
120.0
 41
0.0
 71
     5
 72
     1
  1
\A1;有効開口部高サ1770
  7
STYLE1
 11
0.0000000000000001
 21
1.0
 31
0.0
 73
     1
 44
1.0
1001
ACAD
1000
MTEXTBEGIN
1070
    73
1070
     1
1070
    44
1040
1.0
1070
    74
1070
     0
1000
MTEXTEND
  0
POINT
  5
17D56
330
16BE5
100
AcDbEntity
  8
DEFPOINTS
 62
     0
 48
50.0
100
AcDbPoint
 10
10537.84206140919
 20
4744.403403838183
 30
0.0
  0
POINT
  5
17D57
330
16BE5
100
AcDbEntity
  8
DEFPOINTS
 62
     0
 48
50.0
100
AcDbPoint
 10
10537.84206140919
 20
2974.403403838183
 30
0.0
  0
POINT
  5
17D58
330
16BE5
100
AcDbEntity
  8
DEFPOINTS
 62
     0
 48
50.0
100
AcDbPoint
 10
9992.933420011937
 20
2974.403403838183
 30
0.0
  0
ENDBLK
  5
16BF0
330
16BE5
100
AcDbEntity
  8
0
 48
50.0
100
AcDbBlockEnd
  0
BLOCK
  5
16F08
330
16EFE
100
AcDbEntity
  8
0
 48
50.0
100
AcDbBlockBegin
  2
*D25
 70
     1
 10
0.0
 20
0.0
 30
0.0
  3
*D25
  1

  0
LINE
  5
17DCB
330
16EFE
100
AcDbEntity
  8
寸法
 62
     0
 48
50.0
370
    -2
100
AcDbLine
 10
5238.044679601725
 20
7473.857263431681
 30
0.0
 11
5238.044679601725
 21
6906.688098471204
 31
0.0
  0
LINE
  5
17DCC
330
16EFE
100
AcDbEntity
  8
寸法
 62
     0
 48
50.0
370
    -2
100
AcDbLine
 10
4552.044679601725
 20
7473.857263431606
 30
0.0
 11
4552.044679601725
 21
6906.688098471204
 31
0.0
  0
LINE
  5
17DCD
330
16EFE
100
AcDbEntity
  8
寸法
 62
     0
 48
50.0
370
    -2
100
AcDbLine
 10
5238.044679601725
 20
6966.688098471205
 30
0.0
 11
4552.044679601725
 21
6966.688098471205
 31
0.0
  0
INSERT
  5
17DCE
330
16EFE
100
AcDbEntity
  8
寸法
 62
     0
 48
50.0
370
    -2
100
AcDbBlockReference
  2
_DOTSMALL
 10
5238.044679601725
 20
6966.688098471205
 30
0.0
 41
100.0
 42
100.0
 43
100.0
  0
INSERT
  5
17DCF
330
16EFE
100
AcDbEntity
  8
寸法
 62
     0
 48
50.0
370
    -2
100
AcDbBlockReference
  2
_DOTSMALL
 10
4552.044679601725
 20
6966.688098471205
 30
0.0
 41
100.0
 42
100.0
 43
100.0
 50
180.0
  0
MTEXT
  5
17DD0
330
16EFE
100
AcDbEntity
  8
寸法
 62
     7
 48
50.0
100
AcDbMText
 10
4895.044679601725
 20
7166.688098471205
 30
0.0
 40
120.0
 41
0.0
 71
     5
 72
     1
  1
\A1;有効開口部間口\P686
  7
STYLE1
 73
     1
 44
1.0
1001
ACAD
1000
MTEXTBEGIN
1070
    73
1070
     1
1070
    44
1040
1.0
1070
    74
1070
     0
1000
MTEXTEND
  0
POINT
  5
17DD1
330
16EFE
100
AcDbEntity
  8
DEFPOINTS
 62
     0
 48
50.0
100
AcDbPoint
 10
5238.044679601725
 20
7493.857263431682
 30
0.0
  0
POINT
  5
17DD2
330
16EFE
100
AcDbEntity
  8
DEFPOINTS
 62
     0
 48
50.0
100
AcDbPoint
 10
4552.044679601725
 20
7493.857263431606
 30
0.0
  0
POINT
  5
17DD3
330
16EFE
100
AcDbEntity
  8
DEFPOINTS
 62
     0
 48
50.0
100
AcDbPoint
 10
4552.044679601725
 20
6966.688098471205
 30
0.0
  0
ENDBLK
  5
16F09
330
16EFE
100
AcDbEntity
  8
0
 48
50.0
100
AcDbBlockEnd
  0
BLOCK
  5
16F96
330
16F8C
100
AcDbEntity
  8
0
 48
50.0
100
AcDbBlockBegin
  2
*D26
 70
     1
 10
0.0
 20
0.0
 30
0.0
  3
*D26
  1

  0
LINE
  5
17DC2
330
16F8C
100
AcDbEntity
  8
寸法
 62
     0
 48
50.0
370
    -2
100
AcDbLine
 10
6608.044679601725
 20
7473.857263431685
 30
0.0
 11
6608.044679601725
 21
6906.688098471208
 31
0.0
  0
LINE
  5
17DC3
330
16F8C
100
AcDbEntity
  8
寸法
 62
     0
 48
50.0
370
    -2
100
AcDbLine
 10
5922.044679601725
 20
7473.85726343161
 30
0.0
 11
5922.044679601725
 21
6906.688098471208
 31
0.0
  0
LINE
  5
17DC4
330
16F8C
100
AcDbEntity
  8
寸法
 62
     0
 48
50.0
370
    -2
100
AcDbLine
 10
6608.044679601725
 20
6966.688098471208
 30
0.0
 11
5922.044679601725
 21
6966.688098471208
 31
0.0
  0
INSERT
  5
17DC5
330
16F8C
100
AcDbEntity
  8
寸法
 62
     0
 48
50.0
370
    -2
100
AcDbBlockReference
  2
_DOTSMALL
 10
6608.044679601725
 20
6966.688098471208
 30
0.0
 41
100.0
 42
100.0
 43
100.0
  0
INSERT
  5
17DC6
330
16F8C
100
AcDbEntity
  8
寸法
 62
     0
 48
50.0
370
    -2
100
AcDbBlockReference
  2
_DOTSMALL
 10
5922.044679601725
 20
6966.688098471208
 30
0.0
 41
100.0
 42
100.0
 43
100.0
 50
180.0
  0
MTEXT
  5
17DC7
330
16F8C
100
AcDbEntity
  8
寸法
 62
     7
 48
50.0
100
AcDbMText
 10
6265.044679601725
 20
7166.688098471208
 30
0.0
 40
120.0
 41
0.0
 71
     5
 72
     1
  1
\A1;有効開口部間口\P686
  7
STYLE1
 73
     1
 44
1.0
1001
ACAD
1000
MTEXTBEGIN
1070
    73
1070
     1
1070
    44
1040
1.0
1070
    74
1070
     0
1000
MTEXTEND
  0
POINT
  5
17DC8
330
16F8C
100
AcDbEntity
  8
DEFPOINTS
 62
     0
 48
50.0
100
AcDbPoint
 10
6608.044679601725
 20
7493.857263431685
 30
0.0
  0
POINT
  5
17DC9
330
16F8C
100
AcDbEntity
  8
DEFPOINTS
 62
     0
 48
50.0
100
AcDbPoint
 10
5922.044679601725
 20
7493.85726343161
 30
0.0
  0
POINT
  5
17DCA
330
16F8C
100
AcDbEntity
  8
DEFPOINTS
 62
     0
 48
50.0
100
AcDbPoint
 10
5922.044679601725
 20
6966.688098471208
 30
0.0
  0
ENDBLK
  5
16F97
330
16F8C
100
AcDbEntity
  8
0
 48
50.0
100
AcDbBlockEnd
  0
BLOCK
  5
1701D
330
17013
100
AcDbEntity
  8
0
 48
50.0
100
AcDbBlockBegin
  2
*D27
 70
     1
 10
0.0
 20
0.0
 30
0.0
  3
*D27
  1

  0
LINE
  5
17DB9
330
17013
100
AcDbEntity
  8
寸法
 62
     0
 48
50.0
370
    -2
100
AcDbLine
 10
7978.044679601724
 20
7473.857263431685
 30
0.0
 11
7978.044679601724
 21
6906.688098471208
 31
0.0
  0
LINE
  5
17DBA
330
17013
100
AcDbEntity
  8
寸法
 62
     0
 48
50.0
370
    -2
100
AcDbLine
 10
7292.044679601724
 20
7473.85726343161
 30
0.0
 11
7292.044679601724
 21
6906.688098471208
 31
0.0
  0
LINE
  5
17DBB
330
17013
100
AcDbEntity
  8
寸法
 62
     0
 48
50.0
370
    -2
100
AcDbLine
 10
7978.044679601724
 20
6966.688098471208
 30
0.0
 11
7292.044679601724
 21
6966.688098471208
 31
0.0
  0
INSERT
  5
17DBC
330
17013
100
AcDbEntity
  8
寸法
 62
     0
 48
50.0
370
    -2
100
AcDbBlockReference
  2
_DOTSMALL
 10
7978.044679601724
 20
6966.688098471208
 30
0.0
 41
100.0
 42
100.0
 43
100.0
  0
INSERT
  5
17DBD
330
17013
100
AcDbEntity
  8
寸法
 62
     0
 48
50.0
370
    -2
100
AcDbBlockReference
  2
_DOTSMALL
 10
7292.044679601724
 20
6966.688098471208
 30
0.0
 41
100.0
 42
100.0
 43
100.0
 50
180.0
  0
MTEXT
  5
17DBE
330
17013
100
AcDbEntity
  8
寸法
 62
     7
 48
50.0
100
AcDbMText
 10
7635.044679601725
 20
7166.688098471208
 30
0.0
 40
120.0
 41
0.0
 71
     5
 72
     1
  1
\A1;有効開口部間口\P686
  7
STYLE1
 73
     1
 44
1.0
1001
ACAD
1000
MTEXTBEGIN
1070
    73
1070
     1
1070
    44
1040
1.0
1070
    74
1070
     0
1000
MTEXTEND
  0
POINT
  5
17DBF
330
17013
100
AcDbEntity
  8
DEFPOINTS
 62
     0
 48
50.0
100
AcDbPoint
 10
7978.044679601724
 20
7493.857263431685
 30
0.0
  0
POINT
  5
17DC0
330
17013
100
AcDbEntity
  8
DEFPOINTS
 62
     0
 48
50.0
100
AcDbPoint
 10
7292.044679601724
 20
7493.85726343161
 30
0.0
  0
POINT
  5
17DC1
330
17013
100
AcDbEntity
  8
DEFPOINTS
 62
     0
 48
50.0
100
AcDbPoint
 10
7292.044679601724
 20
6966.688098471208
 30
0.0
  0
ENDBLK
  5
1701E
330
17013
100
AcDbEntity
  8
0
 48
50.0
100
AcDbBlockEnd
  0
BLOCK
  5
17037
330
1702D
100
AcDbEntity
  8
0
 48
50.0
100
AcDbBlockBegin
  2
*D28
 70
     1
 10
0.0
 20
0.0
 30
0.0
  3
*D28
  1

  0
LINE
  5
17DB0
330
1702D
100
AcDbEntity
  8
寸法
 62
     0
 48
50.0
370
    -2
100
AcDbLine
 10
8589.044679601732
 20
8829.748279583155
 30
0.0
 11
9048.316502717922
 21
8706.686765472801
 31
0.0
  0
LINE
  5
17DB1
330
1702D
100
AcDbEntity
  8
寸法
 62
     0
 48
50.0
370
    -2
100
AcDbLine
 10
8589.044679601947
 20
7569.748279583151
 30
0.0
 11
9048.316502717922
 21
7446.686765472856
 31
0.0
  0
LINE
  5
17DB2
330
1702D
100
AcDbEntity
  8
寸法
 62
     0
 48
50.0
370
    -2
100
AcDbLine
 10
8988.316502717921
 20
8722.763717018668
 30
0.0
 11
8988.316502717921
 21
7462.763717018723
 31
0.0
  0
INSERT
  5
17DB3
330
1702D
100
AcDbEntity
  8
寸法
 62
     0
 48
50.0
370
    -2
100
AcDbBlockReference
  2
_DOTSMALL
 10
8988.316502717921
 20
8722.763717018668
 30
0.0
 41
100.0
 42
100.0
 43
100.0
 50
90.0
  0
INSERT
  5
17DB4
330
1702D
100
AcDbEntity
  8
寸法
 62
     0
 48
50.0
370
    -2
100
AcDbBlockReference
  2
_DOTSMALL
 10
8988.316502717921
 20
7462.763717018723
 30
0.0
 41
100.0
 42
100.0
 43
100.0
 50
270.0
  0
MTEXT
  5
17DB5
330
1702D
100
AcDbEntity
  8
寸法
 62
     7
 48
50.0
100
AcDbMText
 10
8888.304691694299
 20
8139.686845637509
 30
0.0
 40
120.0
 41
0.0
 71
     5
 72
     1
  1
\A1;1260
  7
STYLE1
 11
0.0000000000000001
 21
1.0
 31
0.0
 73
     1
 44
1.0
1001
ACAD
1000
MTEXTBEGIN
1070
    73
1070
     1
1070
    44
1040
1.0
1070
    74
1070
     0
1000
MTEXTEND
  0
POINT
  5
17DB6
330
1702D
100
AcDbEntity
  8
DEFPOINTS
 62
     0
 48
50.0
100
AcDbPoint
 10
8569.044679601732
 20
8835.107263431778
 30
0.0
  0
POINT
  5
17DB7
330
1702D
100
AcDbEntity
  8
DEFPOINTS
 62
     0
 48
50.0
100
AcDbPoint
 10
8569.044679601949
 20
7575.107263431774
 30
0.0
  0
POINT
  5
17DB8
330
1702D
100
AcDbEntity
  8
DEFPOINTS
 62
     0
 48
50.0
100
AcDbPoint
 10
8988.316502717921
 20
7462.763717018723
 30
0.0
  0
ENDBLK
  5
17038
330
1702D
100
AcDbEntity
  8
0
 48
50.0
100
AcDbBlockEnd
  0
BLOCK
  5
17075
330
17074
100
AcDbEntity
  8
0
 48
50.0
100
AcDbBlockBegin
  2
_DOT
 70
     0
 10
0.0
 20
0.0
 30
0.0
  3
_DOT
  1

  0
LWPOLYLINE
  5
17076
330
17074
100
AcDbEntity
  8
0
  6
ByBlock
 62
     0
 48
50.0
100
AcDbPolyline
 90
        2
 70
     1
 43
0.5
 10
-0.25
 20
0.0
 42
1.0
 10
0.25
 20
0.0
 42
1.0
  0
LINE
  5
17077
330
17074
100
AcDbEntity
  8
0
  6
ByBlock
 62
     0
 48
50.0
100
AcDbLine
 10
-0.5
 20
0.0
 30
0.0
 11
-1.0
 21
0.0
 31
0.0
  0
ENDBLK
  5
17078
330
17074
100
AcDbEntity
  8
0
 48
50.0
100
AcDbBlockEnd
  0
BLOCK
  5
17A52
330
17A48
100
AcDbEntity
  8
0
 48
50.0
100
AcDbBlockBegin
  2
*D30
 70
     1
 10
0.0
 20
0.0
 30
0.0
  3
*D30
  1

  0
LINE
  5
17D33
330
17A48
100
AcDbEntity
  8
寸法
 62
     0
 48
50.0
370
    -2
100
AcDbLine
 10
8602.044679601711
 20
5007.403403838186
 30
0.0
 11
8602.044679601711
 21
5259.94498909643
 31
0.0
  0
LINE
  5
17D34
330
17A48
100
AcDbEntity
  8
寸法
 62
     0
 48
50.0
370
    -2
100
AcDbLine
 10
4492.044679601707
 20
5007.403403838193
 30
0.0
 11
4492.044679601707
 21
5259.94498909643
 31
0.0
  0
LINE
  5
17D35
330
17A48
100
AcDbEntity
  8
寸法
 62
     0
 48
50.0
370
    -2
100
AcDbLine
 10
8602.044679601711
 20
5199.944989096429
 30
0.0
 11
4492.044679601707
 21
5199.944989096429
 31
0.0
  0
INSERT
  5
17D36
330
17A48
100
AcDbEntity
  8
寸法
 62
     0
 48
50.0
370
    -2
100
AcDbBlockReference
  2
_DOTSMALL
 10
8602.044679601711
 20
5199.944989096429
 30
0.0
 41
100.0
 42
100.0
 43
100.0
  0
INSERT
  5
17D37
330
17A48
100
AcDbEntity
  8
寸法
 62
     0
 48
50.0
370
    -2
100
AcDbBlockReference
  2
_DOTSMALL
 10
4492.044679601707
 20
5199.944989096429
 30
0.0
 41
100.0
 42
100.0
 43
100.0
 50
180.0
  0
MTEXT
  5
17D38
330
17A48
100
AcDbEntity
  8
寸法
 62
     7
 48
50.0
100
AcDbMText
 10
6547.04467960171
 20
5299.94498909643
 30
0.0
 40
120.0
 41
0.0
 71
     5
 72
     1
  1
\A1;柱外寸法 N x 1370
  7
STYLE1
 73
     1
 44
1.0
1001
ACAD
1000
MTEXTBEGIN
1070
    73
1070
     1
1070
    44
1040
1.0
1070
    74
1070
     0
1000
MTEXTEND
  0
POINT
  5
17D39
330
17A48
100
AcDbEntity
  8
DEFPOINTS
 62
     0
 48
50.0
100
AcDbPoint
 10
8602.044679601711
 20
4987.403403838187
 30
0.0
  0
POINT
  5
17D3A
330
17A48
100
AcDbEntity
  8
DEFPOINTS
 62
     0
 48
50.0
100
AcDbPoint
 10
4492.044679601707
 20
4987.403403838192
 30
0.0
  0
POINT
  5
17D3B
330
17A48
100
AcDbEntity
  8
DEFPOINTS
 62
     0
 48
50.0
100
AcDbPoint
 10
4492.044679601707
 20
5199.944989096429
 30
0.0
  0
ENDBLK
  5
17A53
330
17A48
100
AcDbEntity
  8
0
 48
50.0
100
AcDbBlockEnd
  0
BLOCK
  5
17A5E
330
17A54
100
AcDbEntity
  8
0
 48
50.0
100
AcDbBlockBegin
  2
*D31
 70
     1
 10
0.0
 20
0.0
 30
0.0
  3
*D31
  1

  0
LINE
  5
17D3C
330
17A54
100
AcDbEntity
  8
寸法
 62
     0
 48
50.0
370
    -2
100
AcDbLine
 10
4442.044679601707
 20
5007.403403838191
 30
0.0
 11
4442.044679601707
 21
5482.901967534279
 31
0.0
  0
LINE
  5
17D3D
330
17A54
100
AcDbEntity
  8
寸法
 62
     0
 48
50.0
370
    -2
100
AcDbLine
 10
8652.044679601711
 20
5007.403403838186
 30
0.0
 11
8652.044679601711
 21
5482.901967534279
 31
0.0
  0
LINE
  5
17D3E
330
17A54
100
AcDbEntity
  8
寸法
 62
     0
 48
50.0
370
    -2
100
AcDbLine
 10
4442.044679601707
 20
5422.901967534279
 30
0.0
 11
8652.044679601711
 21
5422.901967534279
 31
0.0
  0
INSERT
  5
17D3F
330
17A54
100
AcDbEntity
  8
寸法
 62
     0
 48
50.0
370
    -2
100
AcDbBlockReference
  2
_DOTSMALL
 10
4442.044679601707
 20
5422.901967534279
 30
0.0
 41
100.0
 42
100.0
 43
100.0
 50
180.0
  0
INSERT
  5
17D40
330
17A54
100
AcDbEntity
  8
寸法
 62
     0
 48
50.0
370
    -2
100
AcDbBlockReference
  2
_DOTSMALL
 10
8652.044679601711
 20
5422.901967534279
 30
0.0
 41
100.0
 42
100.0
 43
100.0
  0
MTEXT
  5
17D41
330
17A54
100
AcDbEntity
  8
寸法
 62
     7
 48
50.0
100
AcDbMText
 10
6547.04467960171
 20
5522.901967534279
 30
0.0
 40
120.0
 41
0.0
 71
     5
 72
     1
  1
\A1;N x 1370 +100
  7
STYLE1
 73
     1
 44
1.0
1001
ACAD
1000
MTEXTBEGIN
1070
    73
1070
     1
1070
    44
1040
1.0
1070
    74
1070
     0
1000
MTEXTEND
  0
POINT
  5
17D42
330
17A54
100
AcDbEntity
  8
DEFPOINTS
 62
     0
 48
50.0
100
AcDbPoint
 10
4442.044679601707
 20
4987.40340383819
 30
0.0
  0
POINT
  5
17D43
330
17A54
100
AcDbEntity
  8
DEFPOINTS
 62
     0
 48
50.0
100
AcDbPoint
 10
8652.044679601711
 20
4987.403403838185
 30
0.0
  0
POINT
  5
17D44
330
17A54
100
AcDbEntity
  8
DEFPOINTS
 62
     0
 48
50.0
100
AcDbPoint
 10
8652.044679601711
 20
5422.901967534279
 30
0.0
  0
ENDBLK
  5
17A5F
330
17A54
100
AcDbEntity
  8
0
 48
50.0
100
AcDbBlockEnd
  0
BLOCK
  5
17A6C
330
17A60
100
AcDbEntity
  8
0
 48
50.0
100
AcDbBlockBegin
  2
*D32
 70
     1
 10
0.0
 20
0.0
 30
0.0
  3
*D32
  1

  0
LINE
  5
17D45
330
17A60
100
AcDbEntity
  8
寸法
 62
     0
 48
50.0
370
    -2
100
AcDbLine
 10
4492.044679601707
 20
5007.403403838193
 30
0.0
 11
4492.044679601707
 21
5259.94498909643
 31
0.0
  0
LINE
  5
17D46
330
17A60
100
AcDbEntity
  8
寸法
 62
     0
 48
50.0
370
    -2
100
AcDbLine
 10
4442.044679601707
 20
5007.403403838191
 30
0.0
 11
4442.044679601707
 21
5259.94498909643
 31
0.0
  0
LINE
  5
17D47
330
17A60
100
AcDbEntity
  8
寸法
 62
     0
 48
50.0
370
    -2
100
AcDbLine
 10
4492.044679601707
 20
5199.944989096429
 30
0.0
 11
4592.044679601707
 21
5199.944989096429
 31
0.0
  0
LINE
  5
17D48
330
17A60
100
AcDbEntity
  8
寸法
 62
     0
 48
50.0
370
    -2
100
AcDbLine
 10
4442.044679601707
 20
5199.944989096429
 30
0.0
 11
4022.512154132972
 21
5199.944989096429
 31
0.0
  0
LINE
  5
17D49
330
17A60
100
AcDbEntity
  8
寸法
 62
     0
 48
50.0
370
    -2
100
AcDbLine
 10
4492.044679601707
 20
5199.944989096429
 30
0.0
 11
4442.044679601707
 21
5199.944989096429
 31
0.0
  0
INSERT
  5
17D4A
330
17A60
100
AcDbEntity
  8
寸法
 62
     0
 48
50.0
370
    -2
100
AcDbBlockReference
  2
_DOTSMALL
 10
4492.044679601707
 20
5199.944989096429
 30
0.0
 41
100.0
 42
100.0
 43
100.0
 50
180.0
  0
INSERT
  5
17D4B
330
17A60
100
AcDbEntity
  8
寸法
 62
     0
 48
50.0
370
    -2
100
AcDbBlockReference
  2
_DOTSMALL
 10
4442.044679601707
 20
5199.944989096429
 30
0.0
 41
100.0
 42
100.0
 43
100.0
  0
MTEXT
  5
17D4C
330
17A60
100
AcDbEntity
  8
寸法
 62
     7
 48
50.0
100
AcDbMText
 10
4128.55939822746
 20
5299.94498909643
 30
0.0
 40
120.0
 41
0.0
 71
     5
 72
     1
  1
\A1;50
  7
STYLE1
 73
     1
 44
1.0
1001
ACAD
1000
MTEXTBEGIN
1070
    73
1070
     1
1070
    44
1040
1.0
1070
    74
1070
     0
1000
MTEXTEND
  0
POINT
  5
17D4D
330
17A60
100
AcDbEntity
  8
DEFPOINTS
 62
     0
 48
50.0
100
AcDbPoint
 10
4492.044679601707
 20
4987.403403838192
 30
0.0
  0
POINT
  5
17D4E
330
17A60
100
AcDbEntity
  8
DEFPOINTS
 62
     0
 48
50.0
100
AcDbPoint
 10
4442.044679601707
 20
4987.40340383819
 30
0.0
  0
POINT
  5
17D4F
330
17A60
100
AcDbEntity
  8
DEFPOINTS
 62
     0
 48
50.0
100
AcDbPoint
 10
4442.044679601707
 20
5199.944989096429
 30
0.0
  0
ENDBLK
  5
17A6D
330
17A60
100
AcDbEntity
  8
0
 48
50.0
100
AcDbBlockEnd
  0
BLOCK
  5
17AA2
330
17A96
100
AcDbEntity
  8
0
 48
50.0
100
AcDbBlockBegin
  2
*D33
 70
     1
 10
0.0
 20
0.0
 30
0.0
  3
*D33
  1

  0
LINE
  5
17D28
330
17A96
100
AcDbEntity
  8
寸法
 62
     0
 48
50.0
370
    -2
100
AcDbLine
 10
8652.044679601711
 20
5007.403403838186
 30
0.0
 11
8652.044679601711
 21
5259.944989096426
 31
0.0
  0
LINE
  5
17D29
330
17A96
100
AcDbEntity
  8
寸法
 62
     0
 48
50.0
370
    -2
100
AcDbLine
 10
8602.044679601711
 20
5007.403403838186
 30
0.0
 11
8602.044679601711
 21
5259.944989096426
 31
0.0
  0
LINE
  5
17D2A
330
17A96
100
AcDbEntity
  8
寸法
 62
     0
 48
50.0
370
    -2
100
AcDbLine
 10
8602.044679601711
 20
5199.944989096426
 30
0.0
 11
8502.044679601711
 21
5199.944989096426
 31
0.0
  0
LINE
  5
17D2B
330
17A96
100
AcDbEntity
  8
寸法
 62
     0
 48
50.0
370
    -2
100
AcDbLine
 10
8652.044679601711
 20
5199.944989096426
 30
0.0
 11
9071.577205070436
 21
5199.944989096426
 31
0.0
  0
LINE
  5
17D2C
330
17A96
100
AcDbEntity
  8
寸法
 62
     0
 48
50.0
370
    -2
100
AcDbLine
 10
8602.044679601711
 20
5199.944989096426
 30
0.0
 11
8652.044679601711
 21
5199.944989096426
 31
0.0
  0
INSERT
  5
17D2D
330
17A96
100
AcDbEntity
  8
寸法
 62
     0
 48
50.0
370
    -2
100
AcDbBlockReference
  2
_DOTSMALL
 10
8602.044679601711
 20
5199.944989096426
 30
0.0
 41
100.0
 42
100.0
 43
100.0
  0
INSERT
  5
17D2E
330
17A96
100
AcDbEntity
  8
寸法
 62
     0
 48
50.0
370
    -2
100
AcDbBlockReference
  2
_DOTSMALL
 10
8652.044679601711
 20
5199.944989096426
 30
0.0
 41
100.0
 42
100.0
 43
100.0
 50
180.0
  0
MTEXT
  5
17D2F
330
17A96
100
AcDbEntity
  8
寸法
 62
     7
 48
50.0
100
AcDbMText
 10
8965.529960975947
 20
5299.944989096426
 30
0.0
 40
120.0
 41
0.0
 71
     5
 72
     1
  1
\A1;50
  7
STYLE1
 73
     1
 44
1.0
1001
ACAD
1000
MTEXTBEGIN
1070
    73
1070
     1
1070
    44
1040
1.0
1070
    74
1070
     0
1000
MTEXTEND
  0
POINT
  5
17D30
330
17A96
100
AcDbEntity
  8
DEFPOINTS
 62
     0
 48
50.0
100
AcDbPoint
 10
8652.044679601711
 20
4987.403403838185
 30
0.0
  0
POINT
  5
17D31
330
17A96
100
AcDbEntity
  8
DEFPOINTS
 62
     0
 48
50.0
100
AcDbPoint
 10
8602.044679601711
 20
4987.403403838187
 30
0.0
  0
POINT
  5
17D32
330
17A96
100
AcDbEntity
  8
DEFPOINTS
 62
     0
 48
50.0
100
AcDbPoint
 10
8602.044679601711
 20
5199.944989096426
 30
0.0
  0
ENDBLK
  5
17AA3
330
17A96
100
AcDbEntity
  8
0
 48
50.0
100
AcDbBlockEnd
  0
ENDSEC
  0
SECTION
  2
ENTITIES
  0
MTEXT
  5
763F
330
747D
100
AcDbEntity
  8
0
100
AcDbMText
 10
302.846345836809
 20
280.1983726409901
 30
0.0
 40
3.5
 41
5.323721266742722
 71
     1
 72
     5
  1

  7
MSMINCHO
 73
     1
 44
1.0
1001
ACAD
1000
MTEXTBEGIN
1070
    73
1070
     1
1070
    44
1040
1.0
1070
    74
1070
     0
1000
MTEXTEND
  0
LINE
  5
10B57
330
747D
100
AcDbEntity
  8
補助
  6
PHANTOM
 62
   230
 48
50.0
100
AcDbLine
 10
139.9999999999995
 20
11409.6
 30
0.0
 11
16307.2
 21
11409.6
 31
0.0
  0
LINE
  5
10B59
330
747D
100
AcDbEntity
  8
仕様書枠
  6
Continuous
 48
50.0
100
AcDbLine
 10
13107.2
 20
1200.0
 30
0.0
 11
13107.2
 21
-0.0000000000000729
 31
0.0
  0
LINE
  5
10B5D
330
747D
100
AcDbEntity
  8
仕様書枠
 48
50.0
100
AcDbLine
 10
140.0
 20
0.0
 30
0.0
 11
16307.2
 21
-0.0000000000000909
 31
0.0
  0
LINE
  5
10B5E
330
747D
100
AcDbEntity
  8
補助
  6
PHANTOM
 62
   230
 48
50.0
100
AcDbLine
 10
16307.2
 20
11409.6
 30
0.0
 11
16307.2
 21
1200.0
 31
0.0
  0
LINE
  5
10B6C
330
747D
100
AcDbEntity
  8
仕様書枠
 48
50.0
100
AcDbLine
 10
13107.2
 20
1200.0
 30
0.0
 11
16307.2
 21
1200.0
 31
0.0
  0
LINE
  5
10B6D
330
747D
100
AcDbEntity
  8
補助
  6
PHANTOM
 62
   230
 48
50.0
100
AcDbLine
 10
13107.2
 20
11409.6
 30
0.0
 11
13107.2
 21
4800.0
 31
0.0
  0
LINE
  5
10B6F
330
747D
100
AcDbEntity
  8
補助
  6
PHANTOM
 62
   230
 48
50.0
100
AcDbLine
 10
13107.2
 20
4800.0
 30
0.0
 11
16307.2
 21
4800.0
 31
0.0
  0
LINE
  5
10B72
330
747D
100
AcDbEntity
  8
文字
 62
     7
 48
50.0
100
AcDbLine
 10
13187.2
 20
400.0
 30
0.0
 11
16227.2
 21
400.0
 31
0.0
  0
TEXT
  5
10B73
330
747D
100
AcDbEntity
  8
文字
 62
     7
 48
50.0
100
AcDbText
 10
13162.9790565769
 20
895.0906074299405
 30
0.0
 40
200.0
  1
外 形 図
  7
STYLE2
100
AcDbText
  0
TEXT
  5
10B74
330
747D
100
AcDbEntity
  8
文字
 62
     7
 48
50.0
100
AcDbText
 10
13201.43669998441
 20
477.2740661031255
 30
0.0
 40
160.0
  1
機種名
  7
STYLE2
100
AcDbText
  0
LINE
  5
10B7B
330
747D
100
AcDbEntity
  8
仕様書枠
 48
50.0
100
AcDbLine
 10
13107.2
 20
800.0
 30
0.0
 11
14251.2
 21
800.0
 31
0.0
  0
LINE
  5
10B88
330
747D
100
AcDbEntity
  8
仕様書枠
  6
Continuous
 48
50.0
100
AcDbLine
 10
14251.2
 20
1200.0
 30
0.0
 11
14251.2
 21
800.0
 31
0.0
  0
TEXT
  5
14535
330
747D
100
AcDbEntity
  8
部品1
100
AcDbText
 10
6255.22895631655
 20
6345.942043628359
 30
0.0
 40
135.0
  1
平面図
  7
STYLE2
100
AcDbText
  0
TEXT
  5
149A1
330
747D
100
AcDbEntity
  8
部品1
100
AcDbText
 10
6255.834750225444
 20
2121.456956892319
 30
0.0
 40
135.0
  1
正面図
  7
STYLE2
100
AcDbText
  0
TEXT
  5
149A3
330
747D
100
AcDbEntity
  8
部品1
100
AcDbText
 10
10940.55282971858
 20
2121.456956892319
 30
0.0
 40
135.0
  1
側面図
  7
STYLE2
100
AcDbText
  0
LINE
  5
154D6
330
747D
100
AcDbEntity
  8
仕様書枠
 48
50.0
100
AcDbLine
 10
16307.2
 20
1200.0
 30
0.0
 11
16307.2
 21
-0.0000000000000909
 31
0.0
  0
LINE
  5
157E3
330
747D
100
AcDbEntity
  8
Ｇ．Ｌ
100
AcDbLine
 10
5421.490398277466
 20
2812.403403838183
 30
0.0
 11
12640.93599642122
 21
2812.403403838183
 31
0.0
  0
TEXT
  5
158BD
330
747D
100
AcDbEntity
  8
文字
 62
     7
 48
50.0
100
AcDbText
 10
14524.131837222
 20
1031.557706291228
 30
0.0
 40
100.0
  1
NO.01      <縮尺> S=1/40
  7
STYLE2
100
AcDbText
  0
TEXT
  5
158BE
330
747D
100
AcDbEntity
  8
文字
 62
     7
 48
50.0
100
AcDbText
 10
14639.78538849418
 20
879.3493344864453
 30
0.0
 40
100.0
  1
～一般型・多雪地型～
  7
STYLE2
100
AcDbText
  0
TEXT
  5
158BF
330
747D
100
AcDbEntity
  8
文字
 62
     7
 48
50.0
100
AcDbText
 10
13209.4053442172
 20
228.5435242569015
 30
0.0
 40
100.0
  1
○有効開口寸法 ： 686×1770(mm)
  7
STYLE2
100
AcDbText
  0
TEXT
  5
158C0
330
747D
100
AcDbEntity
  8
文字
 62
     7
 48
50.0
100
AcDbText
 10
13209.4053442172
 20
76.09434707649348
 30
0.0
 40
100.0
  1
○床面積 ： N(連続数)×1.88㎡(0.57坪) 　
  7
STYLE2
100
AcDbText
  0
LINE
  5
15F2D
330
747D
100
AcDbEntity
  8
部品1
100
AcDbLine
 10
5080.553737271042
 20
8863.857263431638
 30
0.0
 11
5124.148270812019
 21
8863.85726343164
 31
0.0
  0
LINE
  5
15F2E
330
747D
100
AcDbEntity
  8
部品1
100
AcDbLine
 10
7260.044679601698
 20
8835.857263431755
 30
0.0
 11
8574.044679601733
 21
8835.857263431764
 31
0.0
  0
DIMENSION
  5
15F2F
330
747D
100
AcDbEntity
  8
寸法
 48
50.0
100
AcDbDimension
  2
*D2
 10
8043.993361270889
 20
9111.452596617493
 30
0.0
 11
8247.480471993743
 21
9111.452596617493
 31
0.0
 70
   160
 71
     5
 42
449.9999999999982
  3
INABA_S40G
100
AcDbAlignedDimension
 13
8569.044679601729
 23
8831.357263431767
 33
0.0
 14
8119.04467960173
 24
8831.357263431767
 34
0.0
100
AcDbRotatedDimension
  0
DIMENSION
  5
15F30
330
747D
100
AcDbEntity
  8
寸法
100
AcDbDimension
  2
*D3
 10
8547.044679601732
 20
9299.335613378142
 30
0.0
 11
7917.04467960173
 21
9299.335613378142
 31
0.0
 70
   160
  1
3X420=<>
 71
     5
 42
1260.000000000002
  3
INABA_S40G
100
AcDbAlignedDimension
 13
7287.044679601732
 23
8863.857263431619
 33
0.0
 14
8547.044679601732
 24
8863.857263431746
 34
0.0
100
AcDbRotatedDimension
1001
ACAD
1000
DSTYLE
1002
{
1002
}
  0
DIMENSION
  5
15F31
330
747D
100
AcDbEntity
  8
寸法
100
AcDbDimension
  2
*D4
 10
8602.044679601734
 20
9299.335613378122
 30
0.0
 11
8910.529960975971
 21
9299.335613378122
 31
0.0
 70
   160
 71
     5
 42
55.0
  3
INABA_S40G
100
AcDbAlignedDimension
 13
8547.044679601732
 23
8863.857263431746
 33
0.0
 14
8602.044679601734
 24
8863.857263431746
 34
0.0
100
AcDbRotatedDimension
1001
ACAD
1000
DSTYLE
1002
{
1002
}
  0
LINE
  5
15F32
330
747D
100
AcDbEntity
  8
部品1
100
AcDbLine
 10
8569.044679601827
 20
7571.357263431764
 30
0.0
 11
8119.044679601827
 21
7571.357263431764
 31
0.0
  0
LINE
  5
15F33
330
747D
100
AcDbEntity
  8
部品1
100
AcDbLine
 10
8551.044679601707
 20
7500.857263431737
 30
0.0
 11
8542.044679601707
 21
7500.857263431737
 31
0.0
  0
LINE
  5
15F34
330
747D
100
AcDbEntity
  8
部品1
100
AcDbLine
 10
8542.044679601707
 20
7548.857263431734
 30
0.0
 11
8574.044679601708
 21
7548.857263431734
 31
0.0
  0
LINE
  5
15F35
330
747D
100
AcDbEntity
  8
部品1
 48
50.0
100
AcDbLine
 10
8569.044679601725
 20
8835.107263431778
 30
0.0
 11
8119.044679601728
 21
8835.107263431776
 31
0.0
  0
LINE
  5
15F36
330
747D
100
AcDbEntity
  8
部品1
100
AcDbLine
 10
8602.044679601709
 20
7493.857263431737
 30
0.0
 11
5396.179032739216
 21
7493.857263431516
 31
0.0
  0
DIMENSION
  5
15F37
330
747D
100
AcDbEntity
  8
寸法
100
AcDbDimension
  2
*D5
 10
8602.044679601709
 20
6729.721294078048
 30
0.0
 11
7917.044679601715
 21
6729.721294078048
 31
0.0
 70
   160
 71
     5
 42
1369.999999999983
  3
INABA_S40G
100
AcDbAlignedDimension
 13
7232.044679601725
 23
7493.857263431573
 33
0.0
 14
8602.044679601709
 24
7493.857263431703
 34
0.0
100
AcDbRotatedDimension
1001
ACAD
1000
DSTYLE
1002
{
1002
}
  0
LINE
  5
15F3A
330
747D
100
AcDbEntity
  8
部品1
100
AcDbLine
 10
5379.044679601729
 20
8835.107263431776
 30
0.0
 11
5379.044679601893
 21
8581.817348141649
 31
0.0
  0
LINE
  5
15F3B
330
747D
100
AcDbEntity
  8
部品1
100
AcDbLine
 10
5829.044679601733
 20
8835.107263431778
 30
0.0
 11
5829.044679601839
 21
8402.107263431975
 31
0.0
  0
LINE
  5
15F3C
330
747D
100
AcDbEntity
  8
部品1
100
AcDbLine
 10
7199.044679601733
 20
8835.107263431778
 30
0.0
 11
7199.044679601839
 21
8402.107263431975
 31
0.0
  0
LINE
  5
15F3D
330
747D
100
AcDbEntity
  8
部品1
100
AcDbLine
 10
6749.04467960173
 20
8835.107263431776
 30
0.0
 11
6749.044679601936
 21
8402.107263431791
 31
0.0
  0
LINE
  5
15F40
330
747D
100
AcDbEntity
  8
部品1
100
AcDbLine
 10
8119.04467960173
 20
8835.107263431776
 30
0.0
 11
8119.044679601937
 21
8402.107263431791
 31
0.0
  0
LINE
  5
15F43
330
747D
100
AcDbEntity
  8
部品1
100
AcDbLine
 10
5834.044679601664
 20
8835.857263431647
 30
0.0
 11
5834.044679601677
 21
8388.857263431651
 31
0.0
  0
LINE
  5
15F44
330
747D
100
AcDbEntity
  8
部品1
100
AcDbLine
 10
5890.044679601664
 20
8808.857263431622
 30
0.0
 11
5890.04467960169
 21
7493.857263431639
 31
0.0
  0
LINE
  5
15F45
330
747D
100
AcDbEntity
  8
部品1
100
AcDbLine
 10
5862.044679601672
 20
7548.857263431635
 30
0.0
 11
5862.044679601697
 21
8808.857263431621
 31
0.0
  0
LINE
  5
15F46
330
747D
100
AcDbEntity
  8
部品1
100
AcDbLine
 10
4548.5446796017
 20
8807.357263431768
 30
0.0
 11
4548.544679601721
 21
7624.357263431739
 31
0.0
  0
LINE
  5
15F48
330
747D
100
AcDbEntity
  8
部品1
 48
50.0
100
AcDbLine
 10
4967.044679601733
 20
8807.357263431768
 30
0.0
 11
4967.044679601781
 21
8362.083020848279
 31
0.0
  0
LINE
  5
15F49
330
747D
100
AcDbEntity
  8
部品1
100
AcDbLine
 10
5918.5446796017
 20
8807.357263431768
 30
0.0
 11
5918.544679601722
 21
7624.357263431739
 31
0.0
  0
LINE
  5
15F4B
330
747D
100
AcDbEntity
  8
部品1
 48
50.0
100
AcDbLine
 10
6337.044679601733
 20
8807.357263431768
 30
0.0
 11
6337.044679601822
 21
7624.357263431673
 31
0.0
  0
LINE
  5
15F4C
330
747D
100
AcDbEntity
  8
部品1
100
AcDbLine
 10
7260.044679601664
 20
8808.857263431622
 30
0.0
 11
7260.044679601691
 21
7493.857263431639
 31
0.0
  0
LINE
  5
15F4D
330
747D
100
AcDbEntity
  8
部品1
100
AcDbLine
 10
7232.044679601672
 20
7548.857263431635
 30
0.0
 11
7232.044679601696
 21
8808.857263431621
 31
0.0
  0
LINE
  5
15F4E
330
747D
100
AcDbEntity
  8
部品1
100
AcDbLine
 10
7204.044679601664
 20
8835.857263431647
 30
0.0
 11
7204.044679601678
 21
8388.857263431651
 31
0.0
  0
LINE
  5
15F4F
330
747D
100
AcDbEntity
  8
部品1
 48
50.0
100
AcDbLine
 10
7707.044679601733
 20
8807.357263431768
 30
0.0
 11
7707.044679601823
 21
7624.357263431673
 31
0.0
  0
LINE
  5
15F51
330
747D
100
AcDbEntity
  8
部品1
100
AcDbLine
 10
7288.544679601701
 20
8807.357263431768
 30
0.0
 11
7288.544679601722
 21
7624.357263431739
 31
0.0
  0
LINE
  5
15F52
330
747D
100
AcDbEntity
  8
部品1
100
AcDbLine
 10
4520.044679601706
 20
7548.857263431604
 30
0.0
 11
4520.044679601731
 21
8835.857263431652
 31
0.0
  0
LINE
  5
15F53
330
747D
100
AcDbEntity
  8
部品1
100
AcDbLine
 10
4492.044679601696
 20
8863.857263431619
 30
0.0
 11
4492.044679601725
 21
7493.857263431607
 31
0.0
  0
LINE
  5
15F56
330
747D
100
AcDbEntity
  8
部品1
100
AcDbLine
 10
6749.044679601934
 20
7595.857263431707
 30
0.0
 11
5890.044679601706
 21
7595.857263431641
 31
0.0
  0
LINE
  5
15F57
330
747D
100
AcDbEntity
  8
部品1
100
AcDbLine
 10
6749.044679601931
 20
7624.357263431706
 30
0.0
 11
5918.544679601626
 21
7624.357263431645
 31
0.0
  0
DIMENSION
  5
15F5B
330
747D
100
AcDbEntity
  8
寸法
100
AcDbDimension
  2
*D6
 10
7232.044679601706
 20
6729.721294078048
 30
0.0
 11
6547.044679601715
 21
6729.721294078048
 31
0.0
 70
   160
 71
     5
 42
1369.999999999982
  3
INABA_S40G
100
AcDbAlignedDimension
 13
5862.044679601725
 23
7493.857263431573
 33
0.0
 14
7232.044679601706
 24
7493.857263431703
 34
0.0
100
AcDbRotatedDimension
1001
ACAD
1000
DSTYLE
1002
{
1002
}
  0
LINE
  5
15F5D
330
747D
100
AcDbEntity
  8
寸法
  6
ByBlock
 48
50.0
100
AcDbLine
 10
5862.044679601707
 20
7473.857263431702
 30
0.0
 11
5862.044679601707
 21
6669.721294078049
 31
0.0
  0
LINE
  5
15F5E
330
747D
100
AcDbEntity
  8
寸法
  6
ByBlock
 48
50.0
100
AcDbLine
 10
4492.044679601725
 20
7473.857263431573
 30
0.0
 11
4492.044679601725
 21
6669.721294078049
 31
0.0
  0
MTEXT
  5
15F5F
330
747D
100
AcDbEntity
  8
部品1
  6
ByBlock
 48
50.0
100
AcDbMText
 10
4694.124510835059
 20
6829.721294078048
 30
0.0
 40
120.0
 41
0.0
 71
     5
 72
     1
  1
\A1;1370
  7
STYLE1
 73
     1
 44
1.0
1001
ACAD
1000
MTEXTBEGIN
1070
    73
1070
     1
1070
    44
1040
1.0
1070
    74
1070
     0
1000
MTEXTEND
  0
LINE
  5
15F60
330
747D
100
AcDbEntity
  8
寸法
  6
ByBlock
 48
50.0
100
AcDbLine
 10
4492.044679601725
 20
6729.721294078048
 30
0.0
 11
4838.268008999245
 21
6729.721294078048
 31
0.0
  0
INSERT
  5
15F61
330
747D
100
AcDbEntity
  8
寸法
  6
ByBlock
 48
50.0
100
AcDbBlockReference
  2
_DOTSMALL
 10
4492.044679601725
 20
6729.721294078048
 30
0.0
 41
100.0
 42
100.0
 43
100.0
 50
180.0
  0
MTEXT
  5
15F62
330
747D
100
AcDbEntity
  8
部品1
  6
ByBlock
 48
50.0
100
AcDbMText
 10
5643.306483496099
 20
6829.721294078048
 30
0.0
 40
120.0
 41
0.0
 71
     5
 72
     1
  1
\A1;1370
  7
STYLE1
 73
     1
 44
1.0
1001
ACAD
1000
MTEXTBEGIN
1070
    73
1070
     1
1070
    44
1040
1.0
1070
    74
1070
     0
1000
MTEXTEND
  0
LINE
  5
15F63
330
747D
100
AcDbEntity
  8
寸法
  6
ByBlock
 48
50.0
100
AcDbLine
 10
5505.956817616652
 20
6729.721294078048
 30
0.0
 11
5862.044679601707
 21
6729.721294078048
 31
0.0
  0
POINT
  5
15F64
330
747D
100
AcDbEntity
  8
寸法
  6
ByBlock
 48
50.0
100
AcDbPoint
 10
5862.044679601707
 20
6729.721294078048
 30
0.0
  0
INSERT
  5
15F65
330
747D
100
AcDbEntity
  8
寸法
  6
ByBlock
 48
50.0
100
AcDbBlockReference
  2
_DOTSMALL
 10
5862.044679601707
 20
6729.721294078048
 30
0.0
 41
100.0
 42
100.0
 43
100.0
  0
LINE
  5
15F68
330
747D
100
AcDbEntity
  8
破線
 48
10.0
100
AcDbLine
 10
5338.561879353508
 20
7647.857263431706
 30
0.0
 11
4572.044679601718
 21
7647.857263431642
 31
0.0
  0
LINE
  5
15F69
330
747D
100
AcDbEntity
  8
部品1
100
AcDbLine
 10
5342.705563400156
 20
7624.357263431706
 30
0.0
 11
4548.544679601626
 21
7624.357263431645
 31
0.0
  0
LINE
  5
15F6A
330
747D
100
AcDbEntity
  8
部品1
100
AcDbLine
 10
5347.730882350348
 20
7595.857263431702
 30
0.0
 11
4520.044679601705
 21
7595.857263431641
 31
0.0
  0
LINE
  5
15F6B
330
747D
100
AcDbEntity
  8
部品1
100
AcDbLine
 10
5365.716234382644
 20
7493.857263431514
 30
0.0
 11
4492.044679601725
 21
7493.857263431455
 31
0.0
  0
LINE
  5
15F6F
330
747D
100
AcDbEntity
  8
破線
 48
10.0
100
AcDbLine
 10
4572.044679601702
 20
8783.857263431768
 30
0.0
 11
4572.044679601709
 21
8241.357263431609
 31
0.0
  0
LINE
  5
15F73
330
747D
100
AcDbEntity
  8
部品1
100
AcDbLine
 10
4552.044679601723
 20
7500.857263431607
 30
0.0
 11
4552.044679601721
 21
7548.857263431571
 31
0.0
  0
LINE
  5
15F74
330
747D
100
AcDbEntity
  8
部品1
100
AcDbLine
 10
4552.044679601723
 20
7500.857263431607
 30
0.0
 11
4543.044679601723
 21
7500.857263431608
 31
0.0
  0
LINE
  5
15F75
330
747D
100
AcDbEntity
  8
部品1
100
AcDbLine
 10
4543.044679601725
 20
7493.857263431571
 30
0.0
 11
4543.044679601723
 21
7500.857263431608
 31
0.0
  0
LINE
  5
15F76
330
747D
100
AcDbEntity
  8
部品1
100
AcDbLine
 10
4552.044679601721
 20
7548.85726343157
 30
0.0
 11
4524.044679601721
 21
7548.85726343157
 31
0.0
  0
LINE
  5
15F77
330
747D
100
AcDbEntity
  8
部品1
100
AcDbLine
 10
4520.044679601723
 20
7548.857263431621
 30
0.0
 11
4492.044679601723
 21
7548.857263431621
 31
0.0
  0
LINE
  5
15F78
330
747D
100
AcDbEntity
  8
部品1
 48
50.0
100
AcDbLine
 10
4548.544679601721
 20
7624.357263431739
 30
0.0
 11
4520.044679601723
 21
7595.85726343174
 31
0.0
  0
LINE
  5
15F79
330
747D
100
AcDbEntity
  8
部品1
100
AcDbLine
 10
4520.044679601711
 20
7968.85726343162
 30
0.0
 11
4492.044679601711
 21
7968.85726343162
 31
0.0
  0
LINE
  5
15F7A
330
747D
100
AcDbEntity
  8
部品1
100
AcDbLine
 10
4520.044679601705
 20
8388.857263431621
 30
0.0
 11
4492.044679601706
 21
8388.857263431621
 31
0.0
  0
LINE
  5
15F7B
330
747D
100
AcDbEntity
  8
部品1
100
AcDbLine
 10
4520.044679601705
 20
8388.857263431621
 30
0.0
 11
4492.044679601706
 21
8388.857263431621
 31
0.0
  0
LINE
  5
15F7C
330
747D
100
AcDbEntity
  8
部品1
100
AcDbLine
 10
5834.044679601675
 20
8388.857263431651
 30
0.0
 11
5834.04467960169
 21
7493.857263431639
 31
0.0
  0
LINE
  5
15F7E
330
747D
100
AcDbEntity
  8
部品1
100
AcDbLine
 10
5829.044679601844
 20
8367.357263431768
 30
0.0
 11
5829.044679601941
 21
7571.357263431778
 31
0.0
  0
LINE
  5
15F80
330
747D
100
AcDbEntity
  8
部品1
100
AcDbLine
 10
5379.044679601694
 20
8521.100438439225
 30
0.0
 11
5379.044679601935
 21
7591.031008869869
 31
0.0
  0
LINE
  5
15F81
330
747D
100
AcDbEntity
  8
部品1
 48
50.0
100
AcDbLine
 10
4967.044679601782
 20
8343.114170548885
 30
0.0
 11
4967.044679601823
 21
7624.357263431673
 31
0.0
  0
LINE
  5
15F82
330
747D
100
AcDbEntity
  8
寸法
 48
50.0
100
AcDbLine
 10
5099.632258576064
 20
9002.894477914939
 30
0.0
 11
5176.058138561593
 21
8569.461774204716
 31
0.0
  0
LINE
  5
15F83
330
747D
100
AcDbEntity
  8
寸法
 48
50.0
100
AcDbLine
 10
5130.095056932643
 20
9002.894477914939
 30
0.0
 11
5201.605023157853
 21
8597.341306540439
 31
0.0
  0
LINE
  5
15F95
330
747D
100
AcDbEntity
  8
部品1
100
AcDbLine
 10
5829.044679601826
 20
7571.357263431764
 30
0.0
 11
5382.513691734264
 21
7571.357263431766
 31
0.0
  0
LINE
  5
15FA4
330
747D
100
AcDbEntity
  8
部品1
100
AcDbLine
 10
5379.044679601935
 20
7595.857263431707
 30
0.0
 11
5378.19368070692
 21
7595.857263431707
 31
0.0
  0
LINE
  5
15FA5
330
747D
100
AcDbEntity
  8
部品1
100
AcDbLine
 10
5379.04467960193
 20
7624.357263431706
 30
0.0
 11
5373.168361756728
 21
7624.357263431708
 31
0.0
  0
LINE
  5
15FA6
330
747D
100
AcDbEntity
  8
破線
 48
10.0
100
AcDbLine
 10
5379.044679601926
 20
7647.85726343171
 30
0.0
 11
5369.024677710081
 21
7647.857263431712
 31
0.0
  0
LINE
  5
15FA7
330
747D
100
AcDbEntity
  8
細線
100
AcDbLine
 10
5379.044679601709
 20
7594.857263431736
 30
0.0
 11
5379.044679601709
 21
7591.031008871174
 31
0.0
  0
LINE
  5
15FA8
330
747D
100
AcDbEntity
  8
細線
100
AcDbLine
 10
5379.044679601708
 20
7594.857263431737
 30
0.0
 11
5378.370007687625
 21
7594.857263431736
 31
0.0
  0
LINE
  5
15FA9
330
747D
100
AcDbEntity
  8
部品1
100
AcDbLine
 10
5913.044679601725
 20
7493.857263431575
 30
0.0
 11
5913.044679601723
 21
7500.857263431611
 31
0.0
  0
LINE
  5
15FAA
330
747D
100
AcDbEntity
  8
部品1
100
AcDbLine
 10
5922.044679601723
 20
7500.857263431608
 30
0.0
 11
5913.044679601723
 21
7500.857263431611
 31
0.0
  0
LINE
  5
15FAB
330
747D
100
AcDbEntity
  8
部品1
100
AcDbLine
 10
5811.044679601724
 20
7493.857263431568
 30
0.0
 11
5811.044679601724
 21
7500.857263431604
 31
0.0
  0
LINE
  5
15FAC
330
747D
100
AcDbEntity
  8
部品1
100
AcDbLine
 10
5811.044679601724
 20
7500.857263431604
 30
0.0
 11
5802.044679601723
 21
7500.857263431604
 31
0.0
  0
LINE
  5
15FAD
330
747D
100
AcDbEntity
  8
部品1
100
AcDbLine
 10
5922.044679601723
 20
7500.857263431608
 30
0.0
 11
5922.044679601722
 21
7548.857263431576
 31
0.0
  0
LINE
  5
15FAE
330
747D
100
AcDbEntity
  8
部品1
100
AcDbLine
 10
5802.044679601723
 20
7500.857263431608
 30
0.0
 11
5802.044679601721
 21
7548.857263431576
 31
0.0
  0
LINE
  5
15FAF
330
747D
100
AcDbEntity
  8
部品1
 48
50.0
100
AcDbLine
 10
5802.044679601721
 20
7548.857263431576
 30
0.0
 11
5825.044679601721
 21
7548.857263431576
 31
0.0
  0
LINE
  5
15FB0
330
747D
100
AcDbEntity
  8
部品1
 48
50.0
100
AcDbLine
 10
5922.044679601722
 20
7548.857263431576
 30
0.0
 11
5899.044679601722
 21
7548.857263431576
 31
0.0
  0
LINE
  5
15FB1
330
747D
100
AcDbEntity
  8
部品1
 48
50.0
100
AcDbLine
 10
5890.04467960169
 20
7548.857263431573
 30
0.0
 11
5834.04467960169
 21
7548.857263431573
 31
0.0
  0
LINE
  5
15FB5
330
747D
100
AcDbEntity
  8
部品1
 48
50.0
100
AcDbLine
 10
5918.544679601722
 20
7624.357263431739
 30
0.0
 11
5890.044679601723
 21
7595.85726343174
 31
0.0
  0
LINE
  5
15FB6
330
747D
100
AcDbEntity
  8
部品1
100
AcDbLine
 10
5862.044679601677
 20
7968.857263431651
 30
0.0
 11
5834.044679601677
 21
7968.857263431651
 31
0.0
  0
LINE
  5
15FB9
330
747D
100
AcDbEntity
  8
寸法
 48
50.0
100
AcDbLine
 10
5176.058138561598
 20
8569.461774204716
 30
0.0
 11
5374.5321487399
 21
8552.097548309586
 31
0.0
  0
LINE
  5
15FBA
330
747D
100
AcDbEntity
  8
寸法
 48
50.0
100
AcDbLine
 10
5201.605023157848
 20
8597.341306540439
 30
0.0
 11
5488.682297847605
 21
8572.225299449167
 31
0.0
  0
LINE
  5
15FBB
330
747D
100
AcDbEntity
  8
寸法
 48
50.0
100
AcDbLine
 10
5488.682297847605
 20
8572.225299449167
 30
0.0
 11
5046.942433818493
 21
8366.238617940044
 31
0.0
  0
LINE
  5
15FBC
330
747D
100
AcDbEntity
  8
寸法
 48
50.0
100
AcDbLine
 10
5374.5321487399
 20
8552.097548309586
 30
0.0
 11
4932.792284710788
 21
8346.110866800461
 31
0.0
  0
LINE
  5
15FBD
330
747D
100
AcDbEntity
  8
寸法
 48
50.0
100
AcDbLine
 10
5219.869559400542
 20
8320.994859709189
 30
0.0
 11
4932.792284710788
 21
8346.110866800461
 31
0.0
  0
LINE
  5
15FBE
330
747D
100
AcDbEntity
  8
寸法
 48
50.0
100
AcDbLine
 10
5245.416443996794
 20
8348.874392044912
 30
0.0
 11
5046.942433818494
 21
8366.238617940044
 31
0.0
  0
LINE
  5
15FC3
330
747D
100
AcDbEntity
  8
部品1
100
AcDbLine
 10
5379.044679601907
 20
8521.100438439322
 30
0.0
 11
5379.044679601936
 21
8402.107263431791
 31
0.0
  0
LINE
  5
15FCB
330
747D
100
AcDbEntity
  8
部品1
100
AcDbLine
 10
5862.044679601671
 20
8388.857263431651
 30
0.0
 11
5834.044679601671
 21
8388.857263431651
 31
0.0
  0
LINE
  5
15FCC
330
747D
100
AcDbEntity
  8
部品1
100
AcDbLine
 10
5862.044679601671
 20
8388.857263431651
 30
0.0
 11
5834.044679601671
 21
8388.857263431651
 31
0.0
  0
LINE
  5
15FD2
330
747D
100
AcDbEntity
  8
部品1
 48
50.0
100
AcDbLine
 10
7260.04467960169
 20
7548.857263431573
 30
0.0
 11
7204.04467960169
 21
7548.857263431573
 31
0.0
  0
LINE
  5
15FD3
330
747D
100
AcDbEntity
  8
部品1
100
AcDbLine
 10
7283.044679601726
 20
7493.857263431607
 30
0.0
 11
7232.044679601725
 21
7493.857263431607
 31
0.0
  0
LINE
  5
15FD4
330
747D
100
AcDbEntity
  8
部品1
100
AcDbLine
 10
7204.044679601676
 20
8388.857263431651
 30
0.0
 11
7204.044679601691
 21
7493.857263431639
 31
0.0
  0
LINE
  5
15FD5
330
747D
100
AcDbEntity
  8
部品1
100
AcDbLine
 10
7199.044679601844
 20
8367.357263431768
 30
0.0
 11
7199.044679601941
 21
7571.357263431778
 31
0.0
  0
LINE
  5
15FD6
330
747D
100
AcDbEntity
  8
部品1
100
AcDbLine
 10
6749.044679601624
 20
8783.857263431832
 30
0.0
 11
6749.044679601941
 21
7571.357263431778
 31
0.0
  0
LINE
  5
15FD9
330
747D
100
AcDbEntity
  8
破線
 48
10.0
100
AcDbLine
 10
5942.044679601703
 20
8783.857263431769
 30
0.0
 11
5942.044679601712
 21
8241.357263431721
 31
0.0
  0
LINE
  5
15FDA
330
747D
100
AcDbEntity
  8
破線
 48
10.0
100
AcDbLine
 10
6749.044679601926
 20
7647.85726343171
 30
0.0
 11
5942.044679601719
 21
7647.857263431642
 31
0.0
  0
LINE
  5
15FF9
330
747D
100
AcDbEntity
  8
部品1
100
AcDbLine
 10
7199.044679601826
 20
7571.357263431764
 30
0.0
 11
6749.044679601827
 21
7571.357263431764
 31
0.0
  0
LINE
  5
1600A
330
747D
100
AcDbEntity
  8
部品1
 48
50.0
100
AcDbLine
 10
7172.044679601722
 20
7548.857263431576
 30
0.0
 11
7195.044679601721
 21
7548.857263431576
 31
0.0
  0
LINE
  5
1600B
330
747D
100
AcDbEntity
  8
部品1
100
AcDbLine
 10
7181.044679601725
 20
7493.857263431568
 30
0.0
 11
7181.044679601723
 21
7500.857263431604
 31
0.0
  0
LINE
  5
1600C
330
747D
100
AcDbEntity
  8
部品1
100
AcDbLine
 10
7181.044679601723
 20
7500.857263431604
 30
0.0
 11
7172.044679601722
 21
7500.857263431604
 31
0.0
  0
LINE
  5
1600D
330
747D
100
AcDbEntity
  8
部品1
100
AcDbLine
 10
7172.044679601722
 20
7500.857263431608
 30
0.0
 11
7172.044679601722
 21
7548.857263431576
 31
0.0
  0
LINE
  5
1600E
330
747D
100
AcDbEntity
  8
部品1
100
AcDbLine
 10
7232.044679601677
 20
7968.857263431651
 30
0.0
 11
7204.044679601676
 21
7968.857263431651
 31
0.0
  0
LINE
  5
16019
330
747D
100
AcDbEntity
  8
部品1
100
AcDbLine
 10
7232.044679601671
 20
8388.857263431651
 30
0.0
 11
7204.044679601671
 21
8388.857263431651
 31
0.0
  0
LINE
  5
1601A
330
747D
100
AcDbEntity
  8
部品1
100
AcDbLine
 10
7232.044679601671
 20
8388.857263431651
 30
0.0
 11
7204.044679601671
 21
8388.857263431651
 31
0.0
  0
LINE
  5
1601B
330
747D
100
AcDbEntity
  8
破線
 48
10.0
100
AcDbLine
 10
7312.044679601704
 20
8783.857263431769
 30
0.0
 11
7312.044679601712
 21
8241.357263431831
 31
0.0
  0
LINE
  5
1601C
330
747D
100
AcDbEntity
  8
部品1
100
AcDbLine
 10
8119.044679601733
 20
8367.357263431765
 30
0.0
 11
8119.044679601827
 21
7571.357263431764
 31
0.0
  0
LINE
  5
1601D
330
747D
100
AcDbEntity
  8
破線
 48
10.0
100
AcDbLine
 10
8119.044679601925
 20
7647.85726343171
 30
0.0
 11
7312.044679601719
 21
7647.857263431642
 31
0.0
  0
LINE
  5
1601E
330
747D
100
AcDbEntity
  8
部品1
100
AcDbLine
 10
8119.04467960193
 20
7624.357263431706
 30
0.0
 11
7288.544679601625
 21
7624.357263431645
 31
0.0
  0
LINE
  5
16024
330
747D
100
AcDbEntity
  8
部品1
100
AcDbLine
 10
8119.044679601934
 20
7595.857263431707
 30
0.0
 11
7260.044679601707
 21
7595.857263431641
 31
0.0
  0
LINE
  5
1602A
330
747D
100
AcDbEntity
  8
部品1
 48
50.0
100
AcDbLine
 10
7292.044679601722
 20
7548.857263431576
 30
0.0
 11
7269.044679601721
 21
7548.857263431576
 31
0.0
  0
LINE
  5
1602B
330
747D
100
AcDbEntity
  8
部品1
100
AcDbLine
 10
7292.044679601723
 20
7500.857263431608
 30
0.0
 11
7292.044679601722
 21
7548.857263431576
 31
0.0
  0
LINE
  5
1602C
330
747D
100
AcDbEntity
  8
部品1
100
AcDbLine
 10
7292.044679601723
 20
7500.857263431608
 30
0.0
 11
7283.044679601722
 21
7500.857263431611
 31
0.0
  0
LINE
  5
1602D
330
747D
100
AcDbEntity
  8
部品1
100
AcDbLine
 10
7283.044679601726
 20
7493.857263431575
 30
0.0
 11
7283.044679601722
 21
7500.857263431611
 31
0.0
  0
LINE
  5
16039
330
747D
100
AcDbEntity
  8
部品1
 48
50.0
100
AcDbLine
 10
7288.544679601722
 20
7624.357263431739
 30
0.0
 11
7260.044679601723
 21
7595.85726343174
 31
0.0
  0
LINE
  5
16056
330
747D
100
AcDbEntity
  8
部品1
100
AcDbLine
 10
8542.044679601707
 20
7500.857263431737
 30
0.0
 11
8542.044679601707
 21
7548.857263431734
 31
0.0
  0
DIMENSION
  5
1605B
330
747D
100
AcDbEntity
  8
寸法
 48
50.0
100
AcDbDimension
  2
*D7
 10
5807.044679601732
 20
9299.335613378142
 30
0.0
 11
5862.044679601731
 21
9299.335613378142
 31
0.0
 70
   160
 71
     5
 42
109.9999999999991
  3
INABA_S40G
100
AcDbAlignedDimension
 13
5917.044679601731
 23
8863.857263431663
 33
0.0
 14
5807.044679601732
 24
8863.857263431746
 34
0.0
100
AcDbRotatedDimension
  0
LINE
  5
1605C
330
747D
100
AcDbEntity
  8
部品1
100
AcDbLine
 10
5890.044679601698
 20
8835.857263431632
 30
0.0
 11
7177.044679601731
 21
8835.857263431647
 31
0.0
  0
LINE
  5
1605D
330
747D
100
AcDbEntity
  8
部品1
100
AcDbLine
 10
5890.044679601698
 20
8835.857263431744
 30
0.0
 11
7204.044679601699
 21
8835.857263431753
 31
0.0
  0
DIMENSION
  5
1605E
330
747D
100
AcDbEntity
  8
寸法
100
AcDbDimension
  2
*D8
 10
7177.044679601732
 20
9299.335613378142
 30
0.0
 11
6547.04467960173
 21
9299.335613378142
 31
0.0
 70
   160
  1
3X420=<>
 71
     5
 42
1260.000000000001
  3
INABA_S40G
100
AcDbAlignedDimension
 13
5917.044679601731
 23
8863.857263431619
 33
0.0
 14
7177.044679601732
 24
8863.857263431746
 34
0.0
100
AcDbRotatedDimension
1001
ACAD
1000
DSTYLE
1002
{
1002
}
  0
LINE
  5
1605F
330
747D
100
AcDbEntity
  8
部品1
100
AcDbLine
 10
5918.5446796017
 20
8807.357263431768
 30
0.0
 11
6749.044679601734
 21
8807.357263431766
 31
0.0
  0
MTEXT
  5
16060
330
747D
100
AcDbEntity
  8
部品1
  6
ByBlock
 48
50.0
100
AcDbMText
 10
4734.964946107737
 20
9399.347424401764
 30
0.0
 40
120.0
 41
0.0
 71
     5
 72
     1
  1
\A1;1260
  7
STYLE1
 73
     1
 44
1.0
1001
ACAD
1000
MTEXTBEGIN
1070
    73
1070
     1
1070
    44
1040
1.0
1070
    74
1070
     0
1000
MTEXTEND
  0
LINE
  5
16061
330
747D
100
AcDbEntity
  8
寸法
  6
ByBlock
 48
50.0
100
AcDbLine
 10
4547.044679601731
 20
9299.335613378142
 30
0.0
 11
4888.49816971076
 21
9299.335613378142
 31
0.0
  0
LINE
  5
16062
330
747D
100
AcDbEntity
  8
破線
 48
10.0
100
AcDbLine
 10
5138.254429268664
 20
8783.857263431819
 30
0.0
 11
4572.044679601702
 21
8783.857263431768
 31
0.0
  0
LINE
  5
16063
330
747D
100
AcDbEntity
  8
部品1
100
AcDbLine
 10
4548.5446796017
 20
8807.357263431768
 30
0.0
 11
5134.110745222024
 21
8807.357263431766
 31
0.0
  0
LINE
  5
16064
330
747D
100
AcDbEntity
  8
部品1
100
AcDbLine
 10
4492.044679601732
 20
8863.857263431619
 30
0.0
 11
5124.148270812019
 21
8863.857263431638
 31
0.0
  0
LINE
  5
16065
330
747D
100
AcDbEntity
  8
部品1
100
AcDbLine
 10
4520.044679601731
 20
8835.857263431618
 30
0.0
 11
5129.085426271859
 21
8835.857263431625
 31
0.0
  0
LINE
  5
16066
330
747D
100
AcDbEntity
  8
部品1
100
AcDbLine
 10
4547.044679601731
 20
8835.857263431735
 30
0.0
 11
5055.028094374288
 21
8835.857263431737
 31
0.0
  0
DIMENSION
  5
16067
330
747D
100
AcDbEntity
  8
寸法
100
AcDbDimension
  2
*D9
 10
4547.044679601731
 20
9299.335613377992
 30
0.0
 11
4183.559398227458
 21
9299.335613377992
 31
0.0
 70
   160
 71
     5
 42
55.00000000003456
  3
INABA_S40G
100
AcDbAlignedDimension
 13
4492.044679601696
 23
8863.857263431619
 33
0.0
 14
4547.044679601731
 24
8863.857263431619
 34
0.0
100
AcDbRotatedDimension
1001
ACAD
1000
DSTYLE
1002
{
1002
}
  0
LINE
  5
16068
330
747D
100
AcDbEntity
  8
寸法
  6
ByBlock
 48
50.0
100
AcDbLine
 10
4547.044679601731
 20
8883.85726343162
 30
0.0
 11
4547.044679601731
 21
9359.33561337814
 31
0.0
  0
LINE
  5
16069
330
747D
100
AcDbEntity
  8
部品1
100
AcDbLine
 10
4520.044679601698
 20
8808.857263431622
 30
0.0
 11
4492.044679601699
 21
8808.857263431622
 31
0.0
  0
LINE
  5
1606A
330
747D
100
AcDbEntity
  8
部品1
100
AcDbLine
 10
4547.044679601731
 20
8863.857263431652
 30
0.0
 11
4547.044679601731
 21
8835.857263431652
 31
0.0
  0
INSERT
  5
1606B
330
747D
100
AcDbEntity
  8
寸法
  6
ByBlock
 48
50.0
100
AcDbBlockReference
  2
_DOTSMALL
 10
4547.044679601731
 20
9299.335613378142
 30
0.0
 41
100.0
 42
100.0
 43
100.0
 50
180.0
  0
LINE
  5
1606C
330
747D
100
AcDbEntity
  8
部品1
100
AcDbLine
 10
5085.490892730881
 20
8835.857263431625
 30
0.0
 11
5129.085426271857
 21
8835.857263431625
 31
0.0
  0
LINE
  5
1606D
330
747D
100
AcDbEntity
  8
部品1
100
AcDbLine
 10
5085.490892730859
 20
8835.857263431739
 30
0.0
 11
5129.085426271838
 21
8835.857263431739
 31
0.0
  0
LINE
  5
1606E
330
747D
100
AcDbEntity
  8
部品1
100
AcDbLine
 10
5090.516211681047
 20
8807.357263431766
 30
0.0
 11
5134.110745222024
 21
8807.357263431768
 31
0.0
  0
LINE
  5
1606F
330
747D
100
AcDbEntity
  8
破線
 48
10.0
100
AcDbLine
 10
5379.044679601737
 20
8783.857263431832
 30
0.0
 11
5168.717227625245
 21
8783.857263431819
 31
0.0
  0
LINE
  5
16070
330
747D
100
AcDbEntity
  8
部品1
 48
50.0
100
AcDbLine
 10
4967.044679601732
 20
8835.857263431746
 30
0.0
 11
4967.044679601732
 21
8863.857263431677
 31
0.0
  0
LINE
  5
16071
330
747D
100
AcDbEntity
  8
寸法
  6
ByBlock
 48
50.0
100
AcDbLine
 10
5807.044679601732
 20
8883.857263431746
 30
0.0
 11
5807.044679601732
 21
9359.33561337814
 31
0.0
  0
LINE
  5
16072
330
747D
100
AcDbEntity
  8
部品1
 48
50.0
100
AcDbLine
 10
5829.044679601725
 20
8835.107263431778
 30
0.0
 11
5379.044679601728
 21
8835.107263431776
 31
0.0
  0
LINE
  5
16073
330
747D
100
AcDbEntity
  8
部品1
 48
50.0
100
AcDbLine
 10
5387.044679601732
 20
8835.857263431746
 30
0.0
 11
5387.044679601732
 21
8863.857263431677
 31
0.0
  0
LINE
  5
16074
330
747D
100
AcDbEntity
  8
部品1
100
AcDbLine
 10
5917.044679601731
 20
8863.857263431652
 30
0.0
 11
5917.044679601731
 21
8835.857263431652
 31
0.0
  0
LINE
  5
16075
330
747D
100
AcDbEntity
  8
部品1
100
AcDbLine
 10
5807.044679601731
 20
8863.857263431652
 30
0.0
 11
5807.044679601731
 21
8835.857263431652
 31
0.0
  0
LINE
  5
16076
330
747D
100
AcDbEntity
  8
部品1
 48
50.0
100
AcDbLine
 10
5890.044679601698
 20
8808.857263431622
 30
0.0
 11
5890.044679601698
 21
8863.857263431706
 31
0.0
  0
LINE
  5
16077
330
747D
100
AcDbEntity
  8
部品1
 48
50.0
100
AcDbLine
 10
5834.044679601698
 20
8835.857263431753
 30
0.0
 11
5834.044679601698
 21
8863.857263431702
 31
0.0
  0
LINE
  5
16078
330
747D
100
AcDbEntity
  8
部品1
100
AcDbLine
 10
5890.044679601698
 20
8808.857263431622
 30
0.0
 11
5834.044679601698
 21
8808.857263431622
 31
0.0
  0
LINE
  5
16079
330
747D
100
AcDbEntity
  8
部品1
 48
50.0
100
AcDbLine
 10
5834.044679601698
 20
8835.857263431647
 30
0.0
 11
5862.044679601697
 21
8835.85726343165
 31
0.0
  0
LINE
  5
1607A
330
747D
100
AcDbEntity
  8
部品1
 48
50.0
100
AcDbLine
 10
5862.044679601697
 20
8835.857263431647
 30
0.0
 11
5834.044679601698
 21
8863.857263431702
 31
0.0
  0
MTEXT
  5
1607B
330
747D
100
AcDbEntity
  8
部品1
  6
ByBlock
 48
50.0
100
AcDbMText
 10
5512.689159610122
 20
9399.347424401764
 30
0.0
 40
120.0
 41
0.0
 71
     5
 72
     1
  1
\A1;1260
  7
STYLE1
 73
     1
 44
1.0
1001
ACAD
1000
MTEXTBEGIN
1070
    73
1070
     1
1070
    44
1040
1.0
1070
    74
1070
     0
1000
MTEXTEND
  0
LINE
  5
1607C
330
747D
100
AcDbEntity
  8
寸法
  6
ByBlock
 48
50.0
100
AcDbLine
 10
5355.987629460551
 20
9299.335613378142
 30
0.0
 11
5807.044679601732
 21
9299.335613378142
 31
0.0
  0
POINT
  5
1607D
330
747D
100
AcDbEntity
  8
寸法
  6
ByBlock
 48
50.0
100
AcDbPoint
 10
5807.044679601732
 20
9299.335613378142
 30
0.0
  0
INSERT
  5
1607E
330
747D
100
AcDbEntity
  8
寸法
  6
ByBlock
 48
50.0
100
AcDbBlockReference
  2
_DOTSMALL
 10
5807.044679601732
 20
9299.335613378142
 30
0.0
 41
100.0
 42
100.0
 43
100.0
  0
DIMENSION
  5
1607F
330
747D
100
AcDbEntity
  8
寸法
 48
50.0
100
AcDbDimension
  2
*D10
 10
7177.044679601731
 20
9299.335613378142
 30
0.0
 11
7232.044679601732
 21
9299.335613378142
 31
0.0
 70
   160
 71
     5
 42
110.0
  3
INABA_S40G
100
AcDbAlignedDimension
 13
7287.044679601732
 23
8863.857263431619
 33
0.0
 14
7177.044679601731
 24
8863.857263431619
 34
0.0
100
AcDbRotatedDimension
  0
LINE
  5
16080
330
747D
100
AcDbEntity
  8
部品1
100
AcDbLine
 10
7260.044679601698
 20
8808.857263431622
 30
0.0
 11
7204.044679601699
 21
8808.857263431622
 31
0.0
  0
LINE
  5
16081
330
747D
100
AcDbEntity
  8
破線
 48
10.0
100
AcDbLine
 10
6749.044679601738
 20
8783.857263431832
 30
0.0
 11
5942.044679601703
 21
8783.857263431769
 31
0.0
  0
LINE
  5
16082
330
747D
100
AcDbEntity
  8
部品1
 48
50.0
100
AcDbLine
 10
6337.044679601732
 20
8835.857263431746
 30
0.0
 11
6337.044679601732
 21
8863.857263431677
 31
0.0
  0
LINE
  5
16083
330
747D
100
AcDbEntity
  8
部品1
 48
50.0
100
AcDbLine
 10
7199.044679601726
 20
8835.107263431778
 30
0.0
 11
6749.044679601728
 21
8835.107263431776
 31
0.0
  0
LINE
  5
16084
330
747D
100
AcDbEntity
  8
部品1
 48
50.0
100
AcDbLine
 10
6757.044679601732
 20
8835.857263431746
 30
0.0
 11
6757.044679601732
 21
8863.857263431677
 31
0.0
  0
LINE
  5
16085
330
747D
100
AcDbEntity
  8
部品1
 48
50.0
100
AcDbLine
 10
7204.044679601699
 20
8835.857263431753
 30
0.0
 11
7204.044679601698
 21
8863.857263431702
 31
0.0
  0
LINE
  5
16086
330
747D
100
AcDbEntity
  8
部品1
 48
50.0
100
AcDbLine
 10
7232.044679601696
 20
8835.857263431647
 30
0.0
 11
7204.044679601699
 21
8863.857263431702
 31
0.0
  0
LINE
  5
16087
330
747D
100
AcDbEntity
  8
部品1
 48
50.0
100
AcDbLine
 10
7204.044679601699
 20
8835.857263431647
 30
0.0
 11
7232.044679601696
 21
8835.85726343165
 31
0.0
  0
LINE
  5
16088
330
747D
100
AcDbEntity
  8
部品1
 48
50.0
100
AcDbLine
 10
7204.044679601699
 20
8808.857263431622
 30
0.0
 11
7204.044679601699
 21
8835.857263431647
 31
0.0
  0
LINE
  5
16089
330
747D
100
AcDbEntity
  8
部品1
100
AcDbLine
 10
7177.044679601731
 20
8863.857263431652
 30
0.0
 11
7177.044679601731
 21
8835.857263431652
 31
0.0
  0
LINE
  5
1608A
330
747D
100
AcDbEntity
  8
部品1
100
AcDbLine
 10
7288.544679601701
 20
8807.357263431768
 30
0.0
 11
8119.044679601733
 21
8807.357263431766
 31
0.0
  0
LINE
  5
1608B
330
747D
100
AcDbEntity
  8
破線
 48
10.0
100
AcDbLine
 10
8119.044679601739
 20
8783.857263431832
 30
0.0
 11
7312.044679601704
 21
8783.857263431769
 31
0.0
  0
LINE
  5
1608C
330
747D
100
AcDbEntity
  8
部品1
100
AcDbLine
 10
7287.044679601732
 20
8835.857263431652
 30
0.0
 11
7707.044679601732
 21
8835.857263431655
 31
0.0
  0
LINE
  5
1608D
330
747D
100
AcDbEntity
  8
部品1
 48
50.0
100
AcDbLine
 10
7260.044679601698
 20
8808.857263431622
 30
0.0
 11
7260.044679601698
 21
8863.857263431706
 31
0.0
  0
LINE
  5
1608E
330
747D
100
AcDbEntity
  8
部品1
100
AcDbLine
 10
7287.044679601732
 20
8863.857263431652
 30
0.0
 11
7287.044679601732
 21
8835.857263431652
 31
0.0
  0
LINE
  5
1608F
330
747D
100
AcDbEntity
  8
部品1
100
AcDbLine
 10
7707.044679601732
 20
8863.857263431652
 30
0.0
 11
7707.044679601732
 21
8835.857263431652
 31
0.0
  0
LINE
  5
16090
330
747D
100
AcDbEntity
  8
部品1
100
AcDbLine
 10
7707.044679601732
 20
8863.857263431651
 30
0.0
 11
7707.044679601732
 21
8835.85726343165
 31
0.0
  0
LINE
  5
16091
330
747D
100
AcDbEntity
  8
部品1
100
AcDbLine
 10
7707.044679601732
 20
8863.857263431766
 30
0.0
 11
7707.044679601732
 21
8835.857263431767
 31
0.0
  0
LINE
  5
16092
330
747D
100
AcDbEntity
  8
部品1
100
AcDbLine
 10
8127.044679601731
 20
8863.857263431766
 30
0.0
 11
8127.044679601731
 21
8835.857263431767
 31
0.0
  0
LINE
  5
16093
330
747D
100
AcDbEntity
  8
部品1
100
AcDbLine
 10
8547.044679601732
 20
8863.857263431766
 30
0.0
 11
8547.044679601732
 21
8835.857263431767
 31
0.0
  0
LINE
  5
16094
330
747D
100
AcDbEntity
  8
部品1
100
AcDbLine
 10
8547.044679601732
 20
8863.857263431746
 30
0.0
 11
8547.044679601732
 21
8835.857263431746
 31
0.0
  0
LINE
  5
16096
330
747D
100
AcDbEntity
  8
部品1
100
AcDbLine
 10
8574.044679601733
 20
8835.857263431746
 30
0.0
 11
8574.044679601721
 21
8388.85726343175
 31
0.0
  0
LINE
  5
16097
330
747D
100
AcDbEntity
  8
部品1
100
AcDbLine
 10
8569.044679601732
 20
8835.107263431778
 30
0.0
 11
8569.044679601839
 21
8402.107263431975
 31
0.0
  0
DIMENSION
  5
16098
330
747D
100
AcDbEntity
  8
寸法
100
AcDbDimension
  2
*D11
 10
9249.471025336145
 20
7548.857263431734
 30
0.0
 11
9249.471025336143
 21
8254.810019337261
 31
0.0
 70
   160
  1
3X420=<>
 71
     5
 42
1260.000000000016
  3
INABA_S40G
100
AcDbAlignedDimension
 13
8602.044679601734
 23
8808.85726343175
 33
0.0
 14
8602.044679601709
 24
7548.857263431734
 34
0.0
 50
90.0
100
AcDbRotatedDimension
1001
ACAD
1000
DSTYLE
1002
{
1002
}
  0
DIMENSION
  5
16099
330
747D
100
AcDbEntity
  8
寸法
100
AcDbDimension
  2
*D12
 10
9249.471025336145
 20
8808.85726343175
 30
0.0
 11
9249.471025336143
 21
9172.342544805985
 31
0.0
 70
   160
 71
     5
 42
54.99999999999636
  3
INABA_S40G
100
AcDbAlignedDimension
 13
8602.044679601734
 23
8863.857263431746
 33
0.0
 14
8602.044679601734
 24
8808.85726343175
 34
0.0
 50
90.0
100
AcDbRotatedDimension
1001
ACAD
1000
DSTYLE
1002
{
1002
}
  0
LINE
  5
1609A
330
747D
100
AcDbEntity
  8
部品1
100
AcDbLine
 10
8602.044679601734
 20
8863.857263431746
 30
0.0
 11
8602.044679601709
 21
7493.857263431737
 31
0.0
  0
DIMENSION
  5
1609B
330
747D
100
AcDbEntity
  8
寸法
100
AcDbDimension
  2
*D13
 10
9527.487090248543
 20
7493.857263431737
 30
0.0
 11
9527.487090248541
 21
8179.851675542654
 31
0.0
 70
   160
 71
     5
 42
1370.000000000009
  3
INABA_S40G
100
AcDbAlignedDimension
 13
8602.044679601734
 23
8863.857263431746
 33
0.0
 14
8602.044679601709
 24
7493.857263431737
 34
0.0
 50
90.0
100
AcDbRotatedDimension
1001
ACAD
1000
DSTYLE
1002
{
1002
}
  0
DIMENSION
  5
1609C
330
747D
100
AcDbEntity
  8
寸法
100
AcDbDimension
  2
*D14
 10
9249.471025336118
 20
7493.857263431737
 30
0.0
 11
9249.471025336118
 21
7115.995796526876
 31
0.0
 70
   160
 71
     5
 42
54.99999999999636
  3
INABA_S40G
100
AcDbAlignedDimension
 13
8602.044679601709
 23
7548.857263431734
 33
0.0
 14
8602.044679601709
 24
7493.857263431737
 34
0.0
 50
90.0
100
AcDbRotatedDimension
1001
ACAD
1000
DSTYLE
1002
{
1002
}
  0
LINE
  5
1609E
330
747D
100
AcDbEntity
  8
部品1
100
AcDbLine
 10
8569.044679601844
 20
8367.357263431768
 30
0.0
 11
8569.04467960194
 21
7571.357263431778
 31
0.0
  0
LINE
  5
1609F
330
747D
100
AcDbEntity
  8
部品1
100
AcDbLine
 10
8574.044679601721
 20
8388.85726343175
 30
0.0
 11
8574.044679601708
 21
7548.857263431734
 31
0.0
  0
LINE
  5
160A0
330
747D
100
AcDbEntity
  8
部品1
100
AcDbLine
 10
8574.04467960174
 20
7548.857263431749
 30
0.0
 11
8602.044679601741
 21
7548.857263431749
 31
0.0
  0
LINE
  5
160A1
330
747D
100
AcDbEntity
  8
部品1
100
AcDbLine
 10
8551.044679601707
 20
7493.857263431735
 30
0.0
 11
8551.044679601707
 21
7500.857263431737
 31
0.0
  0
LINE
  5
160A2
330
747D
100
AcDbEntity
  8
部品1
100
AcDbLine
 10
8574.044679601708
 20
7548.857263431734
 30
0.0
 11
8602.044679601709
 21
7548.857263431734
 31
0.0
  0
LINE
  5
160A3
330
747D
100
AcDbEntity
  8
部品1
100
AcDbLine
 10
8602.044679601709
 20
7548.857263431734
 30
0.0
 11
8602.044679601709
 21
7493.857263431737
 31
0.0
  0
LINE
  5
160A4
330
747D
100
AcDbEntity
  8
部品1
100
AcDbLine
 10
8602.044679601709
 20
7493.857263431737
 30
0.0
 11
8551.044679601707
 21
7493.857263431737
 31
0.0
  0
LINE
  5
160A5
330
747D
100
AcDbEntity
  8
部品1
100
AcDbLine
 10
8574.044679601737
 20
7968.85726343175
 30
0.0
 11
8602.044679601737
 21
7968.85726343175
 31
0.0
  0
LINE
  5
160AB
330
747D
100
AcDbEntity
  8
部品1
100
AcDbLine
 10
8574.044679601733
 20
8388.85726343175
 30
0.0
 11
8602.044679601734
 21
8388.85726343175
 31
0.0
  0
LINE
  5
160AC
330
747D
100
AcDbEntity
  8
部品1
100
AcDbLine
 10
8574.044679601733
 20
8388.85726343175
 30
0.0
 11
8602.044679601734
 21
8388.85726343175
 31
0.0
  0
LINE
  5
160AD
330
747D
100
AcDbEntity
  8
部品1
100
AcDbLine
 10
8574.044679601733
 20
8808.85726343175
 30
0.0
 11
8602.044679601734
 21
8808.85726343175
 31
0.0
  0
LINE
  5
160AF
330
747D
100
AcDbEntity
  8
部品1
100
AcDbLine
 10
5079.416055703044
 20
4752.403403838183
 30
0.0
 11
8602.044679601709
 21
4752.403403838183
 31
0.0
  0
LINE
  5
160B0
330
747D
100
AcDbEntity
  8
部品1
100
AcDbLine
 10
5396.451967016864
 20
2954.40340383819
 30
0.0
 11
8602.044679601709
 21
2954.403403838203
 31
0.0
  0
LINE
  5
160B1
330
747D
100
AcDbEntity
  8
部品1
100
AcDbLine
 10
5403.85770020662
 20
2912.403403838183
 30
0.0
 11
8602.044679601709
 21
2912.403403838183
 31
0.0
  0
LINE
  5
160BA
330
747D
100
AcDbEntity
  8
寸法
 48
50.0
100
AcDbLine
 10
5026.965408373744
 20
5049.865806464029
 30
0.0
 11
5190.773897026886
 21
4120.861702866405
 31
0.0
  0
LINE
  5
160BB
330
747D
100
AcDbEntity
  8
寸法
 48
50.0
100
AcDbLine
 10
4996.502610017172
 20
5049.86580646403
 30
0.0
 11
5165.227012430636
 21
4092.982170530684
 31
0.0
  0
LINE
  5
160BC
330
747D
100
AcDbEntity
  8
細線
 48
50.0
100
AcDbLine
 10
7222.044679601705
 20
4846.403403838182
 30
0.0
 11
7222.044679601707
 21
4987.403403838187
 31
0.0
  0
LINE
  5
160BD
330
747D
100
AcDbEntity
  8
細線
 48
50.0
100
AcDbLine
 10
5852.044679601706
 20
4846.403403838186
 30
0.0
 11
5852.044679601707
 21
4987.403403838186
 31
0.0
  0
LINE
  5
160C2
330
747D
100
AcDbEntity
  8
寸法
 48
50.0
100
AcDbLine
 10
5209.03843326958
 20
3844.515256035158
 30
0.0
 11
5415.283250276043
 21
2674.842774956026
 31
0.0
  0
LINE
  5
160C3
330
747D
100
AcDbEntity
  8
寸法
 48
50.0
100
AcDbLine
 10
5234.585317865831
 20
3872.394788370881
 30
0.0
 11
5445.746048632615
 21
2674.842774956026
 31
0.0
  0
LINE
  5
160C4
330
747D
100
AcDbEntity
  8
部品1
100
AcDbLine
 10
5802.044679601707
 20
4752.403403838183
 30
0.0
 11
5802.044679601707
 21
2954.403403838187
 31
0.0
  0
LINE
  5
160CB
330
747D
100
AcDbEntity
  8
部品1
100
AcDbLine
 10
4552.044679601707
 20
4752.403403838183
 30
0.0
 11
4552.044679601707
 21
2954.403403838187
 31
0.0
  0
LINE
  5
160CC
330
747D
100
AcDbEntity
  8
部品1
100
AcDbLine
 10
4492.044679601707
 20
4846.403403838188
 30
0.0
 11
4492.044679601707
 21
2812.403403838183
 31
0.0
  0
LINE
  5
160CE
330
747D
100
AcDbEntity
  8
部品1
100
AcDbLine
 10
4492.044679601707
 20
2954.403403838187
 30
0.0
 11
5365.989168660291
 21
2954.40340383819
 31
0.0
  0
LINE
  5
160D0
330
747D
100
AcDbEntity
  8
部品1
100
AcDbLine
 10
4492.044679601707
 20
2912.403403838183
 30
0.0
 11
5373.394901850048
 21
2912.403403838183
 31
0.0
  0
LINE
  5
160D1
330
747D
100
AcDbEntity
  8
Ｇ．Ｌ
100
AcDbLine
 10
3625.945031321471
 20
2812.403403838183
 30
0.0
 11
5391.027599920896
 21
2812.403403838183
 31
0.0
  0
TEXT
  5
160D2
330
747D
100
AcDbEntity
  8
部品1
100
AcDbText
 10
3903.546984770345
 20
2848.510307444085
 30
0.0
 40
125.0
  1
G.L
  7
STYLE2
100
AcDbText
  0
LINE
  5
160D3
330
747D
100
AcDbEntity
  8
部品1
100
AcDbLine
 10
3875.442042645571
 20
2942.307214405848
 30
0.0
 11
3800.442042645571
 21
2812.403403838183
 31
0.0
  0
LINE
  5
160D4
330
747D
100
AcDbEntity
  8
部品1
100
AcDbLine
 10
3800.442042645571
 20
2812.403403838183
 30
0.0
 11
3725.442042645571
 21
2942.307214405848
 31
0.0
  0
LINE
  5
160D5
330
747D
100
AcDbEntity
  8
部品1
100
AcDbLine
 10
3725.442042645571
 20
2942.307214405848
 30
0.0
 11
3875.442042645571
 21
2942.307214405848
 31
0.0
  0
LINE
  5
160DF
330
747D
100
AcDbEntity
  8
部品1
100
AcDbLine
 10
5862.044679601708
 20
2954.403403838198
 30
0.0
 11
5862.044679601708
 21
2912.403403838183
 31
0.0
  0
LINE
  5
160E3
330
747D
100
AcDbEntity
  8
部品1
100
AcDbLine
 10
4492.044679601707
 20
4752.403403838183
 30
0.0
 11
5048.953257346472
 21
4752.403403838183
 31
0.0
  0
LINE
  5
160E8
330
747D
100
AcDbEntity
  8
寸法
 48
50.0
100
AcDbLine
 10
5363.701022608938
 20
4075.617944635552
 30
0.0
 11
4921.961158579825
 21
3869.63126312643
 31
0.0
  0
LINE
  5
160E9
330
747D
100
AcDbEntity
  8
寸法
 48
50.0
100
AcDbLine
 10
5477.851171716642
 20
4095.745695775135
 30
0.0
 11
5036.11130768753
 21
3889.759014266012
 31
0.0
  0
LINE
  5
160EB
330
747D
100
AcDbEntity
  8
寸法
 48
50.0
100
AcDbLine
 10
5234.585317865831
 20
3872.394788370881
 30
0.0
 11
5036.111307687532
 21
3889.759014266012
 31
0.0
  0
LINE
  5
1610D
330
747D
100
AcDbEntity
  8
寸法
 48
50.0
100
AcDbLine
 10
5209.03843326958
 20
3844.515256035158
 30
0.0
 11
4921.961158579825
 21
3869.63126312643
 31
0.0
  0
LINE
  5
1610F
330
747D
100
AcDbEntity
  8
寸法
 48
50.0
100
AcDbLine
 10
5165.227012430636
 20
4092.982170530684
 30
0.0
 11
5363.701022608938
 21
4075.617944635552
 31
0.0
  0
LINE
  5
16110
330
747D
100
AcDbEntity
  8
寸法
 48
50.0
100
AcDbLine
 10
5190.773897026886
 20
4120.861702866406
 30
0.0
 11
5477.851171716642
 21
4095.745695775135
 31
0.0
  0
LINE
  5
1612E
330
747D
100
AcDbEntity
  8
細線
 48
50.0
100
AcDbLine
 10
5862.044679601707
 20
4752.403403838183
 30
0.0
 11
5862.044679601708
 21
4846.403403838186
 31
0.0
  0
LINE
  5
1612F
330
747D
100
AcDbEntity
  8
部品1
100
AcDbLine
 10
7172.044679601707
 20
4752.403403838183
 30
0.0
 11
7172.044679601707
 21
2954.403403838187
 31
0.0
  0
LINE
  5
16138
330
747D
100
AcDbEntity
  8
部品1
100
AcDbLine
 10
5922.044679601707
 20
4752.403403838183
 30
0.0
 11
5922.044679601707
 21
2954.403403838187
 31
0.0
  0
LINE
  5
16139
330
747D
100
AcDbEntity
  8
部品1
100
AcDbLine
 10
7292.044679601707
 20
4752.403403838183
 30
0.0
 11
7292.044679601707
 21
2954.403403838187
 31
0.0
  0
LINE
  5
1614D
330
747D
100
AcDbEntity
  8
部品1
100
AcDbLine
 10
7232.044679601708
 20
2954.403403838198
 30
0.0
 11
7232.044679601708
 21
2912.403403838183
 31
0.0
  0
LINE
  5
161B3
330
747D
100
AcDbEntity
  8
細線
 48
50.0
100
AcDbLine
 10
7232.044679601706
 20
4752.403403838183
 30
0.0
 11
7232.04467960171
 21
4846.403403838184
 31
0.0
  0
LINE
  5
161D8
330
747D
100
AcDbEntity
  8
部品1
100
AcDbLine
 10
8602.044679601709
 20
4846.40340383818
 30
0.0
 11
8602.044679601709
 21
2812.403403838183
 31
0.0
  0
LINE
  5
161D9
330
747D
100
AcDbEntity
  8
部品1
100
AcDbLine
 10
8542.044679601707
 20
4752.403403838183
 30
0.0
 11
8542.044679601707
 21
2954.403403838203
 31
0.0
  0
LINE
  5
1645D
330
747D
100
AcDbEntity
  8
部品1
 48
50.0
100
AcDbLine
 10
5829.044679601839
 20
8402.107263431975
 30
0.0
 11
5829.044679601844
 21
8367.357263431768
 31
0.0
  0
LINE
  5
1645E
330
747D
100
AcDbEntity
  8
部品1
 48
50.0
100
AcDbLine
 10
7199.044679601839
 20
8402.107263431975
 30
0.0
 11
7199.044679601844
 21
8367.357263431768
 31
0.0
  0
LINE
  5
1645F
330
747D
100
AcDbEntity
  8
部品1
 48
50.0
100
AcDbLine
 10
8119.044679601937
 20
8402.107263431791
 30
0.0
 11
8119.044679601733
 21
8367.357263431765
 31
0.0
  0
LINE
  5
16460
330
747D
100
AcDbEntity
  8
部品1
 48
50.0
100
AcDbLine
 10
8569.044679601839
 20
8402.107263431975
 30
0.0
 11
8569.044679601844
 21
8367.357263431768
 31
0.0
  0
LINE
  5
164A7
330
747D
100
AcDbEntity
  8
細線
 48
50.0
100
AcDbLine
 10
8119.04467960173
 20
8835.107263431776
 30
0.0
 11
8569.04467960194
 21
7571.357263431764
 31
0.0
  0
LINE
  5
164A8
330
747D
100
AcDbEntity
  8
細線
 48
50.0
100
AcDbLine
 10
8569.044679601725
 20
8835.107263431778
 30
0.0
 11
8119.044679601939
 21
7571.357263431778
 31
0.0
  0
LINE
  5
164A9
330
747D
100
AcDbEntity
  8
細線
 48
50.0
100
AcDbLine
 10
7199.044679601726
 20
8835.107263431778
 30
0.0
 11
6749.044679601708
 21
7571.357263431764
 31
0.0
  0
LINE
  5
164AA
330
747D
100
AcDbEntity
  8
細線
 48
50.0
100
AcDbLine
 10
7199.044679601941
 20
7571.357263431778
 30
0.0
 11
6749.04467960173
 21
8835.107263431776
 31
0.0
  0
LINE
  5
164AB
330
747D
100
AcDbEntity
  8
細線
 48
50.0
100
AcDbLine
 10
5829.044679601725
 20
8835.107263431778
 30
0.0
 11
5381.36480204656
 21
7577.872940630395
 31
0.0
  0
LINE
  5
164AC
330
747D
100
AcDbEntity
  8
細線
 48
50.0
100
AcDbLine
 10
5829.044679601826
 20
7571.357263431764
 30
0.0
 11
5379.044679601728
 21
8835.107263431776
 31
0.0
  0
LINE
  5
164B8
330
747D
100
AcDbEntity
  8
寸法
 48
50.0
100
AcDbLine
 10
5245.416443996795
 20
8348.87439204491
 30
0.0
 11
5404.861441622561
 21
7444.616875780906
 31
0.0
  0
LINE
  5
164B9
330
747D
100
AcDbEntity
  8
寸法
 48
50.0
100
AcDbLine
 10
5219.869559400539
 20
8320.994859709189
 30
0.0
 11
5374.39864326599
 21
7444.616875780905
 31
0.0
  0
LINE
  5
164C3
330
747D
100
AcDbEntity
  8
部品1
100
AcDbLine
 10
5154.611069168598
 20
8863.857263431643
 30
0.0
 11
8602.044679601734
 21
8863.857263431746
 31
0.0
  0
LINE
  5
164C4
330
747D
100
AcDbEntity
  8
部品1
100
AcDbLine
 10
5159.548224628419
 20
8835.857263431741
 30
0.0
 11
5862.044679601601
 21
8835.857263431744
 31
0.0
  0
LINE
  5
164C5
330
747D
100
AcDbEntity
  8
部品1
100
AcDbLine
 10
5159.548224628439
 20
8835.857263431625
 30
0.0
 11
5862.044679601713
 21
8835.857263431632
 31
0.0
  0
LINE
  5
164C6
330
747D
100
AcDbEntity
  8
部品1
100
AcDbLine
 10
5164.573543578605
 20
8807.357263431766
 30
0.0
 11
5379.044679601734
 21
8807.357263431766
 31
0.0
  0
LINE
  5
164C7
330
747D
100
AcDbEntity
  8
破線
 48
10.0
100
AcDbLine
 10
5138.254429268664
 20
8783.857263431817
 30
0.0
 11
5094.659895727687
 21
8783.857263431816
 31
0.0
  0
LINE
  5
164DB
330
747D
100
AcDbEntity
  8
部品1
 48
50.0
100
AcDbLine
 10
4520.044679601731
 20
8835.857263431618
 30
0.0
 11
4548.5446796017
 21
8807.357263431768
 31
0.0
  0
LINE
  5
164DC
330
747D
100
AcDbEntity
  8
部品1
 48
50.0
100
AcDbLine
 10
5890.044679601698
 20
8835.857263431632
 30
0.0
 11
5918.5446796017
 21
8807.357263431768
 31
0.0
  0
LINE
  5
164DD
330
747D
100
AcDbEntity
  8
部品1
 48
50.0
100
AcDbLine
 10
7260.044679601698
 20
8835.857263431755
 30
0.0
 11
7288.544679601701
 21
8807.357263431768
 31
0.0
  0
LINE
  5
164F9
330
747D
100
AcDbEntity
  8
部品1
100
AcDbLine
 10
6165.309346487512
 20
6538.835572846882
 30
0.0
 11
6165.309346487512
 21
6298.943251301349
 31
0.0
  0
LINE
  5
164FA
330
747D
100
AcDbEntity
  8
部品1
100
AcDbLine
 10
6165.309346487512
 20
6298.943251301349
 30
0.0
 11
6928.780012715951
 21
6298.943251301349
 31
0.0
  0
LINE
  5
164FB
330
747D
100
AcDbEntity
  8
部品1
100
AcDbLine
 10
6928.780012715951
 20
6298.943251301349
 30
0.0
 11
6928.780012715951
 21
6538.835572846882
 31
0.0
  0
LINE
  5
164FC
330
747D
100
AcDbEntity
  8
部品1
100
AcDbLine
 10
6928.780012715951
 20
6538.835572846882
 30
0.0
 11
6165.309346487512
 21
6538.835572846882
 31
0.0
  0
LINE
  5
164FD
330
747D
100
AcDbEntity
  8
部品1
100
AcDbLine
 10
6165.309346487489
 20
2314.350486110842
 30
0.0
 11
6165.309346487489
 21
2074.45816456531
 31
0.0
  0
LINE
  5
164FE
330
747D
100
AcDbEntity
  8
部品1
100
AcDbLine
 10
6165.309346487489
 20
2074.45816456531
 30
0.0
 11
6928.780012715927
 21
2074.45816456531
 31
0.0
  0
LINE
  5
164FF
330
747D
100
AcDbEntity
  8
部品1
100
AcDbLine
 10
6928.780012715927
 20
2074.45816456531
 30
0.0
 11
6928.780012715927
 21
2314.350486110842
 31
0.0
  0
LINE
  5
16500
330
747D
100
AcDbEntity
  8
部品1
100
AcDbLine
 10
6928.780012715927
 20
2314.350486110842
 30
0.0
 11
6165.309346487489
 21
2314.350486110842
 31
0.0
  0
LINE
  5
16501
330
747D
100
AcDbEntity
  8
部品1
100
AcDbLine
 10
10851.10672829497
 20
2314.350486110842
 30
0.0
 11
10851.10672829497
 21
2074.45816456531
 31
0.0
  0
LINE
  5
16502
330
747D
100
AcDbEntity
  8
部品1
100
AcDbLine
 10
10851.10672829497
 20
2074.45816456531
 30
0.0
 11
11614.57739452341
 21
2074.45816456531
 31
0.0
  0
LINE
  5
16503
330
747D
100
AcDbEntity
  8
部品1
100
AcDbLine
 10
11614.57739452341
 20
2074.45816456531
 30
0.0
 11
11614.57739452341
 21
2314.350486110842
 31
0.0
  0
LINE
  5
16504
330
747D
100
AcDbEntity
  8
部品1
100
AcDbLine
 10
11614.57739452341
 20
2314.350486110842
 30
0.0
 11
10851.10672829497
 21
2314.350486110842
 31
0.0
  0
LINE
  5
16520
330
747D
100
AcDbEntity
  8
補助
  6
PHANTOM
 62
   230
 48
50.0
100
AcDbLine
 10
140.0
 20
0.0
 30
0.0
 11
139.9999999999995
 21
11409.6
 31
0.0
  0
TEXT
  5
168CB
330
747D
100
AcDbEntity
  8
文字
 62
     7
 48
50.0
100
AcDbText
 10
15022.63965474517
 20
9570.013745883725
 30
0.0
 40
100.0
  1
F12            1.0
  7
STYLE1
100
AcDbText
  0
TEXT
  5
168CC
330
747D
100
AcDbEntity
  8
文字
 62
     7
 48
50.0
100
AcDbText
 10
13583.11819016569
 20
9570.013745883727
 30
0.0
 40
100.0
  1
母屋中
  7
STYLE1
100
AcDbText
  0
LINE
  5
168CD
330
747D
100
AcDbEntity
  8
部品1
 48
50.0
100
AcDbLine
 10
11082.84206140919
 20
5118.271542939464
 30
0.0
 11
11382.84206140919
 21
5096.671542939464
 31
0.0
  0
LINE
  5
168CE
330
747D
100
AcDbEntity
  8
細線
 48
50.0
100
AcDbLine
 10
11510.34206140919
 20
4752.403403838183
 30
0.0
 11
11510.34206140919
 21
2962.403403838183
 31
0.0
  0
LINE
  5
168CF
330
747D
100
AcDbEntity
  8
細線
 48
50.0
100
AcDbLine
 10
11495.34206140919
 20
4752.403403838183
 30
0.0
 11
11495.34206140919
 21
2962.403403838183
 31
0.0
  0
LINE
  5
168D0
330
747D
100
AcDbEntity
  8
細線
 48
50.0
100
AcDbLine
 10
11635.34206140919
 20
4752.403403838183
 30
0.0
 11
11635.34206140919
 21
2962.403403838183
 31
0.0
  0
LINE
  5
168D1
330
747D
100
AcDbEntity
  8
細線
 48
50.0
100
AcDbLine
 10
11650.34206140919
 20
4752.403403838183
 30
0.0
 11
11650.34206140919
 21
2962.403403838183
 31
0.0
  0
LINE
  5
168D2
330
747D
100
AcDbEntity
  8
細線
 48
50.0
100
AcDbLine
 10
11790.34206140919
 20
4752.403403838183
 30
0.0
 11
11790.34206140919
 21
2962.403403838183
 31
0.0
  0
LINE
  5
168D3
330
747D
100
AcDbEntity
  8
細線
 48
50.0
100
AcDbLine
 10
11775.34206140919
 20
4752.403403838183
 30
0.0
 11
11775.34206140919
 21
2962.403403838183
 31
0.0
  0
LINE
  5
168D4
330
747D
100
AcDbEntity
  8
部品1
100
AcDbLine
 10
11432.84206140919
 20
4752.403403838183
 30
0.0
 11
11432.84206140919
 21
2962.403403838183
 31
0.0
  0
TEXT
  5
16948
330
747D
100
AcDbEntity
  8
部品1
 48
50.0
100
AcDbText
 10
11559.93490869705
 20
5016.654306873614
 30
0.0
 40
120.0
  1
71
 50
90.0
  7
STYLE1
100
AcDbText
  0
TEXT
  5
16949
330
747D
100
AcDbEntity
  8
部品1
 48
50.0
100
AcDbText
 10
11071.10989663292
 20
5154.155565091897
 30
0.0
 40
120.0
  1
1000
  7
STYLE1
100
AcDbText
  0
LINE
  5
1694A
330
747D
100
AcDbEntity
  8
部品1
 48
50.0
100
AcDbLine
 10
11382.84206140919
 20
5118.271542939464
 30
0.0
 11
11382.84206140919
 21
5096.671542939464
 31
0.0
  0
LINE
  5
1694B
330
747D
100
AcDbEntity
  8
部品1
 48
50.0
100
AcDbLine
 10
11082.84206140919
 20
5118.271542939464
 30
0.0
 11
11382.84206140919
 21
5118.271542939464
 31
0.0
  0
DIMENSION
  5
16972
330
747D
100
AcDbEntity
  8
寸法
 48
50.0
100
AcDbDimension
  2
*D15
 10
9885.575809697819
 20
5009.225894734998
 30
0.0
 11
9894.253553349704
 21
5239.062133751895
 31
0.0
 70
   160
 71
     5
 42
141.0
  3
INABA_S40G
100
AcDbAlignedDimension
 13
10493.18462601114
 23
4845.184428907151
 33
0.0
 14
10498.5044601631
 24
4986.084036304033
 34
0.0
 50
87.83775598715743
100
AcDbRotatedDimension
1001
ACAD
1000
DSTYLE
1002
{
1070
   174
1070
     0
1070
   272
1070
     1
1070
   288
1070
     0
1070
   341
1005
0
1002
}
  0
DIMENSION
  5
16973
330
747D
100
AcDbEntity
  8
寸法
 48
50.0
100
AcDbDimension
  2
*D16
 10
11987.84206140919
 20
5386.060857417487
 30
0.0
 11
12193.88930550368
 21
5386.060857417487
 31
0.0
 70
   160
 71
     5
 42
80.0
  3
INABA_S40G
100
AcDbAlignedDimension
 13
11907.84206140919
 23
4934.214083449837
 33
0.0
 14
11987.84206140919
 24
4932.403403838184
 34
0.0
100
AcDbRotatedDimension
1001
ACAD
1000
DSTYLE
1002
{
1070
   174
1070
     0
1070
   272
1070
     1
1070
   288
1070
     0
1070
   341
1005
0
1002
}
  0
ARC
  5
16974
330
747D
100
AcDbEntity
  8
部品1
100
AcDbCircle
 10
11973.46959722312
 20
4825.8372047224
 30
0.0
 40
0.7
100
AcDbArc
 50
275.0921697642108
 51
354.1866997666958
  0
ARC
  5
16975
330
747D
100
AcDbEntity
  8
部品1
100
AcDbCircle
 10
11984.32894297245
 20
4902.880459540323
 30
0.0
 40
0.7
100
AcDbArc
 50
275.0921697642108
 51
354.1866997665337
  0
ARC
  5
16976
330
747D
100
AcDbEntity
  8
部品1
100
AcDbCircle
 10
11984.65734821505
 20
4899.195062683235
 30
0.0
 40
3.0
100
AcDbArc
 50
95.09216976441839
 51
174.1866997665337
  0
ARC
  5
16977
330
747D
100
AcDbEntity
  8
部品1
100
AcDbCircle
 10
11973.79800246572
 20
4822.15180786531
 30
0.0
 40
3.0
100
AcDbArc
 50
95.0921697642102
 51
174.1866997665402
  0
ARC
  5
16978
330
747D
100
AcDbEntity
  8
部品1
 48
50.0
100
AcDbCircle
 10
11962.76986719062
 20
4812.56106326143
 30
0.0
 40
7.0
100
AcDbArc
 50
267.8377559871572
 51
354.1866997665337
  0
ARC
  5
16979
330
747D
100
AcDbEntity
  8
部品1
 48
50.0
100
AcDbCircle
 10
11980.09196365513
 20
4923.463610403602
 30
0.0
 40
7.0
100
AcDbArc
 50
354.1866997665337
 51
87.03587545303944
  0
LINE
  5
1697A
330
747D
100
AcDbEntity
  8
部品1
 48
50.0
100
AcDbLine
 10
11970.81343079511
 20
4822.455669582214
 30
0.0
 11
11969.73386775537
 21
4811.852052588656
 31
0.0
  0
LINE
  5
1697B
330
747D
100
AcDbEntity
  8
部品1
 48
50.0
100
AcDbLine
 10
11981.67277654444
 20
4899.498924400138
 30
0.0
 11
11974.1659972796
 21
4825.766303655125
 31
0.0
  0
LINE
  5
1697C
330
747D
100
AcDbEntity
  8
部品1
 48
50.0
100
AcDbLine
 10
11987.05596421989
 20
4922.754599730826
 30
0.0
 11
11985.02534302892
 21
4902.809558473047
 31
0.0
  0
ARC
  5
1697D
330
747D
100
AcDbEntity
  8
部品1
100
AcDbCircle
 10
10483.87915328055
 20
4866.217562797086
 30
0.0
 40
0.7
100
AcDbArc
 50
181.0932240292244
 51
260.187754031489
  0
ARC
  5
1697E
330
747D
100
AcDbEntity
  8
部品1
100
AcDbCircle
 10
10479.10647968294
 20
4959.083340997207
 30
0.0
 40
0.7
100
AcDbArc
 50
181.0932240292244
 51
260.187754031489
  0
ARC
  5
1697F
330
747D
100
AcDbEntity
  8
部品1
100
AcDbCircle
 10
10478.47592527992
 20
4955.437466459809
 30
0.0
 40
3.0
100
AcDbArc
 50
1.093224029283074
 51
80.18775403148891
  0
ARC
  5
16980
330
747D
100
AcDbEntity
  8
部品1
100
AcDbCircle
 10
10483.24859887753
 20
4862.57168825969
 30
0.0
 40
3.0
100
AcDbArc
 50
1.093224029289586
 51
80.18775403148671
  0
ARC
  5
16981
330
747D
100
AcDbEntity
  8
部品1
 48
50.0
100
AcDbCircle
 10
10493.44873125273
 20
4852.179444877209
 30
0.0
 40
7.0
100
AcDbArc
 50
181.0932240292895
 51
267.8377559871572
  0
ARC
  5
16982
330
747D
100
AcDbEntity
  8
部品1
 48
50.0
100
AcDbCircle
 10
10485.02507315064
 20
4979.130504410303
 30
0.0
 40
7.0
100
AcDbArc
 50
87.03587545303944
 51
181.0932240292765
  0
LINE
  5
16983
330
747D
100
AcDbEntity
  8
部品1
 48
50.0
100
AcDbLine
 10
10486.24805280396
 20
4862.628925862873
 30
0.0
 11
10486.45000542439
 21
4852.045890469781
 31
0.0
  0
LINE
  5
16984
330
747D
100
AcDbEntity
  8
細線
 48
50.0
100
AcDbLine
 10
10483.64195974729
 20
4865.558973981682
 30
0.0
 11
11973.64562417792
 21
4825.159698625614
 31
0.0
  0
LINE
  5
16985
330
747D
100
AcDbEntity
  8
細線
 48
50.0
100
AcDbLine
 10
10478.88148451
 20
4958.420485679544
 30
0.0
 11
11984.51746925517
 21
4902.206324657141
 31
0.0
  0
LINE
  5
16986
330
747D
100
AcDbEntity
  8
部品1
 48
50.0
100
AcDbLine
 10
10481.47537920635
 20
4955.494704062992
 30
0.0
 11
10483.17928069772
 21
4866.204207356346
 31
0.0
  0
LINE
  5
16987
330
747D
100
AcDbEntity
  8
部品1
 48
50.0
100
AcDbLine
 10
10478.0263473223
 20
4978.996950002876
 30
0.0
 11
10478.40660710011
 21
4959.069985556464
 31
0.0
  0
LINE
  5
16988
330
747D
100
AcDbEntity
  8
細線
 48
50.0
100
AcDbLine
 10
11954.84206140919
 20
4931.780426491905
 30
0.0
 11
11950.09437852119
 21
4806.03465400116
 31
0.0
  0
LINE
  5
16989
330
747D
100
AcDbEntity
  8
細線
 48
50.0
100
AcDbLine
 10
10510.84206140919
 20
4984.803080213588
 30
0.0
 11
10505.55295985368
 21
4844.717447586234
 31
0.0
  0
LINE
  5
1698A
330
747D
100
AcDbEntity
  8
部品1
100
AcDbLine
 10
10493.18462601114
 20
4845.184428907151
 30
0.0
 11
11962.50576194903
 21
4805.56604729137
 31
0.0
  0
LINE
  5
1698B
330
747D
100
AcDbEntity
  8
部品1
100
AcDbLine
 10
10485.38704776615
 20
4986.12113917245
 30
0.0
 11
11980.45393827065
 21
4930.454245165748
 31
0.0
  0
LINE
  5
1698C
330
747D
100
AcDbEntity
  8
細線
 48
50.0
100
AcDbLine
 10
10670.34206140919
 20
4752.403403838183
 30
0.0
 11
10670.34206140919
 21
2962.403403838183
 31
0.0
  0
LINE
  5
1698D
330
747D
100
AcDbEntity
  8
細線
 48
50.0
100
AcDbLine
 10
10655.34206140919
 20
4752.403403838183
 30
0.0
 11
10655.34206140919
 21
2962.403403838183
 31
0.0
  0
LINE
  5
1698E
330
747D
100
AcDbEntity
  8
細線
 48
50.0
100
AcDbLine
 10
10795.34206140919
 20
4752.403403838183
 30
0.0
 11
10795.34206140919
 21
2962.403403838183
 31
0.0
  0
LINE
  5
1698F
330
747D
100
AcDbEntity
  8
細線
 48
50.0
100
AcDbLine
 10
10810.34206140919
 20
4752.403403838183
 30
0.0
 11
10810.34206140919
 21
2962.403403838183
 31
0.0
  0
LINE
  5
16990
330
747D
100
AcDbEntity
  8
細線
 48
50.0
100
AcDbLine
 10
10950.34206140919
 20
4752.403403838183
 30
0.0
 11
10950.34206140919
 21
2962.403403838183
 31
0.0
  0
LINE
  5
16991
330
747D
100
AcDbEntity
  8
細線
 48
50.0
100
AcDbLine
 10
10935.34206140919
 20
4752.403403838183
 30
0.0
 11
10935.34206140919
 21
2962.403403838183
 31
0.0
  0
LINE
  5
16992
330
747D
100
AcDbEntity
  8
細線
 48
50.0
100
AcDbLine
 10
11355.34206140919
 20
4752.403403838183
 30
0.0
 11
11355.34206140919
 21
2962.403403838183
 31
0.0
  0
LINE
  5
16993
330
747D
100
AcDbEntity
  8
細線
 48
50.0
100
AcDbLine
 10
11370.34206140919
 20
4752.403403838183
 30
0.0
 11
11370.34206140919
 21
2962.403403838183
 31
0.0
  0
LINE
  5
16994
330
747D
100
AcDbEntity
  8
細線
 48
50.0
100
AcDbLine
 10
11230.34206140919
 20
4752.403403838183
 30
0.0
 11
11230.34206140919
 21
2962.403403838183
 31
0.0
  0
LINE
  5
16995
330
747D
100
AcDbEntity
  8
細線
 48
50.0
100
AcDbLine
 10
11215.34206140919
 20
4752.403403838183
 30
0.0
 11
11215.34206140919
 21
2962.403403838183
 31
0.0
  0
LINE
  5
16996
330
747D
100
AcDbEntity
  8
細線
 48
50.0
100
AcDbLine
 10
11075.34206140919
 20
4752.403403838183
 30
0.0
 11
11075.34206140919
 21
2962.403403838183
 31
0.0
  0
LINE
  5
16997
330
747D
100
AcDbEntity
  8
細線
 48
50.0
100
AcDbLine
 10
11090.34206140919
 20
4752.403403838183
 30
0.0
 11
11090.34206140919
 21
2962.403403838183
 31
0.0
  0
TEXT
  5
16998
330
747D
100
AcDbEntity
  8
文字
 62
     7
 48
50.0
100
AcDbText
 10
13583.11819016568
 20
8720.013745883731
 30
0.0
 40
100.0
  1
棚板
  7
STYLE1
100
AcDbText
  0
TEXT
  5
16999
330
747D
100
AcDbEntity
  8
文字
 62
     7
 48
50.0
100
AcDbText
 10
15022.63965474515
 20
8720.013745883727
 30
0.0
 40
100.0
  1
F12            0.6
  7
STYLE1
100
AcDbText
  0
TEXT
  5
1699A
330
747D
100
AcDbEntity
  8
文字
 62
     7
 48
50.0
100
AcDbText
 10
13583.11819016568
 20
8890.013745883729
 30
0.0
 40
100.0
  1
扉
  7
STYLE1
100
AcDbText
  0
TEXT
  5
1699B
330
747D
100
AcDbEntity
  8
文字
 62
     7
 48
50.0
100
AcDbText
 10
15022.63965474515
 20
8890.013745883726
 30
0.0
 40
100.0
  1
F12            0.8
  7
STYLE1
100
AcDbText
  0
TEXT
  5
1699C
330
747D
100
AcDbEntity
  8
文字
 62
     7
 48
50.0
100
AcDbText
 10
13583.11819016568
 20
9060.013745883729
 30
0.0
 40
100.0
  1
正面パネル
  7
STYLE1
100
AcDbText
  0
TEXT
  5
1699D
330
747D
100
AcDbEntity
  8
文字
 62
     7
 48
50.0
100
AcDbText
 10
15022.63965474515
 20
9060.013745883725
 30
0.0
 40
100.0
  1
F12            0.7
  7
STYLE1
100
AcDbText
  0
TEXT
  5
1699E
330
747D
100
AcDbEntity
  8
文字
 62
     7
 48
50.0
100
AcDbText
 10
14269.60464131317
 20
483.8967129911411
 30
0.0
 40
160.0
  1
ＮＸＮ－２０ＣＳＬ－Ｎ
  7
STYLE2
100
AcDbText
  0
TEXT
  5
1699F
330
747D
100
AcDbEntity
  8
文字
 62
     7
 48
50.0
100
AcDbText
 10
15022.63965474517
 20
10590.01374588372
 30
0.0
 40
100.0
  1
F12            1.0
  7
STYLE1
100
AcDbText
  0
TEXT
  5
169A0
330
747D
100
AcDbEntity
  8
文字
 62
     7
 48
50.0
100
AcDbText
 10
13248.77747366447
 20
8890.013745883729
 30
0.0
 40
100.0
  1
14
  7
STYLE1
100
AcDbText
  0
TEXT
  5
169A1
330
747D
100
AcDbEntity
  8
文字
 62
     7
 48
50.0
100
AcDbText
 10
13583.1181901657
 20
10590.01374588373
 30
0.0
 40
100.0
  1
床パネル
 41
0.9
  7
STYLE1
100
AcDbText
  0
LINE
  5
169A2
330
747D
100
AcDbEntity
  8
仕様書枠
 48
50.0
100
AcDbLine
 10
16307.19999999999
 20
8859.6
 30
0.0
 11
13127.19999999999
 21
8859.600000000002
 31
0.0
  0
LINE
  5
169A3
330
747D
100
AcDbEntity
  8
仕様書枠
 48
50.0
100
AcDbLine
 10
13127.2
 20
11409.6
 30
0.0
 11
13127.19999999999
 21
8179.600000000004
 31
0.0
  0
TEXT
  5
169A4
330
747D
100
AcDbEntity
  8
文字
 62
     7
 48
50.0
100
AcDbText
 10
13229.83081656553
 20
8210.013745883733
 30
0.0
 40
100.0
  1
Y10→溶融亜鉛-5％アルミニウム合金めっき鋼板(JIS G 3317)
 41
0.9
  7
STYLE1
100
AcDbText
  0
TEXT
  5
169A5
330
747D
100
AcDbEntity
  8
文字
 62
     7
 48
50.0
100
AcDbText
 10
13229.83081656553
 20
8380.013745883733
 30
0.0
 40
100.0
  1
F12→溶融亜鉛めっき鋼板(JIS G 3302)
  7
STYLE1
100
AcDbText
  0
LINE
  5
169A6
330
747D
100
AcDbEntity
  8
仕様書枠
 48
50.0
100
AcDbLine
 10
16307.19999999998
 20
8349.600000000002
 30
0.0
 11
13127.19999999999
 21
8349.600000000004
 31
0.0
  0
LINE
  5
169A7
330
747D
100
AcDbEntity
  8
仕様書枠
 48
50.0
100
AcDbLine
 10
16307.19999999998
 20
8519.600000000002
 30
0.0
 11
13127.19999999999
 21
8519.600000000004
 31
0.0
  0
TEXT
  5
169A8
330
747D
100
AcDbEntity
  8
文字
 62
     7
 48
50.0
100
AcDbText
 10
15022.63965474515
 20
9230.013745883725
 30
0.0
 40
100.0
  1
F12            0.6
  7
STYLE1
100
AcDbText
  0
TEXT
  5
169A9
330
747D
100
AcDbEntity
  8
文字
 62
     7
 48
50.0
100
AcDbText
 10
15022.63965474517
 20
9400.013745883725
 30
0.0
 40
100.0
  1
Y10            0.5
  7
STYLE1
100
AcDbText
  0
TEXT
  5
169AA
330
747D
100
AcDbEntity
  8
文字
 62
     7
 48
50.0
100
AcDbText
 10
15022.63965474517
 20
9910.013745883725
 30
0.0
 40
100.0
  1
Y10            0.7
  7
STYLE1
100
AcDbText
  0
TEXT
  5
169AB
330
747D
100
AcDbEntity
  8
文字
 62
     7
 48
50.0
100
AcDbText
 10
15022.63965474517
 20
10080.01374588372
 30
0.0
 40
100.0
  1
Y10            0.7
  7
STYLE1
100
AcDbText
  0
TEXT
  5
169AC
330
747D
100
AcDbEntity
  8
文字
 62
     7
 48
50.0
100
AcDbText
 10
15022.63965474517
 20
10250.01374588372
 30
0.0
 40
100.0
  1
Y10            1.0
  7
STYLE1
100
AcDbText
  0
TEXT
  5
169AD
330
747D
100
AcDbEntity
  8
文字
 62
     7
 48
50.0
100
AcDbText
 10
15022.63965474517
 20
10420.01374588372
 30
0.0
 40
100.0
  1
Y10            1.0
  7
STYLE1
100
AcDbText
  0
TEXT
  5
169AE
330
747D
100
AcDbEntity
  8
文字
 62
     7
 48
50.0
100
AcDbText
 10
15022.63965474518
 20
10760.01374588372
 30
0.0
 40
100.0
  1
F12            1.0
  7
STYLE1
100
AcDbText
  0
TEXT
  5
169AF
330
747D
100
AcDbEntity
  8
文字
 62
     7
 48
50.0
100
AcDbText
 10
15022.63965474517
 20
11100.01374588372
 30
0.0
 40
100.0
  1
F12            1.2
  7
STYLE1
100
AcDbText
  0
TEXT
  5
169B0
330
747D
100
AcDbEntity
  8
文字
 62
     7
 48
50.0
100
AcDbText
 10
13248.77747366447
 20
9230.013745883729
 30
0.0
 40
100.0
  1
12
  7
STYLE1
100
AcDbText
  0
TEXT
  5
169B1
330
747D
100
AcDbEntity
  8
文字
 62
     7
 48
50.0
100
AcDbText
 10
13248.77747366447
 20
9060.013745883729
 30
0.0
 40
100.0
  1
13
  7
STYLE1
100
AcDbText
  0
LINE
  5
169B2
330
747D
100
AcDbEntity
  8
仕様書枠
 48
50.0
100
AcDbLine
 10
16307.19999999999
 20
8689.6
 30
0.0
 11
13127.19999999999
 21
8689.600000000003
 31
0.0
  0
LINE
  5
169B3
330
747D
100
AcDbEntity
  8
仕様書枠
 48
50.0
100
AcDbLine
 10
16307.19999999999
 20
9029.6
 30
0.0
 11
13127.19999999999
 21
9029.6
 31
0.0
  0
TEXT
  5
169B4
330
747D
100
AcDbEntity
  8
文字
 62
     7
 48
50.0
100
AcDbText
 10
13248.77747366447
 20
9400.013745883727
 30
0.0
 40
100.0
  1
11
  7
STYLE1
100
AcDbText
  0
LINE
  5
169B5
330
747D
100
AcDbEntity
  8
仕様書枠
 48
50.0
100
AcDbLine
 10
16307.19999999999
 20
9709.6
 30
0.0
 11
13127.19999999999
 21
9709.600000000001
 31
0.0
  0
LINE
  5
169B6
330
747D
100
AcDbEntity
  8
仕様書枠
 48
50.0
100
AcDbLine
 10
16307.19999999999
 20
10219.6
 30
0.0
 11
13127.2
 21
10219.6
 31
0.0
  0
LINE
  5
169B7
330
747D
100
AcDbEntity
  8
仕様書枠
 48
50.0
100
AcDbLine
 10
16307.19999999999
 20
9369.599999999998
 30
0.0
 11
13127.19999999999
 21
9369.600000000001
 31
0.0
  0
LINE
  5
169B8
330
747D
100
AcDbEntity
  8
仕様書枠
 48
50.0
100
AcDbLine
 10
16307.19999999999
 20
9199.599999999998
 30
0.0
 11
13127.19999999999
 21
9199.600000000001
 31
0.0
  0
LINE
  5
169B9
330
747D
100
AcDbEntity
  8
仕様書枠
 48
50.0
100
AcDbLine
 10
16307.19999999999
 20
9539.599999999998
 30
0.0
 11
13127.19999999999
 21
9539.6
 31
0.0
  0
TEXT
  5
169BA
330
747D
100
AcDbEntity
  8
文字
 62
     7
 48
50.0
100
AcDbText
 10
13271.19032244792
 20
10250.01374588373
 30
0.0
 40
100.0
  1
6
  7
STYLE1
100
AcDbText
  0
TEXT
  5
169BB
330
747D
100
AcDbEntity
  8
文字
 62
     7
 48
50.0
100
AcDbText
 10
13271.19032244792
 20
10080.01374588373
 30
0.0
 40
100.0
  1
7
  7
STYLE1
100
AcDbText
  0
TEXT
  5
169BC
330
747D
100
AcDbEntity
  8
文字
 62
     7
 48
50.0
100
AcDbText
 10
13271.19032244792
 20
9740.013745883729
 30
0.0
 40
100.0
  1
9
  7
STYLE1
100
AcDbText
  0
TEXT
  5
169BD
330
747D
100
AcDbEntity
  8
文字
 62
     7
 48
50.0
100
AcDbText
 10
13271.19032244792
 20
9910.01374588373
 30
0.0
 40
100.0
  1
8
  7
STYLE1
100
AcDbText
  0
TEXT
  5
169BE
330
747D
100
AcDbEntity
  8
文字
 62
     7
 48
50.0
100
AcDbText
 10
13583.1181901657
 20
9910.013745883727
 30
0.0
 40
100.0
  1
鼻隠シ前後
  7
STYLE1
100
AcDbText
  0
TEXT
  5
169BF
330
747D
100
AcDbEntity
  8
文字
 62
     7
 48
50.0
100
AcDbText
 10
13583.11819016569
 20
9400.013745883727
 30
0.0
 40
100.0
  1
屋根パネル
  7
STYLE1
100
AcDbText
  0
TEXT
  5
169C0
330
747D
100
AcDbEntity
  8
文字
 62
     7
 48
50.0
100
AcDbText
 10
13583.11819016568
 20
9230.013745883729
 30
0.0
 40
100.0
  1
壁パネル
  7
STYLE1
100
AcDbText
  0
TEXT
  5
169C1
330
747D
100
AcDbEntity
  8
文字
 62
     7
 48
50.0
100
AcDbText
 10
13248.77747366447
 20
9570.013745883727
 30
0.0
 40
100.0
  1
10
  7
STYLE1
100
AcDbText
  0
TEXT
  5
169C2
330
747D
100
AcDbEntity
  8
文字
 62
     7
 48
50.0
100
AcDbText
 10
13583.1181901657
 20
10080.01374588372
 30
0.0
 40
100.0
  1
妻板左右
  7
STYLE1
100
AcDbText
  0
TEXT
  5
169C3
330
747D
100
AcDbEntity
  8
文字
 62
     7
 48
50.0
100
AcDbText
 10
13271.19032244792
 20
10420.01374588372
 30
0.0
 40
100.0
  1
5
  7
STYLE1
100
AcDbText
  0
TEXT
  5
169C4
330
747D
100
AcDbEntity
  8
文字
 62
     7
 48
50.0
100
AcDbText
 10
13583.1181901657
 20
10250.01374588373
 30
0.0
 40
100.0
  1
桁後
  7
STYLE1
100
AcDbText
  0
TEXT
  5
169C5
330
747D
100
AcDbEntity
  8
文字
 62
     7
 48
50.0
100
AcDbText
 10
13583.1181901657
 20
10420.01374588372
 30
0.0
 40
100.0
  1
鴨居
  7
STYLE1
100
AcDbText
  0
TEXT
  5
169C6
330
747D
100
AcDbEntity
  8
文字
 62
     7
 48
50.0
100
AcDbText
 10
13583.1181901657
 20
10760.01374588372
 30
0.0
 40
100.0
  1
柱
  7
STYLE1
100
AcDbText
  0
TEXT
  5
169C7
330
747D
100
AcDbEntity
  8
文字
 62
     7
 48
50.0
100
AcDbText
 10
13583.11819016569
 20
11100.01374588373
 30
0.0
 40
100.0
  1
土台枠
  7
STYLE1
100
AcDbText
  0
TEXT
  5
169C8
330
747D
100
AcDbEntity
  8
文字
 62
     7
 48
50.0
100
AcDbText
 10
14859.79774614482
 20
11270.01374588372
 30
0.0
 40
100.0
  1
材料（材質）　　単位mm
  7
STYLE1
100
AcDbText
  0
TEXT
  5
169C9
330
747D
100
AcDbEntity
  8
文字
 62
     7
 48
50.0
100
AcDbText
 10
13732.03840939434
 20
11270.01374588372
 30
0.0
 40
100.0
  1
部　　品　　名
  7
STYLE1
100
AcDbText
  0
TEXT
  5
169CA
330
747D
100
AcDbEntity
  8
文字
 62
     7
 48
50.0
100
AcDbText
 10
13271.19032244792
 20
10760.01374588373
 30
0.0
 40
100.0
  1
3
  7
STYLE1
100
AcDbText
  0
TEXT
  5
169CB
330
747D
100
AcDbEntity
  8
文字
 62
     7
 48
50.0
100
AcDbText
 10
13271.19032244792
 20
10590.01374588373
 30
0.0
 40
100.0
  1
4
  7
STYLE1
100
AcDbText
  0
TEXT
  5
169CC
330
747D
100
AcDbEntity
  8
文字
 62
     7
 48
50.0
100
AcDbText
 10
13271.19032244792
 20
10930.01374588373
 30
0.0
 40
100.0
  1
2
  7
STYLE1
100
AcDbText
  0
TEXT
  5
169CD
330
747D
100
AcDbEntity
  8
文字
 62
     7
 48
50.0
100
AcDbText
 10
13271.19032244792
 20
11100.01374588373
 30
0.0
 40
100.0
  1
1
  7
STYLE1
100
AcDbText
  0
TEXT
  5
169CE
330
747D
100
AcDbEntity
  8
文字
 62
     7
 48
50.0
100
AcDbText
 10
13197.42518560407
 20
11270.01374588372
 30
0.0
 40
100.0
  1
品番
  7
STYLE1
100
AcDbText
  0
LINE
  5
169CF
330
747D
100
AcDbEntity
  8
仕様書枠
 48
50.0
100
AcDbLine
 10
16307.19999999999
 20
10729.6
 30
0.0
 11
13127.19999999999
 21
10729.6
 31
0.0
  0
LINE
  5
169D0
330
747D
100
AcDbEntity
  8
仕様書枠
 48
50.0
100
AcDbLine
 10
16307.19999999999
 20
10389.6
 30
0.0
 11
13127.19999999999
 21
10389.6
 31
0.0
  0
LINE
  5
169D1
330
747D
100
AcDbEntity
  8
仕様書枠
 48
50.0
100
AcDbLine
 10
16307.19999999999
 20
10559.6
 30
0.0
 11
13127.19999999999
 21
10559.6
 31
0.0
  0
LINE
  5
169D2
330
747D
100
AcDbEntity
  8
仕様書枠
 48
50.0
100
AcDbLine
 10
16307.19999999999
 20
11069.6
 30
0.0
 11
13127.2
 21
11069.6
 31
0.0
  0
LINE
  5
169D3
330
747D
100
AcDbEntity
  8
仕様書枠
 48
50.0
100
AcDbLine
 10
16307.19999999999
 20
10899.6
 30
0.0
 11
13127.2
 21
10899.6
 31
0.0
  0
LINE
  5
169D4
330
747D
100
AcDbEntity
  8
仕様書枠
 48
50.0
100
AcDbLine
 10
16307.19999999999
 20
11239.6
 30
0.0
 11
13127.2
 21
11239.6
 31
0.0
  0
LINE
  5
169D5
330
747D
100
AcDbEntity
  8
仕様書枠
 48
50.0
100
AcDbLine
 10
13490.2
 20
11409.6
 30
0.0
 11
13490.20000000001
 21
8519.600000000005
 31
0.0
  0
LINE
  5
169D6
330
747D
100
AcDbEntity
  8
仕様書枠
 48
50.0
100
AcDbLine
 10
14785.2
 20
11409.59999999999
 30
0.0
 11
14785.19999999998
 21
8519.600000000002
 31
0.0
  0
LINE
  5
169D7
330
747D
100
AcDbEntity
  8
仕様書枠
 48
50.0
100
AcDbLine
 10
16307.19999999999
 20
8179.600000000002
 30
0.0
 11
16307.2
 21
11409.6
 31
0.0
  0
LINE
  5
169D8
330
747D
100
AcDbEntity
  8
仕様書枠
 48
50.0
100
AcDbLine
 10
16307.19999999999
 20
11409.6
 30
0.0
 11
13127.2
 21
11409.6
 31
0.0
  0
LINE
  5
169D9
330
747D
100
AcDbEntity
  8
仕様書枠
 48
50.0
100
AcDbLine
 10
16307.19999999999
 20
9879.599999999999
 30
0.0
 11
13127.19999999999
 21
9879.600000000001
 31
0.0
  0
TEXT
  5
169DA
330
747D
100
AcDbEntity
  8
文字
 62
     7
 48
50.0
100
AcDbText
 10
15022.63965474515
 20
8550.013745883722
 30
0.0
 40
100.0
  1
F12            2.3
  7
STYLE1
100
AcDbText
  0
TEXT
  5
169DB
330
747D
100
AcDbEntity
  8
文字
 62
     7
 48
50.0
100
AcDbText
 10
13583.11819016568
 20
8550.013745883727
 30
0.0
 40
100.0
  1
アンカープレート
  7
STYLE1
100
AcDbText
  0
LINE
  5
169FC
330
747D
100
AcDbEntity
  8
部品1
100
AcDbLine
 10
10537.84206140919
 20
2912.403403838183
 30
0.0
 11
11907.84206140919
 21
2912.403403838183
 31
0.0
  0
DIMENSION
  5
16A64
330
747D
100
AcDbEntity
  8
寸法
 48
50.0
100
AcDbDimension
  2
*D17
 10
10477.84206140919
 20
5594.235178609451
 30
0.0
 11
11204.96689111101
 21
5594.235178609451
 31
0.0
 70
   160
 71
     5
 42
1510.0
  3
INABA_S40G
100
AcDbAlignedDimension
 13
11987.84206140919
 23
4932.403403838184
 33
0.0
 14
10477.84206140919
 24
4987.403403838188
 34
0.0
100
AcDbRotatedDimension
1001
ACAD
1000
DSTYLE
1002
{
1070
   174
1070
     0
1070
   272
1070
     1
1070
   288
1070
     0
1070
   341
1005
0
1002
}
  0
DIMENSION
  5
16A65
330
747D
100
AcDbEntity
  8
寸法
 48
50.0
100
AcDbDimension
  2
*D18
 10
10477.84206140919
 20
5386.060857417487
 30
0.0
 11
10168.2042661336
 21
5386.060857417487
 31
0.0
 70
   160
 71
     5
 42
60.0
  3
INABA_S40G
100
AcDbAlignedDimension
 13
10537.84206140919
 23
4983.40502196116
 33
0.0
 14
10477.84206140919
 24
4987.403403838188
 34
0.0
100
AcDbRotatedDimension
1001
ACAD
1000
DSTYLE
1002
{
1070
   174
1070
     0
1070
   272
1070
     1
1070
   288
1070
     0
1070
   341
1005
0
1002
}
  0
DIMENSION
  5
16A66
330
747D
100
AcDbEntity
  8
寸法
 48
50.0
100
AcDbDimension
  2
*D19
 10
10537.84206140919
 20
5386.060857417487
 30
0.0
 11
11187.66109429974
 21
5386.060857417487
 31
0.0
 70
   160
  1
柱外寸法<>
 71
     5
 42
1370.0
  3
INABA_S40G
100
AcDbAlignedDimension
 13
11907.84206140919
 23
4934.214083449837
 33
0.0
 14
10537.84206140919
 24
4983.40502196116
 34
0.0
100
AcDbRotatedDimension
1001
ACAD
1000
DSTYLE
1002
{
1070
   174
1070
     0
1070
   272
1070
     1
1070
   288
1070
     0
1070
   341
1005
0
1002
}
  0
DIMENSION
  5
16A6A
330
747D
100
AcDbEntity
  8
寸法
100
AcDbDimension
  2
*D20
 10
12469.75573264829
 20
4932.403403838184
 30
0.0
 11
12469.75573264829
 21
3916.095095170574
 31
0.0
 70
   160
 71
     5
 42
2020.000000000001
  3
INABA_S40G
100
AcDbAlignedDimension
 13
11907.84206140919
 23
2912.403403838183
 33
0.0
 14
11987.84206140919
 24
4932.403403838184
 34
0.0
 50
90.0
100
AcDbRotatedDimension
1001
ACAD
1000
DSTYLE
1002
{
1070
   174
1070
     0
1070
   272
1070
     1
1070
   288
1070
     0
1070
   341
1005
0
1002
}
  0
LINE
  5
16A6B
330
747D
100
AcDbEntity
  8
部品1
100
AcDbLine
 10
11852.84206140919
 20
4752.403403838183
 30
0.0
 11
11852.84206140919
 21
2962.403403838183
 31
0.0
  0
LINE
  5
16A6C
330
747D
100
AcDbEntity
  8
部品1
100
AcDbLine
 10
11907.84206140919
 20
4807.039984673436
 30
0.0
 11
11907.84206140919
 21
2812.403403838183
 31
0.0
  0
LINE
  5
16A6D
330
747D
100
AcDbEntity
  8
部品1
100
AcDbLine
 10
11012.84206140919
 20
4752.403403838183
 30
0.0
 11
11012.84206140919
 21
2962.403403838183
 31
0.0
  0
DIMENSION
  5
16A6E
330
747D
100
AcDbEntity
  8
寸法
100
AcDbDimension
  2
*D21
 10
9694.09193222593
 20
2912.403403838183
 30
0.0
 11
9694.09193222593
 21
2606.356159743694
 31
0.0
 70
   160
 71
     5
 42
50.0
  3
INABA_S40G
100
AcDbAlignedDimension
 13
10537.84206140919
 23
2962.403403838183
 33
0.0
 14
10482.84206140919
 24
2912.403403838183
 34
0.0
 50
90.0
100
AcDbRotatedDimension
1001
ACAD
1000
DSTYLE
1002
{
1070
   174
1070
     0
1070
   272
1070
     1
1070
   288
1070
     0
1070
   341
1005
0
1002
}
  0
DIMENSION
  5
16A70
330
747D
100
AcDbEntity
  8
寸法
100
AcDbDimension
  2
*D22
 10
9394.091932225931
 20
4987.403403838189
 30
0.0
 11
9294.080121202307
 21
3949.903403838187
 31
0.0
 70
    32
 71
     5
 42
2075.000000000005
  3
INABA_S40G
100
AcDbAlignedDimension
 13
10537.84206140919
 23
2912.403403838183
 33
0.0
 14
10477.84206140919
 24
4987.403403838188
 34
0.0
 50
90.0
100
AcDbRotatedDimension
1001
ACAD
1000
DSTYLE
1002
{
1070
   174
1070
     0
1070
   272
1070
     1
1070
   288
1070
     0
1070
   341
1005
0
1002
}
  0
DIMENSION
  5
16A71
330
747D
100
AcDbEntity
  8
寸法
100
AcDbDimension
  2
*D23
 10
9694.09193222593
 20
2962.403403838183
 30
0.0
 11
9594.09193222593
 21
3857.403403838186
 31
0.0
 70
    32
 71
     5
 42
1790.0
  3
INABA_S40G
100
AcDbAlignedDimension
 13
10537.84206140919
 23
4752.403403838183
 33
0.0
 14
10537.84206140919
 24
2962.403403838183
 34
0.0
 50
90.0
100
AcDbRotatedDimension
1001
ACAD
1000
DSTYLE
1002
{
1070
   174
1070
     0
1070
   272
1070
     1
1070
   288
1070
     0
1070
   341
1005
0
1002
}
  0
DIMENSION
  5
16A72
330
747D
100
AcDbEntity
  8
寸法
100
AcDbDimension
  2
*D24
 10
9992.933420011937
 20
2974.403403838183
 30
0.0
 11
9892.933420011935
 21
3859.403403838186
 31
0.0
 70
    32
  1
有効開口部高サ<>
 71
     5
 42
1770.0
  3
INABA_S40G
100
AcDbAlignedDimension
 13
10537.84206140919
 23
4744.403403838183
 33
0.0
 14
10537.84206140919
 24
2974.403403838183
 34
0.0
 50
90.0
100
AcDbRotatedDimension
1001
ACAD
1000
DSTYLE
1002
{
1070
   174
1070
     0
1070
   272
1070
     1
1070
   288
1070
     0
1070
   341
1005
0
1002
}
  0
LINE
  5
16A73
330
747D
100
AcDbEntity
  8
部品1
100
AcDbLine
 10
10537.84206140919
 20
4843.980297778625
 30
0.0
 11
10537.84206140919
 21
2812.403403838183
 31
0.0
  0
LINE
  5
16A74
330
747D
100
AcDbEntity
  8
部品1
100
AcDbLine
 10
10592.84206140919
 20
4752.403403838183
 30
0.0
 11
10592.84206140919
 21
2962.403403838183
 31
0.0
  0
LINE
  5
16A76
330
747D
100
AcDbEntity
  8
部品1
100
AcDbLine
 10
10537.84206140919
 20
2962.403403838183
 30
0.0
 11
11907.84206140919
 21
2962.403403838183
 31
0.0
  0
LINE
  5
16A77
330
747D
100
AcDbEntity
  8
部品1
100
AcDbLine
 10
10537.84206140919
 20
4752.403403838183
 30
0.0
 11
11907.84206140919
 21
4752.403403838183
 31
0.0
  0
DIMENSION
  5
16E97
330
747D
100
AcDbEntity
  8
寸法
100
AcDbDimension
  2
*D25
 10
4552.044679601725
 20
6966.688098471205
 30
0.0
 11
4895.044679601725
 21
6966.688098471205
 31
0.0
 70
   160
  1
有効開口部間口\P<>
 71
     5
 42
686.0
  3
INABA_S40G
100
AcDbAlignedDimension
 13
5238.044679601725
 23
7493.857263431682
 33
0.0
 14
4552.044679601725
 24
7493.857263431606
 34
0.0
100
AcDbRotatedDimension
1001
ACAD
1000
DSTYLE
1002
{
1002
}
  0
LINE
  5
16E98
330
747D
100
AcDbEntity
  8
細線
100
AcDbLine
 10
5003.044679601723
 20
7496.857263431653
 30
0.0
 11
4903.044679601716
 21
7496.85726343164
 31
0.0
  0
LINE
  5
16E99
330
747D
100
AcDbEntity
  8
寸法
 48
50.0
100
AcDbLine
 10
4925.281277701612
 20
7424.18486104519
 30
0.0
 11
5144.433217877338
 21
7424.18486104519
 31
0.0
  0
LINE
  5
16E9A
330
747D
100
AcDbEntity
  8
寸法
 48
50.0
100
AcDbLine
 10
5144.433217877338
 20
7424.18486104519
 30
0.0
 11
5055.148999281916
 21
7448.108495314676
 31
0.0
  0
LINE
  5
16E9B
330
747D
100
AcDbEntity
  8
寸法
 48
50.0
100
AcDbLine
 10
5055.148999281916
 20
7448.108495314676
 30
0.0
 11
5055.148999281916
 21
7394.444860732885
 31
0.0
  0
LINE
  5
16E9C
330
747D
100
AcDbEntity
  8
寸法
 48
50.0
100
AcDbLine
 10
4724.577457094954
 20
7390.962904559852
 30
0.0
 11
4775.983465005059
 21
7390.962904559852
 31
0.0
  0
LINE
  5
16E9D
330
747D
100
AcDbEntity
  8
寸法
 48
50.0
100
AcDbLine
 10
4775.983465005059
 20
7390.962904559852
 30
0.0
 11
4775.983465005059
 21
7422.273063212019
 31
0.0
  0
LINE
  5
16E9E
330
747D
100
AcDbEntity
  8
寸法
 48
50.0
100
AcDbLine
 10
4775.983465005059
 20
7422.273063212019
 30
0.0
 11
4805.744796996482
 21
7422.273063212019
 31
0.0
  0
LINE
  5
16E9F
330
747D
100
AcDbEntity
  8
寸法
 48
50.0
100
AcDbLine
 10
4805.744796996482
 20
7422.273063212019
 30
0.0
 11
4750.280461050009
 21
7459.85251414063
 31
0.0
  0
LINE
  5
16EA0
330
747D
100
AcDbEntity
  8
寸法
 48
50.0
100
AcDbLine
 10
4694.816125103531
 20
7422.273063212019
 30
0.0
 11
4750.280461050007
 21
7459.85251414063
 31
0.0
  0
LINE
  5
16EA1
330
747D
100
AcDbEntity
  8
寸法
 48
50.0
100
AcDbLine
 10
4724.577457094954
 20
7422.273063212019
 30
0.0
 11
4694.816125103531
 21
7422.273063212019
 31
0.0
  0
LINE
  5
16EA2
330
747D
100
AcDbEntity
  8
寸法
 48
50.0
100
AcDbLine
 10
4724.577457094954
 20
7390.962904559852
 30
0.0
 11
4724.577457094954
 21
7422.273063212019
 31
0.0
  0
LINE
  5
16EA3
330
747D
100
AcDbEntity
  8
寸法
 48
50.0
100
AcDbLine
 10
4775.983465005059
 20
7390.962904559852
 30
0.0
 11
4724.577457094954
 21
7390.962904559852
 31
0.0
  0
LINE
  5
16EA4
330
747D
100
AcDbEntity
  8
細線
100
AcDbLine
 10
5155.544679601743
 20
7530.857263431824
 30
0.0
 11
5163.044679601749
 21
7553.857263431741
 31
0.0
  0
LINE
  5
16EA5
330
747D
100
AcDbEntity
  8
細線
100
AcDbLine
 10
4900.713141310951
 20
7501.857263431666
 30
0.0
 11
4835.376217892476
 21
7501.857263431656
 31
0.0
  0
LINE
  5
16EA6
330
747D
100
AcDbEntity
  8
細線
100
AcDbLine
 10
4903.044679601716
 20
7496.857263431682
 30
0.0
 11
4900.713141310948
 21
7501.857263431666
 31
0.0
  0
LINE
  5
16EA7
330
747D
100
AcDbEntity
  8
細線
100
AcDbLine
 10
4833.044679601723
 20
7496.857263431699
 30
0.0
 11
4835.376217892491
 21
7501.857263431684
 31
0.0
  0
LINE
  5
16EA8
330
747D
100
AcDbEntity
  8
細線
100
AcDbLine
 10
4708.544679601723
 20
7514.857263431679
 30
0.0
 11
4708.544679601723
 21
7496.857263431653
 31
0.0
  0
LINE
  5
16EA9
330
747D
100
AcDbEntity
  8
細線
100
AcDbLine
 10
4667.544679601723
 20
7514.857263431672
 30
0.0
 11
4667.544679601723
 21
7496.857263431653
 31
0.0
  0
LINE
  5
16EAA
330
747D
100
AcDbEntity
  8
細線
100
AcDbLine
 10
4708.544679601723
 20
7514.857263431679
 30
0.0
 11
4667.544679601723
 21
7514.857263431672
 31
0.0
  0
ARC
  5
16EAB
330
747D
100
AcDbEntity
  8
部品1
100
AcDbCircle
 10
4670.088835478999
 20
7496.357263431675
 30
0.0
 40
1.0
100
AcDbArc
 50
270.0
 51
19.47122063447127
  0
LINE
  5
16EAC
330
747D
100
AcDbEntity
  8
部品1
 48
0.01
100
AcDbLine
 10
4663.044679601716
 20
7496.857263431677
 30
0.0
 11
4663.044679601716
 21
7495.857263431677
 31
0.0
  0
LINE
  5
16EAD
330
747D
100
AcDbEntity
  8
部品1
 48
0.01
100
AcDbLine
 10
4663.544679601716
 20
7495.357263431677
 30
0.0
 11
4670.088835478999
 21
7495.357263431675
 31
0.0
  0
ARC
  5
16EAE
330
747D
100
AcDbEntity
  8
部品1
 48
0.01
100
AcDbCircle
 10
4663.544679601716
 20
7495.857263431677
 30
0.0
 40
0.5
100
AcDbArc
 50
180.0
 51
270.0
  0
ARC
  5
16EAF
330
747D
100
AcDbEntity
  8
部品1
100
AcDbCircle
 10
4695.544679601716
 20
7505.357263431675
 30
0.0
 40
26.0
100
AcDbArc
 50
180.0
 51
199.4712206344713
  0
ARC
  5
16EB0
330
747D
100
AcDbEntity
  8
部品1
 48
0.01
100
AcDbCircle
 10
4671.544679601716
 20
7510.357263431675
 30
0.0
 40
2.0
100
AcDbArc
 50
90.0
 51
180.0
  0
LINE
  5
16EB1
330
747D
100
AcDbEntity
  8
部品1
100
AcDbLine
 10
4669.544679601716
 20
7505.357263431675
 30
0.0
 11
4669.544679601716
 21
7510.357263431675
 31
0.0
  0
ARC
  5
16EB2
330
747D
100
AcDbEntity
  8
部品1
100
AcDbCircle
 10
4688.044679601715
 20
7521.157263431678
 30
0.0
 40
16.0
100
AcDbArc
 50
218.3930440191803
 51
254.0576313943268
  0
ARC
  5
16EB3
330
747D
100
AcDbEntity
  8
部品1
100
AcDbCircle
 10
4673.153071226529
 20
7509.357263431676
 30
0.0
 40
3.0
100
AcDbArc
 50
38.39304401918031
 51
90.0
  0
LINE
  5
16EB4
330
747D
100
AcDbEntity
  8
部品1
 48
0.01
100
AcDbLine
 10
4671.544679601716
 20
7512.357263431676
 30
0.0
 11
4673.153071226529
 21
7512.357263431676
 31
0.0
  0
ARC
  5
16EB5
330
747D
100
AcDbEntity
  8
部品1
100
AcDbCircle
 10
4688.044679601715
 20
7521.157263431678
 30
0.0
 40
16.0
100
AcDbArc
 50
285.9423686056732
 51
321.6069559808197
  0
LINE
  5
16EB6
330
747D
100
AcDbEntity
  8
部品1
100
AcDbLine
 10
4691.615393815987
 20
7505.657263431678
 30
0.0
 11
4684.473965387445
 21
7505.657263431678
 31
0.0
  0
ARC
  5
16EB7
330
747D
100
AcDbEntity
  8
部品1
100
AcDbCircle
 10
4691.615393815987
 20
7508.657263431678
 30
0.0
 40
3.0
100
AcDbArc
 50
270.0
 51
285.9423686056732
  0
ARC
  5
16EB8
330
747D
100
AcDbEntity
  8
部品1
100
AcDbCircle
 10
4684.473965387445
 20
7508.657263431678
 30
0.0
 40
3.0
100
AcDbArc
 50
254.0576313943268
 51
270.0
  0
LINE
  5
16EB9
330
747D
100
AcDbEntity
  8
部品1
 48
0.01
100
AcDbLine
 10
4704.544679601716
 20
7512.357263431676
 30
0.0
 11
4702.936287976906
 21
7512.357263431676
 31
0.0
  0
ARC
  5
16EBA
330
747D
100
AcDbEntity
  8
部品1
100
AcDbCircle
 10
4702.936287976906
 20
7509.357263431676
 30
0.0
 40
3.0
100
AcDbArc
 50
90.0
 51
141.6069559808197
  0
ARC
  5
16EBB
330
747D
100
AcDbEntity
  8
部品1
 48
0.01
100
AcDbCircle
 10
4704.544679601716
 20
7510.357263431675
 30
0.0
 40
2.0
100
AcDbArc
 50
0.0
 51
90.0
  0
LINE
  5
16EBC
330
747D
100
AcDbEntity
  8
部品1
100
AcDbLine
 10
4706.544679601716
 20
7505.357263431675
 30
0.0
 11
4706.544679601716
 21
7510.357263431675
 31
0.0
  0
ARC
  5
16EBD
330
747D
100
AcDbEntity
  8
部品1
100
AcDbCircle
 10
4680.544679601715
 20
7505.357263431675
 30
0.0
 40
26.0
100
AcDbArc
 50
340.5287793655287
 51
0.0
  0
ARC
  5
16EBE
330
747D
100
AcDbEntity
  8
部品1
100
AcDbCircle
 10
4706.000523724433
 20
7496.357263431675
 30
0.0
 40
1.0
100
AcDbArc
 50
160.5287793655287
 51
270.0
  0
LINE
  5
16EBF
330
747D
100
AcDbEntity
  8
部品1
 48
0.01
100
AcDbLine
 10
4712.544679601715
 20
7495.357263431677
 30
0.0
 11
4705.932174171655
 21
7495.357263431675
 31
0.0
  0
LINE
  5
16EC0
330
747D
100
AcDbEntity
  8
部品1
 48
0.01
100
AcDbLine
 10
4713.044679601716
 20
7496.857263431677
 30
0.0
 11
4713.044679601716
 21
7495.857263431677
 31
0.0
  0
LINE
  5
16EC1
330
747D
100
AcDbEntity
  8
部品1
 48
0.01
100
AcDbLine
 10
4713.044679601716
 20
7496.857263431677
 30
0.0
 11
4713.044679601716
 21
7495.857263431677
 31
0.0
  0
ARC
  5
16EC2
330
747D
100
AcDbEntity
  8
部品1
 48
0.01
100
AcDbCircle
 10
4712.544679601715
 20
7495.857263431677
 30
0.0
 40
0.5
100
AcDbArc
 50
270.0
 51
0.0
  0
LINE
  5
16EC3
330
747D
100
AcDbEntity
  8
細線
100
AcDbLine
 10
5080.544679601719
 20
7530.857263431748
 30
0.0
 11
5082.876217892487
 21
7535.857263431734
 31
0.0
  0
LINE
  5
16EC4
330
747D
100
AcDbEntity
  8
細線
100
AcDbLine
 10
5150.544679601716
 20
7530.85726343173
 30
0.0
 11
5148.213141310948
 21
7535.857263431715
 31
0.0
  0
LINE
  5
16EC5
330
747D
100
AcDbEntity
  8
細線
100
AcDbLine
 10
5148.213141310948
 20
7535.857263431715
 30
0.0
 11
5082.876217892475
 21
7535.857263431704
 31
0.0
  0
LINE
  5
16EC6
330
747D
100
AcDbEntity
  8
細線
100
AcDbLine
 10
5080.544679601715
 20
7530.857263431741
 30
0.0
 11
4994.044679601734
 21
7530.857263431743
 31
0.0
  0
LINE
  5
16EC7
330
747D
100
AcDbEntity
  8
細線
100
AcDbLine
 10
4982.044679601705
 20
7526.857263431638
 30
0.0
 11
4982.044679601706
 21
7530.857263431641
 31
0.0
  0
LINE
  5
16EC8
330
747D
100
AcDbEntity
  8
細線
100
AcDbLine
 10
4982.044679601705
 20
7526.857263431638
 30
0.0
 11
4962.044679601716
 21
7526.857263431638
 31
0.0
  0
LINE
  5
16EC9
330
747D
100
AcDbEntity
  8
細線
100
AcDbLine
 10
4962.044679601716
 20
7526.857263431638
 30
0.0
 11
4962.044679601727
 21
7560.857263431647
 31
0.0
  0
LINE
  5
16ECA
330
747D
100
AcDbEntity
  8
細線
100
AcDbLine
 10
5003.044679601723
 20
7496.857263431653
 30
0.0
 11
5003.044679601731
 21
7526.857263431654
 31
0.0
  0
LINE
  5
16ECB
330
747D
100
AcDbEntity
  8
細線
100
AcDbLine
 10
5003.044679601731
 20
7526.857263431654
 30
0.0
 11
4988.044679601727
 21
7526.85726343165
 31
0.0
  0
LINE
  5
16ECC
330
747D
100
AcDbEntity
  8
細線
100
AcDbLine
 10
4988.044679601727
 20
7519.85726343165
 30
0.0
 11
4988.044679601727
 21
7526.85726343165
 31
0.0
  0
LINE
  5
16ECD
330
747D
100
AcDbEntity
  8
細線
100
AcDbLine
 10
4988.044679601706
 20
7530.857263431646
 30
0.0
 11
4982.044679601706
 21
7530.857263431646
 31
0.0
  0
LINE
  5
16ECE
330
747D
100
AcDbEntity
  8
細線
100
AcDbLine
 10
4994.044679601732
 20
7530.157263431646
 30
0.0
 11
4994.044679601732
 21
7530.857263431646
 31
0.0
  0
ARC
  5
16ECF
330
747D
100
AcDbEntity
  8
細線
100
AcDbCircle
 10
4992.04467960173
 20
7530.157263431646
 30
0.0
 40
2.0
100
AcDbArc
 50
270.0
 51
0.0
  0
LINE
  5
16ED0
330
747D
100
AcDbEntity
  8
細線
100
AcDbLine
 10
4990.044679601732
 20
7528.157263431646
 30
0.0
 11
4992.044679601733
 21
7528.157263431646
 31
0.0
  0
LINE
  5
16ED1
330
747D
100
AcDbEntity
  8
細線
100
AcDbLine
 10
4988.044679601732
 20
7530.157263431646
 30
0.0
 11
4988.044679601732
 21
7530.857263431646
 31
0.0
  0
ARC
  5
16ED2
330
747D
100
AcDbEntity
  8
細線
100
AcDbCircle
 10
4990.04467960173
 20
7530.157263431646
 30
0.0
 40
2.0
100
AcDbArc
 50
180.0
 51
270.0
  0
LINE
  5
16ED3
330
747D
100
AcDbEntity
  8
細線
100
AcDbLine
 10
4977.044679601723
 20
7553.857263431646
 30
0.0
 11
4977.044679601723
 21
7560.85726343165
 31
0.0
  0
ARC
  5
16ED4
330
747D
100
AcDbEntity
  8
細線
100
AcDbCircle
 10
4789.589348762066
 20
7522.357263431726
 30
0.0
 40
6.0
100
AcDbArc
 50
204.6243183522153
 51
335.3756816477846
  0
LINE
  5
16ED5
330
747D
100
AcDbEntity
  8
細線
100
AcDbLine
 10
4819.589342262093
 20
7496.857263431825
 30
0.0
 11
4812.089342262098
 21
7519.857263431756
 31
0.0
  0
LINE
  5
16ED6
330
747D
100
AcDbEntity
  8
細線
100
AcDbLine
 10
4759.589342262093
 20
7496.857263431834
 30
0.0
 11
4767.0893422621
 21
7519.857263431756
 31
0.0
  0
ARC
  5
16ED7
330
747D
100
AcDbEntity
  8
細線
100
AcDbCircle
 10
5185.544686101707
 20
7556.357263431741
 30
0.0
 40
6.0
100
AcDbArc
 50
204.6243183522153
 51
335.3756816477846
  0
LINE
  5
16ED8
330
747D
100
AcDbEntity
  8
細線
100
AcDbLine
 10
4977.044679601723
 20
7560.85726343165
 30
0.0
 11
4962.044679601724
 21
7560.857263431647
 31
0.0
  0
LINE
  5
16ED9
330
747D
100
AcDbEntity
  8
細線
 48
50.0
100
AcDbLine
 10
4962.044679601721
 20
7543.857263431689
 30
0.0
 11
4552.044679601721
 21
7543.857263431623
 31
0.0
  0
LINE
  5
16EDA
330
747D
100
AcDbEntity
  8
細線
100
AcDbLine
 10
4988.044679601727
 20
7519.857263431716
 30
0.0
 11
4567.044679601723
 21
7519.857263431653
 31
0.0
  0
LINE
  5
16EDB
330
747D
100
AcDbEntity
  8
細線
100
AcDbLine
 10
4833.044679601723
 20
7496.857263431696
 30
0.0
 11
4543.032372952672
 21
7496.857263431653
 31
0.0
  0
LINE
  5
16EDC
330
747D
100
AcDbEntity
  8
細線
100
AcDbLine
 10
4567.044679601723
 20
7526.857263431654
 30
0.0
 11
4567.044679601723
 21
7519.857263431653
 31
0.0
  0
LINE
  5
16EDD
330
747D
100
AcDbEntity
  8
細線
100
AcDbLine
 10
4567.044679601723
 20
7526.857263431654
 30
0.0
 11
4552.044679601723
 21
7526.857263431654
 31
0.0
  0
LINE
  5
16EDE
330
747D
100
AcDbEntity
  8
細線
100
AcDbLine
 10
4552.044679601723
 20
7500.857263431607
 30
0.0
 11
4552.044679601723
 21
7496.857263431653
 31
0.0
  0
LINE
  5
16EDF
330
747D
100
AcDbEntity
  8
細線
100
AcDbLine
 10
5394.044679601719
 20
7553.857263431763
 30
0.0
 11
5385.599413896664
 21
7553.857263431765
 31
0.0
  0
LINE
  5
16EE0
330
747D
100
AcDbEntity
  8
細線
 48
50.0
100
AcDbLine
 10
5802.044679601672
 20
7509.857263431681
 30
0.0
 11
5393.357801047851
 21
7509.857263431681
 31
0.0
  0
LINE
  5
16EE1
330
747D
100
AcDbEntity
  8
細線
100
AcDbLine
 10
5215.544679601743
 20
7530.857263431814
 30
0.0
 11
5208.044679601749
 21
7553.857263431741
 31
0.0
  0
LINE
  5
16EE2
330
747D
100
AcDbEntity
  8
細線
100
AcDbLine
 10
5220.544679601723
 20
7530.857263431769
 30
0.0
 11
5222.876217892491
 21
7535.857263431755
 31
0.0
  0
LINE
  5
16EE3
330
747D
100
AcDbEntity
  8
細線
100
AcDbLine
 10
5288.213141310951
 20
7535.857263431736
 30
0.0
 11
5222.876217892476
 21
7535.857263431727
 31
0.0
  0
LINE
  5
16EE4
330
747D
100
AcDbEntity
  8
細線
100
AcDbLine
 10
5220.544679601707
 20
7530.857263431737
 30
0.0
 11
5150.544679601712
 21
7530.857263431737
 31
0.0
  0
LINE
  5
16EE5
330
747D
100
AcDbEntity
  8
細線
100
AcDbLine
 10
5379.044679601912
 20
7594.857263431679
 30
0.0
 11
5378.370007687632
 21
7594.857263431681
 31
0.0
  0
LINE
  5
16EE6
330
747D
100
AcDbEntity
  8
細線
100
AcDbLine
 10
5388.044679601726
 20
7558.857263431737
 30
0.0
 11
5388.044679601726
 21
7566.857263431737
 31
0.0
  0
LINE
  5
16EE7
330
747D
100
AcDbEntity
  8
細線
100
AcDbLine
 10
5388.044679601726
 20
7558.857263431737
 30
0.0
 11
5384.717778993126
 21
7558.857263431736
 31
0.0
  0
LINE
  5
16EE9
330
747D
100
AcDbEntity
  8
細線
100
AcDbLine
 10
5409.044679601727
 20
7560.857263431737
 30
0.0
 11
5394.044679601723
 21
7560.857263431734
 31
0.0
  0
LINE
  5
16EEA
330
747D
100
AcDbEntity
  8
細線
100
AcDbLine
 10
5394.044679601721
 20
7553.857263431734
 30
0.0
 11
5394.044679601723
 21
7560.857263431734
 31
0.0
  0
LINE
  5
16EEB
330
747D
100
AcDbEntity
  8
細線
100
AcDbLine
 10
5394.044679601726
 20
7566.857263431737
 30
0.0
 11
5388.044679601726
 21
7566.857263431737
 31
0.0
  0
LINE
  5
16EEC
330
747D
100
AcDbEntity
  8
細線
100
AcDbLine
 10
5496.544679601726
 20
7566.857263431725
 30
0.0
 11
5498.643064063409
 21
7571.357263431699
 31
0.0
  0
LINE
  5
16EED
330
747D
100
AcDbEntity
  8
細線
100
AcDbLine
 10
5496.54467960173
 20
7566.857263431733
 30
0.0
 11
5400.044679601728
 21
7566.857263431737
 31
0.0
  0
ARC
  5
16EEE
330
747D
100
AcDbEntity
  8
細線
100
AcDbCircle
 10
5396.044679601726
 20
7566.157263431737
 30
0.0
 40
2.0
100
AcDbArc
 50
180.0
 51
270.0
  0
LINE
  5
16EEF
330
747D
100
AcDbEntity
  8
細線
100
AcDbLine
 10
5394.044679601726
 20
7566.157263431738
 30
0.0
 11
5394.044679601726
 21
7566.857263431737
 31
0.0
  0
LINE
  5
16EF0
330
747D
100
AcDbEntity
  8
細線
100
AcDbLine
 10
5396.044679601726
 20
7564.157263431738
 30
0.0
 11
5398.044679601727
 21
7564.157263431738
 31
0.0
  0
ARC
  5
16EF1
330
747D
100
AcDbEntity
  8
細線
100
AcDbCircle
 10
5398.044679601727
 20
7566.157263431737
 30
0.0
 40
2.0
100
AcDbArc
 50
270.0
 51
0.0
  0
LINE
  5
16EF2
330
747D
100
AcDbEntity
  8
細線
100
AcDbLine
 10
5400.044679601727
 20
7566.157263431738
 30
0.0
 11
5400.044679601727
 21
7566.857263431737
 31
0.0
  0
LINE
  5
16EF3
330
747D
100
AcDbEntity
  8
細線
 48
50.0
100
AcDbLine
 10
5802.044679601672
 20
7543.857263431684
 30
0.0
 11
5409.044679601731
 21
7543.857263431684
 31
0.0
  0
LINE
  5
16EF4
330
747D
100
AcDbEntity
  8
細線
100
AcDbLine
 10
5409.044679601727
 20
7530.857263431737
 30
0.0
 11
5389.654934452963
 21
7530.857263431737
 31
0.0
  0
LINE
  5
16EF5
330
747D
100
AcDbEntity
  8
細線
100
AcDbLine
 10
5409.044679601727
 20
7530.857263431737
 30
0.0
 11
5409.044679601734
 21
7560.857263431737
 31
0.0
  0
LINE
  5
16EF6
330
747D
100
AcDbEntity
  8
細線
100
AcDbLine
 10
5290.544679601715
 20
7530.857263431752
 30
0.0
 11
5288.213141310948
 21
7535.857263431736
 31
0.0
  0
LINE
  5
16EF7
330
747D
100
AcDbEntity
  8
細線
100
AcDbLine
 10
5636.544679601738
 20
7566.857263431718
 30
0.0
 11
5638.876217892505
 21
7571.857263431704
 31
0.0
  0
LINE
  5
16EF8
330
747D
100
AcDbEntity
  8
細線
100
AcDbLine
 10
5566.544679601721
 20
7566.857263431709
 30
0.0
 11
5564.446295140029
 21
7571.357263431699
 31
0.0
  0
LINE
  5
16EF9
330
747D
100
AcDbEntity
  8
細線
100
AcDbLine
 10
5636.544679601732
 20
7566.857263431709
 30
0.0
 11
5566.544679601721
 21
7566.857263431709
 31
0.0
  0
LINE
  5
16EFA
330
747D
100
AcDbEntity
  8
細線
100
AcDbLine
 10
5800.044679601672
 20
7566.857263431678
 30
0.0
 11
5706.54467960174
 21
7566.857263431683
 31
0.0
  0
LINE
  5
16EFB
330
747D
100
AcDbEntity
  8
細線
100
AcDbLine
 10
5706.544679601733
 20
7566.8572634317
 30
0.0
 11
5704.446295140035
 21
7571.357263431699
 31
0.0
  0
LINE
  5
16EFC
330
747D
100
AcDbEntity
  8
細線
100
AcDbLine
 10
5800.044679601672
 20
7548.857263431677
 30
0.0
 11
5800.044679601672
 21
7566.857263431677
 31
0.0
  0
LINE
  5
16EFD
330
747D
100
AcDbEntity
  8
細線
 48
50.0
100
AcDbLine
 10
5800.044679601672
 20
7548.857263431677
 30
0.0
 11
5802.044679601672
 21
7548.857263431677
 31
0.0
  0
LINE
  5
16F25
330
747D
100
AcDbEntity
  8
細線
100
AcDbLine
 10
5937.044679601723
 20
7526.857263431657
 30
0.0
 11
5937.044679601723
 21
7519.857263431657
 31
0.0
  0
LINE
  5
16F26
330
747D
100
AcDbEntity
  8
細線
100
AcDbLine
 10
5937.044679601723
 20
7526.857263431657
 30
0.0
 11
5922.044679601723
 21
7526.857263431657
 31
0.0
  0
LINE
  5
16F27
330
747D
100
AcDbEntity
  8
細線
100
AcDbLine
 10
6203.044679601723
 20
7496.857263431699
 30
0.0
 11
5913.032372952673
 21
7496.857263431657
 31
0.0
  0
LINE
  5
16F28
330
747D
100
AcDbEntity
  8
細線
100
AcDbLine
 10
5922.044679601723
 20
7500.857263431609
 30
0.0
 11
5922.044679601723
 21
7496.857263431657
 31
0.0
  0
LINE
  5
16F29
330
747D
100
AcDbEntity
  8
細線
 48
50.0
100
AcDbLine
 10
6332.044679601722
 20
7543.857263431694
 30
0.0
 11
5922.044679601722
 21
7543.857263431625
 31
0.0
  0
LINE
  5
16F2A
330
747D
100
AcDbEntity
  8
細線
100
AcDbLine
 10
6358.044679601727
 20
7519.857263431719
 30
0.0
 11
5937.044679601723
 21
7519.857263431657
 31
0.0
  0
LINE
  5
16F2B
330
747D
100
AcDbEntity
  8
細線
100
AcDbLine
 10
6078.544679601723
 20
7514.857263431682
 30
0.0
 11
6078.544679601723
 21
7496.857263431657
 31
0.0
  0
LINE
  5
16F2C
330
747D
100
AcDbEntity
  8
細線
100
AcDbLine
 10
6037.544679601722
 20
7514.857263431675
 30
0.0
 11
6037.544679601722
 21
7496.857263431657
 31
0.0
  0
LINE
  5
16F2D
330
747D
100
AcDbEntity
  8
細線
100
AcDbLine
 10
6078.544679601723
 20
7514.857263431682
 30
0.0
 11
6037.544679601722
 21
7514.857263431675
 31
0.0
  0
ARC
  5
16F2E
330
747D
100
AcDbEntity
  8
部品1
100
AcDbCircle
 10
6040.088835479
 20
7496.357263431679
 30
0.0
 40
1.0
100
AcDbArc
 50
270.0
 51
19.47122063447127
  0
LINE
  5
16F2F
330
747D
100
AcDbEntity
  8
部品1
 48
0.01
100
AcDbLine
 10
6033.044679601715
 20
7496.857263431682
 30
0.0
 11
6033.044679601715
 21
7495.85726343168
 31
0.0
  0
LINE
  5
16F30
330
747D
100
AcDbEntity
  8
部品1
 48
0.01
100
AcDbLine
 10
6033.544679601716
 20
7495.357263431682
 30
0.0
 11
6040.088835479
 21
7495.357263431678
 31
0.0
  0
ARC
  5
16F31
330
747D
100
AcDbEntity
  8
部品1
 48
0.01
100
AcDbCircle
 10
6033.544679601716
 20
7495.85726343168
 30
0.0
 40
0.5
100
AcDbArc
 50
180.0
 51
270.0
  0
ARC
  5
16F32
330
747D
100
AcDbEntity
  8
部品1
100
AcDbCircle
 10
6065.544679601716
 20
7505.35726343168
 30
0.0
 40
26.0
100
AcDbArc
 50
180.0
 51
199.4712206344713
  0
ARC
  5
16F33
330
747D
100
AcDbEntity
  8
部品1
 48
0.01
100
AcDbCircle
 10
6041.544679601716
 20
7510.357263431679
 30
0.0
 40
2.0
100
AcDbArc
 50
90.0
 51
180.0
  0
LINE
  5
16F34
330
747D
100
AcDbEntity
  8
部品1
100
AcDbLine
 10
6039.544679601716
 20
7505.35726343168
 30
0.0
 11
6039.544679601716
 21
7510.357263431679
 31
0.0
  0
ARC
  5
16F35
330
747D
100
AcDbEntity
  8
部品1
100
AcDbCircle
 10
6058.044679601715
 20
7521.157263431682
 30
0.0
 40
16.0
100
AcDbArc
 50
218.3930440191803
 51
254.0576313943268
  0
ARC
  5
16F36
330
747D
100
AcDbEntity
  8
部品1
100
AcDbCircle
 10
6043.153071226529
 20
7509.357263431678
 30
0.0
 40
3.0
100
AcDbArc
 50
38.39304401918031
 51
90.0
  0
LINE
  5
16F37
330
747D
100
AcDbEntity
  8
部品1
 48
0.01
100
AcDbLine
 10
6041.544679601716
 20
7512.357263431678
 30
0.0
 11
6043.153071226529
 21
7512.357263431678
 31
0.0
  0
ARC
  5
16F38
330
747D
100
AcDbEntity
  8
部品1
100
AcDbCircle
 10
6058.044679601715
 20
7521.157263431682
 30
0.0
 40
16.0
100
AcDbArc
 50
285.9423686056732
 51
321.6069559808197
  0
LINE
  5
16F39
330
747D
100
AcDbEntity
  8
部品1
100
AcDbLine
 10
6061.615393815987
 20
7505.657263431682
 30
0.0
 11
6054.473965387445
 21
7505.657263431682
 31
0.0
  0
ARC
  5
16F3A
330
747D
100
AcDbEntity
  8
部品1
100
AcDbCircle
 10
6061.615393815987
 20
7508.657263431683
 30
0.0
 40
3.0
100
AcDbArc
 50
270.0
 51
285.9423686056732
  0
ARC
  5
16F3B
330
747D
100
AcDbEntity
  8
部品1
100
AcDbCircle
 10
6054.473965387445
 20
7508.657263431683
 30
0.0
 40
3.0
100
AcDbArc
 50
254.0576313943268
 51
270.0
  0
LINE
  5
16F3C
330
747D
100
AcDbEntity
  8
部品1
 48
0.01
100
AcDbLine
 10
6074.544679601716
 20
7512.357263431678
 30
0.0
 11
6072.936287976906
 21
7512.357263431678
 31
0.0
  0
ARC
  5
16F3D
330
747D
100
AcDbEntity
  8
部品1
100
AcDbCircle
 10
6072.936287976906
 20
7509.357263431678
 30
0.0
 40
3.0
100
AcDbArc
 50
90.0
 51
141.6069559808197
  0
ARC
  5
16F3E
330
747D
100
AcDbEntity
  8
部品1
 48
0.01
100
AcDbCircle
 10
6074.544679601716
 20
7510.357263431679
 30
0.0
 40
2.0
100
AcDbArc
 50
0.0
 51
90.0
  0
LINE
  5
16F3F
330
747D
100
AcDbEntity
  8
部品1
100
AcDbLine
 10
6076.544679601716
 20
7505.35726343168
 30
0.0
 11
6076.544679601716
 21
7510.357263431679
 31
0.0
  0
ARC
  5
16F40
330
747D
100
AcDbEntity
  8
部品1
100
AcDbCircle
 10
6050.544679601716
 20
7505.35726343168
 30
0.0
 40
26.0
100
AcDbArc
 50
340.5287793655287
 51
0.0
  0
ARC
  5
16F41
330
747D
100
AcDbEntity
  8
部品1
100
AcDbCircle
 10
6076.000523724432
 20
7496.357263431679
 30
0.0
 40
1.0
100
AcDbArc
 50
160.5287793655287
 51
270.0
  0
LINE
  5
16F42
330
747D
100
AcDbEntity
  8
部品1
 48
0.01
100
AcDbLine
 10
6082.544679601716
 20
7495.357263431682
 30
0.0
 11
6075.932174171654
 21
7495.357263431678
 31
0.0
  0
LINE
  5
16F43
330
747D
100
AcDbEntity
  8
部品1
 48
0.01
100
AcDbLine
 10
6083.044679601716
 20
7496.857263431682
 30
0.0
 11
6083.044679601716
 21
7495.85726343168
 31
0.0
  0
LINE
  5
16F44
330
747D
100
AcDbEntity
  8
部品1
 48
0.01
100
AcDbLine
 10
6083.044679601716
 20
7496.857263431682
 30
0.0
 11
6083.044679601716
 21
7495.85726343168
 31
0.0
  0
ARC
  5
16F45
330
747D
100
AcDbEntity
  8
部品1
 48
0.01
100
AcDbCircle
 10
6082.544679601716
 20
7495.85726343168
 30
0.0
 40
0.5
100
AcDbArc
 50
270.0
 51
0.0
  0
LINE
  5
16F46
330
747D
100
AcDbEntity
  8
細線
100
AcDbLine
 10
6270.71314131095
 20
7501.85726343167
 30
0.0
 11
6205.376217892476
 21
7501.857263431658
 31
0.0
  0
LINE
  5
16F47
330
747D
100
AcDbEntity
  8
細線
100
AcDbLine
 10
6273.044679601716
 20
7496.857263431684
 30
0.0
 11
6270.713141310949
 21
7501.85726343167
 31
0.0
  0
LINE
  5
16F48
330
747D
100
AcDbEntity
  8
細線
100
AcDbLine
 10
6203.044679601723
 20
7496.857263431703
 30
0.0
 11
6205.37621789249
 21
7501.857263431688
 31
0.0
  0
ARC
  5
16F49
330
747D
100
AcDbEntity
  8
細線
100
AcDbCircle
 10
6159.589348762066
 20
7522.357263431729
 30
0.0
 40
6.0
100
AcDbArc
 50
204.6243183522153
 51
335.3756816477846
  0
LINE
  5
16F4A
330
747D
100
AcDbEntity
  8
細線
100
AcDbLine
 10
6189.589342262093
 20
7496.857263431827
 30
0.0
 11
6182.089342262099
 21
7519.857263431759
 31
0.0
  0
LINE
  5
16F4B
330
747D
100
AcDbEntity
  8
細線
100
AcDbLine
 10
6129.589342262093
 20
7496.857263431839
 30
0.0
 11
6137.0893422621
 21
7519.857263431759
 31
0.0
  0
LINE
  5
16F4C
330
747D
100
AcDbEntity
  8
細線
100
AcDbLine
 10
6373.044679601723
 20
7496.857263431657
 30
0.0
 11
6273.044679601716
 21
7496.857263431644
 31
0.0
  0
LINE
  5
16F4D
330
747D
100
AcDbEntity
  8
細線
100
AcDbLine
 10
6352.044679601704
 20
7526.857263431643
 30
0.0
 11
6352.044679601707
 21
7530.857263431646
 31
0.0
  0
LINE
  5
16F4E
330
747D
100
AcDbEntity
  8
細線
100
AcDbLine
 10
6352.044679601704
 20
7526.857263431643
 30
0.0
 11
6332.044679601716
 21
7526.857263431643
 31
0.0
  0
LINE
  5
16F4F
330
747D
100
AcDbEntity
  8
細線
100
AcDbLine
 10
6332.044679601716
 20
7526.857263431643
 30
0.0
 11
6332.044679601727
 21
7560.857263431651
 31
0.0
  0
LINE
  5
16F50
330
747D
100
AcDbEntity
  8
細線
100
AcDbLine
 10
6373.044679601723
 20
7496.857263431657
 30
0.0
 11
6373.04467960173
 21
7526.857263431657
 31
0.0
  0
LINE
  5
16F51
330
747D
100
AcDbEntity
  8
細線
100
AcDbLine
 10
6373.04467960173
 20
7526.857263431657
 30
0.0
 11
6358.044679601727
 21
7526.857263431654
 31
0.0
  0
LINE
  5
16F52
330
747D
100
AcDbEntity
  8
細線
100
AcDbLine
 10
6358.044679601727
 20
7519.857263431653
 30
0.0
 11
6358.044679601727
 21
7526.857263431654
 31
0.0
  0
LINE
  5
16F53
330
747D
100
AcDbEntity
  8
細線
100
AcDbLine
 10
6358.044679601707
 20
7530.85726343165
 30
0.0
 11
6352.044679601707
 21
7530.85726343165
 31
0.0
  0
LINE
  5
16F54
330
747D
100
AcDbEntity
  8
細線
100
AcDbLine
 10
6364.044679601732
 20
7530.157263431648
 30
0.0
 11
6364.044679601732
 21
7530.85726343165
 31
0.0
  0
ARC
  5
16F55
330
747D
100
AcDbEntity
  8
細線
100
AcDbCircle
 10
6362.04467960173
 20
7530.157263431648
 30
0.0
 40
2.0
100
AcDbArc
 50
270.0
 51
0.0
  0
LINE
  5
16F56
330
747D
100
AcDbEntity
  8
細線
100
AcDbLine
 10
6360.044679601732
 20
7528.157263431649
 30
0.0
 11
6362.044679601733
 21
7528.157263431649
 31
0.0
  0
LINE
  5
16F57
330
747D
100
AcDbEntity
  8
細線
100
AcDbLine
 10
6358.044679601732
 20
7530.157263431648
 30
0.0
 11
6358.044679601732
 21
7530.85726343165
 31
0.0
  0
ARC
  5
16F58
330
747D
100
AcDbEntity
  8
細線
100
AcDbCircle
 10
6360.044679601731
 20
7530.157263431648
 30
0.0
 40
2.0
100
AcDbArc
 50
180.0
 51
270.0
  0
LINE
  5
16F59
330
747D
100
AcDbEntity
  8
細線
100
AcDbLine
 10
6347.044679601723
 20
7553.857263431649
 30
0.0
 11
6347.044679601723
 21
7560.857263431653
 31
0.0
  0
LINE
  5
16F5A
330
747D
100
AcDbEntity
  8
細線
100
AcDbLine
 10
6347.044679601723
 20
7560.857263431653
 30
0.0
 11
6332.044679601725
 21
7560.857263431651
 31
0.0
  0
LINE
  5
16F5B
330
747D
100
AcDbEntity
  8
細線
100
AcDbLine
 10
6764.04467960172
 20
7553.857263431766
 30
0.0
 11
6347.044679601723
 21
7553.857263431801
 31
0.0
  0
LINE
  5
16F5C
330
747D
100
AcDbEntity
  8
細線
 48
50.0
100
AcDbLine
 10
7172.044679601673
 20
7509.857263431683
 30
0.0
 11
6373.044679601727
 21
7509.857263431687
 31
0.0
  0
LINE
  5
16F5D
330
747D
100
AcDbEntity
  8
細線
100
AcDbLine
 10
6518.213141310948
 20
7535.857263431719
 30
0.0
 11
6452.876217892475
 21
7535.857263431708
 31
0.0
  0
LINE
  5
16F5E
330
747D
100
AcDbEntity
  8
細線
100
AcDbLine
 10
6450.544679601716
 20
7530.857263431744
 30
0.0
 11
6364.044679601734
 21
7530.857263431745
 31
0.0
  0
LINE
  5
16F5F
330
747D
100
AcDbEntity
  8
細線
100
AcDbLine
 10
6585.544679601743
 20
7530.857263431816
 30
0.0
 11
6578.044679601749
 21
7553.857263431744
 31
0.0
  0
LINE
  5
16F60
330
747D
100
AcDbEntity
  8
細線
100
AcDbLine
 10
6525.544679601743
 20
7530.857263431828
 30
0.0
 11
6533.044679601748
 21
7553.857263431744
 31
0.0
  0
LINE
  5
16F61
330
747D
100
AcDbEntity
  8
細線
100
AcDbLine
 10
6450.544679601719
 20
7530.857263431752
 30
0.0
 11
6452.876217892487
 21
7535.857263431736
 31
0.0
  0
LINE
  5
16F62
330
747D
100
AcDbEntity
  8
細線
100
AcDbLine
 10
6520.544679601716
 20
7530.857263431733
 30
0.0
 11
6518.213141310948
 21
7535.857263431719
 31
0.0
  0
LINE
  5
16F63
330
747D
100
AcDbEntity
  8
細線
100
AcDbLine
 10
6590.544679601723
 20
7530.857263431774
 30
0.0
 11
6592.876217892492
 21
7535.857263431759
 31
0.0
  0
LINE
  5
16F64
330
747D
100
AcDbEntity
  8
細線
100
AcDbLine
 10
6590.544679601707
 20
7530.857263431741
 30
0.0
 11
6520.544679601712
 21
7530.857263431741
 31
0.0
  0
ARC
  5
16F65
330
747D
100
AcDbEntity
  8
細線
100
AcDbCircle
 10
6555.544686101708
 20
7556.357263431744
 30
0.0
 40
6.0
100
AcDbArc
 50
204.6243183522153
 51
335.3756816477846
  0
LINE
  5
16F66
330
747D
100
AcDbEntity
  8
細線
100
AcDbLine
 10
6779.044679601726
 20
7530.857263431741
 30
0.0
 11
6660.544679601724
 21
7530.857263431741
 31
0.0
  0
LINE
  5
16F67
330
747D
100
AcDbEntity
  8
細線
100
AcDbLine
 10
6658.213141310951
 20
7535.857263431741
 30
0.0
 11
6592.876217892476
 21
7535.857263431729
 31
0.0
  0
LINE
  5
16F68
330
747D
100
AcDbEntity
  8
細線
100
AcDbLine
 10
6660.544679601716
 20
7530.857263431755
 30
0.0
 11
6658.213141310948
 21
7535.857263431741
 31
0.0
  0
LINE
  5
16F69
330
747D
100
AcDbEntity
  8
細線
100
AcDbLine
 10
6749.044679601913
 20
7594.857263431683
 30
0.0
 11
6738.044679601727
 21
7594.857263431683
 31
0.0
  0
LINE
  5
16F6A
330
747D
100
AcDbEntity
  8
細線
100
AcDbLine
 10
6758.044679601727
 20
7558.85726343174
 30
0.0
 11
6758.044679601727
 21
7566.857263431741
 31
0.0
  0
LINE
  5
16F6B
330
747D
100
AcDbEntity
  8
細線
100
AcDbLine
 10
6758.044679601727
 20
7558.85726343174
 30
0.0
 11
6738.044679601727
 21
7558.85726343174
 31
0.0
  0
LINE
  5
16F6C
330
747D
100
AcDbEntity
  8
細線
100
AcDbLine
 10
6738.044679601727
 20
7558.85726343174
 30
0.0
 11
6738.044679601727
 21
7594.857263431737
 31
0.0
  0
LINE
  5
16F6D
330
747D
100
AcDbEntity
  8
細線
100
AcDbLine
 10
6779.044679601726
 20
7530.857263431741
 30
0.0
 11
6779.044679601733
 21
7560.857263431741
 31
0.0
  0
LINE
  5
16F6E
330
747D
100
AcDbEntity
  8
細線
100
AcDbLine
 10
6779.044679601726
 20
7560.857263431741
 30
0.0
 11
6764.044679601723
 21
7560.857263431737
 31
0.0
  0
LINE
  5
16F6F
330
747D
100
AcDbEntity
  8
細線
100
AcDbLine
 10
6764.044679601721
 20
7553.857263431737
 30
0.0
 11
6764.044679601723
 21
7560.857263431737
 31
0.0
  0
LINE
  5
16F70
330
747D
100
AcDbEntity
  8
細線
100
AcDbLine
 10
6764.044679601727
 20
7566.857263431741
 30
0.0
 11
6758.044679601727
 21
7566.857263431741
 31
0.0
  0
LINE
  5
16F71
330
747D
100
AcDbEntity
  8
細線
100
AcDbLine
 10
6866.544679601727
 20
7566.85726343173
 30
0.0
 11
6868.643064063409
 21
7571.357263431703
 31
0.0
  0
LINE
  5
16F72
330
747D
100
AcDbEntity
  8
細線
100
AcDbLine
 10
6866.54467960173
 20
7566.857263431737
 30
0.0
 11
6770.044679601729
 21
7566.857263431741
 31
0.0
  0
ARC
  5
16F73
330
747D
100
AcDbEntity
  8
細線
100
AcDbCircle
 10
6766.044679601726
 20
7566.157263431739
 30
0.0
 40
2.0
100
AcDbArc
 50
180.0
 51
270.0
  0
LINE
  5
16F74
330
747D
100
AcDbEntity
  8
細線
100
AcDbLine
 10
6764.044679601727
 20
7566.157263431742
 30
0.0
 11
6764.044679601727
 21
7566.857263431741
 31
0.0
  0
LINE
  5
16F75
330
747D
100
AcDbEntity
  8
細線
100
AcDbLine
 10
6766.044679601726
 20
7564.157263431741
 30
0.0
 11
6768.044679601726
 21
7564.157263431741
 31
0.0
  0
ARC
  5
16F76
330
747D
100
AcDbEntity
  8
細線
100
AcDbCircle
 10
6768.044679601726
 20
7566.157263431739
 30
0.0
 40
2.0
100
AcDbArc
 50
270.0
 51
0.0
  0
LINE
  5
16F77
330
747D
100
AcDbEntity
  8
細線
100
AcDbLine
 10
6770.044679601728
 20
7566.157263431742
 30
0.0
 11
6770.044679601728
 21
7566.857263431741
 31
0.0
  0
LINE
  5
16F78
330
747D
100
AcDbEntity
  8
細線
 48
50.0
100
AcDbLine
 10
7172.044679601673
 20
7543.857263431688
 30
0.0
 11
6779.044679601731
 21
7543.857263431688
 31
0.0
  0
LINE
  5
16F79
330
747D
100
AcDbEntity
  8
細線
100
AcDbLine
 10
7006.544679601738
 20
7566.857263431723
 30
0.0
 11
7008.876217892505
 21
7571.857263431708
 31
0.0
  0
LINE
  5
16F7A
330
747D
100
AcDbEntity
  8
細線
100
AcDbLine
 10
6936.544679601721
 20
7566.857263431711
 30
0.0
 11
6934.44629514003
 21
7571.357263431703
 31
0.0
  0
LINE
  5
16F7B
330
747D
100
AcDbEntity
  8
細線
100
AcDbLine
 10
7006.544679601732
 20
7566.857263431711
 30
0.0
 11
6936.544679601721
 21
7566.857263431711
 31
0.0
  0
LINE
  5
16F7C
330
747D
100
AcDbEntity
  8
細線
100
AcDbLine
 10
7170.044679601672
 20
7566.857263431683
 30
0.0
 11
7076.54467960174
 21
7566.857263431685
 31
0.0
  0
LINE
  5
16F7D
330
747D
100
AcDbEntity
  8
細線
100
AcDbLine
 10
7170.044679601672
 20
7548.857263431681
 30
0.0
 11
7170.044679601672
 21
7566.85726343168
 31
0.0
  0
LINE
  5
16F7E
330
747D
100
AcDbEntity
  8
細線
 48
50.0
100
AcDbLine
 10
7170.044679601672
 20
7548.857263431681
 30
0.0
 11
7172.044679601673
 21
7548.857263431681
 31
0.0
  0
LINE
  5
16F7F
330
747D
100
AcDbEntity
  8
細線
100
AcDbLine
 10
7076.544679601733
 20
7566.857263431704
 30
0.0
 11
7074.446295140035
 21
7571.357263431703
 31
0.0
  0
DIMENSION
  5
16F80
330
747D
100
AcDbEntity
  8
寸法
100
AcDbDimension
  2
*D26
 10
5922.044679601725
 20
6966.688098471208
 30
0.0
 11
6265.044679601725
 21
6966.688098471208
 31
0.0
 70
   160
  1
有効開口部間口\P<>
 71
     5
 42
686.0
  3
INABA_S40G
100
AcDbAlignedDimension
 13
6608.044679601725
 23
7493.857263431685
 33
0.0
 14
5922.044679601725
 24
7493.85726343161
 34
0.0
100
AcDbRotatedDimension
1001
ACAD
1000
DSTYLE
1002
{
1002
}
  0
LINE
  5
16F81
330
747D
100
AcDbEntity
  8
寸法
 48
50.0
100
AcDbLine
 10
6145.983465005059
 20
7390.962904559856
 30
0.0
 11
6094.577457094955
 21
7390.962904559856
 31
0.0
  0
LINE
  5
16F82
330
747D
100
AcDbEntity
  8
寸法
 48
50.0
100
AcDbLine
 10
6094.577457094955
 20
7390.962904559856
 30
0.0
 11
6094.577457094955
 21
7422.273063212021
 31
0.0
  0
LINE
  5
16F83
330
747D
100
AcDbEntity
  8
寸法
 48
50.0
100
AcDbLine
 10
6094.577457094955
 20
7422.273063212021
 30
0.0
 11
6064.816125103532
 21
7422.273063212021
 31
0.0
  0
LINE
  5
16F84
330
747D
100
AcDbEntity
  8
寸法
 48
50.0
100
AcDbLine
 10
6064.816125103532
 20
7422.273063212021
 30
0.0
 11
6120.280461050008
 21
7459.852514140634
 31
0.0
  0
LINE
  5
16F85
330
747D
100
AcDbEntity
  8
寸法
 48
50.0
100
AcDbLine
 10
6175.744796996482
 20
7422.273063212021
 30
0.0
 11
6120.280461050009
 21
7459.852514140634
 31
0.0
  0
LINE
  5
16F86
330
747D
100
AcDbEntity
  8
寸法
 48
50.0
100
AcDbLine
 10
6145.983465005059
 20
7422.273063212021
 30
0.0
 11
6175.744796996482
 21
7422.273063212021
 31
0.0
  0
LINE
  5
16F87
330
747D
100
AcDbEntity
  8
寸法
 48
50.0
100
AcDbLine
 10
6145.983465005059
 20
7390.962904559856
 30
0.0
 11
6145.983465005059
 21
7422.273063212021
 31
0.0
  0
LINE
  5
16F88
330
747D
100
AcDbEntity
  8
寸法
 48
50.0
100
AcDbLine
 10
6094.577457094955
 20
7390.962904559856
 30
0.0
 11
6145.983465005059
 21
7390.962904559856
 31
0.0
  0
LINE
  5
16F89
330
747D
100
AcDbEntity
  8
寸法
 48
50.0
100
AcDbLine
 10
6425.148999281915
 20
7448.108495314681
 30
0.0
 11
6425.148999281915
 21
7394.444860732889
 31
0.0
  0
LINE
  5
16F8A
330
747D
100
AcDbEntity
  8
寸法
 48
50.0
100
AcDbLine
 10
6514.433217877338
 20
7424.184861045192
 30
0.0
 11
6425.148999281915
 21
7448.108495314681
 31
0.0
  0
LINE
  5
16F8B
330
747D
100
AcDbEntity
  8
寸法
 48
50.0
100
AcDbLine
 10
6295.281277701612
 20
7424.184861045192
 30
0.0
 11
6514.433217877338
 21
7424.184861045192
 31
0.0
  0
LINE
  5
16FA1
330
747D
100
AcDbEntity
  8
細線
100
AcDbLine
 10
7743.044679601723
 20
7496.857263431657
 30
0.0
 11
7643.044679601716
 21
7496.857263431644
 31
0.0
  0
LINE
  5
16FA2
330
747D
100
AcDbEntity
  8
寸法
 48
50.0
100
AcDbLine
 10
7665.281277701613
 20
7424.184861045192
 30
0.0
 11
7884.433217877337
 21
7424.184861045192
 31
0.0
  0
LINE
  5
16FA3
330
747D
100
AcDbEntity
  8
寸法
 48
50.0
100
AcDbLine
 10
7884.433217877337
 20
7424.184861045192
 30
0.0
 11
7795.148999281916
 21
7448.108495314681
 31
0.0
  0
LINE
  5
16FA4
330
747D
100
AcDbEntity
  8
寸法
 48
50.0
100
AcDbLine
 10
7795.148999281916
 20
7448.108495314681
 30
0.0
 11
7795.148999281916
 21
7394.444860732889
 31
0.0
  0
LINE
  5
16FA5
330
747D
100
AcDbEntity
  8
寸法
 48
50.0
100
AcDbLine
 10
7464.577457094955
 20
7390.962904559856
 30
0.0
 11
7515.983465005058
 21
7390.962904559856
 31
0.0
  0
LINE
  5
16FA6
330
747D
100
AcDbEntity
  8
寸法
 48
50.0
100
AcDbLine
 10
7515.983465005058
 20
7390.962904559856
 30
0.0
 11
7515.983465005058
 21
7422.273063212021
 31
0.0
  0
LINE
  5
16FA7
330
747D
100
AcDbEntity
  8
寸法
 48
50.0
100
AcDbLine
 10
7515.983465005058
 20
7422.273063212021
 30
0.0
 11
7545.744796996483
 21
7422.273063212021
 31
0.0
  0
LINE
  5
16FA8
330
747D
100
AcDbEntity
  8
寸法
 48
50.0
100
AcDbLine
 10
7545.744796996483
 20
7422.273063212021
 30
0.0
 11
7490.280461050009
 21
7459.852514140634
 31
0.0
  0
LINE
  5
16FA9
330
747D
100
AcDbEntity
  8
寸法
 48
50.0
100
AcDbLine
 10
7434.816125103532
 20
7422.273063212021
 30
0.0
 11
7490.280461050007
 21
7459.852514140634
 31
0.0
  0
LINE
  5
16FAA
330
747D
100
AcDbEntity
  8
寸法
 48
50.0
100
AcDbLine
 10
7464.577457094955
 20
7422.273063212021
 30
0.0
 11
7434.816125103532
 21
7422.273063212021
 31
0.0
  0
LINE
  5
16FAB
330
747D
100
AcDbEntity
  8
寸法
 48
50.0
100
AcDbLine
 10
7464.577457094955
 20
7390.962904559856
 30
0.0
 11
7464.577457094955
 21
7422.273063212021
 31
0.0
  0
LINE
  5
16FAC
330
747D
100
AcDbEntity
  8
寸法
 48
50.0
100
AcDbLine
 10
7515.983465005058
 20
7390.962904559856
 30
0.0
 11
7464.577457094955
 21
7390.962904559856
 31
0.0
  0
LINE
  5
16FAD
330
747D
100
AcDbEntity
  8
細線
100
AcDbLine
 10
7955.544679601743
 20
7530.857263431816
 30
0.0
 11
7948.044679601749
 21
7553.857263431744
 31
0.0
  0
LINE
  5
16FAE
330
747D
100
AcDbEntity
  8
細線
100
AcDbLine
 10
7895.544679601742
 20
7530.857263431828
 30
0.0
 11
7903.044679601748
 21
7553.857263431744
 31
0.0
  0
LINE
  5
16FAF
330
747D
100
AcDbEntity
  8
細線
100
AcDbLine
 10
7640.71314131095
 20
7501.85726343167
 30
0.0
 11
7575.376217892475
 21
7501.857263431658
 31
0.0
  0
LINE
  5
16FB0
330
747D
100
AcDbEntity
  8
細線
100
AcDbLine
 10
7643.044679601716
 20
7496.857263431684
 30
0.0
 11
7640.713141310948
 21
7501.85726343167
 31
0.0
  0
LINE
  5
16FB1
330
747D
100
AcDbEntity
  8
細線
100
AcDbLine
 10
7573.044679601723
 20
7496.857263431703
 30
0.0
 11
7575.376217892491
 21
7501.857263431688
 31
0.0
  0
LINE
  5
16FB2
330
747D
100
AcDbEntity
  8
細線
100
AcDbLine
 10
7448.544679601723
 20
7514.857263431682
 30
0.0
 11
7448.544679601723
 21
7496.857263431657
 31
0.0
  0
LINE
  5
16FB3
330
747D
100
AcDbEntity
  8
細線
100
AcDbLine
 10
7407.544679601723
 20
7514.857263431675
 30
0.0
 11
7407.544679601723
 21
7496.857263431657
 31
0.0
  0
LINE
  5
16FB4
330
747D
100
AcDbEntity
  8
細線
100
AcDbLine
 10
7448.544679601723
 20
7514.857263431682
 30
0.0
 11
7407.544679601723
 21
7514.857263431675
 31
0.0
  0
ARC
  5
16FB5
330
747D
100
AcDbEntity
  8
部品1
100
AcDbCircle
 10
7410.088835479
 20
7496.357263431679
 30
0.0
 40
1.0
100
AcDbArc
 50
270.0
 51
19.47122063447127
  0
LINE
  5
16FB6
330
747D
100
AcDbEntity
  8
部品1
 48
0.01
100
AcDbLine
 10
7403.044679601716
 20
7496.857263431682
 30
0.0
 11
7403.044679601716
 21
7495.85726343168
 31
0.0
  0
LINE
  5
16FB7
330
747D
100
AcDbEntity
  8
部品1
 48
0.01
100
AcDbLine
 10
7403.544679601715
 20
7495.357263431682
 30
0.0
 11
7410.088835479
 21
7495.357263431678
 31
0.0
  0
ARC
  5
16FB8
330
747D
100
AcDbEntity
  8
部品1
 48
0.01
100
AcDbCircle
 10
7403.544679601715
 20
7495.85726343168
 30
0.0
 40
0.5
100
AcDbArc
 50
180.0
 51
270.0
  0
ARC
  5
16FB9
330
747D
100
AcDbEntity
  8
部品1
100
AcDbCircle
 10
7435.544679601716
 20
7505.35726343168
 30
0.0
 40
26.0
100
AcDbArc
 50
180.0
 51
199.4712206344713
  0
ARC
  5
16FBA
330
747D
100
AcDbEntity
  8
部品1
 48
0.01
100
AcDbCircle
 10
7411.544679601717
 20
7510.357263431679
 30
0.0
 40
2.0
100
AcDbArc
 50
90.0
 51
180.0
  0
LINE
  5
16FBB
330
747D
100
AcDbEntity
  8
部品1
100
AcDbLine
 10
7409.544679601715
 20
7505.35726343168
 30
0.0
 11
7409.544679601715
 21
7510.357263431679
 31
0.0
  0
ARC
  5
16FBC
330
747D
100
AcDbEntity
  8
部品1
100
AcDbCircle
 10
7428.044679601716
 20
7521.157263431682
 30
0.0
 40
16.0
100
AcDbArc
 50
218.3930440191803
 51
254.0576313943268
  0
ARC
  5
16FBD
330
747D
100
AcDbEntity
  8
部品1
100
AcDbCircle
 10
7413.15307122653
 20
7509.357263431678
 30
0.0
 40
3.0
100
AcDbArc
 50
38.39304401918031
 51
90.0
  0
LINE
  5
16FBE
330
747D
100
AcDbEntity
  8
部品1
 48
0.01
100
AcDbLine
 10
7411.544679601717
 20
7512.357263431678
 30
0.0
 11
7413.15307122653
 21
7512.357263431678
 31
0.0
  0
ARC
  5
16FBF
330
747D
100
AcDbEntity
  8
部品1
100
AcDbCircle
 10
7428.044679601716
 20
7521.157263431682
 30
0.0
 40
16.0
100
AcDbArc
 50
285.9423686056732
 51
321.6069559808197
  0
LINE
  5
16FC0
330
747D
100
AcDbEntity
  8
部品1
100
AcDbLine
 10
7431.615393815987
 20
7505.657263431682
 30
0.0
 11
7424.473965387445
 21
7505.657263431682
 31
0.0
  0
ARC
  5
16FC1
330
747D
100
AcDbEntity
  8
部品1
100
AcDbCircle
 10
7431.615393815987
 20
7508.657263431683
 30
0.0
 40
3.0
100
AcDbArc
 50
270.0
 51
285.9423686056732
  0
ARC
  5
16FC2
330
747D
100
AcDbEntity
  8
部品1
100
AcDbCircle
 10
7424.473965387445
 20
7508.657263431683
 30
0.0
 40
3.0
100
AcDbArc
 50
254.0576313943268
 51
270.0
  0
LINE
  5
16FC3
330
747D
100
AcDbEntity
  8
部品1
 48
0.01
100
AcDbLine
 10
7444.544679601716
 20
7512.357263431678
 30
0.0
 11
7442.936287976905
 21
7512.357263431678
 31
0.0
  0
ARC
  5
16FC4
330
747D
100
AcDbEntity
  8
部品1
100
AcDbCircle
 10
7442.936287976905
 20
7509.357263431678
 30
0.0
 40
3.0
100
AcDbArc
 50
90.0
 51
141.6069559808197
  0
ARC
  5
16FC5
330
747D
100
AcDbEntity
  8
部品1
 48
0.01
100
AcDbCircle
 10
7444.544679601716
 20
7510.357263431679
 30
0.0
 40
2.0
100
AcDbArc
 50
0.0
 51
90.0
  0
LINE
  5
16FC6
330
747D
100
AcDbEntity
  8
部品1
100
AcDbLine
 10
7446.544679601716
 20
7505.35726343168
 30
0.0
 11
7446.544679601716
 21
7510.357263431679
 31
0.0
  0
ARC
  5
16FC7
330
747D
100
AcDbEntity
  8
部品1
100
AcDbCircle
 10
7420.544679601715
 20
7505.35726343168
 30
0.0
 40
26.0
100
AcDbArc
 50
340.5287793655287
 51
0.0
  0
ARC
  5
16FC8
330
747D
100
AcDbEntity
  8
部品1
100
AcDbCircle
 10
7446.000523724432
 20
7496.357263431679
 30
0.0
 40
1.0
100
AcDbArc
 50
160.5287793655287
 51
270.0
  0
LINE
  5
16FC9
330
747D
100
AcDbEntity
  8
部品1
 48
0.01
100
AcDbLine
 10
7452.544679601716
 20
7495.357263431682
 30
0.0
 11
7445.932174171655
 21
7495.357263431678
 31
0.0
  0
LINE
  5
16FCA
330
747D
100
AcDbEntity
  8
部品1
 48
0.01
100
AcDbLine
 10
7453.044679601716
 20
7496.857263431682
 30
0.0
 11
7453.044679601716
 21
7495.85726343168
 31
0.0
  0
LINE
  5
16FCB
330
747D
100
AcDbEntity
  8
部品1
 48
0.01
100
AcDbLine
 10
7453.044679601716
 20
7496.857263431682
 30
0.0
 11
7453.044679601716
 21
7495.85726343168
 31
0.0
  0
ARC
  5
16FCC
330
747D
100
AcDbEntity
  8
部品1
 48
0.01
100
AcDbCircle
 10
7452.544679601716
 20
7495.85726343168
 30
0.0
 40
0.5
100
AcDbArc
 50
270.0
 51
0.0
  0
LINE
  5
16FCD
330
747D
100
AcDbEntity
  8
細線
100
AcDbLine
 10
7820.54467960172
 20
7530.857263431752
 30
0.0
 11
7822.876217892487
 21
7535.857263431736
 31
0.0
  0
LINE
  5
16FCE
330
747D
100
AcDbEntity
  8
細線
100
AcDbLine
 10
7890.544679601716
 20
7530.857263431733
 30
0.0
 11
7888.213141310949
 21
7535.857263431719
 31
0.0
  0
LINE
  5
16FCF
330
747D
100
AcDbEntity
  8
細線
100
AcDbLine
 10
7888.213141310949
 20
7535.857263431719
 30
0.0
 11
7822.876217892474
 21
7535.857263431708
 31
0.0
  0
LINE
  5
16FD0
330
747D
100
AcDbEntity
  8
細線
100
AcDbLine
 10
7960.544679601723
 20
7530.857263431774
 30
0.0
 11
7962.876217892492
 21
7535.857263431759
 31
0.0
  0
LINE
  5
16FD1
330
747D
100
AcDbEntity
  8
細線
100
AcDbLine
 10
8028.213141310949
 20
7535.857263431741
 30
0.0
 11
7962.876217892476
 21
7535.857263431729
 31
0.0
  0
LINE
  5
16FD2
330
747D
100
AcDbEntity
  8
細線
100
AcDbLine
 10
8030.544679601716
 20
7530.857263431755
 30
0.0
 11
8028.213141310947
 21
7535.857263431741
 31
0.0
  0
LINE
  5
16FD3
330
747D
100
AcDbEntity
  8
細線
100
AcDbLine
 10
7960.544679601706
 20
7530.857263431741
 30
0.0
 11
7890.544679601713
 21
7530.857263431741
 31
0.0
  0
LINE
  5
16FD4
330
747D
100
AcDbEntity
  8
細線
100
AcDbLine
 10
7820.544679601716
 20
7530.857263431744
 30
0.0
 11
7734.044679601734
 21
7530.857263431745
 31
0.0
  0
LINE
  5
16FD5
330
747D
100
AcDbEntity
  8
細線
100
AcDbLine
 10
7722.044679601705
 20
7526.857263431643
 30
0.0
 11
7722.044679601707
 21
7530.857263431646
 31
0.0
  0
LINE
  5
16FD6
330
747D
100
AcDbEntity
  8
細線
100
AcDbLine
 10
7722.044679601705
 20
7526.857263431643
 30
0.0
 11
7702.044679601716
 21
7526.857263431643
 31
0.0
  0
LINE
  5
16FD7
330
747D
100
AcDbEntity
  8
細線
100
AcDbLine
 10
7702.044679601716
 20
7526.857263431643
 30
0.0
 11
7702.044679601726
 21
7560.857263431651
 31
0.0
  0
LINE
  5
16FD8
330
747D
100
AcDbEntity
  8
細線
100
AcDbLine
 10
7743.044679601723
 20
7496.857263431657
 30
0.0
 11
7743.04467960173
 21
7526.857263431657
 31
0.0
  0
LINE
  5
16FD9
330
747D
100
AcDbEntity
  8
細線
100
AcDbLine
 10
7743.04467960173
 20
7526.857263431657
 30
0.0
 11
7728.044679601727
 21
7526.857263431654
 31
0.0
  0
LINE
  5
16FDA
330
747D
100
AcDbEntity
  8
細線
100
AcDbLine
 10
7728.044679601727
 20
7519.857263431653
 30
0.0
 11
7728.044679601727
 21
7526.857263431654
 31
0.0
  0
LINE
  5
16FDB
330
747D
100
AcDbEntity
  8
細線
100
AcDbLine
 10
7728.044679601707
 20
7530.85726343165
 30
0.0
 11
7722.044679601707
 21
7530.85726343165
 31
0.0
  0
LINE
  5
16FDC
330
747D
100
AcDbEntity
  8
細線
100
AcDbLine
 10
7734.044679601732
 20
7530.157263431648
 30
0.0
 11
7734.044679601732
 21
7530.85726343165
 31
0.0
  0
ARC
  5
16FDD
330
747D
100
AcDbEntity
  8
細線
100
AcDbCircle
 10
7732.044679601731
 20
7530.157263431648
 30
0.0
 40
2.0
100
AcDbArc
 50
270.0
 51
0.0
  0
LINE
  5
16FDE
330
747D
100
AcDbEntity
  8
細線
100
AcDbLine
 10
7730.044679601732
 20
7528.157263431649
 30
0.0
 11
7732.044679601732
 21
7528.157263431649
 31
0.0
  0
LINE
  5
16FDF
330
747D
100
AcDbEntity
  8
細線
100
AcDbLine
 10
7728.044679601733
 20
7530.157263431648
 30
0.0
 11
7728.044679601733
 21
7530.85726343165
 31
0.0
  0
ARC
  5
16FE0
330
747D
100
AcDbEntity
  8
細線
100
AcDbCircle
 10
7730.044679601731
 20
7530.157263431648
 30
0.0
 40
2.0
100
AcDbArc
 50
180.0
 51
270.0
  0
LINE
  5
16FE1
330
747D
100
AcDbEntity
  8
細線
100
AcDbLine
 10
7717.044679601723
 20
7553.857263431649
 30
0.0
 11
7717.044679601723
 21
7560.857263431653
 31
0.0
  0
ARC
  5
16FE2
330
747D
100
AcDbEntity
  8
細線
100
AcDbCircle
 10
7529.589348762065
 20
7522.357263431729
 30
0.0
 40
6.0
100
AcDbArc
 50
204.6243183522153
 51
335.3756816477846
  0
LINE
  5
16FE3
330
747D
100
AcDbEntity
  8
細線
100
AcDbLine
 10
7559.589342262093
 20
7496.857263431827
 30
0.0
 11
7552.089342262099
 21
7519.857263431759
 31
0.0
  0
LINE
  5
16FE4
330
747D
100
AcDbEntity
  8
細線
100
AcDbLine
 10
7499.589342262094
 20
7496.857263431839
 30
0.0
 11
7507.0893422621
 21
7519.857263431759
 31
0.0
  0
ARC
  5
16FE5
330
747D
100
AcDbEntity
  8
細線
100
AcDbCircle
 10
7925.544686101708
 20
7556.357263431744
 30
0.0
 40
6.0
100
AcDbArc
 50
204.6243183522153
 51
335.3756816477846
  0
LINE
  5
16FE6
330
747D
100
AcDbEntity
  8
細線
100
AcDbLine
 10
7717.044679601723
 20
7560.857263431653
 30
0.0
 11
7702.044679601725
 21
7560.857263431651
 31
0.0
  0
LINE
  5
16FE7
330
747D
100
AcDbEntity
  8
細線
 48
50.0
100
AcDbLine
 10
7702.044679601721
 20
7543.857263431694
 30
0.0
 11
7292.044679601722
 21
7543.857263431625
 31
0.0
  0
LINE
  5
16FE8
330
747D
100
AcDbEntity
  8
細線
100
AcDbLine
 10
7728.044679601727
 20
7519.857263431719
 30
0.0
 11
7307.044679601723
 21
7519.857263431657
 31
0.0
  0
LINE
  5
16FE9
330
747D
100
AcDbEntity
  8
細線
100
AcDbLine
 10
7573.044679601723
 20
7496.857263431699
 30
0.0
 11
7283.032372952672
 21
7496.857263431657
 31
0.0
  0
LINE
  5
16FEA
330
747D
100
AcDbEntity
  8
細線
100
AcDbLine
 10
7292.044679601723
 20
7500.857263431609
 30
0.0
 11
7292.044679601723
 21
7496.857263431657
 31
0.0
  0
LINE
  5
16FEB
330
747D
100
AcDbEntity
  8
細線
100
AcDbLine
 10
7307.044679601723
 20
7526.857263431657
 30
0.0
 11
7307.044679601723
 21
7519.857263431657
 31
0.0
  0
LINE
  5
16FEC
330
747D
100
AcDbEntity
  8
細線
100
AcDbLine
 10
7307.044679601723
 20
7526.857263431657
 30
0.0
 11
7292.044679601723
 21
7526.857263431657
 31
0.0
  0
LINE
  5
16FED
330
747D
100
AcDbEntity
  8
細線
100
AcDbLine
 10
8134.04467960172
 20
7553.857263431766
 30
0.0
 11
7717.044679601723
 21
7553.857263431801
 31
0.0
  0
LINE
  5
16FEE
330
747D
100
AcDbEntity
  8
細線
 48
50.0
100
AcDbLine
 10
8542.044679601673
 20
7509.857263431683
 30
0.0
 11
7743.044679601727
 21
7509.857263431687
 31
0.0
  0
LINE
  5
16FEF
330
747D
100
AcDbEntity
  8
細線
100
AcDbLine
 10
8149.044679601727
 20
7530.857263431741
 30
0.0
 11
8030.544679601723
 21
7530.857263431741
 31
0.0
  0
LINE
  5
16FF0
330
747D
100
AcDbEntity
  8
細線
100
AcDbLine
 10
8119.044679601913
 20
7594.857263431683
 30
0.0
 11
8108.044679601727
 21
7594.857263431683
 31
0.0
  0
LINE
  5
16FF1
330
747D
100
AcDbEntity
  8
細線
100
AcDbLine
 10
8128.044679601726
 20
7558.85726343174
 30
0.0
 11
8128.044679601726
 21
7566.857263431741
 31
0.0
  0
LINE
  5
16FF2
330
747D
100
AcDbEntity
  8
細線
100
AcDbLine
 10
8128.044679601726
 20
7558.85726343174
 30
0.0
 11
8108.044679601727
 21
7558.85726343174
 31
0.0
  0
LINE
  5
16FF3
330
747D
100
AcDbEntity
  8
細線
100
AcDbLine
 10
8108.044679601727
 20
7558.85726343174
 30
0.0
 11
8108.044679601727
 21
7594.857263431737
 31
0.0
  0
LINE
  5
16FF4
330
747D
100
AcDbEntity
  8
細線
100
AcDbLine
 10
8149.044679601727
 20
7530.857263431741
 30
0.0
 11
8149.044679601734
 21
7560.857263431741
 31
0.0
  0
LINE
  5
16FF5
330
747D
100
AcDbEntity
  8
細線
100
AcDbLine
 10
8149.044679601727
 20
7560.857263431741
 30
0.0
 11
8134.044679601723
 21
7560.857263431737
 31
0.0
  0
LINE
  5
16FF6
330
747D
100
AcDbEntity
  8
細線
100
AcDbLine
 10
8134.044679601721
 20
7553.857263431737
 30
0.0
 11
8134.044679601723
 21
7560.857263431737
 31
0.0
  0
LINE
  5
16FF7
330
747D
100
AcDbEntity
  8
細線
100
AcDbLine
 10
8134.044679601727
 20
7566.857263431741
 30
0.0
 11
8128.044679601726
 21
7566.857263431741
 31
0.0
  0
LINE
  5
16FF8
330
747D
100
AcDbEntity
  8
細線
100
AcDbLine
 10
8236.544679601728
 20
7566.85726343173
 30
0.0
 11
8238.64306406341
 21
7571.357263431703
 31
0.0
  0
LINE
  5
16FF9
330
747D
100
AcDbEntity
  8
細線
100
AcDbLine
 10
8236.544679601731
 20
7566.857263431737
 30
0.0
 11
8140.044679601729
 21
7566.857263431741
 31
0.0
  0
ARC
  5
16FFA
330
747D
100
AcDbEntity
  8
細線
100
AcDbCircle
 10
8136.044679601727
 20
7566.157263431739
 30
0.0
 40
2.0
100
AcDbArc
 50
180.0
 51
270.0
  0
LINE
  5
16FFB
330
747D
100
AcDbEntity
  8
細線
100
AcDbLine
 10
8134.044679601727
 20
7566.157263431742
 30
0.0
 11
8134.044679601727
 21
7566.857263431741
 31
0.0
  0
LINE
  5
16FFC
330
747D
100
AcDbEntity
  8
細線
100
AcDbLine
 10
8136.044679601727
 20
7564.157263431741
 30
0.0
 11
8138.044679601726
 21
7564.157263431741
 31
0.0
  0
ARC
  5
16FFD
330
747D
100
AcDbEntity
  8
細線
100
AcDbCircle
 10
8138.044679601726
 20
7566.157263431739
 30
0.0
 40
2.0
100
AcDbArc
 50
270.0
 51
0.0
  0
LINE
  5
16FFE
330
747D
100
AcDbEntity
  8
細線
100
AcDbLine
 10
8140.044679601727
 20
7566.157263431742
 30
0.0
 11
8140.044679601727
 21
7566.857263431741
 31
0.0
  0
LINE
  5
16FFF
330
747D
100
AcDbEntity
  8
細線
 48
50.0
100
AcDbLine
 10
8542.044679601673
 20
7543.857263431688
 30
0.0
 11
8149.044679601731
 21
7543.857263431688
 31
0.0
  0
LINE
  5
17000
330
747D
100
AcDbEntity
  8
細線
100
AcDbLine
 10
8376.544679601739
 20
7566.857263431723
 30
0.0
 11
8378.876217892507
 21
7571.857263431708
 31
0.0
  0
LINE
  5
17001
330
747D
100
AcDbEntity
  8
細線
100
AcDbLine
 10
8306.544679601721
 20
7566.857263431711
 30
0.0
 11
8304.44629514003
 21
7571.357263431703
 31
0.0
  0
LINE
  5
17002
330
747D
100
AcDbEntity
  8
細線
100
AcDbLine
 10
8376.544679601732
 20
7566.857263431711
 30
0.0
 11
8306.544679601721
 21
7566.857263431711
 31
0.0
  0
LINE
  5
17003
330
747D
100
AcDbEntity
  8
細線
100
AcDbLine
 10
8540.044679601674
 20
7566.857263431683
 30
0.0
 11
8446.544679601739
 21
7566.857263431685
 31
0.0
  0
LINE
  5
17004
330
747D
100
AcDbEntity
  8
細線
100
AcDbLine
 10
8540.044679601674
 20
7548.857263431681
 30
0.0
 11
8540.044679601674
 21
7566.85726343168
 31
0.0
  0
LINE
  5
17005
330
747D
100
AcDbEntity
  8
細線
 48
50.0
100
AcDbLine
 10
8540.044679601674
 20
7548.857263431681
 30
0.0
 11
8542.044679601673
 21
7548.857263431681
 31
0.0
  0
LINE
  5
17006
330
747D
100
AcDbEntity
  8
細線
100
AcDbLine
 10
8446.544679601732
 20
7566.857263431704
 30
0.0
 11
8444.446295140036
 21
7571.357263431703
 31
0.0
  0
DIMENSION
  5
17007
330
747D
100
AcDbEntity
  8
寸法
100
AcDbDimension
  2
*D27
 10
7292.044679601724
 20
6966.688098471208
 30
0.0
 11
7635.044679601725
 21
6966.688098471208
 31
0.0
 70
   160
  1
有効開口部間口\P<>
 71
     5
 42
686.0
  3
INABA_S40G
100
AcDbAlignedDimension
 13
7978.044679601724
 23
7493.857263431685
 33
0.0
 14
7292.044679601724
 24
7493.85726343161
 34
0.0
100
AcDbRotatedDimension
1001
ACAD
1000
DSTYLE
1002
{
1002
}
  0
LINE
  5
17008
330
747D
100
AcDbEntity
  8
寸法
 48
50.0
100
AcDbLine
 10
7665.281277701613
 20
7424.184861045192
 30
0.0
 11
7884.433217877337
 21
7424.184861045192
 31
0.0
  0
LINE
  5
17009
330
747D
100
AcDbEntity
  8
寸法
 48
50.0
100
AcDbLine
 10
7884.433217877337
 20
7424.184861045192
 30
0.0
 11
7795.148999281916
 21
7448.108495314681
 31
0.0
  0
LINE
  5
1700A
330
747D
100
AcDbEntity
  8
寸法
 48
50.0
100
AcDbLine
 10
7795.148999281916
 20
7448.108495314681
 30
0.0
 11
7795.148999281916
 21
7394.444860732889
 31
0.0
  0
LINE
  5
1700B
330
747D
100
AcDbEntity
  8
寸法
 48
50.0
100
AcDbLine
 10
7464.577457094955
 20
7390.962904559856
 30
0.0
 11
7515.983465005058
 21
7390.962904559856
 31
0.0
  0
LINE
  5
1700C
330
747D
100
AcDbEntity
  8
寸法
 48
50.0
100
AcDbLine
 10
7515.983465005058
 20
7390.962904559856
 30
0.0
 11
7515.983465005058
 21
7422.273063212021
 31
0.0
  0
LINE
  5
1700D
330
747D
100
AcDbEntity
  8
寸法
 48
50.0
100
AcDbLine
 10
7515.983465005058
 20
7422.273063212021
 30
0.0
 11
7545.744796996483
 21
7422.273063212021
 31
0.0
  0
LINE
  5
1700E
330
747D
100
AcDbEntity
  8
寸法
 48
50.0
100
AcDbLine
 10
7545.744796996483
 20
7422.273063212021
 30
0.0
 11
7490.280461050009
 21
7459.852514140634
 31
0.0
  0
LINE
  5
1700F
330
747D
100
AcDbEntity
  8
寸法
 48
50.0
100
AcDbLine
 10
7434.816125103532
 20
7422.273063212021
 30
0.0
 11
7490.280461050007
 21
7459.852514140634
 31
0.0
  0
LINE
  5
17010
330
747D
100
AcDbEntity
  8
寸法
 48
50.0
100
AcDbLine
 10
7464.577457094955
 20
7422.273063212021
 30
0.0
 11
7434.816125103532
 21
7422.273063212021
 31
0.0
  0
LINE
  5
17011
330
747D
100
AcDbEntity
  8
寸法
 48
50.0
100
AcDbLine
 10
7464.577457094955
 20
7390.962904559856
 30
0.0
 11
7464.577457094955
 21
7422.273063212021
 31
0.0
  0
LINE
  5
17012
330
747D
100
AcDbEntity
  8
寸法
 48
50.0
100
AcDbLine
 10
7515.983465005058
 20
7390.962904559856
 30
0.0
 11
7464.577457094955
 21
7390.962904559856
 31
0.0
  0
LINE
  5
17028
330
747D
100
AcDbEntity
  8
細線
100
AcDbLine
 10
5359.192136096391
 20
7530.857263431738
 30
0.0
 11
5290.544679601723
 21
7530.857263431737
 31
0.0
  0
LINE
  5
17029
330
747D
100
AcDbEntity
  8
細線
100
AcDbLine
 10
5355.136615540091
 20
7553.857263431766
 30
0.0
 11
4977.044679601723
 21
7553.857263431797
 31
0.0
  0
LINE
  5
1702A
330
747D
100
AcDbEntity
  8
細線
 48
50.0
100
AcDbLine
 10
5362.895002691279
 20
7509.857263431682
 30
0.0
 11
5003.044679601726
 21
7509.857263431682
 31
0.0
  0
MTEXT
  5
1702B
330
747D
100
AcDbEntity
  8
寸法
 62
     7
 48
50.0
100
AcDbMText
 10
5466.333355002088
 20
8219.278282745593
 30
0.0
 40
96.0
 41
0.0
 71
     5
 72
     1
  1
棚 2段
  7
STYLE1
 11
0.0000000000000001
 21
1.0
 31
0.0
 73
     1
 44
1.0
1001
ACAD
1000
MTEXTBEGIN
1070
    73
1070
     1
1070
    44
1040
1.0
1070
    74
1070
     0
1000
MTEXTEND
  0
DIMENSION
  5
1702C
330
747D
100
AcDbEntity
  8
寸法
 48
50.0
100
AcDbDimension
  2
*D28
 10
8988.316502717921
 20
7462.763717018723
 30
0.0
 11
8988.316502717919
 21
8139.686845637509
 31
0.0
 70
   160
 71
     5
 42
1260.000000000004
  3
INABA_S40G
100
AcDbAlignedDimension
 13
8569.044679601732
 23
8835.107263431778
 33
0.0
 14
8569.044679601949
 24
7575.107263431774
 34
0.0
 50
90.0
100
AcDbRotatedDimension
  0
MTEXT
  5
17054
330
747D
100
AcDbEntity
  8
寸法
 62
     7
 48
50.0
100
AcDbMText
 10
6836.333355002117
 20
8219.278282745682
 30
0.0
 40
96.0
 41
0.0
 71
     5
 72
     1
  1
棚 2段
  7
STYLE1
 11
0.0000000000000001
 21
1.0
 31
0.0
 73
     1
 44
1.0
1001
ACAD
1000
MTEXTBEGIN
1070
    73
1070
     1
1070
    44
1040
1.0
1070
    74
1070
     0
1000
MTEXTEND
  0
MTEXT
  5
17055
330
747D
100
AcDbEntity
  8
寸法
 62
     7
 48
50.0
100
AcDbMText
 10
8206.312406678556
 20
8219.219452870031
 30
0.0
 40
96.0
 41
0.0
 71
     5
 72
     1
  1
棚 2段
  7
STYLE1
 11
0.0000000000000001
 21
1.0
 31
0.0
 73
     1
 44
1.0
1001
ACAD
1000
MTEXTBEGIN
1070
    73
1070
     1
1070
    44
1040
1.0
1070
    74
1070
     0
1000
MTEXTEND
  0
LINE
  5
17A37
330
747D
100
AcDbEntity
  8
細線
 48
50.0
100
AcDbLine
 10
4475.044679601707
 20
4987.40340383819
 30
0.0
 11
4475.044679601707
 21
4846.403403838188
 31
0.0
  0
ARC
  5
17A38
330
747D
100
AcDbEntity
  8
部品1
100
AcDbCircle
 10
4449.453100708133
 20
4980.40340383819
 30
0.0
 40
7.0
100
AcDbArc
 50
90.0
 51
183.2473427903317
  0
ARC
  5
17A39
330
747D
100
AcDbEntity
  8
部品1
100
AcDbCircle
 10
4462.668424169171
 20
4853.403403838192
 30
0.0
 40
7.0
100
AcDbArc
 50
183.2473427903317
 51
270.0
  0
ARC
  5
17A3A
330
747D
100
AcDbEntity
  8
部品1
 48
50.0
100
AcDbCircle
 10
4444.296613958498
 20
4960.070402999877
 30
0.0
 40
0.7
100
AcDbArc
 50
183.2473427903838
 51
262.3418727924282
  0
ARC
  5
17A3B
330
747D
100
AcDbEntity
  8
部品1
 48
50.0
100
AcDbCircle
 10
4452.532644483335
 20
4867.870402999873
 30
0.0
 40
0.7
100
AcDbArc
 50
183.2473427902797
 51
262.3418727924282
  0
ARC
  5
17A3C
330
747D
100
AcDbEntity
  8
部品1
 48
50.0
100
AcDbCircle
 10
4452.039575374774
 20
4864.203403838189
 30
0.0
 40
3.0
100
AcDbArc
 50
3.247342790331777
 51
82.34187279284832
  0
ARC
  5
17A3D
330
747D
100
AcDbEntity
  8
部品1
 48
50.0
100
AcDbCircle
 10
4443.80354484993
 20
4956.40340383819
 30
0.0
 40
3.0
100
AcDbArc
 50
3.247342790331777
 51
82.34187279284832
  0
LINE
  5
17A3E
330
747D
100
AcDbEntity
  8
部品1
100
AcDbLine
 10
4446.798727746116
 20
4956.573343293293
 30
0.0
 11
4451.833768474223
 21
4867.83075046035
 31
0.0
  0
LINE
  5
17A3F
330
747D
100
AcDbEntity
  8
部品1
100
AcDbLine
 10
4455.03475827096
 20
4864.373343293292
 30
0.0
 11
4455.679664078076
 21
4853.00687844295
 31
0.0
  0
LINE
  5
17A40
330
747D
100
AcDbEntity
  8
部品1
100
AcDbLine
 10
4442.464340617038
 20
4980.006878442948
 30
0.0
 11
4443.597737949387
 21
4960.030750460351
 31
0.0
  0
DIMENSION
  5
17A41
330
747D
100
AcDbEntity
  8
寸法
 48
50.0
100
AcDbDimension
  2
*D32
 10
4442.044679601707
 20
5199.944989096429
 30
0.0
 11
4128.55939822746
 21
5199.944989096429
 31
0.0
 70
   160
 71
     5
 42
50.0
  3
INABA_S40G
100
AcDbAlignedDimension
 13
4492.044679601707
 23
4987.403403838192
 33
0.0
 14
4442.044679601707
 24
4987.40340383819
 34
0.0
100
AcDbRotatedDimension
1001
ACAD
1000
DSTYLE
1002
{
1002
}
  0
DIMENSION
  5
17A42
330
747D
100
AcDbEntity
  8
寸法
 48
50.0
100
AcDbDimension
  2
*D31
 10
8652.044679601711
 20
5422.901967534279
 30
0.0
 11
6547.04467960171
 21
5422.901967534279
 31
0.0
 70
   160
  1
N x 1370 +100
 71
     5
 42
4210.000000000003
  3
INABA_S40G
100
AcDbAlignedDimension
 13
4442.044679601707
 23
4987.40340383819
 33
0.0
 14
8652.044679601711
 24
4987.403403838185
 34
0.0
100
AcDbRotatedDimension
  0
DIMENSION
  5
17A43
330
747D
100
AcDbEntity
  8
寸法
 48
50.0
100
AcDbDimension
  2
*D30
 10
4492.044679601707
 20
5199.944989096429
 30
0.0
 11
6547.04467960171
 21
5199.944989096429
 31
0.0
 70
   160
  1
柱外寸法 N x 1370
 71
     5
 42
4110.000000000003
  3
INABA_S40G
100
AcDbAlignedDimension
 13
8602.044679601711
 23
4987.403403838187
 33
0.0
 14
4492.044679601707
 24
4987.403403838192
 34
0.0
100
AcDbRotatedDimension
  0
LINE
  5
17A44
330
747D
100
AcDbEntity
  8
部品1
 48
50.0
100
AcDbLine
 10
8644.636258495278
 20
4987.403403838187
 30
0.0
 11
5037.979215236555
 21
4987.403403838187
 31
0.0
  0
LINE
  5
17A45
330
747D
100
AcDbEntity
  8
細線
 48
50.0
100
AcDbLine
 10
8649.886028590024
 20
4959.376646401686
 30
0.0
 11
5042.921088754307
 21
4959.376646402116
 31
0.0
  0
LINE
  5
17A46
330
747D
100
AcDbEntity
  8
細線
 48
50.0
100
AcDbLine
 10
8641.649998065247
 20
4867.176646401691
 30
0.0
 11
5059.178436375627
 21
4867.176646402113
 31
0.0
  0
LINE
  5
17A47
330
747D
100
AcDbEntity
  8
部品1
 48
50.0
100
AcDbLine
 10
8631.420935034245
 20
4846.403403838181
 30
0.0
 11
5062.841319516448
 21
4846.403403838186
 31
0.0
  0
DIMENSION
  5
17A8B
330
747D
100
AcDbEntity
  8
寸法
 48
50.0
100
AcDbDimension
  2
*D33
 10
8602.044679601711
 20
5199.944989096426
 30
0.0
 11
8965.529960975947
 21
5199.944989096426
 31
0.0
 70
   160
 71
     5
 42
50.0
  3
INABA_S40G
100
AcDbAlignedDimension
 13
8652.044679601711
 23
4987.403403838185
 33
0.0
 14
8602.044679601711
 24
4987.403403838187
 34
0.0
100
AcDbRotatedDimension
  0
ARC
  5
17A8C
330
747D
100
AcDbEntity
  8
部品1
 48
50.0
100
AcDbCircle
 10
8649.792745244925
 20
4960.070402999872
 30
0.0
 40
0.7
100
AcDbArc
 50
277.6581272075718
 51
356.7526572096162
  0
ARC
  5
17A8D
330
747D
100
AcDbEntity
  8
部品1
 48
50.0
100
AcDbCircle
 10
8650.285814353486
 20
4956.403403838187
 30
0.0
 40
3.0
100
AcDbArc
 50
97.65812720715167
 51
176.7526572096682
  0
LINE
  5
17A8E
330
747D
100
AcDbEntity
  8
部品1
100
AcDbLine
 10
8651.625018586377
 20
4980.006878442946
 30
0.0
 11
8650.491621254031
 21
4960.030750460346
 31
0.0
  0
ARC
  5
17A8F
330
747D
100
AcDbEntity
  8
部品1
100
AcDbCircle
 10
8631.420935034245
 20
4853.403403838187
 30
0.0
 40
7.0
100
AcDbArc
 50
270.0
 51
356.7526572096682
  0
ARC
  5
17A90
330
747D
100
AcDbEntity
  8
部品1
 48
50.0
100
AcDbCircle
 10
8641.55671472008
 20
4867.870402999868
 30
0.0
 40
0.7
100
AcDbArc
 50
277.6581272075718
 51
356.7526572097202
  0
ARC
  5
17A91
330
747D
100
AcDbEntity
  8
部品1
 48
50.0
100
AcDbCircle
 10
8642.049783828641
 20
4864.203403838184
 30
0.0
 40
3.0
100
AcDbArc
 50
97.65812720715167
 51
176.7526572096682
  0
LINE
  5
17A92
330
747D
100
AcDbEntity
  8
部品1
100
AcDbLine
 10
8639.054600932455
 20
4864.373343293287
 30
0.0
 11
8638.409695125345
 21
4853.006878442948
 31
0.0
  0
LINE
  5
17A93
330
747D
100
AcDbEntity
  8
細線
 48
50.0
100
AcDbLine
 10
8619.044679601712
 20
4987.403403838185
 30
0.0
 11
8619.044679601712
 21
4846.403403838185
 31
0.0
  0
ARC
  5
17A94
330
747D
100
AcDbEntity
  8
部品1
100
AcDbCircle
 10
8644.636258495278
 20
4980.403403838185
 30
0.0
 40
7.0
100
AcDbArc
 50
356.7526572096682
 51
90.0
  0
LINE
  5
17A95
330
747D
100
AcDbEntity
  8
部品1
100
AcDbLine
 10
8647.2906314573
 20
4956.573343293289
 30
0.0
 11
8642.255590729188
 21
4867.830750460345
 31
0.0
  0
LINE
  5
17AE7
330
747D
100
AcDbEntity
  8
細線
 48
50.0
100
AcDbLine
 10
5012.458290397733
 20
4959.376646402119
 30
0.0
 11
4444.203330612125
 21
4959.376646402185
 31
0.0
  0
LINE
  5
17AE8
330
747D
100
AcDbEntity
  8
部品1
 48
50.0
100
AcDbLine
 10
5007.516416879983
 20
4987.403403838185
 30
0.0
 11
4449.453100708133
 21
4987.403403838186
 31
0.0
  0
LINE
  5
17AE9
330
747D
100
AcDbEntity
  8
細線
 48
50.0
100
AcDbLine
 10
5028.715638019054
 20
4867.176646402117
 30
0.0
 11
4452.439361136954
 21
4867.176646402185
 31
0.0
  0
LINE
  5
17AEA
330
747D
100
AcDbEntity
  8
部品1
 48
50.0
100
AcDbLine
 10
5032.378521159877
 20
4846.403403838187
 30
0.0
 11
4462.668424169171
 21
4846.403403838188
 31
0.0
  0
LINE
  5
17AEB
330
747D
100
AcDbEntity
  8
部品1
100
AcDbLine
 10
5003.04467960171
 20
4744.403403838183
 30
0.0
 11
5003.04467960171
 21
3907.441129929107
 31
0.0
  0
LINE
  5
17AEC
330
747D
100
AcDbEntity
  8
部品1
100
AcDbLine
 10
4713.044679601707
 20
4744.403403838187
 30
0.0
 11
4713.04467960171
 21
2961.403403838189
 31
0.0
  0
LINE
  5
17AED
330
747D
100
AcDbEntity
  8
部品1
100
AcDbLine
 10
4663.044679601707
 20
4744.403403838187
 30
0.0
 11
4663.04467960171
 21
2961.403403838189
 31
0.0
  0
LINE
  5
17AEE
330
747D
100
AcDbEntity
  8
細線
100
AcDbLine
 10
4705.044679601708
 20
4744.403403838187
 30
0.0
 11
4705.04467960171
 21
2961.403403838189
 31
0.0
  0
LINE
  5
17AEF
330
747D
100
AcDbEntity
  8
細線
100
AcDbLine
 10
4671.044679601708
 20
4744.403403838187
 30
0.0
 11
4671.044679601709
 21
2961.403403838189
 31
0.0
  0
LINE
  5
17AF0
330
747D
100
AcDbEntity
  8
細線
100
AcDbLine
 10
5699.044679601708
 20
4744.403403838187
 30
0.0
 11
5699.044679601708
 21
2968.903403838205
 31
0.0
  0
LINE
  5
17AF1
330
747D
100
AcDbEntity
  8
細線
100
AcDbLine
 10
5629.044679601708
 20
4744.403403838187
 30
0.0
 11
5629.044679601708
 21
2968.903403838205
 31
0.0
  0
LINE
  5
17AF2
330
747D
100
AcDbEntity
  8
細線
100
AcDbLine
 10
5559.044679601708
 20
4744.403403838187
 30
0.0
 11
5559.044679601708
 21
2968.903403838205
 31
0.0
  0
LINE
  5
17AF3
330
747D
100
AcDbEntity
  8
細線
100
AcDbLine
 10
5489.044679601708
 20
4744.403403838187
 30
0.0
 11
5489.044679601708
 21
2968.903403838205
 31
0.0
  0
LINE
  5
17AF7
330
747D
100
AcDbEntity
  8
部品1
 48
50.0
100
AcDbLine
 10
4587.044679601707
 20
3917.903403838194
 30
0.0
 11
4640.044679601707
 21
3917.903403838194
 31
0.0
  0
LINE
  5
17B11
330
747D
100
AcDbEntity
  8
細線
100
AcDbLine
 10
4903.044679601709
 20
4744.403403838183
 30
0.0
 11
4903.044679601709
 21
2961.403403838191
 31
0.0
  0
LINE
  5
17B12
330
747D
100
AcDbEntity
  8
細線
100
AcDbLine
 10
4833.04467960171
 20
4744.403403838183
 30
0.0
 11
4833.04467960171
 21
2961.403403838191
 31
0.0
  0
LINE
  5
17B13
330
747D
100
AcDbEntity
  8
部品1
100
AcDbLine
 10
5409.044679601707
 20
4744.403403838187
 30
0.0
 11
5409.044679601707
 21
4101.765483812178
 31
0.0
  0
LINE
  5
17B14
330
747D
100
AcDbEntity
  8
細線
100
AcDbLine
 10
5290.544679601708
 20
4744.40340383819
 30
0.0
 11
5290.544679601708
 21
4112.132890439999
 31
0.0
  0
LINE
  5
17B15
330
747D
100
AcDbEntity
  8
細線
100
AcDbLine
 10
5220.544679601708
 20
4744.40340383819
 30
0.0
 11
5220.544679601707
 21
4118.257096886814
 31
0.0
  0
LINE
  5
17B16
330
747D
100
AcDbEntity
  8
細線
100
AcDbLine
 10
5150.544679601708
 20
4744.40340383819
 30
0.0
 11
5150.544679601708
 21
4349.012932267275
 31
0.0
  0
LINE
  5
17B17
330
747D
100
AcDbEntity
  8
細線
100
AcDbLine
 10
5080.544679601708
 20
4573.239545146202
 30
0.0
 11
5080.544679601708
 21
3943.579973436119
 31
0.0
  0
LINE
  5
17B18
330
747D
100
AcDbEntity
  8
細線
100
AcDbLine
 10
4552.044679601707
 20
4744.403403838187
 30
0.0
 11
5050.363873192141
 21
4744.403403838186
 31
0.0
  0
LINE
  5
17B19
330
747D
100
AcDbEntity
  8
部品1
100
AcDbLine
 10
5003.044679601708
 20
2968.903403838196
 30
0.0
 11
5363.432427440017
 21
2968.9034038382
 31
0.0
  0
LINE
  5
17B1A
330
747D
100
AcDbEntity
  8
部品1
100
AcDbLine
 10
4552.044679601707
 20
2961.403403838187
 30
0.0
 11
5003.04467960171
 21
2961.403403838191
 31
0.0
  0
LINE
  5
17B1B
330
747D
100
AcDbEntity
  8
細線
100
AcDbLine
 10
4867.044679601708
 20
4811.903403838183
 30
0.0
 11
4867.044679601708
 21
4788.903403838183
 31
0.0
  0
LINE
  5
17B1C
330
747D
100
AcDbEntity
  8
細線
100
AcDbLine
 10
4941.044679601708
 20
4799.903403838183
 30
0.0
 11
4867.044679601708
 21
4799.903403838183
 31
0.0
  0
LINE
  5
17B1D
330
747D
100
AcDbEntity
  8
細線
100
AcDbLine
 10
4941.044679601708
 20
4793.903403838183
 30
0.0
 11
4867.044679601708
 21
4793.903403838183
 31
0.0
  0
LINE
  5
17B1E
330
747D
100
AcDbEntity
  8
細線
100
AcDbLine
 10
4941.044679601708
 20
4805.903403838183
 30
0.0
 11
4867.044679601708
 21
4805.903403838183
 31
0.0
  0
LINE
  5
17B1F
330
747D
100
AcDbEntity
  8
細線
100
AcDbLine
 10
4793.044679601708
 20
4805.903403838183
 30
0.0
 11
4862.044679601708
 21
4805.903403838183
 31
0.0
  0
LINE
  5
17B20
330
747D
100
AcDbEntity
  8
細線
100
AcDbLine
 10
4793.044679601708
 20
4793.903403838183
 30
0.0
 11
4867.044679601708
 21
4793.903403838183
 31
0.0
  0
LINE
  5
17B21
330
747D
100
AcDbEntity
  8
細線
100
AcDbLine
 10
4793.044679601708
 20
4799.903403838183
 30
0.0
 11
4867.044679601708
 21
4799.903403838183
 31
0.0
  0
LINE
  5
17B22
330
747D
100
AcDbEntity
  8
細線
100
AcDbLine
 10
4793.044679601708
 20
4805.903403838183
 30
0.0
 11
4867.044679601708
 21
4805.903403838183
 31
0.0
  0
LINE
  5
17B23
330
747D
100
AcDbEntity
  8
部品1
 48
0.01
100
AcDbLine
 10
4955.044679601708
 20
4818.403403838183
 30
0.0
 11
4779.044679601708
 21
4818.403403838183
 31
0.0
  0
LINE
  5
17B24
330
747D
100
AcDbEntity
  8
部品1
 48
0.01
100
AcDbLine
 10
4777.044679601707
 20
4816.403403838183
 30
0.0
 11
4777.044679601707
 21
4784.903403838183
 31
0.0
  0
LINE
  5
17B25
330
747D
100
AcDbEntity
  8
部品1
 48
0.01
100
AcDbLine
 10
4779.044679601708
 20
4782.903403838183
 30
0.0
 11
4955.044679601708
 21
4782.903403838183
 31
0.0
  0
LINE
  5
17B26
330
747D
100
AcDbEntity
  8
部品1
 48
0.01
100
AcDbLine
 10
4957.044679601708
 20
4784.903403838183
 30
0.0
 11
4957.044679601708
 21
4816.403403838183
 31
0.0
  0
LINE
  5
17B27
330
747D
100
AcDbEntity
  8
細線
100
AcDbLine
 10
4793.044679601708
 20
4811.903403838183
 30
0.0
 11
4793.044679601708
 21
4788.903403838183
 31
0.0
  0
LINE
  5
17B28
330
747D
100
AcDbEntity
  8
細線
100
AcDbLine
 10
4941.044679601708
 20
4788.903403838183
 30
0.0
 11
4941.044679601708
 21
4811.903403838183
 31
0.0
  0
LINE
  5
17B29
330
747D
100
AcDbEntity
  8
細線
100
AcDbLine
 10
4941.044679601708
 20
4811.903403838183
 30
0.0
 11
4867.044679601708
 21
4811.903403838183
 31
0.0
  0
LINE
  5
17B2A
330
747D
100
AcDbEntity
  8
細線
100
AcDbLine
 10
4793.044679601708
 20
4788.903403838183
 30
0.0
 11
4867.044679601708
 21
4788.903403838183
 31
0.0
  0
LINE
  5
17B2B
330
747D
100
AcDbEntity
  8
細線
100
AcDbLine
 10
4867.044679601708
 20
4811.903403838183
 30
0.0
 11
4793.044679601708
 21
4811.903403838183
 31
0.0
  0
LINE
  5
17B2C
330
747D
100
AcDbEntity
  8
細線
100
AcDbLine
 10
4867.044679601708
 20
4788.903403838183
 30
0.0
 11
4941.044679601708
 21
4788.903403838183
 31
0.0
  0
ARC
  5
17B2D
330
747D
100
AcDbEntity
  8
部品1
 48
0.01
100
AcDbCircle
 10
4779.044679601708
 20
4816.403403838183
 30
0.0
 40
2.0
100
AcDbArc
 50
90.0
 51
180.0
  0
ARC
  5
17B2E
330
747D
100
AcDbEntity
  8
部品1
 48
0.01
100
AcDbCircle
 10
4779.044679601708
 20
4784.903403838183
 30
0.0
 40
2.0
100
AcDbArc
 50
180.0
 51
270.0
  0
ARC
  5
17B2F
330
747D
100
AcDbEntity
  8
部品1
 48
0.01
100
AcDbCircle
 10
4955.044679601708
 20
4816.403403838183
 30
0.0
 40
2.0
100
AcDbArc
 50
0.0
 51
90.0
  0
ARC
  5
17B30
330
747D
100
AcDbEntity
  8
部品1
 48
0.01
100
AcDbCircle
 10
4955.044679601708
 20
4784.903403838183
 30
0.0
 40
2.0
100
AcDbArc
 50
270.0
 51
0.0
  0
ARC
  5
17B31
330
747D
100
AcDbEntity
  8
部品1
 48
0.01
100
AcDbCircle
 10
5399.044679601708
 20
4784.903403838183
 30
0.0
 40
2.0
100
AcDbArc
 50
180.0
 51
270.0
  0
ARC
  5
17B32
330
747D
100
AcDbEntity
  8
部品1
 48
0.01
100
AcDbCircle
 10
5399.044679601708
 20
4816.403403838183
 30
0.0
 40
2.0
100
AcDbArc
 50
90.0
 51
180.0
  0
ARC
  5
17B33
330
747D
100
AcDbEntity
  8
部品1
 48
0.01
100
AcDbCircle
 10
5575.044679601708
 20
4784.903403838183
 30
0.0
 40
2.0
100
AcDbArc
 50
270.0
 51
0.0
  0
ARC
  5
17B34
330
747D
100
AcDbEntity
  8
部品1
 48
0.01
100
AcDbCircle
 10
5575.044679601708
 20
4816.403403838183
 30
0.0
 40
2.0
100
AcDbArc
 50
0.0
 51
90.0
  0
LINE
  5
17B35
330
747D
100
AcDbEntity
  8
細線
100
AcDbLine
 10
5487.044679601708
 20
4788.903403838183
 30
0.0
 11
5413.044679601707
 21
4788.903403838183
 31
0.0
  0
LINE
  5
17B36
330
747D
100
AcDbEntity
  8
細線
100
AcDbLine
 10
5487.044679601708
 20
4811.903403838183
 30
0.0
 11
5561.044679601708
 21
4811.903403838183
 31
0.0
  0
LINE
  5
17B37
330
747D
100
AcDbEntity
  8
細線
100
AcDbLine
 10
5561.044679601708
 20
4788.903403838183
 30
0.0
 11
5487.044679601708
 21
4788.903403838183
 31
0.0
  0
LINE
  5
17B38
330
747D
100
AcDbEntity
  8
細線
100
AcDbLine
 10
5413.044679601707
 20
4811.903403838183
 30
0.0
 11
5487.044679601708
 21
4811.903403838183
 31
0.0
  0
LINE
  5
17B39
330
747D
100
AcDbEntity
  8
細線
100
AcDbLine
 10
5413.044679601707
 20
4788.903403838183
 30
0.0
 11
5413.044679601707
 21
4811.903403838183
 31
0.0
  0
LINE
  5
17B3A
330
747D
100
AcDbEntity
  8
細線
100
AcDbLine
 10
5561.044679601708
 20
4811.903403838183
 30
0.0
 11
5561.044679601708
 21
4788.903403838183
 31
0.0
  0
LINE
  5
17B3B
330
747D
100
AcDbEntity
  8
部品1
 48
0.01
100
AcDbLine
 10
5397.044679601708
 20
4784.903403838183
 30
0.0
 11
5397.044679601708
 21
4816.403403838183
 31
0.0
  0
LINE
  5
17B3C
330
747D
100
AcDbEntity
  8
部品1
 48
0.01
100
AcDbLine
 10
5575.044679601708
 20
4782.903403838183
 30
0.0
 11
5399.044679601708
 21
4782.903403838183
 31
0.0
  0
LINE
  5
17B3D
330
747D
100
AcDbEntity
  8
部品1
 48
0.01
100
AcDbLine
 10
5577.044679601708
 20
4816.403403838183
 30
0.0
 11
5577.044679601708
 21
4784.903403838183
 31
0.0
  0
LINE
  5
17B3E
330
747D
100
AcDbEntity
  8
部品1
 48
0.01
100
AcDbLine
 10
5399.044679601708
 20
4818.403403838183
 30
0.0
 11
5575.044679601708
 21
4818.403403838183
 31
0.0
  0
LINE
  5
17B3F
330
747D
100
AcDbEntity
  8
細線
100
AcDbLine
 10
5561.044679601708
 20
4805.903403838183
 30
0.0
 11
5487.044679601708
 21
4805.903403838183
 31
0.0
  0
LINE
  5
17B40
330
747D
100
AcDbEntity
  8
細線
100
AcDbLine
 10
5561.044679601708
 20
4799.903403838183
 30
0.0
 11
5487.044679601708
 21
4799.903403838183
 31
0.0
  0
LINE
  5
17B41
330
747D
100
AcDbEntity
  8
細線
100
AcDbLine
 10
5561.044679601708
 20
4793.903403838183
 30
0.0
 11
5487.044679601708
 21
4793.903403838183
 31
0.0
  0
LINE
  5
17B42
330
747D
100
AcDbEntity
  8
細線
100
AcDbLine
 10
5561.044679601708
 20
4805.903403838183
 30
0.0
 11
5492.044679601708
 21
4805.903403838183
 31
0.0
  0
LINE
  5
17B43
330
747D
100
AcDbEntity
  8
細線
100
AcDbLine
 10
5413.044679601707
 20
4805.903403838183
 30
0.0
 11
5487.044679601708
 21
4805.903403838183
 31
0.0
  0
LINE
  5
17B44
330
747D
100
AcDbEntity
  8
細線
100
AcDbLine
 10
5413.044679601707
 20
4793.903403838183
 30
0.0
 11
5487.044679601708
 21
4793.903403838183
 31
0.0
  0
LINE
  5
17B45
330
747D
100
AcDbEntity
  8
細線
100
AcDbLine
 10
5413.044679601707
 20
4799.903403838183
 30
0.0
 11
5487.044679601708
 21
4799.903403838183
 31
0.0
  0
LINE
  5
17B46
330
747D
100
AcDbEntity
  8
細線
100
AcDbLine
 10
5487.044679601708
 20
4811.903403838183
 30
0.0
 11
5487.044679601708
 21
4788.903403838183
 31
0.0
  0
LINE
  5
17B47
330
747D
100
AcDbEntity
  8
部品1
100
AcDbLine
 10
6373.04467960171
 20
4744.403403838183
 30
0.0
 11
6373.04467960171
 21
2961.403403838191
 31
0.0
  0
LINE
  5
17B48
330
747D
100
AcDbEntity
  8
部品1
100
AcDbLine
 10
6083.044679601708
 20
4744.403403838187
 30
0.0
 11
6083.04467960171
 21
2961.403403838189
 31
0.0
  0
LINE
  5
17B49
330
747D
100
AcDbEntity
  8
部品1
100
AcDbLine
 10
6033.044679601708
 20
4744.403403838187
 30
0.0
 11
6033.04467960171
 21
2961.403403838189
 31
0.0
  0
LINE
  5
17B4A
330
747D
100
AcDbEntity
  8
細線
100
AcDbLine
 10
6075.044679601708
 20
4744.403403838187
 30
0.0
 11
6075.04467960171
 21
2961.403403838189
 31
0.0
  0
LINE
  5
17B4B
330
747D
100
AcDbEntity
  8
細線
100
AcDbLine
 10
6041.044679601707
 20
4744.403403838187
 30
0.0
 11
6041.04467960171
 21
2961.403403838189
 31
0.0
  0
LINE
  5
17B4C
330
747D
100
AcDbEntity
  8
細線
100
AcDbLine
 10
7069.044679601709
 20
4744.403403838187
 30
0.0
 11
7069.044679601709
 21
2968.903403838205
 31
0.0
  0
LINE
  5
17B4D
330
747D
100
AcDbEntity
  8
細線
100
AcDbLine
 10
6999.044679601708
 20
4744.403403838187
 30
0.0
 11
6999.044679601708
 21
2968.903403838205
 31
0.0
  0
LINE
  5
17B4E
330
747D
100
AcDbEntity
  8
細線
100
AcDbLine
 10
6929.044679601708
 20
4744.403403838187
 30
0.0
 11
6929.044679601708
 21
2968.903403838205
 31
0.0
  0
LINE
  5
17B4F
330
747D
100
AcDbEntity
  8
細線
100
AcDbLine
 10
6859.044679601708
 20
4744.403403838187
 30
0.0
 11
6859.044679601708
 21
2968.903403838205
 31
0.0
  0
LINE
  5
17B53
330
747D
100
AcDbEntity
  8
部品1
 48
50.0
100
AcDbLine
 10
5957.044679601708
 20
3917.903403838194
 30
0.0
 11
6010.044679601708
 21
3917.903403838194
 31
0.0
  0
LINE
  5
17B6D
330
747D
100
AcDbEntity
  8
細線
100
AcDbLine
 10
6273.04467960171
 20
4744.403403838183
 30
0.0
 11
6273.04467960171
 21
2961.403403838191
 31
0.0
  0
LINE
  5
17B6E
330
747D
100
AcDbEntity
  8
細線
100
AcDbLine
 10
6203.04467960171
 20
4744.403403838183
 30
0.0
 11
6203.04467960171
 21
2961.403403838191
 31
0.0
  0
LINE
  5
17B6F
330
747D
100
AcDbEntity
  8
部品1
100
AcDbLine
 10
6779.044679601708
 20
4744.403403838187
 30
0.0
 11
6779.044679601708
 21
2968.903403838205
 31
0.0
  0
LINE
  5
17B70
330
747D
100
AcDbEntity
  8
細線
100
AcDbLine
 10
6660.544679601708
 20
4744.40340383819
 30
0.0
 11
6660.544679601708
 21
2968.903403838205
 31
0.0
  0
LINE
  5
17B71
330
747D
100
AcDbEntity
  8
細線
100
AcDbLine
 10
6590.544679601707
 20
4744.40340383819
 30
0.0
 11
6590.544679601707
 21
2968.903403838205
 31
0.0
  0
LINE
  5
17B72
330
747D
100
AcDbEntity
  8
細線
100
AcDbLine
 10
6520.544679601707
 20
4744.40340383819
 30
0.0
 11
6520.544679601707
 21
2968.903403838205
 31
0.0
  0
LINE
  5
17B73
330
747D
100
AcDbEntity
  8
細線
100
AcDbLine
 10
6450.544679601708
 20
4744.40340383819
 30
0.0
 11
6450.544679601708
 21
2968.903403838205
 31
0.0
  0
LINE
  5
17B74
330
747D
100
AcDbEntity
  8
部品1
100
AcDbLine
 10
6373.044679601708
 20
2968.903403838196
 30
0.0
 11
7172.044679601707
 21
2968.903403838205
 31
0.0
  0
LINE
  5
17B75
330
747D
100
AcDbEntity
  8
部品1
100
AcDbLine
 10
5922.044679601707
 20
2961.403403838187
 30
0.0
 11
6373.04467960171
 21
2961.403403838191
 31
0.0
  0
LINE
  5
17B76
330
747D
100
AcDbEntity
  8
細線
100
AcDbLine
 10
5922.044679601707
 20
4744.403403838187
 30
0.0
 11
7172.044679601707
 21
4744.403403838183
 31
0.0
  0
LINE
  5
17B77
330
747D
100
AcDbEntity
  8
部品1
100
AcDbLine
 10
7743.044679601709
 20
4744.403403838183
 30
0.0
 11
7743.044679601709
 21
2961.403403838191
 31
0.0
  0
LINE
  5
17B78
330
747D
100
AcDbEntity
  8
部品1
100
AcDbLine
 10
7453.044679601707
 20
4744.403403838187
 30
0.0
 11
7453.04467960171
 21
2961.403403838189
 31
0.0
  0
LINE
  5
17B79
330
747D
100
AcDbEntity
  8
部品1
100
AcDbLine
 10
7403.044679601707
 20
4744.403403838187
 30
0.0
 11
7403.04467960171
 21
2961.403403838189
 31
0.0
  0
LINE
  5
17B7A
330
747D
100
AcDbEntity
  8
細線
100
AcDbLine
 10
7445.044679601707
 20
4744.403403838187
 30
0.0
 11
7445.044679601709
 21
2961.403403838189
 31
0.0
  0
LINE
  5
17B7B
330
747D
100
AcDbEntity
  8
細線
100
AcDbLine
 10
7411.044679601707
 20
4744.403403838187
 30
0.0
 11
7411.04467960171
 21
2961.403403838189
 31
0.0
  0
LINE
  5
17B7C
330
747D
100
AcDbEntity
  8
細線
100
AcDbLine
 10
8439.044679601707
 20
4744.403403838187
 30
0.0
 11
8439.044679601707
 21
2968.903403838205
 31
0.0
  0
LINE
  5
17B7D
330
747D
100
AcDbEntity
  8
細線
100
AcDbLine
 10
8369.044679601708
 20
4744.403403838187
 30
0.0
 11
8369.044679601708
 21
2968.903403838205
 31
0.0
  0
LINE
  5
17B7E
330
747D
100
AcDbEntity
  8
細線
100
AcDbLine
 10
8299.044679601708
 20
4744.403403838187
 30
0.0
 11
8299.044679601708
 21
2968.903403838205
 31
0.0
  0
LINE
  5
17B7F
330
747D
100
AcDbEntity
  8
細線
100
AcDbLine
 10
8229.044679601708
 20
4744.403403838187
 30
0.0
 11
8229.044679601708
 21
2968.903403838205
 31
0.0
  0
LINE
  5
17B83
330
747D
100
AcDbEntity
  8
部品1
 48
50.0
100
AcDbLine
 10
7327.044679601709
 20
3917.903403838194
 30
0.0
 11
7380.044679601708
 21
3917.903403838194
 31
0.0
  0
LINE
  5
17B9D
330
747D
100
AcDbEntity
  8
細線
100
AcDbLine
 10
7643.044679601709
 20
4744.403403838183
 30
0.0
 11
7643.044679601709
 21
2961.403403838191
 31
0.0
  0
LINE
  5
17B9E
330
747D
100
AcDbEntity
  8
細線
100
AcDbLine
 10
7573.044679601709
 20
4744.403403838183
 30
0.0
 11
7573.044679601709
 21
2961.403403838191
 31
0.0
  0
LINE
  5
17B9F
330
747D
100
AcDbEntity
  8
部品1
100
AcDbLine
 10
8149.044679601708
 20
4744.403403838187
 30
0.0
 11
8149.044679601708
 21
2968.903403838205
 31
0.0
  0
LINE
  5
17BA0
330
747D
100
AcDbEntity
  8
細線
100
AcDbLine
 10
8030.544679601709
 20
4744.40340383819
 30
0.0
 11
8030.544679601709
 21
2968.903403838205
 31
0.0
  0
LINE
  5
17BA1
330
747D
100
AcDbEntity
  8
細線
100
AcDbLine
 10
7960.544679601707
 20
4744.40340383819
 30
0.0
 11
7960.544679601707
 21
2968.903403838205
 31
0.0
  0
LINE
  5
17BA2
330
747D
100
AcDbEntity
  8
細線
100
AcDbLine
 10
7890.544679601707
 20
4744.40340383819
 30
0.0
 11
7890.544679601707
 21
2968.903403838205
 31
0.0
  0
LINE
  5
17BA3
330
747D
100
AcDbEntity
  8
細線
100
AcDbLine
 10
7820.544679601709
 20
4744.40340383819
 30
0.0
 11
7820.544679601709
 21
2968.903403838205
 31
0.0
  0
LINE
  5
17BA4
330
747D
100
AcDbEntity
  8
部品1
100
AcDbLine
 10
7292.044679601707
 20
2961.403403838187
 30
0.0
 11
7743.044679601709
 21
2961.403403838191
 31
0.0
  0
LINE
  5
17BA5
330
747D
100
AcDbEntity
  8
部品1
100
AcDbLine
 10
7743.044679601708
 20
2968.903403838196
 30
0.0
 11
8542.044679601707
 21
2968.903403838205
 31
0.0
  0
LINE
  5
17BA6
330
747D
100
AcDbEntity
  8
細線
100
AcDbLine
 10
7292.044679601707
 20
4744.403403838187
 30
0.0
 11
8542.044679601707
 21
4744.403403838183
 31
0.0
  0
LINE
  5
17BA7
330
747D
100
AcDbEntity
  8
細線
100
AcDbLine
 10
7607.044679601708
 20
4811.903403838183
 30
0.0
 11
7607.044679601708
 21
4788.903403838183
 31
0.0
  0
LINE
  5
17BA8
330
747D
100
AcDbEntity
  8
細線
100
AcDbLine
 10
7681.044679601708
 20
4799.903403838183
 30
0.0
 11
7607.044679601708
 21
4799.903403838183
 31
0.0
  0
LINE
  5
17BA9
330
747D
100
AcDbEntity
  8
細線
100
AcDbLine
 10
7681.044679601708
 20
4793.903403838183
 30
0.0
 11
7607.044679601708
 21
4793.903403838183
 31
0.0
  0
LINE
  5
17BAA
330
747D
100
AcDbEntity
  8
細線
100
AcDbLine
 10
7681.044679601708
 20
4805.903403838183
 30
0.0
 11
7607.044679601708
 21
4805.903403838183
 31
0.0
  0
LINE
  5
17BAB
330
747D
100
AcDbEntity
  8
細線
100
AcDbLine
 10
7533.044679601708
 20
4805.903403838183
 30
0.0
 11
7602.044679601708
 21
4805.903403838183
 31
0.0
  0
LINE
  5
17BAC
330
747D
100
AcDbEntity
  8
細線
100
AcDbLine
 10
7533.044679601708
 20
4793.903403838183
 30
0.0
 11
7607.044679601708
 21
4793.903403838183
 31
0.0
  0
LINE
  5
17BAD
330
747D
100
AcDbEntity
  8
細線
100
AcDbLine
 10
7533.044679601708
 20
4799.903403838183
 30
0.0
 11
7607.044679601708
 21
4799.903403838183
 31
0.0
  0
LINE
  5
17BAE
330
747D
100
AcDbEntity
  8
細線
100
AcDbLine
 10
7533.044679601708
 20
4805.903403838183
 30
0.0
 11
7607.044679601708
 21
4805.903403838183
 31
0.0
  0
LINE
  5
17BAF
330
747D
100
AcDbEntity
  8
部品1
 48
0.01
100
AcDbLine
 10
7695.044679601707
 20
4818.403403838183
 30
0.0
 11
7519.044679601709
 21
4818.403403838183
 31
0.0
  0
LINE
  5
17BB0
330
747D
100
AcDbEntity
  8
部品1
 48
0.01
100
AcDbLine
 10
7517.044679601707
 20
4816.403403838183
 30
0.0
 11
7517.044679601707
 21
4784.903403838183
 31
0.0
  0
LINE
  5
17BB1
330
747D
100
AcDbEntity
  8
部品1
 48
0.01
100
AcDbLine
 10
7519.044679601709
 20
4782.903403838183
 30
0.0
 11
7695.044679601707
 21
4782.903403838183
 31
0.0
  0
LINE
  5
17BB2
330
747D
100
AcDbEntity
  8
部品1
 48
0.01
100
AcDbLine
 10
7697.044679601707
 20
4784.903403838183
 30
0.0
 11
7697.044679601707
 21
4816.403403838183
 31
0.0
  0
LINE
  5
17BB3
330
747D
100
AcDbEntity
  8
細線
100
AcDbLine
 10
7533.044679601708
 20
4811.903403838183
 30
0.0
 11
7533.044679601708
 21
4788.903403838183
 31
0.0
  0
LINE
  5
17BB4
330
747D
100
AcDbEntity
  8
細線
100
AcDbLine
 10
7681.044679601708
 20
4788.903403838183
 30
0.0
 11
7681.044679601708
 21
4811.903403838183
 31
0.0
  0
LINE
  5
17BB5
330
747D
100
AcDbEntity
  8
細線
100
AcDbLine
 10
7681.044679601708
 20
4811.903403838183
 30
0.0
 11
7607.044679601708
 21
4811.903403838183
 31
0.0
  0
LINE
  5
17BB6
330
747D
100
AcDbEntity
  8
細線
100
AcDbLine
 10
7533.044679601708
 20
4788.903403838183
 30
0.0
 11
7607.044679601708
 21
4788.903403838183
 31
0.0
  0
LINE
  5
17BB7
330
747D
100
AcDbEntity
  8
細線
100
AcDbLine
 10
7607.044679601708
 20
4811.903403838183
 30
0.0
 11
7533.044679601708
 21
4811.903403838183
 31
0.0
  0
LINE
  5
17BB8
330
747D
100
AcDbEntity
  8
細線
100
AcDbLine
 10
7607.044679601708
 20
4788.903403838183
 30
0.0
 11
7681.044679601708
 21
4788.903403838183
 31
0.0
  0
ARC
  5
17BB9
330
747D
100
AcDbEntity
  8
部品1
 48
0.01
100
AcDbCircle
 10
7519.044679601709
 20
4816.403403838183
 30
0.0
 40
2.0
100
AcDbArc
 50
90.0
 51
180.0
  0
ARC
  5
17BBA
330
747D
100
AcDbEntity
  8
部品1
 48
0.01
100
AcDbCircle
 10
7519.044679601709
 20
4784.903403838183
 30
0.0
 40
2.0
100
AcDbArc
 50
180.0
 51
270.0
  0
ARC
  5
17BBB
330
747D
100
AcDbEntity
  8
部品1
 48
0.01
100
AcDbCircle
 10
7695.044679601707
 20
4816.403403838183
 30
0.0
 40
2.0
100
AcDbArc
 50
0.0
 51
90.0
  0
ARC
  5
17BBC
330
747D
100
AcDbEntity
  8
部品1
 48
0.01
100
AcDbCircle
 10
7695.044679601707
 20
4784.903403838183
 30
0.0
 40
2.0
100
AcDbArc
 50
270.0
 51
0.0
  0
ARC
  5
17BBD
330
747D
100
AcDbEntity
  8
部品1
 48
0.01
100
AcDbCircle
 10
8139.044679601708
 20
4784.903403838183
 30
0.0
 40
2.0
100
AcDbArc
 50
180.0
 51
270.0
  0
ARC
  5
17BBE
330
747D
100
AcDbEntity
  8
部品1
 48
0.01
100
AcDbCircle
 10
8139.044679601708
 20
4816.403403838183
 30
0.0
 40
2.0
100
AcDbArc
 50
90.0
 51
180.0
  0
ARC
  5
17BBF
330
747D
100
AcDbEntity
  8
部品1
 48
0.01
100
AcDbCircle
 10
8315.044679601708
 20
4784.903403838183
 30
0.0
 40
2.0
100
AcDbArc
 50
270.0
 51
0.0
  0
ARC
  5
17BC0
330
747D
100
AcDbEntity
  8
部品1
 48
0.01
100
AcDbCircle
 10
8315.044679601708
 20
4816.403403838183
 30
0.0
 40
2.0
100
AcDbArc
 50
0.0
 51
90.0
  0
LINE
  5
17BC1
330
747D
100
AcDbEntity
  8
細線
100
AcDbLine
 10
8227.044679601709
 20
4788.903403838183
 30
0.0
 11
8153.044679601707
 21
4788.903403838183
 31
0.0
  0
LINE
  5
17BC2
330
747D
100
AcDbEntity
  8
細線
100
AcDbLine
 10
8227.044679601709
 20
4811.903403838183
 30
0.0
 11
8301.044679601707
 21
4811.903403838183
 31
0.0
  0
LINE
  5
17BC3
330
747D
100
AcDbEntity
  8
細線
100
AcDbLine
 10
8301.044679601707
 20
4788.903403838183
 30
0.0
 11
8227.044679601709
 21
4788.903403838183
 31
0.0
  0
LINE
  5
17BC4
330
747D
100
AcDbEntity
  8
細線
100
AcDbLine
 10
8153.044679601707
 20
4811.903403838183
 30
0.0
 11
8227.044679601709
 21
4811.903403838183
 31
0.0
  0
LINE
  5
17BC5
330
747D
100
AcDbEntity
  8
細線
100
AcDbLine
 10
8153.044679601707
 20
4788.903403838183
 30
0.0
 11
8153.044679601707
 21
4811.903403838183
 31
0.0
  0
LINE
  5
17BC6
330
747D
100
AcDbEntity
  8
細線
100
AcDbLine
 10
8301.044679601707
 20
4811.903403838183
 30
0.0
 11
8301.044679601707
 21
4788.903403838183
 31
0.0
  0
LINE
  5
17BC7
330
747D
100
AcDbEntity
  8
部品1
 48
0.01
100
AcDbLine
 10
8137.044679601707
 20
4784.903403838183
 30
0.0
 11
8137.044679601707
 21
4816.403403838183
 31
0.0
  0
LINE
  5
17BC8
330
747D
100
AcDbEntity
  8
部品1
 48
0.01
100
AcDbLine
 10
8315.044679601708
 20
4782.903403838183
 30
0.0
 11
8139.044679601708
 21
4782.903403838183
 31
0.0
  0
LINE
  5
17BC9
330
747D
100
AcDbEntity
  8
部品1
 48
0.01
100
AcDbLine
 10
8317.044679601707
 20
4816.403403838183
 30
0.0
 11
8317.044679601707
 21
4784.903403838183
 31
0.0
  0
LINE
  5
17BCA
330
747D
100
AcDbEntity
  8
部品1
 48
0.01
100
AcDbLine
 10
8139.044679601708
 20
4818.403403838183
 30
0.0
 11
8315.044679601708
 21
4818.403403838183
 31
0.0
  0
LINE
  5
17BCB
330
747D
100
AcDbEntity
  8
細線
100
AcDbLine
 10
8301.044679601707
 20
4805.903403838183
 30
0.0
 11
8227.044679601709
 21
4805.903403838183
 31
0.0
  0
LINE
  5
17BCC
330
747D
100
AcDbEntity
  8
細線
100
AcDbLine
 10
8301.044679601707
 20
4799.903403838183
 30
0.0
 11
8227.044679601709
 21
4799.903403838183
 31
0.0
  0
LINE
  5
17BCD
330
747D
100
AcDbEntity
  8
細線
100
AcDbLine
 10
8301.044679601707
 20
4793.903403838183
 30
0.0
 11
8227.044679601709
 21
4793.903403838183
 31
0.0
  0
LINE
  5
17BCE
330
747D
100
AcDbEntity
  8
細線
100
AcDbLine
 10
8301.044679601707
 20
4805.903403838183
 30
0.0
 11
8232.044679601708
 21
4805.903403838183
 31
0.0
  0
LINE
  5
17BCF
330
747D
100
AcDbEntity
  8
細線
100
AcDbLine
 10
8153.044679601707
 20
4805.903403838183
 30
0.0
 11
8227.044679601709
 21
4805.903403838183
 31
0.0
  0
LINE
  5
17BD0
330
747D
100
AcDbEntity
  8
細線
100
AcDbLine
 10
8153.044679601707
 20
4793.903403838183
 30
0.0
 11
8227.044679601709
 21
4793.903403838183
 31
0.0
  0
LINE
  5
17BD1
330
747D
100
AcDbEntity
  8
細線
100
AcDbLine
 10
8153.044679601707
 20
4799.903403838183
 30
0.0
 11
8227.044679601709
 21
4799.903403838183
 31
0.0
  0
LINE
  5
17BD2
330
747D
100
AcDbEntity
  8
細線
100
AcDbLine
 10
8227.044679601709
 20
4811.903403838183
 30
0.0
 11
8227.044679601709
 21
4788.903403838183
 31
0.0
  0
LINE
  5
17BD3
330
747D
100
AcDbEntity
  8
細線
100
AcDbLine
 10
6857.044679601708
 20
4811.903403838183
 30
0.0
 11
6857.044679601708
 21
4788.903403838183
 31
0.0
  0
LINE
  5
17BD4
330
747D
100
AcDbEntity
  8
細線
100
AcDbLine
 10
6783.044679601707
 20
4799.903403838183
 30
0.0
 11
6857.044679601708
 21
4799.903403838183
 31
0.0
  0
LINE
  5
17BD5
330
747D
100
AcDbEntity
  8
細線
100
AcDbLine
 10
6783.044679601707
 20
4793.903403838183
 30
0.0
 11
6857.044679601708
 21
4793.903403838183
 31
0.0
  0
LINE
  5
17BD6
330
747D
100
AcDbEntity
  8
細線
100
AcDbLine
 10
6783.044679601707
 20
4805.903403838183
 30
0.0
 11
6857.044679601708
 21
4805.903403838183
 31
0.0
  0
LINE
  5
17BD7
330
747D
100
AcDbEntity
  8
細線
100
AcDbLine
 10
6931.044679601708
 20
4805.903403838183
 30
0.0
 11
6862.044679601708
 21
4805.903403838183
 31
0.0
  0
LINE
  5
17BD8
330
747D
100
AcDbEntity
  8
細線
100
AcDbLine
 10
6931.044679601708
 20
4793.903403838183
 30
0.0
 11
6857.044679601708
 21
4793.903403838183
 31
0.0
  0
LINE
  5
17BD9
330
747D
100
AcDbEntity
  8
細線
100
AcDbLine
 10
6931.044679601708
 20
4799.903403838183
 30
0.0
 11
6857.044679601708
 21
4799.903403838183
 31
0.0
  0
LINE
  5
17BDA
330
747D
100
AcDbEntity
  8
細線
100
AcDbLine
 10
6931.044679601708
 20
4805.903403838183
 30
0.0
 11
6857.044679601708
 21
4805.903403838183
 31
0.0
  0
LINE
  5
17BDB
330
747D
100
AcDbEntity
  8
部品1
 48
0.01
100
AcDbLine
 10
6769.044679601709
 20
4818.403403838183
 30
0.0
 11
6945.044679601707
 21
4818.403403838183
 31
0.0
  0
LINE
  5
17BDC
330
747D
100
AcDbEntity
  8
部品1
 48
0.01
100
AcDbLine
 10
6947.044679601707
 20
4816.403403838183
 30
0.0
 11
6947.044679601707
 21
4784.903403838183
 31
0.0
  0
LINE
  5
17BDD
330
747D
100
AcDbEntity
  8
部品1
 48
0.01
100
AcDbLine
 10
6945.044679601707
 20
4782.903403838183
 30
0.0
 11
6769.044679601709
 21
4782.903403838183
 31
0.0
  0
LINE
  5
17BDE
330
747D
100
AcDbEntity
  8
部品1
 48
0.01
100
AcDbLine
 10
6767.044679601707
 20
4784.903403838183
 30
0.0
 11
6767.044679601707
 21
4816.403403838183
 31
0.0
  0
LINE
  5
17BDF
330
747D
100
AcDbEntity
  8
細線
100
AcDbLine
 10
6931.044679601708
 20
4811.903403838183
 30
0.0
 11
6931.044679601708
 21
4788.903403838183
 31
0.0
  0
LINE
  5
17BE0
330
747D
100
AcDbEntity
  8
細線
100
AcDbLine
 10
6783.044679601707
 20
4788.903403838183
 30
0.0
 11
6783.044679601707
 21
4811.903403838183
 31
0.0
  0
LINE
  5
17BE1
330
747D
100
AcDbEntity
  8
細線
100
AcDbLine
 10
6783.044679601707
 20
4811.903403838183
 30
0.0
 11
6857.044679601708
 21
4811.903403838183
 31
0.0
  0
LINE
  5
17BE2
330
747D
100
AcDbEntity
  8
細線
100
AcDbLine
 10
6931.044679601708
 20
4788.903403838183
 30
0.0
 11
6857.044679601708
 21
4788.903403838183
 31
0.0
  0
LINE
  5
17BE3
330
747D
100
AcDbEntity
  8
細線
100
AcDbLine
 10
6857.044679601708
 20
4811.903403838183
 30
0.0
 11
6931.044679601708
 21
4811.903403838183
 31
0.0
  0
LINE
  5
17BE4
330
747D
100
AcDbEntity
  8
細線
100
AcDbLine
 10
6857.044679601708
 20
4788.903403838183
 30
0.0
 11
6783.044679601707
 21
4788.903403838183
 31
0.0
  0
ARC
  5
17BE5
330
747D
100
AcDbEntity
  8
部品1
 48
0.01
100
AcDbCircle
 10
6945.044679601707
 20
4816.403403838183
 30
0.0
 40
2.0
100
AcDbArc
 50
0.0
 51
90.0
  0
ARC
  5
17BE6
330
747D
100
AcDbEntity
  8
部品1
 48
0.01
100
AcDbCircle
 10
6945.044679601707
 20
4784.903403838183
 30
0.0
 40
2.0
100
AcDbArc
 50
270.0
 51
0.0
  0
ARC
  5
17BE7
330
747D
100
AcDbEntity
  8
部品1
 48
0.01
100
AcDbCircle
 10
6769.044679601709
 20
4816.403403838183
 30
0.0
 40
2.0
100
AcDbArc
 50
90.0
 51
180.0
  0
ARC
  5
17BE8
330
747D
100
AcDbEntity
  8
部品1
 48
0.01
100
AcDbCircle
 10
6769.044679601709
 20
4784.903403838183
 30
0.0
 40
2.0
100
AcDbArc
 50
180.0
 51
270.0
  0
ARC
  5
17BE9
330
747D
100
AcDbEntity
  8
部品1
 48
0.01
100
AcDbCircle
 10
6325.044679601708
 20
4784.903403838183
 30
0.0
 40
2.0
100
AcDbArc
 50
270.0
 51
0.0
  0
ARC
  5
17BEA
330
747D
100
AcDbEntity
  8
部品1
 48
0.01
100
AcDbCircle
 10
6325.044679601708
 20
4816.403403838183
 30
0.0
 40
2.0
100
AcDbArc
 50
0.0
 51
90.0
  0
ARC
  5
17BEB
330
747D
100
AcDbEntity
  8
部品1
 48
0.01
100
AcDbCircle
 10
6149.044679601708
 20
4784.903403838183
 30
0.0
 40
2.0
100
AcDbArc
 50
180.0
 51
270.0
  0
ARC
  5
17BEC
330
747D
100
AcDbEntity
  8
部品1
 48
0.01
100
AcDbCircle
 10
6149.044679601708
 20
4816.403403838183
 30
0.0
 40
2.0
100
AcDbArc
 50
90.0
 51
180.0
  0
LINE
  5
17BED
330
747D
100
AcDbEntity
  8
細線
100
AcDbLine
 10
6237.044679601708
 20
4788.903403838183
 30
0.0
 11
6311.044679601708
 21
4788.903403838183
 31
0.0
  0
LINE
  5
17BEE
330
747D
100
AcDbEntity
  8
細線
100
AcDbLine
 10
6237.044679601708
 20
4811.903403838183
 30
0.0
 11
6163.044679601707
 21
4811.903403838183
 31
0.0
  0
LINE
  5
17BEF
330
747D
100
AcDbEntity
  8
細線
100
AcDbLine
 10
6163.044679601707
 20
4788.903403838183
 30
0.0
 11
6237.044679601708
 21
4788.903403838183
 31
0.0
  0
LINE
  5
17BF0
330
747D
100
AcDbEntity
  8
細線
100
AcDbLine
 10
6311.044679601708
 20
4811.903403838183
 30
0.0
 11
6237.044679601708
 21
4811.903403838183
 31
0.0
  0
LINE
  5
17BF1
330
747D
100
AcDbEntity
  8
細線
100
AcDbLine
 10
6311.044679601708
 20
4788.903403838183
 30
0.0
 11
6311.044679601708
 21
4811.903403838183
 31
0.0
  0
LINE
  5
17BF2
330
747D
100
AcDbEntity
  8
細線
100
AcDbLine
 10
6163.044679601707
 20
4811.903403838183
 30
0.0
 11
6163.044679601707
 21
4788.903403838183
 31
0.0
  0
LINE
  5
17BF3
330
747D
100
AcDbEntity
  8
部品1
 48
0.01
100
AcDbLine
 10
6327.044679601708
 20
4784.903403838183
 30
0.0
 11
6327.044679601708
 21
4816.403403838183
 31
0.0
  0
LINE
  5
17BF4
330
747D
100
AcDbEntity
  8
部品1
 48
0.01
100
AcDbLine
 10
6149.044679601708
 20
4782.903403838183
 30
0.0
 11
6325.044679601708
 21
4782.903403838183
 31
0.0
  0
LINE
  5
17BF5
330
747D
100
AcDbEntity
  8
部品1
 48
0.01
100
AcDbLine
 10
6147.044679601708
 20
4816.403403838183
 30
0.0
 11
6147.044679601708
 21
4784.903403838183
 31
0.0
  0
LINE
  5
17BF6
330
747D
100
AcDbEntity
  8
部品1
 48
0.01
100
AcDbLine
 10
6325.044679601708
 20
4818.403403838183
 30
0.0
 11
6149.044679601708
 21
4818.403403838183
 31
0.0
  0
LINE
  5
17BF7
330
747D
100
AcDbEntity
  8
細線
100
AcDbLine
 10
6163.044679601707
 20
4805.903403838183
 30
0.0
 11
6237.044679601708
 21
4805.903403838183
 31
0.0
  0
LINE
  5
17BF8
330
747D
100
AcDbEntity
  8
細線
100
AcDbLine
 10
6163.044679601707
 20
4799.903403838183
 30
0.0
 11
6237.044679601708
 21
4799.903403838183
 31
0.0
  0
LINE
  5
17BF9
330
747D
100
AcDbEntity
  8
細線
100
AcDbLine
 10
6163.044679601707
 20
4793.903403838183
 30
0.0
 11
6237.044679601708
 21
4793.903403838183
 31
0.0
  0
LINE
  5
17BFA
330
747D
100
AcDbEntity
  8
細線
100
AcDbLine
 10
6163.044679601707
 20
4805.903403838183
 30
0.0
 11
6232.044679601708
 21
4805.903403838183
 31
0.0
  0
LINE
  5
17BFB
330
747D
100
AcDbEntity
  8
細線
100
AcDbLine
 10
6311.044679601708
 20
4805.903403838183
 30
0.0
 11
6237.044679601708
 21
4805.903403838183
 31
0.0
  0
LINE
  5
17BFC
330
747D
100
AcDbEntity
  8
細線
100
AcDbLine
 10
6311.044679601708
 20
4793.903403838183
 30
0.0
 11
6237.044679601708
 21
4793.903403838183
 31
0.0
  0
LINE
  5
17BFD
330
747D
100
AcDbEntity
  8
細線
100
AcDbLine
 10
6311.044679601708
 20
4799.903403838183
 30
0.0
 11
6237.044679601708
 21
4799.903403838183
 31
0.0
  0
LINE
  5
17BFE
330
747D
100
AcDbEntity
  8
細線
100
AcDbLine
 10
6237.044679601708
 20
4811.903403838183
 30
0.0
 11
6237.044679601708
 21
4788.903403838183
 31
0.0
  0
LINE
  5
17BFF
330
747D
100
AcDbEntity
  8
部品1
100
AcDbLine
 10
5393.895225796589
 20
2968.9034038382
 30
0.0
 11
5802.044679601707
 21
2968.903403838205
 31
0.0
  0
LINE
  5
17C00
330
747D
100
AcDbEntity
  8
細線
100
AcDbLine
 10
5290.544679601708
 20
3382.270363026483
 30
0.0
 11
5290.544679601708
 21
2968.903403838205
 31
0.0
  0
LINE
  5
17C01
330
747D
100
AcDbEntity
  8
細線
100
AcDbLine
 10
5220.544679601708
 20
3779.260090399726
 30
0.0
 11
5220.544679601708
 21
2968.903403838205
 31
0.0
  0
LINE
  5
17C02
330
747D
100
AcDbEntity
  8
細線
100
AcDbLine
 10
5150.544679601708
 20
3849.632796368175
 30
0.0
 11
5150.544679601708
 21
2968.903403838205
 31
0.0
  0
LINE
  5
17C03
330
747D
100
AcDbEntity
  8
細線
100
AcDbLine
 10
5080.544679601708
 20
3855.757002814991
 30
0.0
 11
5080.544679601707
 21
2968.903403838205
 31
0.0
  0
LINE
  5
17C04
330
747D
100
AcDbEntity
  8
細線
100
AcDbLine
 10
5080.544679601709
 20
3910.478635867244
 30
0.0
 11
5080.544679601708
 21
3885.87159794129
 31
0.0
  0
LINE
  5
17C05
330
747D
100
AcDbEntity
  8
部品1
100
AcDbLine
 10
5003.044679601708
 20
3862.537374238248
 30
0.0
 11
5003.04467960171
 21
2961.403403838191
 31
0.0
  0
LINE
  5
17C06
330
747D
100
AcDbEntity
  8
細線
100
AcDbLine
 10
5150.544679601705
 20
3943.120171938092
 30
0.0
 11
5150.544679601707
 21
3879.747391494476
 31
0.0
  0
LINE
  5
17C07
330
747D
100
AcDbEntity
  8
細線
100
AcDbLine
 10
5220.544679601707
 20
3975.761708008941
 30
0.0
 11
5220.544679601707
 21
3873.623185047659
 31
0.0
  0
LINE
  5
17C08
330
747D
100
AcDbEntity
  8
細線
100
AcDbLine
 10
5290.544679601708
 20
4008.403244079793
 30
0.0
 11
5290.544679601708
 21
3555.033477520788
 31
0.0
  0
LINE
  5
17C09
330
747D
100
AcDbEntity
  8
部品1
100
AcDbLine
 10
5409.044679601707
 20
4063.660701571159
 30
0.0
 11
5409.044679601707
 21
2968.903403838205
 31
0.0
  0
LINE
  5
17C0A
330
747D
100
AcDbEntity
  8
細線
100
AcDbLine
 10
5290.544679601708
 20
4082.0182953137
 30
0.0
 11
5290.544679601708
 21
4041.504581648668
 31
0.0
  0
LINE
  5
17C0B
330
747D
100
AcDbEntity
  8
細線
100
AcDbLine
 10
5220.544679601707
 20
4088.142501760516
 30
0.0
 11
5220.544679601705
 21
4008.863045577817
 31
0.0
  0
LINE
  5
17C0C
330
747D
100
AcDbEntity
  8
細線
100
AcDbLine
 10
5150.544679601706
 20
4176.249817772965
 30
0.0
 11
5150.544679601706
 21
3976.221509506968
 31
0.0
  0
LINE
  5
17C0D
330
747D
100
AcDbEntity
  8
細線
100
AcDbLine
 10
5080.826671548713
 20
4744.403403838185
 30
0.0
 11
5802.044679601707
 21
4744.403403838183
 31
0.0
  0
LINE
  5
17E51
330
747D
100
AcDbEntity
  8
仕様書枠
 48
50.0
100
AcDbLine
 10
16307.19999999999
 20
10049.6
 30
0.0
 11
13127.2
 21
10049.6
 31
0.0
  0
TEXT
  5
17E53
330
747D
100
AcDbEntity
  8
文字
 62
     7
 48
50.0
100
AcDbText
 10
13248.77747366448
 20
8720.013745883729
 30
0.0
 40
100.0
  1
15
  7
STYLE1
100
AcDbText
  0
TEXT
  5
17EE2
330
747D
100
AcDbEntity
  8
文字
 62
     7
 48
50.0
100
AcDbText
 10
15022.63965474516
 20
9740.013745883729
 30
0.0
 40
100.0
  1
F12,Y10       0.7+1.0
  7
STYLE1
100
AcDbText
  0
TEXT
  5
17EE3
330
747D
100
AcDbEntity
  8
文字
 62
     7
 48
50.0
100
AcDbText
 10
13583.11819016569
 20
9740.013745883729
 30
0.0
 40
100.0
  1
梁中
 41
0.9
  7
STYLE1
100
AcDbText
  0
LWPOLYLINE
  5
17F35
330
747D
100
AcDbEntity
  8
部品1
 48
50.0
100
AcDbPolyline
 90
        4
 70
     1
 43
0.0
 10
4612.094679601707
 20
3832.653403838195
 10
4614.994679601708
 20
3832.653403838195
 10
4614.994679601708
 20
3842.153403838194
 10
4612.094679601707
 20
3842.153403838194
  0
CIRCLE
  5
17F36
330
747D
100
AcDbEntity
  8
部品1
 48
50.0
100
AcDbCircle
 10
4613.544679601708
 20
3837.403403838195
 30
0.0
 40
9.0
  0
ARC
  5
17F37
330
747D
100
AcDbEntity
  8
細線
 48
50.0
100
AcDbCircle
 10
4613.544679601708
 20
3837.403403838195
 30
0.0
 40
4.0
100
AcDbArc
 50
111.2538091853132
 51
248.7461908146868
  0
ARC
  5
17F38
330
747D
100
AcDbEntity
  8
細線
 48
50.0
100
AcDbCircle
 10
4613.544679601708
 20
3837.403403838195
 30
0.0
 40
17.5
100
AcDbArc
 50
306.4837370612677
 51
233.5162629387323
  0
LINE
  5
17F39
330
747D
100
AcDbEntity
  8
細線
 48
50.0
100
AcDbLine
 10
4623.544679601704
 20
3813.544443257312
 30
0.0
 11
4623.544679601708
 21
3822.528929057553
 31
0.0
  0
LINE
  5
17F3A
330
747D
100
AcDbEntity
  8
細線
 48
50.0
100
AcDbLine
 10
4603.544679601707
 20
3813.544443257313
 30
0.0
 11
4603.544679601707
 21
3822.52892905755
 31
0.0
  0
ARC
  5
17F3B
330
747D
100
AcDbEntity
  8
細線
 48
50.0
100
AcDbCircle
 10
4613.544679601708
 20
3837.403403838195
 30
0.0
 40
26.5
100
AcDbArc
 50
249.3326835063939
 51
290.6673164933835
  0
ARC
  5
17F3C
330
747D
100
AcDbEntity
  8
細線
 48
50.0
100
AcDbCircle
 10
4622.5446796017
 20
3813.544443257312
 30
0.0
 40
1.0
100
AcDbArc
 50
290.6673164936062
 51
359.9999999998958
  0
ARC
  5
17F3D
330
747D
100
AcDbEntity
  8
細線
 48
50.0
100
AcDbCircle
 10
4604.544679601707
 20
3813.544443257313
 30
0.0
 40
1.0
100
AcDbArc
 50
180.0
 51
249.3326835066164
  0
ARC
  5
17F3E
330
747D
100
AcDbEntity
  8
細線
 48
50.0
100
AcDbCircle
 10
4602.544679601708
 20
3822.52892905755
 30
0.0
 40
1.0
100
AcDbArc
 50
0.0
 51
53.51626293873231
  0
ARC
  5
17F3F
330
747D
100
AcDbEntity
  8
細線
 48
50.0
100
AcDbCircle
 10
4624.544679601711
 20
3822.528929057553
 30
0.0
 40
1.0
100
AcDbArc
 50
126.4837370615127
 51
180.0
  0
ARC
  5
17F40
330
747D
100
AcDbEntity
  8
細線
 48
50.0
100
AcDbCircle
 10
4613.544679601708
 20
3837.403403838195
 30
0.0
 40
21.5
100
AcDbArc
 50
255.8014401250294
 51
284.1985598749706
  0
ARC
  5
17F41
330
747D
100
AcDbEntity
  8
細線
 48
50.0
100
AcDbCircle
 10
4613.544679601708
 20
3837.403403838195
 30
0.0
 40
16.5
100
AcDbArc
 50
251.9694646069326
 51
288.0305353930674
  0
LINE
  5
17F42
330
747D
100
AcDbEntity
  8
細線
 48
50.0
100
AcDbLine
 10
4619.044679601707
 20
3816.851031712388
 30
0.0
 11
4619.044679601707
 21
3821.428423399724
 31
0.0
  0
LINE
  5
17F43
330
747D
100
AcDbEntity
  8
細線
 48
50.0
100
AcDbLine
 10
4608.044679601707
 20
3816.851031712388
 30
0.0
 11
4608.044679601707
 21
3821.428423399723
 31
0.0
  0
ARC
  5
17F44
330
747D
100
AcDbEntity
  8
細線
 48
50.0
100
AcDbCircle
 10
4608.34467960171
 20
3821.428423399723
 30
0.0
 40
0.3
100
AcDbArc
 50
71.96946460693259
 51
180.0
  0
ARC
  5
17F45
330
747D
100
AcDbEntity
  8
細線
 48
50.0
100
AcDbCircle
 10
4618.744679601708
 20
3821.428423399724
 30
0.0
 40
0.3
100
AcDbArc
 50
0.0
 51
108.0305353930674
  0
ARC
  5
17F46
330
747D
100
AcDbEntity
  8
細線
 48
50.0
100
AcDbCircle
 10
4618.744679601705
 20
3816.851031712388
 30
0.0
 40
0.3
100
AcDbArc
 50
284.1985598747622
 51
0.0000000001042204
  0
ARC
  5
17F47
330
747D
100
AcDbEntity
  8
細線
 48
50.0
100
AcDbCircle
 10
4608.34467960171
 20
3816.851031712388
 30
0.0
 40
0.3
100
AcDbArc
 50
180.0
 51
255.8014401248081
  0
CIRCLE
  5
17F48
330
747D
100
AcDbEntity
  8
細線
 48
50.0
100
AcDbCircle
 10
4613.544679601708
 20
3837.403403838195
 30
0.0
 40
12.0
  0
ARC
  5
17F49
330
747D
100
AcDbEntity
  8
部品1
 48
50.0
100
AcDbCircle
 10
4613.544679601708
 20
3887.403403838194
 30
0.0
 40
8.5
100
AcDbArc
 50
114.315739171091
 51
245.684260828909
  0
CIRCLE
  5
17F4A
330
747D
100
AcDbEntity
  8
細線
 48
50.0
100
AcDbCircle
 10
4613.544679601708
 20
3887.403403838194
 30
0.0
 40
4.5
  0
LWPOLYLINE
  5
17F4B
330
747D
100
AcDbEntity
  8
部品1
 48
50.0
100
AcDbPolyline
 90
        2
 70
     0
 43
0.0
 10
4610.044679601707
 20
3906.078253235177
 10
4610.044679601707
 20
3895.149370530609
  0
CIRCLE
  5
17F4C
330
747D
100
AcDbEntity
  8
部品1
 48
50.0
100
AcDbCircle
 10
4613.544679601708
 20
3887.403403838194
 30
0.0
 40
19.0
  0
LWPOLYLINE
  5
17F4D
330
747D
100
AcDbEntity
  8
部品1
 48
50.0
100
AcDbPolyline
 90
        2
 70
     0
 43
0.0
 10
4610.044679601707
 20
3879.657437145779
 10
4610.044679601707
 20
3868.728554441212
  0
LWPOLYLINE
  5
17F4E
330
747D
100
AcDbEntity
  8
部品1
 48
50.0
100
AcDbPolyline
 90
        2
 70
     0
 43
0.0
 10
4617.044679601707
 20
3895.149370530609
 10
4617.044679601707
 20
3906.078253235177
  0
ARC
  5
17F4F
330
747D
100
AcDbEntity
  8
部品1
 48
50.0
100
AcDbCircle
 10
4613.544679601708
 20
3887.403403838194
 30
0.0
 40
8.5
100
AcDbArc
 50
294.315739171091
 51
65.68426082890896
  0
LWPOLYLINE
  5
17F50
330
747D
100
AcDbEntity
  8
部品1
 48
50.0
100
AcDbPolyline
 90
        2
 70
     0
 43
0.0
 10
4617.044679601707
 20
3868.728554441212
 10
4617.044679601707
 20
3879.657437145779
  0
ARC
  5
17F51
330
747D
100
AcDbEntity
  8
細線
 48
50.0
100
AcDbCircle
 10
4613.544679601708
 20
3887.403403838194
 30
0.0
 40
16.5
100
AcDbArc
 50
332.0012352654438
 51
27.99876473455621
  0
ARC
  5
17F52
330
747D
100
AcDbEntity
  8
細線
 48
50.0
100
AcDbCircle
 10
4613.544679601708
 20
3887.403403838194
 30
0.0
 40
14.0
100
AcDbArc
 50
326.4074436112986
 51
33.59255638870134
  0
LINE
  5
17F53
330
747D
100
AcDbEntity
  8
細線
 48
50.0
100
AcDbLine
 10
4598.975877317376
 20
3895.149370530609
 30
0.0
 11
4601.882775812018
 21
3895.149370530609
 31
0.0
  0
LINE
  5
17F54
330
747D
100
AcDbEntity
  8
細線
 48
50.0
100
AcDbLine
 10
4598.975877317376
 20
3879.657437145779
 30
0.0
 11
4601.882775812018
 21
3879.657437145779
 31
0.0
  0
LINE
  5
17F55
330
747D
100
AcDbEntity
  8
細線
 48
50.0
100
AcDbLine
 10
4625.206583391396
 20
3895.149370530609
 30
0.0
 11
4628.113481886042
 21
3895.149370530609
 31
0.0
  0
LINE
  5
17F56
330
747D
100
AcDbEntity
  8
細線
 48
50.0
100
AcDbLine
 10
4625.206583391396
 20
3879.657437145779
 30
0.0
 11
4628.113481886042
 21
3879.657437145779
 31
0.0
  0
ARC
  5
17F57
330
747D
100
AcDbEntity
  8
細線
 48
50.0
100
AcDbCircle
 10
4613.544679601708
 20
3887.403403838194
 30
0.0
 40
14.0
100
AcDbArc
 50
146.4074436112986
 51
213.5925563887013
  0
ARC
  5
17F58
330
747D
100
AcDbEntity
  8
細線
 48
50.0
100
AcDbCircle
 10
4613.544679601708
 20
3887.403403838194
 30
0.0
 40
16.5
100
AcDbArc
 50
152.0012352654438
 51
207.9987647345562
  0
ARC
  5
17F59
330
747D
100
AcDbEntity
  8
部品1
 48
50.0
100
AcDbCircle
 10
4587.044679601707
 20
3912.903403838195
 30
0.0
 40
5.0
100
AcDbArc
 50
90.0
 51
180.0
  0
ARC
  5
17F5A
330
747D
100
AcDbEntity
  8
部品1
 48
50.0
100
AcDbCircle
 10
4587.044679601707
 20
3801.903403838195
 30
0.0
 40
5.0
100
AcDbArc
 50
180.0
 51
270.0
  0
ARC
  5
17F5B
330
747D
100
AcDbEntity
  8
部品1
 48
50.0
100
AcDbCircle
 10
4640.044679601707
 20
3801.903403838195
 30
0.0
 40
5.0
100
AcDbArc
 50
270.0
 51
0.0
  0
ARC
  5
17F5C
330
747D
100
AcDbEntity
  8
部品1
 48
50.0
100
AcDbCircle
 10
4640.044679601707
 20
3912.903403838195
 30
0.0
 40
5.0
100
AcDbArc
 50
0.0
 51
90.0
  0
LINE
  5
17F5E
330
747D
100
AcDbEntity
  8
部品1
 48
50.0
100
AcDbLine
 10
4582.044679601708
 20
3801.903403838195
 30
0.0
 11
4582.044679601708
 21
3912.903403838195
 31
0.0
  0
LINE
  5
17F5F
330
747D
100
AcDbEntity
  8
部品1
 48
50.0
100
AcDbLine
 10
4640.044679601707
 20
3796.903403838194
 30
0.0
 11
4587.044679601707
 21
3796.903403838194
 31
0.0
  0
LINE
  5
17F60
330
747D
100
AcDbEntity
  8
部品1
 48
50.0
100
AcDbLine
 10
4645.044679601707
 20
3912.903403838195
 30
0.0
 11
4645.044679601707
 21
3801.903403838195
 31
0.0
  0
LWPOLYLINE
  5
17F91
330
747D
100
AcDbEntity
  8
部品1
 48
50.0
100
AcDbPolyline
 90
        4
 70
     1
 43
0.0
 10
5982.094679601707
 20
3832.653403838195
 10
5984.994679601708
 20
3832.653403838195
 10
5984.994679601708
 20
3842.153403838194
 10
5982.094679601707
 20
3842.153403838194
  0
CIRCLE
  5
17F92
330
747D
100
AcDbEntity
  8
部品1
 48
50.0
100
AcDbCircle
 10
5983.544679601708
 20
3837.403403838195
 30
0.0
 40
9.0
  0
ARC
  5
17F93
330
747D
100
AcDbEntity
  8
細線
 48
50.0
100
AcDbCircle
 10
5983.544679601708
 20
3837.403403838195
 30
0.0
 40
4.0
100
AcDbArc
 50
111.2538091853132
 51
248.7461908146868
  0
ARC
  5
17F94
330
747D
100
AcDbEntity
  8
細線
 48
50.0
100
AcDbCircle
 10
5983.544679601708
 20
3837.403403838195
 30
0.0
 40
17.5
100
AcDbArc
 50
306.4837370612677
 51
233.5162629387323
  0
LINE
  5
17F95
330
747D
100
AcDbEntity
  8
細線
 48
50.0
100
AcDbLine
 10
5993.544679601704
 20
3813.544443257312
 30
0.0
 11
5993.544679601708
 21
3822.528929057553
 31
0.0
  0
LINE
  5
17F96
330
747D
100
AcDbEntity
  8
細線
 48
50.0
100
AcDbLine
 10
5973.544679601708
 20
3813.544443257313
 30
0.0
 11
5973.544679601708
 21
3822.52892905755
 31
0.0
  0
ARC
  5
17F97
330
747D
100
AcDbEntity
  8
細線
 48
50.0
100
AcDbCircle
 10
5983.544679601708
 20
3837.403403838195
 30
0.0
 40
26.5
100
AcDbArc
 50
249.3326835063939
 51
290.6673164933835
  0
ARC
  5
17F98
330
747D
100
AcDbEntity
  8
細線
 48
50.0
100
AcDbCircle
 10
5992.5446796017
 20
3813.544443257312
 30
0.0
 40
1.0
100
AcDbArc
 50
290.6673164936062
 51
359.9999999998958
  0
ARC
  5
17F99
330
747D
100
AcDbEntity
  8
細線
 48
50.0
100
AcDbCircle
 10
5974.544679601708
 20
3813.544443257313
 30
0.0
 40
1.0
100
AcDbArc
 50
180.0
 51
249.3326835066164
  0
ARC
  5
17F9A
330
747D
100
AcDbEntity
  8
細線
 48
50.0
100
AcDbCircle
 10
5972.544679601708
 20
3822.52892905755
 30
0.0
 40
1.0
100
AcDbArc
 50
0.0
 51
53.51626293873231
  0
ARC
  5
17F9B
330
747D
100
AcDbEntity
  8
細線
 48
50.0
100
AcDbCircle
 10
5994.544679601712
 20
3822.528929057553
 30
0.0
 40
1.0
100
AcDbArc
 50
126.4837370615127
 51
180.0
  0
ARC
  5
17F9C
330
747D
100
AcDbEntity
  8
細線
 48
50.0
100
AcDbCircle
 10
5983.544679601708
 20
3837.403403838195
 30
0.0
 40
21.5
100
AcDbArc
 50
255.8014401250294
 51
284.1985598749706
  0
ARC
  5
17F9D
330
747D
100
AcDbEntity
  8
細線
 48
50.0
100
AcDbCircle
 10
5983.544679601708
 20
3837.403403838195
 30
0.0
 40
16.5
100
AcDbArc
 50
251.9694646069326
 51
288.0305353930674
  0
LINE
  5
17F9E
330
747D
100
AcDbEntity
  8
細線
 48
50.0
100
AcDbLine
 10
5989.044679601708
 20
3816.851031712388
 30
0.0
 11
5989.044679601708
 21
3821.428423399724
 31
0.0
  0
LINE
  5
17F9F
330
747D
100
AcDbEntity
  8
細線
 48
50.0
100
AcDbLine
 10
5978.044679601708
 20
3816.851031712388
 30
0.0
 11
5978.044679601708
 21
3821.428423399723
 31
0.0
  0
ARC
  5
17FA0
330
747D
100
AcDbEntity
  8
細線
 48
50.0
100
AcDbCircle
 10
5978.344679601711
 20
3821.428423399723
 30
0.0
 40
0.3
100
AcDbArc
 50
71.96946460693259
 51
180.0
  0
ARC
  5
17FA1
330
747D
100
AcDbEntity
  8
細線
 48
50.0
100
AcDbCircle
 10
5988.744679601708
 20
3821.428423399724
 30
0.0
 40
0.3
100
AcDbArc
 50
0.0
 51
108.0305353930674
  0
ARC
  5
17FA2
330
747D
100
AcDbEntity
  8
細線
 48
50.0
100
AcDbCircle
 10
5988.744679601705
 20
3816.851031712388
 30
0.0
 40
0.3
100
AcDbArc
 50
284.1985598747622
 51
0.0000000001042204
  0
ARC
  5
17FA3
330
747D
100
AcDbEntity
  8
細線
 48
50.0
100
AcDbCircle
 10
5978.344679601711
 20
3816.851031712388
 30
0.0
 40
0.3
100
AcDbArc
 50
180.0
 51
255.8014401248081
  0
CIRCLE
  5
17FA4
330
747D
100
AcDbEntity
  8
細線
 48
50.0
100
AcDbCircle
 10
5983.544679601708
 20
3837.403403838195
 30
0.0
 40
12.0
  0
ARC
  5
17FA5
330
747D
100
AcDbEntity
  8
部品1
 48
50.0
100
AcDbCircle
 10
5983.544679601708
 20
3887.403403838194
 30
0.0
 40
8.5
100
AcDbArc
 50
114.315739171091
 51
245.684260828909
  0
CIRCLE
  5
17FA6
330
747D
100
AcDbEntity
  8
細線
 48
50.0
100
AcDbCircle
 10
5983.544679601708
 20
3887.403403838194
 30
0.0
 40
4.5
  0
LWPOLYLINE
  5
17FA7
330
747D
100
AcDbEntity
  8
部品1
 48
50.0
100
AcDbPolyline
 90
        2
 70
     0
 43
0.0
 10
5980.044679601707
 20
3906.078253235177
 10
5980.044679601707
 20
3895.149370530609
  0
CIRCLE
  5
17FA8
330
747D
100
AcDbEntity
  8
部品1
 48
50.0
100
AcDbCircle
 10
5983.544679601708
 20
3887.403403838194
 30
0.0
 40
19.0
  0
LWPOLYLINE
  5
17FA9
330
747D
100
AcDbEntity
  8
部品1
 48
50.0
100
AcDbPolyline
 90
        2
 70
     0
 43
0.0
 10
5980.044679601707
 20
3879.657437145779
 10
5980.044679601707
 20
3868.728554441212
  0
LWPOLYLINE
  5
17FAA
330
747D
100
AcDbEntity
  8
部品1
 48
50.0
100
AcDbPolyline
 90
        2
 70
     0
 43
0.0
 10
5987.044679601708
 20
3895.149370530609
 10
5987.044679601708
 20
3906.078253235177
  0
ARC
  5
17FAB
330
747D
100
AcDbEntity
  8
部品1
 48
50.0
100
AcDbCircle
 10
5983.544679601708
 20
3887.403403838194
 30
0.0
 40
8.5
100
AcDbArc
 50
294.315739171091
 51
65.68426082890896
  0
LWPOLYLINE
  5
17FAC
330
747D
100
AcDbEntity
  8
部品1
 48
50.0
100
AcDbPolyline
 90
        2
 70
     0
 43
0.0
 10
5987.044679601708
 20
3868.728554441212
 10
5987.044679601708
 20
3879.657437145779
  0
ARC
  5
17FAD
330
747D
100
AcDbEntity
  8
細線
 48
50.0
100
AcDbCircle
 10
5983.544679601708
 20
3887.403403838194
 30
0.0
 40
16.5
100
AcDbArc
 50
332.0012352654438
 51
27.99876473455621
  0
ARC
  5
17FAE
330
747D
100
AcDbEntity
  8
細線
 48
50.0
100
AcDbCircle
 10
5983.544679601708
 20
3887.403403838194
 30
0.0
 40
14.0
100
AcDbArc
 50
326.4074436112986
 51
33.59255638870134
  0
LINE
  5
17FAF
330
747D
100
AcDbEntity
  8
細線
 48
50.0
100
AcDbLine
 10
5968.975877317376
 20
3895.149370530609
 30
0.0
 11
5971.882775812019
 21
3895.149370530609
 31
0.0
  0
LINE
  5
17FB0
330
747D
100
AcDbEntity
  8
細線
 48
50.0
100
AcDbLine
 10
5968.975877317376
 20
3879.657437145779
 30
0.0
 11
5971.882775812019
 21
3879.657437145779
 31
0.0
  0
LINE
  5
17FB1
330
747D
100
AcDbEntity
  8
細線
 48
50.0
100
AcDbLine
 10
5995.206583391397
 20
3895.149370530609
 30
0.0
 11
5998.113481886043
 21
3895.149370530609
 31
0.0
  0
LINE
  5
17FB2
330
747D
100
AcDbEntity
  8
細線
 48
50.0
100
AcDbLine
 10
5995.206583391397
 20
3879.657437145779
 30
0.0
 11
5998.113481886043
 21
3879.657437145779
 31
0.0
  0
ARC
  5
17FB3
330
747D
100
AcDbEntity
  8
細線
 48
50.0
100
AcDbCircle
 10
5983.544679601708
 20
3887.403403838194
 30
0.0
 40
14.0
100
AcDbArc
 50
146.4074436112986
 51
213.5925563887013
  0
ARC
  5
17FB4
330
747D
100
AcDbEntity
  8
細線
 48
50.0
100
AcDbCircle
 10
5983.544679601708
 20
3887.403403838194
 30
0.0
 40
16.5
100
AcDbArc
 50
152.0012352654438
 51
207.9987647345562
  0
ARC
  5
17FB5
330
747D
100
AcDbEntity
  8
部品1
 48
50.0
100
AcDbCircle
 10
5957.044679601708
 20
3912.903403838195
 30
0.0
 40
5.0
100
AcDbArc
 50
90.0
 51
180.0
  0
ARC
  5
17FB6
330
747D
100
AcDbEntity
  8
部品1
 48
50.0
100
AcDbCircle
 10
5957.044679601708
 20
3801.903403838195
 30
0.0
 40
5.0
100
AcDbArc
 50
180.0
 51
270.0
  0
ARC
  5
17FB7
330
747D
100
AcDbEntity
  8
部品1
 48
50.0
100
AcDbCircle
 10
6010.044679601708
 20
3801.903403838195
 30
0.0
 40
5.0
100
AcDbArc
 50
270.0
 51
0.0
  0
ARC
  5
17FB8
330
747D
100
AcDbEntity
  8
部品1
 48
50.0
100
AcDbCircle
 10
6010.044679601708
 20
3912.903403838195
 30
0.0
 40
5.0
100
AcDbArc
 50
0.0
 51
90.0
  0
LINE
  5
17FBA
330
747D
100
AcDbEntity
  8
部品1
 48
50.0
100
AcDbLine
 10
5952.044679601708
 20
3801.903403838195
 30
0.0
 11
5952.044679601708
 21
3912.903403838195
 31
0.0
  0
LINE
  5
17FBB
330
747D
100
AcDbEntity
  8
部品1
 48
50.0
100
AcDbLine
 10
6010.044679601708
 20
3796.903403838194
 30
0.0
 11
5957.044679601708
 21
3796.903403838194
 31
0.0
  0
LINE
  5
17FBC
330
747D
100
AcDbEntity
  8
部品1
 48
50.0
100
AcDbLine
 10
6015.044679601707
 20
3912.903403838195
 30
0.0
 11
6015.044679601707
 21
3801.903403838195
 31
0.0
  0
LWPOLYLINE
  5
17FED
330
747D
100
AcDbEntity
  8
部品1
 48
50.0
100
AcDbPolyline
 90
        4
 70
     1
 43
0.0
 10
7352.094679601707
 20
3832.653403838195
 10
7354.994679601708
 20
3832.653403838195
 10
7354.994679601708
 20
3842.153403838194
 10
7352.094679601707
 20
3842.153403838194
  0
CIRCLE
  5
17FEE
330
747D
100
AcDbEntity
  8
部品1
 48
50.0
100
AcDbCircle
 10
7353.544679601708
 20
3837.403403838195
 30
0.0
 40
9.0
  0
ARC
  5
17FEF
330
747D
100
AcDbEntity
  8
細線
 48
50.0
100
AcDbCircle
 10
7353.544679601708
 20
3837.403403838195
 30
0.0
 40
4.0
100
AcDbArc
 50
111.2538091853132
 51
248.7461908146868
  0
ARC
  5
17FF0
330
747D
100
AcDbEntity
  8
細線
 48
50.0
100
AcDbCircle
 10
7353.544679601708
 20
3837.403403838195
 30
0.0
 40
17.5
100
AcDbArc
 50
306.4837370612677
 51
233.5162629387323
  0
LINE
  5
17FF1
330
747D
100
AcDbEntity
  8
細線
 48
50.0
100
AcDbLine
 10
7363.544679601703
 20
3813.544443257312
 30
0.0
 11
7363.544679601708
 21
3822.528929057553
 31
0.0
  0
LINE
  5
17FF2
330
747D
100
AcDbEntity
  8
細線
 48
50.0
100
AcDbLine
 10
7343.544679601707
 20
3813.544443257313
 30
0.0
 11
7343.544679601707
 21
3822.52892905755
 31
0.0
  0
ARC
  5
17FF3
330
747D
100
AcDbEntity
  8
細線
 48
50.0
100
AcDbCircle
 10
7353.544679601708
 20
3837.403403838195
 30
0.0
 40
26.5
100
AcDbArc
 50
249.3326835063939
 51
290.6673164933835
  0
ARC
  5
17FF4
330
747D
100
AcDbEntity
  8
細線
 48
50.0
100
AcDbCircle
 10
7362.5446796017
 20
3813.544443257312
 30
0.0
 40
1.0
100
AcDbArc
 50
290.6673164936062
 51
359.9999999998958
  0
ARC
  5
17FF5
330
747D
100
AcDbEntity
  8
細線
 48
50.0
100
AcDbCircle
 10
7344.544679601708
 20
3813.544443257313
 30
0.0
 40
1.0
100
AcDbArc
 50
180.0
 51
249.3326835066164
  0
ARC
  5
17FF6
330
747D
100
AcDbEntity
  8
細線
 48
50.0
100
AcDbCircle
 10
7342.544679601708
 20
3822.52892905755
 30
0.0
 40
1.0
100
AcDbArc
 50
0.0
 51
53.51626293873231
  0
ARC
  5
17FF7
330
747D
100
AcDbEntity
  8
細線
 48
50.0
100
AcDbCircle
 10
7364.544679601711
 20
3822.528929057553
 30
0.0
 40
1.0
100
AcDbArc
 50
126.4837370615127
 51
180.0
  0
ARC
  5
17FF8
330
747D
100
AcDbEntity
  8
細線
 48
50.0
100
AcDbCircle
 10
7353.544679601708
 20
3837.403403838195
 30
0.0
 40
21.5
100
AcDbArc
 50
255.8014401250294
 51
284.1985598749706
  0
ARC
  5
17FF9
330
747D
100
AcDbEntity
  8
細線
 48
50.0
100
AcDbCircle
 10
7353.544679601708
 20
3837.403403838195
 30
0.0
 40
16.5
100
AcDbArc
 50
251.9694646069326
 51
288.0305353930674
  0
LINE
  5
17FFA
330
747D
100
AcDbEntity
  8
細線
 48
50.0
100
AcDbLine
 10
7359.044679601708
 20
3816.851031712388
 30
0.0
 11
7359.044679601708
 21
3821.428423399724
 31
0.0
  0
LINE
  5
17FFB
330
747D
100
AcDbEntity
  8
細線
 48
50.0
100
AcDbLine
 10
7348.044679601708
 20
3816.851031712388
 30
0.0
 11
7348.044679601708
 21
3821.428423399723
 31
0.0
  0
ARC
  5
17FFC
330
747D
100
AcDbEntity
  8
細線
 48
50.0
100
AcDbCircle
 10
7348.34467960171
 20
3821.428423399723
 30
0.0
 40
0.3
100
AcDbArc
 50
71.96946460693259
 51
180.0
  0
ARC
  5
17FFD
330
747D
100
AcDbEntity
  8
細線
 48
50.0
100
AcDbCircle
 10
7358.744679601709
 20
3821.428423399724
 30
0.0
 40
0.3
100
AcDbArc
 50
0.0
 51
108.0305353930674
  0
ARC
  5
17FFE
330
747D
100
AcDbEntity
  8
細線
 48
50.0
100
AcDbCircle
 10
7358.744679601705
 20
3816.851031712388
 30
0.0
 40
0.3
100
AcDbArc
 50
284.1985598747622
 51
0.0000000001042204
  0
ARC
  5
17FFF
330
747D
100
AcDbEntity
  8
細線
 48
50.0
100
AcDbCircle
 10
7348.34467960171
 20
3816.851031712388
 30
0.0
 40
0.3
100
AcDbArc
 50
180.0
 51
255.8014401248081
  0
CIRCLE
  5
18000
330
747D
100
AcDbEntity
  8
細線
 48
50.0
100
AcDbCircle
 10
7353.544679601708
 20
3837.403403838195
 30
0.0
 40
12.0
  0
ARC
  5
18001
330
747D
100
AcDbEntity
  8
部品1
 48
50.0
100
AcDbCircle
 10
7353.544679601708
 20
3887.403403838194
 30
0.0
 40
8.5
100
AcDbArc
 50
114.315739171091
 51
245.684260828909
  0
CIRCLE
  5
18002
330
747D
100
AcDbEntity
  8
細線
 48
50.0
100
AcDbCircle
 10
7353.544679601708
 20
3887.403403838194
 30
0.0
 40
4.5
  0
LWPOLYLINE
  5
18003
330
747D
100
AcDbEntity
  8
部品1
 48
50.0
100
AcDbPolyline
 90
        2
 70
     0
 43
0.0
 10
7350.044679601707
 20
3906.078253235177
 10
7350.044679601707
 20
3895.149370530609
  0
CIRCLE
  5
18004
330
747D
100
AcDbEntity
  8
部品1
 48
50.0
100
AcDbCircle
 10
7353.544679601708
 20
3887.403403838194
 30
0.0
 40
19.0
  0
LWPOLYLINE
  5
18005
330
747D
100
AcDbEntity
  8
部品1
 48
50.0
100
AcDbPolyline
 90
        2
 70
     0
 43
0.0
 10
7350.044679601707
 20
3879.657437145779
 10
7350.044679601707
 20
3868.728554441212
  0
LWPOLYLINE
  5
18006
330
747D
100
AcDbEntity
  8
部品1
 48
50.0
100
AcDbPolyline
 90
        2
 70
     0
 43
0.0
 10
7357.044679601708
 20
3895.149370530609
 10
7357.044679601708
 20
3906.078253235177
  0
ARC
  5
18007
330
747D
100
AcDbEntity
  8
部品1
 48
50.0
100
AcDbCircle
 10
7353.544679601708
 20
3887.403403838194
 30
0.0
 40
8.5
100
AcDbArc
 50
294.315739171091
 51
65.68426082890896
  0
LWPOLYLINE
  5
18008
330
747D
100
AcDbEntity
  8
部品1
 48
50.0
100
AcDbPolyline
 90
        2
 70
     0
 43
0.0
 10
7357.044679601708
 20
3868.728554441212
 10
7357.044679601708
 20
3879.657437145779
  0
ARC
  5
18009
330
747D
100
AcDbEntity
  8
細線
 48
50.0
100
AcDbCircle
 10
7353.544679601708
 20
3887.403403838194
 30
0.0
 40
16.5
100
AcDbArc
 50
332.0012352654438
 51
27.99876473455621
  0
ARC
  5
1800A
330
747D
100
AcDbEntity
  8
細線
 48
50.0
100
AcDbCircle
 10
7353.544679601708
 20
3887.403403838194
 30
0.0
 40
14.0
100
AcDbArc
 50
326.4074436112986
 51
33.59255638870134
  0
LINE
  5
1800B
330
747D
100
AcDbEntity
  8
細線
 48
50.0
100
AcDbLine
 10
7338.975877317377
 20
3895.149370530609
 30
0.0
 11
7341.882775812019
 21
3895.149370530609
 31
0.0
  0
LINE
  5
1800C
330
747D
100
AcDbEntity
  8
細線
 48
50.0
100
AcDbLine
 10
7338.975877317377
 20
3879.657437145779
 30
0.0
 11
7341.882775812019
 21
3879.657437145779
 31
0.0
  0
LINE
  5
1800D
330
747D
100
AcDbEntity
  8
細線
 48
50.0
100
AcDbLine
 10
7365.206583391397
 20
3895.149370530609
 30
0.0
 11
7368.113481886043
 21
3895.149370530609
 31
0.0
  0
LINE
  5
1800E
330
747D
100
AcDbEntity
  8
細線
 48
50.0
100
AcDbLine
 10
7365.206583391397
 20
3879.657437145779
 30
0.0
 11
7368.113481886043
 21
3879.657437145779
 31
0.0
  0
ARC
  5
1800F
330
747D
100
AcDbEntity
  8
細線
 48
50.0
100
AcDbCircle
 10
7353.544679601708
 20
3887.403403838194
 30
0.0
 40
14.0
100
AcDbArc
 50
146.4074436112986
 51
213.5925563887013
  0
ARC
  5
18010
330
747D
100
AcDbEntity
  8
細線
 48
50.0
100
AcDbCircle
 10
7353.544679601708
 20
3887.403403838194
 30
0.0
 40
16.5
100
AcDbArc
 50
152.0012352654438
 51
207.9987647345562
  0
ARC
  5
18011
330
747D
100
AcDbEntity
  8
部品1
 48
50.0
100
AcDbCircle
 10
7327.044679601709
 20
3912.903403838195
 30
0.0
 40
5.0
100
AcDbArc
 50
90.0
 51
180.0
  0
ARC
  5
18012
330
747D
100
AcDbEntity
  8
部品1
 48
50.0
100
AcDbCircle
 10
7327.044679601709
 20
3801.903403838195
 30
0.0
 40
5.0
100
AcDbArc
 50
180.0
 51
270.0
  0
ARC
  5
18013
330
747D
100
AcDbEntity
  8
部品1
 48
50.0
100
AcDbCircle
 10
7380.044679601708
 20
3801.903403838195
 30
0.0
 40
5.0
100
AcDbArc
 50
270.0
 51
0.0
  0
ARC
  5
18014
330
747D
100
AcDbEntity
  8
部品1
 48
50.0
100
AcDbCircle
 10
7380.044679601708
 20
3912.903403838195
 30
0.0
 40
5.0
100
AcDbArc
 50
0.0
 51
90.0
  0
LINE
  5
18016
330
747D
100
AcDbEntity
  8
部品1
 48
50.0
100
AcDbLine
 10
7322.044679601707
 20
3801.903403838195
 30
0.0
 11
7322.044679601707
 21
3912.903403838195
 31
0.0
  0
LINE
  5
18017
330
747D
100
AcDbEntity
  8
部品1
 48
50.0
100
AcDbLine
 10
7380.044679601708
 20
3796.903403838194
 30
0.0
 11
7327.044679601709
 21
3796.903403838194
 31
0.0
  0
LINE
  5
18018
330
747D
100
AcDbEntity
  8
部品1
 48
50.0
100
AcDbLine
 10
7385.044679601708
 20
3912.903403838195
 30
0.0
 11
7385.044679601708
 21
3801.903403838195
 31
0.0
  0
LINE
  5
18033
330
747D
100
AcDbEntity
  8
破線
 48
10.0
100
AcDbLine
 10
5242.728165338459
 20
8191.357263431664
 30
0.0
 11
4548.54467960171
 21
8191.35726343161
 31
0.0
  0
LINE
  5
18034
330
747D
100
AcDbEntity
  8
破線
 48
10.0
100
AcDbLine
 10
5233.911816303036
 20
8241.357263431666
 30
0.0
 11
4548.54467960171
 21
8241.357263431609
 31
0.0
  0
LINE
  5
18035
330
747D
100
AcDbEntity
  8
破線
 48
10.0
100
AcDbLine
 10
5379.04467960174
 20
8241.357263431673
 30
0.0
 11
5264.374614659609
 21
8241.357263431664
 31
0.0
  0
LINE
  5
18036
330
747D
100
AcDbEntity
  8
破線
 48
10.0
100
AcDbLine
 10
5379.04467960174
 20
8191.357263431674
 30
0.0
 11
5273.190963695035
 21
8191.357263431667
 31
0.0
  0
LINE
  5
18037
330
747D
100
AcDbEntity
  8
破線
 48
10.0
100
AcDbLine
 10
6749.044679601739
 20
8191.357263431674
 30
0.0
 11
5918.54467960171
 21
8191.35726343161
 31
0.0
  0
LINE
  5
18038
330
747D
100
AcDbEntity
  8
破線
 48
10.0
100
AcDbLine
 10
6749.044679601739
 20
8241.357263431673
 30
0.0
 11
5918.54467960171
 21
8241.357263431609
 31
0.0
  0
LINE
  5
18039
330
747D
100
AcDbEntity
  8
破線
 48
10.0
100
AcDbLine
 10
8119.044679601739
 20
8241.357263431673
 30
0.0
 11
7288.54467960171
 21
8241.357263431609
 31
0.0
  0
LINE
  5
1803A
330
747D
100
AcDbEntity
  8
破線
 48
10.0
100
AcDbLine
 10
8119.044679601739
 20
8191.357263431674
 30
0.0
 11
7288.54467960171
 21
8191.35726343161
 31
0.0
  0
LINE
  5
18055
330
747D
100
AcDbEntity
  8
破線
 48
10.0
100
AcDbLine
 10
4572.044679601711
 20
8191.357263431612
 30
0.0
 11
4572.044679601719
 21
7647.857263431642
 31
0.0
  0
LINE
  5
18056
330
747D
100
AcDbEntity
  8
破線
 48
10.0
100
AcDbLine
 10
5942.044679601712
 20
8191.357263431715
 30
0.0
 11
5942.044679601719
 21
7647.857263431642
 31
0.0
  0
LINE
  5
18057
330
747D
100
AcDbEntity
  8
破線
 48
10.0
100
AcDbLine
 10
7312.044679601712
 20
8191.35726343182
 30
0.0
 11
7312.044679601719
 21
7647.857263431642
 31
0.0
  0
TEXT
  5
1805A
330
747D
100
AcDbEntity
  8
文字
 62
     7
 48
50.0
100
AcDbText
 10
15022.63965474517
 20
10930.01374588372
 30
0.0
 40
100.0
  1
F12            1.2
  7
STYLE1
100
AcDbText
  0
TEXT
  5
1805B
330
747D
100
AcDbEntity
  8
文字
 62
     7
 48
50.0
100
AcDbText
 10
13583.11819016569
 20
10930.01374588372
 30
0.0
 40
100.0
  1
根太
  7
STYLE1
100
AcDbText
  0
TEXT
  5
1805C
330
747D
100
AcDbEntity
  8
文字
 62
     7
 48
50.0
100
AcDbText
 10
13248.77747366448
 20
8550.013745883733
 30
0.0
 40
100.0
  1
16
  7
STYLE1
100
AcDbText
  0
LINE
  5
1805D
330
747D
100
AcDbEntity
  8
仕様書枠
 48
50.0
100
AcDbLine
 10
16307.19999999998
 20
8179.600000000002
 30
0.0
 11
13127.19999999999
 21
8179.600000000004
 31
0.0
  0
ENDSEC
  0
SECTION
  2
OBJECTS
  0
DICTIONARY
  5
7471
330
0
100
AcDbDictionary
281
     1
  3
ACAD_COLOR
350
1650A
  3
ACAD_GROUP
350
7472
  3
ACAD_LAYOUT
350
1650B
  3
ACAD_MATERIAL
350
16509
  3
ACAD_MLINESTYLE
350
7473
  3
ACAD_PLOTSETTINGS
350
1650C
  3
ACAD_PLOTSTYLENAME
350
16507
  3
ACDBHEADERROUNDTRIPXREC
350
1806C
  3
AcDbVariableDictionary
350
18068
  3
CONTENTDICTIONARY
350
E71C
  3
DRAWINGVARIABLESDICT
350
F3B9
  0
DICTIONARY
  5
16690
330
7467
100
AcDbDictionary
280
     1
281
     1
  3
ACAD_LAYERSTATES
360
16691
  0
DICTIONARY
  5
1650A
102
{ACAD_REACTORS
330
7471
102
}
330
7471
100
AcDbDictionary
281
     1
  0
DICTIONARY
  5
7472
102
{ACAD_REACTORS
330
7471
102
}
330
7471
100
AcDbDictionary
281
     1
  0
DICTIONARY
  5
1650B
102
{ACAD_REACTORS
330
7471
102
}
330
7471
100
AcDbDictionary
281
     1
  3
Model
350
1650D
  3
レイアウト1
350
1650E
  0
DICTIONARY
  5
16509
102
{ACAD_REACTORS
330
7471
102
}
330
7471
100
AcDbDictionary
281
     1
  0
DICTIONARY
  5
7473
102
{ACAD_REACTORS
330
7471
102
}
330
7471
100
AcDbDictionary
281
     1
  3
STANDARD
350
7480
  0
DICTIONARY
  5
1650C
102
{ACAD_REACTORS
330
7471
102
}
330
7471
100
AcDbDictionary
281
     1
  0
ACDBDICTIONARYWDFLT
  5
16507
102
{ACAD_REACTORS
330
7471
102
}
330
7471
100
AcDbDictionary
281
     1
  3
Normal
350
16508
100
AcDbDictionaryWithDefault
340
16508
  0
DICTIONARY
  5
1806C
102
{ACAD_REACTORS
330
7471
102
}
330
7471
100
AcDbDictionary
281
     1
  3
COLORDICT
350
1806E
  3
MATERIALDICT
350
1806D
  0
DICTIONARY
  5
18068
102
{ACAD_REACTORS
330
7471
102
}
330
7471
100
AcDbDictionary
281
     1
  3
DIMASSOC
350
18069
  3
PROJECTNAME
350
1806A
  0
DICTIONARY
  5
E71C
102
{ACAD_REACTORS
330
7471
102
}
330
7471
100
AcDbDictionary
281
     1
  0
DICTIONARY
  5
F3B9
102
{ACAD_REACTORS
330
7471
102
}
330
7471
100
AcDbDictionary
281
     1
1001
DRAWINGVARIABLESXDATA
1000
POLARMODE
1000
1
  0
DICTIONARY
  5
16691
102
{ACAD_REACTORS
330
16690
102
}
330
16690
100
AcDbDictionary
281
     1
  0
LAYOUT
  5
1650D
102
{ACAD_XDICTIONARY
360
1806F
102
}
102
{ACAD_REACTORS
330
1650B
102
}
330
1650B
100
AcDbPlotSettings
  1

  2
EPSON LP-7000C
  4

  6

 40
0.0
 41
0.0
 42
0.0
 43
0.0
 44
0.0
 45
0.0
 46
0.0
 47
0.0
 48
0.0
 49
0.0
140
0.0
141
0.0
142
1.0
143
1.0
 70
  1712
 72
     0
 73
     0
 74
     0
  7

 75
     0
147
1.0
148
0.0
149
0.0
100
AcDbLayout
  1
Model
 70
     1
 71
     0
 10
0.0
 20
0.0
 11
12.0
 21
9.0
 12
0.0
 22
0.0
 32
0.0
 14
0.0
 24
0.0
 34
0.0
 15
0.0
 25
0.0
 35
0.0
146
0.0
 13
0.0
 23
0.0
 33
0.0
 16
1.0
 26
0.0
 36
0.0
 17
0.0
 27
1.0
 37
0.0
 76
     0
330
747D
  0
LAYOUT
  5
1650E
102
{ACAD_XDICTIONARY
360
18071
102
}
102
{ACAD_REACTORS
330
1650B
102
}
330
1650B
100
AcDbPlotSettings
  1

  2
EPSON LP-7000C
  4

  6

 40
0.0
 41
0.0
 42
0.0
 43
0.0
 44
0.0
 45
0.0
 46
0.0
 47
0.0
 48
0.0
 49
0.0
140
0.0
141
0.0
142
1.0
143
1.0
 70
   688
 72
     0
 73
     0
 74
     5
  7

 75
    16
147
1.0
148
0.0
149
0.0
100
AcDbLayout
  1
レイアウト1
 70
     0
 71
     1
 10
0.0
 20
0.0
 11
420.0
 21
297.0
 12
0.0
 22
0.0
 32
0.0
 14
1.000000000000000E+20
 24
1.000000000000000E+20
 34
1.000000000000000E+20
 15
-1.000000000000000E+20
 25
-1.000000000000000E+20
 35
-1.000000000000000E+20
146
0.0
 13
0.0
 23
0.0
 33
0.0
 16
1.0
 26
0.0
 36
0.0
 17
0.0
 27
1.0
 37
0.0
 76
     0
330
747A
  0
MLINESTYLE
  5
7480
102
{ACAD_REACTORS
330
7473
102
}
330
7473
100
AcDbMlineStyle
  2
STANDARD
 70
     0
  3

 62
     0
 51
90.0
 52
90.0
 71
     2
 49
0.5
 62
   256
  6
BYLAYER
 49
-0.5
 62
   256
  6
BYLAYER
  0
ACDBPLACEHOLDER
  5
16508
102
{ACAD_REACTORS
330
16507
102
}
330
16507
  0
XRECORD
  5
1806E
102
{ACAD_REACTORS
330
1806C
102
}
330
1806C
100
AcDbXrecord
280
     1
340
1650A
  0
XRECORD
  5
1806D
102
{ACAD_REACTORS
330
1806C
102
}
330
1806C
100
AcDbXrecord
280
     1
340
16509
  0
DICTIONARYVAR
  5
18069
102
{ACAD_REACTORS
330
18068
102
}
330
18068
100
DictionaryVariables
280
     0
  1
1
  0
DICTIONARYVAR
  5
1806A
102
{ACAD_REACTORS
330
18068
102
}
330
18068
100
DictionaryVariables
280
     0
  1

  0
DICTIONARY
  5
1806F
330
1650D
100
AcDbDictionary
280
     1
281
     1
  3
ACAD_XREC_ROUNDTRIP
360
18070
  0
DICTIONARY
  5
18071
330
1650E
100
AcDbDictionary
280
     1
281
     1
  3
ACAD_XREC_ROUNDTRIP
360
18072
  0
XRECORD
  5
18070
102
{ACAD_REACTORS
330
1806F
102
}
330
1806F
100
AcDbXrecord
280
     1
102
SHADEPLOT
 70
     0
102
SHADEPLOTRESLEVEL
 70
     2
102
SHADEPLOTCUSTOMDPI
 70
   300
  0
XRECORD
  5
18072
102
{ACAD_REACTORS
330
18071
102
}
330
18071
100
AcDbXrecord
280
     1
102
SHADEPLOT
 70
     0
102
SHADEPLOTRESLEVEL
 70
     2
102
SHADEPLOTCUSTOMDPI
 70
   300
  0
ENDSEC
  0
EOF
