  0
SECTION
  2
HEADER
  9
$ACADVER
  1
AC1015
  9
$ACADMAINTVER
 70
    20
  9
$DWGCODEPAGE
  3
ANSI_932
  9
$INSBASE
 10
0.0
 20
0.0
 30
0.0
  9
$EXTMIN
 10
139.9999999999995
 20
-0.0000000000000909
 30
0.0
  9
$EXTMAX
 10
16307.2
 20
11409.6
 30
0.0
  9
$LIMMIN
 10
0.0
 20
0.0
  9
$LIMMAX
 10
16800.0
 20
11880.0
  9
$ORTHOMODE
 70
     0
  9
$REGENMODE
 70
     1
  9
$FILLMODE
 70
     1
  9
$QTEXTMODE
 70
     0
  9
$MIRRTEXT
 70
     1
  9
$LTSCALE
 40
20.0
  9
$ATTMODE
 70
     1
  9
$TEXTSIZE
 40
100.0
  9
$TRACEWID
 40
1.0
  9
$TEXTSTYLE
  7
STYLE3
  9
$CLAYER
  8
寸法
  9
$CELTYPE
  6
BYLAYER
  9
$CECOLOR
 62
   256
  9
$CELTSCALE
 40
50.0
  9
$DISPSILH
 70
     0
  9
$DIMSCALE
 40
40.0
  9
$DIMASZ
 40
2.5
  9
$DIMEXO
 40
0.5
  9
$DIMDLI
 40
7.0
  9
$DIMRND
 40
0.0
  9
$DIMDLE
 40
0.0
  9
$DIMEXE
 40
1.5
  9
$DIMTP
 40
0.0
  9
$DIMTM
 40
0.0
  9
$DIMTXT
 40
3.0
  9
$DIMCEN
 40
0.0
  9
$DIMTSZ
 40
0.0
  9
$DIMTOL
 70
     0
  9
$DIMLIM
 70
     0
  9
$DIMTIH
 70
     0
  9
$DIMTOH
 70
     0
  9
$DIMSE1
 70
     0
  9
$DIMSE2
 70
     0
  9
$DIMTAD
 70
     3
  9
$DIMZIN
 70
     8
  9
$DIMBLK
  1

  9
$DIMASO
 70
     1
  9
$DIMSHO
 70
     1
  9
$DIMPOST
  1

  9
$DIMAPOST
  1

  9
$DIMALT
 70
     0
  9
$DIMALTD
 70
     2
  9
$DIMALTF
 40
0.0394
  9
$DIMLFAC
 40
1.0
  9
$DIMTOFL
 70
     1
  9
$DIMTVP
 40
0.0
  9
$DIMTIX
 70
     1
  9
$DIMSOXD
 70
     0
  9
$DIMSAH
 70
     1
  9
$DIMBLK1
  1
DOTSMALL
  9
$DIMBLK2
  1
DOTSMALL
  9
$DIMSTYLE
  2
INABA_S40G
  9
$DIMCLRD
 70
     0
  9
$DIMCLRE
 70
     0
  9
$DIMCLRT
 70
     7
  9
$DIMTFAC
 40
1.0
  9
$DIMGAP
 40
1.0
  9
$DIMJUST
 70
     0
  9
$DIMSD1
 70
     0
  9
$DIMSD2
 70
     0
  9
$DIMTOLJ
 70
     1
  9
$DIMTZIN
 70
     0
  9
$DIMALTZ
 70
     0
  9
$DIMALTTZ
 70
     0
  9
$DIMUPT
 70
     0
  9
$DIMDEC
 70
     1
  9
$DIMTDEC
 70
     4
  9
$DIMALTU
 70
     2
  9
$DIMALTTD
 70
     2
  9
$DIMTXSTY
  7
STYLE1
  9
$DIMAUNIT
 70
     0
  9
$DIMADEC
 70
     0
  9
$DIMALTRND
 40
0.0
  9
$DIMAZIN
 70
     0
  9
$DIMDSEP
 70
    46
  9
$DIMATFIT
 70
     3
  9
$DIMFRAC
 70
     0
  9
$DIMLDRBLK
  1

  9
$DIMLUNIT
 70
     2
  9
$DIMLWD
 70
    -2
  9
$DIMLWE
 70
    -2
  9
$DIMTMOVE
 70
     0
  9
$LUNITS
 70
     2
  9
$LUPREC
 70
     1
  9
$SKETCHINC
 40
1.0
  9
$FILLETRAD
 40
5.0
  9
$AUNITS
 70
     0
  9
$AUPREC
 70
     0
  9
$MENU
  1
acad
  9
$ELEVATION
 40
0.0
  9
$PELEVATION
 40
0.0
  9
$THICKNESS
 40
0.0
  9
$LIMCHECK
 70
     0
  9
$CHAMFERA
 40
0.0
  9
$CHAMFERB
 40
0.0
  9
$CHAMFERC
 40
0.0
  9
$CHAMFERD
 40
0.0
  9
$SKPOLY
 70
     0
  9
$TDCREATE
 40
2452116.684896065
  9
$TDUCREATE
 40
2452116.309896065
  9
$TDUPDATE
 40
2455575.694920428
  9
$TDUUPDATE
 40
2455575.319920428
  9
$TDINDWG
 40
0.5072072338
  9
$TDUSRTIMER
 40
0.5072072338
  9
$USRTIMER
 70
     1
  9
$ANGBASE
 50
0.0
  9
$ANGDIR
 70
     0
  9
$PDMODE
 70
     3
  9
$PDSIZE
 40
2.0
  9
$PLINEWID
 40
0.0
  9
$SPLFRAME
 70
     0
  9
$SPLINETYPE
 70
     6
  9
$SPLINESEGS
 70
     8
  9
$HANDSEED
  5
17253
  9
$SURFTAB1
 70
     6
  9
$SURFTAB2
 70
     6
  9
$SURFTYPE
 70
     6
  9
$SURFU
 70
     6
  9
$SURFV
 70
     6
  9
$UCSBASE
  2

  9
$UCSNAME
  2

  9
$UCSORG
 10
0.0
 20
0.0
 30
0.0
  9
$UCSXDIR
 10
1.0
 20
0.0
 30
0.0
  9
$UCSYDIR
 10
0.0
 20
1.0
 30
0.0
  9
$UCSORTHOREF
  2

  9
$UCSORTHOVIEW
 70
     0
  9
$UCSORGTOP
 10
0.0
 20
0.0
 30
0.0
  9
$UCSORGBOTTOM
 10
0.0
 20
0.0
 30
0.0
  9
$UCSORGLEFT
 10
0.0
 20
0.0
 30
0.0
  9
$UCSORGRIGHT
 10
0.0
 20
0.0
 30
0.0
  9
$UCSORGFRONT
 10
0.0
 20
0.0
 30
0.0
  9
$UCSORGBACK
 10
0.0
 20
0.0
 30
0.0
  9
$PUCSBASE
  2

  9
$PUCSNAME
  2

  9
$PUCSORG
 10
0.0
 20
0.0
 30
0.0
  9
$PUCSXDIR
 10
1.0
 20
0.0
 30
0.0
  9
$PUCSYDIR
 10
0.0
 20
1.0
 30
0.0
  9
$PUCSORTHOREF
  2

  9
$PUCSORTHOVIEW
 70
     0
  9
$PUCSORGTOP
 10
0.0
 20
0.0
 30
0.0
  9
$PUCSORGBOTTOM
 10
0.0
 20
0.0
 30
0.0
  9
$PUCSORGLEFT
 10
0.0
 20
0.0
 30
0.0
  9
$PUCSORGRIGHT
 10
0.0
 20
0.0
 30
0.0
  9
$PUCSORGFRONT
 10
0.0
 20
0.0
 30
0.0
  9
$PUCSORGBACK
 10
0.0
 20
0.0
 30
0.0
  9
$USERI1
 70
     0
  9
$USERI2
 70
     0
  9
$USERI3
 70
     0
  9
$USERI4
 70
     0
  9
$USERI5
 70
     0
  9
$USERR1
 40
0.0
  9
$USERR2
 40
0.0
  9
$USERR3
 40
0.0
  9
$USERR4
 40
0.0
  9
$USERR5
 40
0.0
  9
$WORLDVIEW
 70
     1
  9
$SHADEDGE
 70
     3
  9
$SHADEDIF
 70
    70
  9
$TILEMODE
 70
     1
  9
$MAXACTVP
 70
    16
  9
$PINSBASE
 10
0.0
 20
0.0
 30
0.0
  9
$PLIMCHECK
 70
     0
  9
$PEXTMIN
 10
1.000000000000000E+20
 20
1.000000000000000E+20
 30
1.000000000000000E+20
  9
$PEXTMAX
 10
-1.000000000000000E+20
 20
-1.000000000000000E+20
 30
-1.000000000000000E+20
  9
$PLIMMIN
 10
0.0
 20
0.0
  9
$PLIMMAX
 10
420.0
 20
297.0
  9
$UNITMODE
 70
     0
  9
$VISRETAIN
 70
     0
  9
$PLINEGEN
 70
     0
  9
$PSLTSCALE
 70
     0
  9
$TREEDEPTH
 70
  3020
  9
$CMLSTYLE
  2
STANDARD
  9
$CMLJUST
 70
     0
  9
$CMLSCALE
 40
1.0
  9
$PROXYGRAPHICS
 70
     1
  9
$MEASUREMENT
 70
     1
  9
$CELWEIGHT
370
    -1
  9
$ENDCAPS
280
     0
  9
$JOINSTYLE
280
     0
  9
$LWDISPLAY
290
     0
  9
$INSUNITS
 70
     0
  9
$HYPERLINKBASE
  1

  9
$STYLESHEET
  1

  9
$XEDIT
290
     1
  9
$CEPSNTYPE
380
     0
  9
$PSTYLEMODE
290
     1
  9
$FINGERPRINTGUID
  2
{B3D8D85F-BB9B-4896-BAD7-06A357ADA06F}
  9
$VERSIONGUID
  2
{AD0450B9-C060-44C8-ADA0-72B4FBB3E69F}
  9
$EXTNAMES
290
     1
  9
$PSVPSCALE
 40
0.0
  9
$OLESTARTUP
290
     0
  0
ENDSEC
  0
SECTION
  2
CLASSES
  0
CLASS
  1
ACDBDICTIONARYWDFLT
  2
AcDbDictionaryWithDefault
  3
ObjectDBX Classes
 90
        0
280
     0
281
     0
  0
CLASS
  1
DICTIONARYVAR
  2
AcDbDictionaryVar
  3
ObjectDBX Classes
 90
        0
280
     0
281
     0
  0
CLASS
  1
ACDBPLACEHOLDER
  2
AcDbPlaceHolder
  3
ObjectDBX Classes
 90
        0
280
     0
281
     0
  0
CLASS
  1
LAYOUT
  2
AcDbLayout
  3
ObjectDBX Classes
 90
        0
280
     0
281
     0
  0
ENDSEC
  0
SECTION
  2
TABLES
  0
TABLE
  2
VPORT
  5
746D
330
0
100
AcDbSymbolTable
 70
     2
  0
VPORT
  5
1724B
330
746D
100
AcDbSymbolTableRecord
100
AcDbViewportTableRecord
  2
*Active
 70
     0
 10
0.0
 20
0.0
 11
1.0
 21
1.0
 12
9076.91645855874
 22
6347.66611132684
 13
0.0
 23
0.0
 14
10.0
 24
10.0
 15
10.0
 25
10.0
 16
0.0
 26
0.0
 36
1.0
 17
0.0
 27
0.0
 37
0.0
 40
12783.46462244035
 41
1.525925925925925
 42
50.0
 43
0.0
 44
0.0
 50
0.0
 51
0.0
 71
     0
 72
     0
 73
     1
 74
     0
 75
     0
 76
     0
 77
     0
 78
     0
281
     0
 65
     1
110
0.0
120
0.0
130
0.0
111
1.0
121
0.0
131
0.0
112
0.0
122
1.0
132
0.0
 79
     0
146
0.0
  0
ENDTAB
  0
TABLE
  2
LTYPE
  5
746A
330
0
100
AcDbSymbolTable
 70
     4
  0
LTYPE
  5
7477
330
746A
100
AcDbSymbolTableRecord
100
AcDbLinetypeTableRecord
  2
BYBLOCK
 70
     0
  3

 72
    65
 73
     0
 40
0.0
  0
LTYPE
  5
7478
330
746A
100
AcDbSymbolTableRecord
100
AcDbLinetypeTableRecord
  2
BYLAYER
 70
     0
  3

 72
    65
 73
     0
 40
0.0
  0
LTYPE
  5
7479
330
746A
100
AcDbSymbolTableRecord
100
AcDbLinetypeTableRecord
  2
CONTINUOUS
 70
     0
  3
Solid line
 72
    65
 73
     0
 40
0.0
  0
LTYPE
  5
7816
330
746A
100
AcDbSymbolTableRecord
100
AcDbLinetypeTableRecord
  2
CENTER
 70
     0
  3
____ _ ____ _ ____ _ ____ _ ____ _ ____ _ ____ 
 72
    65
 73
     4
 40
2.0
 49
1.25
 74
     0
 49
-0.25
 74
     0
 49
0.25
 74
     0
 49
-0.25
 74
     0
  0
LTYPE
  5
781A
330
746A
100
AcDbSymbolTableRecord
100
AcDbLinetypeTableRecord
  2
HIDDEN
 70
     0
  3
__ __ __ __ __ __ __ __ __ __ __ __ __ __ __ __
 72
    65
 73
     2
 40
0.375
 49
0.25
 74
     0
 49
-0.125
 74
     0
  0
LTYPE
  5
781B
330
746A
100
AcDbSymbolTableRecord
100
AcDbLinetypeTableRecord
  2
PHANTOM
 70
     0
  3
______  __  __  ______  __  __  ______  __  __ 
 72
    65
 73
     6
 40
2.5
 49
1.25
 74
     0
 49
-0.25
 74
     0
 49
0.25
 74
     0
 49
-0.25
 74
     0
 49
0.25
 74
     0
 49
-0.25
 74
     0
  0
ENDTAB
  0
TABLE
  2
LAYER
  5
7467
102
{ACAD_XDICTIONARY
360
159C3
102
}
330
0
100
AcDbSymbolTable
 70
    12
  0
LAYER
  5
7474
330
7467
100
AcDbSymbolTableRecord
100
AcDbLayerTableRecord
  2
0
 70
     0
 62
     7
  6
CONTINUOUS
370
    -3
390
1579F
  0
LAYER
  5
DEB2
330
7467
100
AcDbSymbolTableRecord
100
AcDbLayerTableRecord
  2
センター
 70
     0
 62
     3
  6
CENTER
370
    -3
390
1579F
  0
LAYER
  5
DEB3
330
7467
100
AcDbSymbolTableRecord
100
AcDbLayerTableRecord
  2
寸法
 70
     0
 62
     4
  6
CONTINUOUS
370
    -3
390
1579F
  0
LAYER
  5
DEB4
330
7467
100
AcDbSymbolTableRecord
100
AcDbLayerTableRecord
  2
部品1
 70
     0
 62
     7
  6
CONTINUOUS
370
    -3
390
1579F
  0
LAYER
  5
DEB5
330
7467
100
AcDbSymbolTableRecord
100
AcDbLayerTableRecord
  2
補助
 70
     0
 62
    -1
  6
CONTINUOUS
370
    -3
390
1579F
  0
LAYER
  5
DEB6
330
7467
100
AcDbSymbolTableRecord
100
AcDbLayerTableRecord
  2
文字
 70
     0
 62
     7
  6
CONTINUOUS
370
    -3
390
1579F
  0
LAYER
  5
F255
330
7467
100
AcDbSymbolTableRecord
100
AcDbLayerTableRecord
  2
DEFPOINTS
 70
     0
 62
     7
  6
CONTINUOUS
290
     0
370
    -3
390
1579F
  0
LAYER
  5
10B54
330
7467
100
AcDbSymbolTableRecord
100
AcDbLayerTableRecord
  2
仕様書枠
 70
     0
 62
   230
  6
CONTINUOUS
370
    -3
390
1579F
  0
LAYER
  5
11729
330
7467
100
AcDbSymbolTableRecord
100
AcDbLayerTableRecord
  2
Ｇ．Ｌ
 70
     0
 62
    30
  6
CONTINUOUS
370
    -3
390
1579F
  0
LAYER
  5
1173F
330
7467
100
AcDbSymbolTableRecord
100
AcDbLayerTableRecord
  2
細線
 70
     0
 62
     5
  6
CONTINUOUS
370
    -3
390
1579F
  0
LAYER
  5
118A1
330
7467
100
AcDbSymbolTableRecord
100
AcDbLayerTableRecord
  2
想像線
 70
     0
 62
     6
  6
PHANTOM
370
    -3
390
1579F
  0
LAYER
  5
123C1
330
7467
100
AcDbSymbolTableRecord
100
AcDbLayerTableRecord
  2
破線
 70
     0
 62
     2
  6
HIDDEN
370
    -3
390
1579F
  0
ENDTAB
  0
TABLE
  2
STYLE
  5
7468
330
0
100
AcDbSymbolTable
 70
     4
  0
STYLE
  5
7475
330
7468
100
AcDbSymbolTableRecord
100
AcDbTextStyleTableRecord
  2
STANDARD
 70
     0
 40
0.0
 41
1.0
 50
0.0
 71
     0
 42
4.0
  3
txt
  4
C:\AutoCAD LT\bigfont.shx
  0
STYLE
  5
F706
330
7468
100
AcDbSymbolTableRecord
100
AcDbTextStyleTableRecord
  2
STYLE1
 70
     0
 40
0.0
 41
1.0
 50
0.0
 71
     0
 42
4.0
  3
isocp.shx
  4
bigfont.shx
  0
STYLE
  5
103BF
330
7468
100
AcDbSymbolTableRecord
100
AcDbTextStyleTableRecord
  2
STYLE2
 70
     0
 40
0.0
 41
1.0
 50
0.0
 71
     0
 42
100.0
  3
MS PGothic.ttf
  4

1001
ACAD
1000
MS PGothic
1071
    32818
  0
STYLE
  5
10BAA
330
7468
100
AcDbSymbolTableRecord
100
AcDbTextStyleTableRecord
  2
STYLE3
 70
     0
 40
0.0
 41
1.0
 50
0.0
 71
     0
 42
100.0
  3

  4

1001
ACAD
1000
DFPGothic-EB
1071
    32818
  0
ENDTAB
  0
TABLE
  2
VIEW
  5
746B
330
0
100
AcDbSymbolTable
 70
     0
  0
ENDTAB
  0
TABLE
  2
UCS
  5
746C
330
0
100
AcDbSymbolTable
 70
     0
  0
ENDTAB
  0
TABLE
  2
APPID
  5
746E
330
0
100
AcDbSymbolTable
 70
     6
  0
APPID
  5
7476
330
746E
100
AcDbSymbolTableRecord
100
AcDbRegAppTableRecord
  2
ACAD
 70
     0
  0
APPID
  5
DEA9
330
746E
100
AcDbSymbolTableRecord
100
AcDbRegAppTableRecord
  2
CONTENTBLOCKICON
 70
     0
  0
APPID
  5
DEAA
330
746E
100
AcDbSymbolTableRecord
100
AcDbRegAppTableRecord
  2
CONTENTBLOCKDESCRIPTION
 70
     0
  0
APPID
  5
E71D
330
746E
100
AcDbSymbolTableRecord
100
AcDbRegAppTableRecord
  2
CONTENTTABDATA
 70
     0
  0
APPID
  5
E71E
330
746E
100
AcDbSymbolTableRecord
100
AcDbRegAppTableRecord
  2
CONTENTCURRENTTAB
 70
     0
  0
APPID
  5
F3BA
330
746E
100
AcDbSymbolTableRecord
100
AcDbRegAppTableRecord
  2
DRAWINGVARIABLESXDATA
 70
     0
  0
ENDTAB
  0
TABLE
  2
DIMSTYLE
  5
746F
330
0
100
AcDbSymbolTable
 70
     2
100
AcDbDimStyleTable
 71
     0
  0
DIMSTYLE
105
7484
330
746F
100
AcDbSymbolTableRecord
100
AcDbDimStyleTableRecord
  2
JIS
 70
     0
 41
2.5
 42
1.0
 43
7.0
 44
1.0
 73
     0
 74
     0
 77
     1
 78
     8
140
2.5
141
0.0
143
0.0394
147
0.0
172
     1
174
     1
175
     1
340
7475
  0
DIMSTYLE
105
F71F
102
{ACAD_REACTORS
330
14E40
330
14E47
330
14E4C
330
14E65
330
14EDC
330
14EDF
330
14EE6
330
14EE9
330
14EF0
330
14EFC
330
14EFE
330
14EFF
330
14F06
330
15249
330
15256
330
15263
330
15397
330
153AF
330
15497
330
15496
330
15470
330
155CA
330
155FC
330
155F9
330
156D5
330
156FB
330
156FA
330
16058
330
16059
330
1605D
330
1605E
330
1605F
330
16060
330
16084
330
16085
330
16097
330
16B46
330
16B55
330
16B56
330
16B57
330
16D64
330
16F92
330
16F91
330
16F90
330
16F8F
330
16F8E
330
17002
102
}
330
746F
100
AcDbSymbolTableRecord
100
AcDbDimStyleTableRecord
  2
INABA_S40G
 70
     0
 40
40.0
 41
2.5
 42
0.5
 43
7.0
 44
1.5
 73
     0
 74
     0
 77
     3
 78
     8
140
3.0
141
0.0
143
0.0394
147
1.0
172
     1
173
     1
174
     1
178
     7
271
     1
340
F706
341
F770
343
F770
344
F770
  0
ENDTAB
  0
TABLE
  2
BLOCK_RECORD
  5
7466
330
0
100
AcDbSymbolTable
 70
    48
  0
BLOCK_RECORD
  5
747D
330
7466
100
AcDbSymbolTableRecord
100
AcDbBlockTableRecord
  2
*MODEL_SPACE
340
157A4
  0
BLOCK_RECORD
  5
747A
330
7466
100
AcDbSymbolTableRecord
100
AcDbBlockTableRecord
  2
*PAPER_SPACE
340
157A5
  0
BLOCK_RECORD
  5
F770
330
7466
100
AcDbSymbolTableRecord
100
AcDbBlockTableRecord
  2
_DOTSMALL
340
0
102
{BLKREFS
331
1701B
331
1701C
331
17024
331
17025
331
1702D
331
1702E
331
17038
331
17039
331
17043
331
17044
331
1704C
331
1704D
331
17056
331
17057
331
17060
331
17061
331
17069
331
1706A
331
17074
331
17075
331
1707D
331
1707E
331
17086
331
17087
331
17091
331
17092
331
1709A
331
1709B
331
170D9
331
170DA
331
170E3
331
170E4
331
170EB
331
170EC
331
170F5
331
170F6
331
170FD
331
170FE
331
17106
331
17107
331
1710F
331
17110
331
17119
331
1711A
331
17121
331
17122
331
1712A
331
1712B
331
17133
331
17134
331
1713C
331
1713D
331
17145
331
17146
331
1714E
331
1714F
331
17159
331
1715A
331
17164
331
17165
331
1716D
331
1716E
331
17176
331
17177
331
17180
331
17181
331
17189
331
1718A
331
17191
331
17192
331
1719A
331
1719B
331
171A5
331
171A6
331
171AE
331
171AF
331
171B7
331
171B8
331
171C0
331
171C1
331
171CB
331
171CC
331
171DF
331
171E0
331
171E8
331
171E9
331
171F1
331
171F2
331
171FA
331
171FB
331
17203
331
17204
331
1720C
331
1720D
102
}
  0
BLOCK_RECORD
  5
14FC7
330
7466
100
AcDbSymbolTableRecord
100
AcDbBlockTableRecord
  2
*D1
340
0
  0
BLOCK_RECORD
  5
14FD5
330
7466
100
AcDbSymbolTableRecord
100
AcDbBlockTableRecord
  2
*D2
340
0
  0
BLOCK_RECORD
  5
14FE1
330
7466
100
AcDbSymbolTableRecord
100
AcDbBlockTableRecord
  2
*D3
340
0
  0
BLOCK_RECORD
  5
14FF9
330
7466
100
AcDbSymbolTableRecord
100
AcDbBlockTableRecord
  2
*D4
340
0
  0
BLOCK_RECORD
  5
15035
330
7466
100
AcDbSymbolTableRecord
100
AcDbBlockTableRecord
  2
*D5
340
0
  0
BLOCK_RECORD
  5
15043
330
7466
100
AcDbSymbolTableRecord
100
AcDbBlockTableRecord
  2
*D6
340
0
  0
BLOCK_RECORD
  5
1504F
330
7466
100
AcDbSymbolTableRecord
100
AcDbBlockTableRecord
  2
*D7
340
0
  0
BLOCK_RECORD
  5
1505B
330
7466
100
AcDbSymbolTableRecord
100
AcDbBlockTableRecord
  2
*D8
340
0
  0
BLOCK_RECORD
  5
15067
330
7466
100
AcDbSymbolTableRecord
100
AcDbBlockTableRecord
  2
*D9
340
0
  0
BLOCK_RECORD
  5
15073
330
7466
100
AcDbSymbolTableRecord
100
AcDbBlockTableRecord
  2
*D10
340
0
  0
BLOCK_RECORD
  5
1508B
330
7466
100
AcDbSymbolTableRecord
100
AcDbBlockTableRecord
  2
*D11
340
0
  0
BLOCK_RECORD
  5
15097
330
7466
100
AcDbSymbolTableRecord
100
AcDbBlockTableRecord
  2
*D12
340
0
  0
BLOCK_RECORD
  5
150A5
330
7466
100
AcDbSymbolTableRecord
100
AcDbBlockTableRecord
  2
*D13
340
0
  0
BLOCK_RECORD
  5
1523D
330
7466
100
AcDbSymbolTableRecord
100
AcDbBlockTableRecord
  2
*D14
340
0
  0
BLOCK_RECORD
  5
1524A
330
7466
100
AcDbSymbolTableRecord
100
AcDbBlockTableRecord
  2
*D15
340
0
  0
BLOCK_RECORD
  5
15257
330
7466
100
AcDbSymbolTableRecord
100
AcDbBlockTableRecord
  2
*D16
340
0
  0
BLOCK_RECORD
  5
15398
330
7466
100
AcDbSymbolTableRecord
100
AcDbBlockTableRecord
  2
*D17
340
0
  0
BLOCK_RECORD
  5
153B0
330
7466
100
AcDbSymbolTableRecord
100
AcDbBlockTableRecord
  2
*D18
340
0
  0
BLOCK_RECORD
  5
154A2
330
7466
100
AcDbSymbolTableRecord
100
AcDbBlockTableRecord
  2
*D19
340
0
  0
BLOCK_RECORD
  5
154AE
330
7466
100
AcDbSymbolTableRecord
100
AcDbBlockTableRecord
  2
*D20
340
0
  0
BLOCK_RECORD
  5
154BA
330
7466
100
AcDbSymbolTableRecord
100
AcDbBlockTableRecord
  2
*D21
340
0
  0
BLOCK_RECORD
  5
15603
330
7466
100
AcDbSymbolTableRecord
100
AcDbBlockTableRecord
  2
*D22
340
0
  0
BLOCK_RECORD
  5
1560F
330
7466
100
AcDbSymbolTableRecord
100
AcDbBlockTableRecord
  2
*D23
340
0
  0
BLOCK_RECORD
  5
1561B
330
7466
100
AcDbSymbolTableRecord
100
AcDbBlockTableRecord
  2
*D24
340
0
  0
BLOCK_RECORD
  5
15706
330
7466
100
AcDbSymbolTableRecord
100
AcDbBlockTableRecord
  2
*D25
340
0
  0
BLOCK_RECORD
  5
15712
330
7466
100
AcDbSymbolTableRecord
100
AcDbBlockTableRecord
  2
*D26
340
0
  0
BLOCK_RECORD
  5
1571E
330
7466
100
AcDbSymbolTableRecord
100
AcDbBlockTableRecord
  2
*D27
340
0
  0
BLOCK_RECORD
  5
16283
330
7466
100
AcDbSymbolTableRecord
100
AcDbBlockTableRecord
  2
*D28
340
0
  0
BLOCK_RECORD
  5
1628F
330
7466
100
AcDbSymbolTableRecord
100
AcDbBlockTableRecord
  2
*D29
340
0
  0
BLOCK_RECORD
  5
1629D
330
7466
100
AcDbSymbolTableRecord
100
AcDbBlockTableRecord
  2
*D30
340
0
  0
BLOCK_RECORD
  5
162A9
330
7466
100
AcDbSymbolTableRecord
100
AcDbBlockTableRecord
  2
*D31
340
0
  0
BLOCK_RECORD
  5
162B5
330
7466
100
AcDbSymbolTableRecord
100
AcDbBlockTableRecord
  2
*D32
340
0
  0
BLOCK_RECORD
  5
162C3
330
7466
100
AcDbSymbolTableRecord
100
AcDbBlockTableRecord
  2
*D33
340
0
  0
BLOCK_RECORD
  5
162CF
330
7466
100
AcDbSymbolTableRecord
100
AcDbBlockTableRecord
  2
*D34
340
0
  0
BLOCK_RECORD
  5
162DC
330
7466
100
AcDbSymbolTableRecord
100
AcDbBlockTableRecord
  2
*D35
340
0
  0
BLOCK_RECORD
  5
162E9
330
7466
100
AcDbSymbolTableRecord
100
AcDbBlockTableRecord
  2
*D36
340
0
  0
BLOCK_RECORD
  5
16D73
330
7466
100
AcDbSymbolTableRecord
100
AcDbBlockTableRecord
  2
*D37
340
0
  0
BLOCK_RECORD
  5
16D81
330
7466
100
AcDbSymbolTableRecord
100
AcDbBlockTableRecord
  2
*D38
340
0
  0
BLOCK_RECORD
  5
16D8F
330
7466
100
AcDbSymbolTableRecord
100
AcDbBlockTableRecord
  2
*D39
340
0
  0
BLOCK_RECORD
  5
16D9B
330
7466
100
AcDbSymbolTableRecord
100
AcDbBlockTableRecord
  2
*D40
340
0
  0
BLOCK_RECORD
  5
16E19
330
7466
100
AcDbSymbolTableRecord
100
AcDbBlockTableRecord
  2
*D41
340
0
  0
BLOCK_RECORD
  5
16F98
330
7466
100
AcDbSymbolTableRecord
100
AcDbBlockTableRecord
  2
*D42
340
0
  0
BLOCK_RECORD
  5
16FA4
330
7466
100
AcDbSymbolTableRecord
100
AcDbBlockTableRecord
  2
*D43
340
0
  0
BLOCK_RECORD
  5
16FB0
330
7466
100
AcDbSymbolTableRecord
100
AcDbBlockTableRecord
  2
*D44
340
0
  0
BLOCK_RECORD
  5
16FBC
330
7466
100
AcDbSymbolTableRecord
100
AcDbBlockTableRecord
  2
*D45
340
0
  0
BLOCK_RECORD
  5
16FC8
330
7466
100
AcDbSymbolTableRecord
100
AcDbBlockTableRecord
  2
*D46
340
0
  0
BLOCK_RECORD
  5
17003
330
7466
100
AcDbSymbolTableRecord
100
AcDbBlockTableRecord
  2
*D47
340
0
  0
ENDTAB
  0
ENDSEC
  0
SECTION
  2
BLOCKS
  0
BLOCK
  5
7489
330
747D
100
AcDbEntity
  8
0
100
AcDbBlockBegin
  2
*MODEL_SPACE
 70
     0
 10
0.0
 20
0.0
 30
0.0
  3
*MODEL_SPACE
  1

  0
ENDBLK
  5
748A
330
747D
100
AcDbEntity
  8
0
100
AcDbBlockEnd
  0
BLOCK
  5
7487
330
747A
100
AcDbEntity
 67
     1
  8
0
100
AcDbBlockBegin
  2
*PAPER_SPACE
 70
     0
 10
0.0
 20
0.0
 30
0.0
  3
*PAPER_SPACE
  1

  0
ENDBLK
  5
7488
330
747A
100
AcDbEntity
 67
     1
  8
0
100
AcDbBlockEnd
  0
BLOCK
  5
F771
330
F770
100
AcDbEntity
  8
0
 48
50.0
100
AcDbBlockBegin
  2
_DOTSMALL
 70
     0
 10
0.0
 20
0.0
 30
0.0
  3
_DOTSMALL
  1

  0
LWPOLYLINE
  5
F772
330
F770
100
AcDbEntity
  8
0
  6
ByBlock
 62
     0
 48
50.0
100
AcDbPolyline
 90
        2
 70
     1
 43
0.5
 10
-0.0625
 20
0.0
 42
1.0
 10
0.0625
 20
0.0
 42
1.0
  0
ENDBLK
  5
F776
330
F770
100
AcDbEntity
  8
0
 48
50.0
100
AcDbBlockEnd
  0
BLOCK
  5
15162
330
14FC7
100
AcDbEntity
  8
0
 48
50.0
100
AcDbBlockBegin
  2
*D1
 70
     1
 10
0.0
 20
0.0
 30
0.0
  3
*D1
  1

  0
LINE
  5
171C6
330
14FC7
100
AcDbEntity
  8
寸法
 62
     0
 48
50.0
370
    -2
100
AcDbLine
 10
9405.480607178546
 20
9477.058806794047
 30
0.0
 11
9405.480607178546
 21
9732.867026419029
 31
0.0
  0
LINE
  5
171C7
330
14FC7
100
AcDbEntity
  8
寸法
 62
     0
 48
50.0
370
    -2
100
AcDbLine
 10
9460.480607178546
 20
9477.058806794047
 30
0.0
 11
9460.480607178546
 21
9732.867026419029
 31
0.0
  0
LINE
  5
171C8
330
14FC7
100
AcDbEntity
  8
寸法
 62
     0
 48
50.0
370
    -2
100
AcDbLine
 10
9405.480607178546
 20
9672.86702641903
 30
0.0
 11
9305.480607178546
 21
9672.86702641903
 31
0.0
  0
LINE
  5
171C9
330
14FC7
100
AcDbEntity
  8
寸法
 62
     0
 48
50.0
370
    -2
100
AcDbLine
 10
9460.480607178546
 20
9672.86702641903
 30
0.0
 11
9877.451169927025
 21
9672.86702641903
 31
0.0
  0
LINE
  5
171CA
330
14FC7
100
AcDbEntity
  8
寸法
 62
     0
 48
50.0
370
    -2
100
AcDbLine
 10
9405.480607178546
 20
9672.86702641903
 30
0.0
 11
9460.480607178546
 21
9672.86702641903
 31
0.0
  0
INSERT
  5
171CB
330
14FC7
100
AcDbEntity
  8
寸法
 62
     0
 48
50.0
370
    -2
100
AcDbBlockReference
  2
_DOTSMALL
 10
9405.480607178546
 20
9672.86702641903
 30
0.0
 41
100.0
 42
100.0
 43
100.0
  0
INSERT
  5
171CC
330
14FC7
100
AcDbEntity
  8
寸法
 62
     0
 48
50.0
370
    -2
100
AcDbBlockReference
  2
_DOTSMALL
 10
9460.480607178546
 20
9672.86702641903
 30
0.0
 41
100.0
 42
100.0
 43
100.0
 50
180.0
  0
MTEXT
  5
171CD
330
14FC7
100
AcDbEntity
  8
寸法
 62
     7
 48
50.0
100
AcDbMText
 10
9768.965888552786
 20
9772.86702641903
 30
0.0
 40
120.0
 41
0.0
 71
     5
 72
     1
  1
\A1;55
  7
STYLE1
 73
     1
 44
1.0
1001
ACAD
1000
MTEXTBEGIN
1070
    73
1070
     1
1070
    44
1040
1.0
1070
    74
1070
     0
1000
MTEXTEND
  0
POINT
  5
171CE
330
14FC7
100
AcDbEntity
  8
DEFPOINTS
 62
     0
 48
50.0
100
AcDbPoint
 10
9405.480607178546
 20
9457.058806794048
 30
0.0
  0
POINT
  5
171CF
330
14FC7
100
AcDbEntity
  8
DEFPOINTS
 62
     0
 48
50.0
100
AcDbPoint
 10
9460.480607178546
 20
9457.058806794048
 30
0.0
  0
POINT
  5
171D0
330
14FC7
100
AcDbEntity
  8
DEFPOINTS
 62
     0
 48
50.0
100
AcDbPoint
 10
9460.480607178546
 20
9672.86702641903
 30
0.0
  0
ENDBLK
  5
1516E
330
14FC7
100
AcDbEntity
  8
0
 48
50.0
100
AcDbBlockEnd
  0
BLOCK
  5
1516F
330
14FD5
100
AcDbEntity
  8
0
 48
50.0
100
AcDbBlockBegin
  2
*D2
 70
     1
 10
0.0
 20
0.0
 30
0.0
  3
*D2
  1

  0
LINE
  5
171BD
330
14FD5
100
AcDbEntity
  8
寸法
 62
     0
 48
50.0
370
    -2
100
AcDbLine
 10
8565.480607178542
 20
9477.058806793982
 30
0.0
 11
8565.480607178542
 21
9732.867026419052
 31
0.0
  0
LINE
  5
171BE
330
14FD5
100
AcDbEntity
  8
寸法
 62
     0
 48
50.0
370
    -2
100
AcDbLine
 10
9405.480607178542
 20
9477.058806794069
 30
0.0
 11
9405.480607178542
 21
9732.867026419052
 31
0.0
  0
LINE
  5
171BF
330
14FD5
100
AcDbEntity
  8
寸法
 62
     0
 48
50.0
370
    -2
100
AcDbLine
 10
8565.480607178542
 20
9672.867026419051
 30
0.0
 11
9405.480607178542
 21
9672.867026419051
 31
0.0
  0
INSERT
  5
171C0
330
14FD5
100
AcDbEntity
  8
寸法
 62
     0
 48
50.0
370
    -2
100
AcDbBlockReference
  2
_DOTSMALL
 10
8565.480607178542
 20
9672.867026419051
 30
0.0
 41
100.0
 42
100.0
 43
100.0
 50
180.0
  0
INSERT
  5
171C1
330
14FD5
100
AcDbEntity
  8
寸法
 62
     0
 48
50.0
370
    -2
100
AcDbBlockReference
  2
_DOTSMALL
 10
9405.480607178542
 20
9672.867026419051
 30
0.0
 41
100.0
 42
100.0
 43
100.0
  0
MTEXT
  5
171C2
330
14FD5
100
AcDbEntity
  8
寸法
 62
     7
 48
50.0
100
AcDbMText
 10
8985.480607178542
 20
9772.878837442673
 30
0.0
 40
120.0
 41
0.0
 71
     5
 72
     1
  1
\A1;2X420=840
  7
STYLE1
 73
     1
 44
1.0
1001
ACAD
1000
MTEXTBEGIN
1070
    73
1070
     1
1070
    44
1040
1.0
1070
    74
1070
     0
1000
MTEXTEND
  0
POINT
  5
171C3
330
14FD5
100
AcDbEntity
  8
DEFPOINTS
 62
     0
 48
50.0
100
AcDbPoint
 10
8565.480607178542
 20
9457.058806793982
 30
0.0
  0
POINT
  5
171C4
330
14FD5
100
AcDbEntity
  8
DEFPOINTS
 62
     0
 48
50.0
100
AcDbPoint
 10
9405.480607178542
 20
9457.058806794071
 30
0.0
  0
POINT
  5
171C5
330
14FD5
100
AcDbEntity
  8
DEFPOINTS
 62
     0
 48
50.0
100
AcDbPoint
 10
9405.480607178542
 20
9672.867026419051
 30
0.0
  0
ENDBLK
  5
15179
330
14FD5
100
AcDbEntity
  8
0
 48
50.0
100
AcDbBlockEnd
  0
BLOCK
  5
1572A
330
14FE1
100
AcDbEntity
  8
0
 48
50.0
100
AcDbBlockBegin
  2
*D3
 70
     1
 10
0.0
 20
0.0
 30
0.0
  3
*D3
  1

  0
LINE
  5
171B4
330
14FE1
100
AcDbEntity
  8
寸法
 62
     0
 48
50.0
370
    -2
100
AcDbLine
 10
3760.480607178539
 20
7907.058806793873
 30
0.0
 11
3760.480607178539
 21
6879.956931933797
 31
0.0
  0
LINE
  5
171B5
330
14FE1
100
AcDbEntity
  8
寸法
 62
     0
 48
50.0
370
    -2
100
AcDbLine
 10
9460.480607178521
 20
7907.058806794005
 30
0.0
 11
9460.480607178521
 21
6879.956931933797
 31
0.0
  0
LINE
  5
171B6
330
14FE1
100
AcDbEntity
  8
寸法
 62
     0
 48
50.0
370
    -2
100
AcDbLine
 10
3760.480607178539
 20
6939.956931933797
 30
0.0
 11
9460.480607178521
 21
6939.956931933797
 31
0.0
  0
INSERT
  5
171B7
330
14FE1
100
AcDbEntity
  8
寸法
 62
     0
 48
50.0
370
    -2
100
AcDbBlockReference
  2
_DOTSMALL
 10
3760.480607178539
 20
6939.956931933797
 30
0.0
 41
100.0
 42
100.0
 43
100.0
 50
180.0
  0
INSERT
  5
171B8
330
14FE1
100
AcDbEntity
  8
寸法
 62
     0
 48
50.0
370
    -2
100
AcDbBlockReference
  2
_DOTSMALL
 10
9460.480607178521
 20
6939.956931933797
 30
0.0
 41
100.0
 42
100.0
 43
100.0
  0
MTEXT
  5
171B9
330
14FE1
100
AcDbEntity
  8
寸法
 62
     7
 48
50.0
100
AcDbMText
 10
6610.48060717853
 20
7039.956931933797
 30
0.0
 40
120.0
 41
0.0
 71
     5
 72
     1
  1
\A1;5700
  7
STYLE1
 73
     1
 44
1.0
1001
ACAD
1000
MTEXTBEGIN
1070
    73
1070
     1
1070
    44
1040
1.0
1070
    74
1070
     0
1000
MTEXTEND
  0
POINT
  5
171BA
330
14FE1
100
AcDbEntity
  8
DEFPOINTS
 62
     0
 48
50.0
100
AcDbPoint
 10
3760.480607178539
 20
7927.058806793873
 30
0.0
  0
POINT
  5
171BB
330
14FE1
100
AcDbEntity
  8
DEFPOINTS
 62
     0
 48
50.0
100
AcDbPoint
 10
9460.480607178521
 20
7927.058806794004
 30
0.0
  0
POINT
  5
171BC
330
14FE1
100
AcDbEntity
  8
DEFPOINTS
 62
     0
 48
50.0
100
AcDbPoint
 10
9460.480607178521
 20
6939.956931933797
 30
0.0
  0
ENDBLK
  5
15734
330
14FE1
100
AcDbEntity
  8
0
 48
50.0
100
AcDbBlockEnd
  0
BLOCK
  5
15190
330
14FF9
100
AcDbEntity
  8
0
 48
50.0
100
AcDbBlockBegin
  2
*D4
 70
     1
 10
0.0
 20
0.0
 30
0.0
  3
*D4
  1

  0
LINE
  5
171AB
330
14FF9
100
AcDbEntity
  8
寸法
 62
     0
 48
50.0
370
    -2
100
AcDbLine
 10
8565.480607178542
 20
7907.058806793947
 30
0.0
 11
8565.480607178542
 21
7427.235138998868
 31
0.0
  0
LINE
  5
171AC
330
14FF9
100
AcDbEntity
  8
寸法
 62
     0
 48
50.0
370
    -2
100
AcDbLine
 10
9250.480607178536
 20
7907.05880679391
 30
0.0
 11
9250.480607178536
 21
7427.235138998868
 31
0.0
  0
LINE
  5
171AD
330
14FF9
100
AcDbEntity
  8
寸法
 62
     0
 48
50.0
370
    -2
100
AcDbLine
 10
8565.480607178542
 20
7487.235138998869
 30
0.0
 11
9250.480607178536
 21
7487.235138998869
 31
0.0
  0
INSERT
  5
171AE
330
14FF9
100
AcDbEntity
  8
寸法
 62
     0
 48
50.0
370
    -2
100
AcDbBlockReference
  2
_DOTSMALL
 10
8565.480607178542
 20
7487.235138998869
 30
0.0
 41
100.0
 42
100.0
 43
100.0
 50
180.0
  0
INSERT
  5
171AF
330
14FF9
100
AcDbEntity
  8
寸法
 62
     0
 48
50.0
370
    -2
100
AcDbBlockReference
  2
_DOTSMALL
 10
9250.480607178536
 20
7487.235138998869
 30
0.0
 41
100.0
 42
100.0
 43
100.0
  0
MTEXT
  5
171B0
330
14FF9
100
AcDbEntity
  8
寸法
 62
     7
 48
50.0
100
AcDbMText
 10
8907.980607178538
 20
7687.235138998869
 30
0.0
 40
120.0
 41
0.0
 71
     5
 72
     1
  1
\A1;有効開口部間口\P685
  7
STYLE1
 73
     1
 44
1.0
1001
ACAD
1000
MTEXTBEGIN
1070
    73
1070
     1
1070
    44
1040
1.0
1070
    74
1070
     0
1000
MTEXTEND
  0
POINT
  5
171B1
330
14FF9
100
AcDbEntity
  8
DEFPOINTS
 62
     0
 48
50.0
100
AcDbPoint
 10
8565.480607178542
 20
7927.058806793946
 30
0.0
  0
POINT
  5
171B2
330
14FF9
100
AcDbEntity
  8
DEFPOINTS
 62
     0
 48
50.0
100
AcDbPoint
 10
9250.480607178536
 20
7927.05880679391
 30
0.0
  0
POINT
  5
171B3
330
14FF9
100
AcDbEntity
  8
DEFPOINTS
 62
     0
 48
50.0
100
AcDbPoint
 10
9250.480607178536
 20
7487.235138998869
 30
0.0
  0
ENDBLK
  5
1519A
330
14FF9
100
AcDbEntity
  8
0
 48
50.0
100
AcDbBlockEnd
  0
BLOCK
  5
151C7
330
15035
100
AcDbEntity
  8
0
 48
50.0
100
AcDbBlockBegin
  2
*D5
 70
     1
 10
0.0
 20
0.0
 30
0.0
  3
*D5
  1

  0
LINE
  5
171A0
330
15035
100
AcDbEntity
  8
寸法
 62
     0
 48
50.0
370
    -2
100
AcDbLine
 10
3760.48060717851
 20
9477.058806793953
 30
0.0
 11
3760.48060717851
 21
9732.867026418936
 31
0.0
  0
LINE
  5
171A1
330
15035
100
AcDbEntity
  8
寸法
 62
     0
 48
50.0
370
    -2
100
AcDbLine
 10
3815.480607178542
 20
9477.058806793953
 30
0.0
 11
3815.480607178542
 21
9732.867026418936
 31
0.0
  0
LINE
  5
171A2
330
15035
100
AcDbEntity
  8
寸法
 62
     0
 48
50.0
370
    -2
100
AcDbLine
 10
3815.480607178542
 20
9672.867026418934
 30
0.0
 11
3915.480607178542
 21
9672.867026418934
 31
0.0
  0
LINE
  5
171A3
330
15035
100
AcDbEntity
  8
寸法
 62
     0
 48
50.0
370
    -2
100
AcDbLine
 10
3760.48060717851
 20
9672.867026418934
 30
0.0
 11
3343.510044430031
 21
9672.867026418934
 31
0.0
  0
LINE
  5
171A4
330
15035
100
AcDbEntity
  8
寸法
 62
     0
 48
50.0
370
    -2
100
AcDbLine
 10
3815.480607178542
 20
9672.867026418934
 30
0.0
 11
3760.48060717851
 21
9672.867026418934
 31
0.0
  0
INSERT
  5
171A5
330
15035
100
AcDbEntity
  8
寸法
 62
     0
 48
50.0
370
    -2
100
AcDbBlockReference
  2
_DOTSMALL
 10
3815.480607178542
 20
9672.867026418934
 30
0.0
 41
100.0
 42
100.0
 43
100.0
 50
180.0
  0
INSERT
  5
171A6
330
15035
100
AcDbEntity
  8
寸法
 62
     0
 48
50.0
370
    -2
100
AcDbBlockReference
  2
_DOTSMALL
 10
3760.48060717851
 20
9672.867026418934
 30
0.0
 41
100.0
 42
100.0
 43
100.0
  0
MTEXT
  5
171A7
330
15035
100
AcDbEntity
  8
寸法
 62
     7
 48
50.0
100
AcDbMText
 10
3451.99532580427
 20
9772.867026418936
 30
0.0
 40
120.0
 41
0.0
 71
     5
 72
     1
  1
\A1;55
  7
STYLE1
 73
     1
 44
1.0
1001
ACAD
1000
MTEXTBEGIN
1070
    73
1070
     1
1070
    44
1040
1.0
1070
    74
1070
     0
1000
MTEXTEND
  0
POINT
  5
171A8
330
15035
100
AcDbEntity
  8
DEFPOINTS
 62
     0
 48
50.0
100
AcDbPoint
 10
3760.48060717851
 20
9457.058806793954
 30
0.0
  0
POINT
  5
171A9
330
15035
100
AcDbEntity
  8
DEFPOINTS
 62
     0
 48
50.0
100
AcDbPoint
 10
3815.480607178542
 20
9457.058806793954
 30
0.0
  0
POINT
  5
171AA
330
15035
100
AcDbEntity
  8
DEFPOINTS
 62
     0
 48
50.0
100
AcDbPoint
 10
3815.480607178542
 20
9672.867026418934
 30
0.0
  0
ENDBLK
  5
151D3
330
15035
100
AcDbEntity
  8
0
 48
50.0
100
AcDbBlockEnd
  0
BLOCK
  5
151D4
330
15043
100
AcDbEntity
  8
0
 48
50.0
100
AcDbBlockBegin
  2
*D6
 70
     1
 10
0.0
 20
0.0
 30
0.0
  3
*D6
  1

  0
LINE
  5
17197
330
15043
100
AcDbEntity
  8
寸法
 62
     0
 48
50.0
370
    -2
100
AcDbLine
 10
3815.480607178542
 20
9477.058806793982
 30
0.0
 11
3815.480607178542
 21
9732.867026419052
 31
0.0
  0
LINE
  5
17198
330
15043
100
AcDbEntity
  8
寸法
 62
     0
 48
50.0
370
    -2
100
AcDbLine
 10
4655.480607178542
 20
9477.058806794069
 30
0.0
 11
4655.480607178542
 21
9732.867026419052
 31
0.0
  0
LINE
  5
17199
330
15043
100
AcDbEntity
  8
寸法
 62
     0
 48
50.0
370
    -2
100
AcDbLine
 10
3815.480607178542
 20
9672.867026419051
 30
0.0
 11
4655.480607178542
 21
9672.867026419051
 31
0.0
  0
INSERT
  5
1719A
330
15043
100
AcDbEntity
  8
寸法
 62
     0
 48
50.0
370
    -2
100
AcDbBlockReference
  2
_DOTSMALL
 10
3815.480607178542
 20
9672.867026419051
 30
0.0
 41
100.0
 42
100.0
 43
100.0
 50
180.0
  0
INSERT
  5
1719B
330
15043
100
AcDbEntity
  8
寸法
 62
     0
 48
50.0
370
    -2
100
AcDbBlockReference
  2
_DOTSMALL
 10
4655.480607178542
 20
9672.867026419051
 30
0.0
 41
100.0
 42
100.0
 43
100.0
  0
MTEXT
  5
1719C
330
15043
100
AcDbEntity
  8
寸法
 62
     7
 48
50.0
100
AcDbMText
 10
4235.480607178542
 20
9772.878837442673
 30
0.0
 40
120.0
 41
0.0
 71
     5
 72
     1
  1
\A1;2X420=840
  7
STYLE1
 73
     1
 44
1.0
1001
ACAD
1000
MTEXTBEGIN
1070
    73
1070
     1
1070
    44
1040
1.0
1070
    74
1070
     0
1000
MTEXTEND
  0
POINT
  5
1719D
330
15043
100
AcDbEntity
  8
DEFPOINTS
 62
     0
 48
50.0
100
AcDbPoint
 10
3815.480607178542
 20
9457.058806793982
 30
0.0
  0
POINT
  5
1719E
330
15043
100
AcDbEntity
  8
DEFPOINTS
 62
     0
 48
50.0
100
AcDbPoint
 10
4655.480607178542
 20
9457.058806794071
 30
0.0
  0
POINT
  5
1719F
330
15043
100
AcDbEntity
  8
DEFPOINTS
 62
     0
 48
50.0
100
AcDbPoint
 10
4655.480607178542
 20
9672.867026419051
 30
0.0
  0
ENDBLK
  5
151DE
330
15043
100
AcDbEntity
  8
0
 48
50.0
100
AcDbBlockEnd
  0
BLOCK
  5
151DF
330
1504F
100
AcDbEntity
  8
0
 48
50.0
100
AcDbBlockBegin
  2
*D7
 70
     1
 10
0.0
 20
0.0
 30
0.0
  3
*D7
  1

  0
LINE
  5
1718E
330
1504F
100
AcDbEntity
  8
寸法
 62
     0
 48
50.0
370
    -2
100
AcDbLine
 10
7615.480607178543
 20
9477.058806793982
 30
0.0
 11
7615.480607178543
 21
9732.867026419052
 31
0.0
  0
LINE
  5
1718F
330
1504F
100
AcDbEntity
  8
寸法
 62
     0
 48
50.0
370
    -2
100
AcDbLine
 10
8455.480607178541
 20
9477.058806794069
 30
0.0
 11
8455.480607178541
 21
9732.867026419052
 31
0.0
  0
LINE
  5
17190
330
1504F
100
AcDbEntity
  8
寸法
 62
     0
 48
50.0
370
    -2
100
AcDbLine
 10
7615.480607178543
 20
9672.867026419051
 30
0.0
 11
8455.480607178541
 21
9672.867026419051
 31
0.0
  0
INSERT
  5
17191
330
1504F
100
AcDbEntity
  8
寸法
 62
     0
 48
50.0
370
    -2
100
AcDbBlockReference
  2
_DOTSMALL
 10
7615.480607178543
 20
9672.867026419051
 30
0.0
 41
100.0
 42
100.0
 43
100.0
 50
180.0
  0
INSERT
  5
17192
330
1504F
100
AcDbEntity
  8
寸法
 62
     0
 48
50.0
370
    -2
100
AcDbBlockReference
  2
_DOTSMALL
 10
8455.480607178541
 20
9672.867026419051
 30
0.0
 41
100.0
 42
100.0
 43
100.0
  0
MTEXT
  5
17193
330
1504F
100
AcDbEntity
  8
寸法
 62
     7
 48
50.0
100
AcDbMText
 10
8035.480607178543
 20
9772.878837442673
 30
0.0
 40
120.0
 41
0.0
 71
     5
 72
     1
  1
\A1;2X420=840
  7
STYLE1
 73
     1
 44
1.0
1001
ACAD
1000
MTEXTBEGIN
1070
    73
1070
     1
1070
    44
1040
1.0
1070
    74
1070
     0
1000
MTEXTEND
  0
POINT
  5
17194
330
1504F
100
AcDbEntity
  8
DEFPOINTS
 62
     0
 48
50.0
100
AcDbPoint
 10
7615.480607178543
 20
9457.058806793982
 30
0.0
  0
POINT
  5
17195
330
1504F
100
AcDbEntity
  8
DEFPOINTS
 62
     0
 48
50.0
100
AcDbPoint
 10
8455.480607178541
 20
9457.058806794071
 30
0.0
  0
POINT
  5
17196
330
1504F
100
AcDbEntity
  8
DEFPOINTS
 62
     0
 48
50.0
100
AcDbPoint
 10
8455.480607178541
 20
9672.867026419051
 30
0.0
  0
ENDBLK
  5
151E9
330
1504F
100
AcDbEntity
  8
0
 48
50.0
100
AcDbBlockEnd
  0
BLOCK
  5
1527D
330
1505B
100
AcDbEntity
  8
0
 48
50.0
100
AcDbBlockBegin
  2
*D8
 70
     1
 10
0.0
 20
0.0
 30
0.0
  3
*D8
  1

  0
LINE
  5
17185
330
1505B
100
AcDbEntity
  8
寸法
 62
     0
 48
50.0
370
    -2
100
AcDbLine
 10
4655.480607178542
 20
9477.058806794069
 30
0.0
 11
4655.480607178542
 21
9732.867026419052
 31
0.0
  0
LINE
  5
17186
330
1505B
100
AcDbEntity
  8
寸法
 62
     0
 48
50.0
370
    -2
100
AcDbLine
 10
4765.480607178545
 20
9477.058806794047
 30
0.0
 11
4765.480607178545
 21
9732.867026419052
 31
0.0
  0
LINE
  5
17187
330
1505B
100
AcDbEntity
  8
寸法
 62
     0
 48
50.0
370
    -2
100
AcDbLine
 10
4655.480607178542
 20
9672.867026419051
 30
0.0
 11
4765.480607178545
 21
9672.867026419051
 31
0.0
  0
MTEXT
  5
17188
330
1505B
100
AcDbEntity
  8
寸法
 62
     7
 48
50.0
100
AcDbMText
 10
4710.480607178546
 20
9924.600367368448
 30
0.0
 40
120.0
 41
0.0
 71
     5
 72
     1
  1
\A1;110
  7
STYLE1
 73
     1
 44
1.0
1001
ACAD
1000
MTEXTBEGIN
1070
    73
1070
     1
1070
    44
1040
1.0
1070
    74
1070
     0
1000
MTEXTEND
  0
INSERT
  5
17189
330
1505B
100
AcDbEntity
  8
寸法
 62
     0
 48
50.0
370
    -2
100
AcDbBlockReference
  2
_DOTSMALL
 10
4655.480607178542
 20
9672.867026419051
 30
0.0
 41
100.0
 42
100.0
 43
100.0
 50
180.0
  0
INSERT
  5
1718A
330
1505B
100
AcDbEntity
  8
寸法
 62
     0
 48
50.0
370
    -2
100
AcDbBlockReference
  2
_DOTSMALL
 10
4765.480607178545
 20
9672.867026419051
 30
0.0
 41
100.0
 42
100.0
 43
100.0
  0
POINT
  5
1718B
330
1505B
100
AcDbEntity
  8
DEFPOINTS
 62
     0
 48
50.0
100
AcDbPoint
 10
4655.480607178542
 20
9457.058806794071
 30
0.0
  0
POINT
  5
1718C
330
1505B
100
AcDbEntity
  8
DEFPOINTS
 62
     0
 48
50.0
100
AcDbPoint
 10
4765.480607178545
 20
9457.058806794048
 30
0.0
  0
POINT
  5
1718D
330
1505B
100
AcDbEntity
  8
DEFPOINTS
 62
     0
 48
50.0
100
AcDbPoint
 10
4765.480607178545
 20
9672.867026419051
 30
0.0
  0
ENDBLK
  5
15287
330
1505B
100
AcDbEntity
  8
0
 48
50.0
100
AcDbBlockEnd
  0
BLOCK
  5
15272
330
15067
100
AcDbEntity
  8
0
 48
50.0
100
AcDbBlockBegin
  2
*D9
 70
     1
 10
0.0
 20
0.0
 30
0.0
  3
*D9
  1

  0
LINE
  5
1717C
330
15067
100
AcDbEntity
  8
寸法
 62
     0
 48
50.0
370
    -2
100
AcDbLine
 10
8455.480607178541
 20
9477.058806794069
 30
0.0
 11
8455.480607178541
 21
9732.867026419052
 31
0.0
  0
LINE
  5
1717D
330
15067
100
AcDbEntity
  8
寸法
 62
     0
 48
50.0
370
    -2
100
AcDbLine
 10
8565.480607178546
 20
9477.058806794047
 30
0.0
 11
8565.480607178546
 21
9732.867026419052
 31
0.0
  0
LINE
  5
1717E
330
15067
100
AcDbEntity
  8
寸法
 62
     0
 48
50.0
370
    -2
100
AcDbLine
 10
8455.480607178541
 20
9672.867026419051
 30
0.0
 11
8565.480607178546
 21
9672.867026419051
 31
0.0
  0
MTEXT
  5
1717F
330
15067
100
AcDbEntity
  8
寸法
 62
     7
 48
50.0
100
AcDbMText
 10
8510.480607178546
 20
9924.600367368448
 30
0.0
 40
120.0
 41
0.0
 71
     5
 72
     1
  1
\A1;110
  7
STYLE1
 73
     1
 44
1.0
1001
ACAD
1000
MTEXTBEGIN
1070
    73
1070
     1
1070
    44
1040
1.0
1070
    74
1070
     0
1000
MTEXTEND
  0
INSERT
  5
17180
330
15067
100
AcDbEntity
  8
寸法
 62
     0
 48
50.0
370
    -2
100
AcDbBlockReference
  2
_DOTSMALL
 10
8455.480607178541
 20
9672.867026419051
 30
0.0
 41
100.0
 42
100.0
 43
100.0
 50
180.0
  0
INSERT
  5
17181
330
15067
100
AcDbEntity
  8
寸法
 62
     0
 48
50.0
370
    -2
100
AcDbBlockReference
  2
_DOTSMALL
 10
8565.480607178546
 20
9672.867026419051
 30
0.0
 41
100.0
 42
100.0
 43
100.0
  0
POINT
  5
17182
330
15067
100
AcDbEntity
  8
DEFPOINTS
 62
     0
 48
50.0
100
AcDbPoint
 10
8455.480607178541
 20
9457.058806794071
 30
0.0
  0
POINT
  5
17183
330
15067
100
AcDbEntity
  8
DEFPOINTS
 62
     0
 48
50.0
100
AcDbPoint
 10
8565.480607178546
 20
9457.058806794048
 30
0.0
  0
POINT
  5
17184
330
15067
100
AcDbEntity
  8
DEFPOINTS
 62
     0
 48
50.0
100
AcDbPoint
 10
8565.480607178546
 20
9672.867026419051
 30
0.0
  0
ENDBLK
  5
1527C
330
15067
100
AcDbEntity
  8
0
 48
50.0
100
AcDbBlockEnd
  0
BLOCK
  5
15200
330
15073
100
AcDbEntity
  8
0
 48
50.0
100
AcDbBlockBegin
  2
*D10
 70
     1
 10
0.0
 20
0.0
 30
0.0
  3
*D10
  1

  0
LINE
  5
17173
330
15073
100
AcDbEntity
  8
寸法
 62
     0
 48
50.0
370
    -2
100
AcDbLine
 10
9451.480613856153
 20
9422.199822945295
 30
0.0
 11
9846.838339718182
 21
9316.264039579161
 31
0.0
  0
LINE
  5
17174
330
15073
100
AcDbEntity
  8
寸法
 62
     0
 48
50.0
370
    -2
100
AcDbLine
 10
9451.480613856162
 20
8972.199822945302
 30
0.0
 11
9846.838339718182
 21
8866.264039579169
 31
0.0
  0
LINE
  5
17175
330
15073
100
AcDbEntity
  8
寸法
 62
     0
 48
50.0
370
    -2
100
AcDbLine
 10
9786.83833971818
 20
9332.340991125027
 30
0.0
 11
9786.83833971818
 21
8882.340991125037
 31
0.0
  0
INSERT
  5
17176
330
15073
100
AcDbEntity
  8
寸法
 62
     0
 48
50.0
370
    -2
100
AcDbBlockReference
  2
_DOTSMALL
 10
9786.83833971818
 20
9332.340991125027
 30
0.0
 41
100.0
 42
100.0
 43
100.0
 50
90.0
  0
INSERT
  5
17177
330
15073
100
AcDbEntity
  8
寸法
 62
     0
 48
50.0
370
    -2
100
AcDbBlockReference
  2
_DOTSMALL
 10
9786.83833971818
 20
8882.340991125037
 30
0.0
 41
100.0
 42
100.0
 43
100.0
 50
270.0
  0
MTEXT
  5
17178
330
15073
100
AcDbEntity
  8
寸法
 62
     7
 48
50.0
100
AcDbMText
 10
9686.838339718178
 20
9107.340991125028
 30
0.0
 40
120.0
 41
0.0
 71
     5
 72
     1
  1
\A1;450
  7
STYLE1
 11
0.0000000000000001
 21
1.0
 31
0.0
 73
     1
 44
1.0
1001
ACAD
1000
MTEXTBEGIN
1070
    73
1070
     1
1070
    44
1040
1.0
1070
    74
1070
     0
1000
MTEXTEND
  0
POINT
  5
17179
330
15073
100
AcDbEntity
  8
DEFPOINTS
 62
     0
 48
50.0
100
AcDbPoint
 10
9431.480613856155
 20
9427.558806793916
 30
0.0
  0
POINT
  5
1717A
330
15073
100
AcDbEntity
  8
DEFPOINTS
 62
     0
 48
50.0
100
AcDbPoint
 10
9431.480613856162
 20
8977.558806793924
 30
0.0
  0
POINT
  5
1717B
330
15073
100
AcDbEntity
  8
DEFPOINTS
 62
     0
 48
50.0
100
AcDbPoint
 10
9786.83833971818
 20
8882.340991125037
 30
0.0
  0
ENDBLK
  5
1520A
330
15073
100
AcDbEntity
  8
0
 48
50.0
100
AcDbBlockEnd
  0
BLOCK
  5
15216
330
1508B
100
AcDbEntity
  8
0
 48
50.0
100
AcDbBlockBegin
  2
*D11
 70
     1
 10
0.0
 20
0.0
 30
0.0
  3
*D11
  1

  0
LINE
  5
1716A
330
1508B
100
AcDbEntity
  8
寸法
 62
     0
 48
50.0
370
    -2
100
AcDbLine
 10
9480.480607178547
 20
9457.058806794048
 30
0.0
 11
10477.01848372863
 21
9457.058806794048
 31
0.0
  0
LINE
  5
1716B
330
1508B
100
AcDbEntity
  8
寸法
 62
     0
 48
50.0
370
    -2
100
AcDbLine
 10
9480.48060717852
 20
7927.058806794033
 30
0.0
 11
10477.01848372863
 21
7927.058806794033
 31
0.0
  0
LINE
  5
1716C
330
1508B
100
AcDbEntity
  8
寸法
 62
     0
 48
50.0
370
    -2
100
AcDbLine
 10
10417.01848372863
 20
9457.058806794048
 30
0.0
 11
10417.01848372863
 21
7927.058806794033
 31
0.0
  0
INSERT
  5
1716D
330
1508B
100
AcDbEntity
  8
寸法
 62
     0
 48
50.0
370
    -2
100
AcDbBlockReference
  2
_DOTSMALL
 10
10417.01848372863
 20
9457.058806794048
 30
0.0
 41
100.0
 42
100.0
 43
100.0
 50
90.0
  0
INSERT
  5
1716E
330
1508B
100
AcDbEntity
  8
寸法
 62
     0
 48
50.0
370
    -2
100
AcDbBlockReference
  2
_DOTSMALL
 10
10417.01848372863
 20
7927.058806794033
 30
0.0
 41
100.0
 42
100.0
 43
100.0
 50
270.0
  0
MTEXT
  5
1716F
330
1508B
100
AcDbEntity
  8
寸法
 62
     7
 48
50.0
100
AcDbMText
 10
10317.01848372863
 20
8692.058806794042
 30
0.0
 40
120.0
 41
0.0
 71
     5
 72
     1
  1
\A1;1530
  7
STYLE1
 11
0.0000000000000001
 21
1.0
 31
0.0
 73
     1
 44
1.0
1001
ACAD
1000
MTEXTBEGIN
1070
    73
1070
     1
1070
    44
1040
1.0
1070
    74
1070
     0
1000
MTEXTEND
  0
POINT
  5
17170
330
1508B
100
AcDbEntity
  8
DEFPOINTS
 62
     0
 48
50.0
100
AcDbPoint
 10
9460.480607178546
 20
9457.058806794048
 30
0.0
  0
POINT
  5
17171
330
1508B
100
AcDbEntity
  8
DEFPOINTS
 62
     0
 48
50.0
100
AcDbPoint
 10
9460.480607178521
 20
7927.058806794033
 30
0.0
  0
POINT
  5
17172
330
1508B
100
AcDbEntity
  8
DEFPOINTS
 62
     0
 48
50.0
100
AcDbPoint
 10
10417.01848372863
 20
7927.058806794033
 30
0.0
  0
ENDBLK
  5
15220
330
1508B
100
AcDbEntity
  8
0
 48
50.0
100
AcDbBlockEnd
  0
BLOCK
  5
15221
330
15097
100
AcDbEntity
  8
0
 48
50.0
100
AcDbBlockBegin
  2
*D12
 70
     1
 10
0.0
 20
0.0
 30
0.0
  3
*D12
  1

  0
LINE
  5
1715F
330
15097
100
AcDbEntity
  8
寸法
 62
     0
 48
50.0
370
    -2
100
AcDbLine
 10
9480.48060717852
 20
7982.058806794033
 30
0.0
 11
10167.90695291293
 21
7982.058806794033
 31
0.0
  0
LINE
  5
17160
330
15097
100
AcDbEntity
  8
寸法
 62
     0
 48
50.0
370
    -2
100
AcDbLine
 10
9480.48060717852
 20
7927.058806794033
 30
0.0
 11
10167.90695291293
 21
7927.058806794033
 31
0.0
  0
LINE
  5
17161
330
15097
100
AcDbEntity
  8
寸法
 62
     0
 48
50.0
370
    -2
100
AcDbLine
 10
10107.90695291293
 20
7982.058806794033
 30
0.0
 11
10107.90695291293
 21
8082.058806794034
 31
0.0
  0
LINE
  5
17162
330
15097
100
AcDbEntity
  8
寸法
 62
     0
 48
50.0
370
    -2
100
AcDbLine
 10
10107.90695291293
 20
7927.058806794033
 30
0.0
 11
10107.90695291293
 21
7440.712058514932
 31
0.0
  0
LINE
  5
17163
330
15097
100
AcDbEntity
  8
寸法
 62
     0
 48
50.0
370
    -2
100
AcDbLine
 10
10107.90695291293
 20
7982.058806794033
 30
0.0
 11
10107.90695291293
 21
7927.058806794033
 31
0.0
  0
INSERT
  5
17164
330
15097
100
AcDbEntity
  8
寸法
 62
     0
 48
50.0
370
    -2
100
AcDbBlockReference
  2
_DOTSMALL
 10
10107.90695291293
 20
7982.058806794033
 30
0.0
 41
100.0
 42
100.0
 43
100.0
 50
270.0
  0
INSERT
  5
17165
330
15097
100
AcDbEntity
  8
寸法
 62
     0
 48
50.0
370
    -2
100
AcDbBlockReference
  2
_DOTSMALL
 10
10107.90695291293
 20
7927.058806794033
 30
0.0
 41
100.0
 42
100.0
 43
100.0
 50
90.0
  0
MTEXT
  5
17166
330
15097
100
AcDbEntity
  8
寸法
 62
     7
 48
50.0
100
AcDbMText
 10
10007.90695291293
 20
7549.197339889172
 30
0.0
 40
120.0
 41
0.0
 71
     5
 72
     1
  1
\A1;55
  7
STYLE1
 11
0.0000000000000001
 21
1.0
 31
0.0
 73
     1
 44
1.0
1001
ACAD
1000
MTEXTBEGIN
1070
    73
1070
     1
1070
    44
1040
1.0
1070
    74
1070
     0
1000
MTEXTEND
  0
POINT
  5
17167
330
15097
100
AcDbEntity
  8
DEFPOINTS
 62
     0
 48
50.0
100
AcDbPoint
 10
9460.480607178521
 20
7982.058806794033
 30
0.0
  0
POINT
  5
17168
330
15097
100
AcDbEntity
  8
DEFPOINTS
 62
     0
 48
50.0
100
AcDbPoint
 10
9460.480607178521
 20
7927.058806794033
 30
0.0
  0
POINT
  5
17169
330
15097
100
AcDbEntity
  8
DEFPOINTS
 62
     0
 48
50.0
100
AcDbPoint
 10
10107.90695291293
 20
7927.058806794033
 30
0.0
  0
ENDBLK
  5
1522D
330
15097
100
AcDbEntity
  8
0
 48
50.0
100
AcDbBlockEnd
  0
BLOCK
  5
1522E
330
150A5
100
AcDbEntity
  8
0
 48
50.0
100
AcDbBlockBegin
  2
*D13
 70
     1
 10
0.0
 20
0.0
 30
0.0
  3
*D13
  1

  0
LINE
  5
17154
330
150A5
100
AcDbEntity
  8
寸法
 62
     0
 48
50.0
370
    -2
100
AcDbLine
 10
9480.480607178547
 20
9457.058806794048
 30
0.0
 11
10167.90695291295
 21
9457.058806794048
 31
0.0
  0
LINE
  5
17155
330
150A5
100
AcDbEntity
  8
寸法
 62
     0
 48
50.0
370
    -2
100
AcDbLine
 10
9480.480607178547
 20
9402.058806794048
 30
0.0
 11
10167.90695291295
 21
9402.058806794048
 31
0.0
  0
LINE
  5
17156
330
150A5
100
AcDbEntity
  8
寸法
 62
     0
 48
50.0
370
    -2
100
AcDbLine
 10
10107.90695291295
 20
9402.058806794048
 30
0.0
 11
10107.90695291295
 21
9302.058806794049
 31
0.0
  0
LINE
  5
17157
330
150A5
100
AcDbEntity
  8
寸法
 62
     0
 48
50.0
370
    -2
100
AcDbLine
 10
10107.90695291295
 20
9457.058806794048
 30
0.0
 11
10107.90695291295
 21
9874.029369542526
 31
0.0
  0
LINE
  5
17158
330
150A5
100
AcDbEntity
  8
寸法
 62
     0
 48
50.0
370
    -2
100
AcDbLine
 10
10107.90695291295
 20
9402.058806794048
 30
0.0
 11
10107.90695291295
 21
9457.058806794048
 31
0.0
  0
INSERT
  5
17159
330
150A5
100
AcDbEntity
  8
寸法
 62
     0
 48
50.0
370
    -2
100
AcDbBlockReference
  2
_DOTSMALL
 10
10107.90695291295
 20
9402.058806794048
 30
0.0
 41
100.0
 42
100.0
 43
100.0
 50
90.0
  0
INSERT
  5
1715A
330
150A5
100
AcDbEntity
  8
寸法
 62
     0
 48
50.0
370
    -2
100
AcDbBlockReference
  2
_DOTSMALL
 10
10107.90695291295
 20
9457.058806794048
 30
0.0
 41
100.0
 42
100.0
 43
100.0
 50
270.0
  0
MTEXT
  5
1715B
330
150A5
100
AcDbEntity
  8
寸法
 62
     7
 48
50.0
100
AcDbMText
 10
10007.90695291295
 20
9765.544088168288
 30
0.0
 40
120.0
 41
0.0
 71
     5
 72
     1
  1
\A1;55
  7
STYLE1
 11
0.0000000000000001
 21
1.0
 31
0.0
 73
     1
 44
1.0
1001
ACAD
1000
MTEXTBEGIN
1070
    73
1070
     1
1070
    44
1040
1.0
1070
    74
1070
     0
1000
MTEXTEND
  0
POINT
  5
1715C
330
150A5
100
AcDbEntity
  8
DEFPOINTS
 62
     0
 48
50.0
100
AcDbPoint
 10
9460.480607178546
 20
9457.058806794048
 30
0.0
  0
POINT
  5
1715D
330
150A5
100
AcDbEntity
  8
DEFPOINTS
 62
     0
 48
50.0
100
AcDbPoint
 10
9460.480607178546
 20
9402.058806794048
 30
0.0
  0
POINT
  5
1715E
330
150A5
100
AcDbEntity
  8
DEFPOINTS
 62
     0
 48
50.0
100
AcDbPoint
 10
10107.90695291295
 20
9402.058806794048
 30
0.0
  0
ENDBLK
  5
1523A
330
150A5
100
AcDbEntity
  8
0
 48
50.0
100
AcDbBlockEnd
  0
BLOCK
  5
1523E
330
1523D
100
AcDbEntity
  8
0
 48
50.0
100
AcDbBlockBegin
  2
*D14
 70
     1
 10
0.0
 20
0.0
 30
0.0
  3
*D14
  1

  0
LINE
  5
1714B
330
1523D
100
AcDbEntity
  8
寸法
 62
     0
 48
50.0
370
    -2
100
AcDbLine
 10
9480.480607178547
 20
9402.058806794048
 30
0.0
 11
10167.90695291295
 21
9402.058806794048
 31
0.0
  0
LINE
  5
1714C
330
1523D
100
AcDbEntity
  8
寸法
 62
     0
 48
50.0
370
    -2
100
AcDbLine
 10
9480.480607178547
 20
8982.058806794048
 30
0.0
 11
10167.90695291295
 21
8982.058806794048
 31
0.0
  0
LINE
  5
1714D
330
1523D
100
AcDbEntity
  8
寸法
 62
     0
 48
50.0
370
    -2
100
AcDbLine
 10
10107.90695291295
 20
9402.058806794048
 30
0.0
 11
10107.90695291295
 21
8982.058806794048
 31
0.0
  0
INSERT
  5
1714E
330
1523D
100
AcDbEntity
  8
寸法
 62
     0
 48
50.0
370
    -2
100
AcDbBlockReference
  2
_DOTSMALL
 10
10107.90695291295
 20
9402.058806794048
 30
0.0
 41
100.0
 42
100.0
 43
100.0
 50
90.0
  0
INSERT
  5
1714F
330
1523D
100
AcDbEntity
  8
寸法
 62
     0
 48
50.0
370
    -2
100
AcDbBlockReference
  2
_DOTSMALL
 10
10107.90695291295
 20
8982.058806794048
 30
0.0
 41
100.0
 42
100.0
 43
100.0
 50
270.0
  0
MTEXT
  5
17150
330
1523D
100
AcDbEntity
  8
寸法
 62
     7
 48
50.0
100
AcDbMText
 10
10007.89514188933
 20
9192.058806794049
 30
0.0
 40
120.0
 41
0.0
 71
     5
 72
     1
  1
\A1;420
  7
STYLE1
 11
0.0000000000000001
 21
1.0
 31
0.0
 73
     1
 44
1.0
1001
ACAD
1000
MTEXTBEGIN
1070
    73
1070
     1
1070
    44
1040
1.0
1070
    74
1070
     0
1000
MTEXTEND
  0
POINT
  5
17151
330
1523D
100
AcDbEntity
  8
DEFPOINTS
 62
     0
 48
50.0
100
AcDbPoint
 10
9460.480607178546
 20
9402.058806794048
 30
0.0
  0
POINT
  5
17152
330
1523D
100
AcDbEntity
  8
DEFPOINTS
 62
     0
 48
50.0
100
AcDbPoint
 10
9460.480607178546
 20
8982.058806794048
 30
0.0
  0
POINT
  5
17153
330
1523D
100
AcDbEntity
  8
DEFPOINTS
 62
     0
 48
50.0
100
AcDbPoint
 10
10107.90695291295
 20
8982.058806794048
 30
0.0
  0
ENDBLK
  5
15248
330
1523D
100
AcDbEntity
  8
0
 48
50.0
100
AcDbBlockEnd
  0
BLOCK
  5
1524B
330
1524A
100
AcDbEntity
  8
0
 48
50.0
100
AcDbBlockBegin
  2
*D15
 70
     1
 10
0.0
 20
0.0
 30
0.0
  3
*D15
  1

  0
LINE
  5
17142
330
1524A
100
AcDbEntity
  8
寸法
 62
     0
 48
50.0
370
    -2
100
AcDbLine
 10
9480.480607178547
 20
8982.058806794048
 30
0.0
 11
10167.90695291295
 21
8982.058806794048
 31
0.0
  0
LINE
  5
17143
330
1524A
100
AcDbEntity
  8
寸法
 62
     0
 48
50.0
370
    -2
100
AcDbLine
 10
9480.480607178547
 20
8402.058806794048
 30
0.0
 11
10167.90695291295
 21
8402.058806794048
 31
0.0
  0
LINE
  5
17144
330
1524A
100
AcDbEntity
  8
寸法
 62
     0
 48
50.0
370
    -2
100
AcDbLine
 10
10107.90695291295
 20
8982.058806794048
 30
0.0
 11
10107.90695291295
 21
8402.058806794048
 31
0.0
  0
INSERT
  5
17145
330
1524A
100
AcDbEntity
  8
寸法
 62
     0
 48
50.0
370
    -2
100
AcDbBlockReference
  2
_DOTSMALL
 10
10107.90695291295
 20
8982.058806794048
 30
0.0
 41
100.0
 42
100.0
 43
100.0
 50
90.0
  0
INSERT
  5
17146
330
1524A
100
AcDbEntity
  8
寸法
 62
     0
 48
50.0
370
    -2
100
AcDbBlockReference
  2
_DOTSMALL
 10
10107.90695291295
 20
8402.058806794048
 30
0.0
 41
100.0
 42
100.0
 43
100.0
 50
270.0
  0
MTEXT
  5
17147
330
1524A
100
AcDbEntity
  8
寸法
 62
     7
 48
50.0
100
AcDbMText
 10
10007.90695291295
 20
8692.058806794049
 30
0.0
 40
120.0
 41
0.0
 71
     5
 72
     1
  1
\A1;580
  7
STYLE1
 11
0.0000000000000001
 21
1.0
 31
0.0
 73
     1
 44
1.0
1001
ACAD
1000
MTEXTBEGIN
1070
    73
1070
     1
1070
    44
1040
1.0
1070
    74
1070
     0
1000
MTEXTEND
  0
POINT
  5
17148
330
1524A
100
AcDbEntity
  8
DEFPOINTS
 62
     0
 48
50.0
100
AcDbPoint
 10
9460.480607178546
 20
8982.058806794048
 30
0.0
  0
POINT
  5
17149
330
1524A
100
AcDbEntity
  8
DEFPOINTS
 62
     0
 48
50.0
100
AcDbPoint
 10
9460.480607178546
 20
8402.058806794048
 30
0.0
  0
POINT
  5
1714A
330
1524A
100
AcDbEntity
  8
DEFPOINTS
 62
     0
 48
50.0
100
AcDbPoint
 10
10107.90695291295
 20
8402.058806794048
 30
0.0
  0
ENDBLK
  5
15255
330
1524A
100
AcDbEntity
  8
0
 48
50.0
100
AcDbBlockEnd
  0
BLOCK
  5
15258
330
15257
100
AcDbEntity
  8
0
 48
50.0
100
AcDbBlockBegin
  2
*D16
 70
     1
 10
0.0
 20
0.0
 30
0.0
  3
*D16
  1

  0
LINE
  5
17139
330
15257
100
AcDbEntity
  8
寸法
 62
     0
 48
50.0
370
    -2
100
AcDbLine
 10
9480.48060717852
 20
7982.058806794005
 30
0.0
 11
10167.90695291295
 21
7982.058806794005
 31
0.0
  0
LINE
  5
1713A
330
15257
100
AcDbEntity
  8
寸法
 62
     0
 48
50.0
370
    -2
100
AcDbLine
 10
9480.480607178547
 20
8402.058806794048
 30
0.0
 11
10167.90695291295
 21
8402.058806794048
 31
0.0
  0
LINE
  5
1713B
330
15257
100
AcDbEntity
  8
寸法
 62
     0
 48
50.0
370
    -2
100
AcDbLine
 10
10107.90695291295
 20
7982.058806794005
 30
0.0
 11
10107.90695291295
 21
8402.058806794048
 31
0.0
  0
INSERT
  5
1713C
330
15257
100
AcDbEntity
  8
寸法
 62
     0
 48
50.0
370
    -2
100
AcDbBlockReference
  2
_DOTSMALL
 10
10107.90695291295
 20
7982.058806794005
 30
0.0
 41
100.0
 42
100.0
 43
100.0
 50
270.0
  0
INSERT
  5
1713D
330
15257
100
AcDbEntity
  8
寸法
 62
     0
 48
50.0
370
    -2
100
AcDbBlockReference
  2
_DOTSMALL
 10
10107.90695291295
 20
8402.058806794048
 30
0.0
 41
100.0
 42
100.0
 43
100.0
 50
90.0
  0
MTEXT
  5
1713E
330
15257
100
AcDbEntity
  8
寸法
 62
     7
 48
50.0
100
AcDbMText
 10
10007.89514188933
 20
8192.058806794028
 30
0.0
 40
120.0
 41
0.0
 71
     5
 72
     1
  1
\A1;420
  7
STYLE1
 11
0.0000000000000001
 21
1.0
 31
0.0
 73
     1
 44
1.0
1001
ACAD
1000
MTEXTBEGIN
1070
    73
1070
     1
1070
    44
1040
1.0
1070
    74
1070
     0
1000
MTEXTEND
  0
POINT
  5
1713F
330
15257
100
AcDbEntity
  8
DEFPOINTS
 62
     0
 48
50.0
100
AcDbPoint
 10
9460.480607178521
 20
7982.058806794005
 30
0.0
  0
POINT
  5
17140
330
15257
100
AcDbEntity
  8
DEFPOINTS
 62
     0
 48
50.0
100
AcDbPoint
 10
9460.480607178546
 20
8402.058806794048
 30
0.0
  0
POINT
  5
17141
330
15257
100
AcDbEntity
  8
DEFPOINTS
 62
     0
 48
50.0
100
AcDbPoint
 10
10107.90695291295
 20
8402.058806794048
 30
0.0
  0
ENDBLK
  5
15262
330
15257
100
AcDbEntity
  8
0
 48
50.0
100
AcDbBlockEnd
  0
BLOCK
  5
153A4
330
15398
100
AcDbEntity
  8
0
 48
50.0
100
AcDbBlockBegin
  2
*D17
 70
     1
 10
0.0
 20
0.0
 30
0.0
  3
*D17
  1

  0
LINE
  5
17130
330
15398
100
AcDbEntity
  8
寸法
 62
     0
 48
50.0
370
    -2
100
AcDbLine
 10
7615.480607178543
 20
7907.058806793947
 30
0.0
 11
7615.480607178543
 21
7427.235138998868
 31
0.0
  0
LINE
  5
17131
330
15398
100
AcDbEntity
  8
寸法
 62
     0
 48
50.0
370
    -2
100
AcDbLine
 10
8300.480607178535
 20
7907.05880679391
 30
0.0
 11
8300.480607178535
 21
7427.235138998868
 31
0.0
  0
LINE
  5
17132
330
15398
100
AcDbEntity
  8
寸法
 62
     0
 48
50.0
370
    -2
100
AcDbLine
 10
7615.480607178543
 20
7487.235138998869
 30
0.0
 11
8300.480607178535
 21
7487.235138998869
 31
0.0
  0
INSERT
  5
17133
330
15398
100
AcDbEntity
  8
寸法
 62
     0
 48
50.0
370
    -2
100
AcDbBlockReference
  2
_DOTSMALL
 10
7615.480607178543
 20
7487.235138998869
 30
0.0
 41
100.0
 42
100.0
 43
100.0
 50
180.0
  0
INSERT
  5
17134
330
15398
100
AcDbEntity
  8
寸法
 62
     0
 48
50.0
370
    -2
100
AcDbBlockReference
  2
_DOTSMALL
 10
8300.480607178535
 20
7487.235138998869
 30
0.0
 41
100.0
 42
100.0
 43
100.0
  0
MTEXT
  5
17135
330
15398
100
AcDbEntity
  8
寸法
 62
     7
 48
50.0
100
AcDbMText
 10
7957.980607178538
 20
7587.235138998869
 30
0.0
 40
120.0
 41
0.0
 71
     5
 72
     1
  1
\A1;685
  7
STYLE1
 73
     1
 44
1.0
1001
ACAD
1000
MTEXTBEGIN
1070
    73
1070
     1
1070
    44
1040
1.0
1070
    74
1070
     0
1000
MTEXTEND
  0
POINT
  5
17136
330
15398
100
AcDbEntity
  8
DEFPOINTS
 62
     0
 48
50.0
100
AcDbPoint
 10
7615.480607178543
 20
7927.058806793946
 30
0.0
  0
POINT
  5
17137
330
15398
100
AcDbEntity
  8
DEFPOINTS
 62
     0
 48
50.0
100
AcDbPoint
 10
8300.480607178535
 20
7927.05880679391
 30
0.0
  0
POINT
  5
17138
330
15398
100
AcDbEntity
  8
DEFPOINTS
 62
     0
 48
50.0
100
AcDbPoint
 10
8300.480607178535
 20
7487.235138998869
 30
0.0
  0
ENDBLK
  5
153AE
330
15398
100
AcDbEntity
  8
0
 48
50.0
100
AcDbBlockEnd
  0
BLOCK
  5
153B1
330
153B0
100
AcDbEntity
  8
0
 48
50.0
100
AcDbBlockBegin
  2
*D18
 70
     1
 10
0.0
 20
0.0
 30
0.0
  3
*D18
  1

  0
LINE
  5
17127
330
153B0
100
AcDbEntity
  8
寸法
 62
     0
 48
50.0
370
    -2
100
AcDbLine
 10
3815.480607178542
 20
7907.058806793947
 30
0.0
 11
3815.480607178542
 21
7427.235138998868
 31
0.0
  0
LINE
  5
17128
330
153B0
100
AcDbEntity
  8
寸法
 62
     0
 48
50.0
370
    -2
100
AcDbLine
 10
4500.480607178535
 20
7907.05880679391
 30
0.0
 11
4500.480607178535
 21
7427.235138998868
 31
0.0
  0
LINE
  5
17129
330
153B0
100
AcDbEntity
  8
寸法
 62
     0
 48
50.0
370
    -2
100
AcDbLine
 10
3815.480607178542
 20
7487.235138998869
 30
0.0
 11
4500.480607178535
 21
7487.235138998869
 31
0.0
  0
INSERT
  5
1712A
330
153B0
100
AcDbEntity
  8
寸法
 62
     0
 48
50.0
370
    -2
100
AcDbBlockReference
  2
_DOTSMALL
 10
3815.480607178542
 20
7487.235138998869
 30
0.0
 41
100.0
 42
100.0
 43
100.0
 50
180.0
  0
INSERT
  5
1712B
330
153B0
100
AcDbEntity
  8
寸法
 62
     0
 48
50.0
370
    -2
100
AcDbBlockReference
  2
_DOTSMALL
 10
4500.480607178535
 20
7487.235138998869
 30
0.0
 41
100.0
 42
100.0
 43
100.0
  0
MTEXT
  5
1712C
330
153B0
100
AcDbEntity
  8
寸法
 62
     7
 48
50.0
100
AcDbMText
 10
4157.980607178539
 20
7587.235138998869
 30
0.0
 40
120.0
 41
0.0
 71
     5
 72
     1
  1
\A1;685
  7
STYLE1
 73
     1
 44
1.0
1001
ACAD
1000
MTEXTBEGIN
1070
    73
1070
     1
1070
    44
1040
1.0
1070
    74
1070
     0
1000
MTEXTEND
  0
POINT
  5
1712D
330
153B0
100
AcDbEntity
  8
DEFPOINTS
 62
     0
 48
50.0
100
AcDbPoint
 10
3815.480607178542
 20
7927.058806793946
 30
0.0
  0
POINT
  5
1712E
330
153B0
100
AcDbEntity
  8
DEFPOINTS
 62
     0
 48
50.0
100
AcDbPoint
 10
4500.480607178535
 20
7927.05880679391
 30
0.0
  0
POINT
  5
1712F
330
153B0
100
AcDbEntity
  8
DEFPOINTS
 62
     0
 48
50.0
100
AcDbPoint
 10
4500.480607178535
 20
7487.235138998869
 30
0.0
  0
ENDBLK
  5
153BB
330
153B0
100
AcDbEntity
  8
0
 48
50.0
100
AcDbBlockEnd
  0
BLOCK
  5
154A3
330
154A2
100
AcDbEntity
  8
0
 48
50.0
100
AcDbBlockBegin
  2
*D19
 70
     1
 10
0.0
 20
0.0
 30
0.0
  3
*D19
  1

  0
LINE
  5
1710C
330
154A2
100
AcDbEntity
  8
寸法
 62
     0
 48
50.0
370
    -2
100
AcDbLine
 10
6665.480607178543
 20
9477.058806793982
 30
0.0
 11
6665.480607178543
 21
9732.867026419052
 31
0.0
  0
LINE
  5
1710D
330
154A2
100
AcDbEntity
  8
寸法
 62
     0
 48
50.0
370
    -2
100
AcDbLine
 10
7505.480607178542
 20
9477.058806794069
 30
0.0
 11
7505.480607178542
 21
9732.867026419052
 31
0.0
  0
LINE
  5
1710E
330
154A2
100
AcDbEntity
  8
寸法
 62
     0
 48
50.0
370
    -2
100
AcDbLine
 10
6665.480607178543
 20
9672.867026419051
 30
0.0
 11
7505.480607178542
 21
9672.867026419051
 31
0.0
  0
INSERT
  5
1710F
330
154A2
100
AcDbEntity
  8
寸法
 62
     0
 48
50.0
370
    -2
100
AcDbBlockReference
  2
_DOTSMALL
 10
6665.480607178543
 20
9672.867026419051
 30
0.0
 41
100.0
 42
100.0
 43
100.0
 50
180.0
  0
INSERT
  5
17110
330
154A2
100
AcDbEntity
  8
寸法
 62
     0
 48
50.0
370
    -2
100
AcDbBlockReference
  2
_DOTSMALL
 10
7505.480607178542
 20
9672.867026419051
 30
0.0
 41
100.0
 42
100.0
 43
100.0
  0
MTEXT
  5
17111
330
154A2
100
AcDbEntity
  8
寸法
 62
     7
 48
50.0
100
AcDbMText
 10
7085.480607178543
 20
9772.878837442673
 30
0.0
 40
120.0
 41
0.0
 71
     5
 72
     1
  1
\A1;2X420=840
  7
STYLE1
 73
     1
 44
1.0
1001
ACAD
1000
MTEXTBEGIN
1070
    73
1070
     1
1070
    44
1040
1.0
1070
    74
1070
     0
1000
MTEXTEND
  0
POINT
  5
17112
330
154A2
100
AcDbEntity
  8
DEFPOINTS
 62
     0
 48
50.0
100
AcDbPoint
 10
6665.480607178543
 20
9457.058806793982
 30
0.0
  0
POINT
  5
17113
330
154A2
100
AcDbEntity
  8
DEFPOINTS
 62
     0
 48
50.0
100
AcDbPoint
 10
7505.480607178542
 20
9457.058806794071
 30
0.0
  0
POINT
  5
17114
330
154A2
100
AcDbEntity
  8
DEFPOINTS
 62
     0
 48
50.0
100
AcDbPoint
 10
7505.480607178542
 20
9672.867026419051
 30
0.0
  0
ENDBLK
  5
154AD
330
154A2
100
AcDbEntity
  8
0
 48
50.0
100
AcDbBlockEnd
  0
BLOCK
  5
154AF
330
154AE
100
AcDbEntity
  8
0
 48
50.0
100
AcDbBlockBegin
  2
*D20
 70
     1
 10
0.0
 20
0.0
 30
0.0
  3
*D20
  1

  0
LINE
  5
17115
330
154AE
100
AcDbEntity
  8
寸法
 62
     0
 48
50.0
370
    -2
100
AcDbLine
 10
7505.480607178542
 20
9477.058806794069
 30
0.0
 11
7505.480607178542
 21
9732.867026419052
 31
0.0
  0
LINE
  5
17116
330
154AE
100
AcDbEntity
  8
寸法
 62
     0
 48
50.0
370
    -2
100
AcDbLine
 10
7615.480607178546
 20
9477.058806794047
 30
0.0
 11
7615.480607178546
 21
9732.867026419052
 31
0.0
  0
LINE
  5
17117
330
154AE
100
AcDbEntity
  8
寸法
 62
     0
 48
50.0
370
    -2
100
AcDbLine
 10
7505.480607178542
 20
9672.867026419051
 30
0.0
 11
7615.480607178546
 21
9672.867026419051
 31
0.0
  0
MTEXT
  5
17118
330
154AE
100
AcDbEntity
  8
寸法
 62
     7
 48
50.0
100
AcDbMText
 10
7560.480607178546
 20
9924.600367368448
 30
0.0
 40
120.0
 41
0.0
 71
     5
 72
     1
  1
\A1;110
  7
STYLE1
 73
     1
 44
1.0
1001
ACAD
1000
MTEXTBEGIN
1070
    73
1070
     1
1070
    44
1040
1.0
1070
    74
1070
     0
1000
MTEXTEND
  0
INSERT
  5
17119
330
154AE
100
AcDbEntity
  8
寸法
 62
     0
 48
50.0
370
    -2
100
AcDbBlockReference
  2
_DOTSMALL
 10
7505.480607178542
 20
9672.867026419051
 30
0.0
 41
100.0
 42
100.0
 43
100.0
 50
180.0
  0
INSERT
  5
1711A
330
154AE
100
AcDbEntity
  8
寸法
 62
     0
 48
50.0
370
    -2
100
AcDbBlockReference
  2
_DOTSMALL
 10
7615.480607178546
 20
9672.867026419051
 30
0.0
 41
100.0
 42
100.0
 43
100.0
  0
POINT
  5
1711B
330
154AE
100
AcDbEntity
  8
DEFPOINTS
 62
     0
 48
50.0
100
AcDbPoint
 10
7505.480607178542
 20
9457.058806794071
 30
0.0
  0
POINT
  5
1711C
330
154AE
100
AcDbEntity
  8
DEFPOINTS
 62
     0
 48
50.0
100
AcDbPoint
 10
7615.480607178546
 20
9457.058806794048
 30
0.0
  0
POINT
  5
1711D
330
154AE
100
AcDbEntity
  8
DEFPOINTS
 62
     0
 48
50.0
100
AcDbPoint
 10
7615.480607178546
 20
9672.867026419051
 30
0.0
  0
ENDBLK
  5
154B9
330
154AE
100
AcDbEntity
  8
0
 48
50.0
100
AcDbBlockEnd
  0
BLOCK
  5
154BB
330
154BA
100
AcDbEntity
  8
0
 48
50.0
100
AcDbBlockBegin
  2
*D21
 70
     1
 10
0.0
 20
0.0
 30
0.0
  3
*D21
  1

  0
LINE
  5
1711E
330
154BA
100
AcDbEntity
  8
寸法
 62
     0
 48
50.0
370
    -2
100
AcDbLine
 10
6665.480607178543
 20
7907.058806793947
 30
0.0
 11
6665.480607178543
 21
7427.235138998868
 31
0.0
  0
LINE
  5
1711F
330
154BA
100
AcDbEntity
  8
寸法
 62
     0
 48
50.0
370
    -2
100
AcDbLine
 10
7350.480607178536
 20
7907.05880679391
 30
0.0
 11
7350.480607178536
 21
7427.235138998868
 31
0.0
  0
LINE
  5
17120
330
154BA
100
AcDbEntity
  8
寸法
 62
     0
 48
50.0
370
    -2
100
AcDbLine
 10
6665.480607178543
 20
7487.235138998869
 30
0.0
 11
7350.480607178536
 21
7487.235138998869
 31
0.0
  0
INSERT
  5
17121
330
154BA
100
AcDbEntity
  8
寸法
 62
     0
 48
50.0
370
    -2
100
AcDbBlockReference
  2
_DOTSMALL
 10
6665.480607178543
 20
7487.235138998869
 30
0.0
 41
100.0
 42
100.0
 43
100.0
 50
180.0
  0
INSERT
  5
17122
330
154BA
100
AcDbEntity
  8
寸法
 62
     0
 48
50.0
370
    -2
100
AcDbBlockReference
  2
_DOTSMALL
 10
7350.480607178536
 20
7487.235138998869
 30
0.0
 41
100.0
 42
100.0
 43
100.0
  0
MTEXT
  5
17123
330
154BA
100
AcDbEntity
  8
寸法
 62
     7
 48
50.0
100
AcDbMText
 10
7007.980607178538
 20
7587.235138998869
 30
0.0
 40
120.0
 41
0.0
 71
     5
 72
     1
  1
\A1;685
  7
STYLE1
 73
     1
 44
1.0
1001
ACAD
1000
MTEXTBEGIN
1070
    73
1070
     1
1070
    44
1040
1.0
1070
    74
1070
     0
1000
MTEXTEND
  0
POINT
  5
17124
330
154BA
100
AcDbEntity
  8
DEFPOINTS
 62
     0
 48
50.0
100
AcDbPoint
 10
6665.480607178543
 20
7927.058806793946
 30
0.0
  0
POINT
  5
17125
330
154BA
100
AcDbEntity
  8
DEFPOINTS
 62
     0
 48
50.0
100
AcDbPoint
 10
7350.480607178536
 20
7927.05880679391
 30
0.0
  0
POINT
  5
17126
330
154BA
100
AcDbEntity
  8
DEFPOINTS
 62
     0
 48
50.0
100
AcDbPoint
 10
7350.480607178536
 20
7487.235138998869
 30
0.0
  0
ENDBLK
  5
154C5
330
154BA
100
AcDbEntity
  8
0
 48
50.0
100
AcDbBlockEnd
  0
BLOCK
  5
15604
330
15603
100
AcDbEntity
  8
0
 48
50.0
100
AcDbBlockBegin
  2
*D22
 70
     1
 10
0.0
 20
0.0
 30
0.0
  3
*D22
  1

  0
LINE
  5
17103
330
15603
100
AcDbEntity
  8
寸法
 62
     0
 48
50.0
370
    -2
100
AcDbLine
 10
5715.480607178542
 20
7907.058806793947
 30
0.0
 11
5715.480607178542
 21
7427.235138998868
 31
0.0
  0
LINE
  5
17104
330
15603
100
AcDbEntity
  8
寸法
 62
     0
 48
50.0
370
    -2
100
AcDbLine
 10
6400.480607178535
 20
7907.05880679391
 30
0.0
 11
6400.480607178535
 21
7427.235138998868
 31
0.0
  0
LINE
  5
17105
330
15603
100
AcDbEntity
  8
寸法
 62
     0
 48
50.0
370
    -2
100
AcDbLine
 10
5715.480607178542
 20
7487.235138998869
 30
0.0
 11
6400.480607178535
 21
7487.235138998869
 31
0.0
  0
INSERT
  5
17106
330
15603
100
AcDbEntity
  8
寸法
 62
     0
 48
50.0
370
    -2
100
AcDbBlockReference
  2
_DOTSMALL
 10
5715.480607178542
 20
7487.235138998869
 30
0.0
 41
100.0
 42
100.0
 43
100.0
 50
180.0
  0
INSERT
  5
17107
330
15603
100
AcDbEntity
  8
寸法
 62
     0
 48
50.0
370
    -2
100
AcDbBlockReference
  2
_DOTSMALL
 10
6400.480607178535
 20
7487.235138998869
 30
0.0
 41
100.0
 42
100.0
 43
100.0
  0
MTEXT
  5
17108
330
15603
100
AcDbEntity
  8
寸法
 62
     7
 48
50.0
100
AcDbMText
 10
6057.980607178539
 20
7587.235138998869
 30
0.0
 40
120.0
 41
0.0
 71
     5
 72
     1
  1
\A1;685
  7
STYLE1
 73
     1
 44
1.0
1001
ACAD
1000
MTEXTBEGIN
1070
    73
1070
     1
1070
    44
1040
1.0
1070
    74
1070
     0
1000
MTEXTEND
  0
POINT
  5
17109
330
15603
100
AcDbEntity
  8
DEFPOINTS
 62
     0
 48
50.0
100
AcDbPoint
 10
5715.480607178542
 20
7927.058806793946
 30
0.0
  0
POINT
  5
1710A
330
15603
100
AcDbEntity
  8
DEFPOINTS
 62
     0
 48
50.0
100
AcDbPoint
 10
6400.480607178535
 20
7927.05880679391
 30
0.0
  0
POINT
  5
1710B
330
15603
100
AcDbEntity
  8
DEFPOINTS
 62
     0
 48
50.0
100
AcDbPoint
 10
6400.480607178535
 20
7487.235138998869
 30
0.0
  0
ENDBLK
  5
1560E
330
15603
100
AcDbEntity
  8
0
 48
50.0
100
AcDbBlockEnd
  0
BLOCK
  5
15610
330
1560F
100
AcDbEntity
  8
0
 48
50.0
100
AcDbBlockBegin
  2
*D23
 70
     1
 10
0.0
 20
0.0
 30
0.0
  3
*D23
  1

  0
LINE
  5
170F1
330
1560F
100
AcDbEntity
  8
寸法
 62
     0
 48
50.0
370
    -2
100
AcDbLine
 10
6555.480607178542
 20
9477.058806794069
 30
0.0
 11
6555.480607178542
 21
9732.867026419052
 31
0.0
  0
LINE
  5
170F2
330
1560F
100
AcDbEntity
  8
寸法
 62
     0
 48
50.0
370
    -2
100
AcDbLine
 10
6665.480607178546
 20
9477.058806794047
 30
0.0
 11
6665.480607178546
 21
9732.867026419052
 31
0.0
  0
LINE
  5
170F3
330
1560F
100
AcDbEntity
  8
寸法
 62
     0
 48
50.0
370
    -2
100
AcDbLine
 10
6555.480607178542
 20
9672.867026419051
 30
0.0
 11
6665.480607178546
 21
9672.867026419051
 31
0.0
  0
MTEXT
  5
170F4
330
1560F
100
AcDbEntity
  8
寸法
 62
     7
 48
50.0
100
AcDbMText
 10
6610.480607178546
 20
9924.600367368448
 30
0.0
 40
120.0
 41
0.0
 71
     5
 72
     1
  1
\A1;110
  7
STYLE1
 73
     1
 44
1.0
1001
ACAD
1000
MTEXTBEGIN
1070
    73
1070
     1
1070
    44
1040
1.0
1070
    74
1070
     0
1000
MTEXTEND
  0
INSERT
  5
170F5
330
1560F
100
AcDbEntity
  8
寸法
 62
     0
 48
50.0
370
    -2
100
AcDbBlockReference
  2
_DOTSMALL
 10
6555.480607178542
 20
9672.867026419051
 30
0.0
 41
100.0
 42
100.0
 43
100.0
 50
180.0
  0
INSERT
  5
170F6
330
1560F
100
AcDbEntity
  8
寸法
 62
     0
 48
50.0
370
    -2
100
AcDbBlockReference
  2
_DOTSMALL
 10
6665.480607178546
 20
9672.867026419051
 30
0.0
 41
100.0
 42
100.0
 43
100.0
  0
POINT
  5
170F7
330
1560F
100
AcDbEntity
  8
DEFPOINTS
 62
     0
 48
50.0
100
AcDbPoint
 10
6555.480607178542
 20
9457.058806794071
 30
0.0
  0
POINT
  5
170F8
330
1560F
100
AcDbEntity
  8
DEFPOINTS
 62
     0
 48
50.0
100
AcDbPoint
 10
6665.480607178546
 20
9457.058806794048
 30
0.0
  0
POINT
  5
170F9
330
1560F
100
AcDbEntity
  8
DEFPOINTS
 62
     0
 48
50.0
100
AcDbPoint
 10
6665.480607178546
 20
9672.867026419051
 30
0.0
  0
ENDBLK
  5
1561A
330
1560F
100
AcDbEntity
  8
0
 48
50.0
100
AcDbBlockEnd
  0
BLOCK
  5
1561C
330
1561B
100
AcDbEntity
  8
0
 48
50.0
100
AcDbBlockBegin
  2
*D24
 70
     1
 10
0.0
 20
0.0
 30
0.0
  3
*D24
  1

  0
LINE
  5
170FA
330
1561B
100
AcDbEntity
  8
寸法
 62
     0
 48
50.0
370
    -2
100
AcDbLine
 10
5715.480607178542
 20
9477.058806793982
 30
0.0
 11
5715.480607178542
 21
9732.867026419052
 31
0.0
  0
LINE
  5
170FB
330
1561B
100
AcDbEntity
  8
寸法
 62
     0
 48
50.0
370
    -2
100
AcDbLine
 10
6555.480607178542
 20
9477.058806794069
 30
0.0
 11
6555.480607178542
 21
9732.867026419052
 31
0.0
  0
LINE
  5
170FC
330
1561B
100
AcDbEntity
  8
寸法
 62
     0
 48
50.0
370
    -2
100
AcDbLine
 10
5715.480607178542
 20
9672.867026419051
 30
0.0
 11
6555.480607178542
 21
9672.867026419051
 31
0.0
  0
INSERT
  5
170FD
330
1561B
100
AcDbEntity
  8
寸法
 62
     0
 48
50.0
370
    -2
100
AcDbBlockReference
  2
_DOTSMALL
 10
5715.480607178542
 20
9672.867026419051
 30
0.0
 41
100.0
 42
100.0
 43
100.0
 50
180.0
  0
INSERT
  5
170FE
330
1561B
100
AcDbEntity
  8
寸法
 62
     0
 48
50.0
370
    -2
100
AcDbBlockReference
  2
_DOTSMALL
 10
6555.480607178542
 20
9672.867026419051
 30
0.0
 41
100.0
 42
100.0
 43
100.0
  0
MTEXT
  5
170FF
330
1561B
100
AcDbEntity
  8
寸法
 62
     7
 48
50.0
100
AcDbMText
 10
6135.480607178543
 20
9772.878837442673
 30
0.0
 40
120.0
 41
0.0
 71
     5
 72
     1
  1
\A1;2X420=840
  7
STYLE1
 73
     1
 44
1.0
1001
ACAD
1000
MTEXTBEGIN
1070
    73
1070
     1
1070
    44
1040
1.0
1070
    74
1070
     0
1000
MTEXTEND
  0
POINT
  5
17100
330
1561B
100
AcDbEntity
  8
DEFPOINTS
 62
     0
 48
50.0
100
AcDbPoint
 10
5715.480607178542
 20
9457.058806793982
 30
0.0
  0
POINT
  5
17101
330
1561B
100
AcDbEntity
  8
DEFPOINTS
 62
     0
 48
50.0
100
AcDbPoint
 10
6555.480607178542
 20
9457.058806794071
 30
0.0
  0
POINT
  5
17102
330
1561B
100
AcDbEntity
  8
DEFPOINTS
 62
     0
 48
50.0
100
AcDbPoint
 10
6555.480607178542
 20
9672.867026419051
 30
0.0
  0
ENDBLK
  5
15626
330
1561B
100
AcDbEntity
  8
0
 48
50.0
100
AcDbBlockEnd
  0
BLOCK
  5
15707
330
15706
100
AcDbEntity
  8
0
 48
50.0
100
AcDbBlockBegin
  2
*D25
 70
     1
 10
0.0
 20
0.0
 30
0.0
  3
*D25
  1

  0
LINE
  5
170E8
330
15706
100
AcDbEntity
  8
寸法
 62
     0
 48
50.0
370
    -2
100
AcDbLine
 10
4765.480607178542
 20
7907.058806793947
 30
0.0
 11
4765.480607178542
 21
7427.235138998868
 31
0.0
  0
LINE
  5
170E9
330
15706
100
AcDbEntity
  8
寸法
 62
     0
 48
50.0
370
    -2
100
AcDbLine
 10
5450.480607178535
 20
7907.05880679391
 30
0.0
 11
5450.480607178535
 21
7427.235138998868
 31
0.0
  0
LINE
  5
170EA
330
15706
100
AcDbEntity
  8
寸法
 62
     0
 48
50.0
370
    -2
100
AcDbLine
 10
4765.480607178542
 20
7487.235138998869
 30
0.0
 11
5450.480607178535
 21
7487.235138998869
 31
0.0
  0
INSERT
  5
170EB
330
15706
100
AcDbEntity
  8
寸法
 62
     0
 48
50.0
370
    -2
100
AcDbBlockReference
  2
_DOTSMALL
 10
4765.480607178542
 20
7487.235138998869
 30
0.0
 41
100.0
 42
100.0
 43
100.0
 50
180.0
  0
INSERT
  5
170EC
330
15706
100
AcDbEntity
  8
寸法
 62
     0
 48
50.0
370
    -2
100
AcDbBlockReference
  2
_DOTSMALL
 10
5450.480607178535
 20
7487.235138998869
 30
0.0
 41
100.0
 42
100.0
 43
100.0
  0
MTEXT
  5
170ED
330
15706
100
AcDbEntity
  8
寸法
 62
     7
 48
50.0
100
AcDbMText
 10
5107.980607178539
 20
7587.235138998869
 30
0.0
 40
120.0
 41
0.0
 71
     5
 72
     1
  1
\A1;685
  7
STYLE1
 73
     1
 44
1.0
1001
ACAD
1000
MTEXTBEGIN
1070
    73
1070
     1
1070
    44
1040
1.0
1070
    74
1070
     0
1000
MTEXTEND
  0
POINT
  5
170EE
330
15706
100
AcDbEntity
  8
DEFPOINTS
 62
     0
 48
50.0
100
AcDbPoint
 10
4765.480607178542
 20
7927.058806793946
 30
0.0
  0
POINT
  5
170EF
330
15706
100
AcDbEntity
  8
DEFPOINTS
 62
     0
 48
50.0
100
AcDbPoint
 10
5450.480607178535
 20
7927.05880679391
 30
0.0
  0
POINT
  5
170F0
330
15706
100
AcDbEntity
  8
DEFPOINTS
 62
     0
 48
50.0
100
AcDbPoint
 10
5450.480607178535
 20
7487.235138998869
 30
0.0
  0
ENDBLK
  5
15711
330
15706
100
AcDbEntity
  8
0
 48
50.0
100
AcDbBlockEnd
  0
BLOCK
  5
15713
330
15712
100
AcDbEntity
  8
0
 48
50.0
100
AcDbBlockBegin
  2
*D26
 70
     1
 10
0.0
 20
0.0
 30
0.0
  3
*D26
  1

  0
LINE
  5
170D6
330
15712
100
AcDbEntity
  8
寸法
 62
     0
 48
50.0
370
    -2
100
AcDbLine
 10
4765.480607178542
 20
9477.058806793982
 30
0.0
 11
4765.480607178542
 21
9732.867026419052
 31
0.0
  0
LINE
  5
170D7
330
15712
100
AcDbEntity
  8
寸法
 62
     0
 48
50.0
370
    -2
100
AcDbLine
 10
5605.480607178543
 20
9477.058806794069
 30
0.0
 11
5605.480607178543
 21
9732.867026419052
 31
0.0
  0
LINE
  5
170D8
330
15712
100
AcDbEntity
  8
寸法
 62
     0
 48
50.0
370
    -2
100
AcDbLine
 10
4765.480607178542
 20
9672.867026419051
 30
0.0
 11
5605.480607178543
 21
9672.867026419051
 31
0.0
  0
INSERT
  5
170D9
330
15712
100
AcDbEntity
  8
寸法
 62
     0
 48
50.0
370
    -2
100
AcDbBlockReference
  2
_DOTSMALL
 10
4765.480607178542
 20
9672.867026419051
 30
0.0
 41
100.0
 42
100.0
 43
100.0
 50
180.0
  0
INSERT
  5
170DA
330
15712
100
AcDbEntity
  8
寸法
 62
     0
 48
50.0
370
    -2
100
AcDbBlockReference
  2
_DOTSMALL
 10
5605.480607178543
 20
9672.867026419051
 30
0.0
 41
100.0
 42
100.0
 43
100.0
  0
MTEXT
  5
170DB
330
15712
100
AcDbEntity
  8
寸法
 62
     7
 48
50.0
100
AcDbMText
 10
5185.480607178543
 20
9772.878837442673
 30
0.0
 40
120.0
 41
0.0
 71
     5
 72
     1
  1
\A1;2X420=840
  7
STYLE1
 73
     1
 44
1.0
1001
ACAD
1000
MTEXTBEGIN
1070
    73
1070
     1
1070
    44
1040
1.0
1070
    74
1070
     0
1000
MTEXTEND
  0
POINT
  5
170DC
330
15712
100
AcDbEntity
  8
DEFPOINTS
 62
     0
 48
50.0
100
AcDbPoint
 10
4765.480607178542
 20
9457.058806793982
 30
0.0
  0
POINT
  5
170DD
330
15712
100
AcDbEntity
  8
DEFPOINTS
 62
     0
 48
50.0
100
AcDbPoint
 10
5605.480607178543
 20
9457.058806794071
 30
0.0
  0
POINT
  5
170DE
330
15712
100
AcDbEntity
  8
DEFPOINTS
 62
     0
 48
50.0
100
AcDbPoint
 10
5605.480607178543
 20
9672.867026419051
 30
0.0
  0
ENDBLK
  5
1571D
330
15712
100
AcDbEntity
  8
0
 48
50.0
100
AcDbBlockEnd
  0
BLOCK
  5
1571F
330
1571E
100
AcDbEntity
  8
0
 48
50.0
100
AcDbBlockBegin
  2
*D27
 70
     1
 10
0.0
 20
0.0
 30
0.0
  3
*D27
  1

  0
LINE
  5
170DF
330
1571E
100
AcDbEntity
  8
寸法
 62
     0
 48
50.0
370
    -2
100
AcDbLine
 10
5605.480607178543
 20
9477.058806794069
 30
0.0
 11
5605.480607178543
 21
9732.867026419052
 31
0.0
  0
LINE
  5
170E0
330
1571E
100
AcDbEntity
  8
寸法
 62
     0
 48
50.0
370
    -2
100
AcDbLine
 10
5715.480607178546
 20
9477.058806794047
 30
0.0
 11
5715.480607178546
 21
9732.867026419052
 31
0.0
  0
LINE
  5
170E1
330
1571E
100
AcDbEntity
  8
寸法
 62
     0
 48
50.0
370
    -2
100
AcDbLine
 10
5605.480607178543
 20
9672.867026419051
 30
0.0
 11
5715.480607178546
 21
9672.867026419051
 31
0.0
  0
MTEXT
  5
170E2
330
1571E
100
AcDbEntity
  8
寸法
 62
     7
 48
50.0
100
AcDbMText
 10
5660.480607178546
 20
9924.600367368448
 30
0.0
 40
120.0
 41
0.0
 71
     5
 72
     1
  1
\A1;110
  7
STYLE1
 73
     1
 44
1.0
1001
ACAD
1000
MTEXTBEGIN
1070
    73
1070
     1
1070
    44
1040
1.0
1070
    74
1070
     0
1000
MTEXTEND
  0
INSERT
  5
170E3
330
1571E
100
AcDbEntity
  8
寸法
 62
     0
 48
50.0
370
    -2
100
AcDbBlockReference
  2
_DOTSMALL
 10
5605.480607178543
 20
9672.867026419051
 30
0.0
 41
100.0
 42
100.0
 43
100.0
 50
180.0
  0
INSERT
  5
170E4
330
1571E
100
AcDbEntity
  8
寸法
 62
     0
 48
50.0
370
    -2
100
AcDbBlockReference
  2
_DOTSMALL
 10
5715.480607178546
 20
9672.867026419051
 30
0.0
 41
100.0
 42
100.0
 43
100.0
  0
POINT
  5
170E5
330
1571E
100
AcDbEntity
  8
DEFPOINTS
 62
     0
 48
50.0
100
AcDbPoint
 10
5605.480607178543
 20
9457.058806794071
 30
0.0
  0
POINT
  5
170E6
330
1571E
100
AcDbEntity
  8
DEFPOINTS
 62
     0
 48
50.0
100
AcDbPoint
 10
5715.480607178546
 20
9457.058806794048
 30
0.0
  0
POINT
  5
170E7
330
1571E
100
AcDbEntity
  8
DEFPOINTS
 62
     0
 48
50.0
100
AcDbPoint
 10
5715.480607178546
 20
9672.867026419051
 30
0.0
  0
ENDBLK
  5
15729
330
1571E
100
AcDbEntity
  8
0
 48
50.0
100
AcDbBlockEnd
  0
BLOCK
  5
1628D
330
16283
100
AcDbEntity
  8
0
 48
50.0
100
AcDbBlockBegin
  2
*D28
 70
     1
 10
0.0
 20
0.0
 30
0.0
  3
*D28
  1

  0
LINE
  5
17097
330
16283
100
AcDbEntity
  8
寸法
 62
     0
 48
50.0
370
    -2
100
AcDbLine
 10
11827.3525197389
 20
3135.869626708056
 30
0.0
 11
10883.08070809842
 21
3135.869626708057
 31
0.0
  0
LINE
  5
17098
330
16283
100
AcDbEntity
  8
寸法
 62
     0
 48
50.0
370
    -2
100
AcDbLine
 10
11767.3525197389
 20
5210.86962670806
 30
0.0
 11
10883.08070809842
 21
5210.86962670806
 31
0.0
  0
LINE
  5
17099
330
16283
100
AcDbEntity
  8
寸法
 62
     0
 48
50.0
370
    -2
100
AcDbLine
 10
10943.08070809842
 20
3135.869626708057
 30
0.0
 11
10943.08070809842
 21
5210.86962670806
 31
0.0
  0
INSERT
  5
1709A
330
16283
100
AcDbEntity
  8
寸法
 62
     0
 48
50.0
370
    -2
100
AcDbBlockReference
  2
_DOTSMALL
 10
10943.08070809842
 20
3135.869626708057
 30
0.0
 41
100.0
 42
100.0
 43
100.0
 50
270.0
  0
INSERT
  5
1709B
330
16283
100
AcDbEntity
  8
寸法
 62
     0
 48
50.0
370
    -2
100
AcDbBlockReference
  2
_DOTSMALL
 10
10943.08070809842
 20
5210.86962670806
 30
0.0
 41
100.0
 42
100.0
 43
100.0
 50
90.0
  0
MTEXT
  5
1709C
330
16283
100
AcDbEntity
  8
寸法
 62
     7
 48
50.0
100
AcDbMText
 10
10843.0688970748
 20
4111.076617127857
 30
0.0
 40
120.0
 41
0.0
 71
     5
 72
     1
  1
\A1;2075
  7
STYLE1
 11
0.0000000000000001
 21
1.0
 31
0.0
 73
     1
 44
1.0
1001
ACAD
1000
MTEXTBEGIN
1070
    73
1070
     1
1070
    44
1040
1.0
1070
    74
1070
     0
1000
MTEXTEND
  0
POINT
  5
1709D
330
16283
100
AcDbEntity
  8
DEFPOINTS
 62
     0
 48
50.0
100
AcDbPoint
 10
11847.3525197389
 20
3135.869626708056
 30
0.0
  0
POINT
  5
1709E
330
16283
100
AcDbEntity
  8
DEFPOINTS
 62
     0
 48
50.0
100
AcDbPoint
 10
11787.3525197389
 20
5210.86962670806
 30
0.0
  0
POINT
  5
1709F
330
16283
100
AcDbEntity
  8
DEFPOINTS
 62
     0
 48
50.0
100
AcDbPoint
 10
10943.08070809842
 20
5210.86962670806
 30
0.0
  0
ENDBLK
  5
1628E
330
16283
100
AcDbEntity
  8
0
 48
50.0
100
AcDbBlockEnd
  0
BLOCK
  5
1629B
330
1628F
100
AcDbEntity
  8
0
 48
50.0
100
AcDbBlockBegin
  2
*D29
 70
     1
 10
0.0
 20
0.0
 30
0.0
  3
*D29
  1

  0
LINE
  5
1708C
330
1628F
100
AcDbEntity
  8
寸法
 62
     0
 48
50.0
370
    -2
100
AcDbLine
 10
11820.35014969412
 20
3185.869626708058
 30
0.0
 11
11185.3894290467
 21
3185.869626708058
 31
0.0
  0
LINE
  5
1708D
330
1628F
100
AcDbEntity
  8
寸法
 62
     0
 48
50.0
370
    -2
100
AcDbLine
 10
11772.3525197389
 20
3135.869626708056
 30
0.0
 11
11185.3894290467
 21
3135.869626708057
 31
0.0
  0
LINE
  5
1708E
330
1628F
100
AcDbEntity
  8
寸法
 62
     0
 48
50.0
370
    -2
100
AcDbLine
 10
11245.3894290467
 20
3185.869626708058
 30
0.0
 11
11245.3894290467
 21
3285.869626708058
 31
0.0
  0
LINE
  5
1708F
330
1628F
100
AcDbEntity
  8
寸法
 62
     0
 48
50.0
370
    -2
100
AcDbLine
 10
11245.3894290467
 20
3135.869626708057
 30
0.0
 11
11245.3894290467
 21
2723.775138519076
 31
0.0
  0
LINE
  5
17090
330
1628F
100
AcDbEntity
  8
寸法
 62
     0
 48
50.0
370
    -2
100
AcDbLine
 10
11245.3894290467
 20
3185.869626708058
 30
0.0
 11
11245.3894290467
 21
3135.869626708057
 31
0.0
  0
INSERT
  5
17091
330
1628F
100
AcDbEntity
  8
寸法
 62
     0
 48
50.0
370
    -2
100
AcDbBlockReference
  2
_DOTSMALL
 10
11245.3894290467
 20
3185.869626708058
 30
0.0
 41
100.0
 42
100.0
 43
100.0
 50
270.0
  0
INSERT
  5
17092
330
1628F
100
AcDbEntity
  8
寸法
 62
     0
 48
50.0
370
    -2
100
AcDbBlockReference
  2
_DOTSMALL
 10
11245.3894290467
 20
3135.869626708057
 30
0.0
 41
100.0
 42
100.0
 43
100.0
 50
90.0
  0
MTEXT
  5
17093
330
1628F
100
AcDbEntity
  8
寸法
 62
     7
 48
50.0
100
AcDbMText
 10
11145.3894290467
 20
2829.822382613566
 30
0.0
 40
120.0
 41
0.0
 71
     5
 72
     1
  1
\A1;50
  7
STYLE1
 11
0.0000000000000001
 21
1.0
 31
0.0
 73
     1
 44
1.0
1001
ACAD
1000
MTEXTBEGIN
1070
    73
1070
     1
1070
    44
1040
1.0
1070
    74
1070
     0
1000
MTEXTEND
  0
POINT
  5
17094
330
1628F
100
AcDbEntity
  8
DEFPOINTS
 62
     0
 48
50.0
100
AcDbPoint
 10
11840.35014969412
 20
3185.869626708058
 30
0.0
  0
POINT
  5
17095
330
1628F
100
AcDbEntity
  8
DEFPOINTS
 62
     0
 48
50.0
100
AcDbPoint
 10
11792.3525197389
 20
3135.869626708056
 30
0.0
  0
POINT
  5
17096
330
1628F
100
AcDbEntity
  8
DEFPOINTS
 62
     0
 48
50.0
100
AcDbPoint
 10
11245.3894290467
 20
3135.869626708057
 30
0.0
  0
ENDBLK
  5
1629C
330
1628F
100
AcDbEntity
  8
0
 48
50.0
100
AcDbBlockEnd
  0
BLOCK
  5
162A7
330
1629D
100
AcDbEntity
  8
0
 48
50.0
100
AcDbBlockBegin
  2
*D30
 70
     1
 10
0.0
 20
0.0
 30
0.0
  3
*D30
  1

  0
LINE
  5
17083
330
1629D
100
AcDbEntity
  8
寸法
 62
     0
 48
50.0
370
    -2
100
AcDbLine
 10
13397.3525197389
 20
3135.869626708056
 30
0.0
 11
14142.27967771103
 21
3135.869626708056
 31
0.0
  0
LINE
  5
17084
330
1629D
100
AcDbEntity
  8
寸法
 62
     0
 48
50.0
370
    -2
100
AcDbLine
 10
13477.3525197389
 20
5155.869626708057
 30
0.0
 11
14142.27967771103
 21
5155.869626708057
 31
0.0
  0
LINE
  5
17085
330
1629D
100
AcDbEntity
  8
寸法
 62
     0
 48
50.0
370
    -2
100
AcDbLine
 10
14082.27967771103
 20
3135.869626708056
 30
0.0
 11
14082.27967771103
 21
5155.869626708057
 31
0.0
  0
INSERT
  5
17086
330
1629D
100
AcDbEntity
  8
寸法
 62
     0
 48
50.0
370
    -2
100
AcDbBlockReference
  2
_DOTSMALL
 10
14082.27967771103
 20
3135.869626708056
 30
0.0
 41
100.0
 42
100.0
 43
100.0
 50
270.0
  0
INSERT
  5
17087
330
1629D
100
AcDbEntity
  8
寸法
 62
     0
 48
50.0
370
    -2
100
AcDbBlockReference
  2
_DOTSMALL
 10
14082.27967771103
 20
5155.869626708057
 30
0.0
 41
100.0
 42
100.0
 43
100.0
 50
90.0
  0
MTEXT
  5
17088
330
1629D
100
AcDbEntity
  8
寸法
 62
     7
 48
50.0
100
AcDbMText
 10
13982.26786668741
 20
4145.869626708058
 30
0.0
 40
120.0
 41
0.0
 71
     5
 72
     1
  1
\A1;2020
  7
STYLE1
 11
0.0000000000000001
 21
1.0
 31
0.0
 73
     1
 44
1.0
1001
ACAD
1000
MTEXTBEGIN
1070
    73
1070
     1
1070
    44
1040
1.0
1070
    74
1070
     0
1000
MTEXTEND
  0
POINT
  5
17089
330
1629D
100
AcDbEntity
  8
DEFPOINTS
 62
     0
 48
50.0
100
AcDbPoint
 10
13377.3525197389
 20
3135.869626708056
 30
0.0
  0
POINT
  5
1708A
330
1629D
100
AcDbEntity
  8
DEFPOINTS
 62
     0
 48
50.0
100
AcDbPoint
 10
13457.3525197389
 20
5155.869626708057
 30
0.0
  0
POINT
  5
1708B
330
1629D
100
AcDbEntity
  8
DEFPOINTS
 62
     0
 48
50.0
100
AcDbPoint
 10
14082.27967771103
 20
5155.869626708057
 30
0.0
  0
ENDBLK
  5
162A8
330
1629D
100
AcDbEntity
  8
0
 48
50.0
100
AcDbBlockEnd
  0
BLOCK
  5
162B3
330
162A9
100
AcDbEntity
  8
0
 48
50.0
100
AcDbBlockBegin
  2
*D31
 70
     1
 10
0.0
 20
0.0
 30
0.0
  3
*D31
  1

  0
LINE
  5
1707A
330
162A9
100
AcDbEntity
  8
寸法
 62
     0
 48
50.0
370
    -2
100
AcDbLine
 10
13377.3525197389
 20
5177.680306319707
 30
0.0
 11
13377.3525197389
 21
5669.527080287359
 31
0.0
  0
LINE
  5
1707B
330
162A9
100
AcDbEntity
  8
寸法
 62
     0
 48
50.0
370
    -2
100
AcDbLine
 10
11847.3525197389
 20
5226.871244831031
 30
0.0
 11
11847.3525197389
 21
5669.527080287359
 31
0.0
  0
LINE
  5
1707C
330
162A9
100
AcDbEntity
  8
寸法
 62
     0
 48
50.0
370
    -2
100
AcDbLine
 10
13377.3525197389
 20
5609.527080287358
 30
0.0
 11
11847.3525197389
 21
5609.527080287358
 31
0.0
  0
INSERT
  5
1707D
330
162A9
100
AcDbEntity
  8
寸法
 62
     0
 48
50.0
370
    -2
100
AcDbBlockReference
  2
_DOTSMALL
 10
13377.3525197389
 20
5609.527080287358
 30
0.0
 41
100.0
 42
100.0
 43
100.0
  0
INSERT
  5
1707E
330
162A9
100
AcDbEntity
  8
寸法
 62
     0
 48
50.0
370
    -2
100
AcDbBlockReference
  2
_DOTSMALL
 10
11847.3525197389
 20
5609.527080287358
 30
0.0
 41
100.0
 42
100.0
 43
100.0
 50
180.0
  0
MTEXT
  5
1707F
330
162A9
100
AcDbEntity
  8
寸法
 62
     7
 48
50.0
100
AcDbMText
 10
12657.17155262945
 20
5709.527080287358
 30
0.0
 40
120.0
 41
0.0
 71
     5
 72
     1
  1
\A1;柱外寸法1530
  7
STYLE1
 73
     1
 44
1.0
1001
ACAD
1000
MTEXTBEGIN
1070
    73
1070
     1
1070
    44
1040
1.0
1070
    74
1070
     0
1000
MTEXTEND
  0
POINT
  5
17080
330
162A9
100
AcDbEntity
  8
DEFPOINTS
 62
     0
 48
50.0
100
AcDbPoint
 10
13377.3525197389
 20
5157.680306319708
 30
0.0
  0
POINT
  5
17081
330
162A9
100
AcDbEntity
  8
DEFPOINTS
 62
     0
 48
50.0
100
AcDbPoint
 10
11847.3525197389
 20
5206.871244831031
 30
0.0
  0
POINT
  5
17082
330
162A9
100
AcDbEntity
  8
DEFPOINTS
 62
     0
 48
50.0
100
AcDbPoint
 10
11847.3525197389
 20
5609.527080287358
 30
0.0
  0
ENDBLK
  5
162B4
330
162A9
100
AcDbEntity
  8
0
 48
50.0
100
AcDbBlockEnd
  0
BLOCK
  5
162C1
330
162B5
100
AcDbEntity
  8
0
 48
50.0
100
AcDbBlockBegin
  2
*D32
 70
     1
 10
0.0
 20
0.0
 30
0.0
  3
*D32
  1

  0
LINE
  5
1706F
330
162B5
100
AcDbEntity
  8
寸法
 62
     0
 48
50.0
370
    -2
100
AcDbLine
 10
11847.3525197389
 20
5226.871244831031
 30
0.0
 11
11847.3525197389
 21
5669.527080287359
 31
0.0
  0
LINE
  5
17070
330
162B5
100
AcDbEntity
  8
寸法
 62
     0
 48
50.0
370
    -2
100
AcDbLine
 10
11787.3525197389
 20
5230.869626708059
 30
0.0
 11
11787.3525197389
 21
5669.527080287359
 31
0.0
  0
LINE
  5
17071
330
162B5
100
AcDbEntity
  8
寸法
 62
     0
 48
50.0
370
    -2
100
AcDbLine
 10
11847.3525197389
 20
5609.527080287358
 30
0.0
 11
11947.3525197389
 21
5609.527080287358
 31
0.0
  0
LINE
  5
17072
330
162B5
100
AcDbEntity
  8
寸法
 62
     0
 48
50.0
370
    -2
100
AcDbLine
 10
11787.3525197389
 20
5609.527080287358
 30
0.0
 11
11368.07692918772
 21
5609.527080287358
 31
0.0
  0
LINE
  5
17073
330
162B5
100
AcDbEntity
  8
寸法
 62
     0
 48
50.0
370
    -2
100
AcDbLine
 10
11847.3525197389
 20
5609.527080287358
 30
0.0
 11
11787.3525197389
 21
5609.527080287358
 31
0.0
  0
INSERT
  5
17074
330
162B5
100
AcDbEntity
  8
寸法
 62
     0
 48
50.0
370
    -2
100
AcDbBlockReference
  2
_DOTSMALL
 10
11847.3525197389
 20
5609.527080287358
 30
0.0
 41
100.0
 42
100.0
 43
100.0
 50
180.0
  0
INSERT
  5
17075
330
162B5
100
AcDbEntity
  8
寸法
 62
     0
 48
50.0
370
    -2
100
AcDbBlockReference
  2
_DOTSMALL
 10
11787.3525197389
 20
5609.527080287358
 30
0.0
 41
100.0
 42
100.0
 43
100.0
  0
MTEXT
  5
17076
330
162B5
100
AcDbEntity
  8
寸法
 62
     7
 48
50.0
100
AcDbMText
 10
11477.71472446331
 20
5709.527080287358
 30
0.0
 40
120.0
 41
0.0
 71
     5
 72
     1
  1
\A1;60
  7
STYLE1
 73
     1
 44
1.0
1001
ACAD
1000
MTEXTBEGIN
1070
    73
1070
     1
1070
    44
1040
1.0
1070
    74
1070
     0
1000
MTEXTEND
  0
POINT
  5
17077
330
162B5
100
AcDbEntity
  8
DEFPOINTS
 62
     0
 48
50.0
100
AcDbPoint
 10
11847.3525197389
 20
5206.871244831031
 30
0.0
  0
POINT
  5
17078
330
162B5
100
AcDbEntity
  8
DEFPOINTS
 62
     0
 48
50.0
100
AcDbPoint
 10
11787.3525197389
 20
5210.86962670806
 30
0.0
  0
POINT
  5
17079
330
162B5
100
AcDbEntity
  8
DEFPOINTS
 62
     0
 48
50.0
100
AcDbPoint
 10
11787.3525197389
 20
5609.527080287358
 30
0.0
  0
ENDBLK
  5
162C2
330
162B5
100
AcDbEntity
  8
0
 48
50.0
100
AcDbBlockEnd
  0
BLOCK
  5
162CD
330
162C3
100
AcDbEntity
  8
0
 48
50.0
100
AcDbBlockBegin
  2
*D33
 70
     1
 10
0.0
 20
0.0
 30
0.0
  3
*D33
  1

  0
LINE
  5
17066
330
162C3
100
AcDbEntity
  8
寸法
 62
     0
 48
50.0
370
    -2
100
AcDbLine
 10
13457.3525197389
 20
5175.869626708056
 30
0.0
 11
13457.3525197389
 21
5877.701401479322
 31
0.0
  0
LINE
  5
17067
330
162C3
100
AcDbEntity
  8
寸法
 62
     0
 48
50.0
370
    -2
100
AcDbLine
 10
11787.3525197389
 20
5230.869626708059
 30
0.0
 11
11787.3525197389
 21
5877.701401479322
 31
0.0
  0
LINE
  5
17068
330
162C3
100
AcDbEntity
  8
寸法
 62
     0
 48
50.0
370
    -2
100
AcDbLine
 10
13457.3525197389
 20
5817.701401479322
 30
0.0
 11
11787.3525197389
 21
5817.701401479322
 31
0.0
  0
INSERT
  5
17069
330
162C3
100
AcDbEntity
  8
寸法
 62
     0
 48
50.0
370
    -2
100
AcDbBlockReference
  2
_DOTSMALL
 10
13457.3525197389
 20
5817.701401479322
 30
0.0
 41
100.0
 42
100.0
 43
100.0
  0
INSERT
  5
1706A
330
162C3
100
AcDbEntity
  8
寸法
 62
     0
 48
50.0
370
    -2
100
AcDbBlockReference
  2
_DOTSMALL
 10
11787.3525197389
 20
5817.701401479322
 30
0.0
 41
100.0
 42
100.0
 43
100.0
 50
180.0
  0
MTEXT
  5
1706B
330
162C3
100
AcDbEntity
  8
寸法
 62
     7
 48
50.0
100
AcDbMText
 10
12674.47734944072
 20
5917.701401479322
 30
0.0
 40
120.0
 41
0.0
 71
     5
 72
     1
  1
\A1;1670
  7
STYLE1
 73
     1
 44
1.0
1001
ACAD
1000
MTEXTBEGIN
1070
    73
1070
     1
1070
    44
1040
1.0
1070
    74
1070
     0
1000
MTEXTEND
  0
POINT
  5
1706C
330
162C3
100
AcDbEntity
  8
DEFPOINTS
 62
     0
 48
50.0
100
AcDbPoint
 10
13457.3525197389
 20
5155.869626708057
 30
0.0
  0
POINT
  5
1706D
330
162C3
100
AcDbEntity
  8
DEFPOINTS
 62
     0
 48
50.0
100
AcDbPoint
 10
11787.3525197389
 20
5210.86962670806
 30
0.0
  0
POINT
  5
1706E
330
162C3
100
AcDbEntity
  8
DEFPOINTS
 62
     0
 48
50.0
100
AcDbPoint
 10
11787.3525197389
 20
5817.701401479322
 30
0.0
  0
ENDBLK
  5
162CE
330
162C3
100
AcDbEntity
  8
0
 48
50.0
100
AcDbBlockEnd
  0
BLOCK
  5
162DA
330
162CF
100
AcDbEntity
  8
0
 48
50.0
100
AcDbBlockBegin
  2
*D34
 70
     1
 10
0.0
 20
0.0
 30
0.0
  3
*D34
  1

  0
LINE
  5
1705C
330
162CF
100
AcDbEntity
  8
寸法
 62
     0
 48
50.0
370
    -2
100
AcDbLine
 10
13377.3525197389
 20
5177.680306319707
 30
0.0
 11
13377.3525197389
 21
5669.527080287359
 31
0.0
  0
LINE
  5
1705D
330
162CF
100
AcDbEntity
  8
寸法
 62
     0
 48
50.0
370
    -2
100
AcDbLine
 10
13457.3525197389
 20
5175.869626708056
 30
0.0
 11
13457.3525197389
 21
5669.527080287359
 31
0.0
  0
LINE
  5
1705E
330
162CF
100
AcDbEntity
  8
寸法
 62
     0
 48
50.0
370
    -2
100
AcDbLine
 10
13377.3525197389
 20
5609.527080287358
 30
0.0
 11
13457.3525197389
 21
5609.527080287358
 31
0.0
  0
LINE
  5
1705F
330
162CF
100
AcDbEntity
  8
寸法
 62
     0
 48
50.0
370
    -2
100
AcDbLine
 10
13457.3525197389
 20
5609.527080287358
 30
0.0
 11
13769.44700792788
 21
5609.527080287358
 31
0.0
  0
INSERT
  5
17060
330
162CF
100
AcDbEntity
  8
寸法
 62
     0
 48
50.0
370
    -2
100
AcDbBlockReference
  2
_DOTSMALL
 10
13377.3525197389
 20
5609.527080287358
 30
0.0
 41
100.0
 42
100.0
 43
100.0
 50
180.0
  0
INSERT
  5
17061
330
162CF
100
AcDbEntity
  8
寸法
 62
     0
 48
50.0
370
    -2
100
AcDbBlockReference
  2
_DOTSMALL
 10
13457.3525197389
 20
5609.527080287358
 30
0.0
 41
100.0
 42
100.0
 43
100.0
  0
MTEXT
  5
17062
330
162CF
100
AcDbEntity
  8
寸法
 62
     7
 48
50.0
100
AcDbMText
 10
13663.39976383339
 20
5709.527080287358
 30
0.0
 40
120.0
 41
0.0
 71
     5
 72
     1
  1
\A1;80
  7
STYLE1
 73
     1
 44
1.0
1001
ACAD
1000
MTEXTBEGIN
1070
    73
1070
     1
1070
    44
1040
1.0
1070
    74
1070
     0
1000
MTEXTEND
  0
POINT
  5
17063
330
162CF
100
AcDbEntity
  8
DEFPOINTS
 62
     0
 48
50.0
100
AcDbPoint
 10
13377.3525197389
 20
5157.680306319708
 30
0.0
  0
POINT
  5
17064
330
162CF
100
AcDbEntity
  8
DEFPOINTS
 62
     0
 48
50.0
100
AcDbPoint
 10
13457.3525197389
 20
5155.869626708057
 30
0.0
  0
POINT
  5
17065
330
162CF
100
AcDbEntity
  8
DEFPOINTS
 62
     0
 48
50.0
100
AcDbPoint
 10
13457.3525197389
 20
5609.527080287358
 30
0.0
  0
ENDBLK
  5
162DB
330
162CF
100
AcDbEntity
  8
0
 48
50.0
100
AcDbBlockEnd
  0
BLOCK
  5
162E7
330
162DC
100
AcDbEntity
  8
0
 48
50.0
100
AcDbBlockBegin
  2
*D35
 70
     1
 10
0.0
 20
0.0
 30
0.0
  3
*D35
  1

  0
LINE
  5
17052
330
162DC
100
AcDbEntity
  8
寸法
 62
     0
 48
50.0
370
    -2
100
AcDbLine
 10
11782.7093244264
 20
5069.405238181531
 30
0.0
 11
11129.80915413237
 21
5094.05626942151
 31
0.0
  0
LINE
  5
17053
330
162DC
100
AcDbEntity
  8
寸法
 62
     0
 48
50.0
370
    -2
100
AcDbLine
 10
11788.02915857836
 20
5210.304845578413
 30
0.0
 11
11135.12898828417
 21
5234.955876818398
 31
0.0
  0
LINE
  5
17054
330
162DC
100
AcDbEntity
  8
寸法
 62
     0
 48
50.0
370
    -2
100
AcDbLine
 10
11189.76643387573
 20
5091.79251020798
 30
0.0
 11
11195.08626802752
 21
5232.692117604869
 31
0.0
  0
LINE
  5
17055
330
162DC
100
AcDbEntity
  8
寸法
 62
     0
 48
50.0
370
    -2
100
AcDbLine
 10
11195.08626802752
 20
5232.692117604869
 30
0.0
 11
11208.66882330872
 21
5592.435796065702
 31
0.0
  0
INSERT
  5
17056
330
162DC
100
AcDbEntity
  8
寸法
 62
     0
 48
50.0
370
    -2
100
AcDbBlockReference
  2
_DOTSMALL
 10
11189.76643387573
 20
5091.79251020798
 30
0.0
 41
100.0
 42
100.0
 43
100.0
 50
267.8377559871574
  0
INSERT
  5
17057
330
162DC
100
AcDbEntity
  8
寸法
 62
     0
 48
50.0
370
    -2
100
AcDbBlockReference
  2
_DOTSMALL
 10
11195.08626802752
 20
5232.692117604869
 30
0.0
 41
100.0
 42
100.0
 43
100.0
 50
87.83775598715743
  0
MTEXT
  5
17058
330
162DC
100
AcDbEntity
  8
寸法
 62
     7
 48
50.0
100
AcDbMText
 10
11103.83521210715
 20
5466.301288644308
 30
0.0
 40
120.0
 41
0.0
 71
     5
 72
     1
  1
\A1;141
  7
STYLE1
 11
0.03772932022548
 21
0.9992879957226159
 31
0.0
 73
     1
 44
1.0
1001
ACAD
1000
MTEXTBEGIN
1070
    73
1070
     1
1070
    44
1040
1.0
1070
    74
1070
     0
1000
MTEXTEND
  0
POINT
  5
17059
330
162DC
100
AcDbEntity
  8
DEFPOINTS
 62
     0
 48
50.0
100
AcDbPoint
 10
11802.69508434085
 20
5068.650651777021
 30
0.0
  0
POINT
  5
1705A
330
162DC
100
AcDbEntity
  8
DEFPOINTS
 62
     0
 48
50.0
100
AcDbPoint
 10
11808.01491849281
 20
5209.550259173903
 30
0.0
  0
POINT
  5
1705B
330
162DC
100
AcDbEntity
  8
DEFPOINTS
 62
     0
 48
50.0
100
AcDbPoint
 10
11195.08626802752
 20
5232.692117604869
 30
0.0
  0
ENDBLK
  5
162E8
330
162DC
100
AcDbEntity
  8
0
 48
50.0
100
AcDbBlockEnd
  0
BLOCK
  5
162F3
330
162E9
100
AcDbEntity
  8
0
 48
50.0
100
AcDbBlockBegin
  2
*D36
 70
     1
 10
0.0
 20
0.0
 30
0.0
  3
*D36
  1

  0
LINE
  5
17049
330
162E9
100
AcDbEntity
  8
寸法
 62
     0
 48
50.0
370
    -2
100
AcDbLine
 10
11820.35014969412
 20
4975.869626708054
 30
0.0
 11
11185.3894290467
 21
4975.869626708054
 31
0.0
  0
LINE
  5
1704A
330
162E9
100
AcDbEntity
  8
寸法
 62
     0
 48
50.0
370
    -2
100
AcDbLine
 10
11820.35014969412
 20
3185.869626708058
 30
0.0
 11
11185.3894290467
 21
3185.869626708058
 31
0.0
  0
LINE
  5
1704B
330
162E9
100
AcDbEntity
  8
寸法
 62
     0
 48
50.0
370
    -2
100
AcDbLine
 10
11245.3894290467
 20
4975.869626708054
 30
0.0
 11
11245.3894290467
 21
3185.869626708058
 31
0.0
  0
INSERT
  5
1704C
330
162E9
100
AcDbEntity
  8
寸法
 62
     0
 48
50.0
370
    -2
100
AcDbBlockReference
  2
_DOTSMALL
 10
11245.3894290467
 20
4975.869626708054
 30
0.0
 41
100.0
 42
100.0
 43
100.0
 50
90.0
  0
INSERT
  5
1704D
330
162E9
100
AcDbEntity
  8
寸法
 62
     0
 48
50.0
370
    -2
100
AcDbBlockReference
  2
_DOTSMALL
 10
11245.3894290467
 20
3185.869626708058
 30
0.0
 41
100.0
 42
100.0
 43
100.0
 50
270.0
  0
MTEXT
  5
1704E
330
162E9
100
AcDbEntity
  8
寸法
 62
     7
 48
50.0
100
AcDbMText
 10
11145.3894290467
 20
4090.904638584443
 30
0.0
 40
120.0
 41
0.0
 71
     5
 72
     1
  1
\A1;1790
  7
STYLE1
 11
0.0000000000000001
 21
1.0
 31
0.0
 73
     1
 44
1.0
1001
ACAD
1000
MTEXTBEGIN
1070
    73
1070
     1
1070
    44
1040
1.0
1070
    74
1070
     0
1000
MTEXTEND
  0
POINT
  5
1704F
330
162E9
100
AcDbEntity
  8
DEFPOINTS
 62
     0
 48
50.0
100
AcDbPoint
 10
11840.35014969412
 20
4975.869626708054
 30
0.0
  0
POINT
  5
17050
330
162E9
100
AcDbEntity
  8
DEFPOINTS
 62
     0
 48
50.0
100
AcDbPoint
 10
11840.35014969412
 20
3185.869626708058
 30
0.0
  0
POINT
  5
17051
330
162E9
100
AcDbEntity
  8
DEFPOINTS
 62
     0
 48
50.0
100
AcDbPoint
 10
11245.3894290467
 20
3185.869626708058
 30
0.0
  0
ENDBLK
  5
162F4
330
162E9
100
AcDbEntity
  8
0
 48
50.0
100
AcDbBlockEnd
  0
BLOCK
  5
16D7F
330
16D73
100
AcDbEntity
  8
0
 48
50.0
100
AcDbBlockBegin
  2
*D37
 70
     1
 10
0.0
 20
0.0
 30
0.0
  3
*D37
  1

  0
LINE
  5
1703E
330
16D73
100
AcDbEntity
  8
寸法
 62
     0
 48
50.0
370
    -2
100
AcDbLine
 10
9510.480607178525
 20
5230.869626708056
 30
0.0
 11
9510.480607178525
 21
5483.411211966297
 31
0.0
  0
LINE
  5
1703F
330
16D73
100
AcDbEntity
  8
寸法
 62
     0
 48
50.0
370
    -2
100
AcDbLine
 10
9460.480607178524
 20
5230.869626708058
 30
0.0
 11
9460.480607178524
 21
5483.411211966297
 31
0.0
  0
LINE
  5
17040
330
16D73
100
AcDbEntity
  8
寸法
 62
     0
 48
50.0
370
    -2
100
AcDbLine
 10
9460.480607178524
 20
5423.411211966296
 30
0.0
 11
9360.480607178525
 21
5423.411211966296
 31
0.0
  0
LINE
  5
17041
330
16D73
100
AcDbEntity
  8
寸法
 62
     0
 48
50.0
370
    -2
100
AcDbLine
 10
9510.480607178525
 20
5423.411211966296
 30
0.0
 11
9930.013132647248
 21
5423.411211966296
 31
0.0
  0
LINE
  5
17042
330
16D73
100
AcDbEntity
  8
寸法
 62
     0
 48
50.0
370
    -2
100
AcDbLine
 10
9460.480607178524
 20
5423.411211966296
 30
0.0
 11
9510.480607178525
 21
5423.411211966296
 31
0.0
  0
INSERT
  5
17043
330
16D73
100
AcDbEntity
  8
寸法
 62
     0
 48
50.0
370
    -2
100
AcDbBlockReference
  2
_DOTSMALL
 10
9460.480607178524
 20
5423.411211966296
 30
0.0
 41
100.0
 42
100.0
 43
100.0
  0
INSERT
  5
17044
330
16D73
100
AcDbEntity
  8
寸法
 62
     0
 48
50.0
370
    -2
100
AcDbBlockReference
  2
_DOTSMALL
 10
9510.480607178525
 20
5423.411211966296
 30
0.0
 41
100.0
 42
100.0
 43
100.0
 50
180.0
  0
MTEXT
  5
17045
330
16D73
100
AcDbEntity
  8
寸法
 62
     7
 48
50.0
100
AcDbMText
 10
9823.965888552761
 20
5523.411211966297
 30
0.0
 40
120.0
 41
0.0
 71
     5
 72
     1
  1
\A1;50
  7
STYLE1
 73
     1
 44
1.0
1001
ACAD
1000
MTEXTBEGIN
1070
    73
1070
     1
1070
    44
1040
1.0
1070
    74
1070
     0
1000
MTEXTEND
  0
POINT
  5
17046
330
16D73
100
AcDbEntity
  8
DEFPOINTS
 62
     0
 48
50.0
100
AcDbPoint
 10
9510.480607178525
 20
5210.869626708056
 30
0.0
  0
POINT
  5
17047
330
16D73
100
AcDbEntity
  8
DEFPOINTS
 62
     0
 48
50.0
100
AcDbPoint
 10
9460.480607178524
 20
5210.869626708057
 30
0.0
  0
POINT
  5
17048
330
16D73
100
AcDbEntity
  8
DEFPOINTS
 62
     0
 48
50.0
100
AcDbPoint
 10
9460.480607178524
 20
5423.411211966296
 30
0.0
  0
ENDBLK
  5
16D80
330
16D73
100
AcDbEntity
  8
0
 48
50.0
100
AcDbBlockEnd
  0
BLOCK
  5
16D8D
330
16D81
100
AcDbEntity
  8
0
 48
50.0
100
AcDbBlockBegin
  2
*D38
 70
     1
 10
0.0
 20
0.0
 30
0.0
  3
*D38
  1

  0
LINE
  5
17033
330
16D81
100
AcDbEntity
  8
寸法
 62
     0
 48
50.0
370
    -2
100
AcDbLine
 10
3760.480607178521
 20
5230.869626708063
 30
0.0
 11
3760.480607178521
 21
5483.4112119663
 31
0.0
  0
LINE
  5
17034
330
16D81
100
AcDbEntity
  8
寸法
 62
     0
 48
50.0
370
    -2
100
AcDbLine
 10
3710.480607178521
 20
5230.869626708061
 30
0.0
 11
3710.480607178521
 21
5483.4112119663
 31
0.0
  0
LINE
  5
17035
330
16D81
100
AcDbEntity
  8
寸法
 62
     0
 48
50.0
370
    -2
100
AcDbLine
 10
3760.480607178521
 20
5423.4112119663
 30
0.0
 11
3860.480607178521
 21
5423.4112119663
 31
0.0
  0
LINE
  5
17036
330
16D81
100
AcDbEntity
  8
寸法
 62
     0
 48
50.0
370
    -2
100
AcDbLine
 10
3710.480607178521
 20
5423.4112119663
 30
0.0
 11
3290.948081709785
 21
5423.4112119663
 31
0.0
  0
LINE
  5
17037
330
16D81
100
AcDbEntity
  8
寸法
 62
     0
 48
50.0
370
    -2
100
AcDbLine
 10
3760.480607178521
 20
5423.4112119663
 30
0.0
 11
3710.480607178521
 21
5423.4112119663
 31
0.0
  0
INSERT
  5
17038
330
16D81
100
AcDbEntity
  8
寸法
 62
     0
 48
50.0
370
    -2
100
AcDbBlockReference
  2
_DOTSMALL
 10
3760.480607178521
 20
5423.4112119663
 30
0.0
 41
100.0
 42
100.0
 43
100.0
 50
180.0
  0
INSERT
  5
17039
330
16D81
100
AcDbEntity
  8
寸法
 62
     0
 48
50.0
370
    -2
100
AcDbBlockReference
  2
_DOTSMALL
 10
3710.480607178521
 20
5423.4112119663
 30
0.0
 41
100.0
 42
100.0
 43
100.0
  0
MTEXT
  5
1703A
330
16D81
100
AcDbEntity
  8
寸法
 62
     7
 48
50.0
100
AcDbMText
 10
3396.995325804274
 20
5523.4112119663
 30
0.0
 40
120.0
 41
0.0
 71
     5
 72
     1
  1
\A1;50
  7
STYLE1
 73
     1
 44
1.0
1001
ACAD
1000
MTEXTBEGIN
1070
    73
1070
     1
1070
    44
1040
1.0
1070
    74
1070
     0
1000
MTEXTEND
  0
POINT
  5
1703B
330
16D81
100
AcDbEntity
  8
DEFPOINTS
 62
     0
 48
50.0
100
AcDbPoint
 10
3760.480607178521
 20
5210.869626708063
 30
0.0
  0
POINT
  5
1703C
330
16D81
100
AcDbEntity
  8
DEFPOINTS
 62
     0
 48
50.0
100
AcDbPoint
 10
3710.480607178521
 20
5210.869626708062
 30
0.0
  0
POINT
  5
1703D
330
16D81
100
AcDbEntity
  8
DEFPOINTS
 62
     0
 48
50.0
100
AcDbPoint
 10
3710.480607178521
 20
5423.4112119663
 30
0.0
  0
ENDBLK
  5
16D8E
330
16D81
100
AcDbEntity
  8
0
 48
50.0
100
AcDbBlockEnd
  0
BLOCK
  5
16D99
330
16D8F
100
AcDbEntity
  8
0
 48
50.0
100
AcDbBlockBegin
  2
*D39
 70
     1
 10
0.0
 20
0.0
 30
0.0
  3
*D39
  1

  0
LINE
  5
1702A
330
16D8F
100
AcDbEntity
  8
寸法
 62
     0
 48
50.0
370
    -2
100
AcDbLine
 10
3710.480607178521
 20
5230.869626708061
 30
0.0
 11
3710.480607178521
 21
5706.368190404148
 31
0.0
  0
LINE
  5
1702B
330
16D8F
100
AcDbEntity
  8
寸法
 62
     0
 48
50.0
370
    -2
100
AcDbLine
 10
9510.480607178525
 20
5230.869626708056
 30
0.0
 11
9510.480607178525
 21
5706.368190404148
 31
0.0
  0
LINE
  5
1702C
330
16D8F
100
AcDbEntity
  8
寸法
 62
     0
 48
50.0
370
    -2
100
AcDbLine
 10
3710.480607178521
 20
5646.368190404148
 30
0.0
 11
9510.480607178525
 21
5646.368190404148
 31
0.0
  0
INSERT
  5
1702D
330
16D8F
100
AcDbEntity
  8
寸法
 62
     0
 48
50.0
370
    -2
100
AcDbBlockReference
  2
_DOTSMALL
 10
3710.480607178521
 20
5646.368190404148
 30
0.0
 41
100.0
 42
100.0
 43
100.0
 50
180.0
  0
INSERT
  5
1702E
330
16D8F
100
AcDbEntity
  8
寸法
 62
     0
 48
50.0
370
    -2
100
AcDbBlockReference
  2
_DOTSMALL
 10
9510.480607178525
 20
5646.368190404148
 30
0.0
 41
100.0
 42
100.0
 43
100.0
  0
MTEXT
  5
1702F
330
16D8F
100
AcDbEntity
  8
寸法
 62
     7
 48
50.0
100
AcDbMText
 10
6610.480607178512
 20
5746.368190404147
 30
0.0
 40
120.0
 41
0.0
 71
     5
 72
     1
  1
\A1;5800
  7
STYLE1
 73
     1
 44
1.0
1001
ACAD
1000
MTEXTBEGIN
1070
    73
1070
     1
1070
    44
1040
1.0
1070
    74
1070
     0
1000
MTEXTEND
  0
POINT
  5
17030
330
16D8F
100
AcDbEntity
  8
DEFPOINTS
 62
     0
 48
50.0
100
AcDbPoint
 10
3710.480607178521
 20
5210.869626708062
 30
0.0
  0
POINT
  5
17031
330
16D8F
100
AcDbEntity
  8
DEFPOINTS
 62
     0
 48
50.0
100
AcDbPoint
 10
9510.480607178525
 20
5210.869626708056
 30
0.0
  0
POINT
  5
17032
330
16D8F
100
AcDbEntity
  8
DEFPOINTS
 62
     0
 48
50.0
100
AcDbPoint
 10
9510.480607178525
 20
5646.368190404148
 30
0.0
  0
ENDBLK
  5
16D9A
330
16D8F
100
AcDbEntity
  8
0
 48
50.0
100
AcDbBlockEnd
  0
BLOCK
  5
16DA5
330
16D9B
100
AcDbEntity
  8
0
 48
50.0
100
AcDbBlockBegin
  2
*D40
 70
     1
 10
0.0
 20
0.0
 30
0.0
  3
*D40
  1

  0
LINE
  5
17021
330
16D9B
100
AcDbEntity
  8
寸法
 62
     0
 48
50.0
370
    -2
100
AcDbLine
 10
9460.480607178524
 20
5230.869626708058
 30
0.0
 11
9460.480607178524
 21
5483.4112119663
 31
0.0
  0
LINE
  5
17022
330
16D9B
100
AcDbEntity
  8
寸法
 62
     0
 48
50.0
370
    -2
100
AcDbLine
 10
3760.480607178521
 20
5230.869626708063
 30
0.0
 11
3760.480607178521
 21
5483.4112119663
 31
0.0
  0
LINE
  5
17023
330
16D9B
100
AcDbEntity
  8
寸法
 62
     0
 48
50.0
370
    -2
100
AcDbLine
 10
9460.480607178524
 20
5423.4112119663
 30
0.0
 11
3760.480607178521
 21
5423.4112119663
 31
0.0
  0
INSERT
  5
17024
330
16D9B
100
AcDbEntity
  8
寸法
 62
     0
 48
50.0
370
    -2
100
AcDbBlockReference
  2
_DOTSMALL
 10
9460.480607178524
 20
5423.4112119663
 30
0.0
 41
100.0
 42
100.0
 43
100.0
  0
INSERT
  5
17025
330
16D9B
100
AcDbEntity
  8
寸法
 62
     0
 48
50.0
370
    -2
100
AcDbBlockReference
  2
_DOTSMALL
 10
3760.480607178521
 20
5423.4112119663
 30
0.0
 41
100.0
 42
100.0
 43
100.0
 50
180.0
  0
MTEXT
  5
17026
330
16D9B
100
AcDbEntity
  8
寸法
 62
     7
 48
50.0
100
AcDbMText
 10
6610.480607178512
 20
5523.4112119663
 30
0.0
 40
120.0
 41
0.0
 71
     5
 72
     1
  1
\A1;柱外寸法5700
  7
STYLE1
 73
     1
 44
1.0
1001
ACAD
1000
MTEXTBEGIN
1070
    73
1070
     1
1070
    44
1040
1.0
1070
    74
1070
     0
1000
MTEXTEND
  0
POINT
  5
17027
330
16D9B
100
AcDbEntity
  8
DEFPOINTS
 62
     0
 48
50.0
100
AcDbPoint
 10
9460.480607178524
 20
5210.869626708057
 30
0.0
  0
POINT
  5
17028
330
16D9B
100
AcDbEntity
  8
DEFPOINTS
 62
     0
 48
50.0
100
AcDbPoint
 10
3760.480607178521
 20
5210.869626708063
 30
0.0
  0
POINT
  5
17029
330
16D9B
100
AcDbEntity
  8
DEFPOINTS
 62
     0
 48
50.0
100
AcDbPoint
 10
3760.480607178521
 20
5423.4112119663
 30
0.0
  0
ENDBLK
  5
16DA6
330
16D9B
100
AcDbEntity
  8
0
 48
50.0
100
AcDbBlockEnd
  0
BLOCK
  5
16E23
330
16E19
100
AcDbEntity
  8
0
 48
50.0
100
AcDbBlockBegin
  2
*D41
 70
     1
 10
0.0
 20
0.0
 30
0.0
  3
*D41
  1

  0
LINE
  5
17018
330
16E19
100
AcDbEntity
  8
寸法
 62
     0
 48
50.0
370
    -2
100
AcDbLine
 10
3740.480607178521
 20
4957.369626708054
 30
0.0
 11
3382.376079570917
 21
4957.369626708054
 31
0.0
  0
LINE
  5
17019
330
16E19
100
AcDbEntity
  8
寸法
 62
     0
 48
50.0
370
    -2
100
AcDbLine
 10
3740.480607178521
 20
3197.369626708058
 30
0.0
 11
3382.376079570917
 21
3197.369626708058
 31
0.0
  0
LINE
  5
1701A
330
16E19
100
AcDbEntity
  8
寸法
 62
     0
 48
50.0
370
    -2
100
AcDbLine
 10
3442.376079570917
 20
4957.369626708054
 30
0.0
 11
3442.376079570917
 21
3197.369626708058
 31
0.0
  0
INSERT
  5
1701B
330
16E19
100
AcDbEntity
  8
寸法
 62
     0
 48
50.0
370
    -2
100
AcDbBlockReference
  2
_DOTSMALL
 10
3442.376079570917
 20
4957.369626708054
 30
0.0
 41
100.0
 42
100.0
 43
100.0
 50
90.0
  0
INSERT
  5
1701C
330
16E19
100
AcDbEntity
  8
寸法
 62
     0
 48
50.0
370
    -2
100
AcDbBlockReference
  2
_DOTSMALL
 10
3442.376079570917
 20
3197.369626708058
 30
0.0
 41
100.0
 42
100.0
 43
100.0
 50
270.0
  0
MTEXT
  5
1701D
330
16E19
100
AcDbEntity
  8
寸法
 62
     7
 48
50.0
100
AcDbMText
 10
3342.376079570917
 20
4076.369626708056
 30
0.0
 40
120.0
 41
0.0
 71
     5
 72
     1
  1
\A1;有効開口部高サ1760
  7
STYLE1
 11
0.0000000000000001
 21
1.0
 31
0.0
 73
     1
 44
1.0
1001
ACAD
1000
MTEXTBEGIN
1070
    73
1070
     1
1070
    44
1040
1.0
1070
    74
1070
     0
1000
MTEXTEND
  0
POINT
  5
1701E
330
16E19
100
AcDbEntity
  8
DEFPOINTS
 62
     0
 48
50.0
100
AcDbPoint
 10
3760.480607178521
 20
4957.369626708054
 30
0.0
  0
POINT
  5
1701F
330
16E19
100
AcDbEntity
  8
DEFPOINTS
 62
     0
 48
50.0
100
AcDbPoint
 10
3760.480607178521
 20
3197.369626708058
 30
0.0
  0
POINT
  5
17020
330
16E19
100
AcDbEntity
  8
DEFPOINTS
 62
     0
 48
50.0
100
AcDbPoint
 10
3442.376079570917
 20
3197.369626708058
 30
0.0
  0
ENDBLK
  5
16E24
330
16E19
100
AcDbEntity
  8
0
 48
50.0
100
AcDbBlockEnd
  0
BLOCK
  5
16FA2
330
16F98
100
AcDbEntity
  8
0
 48
50.0
100
AcDbBlockBegin
  2
*D42
 70
     1
 10
0.0
 20
0.0
 30
0.0
  3
*D42
  1

  0
LINE
  5
171E4
330
16F98
100
AcDbEntity
  8
寸法
 62
     0
 48
50.0
370
    -2
100
AcDbLine
 10
4734.121630007524
 20
8957.558806793921
 30
0.0
 11
4669.265302287629
 21
8715.511696550937
 31
0.0
  0
LINE
  5
171E5
330
16F98
100
AcDbEntity
  8
寸法
 62
     0
 48
50.0
370
    -2
100
AcDbLine
 10
5626.121630007536
 20
8957.558806793917
 30
0.0
 11
5561.265302287642
 21
8715.511696550937
 31
0.0
  0
LINE
  5
171E6
330
16F98
100
AcDbEntity
  8
寸法
 62
     0
 48
50.0
370
    -2
100
AcDbLine
 10
4685.342253833497
 20
8775.511696550937
 30
0.0
 11
5577.342253833509
 21
8775.511696550937
 31
0.0
  0
MTEXT
  5
171E7
330
16F98
100
AcDbEntity
  8
寸法
 62
     7
 48
50.0
100
AcDbMText
 10
5230.606428632069
 20
8878.795811943934
 30
0.0
 40
120.0
 41
0.0
 71
     5
 72
     1
  1
\A1;892
  7
STYLE1
 73
     1
 44
1.0
1001
ACAD
1000
MTEXTBEGIN
1070
    73
1070
     1
1070
    44
1040
1.0
1070
    74
1070
     0
1000
MTEXTEND
  0
INSERT
  5
171E8
330
16F98
100
AcDbEntity
  8
寸法
 62
     0
 48
50.0
370
    -2
100
AcDbBlockReference
  2
_DOTSMALL
 10
4685.342253833497
 20
8775.511696550937
 30
0.0
 41
100.0
 42
100.0
 43
100.0
 50
180.0
  0
INSERT
  5
171E9
330
16F98
100
AcDbEntity
  8
寸法
 62
     0
 48
50.0
370
    -2
100
AcDbBlockReference
  2
_DOTSMALL
 10
5577.342253833509
 20
8775.511696550937
 30
0.0
 41
100.0
 42
100.0
 43
100.0
  0
POINT
  5
171EA
330
16F98
100
AcDbEntity
  8
DEFPOINTS
 62
     0
 48
50.0
100
AcDbPoint
 10
4739.480613856147
 20
8977.55880679392
 30
0.0
  0
POINT
  5
171EB
330
16F98
100
AcDbEntity
  8
DEFPOINTS
 62
     0
 48
50.0
100
AcDbPoint
 10
5631.480613856158
 20
8977.558806793917
 30
0.0
  0
POINT
  5
171EC
330
16F98
100
AcDbEntity
  8
DEFPOINTS
 62
     0
 48
50.0
100
AcDbPoint
 10
5577.342253833509
 20
8775.511696550937
 30
0.0
  0
ENDBLK
  5
16FA3
330
16F98
100
AcDbEntity
  8
0
 48
50.0
100
AcDbBlockEnd
  0
BLOCK
  5
16FAE
330
16FA4
100
AcDbEntity
  8
0
 48
50.0
100
AcDbBlockBegin
  2
*D43
 70
     1
 10
0.0
 20
0.0
 30
0.0
  3
*D43
  1

  0
LINE
  5
171ED
330
16FA4
100
AcDbEntity
  8
寸法
 62
     0
 48
50.0
370
    -2
100
AcDbLine
 10
5684.121630007524
 20
8957.558806793921
 30
0.0
 11
5619.265302287629
 21
8715.511696550937
 31
0.0
  0
LINE
  5
171EE
330
16FA4
100
AcDbEntity
  8
寸法
 62
     0
 48
50.0
370
    -2
100
AcDbLine
 10
6576.121630007536
 20
8957.558806793917
 30
0.0
 11
6511.265302287641
 21
8715.511696550937
 31
0.0
  0
LINE
  5
171EF
330
16FA4
100
AcDbEntity
  8
寸法
 62
     0
 48
50.0
370
    -2
100
AcDbLine
 10
5635.342253833497
 20
8775.511696550937
 30
0.0
 11
6527.342253833509
 21
8775.511696550937
 31
0.0
  0
MTEXT
  5
171F0
330
16FA4
100
AcDbEntity
  8
寸法
 62
     7
 48
50.0
100
AcDbMText
 10
6180.606428632069
 20
8878.795811943934
 30
0.0
 40
120.0
 41
0.0
 71
     5
 72
     1
  1
\A1;892
  7
STYLE1
 73
     1
 44
1.0
1001
ACAD
1000
MTEXTBEGIN
1070
    73
1070
     1
1070
    44
1040
1.0
1070
    74
1070
     0
1000
MTEXTEND
  0
INSERT
  5
171F1
330
16FA4
100
AcDbEntity
  8
寸法
 62
     0
 48
50.0
370
    -2
100
AcDbBlockReference
  2
_DOTSMALL
 10
5635.342253833497
 20
8775.511696550937
 30
0.0
 41
100.0
 42
100.0
 43
100.0
 50
180.0
  0
INSERT
  5
171F2
330
16FA4
100
AcDbEntity
  8
寸法
 62
     0
 48
50.0
370
    -2
100
AcDbBlockReference
  2
_DOTSMALL
 10
6527.342253833509
 20
8775.511696550937
 30
0.0
 41
100.0
 42
100.0
 43
100.0
  0
POINT
  5
171F3
330
16FA4
100
AcDbEntity
  8
DEFPOINTS
 62
     0
 48
50.0
100
AcDbPoint
 10
5689.480613856147
 20
8977.55880679392
 30
0.0
  0
POINT
  5
171F4
330
16FA4
100
AcDbEntity
  8
DEFPOINTS
 62
     0
 48
50.0
100
AcDbPoint
 10
6581.480613856157
 20
8977.558806793917
 30
0.0
  0
POINT
  5
171F5
330
16FA4
100
AcDbEntity
  8
DEFPOINTS
 62
     0
 48
50.0
100
AcDbPoint
 10
6527.342253833509
 20
8775.511696550937
 30
0.0
  0
ENDBLK
  5
16FAF
330
16FA4
100
AcDbEntity
  8
0
 48
50.0
100
AcDbBlockEnd
  0
BLOCK
  5
16FBA
330
16FB0
100
AcDbEntity
  8
0
 48
50.0
100
AcDbBlockBegin
  2
*D44
 70
     1
 10
0.0
 20
0.0
 30
0.0
  3
*D44
  1

  0
LINE
  5
171F6
330
16FB0
100
AcDbEntity
  8
寸法
 62
     0
 48
50.0
370
    -2
100
AcDbLine
 10
6634.121630007524
 20
8957.558806793921
 30
0.0
 11
6569.26530228763
 21
8715.511696550937
 31
0.0
  0
LINE
  5
171F7
330
16FB0
100
AcDbEntity
  8
寸法
 62
     0
 48
50.0
370
    -2
100
AcDbLine
 10
7526.121630007536
 20
8957.558806793917
 30
0.0
 11
7461.265302287642
 21
8715.511696550937
 31
0.0
  0
LINE
  5
171F8
330
16FB0
100
AcDbEntity
  8
寸法
 62
     0
 48
50.0
370
    -2
100
AcDbLine
 10
6585.342253833497
 20
8775.511696550937
 30
0.0
 11
7477.342253833509
 21
8775.511696550937
 31
0.0
  0
MTEXT
  5
171F9
330
16FB0
100
AcDbEntity
  8
寸法
 62
     7
 48
50.0
100
AcDbMText
 10
7130.606428632069
 20
8878.795811943934
 30
0.0
 40
120.0
 41
0.0
 71
     5
 72
     1
  1
\A1;892
  7
STYLE1
 73
     1
 44
1.0
1001
ACAD
1000
MTEXTBEGIN
1070
    73
1070
     1
1070
    44
1040
1.0
1070
    74
1070
     0
1000
MTEXTEND
  0
INSERT
  5
171FA
330
16FB0
100
AcDbEntity
  8
寸法
 62
     0
 48
50.0
370
    -2
100
AcDbBlockReference
  2
_DOTSMALL
 10
6585.342253833497
 20
8775.511696550937
 30
0.0
 41
100.0
 42
100.0
 43
100.0
 50
180.0
  0
INSERT
  5
171FB
330
16FB0
100
AcDbEntity
  8
寸法
 62
     0
 48
50.0
370
    -2
100
AcDbBlockReference
  2
_DOTSMALL
 10
7477.342253833509
 20
8775.511696550937
 30
0.0
 41
100.0
 42
100.0
 43
100.0
  0
POINT
  5
171FC
330
16FB0
100
AcDbEntity
  8
DEFPOINTS
 62
     0
 48
50.0
100
AcDbPoint
 10
6639.480613856147
 20
8977.55880679392
 30
0.0
  0
POINT
  5
171FD
330
16FB0
100
AcDbEntity
  8
DEFPOINTS
 62
     0
 48
50.0
100
AcDbPoint
 10
7531.480613856158
 20
8977.558806793917
 30
0.0
  0
POINT
  5
171FE
330
16FB0
100
AcDbEntity
  8
DEFPOINTS
 62
     0
 48
50.0
100
AcDbPoint
 10
7477.342253833509
 20
8775.511696550937
 30
0.0
  0
ENDBLK
  5
16FBB
330
16FB0
100
AcDbEntity
  8
0
 48
50.0
100
AcDbBlockEnd
  0
BLOCK
  5
16FC6
330
16FBC
100
AcDbEntity
  8
0
 48
50.0
100
AcDbBlockBegin
  2
*D45
 70
     1
 10
0.0
 20
0.0
 30
0.0
  3
*D45
  1

  0
LINE
  5
171FF
330
16FBC
100
AcDbEntity
  8
寸法
 62
     0
 48
50.0
370
    -2
100
AcDbLine
 10
7584.121630007524
 20
8957.558806793921
 30
0.0
 11
7519.26530228763
 21
8715.511696550937
 31
0.0
  0
LINE
  5
17200
330
16FBC
100
AcDbEntity
  8
寸法
 62
     0
 48
50.0
370
    -2
100
AcDbLine
 10
8476.121630007536
 20
8957.558806793917
 30
0.0
 11
8411.265302287642
 21
8715.511696550937
 31
0.0
  0
LINE
  5
17201
330
16FBC
100
AcDbEntity
  8
寸法
 62
     0
 48
50.0
370
    -2
100
AcDbLine
 10
7535.342253833497
 20
8775.511696550937
 30
0.0
 11
8427.34225383351
 21
8775.511696550937
 31
0.0
  0
MTEXT
  5
17202
330
16FBC
100
AcDbEntity
  8
寸法
 62
     7
 48
50.0
100
AcDbMText
 10
8080.606428632069
 20
8878.795811943934
 30
0.0
 40
120.0
 41
0.0
 71
     5
 72
     1
  1
\A1;892
  7
STYLE1
 73
     1
 44
1.0
1001
ACAD
1000
MTEXTBEGIN
1070
    73
1070
     1
1070
    44
1040
1.0
1070
    74
1070
     0
1000
MTEXTEND
  0
INSERT
  5
17203
330
16FBC
100
AcDbEntity
  8
寸法
 62
     0
 48
50.0
370
    -2
100
AcDbBlockReference
  2
_DOTSMALL
 10
7535.342253833497
 20
8775.511696550937
 30
0.0
 41
100.0
 42
100.0
 43
100.0
 50
180.0
  0
INSERT
  5
17204
330
16FBC
100
AcDbEntity
  8
寸法
 62
     0
 48
50.0
370
    -2
100
AcDbBlockReference
  2
_DOTSMALL
 10
8427.34225383351
 20
8775.511696550937
 30
0.0
 41
100.0
 42
100.0
 43
100.0
  0
POINT
  5
17205
330
16FBC
100
AcDbEntity
  8
DEFPOINTS
 62
     0
 48
50.0
100
AcDbPoint
 10
7589.480613856148
 20
8977.55880679392
 30
0.0
  0
POINT
  5
17206
330
16FBC
100
AcDbEntity
  8
DEFPOINTS
 62
     0
 48
50.0
100
AcDbPoint
 10
8481.480613856158
 20
8977.558806793917
 30
0.0
  0
POINT
  5
17207
330
16FBC
100
AcDbEntity
  8
DEFPOINTS
 62
     0
 48
50.0
100
AcDbPoint
 10
8427.34225383351
 20
8775.511696550937
 30
0.0
  0
ENDBLK
  5
16FC7
330
16FBC
100
AcDbEntity
  8
0
 48
50.0
100
AcDbBlockEnd
  0
BLOCK
  5
16FD2
330
16FC8
100
AcDbEntity
  8
0
 48
50.0
100
AcDbBlockBegin
  2
*D46
 70
     1
 10
0.0
 20
0.0
 30
0.0
  3
*D46
  1

  0
LINE
  5
17208
330
16FC8
100
AcDbEntity
  8
寸法
 62
     0
 48
50.0
370
    -2
100
AcDbLine
 10
8534.121630007524
 20
8957.558806793921
 30
0.0
 11
8469.265302287629
 21
8715.511696550937
 31
0.0
  0
LINE
  5
17209
330
16FC8
100
AcDbEntity
  8
寸法
 62
     0
 48
50.0
370
    -2
100
AcDbLine
 10
9426.121630007536
 20
8957.558806793917
 30
0.0
 11
9361.265302287641
 21
8715.511696550937
 31
0.0
  0
LINE
  5
1720A
330
16FC8
100
AcDbEntity
  8
寸法
 62
     0
 48
50.0
370
    -2
100
AcDbLine
 10
8485.342253833499
 20
8775.511696550937
 30
0.0
 11
9377.342253833509
 21
8775.511696550937
 31
0.0
  0
MTEXT
  5
1720B
330
16FC8
100
AcDbEntity
  8
寸法
 62
     7
 48
50.0
100
AcDbMText
 10
9024.135265737823
 20
8880.596972327467
 30
0.0
 40
120.0
 41
0.0
 71
     5
 72
     1
  1
\A1;892
  7
STYLE1
 73
     1
 44
1.0
1001
ACAD
1000
MTEXTBEGIN
1070
    73
1070
     1
1070
    44
1040
1.0
1070
    74
1070
     0
1000
MTEXTEND
  0
INSERT
  5
1720C
330
16FC8
100
AcDbEntity
  8
寸法
 62
     0
 48
50.0
370
    -2
100
AcDbBlockReference
  2
_DOTSMALL
 10
8485.342253833499
 20
8775.511696550937
 30
0.0
 41
100.0
 42
100.0
 43
100.0
 50
180.0
  0
INSERT
  5
1720D
330
16FC8
100
AcDbEntity
  8
寸法
 62
     0
 48
50.0
370
    -2
100
AcDbBlockReference
  2
_DOTSMALL
 10
9377.342253833509
 20
8775.511696550937
 30
0.0
 41
100.0
 42
100.0
 43
100.0
  0
POINT
  5
1720E
330
16FC8
100
AcDbEntity
  8
DEFPOINTS
 62
     0
 48
50.0
100
AcDbPoint
 10
8539.480613856147
 20
8977.55880679392
 30
0.0
  0
POINT
  5
1720F
330
16FC8
100
AcDbEntity
  8
DEFPOINTS
 62
     0
 48
50.0
100
AcDbPoint
 10
9431.480613856157
 20
8977.558806793917
 30
0.0
  0
POINT
  5
17210
330
16FC8
100
AcDbEntity
  8
DEFPOINTS
 62
     0
 48
50.0
100
AcDbPoint
 10
9377.342253833509
 20
8775.511696550937
 30
0.0
  0
ENDBLK
  5
16FD3
330
16FC8
100
AcDbEntity
  8
0
 48
50.0
100
AcDbBlockEnd
  0
BLOCK
  5
1700D
330
17003
100
AcDbEntity
  8
0
 48
50.0
100
AcDbBlockBegin
  2
*D47
 70
     1
 10
0.0
 20
0.0
 30
0.0
  3
*D47
  1

  0
LINE
  5
171DB
330
17003
100
AcDbEntity
  8
寸法
 62
     0
 48
50.0
370
    -2
100
AcDbLine
 10
3784.121630007525
 20
8957.558806793921
 30
0.0
 11
3719.26530228763
 21
8715.511696550937
 31
0.0
  0
LINE
  5
171DC
330
17003
100
AcDbEntity
  8
寸法
 62
     0
 48
50.0
370
    -2
100
AcDbLine
 10
4676.121630007536
 20
8957.558806793917
 30
0.0
 11
4611.265302287642
 21
8715.511696550937
 31
0.0
  0
LINE
  5
171DD
330
17003
100
AcDbEntity
  8
寸法
 62
     0
 48
50.0
370
    -2
100
AcDbLine
 10
3735.342253833497
 20
8775.511696550937
 30
0.0
 11
4627.342253833509
 21
8775.511696550937
 31
0.0
  0
MTEXT
  5
171DE
330
17003
100
AcDbEntity
  8
寸法
 62
     7
 48
50.0
100
AcDbMText
 10
4280.606428632069
 20
8878.795811943934
 30
0.0
 40
120.0
 41
0.0
 71
     5
 72
     1
  1
\A1;892
  7
STYLE1
 73
     1
 44
1.0
1001
ACAD
1000
MTEXTBEGIN
1070
    73
1070
     1
1070
    44
1040
1.0
1070
    74
1070
     0
1000
MTEXTEND
  0
INSERT
  5
171DF
330
17003
100
AcDbEntity
  8
寸法
 62
     0
 48
50.0
370
    -2
100
AcDbBlockReference
  2
_DOTSMALL
 10
3735.342253833497
 20
8775.511696550937
 30
0.0
 41
100.0
 42
100.0
 43
100.0
 50
180.0
  0
INSERT
  5
171E0
330
17003
100
AcDbEntity
  8
寸法
 62
     0
 48
50.0
370
    -2
100
AcDbBlockReference
  2
_DOTSMALL
 10
4627.342253833509
 20
8775.511696550937
 30
0.0
 41
100.0
 42
100.0
 43
100.0
  0
POINT
  5
171E1
330
17003
100
AcDbEntity
  8
DEFPOINTS
 62
     0
 48
50.0
100
AcDbPoint
 10
3789.480613856147
 20
8977.55880679392
 30
0.0
  0
POINT
  5
171E2
330
17003
100
AcDbEntity
  8
DEFPOINTS
 62
     0
 48
50.0
100
AcDbPoint
 10
4681.480613856158
 20
8977.558806793917
 30
0.0
  0
POINT
  5
171E3
330
17003
100
AcDbEntity
  8
DEFPOINTS
 62
     0
 48
50.0
100
AcDbPoint
 10
4627.342253833509
 20
8775.511696550937
 30
0.0
  0
ENDBLK
  5
1700E
330
17003
100
AcDbEntity
  8
0
 48
50.0
100
AcDbBlockEnd
  0
ENDSEC
  0
SECTION
  2
ENTITIES
  0
LINE
  5
10B56
330
747D
100
AcDbEntity
  8
補助
  6
PHANTOM
 62
   230
 48
50.0
100
AcDbLine
 10
140.0
 20
0.0
 30
0.0
 11
139.9999999999995
 21
11409.6
 31
0.0
  0
LINE
  5
10B57
330
747D
100
AcDbEntity
  8
補助
  6
PHANTOM
 62
   230
 48
50.0
100
AcDbLine
 10
139.9999999999995
 20
11409.6
 30
0.0
 11
16307.2
 21
11409.6
 31
0.0
  0
LINE
  5
10B59
330
747D
100
AcDbEntity
  8
仕様書枠
  6
Continuous
 48
50.0
100
AcDbLine
 10
13107.2
 20
1200.0
 30
0.0
 11
13107.2
 21
-0.0000000000000729
 31
0.0
  0
LINE
  5
10B5C
330
747D
100
AcDbEntity
  8
仕様書枠
 48
50.0
100
AcDbLine
 10
16307.2
 20
1200.0
 30
0.0
 11
16307.2
 21
-0.0000000000000909
 31
0.0
  0
LINE
  5
10B5D
330
747D
100
AcDbEntity
  8
仕様書枠
 48
50.0
100
AcDbLine
 10
140.0
 20
0.0
 30
0.0
 11
16307.2
 21
-0.0000000000000909
 31
0.0
  0
LINE
  5
10B5E
330
747D
100
AcDbEntity
  8
補助
  6
PHANTOM
 62
   230
 48
50.0
100
AcDbLine
 10
16307.2
 20
11409.6
 30
0.0
 11
16307.2
 21
1200.0
 31
0.0
  0
LINE
  5
10B6C
330
747D
100
AcDbEntity
  8
仕様書枠
 48
50.0
100
AcDbLine
 10
13107.2
 20
1200.0
 30
0.0
 11
16307.2
 21
1200.0
 31
0.0
  0
LINE
  5
10B6D
330
747D
100
AcDbEntity
  8
補助
  6
PHANTOM
 62
   230
 48
50.0
100
AcDbLine
 10
13107.2
 20
11409.6
 30
0.0
 11
13107.2
 21
4800.0
 31
0.0
  0
LINE
  5
10B6F
330
747D
100
AcDbEntity
  8
補助
  6
PHANTOM
 62
   230
 48
50.0
100
AcDbLine
 10
13107.2
 20
4800.0
 30
0.0
 11
16307.2
 21
4800.0
 31
0.0
  0
LINE
  5
10B72
330
747D
100
AcDbEntity
  8
文字
 62
     7
 48
50.0
100
AcDbLine
 10
13187.2
 20
400.0
 30
0.0
 11
16227.2
 21
400.0
 31
0.0
  0
TEXT
  5
10B73
330
747D
100
AcDbEntity
  8
文字
 62
     7
 48
50.0
100
AcDbText
 10
13162.9790565769
 20
895.0906074299405
 30
0.0
 40
200.0
  1
外 形 図
  7
STYLE2
100
AcDbText
  0
TEXT
  5
10B74
330
747D
100
AcDbEntity
  8
文字
 62
     7
 48
50.0
100
AcDbText
 10
13201.43669998441
 20
477.2740661031255
 30
0.0
 40
160.0
  1
機種名
  7
STYLE2
100
AcDbText
  0
TEXT
  5
10B75
330
747D
100
AcDbEntity
  8
文字
 62
     7
 48
50.0
100
AcDbText
 10
13209.4053442172
 20
228.5435242569016
 30
0.0
 40
100.0
  1
○有効開口寸法 ： 685×1760(mm)
  7
STYLE2
100
AcDbText
  0
TEXT
  5
10B76
330
747D
100
AcDbEntity
  8
文字
 62
     7
 48
50.0
100
AcDbText
 10
13209.4053442172
 20
76.09434707649343
 30
0.0
 40
100.0
  1
○床面積 ： 8.72㎡(2.64坪) 　
  7
STYLE2
100
AcDbText
  0
TEXT
  5
10B79
330
747D
100
AcDbEntity
  8
文字
 62
     7
 48
50.0
100
AcDbText
 10
14524.131837222
 20
1031.557706291228
 30
0.0
 40
100.0
  1
NO.05     <縮尺> S=1/40
  7
STYLE2
100
AcDbText
  0
LINE
  5
10B7B
330
747D
100
AcDbEntity
  8
仕様書枠
 48
50.0
100
AcDbLine
 10
13107.2
 20
800.0
 30
0.0
 11
14251.2
 21
800.0
 31
0.0
  0
LINE
  5
10B88
330
747D
100
AcDbEntity
  8
仕様書枠
  6
Continuous
 48
50.0
100
AcDbLine
 10
14251.2
 20
1200.0
 30
0.0
 11
14251.2
 21
800.0
 31
0.0
  0
DIMENSION
  5
14E40
330
747D
100
AcDbEntity
  8
寸法
100
AcDbDimension
  2
*D1
 10
9460.480607178546
 20
9672.86702641903
 30
0.0
 11
9768.965888552786
 21
9672.86702641903
 31
0.0
 70
   160
 71
     5
 42
55.0
  3
INABA_S40G
100
AcDbAlignedDimension
 13
9405.480607178546
 23
9457.058806794048
 33
0.0
 14
9460.480607178546
 24
9457.058806794048
 34
0.0
100
AcDbRotatedDimension
1001
ACAD
1000
DSTYLE
1002
{
1002
}
  0
LINE
  5
14E41
330
747D
100
AcDbEntity
  8
細線
 48
50.0
100
AcDbLine
 10
9431.480613856139
 20
9427.558806794026
 30
0.0
 11
8539.48061385614
 21
8977.558806793924
 31
0.0
  0
LINE
  5
14E42
330
747D
100
AcDbEntity
  8
細線
 48
50.0
100
AcDbLine
 10
9431.480613856139
 20
8977.558806794027
 30
0.0
 11
8539.48061385614
 21
9427.558806793923
 31
0.0
  0
LINE
  5
14E43
330
747D
100
AcDbEntity
  8
部品1
100
AcDbLine
 10
8539.48061385614
 20
8977.558806793924
 30
0.0
 11
9431.480613856139
 21
8977.558806794027
 31
0.0
  0
LINE
  5
14E44
330
747D
100
AcDbEntity
  8
部品1
100
AcDbLine
 10
3760.480607178543
 20
9457.058806793954
 30
0.0
 11
9460.480607178546
 21
9457.058806794048
 31
0.0
  0
LINE
  5
14E45
330
747D
100
AcDbEntity
  8
部品1
100
AcDbLine
 10
8539.48061385614
 20
9427.558806793923
 30
0.0
 11
9431.480613856139
 21
9427.558806794033
 31
0.0
  0
LINE
  5
14E46
330
747D
100
AcDbEntity
  8
部品1
100
AcDbLine
 10
8538.480607178469
 20
9429.058806793998
 30
0.0
 11
9432.480607178545
 21
9429.058806794047
 31
0.0
  0
DIMENSION
  5
14E47
330
747D
100
AcDbEntity
  8
寸法
100
AcDbDimension
  2
*D2
 10
9405.480607178542
 20
9672.867026419051
 30
0.0
 11
8985.480607178542
 21
9672.867026419051
 31
0.0
 70
   160
  1
2X420=<>
 71
     5
 42
840.0
  3
INABA_S40G
100
AcDbAlignedDimension
 13
8565.480607178542
 23
9457.058806793982
 33
0.0
 14
9405.480607178542
 24
9457.058806794071
 34
0.0
100
AcDbRotatedDimension
1001
ACAD
1000
DSTYLE
1002
{
1002
}
  0
LINE
  5
14E48
330
747D
100
AcDbEntity
  8
部品1
 48
50.0
100
AcDbLine
 10
9432.48060717852
 20
8029.539741601636
 30
0.0
 11
9403.979635753726
 21
8058.558912506887
 31
0.0
  0
LINE
  5
14E49
330
747D
100
AcDbEntity
  8
部品1
 48
2.83
100
AcDbLine
 10
9428.480607178521
 20
7982.058806794005
 30
0.0
 11
9405.480607178521
 21
7982.058806794005
 31
0.0
  0
LINE
  5
14E4A
330
747D
100
AcDbEntity
  8
部品1
 48
5.0
100
AcDbLine
 10
9417.480607178521
 20
7956.55880679399
 30
0.0
 11
8534.480607178538
 21
7956.55880679399
 31
0.0
  0
LINE
  5
14E4B
330
747D
100
AcDbEntity
  8
部品1
100
AcDbLine
 10
9460.480607178521
 20
7927.058806794004
 30
0.0
 11
3760.480607178539
 21
7927.058806793873
 31
0.0
  0
DIMENSION
  5
14E4C
330
747D
100
AcDbEntity
  8
寸法
100
AcDbDimension
  2
*D3
 10
9460.480607178521
 20
6939.956931933797
 30
0.0
 11
6610.48060717853
 21
6939.956931933797
 31
0.0
 70
   160
 71
     5
 42
5699.999999999982
  3
INABA_S40G
100
AcDbAlignedDimension
 13
3760.480607178539
 23
7927.058806793873
 33
0.0
 14
9460.480607178521
 24
7927.058806794004
 34
0.0
100
AcDbRotatedDimension
1001
ACAD
1000
DSTYLE
1002
{
1002
}
  0
LINE
  5
14E4E
330
747D
100
AcDbEntity
  8
部品1
 48
50.0
100
AcDbLine
 10
8539.48061385614
 20
9427.558806793916
 30
0.0
 11
8539.48061385614
 21
8977.558806793924
 31
0.0
  0
LINE
  5
14E4F
330
747D
100
AcDbEntity
  8
部品1
 48
50.0
100
AcDbLine
 10
8481.48061385614
 20
9427.558806794026
 30
0.0
 11
8481.48061385614
 21
8977.558806794027
 31
0.0
  0
LINE
  5
14E50
330
747D
100
AcDbEntity
  8
部品1
 48
50.0
100
AcDbLine
 10
4739.48061385614
 20
9427.558806793916
 30
0.0
 11
4739.48061385614
 21
8977.558806793924
 31
0.0
  0
LINE
  5
14E51
330
747D
100
AcDbEntity
  8
部品1
 48
50.0
100
AcDbLine
 10
4681.48061385614
 20
9427.558806794026
 30
0.0
 11
4681.48061385614
 21
8977.558806794027
 31
0.0
  0
LINE
  5
14E52
330
747D
100
AcDbEntity
  8
細線
 48
50.0
100
AcDbLine
 10
8481.48061385614
 20
8977.558806794027
 30
0.0
 11
7589.480613856141
 21
9427.558806793923
 31
0.0
  0
LINE
  5
14E53
330
747D
100
AcDbEntity
  8
細線
 48
50.0
100
AcDbLine
 10
8481.48061385614
 20
9427.558806794026
 30
0.0
 11
7589.480613856141
 21
8977.558806793924
 31
0.0
  0
LINE
  5
14E54
330
747D
100
AcDbEntity
  8
部品1
 48
50.0
100
AcDbLine
 10
3789.48061385614
 20
9427.558806793916
 30
0.0
 11
3789.48061385614
 21
8977.558806793924
 31
0.0
  0
LINE
  5
14E55
330
747D
100
AcDbEntity
  8
細線
 48
50.0
100
AcDbLine
 10
4681.48061385614
 20
8977.558806794027
 30
0.0
 11
3789.48061385614
 21
9427.558806793923
 31
0.0
  0
LINE
  5
14E56
330
747D
100
AcDbEntity
  8
細線
 48
50.0
100
AcDbLine
 10
4681.48061385614
 20
9427.558806794026
 30
0.0
 11
3789.48061385614
 21
8977.558806793924
 31
0.0
  0
LINE
  5
14E57
330
747D
100
AcDbEntity
  8
部品1
 48
50.0
100
AcDbLine
 10
8510.480607178525
 20
7982.05880679399
 30
0.0
 11
8510.480607178525
 21
9402.058806793997
 31
0.0
  0
LINE
  5
14E58
330
747D
100
AcDbEntity
  8
部品1
 48
50.0
100
AcDbLine
 10
8482.480607178525
 20
7982.05880679399
 30
0.0
 11
8482.480607178469
 21
9429.058806793998
 31
0.0
  0
LINE
  5
14E59
330
747D
100
AcDbEntity
  8
部品1
 48
50.0
100
AcDbLine
 10
8538.480607178525
 20
7982.05880679399
 30
0.0
 11
8538.480607178469
 21
9457.058806793996
 31
0.0
  0
LINE
  5
14E5A
330
747D
100
AcDbEntity
  8
部品1
 48
50.0
100
AcDbLine
 10
4710.480607178523
 20
7982.05880679399
 30
0.0
 11
4710.480607178523
 21
9402.058806793997
 31
0.0
  0
LINE
  5
14E5B
330
747D
100
AcDbEntity
  8
部品1
 48
50.0
100
AcDbLine
 10
4682.480607178524
 20
7982.05880679399
 30
0.0
 11
4682.48060717847
 21
9429.058806793998
 31
0.0
  0
LINE
  5
14E5C
330
747D
100
AcDbEntity
  8
部品1
 48
50.0
100
AcDbLine
 10
4738.480607178524
 20
7982.05880679399
 30
0.0
 11
4738.480607178469
 21
9457.058806793996
 31
0.0
  0
LINE
  5
14E5D
330
747D
100
AcDbEntity
  8
部品1
100
AcDbLine
 10
3760.48060717851
 20
9457.058806793916
 30
0.0
 11
3760.480607178539
 21
7927.05880679391
 31
0.0
  0
LINE
  5
14E5E
330
747D
100
AcDbEntity
  8
部品1
100
AcDbLine
 10
3788.480607178521
 20
7982.058806793903
 30
0.0
 11
3788.480607178543
 21
9429.058806793953
 31
0.0
  0
LINE
  5
14E5F
330
747D
100
AcDbEntity
  8
破線
 48
10.0
100
AcDbLine
 10
3816.981209810343
 20
8754.558509268427
 30
0.0
 11
4654.980607178506
 21
8754.558487802784
 31
0.0
  0
LINE
  5
14E60
330
747D
100
AcDbEntity
  8
破線
 48
10.0
100
AcDbLine
 10
3816.981235672429
 20
8704.558509268437
 30
0.0
 11
4654.980607178506
 21
8704.558487802783
 31
0.0
  0
LINE
  5
14E61
330
747D
100
AcDbEntity
  8
部品1
100
AcDbLine
 10
3789.48061385614
 20
8977.558806793924
 30
0.0
 11
4681.48061385614
 21
8977.558806794027
 31
0.0
  0
LINE
  5
14E62
330
747D
100
AcDbEntity
  8
破線
 48
10.0
100
AcDbLine
 10
4631.480607178531
 20
8082.058806793975
 30
0.0
 11
3840.480607178532
 21
8082.058806793961
 31
0.0
  0
LINE
  5
14E64
330
747D
100
AcDbEntity
  8
部品1
 48
5.0
100
AcDbLine
 10
3803.480607178539
 20
7956.558806793873
 30
0.0
 11
4686.480607178538
 21
7956.558806793932
 31
0.0
  0
DIMENSION
  5
14E65
330
747D
100
AcDbEntity
  8
寸法
 48
50.0
100
AcDbDimension
  2
*D4
 10
9250.480607178536
 20
7487.235138998869
 30
0.0
 11
8907.980607178538
 21
7487.235138998869
 31
0.0
 70
   160
  1
有効開口部間口\P<>
 71
     5
 42
684.9999999999927
  3
INABA_S40G
100
AcDbAlignedDimension
 13
8565.480607178542
 23
7927.058806793946
 33
0.0
 14
9250.480607178536
 24
7927.05880679391
 34
0.0
100
AcDbRotatedDimension
  0
LINE
  5
14E66
330
747D
100
AcDbEntity
  8
部品1
100
AcDbLine
 10
4535.480607178535
 20
7953.058806794004
 30
0.0
 11
3805.480607178539
 21
7953.058806793976
 31
0.0
  0
LINE
  5
14E67
330
747D
100
AcDbEntity
  8
部品1
100
AcDbLine
 10
4654.981177626701
 20
8058.558225974033
 30
0.0
 11
3816.981578604933
 21
8058.557724485508
 31
0.0
  0
ARC
  5
14E68
330
747D
100
AcDbEntity
  8
想像線
 48
10.0
100
AcDbCircle
 10
4528.128556501375
 20
7928.753700169555
 30
0.0
 40
722.6499369155547
100
AcDbArc
 50
180.1343808685503
 51
270.5829222700355
  0
LINE
  5
14E6A
330
747D
100
AcDbEntity
  8
破線
 48
10.0
100
AcDbLine
 10
3840.480651846993
 20
8704.55852142332
 30
0.0
 11
3840.480607178532
 21
8082.058806793961
 31
0.0
  0
LINE
  5
14E6B
330
747D
100
AcDbEntity
  8
部品1
 48
5.0
100
AcDbLine
 10
3816.981578603503
 20
8058.558806794048
 30
0.0
 11
3816.981085672189
 21
8977.558806793961
 31
0.0
  0
LINE
  5
14E6C
330
747D
100
AcDbEntity
  8
部品1
 48
50.0
100
AcDbLine
 10
3816.981578604933
 20
8058.557724485508
 30
0.0
 11
3788.480607178521
 21
8029.538553553043
 31
0.0
  0
LINE
  5
14E6D
330
747D
100
AcDbEntity
  8
部品1
100
AcDbLine
 10
3788.480607178536
 20
7982.058806793917
 30
0.0
 11
3760.480607178536
 21
7982.058806793917
 31
0.0
  0
LINE
  5
14E6E
330
747D
100
AcDbEntity
  8
部品1
100
AcDbLine
 10
3788.480607178521
 20
7982.058806793903
 30
0.0
 11
3760.480607178536
 21
7982.058806793903
 31
0.0
  0
LINE
  5
14E6F
330
747D
100
AcDbEntity
  8
部品1
100
AcDbLine
 10
3788.480607178521
 20
7982.058806793872
 30
0.0
 11
3760.480607178536
 21
7982.058806793872
 31
0.0
  0
LINE
  5
14E70
330
747D
100
AcDbEntity
  8
部品1
 48
2.83
100
AcDbLine
 10
3792.480607178539
 20
7982.058806793872
 30
0.0
 11
3815.480607178539
 21
7982.058806793872
 31
0.0
  0
LINE
  5
14E71
330
747D
100
AcDbEntity
  8
部品1
 48
2.83
100
AcDbLine
 10
3760.480607178539
 20
7982.058806793872
 30
0.0
 11
3783.480607178539
 21
7982.058806793872
 31
0.0
  0
LINE
  5
14E72
330
747D
100
AcDbEntity
  8
部品1
 48
2.83
100
AcDbLine
 10
3803.480607178539
 20
7927.058806793873
 30
0.0
 11
3760.480607178539
 21
7927.058806793873
 31
0.0
  0
LINE
  5
14E73
330
747D
100
AcDbEntity
  8
部品1
 48
2.83
100
AcDbLine
 10
3803.480607178539
 20
7956.558806793873
 30
0.0
 11
3803.480607178539
 21
7927.058806793873
 31
0.0
  0
LINE
  5
14E74
330
747D
100
AcDbEntity
  8
部品1
100
AcDbLine
 10
3805.480607178539
 20
7953.058806794011
 30
0.0
 11
3805.480607178539
 21
7927.058806793976
 31
0.0
  0
LINE
  5
14E75
330
747D
100
AcDbEntity
  8
部品1
100
AcDbLine
 10
3760.480607178536
 20
7982.058806793872
 30
0.0
 11
3760.480607178539
 21
7927.058806793873
 31
0.0
  0
LINE
  5
14E76
330
747D
100
AcDbEntity
  8
部品1
 48
2.83
100
AcDbLine
 10
3815.480607178539
 20
7982.058806793872
 30
0.0
 11
3815.480607178542
 21
7956.558806793873
 31
0.0
  0
LINE
  5
14E77
330
747D
100
AcDbEntity
  8
部品1
 48
2.83
100
AcDbLine
 10
3760.480607178539
 20
7927.058806793873
 30
0.0
 11
3760.480607178539
 21
7982.058806793872
 31
0.0
  0
LINE
  5
14E78
330
747D
100
AcDbEntity
  8
部品1
100
AcDbLine
 10
3788.480607178521
 20
8402.058806793917
 30
0.0
 11
3760.480607178521
 21
8402.058806793917
 31
0.0
  0
LINE
  5
14E79
330
747D
100
AcDbEntity
  8
破線
 48
10.0
100
AcDbLine
 10
3840.480672103243
 20
8977.558806793961
 30
0.0
 11
3840.480655339444
 21
8754.558521423318
 31
0.0
  0
LINE
  5
14E7A
330
747D
100
AcDbEntity
  8
部品1
100
AcDbLine
 10
3788.480607178521
 20
8982.058806793917
 30
0.0
 11
3760.480607178521
 21
8982.058806793917
 31
0.0
  0
LINE
  5
14E7B
330
747D
100
AcDbEntity
  8
想像線
 48
10.0
100
AcDbLine
 10
9285.480607178534
 20
7927.058806793997
 30
0.0
 11
9285.480607178534
 21
7206.141163138207
 31
0.0
  0
LINE
  5
14E7D
330
747D
100
AcDbEntity
  8
想像線
 48
10.0
100
AcDbLine
 10
8335.480607178535
 20
7927.05880679399
 30
0.0
 11
8335.480607178535
 21
7206.1411631382
 31
0.0
  0
LINE
  5
14E7E
330
747D
100
AcDbEntity
  8
想像線
 48
10.0
100
AcDbLine
 10
4535.480607178535
 20
7927.05880679399
 30
0.0
 11
4535.480607178535
 21
7206.1411631382
 31
0.0
  0
ARC
  5
14E7F
330
747D
100
AcDbEntity
  8
想像線
 48
10.0
100
AcDbCircle
 10
8328.128556501374
 20
7928.753700169552
 30
0.0
 40
722.6499369155536
100
AcDbArc
 50
180.1343808685451
 51
270.5829222700355
  0
ARC
  5
14E81
330
747D
100
AcDbEntity
  8
想像線
 48
10.0
100
AcDbCircle
 10
9278.128556501377
 20
7928.753700169576
 30
0.0
 40
722.649936915561
100
AcDbArc
 50
180.1343808685485
 51
270.5829222700353
  0
TEXT
  5
14E82
330
747D
100
AcDbEntity
  8
部品1
100
AcDbText
 10
6317.614816079582
 20
6396.586588775637
 30
0.0
 40
135.0
  1
平面図
  7
STYLE2
100
AcDbText
  0
LWPOLYLINE
  5
14E83
330
747D
100
AcDbEntity
  8
部品1
100
AcDbPolyline
 90
        4
 70
     1
 43
0.0
 10
6227.695206250544
 20
6589.480117994163
 10
6227.695206250544
 20
6349.587796448628
 10
6991.165872478984
 20
6349.587796448628
 10
6991.165872478984
 20
6589.480117994163
  0
LINE
  5
14E84
330
747D
100
AcDbEntity
  8
破線
 48
10.0
100
AcDbLine
 10
7615.980602902451
 20
8704.558517068544
 30
0.0
 11
8454.980607178505
 21
8704.558482436715
 31
0.0
  0
LINE
  5
14E85
330
747D
100
AcDbEntity
  8
破線
 48
10.0
100
AcDbLine
 10
7615.980602902451
 20
8754.558517068543
 30
0.0
 11
8454.980607178505
 21
8754.558482436713
 31
0.0
  0
LINE
  5
14E86
330
747D
100
AcDbEntity
  8
部品1
100
AcDbLine
 10
7589.480613856141
 20
8977.558806793924
 30
0.0
 11
8481.48061385614
 21
8977.558806794027
 31
0.0
  0
LINE
  5
14E87
330
747D
100
AcDbEntity
  8
破線
 48
10.0
100
AcDbLine
 10
8431.480607178531
 20
8082.058806793996
 30
0.0
 11
7639.480607178531
 21
8082.058806793982
 31
0.0
  0
LINE
  5
14E88
330
747D
100
AcDbEntity
  8
部品1
100
AcDbLine
 10
8335.480607178535
 20
7953.058806794034
 30
0.0
 11
7605.480607178539
 21
7953.058806794011
 31
0.0
  0
LINE
  5
14E89
330
747D
100
AcDbEntity
  8
部品1
100
AcDbLine
 10
8454.980607178521
 20
8058.558806793996
 30
0.0
 11
7615.980113924641
 21
8058.558304596525
 31
0.0
  0
LINE
  5
14E8A
330
747D
100
AcDbEntity
  8
部品1
 48
5.0
100
AcDbLine
 10
7584.480607178538
 20
7956.558806793932
 30
0.0
 11
8486.48060717854
 21
7956.55880679399
 31
0.0
  0
LINE
  5
14E8C
330
747D
100
AcDbEntity
  8
部品1
 48
50.0
100
AcDbLine
 10
4234.980607178531
 20
8977.558806793975
 30
0.0
 11
4234.980444306428
 21
8058.557974630778
 31
0.0
  0
LINE
  5
14E8D
330
747D
100
AcDbEntity
  8
破線
 48
10.0
100
AcDbLine
 10
4631.480607178531
 20
8082.058806793996
 30
0.0
 11
4631.480601430565
 21
8704.558488772804
 31
0.0
  0
LINE
  5
14E8E
330
747D
100
AcDbEntity
  8
部品1
 48
50.0
100
AcDbLine
 10
4654.98060717852
 20
8058.558806793996
 30
0.0
 11
4654.980607178498
 21
8977.558806794055
 31
0.0
  0
LINE
  5
14E8F
330
747D
100
AcDbEntity
  8
破線
 48
10.0
100
AcDbLine
 10
4789.480607178531
 20
8082.058806794005
 30
0.0
 11
4789.480598625876
 21
8704.558516098526
 31
0.0
  0
LINE
  5
14E90
330
747D
100
AcDbEntity
  8
部品1
 48
50.0
100
AcDbLine
 10
4765.980600834235
 20
8058.558806818655
 30
0.0
 11
4765.9806038071
 21
8977.558806793998
 31
0.0
  0
LINE
  5
14E91
330
747D
100
AcDbEntity
  8
部品1
 48
50.0
100
AcDbLine
 10
8034.980607178532
 20
8977.558806793975
 30
0.0
 11
8034.980444306427
 21
8058.557974630778
 31
0.0
  0
LINE
  5
14E92
330
747D
100
AcDbEntity
  8
部品1
100
AcDbLine
 10
4535.480607178535
 20
7953.058806794041
 30
0.0
 11
4535.480607178535
 21
7927.058806793983
 31
0.0
  0
ARC
  5
14E93
330
747D
100
AcDbEntity
  8
部品1
 48
0.2
100
AcDbCircle
 10
4527.543055007216
 20
7928.056436749212
 30
0.0
 40
8.0
100
AcDbArc
 50
270.0
 51
352.8363522778074
  0
ARC
  5
14E94
330
747D
100
AcDbEntity
  8
部品1
 48
0.2
100
AcDbCircle
 10
4522.543055007216
 20
7928.056436749212
 30
0.0
 40
8.0
100
AcDbArc
 50
187.1636477221926
 51
269.9999999999992
  0
ARC
  5
14E95
330
747D
100
AcDbEntity
  8
細線
 48
0.2
100
AcDbCircle
 10
4527.543055007216
 20
7928.056436749212
 30
0.0
 40
4.049999999999999
100
AcDbArc
 50
194.2603506853988
 51
345.7396493146012
  0
LINE
  5
14E96
330
747D
100
AcDbEntity
  8
部品1
 48
0.2
100
AcDbLine
 10
4522.543055007216
 20
7920.056436749212
 30
0.0
 11
4527.543055007216
 21
7920.056436749212
 31
0.0
  0
LINE
  5
14E97
330
747D
100
AcDbEntity
  8
部品1
 48
5.0
100
AcDbLine
 10
4537.480607178538
 20
7956.55880679399
 30
0.0
 11
4537.480607178538
 21
7927.05880679399
 31
0.0
  0
LINE
  5
14E98
330
747D
100
AcDbEntity
  8
部品1
 48
50.0
100
AcDbLine
 10
4765.98060717852
 20
8058.558806818663
 30
0.0
 11
4738.480607178524
 21
8030.558806793989
 31
0.0
  0
LINE
  5
14E99
330
747D
100
AcDbEntity
  8
部品1
 48
5.0
100
AcDbLine
 10
4742.480607178539
 20
7982.05880679399
 30
0.0
 11
4765.480607178538
 21
7982.05880679399
 31
0.0
  0
LINE
  5
14E9A
330
747D
100
AcDbEntity
  8
部品1
 48
5.0
100
AcDbLine
 10
4682.480607178524
 20
7982.05880679399
 30
0.0
 11
4738.480607178524
 21
7982.05880679399
 31
0.0
  0
LINE
  5
14E9B
330
747D
100
AcDbEntity
  8
部品1
 48
5.0
100
AcDbLine
 10
4678.480607178538
 20
7982.05880679399
 30
0.0
 11
4655.480607178538
 21
7982.05880679399
 31
0.0
  0
LINE
  5
14E9C
330
747D
100
AcDbEntity
  8
部品1
 48
50.0
100
AcDbLine
 10
4682.480607178524
 20
8030.558806793989
 30
0.0
 11
4654.98060717852
 21
8058.558806793996
 31
0.0
  0
LINE
  5
14E9D
330
747D
100
AcDbEntity
  8
部品1
100
AcDbLine
 10
4755.480607178538
 20
7953.058806794011
 30
0.0
 11
4755.480607178538
 21
7927.058806793976
 31
0.0
  0
LINE
  5
14E9E
330
747D
100
AcDbEntity
  8
部品1
100
AcDbLine
 10
4753.480607178539
 20
7956.558806793939
 30
0.0
 11
4753.480607178539
 21
7927.05880679399
 31
0.0
  0
LINE
  5
14E9F
330
747D
100
AcDbEntity
  8
部品1
 48
5.0
100
AcDbLine
 10
4753.480607178539
 20
7956.55880679399
 30
0.0
 11
4753.480607178539
 21
7927.05880679399
 31
0.0
  0
LINE
  5
14EA0
330
747D
100
AcDbEntity
  8
部品1
100
AcDbLine
 10
4667.480607178535
 20
7956.558806793932
 30
0.0
 11
4667.480607178535
 21
7927.058806793983
 31
0.0
  0
LINE
  5
14EA1
330
747D
100
AcDbEntity
  8
部品1
 48
5.0
100
AcDbLine
 10
4667.480607178538
 20
7956.55880679399
 30
0.0
 11
4667.480607178538
 21
7927.05880679399
 31
0.0
  0
LINE
  5
14EA3
330
747D
100
AcDbEntity
  8
部品1
 48
5.0
100
AcDbLine
 10
4655.480607178538
 20
7982.05880679399
 30
0.0
 11
4655.480607178542
 21
7956.55880679399
 31
0.0
  0
LINE
  5
14EA4
330
747D
100
AcDbEntity
  8
部品1
 48
5.0
100
AcDbLine
 10
4734.480607178542
 20
7982.05880679399
 30
0.0
 11
4734.480607178539
 21
7956.55880679399
 31
0.0
  0
LINE
  5
14EA5
330
747D
100
AcDbEntity
  8
部品1
 48
5.0
100
AcDbLine
 10
4686.480607178538
 20
7982.05880679399
 30
0.0
 11
4686.480607178538
 21
7956.55880679399
 31
0.0
  0
LINE
  5
14EA6
330
747D
100
AcDbEntity
  8
部品1
 48
5.0
100
AcDbLine
 10
4765.480607178538
 20
7982.05880679399
 30
0.0
 11
4765.480607178542
 21
7956.55880679399
 31
0.0
  0
LINE
  5
14EA7
330
747D
100
AcDbEntity
  8
部品1
 48
5.0
100
AcDbLine
 10
4710.480607178523
 20
8402.05880679399
 30
0.0
 11
4682.48060717847
 21
8402.058806793997
 31
0.0
  0
LINE
  5
14EA8
330
747D
100
AcDbEntity
  8
破線
 48
10.0
100
AcDbLine
 10
4789.480597957179
 20
8754.558516098525
 30
0.0
 11
4789.480594747419
 21
8977.558806793998
 31
0.0
  0
LINE
  5
14EA9
330
747D
100
AcDbEntity
  8
破線
 48
10.0
100
AcDbLine
 10
4631.480600981155
 20
8754.558488772806
 30
0.0
 11
4631.480598823979
 21
8977.558806794055
 31
0.0
  0
LINE
  5
14EAA
330
747D
100
AcDbEntity
  8
部品1
 48
50.0
100
AcDbLine
 10
4710.480607178513
 20
9020.058806793997
 30
0.0
 11
4738.480607178498
 21
9020.058806793997
 31
0.0
  0
LINE
  5
14EAB
330
747D
100
AcDbEntity
  8
部品1
 48
50.0
100
AcDbLine
 10
4710.480607178513
 20
8982.058806793997
 30
0.0
 11
4738.480607178498
 21
8982.058806793997
 31
0.0
  0
LINE
  5
14EAC
330
747D
100
AcDbEntity
  8
部品1
 48
5.0
100
AcDbLine
 10
4710.480607178523
 20
8982.05880679399
 30
0.0
 11
4682.48060717847
 21
8982.058806793997
 31
0.0
  0
LINE
  5
14EAD
330
747D
100
AcDbEntity
  8
破線
 48
10.0
100
AcDbLine
 10
9380.480651846967
 20
8704.55847808193
 30
0.0
 11
9380.480607178528
 21
8082.058806794041
 31
0.0
  0
LINE
  5
14EAE
330
747D
100
AcDbEntity
  8
破線
 48
10.0
100
AcDbLine
 10
8431.480607178531
 20
8082.058806793996
 30
0.0
 11
8431.480601430564
 21
8704.558483406733
 31
0.0
  0
LINE
  5
14EAF
330
747D
100
AcDbEntity
  8
破線
 48
10.0
100
AcDbLine
 10
8589.480607178531
 20
8082.058806794005
 30
0.0
 11
8589.480598625881
 21
8704.558510732445
 31
0.0
  0
LINE
  5
14EB0
330
747D
100
AcDbEntity
  8
部品1
 48
50.0
100
AcDbLine
 10
8565.980600834235
 20
8058.558806818655
 30
0.0
 11
8565.9806038071
 21
8977.558806793998
 31
0.0
  0
LINE
  5
14EB1
330
747D
100
AcDbEntity
  8
部品1
 48
50.0
100
AcDbLine
 10
8454.980607178521
 20
8058.558806793996
 30
0.0
 11
8454.980607178498
 21
8977.558806794055
 31
0.0
  0
LINE
  5
14EB2
330
747D
100
AcDbEntity
  8
部品1
 48
50.0
100
AcDbLine
 10
8984.980607178533
 20
8977.558806793975
 30
0.0
 11
8984.980444306428
 21
8058.557974630778
 31
0.0
  0
LINE
  5
14EB3
330
747D
100
AcDbEntity
  8
部品1
 48
5.0
100
AcDbLine
 10
9403.979635753589
 20
8058.558806794048
 30
0.0
 11
9403.980128684899
 21
8977.558806793989
 31
0.0
  0
LINE
  5
14EB4
330
747D
100
AcDbEntity
  8
部品1
100
AcDbLine
 10
9285.480607178534
 20
7953.058806794041
 30
0.0
 11
8555.480607178536
 21
7953.058806793983
 31
0.0
  0
LINE
  5
14EB5
330
747D
100
AcDbEntity
  8
部品1
100
AcDbLine
 10
9403.979635753726
 20
8058.558912506887
 30
0.0
 11
8565.980607178522
 21
8058.558806818663
 31
0.0
  0
LINE
  5
14EB6
330
747D
100
AcDbEntity
  8
破線
 48
10.0
100
AcDbLine
 10
9380.480607178521
 20
8082.058806794041
 30
0.0
 11
8589.480607178531
 21
8082.058806794005
 31
0.0
  0
LINE
  5
14EB7
330
747D
100
AcDbEntity
  8
部品1
100
AcDbLine
 10
8335.480607178535
 20
7953.058806794041
 30
0.0
 11
8335.480607178535
 21
7927.058806793983
 31
0.0
  0
ARC
  5
14EB8
330
747D
100
AcDbEntity
  8
部品1
 48
0.2
100
AcDbCircle
 10
8327.543055007216
 20
7928.056436749212
 30
0.0
 40
8.0
100
AcDbArc
 50
270.0
 51
352.8363522778074
  0
ARC
  5
14EB9
330
747D
100
AcDbEntity
  8
細線
 48
0.2
100
AcDbCircle
 10
8327.543055007216
 20
7928.056436749212
 30
0.0
 40
4.049999999999999
100
AcDbArc
 50
194.2603506853988
 51
345.7396493146012
  0
LINE
  5
14EBA
330
747D
100
AcDbEntity
  8
部品1
 48
0.2
100
AcDbLine
 10
8322.543055007216
 20
7920.056436749212
 30
0.0
 11
8327.543055007216
 21
7920.056436749212
 31
0.0
  0
LINE
  5
14EBB
330
747D
100
AcDbEntity
  8
部品1
 48
5.0
100
AcDbLine
 10
8337.480607178539
 20
7956.55880679399
 30
0.0
 11
8337.480607178539
 21
7927.05880679399
 31
0.0
  0
ARC
  5
14EBC
330
747D
100
AcDbEntity
  8
部品1
 48
0.2
100
AcDbCircle
 10
8322.543055007216
 20
7928.056436749212
 30
0.0
 40
8.0
100
AcDbArc
 50
187.1636477221926
 51
269.9999999999992
  0
LINE
  5
14EBD
330
747D
100
AcDbEntity
  8
部品1
 48
50.0
100
AcDbLine
 10
8565.980607178522
 20
8058.558806818663
 30
0.0
 11
8538.480607178525
 21
8030.558806793989
 31
0.0
  0
LINE
  5
14EBE
330
747D
100
AcDbEntity
  8
部品1
 48
50.0
100
AcDbLine
 10
8482.480607178525
 20
8030.558806793989
 30
0.0
 11
8454.980607178521
 21
8058.558806793996
 31
0.0
  0
LINE
  5
14EBF
330
747D
100
AcDbEntity
  8
部品1
 48
5.0
100
AcDbLine
 10
8482.480607178525
 20
7982.05880679399
 30
0.0
 11
8538.480607178525
 21
7982.05880679399
 31
0.0
  0
LINE
  5
14EC0
330
747D
100
AcDbEntity
  8
部品1
 48
5.0
100
AcDbLine
 10
8542.480607178537
 20
7982.05880679399
 30
0.0
 11
8565.480607178539
 21
7982.05880679399
 31
0.0
  0
LINE
  5
14EC1
330
747D
100
AcDbEntity
  8
部品1
 48
5.0
100
AcDbLine
 10
8478.480607178537
 20
7982.05880679399
 30
0.0
 11
8455.480607178539
 21
7982.05880679399
 31
0.0
  0
LINE
  5
14EC2
330
747D
100
AcDbEntity
  8
部品1
100
AcDbLine
 10
8553.480607178538
 20
7956.558806793939
 30
0.0
 11
8553.480607178538
 21
7927.05880679399
 31
0.0
  0
LINE
  5
14EC3
330
747D
100
AcDbEntity
  8
部品1
100
AcDbLine
 10
8555.480607178536
 20
7953.058806793983
 30
0.0
 11
8555.480607178536
 21
7927.05880679399
 31
0.0
  0
LINE
  5
14EC4
330
747D
100
AcDbEntity
  8
部品1
 48
5.0
100
AcDbLine
 10
8553.480607178538
 20
7956.55880679399
 30
0.0
 11
8553.480607178538
 21
7927.05880679399
 31
0.0
  0
LINE
  5
14EC5
330
747D
100
AcDbEntity
  8
部品1
100
AcDbLine
 10
8467.480607178535
 20
7956.558806793932
 30
0.0
 11
8467.480607178535
 21
7927.058806793983
 31
0.0
  0
LINE
  5
14EC6
330
747D
100
AcDbEntity
  8
部品1
 48
5.0
100
AcDbLine
 10
8467.480607178538
 20
7956.55880679399
 30
0.0
 11
8467.480607178538
 21
7927.05880679399
 31
0.0
  0
LINE
  5
14EC7
330
747D
100
AcDbEntity
  8
部品1
 48
5.0
100
AcDbLine
 10
8467.480607178538
 20
7927.05880679399
 30
0.0
 11
8553.480607178538
 21
7927.05880679399
 31
0.0
  0
LINE
  5
14EC8
330
747D
100
AcDbEntity
  8
部品1
 48
5.0
100
AcDbLine
 10
8565.480607178539
 20
7982.05880679399
 30
0.0
 11
8565.480607178542
 21
7956.55880679399
 31
0.0
  0
LINE
  5
14EC9
330
747D
100
AcDbEntity
  8
部品1
 48
5.0
100
AcDbLine
 10
8534.480607178542
 20
7982.05880679399
 30
0.0
 11
8534.480607178538
 21
7956.55880679399
 31
0.0
  0
LINE
  5
14ECA
330
747D
100
AcDbEntity
  8
部品1
 48
5.0
100
AcDbLine
 10
8486.48060717854
 20
7982.05880679399
 30
0.0
 11
8486.48060717854
 21
7956.55880679399
 31
0.0
  0
LINE
  5
14ECB
330
747D
100
AcDbEntity
  8
部品1
 48
5.0
100
AcDbLine
 10
8455.480607178539
 20
7982.05880679399
 30
0.0
 11
8455.480607178541
 21
7956.55880679399
 31
0.0
  0
LINE
  5
14ECC
330
747D
100
AcDbEntity
  8
部品1
 48
5.0
100
AcDbLine
 10
8510.480607178525
 20
8402.05880679399
 30
0.0
 11
8482.480607178469
 21
8402.058806793997
 31
0.0
  0
LINE
  5
14ECD
330
747D
100
AcDbEntity
  8
部品1
100
AcDbLine
 10
9285.480607178534
 20
7953.058806794041
 30
0.0
 11
9285.48060717854
 21
7927.058806794033
 31
0.0
  0
LINE
  5
14ECE
330
747D
100
AcDbEntity
  8
部品1
 48
0.2
100
AcDbLine
 10
9272.543055007217
 20
7920.056436749226
 30
0.0
 11
9277.543055007216
 21
7920.056436749226
 31
0.0
  0
ARC
  5
14ECF
330
747D
100
AcDbEntity
  8
部品1
 48
0.2
100
AcDbCircle
 10
9277.543055007216
 20
7928.056436749226
 30
0.0
 40
8.0
100
AcDbArc
 50
270.0
 51
352.8363522778074
  0
ARC
  5
14ED0
330
747D
100
AcDbEntity
  8
部品1
 48
0.2
100
AcDbCircle
 10
9272.543055007217
 20
7928.056436749226
 30
0.0
 40
8.0
100
AcDbArc
 50
187.1636477221926
 51
269.9999999999992
  0
ARC
  5
14ED1
330
747D
100
AcDbEntity
  8
細線
 48
0.2
100
AcDbCircle
 10
9277.543055007216
 20
7928.056436749226
 30
0.0
 40
4.049999999999999
100
AcDbArc
 50
194.2603506853988
 51
345.7396493146012
  0
LINE
  5
14ED2
330
747D
100
AcDbEntity
  8
部品1
 48
2.83
100
AcDbLine
 10
9287.480607178521
 20
7956.558806794004
 30
0.0
 11
9287.480607178521
 21
7927.058806794004
 31
0.0
  0
LINE
  5
14ED3
330
747D
100
AcDbEntity
  8
部品1
 48
2.83
100
AcDbLine
 10
9405.480607178521
 20
7982.058806794005
 30
0.0
 11
9405.480607178521
 21
7956.558806794004
 31
0.0
  0
LINE
  5
14ED4
330
747D
100
AcDbEntity
  8
破線
 48
10.0
100
AcDbLine
 10
8565.980602902447
 20
8754.558511702468
 30
0.0
 11
9403.980004546731
 21
8754.558477111935
 31
0.0
  0
LINE
  5
14ED5
330
747D
100
AcDbEntity
  8
破線
 48
10.0
100
AcDbLine
 10
8565.980602902447
 20
8704.558511702467
 30
0.0
 11
9403.979978684649
 21
8704.558477111936
 31
0.0
  0
LINE
  5
14ED6
330
747D
100
AcDbEntity
  8
破線
 48
10.0
100
AcDbLine
 10
8589.480597957182
 20
8754.558510732449
 30
0.0
 11
8589.480594747419
 21
8977.558806793998
 31
0.0
  0
LINE
  5
14ED7
330
747D
100
AcDbEntity
  8
破線
 48
10.0
100
AcDbLine
 10
8431.480600981151
 20
8754.558483406734
 30
0.0
 11
8431.480598823979
 21
8977.558806794055
 31
0.0
  0
LINE
  5
14ED8
330
747D
100
AcDbEntity
  8
部品1
 48
50.0
100
AcDbLine
 10
8510.480607178513
 20
9020.058806793997
 30
0.0
 11
8538.480607178499
 21
9020.058806793997
 31
0.0
  0
LINE
  5
14ED9
330
747D
100
AcDbEntity
  8
部品1
 48
50.0
100
AcDbLine
 10
8510.480607178513
 20
8982.058806793997
 30
0.0
 11
8538.480607178499
 21
8982.058806793997
 31
0.0
  0
LINE
  5
14EDA
330
747D
100
AcDbEntity
  8
部品1
 48
5.0
100
AcDbLine
 10
8510.480607178525
 20
8982.05880679399
 30
0.0
 11
8482.480607178469
 21
8982.058806793997
 31
0.0
  0
LINE
  5
14EDB
330
747D
100
AcDbEntity
  8
破線
 48
10.0
100
AcDbLine
 10
9380.480672103216
 20
8977.558806793998
 30
0.0
 11
9380.480655339418
 21
8754.55847808193
 31
0.0
  0
DIMENSION
  5
14EDC
330
747D
100
AcDbEntity
  8
寸法
100
AcDbDimension
  2
*D5
 10
3815.480607178542
 20
9672.867026418934
 30
0.0
 11
3451.99532580427
 21
9672.867026418934
 31
0.0
 70
   160
 71
     5
 42
55.00000000003274
  3
INABA_S40G
100
AcDbAlignedDimension
 13
3760.48060717851
 23
9457.058806793954
 33
0.0
 14
3815.480607178542
 24
9457.058806793954
 34
0.0
100
AcDbRotatedDimension
1001
ACAD
1000
DSTYLE
1002
{
1002
}
  0
LINE
  5
14EDD
330
747D
100
AcDbEntity
  8
部品1
100
AcDbLine
 10
3789.48061385614
 20
9427.558806793923
 30
0.0
 11
4681.48061385614
 21
9427.558806794033
 31
0.0
  0
LINE
  5
14EDE
330
747D
100
AcDbEntity
  8
部品1
100
AcDbLine
 10
3788.480607178543
 20
9429.058806793953
 30
0.0
 11
4707.861310197167
 21
9429.058806793975
 31
0.0
  0
DIMENSION
  5
14EDF
330
747D
100
AcDbEntity
  8
寸法
100
AcDbDimension
  2
*D6
 10
4655.480607178542
 20
9672.867026419051
 30
0.0
 11
4235.480607178542
 21
9672.867026419051
 31
0.0
 70
   160
  1
2X420=<>
 71
     5
 42
840.0
  3
INABA_S40G
100
AcDbAlignedDimension
 13
3815.480607178542
 23
9457.058806793982
 33
0.0
 14
4655.480607178542
 24
9457.058806794071
 34
0.0
100
AcDbRotatedDimension
1001
ACAD
1000
DSTYLE
1002
{
1002
}
  0
LINE
  5
14EE0
330
747D
100
AcDbEntity
  8
部品1
 48
50.0
100
AcDbLine
 10
3789.980613856132
 20
9427.558806793923
 30
0.0
 11
3788.48060717851
 21
9429.058806793916
 31
0.0
  0
LINE
  5
14EE1
330
747D
100
AcDbEntity
  8
部品1
100
AcDbLine
 10
3815.48060717851
 20
9457.058806793916
 30
0.0
 11
3815.480607178513
 21
9429.058806793916
 31
0.0
  0
LINE
  5
14EE2
330
747D
100
AcDbEntity
  8
部品1
100
AcDbLine
 10
3815.480607178542
 20
9457.058806793954
 30
0.0
 11
3815.480607178542
 21
9429.058806793953
 31
0.0
  0
LINE
  5
14EE3
330
747D
100
AcDbEntity
  8
部品1
100
AcDbLine
 10
3788.480607178513
 20
9402.058806793924
 30
0.0
 11
3760.480607178513
 21
9402.058806793924
 31
0.0
  0
LINE
  5
14EE4
330
747D
100
AcDbEntity
  8
部品1
100
AcDbLine
 10
7589.480613856141
 20
9427.558806793923
 30
0.0
 11
8481.48061385614
 21
9427.558806794033
 31
0.0
  0
LINE
  5
14EE5
330
747D
100
AcDbEntity
  8
部品1
100
AcDbLine
 10
7588.480607178492
 20
9429.058806793975
 30
0.0
 11
8507.861310197146
 21
9429.058806793998
 31
0.0
  0
DIMENSION
  5
14EE6
330
747D
100
AcDbEntity
  8
寸法
100
AcDbDimension
  2
*D7
 10
8455.480607178541
 20
9672.867026419051
 30
0.0
 11
8035.480607178543
 21
9672.867026419051
 31
0.0
 70
   160
  1
2X420=<>
 71
     5
 42
840.0
  3
INABA_S40G
100
AcDbAlignedDimension
 13
7615.480607178543
 23
9457.058806793982
 33
0.0
 14
8455.480607178541
 24
9457.058806794071
 34
0.0
100
AcDbRotatedDimension
1001
ACAD
1000
DSTYLE
1002
{
1002
}
  0
LINE
  5
14EE7
330
747D
100
AcDbEntity
  8
部品1
100
AcDbLine
 10
4234.980607178477
 20
9457.058806793909
 30
0.0
 11
4234.980607178477
 21
9429.058806793909
 31
0.0
  0
LINE
  5
14EE8
330
747D
100
AcDbEntity
  8
部品1
100
AcDbLine
 10
4234.980607178509
 20
9457.058806793947
 30
0.0
 11
4234.980607178509
 21
9429.058806793946
 31
0.0
  0
DIMENSION
  5
14EE9
330
747D
100
AcDbEntity
  8
寸法
 48
50.0
100
AcDbDimension
  2
*D8
 10
4765.480607178545
 20
9672.867026419051
 30
0.0
 11
4710.480607178546
 21
9924.600367368448
 31
0.0
 70
   160
 71
     5
 42
110.0000000000036
  3
INABA_S40G
100
AcDbAlignedDimension
 13
4655.480607178542
 23
9457.058806794071
 33
0.0
 14
4765.480607178545
 24
9457.058806794048
 34
0.0
100
AcDbRotatedDimension
1001
ACAD
1000
DSTYLE
1002
{
1070
   279
1070
     2
1002
}
  0
LINE
  5
14EEA
330
747D
100
AcDbEntity
  8
部品1
 48
50.0
100
AcDbLine
 10
4739.980613856132
 20
9427.558806793923
 30
0.0
 11
4738.48060717851
 21
9429.058806793916
 31
0.0
  0
LINE
  5
14EEB
330
747D
100
AcDbEntity
  8
部品1
 48
50.0
100
AcDbLine
 10
4681.033214666561
 20
9427.558806794033
 30
0.0
 11
4682.480607178437
 21
9429.05880679396
 31
0.0
  0
LINE
  5
14EEC
330
747D
100
AcDbEntity
  8
部品1
 48
5.0
100
AcDbLine
 10
4765.480607178545
 20
9457.058806793996
 30
0.0
 11
4765.480607178542
 21
9429.058806794005
 31
0.0
  0
LINE
  5
14EED
330
747D
100
AcDbEntity
  8
部品1
 48
5.0
100
AcDbLine
 10
4738.480607178472
 20
9402.058806793997
 30
0.0
 11
4682.48060717847
 21
9402.058806793997
 31
0.0
  0
LINE
  5
14EEE
330
747D
100
AcDbEntity
  8
部品1
 48
5.0
100
AcDbLine
 10
4685.189881625716
 20
9457.058806793996
 30
0.0
 11
4707.861310197146
 21
9429.058806793998
 31
0.0
  0
LINE
  5
14EEF
330
747D
100
AcDbEntity
  8
部品1
 48
5.0
100
AcDbLine
 10
4655.480607178542
 20
9429.058806793998
 30
0.0
 11
4655.480607178542
 21
9457.058806793996
 31
0.0
  0
DIMENSION
  5
14EF0
330
747D
100
AcDbEntity
  8
寸法
 48
50.0
100
AcDbDimension
  2
*D9
 10
8565.480607178546
 20
9672.867026419051
 30
0.0
 11
8510.480607178546
 21
9924.600367368448
 31
0.0
 70
   160
 71
     5
 42
110.0000000000036
  3
INABA_S40G
100
AcDbAlignedDimension
 13
8455.480607178541
 23
9457.058806794071
 33
0.0
 14
8565.480607178546
 24
9457.058806794048
 34
0.0
100
AcDbRotatedDimension
1001
ACAD
1000
DSTYLE
1002
{
1070
   279
1070
     2
1002
}
  0
LINE
  5
14EF1
330
747D
100
AcDbEntity
  8
部品1
 48
5.0
100
AcDbLine
 10
8455.480607178541
 20
9429.058806793998
 30
0.0
 11
8455.480607178541
 21
9457.058806793996
 31
0.0
  0
LINE
  5
14EF2
330
747D
100
AcDbEntity
  8
部品1
 48
50.0
100
AcDbLine
 10
8539.980613856133
 20
9427.558806793923
 30
0.0
 11
8538.480607178509
 21
9429.058806793916
 31
0.0
  0
LINE
  5
14EF3
330
747D
100
AcDbEntity
  8
部品1
 48
50.0
100
AcDbLine
 10
8481.03321466656
 20
9427.558806794033
 30
0.0
 11
8482.480607178436
 21
9429.05880679396
 31
0.0
  0
LINE
  5
14EF4
330
747D
100
AcDbEntity
  8
部品1
 48
5.0
100
AcDbLine
 10
8538.480607178474
 20
9402.058806793997
 30
0.0
 11
8482.480607178469
 21
9402.058806793997
 31
0.0
  0
LINE
  5
14EF5
330
747D
100
AcDbEntity
  8
部品1
 48
5.0
100
AcDbLine
 10
8485.189881625716
 20
9457.058806793996
 30
0.0
 11
8507.861310197146
 21
9429.058806793998
 31
0.0
  0
LINE
  5
14EF6
330
747D
100
AcDbEntity
  8
部品1
 48
5.0
100
AcDbLine
 10
8565.480607178546
 20
9457.058806793996
 30
0.0
 11
8565.480607178542
 21
9429.058806794005
 31
0.0
  0
LINE
  5
14EF7
330
747D
100
AcDbEntity
  8
部品1
100
AcDbLine
 10
9405.480607178546
 20
9457.058806794048
 30
0.0
 11
9405.480607178546
 21
9429.058806794047
 31
0.0
  0
LINE
  5
14EF8
330
747D
100
AcDbEntity
  8
部品1
100
AcDbLine
 10
9405.480607178546
 20
9457.058806794064
 30
0.0
 11
9405.480607178546
 21
9429.058806794063
 31
0.0
  0
LINE
  5
14EF9
330
747D
100
AcDbEntity
  8
部品1
 48
50.0
100
AcDbLine
 10
9431.480613856139
 20
9427.558806794026
 30
0.0
 11
9431.480613856139
 21
8977.558806794027
 31
0.0
  0
LINE
  5
14EFA
330
747D
100
AcDbEntity
  8
部品1
100
AcDbLine
 10
9460.480607178546
 20
9457.058806794048
 30
0.0
 11
9460.480607178521
 21
7927.058806794033
 31
0.0
  0
LINE
  5
14EFB
330
747D
100
AcDbEntity
  8
部品1
100
AcDbLine
 10
9432.480607178545
 20
9429.058806794047
 30
0.0
 11
9432.48060717852
 21
7982.058806794033
 31
0.0
  0
DIMENSION
  5
14EFC
330
747D
100
AcDbEntity
  8
寸法
100
AcDbDimension
  2
*D10
 10
9786.83833971818
 20
8882.340991125037
 30
0.0
 11
9786.83833971818
 21
9107.340991125028
 31
0.0
 70
   160
 71
     5
 42
449.9999999999927
  3
INABA_S40G
100
AcDbAlignedDimension
 13
9431.480613856155
 23
9427.558806793916
 33
0.0
 14
9431.480613856162
 24
8977.558806793924
 34
0.0
 50
90.0
100
AcDbRotatedDimension
1001
ACAD
1000
DSTYLE
1002
{
1002
}
  0
DIMENSION
  5
14EFE
330
747D
100
AcDbEntity
  8
寸法
100
AcDbDimension
  2
*D11
 10
10417.01848372863
 20
7927.058806794033
 30
0.0
 11
10417.01848372863
 21
8692.058806794042
 31
0.0
 70
   160
 71
     5
 42
1530.000000000014
  3
INABA_S40G
100
AcDbAlignedDimension
 13
9460.480607178546
 23
9457.058806794048
 33
0.0
 14
9460.480607178521
 24
7927.058806794033
 34
0.0
 50
90.0
100
AcDbRotatedDimension
1001
ACAD
1000
DSTYLE
1002
{
1002
}
  0
DIMENSION
  5
14EFF
330
747D
100
AcDbEntity
  8
寸法
100
AcDbDimension
  2
*D12
 10
10107.90695291293
 20
7927.058806794033
 30
0.0
 11
10107.90695291293
 21
7549.197339889172
 31
0.0
 70
   160
 71
     5
 42
55.0
  3
INABA_S40G
100
AcDbAlignedDimension
 13
9460.480607178521
 23
7982.058806794033
 33
0.0
 14
9460.480607178521
 24
7927.058806794033
 34
0.0
 50
90.0
100
AcDbRotatedDimension
1001
ACAD
1000
DSTYLE
1002
{
1002
}
  0
LINE
  5
14F00
330
747D
100
AcDbEntity
  8
部品1
100
AcDbLine
 10
9432.480607178552
 20
7982.058806794047
 30
0.0
 11
9460.480607178553
 21
7982.058806794047
 31
0.0
  0
LINE
  5
14F01
330
747D
100
AcDbEntity
  8
部品1
100
AcDbLine
 10
9432.48060717852
 20
7982.058806794033
 30
0.0
 11
9460.480607178521
 21
7982.058806794033
 31
0.0
  0
LINE
  5
14F02
330
747D
100
AcDbEntity
  8
部品1
 48
2.83
100
AcDbLine
 10
9460.480607178521
 20
7982.058806794005
 30
0.0
 11
9437.480607178519
 21
7982.058806794005
 31
0.0
  0
LINE
  5
14F03
330
747D
100
AcDbEntity
  8
部品1
 48
2.83
100
AcDbLine
 10
9417.480607178521
 20
7956.558806794004
 30
0.0
 11
9417.480607178521
 21
7927.058806794004
 31
0.0
  0
LINE
  5
14F04
330
747D
100
AcDbEntity
  8
部品1
100
AcDbLine
 10
9432.480607178545
 20
8402.058806794048
 30
0.0
 11
9460.480607178546
 21
8402.058806794048
 31
0.0
  0
LINE
  5
14F05
330
747D
100
AcDbEntity
  8
部品1
100
AcDbLine
 10
9432.480607178545
 20
8982.058806794048
 30
0.0
 11
9460.480607178546
 21
8982.058806794048
 31
0.0
  0
DIMENSION
  5
14F06
330
747D
100
AcDbEntity
  8
寸法
100
AcDbDimension
  2
*D13
 10
10107.90695291295
 20
9402.058806794048
 30
0.0
 11
10107.90695291295
 21
9765.544088168288
 31
0.0
 70
   160
 71
     5
 42
55.0
  3
INABA_S40G
100
AcDbAlignedDimension
 13
9460.480607178546
 23
9457.058806794048
 33
0.0
 14
9460.480607178546
 24
9402.058806794048
 34
0.0
 50
90.0
100
AcDbRotatedDimension
1001
ACAD
1000
DSTYLE
1002
{
1002
}
  0
LINE
  5
14F07
330
747D
100
AcDbEntity
  8
部品1
 48
50.0
100
AcDbLine
 10
9431.033214666561
 20
9427.558806794033
 30
0.0
 11
9432.480607178437
 21
9429.05880679396
 31
0.0
  0
LINE
  5
14F08
330
747D
100
AcDbEntity
  8
部品1
100
AcDbLine
 10
9432.480607178545
 20
9402.058806794048
 30
0.0
 11
9460.480607178546
 21
9402.058806794048
 31
0.0
  0
DIMENSION
  5
15249
330
747D
100
AcDbEntity
  8
寸法
 48
50.0
100
AcDbDimension
  2
*D14
 10
10107.90695291295
 20
8982.058806794048
 30
0.0
 11
10007.89514188933
 21
9192.058806794049
 31
0.0
 70
    32
 71
     5
 42
420.0
  3
INABA_S40G
100
AcDbAlignedDimension
 13
9460.480607178546
 23
9402.058806794048
 33
0.0
 14
9460.480607178546
 24
8982.058806794048
 34
0.0
 50
90.0
100
AcDbRotatedDimension
  0
DIMENSION
  5
15256
330
747D
100
AcDbEntity
  8
寸法
 48
50.0
100
AcDbDimension
  2
*D15
 10
10107.90695291295
 20
8402.058806794048
 30
0.0
 11
10007.90695291295
 21
8692.058806794049
 31
0.0
 70
    32
 71
     5
 42
580.0
  3
INABA_S40G
100
AcDbAlignedDimension
 13
9460.480607178546
 23
8982.058806794048
 33
0.0
 14
9460.480607178546
 24
8402.058806794048
 34
0.0
 50
90.0
100
AcDbRotatedDimension
  0
DIMENSION
  5
15263
330
747D
100
AcDbEntity
  8
寸法
 48
50.0
100
AcDbDimension
  2
*D16
 10
10107.90695291295
 20
8402.058806794048
 30
0.0
 11
10007.89514188933
 21
8192.058806794028
 31
0.0
 70
    32
 71
     5
 42
420.0000000000436
  3
INABA_S40G
100
AcDbAlignedDimension
 13
9460.480607178521
 23
7982.058806794005
 33
0.0
 14
9460.480607178546
 24
8402.058806794048
 34
0.0
 50
90.0
100
AcDbRotatedDimension
  0
LINE
  5
1526E
330
747D
100
AcDbEntity
  8
部品1
100
AcDbLine
 10
8034.980607178509
 20
9457.058806793872
 30
0.0
 11
8034.980607178509
 21
9429.058806793873
 31
0.0
  0
LINE
  5
1526F
330
747D
100
AcDbEntity
  8
部品1
100
AcDbLine
 10
8034.980607178477
 20
9457.058806793837
 30
0.0
 11
8034.980607178477
 21
9429.058806793838
 31
0.0
  0
LINE
  5
15270
330
747D
100
AcDbEntity
  8
部品1
100
AcDbLine
 10
8984.980607178481
 20
9457.058806793837
 30
0.0
 11
8984.980607178481
 21
9429.058806793838
 31
0.0
  0
LINE
  5
15271
330
747D
100
AcDbEntity
  8
部品1
100
AcDbLine
 10
8984.980607178513
 20
9457.058806793872
 30
0.0
 11
8984.980607178513
 21
9429.058806793873
 31
0.0
  0
LINE
  5
152BA
330
747D
100
AcDbEntity
  8
細線
 48
50.0
100
AcDbLine
 10
3929.480607178535
 20
7953.058806794034
 30
0.0
 11
3929.480607178535
 21
7927.058806793986
 31
0.0
  0
LINE
  5
152BB
330
747D
100
AcDbEntity
  8
細線
 48
50.0
100
AcDbLine
 10
4155.480607178534
 20
7953.058806794023
 30
0.0
 11
4155.480607178534
 21
7927.058806793986
 31
0.0
  0
LINE
  5
152BC
330
747D
100
AcDbEntity
  8
細線
 48
50.0
100
AcDbLine
 10
4115.480607178535
 20
7953.058806794023
 30
0.0
 11
4115.480607178535
 21
7927.058806793986
 31
0.0
  0
LINE
  5
152BD
330
747D
100
AcDbEntity
  8
細線
 48
50.0
100
AcDbLine
 10
4342.480607178536
 20
7953.058806794238
 30
0.0
 11
4342.480607178536
 21
7927.058806794201
 31
0.0
  0
LINE
  5
152BE
330
747D
100
AcDbEntity
  8
細線
 48
50.0
100
AcDbLine
 10
4382.480607178535
 20
7953.058806794238
 30
0.0
 11
4382.480607178535
 21
7927.058806794201
 31
0.0
  0
LINE
  5
152BF
330
747D
100
AcDbEntity
  8
細線
 48
50.0
100
AcDbLine
 10
7729.480607178536
 20
7953.058806794034
 30
0.0
 11
7729.480607178536
 21
7927.058806793986
 31
0.0
  0
LINE
  5
152C0
330
747D
100
AcDbEntity
  8
細線
 48
50.0
100
AcDbLine
 10
7915.480607178536
 20
7953.058806794023
 30
0.0
 11
7915.480607178536
 21
7927.058806793986
 31
0.0
  0
LINE
  5
152C1
330
747D
100
AcDbEntity
  8
細線
 48
50.0
100
AcDbLine
 10
7955.480607178535
 20
7953.058806794023
 30
0.0
 11
7955.480607178535
 21
7927.058806793986
 31
0.0
  0
LINE
  5
152C2
330
747D
100
AcDbEntity
  8
細線
 48
50.0
100
AcDbLine
 10
8182.480607178534
 20
7953.058806794238
 30
0.0
 11
8182.480607178534
 21
7927.058806794201
 31
0.0
  0
LINE
  5
152C3
330
747D
100
AcDbEntity
  8
細線
 48
50.0
100
AcDbLine
 10
8142.480607178535
 20
7953.058806794238
 30
0.0
 11
8142.480607178535
 21
7927.058806794201
 31
0.0
  0
LINE
  5
152C4
330
747D
100
AcDbEntity
  8
細線
 48
50.0
100
AcDbLine
 10
8679.480607178536
 20
7953.058806794034
 30
0.0
 11
8679.480607178536
 21
7927.058806793986
 31
0.0
  0
LINE
  5
152C5
330
747D
100
AcDbEntity
  8
細線
 48
50.0
100
AcDbLine
 10
8905.480607178535
 20
7953.058806794023
 30
0.0
 11
8905.480607178535
 21
7927.058806793986
 31
0.0
  0
LINE
  5
152C6
330
747D
100
AcDbEntity
  8
細線
 48
50.0
100
AcDbLine
 10
8865.480607178536
 20
7953.058806794023
 30
0.0
 11
8865.480607178536
 21
7927.058806793986
 31
0.0
  0
LINE
  5
152C7
330
747D
100
AcDbEntity
  8
細線
 48
50.0
100
AcDbLine
 10
9092.480607178535
 20
7953.058806794238
 30
0.0
 11
9092.480607178535
 21
7927.058806794201
 31
0.0
  0
LINE
  5
152C8
330
747D
100
AcDbEntity
  8
細線
 48
50.0
100
AcDbLine
 10
9132.480607178534
 20
7953.058806794238
 30
0.0
 11
9132.480607178534
 21
7927.058806794201
 31
0.0
  0
DIMENSION
  5
15397
330
747D
100
AcDbEntity
  8
寸法
 48
50.0
100
AcDbDimension
  2
*D17
 10
8300.480607178535
 20
7487.235138998869
 30
0.0
 11
7957.980607178538
 21
7487.235138998869
 31
0.0
 70
   160
 71
     5
 42
684.9999999999927
  3
INABA_S40G
100
AcDbAlignedDimension
 13
7615.480607178543
 23
7927.058806793946
 33
0.0
 14
8300.480607178535
 24
7927.05880679391
 34
0.0
100
AcDbRotatedDimension
  0
DIMENSION
  5
153AF
330
747D
100
AcDbEntity
  8
寸法
 48
50.0
100
AcDbDimension
  2
*D18
 10
4500.480607178535
 20
7487.235138998869
 30
0.0
 11
4157.980607178539
 21
7487.235138998869
 31
0.0
 70
   160
 71
     5
 42
684.9999999999927
  3
INABA_S40G
100
AcDbAlignedDimension
 13
3815.480607178542
 23
7927.058806793946
 33
0.0
 14
4500.480607178535
 24
7927.05880679391
 34
0.0
100
AcDbRotatedDimension
  0
LINE
  5
15460
330
747D
100
AcDbEntity
  8
部品1
 48
50.0
100
AcDbLine
 10
7588.480607178524
 20
7982.05880679399
 30
0.0
 11
7588.480607178469
 21
9457.058806793996
 31
0.0
  0
LINE
  5
15461
330
747D
100
AcDbEntity
  8
部品1
 48
50.0
100
AcDbLine
 10
7532.480607178524
 20
7982.05880679399
 30
0.0
 11
7532.480607178469
 21
9429.058806793998
 31
0.0
  0
LINE
  5
15462
330
747D
100
AcDbEntity
  8
部品1
 48
50.0
100
AcDbLine
 10
7560.480607178525
 20
7982.05880679399
 30
0.0
 11
7560.480607178525
 21
9402.058806793997
 31
0.0
  0
LINE
  5
15463
330
747D
100
AcDbEntity
  8
細線
 48
50.0
100
AcDbLine
 10
7531.480613856139
 20
9427.558806794026
 30
0.0
 11
6639.480613856139
 21
8977.558806793924
 31
0.0
  0
LINE
  5
15464
330
747D
100
AcDbEntity
  8
細線
 48
50.0
100
AcDbLine
 10
7531.480613856139
 20
8977.558806794027
 30
0.0
 11
6639.480613856139
 21
9427.558806793923
 31
0.0
  0
LINE
  5
15465
330
747D
100
AcDbEntity
  8
部品1
 48
50.0
100
AcDbLine
 10
7531.480613856139
 20
9427.558806794026
 30
0.0
 11
7531.480613856139
 21
8977.558806794027
 31
0.0
  0
LINE
  5
15466
330
747D
100
AcDbEntity
  8
部品1
 48
50.0
100
AcDbLine
 10
7589.480613856141
 20
9427.558806793916
 30
0.0
 11
7589.480613856141
 21
8977.558806793924
 31
0.0
  0
ARC
  5
15467
330
747D
100
AcDbEntity
  8
想像線
 48
10.0
100
AcDbCircle
 10
7378.128556501375
 20
7928.753700169552
 30
0.0
 40
722.6499369155536
100
AcDbArc
 50
180.1343808685451
 51
270.5829222700355
  0
LINE
  5
15468
330
747D
100
AcDbEntity
  8
想像線
 48
10.0
100
AcDbLine
 10
7385.480607178535
 20
7927.05880679399
 30
0.0
 11
7385.480607178535
 21
7206.1411631382
 31
0.0
  0
LINE
  5
15469
330
747D
100
AcDbEntity
  8
部品1
 48
5.0
100
AcDbLine
 10
6634.480607178538
 20
7956.558806793932
 30
0.0
 11
7536.480607178539
 21
7956.55880679399
 31
0.0
  0
LINE
  5
1546A
330
747D
100
AcDbEntity
  8
部品1
100
AcDbLine
 10
7504.980607178521
 20
8058.558806793996
 30
0.0
 11
6665.980113924641
 21
8058.558304596525
 31
0.0
  0
LINE
  5
1546B
330
747D
100
AcDbEntity
  8
部品1
100
AcDbLine
 10
6639.480613856139
 20
8977.558806793924
 30
0.0
 11
7531.480613856139
 21
8977.558806794027
 31
0.0
  0
LINE
  5
1546C
330
747D
100
AcDbEntity
  8
破線
 48
10.0
100
AcDbLine
 10
6665.98060290245
 20
8754.558517068543
 30
0.0
 11
7504.980607178506
 21
8754.558482436713
 31
0.0
  0
LINE
  5
1546D
330
747D
100
AcDbEntity
  8
破線
 48
10.0
100
AcDbLine
 10
6665.98060290245
 20
8704.558517068544
 30
0.0
 11
7504.980607178506
 21
8704.558482436715
 31
0.0
  0
LINE
  5
1546E
330
747D
100
AcDbEntity
  8
破線
 48
10.0
100
AcDbLine
 10
7481.480607178531
 20
8082.058806793996
 30
0.0
 11
7481.480601430565
 21
8704.558483406733
 31
0.0
  0
LINE
  5
1546F
330
747D
100
AcDbEntity
  8
部品1
 48
50.0
100
AcDbLine
 10
7084.980607178533
 20
8977.558806793975
 30
0.0
 11
7084.980444306427
 21
8058.557974630778
 31
0.0
  0
DIMENSION
  5
15470
330
747D
100
AcDbEntity
  8
寸法
 48
50.0
100
AcDbDimension
  2
*D21
 10
7350.480607178536
 20
7487.235138998869
 30
0.0
 11
7007.980607178538
 21
7487.235138998869
 31
0.0
 70
   160
 71
     5
 42
684.9999999999927
  3
INABA_S40G
100
AcDbAlignedDimension
 13
6665.480607178543
 23
7927.058806793946
 33
0.0
 14
7350.480607178536
 24
7927.05880679391
 34
0.0
100
AcDbRotatedDimension
  0
LINE
  5
15471
330
747D
100
AcDbEntity
  8
部品1
100
AcDbLine
 10
7385.480607178535
 20
7953.058806794034
 30
0.0
 11
6655.480607178539
 21
7953.058806794011
 31
0.0
  0
LINE
  5
15472
330
747D
100
AcDbEntity
  8
破線
 48
10.0
100
AcDbLine
 10
7481.480607178531
 20
8082.058806793996
 30
0.0
 11
6689.480607178531
 21
8082.058806793982
 31
0.0
  0
LINE
  5
15473
330
747D
100
AcDbEntity
  8
細線
 48
50.0
100
AcDbLine
 10
6779.480607178536
 20
7953.058806794034
 30
0.0
 11
6779.480607178536
 21
7927.058806793986
 31
0.0
  0
LINE
  5
15474
330
747D
100
AcDbEntity
  8
細線
 48
50.0
100
AcDbLine
 10
6965.480607178536
 20
7953.058806794023
 30
0.0
 11
6965.480607178536
 21
7927.058806793986
 31
0.0
  0
LINE
  5
15475
330
747D
100
AcDbEntity
  8
細線
 48
50.0
100
AcDbLine
 10
7005.480607178535
 20
7953.058806794023
 30
0.0
 11
7005.480607178535
 21
7927.058806793986
 31
0.0
  0
LINE
  5
15476
330
747D
100
AcDbEntity
  8
細線
 48
50.0
100
AcDbLine
 10
7192.480607178535
 20
7953.058806794238
 30
0.0
 11
7192.480607178535
 21
7927.058806794201
 31
0.0
  0
LINE
  5
15477
330
747D
100
AcDbEntity
  8
細線
 48
50.0
100
AcDbLine
 10
7232.480607178534
 20
7953.058806794238
 30
0.0
 11
7232.480607178534
 21
7927.058806794201
 31
0.0
  0
ARC
  5
15478
330
747D
100
AcDbEntity
  8
部品1
 48
0.2
100
AcDbCircle
 10
7372.543055007216
 20
7928.056436749212
 30
0.0
 40
8.0
100
AcDbArc
 50
187.1636477221926
 51
269.9999999999992
  0
LINE
  5
15479
330
747D
100
AcDbEntity
  8
部品1
 48
5.0
100
AcDbLine
 10
7387.480607178538
 20
7956.55880679399
 30
0.0
 11
7387.480607178538
 21
7927.05880679399
 31
0.0
  0
LINE
  5
1547A
330
747D
100
AcDbEntity
  8
部品1
 48
0.2
100
AcDbLine
 10
7372.543055007216
 20
7920.056436749212
 30
0.0
 11
7377.543055007215
 21
7920.056436749212
 31
0.0
  0
ARC
  5
1547B
330
747D
100
AcDbEntity
  8
細線
 48
0.2
100
AcDbCircle
 10
7377.543055007215
 20
7928.056436749212
 30
0.0
 40
4.049999999999999
100
AcDbArc
 50
194.2603506853988
 51
345.7396493146012
  0
ARC
  5
1547C
330
747D
100
AcDbEntity
  8
部品1
 48
0.2
100
AcDbCircle
 10
7377.543055007215
 20
7928.056436749212
 30
0.0
 40
8.0
100
AcDbArc
 50
270.0
 51
352.8363522778074
  0
LINE
  5
1547D
330
747D
100
AcDbEntity
  8
部品1
100
AcDbLine
 10
7385.480607178535
 20
7953.058806794041
 30
0.0
 11
7385.480607178535
 21
7927.058806793983
 31
0.0
  0
LINE
  5
1547E
330
747D
100
AcDbEntity
  8
破線
 48
10.0
100
AcDbLine
 10
7481.48060098115
 20
8754.558483406734
 30
0.0
 11
7481.480598823978
 21
8977.558806794055
 31
0.0
  0
LINE
  5
1547F
330
747D
100
AcDbEntity
  8
部品1
 48
50.0
100
AcDbLine
 10
7504.980607178521
 20
8058.558806793996
 30
0.0
 11
7504.980607178499
 21
8977.558806794055
 31
0.0
  0
LINE
  5
15480
330
747D
100
AcDbEntity
  8
部品1
 48
50.0
100
AcDbLine
 10
7615.980600834234
 20
8058.558806818655
 30
0.0
 11
7615.980603807099
 21
8977.558806793998
 31
0.0
  0
LINE
  5
15481
330
747D
100
AcDbEntity
  8
破線
 48
10.0
100
AcDbLine
 10
7639.480607178531
 20
8082.058806794005
 30
0.0
 11
7639.48059862588
 21
8704.558510732445
 31
0.0
  0
LINE
  5
15482
330
747D
100
AcDbEntity
  8
部品1
 48
5.0
100
AcDbLine
 10
7505.480607178539
 20
7982.05880679399
 30
0.0
 11
7505.480607178542
 21
7956.55880679399
 31
0.0
  0
LINE
  5
15483
330
747D
100
AcDbEntity
  8
部品1
 48
5.0
100
AcDbLine
 10
7536.480607178539
 20
7982.05880679399
 30
0.0
 11
7536.480607178539
 21
7956.55880679399
 31
0.0
  0
LINE
  5
15484
330
747D
100
AcDbEntity
  8
部品1
 48
5.0
100
AcDbLine
 10
7584.480607178543
 20
7982.05880679399
 30
0.0
 11
7584.480607178538
 21
7956.55880679399
 31
0.0
  0
LINE
  5
15485
330
747D
100
AcDbEntity
  8
部品1
 48
5.0
100
AcDbLine
 10
7615.480607178539
 20
7982.05880679399
 30
0.0
 11
7615.480607178543
 21
7956.55880679399
 31
0.0
  0
LINE
  5
15486
330
747D
100
AcDbEntity
  8
部品1
 48
5.0
100
AcDbLine
 10
7517.480607178538
 20
7927.05880679399
 30
0.0
 11
7603.480607178538
 21
7927.05880679399
 31
0.0
  0
LINE
  5
15487
330
747D
100
AcDbEntity
  8
部品1
 48
5.0
100
AcDbLine
 10
7517.480607178538
 20
7956.55880679399
 30
0.0
 11
7517.480607178538
 21
7927.05880679399
 31
0.0
  0
LINE
  5
15488
330
747D
100
AcDbEntity
  8
部品1
100
AcDbLine
 10
7517.480607178535
 20
7956.558806793932
 30
0.0
 11
7517.480607178535
 21
7927.058806793983
 31
0.0
  0
LINE
  5
15489
330
747D
100
AcDbEntity
  8
部品1
 48
5.0
100
AcDbLine
 10
7603.480607178538
 20
7956.55880679399
 30
0.0
 11
7603.480607178538
 21
7927.05880679399
 31
0.0
  0
LINE
  5
1548A
330
747D
100
AcDbEntity
  8
部品1
100
AcDbLine
 10
7605.480607178535
 20
7953.058806793983
 30
0.0
 11
7605.480607178535
 21
7927.05880679399
 31
0.0
  0
LINE
  5
1548B
330
747D
100
AcDbEntity
  8
部品1
100
AcDbLine
 10
7603.480607178538
 20
7956.558806793939
 30
0.0
 11
7603.480607178538
 21
7927.05880679399
 31
0.0
  0
LINE
  5
1548C
330
747D
100
AcDbEntity
  8
部品1
 48
5.0
100
AcDbLine
 10
7528.480607178538
 20
7982.05880679399
 30
0.0
 11
7505.480607178539
 21
7982.05880679399
 31
0.0
  0
LINE
  5
1548D
330
747D
100
AcDbEntity
  8
部品1
 48
5.0
100
AcDbLine
 10
7592.480607178538
 20
7982.05880679399
 30
0.0
 11
7615.480607178539
 21
7982.05880679399
 31
0.0
  0
LINE
  5
1548E
330
747D
100
AcDbEntity
  8
部品1
 48
5.0
100
AcDbLine
 10
7532.480607178524
 20
7982.05880679399
 30
0.0
 11
7588.480607178524
 21
7982.05880679399
 31
0.0
  0
LINE
  5
1548F
330
747D
100
AcDbEntity
  8
部品1
 48
50.0
100
AcDbLine
 10
7532.480607178524
 20
8030.558806793989
 30
0.0
 11
7504.980607178521
 21
8058.558806793996
 31
0.0
  0
LINE
  5
15490
330
747D
100
AcDbEntity
  8
部品1
 48
50.0
100
AcDbLine
 10
7615.980607178521
 20
8058.558806818663
 30
0.0
 11
7588.480607178524
 21
8030.558806793989
 31
0.0
  0
LINE
  5
15491
330
747D
100
AcDbEntity
  8
破線
 48
10.0
100
AcDbLine
 10
7639.480597957183
 20
8754.558510732449
 30
0.0
 11
7639.48059474742
 21
8977.558806793998
 31
0.0
  0
LINE
  5
15492
330
747D
100
AcDbEntity
  8
部品1
 48
5.0
100
AcDbLine
 10
7560.480607178525
 20
8402.05880679399
 30
0.0
 11
7532.480607178469
 21
8402.058806793997
 31
0.0
  0
LINE
  5
15493
330
747D
100
AcDbEntity
  8
部品1
 48
5.0
100
AcDbLine
 10
7560.480607178525
 20
8982.05880679399
 30
0.0
 11
7532.480607178469
 21
8982.058806793997
 31
0.0
  0
LINE
  5
15494
330
747D
100
AcDbEntity
  8
部品1
 48
50.0
100
AcDbLine
 10
7560.480607178513
 20
8982.058806793997
 30
0.0
 11
7588.4806071785
 21
8982.058806793997
 31
0.0
  0
LINE
  5
15495
330
747D
100
AcDbEntity
  8
部品1
 48
50.0
100
AcDbLine
 10
7560.480607178513
 20
9020.058806793997
 30
0.0
 11
7588.4806071785
 21
9020.058806793997
 31
0.0
  0
DIMENSION
  5
15496
330
747D
100
AcDbEntity
  8
寸法
 48
50.0
100
AcDbDimension
  2
*D20
 10
7615.480607178546
 20
9672.867026419051
 30
0.0
 11
7560.480607178546
 21
9924.600367368448
 31
0.0
 70
   160
 71
     5
 42
110.0000000000036
  3
INABA_S40G
100
AcDbAlignedDimension
 13
7505.480607178542
 23
9457.058806794071
 33
0.0
 14
7615.480607178546
 24
9457.058806794048
 34
0.0
100
AcDbRotatedDimension
1001
ACAD
1000
DSTYLE
1002
{
1070
   279
1070
     2
1002
}
  0
DIMENSION
  5
15497
330
747D
100
AcDbEntity
  8
寸法
100
AcDbDimension
  2
*D19
 10
7505.480607178542
 20
9672.867026419051
 30
0.0
 11
7085.480607178543
 21
9672.867026419051
 31
0.0
 70
   160
  1
2X420=<>
 71
     5
 42
840.0
  3
INABA_S40G
100
AcDbAlignedDimension
 13
6665.480607178543
 23
9457.058806793982
 33
0.0
 14
7505.480607178542
 24
9457.058806794071
 34
0.0
100
AcDbRotatedDimension
1001
ACAD
1000
DSTYLE
1002
{
1002
}
  0
LINE
  5
15498
330
747D
100
AcDbEntity
  8
部品1
100
AcDbLine
 10
6638.480607178492
 20
9429.058806793975
 30
0.0
 11
7557.861310197146
 21
9429.058806793998
 31
0.0
  0
LINE
  5
15499
330
747D
100
AcDbEntity
  8
部品1
100
AcDbLine
 10
6639.480613856139
 20
9427.558806793923
 30
0.0
 11
7531.480613856139
 21
9427.558806794033
 31
0.0
  0
LINE
  5
1549A
330
747D
100
AcDbEntity
  8
部品1
100
AcDbLine
 10
7084.980607178477
 20
9457.058806793837
 30
0.0
 11
7084.980607178477
 21
9429.058806793838
 31
0.0
  0
LINE
  5
1549B
330
747D
100
AcDbEntity
  8
部品1
100
AcDbLine
 10
7084.980607178509
 20
9457.058806793872
 30
0.0
 11
7084.980607178509
 21
9429.058806793873
 31
0.0
  0
LINE
  5
1549C
330
747D
100
AcDbEntity
  8
部品1
 48
5.0
100
AcDbLine
 10
7615.480607178546
 20
9457.058806793996
 30
0.0
 11
7615.480607178543
 21
9429.058806794005
 31
0.0
  0
LINE
  5
1549D
330
747D
100
AcDbEntity
  8
部品1
 48
5.0
100
AcDbLine
 10
7535.189881625716
 20
9457.058806793996
 30
0.0
 11
7557.861310197146
 21
9429.058806793998
 31
0.0
  0
LINE
  5
1549E
330
747D
100
AcDbEntity
  8
部品1
 48
5.0
100
AcDbLine
 10
7505.480607178542
 20
9429.058806793998
 30
0.0
 11
7505.480607178542
 21
9457.058806793996
 31
0.0
  0
LINE
  5
1549F
330
747D
100
AcDbEntity
  8
部品1
 48
5.0
100
AcDbLine
 10
7588.480607178474
 20
9402.058806793997
 30
0.0
 11
7532.480607178469
 21
9402.058806793997
 31
0.0
  0
LINE
  5
154A0
330
747D
100
AcDbEntity
  8
部品1
 48
50.0
100
AcDbLine
 10
7531.03321466656
 20
9427.558806794033
 30
0.0
 11
7532.480607178436
 21
9429.05880679396
 31
0.0
  0
LINE
  5
154A1
330
747D
100
AcDbEntity
  8
部品1
 48
50.0
100
AcDbLine
 10
7589.980613856133
 20
9427.558806793923
 30
0.0
 11
7588.480607178509
 21
9429.058806793916
 31
0.0
  0
LINE
  5
155C1
330
747D
100
AcDbEntity
  8
部品1
 48
50.0
100
AcDbLine
 10
6639.480613856139
 20
9427.558806793916
 30
0.0
 11
6639.480613856139
 21
8977.558806793924
 31
0.0
  0
LINE
  5
155C2
330
747D
100
AcDbEntity
  8
部品1
 48
50.0
100
AcDbLine
 10
6581.48061385614
 20
9427.558806794026
 30
0.0
 11
6581.48061385614
 21
8977.558806794027
 31
0.0
  0
LINE
  5
155C3
330
747D
100
AcDbEntity
  8
細線
 48
50.0
100
AcDbLine
 10
6581.48061385614
 20
8977.558806794027
 30
0.0
 11
5689.48061385614
 21
9427.558806793923
 31
0.0
  0
LINE
  5
155C4
330
747D
100
AcDbEntity
  8
細線
 48
50.0
100
AcDbLine
 10
6581.48061385614
 20
9427.558806794026
 30
0.0
 11
5689.48061385614
 21
8977.558806793924
 31
0.0
  0
LINE
  5
155C5
330
747D
100
AcDbEntity
  8
部品1
 48
50.0
100
AcDbLine
 10
6610.480607178525
 20
7982.05880679399
 30
0.0
 11
6610.480607178525
 21
9402.058806793997
 31
0.0
  0
LINE
  5
155C6
330
747D
100
AcDbEntity
  8
部品1
 48
50.0
100
AcDbLine
 10
6582.480607178524
 20
7982.05880679399
 30
0.0
 11
6582.480607178469
 21
9429.058806793998
 31
0.0
  0
LINE
  5
155C7
330
747D
100
AcDbEntity
  8
部品1
 48
50.0
100
AcDbLine
 10
6638.480607178525
 20
7982.05880679399
 30
0.0
 11
6638.480607178469
 21
9457.058806793996
 31
0.0
  0
LINE
  5
155C8
330
747D
100
AcDbEntity
  8
破線
 48
10.0
100
AcDbLine
 10
6531.480607178531
 20
8082.058806793996
 30
0.0
 11
5739.480607178531
 21
8082.058806793982
 31
0.0
  0
LINE
  5
155C9
330
747D
100
AcDbEntity
  8
部品1
100
AcDbLine
 10
6435.480607178535
 20
7953.058806794034
 30
0.0
 11
5705.480607178539
 21
7953.058806794011
 31
0.0
  0
DIMENSION
  5
155CA
330
747D
100
AcDbEntity
  8
寸法
 48
50.0
100
AcDbDimension
  2
*D22
 10
6400.480607178535
 20
7487.235138998869
 30
0.0
 11
6057.980607178539
 21
7487.235138998869
 31
0.0
 70
   160
 71
     5
 42
684.9999999999927
  3
INABA_S40G
100
AcDbAlignedDimension
 13
5715.480607178542
 23
7927.058806793946
 33
0.0
 14
6400.480607178535
 24
7927.05880679391
 34
0.0
100
AcDbRotatedDimension
  0
LINE
  5
155CB
330
747D
100
AcDbEntity
  8
破線
 48
10.0
100
AcDbLine
 10
5715.980602902451
 20
8704.558517068544
 30
0.0
 11
6554.980607178506
 21
8704.558482436715
 31
0.0
  0
LINE
  5
155CC
330
747D
100
AcDbEntity
  8
破線
 48
10.0
100
AcDbLine
 10
5715.980602902451
 20
8754.558517068543
 30
0.0
 11
6554.980607178506
 21
8754.558482436713
 31
0.0
  0
LINE
  5
155CD
330
747D
100
AcDbEntity
  8
部品1
100
AcDbLine
 10
5689.48061385614
 20
8977.558806793924
 30
0.0
 11
6581.48061385614
 21
8977.558806794027
 31
0.0
  0
LINE
  5
155CE
330
747D
100
AcDbEntity
  8
部品1
100
AcDbLine
 10
6554.980607178521
 20
8058.558806793996
 30
0.0
 11
5715.980113924641
 21
8058.558304596525
 31
0.0
  0
LINE
  5
155CF
330
747D
100
AcDbEntity
  8
部品1
 48
5.0
100
AcDbLine
 10
5684.480607178539
 20
7956.558806793932
 30
0.0
 11
6586.48060717854
 21
7956.55880679399
 31
0.0
  0
ARC
  5
155D0
330
747D
100
AcDbEntity
  8
想像線
 48
10.0
100
AcDbCircle
 10
6428.128556501374
 20
7928.753700169552
 30
0.0
 40
722.6499369155536
100
AcDbArc
 50
180.1343808685451
 51
270.5829222700355
  0
LINE
  5
155D1
330
747D
100
AcDbEntity
  8
部品1
 48
50.0
100
AcDbLine
 10
6134.980607178531
 20
8977.558806793975
 30
0.0
 11
6134.980444306428
 21
8058.557974630778
 31
0.0
  0
LINE
  5
155D2
330
747D
100
AcDbEntity
  8
細線
 48
50.0
100
AcDbLine
 10
5829.480607178535
 20
7953.058806794034
 30
0.0
 11
5829.480607178535
 21
7927.058806793986
 31
0.0
  0
LINE
  5
155D3
330
747D
100
AcDbEntity
  8
細線
 48
50.0
100
AcDbLine
 10
6055.480607178535
 20
7953.058806794023
 30
0.0
 11
6055.480607178535
 21
7927.058806793986
 31
0.0
  0
LINE
  5
155D4
330
747D
100
AcDbEntity
  8
細線
 48
50.0
100
AcDbLine
 10
6015.480607178535
 20
7953.058806794023
 30
0.0
 11
6015.480607178535
 21
7927.058806793986
 31
0.0
  0
LINE
  5
155D5
330
747D
100
AcDbEntity
  8
想像線
 48
10.0
100
AcDbLine
 10
6435.480607178535
 20
7927.05880679399
 30
0.0
 11
6435.480607178535
 21
7206.1411631382
 31
0.0
  0
LINE
  5
155D6
330
747D
100
AcDbEntity
  8
破線
 48
10.0
100
AcDbLine
 10
6689.480607178531
 20
8082.058806794005
 30
0.0
 11
6689.48059862588
 21
8704.558510732445
 31
0.0
  0
LINE
  5
155D7
330
747D
100
AcDbEntity
  8
部品1
 48
50.0
100
AcDbLine
 10
6665.980600834235
 20
8058.558806818655
 30
0.0
 11
6665.980603807099
 21
8977.558806793998
 31
0.0
  0
LINE
  5
155D8
330
747D
100
AcDbEntity
  8
部品1
 48
50.0
100
AcDbLine
 10
6554.980607178521
 20
8058.558806793996
 30
0.0
 11
6554.980607178499
 21
8977.558806794055
 31
0.0
  0
LINE
  5
155D9
330
747D
100
AcDbEntity
  8
破線
 48
10.0
100
AcDbLine
 10
6531.480607178531
 20
8082.058806793996
 30
0.0
 11
6531.480601430565
 21
8704.558483406733
 31
0.0
  0
LINE
  5
155DA
330
747D
100
AcDbEntity
  8
細線
 48
50.0
100
AcDbLine
 10
6282.480607178535
 20
7953.058806794238
 30
0.0
 11
6282.480607178535
 21
7927.058806794201
 31
0.0
  0
LINE
  5
155DB
330
747D
100
AcDbEntity
  8
細線
 48
50.0
100
AcDbLine
 10
6242.480607178535
 20
7953.058806794238
 30
0.0
 11
6242.480607178535
 21
7927.058806794201
 31
0.0
  0
LINE
  5
155DC
330
747D
100
AcDbEntity
  8
部品1
100
AcDbLine
 10
6435.480607178535
 20
7953.058806794041
 30
0.0
 11
6435.480607178535
 21
7927.058806793983
 31
0.0
  0
ARC
  5
155DD
330
747D
100
AcDbEntity
  8
部品1
 48
0.2
100
AcDbCircle
 10
6427.543055007216
 20
7928.056436749212
 30
0.0
 40
8.0
100
AcDbArc
 50
270.0
 51
352.8363522778074
  0
ARC
  5
155DE
330
747D
100
AcDbEntity
  8
細線
 48
0.2
100
AcDbCircle
 10
6427.543055007216
 20
7928.056436749212
 30
0.0
 40
4.049999999999999
100
AcDbArc
 50
194.2603506853988
 51
345.7396493146012
  0
LINE
  5
155DF
330
747D
100
AcDbEntity
  8
部品1
 48
0.2
100
AcDbLine
 10
6422.543055007216
 20
7920.056436749212
 30
0.0
 11
6427.543055007216
 21
7920.056436749212
 31
0.0
  0
LINE
  5
155E0
330
747D
100
AcDbEntity
  8
部品1
 48
5.0
100
AcDbLine
 10
6437.480607178539
 20
7956.55880679399
 30
0.0
 11
6437.480607178539
 21
7927.05880679399
 31
0.0
  0
ARC
  5
155E1
330
747D
100
AcDbEntity
  8
部品1
 48
0.2
100
AcDbCircle
 10
6422.543055007216
 20
7928.056436749212
 30
0.0
 40
8.0
100
AcDbArc
 50
187.1636477221926
 51
269.9999999999992
  0
LINE
  5
155E2
330
747D
100
AcDbEntity
  8
部品1
 48
50.0
100
AcDbLine
 10
6665.980607178521
 20
8058.558806818663
 30
0.0
 11
6638.480607178525
 21
8030.558806793989
 31
0.0
  0
LINE
  5
155E3
330
747D
100
AcDbEntity
  8
部品1
 48
5.0
100
AcDbLine
 10
6642.480607178538
 20
7982.05880679399
 30
0.0
 11
6665.480607178539
 21
7982.05880679399
 31
0.0
  0
LINE
  5
155E4
330
747D
100
AcDbEntity
  8
部品1
 48
50.0
100
AcDbLine
 10
6582.480607178524
 20
8030.558806793989
 30
0.0
 11
6554.980607178521
 21
8058.558806793996
 31
0.0
  0
LINE
  5
155E5
330
747D
100
AcDbEntity
  8
部品1
 48
5.0
100
AcDbLine
 10
6582.480607178524
 20
7982.05880679399
 30
0.0
 11
6638.480607178525
 21
7982.05880679399
 31
0.0
  0
LINE
  5
155E6
330
747D
100
AcDbEntity
  8
部品1
 48
5.0
100
AcDbLine
 10
6578.480607178538
 20
7982.05880679399
 30
0.0
 11
6555.480607178539
 21
7982.05880679399
 31
0.0
  0
LINE
  5
155E7
330
747D
100
AcDbEntity
  8
部品1
100
AcDbLine
 10
6653.480607178538
 20
7956.558806793939
 30
0.0
 11
6653.480607178538
 21
7927.05880679399
 31
0.0
  0
LINE
  5
155E8
330
747D
100
AcDbEntity
  8
部品1
100
AcDbLine
 10
6655.480607178535
 20
7953.058806793983
 30
0.0
 11
6655.480607178535
 21
7927.05880679399
 31
0.0
  0
LINE
  5
155E9
330
747D
100
AcDbEntity
  8
部品1
 48
5.0
100
AcDbLine
 10
6653.480607178538
 20
7956.55880679399
 30
0.0
 11
6653.480607178538
 21
7927.05880679399
 31
0.0
  0
LINE
  5
155EA
330
747D
100
AcDbEntity
  8
部品1
100
AcDbLine
 10
6567.480607178535
 20
7956.558806793932
 30
0.0
 11
6567.480607178535
 21
7927.058806793983
 31
0.0
  0
LINE
  5
155EB
330
747D
100
AcDbEntity
  8
部品1
 48
5.0
100
AcDbLine
 10
6567.480607178538
 20
7956.55880679399
 30
0.0
 11
6567.480607178538
 21
7927.05880679399
 31
0.0
  0
LINE
  5
155EC
330
747D
100
AcDbEntity
  8
部品1
 48
5.0
100
AcDbLine
 10
6567.480607178538
 20
7927.05880679399
 30
0.0
 11
6653.480607178538
 21
7927.05880679399
 31
0.0
  0
LINE
  5
155ED
330
747D
100
AcDbEntity
  8
部品1
 48
5.0
100
AcDbLine
 10
6634.480607178542
 20
7982.05880679399
 30
0.0
 11
6634.480607178538
 21
7956.55880679399
 31
0.0
  0
LINE
  5
155EE
330
747D
100
AcDbEntity
  8
部品1
 48
5.0
100
AcDbLine
 10
6586.48060717854
 20
7982.05880679399
 30
0.0
 11
6586.48060717854
 21
7956.55880679399
 31
0.0
  0
LINE
  5
155EF
330
747D
100
AcDbEntity
  8
部品1
 48
5.0
100
AcDbLine
 10
6555.480607178539
 20
7982.05880679399
 30
0.0
 11
6555.480607178542
 21
7956.55880679399
 31
0.0
  0
LINE
  5
155F0
330
747D
100
AcDbEntity
  8
部品1
 48
5.0
100
AcDbLine
 10
6665.480607178539
 20
7982.05880679399
 30
0.0
 11
6665.480607178543
 21
7956.55880679399
 31
0.0
  0
LINE
  5
155F1
330
747D
100
AcDbEntity
  8
破線
 48
10.0
100
AcDbLine
 10
6689.480597957182
 20
8754.558510732449
 30
0.0
 11
6689.480594747419
 21
8977.558806793998
 31
0.0
  0
LINE
  5
155F2
330
747D
100
AcDbEntity
  8
破線
 48
10.0
100
AcDbLine
 10
6531.480600981151
 20
8754.558483406734
 30
0.0
 11
6531.480598823979
 21
8977.558806794055
 31
0.0
  0
LINE
  5
155F3
330
747D
100
AcDbEntity
  8
部品1
 48
5.0
100
AcDbLine
 10
6610.480607178525
 20
8402.05880679399
 30
0.0
 11
6582.480607178469
 21
8402.058806793997
 31
0.0
  0
LINE
  5
155F4
330
747D
100
AcDbEntity
  8
部品1
 48
50.0
100
AcDbLine
 10
6610.480607178513
 20
8982.058806793997
 30
0.0
 11
6638.480607178499
 21
8982.058806793997
 31
0.0
  0
LINE
  5
155F5
330
747D
100
AcDbEntity
  8
部品1
 48
5.0
100
AcDbLine
 10
6610.480607178525
 20
8982.05880679399
 30
0.0
 11
6582.480607178469
 21
8982.058806793997
 31
0.0
  0
LINE
  5
155F6
330
747D
100
AcDbEntity
  8
部品1
 48
50.0
100
AcDbLine
 10
6610.480607178513
 20
9020.058806793997
 30
0.0
 11
6638.480607178499
 21
9020.058806793997
 31
0.0
  0
LINE
  5
155F7
330
747D
100
AcDbEntity
  8
部品1
100
AcDbLine
 10
5689.48061385614
 20
9427.558806793923
 30
0.0
 11
6581.48061385614
 21
9427.558806794033
 31
0.0
  0
LINE
  5
155F8
330
747D
100
AcDbEntity
  8
部品1
100
AcDbLine
 10
5688.480607178491
 20
9429.058806793975
 30
0.0
 11
6607.861310197145
 21
9429.058806793998
 31
0.0
  0
DIMENSION
  5
155F9
330
747D
100
AcDbEntity
  8
寸法
100
AcDbDimension
  2
*D24
 10
6555.480607178542
 20
9672.867026419051
 30
0.0
 11
6135.480607178543
 21
9672.867026419051
 31
0.0
 70
   160
  1
2X420=<>
 71
     5
 42
840.0
  3
INABA_S40G
100
AcDbAlignedDimension
 13
5715.480607178542
 23
9457.058806793982
 33
0.0
 14
6555.480607178542
 24
9457.058806794071
 34
0.0
100
AcDbRotatedDimension
1001
ACAD
1000
DSTYLE
1002
{
1002
}
  0
LINE
  5
155FA
330
747D
100
AcDbEntity
  8
部品1
100
AcDbLine
 10
6134.980607178509
 20
9457.058806793872
 30
0.0
 11
6134.980607178509
 21
9429.058806793873
 31
0.0
  0
LINE
  5
155FB
330
747D
100
AcDbEntity
  8
部品1
100
AcDbLine
 10
6134.980607178476
 20
9457.058806793837
 30
0.0
 11
6134.980607178476
 21
9429.058806793838
 31
0.0
  0
DIMENSION
  5
155FC
330
747D
100
AcDbEntity
  8
寸法
 48
50.0
100
AcDbDimension
  2
*D23
 10
6665.480607178546
 20
9672.867026419051
 30
0.0
 11
6610.480607178546
 21
9924.600367368448
 31
0.0
 70
   160
 71
     5
 42
110.0000000000036
  3
INABA_S40G
100
AcDbAlignedDimension
 13
6555.480607178542
 23
9457.058806794071
 33
0.0
 14
6665.480607178546
 24
9457.058806794048
 34
0.0
100
AcDbRotatedDimension
1001
ACAD
1000
DSTYLE
1002
{
1070
   279
1070
     2
1002
}
  0
LINE
  5
155FD
330
747D
100
AcDbEntity
  8
部品1
 48
5.0
100
AcDbLine
 10
6555.480607178542
 20
9429.058806793998
 30
0.0
 11
6555.480607178542
 21
9457.058806793996
 31
0.0
  0
LINE
  5
155FE
330
747D
100
AcDbEntity
  8
部品1
 48
5.0
100
AcDbLine
 10
6585.189881625716
 20
9457.058806793996
 30
0.0
 11
6607.861310197145
 21
9429.058806793998
 31
0.0
  0
LINE
  5
155FF
330
747D
100
AcDbEntity
  8
部品1
 48
5.0
100
AcDbLine
 10
6665.480607178546
 20
9457.058806793996
 30
0.0
 11
6665.480607178543
 21
9429.058806794005
 31
0.0
  0
LINE
  5
15600
330
747D
100
AcDbEntity
  8
部品1
 48
50.0
100
AcDbLine
 10
6639.980613856133
 20
9427.558806793923
 30
0.0
 11
6638.480607178509
 21
9429.058806793916
 31
0.0
  0
LINE
  5
15601
330
747D
100
AcDbEntity
  8
部品1
 48
50.0
100
AcDbLine
 10
6581.03321466656
 20
9427.558806794033
 30
0.0
 11
6582.480607178436
 21
9429.05880679396
 31
0.0
  0
LINE
  5
15602
330
747D
100
AcDbEntity
  8
部品1
 48
5.0
100
AcDbLine
 10
6638.480607178474
 20
9402.058806793997
 30
0.0
 11
6582.480607178469
 21
9402.058806793997
 31
0.0
  0
LINE
  5
156C4
330
747D
100
AcDbEntity
  8
部品1
 48
50.0
100
AcDbLine
 10
5688.480607178524
 20
7982.05880679399
 30
0.0
 11
5688.480607178469
 21
9457.058806793996
 31
0.0
  0
LINE
  5
156C5
330
747D
100
AcDbEntity
  8
部品1
 48
50.0
100
AcDbLine
 10
5632.480607178525
 20
7982.05880679399
 30
0.0
 11
5632.48060717847
 21
9429.058806793998
 31
0.0
  0
LINE
  5
156C6
330
747D
100
AcDbEntity
  8
部品1
 48
50.0
100
AcDbLine
 10
5660.480607178524
 20
7982.05880679399
 30
0.0
 11
5660.480607178524
 21
9402.058806793997
 31
0.0
  0
LINE
  5
156C7
330
747D
100
AcDbEntity
  8
細線
 48
50.0
100
AcDbLine
 10
5631.48061385614
 20
9427.558806794026
 30
0.0
 11
4739.48061385614
 21
8977.558806793924
 31
0.0
  0
LINE
  5
156C8
330
747D
100
AcDbEntity
  8
細線
 48
50.0
100
AcDbLine
 10
5631.48061385614
 20
8977.558806794027
 30
0.0
 11
4739.48061385614
 21
9427.558806793923
 31
0.0
  0
LINE
  5
156C9
330
747D
100
AcDbEntity
  8
部品1
 48
50.0
100
AcDbLine
 10
5631.48061385614
 20
9427.558806794026
 30
0.0
 11
5631.48061385614
 21
8977.558806794027
 31
0.0
  0
LINE
  5
156CA
330
747D
100
AcDbEntity
  8
部品1
 48
50.0
100
AcDbLine
 10
5689.48061385614
 20
9427.558806793916
 30
0.0
 11
5689.48061385614
 21
8977.558806793924
 31
0.0
  0
LINE
  5
156CB
330
747D
100
AcDbEntity
  8
部品1
 48
5.0
100
AcDbLine
 10
5617.480607178539
 20
7927.05880679399
 30
0.0
 11
5703.480607178539
 21
7927.05880679399
 31
0.0
  0
LINE
  5
156CC
330
747D
100
AcDbEntity
  8
部品1
 48
5.0
100
AcDbLine
 10
5692.480607178539
 20
7982.05880679399
 30
0.0
 11
5715.480607178538
 21
7982.05880679399
 31
0.0
  0
LINE
  5
156CD
330
747D
100
AcDbEntity
  8
部品1
 48
50.0
100
AcDbLine
 10
5715.98060717852
 20
8058.558806818663
 30
0.0
 11
5688.480607178524
 21
8030.558806793989
 31
0.0
  0
LINE
  5
156CE
330
747D
100
AcDbEntity
  8
想像線
 48
10.0
100
AcDbLine
 10
5485.480607178535
 20
7927.05880679399
 30
0.0
 11
5485.480607178535
 21
7206.1411631382
 31
0.0
  0
ARC
  5
156CF
330
747D
100
AcDbEntity
  8
想像線
 48
10.0
100
AcDbCircle
 10
5478.128556501375
 20
7928.753700169552
 30
0.0
 40
722.6499369155536
100
AcDbArc
 50
180.1343808685451
 51
270.5829222700355
  0
LINE
  5
156D0
330
747D
100
AcDbEntity
  8
破線
 48
10.0
100
AcDbLine
 10
5581.480607178531
 20
8082.058806793996
 30
0.0
 11
5581.480601430565
 21
8704.558483406733
 31
0.0
  0
LINE
  5
156D1
330
747D
100
AcDbEntity
  8
部品1
 48
50.0
100
AcDbLine
 10
5604.980607178521
 20
8058.558806793996
 30
0.0
 11
5604.980607178498
 21
8977.558806794055
 31
0.0
  0
LINE
  5
156D2
330
747D
100
AcDbEntity
  8
部品1
 48
50.0
100
AcDbLine
 10
5184.980607178531
 20
8977.558806793975
 30
0.0
 11
5184.980444306428
 21
8058.557974630778
 31
0.0
  0
LINE
  5
156D3
330
747D
100
AcDbEntity
  8
部品1
 48
5.0
100
AcDbLine
 10
4734.480607178539
 20
7956.558806793932
 30
0.0
 11
5636.480607178539
 21
7956.55880679399
 31
0.0
  0
LINE
  5
156D4
330
747D
100
AcDbEntity
  8
部品1
100
AcDbLine
 10
5604.980607178521
 20
8058.558806793996
 30
0.0
 11
4765.980113924641
 21
8058.558304596525
 31
0.0
  0
DIMENSION
  5
156D5
330
747D
100
AcDbEntity
  8
寸法
 48
50.0
100
AcDbDimension
  2
*D25
 10
5450.480607178535
 20
7487.235138998869
 30
0.0
 11
5107.980607178539
 21
7487.235138998869
 31
0.0
 70
   160
 71
     5
 42
684.9999999999927
  3
INABA_S40G
100
AcDbAlignedDimension
 13
4765.480607178542
 23
7927.058806793946
 33
0.0
 14
5450.480607178535
 24
7927.05880679391
 34
0.0
100
AcDbRotatedDimension
  0
LINE
  5
156D6
330
747D
100
AcDbEntity
  8
部品1
100
AcDbLine
 10
5485.480607178535
 20
7953.058806794034
 30
0.0
 11
4755.480607178538
 21
7953.058806794011
 31
0.0
  0
LINE
  5
156D7
330
747D
100
AcDbEntity
  8
破線
 48
10.0
100
AcDbLine
 10
5581.480607178531
 20
8082.058806793996
 30
0.0
 11
4789.480607178531
 21
8082.058806793982
 31
0.0
  0
LINE
  5
156D8
330
747D
100
AcDbEntity
  8
細線
 48
50.0
100
AcDbLine
 10
4879.480607178535
 20
7953.058806794034
 30
0.0
 11
4879.480607178535
 21
7927.058806793986
 31
0.0
  0
LINE
  5
156D9
330
747D
100
AcDbEntity
  8
細線
 48
50.0
100
AcDbLine
 10
5065.480607178535
 20
7953.058806794023
 30
0.0
 11
5065.480607178535
 21
7927.058806793986
 31
0.0
  0
LINE
  5
156DA
330
747D
100
AcDbEntity
  8
細線
 48
50.0
100
AcDbLine
 10
5105.480607178535
 20
7953.058806794023
 30
0.0
 11
5105.480607178535
 21
7927.058806793986
 31
0.0
  0
LINE
  5
156DB
330
747D
100
AcDbEntity
  8
細線
 48
50.0
100
AcDbLine
 10
5292.480607178536
 20
7953.058806794238
 30
0.0
 11
5292.480607178536
 21
7927.058806794201
 31
0.0
  0
LINE
  5
156DC
330
747D
100
AcDbEntity
  8
細線
 48
50.0
100
AcDbLine
 10
5332.480607178535
 20
7953.058806794238
 30
0.0
 11
5332.480607178535
 21
7927.058806794201
 31
0.0
  0
ARC
  5
156DD
330
747D
100
AcDbEntity
  8
部品1
 48
0.2
100
AcDbCircle
 10
5472.543055007216
 20
7928.056436749212
 30
0.0
 40
8.0
100
AcDbArc
 50
187.1636477221926
 51
269.9999999999992
  0
LINE
  5
156DE
330
747D
100
AcDbEntity
  8
部品1
 48
5.0
100
AcDbLine
 10
5487.480607178539
 20
7956.55880679399
 30
0.0
 11
5487.480607178539
 21
7927.05880679399
 31
0.0
  0
LINE
  5
156DF
330
747D
100
AcDbEntity
  8
部品1
 48
0.2
100
AcDbLine
 10
5472.543055007216
 20
7920.056436749212
 30
0.0
 11
5477.543055007216
 21
7920.056436749212
 31
0.0
  0
ARC
  5
156E0
330
747D
100
AcDbEntity
  8
細線
 48
0.2
100
AcDbCircle
 10
5477.543055007216
 20
7928.056436749212
 30
0.0
 40
4.049999999999999
100
AcDbArc
 50
194.2603506853988
 51
345.7396493146012
  0
ARC
  5
156E1
330
747D
100
AcDbEntity
  8
部品1
 48
0.2
100
AcDbCircle
 10
5477.543055007216
 20
7928.056436749212
 30
0.0
 40
8.0
100
AcDbArc
 50
270.0
 51
352.8363522778074
  0
LINE
  5
156E2
330
747D
100
AcDbEntity
  8
部品1
100
AcDbLine
 10
5485.480607178535
 20
7953.058806794041
 30
0.0
 11
5485.480607178535
 21
7927.058806793983
 31
0.0
  0
LINE
  5
156E3
330
747D
100
AcDbEntity
  8
部品1
 48
5.0
100
AcDbLine
 10
5632.480607178525
 20
7982.05880679399
 30
0.0
 11
5688.480607178524
 21
7982.05880679399
 31
0.0
  0
LINE
  5
156E4
330
747D
100
AcDbEntity
  8
部品1
 48
5.0
100
AcDbLine
 10
5605.480607178538
 20
7982.05880679399
 30
0.0
 11
5605.480607178543
 21
7956.55880679399
 31
0.0
  0
LINE
  5
156E5
330
747D
100
AcDbEntity
  8
部品1
 48
5.0
100
AcDbLine
 10
5636.480607178539
 20
7982.05880679399
 30
0.0
 11
5636.480607178539
 21
7956.55880679399
 31
0.0
  0
LINE
  5
156E6
330
747D
100
AcDbEntity
  8
部品1
 48
5.0
100
AcDbLine
 10
5617.480607178539
 20
7956.55880679399
 30
0.0
 11
5617.480607178539
 21
7927.05880679399
 31
0.0
  0
LINE
  5
156E7
330
747D
100
AcDbEntity
  8
部品1
100
AcDbLine
 10
5617.480607178535
 20
7956.558806793932
 30
0.0
 11
5617.480607178535
 21
7927.058806793983
 31
0.0
  0
LINE
  5
156E8
330
747D
100
AcDbEntity
  8
部品1
 48
5.0
100
AcDbLine
 10
5628.480607178539
 20
7982.05880679399
 30
0.0
 11
5605.480607178538
 21
7982.05880679399
 31
0.0
  0
LINE
  5
156E9
330
747D
100
AcDbEntity
  8
部品1
 48
50.0
100
AcDbLine
 10
5632.480607178525
 20
8030.558806793989
 30
0.0
 11
5604.980607178521
 21
8058.558806793996
 31
0.0
  0
LINE
  5
156EA
330
747D
100
AcDbEntity
  8
部品1
 48
5.0
100
AcDbLine
 10
5684.480607178542
 20
7982.05880679399
 30
0.0
 11
5684.480607178539
 21
7956.55880679399
 31
0.0
  0
LINE
  5
156EB
330
747D
100
AcDbEntity
  8
部品1
100
AcDbLine
 10
4739.48061385614
 20
8977.558806793924
 30
0.0
 11
5631.48061385614
 21
8977.558806794027
 31
0.0
  0
LINE
  5
156EC
330
747D
100
AcDbEntity
  8
破線
 48
10.0
100
AcDbLine
 10
4765.980602902451
 20
8754.558517068543
 30
0.0
 11
5604.980607178506
 21
8754.558482436713
 31
0.0
  0
LINE
  5
156ED
330
747D
100
AcDbEntity
  8
破線
 48
10.0
100
AcDbLine
 10
4765.980602902451
 20
8704.558517068544
 30
0.0
 11
5604.980607178506
 21
8704.558482436715
 31
0.0
  0
LINE
  5
156EE
330
747D
100
AcDbEntity
  8
破線
 48
10.0
100
AcDbLine
 10
5581.480600981151
 20
8754.558483406734
 30
0.0
 11
5581.480598823979
 21
8977.558806794055
 31
0.0
  0
LINE
  5
156EF
330
747D
100
AcDbEntity
  8
部品1
 48
5.0
100
AcDbLine
 10
5660.480607178524
 20
8402.05880679399
 30
0.0
 11
5632.48060717847
 21
8402.058806793997
 31
0.0
  0
LINE
  5
156F0
330
747D
100
AcDbEntity
  8
部品1
 48
50.0
100
AcDbLine
 10
5660.480607178513
 20
8982.058806793997
 30
0.0
 11
5688.480607178498
 21
8982.058806793997
 31
0.0
  0
LINE
  5
156F1
330
747D
100
AcDbEntity
  8
部品1
 48
5.0
100
AcDbLine
 10
5660.480607178524
 20
8982.05880679399
 30
0.0
 11
5632.48060717847
 21
8982.058806793997
 31
0.0
  0
LINE
  5
156F2
330
747D
100
AcDbEntity
  8
部品1
 48
50.0
100
AcDbLine
 10
5660.480607178513
 20
9020.058806793997
 30
0.0
 11
5688.480607178498
 21
9020.058806793997
 31
0.0
  0
LINE
  5
156F3
330
747D
100
AcDbEntity
  8
部品1
 48
50.0
100
AcDbLine
 10
5715.980600834235
 20
8058.558806818655
 30
0.0
 11
5715.9806038071
 21
8977.558806793998
 31
0.0
  0
LINE
  5
156F4
330
747D
100
AcDbEntity
  8
破線
 48
10.0
100
AcDbLine
 10
5739.480607178531
 20
8082.058806794005
 30
0.0
 11
5739.48059862588
 21
8704.558510732445
 31
0.0
  0
LINE
  5
156F5
330
747D
100
AcDbEntity
  8
部品1
 48
5.0
100
AcDbLine
 10
5715.480607178538
 20
7982.05880679399
 30
0.0
 11
5715.480607178542
 21
7956.55880679399
 31
0.0
  0
LINE
  5
156F6
330
747D
100
AcDbEntity
  8
部品1
 48
5.0
100
AcDbLine
 10
5703.480607178539
 20
7956.55880679399
 30
0.0
 11
5703.480607178539
 21
7927.05880679399
 31
0.0
  0
LINE
  5
156F7
330
747D
100
AcDbEntity
  8
部品1
100
AcDbLine
 10
5705.480607178535
 20
7953.058806793983
 30
0.0
 11
5705.480607178535
 21
7927.05880679399
 31
0.0
  0
LINE
  5
156F8
330
747D
100
AcDbEntity
  8
部品1
100
AcDbLine
 10
5703.480607178539
 20
7956.558806793939
 30
0.0
 11
5703.480607178539
 21
7927.05880679399
 31
0.0
  0
LINE
  5
156F9
330
747D
100
AcDbEntity
  8
破線
 48
10.0
100
AcDbLine
 10
5739.480597957182
 20
8754.558510732449
 30
0.0
 11
5739.480594747419
 21
8977.558806793998
 31
0.0
  0
DIMENSION
  5
156FA
330
747D
100
AcDbEntity
  8
寸法
 48
50.0
100
AcDbDimension
  2
*D27
 10
5715.480607178546
 20
9672.867026419051
 30
0.0
 11
5660.480607178546
 21
9924.600367368448
 31
0.0
 70
   160
 71
     5
 42
110.0000000000036
  3
INABA_S40G
100
AcDbAlignedDimension
 13
5605.480607178543
 23
9457.058806794071
 33
0.0
 14
5715.480607178546
 24
9457.058806794048
 34
0.0
100
AcDbRotatedDimension
1001
ACAD
1000
DSTYLE
1002
{
1070
   279
1070
     2
1002
}
  0
DIMENSION
  5
156FB
330
747D
100
AcDbEntity
  8
寸法
100
AcDbDimension
  2
*D26
 10
5605.480607178543
 20
9672.867026419051
 30
0.0
 11
5185.480607178543
 21
9672.867026419051
 31
0.0
 70
   160
  1
2X420=<>
 71
     5
 42
840.0
  3
INABA_S40G
100
AcDbAlignedDimension
 13
4765.480607178542
 23
9457.058806793982
 33
0.0
 14
5605.480607178543
 24
9457.058806794071
 34
0.0
100
AcDbRotatedDimension
1001
ACAD
1000
DSTYLE
1002
{
1002
}
  0
LINE
  5
156FC
330
747D
100
AcDbEntity
  8
部品1
100
AcDbLine
 10
4738.480607178491
 20
9429.058806793975
 30
0.0
 11
5657.861310197146
 21
9429.058806793998
 31
0.0
  0
LINE
  5
156FD
330
747D
100
AcDbEntity
  8
部品1
100
AcDbLine
 10
4739.48061385614
 20
9427.558806793923
 30
0.0
 11
5631.48061385614
 21
9427.558806794033
 31
0.0
  0
LINE
  5
156FE
330
747D
100
AcDbEntity
  8
部品1
100
AcDbLine
 10
5184.980607178477
 20
9457.058806793837
 30
0.0
 11
5184.980607178477
 21
9429.058806793838
 31
0.0
  0
LINE
  5
156FF
330
747D
100
AcDbEntity
  8
部品1
100
AcDbLine
 10
5184.980607178509
 20
9457.058806793872
 30
0.0
 11
5184.980607178509
 21
9429.058806793873
 31
0.0
  0
LINE
  5
15700
330
747D
100
AcDbEntity
  8
部品1
 48
5.0
100
AcDbLine
 10
5635.189881625716
 20
9457.058806793996
 30
0.0
 11
5657.861310197146
 21
9429.058806793998
 31
0.0
  0
LINE
  5
15701
330
747D
100
AcDbEntity
  8
部品1
 48
5.0
100
AcDbLine
 10
5605.480607178543
 20
9429.058806793998
 30
0.0
 11
5605.480607178543
 21
9457.058806793996
 31
0.0
  0
LINE
  5
15702
330
747D
100
AcDbEntity
  8
部品1
 48
5.0
100
AcDbLine
 10
5688.480607178473
 20
9402.058806793997
 30
0.0
 11
5632.48060717847
 21
9402.058806793997
 31
0.0
  0
LINE
  5
15703
330
747D
100
AcDbEntity
  8
部品1
 48
50.0
100
AcDbLine
 10
5631.033214666561
 20
9427.558806794033
 30
0.0
 11
5632.480607178437
 21
9429.05880679396
 31
0.0
  0
LINE
  5
15704
330
747D
100
AcDbEntity
  8
部品1
 48
50.0
100
AcDbLine
 10
5689.980613856132
 20
9427.558806793923
 30
0.0
 11
5688.48060717851
 21
9429.058806793916
 31
0.0
  0
LINE
  5
15705
330
747D
100
AcDbEntity
  8
部品1
 48
5.0
100
AcDbLine
 10
5715.480607178546
 20
9457.058806793996
 30
0.0
 11
5715.480607178542
 21
9429.058806794005
 31
0.0
  0
TEXT
  5
16004
330
747D
100
AcDbEntity
  8
文字
 62
     7
 48
50.0
100
AcDbText
 10
14271.39351435261
 20
483.8967129911416
 30
0.0
 40
160.0
  1
ＮＸＮ－１４ＤＬ－６
  7
STYLE2
100
AcDbText
  0
LINE
  5
16005
330
747D
100
AcDbEntity
  8
細線
 48
50.0
100
AcDbLine
 10
12387.3525197389
 20
4975.869626708054
 30
0.0
 11
12387.3525197389
 21
3185.869626708055
 31
0.0
  0
LINE
  5
16006
330
747D
100
AcDbEntity
  8
細線
 48
50.0
100
AcDbLine
 10
12402.3525197389
 20
4975.869626708054
 30
0.0
 11
12402.3525197389
 21
3185.869626708055
 31
0.0
  0
LINE
  5
16007
330
747D
100
AcDbEntity
  8
細線
 48
50.0
100
AcDbLine
 10
12532.3525197389
 20
4975.869626708054
 30
0.0
 11
12532.3525197389
 21
3185.869626708055
 31
0.0
  0
LINE
  5
16008
330
747D
100
AcDbEntity
  8
細線
 48
50.0
100
AcDbLine
 10
12547.3525197389
 20
4975.869626708054
 30
0.0
 11
12547.3525197389
 21
3185.869626708055
 31
0.0
  0
LINE
  5
16009
330
747D
100
AcDbEntity
  8
細線
 48
50.0
100
AcDbLine
 10
12677.3525197389
 20
4975.869626708054
 30
0.0
 11
12677.3525197389
 21
3185.869626708055
 31
0.0
  0
LINE
  5
1600A
330
747D
100
AcDbEntity
  8
細線
 48
50.0
100
AcDbLine
 10
12692.3525197389
 20
4975.869626708054
 30
0.0
 11
12692.3525197389
 21
3185.869626708055
 31
0.0
  0
TEXT
  5
1600B
330
747D
100
AcDbEntity
  8
文字
 62
     7
 48
50.0
100
AcDbText
 10
15022.63965474517
 20
10930.01374588372
 30
0.0
 40
100.0
  1
F12            1.2
  7
STYLE1
100
AcDbText
  0
TEXT
  5
1600C
330
747D
100
AcDbEntity
  8
文字
 62
     7
 48
50.0
100
AcDbText
 10
13583.11819016569
 20
10930.01374588373
 30
0.0
 40
100.0
  1
根太
  7
STYLE1
100
AcDbText
  0
TEXT
  5
1600D
330
747D
100
AcDbEntity
  8
文字
 62
     7
 48
50.0
100
AcDbText
 10
13248.77747366447
 20
8720.013745883735
 30
0.0
 40
100.0
  1
15
  7
STYLE1
100
AcDbText
  0
LINE
  5
1600E
330
747D
100
AcDbEntity
  8
仕様書枠
 48
50.0
100
AcDbLine
 10
16307.2
 20
10899.6
 30
0.0
 11
13127.2
 21
10899.6
 31
0.0
  0
TEXT
  5
1600F
330
747D
100
AcDbEntity
  8
文字
 62
     7
 48
50.0
100
AcDbText
 10
13583.1181901657
 20
9740.013745883729
 30
0.0
 40
100.0
  1
梁中・梁中央
 41
0.9
  7
STYLE1
100
AcDbText
  0
TEXT
  5
16010
330
747D
100
AcDbEntity
  8
文字
 62
     7
 48
50.0
100
AcDbText
 10
15022.63965474517
 20
9740.013745883729
 30
0.0
 40
100.0
  1
F12,Y10       0.7+1.0
  7
STYLE1
100
AcDbText
  0
TEXT
  5
16011
330
747D
100
AcDbEntity
  8
文字
 62
     7
 48
50.0
100
AcDbText
 10
13583.11819016566
 20
8550.013745883729
 30
0.0
 40
100.0
  1
アンカープレート
  7
STYLE1
100
AcDbText
  0
TEXT
  5
16012
330
747D
100
AcDbEntity
  8
文字
 62
     7
 48
50.0
100
AcDbText
 10
15022.63965474512
 20
8550.013745883722
 30
0.0
 40
100.0
  1
F12            2.3
  7
STYLE1
100
AcDbText
  0
LINE
  5
16013
330
747D
100
AcDbEntity
  8
仕様書枠
 48
50.0
100
AcDbLine
 10
16307.2
 20
9879.600000000001
 30
0.0
 11
13127.2
 21
9879.600000000001
 31
0.0
  0
LINE
  5
16014
330
747D
100
AcDbEntity
  8
仕様書枠
 48
50.0
100
AcDbLine
 10
16307.19999999999
 20
11409.6
 30
0.0
 11
13127.2
 21
11409.6
 31
0.0
  0
LINE
  5
16015
330
747D
100
AcDbEntity
  8
仕様書枠
 48
50.0
100
AcDbLine
 10
16307.19999999999
 20
8179.600000000007
 30
0.0
 11
16307.2
 21
11409.6
 31
0.0
  0
LINE
  5
16016
330
747D
100
AcDbEntity
  8
仕様書枠
 48
50.0
100
AcDbLine
 10
14785.2
 20
11409.59999999999
 30
0.0
 11
14785.19999999999
 21
8519.600000000002
 31
0.0
  0
LINE
  5
16017
330
747D
100
AcDbEntity
  8
仕様書枠
 48
50.0
100
AcDbLine
 10
13490.2
 20
11409.6
 30
0.0
 11
13490.2
 21
8519.600000000004
 31
0.0
  0
LINE
  5
16018
330
747D
100
AcDbEntity
  8
仕様書枠
 48
50.0
100
AcDbLine
 10
16307.19999999999
 20
11239.6
 30
0.0
 11
13127.2
 21
11239.6
 31
0.0
  0
LINE
  5
16019
330
747D
100
AcDbEntity
  8
仕様書枠
 48
50.0
100
AcDbLine
 10
16307.2
 20
10729.6
 30
0.0
 11
13127.2
 21
10729.6
 31
0.0
  0
LINE
  5
1601A
330
747D
100
AcDbEntity
  8
仕様書枠
 48
50.0
100
AcDbLine
 10
16307.19999999999
 20
11069.6
 30
0.0
 11
13127.2
 21
11069.6
 31
0.0
  0
LINE
  5
1601B
330
747D
100
AcDbEntity
  8
仕様書枠
 48
50.0
100
AcDbLine
 10
16307.19999999999
 20
10389.6
 30
0.0
 11
13127.2
 21
10389.6
 31
0.0
  0
LINE
  5
1601C
330
747D
100
AcDbEntity
  8
仕様書枠
 48
50.0
100
AcDbLine
 10
16307.19999999999
 20
10219.6
 30
0.0
 11
13127.2
 21
10219.6
 31
0.0
  0
LINE
  5
1601D
330
747D
100
AcDbEntity
  8
仕様書枠
 48
50.0
100
AcDbLine
 10
16307.19999999999
 20
10559.6
 30
0.0
 11
13127.2
 21
10559.6
 31
0.0
  0
TEXT
  5
1601E
330
747D
100
AcDbEntity
  8
文字
 62
     7
 48
50.0
100
AcDbText
 10
13197.42518560407
 20
11270.01374588373
 30
0.0
 40
100.0
  1
品番
  7
STYLE1
100
AcDbText
  0
TEXT
  5
1601F
330
747D
100
AcDbEntity
  8
文字
 62
     7
 48
50.0
100
AcDbText
 10
13271.19032244792
 20
11100.01374588373
 30
0.0
 40
100.0
  1
1
  7
STYLE1
100
AcDbText
  0
TEXT
  5
16020
330
747D
100
AcDbEntity
  8
文字
 62
     7
 48
50.0
100
AcDbText
 10
13271.19032244792
 20
10930.01374588373
 30
0.0
 40
100.0
  1
2
  7
STYLE1
100
AcDbText
  0
TEXT
  5
16021
330
747D
100
AcDbEntity
  8
文字
 62
     7
 48
50.0
100
AcDbText
 10
13271.19032244793
 20
10590.01374588373
 30
0.0
 40
100.0
  1
4
  7
STYLE1
100
AcDbText
  0
TEXT
  5
16022
330
747D
100
AcDbEntity
  8
文字
 62
     7
 48
50.0
100
AcDbText
 10
13271.19032244793
 20
10760.01374588373
 30
0.0
 40
100.0
  1
3
  7
STYLE1
100
AcDbText
  0
TEXT
  5
16023
330
747D
100
AcDbEntity
  8
文字
 62
     7
 48
50.0
100
AcDbText
 10
13732.03840939434
 20
11270.01374588373
 30
0.0
 40
100.0
  1
部　　品　　名
  7
STYLE1
100
AcDbText
  0
TEXT
  5
16024
330
747D
100
AcDbEntity
  8
文字
 62
     7
 48
50.0
100
AcDbText
 10
14859.79774614482
 20
11270.01374588373
 30
0.0
 40
100.0
  1
材料（材質）　　単位mm
  7
STYLE1
100
AcDbText
  0
TEXT
  5
16025
330
747D
100
AcDbEntity
  8
文字
 62
     7
 48
50.0
100
AcDbText
 10
13583.11819016569
 20
11100.01374588373
 30
0.0
 40
100.0
  1
土台枠
  7
STYLE1
100
AcDbText
  0
TEXT
  5
16026
330
747D
100
AcDbEntity
  8
文字
 62
     7
 48
50.0
100
AcDbText
 10
13583.1181901657
 20
10760.01374588373
 30
0.0
 40
100.0
  1
柱
  7
STYLE1
100
AcDbText
  0
TEXT
  5
16027
330
747D
100
AcDbEntity
  8
文字
 62
     7
 48
50.0
100
AcDbText
 10
13583.1181901657
 20
10420.01374588373
 30
0.0
 40
100.0
  1
鴨居
  7
STYLE1
100
AcDbText
  0
TEXT
  5
16028
330
747D
100
AcDbEntity
  8
文字
 62
     7
 48
50.0
100
AcDbText
 10
13583.1181901657
 20
10250.01374588373
 30
0.0
 40
100.0
  1
桁後
  7
STYLE1
100
AcDbText
  0
TEXT
  5
16029
330
747D
100
AcDbEntity
  8
文字
 62
     7
 48
50.0
100
AcDbText
 10
13271.19032244793
 20
10420.01374588373
 30
0.0
 40
100.0
  1
5
  7
STYLE1
100
AcDbText
  0
TEXT
  5
1602A
330
747D
100
AcDbEntity
  8
文字
 62
     7
 48
50.0
100
AcDbText
 10
13583.1181901657
 20
10080.01374588373
 30
0.0
 40
100.0
  1
妻板左右
  7
STYLE1
100
AcDbText
  0
TEXT
  5
1602B
330
747D
100
AcDbEntity
  8
文字
 62
     7
 48
50.0
100
AcDbText
 10
13248.77747366447
 20
9570.013745883729
 30
0.0
 40
100.0
  1
10
  7
STYLE1
100
AcDbText
  0
TEXT
  5
1602C
330
747D
100
AcDbEntity
  8
文字
 62
     7
 48
50.0
100
AcDbText
 10
13583.11819016568
 20
9230.013745883729
 30
0.0
 40
100.0
  1
壁パネル
  7
STYLE1
100
AcDbText
  0
TEXT
  5
1602D
330
747D
100
AcDbEntity
  8
文字
 62
     7
 48
50.0
100
AcDbText
 10
13583.11819016569
 20
9400.013745883729
 30
0.0
 40
100.0
  1
屋根パネル
  7
STYLE1
100
AcDbText
  0
TEXT
  5
1602E
330
747D
100
AcDbEntity
  8
文字
 62
     7
 48
50.0
100
AcDbText
 10
13583.1181901657
 20
9910.01374588373
 30
0.0
 40
100.0
  1
鼻隠シ前後
  7
STYLE1
100
AcDbText
  0
TEXT
  5
1602F
330
747D
100
AcDbEntity
  8
文字
 62
     7
 48
50.0
100
AcDbText
 10
13271.19032244792
 20
9910.01374588373
 30
0.0
 40
100.0
  1
8
  7
STYLE1
100
AcDbText
  0
TEXT
  5
16030
330
747D
100
AcDbEntity
  8
文字
 62
     7
 48
50.0
100
AcDbText
 10
13271.19032244792
 20
9740.013745883729
 30
0.0
 40
100.0
  1
9
  7
STYLE1
100
AcDbText
  0
TEXT
  5
16031
330
747D
100
AcDbEntity
  8
文字
 62
     7
 48
50.0
100
AcDbText
 10
13271.19032244792
 20
10080.01374588373
 30
0.0
 40
100.0
  1
7
  7
STYLE1
100
AcDbText
  0
TEXT
  5
16032
330
747D
100
AcDbEntity
  8
文字
 62
     7
 48
50.0
100
AcDbText
 10
13271.19032244793
 20
10250.01374588373
 30
0.0
 40
100.0
  1
6
  7
STYLE1
100
AcDbText
  0
LINE
  5
16033
330
747D
100
AcDbEntity
  8
仕様書枠
 48
50.0
100
AcDbLine
 10
16307.19999999998
 20
9369.600000000001
 30
0.0
 11
13127.19999999999
 21
9369.600000000001
 31
0.0
  0
LINE
  5
16034
330
747D
100
AcDbEntity
  8
仕様書枠
 48
50.0
100
AcDbLine
 10
16307.19999999998
 20
9029.6
 30
0.0
 11
13127.19999999999
 21
9029.6
 31
0.0
  0
LINE
  5
16035
330
747D
100
AcDbEntity
  8
仕様書枠
 48
50.0
100
AcDbLine
 10
16307.19999999998
 20
9199.600000000001
 30
0.0
 11
13127.19999999999
 21
9199.600000000001
 31
0.0
  0
LINE
  5
16036
330
747D
100
AcDbEntity
  8
仕様書枠
 48
50.0
100
AcDbLine
 10
16307.2
 20
10049.6
 30
0.0
 11
13127.2
 21
10049.6
 31
0.0
  0
LINE
  5
16037
330
747D
100
AcDbEntity
  8
仕様書枠
 48
50.0
100
AcDbLine
 10
16307.2
 20
9709.600000000001
 30
0.0
 11
13127.2
 21
9709.600000000001
 31
0.0
  0
TEXT
  5
16038
330
747D
100
AcDbEntity
  8
文字
 62
     7
 48
50.0
100
AcDbText
 10
13248.77747366447
 20
9400.013745883729
 30
0.0
 40
100.0
  1
11
  7
STYLE1
100
AcDbText
  0
LINE
  5
16039
330
747D
100
AcDbEntity
  8
仕様書枠
 48
50.0
100
AcDbLine
 10
16307.19999999998
 20
8859.6
 30
0.0
 11
13127.19999999999
 21
8859.6
 31
0.0
  0
LINE
  5
1603A
330
747D
100
AcDbEntity
  8
仕様書枠
 48
50.0
100
AcDbLine
 10
16307.19999999998
 20
8519.600000000002
 30
0.0
 11
13127.19999999999
 21
8519.600000000004
 31
0.0
  0
TEXT
  5
1603B
330
747D
100
AcDbEntity
  8
文字
 62
     7
 48
50.0
100
AcDbText
 10
13248.77747366447
 20
9060.013745883729
 30
0.0
 40
100.0
  1
13
  7
STYLE1
100
AcDbText
  0
TEXT
  5
1603C
330
747D
100
AcDbEntity
  8
文字
 62
     7
 48
50.0
100
AcDbText
 10
13248.77747366447
 20
9230.013745883729
 30
0.0
 40
100.0
  1
12
  7
STYLE1
100
AcDbText
  0
TEXT
  5
1603D
330
747D
100
AcDbEntity
  8
文字
 62
     7
 48
50.0
100
AcDbText
 10
15022.63965474517
 20
11100.01374588372
 30
0.0
 40
100.0
  1
F12            1.2
  7
STYLE1
100
AcDbText
  0
TEXT
  5
1603E
330
747D
100
AcDbEntity
  8
文字
 62
     7
 48
50.0
100
AcDbText
 10
15022.63965474518
 20
10760.01374588372
 30
0.0
 40
100.0
  1
F12            1.0
  7
STYLE1
100
AcDbText
  0
TEXT
  5
1603F
330
747D
100
AcDbEntity
  8
文字
 62
     7
 48
50.0
100
AcDbText
 10
15022.63965474517
 20
10420.01374588372
 30
0.0
 40
100.0
  1
Y10            1.0
  7
STYLE1
100
AcDbText
  0
TEXT
  5
16040
330
747D
100
AcDbEntity
  8
文字
 62
     7
 48
50.0
100
AcDbText
 10
15022.63965474517
 20
10250.01374588372
 30
0.0
 40
100.0
  1
Y10            1.0
  7
STYLE1
100
AcDbText
  0
TEXT
  5
16041
330
747D
100
AcDbEntity
  8
文字
 62
     7
 48
50.0
100
AcDbText
 10
15022.63965474517
 20
10080.01374588372
 30
0.0
 40
100.0
  1
Y10            0.7
  7
STYLE1
100
AcDbText
  0
TEXT
  5
16042
330
747D
100
AcDbEntity
  8
文字
 62
     7
 48
50.0
100
AcDbText
 10
15022.63965474517
 20
9910.013745883725
 30
0.0
 40
100.0
  1
Y10            0.7
  7
STYLE1
100
AcDbText
  0
TEXT
  5
16043
330
747D
100
AcDbEntity
  8
文字
 62
     7
 48
50.0
100
AcDbText
 10
15022.63965474516
 20
9400.013745883725
 30
0.0
 40
100.0
  1
Y10            0.5
  7
STYLE1
100
AcDbText
  0
TEXT
  5
16044
330
747D
100
AcDbEntity
  8
文字
 62
     7
 48
50.0
100
AcDbText
 10
15022.63965474515
 20
9230.013745883725
 30
0.0
 40
100.0
  1
F12            0.6
  7
STYLE1
100
AcDbText
  0
LINE
  5
16045
330
747D
100
AcDbEntity
  8
仕様書枠
 48
50.0
100
AcDbLine
 10
16307.19999999998
 20
8349.600000000004
 30
0.0
 11
13127.19999999999
 21
8349.600000000004
 31
0.0
  0
TEXT
  5
16046
330
747D
100
AcDbEntity
  8
文字
 62
     7
 48
50.0
100
AcDbText
 10
13229.83081656552
 20
8380.013745883728
 30
0.0
 40
100.0
  1
F12→溶融亜鉛めっき鋼板(JIS G 3302)
  7
STYLE1
100
AcDbText
  0
TEXT
  5
16047
330
747D
100
AcDbEntity
  8
文字
 62
     7
 48
50.0
100
AcDbText
 10
13229.83081656552
 20
8210.013745883729
 30
0.0
 40
100.0
  1
Y10→溶融亜鉛-5％アルミニウム合金めっき鋼板(JIS G 3317)
 41
0.9
  7
STYLE1
100
AcDbText
  0
LINE
  5
16048
330
747D
100
AcDbEntity
  8
仕様書枠
 48
50.0
100
AcDbLine
 10
13127.2
 20
11409.6
 30
0.0
 11
13127.19999999999
 21
8179.600000000007
 31
0.0
  0
LINE
  5
16049
330
747D
100
AcDbEntity
  8
仕様書枠
 48
50.0
100
AcDbLine
 10
16307.19999999998
 20
8689.6
 30
0.0
 11
13127.19999999999
 21
8689.600000000003
 31
0.0
  0
TEXT
  5
1604A
330
747D
100
AcDbEntity
  8
文字
 62
     7
 48
50.0
100
AcDbText
 10
13583.1181901657
 20
10590.01374588373
 30
0.0
 40
100.0
  1
床パネル
 41
0.9
  7
STYLE1
100
AcDbText
  0
TEXT
  5
1604B
330
747D
100
AcDbEntity
  8
文字
 62
     7
 48
50.0
100
AcDbText
 10
15022.63965474517
 20
10590.01374588372
 30
0.0
 40
100.0
  1
F12            1.0
  7
STYLE1
100
AcDbText
  0
TEXT
  5
1604C
330
747D
100
AcDbEntity
  8
文字
 62
     7
 48
50.0
100
AcDbText
 10
15022.63965474513
 20
8890.013745883726
 30
0.0
 40
100.0
  1
F12            0.8
  7
STYLE1
100
AcDbText
  0
TEXT
  5
1604D
330
747D
100
AcDbEntity
  8
文字
 62
     7
 48
50.0
100
AcDbText
 10
13583.11819016567
 20
8890.013745883729
 30
0.0
 40
100.0
  1
扉
  7
STYLE1
100
AcDbText
  0
TEXT
  5
1604E
330
747D
100
AcDbEntity
  8
文字
 62
     7
 48
50.0
100
AcDbText
 10
15022.63965474513
 20
8720.013745883729
 30
0.0
 40
100.0
  1
F12            0.6
  7
STYLE1
100
AcDbText
  0
TEXT
  5
1604F
330
747D
100
AcDbEntity
  8
文字
 62
     7
 48
50.0
100
AcDbText
 10
13583.11819016567
 20
8720.013745883733
 30
0.0
 40
100.0
  1
棚板
  7
STYLE1
100
AcDbText
  0
LINE
  5
16050
330
747D
100
AcDbEntity
  8
仕様書枠
 48
50.0
100
AcDbLine
 10
16307.2
 20
9539.6
 30
0.0
 11
13127.2
 21
9539.6
 31
0.0
  0
TEXT
  5
16051
330
747D
100
AcDbEntity
  8
文字
 62
     7
 48
50.0
100
AcDbText
 10
13248.77747366447
 20
8890.013745883731
 30
0.0
 40
100.0
  1
14
  7
STYLE1
100
AcDbText
  0
TEXT
  5
16052
330
747D
100
AcDbEntity
  8
文字
 62
     7
 48
50.0
100
AcDbText
 10
15022.63965474518
 20
9570.013745883725
 30
0.0
 40
100.0
  1
F12            1.0
  7
STYLE1
100
AcDbText
  0
TEXT
  5
16053
330
747D
100
AcDbEntity
  8
文字
 62
     7
 48
50.0
100
AcDbText
 10
13583.1181901657
 20
9570.013745883729
 30
0.0
 40
100.0
  1
母屋中
  7
STYLE1
100
AcDbText
  0
LINE
  5
16054
330
747D
100
AcDbEntity
  8
部品1
100
AcDbLine
 10
11840.35014969412
 20
4975.869626708056
 30
0.0
 11
13377.3525197389
 21
4975.869626708054
 31
0.0
  0
LINE
  5
16055
330
747D
100
AcDbEntity
  8
部品1
100
AcDbLine
 10
11847.3525197389
 20
3185.869626708055
 30
0.0
 11
13377.35251973891
 21
3185.869626708056
 31
0.0
  0
LINE
  5
16056
330
747D
100
AcDbEntity
  8
部品1
100
AcDbLine
 10
11902.3525197389
 20
4975.869626708054
 30
0.0
 11
11902.3525197389
 21
3185.869626708055
 31
0.0
  0
LINE
  5
16057
330
747D
100
AcDbEntity
  8
部品1
100
AcDbLine
 10
11847.35251973891
 20
5067.446520648497
 30
0.0
 11
11847.3525197389
 21
3035.869626708054
 31
0.0
  0
DIMENSION
  5
16058
330
747D
100
AcDbEntity
  8
寸法
100
AcDbDimension
  2
*D28
 10
10943.08070809842
 20
5210.86962670806
 30
0.0
 11
10943.08070809842
 21
4111.076617127857
 31
0.0
 70
   160
 71
     5
 42
2075.000000000004
  3
INABA_S40G
100
AcDbAlignedDimension
 13
11847.3525197389
 23
3135.869626708056
 33
0.0
 14
11787.3525197389
 24
5210.86962670806
 34
0.0
 50
90.0
100
AcDbRotatedDimension
1001
ACAD
1000
DSTYLE
1002
{
1070
   174
1070
     0
1070
   272
1070
     1
1070
   288
1070
     0
1070
   341
1005
0
1002
}
  0
DIMENSION
  5
16059
330
747D
100
AcDbEntity
  8
寸法
100
AcDbDimension
  2
*D29
 10
11245.3894290467
 20
3135.869626708057
 30
0.0
 11
11245.3894290467
 21
2829.822382613566
 31
0.0
 70
   160
 71
     5
 42
50.00000000000182
  3
INABA_S40G
100
AcDbAlignedDimension
 13
11840.35014969412
 23
3185.869626708058
 33
0.0
 14
11792.3525197389
 24
3135.869626708056
 34
0.0
 50
90.0
100
AcDbRotatedDimension
1001
ACAD
1000
DSTYLE
1002
{
1070
   174
1070
     0
1070
   272
1070
     1
1070
   288
1070
     0
1070
   341
1005
0
1002
}
  0
LINE
  5
1605A
330
747D
100
AcDbEntity
  8
部品1
100
AcDbLine
 10
12322.3525197389
 20
4975.869626708054
 30
0.0
 11
12322.3525197389
 21
3185.869626708055
 31
0.0
  0
LINE
  5
1605B
330
747D
100
AcDbEntity
  8
部品1
100
AcDbLine
 10
13377.3525197389
 20
5030.506207543307
 30
0.0
 11
13377.3525197389
 21
3035.869626708054
 31
0.0
  0
LINE
  5
1605C
330
747D
100
AcDbEntity
  8
部品1
100
AcDbLine
 10
13322.3525197389
 20
4975.869626708054
 30
0.0
 11
13322.3525197389
 21
3185.869626708055
 31
0.0
  0
DIMENSION
  5
1605D
330
747D
100
AcDbEntity
  8
寸法
100
AcDbDimension
  2
*D30
 10
14082.27967771103
 20
5155.869626708057
 30
0.0
 11
13982.26786668741
 21
4145.869626708058
 31
0.0
 70
    32
 71
     5
 42
2020.0
  3
INABA_S40G
100
AcDbAlignedDimension
 13
13377.3525197389
 23
3135.869626708056
 33
0.0
 14
13457.3525197389
 24
5155.869626708057
 34
0.0
 50
90.0
100
AcDbRotatedDimension
1001
ACAD
1000
DSTYLE
1002
{
1070
   174
1070
     0
1070
   272
1070
     1
1070
   288
1070
     0
1070
   341
1005
0
1002
}
  0
DIMENSION
  5
1605E
330
747D
100
AcDbEntity
  8
寸法
 48
50.0
100
AcDbDimension
  2
*D31
 10
11847.3525197389
 20
5609.527080287358
 30
0.0
 11
12657.17155262945
 21
5609.527080287358
 31
0.0
 70
   160
  1
柱外寸法<>
 71
     5
 42
1530.0
  3
INABA_S40G
100
AcDbAlignedDimension
 13
13377.3525197389
 23
5157.680306319708
 33
0.0
 14
11847.3525197389
 24
5206.871244831031
 34
0.0
100
AcDbRotatedDimension
1001
ACAD
1000
DSTYLE
1002
{
1070
   174
1070
     0
1070
   272
1070
     1
1070
   288
1070
     0
1070
   341
1005
0
1002
}
  0
DIMENSION
  5
1605F
330
747D
100
AcDbEntity
  8
寸法
 48
50.0
100
AcDbDimension
  2
*D32
 10
11787.3525197389
 20
5609.527080287358
 30
0.0
 11
11477.71472446331
 21
5609.527080287358
 31
0.0
 70
   160
 71
     5
 42
60.0
  3
INABA_S40G
100
AcDbAlignedDimension
 13
11847.3525197389
 23
5206.871244831031
 33
0.0
 14
11787.3525197389
 24
5210.86962670806
 34
0.0
100
AcDbRotatedDimension
1001
ACAD
1000
DSTYLE
1002
{
1070
   174
1070
     0
1070
   272
1070
     1
1070
   288
1070
     0
1070
   341
1005
0
1002
}
  0
DIMENSION
  5
16060
330
747D
100
AcDbEntity
  8
寸法
 48
50.0
100
AcDbDimension
  2
*D33
 10
11787.3525197389
 20
5817.701401479322
 30
0.0
 11
12674.47734944072
 21
5817.701401479322
 31
0.0
 70
   160
 71
     5
 42
1670.0
  3
INABA_S40G
100
AcDbAlignedDimension
 13
13457.3525197389
 23
5155.869626708057
 33
0.0
 14
11787.3525197389
 24
5210.86962670806
 34
0.0
100
AcDbRotatedDimension
1001
ACAD
1000
DSTYLE
1002
{
1070
   174
1070
     0
1070
   272
1070
     1
1070
   288
1070
     0
1070
   341
1005
0
1002
}
  0
LINE
  5
16061
330
747D
100
AcDbEntity
  8
部品1
100
AcDbLine
 10
11847.3525197389
 20
3135.869626708056
 30
0.0
 11
13377.3525197389
 21
3135.869626708054
 31
0.0
  0
TEXT
  5
16062
330
747D
100
AcDbEntity
  8
部品1
100
AcDbText
 10
12250.06328804829
 20
2239.899516672813
 30
0.0
 40
135.0
  1
側面図
  7
STYLE2
100
AcDbText
  0
LWPOLYLINE
  5
16063
330
747D
100
AcDbEntity
  8
部品1
100
AcDbPolyline
 90
        4
 70
     1
 43
0.0
 10
12160.61718662468
 20
2432.793045891338
 10
12160.61718662468
 20
2192.900724345806
 10
12924.08785285312
 20
2192.900724345806
 10
12924.08785285312
 20
2432.793045891338
  0
LINE
  5
16064
330
747D
100
AcDbEntity
  8
細線
 48
50.0
100
AcDbLine
 10
12837.3525197389
 20
4975.869626708054
 30
0.0
 11
12837.3525197389
 21
3185.869626708055
 31
0.0
  0
LINE
  5
16065
330
747D
100
AcDbEntity
  8
細線
 48
50.0
100
AcDbLine
 10
12822.3525197389
 20
4975.869626708054
 30
0.0
 11
12822.3525197389
 21
3185.869626708055
 31
0.0
  0
LINE
  5
16066
330
747D
100
AcDbEntity
  8
細線
 48
50.0
100
AcDbLine
 10
12244.8525197389
 20
4975.869626708054
 30
0.0
 11
12244.8525197389
 21
3185.869626708055
 31
0.0
  0
LINE
  5
16067
330
747D
100
AcDbEntity
  8
細線
 48
50.0
100
AcDbLine
 10
12259.8525197389
 20
4975.869626708054
 30
0.0
 11
12259.8525197389
 21
3185.869626708055
 31
0.0
  0
LINE
  5
16068
330
747D
100
AcDbEntity
  8
細線
 48
50.0
100
AcDbLine
 10
12119.8525197389
 20
4975.869626708054
 30
0.0
 11
12119.8525197389
 21
3185.869626708055
 31
0.0
  0
LINE
  5
16069
330
747D
100
AcDbEntity
  8
細線
 48
50.0
100
AcDbLine
 10
12104.8525197389
 20
4975.869626708054
 30
0.0
 11
12104.8525197389
 21
3185.869626708055
 31
0.0
  0
LINE
  5
1606A
330
747D
100
AcDbEntity
  8
細線
 48
50.0
100
AcDbLine
 10
11964.8525197389
 20
4975.869626708054
 30
0.0
 11
11964.8525197389
 21
3185.869626708055
 31
0.0
  0
LINE
  5
1606B
330
747D
100
AcDbEntity
  8
細線
 48
50.0
100
AcDbLine
 10
11979.8525197389
 20
4975.869626708054
 30
0.0
 11
11979.8525197389
 21
3185.869626708055
 31
0.0
  0
LINE
  5
1606C
330
747D
100
AcDbEntity
  8
部品1
100
AcDbLine
 10
11794.89750609586
 20
5209.587362042321
 30
0.0
 11
13449.96439660036
 21
5153.92046803562
 31
0.0
  0
LINE
  5
1606D
330
747D
100
AcDbEntity
  8
部品1
100
AcDbLine
 10
11802.69508434085
 20
5068.650651777021
 30
0.0
 11
13432.01622027875
 21
5029.032270161242
 31
0.0
  0
LINE
  5
1606E
330
747D
100
AcDbEntity
  8
細線
 48
50.0
100
AcDbLine
 10
11820.3525197389
 20
5208.26930308346
 30
0.0
 11
11815.06341818339
 21
5068.183670456105
 31
0.0
  0
LINE
  5
1606F
330
747D
100
AcDbEntity
  8
細線
 48
50.0
100
AcDbLine
 10
13424.3525197389
 20
5155.246649361775
 30
0.0
 11
13419.6048368509
 21
5029.500876871033
 31
0.0
  0
LINE
  5
16070
330
747D
100
AcDbEntity
  8
部品1
 48
50.0
100
AcDbLine
 10
11787.53680565201
 20
5202.463172872747
 30
0.0
 11
11787.91706542982
 21
5182.536208426336
 31
0.0
  0
LINE
  5
16071
330
747D
100
AcDbEntity
  8
部品1
 48
50.0
100
AcDbLine
 10
11790.98583753606
 20
5178.960926932862
 30
0.0
 11
11792.68973902743
 21
5089.670430226217
 31
0.0
  0
LINE
  5
16072
330
747D
100
AcDbEntity
  8
細線
 48
50.0
100
AcDbLine
 10
11788.39194283971
 20
5181.886708549416
 30
0.0
 11
13454.02792758488
 21
5125.672547527014
 31
0.0
  0
LINE
  5
16073
330
747D
100
AcDbEntity
  8
細線
 48
50.0
100
AcDbLine
 10
11793.152418077
 20
5089.025196851554
 30
0.0
 11
13443.15608250764
 21
5048.625921495484
 31
0.0
  0
LINE
  5
16074
330
747D
100
AcDbEntity
  8
部品1
 48
50.0
100
AcDbLine
 10
11795.75851113367
 20
5086.095148732744
 30
0.0
 11
11795.9604637541
 21
5075.512113339652
 31
0.0
  0
ARC
  5
16075
330
747D
100
AcDbEntity
  8
部品1
 48
50.0
100
AcDbCircle
 10
11794.53553148035
 20
5202.596727280176
 30
0.0
 40
7.0
100
AcDbArc
 50
87.03587545283093
 51
181.0932240293156
  0
ARC
  5
16076
330
747D
100
AcDbEntity
  8
部品1
 48
50.0
100
AcDbCircle
 10
11802.95918958244
 20
5075.645667747079
 30
0.0
 40
7.0
100
AcDbArc
 50
181.0932240293156
 51
267.8377559869489
  0
ARC
  5
16077
330
747D
100
AcDbEntity
  8
部品1
100
AcDbCircle
 10
11792.75905720724
 20
5086.037911129561
 30
0.0
 40
3.0
100
AcDbArc
 50
1.093224029315636
 51
80.18775403148559
  0
ARC
  5
16078
330
747D
100
AcDbEntity
  8
部品1
100
AcDbCircle
 10
11787.98638360964
 20
5178.903689329679
 30
0.0
 40
3.0
100
AcDbArc
 50
1.093224029315636
 51
80.18775403169765
  0
ARC
  5
16079
330
747D
100
AcDbEntity
  8
部品1
100
AcDbCircle
 10
11788.61693801266
 20
5182.549563867078
 30
0.0
 40
0.7
100
AcDbArc
 50
181.0932240292114
 51
260.1877540314855
  0
ARC
  5
1607A
330
747D
100
AcDbEntity
  8
部品1
100
AcDbCircle
 10
11793.38961161026
 20
5089.683785666959
 30
0.0
 40
0.7
100
AcDbArc
 50
181.0932240292114
 51
260.1877540314855
  0
LINE
  5
1607B
330
747D
100
AcDbEntity
  8
部品1
 48
50.0
100
AcDbLine
 10
13456.5664225496
 20
5146.220822600699
 30
0.0
 11
13454.53580135863
 21
5126.275781342918
 31
0.0
  0
LINE
  5
1607C
330
747D
100
AcDbEntity
  8
部品1
 48
50.0
100
AcDbLine
 10
13451.18323487415
 20
5122.96514727001
 30
0.0
 11
13443.67645560931
 21
5049.232526524996
 31
0.0
  0
LINE
  5
1607D
330
747D
100
AcDbEntity
  8
部品1
 48
50.0
100
AcDbLine
 10
13440.32388912483
 20
5045.921892452085
 30
0.0
 11
13439.24432608509
 21
5035.318275458527
 31
0.0
  0
ARC
  5
1607E
330
747D
100
AcDbEntity
  8
部品1
 48
50.0
100
AcDbCircle
 10
13449.60242198485
 20
5146.929833273472
 30
0.0
 40
7.0
100
AcDbArc
 50
354.1866997665596
 51
87.03587545283093
  0
ARC
  5
1607F
330
747D
100
AcDbEntity
  8
部品1
 48
50.0
100
AcDbCircle
 10
13432.28032552033
 20
5036.0272861313
 30
0.0
 40
7.0
100
AcDbArc
 50
267.8377559869489
 51
354.1866997665596
  0
ARC
  5
16080
330
747D
100
AcDbEntity
  8
部品1
100
AcDbCircle
 10
13443.30846079544
 20
5045.618030735182
 30
0.0
 40
3.0
100
AcDbArc
 50
95.0921697642102
 51
174.1866997665596
  0
ARC
  5
16081
330
747D
100
AcDbEntity
  8
部品1
100
AcDbCircle
 10
13454.16780654476
 20
5122.661285553106
 30
0.0
 40
3.0
100
AcDbArc
 50
95.0921697642102
 51
174.1866997665596
  0
ARC
  5
16082
330
747D
100
AcDbEntity
  8
部品1
100
AcDbCircle
 10
13453.83940130216
 20
5126.346682410196
 30
0.0
 40
0.7
100
AcDbArc
 50
275.0921697642102
 51
354.1866997665596
  0
ARC
  5
16083
330
747D
100
AcDbEntity
  8
部品1
100
AcDbCircle
 10
13442.98005555284
 20
5049.303427592273
 30
0.0
 40
0.7
100
AcDbArc
 50
275.0921697642102
 51
354.1866997667606
  0
DIMENSION
  5
16084
330
747D
100
AcDbEntity
  8
寸法
 48
50.0
100
AcDbDimension
  2
*D34
 10
13457.3525197389
 20
5609.527080287358
 30
0.0
 11
13663.39976383339
 21
5609.527080287358
 31
0.0
 70
   160
 71
     5
 42
80.0
  3
INABA_S40G
100
AcDbAlignedDimension
 13
13377.3525197389
 23
5157.680306319708
 33
0.0
 14
13457.3525197389
 24
5155.869626708057
 34
0.0
100
AcDbRotatedDimension
1001
ACAD
1000
DSTYLE
1002
{
1070
   174
1070
     0
1070
   272
1070
     1
1070
   288
1070
     0
1070
   341
1005
0
1002
}
  0
DIMENSION
  5
16085
330
747D
100
AcDbEntity
  8
寸法
 48
50.0
100
AcDbDimension
  2
*D35
 10
11195.08626802752
 20
5232.692117604869
 30
0.0
 11
11203.76401167941
 21
5462.52835662176
 31
0.0
 70
   160
 71
     5
 42
141.0
  3
INABA_S40G
100
AcDbAlignedDimension
 13
11802.69508434085
 23
5068.650651777021
 33
0.0
 14
11808.01491849281
 24
5209.550259173904
 34
0.0
 50
87.83775598715743
100
AcDbRotatedDimension
1001
ACAD
1000
DSTYLE
1002
{
1070
   174
1070
     0
1070
   272
1070
     1
1070
   288
1070
     0
1070
   341
1005
0
1002
}
  0
LINE
  5
16086
330
747D
100
AcDbEntity
  8
部品1
 48
50.0
100
AcDbLine
 10
12462.3525197389
 20
5341.737765809334
 30
0.0
 11
12762.3525197389
 21
5341.737765809334
 31
0.0
  0
LINE
  5
16087
330
747D
100
AcDbEntity
  8
部品1
 48
50.0
100
AcDbLine
 10
12762.3525197389
 20
5341.737765809334
 30
0.0
 11
12762.3525197389
 21
5320.137765809334
 31
0.0
  0
TEXT
  5
16088
330
747D
100
AcDbEntity
  8
部品1
 48
50.0
100
AcDbText
 10
12450.62035496263
 20
5377.621787961767
 30
0.0
 40
120.0
  1
1000
  7
STYLE1
100
AcDbText
  0
TEXT
  5
16089
330
747D
100
AcDbEntity
  8
部品1
 48
50.0
100
AcDbText
 10
12939.44536702676
 20
5240.120529743484
 30
0.0
 40
120.0
  1
64
 50
90.0
  7
STYLE1
100
AcDbText
  0
LINE
  5
1608A
330
747D
100
AcDbEntity
  8
部品1
100
AcDbLine
 10
12902.3525197389
 20
4975.869626708054
 30
0.0
 11
12902.3525197389
 21
3185.869626708055
 31
0.0
  0
LINE
  5
1608B
330
747D
100
AcDbEntity
  8
細線
 48
50.0
100
AcDbLine
 10
13244.8525197389
 20
4975.869626708054
 30
0.0
 11
13244.8525197389
 21
3185.869626708055
 31
0.0
  0
LINE
  5
1608C
330
747D
100
AcDbEntity
  8
細線
 48
50.0
100
AcDbLine
 10
13259.8525197389
 20
4975.869626708054
 30
0.0
 11
13259.8525197389
 21
3185.869626708055
 31
0.0
  0
LINE
  5
1608D
330
747D
100
AcDbEntity
  8
細線
 48
50.0
100
AcDbLine
 10
13119.8525197389
 20
4975.869626708054
 30
0.0
 11
13119.8525197389
 21
3185.869626708055
 31
0.0
  0
LINE
  5
1608E
330
747D
100
AcDbEntity
  8
細線
 48
50.0
100
AcDbLine
 10
13104.8525197389
 20
4975.869626708054
 30
0.0
 11
13104.8525197389
 21
3185.869626708055
 31
0.0
  0
LINE
  5
1608F
330
747D
100
AcDbEntity
  8
細線
 48
50.0
100
AcDbLine
 10
12964.8525197389
 20
4975.869626708054
 30
0.0
 11
12964.8525197389
 21
3185.869626708055
 31
0.0
  0
LINE
  5
16090
330
747D
100
AcDbEntity
  8
細線
 48
50.0
100
AcDbLine
 10
12979.8525197389
 20
4975.869626708054
 30
0.0
 11
12979.8525197389
 21
3185.869626708055
 31
0.0
  0
LINE
  5
16091
330
747D
100
AcDbEntity
  8
部品1
 48
50.0
100
AcDbLine
 10
12462.3525197389
 20
5341.737765809334
 30
0.0
 11
12762.3525197389
 21
5320.137765809334
 31
0.0
  0
LINE
  5
16092
330
747D
100
AcDbEntity
  8
部品1
 48
0.2
100
AcDbLine
 10
11840.35014969412
 20
4975.869626708054
 30
0.0
 11
11840.35014969412
 21
4965.119626708055
 31
0.0
  0
LINE
  5
16093
330
747D
100
AcDbEntity
  8
部品1
 48
50.0
100
AcDbLine
 10
11840.35014969412
 20
4965.119626708054
 30
0.0
 11
11847.3525197389
 21
4965.119626708054
 31
0.0
  0
LINE
  5
16094
330
747D
100
AcDbEntity
  8
部品1
 48
50.0
100
AcDbLine
 10
11840.35014969412
 20
3196.619626708058
 30
0.0
 11
11847.3525197389
 21
3196.619626708058
 31
0.0
  0
LINE
  5
16095
330
747D
100
AcDbEntity
  8
部品1
 48
0.2
100
AcDbLine
 10
11840.35014969412
 20
3196.619626708058
 30
0.0
 11
11840.35014969412
 21
3185.869626708058
 31
0.0
  0
LINE
  5
16096
330
747D
100
AcDbEntity
  8
部品1
 48
50.0
100
AcDbLine
 10
11840.35014969412
 20
3185.869626708058
 30
0.0
 11
11847.3525197389
 21
3185.869626708058
 31
0.0
  0
DIMENSION
  5
16097
330
747D
100
AcDbEntity
  8
寸法
100
AcDbDimension
  2
*D36
 10
11245.3894290467
 20
3185.869626708058
 30
0.0
 11
11245.3894290467
 21
4090.904638584443
 31
0.0
 70
   160
 71
     5
 42
1789.999999999996
  3
INABA_S40G
100
AcDbAlignedDimension
 13
11840.35014969412
 23
4975.869626708054
 33
0.0
 14
11840.35014969412
 24
3185.869626708058
 34
0.0
 50
90.0
100
AcDbRotatedDimension
1001
ACAD
1000
DSTYLE
1002
{
1070
   288
1070
     1
1002
}
  0
LINE
  5
16098
330
747D
100
AcDbEntity
  8
仕様書枠
 48
50.0
100
AcDbLine
 10
16307.19999999997
 20
8179.600000000007
 30
0.0
 11
13127.19999999997
 21
8179.600000000007
 31
0.0
  0
TEXT
  5
16099
330
747D
100
AcDbEntity
  8
文字
 62
     7
 48
50.0
100
AcDbText
 10
13248.77747366447
 20
8550.013745883735
 30
0.0
 40
100.0
  1
16
  7
STYLE1
100
AcDbText
  0
TEXT
  5
1609A
330
747D
100
AcDbEntity
  8
文字
 62
     7
 48
50.0
100
AcDbText
 10
15022.63965474515
 20
9060.013745883725
 30
0.0
 40
100.0
  1
F12            0.6
  7
STYLE1
100
AcDbText
  0
TEXT
  5
1609B
330
747D
100
AcDbEntity
  8
文字
 62
     7
 48
50.0
100
AcDbText
 10
13583.11819016568
 20
9060.013745883729
 30
0.0
 40
100.0
  1
脇パネル
  7
STYLE1
100
AcDbText
  0
ARC
  5
16AB8
330
747D
100
AcDbEntity
  8
部品1
 48
0.01
100
AcDbCircle
 10
9073.480607178517
 20
5008.36962670805
 30
0.0
 40
2.0
100
AcDbArc
 50
270.0
 51
0.0
  0
ARC
  5
16AB9
330
747D
100
AcDbEntity
  8
部品1
 48
0.01
100
AcDbCircle
 10
9073.48060717852
 20
5039.86962670805
 30
0.0
 40
2.0
100
AcDbArc
 50
0.0
 51
90.0
  0
ARC
  5
16ABA
330
747D
100
AcDbEntity
  8
部品1
 48
0.01
100
AcDbCircle
 10
8897.48060717852
 20
5008.36962670805
 30
0.0
 40
2.0
100
AcDbArc
 50
180.0
 51
270.0
  0
ARC
  5
16ABB
330
747D
100
AcDbEntity
  8
部品1
 48
0.01
100
AcDbCircle
 10
8897.48060717852
 20
5039.86962670805
 30
0.0
 40
2.0
100
AcDbArc
 50
90.0
 51
180.0
  0
LINE
  5
16ABC
330
747D
100
AcDbEntity
  8
細線
100
AcDbLine
 10
8985.480607178518
 20
5012.36962670805
 30
0.0
 11
9059.480607178521
 21
5012.36962670805
 31
0.0
  0
LINE
  5
16ABD
330
747D
100
AcDbEntity
  8
細線
100
AcDbLine
 10
8985.480607178521
 20
5035.36962670805
 30
0.0
 11
8911.480607178521
 21
5035.36962670805
 31
0.0
  0
LINE
  5
16ABE
330
747D
100
AcDbEntity
  8
細線
100
AcDbLine
 10
8911.480607178521
 20
5012.36962670805
 30
0.0
 11
8985.480607178521
 21
5012.36962670805
 31
0.0
  0
LINE
  5
16ABF
330
747D
100
AcDbEntity
  8
細線
100
AcDbLine
 10
9059.480607178521
 20
5035.36962670805
 30
0.0
 11
8985.480607178521
 21
5035.36962670805
 31
0.0
  0
LINE
  5
16AC0
330
747D
100
AcDbEntity
  8
細線
100
AcDbLine
 10
9059.480607178521
 20
5012.36962670805
 30
0.0
 11
9059.480607178521
 21
5035.36962670805
 31
0.0
  0
LINE
  5
16AC1
330
747D
100
AcDbEntity
  8
細線
100
AcDbLine
 10
8911.480607178521
 20
5035.36962670805
 30
0.0
 11
8911.480607178521
 21
5012.36962670805
 31
0.0
  0
LINE
  5
16AC2
330
747D
100
AcDbEntity
  8
部品1
 48
0.01
100
AcDbLine
 10
9075.480607178517
 20
5008.36962670805
 30
0.0
 11
9075.480607178521
 21
5039.86962670805
 31
0.0
  0
LINE
  5
16AC3
330
747D
100
AcDbEntity
  8
部品1
 48
0.01
100
AcDbLine
 10
8897.48060717852
 20
5006.36962670805
 30
0.0
 11
9073.480607178517
 21
5006.36962670805
 31
0.0
  0
LINE
  5
16AC4
330
747D
100
AcDbEntity
  8
部品1
 48
0.01
100
AcDbLine
 10
8895.480607178521
 20
5039.86962670805
 30
0.0
 11
8895.480607178521
 21
5008.36962670805
 31
0.0
  0
LINE
  5
16AC5
330
747D
100
AcDbEntity
  8
部品1
 48
0.01
100
AcDbLine
 10
9073.48060717852
 20
5041.86962670805
 30
0.0
 11
8897.48060717852
 21
5041.86962670805
 31
0.0
  0
LINE
  5
16AC6
330
747D
100
AcDbEntity
  8
細線
100
AcDbLine
 10
8911.480607178521
 20
5029.36962670805
 30
0.0
 11
8985.480607178521
 21
5029.36962670805
 31
0.0
  0
LINE
  5
16AC7
330
747D
100
AcDbEntity
  8
細線
100
AcDbLine
 10
8911.480607178521
 20
5023.36962670805
 30
0.0
 11
8985.480607178521
 21
5023.36962670805
 31
0.0
  0
LINE
  5
16AC8
330
747D
100
AcDbEntity
  8
細線
100
AcDbLine
 10
8911.480607178516
 20
5017.369626708051
 30
0.0
 11
8985.480607178521
 21
5017.369626708051
 31
0.0
  0
LINE
  5
16AC9
330
747D
100
AcDbEntity
  8
細線
100
AcDbLine
 10
8911.480607178521
 20
5029.36962670805
 30
0.0
 11
8980.48060717852
 21
5029.36962670805
 31
0.0
  0
LINE
  5
16ACA
330
747D
100
AcDbEntity
  8
細線
100
AcDbLine
 10
9059.480607178517
 20
5029.36962670805
 30
0.0
 11
8985.480607178521
 21
5029.36962670805
 31
0.0
  0
LINE
  5
16ACB
330
747D
100
AcDbEntity
  8
細線
100
AcDbLine
 10
9059.480607178517
 20
5017.369626708051
 30
0.0
 11
8985.480607178521
 21
5017.369626708051
 31
0.0
  0
LINE
  5
16ACC
330
747D
100
AcDbEntity
  8
細線
100
AcDbLine
 10
9059.480607178517
 20
5023.36962670805
 30
0.0
 11
8985.480607178521
 21
5023.36962670805
 31
0.0
  0
LINE
  5
16ACD
330
747D
100
AcDbEntity
  8
細線
100
AcDbLine
 10
8985.480607178521
 20
5035.36962670805
 30
0.0
 11
8985.480607178518
 21
5012.36962670805
 31
0.0
  0
ARC
  5
16ACE
330
747D
100
AcDbEntity
  8
部品1
 48
0.01
100
AcDbCircle
 10
7173.480607178517
 20
5008.36962670805
 30
0.0
 40
2.0
100
AcDbArc
 50
270.0
 51
0.0
  0
ARC
  5
16ACF
330
747D
100
AcDbEntity
  8
部品1
 48
0.01
100
AcDbCircle
 10
7173.48060717852
 20
5039.86962670805
 30
0.0
 40
2.0
100
AcDbArc
 50
0.0
 51
90.0
  0
ARC
  5
16AD0
330
747D
100
AcDbEntity
  8
部品1
 48
0.01
100
AcDbCircle
 10
6997.480607178521
 20
5008.36962670805
 30
0.0
 40
2.0
100
AcDbArc
 50
180.0
 51
270.0
  0
ARC
  5
16AD1
330
747D
100
AcDbEntity
  8
部品1
 48
0.01
100
AcDbCircle
 10
6997.480607178521
 20
5039.86962670805
 30
0.0
 40
2.0
100
AcDbArc
 50
90.0
 51
180.0
  0
LINE
  5
16AD2
330
747D
100
AcDbEntity
  8
細線
100
AcDbLine
 10
7085.480607178517
 20
5012.36962670805
 30
0.0
 11
7159.480607178521
 21
5012.36962670805
 31
0.0
  0
LINE
  5
16AD3
330
747D
100
AcDbEntity
  8
細線
100
AcDbLine
 10
7085.480607178521
 20
5035.36962670805
 30
0.0
 11
7011.480607178521
 21
5035.36962670805
 31
0.0
  0
LINE
  5
16AD4
330
747D
100
AcDbEntity
  8
細線
100
AcDbLine
 10
7011.480607178521
 20
5012.36962670805
 30
0.0
 11
7085.480607178521
 21
5012.36962670805
 31
0.0
  0
LINE
  5
16AD5
330
747D
100
AcDbEntity
  8
細線
100
AcDbLine
 10
7159.480607178521
 20
5035.36962670805
 30
0.0
 11
7085.480607178521
 21
5035.36962670805
 31
0.0
  0
LINE
  5
16AD6
330
747D
100
AcDbEntity
  8
細線
100
AcDbLine
 10
7159.480607178521
 20
5012.36962670805
 30
0.0
 11
7159.480607178521
 21
5035.36962670805
 31
0.0
  0
LINE
  5
16AD7
330
747D
100
AcDbEntity
  8
細線
100
AcDbLine
 10
7011.480607178521
 20
5035.36962670805
 30
0.0
 11
7011.480607178521
 21
5012.36962670805
 31
0.0
  0
LINE
  5
16AD8
330
747D
100
AcDbEntity
  8
部品1
 48
0.01
100
AcDbLine
 10
7175.480607178517
 20
5008.36962670805
 30
0.0
 11
7175.480607178521
 21
5039.86962670805
 31
0.0
  0
LINE
  5
16AD9
330
747D
100
AcDbEntity
  8
部品1
 48
0.01
100
AcDbLine
 10
6997.480607178521
 20
5006.36962670805
 30
0.0
 11
7173.480607178517
 21
5006.36962670805
 31
0.0
  0
LINE
  5
16ADA
330
747D
100
AcDbEntity
  8
部品1
 48
0.01
100
AcDbLine
 10
6995.480607178521
 20
5039.86962670805
 30
0.0
 11
6995.480607178521
 21
5008.36962670805
 31
0.0
  0
LINE
  5
16ADB
330
747D
100
AcDbEntity
  8
部品1
 48
0.01
100
AcDbLine
 10
7173.48060717852
 20
5041.86962670805
 30
0.0
 11
6997.480607178521
 21
5041.86962670805
 31
0.0
  0
LINE
  5
16ADC
330
747D
100
AcDbEntity
  8
細線
100
AcDbLine
 10
7011.480607178521
 20
5029.36962670805
 30
0.0
 11
7085.480607178521
 21
5029.36962670805
 31
0.0
  0
LINE
  5
16ADD
330
747D
100
AcDbEntity
  8
細線
100
AcDbLine
 10
7011.480607178521
 20
5023.36962670805
 30
0.0
 11
7085.480607178521
 21
5023.36962670805
 31
0.0
  0
LINE
  5
16ADE
330
747D
100
AcDbEntity
  8
細線
100
AcDbLine
 10
7011.480607178516
 20
5017.369626708051
 30
0.0
 11
7085.480607178521
 21
5017.369626708051
 31
0.0
  0
LINE
  5
16ADF
330
747D
100
AcDbEntity
  8
細線
100
AcDbLine
 10
7011.480607178521
 20
5029.36962670805
 30
0.0
 11
7080.480607178521
 21
5029.36962670805
 31
0.0
  0
LINE
  5
16AE0
330
747D
100
AcDbEntity
  8
細線
100
AcDbLine
 10
7159.480607178517
 20
5029.36962670805
 30
0.0
 11
7085.480607178521
 21
5029.36962670805
 31
0.0
  0
LINE
  5
16AE1
330
747D
100
AcDbEntity
  8
細線
100
AcDbLine
 10
7159.480607178517
 20
5017.369626708051
 30
0.0
 11
7085.480607178521
 21
5017.369626708051
 31
0.0
  0
LINE
  5
16AE2
330
747D
100
AcDbEntity
  8
細線
100
AcDbLine
 10
7159.480607178517
 20
5023.36962670805
 30
0.0
 11
7085.480607178521
 21
5023.36962670805
 31
0.0
  0
LINE
  5
16AE3
330
747D
100
AcDbEntity
  8
細線
100
AcDbLine
 10
7085.480607178521
 20
5035.36962670805
 30
0.0
 11
7085.480607178517
 21
5012.36962670805
 31
0.0
  0
LINE
  5
16AE4
330
747D
100
AcDbEntity
  8
細線
100
AcDbLine
 10
8035.48060717852
 20
5035.36962670805
 30
0.0
 11
8035.480607178518
 21
5012.36962670805
 31
0.0
  0
LINE
  5
16AE5
330
747D
100
AcDbEntity
  8
細線
100
AcDbLine
 10
8109.480607178516
 20
5023.36962670805
 30
0.0
 11
8035.48060717852
 21
5023.36962670805
 31
0.0
  0
LINE
  5
16AE6
330
747D
100
AcDbEntity
  8
細線
100
AcDbLine
 10
8109.480607178516
 20
5017.369626708051
 30
0.0
 11
8035.48060717852
 21
5017.369626708051
 31
0.0
  0
LINE
  5
16AE7
330
747D
100
AcDbEntity
  8
細線
100
AcDbLine
 10
8109.480607178516
 20
5029.36962670805
 30
0.0
 11
8035.48060717852
 21
5029.36962670805
 31
0.0
  0
LINE
  5
16AE8
330
747D
100
AcDbEntity
  8
細線
100
AcDbLine
 10
7961.480607178521
 20
5029.36962670805
 30
0.0
 11
8030.480607178521
 21
5029.36962670805
 31
0.0
  0
LINE
  5
16AE9
330
747D
100
AcDbEntity
  8
細線
100
AcDbLine
 10
7961.480607178517
 20
5017.369626708051
 30
0.0
 11
8035.48060717852
 21
5017.369626708051
 31
0.0
  0
LINE
  5
16AEA
330
747D
100
AcDbEntity
  8
細線
100
AcDbLine
 10
7961.480607178521
 20
5023.36962670805
 30
0.0
 11
8035.48060717852
 21
5023.36962670805
 31
0.0
  0
LINE
  5
16AEB
330
747D
100
AcDbEntity
  8
細線
100
AcDbLine
 10
7961.480607178521
 20
5029.36962670805
 30
0.0
 11
8035.48060717852
 21
5029.36962670805
 31
0.0
  0
LINE
  5
16AEC
330
747D
100
AcDbEntity
  8
部品1
 48
0.01
100
AcDbLine
 10
8123.480607178519
 20
5041.86962670805
 30
0.0
 11
7947.480607178521
 21
5041.86962670805
 31
0.0
  0
LINE
  5
16AED
330
747D
100
AcDbEntity
  8
部品1
 48
0.01
100
AcDbLine
 10
7945.480607178521
 20
5039.86962670805
 30
0.0
 11
7945.480607178521
 21
5008.36962670805
 31
0.0
  0
LINE
  5
16AEE
330
747D
100
AcDbEntity
  8
部品1
 48
0.01
100
AcDbLine
 10
7947.480607178521
 20
5006.36962670805
 30
0.0
 11
8123.480607178517
 21
5006.36962670805
 31
0.0
  0
LINE
  5
16AEF
330
747D
100
AcDbEntity
  8
部品1
 48
0.01
100
AcDbLine
 10
8125.480607178516
 20
5008.36962670805
 30
0.0
 11
8125.480607178522
 21
5039.86962670805
 31
0.0
  0
LINE
  5
16AF0
330
747D
100
AcDbEntity
  8
細線
100
AcDbLine
 10
7961.480607178521
 20
5035.36962670805
 30
0.0
 11
7961.480607178521
 21
5012.36962670805
 31
0.0
  0
LINE
  5
16AF1
330
747D
100
AcDbEntity
  8
細線
100
AcDbLine
 10
8109.480607178522
 20
5012.36962670805
 30
0.0
 11
8109.480607178522
 21
5035.36962670805
 31
0.0
  0
LINE
  5
16AF2
330
747D
100
AcDbEntity
  8
細線
100
AcDbLine
 10
8109.480607178522
 20
5035.36962670805
 30
0.0
 11
8035.48060717852
 21
5035.36962670805
 31
0.0
  0
LINE
  5
16AF3
330
747D
100
AcDbEntity
  8
細線
100
AcDbLine
 10
7961.480607178521
 20
5012.36962670805
 30
0.0
 11
8035.48060717852
 21
5012.36962670805
 31
0.0
  0
LINE
  5
16AF4
330
747D
100
AcDbEntity
  8
細線
100
AcDbLine
 10
8035.48060717852
 20
5035.36962670805
 30
0.0
 11
7961.480607178521
 21
5035.36962670805
 31
0.0
  0
LINE
  5
16AF5
330
747D
100
AcDbEntity
  8
細線
100
AcDbLine
 10
8035.480607178518
 20
5012.36962670805
 30
0.0
 11
8109.480607178522
 21
5012.36962670805
 31
0.0
  0
ARC
  5
16AF6
330
747D
100
AcDbEntity
  8
部品1
 48
0.01
100
AcDbCircle
 10
7947.480607178521
 20
5039.86962670805
 30
0.0
 40
2.0
100
AcDbArc
 50
90.0
 51
180.0
  0
ARC
  5
16AF7
330
747D
100
AcDbEntity
  8
部品1
 48
0.01
100
AcDbCircle
 10
7947.480607178521
 20
5008.36962670805
 30
0.0
 40
2.0
100
AcDbArc
 50
180.0
 51
270.0
  0
ARC
  5
16AF8
330
747D
100
AcDbEntity
  8
部品1
 48
0.01
100
AcDbCircle
 10
8123.480607178519
 20
5039.86962670805
 30
0.0
 40
2.0
100
AcDbArc
 50
0.0
 51
90.0
  0
ARC
  5
16AF9
330
747D
100
AcDbEntity
  8
部品1
 48
0.01
100
AcDbCircle
 10
8123.480607178517
 20
5008.36962670805
 30
0.0
 40
2.0
100
AcDbArc
 50
270.0
 51
0.0
  0
ARC
  5
16AFA
330
747D
100
AcDbEntity
  8
部品1
 48
0.01
100
AcDbCircle
 10
4323.480607178517
 20
5008.369626708052
 30
0.0
 40
2.0
100
AcDbArc
 50
270.0
 51
0.0
  0
ARC
  5
16AFB
330
747D
100
AcDbEntity
  8
部品1
 48
0.01
100
AcDbCircle
 10
4323.48060717852
 20
5039.869626708052
 30
0.0
 40
2.0
100
AcDbArc
 50
0.0
 51
90.0
  0
ARC
  5
16AFC
330
747D
100
AcDbEntity
  8
部品1
 48
0.01
100
AcDbCircle
 10
4147.480607178521
 20
5008.369626708052
 30
0.0
 40
2.0
100
AcDbArc
 50
180.0
 51
270.0
  0
ARC
  5
16AFD
330
747D
100
AcDbEntity
  8
部品1
 48
0.01
100
AcDbCircle
 10
4147.480607178521
 20
5039.869626708052
 30
0.0
 40
2.0
100
AcDbArc
 50
90.0
 51
180.0
  0
LINE
  5
16AFE
330
747D
100
AcDbEntity
  8
細線
100
AcDbLine
 10
4235.480607178517
 20
5012.369626708053
 30
0.0
 11
4309.48060717852
 21
5012.369626708053
 31
0.0
  0
LINE
  5
16AFF
330
747D
100
AcDbEntity
  8
細線
100
AcDbLine
 10
4235.48060717852
 20
5035.369626708052
 30
0.0
 11
4161.48060717852
 21
5035.369626708052
 31
0.0
  0
LINE
  5
16B00
330
747D
100
AcDbEntity
  8
細線
100
AcDbLine
 10
4161.48060717852
 20
5012.369626708053
 30
0.0
 11
4235.48060717852
 21
5012.369626708053
 31
0.0
  0
LINE
  5
16B01
330
747D
100
AcDbEntity
  8
細線
100
AcDbLine
 10
4309.48060717852
 20
5035.369626708052
 30
0.0
 11
4235.48060717852
 21
5035.369626708052
 31
0.0
  0
LINE
  5
16B02
330
747D
100
AcDbEntity
  8
細線
100
AcDbLine
 10
4309.48060717852
 20
5012.369626708053
 30
0.0
 11
4309.48060717852
 21
5035.369626708052
 31
0.0
  0
LINE
  5
16B03
330
747D
100
AcDbEntity
  8
細線
100
AcDbLine
 10
4161.48060717852
 20
5035.369626708052
 30
0.0
 11
4161.48060717852
 21
5012.369626708053
 31
0.0
  0
LINE
  5
16B04
330
747D
100
AcDbEntity
  8
部品1
 48
0.01
100
AcDbLine
 10
4325.480607178517
 20
5008.369626708052
 30
0.0
 11
4325.48060717852
 21
5039.869626708052
 31
0.0
  0
LINE
  5
16B05
330
747D
100
AcDbEntity
  8
部品1
 48
0.01
100
AcDbLine
 10
4147.480607178521
 20
5006.369626708052
 30
0.0
 11
4323.480607178517
 21
5006.369626708052
 31
0.0
  0
LINE
  5
16B06
330
747D
100
AcDbEntity
  8
部品1
 48
0.01
100
AcDbLine
 10
4145.48060717852
 20
5039.869626708052
 30
0.0
 11
4145.48060717852
 21
5008.369626708052
 31
0.0
  0
LINE
  5
16B07
330
747D
100
AcDbEntity
  8
部品1
 48
0.01
100
AcDbLine
 10
4323.48060717852
 20
5041.869626708052
 30
0.0
 11
4147.480607178521
 21
5041.869626708052
 31
0.0
  0
LINE
  5
16B08
330
747D
100
AcDbEntity
  8
細線
100
AcDbLine
 10
4161.48060717852
 20
5029.369626708052
 30
0.0
 11
4235.48060717852
 21
5029.369626708052
 31
0.0
  0
LINE
  5
16B09
330
747D
100
AcDbEntity
  8
細線
100
AcDbLine
 10
4161.48060717852
 20
5023.369626708053
 30
0.0
 11
4235.48060717852
 21
5023.369626708053
 31
0.0
  0
LINE
  5
16B0A
330
747D
100
AcDbEntity
  8
細線
100
AcDbLine
 10
4161.480607178517
 20
5017.369626708052
 30
0.0
 11
4235.48060717852
 21
5017.369626708052
 31
0.0
  0
LINE
  5
16B0B
330
747D
100
AcDbEntity
  8
細線
100
AcDbLine
 10
4161.48060717852
 20
5029.369626708052
 30
0.0
 11
4230.48060717852
 21
5029.369626708052
 31
0.0
  0
LINE
  5
16B0C
330
747D
100
AcDbEntity
  8
細線
100
AcDbLine
 10
4309.480607178516
 20
5029.369626708052
 30
0.0
 11
4235.48060717852
 21
5029.369626708052
 31
0.0
  0
LINE
  5
16B0D
330
747D
100
AcDbEntity
  8
細線
100
AcDbLine
 10
4309.480607178516
 20
5017.369626708052
 30
0.0
 11
4235.48060717852
 21
5017.369626708052
 31
0.0
  0
LINE
  5
16B0E
330
747D
100
AcDbEntity
  8
細線
100
AcDbLine
 10
4309.480607178516
 20
5023.369626708053
 30
0.0
 11
4235.48060717852
 21
5023.369626708053
 31
0.0
  0
LINE
  5
16B0F
330
747D
100
AcDbEntity
  8
細線
100
AcDbLine
 10
4235.48060717852
 20
5035.369626708052
 30
0.0
 11
4235.480607178517
 21
5012.369626708053
 31
0.0
  0
LINE
  5
16B10
330
747D
100
AcDbEntity
  8
細線
100
AcDbLine
 10
5185.48060717852
 20
5035.36962670805
 30
0.0
 11
5185.480607178517
 21
5012.36962670805
 31
0.0
  0
LINE
  5
16B11
330
747D
100
AcDbEntity
  8
細線
100
AcDbLine
 10
5259.480607178517
 20
5023.36962670805
 30
0.0
 11
5185.48060717852
 21
5023.36962670805
 31
0.0
  0
LINE
  5
16B12
330
747D
100
AcDbEntity
  8
細線
100
AcDbLine
 10
5259.480607178517
 20
5017.369626708051
 30
0.0
 11
5185.48060717852
 21
5017.369626708051
 31
0.0
  0
LINE
  5
16B13
330
747D
100
AcDbEntity
  8
細線
100
AcDbLine
 10
5259.480607178517
 20
5029.36962670805
 30
0.0
 11
5185.48060717852
 21
5029.36962670805
 31
0.0
  0
LINE
  5
16B14
330
747D
100
AcDbEntity
  8
細線
100
AcDbLine
 10
5111.480607178521
 20
5029.36962670805
 30
0.0
 11
5180.48060717852
 21
5029.36962670805
 31
0.0
  0
LINE
  5
16B15
330
747D
100
AcDbEntity
  8
細線
100
AcDbLine
 10
5111.480607178517
 20
5017.369626708051
 30
0.0
 11
5185.48060717852
 21
5017.369626708051
 31
0.0
  0
LINE
  5
16B16
330
747D
100
AcDbEntity
  8
細線
100
AcDbLine
 10
5111.480607178521
 20
5023.36962670805
 30
0.0
 11
5185.48060717852
 21
5023.36962670805
 31
0.0
  0
LINE
  5
16B17
330
747D
100
AcDbEntity
  8
細線
100
AcDbLine
 10
5111.480607178521
 20
5029.36962670805
 30
0.0
 11
5185.48060717852
 21
5029.36962670805
 31
0.0
  0
LINE
  5
16B18
330
747D
100
AcDbEntity
  8
部品1
 48
0.01
100
AcDbLine
 10
5273.48060717852
 20
5041.86962670805
 30
0.0
 11
5097.480607178521
 21
5041.86962670805
 31
0.0
  0
LINE
  5
16B19
330
747D
100
AcDbEntity
  8
部品1
 48
0.01
100
AcDbLine
 10
5095.480607178521
 20
5039.86962670805
 30
0.0
 11
5095.480607178521
 21
5008.36962670805
 31
0.0
  0
LINE
  5
16B1A
330
747D
100
AcDbEntity
  8
部品1
 48
0.01
100
AcDbLine
 10
5097.480607178521
 20
5006.36962670805
 30
0.0
 11
5273.480607178517
 21
5006.36962670805
 31
0.0
  0
LINE
  5
16B1B
330
747D
100
AcDbEntity
  8
部品1
 48
0.01
100
AcDbLine
 10
5275.480607178517
 20
5008.36962670805
 30
0.0
 11
5275.48060717852
 21
5039.86962670805
 31
0.0
  0
LINE
  5
16B1C
330
747D
100
AcDbEntity
  8
細線
100
AcDbLine
 10
5111.480607178521
 20
5035.36962670805
 30
0.0
 11
5111.480607178521
 21
5012.36962670805
 31
0.0
  0
LINE
  5
16B1D
330
747D
100
AcDbEntity
  8
細線
100
AcDbLine
 10
5259.48060717852
 20
5012.36962670805
 30
0.0
 11
5259.48060717852
 21
5035.36962670805
 31
0.0
  0
LINE
  5
16B1E
330
747D
100
AcDbEntity
  8
細線
100
AcDbLine
 10
5259.48060717852
 20
5035.36962670805
 30
0.0
 11
5185.48060717852
 21
5035.36962670805
 31
0.0
  0
LINE
  5
16B1F
330
747D
100
AcDbEntity
  8
細線
100
AcDbLine
 10
5111.480607178521
 20
5012.36962670805
 30
0.0
 11
5185.48060717852
 21
5012.36962670805
 31
0.0
  0
LINE
  5
16B20
330
747D
100
AcDbEntity
  8
細線
100
AcDbLine
 10
5185.48060717852
 20
5035.36962670805
 30
0.0
 11
5111.480607178521
 21
5035.36962670805
 31
0.0
  0
LINE
  5
16B21
330
747D
100
AcDbEntity
  8
細線
100
AcDbLine
 10
5185.480607178517
 20
5012.36962670805
 30
0.0
 11
5259.48060717852
 21
5012.36962670805
 31
0.0
  0
ARC
  5
16B22
330
747D
100
AcDbEntity
  8
部品1
 48
0.01
100
AcDbCircle
 10
5097.480607178521
 20
5039.86962670805
 30
0.0
 40
2.0
100
AcDbArc
 50
90.0
 51
180.0
  0
ARC
  5
16B23
330
747D
100
AcDbEntity
  8
部品1
 48
0.01
100
AcDbCircle
 10
5097.480607178521
 20
5008.36962670805
 30
0.0
 40
2.0
100
AcDbArc
 50
180.0
 51
270.0
  0
ARC
  5
16B24
330
747D
100
AcDbEntity
  8
部品1
 48
0.01
100
AcDbCircle
 10
5273.48060717852
 20
5039.86962670805
 30
0.0
 40
2.0
100
AcDbArc
 50
0.0
 51
90.0
  0
ARC
  5
16B25
330
747D
100
AcDbEntity
  8
部品1
 48
0.01
100
AcDbCircle
 10
5273.480607178517
 20
5008.36962670805
 30
0.0
 40
2.0
100
AcDbArc
 50
270.0
 51
0.0
  0
ARC
  5
16B26
330
747D
100
AcDbEntity
  8
部品1
 48
0.01
100
AcDbCircle
 10
6223.480607178517
 20
5008.36962670805
 30
0.0
 40
2.0
100
AcDbArc
 50
270.0
 51
0.0
  0
ARC
  5
16B27
330
747D
100
AcDbEntity
  8
部品1
 48
0.01
100
AcDbCircle
 10
6223.480607178521
 20
5039.86962670805
 30
0.0
 40
2.0
100
AcDbArc
 50
0.0
 51
90.0
  0
ARC
  5
16B28
330
747D
100
AcDbEntity
  8
部品1
 48
0.01
100
AcDbCircle
 10
6047.48060717852
 20
5008.36962670805
 30
0.0
 40
2.0
100
AcDbArc
 50
180.0
 51
270.0
  0
ARC
  5
16B29
330
747D
100
AcDbEntity
  8
部品1
 48
0.01
100
AcDbCircle
 10
6047.48060717852
 20
5039.86962670805
 30
0.0
 40
2.0
100
AcDbArc
 50
90.0
 51
180.0
  0
LINE
  5
16B2A
330
747D
100
AcDbEntity
  8
細線
100
AcDbLine
 10
6135.480607178517
 20
5012.36962670805
 30
0.0
 11
6209.48060717852
 21
5012.36962670805
 31
0.0
  0
LINE
  5
16B2B
330
747D
100
AcDbEntity
  8
細線
100
AcDbLine
 10
6135.480607178521
 20
5035.36962670805
 30
0.0
 11
6061.480607178521
 21
5035.36962670805
 31
0.0
  0
LINE
  5
16B2C
330
747D
100
AcDbEntity
  8
細線
100
AcDbLine
 10
6061.480607178521
 20
5012.36962670805
 30
0.0
 11
6135.480607178521
 21
5012.36962670805
 31
0.0
  0
LINE
  5
16B2D
330
747D
100
AcDbEntity
  8
細線
100
AcDbLine
 10
6209.48060717852
 20
5035.36962670805
 30
0.0
 11
6135.480607178521
 21
5035.36962670805
 31
0.0
  0
LINE
  5
16B2E
330
747D
100
AcDbEntity
  8
細線
100
AcDbLine
 10
6209.48060717852
 20
5012.36962670805
 30
0.0
 11
6209.48060717852
 21
5035.36962670805
 31
0.0
  0
LINE
  5
16B2F
330
747D
100
AcDbEntity
  8
細線
100
AcDbLine
 10
6061.480607178521
 20
5035.36962670805
 30
0.0
 11
6061.480607178521
 21
5012.36962670805
 31
0.0
  0
LINE
  5
16B30
330
747D
100
AcDbEntity
  8
部品1
 48
0.01
100
AcDbLine
 10
6225.480607178517
 20
5008.36962670805
 30
0.0
 11
6225.48060717852
 21
5039.86962670805
 31
0.0
  0
LINE
  5
16B31
330
747D
100
AcDbEntity
  8
部品1
 48
0.01
100
AcDbLine
 10
6047.48060717852
 20
5006.36962670805
 30
0.0
 11
6223.480607178517
 21
5006.36962670805
 31
0.0
  0
LINE
  5
16B32
330
747D
100
AcDbEntity
  8
部品1
 48
0.01
100
AcDbLine
 10
6045.480607178521
 20
5039.86962670805
 30
0.0
 11
6045.480607178521
 21
5008.36962670805
 31
0.0
  0
LINE
  5
16B33
330
747D
100
AcDbEntity
  8
部品1
 48
0.01
100
AcDbLine
 10
6223.480607178521
 20
5041.86962670805
 30
0.0
 11
6047.48060717852
 21
5041.86962670805
 31
0.0
  0
LINE
  5
16B34
330
747D
100
AcDbEntity
  8
細線
100
AcDbLine
 10
6061.480607178521
 20
5029.36962670805
 30
0.0
 11
6135.480607178521
 21
5029.36962670805
 31
0.0
  0
LINE
  5
16B35
330
747D
100
AcDbEntity
  8
細線
100
AcDbLine
 10
6061.480607178521
 20
5023.36962670805
 30
0.0
 11
6135.480607178521
 21
5023.36962670805
 31
0.0
  0
LINE
  5
16B36
330
747D
100
AcDbEntity
  8
細線
100
AcDbLine
 10
6061.480607178516
 20
5017.369626708051
 30
0.0
 11
6135.480607178521
 21
5017.369626708051
 31
0.0
  0
LINE
  5
16B37
330
747D
100
AcDbEntity
  8
細線
100
AcDbLine
 10
6061.480607178521
 20
5029.36962670805
 30
0.0
 11
6130.480607178521
 21
5029.36962670805
 31
0.0
  0
LINE
  5
16B38
330
747D
100
AcDbEntity
  8
細線
100
AcDbLine
 10
6209.480607178517
 20
5029.36962670805
 30
0.0
 11
6135.480607178521
 21
5029.36962670805
 31
0.0
  0
LINE
  5
16B39
330
747D
100
AcDbEntity
  8
細線
100
AcDbLine
 10
6209.480607178517
 20
5017.369626708051
 30
0.0
 11
6135.480607178521
 21
5017.369626708051
 31
0.0
  0
LINE
  5
16B3A
330
747D
100
AcDbEntity
  8
細線
100
AcDbLine
 10
6209.480607178517
 20
5023.36962670805
 30
0.0
 11
6135.480607178521
 21
5023.36962670805
 31
0.0
  0
LINE
  5
16B3B
330
747D
100
AcDbEntity
  8
細線
100
AcDbLine
 10
6135.480607178521
 20
5035.36962670805
 30
0.0
 11
6135.480607178517
 21
5012.36962670805
 31
0.0
  0
LINE
  5
16B3C
330
747D
100
AcDbEntity
  8
部品1
100
AcDbLine
 10
9510.060946163191
 20
5203.473101312816
 30
0.0
 11
9508.927548830845
 21
5183.496973330217
 31
0.0
  0
LINE
  5
16B3D
330
747D
100
AcDbEntity
  8
細線
 48
50.0
100
AcDbLine
 10
9477.480607178526
 20
5210.869626708056
 30
0.0
 11
9477.480607178526
 21
5069.869626708055
 31
0.0
  0
LINE
  5
16B3E
330
747D
100
AcDbEntity
  8
部品1
100
AcDbLine
 10
9497.490528509269
 20
5087.839566163158
 30
0.0
 11
9496.845622702156
 21
5076.473101312818
 31
0.0
  0
LINE
  5
16B3F
330
747D
100
AcDbEntity
  8
部品1
100
AcDbLine
 10
9505.726559034112
 20
5180.039566163159
 30
0.0
 11
9500.691518306002
 21
5091.296973330216
 31
0.0
  0
ARC
  5
16B40
330
747D
100
AcDbEntity
  8
部品1
 48
50.0
100
AcDbCircle
 10
9508.721741930298
 20
5179.869626708057
 30
0.0
 40
3.0
100
AcDbArc
 50
97.65812720736519
 51
176.7526572096682
  0
ARC
  5
16B41
330
747D
100
AcDbEntity
  8
部品1
 48
50.0
100
AcDbCircle
 10
9500.485711405454
 20
5087.669626708056
 30
0.0
 40
3.0
100
AcDbArc
 50
97.65812720736519
 51
176.7526572096682
  0
ARC
  5
16B42
330
747D
100
AcDbEntity
  8
部品1
 48
50.0
100
AcDbCircle
 10
9499.992642296893
 20
5091.336625869739
 30
0.0
 40
0.7
100
AcDbArc
 50
277.6581272073652
 51
356.7526572097202
  0
ARC
  5
16B43
330
747D
100
AcDbEntity
  8
部品1
 48
50.0
100
AcDbCircle
 10
9508.228672821736
 20
5183.536625869743
 30
0.0
 40
0.7
100
AcDbArc
 50
277.6581272073652
 51
356.7526572096162
  0
ARC
  5
16B44
330
747D
100
AcDbEntity
  8
部品1
100
AcDbCircle
 10
9489.856862611057
 20
5076.869626708058
 30
0.0
 40
7.0
100
AcDbArc
 50
270.0
 51
356.7526572096682
  0
ARC
  5
16B45
330
747D
100
AcDbEntity
  8
部品1
100
AcDbCircle
 10
9503.072186072092
 20
5203.869626708056
 30
0.0
 40
7.0
100
AcDbArc
 50
356.7526572096682
 51
90.0
  0
DIMENSION
  5
16B46
330
747D
100
AcDbEntity
  8
寸法
 48
50.0
100
AcDbDimension
  2
*D37
 10
9460.480607178524
 20
5423.411211966296
 30
0.0
 11
9823.965888552761
 21
5423.411211966296
 31
0.0
 70
   160
 71
     5
 42
50.0
  3
INABA_S40G
100
AcDbAlignedDimension
 13
9510.480607178525
 23
5210.869626708056
 33
0.0
 14
9460.480607178524
 24
5210.869626708057
 34
0.0
100
AcDbRotatedDimension
  0
LINE
  5
16B47
330
747D
100
AcDbEntity
  8
部品1
 48
50.0
100
AcDbLine
 10
9503.072186072092
 20
5210.869626708062
 30
0.0
 11
3717.88902828495
 21
5210.869626708056
 31
0.0
  0
LINE
  5
16B48
330
747D
100
AcDbEntity
  8
細線
 48
50.0
100
AcDbLine
 10
9508.321956165394
 20
5182.842869271362
 30
0.0
 11
3712.639258188934
 21
5182.842869272056
 31
0.0
  0
LINE
  5
16B49
330
747D
100
AcDbEntity
  8
細線
 48
50.0
100
AcDbLine
 10
9500.085925640631
 20
5090.642869271369
 30
0.0
 11
3720.875288713767
 21
5090.642869272055
 31
0.0
  0
LINE
  5
16B4A
330
747D
100
AcDbEntity
  8
部品1
 48
50.0
100
AcDbLine
 10
9489.856862611057
 20
5069.869626708057
 30
0.0
 11
3731.104351745984
 21
5069.869626708058
 31
0.0
  0
LINE
  5
16B4B
330
747D
100
AcDbEntity
  8
細線
 48
50.0
100
AcDbLine
 10
3743.480607178521
 20
5210.86962670806
 30
0.0
 11
3743.480607178521
 21
5069.869626708058
 31
0.0
  0
ARC
  5
16B4C
330
747D
100
AcDbEntity
  8
部品1
100
AcDbCircle
 10
3717.88902828495
 20
5203.869626708059
 30
0.0
 40
7.0
100
AcDbArc
 50
90.0
 51
183.2473427903317
  0
ARC
  5
16B4D
330
747D
100
AcDbEntity
  8
部品1
100
AcDbCircle
 10
3731.104351745984
 20
5076.869626708061
 30
0.0
 40
7.0
100
AcDbArc
 50
183.2473427903317
 51
270.0
  0
ARC
  5
16B4E
330
747D
100
AcDbEntity
  8
部品1
 48
50.0
100
AcDbCircle
 10
3712.732541535308
 20
5183.536625869747
 30
0.0
 40
0.7
100
AcDbArc
 50
183.2473427903838
 51
262.3418727926349
  0
ARC
  5
16B4F
330
747D
100
AcDbEntity
  8
部品1
 48
50.0
100
AcDbCircle
 10
3720.968572060149
 20
5091.336625869742
 30
0.0
 40
0.7
100
AcDbArc
 50
183.2473427902797
 51
262.3418727926349
  0
ARC
  5
16B50
330
747D
100
AcDbEntity
  8
部品1
 48
50.0
100
AcDbCircle
 10
3720.475502951587
 20
5087.669626708059
 30
0.0
 40
3.0
100
AcDbArc
 50
3.247342790331777
 51
82.3418727926348
  0
ARC
  5
16B51
330
747D
100
AcDbEntity
  8
部品1
 48
50.0
100
AcDbCircle
 10
3712.239472426744
 20
5179.869626708061
 30
0.0
 40
3.0
100
AcDbArc
 50
3.247342790331777
 51
82.3418727926348
  0
LINE
  5
16B52
330
747D
100
AcDbEntity
  8
部品1
100
AcDbLine
 10
3715.234655322929
 20
5180.039566163163
 30
0.0
 11
3720.26969605104
 21
5091.296973330219
 31
0.0
  0
LINE
  5
16B53
330
747D
100
AcDbEntity
  8
部品1
100
AcDbLine
 10
3723.470685847777
 20
5087.839566163162
 30
0.0
 11
3724.115591654885
 21
5076.473101312821
 31
0.0
  0
LINE
  5
16B54
330
747D
100
AcDbEntity
  8
部品1
100
AcDbLine
 10
3710.900268193852
 20
5203.47310131282
 30
0.0
 11
3712.0336655262
 21
5183.496973330221
 31
0.0
  0
DIMENSION
  5
16B55
330
747D
100
AcDbEntity
  8
寸法
 48
50.0
100
AcDbDimension
  2
*D38
 10
3710.480607178521
 20
5423.4112119663
 30
0.0
 11
3396.995325804274
 21
5423.4112119663
 31
0.0
 70
   160
 71
     5
 42
50.0
  3
INABA_S40G
100
AcDbAlignedDimension
 13
3760.480607178521
 23
5210.869626708063
 33
0.0
 14
3710.480607178521
 24
5210.869626708062
 34
0.0
100
AcDbRotatedDimension
1001
ACAD
1000
DSTYLE
1002
{
1002
}
  0
DIMENSION
  5
16B56
330
747D
100
AcDbEntity
  8
寸法
 48
50.0
100
AcDbDimension
  2
*D39
 10
9510.480607178525
 20
5646.368190404148
 30
0.0
 11
6610.480607178512
 21
5646.368190404148
 31
0.0
 70
   160
 71
     5
 42
5800.000000000004
  3
INABA_S40G
100
AcDbAlignedDimension
 13
3710.480607178521
 23
5210.869626708062
 33
0.0
 14
9510.480607178525
 24
5210.869626708056
 34
0.0
100
AcDbRotatedDimension
  0
DIMENSION
  5
16B57
330
747D
100
AcDbEntity
  8
寸法
 48
50.0
100
AcDbDimension
  2
*D40
 10
3760.480607178521
 20
5423.4112119663
 30
0.0
 11
6610.480607178512
 21
5423.4112119663
 31
0.0
 70
   160
  1
柱外寸法<>
 71
     5
 42
5700.000000000003
  3
INABA_S40G
100
AcDbAlignedDimension
 13
9460.480607178524
 23
5210.869626708057
 33
0.0
 14
3760.480607178521
 24
5210.869626708063
 34
0.0
100
AcDbRotatedDimension
  0
LWPOLYLINE
  5
16B58
330
747D
100
AcDbEntity
  8
部品1
100
AcDbPolyline
 90
        4
 70
     1
 43
0.0
 10
6228.745274064293
 20
2432.793045891338
 10
6228.745274064293
 20
2192.900724345806
 10
6992.215940292734
 20
2192.900724345806
 10
6992.215940292734
 20
2432.793045891338
  0
TEXT
  5
16B59
330
747D
100
AcDbEntity
  8
部品1
100
AcDbText
 10
6319.27067780225
 20
2239.899516672813
 30
0.0
 40
135.0
  1
正面図
  7
STYLE2
100
AcDbText
  0
LINE
  5
16BA2
330
747D
100
AcDbEntity
  8
細線
100
AcDbLine
 10
4793.48060717852
 20
4121.869118809493
 30
0.0
 11
4780.717279962553
 21
4121.869118809493
 31
0.0
  0
CIRCLE
  5
16BA3
330
747D
100
AcDbEntity
  8
細線
 48
50.0
100
AcDbCircle
 10
4800.981472233014
 20
4178.369626708054
 30
0.0
 40
20.0
  0
LINE
  5
16BA4
330
747D
100
AcDbEntity
  8
細線
100
AcDbLine
 10
4820.48060717852
 20
4136.369626708054
 30
0.0
 11
4781.313988709274
 21
4136.369626708054
 31
0.0
  0
ARC
  5
16BA5
330
747D
100
AcDbEntity
  8
細線
100
AcDbCircle
 10
4815.480607178521
 20
4121.869626708053
 30
0.0
 40
6.0
100
AcDbArc
 50
0.0
 51
90.0
  0
ARC
  5
16BA6
330
747D
100
AcDbEntity
  8
部品1
100
AcDbCircle
 10
4821.480607178521
 20
4131.869626708054
 30
0.0
 40
6.0
100
AcDbArc
 50
0.0
 51
90.0
  0
ARC
  5
16BA7
330
747D
100
AcDbEntity
  8
細線
100
AcDbCircle
 10
4820.48060717852
 20
4130.869626708054
 30
0.0
 40
5.5
100
AcDbArc
 50
0.0
 51
90.0
  0
CIRCLE
  5
16BA8
330
747D
100
AcDbEntity
  8
細線
 48
50.0
100
AcDbCircle
 10
4800.981472233014
 20
4178.369626708054
 30
0.0
 40
10.0
  0
ARC
  5
16BA9
330
747D
100
AcDbEntity
  8
細線
100
AcDbCircle
 10
4805.688146357266
 20
4118.869626708054
 30
0.0
 40
6.0
100
AcDbArc
 50
0.0
 51
90.0
  0
LINE
  5
16BAA
330
747D
100
AcDbEntity
  8
細線
100
AcDbLine
 10
4805.688146357266
 20
4124.869626708053
 30
0.0
 11
4793.48060717852
 21
4124.869626708053
 31
0.0
  0
ARC
  5
16BAB
330
747D
100
AcDbEntity
  8
細線
100
AcDbCircle
 10
4794.975031088354
 20
4118.869626708054
 30
0.0
 40
3.0
100
AcDbArc
 50
8.099550838235547
 51
90.0
  0
LINE
  5
16BAC
330
747D
100
AcDbEntity
  8
細線
100
AcDbLine
 10
4794.975031088354
 20
4121.869626708053
 30
0.0
 11
4793.48060717852
 21
4121.869626708053
 31
0.0
  0
LINE
  5
16BAD
330
747D
100
AcDbEntity
  8
細線
100
AcDbLine
 10
4815.480607178521
 20
4127.869626708053
 30
0.0
 11
4784.861563542998
 21
4127.869626708053
 31
0.0
  0
ARC
  5
16BAE
330
747D
100
AcDbEntity
  8
部品1
100
AcDbCircle
 10
4780.482337287505
 20
4131.869626708054
 30
0.0
 40
6.0
100
AcDbArc
 50
90.0
 51
169.4161974034797
  0
ARC
  5
16BAF
330
747D
100
AcDbEntity
  8
細線
100
AcDbCircle
 10
4784.861563542998
 20
4121.869626708053
 30
0.0
 40
6.0
100
AcDbArc
 50
90.0
 51
171.2120626773417
  0
LINE
  5
16BB0
330
747D
100
AcDbEntity
  8
部品1
100
AcDbLine
 10
4821.480607178521
 20
4137.869626708054
 30
0.0
 11
4780.482337287505
 21
4137.869626708054
 31
0.0
  0
ARC
  5
16BB1
330
747D
100
AcDbEntity
  8
細線
100
AcDbCircle
 10
4781.313988709274
 20
4130.869626708054
 30
0.0
 40
5.5
100
AcDbArc
 50
90.0
 51
169.5785490272547
  0
LINE
  5
16BB2
330
747D
100
AcDbEntity
  8
細線
100
AcDbLine
 10
4781.313988709274
 20
4019.369626708054
 30
0.0
 11
4820.48060717852
 21
4019.369626708054
 31
0.0
  0
ARC
  5
16BB3
330
747D
100
AcDbEntity
  8
細線
100
AcDbCircle
 10
4815.480607178521
 20
4033.869626708054
 30
0.0
 40
6.0
100
AcDbArc
 50
270.0
 51
0.0
  0
ARC
  5
16BB4
330
747D
100
AcDbEntity
  8
部品1
100
AcDbCircle
 10
4821.480607178521
 20
4023.869626708054
 30
0.0
 40
6.0
100
AcDbArc
 50
270.0
 51
0.0
  0
ARC
  5
16BB5
330
747D
100
AcDbEntity
  8
細線
100
AcDbCircle
 10
4820.48060717852
 20
4024.869626708054
 30
0.0
 40
5.5
100
AcDbArc
 50
270.0
 51
0.0
  0
ARC
  5
16BB6
330
747D
100
AcDbEntity
  8
細線
100
AcDbCircle
 10
4805.688146357266
 20
4036.869626708054
 30
0.0
 40
6.0
100
AcDbArc
 50
270.0
 51
0.0
  0
LINE
  5
16BB7
330
747D
100
AcDbEntity
  8
細線
100
AcDbLine
 10
4793.48060717852
 20
4030.869626708054
 30
0.0
 11
4805.688146357266
 21
4030.869626708054
 31
0.0
  0
ARC
  5
16BB8
330
747D
100
AcDbEntity
  8
細線
100
AcDbCircle
 10
4794.975031088355
 20
4036.869626708054
 30
0.0
 40
3.0
100
AcDbArc
 50
270.0
 51
351.9004491617129
  0
LINE
  5
16BB9
330
747D
100
AcDbEntity
  8
細線
100
AcDbLine
 10
4793.48060717852
 20
4033.869626708054
 30
0.0
 11
4794.975031088355
 21
4033.869626708054
 31
0.0
  0
LINE
  5
16BBA
330
747D
100
AcDbEntity
  8
細線
100
AcDbLine
 10
4784.861563542998
 20
4027.869626708054
 30
0.0
 11
4815.480607178521
 21
4027.869626708054
 31
0.0
  0
ARC
  5
16BBB
330
747D
100
AcDbEntity
  8
部品1
100
AcDbCircle
 10
4780.482337287505
 20
4023.869626708054
 30
0.0
 40
6.0
100
AcDbArc
 50
190.5838025965202
 51
270.0
  0
ARC
  5
16BBC
330
747D
100
AcDbEntity
  8
細線
100
AcDbCircle
 10
4784.861563542998
 20
4033.869626708054
 30
0.0
 40
6.0
100
AcDbArc
 50
188.7879373226583
 51
270.0
  0
LINE
  5
16BBD
330
747D
100
AcDbEntity
  8
細線
100
AcDbLine
 10
4793.48060717852
 20
4033.870134606617
 30
0.0
 11
4780.001902679698
 21
4033.870134606617
 31
0.0
  0
LINE
  5
16BBE
330
747D
100
AcDbEntity
  8
部品1
100
AcDbLine
 10
4780.482337287505
 20
4017.869626708054
 30
0.0
 11
4821.480607178521
 21
4017.869626708054
 31
0.0
  0
ARC
  5
16BBF
330
747D
100
AcDbEntity
  8
細線
100
AcDbCircle
 10
4781.313988709274
 20
4024.869626708054
 30
0.0
 40
5.5
100
AcDbArc
 50
190.4214509727453
 51
270.0
  0
LINE
  5
16BC0
330
747D
100
AcDbEntity
  8
部品1
100
AcDbLine
 10
4827.480607178521
 20
4023.869626708054
 30
0.0
 11
4827.480607178521
 21
4131.869626708054
 31
0.0
  0
LINE
  5
16BC1
330
747D
100
AcDbEntity
  8
細線
100
AcDbLine
 10
4825.980607178521
 20
4024.869626708054
 30
0.0
 11
4825.980607178521
 21
4130.869626708054
 31
0.0
  0
LINE
  5
16BC2
330
747D
100
AcDbEntity
  8
細線
100
AcDbLine
 10
4821.480607178521
 20
4033.869626708054
 30
0.0
 11
4821.480607178521
 21
4121.869626708053
 31
0.0
  0
ARC
  5
16BC3
330
747D
100
AcDbEntity
  8
細線
100
AcDbCircle
 10
4506.877825270596
 20
4077.869626708054
 30
0.0
 40
294.0
100
AcDbArc
 50
351.9004491617645
 51
8.099550838235547
  0
LINE
  5
16BC4
330
747D
100
AcDbEntity
  8
細線
100
AcDbLine
 10
4793.48060717852
 20
4127.869626708053
 30
0.0
 11
4793.48060717852
 21
4027.869626708054
 31
0.0
  0
LINE
  5
16BC5
330
747D
100
AcDbEntity
  8
細線
100
AcDbLine
 10
4811.688146357266
 20
4036.869626708054
 30
0.0
 11
4811.688146357266
 21
4118.869626708054
 31
0.0
  0
ARC
  5
16BC6
330
747D
100
AcDbEntity
  8
細線
100
AcDbCircle
 10
5069.480607178521
 20
4077.869626708054
 30
0.0
 40
294.0
100
AcDbArc
 50
171.2120626773417
 51
188.7879373226583
  0
ARC
  5
16BC7
330
747D
100
AcDbEntity
  8
細線
100
AcDbCircle
 10
5069.480607178521
 20
4077.869626708054
 30
0.0
 40
298.5
100
AcDbArc
 50
169.5785490272547
 51
190.4214509727453
  0
ARC
  5
16BC8
330
747D
100
AcDbEntity
  8
部品1
100
AcDbCircle
 10
5069.480607178521
 20
4077.869626708054
 30
0.0
 40
300.0
100
AcDbArc
 50
169.4161974034797
 51
190.5838025965202
  0
LINE
  5
16BC9
330
747D
100
AcDbEntity
  8
部品1
100
AcDbLine
 10
4535.418159349839
 20
4973.369626708056
 30
0.0
 11
4535.48060717852
 21
4973.369626708054
 31
0.0
  0
ARC
  5
16BCA
330
747D
100
AcDbEntity
  8
細線
 48
0.2
100
AcDbCircle
 10
4532.418159349839
 20
4973.590136539304
 30
0.0
 40
1.0
100
AcDbArc
 50
0.0
 51
73.39845040101522
  0
LINE
  5
16BCB
330
747D
100
AcDbEntity
  8
細線
 48
50.0
100
AcDbLine
 10
4515.41815934984
 20
4973.369626708056
 30
0.0
 11
4515.41815934984
 21
4973.619626708056
 31
0.0
  0
ARC
  5
16BCC
330
747D
100
AcDbEntity
  8
細線
 48
0.2
100
AcDbCircle
 10
4522.41815934984
 20
4973.590136539304
 30
0.0
 40
1.0
100
AcDbArc
 50
106.6015495989848
 51
180.0
  0
LINE
  5
16BCD
330
747D
100
AcDbEntity
  8
細線
 48
0.2
100
AcDbLine
 10
4535.418159349839
 20
4973.619626708056
 30
0.0
 11
4515.41815934984
 21
4973.619626708056
 31
0.0
  0
LINE
  5
16BCE
330
747D
100
AcDbEntity
  8
細線
 48
0.2
100
AcDbLine
 10
4535.418159349839
 20
4971.119626708055
 30
0.0
 11
4515.41815934984
 21
4971.119626708055
 31
0.0
  0
ARC
  5
16BCF
330
747D
100
AcDbEntity
  8
細線
 48
0.2
100
AcDbCircle
 10
4527.418159349839
 20
4956.819626708059
 30
0.0
 40
18.49999999999796
100
AcDbArc
 50
73.39845040101522
 51
106.6015495989848
  0
LINE
  5
16BD0
330
747D
100
AcDbEntity
  8
細線
 48
0.2
100
AcDbLine
 10
4533.102150646348
 20
4974.319626708057
 30
0.0
 11
4521.734168053336
 21
4974.319626708057
 31
0.0
  0
LINE
  5
16BD1
330
747D
100
AcDbEntity
  8
細線
 48
0.2
100
AcDbLine
 10
4535.418159349839
 20
4969.119626708056
 30
0.0
 11
4515.41815934984
 21
4969.119626708056
 31
0.0
  0
LINE
  5
16BD2
330
747D
100
AcDbEntity
  8
部品1
 48
0.2
100
AcDbLine
 10
4535.418159349839
 20
4966.619626708055
 30
0.0
 11
4515.41815934984
 21
4966.619626708055
 31
0.0
  0
LINE
  5
16BD3
330
747D
100
AcDbEntity
  8
部品1
 48
50.0
100
AcDbLine
 10
4515.41815934984
 20
4966.619626708055
 30
0.0
 11
4515.41815934984
 21
4973.369626708056
 31
0.0
  0
LINE
  5
16BD4
330
747D
100
AcDbEntity
  8
細線
 48
50.0
100
AcDbLine
 10
4523.555402155536
 20
4971.119626708055
 30
0.0
 11
4523.555402155536
 21
4969.119626708056
 31
0.0
  0
LINE
  5
16BD5
330
747D
100
AcDbEntity
  8
細線
 48
0.1
100
AcDbLine
 10
4535.418159349839
 20
4973.619626708056
 30
0.0
 11
4535.418159349839
 21
4966.619626708055
 31
0.0
  0
LINE
  5
16BD6
330
747D
100
AcDbEntity
  8
細線
 48
50.0
100
AcDbLine
 10
4531.4058122015
 20
4971.119626708055
 30
0.0
 11
4531.4058122015
 21
4969.119626708056
 31
0.0
  0
LINE
  5
16BD7
330
747D
100
AcDbEntity
  8
部品1
100
AcDbLine
 10
3805.480607178521
 20
4973.369626708056
 30
0.0
 11
4515.41815934984
 21
4973.369626708056
 31
0.0
  0
LINE
  5
16BD8
330
747D
100
AcDbEntity
  8
部品1
 48
0.2
100
AcDbLine
 10
4535.418159349839
 20
3189.119626708072
 30
0.0
 11
4515.41815934984
 21
3189.119626708072
 31
0.0
  0
LINE
  5
16BD9
330
747D
100
AcDbEntity
  8
細線
 48
0.2
100
AcDbLine
 10
4535.418159349839
 20
3186.619626708072
 30
0.0
 11
4515.41815934984
 21
3186.619626708072
 31
0.0
  0
LINE
  5
16BDA
330
747D
100
AcDbEntity
  8
部品1
100
AcDbLine
 10
4535.418159349839
 20
3182.369626708065
 30
0.0
 11
4535.48060717852
 21
3182.369626708065
 31
0.0
  0
LINE
  5
16BDB
330
747D
100
AcDbEntity
  8
部品1
100
AcDbLine
 10
4535.418159349839
 20
3182.369626708074
 30
0.0
 11
4535.48060717852
 21
3182.369626708074
 31
0.0
  0
ARC
  5
16BDC
330
747D
100
AcDbEntity
  8
細線
 48
0.2
100
AcDbCircle
 10
4532.418159349839
 20
3182.149116876825
 30
0.0
 40
1.0
100
AcDbArc
 50
286.6015495989848
 51
0.0
  0
LINE
  5
16BDD
330
747D
100
AcDbEntity
  8
細線
 48
50.0
100
AcDbLine
 10
4515.41815934984
 20
3182.369626708074
 30
0.0
 11
4515.41815934984
 21
3182.119626708072
 31
0.0
  0
ARC
  5
16BDE
330
747D
100
AcDbEntity
  8
細線
 48
0.2
100
AcDbCircle
 10
4522.41815934984
 20
3182.149116876825
 30
0.0
 40
1.0
100
AcDbArc
 50
180.0
 51
253.3984504010152
  0
LINE
  5
16BDF
330
747D
100
AcDbEntity
  8
細線
 48
0.2
100
AcDbLine
 10
4533.102150646348
 20
3181.419626708072
 30
0.0
 11
4521.734168053336
 21
3181.419626708072
 31
0.0
  0
ARC
  5
16BE0
330
747D
100
AcDbEntity
  8
細線
 48
0.2
100
AcDbCircle
 10
4527.418159349839
 20
3198.91962670807
 30
0.0
 40
18.49999999999796
100
AcDbArc
 50
253.3984504010152
 51
286.6015495989848
  0
LINE
  5
16BE1
330
747D
100
AcDbEntity
  8
細線
 48
0.2
100
AcDbLine
 10
4535.418159349839
 20
3184.619626708073
 30
0.0
 11
4515.41815934984
 21
3184.619626708074
 31
0.0
  0
LINE
  5
16BE2
330
747D
100
AcDbEntity
  8
細線
 48
0.2
100
AcDbLine
 10
4535.418159349839
 20
3182.119626708072
 30
0.0
 11
4515.41815934984
 21
3182.119626708072
 31
0.0
  0
LINE
  5
16BE3
330
747D
100
AcDbEntity
  8
細線
 48
50.0
100
AcDbLine
 10
4531.4058122015
 20
3184.619626708074
 30
0.0
 11
4531.4058122015
 21
3186.619626708072
 31
0.0
  0
LINE
  5
16BE4
330
747D
100
AcDbEntity
  8
細線
 48
0.1
100
AcDbLine
 10
4535.418159349839
 20
3182.119626708072
 30
0.0
 11
4535.418159349839
 21
3189.119626708072
 31
0.0
  0
LINE
  5
16BE5
330
747D
100
AcDbEntity
  8
部品1
 48
50.0
100
AcDbLine
 10
4515.41815934984
 20
3189.119626708072
 30
0.0
 11
4515.41815934984
 21
3182.369626708074
 31
0.0
  0
LINE
  5
16BE6
330
747D
100
AcDbEntity
  8
細線
 48
50.0
100
AcDbLine
 10
4523.555402155536
 20
3184.619626708074
 30
0.0
 11
4523.555402155536
 21
3186.619626708072
 31
0.0
  0
LINE
  5
16BE7
330
747D
100
AcDbEntity
  8
部品1
100
AcDbLine
 10
3805.480607178521
 20
3182.36962670806
 30
0.0
 11
4515.41815934984
 21
3182.369626708074
 31
0.0
  0
LINE
  5
16BE8
330
747D
100
AcDbEntity
  8
部品1
100
AcDbLine
 10
4753.48060717852
 20
4975.869626708054
 30
0.0
 11
4753.48060717852
 21
3178.869626708074
 31
0.0
  0
LINE
  5
16BE9
330
747D
100
AcDbEntity
  8
部品1
100
AcDbLine
 10
4755.480607178521
 20
4973.369626708054
 30
0.0
 11
4755.480607178521
 21
3182.369626708069
 31
0.0
  0
LINE
  5
16BEA
330
747D
100
AcDbEntity
  8
部品1
100
AcDbLine
 10
4535.480607178519
 20
4973.369626708054
 30
0.0
 11
4535.48060717852
 21
3182.369626708074
 31
0.0
  0
LINE
  5
16BEB
330
747D
100
AcDbEntity
  8
部品1
100
AcDbLine
 10
4667.480607178521
 20
4975.869626708054
 30
0.0
 11
4667.480607178521
 21
3178.869626708074
 31
0.0
  0
LINE
  5
16BEC
330
747D
100
AcDbEntity
  8
部品1
100
AcDbLine
 10
4537.480607178521
 20
4975.869626708054
 30
0.0
 11
4537.480607178521
 21
3178.869626708074
 31
0.0
  0
LINE
  5
16BED
330
747D
100
AcDbEntity
  8
部品1
100
AcDbLine
 10
5485.41815934984
 20
4973.369626708056
 30
0.0
 11
5485.48060717852
 21
4973.369626708054
 31
0.0
  0
ARC
  5
16BEE
330
747D
100
AcDbEntity
  8
細線
 48
0.2
100
AcDbCircle
 10
5482.41815934984
 20
4973.590136539304
 30
0.0
 40
1.0
100
AcDbArc
 50
0.0
 51
73.39845040101522
  0
LINE
  5
16BEF
330
747D
100
AcDbEntity
  8
細線
 48
50.0
100
AcDbLine
 10
5465.41815934984
 20
4973.369626708056
 30
0.0
 11
5465.41815934984
 21
4973.619626708056
 31
0.0
  0
ARC
  5
16BF0
330
747D
100
AcDbEntity
  8
細線
 48
0.2
100
AcDbCircle
 10
5472.41815934984
 20
4973.590136539304
 30
0.0
 40
1.0
100
AcDbArc
 50
106.6015495989848
 51
180.0
  0
LINE
  5
16BF1
330
747D
100
AcDbEntity
  8
細線
 48
0.2
100
AcDbLine
 10
5485.41815934984
 20
4973.619626708056
 30
0.0
 11
5465.41815934984
 21
4973.619626708056
 31
0.0
  0
LINE
  5
16BF2
330
747D
100
AcDbEntity
  8
細線
 48
0.2
100
AcDbLine
 10
5485.41815934984
 20
4971.119626708055
 30
0.0
 11
5465.41815934984
 21
4971.119626708055
 31
0.0
  0
ARC
  5
16BF3
330
747D
100
AcDbEntity
  8
細線
 48
0.2
100
AcDbCircle
 10
5477.41815934984
 20
4956.819626708059
 30
0.0
 40
18.49999999999796
100
AcDbArc
 50
73.39845040101522
 51
106.6015495989848
  0
LINE
  5
16BF4
330
747D
100
AcDbEntity
  8
細線
 48
0.2
100
AcDbLine
 10
5483.102150646348
 20
4974.319626708057
 30
0.0
 11
5471.734168053336
 21
4974.319626708057
 31
0.0
  0
LINE
  5
16BF5
330
747D
100
AcDbEntity
  8
細線
 48
0.2
100
AcDbLine
 10
5485.41815934984
 20
4969.119626708056
 30
0.0
 11
5465.41815934984
 21
4969.119626708056
 31
0.0
  0
LINE
  5
16BF6
330
747D
100
AcDbEntity
  8
部品1
 48
0.2
100
AcDbLine
 10
5485.41815934984
 20
4966.619626708055
 30
0.0
 11
5465.41815934984
 21
4966.619626708055
 31
0.0
  0
LINE
  5
16BF7
330
747D
100
AcDbEntity
  8
部品1
 48
50.0
100
AcDbLine
 10
5465.41815934984
 20
4966.619626708055
 30
0.0
 11
5465.41815934984
 21
4973.369626708056
 31
0.0
  0
LINE
  5
16BF8
330
747D
100
AcDbEntity
  8
細線
 48
50.0
100
AcDbLine
 10
5473.555402155536
 20
4971.119626708055
 30
0.0
 11
5473.555402155536
 21
4969.119626708056
 31
0.0
  0
LINE
  5
16BF9
330
747D
100
AcDbEntity
  8
細線
 48
0.1
100
AcDbLine
 10
5485.41815934984
 20
4973.619626708056
 30
0.0
 11
5485.41815934984
 21
4966.619626708055
 31
0.0
  0
LINE
  5
16BFA
330
747D
100
AcDbEntity
  8
細線
 48
50.0
100
AcDbLine
 10
5481.4058122015
 20
4971.119626708055
 30
0.0
 11
5481.4058122015
 21
4969.119626708056
 31
0.0
  0
LINE
  5
16BFB
330
747D
100
AcDbEntity
  8
細線
100
AcDbLine
 10
5743.48060717852
 20
4121.869118809493
 30
0.0
 11
5730.717279962553
 21
4121.869118809493
 31
0.0
  0
CIRCLE
  5
16BFC
330
747D
100
AcDbEntity
  8
細線
 48
50.0
100
AcDbCircle
 10
5750.981472233014
 20
4178.369626708054
 30
0.0
 40
20.0
  0
LINE
  5
16BFD
330
747D
100
AcDbEntity
  8
細線
100
AcDbLine
 10
5770.48060717852
 20
4136.369626708054
 30
0.0
 11
5731.313988709274
 21
4136.369626708054
 31
0.0
  0
ARC
  5
16BFE
330
747D
100
AcDbEntity
  8
細線
100
AcDbCircle
 10
5765.48060717852
 20
4121.869626708053
 30
0.0
 40
6.0
100
AcDbArc
 50
0.0
 51
90.0
  0
ARC
  5
16BFF
330
747D
100
AcDbEntity
  8
部品1
100
AcDbCircle
 10
5771.480607178521
 20
4131.869626708054
 30
0.0
 40
6.0
100
AcDbArc
 50
0.0
 51
90.0
  0
ARC
  5
16C00
330
747D
100
AcDbEntity
  8
細線
100
AcDbCircle
 10
5770.48060717852
 20
4130.869626708054
 30
0.0
 40
5.5
100
AcDbArc
 50
0.0
 51
90.0
  0
CIRCLE
  5
16C01
330
747D
100
AcDbEntity
  8
細線
 48
50.0
100
AcDbCircle
 10
5750.981472233014
 20
4178.369626708054
 30
0.0
 40
10.0
  0
ARC
  5
16C02
330
747D
100
AcDbEntity
  8
細線
100
AcDbCircle
 10
5755.688146357266
 20
4118.869626708054
 30
0.0
 40
6.0
100
AcDbArc
 50
0.0
 51
90.0
  0
LINE
  5
16C03
330
747D
100
AcDbEntity
  8
細線
100
AcDbLine
 10
5755.688146357266
 20
4124.869626708053
 30
0.0
 11
5743.48060717852
 21
4124.869626708053
 31
0.0
  0
ARC
  5
16C04
330
747D
100
AcDbEntity
  8
細線
100
AcDbCircle
 10
5744.975031088354
 20
4118.869626708054
 30
0.0
 40
3.0
100
AcDbArc
 50
8.099550838235547
 51
90.0
  0
LINE
  5
16C05
330
747D
100
AcDbEntity
  8
細線
100
AcDbLine
 10
5744.975031088354
 20
4121.869626708053
 30
0.0
 11
5743.48060717852
 21
4121.869626708053
 31
0.0
  0
LINE
  5
16C06
330
747D
100
AcDbEntity
  8
細線
100
AcDbLine
 10
5765.48060717852
 20
4127.869626708053
 30
0.0
 11
5734.861563542998
 21
4127.869626708053
 31
0.0
  0
LINE
  5
16C07
330
747D
100
AcDbEntity
  8
細線
100
AcDbLine
 10
5731.313988709274
 20
4019.369626708054
 30
0.0
 11
5770.48060717852
 21
4019.369626708054
 31
0.0
  0
ARC
  5
16C08
330
747D
100
AcDbEntity
  8
細線
100
AcDbCircle
 10
5765.48060717852
 20
4033.869626708054
 30
0.0
 40
6.0
100
AcDbArc
 50
270.0
 51
0.0
  0
ARC
  5
16C09
330
747D
100
AcDbEntity
  8
部品1
100
AcDbCircle
 10
5771.480607178521
 20
4023.869626708054
 30
0.0
 40
6.0
100
AcDbArc
 50
270.0
 51
0.0
  0
ARC
  5
16C0A
330
747D
100
AcDbEntity
  8
細線
100
AcDbCircle
 10
5770.48060717852
 20
4024.869626708054
 30
0.0
 40
5.5
100
AcDbArc
 50
270.0
 51
0.0
  0
ARC
  5
16C0B
330
747D
100
AcDbEntity
  8
細線
100
AcDbCircle
 10
5755.688146357266
 20
4036.869626708054
 30
0.0
 40
6.0
100
AcDbArc
 50
270.0
 51
0.0
  0
LINE
  5
16C0C
330
747D
100
AcDbEntity
  8
細線
100
AcDbLine
 10
5743.48060717852
 20
4030.869626708054
 30
0.0
 11
5755.688146357266
 21
4030.869626708054
 31
0.0
  0
ARC
  5
16C0D
330
747D
100
AcDbEntity
  8
細線
100
AcDbCircle
 10
5744.975031088356
 20
4036.869626708054
 30
0.0
 40
3.0
100
AcDbArc
 50
270.0
 51
351.9004491617129
  0
LINE
  5
16C0E
330
747D
100
AcDbEntity
  8
細線
100
AcDbLine
 10
5743.48060717852
 20
4033.869626708054
 30
0.0
 11
5744.975031088356
 21
4033.869626708054
 31
0.0
  0
LINE
  5
16C0F
330
747D
100
AcDbEntity
  8
細線
100
AcDbLine
 10
5734.861563542998
 20
4027.869626708054
 30
0.0
 11
5765.48060717852
 21
4027.869626708054
 31
0.0
  0
LINE
  5
16C10
330
747D
100
AcDbEntity
  8
部品1
100
AcDbLine
 10
5777.480607178521
 20
4023.869626708054
 30
0.0
 11
5777.480607178521
 21
4131.869626708054
 31
0.0
  0
LINE
  5
16C11
330
747D
100
AcDbEntity
  8
細線
100
AcDbLine
 10
5775.980607178521
 20
4024.869626708054
 30
0.0
 11
5775.980607178521
 21
4130.869626708054
 31
0.0
  0
LINE
  5
16C12
330
747D
100
AcDbEntity
  8
細線
100
AcDbLine
 10
5771.480607178521
 20
4033.869626708054
 30
0.0
 11
5771.480607178521
 21
4121.869626708053
 31
0.0
  0
ARC
  5
16C13
330
747D
100
AcDbEntity
  8
細線
100
AcDbCircle
 10
5456.877825270596
 20
4077.869626708054
 30
0.0
 40
294.0
100
AcDbArc
 50
351.9004491617645
 51
8.099550838235547
  0
LINE
  5
16C14
330
747D
100
AcDbEntity
  8
細線
100
AcDbLine
 10
5743.48060717852
 20
4127.869626708053
 30
0.0
 11
5743.48060717852
 21
4027.869626708054
 31
0.0
  0
LINE
  5
16C15
330
747D
100
AcDbEntity
  8
細線
100
AcDbLine
 10
5761.688146357267
 20
4036.869626708054
 30
0.0
 11
5761.688146357267
 21
4118.869626708054
 31
0.0
  0
ARC
  5
16C16
330
747D
100
AcDbEntity
  8
部品1
100
AcDbCircle
 10
5730.482337287505
 20
4131.869626708054
 30
0.0
 40
6.0
100
AcDbArc
 50
90.0
 51
169.4161974034797
  0
ARC
  5
16C17
330
747D
100
AcDbEntity
  8
部品1
100
AcDbCircle
 10
5730.482337287505
 20
4023.869626708054
 30
0.0
 40
6.0
100
AcDbArc
 50
190.5838025965202
 51
270.0
  0
ARC
  5
16C18
330
747D
100
AcDbEntity
  8
細線
100
AcDbCircle
 10
6019.480607178521
 20
4077.869626708054
 30
0.0
 40
294.0
100
AcDbArc
 50
171.2120626773417
 51
188.7879373226583
  0
ARC
  5
16C19
330
747D
100
AcDbEntity
  8
細線
100
AcDbCircle
 10
6019.480607178521
 20
4077.869626708054
 30
0.0
 40
298.5
100
AcDbArc
 50
169.5785490272547
 51
190.4214509727453
  0
ARC
  5
16C1A
330
747D
100
AcDbEntity
  8
部品1
100
AcDbCircle
 10
6019.480607178521
 20
4077.869626708054
 30
0.0
 40
300.0
100
AcDbArc
 50
169.4161974034797
 51
190.5838025965202
  0
ARC
  5
16C1B
330
747D
100
AcDbEntity
  8
細線
100
AcDbCircle
 10
5734.861563542998
 20
4033.869626708054
 30
0.0
 40
6.0
100
AcDbArc
 50
188.7879373226583
 51
270.0
  0
LINE
  5
16C1C
330
747D
100
AcDbEntity
  8
細線
100
AcDbLine
 10
5743.48060717852
 20
4033.870134606617
 30
0.0
 11
5730.001902679698
 21
4033.870134606617
 31
0.0
  0
LINE
  5
16C1D
330
747D
100
AcDbEntity
  8
部品1
100
AcDbLine
 10
5730.482337287505
 20
4017.869626708054
 30
0.0
 11
5771.480607178521
 21
4017.869626708054
 31
0.0
  0
ARC
  5
16C1E
330
747D
100
AcDbEntity
  8
細線
100
AcDbCircle
 10
5731.313988709274
 20
4024.869626708054
 30
0.0
 40
5.5
100
AcDbArc
 50
190.4214509727453
 51
270.0
  0
ARC
  5
16C1F
330
747D
100
AcDbEntity
  8
細線
100
AcDbCircle
 10
5734.861563542998
 20
4121.869626708053
 30
0.0
 40
6.0
100
AcDbArc
 50
90.0
 51
171.2120626773417
  0
LINE
  5
16C20
330
747D
100
AcDbEntity
  8
部品1
100
AcDbLine
 10
5771.480607178521
 20
4137.869626708054
 30
0.0
 11
5730.482337287505
 21
4137.869626708054
 31
0.0
  0
ARC
  5
16C21
330
747D
100
AcDbEntity
  8
細線
100
AcDbCircle
 10
5731.313988709274
 20
4130.869626708054
 30
0.0
 40
5.5
100
AcDbArc
 50
90.0
 51
169.5785490272547
  0
LINE
  5
16C22
330
747D
100
AcDbEntity
  8
部品1
100
AcDbLine
 10
4755.480607178521
 20
4973.369626708056
 30
0.0
 11
5465.41815934984
 21
4973.369626708056
 31
0.0
  0
LINE
  5
16C23
330
747D
100
AcDbEntity
  8
部品1
 48
0.2
100
AcDbLine
 10
5485.41815934984
 20
3189.119626708072
 30
0.0
 11
5465.41815934984
 21
3189.119626708072
 31
0.0
  0
LINE
  5
16C24
330
747D
100
AcDbEntity
  8
細線
 48
0.2
100
AcDbLine
 10
5485.41815934984
 20
3186.619626708072
 30
0.0
 11
5465.41815934984
 21
3186.619626708072
 31
0.0
  0
LINE
  5
16C25
330
747D
100
AcDbEntity
  8
部品1
100
AcDbLine
 10
5485.41815934984
 20
3182.369626708065
 30
0.0
 11
5485.48060717852
 21
3182.369626708065
 31
0.0
  0
LINE
  5
16C26
330
747D
100
AcDbEntity
  8
部品1
100
AcDbLine
 10
5485.41815934984
 20
3182.369626708074
 30
0.0
 11
5485.48060717852
 21
3182.369626708074
 31
0.0
  0
ARC
  5
16C27
330
747D
100
AcDbEntity
  8
細線
 48
0.2
100
AcDbCircle
 10
5482.41815934984
 20
3182.149116876825
 30
0.0
 40
1.0
100
AcDbArc
 50
286.6015495989848
 51
0.0
  0
LINE
  5
16C28
330
747D
100
AcDbEntity
  8
細線
 48
50.0
100
AcDbLine
 10
5465.41815934984
 20
3182.369626708074
 30
0.0
 11
5465.41815934984
 21
3182.119626708072
 31
0.0
  0
ARC
  5
16C29
330
747D
100
AcDbEntity
  8
細線
 48
0.2
100
AcDbCircle
 10
5472.41815934984
 20
3182.149116876825
 30
0.0
 40
1.0
100
AcDbArc
 50
180.0
 51
253.3984504010152
  0
LINE
  5
16C2A
330
747D
100
AcDbEntity
  8
細線
 48
0.2
100
AcDbLine
 10
5483.102150646348
 20
3181.419626708072
 30
0.0
 11
5471.734168053336
 21
3181.419626708072
 31
0.0
  0
ARC
  5
16C2B
330
747D
100
AcDbEntity
  8
細線
 48
0.2
100
AcDbCircle
 10
5477.41815934984
 20
3198.91962670807
 30
0.0
 40
18.49999999999796
100
AcDbArc
 50
253.3984504010152
 51
286.6015495989848
  0
LINE
  5
16C2C
330
747D
100
AcDbEntity
  8
細線
 48
0.2
100
AcDbLine
 10
5485.41815934984
 20
3184.619626708073
 30
0.0
 11
5465.41815934984
 21
3184.619626708074
 31
0.0
  0
LINE
  5
16C2D
330
747D
100
AcDbEntity
  8
細線
 48
0.2
100
AcDbLine
 10
5485.41815934984
 20
3182.119626708072
 30
0.0
 11
5465.41815934984
 21
3182.119626708072
 31
0.0
  0
LINE
  5
16C2E
330
747D
100
AcDbEntity
  8
細線
 48
50.0
100
AcDbLine
 10
5481.4058122015
 20
3184.619626708074
 30
0.0
 11
5481.4058122015
 21
3186.619626708072
 31
0.0
  0
LINE
  5
16C2F
330
747D
100
AcDbEntity
  8
細線
 48
0.1
100
AcDbLine
 10
5485.41815934984
 20
3182.119626708072
 30
0.0
 11
5485.41815934984
 21
3189.119626708072
 31
0.0
  0
LINE
  5
16C30
330
747D
100
AcDbEntity
  8
部品1
 48
50.0
100
AcDbLine
 10
5465.41815934984
 20
3189.119626708072
 30
0.0
 11
5465.41815934984
 21
3182.369626708074
 31
0.0
  0
LINE
  5
16C31
330
747D
100
AcDbEntity
  8
細線
 48
50.0
100
AcDbLine
 10
5473.555402155536
 20
3184.619626708074
 30
0.0
 11
5473.555402155536
 21
3186.619626708072
 31
0.0
  0
LINE
  5
16C32
330
747D
100
AcDbEntity
  8
部品1
100
AcDbLine
 10
4755.480607178521
 20
3182.36962670806
 30
0.0
 11
5465.41815934984
 21
3182.369626708074
 31
0.0
  0
LINE
  5
16C33
330
747D
100
AcDbEntity
  8
部品1
100
AcDbLine
 10
5703.48060717852
 20
4975.869626708054
 30
0.0
 11
5703.48060717852
 21
3178.869626708074
 31
0.0
  0
LINE
  5
16C34
330
747D
100
AcDbEntity
  8
部品1
100
AcDbLine
 10
5705.480607178521
 20
4973.369626708054
 30
0.0
 11
5705.480607178521
 21
3182.369626708069
 31
0.0
  0
LINE
  5
16C35
330
747D
100
AcDbEntity
  8
部品1
100
AcDbLine
 10
5485.480607178519
 20
4973.369626708054
 30
0.0
 11
5485.48060717852
 21
3182.369626708074
 31
0.0
  0
LINE
  5
16C36
330
747D
100
AcDbEntity
  8
部品1
100
AcDbLine
 10
5617.480607178521
 20
4975.869626708054
 30
0.0
 11
5617.480607178521
 21
3178.869626708074
 31
0.0
  0
LINE
  5
16C37
330
747D
100
AcDbEntity
  8
部品1
100
AcDbLine
 10
5487.480607178521
 20
4975.869626708054
 30
0.0
 11
5487.480607178521
 21
3178.869626708074
 31
0.0
  0
LINE
  5
16C38
330
747D
100
AcDbEntity
  8
部品1
 48
50.0
100
AcDbLine
 10
6610.48060717852
 20
3178.869626708058
 30
0.0
 11
6610.48060717852
 21
3135.869626708055
 31
0.0
  0
LINE
  5
16C39
330
747D
100
AcDbEntity
  8
細線
 48
50.0
100
AcDbLine
 10
6600.480607178521
 20
5069.869626708058
 30
0.0
 11
6600.480607178521
 21
5210.86962670806
 31
0.0
  0
LINE
  5
16C3A
330
747D
100
AcDbEntity
  8
細線
 48
50.0
100
AcDbLine
 10
6610.48060717852
 20
5069.869626708057
 30
0.0
 11
6610.48060717852
 21
4975.869626708054
 31
0.0
  0
LINE
  5
16C3B
330
747D
100
AcDbEntity
  8
細線
 48
50.0
100
AcDbLine
 10
6431.4058122015
 20
4971.119626708055
 30
0.0
 11
6431.4058122015
 21
4969.119626708056
 31
0.0
  0
LINE
  5
16C3C
330
747D
100
AcDbEntity
  8
細線
 48
0.1
100
AcDbLine
 10
6435.41815934984
 20
4973.619626708056
 30
0.0
 11
6435.41815934984
 21
4966.619626708055
 31
0.0
  0
LINE
  5
16C3D
330
747D
100
AcDbEntity
  8
細線
 48
50.0
100
AcDbLine
 10
6423.555402155535
 20
4971.119626708055
 30
0.0
 11
6423.555402155535
 21
4969.119626708056
 31
0.0
  0
LINE
  5
16C3E
330
747D
100
AcDbEntity
  8
部品1
 48
50.0
100
AcDbLine
 10
6415.418159349839
 20
4966.619626708055
 30
0.0
 11
6415.418159349839
 21
4973.369626708056
 31
0.0
  0
LINE
  5
16C3F
330
747D
100
AcDbEntity
  8
部品1
 48
0.2
100
AcDbLine
 10
6435.41815934984
 20
4966.619626708055
 30
0.0
 11
6415.418159349839
 21
4966.619626708055
 31
0.0
  0
LINE
  5
16C40
330
747D
100
AcDbEntity
  8
細線
 48
0.2
100
AcDbLine
 10
6435.41815934984
 20
4969.119626708056
 30
0.0
 11
6415.418159349839
 21
4969.119626708056
 31
0.0
  0
LINE
  5
16C41
330
747D
100
AcDbEntity
  8
細線
 48
0.2
100
AcDbLine
 10
6433.102150646347
 20
4974.319626708057
 30
0.0
 11
6421.734168053335
 21
4974.319626708057
 31
0.0
  0
ARC
  5
16C42
330
747D
100
AcDbEntity
  8
細線
 48
0.2
100
AcDbCircle
 10
6427.41815934984
 20
4956.819626708059
 30
0.0
 40
18.49999999999796
100
AcDbArc
 50
73.39845040101522
 51
106.6015495989848
  0
LINE
  5
16C43
330
747D
100
AcDbEntity
  8
細線
 48
0.2
100
AcDbLine
 10
6435.41815934984
 20
4971.119626708055
 30
0.0
 11
6415.418159349839
 21
4971.119626708055
 31
0.0
  0
LINE
  5
16C44
330
747D
100
AcDbEntity
  8
細線
 48
0.2
100
AcDbLine
 10
6435.41815934984
 20
4973.619626708056
 30
0.0
 11
6415.418159349839
 21
4973.619626708056
 31
0.0
  0
ARC
  5
16C45
330
747D
100
AcDbEntity
  8
細線
 48
0.2
100
AcDbCircle
 10
6422.41815934984
 20
4973.590136539304
 30
0.0
 40
1.0
100
AcDbArc
 50
106.6015495989848
 51
180.0
  0
LINE
  5
16C46
330
747D
100
AcDbEntity
  8
細線
 48
50.0
100
AcDbLine
 10
6415.418159349839
 20
4973.369626708056
 30
0.0
 11
6415.418159349839
 21
4973.619626708056
 31
0.0
  0
ARC
  5
16C47
330
747D
100
AcDbEntity
  8
細線
 48
0.2
100
AcDbCircle
 10
6432.41815934984
 20
4973.590136539304
 30
0.0
 40
1.0
100
AcDbArc
 50
0.0
 51
73.39845040101522
  0
LINE
  5
16C48
330
747D
100
AcDbEntity
  8
部品1
100
AcDbLine
 10
6435.41815934984
 20
4973.369626708056
 30
0.0
 11
6435.48060717852
 21
4973.369626708054
 31
0.0
  0
LINE
  5
16C49
330
747D
100
AcDbEntity
  8
部品1
100
AcDbLine
 10
5705.480607178521
 20
4973.369626708056
 30
0.0
 11
6415.418159349839
 21
4973.369626708056
 31
0.0
  0
LINE
  5
16C4A
330
747D
100
AcDbEntity
  8
細線
100
AcDbLine
 10
6715.48060717852
 20
4127.869626708053
 30
0.0
 11
6684.861563542998
 21
4127.869626708053
 31
0.0
  0
LINE
  5
16C4B
330
747D
100
AcDbEntity
  8
細線
100
AcDbLine
 10
6694.975031088354
 20
4121.869626708053
 30
0.0
 11
6693.48060717852
 21
4121.869626708053
 31
0.0
  0
ARC
  5
16C4C
330
747D
100
AcDbEntity
  8
細線
100
AcDbCircle
 10
6694.975031088354
 20
4118.869626708054
 30
0.0
 40
3.0
100
AcDbArc
 50
8.099550838235547
 51
90.0
  0
LINE
  5
16C4D
330
747D
100
AcDbEntity
  8
細線
100
AcDbLine
 10
6705.688146357267
 20
4124.869626708053
 30
0.0
 11
6693.48060717852
 21
4124.869626708053
 31
0.0
  0
ARC
  5
16C4E
330
747D
100
AcDbEntity
  8
細線
100
AcDbCircle
 10
6705.688146357267
 20
4118.869626708054
 30
0.0
 40
6.0
100
AcDbArc
 50
0.0
 51
90.0
  0
CIRCLE
  5
16C4F
330
747D
100
AcDbEntity
  8
細線
 48
50.0
100
AcDbCircle
 10
6700.981472233014
 20
4178.369626708054
 30
0.0
 40
10.0
  0
ARC
  5
16C50
330
747D
100
AcDbEntity
  8
細線
100
AcDbCircle
 10
6720.480607178521
 20
4130.869626708054
 30
0.0
 40
5.5
100
AcDbArc
 50
0.0
 51
90.0
  0
ARC
  5
16C51
330
747D
100
AcDbEntity
  8
部品1
100
AcDbCircle
 10
6721.48060717852
 20
4131.869626708054
 30
0.0
 40
6.0
100
AcDbArc
 50
0.0
 51
90.0
  0
ARC
  5
16C52
330
747D
100
AcDbEntity
  8
細線
100
AcDbCircle
 10
6715.48060717852
 20
4121.869626708053
 30
0.0
 40
6.0
100
AcDbArc
 50
0.0
 51
90.0
  0
ARC
  5
16C53
330
747D
100
AcDbEntity
  8
部品1
100
AcDbCircle
 10
6680.482337287505
 20
4131.869626708054
 30
0.0
 40
6.0
100
AcDbArc
 50
90.0
 51
169.4161974034797
  0
ARC
  5
16C54
330
747D
100
AcDbEntity
  8
細線
100
AcDbCircle
 10
6681.313988709274
 20
4130.869626708054
 30
0.0
 40
5.5
100
AcDbArc
 50
90.0
 51
169.5785490272547
  0
LINE
  5
16C55
330
747D
100
AcDbEntity
  8
細線
100
AcDbLine
 10
6720.480607178521
 20
4136.369626708054
 30
0.0
 11
6681.313988709274
 21
4136.369626708054
 31
0.0
  0
LINE
  5
16C56
330
747D
100
AcDbEntity
  8
部品1
100
AcDbLine
 10
6721.48060717852
 20
4137.869626708054
 30
0.0
 11
6680.482337287505
 21
4137.869626708054
 31
0.0
  0
CIRCLE
  5
16C57
330
747D
100
AcDbEntity
  8
細線
 48
50.0
100
AcDbCircle
 10
6700.981472233014
 20
4178.369626708054
 30
0.0
 40
20.0
  0
LINE
  5
16C58
330
747D
100
AcDbEntity
  8
細線
100
AcDbLine
 10
6693.48060717852
 20
4121.869118809493
 30
0.0
 11
6680.717279962554
 21
4121.869118809493
 31
0.0
  0
ARC
  5
16C59
330
747D
100
AcDbEntity
  8
細線
100
AcDbCircle
 10
6684.861563542998
 20
4121.869626708053
 30
0.0
 40
6.0
100
AcDbArc
 50
90.0
 51
171.2120626773417
  0
LINE
  5
16C5A
330
747D
100
AcDbEntity
  8
細線
100
AcDbLine
 10
6684.861563542998
 20
4027.869626708054
 30
0.0
 11
6715.48060717852
 21
4027.869626708054
 31
0.0
  0
LINE
  5
16C5B
330
747D
100
AcDbEntity
  8
細線
100
AcDbLine
 10
6693.48060717852
 20
4033.869626708054
 30
0.0
 11
6694.975031088356
 21
4033.869626708054
 31
0.0
  0
ARC
  5
16C5C
330
747D
100
AcDbEntity
  8
細線
100
AcDbCircle
 10
6694.975031088356
 20
4036.869626708054
 30
0.0
 40
3.0
100
AcDbArc
 50
270.0
 51
351.9004491617129
  0
LINE
  5
16C5D
330
747D
100
AcDbEntity
  8
細線
100
AcDbLine
 10
6693.48060717852
 20
4030.869626708054
 30
0.0
 11
6705.688146357267
 21
4030.869626708054
 31
0.0
  0
ARC
  5
16C5E
330
747D
100
AcDbEntity
  8
細線
100
AcDbCircle
 10
6705.688146357267
 20
4036.869626708054
 30
0.0
 40
6.0
100
AcDbArc
 50
270.0
 51
0.0
  0
ARC
  5
16C5F
330
747D
100
AcDbEntity
  8
細線
100
AcDbCircle
 10
6720.480607178521
 20
4024.869626708054
 30
0.0
 40
5.5
100
AcDbArc
 50
270.0
 51
0.0
  0
ARC
  5
16C60
330
747D
100
AcDbEntity
  8
部品1
100
AcDbCircle
 10
6721.48060717852
 20
4023.869626708054
 30
0.0
 40
6.0
100
AcDbArc
 50
270.0
 51
0.0
  0
ARC
  5
16C61
330
747D
100
AcDbEntity
  8
細線
100
AcDbCircle
 10
6715.48060717852
 20
4033.869626708054
 30
0.0
 40
6.0
100
AcDbArc
 50
270.0
 51
0.0
  0
ARC
  5
16C62
330
747D
100
AcDbEntity
  8
部品1
100
AcDbCircle
 10
6680.482337287505
 20
4023.869626708054
 30
0.0
 40
6.0
100
AcDbArc
 50
190.5838025965202
 51
270.0
  0
ARC
  5
16C63
330
747D
100
AcDbEntity
  8
細線
100
AcDbCircle
 10
6681.313988709274
 20
4024.869626708054
 30
0.0
 40
5.5
100
AcDbArc
 50
190.4214509727453
 51
270.0
  0
LINE
  5
16C64
330
747D
100
AcDbEntity
  8
細線
100
AcDbLine
 10
6681.313988709274
 20
4019.369626708054
 30
0.0
 11
6720.480607178521
 21
4019.369626708054
 31
0.0
  0
LINE
  5
16C65
330
747D
100
AcDbEntity
  8
部品1
100
AcDbLine
 10
6680.482337287505
 20
4017.869626708054
 30
0.0
 11
6721.48060717852
 21
4017.869626708054
 31
0.0
  0
LINE
  5
16C66
330
747D
100
AcDbEntity
  8
細線
100
AcDbLine
 10
6693.48060717852
 20
4033.870134606617
 30
0.0
 11
6680.001902679698
 21
4033.870134606617
 31
0.0
  0
ARC
  5
16C67
330
747D
100
AcDbEntity
  8
細線
100
AcDbCircle
 10
6684.861563542998
 20
4033.869626708054
 30
0.0
 40
6.0
100
AcDbArc
 50
188.7879373226583
 51
270.0
  0
LINE
  5
16C68
330
747D
100
AcDbEntity
  8
細線
100
AcDbLine
 10
6711.688146357267
 20
4036.869626708054
 30
0.0
 11
6711.688146357267
 21
4118.869626708054
 31
0.0
  0
LINE
  5
16C69
330
747D
100
AcDbEntity
  8
細線
100
AcDbLine
 10
6693.48060717852
 20
4127.869626708053
 30
0.0
 11
6693.48060717852
 21
4027.869626708054
 31
0.0
  0
ARC
  5
16C6A
330
747D
100
AcDbEntity
  8
部品1
100
AcDbCircle
 10
6969.480607178521
 20
4077.869626708054
 30
0.0
 40
300.0
100
AcDbArc
 50
169.4161974034797
 51
190.5838025965202
  0
ARC
  5
16C6B
330
747D
100
AcDbEntity
  8
細線
100
AcDbCircle
 10
6969.480607178521
 20
4077.869626708054
 30
0.0
 40
298.5
100
AcDbArc
 50
169.5785490272547
 51
190.4214509727453
  0
ARC
  5
16C6C
330
747D
100
AcDbEntity
  8
細線
100
AcDbCircle
 10
6969.480607178521
 20
4077.869626708054
 30
0.0
 40
294.0
100
AcDbArc
 50
171.2120626773417
 51
188.7879373226583
  0
ARC
  5
16C6D
330
747D
100
AcDbEntity
  8
細線
100
AcDbCircle
 10
6406.877825270597
 20
4077.869626708054
 30
0.0
 40
294.0
100
AcDbArc
 50
351.9004491617645
 51
8.099550838235547
  0
LINE
  5
16C6E
330
747D
100
AcDbEntity
  8
細線
100
AcDbLine
 10
6721.48060717852
 20
4033.869626708054
 30
0.0
 11
6721.48060717852
 21
4121.869626708053
 31
0.0
  0
LINE
  5
16C6F
330
747D
100
AcDbEntity
  8
細線
100
AcDbLine
 10
6725.98060717852
 20
4024.869626708054
 30
0.0
 11
6725.98060717852
 21
4130.869626708054
 31
0.0
  0
LINE
  5
16C70
330
747D
100
AcDbEntity
  8
部品1
100
AcDbLine
 10
6727.48060717852
 20
4023.869626708054
 30
0.0
 11
6727.48060717852
 21
4131.869626708054
 31
0.0
  0
LINE
  5
16C71
330
747D
100
AcDbEntity
  8
細線
 48
0.2
100
AcDbLine
 10
6435.41815934984
 20
3186.619626708072
 30
0.0
 11
6415.418159349839
 21
3186.619626708072
 31
0.0
  0
LINE
  5
16C72
330
747D
100
AcDbEntity
  8
部品1
 48
0.2
100
AcDbLine
 10
6435.41815934984
 20
3189.119626708072
 30
0.0
 11
6415.418159349839
 21
3189.119626708072
 31
0.0
  0
LINE
  5
16C73
330
747D
100
AcDbEntity
  8
細線
 48
0.2
100
AcDbLine
 10
6435.41815934984
 20
3182.119626708072
 30
0.0
 11
6415.418159349839
 21
3182.119626708072
 31
0.0
  0
LINE
  5
16C74
330
747D
100
AcDbEntity
  8
細線
 48
0.2
100
AcDbLine
 10
6435.41815934984
 20
3184.619626708073
 30
0.0
 11
6415.418159349839
 21
3184.619626708074
 31
0.0
  0
ARC
  5
16C75
330
747D
100
AcDbEntity
  8
細線
 48
0.2
100
AcDbCircle
 10
6427.41815934984
 20
3198.91962670807
 30
0.0
 40
18.49999999999796
100
AcDbArc
 50
253.3984504010152
 51
286.6015495989848
  0
LINE
  5
16C76
330
747D
100
AcDbEntity
  8
細線
 48
0.2
100
AcDbLine
 10
6433.102150646347
 20
3181.419626708072
 30
0.0
 11
6421.734168053335
 21
3181.419626708072
 31
0.0
  0
ARC
  5
16C77
330
747D
100
AcDbEntity
  8
細線
 48
0.2
100
AcDbCircle
 10
6422.41815934984
 20
3182.149116876825
 30
0.0
 40
1.0
100
AcDbArc
 50
180.0
 51
253.3984504010152
  0
LINE
  5
16C78
330
747D
100
AcDbEntity
  8
細線
 48
50.0
100
AcDbLine
 10
6415.418159349839
 20
3182.369626708074
 30
0.0
 11
6415.418159349839
 21
3182.119626708072
 31
0.0
  0
ARC
  5
16C79
330
747D
100
AcDbEntity
  8
細線
 48
0.2
100
AcDbCircle
 10
6432.41815934984
 20
3182.149116876825
 30
0.0
 40
1.0
100
AcDbArc
 50
286.6015495989848
 51
0.0
  0
LINE
  5
16C7A
330
747D
100
AcDbEntity
  8
部品1
100
AcDbLine
 10
6435.41815934984
 20
3182.369626708074
 30
0.0
 11
6435.48060717852
 21
3182.369626708074
 31
0.0
  0
LINE
  5
16C7B
330
747D
100
AcDbEntity
  8
部品1
100
AcDbLine
 10
6435.41815934984
 20
3182.369626708065
 30
0.0
 11
6435.48060717852
 21
3182.369626708065
 31
0.0
  0
LINE
  5
16C7C
330
747D
100
AcDbEntity
  8
細線
 48
50.0
100
AcDbLine
 10
6423.555402155535
 20
3184.619626708074
 30
0.0
 11
6423.555402155535
 21
3186.619626708072
 31
0.0
  0
LINE
  5
16C7D
330
747D
100
AcDbEntity
  8
部品1
 48
50.0
100
AcDbLine
 10
6415.418159349839
 20
3189.119626708072
 30
0.0
 11
6415.418159349839
 21
3182.369626708074
 31
0.0
  0
LINE
  5
16C7E
330
747D
100
AcDbEntity
  8
細線
 48
0.1
100
AcDbLine
 10
6435.41815934984
 20
3182.119626708072
 30
0.0
 11
6435.41815934984
 21
3189.119626708072
 31
0.0
  0
LINE
  5
16C7F
330
747D
100
AcDbEntity
  8
細線
 48
50.0
100
AcDbLine
 10
6431.4058122015
 20
3184.619626708074
 30
0.0
 11
6431.4058122015
 21
3186.619626708072
 31
0.0
  0
LINE
  5
16C80
330
747D
100
AcDbEntity
  8
部品1
100
AcDbLine
 10
5705.480607178521
 20
3182.36962670806
 30
0.0
 11
6415.418159349839
 21
3182.369626708074
 31
0.0
  0
LINE
  5
16C81
330
747D
100
AcDbEntity
  8
部品1
100
AcDbLine
 10
6437.48060717852
 20
4975.869626708054
 30
0.0
 11
6437.48060717852
 21
3178.869626708074
 31
0.0
  0
LINE
  5
16C82
330
747D
100
AcDbEntity
  8
部品1
100
AcDbLine
 10
6567.480607178521
 20
4975.869626708054
 30
0.0
 11
6567.480607178521
 21
3178.869626708074
 31
0.0
  0
LINE
  5
16C83
330
747D
100
AcDbEntity
  8
部品1
100
AcDbLine
 10
6435.480607178519
 20
4973.369626708054
 30
0.0
 11
6435.48060717852
 21
3182.369626708074
 31
0.0
  0
LINE
  5
16C84
330
747D
100
AcDbEntity
  8
部品1
100
AcDbLine
 10
6655.480607178521
 20
4973.369626708054
 30
0.0
 11
6655.480607178521
 21
3182.369626708069
 31
0.0
  0
LINE
  5
16C85
330
747D
100
AcDbEntity
  8
部品1
100
AcDbLine
 10
6653.480607178521
 20
4975.869626708054
 30
0.0
 11
6653.480607178521
 21
3178.869626708074
 31
0.0
  0
ARC
  5
16C86
330
747D
100
AcDbEntity
  8
細線
100
AcDbCircle
 10
8615.48060717852
 20
4121.869626708053
 30
0.0
 40
6.0
100
AcDbArc
 50
0.0
 51
90.0
  0
ARC
  5
16C87
330
747D
100
AcDbEntity
  8
部品1
100
AcDbCircle
 10
8621.48060717852
 20
4131.869626708054
 30
0.0
 40
6.0
100
AcDbArc
 50
0.0
 51
90.0
  0
ARC
  5
16C88
330
747D
100
AcDbEntity
  8
細線
100
AcDbCircle
 10
8620.480607178521
 20
4130.869626708054
 30
0.0
 40
5.5
100
AcDbArc
 50
0.0
 51
90.0
  0
ARC
  5
16C89
330
747D
100
AcDbEntity
  8
細線
100
AcDbCircle
 10
8581.313988709274
 20
4130.869626708054
 30
0.0
 40
5.5
100
AcDbArc
 50
90.0
 51
169.5785490272547
  0
ARC
  5
16C8A
330
747D
100
AcDbEntity
  8
部品1
100
AcDbCircle
 10
8580.482337287504
 20
4131.869626708054
 30
0.0
 40
6.0
100
AcDbArc
 50
90.0
 51
169.4161974034797
  0
ARC
  5
16C8B
330
747D
100
AcDbEntity
  8
細線
100
AcDbCircle
 10
8584.861563542999
 20
4121.869626708053
 30
0.0
 40
6.0
100
AcDbArc
 50
90.0
 51
171.2120626773417
  0
CIRCLE
  5
16C8C
330
747D
100
AcDbEntity
  8
細線
 48
50.0
100
AcDbCircle
 10
8600.981472233014
 20
4178.369626708054
 30
0.0
 40
10.0
  0
ARC
  5
16C8D
330
747D
100
AcDbEntity
  8
細線
100
AcDbCircle
 10
8605.688146357266
 20
4118.869626708054
 30
0.0
 40
6.0
100
AcDbArc
 50
0.0
 51
90.0
  0
LINE
  5
16C8E
330
747D
100
AcDbEntity
  8
細線
100
AcDbLine
 10
8605.688146357266
 20
4124.869626708053
 30
0.0
 11
8593.48060717852
 21
4124.869626708053
 31
0.0
  0
ARC
  5
16C8F
330
747D
100
AcDbEntity
  8
細線
100
AcDbCircle
 10
8594.975031088354
 20
4118.869626708054
 30
0.0
 40
3.0
100
AcDbArc
 50
8.099550838235547
 51
90.0
  0
LINE
  5
16C90
330
747D
100
AcDbEntity
  8
細線
100
AcDbLine
 10
8594.975031088354
 20
4121.869626708053
 30
0.0
 11
8593.48060717852
 21
4121.869626708053
 31
0.0
  0
LINE
  5
16C91
330
747D
100
AcDbEntity
  8
細線
100
AcDbLine
 10
8593.48060717852
 20
4121.869118809493
 30
0.0
 11
8580.717279962554
 21
4121.869118809493
 31
0.0
  0
CIRCLE
  5
16C92
330
747D
100
AcDbEntity
  8
細線
 48
50.0
100
AcDbCircle
 10
8600.981472233014
 20
4178.369626708054
 30
0.0
 40
20.0
  0
LINE
  5
16C93
330
747D
100
AcDbEntity
  8
細線
100
AcDbLine
 10
8615.48060717852
 20
4127.869626708053
 30
0.0
 11
8584.861563542999
 21
4127.869626708053
 31
0.0
  0
LINE
  5
16C94
330
747D
100
AcDbEntity
  8
部品1
100
AcDbLine
 10
8621.48060717852
 20
4137.869626708054
 30
0.0
 11
8580.482337287504
 21
4137.869626708054
 31
0.0
  0
LINE
  5
16C95
330
747D
100
AcDbEntity
  8
細線
100
AcDbLine
 10
8620.480607178521
 20
4136.369626708054
 30
0.0
 11
8581.313988709274
 21
4136.369626708054
 31
0.0
  0
ARC
  5
16C96
330
747D
100
AcDbEntity
  8
細線
100
AcDbCircle
 10
8615.48060717852
 20
4033.869626708054
 30
0.0
 40
6.0
100
AcDbArc
 50
270.0
 51
0.0
  0
ARC
  5
16C97
330
747D
100
AcDbEntity
  8
部品1
100
AcDbCircle
 10
8621.48060717852
 20
4023.869626708054
 30
0.0
 40
6.0
100
AcDbArc
 50
270.0
 51
0.0
  0
ARC
  5
16C98
330
747D
100
AcDbEntity
  8
細線
100
AcDbCircle
 10
8620.480607178521
 20
4024.869626708054
 30
0.0
 40
5.5
100
AcDbArc
 50
270.0
 51
0.0
  0
ARC
  5
16C99
330
747D
100
AcDbEntity
  8
細線
100
AcDbCircle
 10
8581.313988709274
 20
4024.869626708054
 30
0.0
 40
5.5
100
AcDbArc
 50
190.4214509727453
 51
270.0
  0
ARC
  5
16C9A
330
747D
100
AcDbEntity
  8
部品1
100
AcDbCircle
 10
8580.482337287504
 20
4023.869626708054
 30
0.0
 40
6.0
100
AcDbArc
 50
190.5838025965202
 51
270.0
  0
ARC
  5
16C9B
330
747D
100
AcDbEntity
  8
細線
100
AcDbCircle
 10
8584.861563542999
 20
4033.869626708054
 30
0.0
 40
6.0
100
AcDbArc
 50
188.7879373226583
 51
270.0
  0
ARC
  5
16C9C
330
747D
100
AcDbEntity
  8
細線
100
AcDbCircle
 10
8605.688146357266
 20
4036.869626708054
 30
0.0
 40
6.0
100
AcDbArc
 50
270.0
 51
0.0
  0
LINE
  5
16C9D
330
747D
100
AcDbEntity
  8
細線
100
AcDbLine
 10
8593.48060717852
 20
4030.869626708054
 30
0.0
 11
8605.688146357266
 21
4030.869626708054
 31
0.0
  0
ARC
  5
16C9E
330
747D
100
AcDbEntity
  8
細線
100
AcDbCircle
 10
8594.975031088356
 20
4036.869626708054
 30
0.0
 40
3.0
100
AcDbArc
 50
270.0
 51
351.9004491617129
  0
LINE
  5
16C9F
330
747D
100
AcDbEntity
  8
細線
100
AcDbLine
 10
8593.48060717852
 20
4033.869626708054
 30
0.0
 11
8594.975031088356
 21
4033.869626708054
 31
0.0
  0
LINE
  5
16CA0
330
747D
100
AcDbEntity
  8
細線
100
AcDbLine
 10
8593.48060717852
 20
4033.870134606617
 30
0.0
 11
8580.001902679699
 21
4033.870134606617
 31
0.0
  0
LINE
  5
16CA1
330
747D
100
AcDbEntity
  8
細線
100
AcDbLine
 10
8584.861563542999
 20
4027.869626708054
 30
0.0
 11
8615.48060717852
 21
4027.869626708054
 31
0.0
  0
LINE
  5
16CA2
330
747D
100
AcDbEntity
  8
部品1
100
AcDbLine
 10
8580.482337287504
 20
4017.869626708054
 30
0.0
 11
8621.48060717852
 21
4017.869626708054
 31
0.0
  0
LINE
  5
16CA3
330
747D
100
AcDbEntity
  8
細線
100
AcDbLine
 10
8581.313988709274
 20
4019.369626708054
 30
0.0
 11
8620.480607178521
 21
4019.369626708054
 31
0.0
  0
LINE
  5
16CA4
330
747D
100
AcDbEntity
  8
部品1
100
AcDbLine
 10
8627.480607178521
 20
4023.869626708054
 30
0.0
 11
8627.480607178521
 21
4131.869626708054
 31
0.0
  0
LINE
  5
16CA5
330
747D
100
AcDbEntity
  8
細線
100
AcDbLine
 10
8625.98060717852
 20
4024.869626708054
 30
0.0
 11
8625.98060717852
 21
4130.869626708054
 31
0.0
  0
LINE
  5
16CA6
330
747D
100
AcDbEntity
  8
細線
100
AcDbLine
 10
8621.48060717852
 20
4033.869626708054
 30
0.0
 11
8621.48060717852
 21
4121.869626708053
 31
0.0
  0
ARC
  5
16CA7
330
747D
100
AcDbEntity
  8
細線
100
AcDbCircle
 10
8306.877825270596
 20
4077.869626708054
 30
0.0
 40
294.0
100
AcDbArc
 50
351.9004491617645
 51
8.099550838235547
  0
ARC
  5
16CA8
330
747D
100
AcDbEntity
  8
細線
100
AcDbCircle
 10
8869.480607178521
 20
4077.869626708054
 30
0.0
 40
294.0
100
AcDbArc
 50
171.2120626773417
 51
188.7879373226583
  0
ARC
  5
16CA9
330
747D
100
AcDbEntity
  8
細線
100
AcDbCircle
 10
8869.480607178521
 20
4077.869626708054
 30
0.0
 40
298.5
100
AcDbArc
 50
169.5785490272547
 51
190.4214509727453
  0
ARC
  5
16CAA
330
747D
100
AcDbEntity
  8
部品1
100
AcDbCircle
 10
8869.480607178521
 20
4077.869626708054
 30
0.0
 40
300.0
100
AcDbArc
 50
169.4161974034797
 51
190.5838025965202
  0
LINE
  5
16CAB
330
747D
100
AcDbEntity
  8
細線
100
AcDbLine
 10
8593.48060717852
 20
4127.869626708053
 30
0.0
 11
8593.48060717852
 21
4027.869626708054
 31
0.0
  0
LINE
  5
16CAC
330
747D
100
AcDbEntity
  8
細線
100
AcDbLine
 10
8611.688146357266
 20
4036.869626708054
 30
0.0
 11
8611.688146357266
 21
4118.869626708054
 31
0.0
  0
LINE
  5
16CAD
330
747D
100
AcDbEntity
  8
細線
100
AcDbLine
 10
7643.480607178521
 20
4121.869118809493
 30
0.0
 11
7630.717279962553
 21
4121.869118809493
 31
0.0
  0
LINE
  5
16CAE
330
747D
100
AcDbEntity
  8
細線
100
AcDbLine
 10
7670.480607178522
 20
4136.369626708054
 30
0.0
 11
7631.313988709274
 21
4136.369626708054
 31
0.0
  0
LINE
  5
16CAF
330
747D
100
AcDbEntity
  8
部品1
100
AcDbLine
 10
7671.48060717852
 20
4137.869626708054
 30
0.0
 11
7630.482337287505
 21
4137.869626708054
 31
0.0
  0
ARC
  5
16CB0
330
747D
100
AcDbEntity
  8
細線
100
AcDbCircle
 10
7670.480607178522
 20
4130.869626708054
 30
0.0
 40
5.5
100
AcDbArc
 50
0.0
 51
90.0
  0
ARC
  5
16CB1
330
747D
100
AcDbEntity
  8
部品1
100
AcDbCircle
 10
7671.48060717852
 20
4131.869626708054
 30
0.0
 40
6.0
100
AcDbArc
 50
0.0
 51
90.0
  0
LINE
  5
16CB2
330
747D
100
AcDbEntity
  8
細線
100
AcDbLine
 10
7644.975031088354
 20
4121.869626708053
 30
0.0
 11
7643.480607178521
 21
4121.869626708053
 31
0.0
  0
ARC
  5
16CB3
330
747D
100
AcDbEntity
  8
細線
100
AcDbCircle
 10
7644.975031088354
 20
4118.869626708054
 30
0.0
 40
3.0
100
AcDbArc
 50
8.099550838235547
 51
90.0
  0
LINE
  5
16CB4
330
747D
100
AcDbEntity
  8
細線
100
AcDbLine
 10
7655.688146357267
 20
4124.869626708053
 30
0.0
 11
7643.480607178521
 21
4124.869626708053
 31
0.0
  0
ARC
  5
16CB5
330
747D
100
AcDbEntity
  8
細線
100
AcDbCircle
 10
7655.688146357267
 20
4118.869626708054
 30
0.0
 40
6.0
100
AcDbArc
 50
0.0
 51
90.0
  0
LINE
  5
16CB6
330
747D
100
AcDbEntity
  8
細線
100
AcDbLine
 10
7665.48060717852
 20
4127.869626708053
 30
0.0
 11
7634.861563542997
 21
4127.869626708053
 31
0.0
  0
ARC
  5
16CB7
330
747D
100
AcDbEntity
  8
細線
100
AcDbCircle
 10
7665.48060717852
 20
4121.869626708053
 30
0.0
 40
6.0
100
AcDbArc
 50
0.0
 51
90.0
  0
CIRCLE
  5
16CB8
330
747D
100
AcDbEntity
  8
細線
 48
50.0
100
AcDbCircle
 10
7650.981472233013
 20
4178.369626708054
 30
0.0
 40
10.0
  0
CIRCLE
  5
16CB9
330
747D
100
AcDbEntity
  8
細線
 48
50.0
100
AcDbCircle
 10
7650.981472233013
 20
4178.369626708054
 30
0.0
 40
20.0
  0
ARC
  5
16CBA
330
747D
100
AcDbEntity
  8
細線
100
AcDbCircle
 10
7634.861563542997
 20
4121.869626708053
 30
0.0
 40
6.0
100
AcDbArc
 50
90.0
 51
171.2120626773417
  0
ARC
  5
16CBB
330
747D
100
AcDbEntity
  8
部品1
100
AcDbCircle
 10
7630.482337287505
 20
4131.869626708054
 30
0.0
 40
6.0
100
AcDbArc
 50
90.0
 51
169.4161974034797
  0
ARC
  5
16CBC
330
747D
100
AcDbEntity
  8
細線
100
AcDbCircle
 10
7631.313988709274
 20
4130.869626708054
 30
0.0
 40
5.5
100
AcDbArc
 50
90.0
 51
169.5785490272547
  0
LINE
  5
16CBD
330
747D
100
AcDbEntity
  8
細線
100
AcDbLine
 10
7643.480607178521
 20
4033.870134606617
 30
0.0
 11
7630.001902679699
 21
4033.870134606617
 31
0.0
  0
LINE
  5
16CBE
330
747D
100
AcDbEntity
  8
細線
100
AcDbLine
 10
7631.313988709274
 20
4019.369626708054
 30
0.0
 11
7670.480607178522
 21
4019.369626708054
 31
0.0
  0
LINE
  5
16CBF
330
747D
100
AcDbEntity
  8
部品1
100
AcDbLine
 10
7630.482337287505
 20
4017.869626708054
 30
0.0
 11
7671.48060717852
 21
4017.869626708054
 31
0.0
  0
ARC
  5
16CC0
330
747D
100
AcDbEntity
  8
細線
100
AcDbCircle
 10
7670.480607178522
 20
4024.869626708054
 30
0.0
 40
5.5
100
AcDbArc
 50
270.0
 51
0.0
  0
ARC
  5
16CC1
330
747D
100
AcDbEntity
  8
部品1
100
AcDbCircle
 10
7671.48060717852
 20
4023.869626708054
 30
0.0
 40
6.0
100
AcDbArc
 50
270.0
 51
0.0
  0
LINE
  5
16CC2
330
747D
100
AcDbEntity
  8
細線
100
AcDbLine
 10
7643.480607178521
 20
4033.869626708054
 30
0.0
 11
7644.975031088356
 21
4033.869626708054
 31
0.0
  0
ARC
  5
16CC3
330
747D
100
AcDbEntity
  8
細線
100
AcDbCircle
 10
7644.975031088356
 20
4036.869626708054
 30
0.0
 40
3.0
100
AcDbArc
 50
270.0
 51
351.9004491617129
  0
LINE
  5
16CC4
330
747D
100
AcDbEntity
  8
細線
100
AcDbLine
 10
7643.480607178521
 20
4030.869626708054
 30
0.0
 11
7655.688146357267
 21
4030.869626708054
 31
0.0
  0
ARC
  5
16CC5
330
747D
100
AcDbEntity
  8
細線
100
AcDbCircle
 10
7655.688146357267
 20
4036.869626708054
 30
0.0
 40
6.0
100
AcDbArc
 50
270.0
 51
0.0
  0
LINE
  5
16CC6
330
747D
100
AcDbEntity
  8
細線
100
AcDbLine
 10
7634.861563542997
 20
4027.869626708054
 30
0.0
 11
7665.48060717852
 21
4027.869626708054
 31
0.0
  0
ARC
  5
16CC7
330
747D
100
AcDbEntity
  8
細線
100
AcDbCircle
 10
7665.48060717852
 20
4033.869626708054
 30
0.0
 40
6.0
100
AcDbArc
 50
270.0
 51
0.0
  0
ARC
  5
16CC8
330
747D
100
AcDbEntity
  8
細線
100
AcDbCircle
 10
7634.861563542997
 20
4033.869626708054
 30
0.0
 40
6.0
100
AcDbArc
 50
188.7879373226583
 51
270.0
  0
ARC
  5
16CC9
330
747D
100
AcDbEntity
  8
部品1
100
AcDbCircle
 10
7630.482337287505
 20
4023.869626708054
 30
0.0
 40
6.0
100
AcDbArc
 50
190.5838025965202
 51
270.0
  0
ARC
  5
16CCA
330
747D
100
AcDbEntity
  8
細線
100
AcDbCircle
 10
7631.313988709274
 20
4024.869626708054
 30
0.0
 40
5.5
100
AcDbArc
 50
190.4214509727453
 51
270.0
  0
LINE
  5
16CCB
330
747D
100
AcDbEntity
  8
細線
100
AcDbLine
 10
7661.688146357267
 20
4036.869626708054
 30
0.0
 11
7661.688146357267
 21
4118.869626708054
 31
0.0
  0
LINE
  5
16CCC
330
747D
100
AcDbEntity
  8
細線
100
AcDbLine
 10
7643.480607178521
 20
4127.869626708053
 30
0.0
 11
7643.480607178521
 21
4027.869626708054
 31
0.0
  0
ARC
  5
16CCD
330
747D
100
AcDbEntity
  8
部品1
100
AcDbCircle
 10
7919.48060717852
 20
4077.869626708054
 30
0.0
 40
300.0
100
AcDbArc
 50
169.4161974034797
 51
190.5838025965202
  0
ARC
  5
16CCE
330
747D
100
AcDbEntity
  8
細線
100
AcDbCircle
 10
7919.48060717852
 20
4077.869626708054
 30
0.0
 40
298.5
100
AcDbArc
 50
169.5785490272547
 51
190.4214509727453
  0
ARC
  5
16CCF
330
747D
100
AcDbEntity
  8
細線
100
AcDbCircle
 10
7919.48060717852
 20
4077.869626708054
 30
0.0
 40
294.0
100
AcDbArc
 50
171.2120626773417
 51
188.7879373226583
  0
ARC
  5
16CD0
330
747D
100
AcDbEntity
  8
細線
100
AcDbCircle
 10
7356.877825270597
 20
4077.869626708054
 30
0.0
 40
294.0
100
AcDbArc
 50
351.9004491617645
 51
8.099550838235547
  0
LINE
  5
16CD1
330
747D
100
AcDbEntity
  8
細線
100
AcDbLine
 10
7671.48060717852
 20
4033.869626708054
 30
0.0
 11
7671.48060717852
 21
4121.869626708053
 31
0.0
  0
LINE
  5
16CD2
330
747D
100
AcDbEntity
  8
細線
100
AcDbLine
 10
7675.98060717852
 20
4024.869626708054
 30
0.0
 11
7675.98060717852
 21
4130.869626708054
 31
0.0
  0
LINE
  5
16CD3
330
747D
100
AcDbEntity
  8
部品1
100
AcDbLine
 10
7677.48060717852
 20
4023.869626708054
 30
0.0
 11
7677.48060717852
 21
4131.869626708054
 31
0.0
  0
ARC
  5
16CD4
330
747D
100
AcDbEntity
  8
細線
100
AcDbCircle
 10
3834.861563542998
 20
4121.869626708053
 30
0.0
 40
6.0
100
AcDbArc
 50
90.0
 51
171.2120626773417
  0
LINE
  5
16CD5
330
747D
100
AcDbEntity
  8
細線
100
AcDbLine
 10
3843.48060717852
 20
4121.869118809493
 30
0.0
 11
3830.717279962554
 21
4121.869118809493
 31
0.0
  0
LINE
  5
16CD6
330
747D
100
AcDbEntity
  8
細線
100
AcDbLine
 10
3870.480607178521
 20
4136.369626708054
 30
0.0
 11
3831.313988709275
 21
4136.369626708054
 31
0.0
  0
LINE
  5
16CD7
330
747D
100
AcDbEntity
  8
部品1
100
AcDbLine
 10
3871.480607178521
 20
4137.869626708054
 30
0.0
 11
3830.482337287506
 21
4137.869626708054
 31
0.0
  0
ARC
  5
16CD8
330
747D
100
AcDbEntity
  8
部品1
100
AcDbCircle
 10
3830.482337287506
 20
4131.869626708054
 30
0.0
 40
6.0
100
AcDbArc
 50
90.0
 51
169.4161974034797
  0
ARC
  5
16CD9
330
747D
100
AcDbEntity
  8
細線
100
AcDbCircle
 10
3831.313988709275
 20
4130.869626708054
 30
0.0
 40
5.5
100
AcDbArc
 50
90.0
 51
169.5785490272547
  0
ARC
  5
16CDA
330
747D
100
AcDbEntity
  8
細線
100
AcDbCircle
 10
3870.480607178521
 20
4130.869626708054
 30
0.0
 40
5.5
100
AcDbArc
 50
0.0
 51
90.0
  0
ARC
  5
16CDB
330
747D
100
AcDbEntity
  8
部品1
100
AcDbCircle
 10
3871.480607178521
 20
4131.869626708054
 30
0.0
 40
6.0
100
AcDbArc
 50
0.0
 51
90.0
  0
LINE
  5
16CDC
330
747D
100
AcDbEntity
  8
細線
100
AcDbLine
 10
3844.975031088354
 20
4121.869626708053
 30
0.0
 11
3843.48060717852
 21
4121.869626708053
 31
0.0
  0
ARC
  5
16CDD
330
747D
100
AcDbEntity
  8
細線
100
AcDbCircle
 10
3844.975031088354
 20
4118.869626708054
 30
0.0
 40
3.0
100
AcDbArc
 50
8.099550838235547
 51
90.0
  0
LINE
  5
16CDE
330
747D
100
AcDbEntity
  8
細線
100
AcDbLine
 10
3855.688146357266
 20
4124.869626708053
 30
0.0
 11
3843.48060717852
 21
4124.869626708053
 31
0.0
  0
ARC
  5
16CDF
330
747D
100
AcDbEntity
  8
細線
100
AcDbCircle
 10
3855.688146357266
 20
4118.869626708054
 30
0.0
 40
6.0
100
AcDbArc
 50
0.0
 51
90.0
  0
LINE
  5
16CE0
330
747D
100
AcDbEntity
  8
細線
100
AcDbLine
 10
3865.480607178521
 20
4127.869626708053
 30
0.0
 11
3834.861563542998
 21
4127.869626708053
 31
0.0
  0
ARC
  5
16CE1
330
747D
100
AcDbEntity
  8
細線
100
AcDbCircle
 10
3865.480607178521
 20
4121.869626708053
 30
0.0
 40
6.0
100
AcDbArc
 50
0.0
 51
90.0
  0
CIRCLE
  5
16CE2
330
747D
100
AcDbEntity
  8
細線
 48
50.0
100
AcDbCircle
 10
3850.981472233014
 20
4178.369626708054
 30
0.0
 40
10.0
  0
CIRCLE
  5
16CE3
330
747D
100
AcDbEntity
  8
細線
 48
50.0
100
AcDbCircle
 10
3850.981472233014
 20
4178.369626708054
 30
0.0
 40
20.0
  0
ARC
  5
16CE4
330
747D
100
AcDbEntity
  8
細線
100
AcDbCircle
 10
3834.861563542998
 20
4033.869626708054
 30
0.0
 40
6.0
100
AcDbArc
 50
188.7879373226583
 51
270.0
  0
LINE
  5
16CE5
330
747D
100
AcDbEntity
  8
細線
100
AcDbLine
 10
3843.48060717852
 20
4033.870134606617
 30
0.0
 11
3830.001902679698
 21
4033.870134606617
 31
0.0
  0
LINE
  5
16CE6
330
747D
100
AcDbEntity
  8
細線
100
AcDbLine
 10
3831.313988709275
 20
4019.369626708054
 30
0.0
 11
3870.480607178521
 21
4019.369626708054
 31
0.0
  0
LINE
  5
16CE7
330
747D
100
AcDbEntity
  8
部品1
100
AcDbLine
 10
3830.482337287506
 20
4017.869626708054
 30
0.0
 11
3871.480607178521
 21
4017.869626708054
 31
0.0
  0
ARC
  5
16CE8
330
747D
100
AcDbEntity
  8
部品1
100
AcDbCircle
 10
3830.482337287506
 20
4023.869626708054
 30
0.0
 40
6.0
100
AcDbArc
 50
190.5838025965202
 51
270.0
  0
ARC
  5
16CE9
330
747D
100
AcDbEntity
  8
細線
100
AcDbCircle
 10
3831.313988709275
 20
4024.869626708054
 30
0.0
 40
5.5
100
AcDbArc
 50
190.4214509727453
 51
270.0
  0
ARC
  5
16CEA
330
747D
100
AcDbEntity
  8
細線
100
AcDbCircle
 10
3870.480607178521
 20
4024.869626708054
 30
0.0
 40
5.5
100
AcDbArc
 50
270.0
 51
0.0
  0
ARC
  5
16CEB
330
747D
100
AcDbEntity
  8
部品1
100
AcDbCircle
 10
3871.480607178521
 20
4023.869626708054
 30
0.0
 40
6.0
100
AcDbArc
 50
270.0
 51
0.0
  0
LINE
  5
16CEC
330
747D
100
AcDbEntity
  8
細線
100
AcDbLine
 10
3843.48060717852
 20
4033.869626708054
 30
0.0
 11
3844.975031088356
 21
4033.869626708054
 31
0.0
  0
ARC
  5
16CED
330
747D
100
AcDbEntity
  8
細線
100
AcDbCircle
 10
3844.975031088356
 20
4036.869626708054
 30
0.0
 40
3.0
100
AcDbArc
 50
270.0
 51
351.9004491617129
  0
LINE
  5
16CEE
330
747D
100
AcDbEntity
  8
細線
100
AcDbLine
 10
3843.48060717852
 20
4030.869626708054
 30
0.0
 11
3855.688146357266
 21
4030.869626708054
 31
0.0
  0
ARC
  5
16CEF
330
747D
100
AcDbEntity
  8
細線
100
AcDbCircle
 10
3855.688146357266
 20
4036.869626708054
 30
0.0
 40
6.0
100
AcDbArc
 50
270.0
 51
0.0
  0
LINE
  5
16CF0
330
747D
100
AcDbEntity
  8
細線
100
AcDbLine
 10
3834.861563542998
 20
4027.869626708054
 30
0.0
 11
3865.480607178521
 21
4027.869626708054
 31
0.0
  0
ARC
  5
16CF1
330
747D
100
AcDbEntity
  8
細線
100
AcDbCircle
 10
3865.480607178521
 20
4033.869626708054
 30
0.0
 40
6.0
100
AcDbArc
 50
270.0
 51
0.0
  0
LINE
  5
16CF2
330
747D
100
AcDbEntity
  8
細線
100
AcDbLine
 10
3861.688146357266
 20
4036.869626708054
 30
0.0
 11
3861.688146357266
 21
4118.869626708054
 31
0.0
  0
LINE
  5
16CF3
330
747D
100
AcDbEntity
  8
細線
100
AcDbLine
 10
3843.48060717852
 20
4127.869626708053
 30
0.0
 11
3843.48060717852
 21
4027.869626708054
 31
0.0
  0
ARC
  5
16CF4
330
747D
100
AcDbEntity
  8
部品1
100
AcDbCircle
 10
4119.480607178521
 20
4077.869626708054
 30
0.0
 40
300.0
100
AcDbArc
 50
169.4161974034797
 51
190.5838025965202
  0
ARC
  5
16CF5
330
747D
100
AcDbEntity
  8
細線
100
AcDbCircle
 10
4119.480607178521
 20
4077.869626708054
 30
0.0
 40
298.5
100
AcDbArc
 50
169.5785490272547
 51
190.4214509727453
  0
ARC
  5
16CF6
330
747D
100
AcDbEntity
  8
細線
100
AcDbCircle
 10
4119.480607178521
 20
4077.869626708054
 30
0.0
 40
294.0
100
AcDbArc
 50
171.2120626773417
 51
188.7879373226583
  0
ARC
  5
16CF7
330
747D
100
AcDbEntity
  8
細線
100
AcDbCircle
 10
3556.877825270596
 20
4077.869626708054
 30
0.0
 40
294.0
100
AcDbArc
 50
351.9004491617645
 51
8.099550838235547
  0
LINE
  5
16CF8
330
747D
100
AcDbEntity
  8
細線
100
AcDbLine
 10
3871.480607178521
 20
4033.869626708054
 30
0.0
 11
3871.480607178521
 21
4121.869626708053
 31
0.0
  0
LINE
  5
16CF9
330
747D
100
AcDbEntity
  8
細線
100
AcDbLine
 10
3875.980607178521
 20
4024.869626708054
 30
0.0
 11
3875.980607178521
 21
4130.869626708054
 31
0.0
  0
LINE
  5
16CFA
330
747D
100
AcDbEntity
  8
部品1
100
AcDbLine
 10
3877.480607178521
 20
4023.869626708054
 30
0.0
 11
3877.480607178521
 21
4131.869626708054
 31
0.0
  0
LINE
  5
16CFB
330
747D
100
AcDbEntity
  8
細線
 48
0.1
100
AcDbLine
 10
9285.418159349839
 20
4973.619626708056
 30
0.0
 11
9285.418159349839
 21
4966.619626708055
 31
0.0
  0
LINE
  5
16CFC
330
747D
100
AcDbEntity
  8
細線
 48
50.0
100
AcDbLine
 10
9273.555402155535
 20
4971.119626708055
 30
0.0
 11
9273.555402155535
 21
4969.119626708056
 31
0.0
  0
LINE
  5
16CFD
330
747D
100
AcDbEntity
  8
細線
 48
50.0
100
AcDbLine
 10
9281.4058122015
 20
4971.119626708055
 30
0.0
 11
9281.4058122015
 21
4969.119626708056
 31
0.0
  0
LINE
  5
16CFE
330
747D
100
AcDbEntity
  8
部品1
 48
50.0
100
AcDbLine
 10
9265.41815934984
 20
4966.619626708055
 30
0.0
 11
9265.41815934984
 21
4973.369626708056
 31
0.0
  0
LINE
  5
16CFF
330
747D
100
AcDbEntity
  8
細線
 48
0.2
100
AcDbLine
 10
9285.418159349839
 20
4969.119626708056
 30
0.0
 11
9265.41815934984
 21
4969.119626708056
 31
0.0
  0
LINE
  5
16D00
330
747D
100
AcDbEntity
  8
部品1
 48
0.2
100
AcDbLine
 10
9285.418159349839
 20
4966.619626708055
 30
0.0
 11
9265.41815934984
 21
4966.619626708055
 31
0.0
  0
ARC
  5
16D01
330
747D
100
AcDbEntity
  8
細線
 48
0.2
100
AcDbCircle
 10
9282.418159349839
 20
4973.590136539304
 30
0.0
 40
1.0
100
AcDbArc
 50
0.0
 51
73.39845040101522
  0
LINE
  5
16D02
330
747D
100
AcDbEntity
  8
細線
 48
0.2
100
AcDbLine
 10
9285.418159349839
 20
4973.619626708056
 30
0.0
 11
9265.41815934984
 21
4973.619626708056
 31
0.0
  0
LINE
  5
16D03
330
747D
100
AcDbEntity
  8
細線
 48
0.2
100
AcDbLine
 10
9285.418159349839
 20
4971.119626708055
 30
0.0
 11
9265.41815934984
 21
4971.119626708055
 31
0.0
  0
ARC
  5
16D04
330
747D
100
AcDbEntity
  8
細線
 48
0.2
100
AcDbCircle
 10
9272.41815934984
 20
4973.590136539304
 30
0.0
 40
1.0
100
AcDbArc
 50
106.6015495989848
 51
180.0
  0
ARC
  5
16D05
330
747D
100
AcDbEntity
  8
細線
 48
0.2
100
AcDbCircle
 10
9277.41815934984
 20
4956.819626708059
 30
0.0
 40
18.49999999999796
100
AcDbArc
 50
73.39845040101522
 51
106.6015495989848
  0
LINE
  5
16D06
330
747D
100
AcDbEntity
  8
細線
 48
0.2
100
AcDbLine
 10
9283.102150646348
 20
4974.319626708057
 30
0.0
 11
9271.734168053335
 21
4974.319626708057
 31
0.0
  0
LINE
  5
16D07
330
747D
100
AcDbEntity
  8
細線
 48
50.0
100
AcDbLine
 10
9265.41815934984
 20
4973.369626708056
 30
0.0
 11
9265.41815934984
 21
4973.619626708056
 31
0.0
  0
LINE
  5
16D08
330
747D
100
AcDbEntity
  8
部品1
100
AcDbLine
 10
9285.418159349839
 20
4973.369626708056
 30
0.0
 11
9285.48060717852
 21
4973.369626708054
 31
0.0
  0
LINE
  5
16D09
330
747D
100
AcDbEntity
  8
部品1
100
AcDbLine
 10
9285.418159349839
 20
4973.369626708052
 30
0.0
 11
9285.48060717852
 21
4973.369626708054
 31
0.0
  0
LINE
  5
16D0A
330
747D
100
AcDbEntity
  8
細線
 48
0.1
100
AcDbLine
 10
8335.41815934984
 20
4973.619626708056
 30
0.0
 11
8335.41815934984
 21
4966.619626708055
 31
0.0
  0
LINE
  5
16D0B
330
747D
100
AcDbEntity
  8
細線
 48
50.0
100
AcDbLine
 10
8323.555402155536
 20
4971.119626708055
 30
0.0
 11
8323.555402155536
 21
4969.119626708056
 31
0.0
  0
LINE
  5
16D0C
330
747D
100
AcDbEntity
  8
細線
 48
50.0
100
AcDbLine
 10
8331.4058122015
 20
4971.119626708055
 30
0.0
 11
8331.4058122015
 21
4969.119626708056
 31
0.0
  0
LINE
  5
16D0D
330
747D
100
AcDbEntity
  8
部品1
 48
50.0
100
AcDbLine
 10
8315.418159349839
 20
4966.619626708055
 30
0.0
 11
8315.418159349839
 21
4973.369626708056
 31
0.0
  0
LINE
  5
16D0E
330
747D
100
AcDbEntity
  8
細線
 48
0.2
100
AcDbLine
 10
8335.41815934984
 20
4969.119626708056
 30
0.0
 11
8315.418159349839
 21
4969.119626708056
 31
0.0
  0
LINE
  5
16D0F
330
747D
100
AcDbEntity
  8
部品1
 48
0.2
100
AcDbLine
 10
8335.41815934984
 20
4966.619626708055
 30
0.0
 11
8315.418159349839
 21
4966.619626708055
 31
0.0
  0
ARC
  5
16D10
330
747D
100
AcDbEntity
  8
細線
 48
0.2
100
AcDbCircle
 10
8332.41815934984
 20
4973.590136539304
 30
0.0
 40
1.0
100
AcDbArc
 50
0.0
 51
73.39845040101522
  0
LINE
  5
16D11
330
747D
100
AcDbEntity
  8
細線
 48
0.2
100
AcDbLine
 10
8335.41815934984
 20
4973.619626708056
 30
0.0
 11
8315.418159349839
 21
4973.619626708056
 31
0.0
  0
LINE
  5
16D12
330
747D
100
AcDbEntity
  8
細線
 48
0.2
100
AcDbLine
 10
8335.41815934984
 20
4971.119626708055
 30
0.0
 11
8315.418159349839
 21
4971.119626708055
 31
0.0
  0
ARC
  5
16D13
330
747D
100
AcDbEntity
  8
細線
 48
0.2
100
AcDbCircle
 10
8322.41815934984
 20
4973.590136539304
 30
0.0
 40
1.0
100
AcDbArc
 50
106.6015495989848
 51
180.0
  0
ARC
  5
16D14
330
747D
100
AcDbEntity
  8
細線
 48
0.2
100
AcDbCircle
 10
8327.418159349839
 20
4956.819626708059
 30
0.0
 40
18.49999999999796
100
AcDbArc
 50
73.39845040101522
 51
106.6015495989848
  0
LINE
  5
16D15
330
747D
100
AcDbEntity
  8
細線
 48
0.2
100
AcDbLine
 10
8333.102150646347
 20
4974.319626708057
 30
0.0
 11
8321.734168053335
 21
4974.319626708057
 31
0.0
  0
LINE
  5
16D16
330
747D
100
AcDbEntity
  8
細線
 48
50.0
100
AcDbLine
 10
8315.418159349839
 20
4973.369626708056
 30
0.0
 11
8315.418159349839
 21
4973.619626708056
 31
0.0
  0
LINE
  5
16D17
330
747D
100
AcDbEntity
  8
部品1
100
AcDbLine
 10
8335.41815934984
 20
4973.369626708056
 30
0.0
 11
8335.480607178521
 21
4973.369626708054
 31
0.0
  0
LINE
  5
16D18
330
747D
100
AcDbEntity
  8
部品1
100
AcDbLine
 10
8335.41815934984
 20
4973.369626708052
 30
0.0
 11
8335.480607178521
 21
4973.369626708054
 31
0.0
  0
LINE
  5
16D19
330
747D
100
AcDbEntity
  8
部品1
100
AcDbLine
 10
8555.480607178521
 20
4973.369626708052
 30
0.0
 11
9265.41815934984
 21
4973.369626708054
 31
0.0
  0
LINE
  5
16D1A
330
747D
100
AcDbEntity
  8
部品1
 48
50.0
100
AcDbLine
 10
9265.41815934984
 20
3189.119626708072
 30
0.0
 11
9265.41815934984
 21
3182.369626708074
 31
0.0
  0
LINE
  5
16D1B
330
747D
100
AcDbEntity
  8
細線
 48
50.0
100
AcDbLine
 10
9281.4058122015
 20
3184.619626708074
 30
0.0
 11
9281.4058122015
 21
3186.619626708072
 31
0.0
  0
LINE
  5
16D1C
330
747D
100
AcDbEntity
  8
細線
 48
50.0
100
AcDbLine
 10
9273.555402155535
 20
3184.619626708074
 30
0.0
 11
9273.555402155535
 21
3186.619626708072
 31
0.0
  0
LINE
  5
16D1D
330
747D
100
AcDbEntity
  8
細線
 48
0.1
100
AcDbLine
 10
9285.418159349839
 20
3182.119626708072
 30
0.0
 11
9285.418159349839
 21
3189.119626708072
 31
0.0
  0
LINE
  5
16D1E
330
747D
100
AcDbEntity
  8
部品1
100
AcDbLine
 10
9285.418159349839
 20
3182.369626708076
 30
0.0
 11
9285.48060717852
 21
3182.369626708076
 31
0.0
  0
LINE
  5
16D1F
330
747D
100
AcDbEntity
  8
部品1
100
AcDbLine
 10
9285.418159349839
 20
3182.369626708074
 30
0.0
 11
9285.48060717852
 21
3182.369626708074
 31
0.0
  0
LINE
  5
16D20
330
747D
100
AcDbEntity
  8
細線
 48
50.0
100
AcDbLine
 10
9265.41815934984
 20
3182.369626708074
 30
0.0
 11
9265.41815934984
 21
3182.119626708072
 31
0.0
  0
LINE
  5
16D21
330
747D
100
AcDbEntity
  8
細線
 48
0.2
100
AcDbLine
 10
9283.102150646348
 20
3181.419626708072
 30
0.0
 11
9271.734168053335
 21
3181.419626708072
 31
0.0
  0
ARC
  5
16D22
330
747D
100
AcDbEntity
  8
細線
 48
0.2
100
AcDbCircle
 10
9277.41815934984
 20
3198.91962670807
 30
0.0
 40
18.49999999999796
100
AcDbArc
 50
253.3984504010152
 51
286.6015495989848
  0
ARC
  5
16D23
330
747D
100
AcDbEntity
  8
細線
 48
0.2
100
AcDbCircle
 10
9272.41815934984
 20
3182.149116876825
 30
0.0
 40
1.0
100
AcDbArc
 50
180.0
 51
253.3984504010152
  0
LINE
  5
16D24
330
747D
100
AcDbEntity
  8
細線
 48
0.2
100
AcDbLine
 10
9285.418159349839
 20
3184.619626708073
 30
0.0
 11
9265.41815934984
 21
3184.619626708074
 31
0.0
  0
LINE
  5
16D25
330
747D
100
AcDbEntity
  8
細線
 48
0.2
100
AcDbLine
 10
9285.418159349839
 20
3182.119626708072
 30
0.0
 11
9265.41815934984
 21
3182.119626708072
 31
0.0
  0
ARC
  5
16D26
330
747D
100
AcDbEntity
  8
細線
 48
0.2
100
AcDbCircle
 10
9282.418159349839
 20
3182.149116876825
 30
0.0
 40
1.0
100
AcDbArc
 50
286.6015495989848
 51
0.0
  0
LINE
  5
16D27
330
747D
100
AcDbEntity
  8
部品1
100
AcDbLine
 10
9285.418159349839
 20
3182.369626708074
 30
0.0
 11
9285.48060717852
 21
3182.369626708074
 31
0.0
  0
LINE
  5
16D28
330
747D
100
AcDbEntity
  8
部品1
 48
0.2
100
AcDbLine
 10
9285.418159349839
 20
3189.119626708072
 30
0.0
 11
9265.41815934984
 21
3189.119626708072
 31
0.0
  0
LINE
  5
16D29
330
747D
100
AcDbEntity
  8
細線
 48
0.2
100
AcDbLine
 10
9285.418159349839
 20
3186.619626708072
 30
0.0
 11
9265.41815934984
 21
3186.619626708072
 31
0.0
  0
LINE
  5
16D2A
330
747D
100
AcDbEntity
  8
部品1
 48
50.0
100
AcDbLine
 10
8315.418159349839
 20
3189.119626708072
 30
0.0
 11
8315.418159349839
 21
3182.369626708074
 31
0.0
  0
LINE
  5
16D2B
330
747D
100
AcDbEntity
  8
細線
 48
50.0
100
AcDbLine
 10
8331.4058122015
 20
3184.619626708074
 30
0.0
 11
8331.4058122015
 21
3186.619626708072
 31
0.0
  0
LINE
  5
16D2C
330
747D
100
AcDbEntity
  8
細線
 48
50.0
100
AcDbLine
 10
8323.555402155536
 20
3184.619626708074
 30
0.0
 11
8323.555402155536
 21
3186.619626708072
 31
0.0
  0
LINE
  5
16D2D
330
747D
100
AcDbEntity
  8
細線
 48
0.1
100
AcDbLine
 10
8335.41815934984
 20
3182.119626708072
 30
0.0
 11
8335.41815934984
 21
3189.119626708072
 31
0.0
  0
LINE
  5
16D2E
330
747D
100
AcDbEntity
  8
部品1
100
AcDbLine
 10
8335.41815934984
 20
3182.369626708076
 30
0.0
 11
8335.480607178521
 21
3182.369626708076
 31
0.0
  0
LINE
  5
16D2F
330
747D
100
AcDbEntity
  8
部品1
100
AcDbLine
 10
8335.41815934984
 20
3182.369626708074
 30
0.0
 11
8335.480607178521
 21
3182.369626708074
 31
0.0
  0
LINE
  5
16D30
330
747D
100
AcDbEntity
  8
細線
 48
50.0
100
AcDbLine
 10
8315.418159349839
 20
3182.369626708074
 30
0.0
 11
8315.418159349839
 21
3182.119626708072
 31
0.0
  0
LINE
  5
16D31
330
747D
100
AcDbEntity
  8
細線
 48
0.2
100
AcDbLine
 10
8333.102150646347
 20
3181.419626708072
 30
0.0
 11
8321.734168053335
 21
3181.419626708072
 31
0.0
  0
ARC
  5
16D32
330
747D
100
AcDbEntity
  8
細線
 48
0.2
100
AcDbCircle
 10
8327.418159349839
 20
3198.91962670807
 30
0.0
 40
18.49999999999796
100
AcDbArc
 50
253.3984504010152
 51
286.6015495989848
  0
ARC
  5
16D33
330
747D
100
AcDbEntity
  8
細線
 48
0.2
100
AcDbCircle
 10
8322.41815934984
 20
3182.149116876825
 30
0.0
 40
1.0
100
AcDbArc
 50
180.0
 51
253.3984504010152
  0
LINE
  5
16D34
330
747D
100
AcDbEntity
  8
細線
 48
0.2
100
AcDbLine
 10
8335.41815934984
 20
3184.619626708073
 30
0.0
 11
8315.418159349839
 21
3184.619626708074
 31
0.0
  0
LINE
  5
16D35
330
747D
100
AcDbEntity
  8
細線
 48
0.2
100
AcDbLine
 10
8335.41815934984
 20
3182.119626708072
 30
0.0
 11
8315.418159349839
 21
3182.119626708072
 31
0.0
  0
ARC
  5
16D36
330
747D
100
AcDbEntity
  8
細線
 48
0.2
100
AcDbCircle
 10
8332.41815934984
 20
3182.149116876825
 30
0.0
 40
1.0
100
AcDbArc
 50
286.6015495989848
 51
0.0
  0
LINE
  5
16D37
330
747D
100
AcDbEntity
  8
部品1
100
AcDbLine
 10
8335.41815934984
 20
3182.369626708074
 30
0.0
 11
8335.480607178521
 21
3182.369626708074
 31
0.0
  0
LINE
  5
16D38
330
747D
100
AcDbEntity
  8
部品1
 48
0.2
100
AcDbLine
 10
8335.41815934984
 20
3189.119626708072
 30
0.0
 11
8315.418159349839
 21
3189.119626708072
 31
0.0
  0
LINE
  5
16D39
330
747D
100
AcDbEntity
  8
細線
 48
0.2
100
AcDbLine
 10
8335.41815934984
 20
3186.619626708072
 30
0.0
 11
8315.418159349839
 21
3186.619626708072
 31
0.0
  0
LINE
  5
16D3A
330
747D
100
AcDbEntity
  8
部品1
100
AcDbLine
 10
8555.480607178521
 20
3182.369626708068
 30
0.0
 11
9265.41815934984
 21
3182.369626708072
 31
0.0
  0
LINE
  5
16D3B
330
747D
100
AcDbEntity
  8
部品1
100
AcDbLine
 10
9287.480607178521
 20
4975.869626708054
 30
0.0
 11
9287.480607178521
 21
3178.869626708074
 31
0.0
  0
LINE
  5
16D3C
330
747D
100
AcDbEntity
  8
部品1
100
AcDbLine
 10
9417.480607178521
 20
4975.869626708054
 30
0.0
 11
9417.480607178521
 21
3178.869626708074
 31
0.0
  0
LINE
  5
16D3D
330
747D
100
AcDbEntity
  8
部品1
100
AcDbLine
 10
9460.480607178521
 20
5069.869626708057
 30
0.0
 11
9460.480607178521
 21
3035.869626708054
 31
0.0
  0
LINE
  5
16D3E
330
747D
100
AcDbEntity
  8
部品1
100
AcDbLine
 10
9285.480607178518
 20
4973.369626708054
 30
0.0
 11
9285.48060717852
 21
3182.369626708076
 31
0.0
  0
LINE
  5
16D3F
330
747D
100
AcDbEntity
  8
部品1
100
AcDbLine
 10
8555.480607178521
 20
4973.369626708052
 30
0.0
 11
8555.480607178521
 21
3182.369626708069
 31
0.0
  0
LINE
  5
16D40
330
747D
100
AcDbEntity
  8
部品1
100
AcDbLine
 10
8553.480607178521
 20
4975.869626708054
 30
0.0
 11
8553.480607178521
 21
3178.869626708074
 31
0.0
  0
LINE
  5
16D41
330
747D
100
AcDbEntity
  8
部品1
100
AcDbLine
 10
8337.48060717852
 20
4975.869626708054
 30
0.0
 11
8337.48060717852
 21
3178.869626708074
 31
0.0
  0
LINE
  5
16D42
330
747D
100
AcDbEntity
  8
部品1
100
AcDbLine
 10
8335.480607178521
 20
4973.369626708054
 30
0.0
 11
8335.480607178521
 21
3182.369626708076
 31
0.0
  0
LINE
  5
16D43
330
747D
100
AcDbEntity
  8
部品1
100
AcDbLine
 10
8467.48060717852
 20
4975.869626708054
 30
0.0
 11
8467.48060717852
 21
3178.869626708074
 31
0.0
  0
LINE
  5
16D44
330
747D
100
AcDbEntity
  8
細線
 48
50.0
100
AcDbLine
 10
7381.405812201499
 20
4971.119626708055
 30
0.0
 11
7381.405812201499
 21
4969.119626708056
 31
0.0
  0
LINE
  5
16D45
330
747D
100
AcDbEntity
  8
細線
 48
0.1
100
AcDbLine
 10
7385.418159349839
 20
4973.619626708056
 30
0.0
 11
7385.418159349839
 21
4966.619626708055
 31
0.0
  0
LINE
  5
16D46
330
747D
100
AcDbEntity
  8
細線
 48
50.0
100
AcDbLine
 10
7373.555402155536
 20
4971.119626708055
 30
0.0
 11
7373.555402155536
 21
4969.119626708056
 31
0.0
  0
LINE
  5
16D47
330
747D
100
AcDbEntity
  8
部品1
 48
50.0
100
AcDbLine
 10
7365.41815934984
 20
4966.619626708055
 30
0.0
 11
7365.41815934984
 21
4973.369626708056
 31
0.0
  0
LINE
  5
16D48
330
747D
100
AcDbEntity
  8
部品1
 48
0.2
100
AcDbLine
 10
7385.418159349839
 20
4966.619626708055
 30
0.0
 11
7365.41815934984
 21
4966.619626708055
 31
0.0
  0
LINE
  5
16D49
330
747D
100
AcDbEntity
  8
細線
 48
0.2
100
AcDbLine
 10
7385.418159349839
 20
4969.119626708056
 30
0.0
 11
7365.41815934984
 21
4969.119626708056
 31
0.0
  0
LINE
  5
16D4A
330
747D
100
AcDbEntity
  8
細線
 48
0.2
100
AcDbLine
 10
7383.102150646347
 20
4974.319626708057
 30
0.0
 11
7371.734168053335
 21
4974.319626708057
 31
0.0
  0
ARC
  5
16D4B
330
747D
100
AcDbEntity
  8
細線
 48
0.2
100
AcDbCircle
 10
7377.41815934984
 20
4956.819626708059
 30
0.0
 40
18.49999999999796
100
AcDbArc
 50
73.39845040101522
 51
106.6015495989848
  0
LINE
  5
16D4C
330
747D
100
AcDbEntity
  8
細線
 48
0.2
100
AcDbLine
 10
7385.418159349839
 20
4971.119626708055
 30
0.0
 11
7365.41815934984
 21
4971.119626708055
 31
0.0
  0
LINE
  5
16D4D
330
747D
100
AcDbEntity
  8
細線
 48
0.2
100
AcDbLine
 10
7385.418159349839
 20
4973.619626708056
 30
0.0
 11
7365.41815934984
 21
4973.619626708056
 31
0.0
  0
ARC
  5
16D4E
330
747D
100
AcDbEntity
  8
細線
 48
0.2
100
AcDbCircle
 10
7372.41815934984
 20
4973.590136539304
 30
0.0
 40
1.0
100
AcDbArc
 50
106.6015495989848
 51
180.0
  0
LINE
  5
16D4F
330
747D
100
AcDbEntity
  8
細線
 48
50.0
100
AcDbLine
 10
7365.41815934984
 20
4973.369626708056
 30
0.0
 11
7365.41815934984
 21
4973.619626708056
 31
0.0
  0
ARC
  5
16D50
330
747D
100
AcDbEntity
  8
細線
 48
0.2
100
AcDbCircle
 10
7382.418159349839
 20
4973.590136539304
 30
0.0
 40
1.0
100
AcDbArc
 50
0.0
 51
73.39845040101522
  0
LINE
  5
16D51
330
747D
100
AcDbEntity
  8
部品1
100
AcDbLine
 10
7385.418159349839
 20
4973.369626708056
 30
0.0
 11
7385.480607178521
 21
4973.369626708054
 31
0.0
  0
LINE
  5
16D52
330
747D
100
AcDbEntity
  8
部品1
100
AcDbLine
 10
6655.480607178521
 20
4973.369626708056
 30
0.0
 11
7365.41815934984
 21
4973.369626708056
 31
0.0
  0
LINE
  5
16D53
330
747D
100
AcDbEntity
  8
細線
 48
0.2
100
AcDbLine
 10
7385.418159349839
 20
3182.119626708072
 30
0.0
 11
7365.41815934984
 21
3182.119626708072
 31
0.0
  0
LINE
  5
16D54
330
747D
100
AcDbEntity
  8
細線
 48
0.2
100
AcDbLine
 10
7385.418159349839
 20
3184.619626708073
 30
0.0
 11
7365.41815934984
 21
3184.619626708074
 31
0.0
  0
ARC
  5
16D55
330
747D
100
AcDbEntity
  8
細線
 48
0.2
100
AcDbCircle
 10
7377.41815934984
 20
3198.91962670807
 30
0.0
 40
18.49999999999796
100
AcDbArc
 50
253.3984504010152
 51
286.6015495989848
  0
LINE
  5
16D56
330
747D
100
AcDbEntity
  8
細線
 48
0.2
100
AcDbLine
 10
7383.102150646347
 20
3181.419626708072
 30
0.0
 11
7371.734168053335
 21
3181.419626708072
 31
0.0
  0
LINE
  5
16D57
330
747D
100
AcDbEntity
  8
細線
 48
0.2
100
AcDbLine
 10
7385.418159349839
 20
3186.619626708072
 30
0.0
 11
7365.41815934984
 21
3186.619626708072
 31
0.0
  0
LINE
  5
16D58
330
747D
100
AcDbEntity
  8
部品1
 48
0.2
100
AcDbLine
 10
7385.418159349839
 20
3189.119626708072
 30
0.0
 11
7365.41815934984
 21
3189.119626708072
 31
0.0
  0
LINE
  5
16D59
330
747D
100
AcDbEntity
  8
細線
 48
50.0
100
AcDbLine
 10
7373.555402155536
 20
3184.619626708074
 30
0.0
 11
7373.555402155536
 21
3186.619626708072
 31
0.0
  0
LINE
  5
16D5A
330
747D
100
AcDbEntity
  8
部品1
 48
50.0
100
AcDbLine
 10
7365.41815934984
 20
3189.119626708072
 30
0.0
 11
7365.41815934984
 21
3182.369626708074
 31
0.0
  0
ARC
  5
16D5B
330
747D
100
AcDbEntity
  8
細線
 48
0.2
100
AcDbCircle
 10
7372.41815934984
 20
3182.149116876825
 30
0.0
 40
1.0
100
AcDbArc
 50
180.0
 51
253.3984504010152
  0
LINE
  5
16D5C
330
747D
100
AcDbEntity
  8
細線
 48
50.0
100
AcDbLine
 10
7365.41815934984
 20
3182.369626708074
 30
0.0
 11
7365.41815934984
 21
3182.119626708072
 31
0.0
  0
LINE
  5
16D5D
330
747D
100
AcDbEntity
  8
細線
 48
0.1
100
AcDbLine
 10
7385.418159349839
 20
3182.119626708072
 30
0.0
 11
7385.418159349839
 21
3189.119626708072
 31
0.0
  0
LINE
  5
16D5E
330
747D
100
AcDbEntity
  8
細線
 48
50.0
100
AcDbLine
 10
7381.405812201499
 20
3184.619626708074
 30
0.0
 11
7381.405812201499
 21
3186.619626708072
 31
0.0
  0
ARC
  5
16D5F
330
747D
100
AcDbEntity
  8
細線
 48
0.2
100
AcDbCircle
 10
7382.418159349839
 20
3182.149116876825
 30
0.0
 40
1.0
100
AcDbArc
 50
286.6015495989848
 51
0.0
  0
LINE
  5
16D60
330
747D
100
AcDbEntity
  8
部品1
100
AcDbLine
 10
7385.418159349839
 20
3182.369626708074
 30
0.0
 11
7385.480607178521
 21
3182.369626708074
 31
0.0
  0
LINE
  5
16D61
330
747D
100
AcDbEntity
  8
部品1
100
AcDbLine
 10
7385.418159349839
 20
3182.369626708065
 30
0.0
 11
7385.480607178521
 21
3182.369626708065
 31
0.0
  0
LINE
  5
16D62
330
747D
100
AcDbEntity
  8
部品1
100
AcDbLine
 10
6655.480607178521
 20
3182.36962670806
 30
0.0
 11
7365.41815934984
 21
3182.369626708074
 31
0.0
  0
LINE
  5
16D63
330
747D
100
AcDbEntity
  8
部品1
100
AcDbLine
 10
7387.48060717852
 20
4975.869626708054
 30
0.0
 11
7387.48060717852
 21
3178.869626708074
 31
0.0
  0
DIMENSION
  5
16D64
330
747D
100
AcDbEntity
  8
寸法
100
AcDbDimension
  2
*D41
 10
3442.376079570917
 20
3197.369626708058
 30
0.0
 11
3442.376079570917
 21
4076.369626708056
 31
0.0
 70
   160
  1
有効開口部高サ<>
 71
     5
 42
1759.999999999996
  3
INABA_S40G
100
AcDbAlignedDimension
 13
3760.480607178521
 23
4957.369626708054
 33
0.0
 14
3760.480607178521
 24
3197.369626708058
 34
0.0
 50
90.0
100
AcDbRotatedDimension
1001
ACAD
1000
DSTYLE
1002
{
1070
   288
1070
     1
1002
}
  0
LINE
  5
16D65
330
747D
100
AcDbEntity
  8
部品1
100
AcDbLine
 10
7517.480607178521
 20
4975.869626708054
 30
0.0
 11
7517.480607178521
 21
3178.869626708074
 31
0.0
  0
LINE
  5
16D66
330
747D
100
AcDbEntity
  8
部品1
100
AcDbLine
 10
7385.480607178519
 20
4973.369626708054
 30
0.0
 11
7385.480607178521
 21
3182.369626708074
 31
0.0
  0
LINE
  5
16D67
330
747D
100
AcDbEntity
  8
部品1
100
AcDbLine
 10
3805.480607178521
 20
4973.369626708057
 30
0.0
 11
3805.480607178521
 21
3182.36962670806
 31
0.0
  0
LINE
  5
16D68
330
747D
100
AcDbEntity
  8
部品1
100
AcDbLine
 10
3760.480607178521
 20
5069.869626708058
 30
0.0
 11
3760.480607178521
 21
3035.869626708054
 31
0.0
  0
LINE
  5
16D69
330
747D
100
AcDbEntity
  8
部品1
100
AcDbLine
 10
3803.480607178521
 20
4975.869626708054
 30
0.0
 11
3803.480607178521
 21
3178.869626708074
 31
0.0
  0
LINE
  5
16D6A
330
747D
100
AcDbEntity
  8
部品1
100
AcDbLine
 10
7605.48060717852
 20
4973.369626708054
 30
0.0
 11
7605.48060717852
 21
3182.369626708069
 31
0.0
  0
LINE
  5
16D6B
330
747D
100
AcDbEntity
  8
部品1
100
AcDbLine
 10
7603.480607178521
 20
4975.869626708054
 30
0.0
 11
7603.480607178521
 21
3178.869626708074
 31
0.0
  0
LINE
  5
16D6C
330
747D
100
AcDbEntity
  8
部品1
100
AcDbLine
 10
3760.480607178521
 20
3178.869626708058
 30
0.0
 11
9460.480607178521
 21
3178.869626708074
 31
0.0
  0
LINE
  5
16D6D
330
747D
100
AcDbEntity
  8
部品1
100
AcDbLine
 10
3760.480607178521
 20
3135.869626708054
 30
0.0
 11
9460.480607178521
 21
3135.869626708054
 31
0.0
  0
LINE
  5
16D6E
330
747D
100
AcDbEntity
  8
部品1
100
AcDbLine
 10
3760.480607178521
 20
4975.869626708054
 30
0.0
 11
9460.480607178521
 21
4975.869626708054
 31
0.0
  0
LINE
  5
16D6F
330
747D
100
AcDbEntity
  8
部品1
100
AcDbLine
 10
7605.48060717852
 20
3182.369626708068
 30
0.0
 11
8315.418159349839
 21
3182.369626708072
 31
0.0
  0
LINE
  5
16D70
330
747D
100
AcDbEntity
  8
部品1
100
AcDbLine
 10
7605.48060717852
 20
4973.369626708052
 30
0.0
 11
8315.418159349839
 21
4973.369626708054
 31
0.0
  0
TEXT
  5
16D71
330
747D
100
AcDbEntity
  8
部品1
100
AcDbText
 10
2775.693230287034
 20
3071.976530313956
 30
0.0
 40
125.0
  1
▽G.L
  7
STYLE2
100
AcDbText
  0
LINE
  5
16D72
330
747D
100
AcDbEntity
  8
Ｇ．Ｌ
100
AcDbLine
 10
2791.147213012308
 20
3035.869626708054
 30
0.0
 11
14258.08016018587
 21
3035.869626708054
 31
0.0
  0
DIMENSION
  5
16F8E
330
747D
100
AcDbEntity
  8
寸法
100
AcDbDimension
  2
*D46
 10
9377.342253833509
 20
8775.511696550937
 30
0.0
 11
9024.135265737823
 21
8880.596972327467
 31
0.0
 70
   160
 71
     5
 42
892.000000000011
  3
INABA_S40G
100
AcDbAlignedDimension
 13
8539.480613856147
 23
8977.55880679392
 33
0.0
 14
9431.480613856157
 24
8977.558806793917
 34
0.0
100
AcDbRotatedDimension
1001
ACAD
1000
DSTYLE
1002
{
1070
   279
1070
     2
1002
}
  0
DIMENSION
  5
16F8F
330
747D
100
AcDbEntity
  8
寸法
100
AcDbDimension
  2
*D45
 10
8427.34225383351
 20
8775.511696550937
 30
0.0
 11
8080.606428632069
 21
8878.795811943934
 31
0.0
 70
   160
 71
     5
 42
892.000000000011
  3
INABA_S40G
100
AcDbAlignedDimension
 13
7589.480613856148
 23
8977.55880679392
 33
0.0
 14
8481.480613856158
 24
8977.558806793917
 34
0.0
100
AcDbRotatedDimension
1001
ACAD
1000
DSTYLE
1002
{
1070
   279
1070
     2
1002
}
  0
DIMENSION
  5
16F90
330
747D
100
AcDbEntity
  8
寸法
100
AcDbDimension
  2
*D44
 10
7477.342253833509
 20
8775.511696550937
 30
0.0
 11
7130.606428632069
 21
8878.795811943934
 31
0.0
 70
   160
 71
     5
 42
892.000000000011
  3
INABA_S40G
100
AcDbAlignedDimension
 13
6639.480613856147
 23
8977.55880679392
 33
0.0
 14
7531.480613856158
 24
8977.558806793917
 34
0.0
100
AcDbRotatedDimension
1001
ACAD
1000
DSTYLE
1002
{
1070
   279
1070
     2
1002
}
  0
DIMENSION
  5
16F91
330
747D
100
AcDbEntity
  8
寸法
100
AcDbDimension
  2
*D43
 10
6527.342253833509
 20
8775.511696550937
 30
0.0
 11
6180.606428632069
 21
8878.795811943934
 31
0.0
 70
   160
 71
     5
 42
892.000000000011
  3
INABA_S40G
100
AcDbAlignedDimension
 13
5689.480613856147
 23
8977.55880679392
 33
0.0
 14
6581.480613856157
 24
8977.558806793917
 34
0.0
100
AcDbRotatedDimension
1001
ACAD
1000
DSTYLE
1002
{
1070
   279
1070
     2
1002
}
  0
DIMENSION
  5
16F92
330
747D
100
AcDbEntity
  8
寸法
100
AcDbDimension
  2
*D42
 10
5577.342253833509
 20
8775.511696550937
 30
0.0
 11
5230.606428632069
 21
8878.795811943934
 31
0.0
 70
   160
 71
     5
 42
892.000000000011
  3
INABA_S40G
100
AcDbAlignedDimension
 13
4739.480613856147
 23
8977.55880679392
 33
0.0
 14
5631.480613856158
 24
8977.558806793917
 34
0.0
100
AcDbRotatedDimension
1001
ACAD
1000
DSTYLE
1002
{
1070
   279
1070
     2
1002
}
  0
MTEXT
  5
16F93
330
747D
100
AcDbEntity
  8
寸法
 62
     7
 48
50.0
100
AcDbMText
 10
5200.028810021777
 20
9047.17255433122
 30
0.0
 40
96.0
 41
0.0
 71
     5
 72
     1
  1
棚 2段
  7
STYLE1
 73
     1
 44
1.0
1001
ACAD
1000
MTEXTBEGIN
1070
    73
1070
     1
1070
    44
1040
1.0
1070
    74
1070
     0
1000
MTEXTEND
  0
MTEXT
  5
16F94
330
747D
100
AcDbEntity
  8
寸法
 62
     7
 48
50.0
100
AcDbMText
 10
6150.028810021776
 20
9047.17255433122
 30
0.0
 40
96.0
 41
0.0
 71
     5
 72
     1
  1
棚 2段
  7
STYLE1
 73
     1
 44
1.0
1001
ACAD
1000
MTEXTBEGIN
1070
    73
1070
     1
1070
    44
1040
1.0
1070
    74
1070
     0
1000
MTEXTEND
  0
MTEXT
  5
16F95
330
747D
100
AcDbEntity
  8
寸法
 62
     7
 48
50.0
100
AcDbMText
 10
7100.028810021777
 20
9047.17255433122
 30
0.0
 40
96.0
 41
0.0
 71
     5
 72
     1
  1
棚 2段
  7
STYLE1
 73
     1
 44
1.0
1001
ACAD
1000
MTEXTBEGIN
1070
    73
1070
     1
1070
    44
1040
1.0
1070
    74
1070
     0
1000
MTEXTEND
  0
MTEXT
  5
16F96
330
747D
100
AcDbEntity
  8
寸法
 62
     7
 48
50.0
100
AcDbMText
 10
8050.028810021776
 20
9047.17255433122
 30
0.0
 40
96.0
 41
0.0
 71
     5
 72
     1
  1
棚 2段
  7
STYLE1
 73
     1
 44
1.0
1001
ACAD
1000
MTEXTBEGIN
1070
    73
1070
     1
1070
    44
1040
1.0
1070
    74
1070
     0
1000
MTEXTEND
  0
MTEXT
  5
16F97
330
747D
100
AcDbEntity
  8
寸法
 62
     7
 48
50.0
100
AcDbMText
 10
9000.760411466783
 20
9047.172554331208
 30
0.0
 40
96.0
 41
0.0
 71
     5
 72
     1
  1
棚 2段
  7
STYLE1
 73
     1
 44
1.0
1001
ACAD
1000
MTEXTBEGIN
1070
    73
1070
     1
1070
    44
1040
1.0
1070
    74
1070
     0
1000
MTEXTEND
  0
MTEXT
  5
17001
330
747D
100
AcDbEntity
  8
寸法
 62
     7
 48
50.0
100
AcDbMText
 10
4250.028810021777
 20
9047.17255433122
 30
0.0
 40
96.0
 41
0.0
 71
     5
 72
     1
  1
棚 2段
  7
STYLE1
 73
     1
 44
1.0
1001
ACAD
1000
MTEXTBEGIN
1070
    73
1070
     1
1070
    44
1040
1.0
1070
    74
1070
     0
1000
MTEXTEND
  0
DIMENSION
  5
17002
330
747D
100
AcDbEntity
  8
寸法
100
AcDbDimension
  2
*D47
 10
4627.342253833509
 20
8775.511696550937
 30
0.0
 11
4280.606428632069
 21
8878.795811943934
 31
0.0
 70
   160
 71
     5
 42
892.000000000011
  3
INABA_S40G
100
AcDbAlignedDimension
 13
3789.480613856147
 23
8977.55880679392
 33
0.0
 14
4681.480613856158
 24
8977.558806793917
 34
0.0
100
AcDbRotatedDimension
1001
ACAD
1000
DSTYLE
1002
{
1070
   279
1070
     2
1002
}
  0
TEXT
  5
1722A
330
747D
100
AcDbEntity
  8
文字
 62
     7
 48
50.0
100
AcDbText
 10
14260.68475616112
 20
855.469579666289
 30
0.0
 40
100.0
  1
～一般型・多雪地型・豪雪地型～
  7
STYLE2
100
AcDbText
  0
ENDSEC
  0
SECTION
  2
OBJECTS
  0
DICTIONARY
  5
7471
330
0
100
AcDbDictionary
281
     1
  3
ACAD_COLOR
350
157A1
  3
ACAD_GROUP
350
7472
  3
ACAD_LAYOUT
350
157A2
  3
ACAD_MATERIAL
350
157A0
  3
ACAD_MLINESTYLE
350
7473
  3
ACAD_PLOTSETTINGS
350
157A3
  3
ACAD_PLOTSTYLENAME
350
1579E
  3
ACDBHEADERROUNDTRIPXREC
350
1724C
  3
AcDbVariableDictionary
350
17248
  3
CONTENTDICTIONARY
350
E71C
  3
DRAWINGVARIABLESDICT
350
F3B9
  0
DICTIONARY
  5
159C3
330
7467
100
AcDbDictionary
280
     1
281
     1
  3
ACAD_LAYERSTATES
360
159C4
  0
DICTIONARY
  5
157A1
102
{ACAD_REACTORS
330
7471
102
}
330
7471
100
AcDbDictionary
281
     1
  0
DICTIONARY
  5
7472
102
{ACAD_REACTORS
330
7471
102
}
330
7471
100
AcDbDictionary
281
     1
  0
DICTIONARY
  5
157A2
102
{ACAD_REACTORS
330
7471
102
}
330
7471
100
AcDbDictionary
281
     1
  3
Model
350
157A4
  3
レイアウト1
350
157A5
  0
DICTIONARY
  5
157A0
102
{ACAD_REACTORS
330
7471
102
}
330
7471
100
AcDbDictionary
281
     1
  0
DICTIONARY
  5
7473
102
{ACAD_REACTORS
330
7471
102
}
330
7471
100
AcDbDictionary
281
     1
  3
STANDARD
350
7480
  0
DICTIONARY
  5
157A3
102
{ACAD_REACTORS
330
7471
102
}
330
7471
100
AcDbDictionary
281
     1
  0
ACDBDICTIONARYWDFLT
  5
1579E
102
{ACAD_REACTORS
330
7471
102
}
330
7471
100
AcDbDictionary
281
     1
  3
Normal
350
1579F
100
AcDbDictionaryWithDefault
340
1579F
  0
DICTIONARY
  5
1724C
102
{ACAD_REACTORS
330
7471
102
}
330
7471
100
AcDbDictionary
281
     1
  3
COLORDICT
350
1724E
  3
MATERIALDICT
350
1724D
  0
DICTIONARY
  5
17248
102
{ACAD_REACTORS
330
7471
102
}
330
7471
100
AcDbDictionary
281
     1
  3
DIMASSOC
350
17249
  3
PROJECTNAME
350
1724A
  0
DICTIONARY
  5
E71C
102
{ACAD_REACTORS
330
7471
102
}
330
7471
100
AcDbDictionary
281
     1
  0
DICTIONARY
  5
F3B9
102
{ACAD_REACTORS
330
7471
102
}
330
7471
100
AcDbDictionary
281
     1
1001
DRAWINGVARIABLESXDATA
1000
POLARMODE
1000
1
  0
DICTIONARY
  5
159C4
102
{ACAD_REACTORS
330
159C3
102
}
330
159C3
100
AcDbDictionary
281
     1
  0
LAYOUT
  5
157A4
102
{ACAD_XDICTIONARY
360
1724F
102
}
102
{ACAD_REACTORS
330
157A2
102
}
330
157A2
100
AcDbPlotSettings
  1

  2
Microsoft Office Document Image Writer
  4

  6

 40
0.0
 41
0.0
 42
0.0
 43
0.0
 44
0.0
 45
0.0
 46
0.0
 47
0.0
 48
0.0
 49
0.0
140
0.0
141
0.0
142
1.0
143
1.0
 70
  1712
 72
     0
 73
     0
 74
     0
  7

 75
     0
147
1.0
148
0.0
149
0.0
100
AcDbLayout
  1
Model
 70
     1
 71
     0
 10
0.0
 20
0.0
 11
12.0
 21
9.0
 12
0.0
 22
0.0
 32
0.0
 14
0.0
 24
0.0
 34
0.0
 15
0.0
 25
0.0
 35
0.0
146
0.0
 13
0.0
 23
0.0
 33
0.0
 16
1.0
 26
0.0
 36
0.0
 17
0.0
 27
1.0
 37
0.0
 76
     0
330
747D
  0
LAYOUT
  5
157A5
102
{ACAD_XDICTIONARY
360
17251
102
}
102
{ACAD_REACTORS
330
157A2
102
}
330
157A2
100
AcDbPlotSettings
  1

  2
Microsoft Office Document Image Writer
  4

  6

 40
0.0
 41
0.0
 42
0.0
 43
0.0
 44
0.0
 45
0.0
 46
0.0
 47
0.0
 48
0.0
 49
0.0
140
0.0
141
0.0
142
1.0
143
1.0
 70
   688
 72
     0
 73
     0
 74
     5
  7

 75
    16
147
1.0
148
0.0
149
0.0
100
AcDbLayout
  1
レイアウト1
 70
     0
 71
     1
 10
0.0
 20
0.0
 11
420.0
 21
297.0
 12
0.0
 22
0.0
 32
0.0
 14
1.000000000000000E+20
 24
1.000000000000000E+20
 34
1.000000000000000E+20
 15
-1.000000000000000E+20
 25
-1.000000000000000E+20
 35
-1.000000000000000E+20
146
0.0
 13
0.0
 23
0.0
 33
0.0
 16
1.0
 26
0.0
 36
0.0
 17
0.0
 27
1.0
 37
0.0
 76
     0
330
747A
  0
MLINESTYLE
  5
7480
102
{ACAD_REACTORS
330
7473
102
}
330
7473
100
AcDbMlineStyle
  2
STANDARD
 70
     0
  3

 62
     0
 51
90.0
 52
90.0
 71
     2
 49
0.5
 62
   256
  6
BYLAYER
 49
-0.5
 62
   256
  6
BYLAYER
  0
ACDBPLACEHOLDER
  5
1579F
102
{ACAD_REACTORS
330
1579E
102
}
330
1579E
  0
XRECORD
  5
1724E
102
{ACAD_REACTORS
330
1724C
102
}
330
1724C
100
AcDbXrecord
280
     1
340
157A1
  0
XRECORD
  5
1724D
102
{ACAD_REACTORS
330
1724C
102
}
330
1724C
100
AcDbXrecord
280
     1
340
157A0
  0
DICTIONARYVAR
  5
17249
102
{ACAD_REACTORS
330
17248
102
}
330
17248
100
DictionaryVariables
280
     0
  1
1
  0
DICTIONARYVAR
  5
1724A
102
{ACAD_REACTORS
330
17248
102
}
330
17248
100
DictionaryVariables
280
     0
  1

  0
DICTIONARY
  5
1724F
330
157A4
100
AcDbDictionary
280
     1
281
     1
  3
ACAD_XREC_ROUNDTRIP
360
17250
  0
DICTIONARY
  5
17251
330
157A5
100
AcDbDictionary
280
     1
281
     1
  3
ACAD_XREC_ROUNDTRIP
360
17252
  0
XRECORD
  5
17250
102
{ACAD_REACTORS
330
1724F
102
}
330
1724F
100
AcDbXrecord
280
     1
102
SHADEPLOT
 70
     0
102
SHADEPLOTRESLEVEL
 70
     2
102
SHADEPLOTCUSTOMDPI
 70
   300
  0
XRECORD
  5
17252
102
{ACAD_REACTORS
330
17251
102
}
330
17251
100
AcDbXrecord
280
     1
102
SHADEPLOT
 70
     0
102
SHADEPLOTRESLEVEL
 70
     2
102
SHADEPLOTCUSTOMDPI
 70
   300
  0
ENDSEC
  0
EOF
