  0
SECTION
  2
HEADER
  9
$ACADVER
  1
AC1015
  9
$ACADMAINTVER
 70
    20
  9
$DWGCODEPAGE
  3
ANSI_932
  9
$INSBASE
 10
0.0
 20
0.0
 30
0.0
  9
$EXTMIN
 10
139.9999999999995
 20
-0.0000000000000909
 30
0.0
  9
$EXTMAX
 10
16307.2
 20
11409.6
 30
0.0
  9
$LIMMIN
 10
0.0
 20
0.0
  9
$LIMMAX
 10
16800.0
 20
11880.0
  9
$ORTHOMODE
 70
     0
  9
$REGENMODE
 70
     1
  9
$FILLMODE
 70
     1
  9
$QTEXTMODE
 70
     0
  9
$MIRRTEXT
 70
     1
  9
$LTSCALE
 40
20.0
  9
$ATTMODE
 70
     1
  9
$TEXTSIZE
 40
100.0
  9
$TRACEWID
 40
1.0
  9
$TEXTSTYLE
  7
STYLE3
  9
$CLAYER
  8
寸法
  9
$CELTYPE
  6
BYLAYER
  9
$CECOLOR
 62
   256
  9
$CELTSCALE
 40
50.0
  9
$DISPSILH
 70
     0
  9
$DIMSCALE
 40
40.0
  9
$DIMASZ
 40
2.5
  9
$DIMEXO
 40
0.5
  9
$DIMDLI
 40
7.0
  9
$DIMRND
 40
0.0
  9
$DIMDLE
 40
0.0
  9
$DIMEXE
 40
1.5
  9
$DIMTP
 40
0.0
  9
$DIMTM
 40
0.0
  9
$DIMTXT
 40
3.0
  9
$DIMCEN
 40
0.0
  9
$DIMTSZ
 40
0.0
  9
$DIMTOL
 70
     0
  9
$DIMLIM
 70
     0
  9
$DIMTIH
 70
     0
  9
$DIMTOH
 70
     0
  9
$DIMSE1
 70
     0
  9
$DIMSE2
 70
     0
  9
$DIMTAD
 70
     3
  9
$DIMZIN
 70
     8
  9
$DIMBLK
  1

  9
$DIMASO
 70
     1
  9
$DIMSHO
 70
     1
  9
$DIMPOST
  1

  9
$DIMAPOST
  1

  9
$DIMALT
 70
     0
  9
$DIMALTD
 70
     2
  9
$DIMALTF
 40
0.0394
  9
$DIMLFAC
 40
1.0
  9
$DIMTOFL
 70
     1
  9
$DIMTVP
 40
0.0
  9
$DIMTIX
 70
     1
  9
$DIMSOXD
 70
     0
  9
$DIMSAH
 70
     1
  9
$DIMBLK1
  1
DOTSMALL
  9
$DIMBLK2
  1
DOTSMALL
  9
$DIMSTYLE
  2
INABA_S40G
  9
$DIMCLRD
 70
     0
  9
$DIMCLRE
 70
     0
  9
$DIMCLRT
 70
     7
  9
$DIMTFAC
 40
1.0
  9
$DIMGAP
 40
1.0
  9
$DIMJUST
 70
     0
  9
$DIMSD1
 70
     0
  9
$DIMSD2
 70
     0
  9
$DIMTOLJ
 70
     1
  9
$DIMTZIN
 70
     0
  9
$DIMALTZ
 70
     0
  9
$DIMALTTZ
 70
     0
  9
$DIMUPT
 70
     0
  9
$DIMDEC
 70
     1
  9
$DIMTDEC
 70
     4
  9
$DIMALTU
 70
     2
  9
$DIMALTTD
 70
     2
  9
$DIMTXSTY
  7
STYLE1
  9
$DIMAUNIT
 70
     0
  9
$DIMADEC
 70
     0
  9
$DIMALTRND
 40
0.0
  9
$DIMAZIN
 70
     0
  9
$DIMDSEP
 70
    46
  9
$DIMATFIT
 70
     3
  9
$DIMFRAC
 70
     0
  9
$DIMLDRBLK
  1

  9
$DIMLUNIT
 70
     2
  9
$DIMLWD
 70
    -2
  9
$DIMLWE
 70
    -2
  9
$DIMTMOVE
 70
     0
  9
$LUNITS
 70
     2
  9
$LUPREC
 70
     1
  9
$SKETCHINC
 40
1.0
  9
$FILLETRAD
 40
5.0
  9
$AUNITS
 70
     0
  9
$AUPREC
 70
     0
  9
$MENU
  1
acad
  9
$ELEVATION
 40
0.0
  9
$PELEVATION
 40
0.0
  9
$THICKNESS
 40
0.0
  9
$LIMCHECK
 70
     0
  9
$CHAMFERA
 40
0.0
  9
$CHAMFERB
 40
0.0
  9
$CHAMFERC
 40
0.0
  9
$CHAMFERD
 40
0.0
  9
$SKPOLY
 70
     0
  9
$TDCREATE
 40
2452116.684896065
  9
$TDUCREATE
 40
2452116.309896065
  9
$TDUPDATE
 40
2455575.694889132
  9
$TDUUPDATE
 40
2455575.319889132
  9
$TDINDWG
 40
0.5082866551
  9
$TDUSRTIMER
 40
0.5082866551
  9
$USRTIMER
 70
     1
  9
$ANGBASE
 50
0.0
  9
$ANGDIR
 70
     0
  9
$PDMODE
 70
     3
  9
$PDSIZE
 40
2.0
  9
$PLINEWID
 40
0.0
  9
$SPLFRAME
 70
     0
  9
$SPLINETYPE
 70
     6
  9
$SPLINESEGS
 70
     8
  9
$HANDSEED
  5
1750F
  9
$SURFTAB1
 70
     6
  9
$SURFTAB2
 70
     6
  9
$SURFTYPE
 70
     6
  9
$SURFU
 70
     6
  9
$SURFV
 70
     6
  9
$UCSBASE
  2

  9
$UCSNAME
  2

  9
$UCSORG
 10
0.0
 20
0.0
 30
0.0
  9
$UCSXDIR
 10
1.0
 20
0.0
 30
0.0
  9
$UCSYDIR
 10
0.0
 20
1.0
 30
0.0
  9
$UCSORTHOREF
  2

  9
$UCSORTHOVIEW
 70
     0
  9
$UCSORGTOP
 10
0.0
 20
0.0
 30
0.0
  9
$UCSORGBOTTOM
 10
0.0
 20
0.0
 30
0.0
  9
$UCSORGLEFT
 10
0.0
 20
0.0
 30
0.0
  9
$UCSORGRIGHT
 10
0.0
 20
0.0
 30
0.0
  9
$UCSORGFRONT
 10
0.0
 20
0.0
 30
0.0
  9
$UCSORGBACK
 10
0.0
 20
0.0
 30
0.0
  9
$PUCSBASE
  2

  9
$PUCSNAME
  2

  9
$PUCSORG
 10
0.0
 20
0.0
 30
0.0
  9
$PUCSXDIR
 10
1.0
 20
0.0
 30
0.0
  9
$PUCSYDIR
 10
0.0
 20
1.0
 30
0.0
  9
$PUCSORTHOREF
  2

  9
$PUCSORTHOVIEW
 70
     0
  9
$PUCSORGTOP
 10
0.0
 20
0.0
 30
0.0
  9
$PUCSORGBOTTOM
 10
0.0
 20
0.0
 30
0.0
  9
$PUCSORGLEFT
 10
0.0
 20
0.0
 30
0.0
  9
$PUCSORGRIGHT
 10
0.0
 20
0.0
 30
0.0
  9
$PUCSORGFRONT
 10
0.0
 20
0.0
 30
0.0
  9
$PUCSORGBACK
 10
0.0
 20
0.0
 30
0.0
  9
$USERI1
 70
     0
  9
$USERI2
 70
     0
  9
$USERI3
 70
     0
  9
$USERI4
 70
     0
  9
$USERI5
 70
     0
  9
$USERR1
 40
0.0
  9
$USERR2
 40
0.0
  9
$USERR3
 40
0.0
  9
$USERR4
 40
0.0
  9
$USERR5
 40
0.0
  9
$WORLDVIEW
 70
     1
  9
$SHADEDGE
 70
     3
  9
$SHADEDIF
 70
    70
  9
$TILEMODE
 70
     1
  9
$MAXACTVP
 70
    16
  9
$PINSBASE
 10
0.0
 20
0.0
 30
0.0
  9
$PLIMCHECK
 70
     0
  9
$PEXTMIN
 10
1.000000000000000E+20
 20
1.000000000000000E+20
 30
1.000000000000000E+20
  9
$PEXTMAX
 10
-1.000000000000000E+20
 20
-1.000000000000000E+20
 30
-1.000000000000000E+20
  9
$PLIMMIN
 10
0.0
 20
0.0
  9
$PLIMMAX
 10
420.0
 20
297.0
  9
$UNITMODE
 70
     0
  9
$VISRETAIN
 70
     0
  9
$PLINEGEN
 70
     0
  9
$PSLTSCALE
 70
     0
  9
$TREEDEPTH
 70
  3020
  9
$CMLSTYLE
  2
STANDARD
  9
$CMLJUST
 70
     0
  9
$CMLSCALE
 40
1.0
  9
$PROXYGRAPHICS
 70
     1
  9
$MEASUREMENT
 70
     1
  9
$CELWEIGHT
370
    -1
  9
$ENDCAPS
280
     0
  9
$JOINSTYLE
280
     0
  9
$LWDISPLAY
290
     0
  9
$INSUNITS
 70
     0
  9
$HYPERLINKBASE
  1

  9
$STYLESHEET
  1

  9
$XEDIT
290
     1
  9
$CEPSNTYPE
380
     0
  9
$PSTYLEMODE
290
     1
  9
$FINGERPRINTGUID
  2
{F918D8FE-1EC5-41D6-A634-2FE0DD4179B9}
  9
$VERSIONGUID
  2
{44C4CC50-12C0-45F7-A2BD-1CEEC2BF86BE}
  9
$EXTNAMES
290
     1
  9
$PSVPSCALE
 40
0.0
  9
$OLESTARTUP
290
     0
  0
ENDSEC
  0
SECTION
  2
CLASSES
  0
CLASS
  1
ACDBDICTIONARYWDFLT
  2
AcDbDictionaryWithDefault
  3
ObjectDBX Classes
 90
        0
280
     0
281
     0
  0
CLASS
  1
DICTIONARYVAR
  2
AcDbDictionaryVar
  3
ObjectDBX Classes
 90
        0
280
     0
281
     0
  0
CLASS
  1
ACDBPLACEHOLDER
  2
AcDbPlaceHolder
  3
ObjectDBX Classes
 90
        0
280
     0
281
     0
  0
CLASS
  1
LAYOUT
  2
AcDbLayout
  3
ObjectDBX Classes
 90
        0
280
     0
281
     0
  0
ENDSEC
  0
SECTION
  2
TABLES
  0
TABLE
  2
VPORT
  5
746D
330
0
100
AcDbSymbolTable
 70
     2
  0
VPORT
  5
17507
330
746D
100
AcDbSymbolTableRecord
100
AcDbViewportTableRecord
  2
*Active
 70
     0
 10
0.0
 20
0.0
 11
1.0
 21
1.0
 12
9076.91645855874
 22
6347.66611132684
 13
0.0
 23
0.0
 14
10.0
 24
10.0
 15
10.0
 25
10.0
 16
0.0
 26
0.0
 36
1.0
 17
0.0
 27
0.0
 37
0.0
 40
12783.46462244035
 41
1.525925925925925
 42
50.0
 43
0.0
 44
0.0
 50
0.0
 51
0.0
 71
     0
 72
     0
 73
     1
 74
     0
 75
     0
 76
     0
 77
     0
 78
     0
281
     0
 65
     1
110
0.0
120
0.0
130
0.0
111
1.0
121
0.0
131
0.0
112
0.0
122
1.0
132
0.0
 79
     0
146
0.0
  0
ENDTAB
  0
TABLE
  2
LTYPE
  5
746A
330
0
100
AcDbSymbolTable
 70
     4
  0
LTYPE
  5
7477
330
746A
100
AcDbSymbolTableRecord
100
AcDbLinetypeTableRecord
  2
BYBLOCK
 70
     0
  3

 72
    65
 73
     0
 40
0.0
  0
LTYPE
  5
7478
330
746A
100
AcDbSymbolTableRecord
100
AcDbLinetypeTableRecord
  2
BYLAYER
 70
     0
  3

 72
    65
 73
     0
 40
0.0
  0
LTYPE
  5
7479
330
746A
100
AcDbSymbolTableRecord
100
AcDbLinetypeTableRecord
  2
CONTINUOUS
 70
     0
  3
Solid line
 72
    65
 73
     0
 40
0.0
  0
LTYPE
  5
7816
330
746A
100
AcDbSymbolTableRecord
100
AcDbLinetypeTableRecord
  2
CENTER
 70
     0
  3
____ _ ____ _ ____ _ ____ _ ____ _ ____ _ ____ 
 72
    65
 73
     4
 40
2.0
 49
1.25
 74
     0
 49
-0.25
 74
     0
 49
0.25
 74
     0
 49
-0.25
 74
     0
  0
LTYPE
  5
781A
330
746A
100
AcDbSymbolTableRecord
100
AcDbLinetypeTableRecord
  2
HIDDEN
 70
     0
  3
__ __ __ __ __ __ __ __ __ __ __ __ __ __ __ __
 72
    65
 73
     2
 40
0.375
 49
0.25
 74
     0
 49
-0.125
 74
     0
  0
LTYPE
  5
781B
330
746A
100
AcDbSymbolTableRecord
100
AcDbLinetypeTableRecord
  2
PHANTOM
 70
     0
  3
______  __  __  ______  __  __  ______  __  __ 
 72
    65
 73
     6
 40
2.5
 49
1.25
 74
     0
 49
-0.25
 74
     0
 49
0.25
 74
     0
 49
-0.25
 74
     0
 49
0.25
 74
     0
 49
-0.25
 74
     0
  0
ENDTAB
  0
TABLE
  2
LAYER
  5
7467
102
{ACAD_XDICTIONARY
360
15883
102
}
330
0
100
AcDbSymbolTable
 70
    12
  0
LAYER
  5
7474
330
7467
100
AcDbSymbolTableRecord
100
AcDbLayerTableRecord
  2
0
 70
     0
 62
     7
  6
CONTINUOUS
370
    -3
390
1568F
  0
LAYER
  5
DEB2
330
7467
100
AcDbSymbolTableRecord
100
AcDbLayerTableRecord
  2
センター
 70
     0
 62
     3
  6
CENTER
370
    -3
390
1568F
  0
LAYER
  5
DEB3
330
7467
100
AcDbSymbolTableRecord
100
AcDbLayerTableRecord
  2
寸法
 70
     0
 62
     4
  6
CONTINUOUS
370
    -3
390
1568F
  0
LAYER
  5
DEB4
330
7467
100
AcDbSymbolTableRecord
100
AcDbLayerTableRecord
  2
部品1
 70
     0
 62
     7
  6
CONTINUOUS
370
    -3
390
1568F
  0
LAYER
  5
DEB5
330
7467
100
AcDbSymbolTableRecord
100
AcDbLayerTableRecord
  2
補助
 70
     0
 62
    -1
  6
CONTINUOUS
370
    -3
390
1568F
  0
LAYER
  5
DEB6
330
7467
100
AcDbSymbolTableRecord
100
AcDbLayerTableRecord
  2
文字
 70
     0
 62
     7
  6
CONTINUOUS
370
    -3
390
1568F
  0
LAYER
  5
F255
330
7467
100
AcDbSymbolTableRecord
100
AcDbLayerTableRecord
  2
DEFPOINTS
 70
     0
 62
     7
  6
CONTINUOUS
290
     0
370
    -3
390
1568F
  0
LAYER
  5
10B54
330
7467
100
AcDbSymbolTableRecord
100
AcDbLayerTableRecord
  2
仕様書枠
 70
     0
 62
   230
  6
CONTINUOUS
370
    -3
390
1568F
  0
LAYER
  5
11729
330
7467
100
AcDbSymbolTableRecord
100
AcDbLayerTableRecord
  2
Ｇ．Ｌ
 70
     0
 62
    30
  6
CONTINUOUS
370
    -3
390
1568F
  0
LAYER
  5
1173F
330
7467
100
AcDbSymbolTableRecord
100
AcDbLayerTableRecord
  2
細線
 70
     0
 62
     5
  6
CONTINUOUS
370
    -3
390
1568F
  0
LAYER
  5
118A1
330
7467
100
AcDbSymbolTableRecord
100
AcDbLayerTableRecord
  2
想像線
 70
     0
 62
     6
  6
PHANTOM
370
    -3
390
1568F
  0
LAYER
  5
123C1
330
7467
100
AcDbSymbolTableRecord
100
AcDbLayerTableRecord
  2
破線
 70
     0
 62
     2
  6
HIDDEN
370
    -3
390
1568F
  0
ENDTAB
  0
TABLE
  2
STYLE
  5
7468
330
0
100
AcDbSymbolTable
 70
     4
  0
STYLE
  5
7475
330
7468
100
AcDbSymbolTableRecord
100
AcDbTextStyleTableRecord
  2
STANDARD
 70
     0
 40
0.0
 41
1.0
 50
0.0
 71
     0
 42
4.0
  3
txt
  4
C:\AutoCAD LT\bigfont.shx
  0
STYLE
  5
F706
330
7468
100
AcDbSymbolTableRecord
100
AcDbTextStyleTableRecord
  2
STYLE1
 70
     0
 40
0.0
 41
1.0
 50
0.0
 71
     0
 42
4.0
  3
isocp.shx
  4
bigfont.shx
  0
STYLE
  5
103BF
330
7468
100
AcDbSymbolTableRecord
100
AcDbTextStyleTableRecord
  2
STYLE2
 70
     0
 40
0.0
 41
1.0
 50
0.0
 71
     0
 42
100.0
  3
MS PGothic.ttf
  4

1001
ACAD
1000
MS PGothic
1071
    32818
  0
STYLE
  5
10BAA
330
7468
100
AcDbSymbolTableRecord
100
AcDbTextStyleTableRecord
  2
STYLE3
 70
     0
 40
0.0
 41
1.0
 50
0.0
 71
     0
 42
100.0
  3

  4

1001
ACAD
1000
DFPGothic-EB
1071
    32818
  0
ENDTAB
  0
TABLE
  2
VIEW
  5
746B
330
0
100
AcDbSymbolTable
 70
     0
  0
ENDTAB
  0
TABLE
  2
UCS
  5
746C
330
0
100
AcDbSymbolTable
 70
     0
  0
ENDTAB
  0
TABLE
  2
APPID
  5
746E
330
0
100
AcDbSymbolTable
 70
     6
  0
APPID
  5
7476
330
746E
100
AcDbSymbolTableRecord
100
AcDbRegAppTableRecord
  2
ACAD
 70
     0
  0
APPID
  5
DEA9
330
746E
100
AcDbSymbolTableRecord
100
AcDbRegAppTableRecord
  2
CONTENTBLOCKICON
 70
     0
  0
APPID
  5
DEAA
330
746E
100
AcDbSymbolTableRecord
100
AcDbRegAppTableRecord
  2
CONTENTBLOCKDESCRIPTION
 70
     0
  0
APPID
  5
E71D
330
746E
100
AcDbSymbolTableRecord
100
AcDbRegAppTableRecord
  2
CONTENTTABDATA
 70
     0
  0
APPID
  5
E71E
330
746E
100
AcDbSymbolTableRecord
100
AcDbRegAppTableRecord
  2
CONTENTCURRENTTAB
 70
     0
  0
APPID
  5
F3BA
330
746E
100
AcDbSymbolTableRecord
100
AcDbRegAppTableRecord
  2
DRAWINGVARIABLESXDATA
 70
     0
  0
ENDTAB
  0
TABLE
  2
DIMSTYLE
  5
746F
330
0
100
AcDbSymbolTable
 70
     2
100
AcDbDimStyleTable
 71
     0
  0
DIMSTYLE
105
7484
330
746F
100
AcDbSymbolTableRecord
100
AcDbDimStyleTableRecord
  2
JIS
 70
     0
 41
2.5
 42
1.0
 43
7.0
 44
1.0
 73
     0
 74
     0
 77
     1
 78
     8
140
2.5
141
0.0
143
0.0394
147
0.0
172
     1
174
     1
175
     1
340
7475
  0
DIMSTYLE
105
F71F
102
{ACAD_REACTORS
330
14E40
330
14E47
330
14E4C
330
14E65
330
14EDC
330
14EDF
330
14EE6
330
14EE9
330
14EF0
330
14EFC
330
14EFE
330
14EFF
330
14F06
330
15249
330
15256
330
15263
330
15397
330
153AF
330
15497
330
15496
330
15470
330
155CA
330
155FC
330
155F9
330
15DC1
330
15DD3
330
15DD4
330
15DF8
330
15DF9
330
15DFA
330
15DFB
330
15DFF
330
15E00
330
16A6E
330
16A7D
330
16A7E
330
16A7F
330
16CD8
330
17293
330
17291
330
1728F
330
1728D
330
172E9
102
}
330
746F
100
AcDbSymbolTableRecord
100
AcDbDimStyleTableRecord
  2
INABA_S40G
 70
     0
 40
40.0
 41
2.5
 42
0.5
 43
7.0
 44
1.5
 73
     0
 74
     0
 77
     3
 78
     8
140
3.0
141
0.0
143
0.0394
147
1.0
172
     1
173
     1
174
     1
178
     7
271
     1
340
F706
341
F770
343
F770
344
F770
  0
ENDTAB
  0
TABLE
  2
BLOCK_RECORD
  5
7466
330
0
100
AcDbSymbolTable
 70
    44
  0
BLOCK_RECORD
  5
747D
330
7466
100
AcDbSymbolTableRecord
100
AcDbBlockTableRecord
  2
*MODEL_SPACE
340
15694
  0
BLOCK_RECORD
  5
747A
330
7466
100
AcDbSymbolTableRecord
100
AcDbBlockTableRecord
  2
*PAPER_SPACE
340
15695
  0
BLOCK_RECORD
  5
F770
330
7466
100
AcDbSymbolTableRecord
100
AcDbBlockTableRecord
  2
_DOTSMALL
340
0
102
{BLKREFS
331
17332
331
17333
331
1733A
331
1733B
331
17343
331
17344
331
1734C
331
1734D
331
17356
331
17357
331
1735E
331
1735F
331
17367
331
17368
331
17370
331
17371
331
17379
331
1737A
331
17382
331
17383
331
1738B
331
1738C
331
17396
331
17397
331
173A1
331
173A2
331
173AA
331
173AB
331
173B3
331
173B4
331
173BD
331
173BE
331
173C6
331
173C7
331
173CE
331
173CF
331
173D7
331
173D8
331
173E2
331
173E3
331
173EB
331
173EC
331
173F4
331
173F5
331
173FD
331
173FE
331
17408
331
17409
331
17411
331
17412
331
1741A
331
1741B
331
17423
331
17424
331
1742E
331
1742F
331
17439
331
1743A
331
17442
331
17443
331
1744D
331
1744E
331
17456
331
17457
331
1745F
331
17460
331
1746A
331
1746B
331
17473
331
17474
331
1747D
331
1747E
331
17487
331
17488
331
17490
331
17491
331
174A4
331
174A5
331
174AD
331
174AE
331
174B6
331
174B7
331
174BF
331
174C0
331
174C8
331
174C9
102
}
  0
BLOCK_RECORD
  5
14FC7
330
7466
100
AcDbSymbolTableRecord
100
AcDbBlockTableRecord
  2
*D1
340
0
  0
BLOCK_RECORD
  5
14FD5
330
7466
100
AcDbSymbolTableRecord
100
AcDbBlockTableRecord
  2
*D2
340
0
  0
BLOCK_RECORD
  5
14FE1
330
7466
100
AcDbSymbolTableRecord
100
AcDbBlockTableRecord
  2
*D3
340
0
  0
BLOCK_RECORD
  5
14FF9
330
7466
100
AcDbSymbolTableRecord
100
AcDbBlockTableRecord
  2
*D4
340
0
  0
BLOCK_RECORD
  5
15035
330
7466
100
AcDbSymbolTableRecord
100
AcDbBlockTableRecord
  2
*D5
340
0
  0
BLOCK_RECORD
  5
15043
330
7466
100
AcDbSymbolTableRecord
100
AcDbBlockTableRecord
  2
*D6
340
0
  0
BLOCK_RECORD
  5
1504F
330
7466
100
AcDbSymbolTableRecord
100
AcDbBlockTableRecord
  2
*D7
340
0
  0
BLOCK_RECORD
  5
1505B
330
7466
100
AcDbSymbolTableRecord
100
AcDbBlockTableRecord
  2
*D8
340
0
  0
BLOCK_RECORD
  5
15067
330
7466
100
AcDbSymbolTableRecord
100
AcDbBlockTableRecord
  2
*D9
340
0
  0
BLOCK_RECORD
  5
15073
330
7466
100
AcDbSymbolTableRecord
100
AcDbBlockTableRecord
  2
*D10
340
0
  0
BLOCK_RECORD
  5
1508B
330
7466
100
AcDbSymbolTableRecord
100
AcDbBlockTableRecord
  2
*D11
340
0
  0
BLOCK_RECORD
  5
15097
330
7466
100
AcDbSymbolTableRecord
100
AcDbBlockTableRecord
  2
*D12
340
0
  0
BLOCK_RECORD
  5
150A5
330
7466
100
AcDbSymbolTableRecord
100
AcDbBlockTableRecord
  2
*D13
340
0
  0
BLOCK_RECORD
  5
1523D
330
7466
100
AcDbSymbolTableRecord
100
AcDbBlockTableRecord
  2
*D14
340
0
  0
BLOCK_RECORD
  5
1524A
330
7466
100
AcDbSymbolTableRecord
100
AcDbBlockTableRecord
  2
*D15
340
0
  0
BLOCK_RECORD
  5
15257
330
7466
100
AcDbSymbolTableRecord
100
AcDbBlockTableRecord
  2
*D16
340
0
  0
BLOCK_RECORD
  5
15398
330
7466
100
AcDbSymbolTableRecord
100
AcDbBlockTableRecord
  2
*D17
340
0
  0
BLOCK_RECORD
  5
153B0
330
7466
100
AcDbSymbolTableRecord
100
AcDbBlockTableRecord
  2
*D18
340
0
  0
BLOCK_RECORD
  5
154A2
330
7466
100
AcDbSymbolTableRecord
100
AcDbBlockTableRecord
  2
*D19
340
0
  0
BLOCK_RECORD
  5
154AE
330
7466
100
AcDbSymbolTableRecord
100
AcDbBlockTableRecord
  2
*D20
340
0
  0
BLOCK_RECORD
  5
154BA
330
7466
100
AcDbSymbolTableRecord
100
AcDbBlockTableRecord
  2
*D21
340
0
  0
BLOCK_RECORD
  5
15603
330
7466
100
AcDbSymbolTableRecord
100
AcDbBlockTableRecord
  2
*D22
340
0
  0
BLOCK_RECORD
  5
1560F
330
7466
100
AcDbSymbolTableRecord
100
AcDbBlockTableRecord
  2
*D23
340
0
  0
BLOCK_RECORD
  5
1561B
330
7466
100
AcDbSymbolTableRecord
100
AcDbBlockTableRecord
  2
*D24
340
0
  0
BLOCK_RECORD
  5
15FEF
330
7466
100
AcDbSymbolTableRecord
100
AcDbBlockTableRecord
  2
*D25
340
0
  0
BLOCK_RECORD
  5
15FFB
330
7466
100
AcDbSymbolTableRecord
100
AcDbBlockTableRecord
  2
*D26
340
0
  0
BLOCK_RECORD
  5
16008
330
7466
100
AcDbSymbolTableRecord
100
AcDbBlockTableRecord
  2
*D27
340
0
  0
BLOCK_RECORD
  5
16015
330
7466
100
AcDbSymbolTableRecord
100
AcDbBlockTableRecord
  2
*D28
340
0
  0
BLOCK_RECORD
  5
16021
330
7466
100
AcDbSymbolTableRecord
100
AcDbBlockTableRecord
  2
*D29
340
0
  0
BLOCK_RECORD
  5
1602F
330
7466
100
AcDbSymbolTableRecord
100
AcDbBlockTableRecord
  2
*D30
340
0
  0
BLOCK_RECORD
  5
1603B
330
7466
100
AcDbSymbolTableRecord
100
AcDbBlockTableRecord
  2
*D31
340
0
  0
BLOCK_RECORD
  5
16047
330
7466
100
AcDbSymbolTableRecord
100
AcDbBlockTableRecord
  2
*D32
340
0
  0
BLOCK_RECORD
  5
16055
330
7466
100
AcDbSymbolTableRecord
100
AcDbBlockTableRecord
  2
*D33
340
0
  0
BLOCK_RECORD
  5
16DA3
330
7466
100
AcDbSymbolTableRecord
100
AcDbBlockTableRecord
  2
*D34
340
0
  0
BLOCK_RECORD
  5
16DB1
330
7466
100
AcDbSymbolTableRecord
100
AcDbBlockTableRecord
  2
*D35
340
0
  0
BLOCK_RECORD
  5
16DBF
330
7466
100
AcDbSymbolTableRecord
100
AcDbBlockTableRecord
  2
*D36
340
0
  0
BLOCK_RECORD
  5
16DCB
330
7466
100
AcDbSymbolTableRecord
100
AcDbBlockTableRecord
  2
*D37
340
0
  0
BLOCK_RECORD
  5
16EE5
330
7466
100
AcDbSymbolTableRecord
100
AcDbBlockTableRecord
  2
*D38
340
0
  0
BLOCK_RECORD
  5
17295
330
7466
100
AcDbSymbolTableRecord
100
AcDbBlockTableRecord
  2
*D39
340
0
  0
BLOCK_RECORD
  5
172A1
330
7466
100
AcDbSymbolTableRecord
100
AcDbBlockTableRecord
  2
*D40
340
0
  0
BLOCK_RECORD
  5
172AD
330
7466
100
AcDbSymbolTableRecord
100
AcDbBlockTableRecord
  2
*D41
340
0
  0
BLOCK_RECORD
  5
172B9
330
7466
100
AcDbSymbolTableRecord
100
AcDbBlockTableRecord
  2
*D42
340
0
  0
BLOCK_RECORD
  5
172EB
330
7466
100
AcDbSymbolTableRecord
100
AcDbBlockTableRecord
  2
*D43
340
0
  0
ENDTAB
  0
ENDSEC
  0
SECTION
  2
BLOCKS
  0
BLOCK
  5
7489
330
747D
100
AcDbEntity
  8
0
100
AcDbBlockBegin
  2
*MODEL_SPACE
 70
     0
 10
0.0
 20
0.0
 30
0.0
  3
*MODEL_SPACE
  1

  0
ENDBLK
  5
748A
330
747D
100
AcDbEntity
  8
0
100
AcDbBlockEnd
  0
BLOCK
  5
7487
330
747A
100
AcDbEntity
 67
     1
  8
0
100
AcDbBlockBegin
  2
*PAPER_SPACE
 70
     0
 10
0.0
 20
0.0
 30
0.0
  3
*PAPER_SPACE
  1

  0
ENDBLK
  5
7488
330
747A
100
AcDbEntity
 67
     1
  8
0
100
AcDbBlockEnd
  0
BLOCK
  5
F771
330
F770
100
AcDbEntity
  8
0
 48
50.0
100
AcDbBlockBegin
  2
_DOTSMALL
 70
     0
 10
0.0
 20
0.0
 30
0.0
  3
_DOTSMALL
  1

  0
LWPOLYLINE
  5
F772
330
F770
100
AcDbEntity
  8
0
  6
ByBlock
 62
     0
 48
50.0
100
AcDbPolyline
 90
        2
 70
     1
 43
0.5
 10
-0.0625
 20
0.0
 42
1.0
 10
0.0625
 20
0.0
 42
1.0
  0
ENDBLK
  5
F776
330
F770
100
AcDbEntity
  8
0
 48
50.0
100
AcDbBlockEnd
  0
BLOCK
  5
15162
330
14FC7
100
AcDbEntity
  8
0
 48
50.0
100
AcDbBlockBegin
  2
*D1
 70
     1
 10
0.0
 20
0.0
 30
0.0
  3
*D1
  1

  0
LINE
  5
17403
330
14FC7
100
AcDbEntity
  8
寸法
 62
     0
 48
50.0
370
    -2
100
AcDbLine
 10
8991.299125379072
 20
9494.098915086494
 30
0.0
 11
8991.299125379072
 21
9749.907134711477
 31
0.0
  0
LINE
  5
17404
330
14FC7
100
AcDbEntity
  8
寸法
 62
     0
 48
50.0
370
    -2
100
AcDbLine
 10
9046.299125379071
 20
9494.098915086494
 30
0.0
 11
9046.299125379071
 21
9749.907134711477
 31
0.0
  0
LINE
  5
17405
330
14FC7
100
AcDbEntity
  8
寸法
 62
     0
 48
50.0
370
    -2
100
AcDbLine
 10
8991.299125379072
 20
9689.907134711477
 30
0.0
 11
8891.299125379072
 21
9689.907134711477
 31
0.0
  0
LINE
  5
17406
330
14FC7
100
AcDbEntity
  8
寸法
 62
     0
 48
50.0
370
    -2
100
AcDbLine
 10
9046.299125379071
 20
9689.907134711477
 30
0.0
 11
9463.269688127549
 21
9689.907134711477
 31
0.0
  0
LINE
  5
17407
330
14FC7
100
AcDbEntity
  8
寸法
 62
     0
 48
50.0
370
    -2
100
AcDbLine
 10
8991.299125379072
 20
9689.907134711477
 30
0.0
 11
9046.299125379071
 21
9689.907134711477
 31
0.0
  0
INSERT
  5
17408
330
14FC7
100
AcDbEntity
  8
寸法
 62
     0
 48
50.0
370
    -2
100
AcDbBlockReference
  2
_DOTSMALL
 10
8991.299125379072
 20
9689.907134711477
 30
0.0
 41
100.0
 42
100.0
 43
100.0
  0
INSERT
  5
17409
330
14FC7
100
AcDbEntity
  8
寸法
 62
     0
 48
50.0
370
    -2
100
AcDbBlockReference
  2
_DOTSMALL
 10
9046.299125379071
 20
9689.907134711477
 30
0.0
 41
100.0
 42
100.0
 43
100.0
 50
180.0
  0
MTEXT
  5
1740A
330
14FC7
100
AcDbEntity
  8
寸法
 62
     7
 48
50.0
100
AcDbMText
 10
9354.784406753312
 20
9789.907134711476
 30
0.0
 40
120.0
 41
0.0
 71
     5
 72
     1
  1
\A1;55
  7
STYLE1
 73
     1
 44
1.0
1001
ACAD
1000
MTEXTBEGIN
1070
    73
1070
     1
1070
    44
1040
1.0
1070
    74
1070
     0
1000
MTEXTEND
  0
POINT
  5
1740B
330
14FC7
100
AcDbEntity
  8
DEFPOINTS
 62
     0
 48
50.0
100
AcDbPoint
 10
8991.299125379072
 20
9474.098915086495
 30
0.0
  0
POINT
  5
1740C
330
14FC7
100
AcDbEntity
  8
DEFPOINTS
 62
     0
 48
50.0
100
AcDbPoint
 10
9046.299125379071
 20
9474.098915086495
 30
0.0
  0
POINT
  5
1740D
330
14FC7
100
AcDbEntity
  8
DEFPOINTS
 62
     0
 48
50.0
100
AcDbPoint
 10
9046.299125379071
 20
9689.907134711477
 30
0.0
  0
ENDBLK
  5
1516E
330
14FC7
100
AcDbEntity
  8
0
 48
50.0
100
AcDbBlockEnd
  0
BLOCK
  5
1516F
330
14FD5
100
AcDbEntity
  8
0
 48
50.0
100
AcDbBlockBegin
  2
*D2
 70
     1
 10
0.0
 20
0.0
 30
0.0
  3
*D2
  1

  0
LINE
  5
173FA
330
14FD5
100
AcDbEntity
  8
寸法
 62
     0
 48
50.0
370
    -2
100
AcDbLine
 10
8151.299125379066
 20
9494.09891508643
 30
0.0
 11
8151.299125379066
 21
9749.907134711499
 31
0.0
  0
LINE
  5
173FB
330
14FD5
100
AcDbEntity
  8
寸法
 62
     0
 48
50.0
370
    -2
100
AcDbLine
 10
8991.299125379068
 20
9494.098915086517
 30
0.0
 11
8991.299125379068
 21
9749.907134711499
 31
0.0
  0
LINE
  5
173FC
330
14FD5
100
AcDbEntity
  8
寸法
 62
     0
 48
50.0
370
    -2
100
AcDbLine
 10
8151.299125379066
 20
9689.907134711498
 30
0.0
 11
8991.299125379068
 21
9689.907134711498
 31
0.0
  0
INSERT
  5
173FD
330
14FD5
100
AcDbEntity
  8
寸法
 62
     0
 48
50.0
370
    -2
100
AcDbBlockReference
  2
_DOTSMALL
 10
8151.299125379066
 20
9689.907134711498
 30
0.0
 41
100.0
 42
100.0
 43
100.0
 50
180.0
  0
INSERT
  5
173FE
330
14FD5
100
AcDbEntity
  8
寸法
 62
     0
 48
50.0
370
    -2
100
AcDbBlockReference
  2
_DOTSMALL
 10
8991.299125379068
 20
9689.907134711498
 30
0.0
 41
100.0
 42
100.0
 43
100.0
  0
MTEXT
  5
173FF
330
14FD5
100
AcDbEntity
  8
寸法
 62
     7
 48
50.0
100
AcDbMText
 10
8571.299125379068
 20
9789.918945735122
 30
0.0
 40
120.0
 41
0.0
 71
     5
 72
     1
  1
\A1;2X420=840
  7
STYLE1
 73
     1
 44
1.0
1001
ACAD
1000
MTEXTBEGIN
1070
    73
1070
     1
1070
    44
1040
1.0
1070
    74
1070
     0
1000
MTEXTEND
  0
POINT
  5
17400
330
14FD5
100
AcDbEntity
  8
DEFPOINTS
 62
     0
 48
50.0
100
AcDbPoint
 10
8151.299125379066
 20
9474.098915086429
 30
0.0
  0
POINT
  5
17401
330
14FD5
100
AcDbEntity
  8
DEFPOINTS
 62
     0
 48
50.0
100
AcDbPoint
 10
8991.299125379068
 20
9474.098915086518
 30
0.0
  0
POINT
  5
17402
330
14FD5
100
AcDbEntity
  8
DEFPOINTS
 62
     0
 48
50.0
100
AcDbPoint
 10
8991.299125379068
 20
9689.907134711498
 30
0.0
  0
ENDBLK
  5
15179
330
14FD5
100
AcDbEntity
  8
0
 48
50.0
100
AcDbBlockEnd
  0
BLOCK
  5
15627
330
14FE1
100
AcDbEntity
  8
0
 48
50.0
100
AcDbBlockBegin
  2
*D3
 70
     1
 10
0.0
 20
0.0
 30
0.0
  3
*D3
  1

  0
LINE
  5
173F1
330
14FE1
100
AcDbEntity
  8
寸法
 62
     0
 48
50.0
370
    -2
100
AcDbLine
 10
4296.299125379063
 20
7924.098915086322
 30
0.0
 11
4296.299125379063
 21
6896.997040226245
 31
0.0
  0
LINE
  5
173F2
330
14FE1
100
AcDbEntity
  8
寸法
 62
     0
 48
50.0
370
    -2
100
AcDbLine
 10
9046.299125379047
 20
7924.098915086452
 30
0.0
 11
9046.299125379047
 21
6896.997040226245
 31
0.0
  0
LINE
  5
173F3
330
14FE1
100
AcDbEntity
  8
寸法
 62
     0
 48
50.0
370
    -2
100
AcDbLine
 10
4296.299125379063
 20
6956.997040226244
 30
0.0
 11
9046.299125379047
 21
6956.997040226244
 31
0.0
  0
INSERT
  5
173F4
330
14FE1
100
AcDbEntity
  8
寸法
 62
     0
 48
50.0
370
    -2
100
AcDbBlockReference
  2
_DOTSMALL
 10
4296.299125379063
 20
6956.997040226244
 30
0.0
 41
100.0
 42
100.0
 43
100.0
 50
180.0
  0
INSERT
  5
173F5
330
14FE1
100
AcDbEntity
  8
寸法
 62
     0
 48
50.0
370
    -2
100
AcDbBlockReference
  2
_DOTSMALL
 10
9046.299125379047
 20
6956.997040226244
 30
0.0
 41
100.0
 42
100.0
 43
100.0
  0
MTEXT
  5
173F6
330
14FE1
100
AcDbEntity
  8
寸法
 62
     7
 48
50.0
100
AcDbMText
 10
6671.299125379055
 20
7056.997040226244
 30
0.0
 40
120.0
 41
0.0
 71
     5
 72
     1
  1
\A1;4750
  7
STYLE1
 73
     1
 44
1.0
1001
ACAD
1000
MTEXTBEGIN
1070
    73
1070
     1
1070
    44
1040
1.0
1070
    74
1070
     0
1000
MTEXTEND
  0
POINT
  5
173F7
330
14FE1
100
AcDbEntity
  8
DEFPOINTS
 62
     0
 48
50.0
100
AcDbPoint
 10
4296.299125379063
 20
7944.09891508632
 30
0.0
  0
POINT
  5
173F8
330
14FE1
100
AcDbEntity
  8
DEFPOINTS
 62
     0
 48
50.0
100
AcDbPoint
 10
9046.299125379047
 20
7944.098915086453
 30
0.0
  0
POINT
  5
173F9
330
14FE1
100
AcDbEntity
  8
DEFPOINTS
 62
     0
 48
50.0
100
AcDbPoint
 10
9046.299125379047
 20
6956.997040226244
 30
0.0
  0
ENDBLK
  5
15631
330
14FE1
100
AcDbEntity
  8
0
 48
50.0
100
AcDbBlockEnd
  0
BLOCK
  5
15190
330
14FF9
100
AcDbEntity
  8
0
 48
50.0
100
AcDbBlockBegin
  2
*D4
 70
     1
 10
0.0
 20
0.0
 30
0.0
  3
*D4
  1

  0
LINE
  5
173E8
330
14FF9
100
AcDbEntity
  8
寸法
 62
     0
 48
50.0
370
    -2
100
AcDbLine
 10
8151.299125379066
 20
7924.098915086394
 30
0.0
 11
8151.299125379066
 21
7444.275247291317
 31
0.0
  0
LINE
  5
173E9
330
14FF9
100
AcDbEntity
  8
寸法
 62
     0
 48
50.0
370
    -2
100
AcDbLine
 10
8836.299125379062
 20
7924.098915086357
 30
0.0
 11
8836.299125379062
 21
7444.275247291317
 31
0.0
  0
LINE
  5
173EA
330
14FF9
100
AcDbEntity
  8
寸法
 62
     0
 48
50.0
370
    -2
100
AcDbLine
 10
8151.299125379066
 20
7504.275247291317
 30
0.0
 11
8836.299125379062
 21
7504.275247291317
 31
0.0
  0
INSERT
  5
173EB
330
14FF9
100
AcDbEntity
  8
寸法
 62
     0
 48
50.0
370
    -2
100
AcDbBlockReference
  2
_DOTSMALL
 10
8151.299125379066
 20
7504.275247291317
 30
0.0
 41
100.0
 42
100.0
 43
100.0
 50
180.0
  0
INSERT
  5
173EC
330
14FF9
100
AcDbEntity
  8
寸法
 62
     0
 48
50.0
370
    -2
100
AcDbBlockReference
  2
_DOTSMALL
 10
8836.299125379062
 20
7504.275247291317
 30
0.0
 41
100.0
 42
100.0
 43
100.0
  0
MTEXT
  5
173ED
330
14FF9
100
AcDbEntity
  8
寸法
 62
     7
 48
50.0
100
AcDbMText
 10
8493.799125379064
 20
7704.275247291317
 30
0.0
 40
120.0
 41
0.0
 71
     5
 72
     1
  1
\A1;有効開口部間口\P685
  7
STYLE1
 73
     1
 44
1.0
1001
ACAD
1000
MTEXTBEGIN
1070
    73
1070
     1
1070
    44
1040
1.0
1070
    74
1070
     0
1000
MTEXTEND
  0
POINT
  5
173EE
330
14FF9
100
AcDbEntity
  8
DEFPOINTS
 62
     0
 48
50.0
100
AcDbPoint
 10
8151.299125379066
 20
7944.098915086394
 30
0.0
  0
POINT
  5
173EF
330
14FF9
100
AcDbEntity
  8
DEFPOINTS
 62
     0
 48
50.0
100
AcDbPoint
 10
8836.299125379062
 20
7944.098915086357
 30
0.0
  0
POINT
  5
173F0
330
14FF9
100
AcDbEntity
  8
DEFPOINTS
 62
     0
 48
50.0
100
AcDbPoint
 10
8836.299125379062
 20
7504.275247291317
 30
0.0
  0
ENDBLK
  5
1519A
330
14FF9
100
AcDbEntity
  8
0
 48
50.0
100
AcDbBlockEnd
  0
BLOCK
  5
151C7
330
15035
100
AcDbEntity
  8
0
 48
50.0
100
AcDbBlockBegin
  2
*D5
 70
     1
 10
0.0
 20
0.0
 30
0.0
  3
*D5
  1

  0
LINE
  5
173DD
330
15035
100
AcDbEntity
  8
寸法
 62
     0
 48
50.0
370
    -2
100
AcDbLine
 10
4296.299125379035
 20
9494.098915086402
 30
0.0
 11
4296.299125379035
 21
9749.907134711383
 31
0.0
  0
LINE
  5
173DE
330
15035
100
AcDbEntity
  8
寸法
 62
     0
 48
50.0
370
    -2
100
AcDbLine
 10
4351.299125379068
 20
9494.098915086402
 30
0.0
 11
4351.299125379068
 21
9749.907134711383
 31
0.0
  0
LINE
  5
173DF
330
15035
100
AcDbEntity
  8
寸法
 62
     0
 48
50.0
370
    -2
100
AcDbLine
 10
4351.299125379068
 20
9689.907134711383
 30
0.0
 11
4451.299125379068
 21
9689.907134711383
 31
0.0
  0
LINE
  5
173E0
330
15035
100
AcDbEntity
  8
寸法
 62
     0
 48
50.0
370
    -2
100
AcDbLine
 10
4296.299125379035
 20
9689.907134711383
 30
0.0
 11
3879.328562630556
 21
9689.907134711383
 31
0.0
  0
LINE
  5
173E1
330
15035
100
AcDbEntity
  8
寸法
 62
     0
 48
50.0
370
    -2
100
AcDbLine
 10
4351.299125379068
 20
9689.907134711383
 30
0.0
 11
4296.299125379035
 21
9689.907134711383
 31
0.0
  0
INSERT
  5
173E2
330
15035
100
AcDbEntity
  8
寸法
 62
     0
 48
50.0
370
    -2
100
AcDbBlockReference
  2
_DOTSMALL
 10
4351.299125379068
 20
9689.907134711383
 30
0.0
 41
100.0
 42
100.0
 43
100.0
 50
180.0
  0
INSERT
  5
173E3
330
15035
100
AcDbEntity
  8
寸法
 62
     0
 48
50.0
370
    -2
100
AcDbBlockReference
  2
_DOTSMALL
 10
4296.299125379035
 20
9689.907134711383
 30
0.0
 41
100.0
 42
100.0
 43
100.0
  0
MTEXT
  5
173E4
330
15035
100
AcDbEntity
  8
寸法
 62
     7
 48
50.0
100
AcDbMText
 10
3987.813844004796
 20
9789.907134711382
 30
0.0
 40
120.0
 41
0.0
 71
     5
 72
     1
  1
\A1;55
  7
STYLE1
 73
     1
 44
1.0
1001
ACAD
1000
MTEXTBEGIN
1070
    73
1070
     1
1070
    44
1040
1.0
1070
    74
1070
     0
1000
MTEXTEND
  0
POINT
  5
173E5
330
15035
100
AcDbEntity
  8
DEFPOINTS
 62
     0
 48
50.0
100
AcDbPoint
 10
4296.299125379035
 20
9474.098915086401
 30
0.0
  0
POINT
  5
173E6
330
15035
100
AcDbEntity
  8
DEFPOINTS
 62
     0
 48
50.0
100
AcDbPoint
 10
4351.299125379068
 20
9474.098915086401
 30
0.0
  0
POINT
  5
173E7
330
15035
100
AcDbEntity
  8
DEFPOINTS
 62
     0
 48
50.0
100
AcDbPoint
 10
4351.299125379068
 20
9689.907134711383
 30
0.0
  0
ENDBLK
  5
151D3
330
15035
100
AcDbEntity
  8
0
 48
50.0
100
AcDbBlockEnd
  0
BLOCK
  5
151D4
330
15043
100
AcDbEntity
  8
0
 48
50.0
100
AcDbBlockBegin
  2
*D6
 70
     1
 10
0.0
 20
0.0
 30
0.0
  3
*D6
  1

  0
LINE
  5
173D4
330
15043
100
AcDbEntity
  8
寸法
 62
     0
 48
50.0
370
    -2
100
AcDbLine
 10
4351.299125379068
 20
9494.09891508643
 30
0.0
 11
4351.299125379068
 21
9749.907134711499
 31
0.0
  0
LINE
  5
173D5
330
15043
100
AcDbEntity
  8
寸法
 62
     0
 48
50.0
370
    -2
100
AcDbLine
 10
5191.299125379067
 20
9494.098915086517
 30
0.0
 11
5191.299125379067
 21
9749.907134711499
 31
0.0
  0
LINE
  5
173D6
330
15043
100
AcDbEntity
  8
寸法
 62
     0
 48
50.0
370
    -2
100
AcDbLine
 10
4351.299125379068
 20
9689.907134711498
 30
0.0
 11
5191.299125379067
 21
9689.907134711498
 31
0.0
  0
INSERT
  5
173D7
330
15043
100
AcDbEntity
  8
寸法
 62
     0
 48
50.0
370
    -2
100
AcDbBlockReference
  2
_DOTSMALL
 10
4351.299125379068
 20
9689.907134711498
 30
0.0
 41
100.0
 42
100.0
 43
100.0
 50
180.0
  0
INSERT
  5
173D8
330
15043
100
AcDbEntity
  8
寸法
 62
     0
 48
50.0
370
    -2
100
AcDbBlockReference
  2
_DOTSMALL
 10
5191.299125379067
 20
9689.907134711498
 30
0.0
 41
100.0
 42
100.0
 43
100.0
  0
MTEXT
  5
173D9
330
15043
100
AcDbEntity
  8
寸法
 62
     7
 48
50.0
100
AcDbMText
 10
4771.299125379067
 20
9789.918945735122
 30
0.0
 40
120.0
 41
0.0
 71
     5
 72
     1
  1
\A1;2X420=840
  7
STYLE1
 73
     1
 44
1.0
1001
ACAD
1000
MTEXTBEGIN
1070
    73
1070
     1
1070
    44
1040
1.0
1070
    74
1070
     0
1000
MTEXTEND
  0
POINT
  5
173DA
330
15043
100
AcDbEntity
  8
DEFPOINTS
 62
     0
 48
50.0
100
AcDbPoint
 10
4351.299125379068
 20
9474.098915086429
 30
0.0
  0
POINT
  5
173DB
330
15043
100
AcDbEntity
  8
DEFPOINTS
 62
     0
 48
50.0
100
AcDbPoint
 10
5191.299125379067
 20
9474.098915086518
 30
0.0
  0
POINT
  5
173DC
330
15043
100
AcDbEntity
  8
DEFPOINTS
 62
     0
 48
50.0
100
AcDbPoint
 10
5191.299125379067
 20
9689.907134711498
 30
0.0
  0
ENDBLK
  5
151DE
330
15043
100
AcDbEntity
  8
0
 48
50.0
100
AcDbBlockEnd
  0
BLOCK
  5
151DF
330
1504F
100
AcDbEntity
  8
0
 48
50.0
100
AcDbBlockBegin
  2
*D7
 70
     1
 10
0.0
 20
0.0
 30
0.0
  3
*D7
  1

  0
LINE
  5
173CB
330
1504F
100
AcDbEntity
  8
寸法
 62
     0
 48
50.0
370
    -2
100
AcDbLine
 10
7201.299125379067
 20
9494.09891508643
 30
0.0
 11
7201.299125379067
 21
9749.907134711499
 31
0.0
  0
LINE
  5
173CC
330
1504F
100
AcDbEntity
  8
寸法
 62
     0
 48
50.0
370
    -2
100
AcDbLine
 10
8041.299125379067
 20
9494.098915086517
 30
0.0
 11
8041.299125379067
 21
9749.907134711499
 31
0.0
  0
LINE
  5
173CD
330
1504F
100
AcDbEntity
  8
寸法
 62
     0
 48
50.0
370
    -2
100
AcDbLine
 10
7201.299125379067
 20
9689.907134711498
 30
0.0
 11
8041.299125379067
 21
9689.907134711498
 31
0.0
  0
INSERT
  5
173CE
330
1504F
100
AcDbEntity
  8
寸法
 62
     0
 48
50.0
370
    -2
100
AcDbBlockReference
  2
_DOTSMALL
 10
7201.299125379067
 20
9689.907134711498
 30
0.0
 41
100.0
 42
100.0
 43
100.0
 50
180.0
  0
INSERT
  5
173CF
330
1504F
100
AcDbEntity
  8
寸法
 62
     0
 48
50.0
370
    -2
100
AcDbBlockReference
  2
_DOTSMALL
 10
8041.299125379067
 20
9689.907134711498
 30
0.0
 41
100.0
 42
100.0
 43
100.0
  0
MTEXT
  5
173D0
330
1504F
100
AcDbEntity
  8
寸法
 62
     7
 48
50.0
100
AcDbMText
 10
7621.299125379067
 20
9789.918945735122
 30
0.0
 40
120.0
 41
0.0
 71
     5
 72
     1
  1
\A1;2X420=840
  7
STYLE1
 73
     1
 44
1.0
1001
ACAD
1000
MTEXTBEGIN
1070
    73
1070
     1
1070
    44
1040
1.0
1070
    74
1070
     0
1000
MTEXTEND
  0
POINT
  5
173D1
330
1504F
100
AcDbEntity
  8
DEFPOINTS
 62
     0
 48
50.0
100
AcDbPoint
 10
7201.299125379067
 20
9474.098915086429
 30
0.0
  0
POINT
  5
173D2
330
1504F
100
AcDbEntity
  8
DEFPOINTS
 62
     0
 48
50.0
100
AcDbPoint
 10
8041.299125379067
 20
9474.098915086518
 30
0.0
  0
POINT
  5
173D3
330
1504F
100
AcDbEntity
  8
DEFPOINTS
 62
     0
 48
50.0
100
AcDbPoint
 10
8041.299125379067
 20
9689.907134711498
 30
0.0
  0
ENDBLK
  5
151E9
330
1504F
100
AcDbEntity
  8
0
 48
50.0
100
AcDbBlockEnd
  0
BLOCK
  5
1527D
330
1505B
100
AcDbEntity
  8
0
 48
50.0
100
AcDbBlockBegin
  2
*D8
 70
     1
 10
0.0
 20
0.0
 30
0.0
  3
*D8
  1

  0
LINE
  5
173C2
330
1505B
100
AcDbEntity
  8
寸法
 62
     0
 48
50.0
370
    -2
100
AcDbLine
 10
5191.299125379067
 20
9494.098915086517
 30
0.0
 11
5191.299125379067
 21
9749.907134711499
 31
0.0
  0
LINE
  5
173C3
330
1505B
100
AcDbEntity
  8
寸法
 62
     0
 48
50.0
370
    -2
100
AcDbLine
 10
5301.299125379071
 20
9494.098915086494
 30
0.0
 11
5301.299125379071
 21
9749.907134711499
 31
0.0
  0
LINE
  5
173C4
330
1505B
100
AcDbEntity
  8
寸法
 62
     0
 48
50.0
370
    -2
100
AcDbLine
 10
5191.299125379067
 20
9689.907134711498
 30
0.0
 11
5301.299125379071
 21
9689.907134711498
 31
0.0
  0
MTEXT
  5
173C5
330
1505B
100
AcDbEntity
  8
寸法
 62
     7
 48
50.0
100
AcDbMText
 10
5246.299125379072
 20
9941.640475660895
 30
0.0
 40
120.0
 41
0.0
 71
     5
 72
     1
  1
\A1;110
  7
STYLE1
 73
     1
 44
1.0
1001
ACAD
1000
MTEXTBEGIN
1070
    73
1070
     1
1070
    44
1040
1.0
1070
    74
1070
     0
1000
MTEXTEND
  0
INSERT
  5
173C6
330
1505B
100
AcDbEntity
  8
寸法
 62
     0
 48
50.0
370
    -2
100
AcDbBlockReference
  2
_DOTSMALL
 10
5191.299125379067
 20
9689.907134711498
 30
0.0
 41
100.0
 42
100.0
 43
100.0
 50
180.0
  0
INSERT
  5
173C7
330
1505B
100
AcDbEntity
  8
寸法
 62
     0
 48
50.0
370
    -2
100
AcDbBlockReference
  2
_DOTSMALL
 10
5301.299125379071
 20
9689.907134711498
 30
0.0
 41
100.0
 42
100.0
 43
100.0
  0
POINT
  5
173C8
330
1505B
100
AcDbEntity
  8
DEFPOINTS
 62
     0
 48
50.0
100
AcDbPoint
 10
5191.299125379067
 20
9474.098915086518
 30
0.0
  0
POINT
  5
173C9
330
1505B
100
AcDbEntity
  8
DEFPOINTS
 62
     0
 48
50.0
100
AcDbPoint
 10
5301.299125379071
 20
9474.098915086495
 30
0.0
  0
POINT
  5
173CA
330
1505B
100
AcDbEntity
  8
DEFPOINTS
 62
     0
 48
50.0
100
AcDbPoint
 10
5301.299125379071
 20
9689.907134711498
 30
0.0
  0
ENDBLK
  5
15287
330
1505B
100
AcDbEntity
  8
0
 48
50.0
100
AcDbBlockEnd
  0
BLOCK
  5
15272
330
15067
100
AcDbEntity
  8
0
 48
50.0
100
AcDbBlockBegin
  2
*D9
 70
     1
 10
0.0
 20
0.0
 30
0.0
  3
*D9
  1

  0
LINE
  5
173B9
330
15067
100
AcDbEntity
  8
寸法
 62
     0
 48
50.0
370
    -2
100
AcDbLine
 10
8041.299125379067
 20
9494.098915086517
 30
0.0
 11
8041.299125379067
 21
9749.907134711499
 31
0.0
  0
LINE
  5
173BA
330
15067
100
AcDbEntity
  8
寸法
 62
     0
 48
50.0
370
    -2
100
AcDbLine
 10
8151.299125379072
 20
9494.098915086494
 30
0.0
 11
8151.299125379072
 21
9749.907134711499
 31
0.0
  0
LINE
  5
173BB
330
15067
100
AcDbEntity
  8
寸法
 62
     0
 48
50.0
370
    -2
100
AcDbLine
 10
8041.299125379067
 20
9689.907134711498
 30
0.0
 11
8151.299125379072
 21
9689.907134711498
 31
0.0
  0
MTEXT
  5
173BC
330
15067
100
AcDbEntity
  8
寸法
 62
     7
 48
50.0
100
AcDbMText
 10
8096.299125379072
 20
9941.640475660895
 30
0.0
 40
120.0
 41
0.0
 71
     5
 72
     1
  1
\A1;110
  7
STYLE1
 73
     1
 44
1.0
1001
ACAD
1000
MTEXTBEGIN
1070
    73
1070
     1
1070
    44
1040
1.0
1070
    74
1070
     0
1000
MTEXTEND
  0
INSERT
  5
173BD
330
15067
100
AcDbEntity
  8
寸法
 62
     0
 48
50.0
370
    -2
100
AcDbBlockReference
  2
_DOTSMALL
 10
8041.299125379067
 20
9689.907134711498
 30
0.0
 41
100.0
 42
100.0
 43
100.0
 50
180.0
  0
INSERT
  5
173BE
330
15067
100
AcDbEntity
  8
寸法
 62
     0
 48
50.0
370
    -2
100
AcDbBlockReference
  2
_DOTSMALL
 10
8151.299125379072
 20
9689.907134711498
 30
0.0
 41
100.0
 42
100.0
 43
100.0
  0
POINT
  5
173BF
330
15067
100
AcDbEntity
  8
DEFPOINTS
 62
     0
 48
50.0
100
AcDbPoint
 10
8041.299125379067
 20
9474.098915086518
 30
0.0
  0
POINT
  5
173C0
330
15067
100
AcDbEntity
  8
DEFPOINTS
 62
     0
 48
50.0
100
AcDbPoint
 10
8151.299125379072
 20
9474.098915086495
 30
0.0
  0
POINT
  5
173C1
330
15067
100
AcDbEntity
  8
DEFPOINTS
 62
     0
 48
50.0
100
AcDbPoint
 10
8151.299125379072
 20
9689.907134711498
 30
0.0
  0
ENDBLK
  5
1527C
330
15067
100
AcDbEntity
  8
0
 48
50.0
100
AcDbBlockEnd
  0
BLOCK
  5
15200
330
15073
100
AcDbEntity
  8
0
 48
50.0
100
AcDbBlockBegin
  2
*D10
 70
     1
 10
0.0
 20
0.0
 30
0.0
  3
*D10
  1

  0
LINE
  5
173B0
330
15073
100
AcDbEntity
  8
寸法
 62
     0
 48
50.0
370
    -2
100
AcDbLine
 10
9037.299132056679
 20
9439.239931237741
 30
0.0
 11
9432.656857918706
 21
9333.304147871608
 31
0.0
  0
LINE
  5
173B1
330
15073
100
AcDbEntity
  8
寸法
 62
     0
 48
50.0
370
    -2
100
AcDbLine
 10
9037.299132056686
 20
8989.239931237749
 30
0.0
 11
9432.656857918706
 21
8883.304147871617
 31
0.0
  0
LINE
  5
173B2
330
15073
100
AcDbEntity
  8
寸法
 62
     0
 48
50.0
370
    -2
100
AcDbLine
 10
9372.656857918705
 20
9349.381099417476
 30
0.0
 11
9372.656857918705
 21
8899.381099417484
 31
0.0
  0
INSERT
  5
173B3
330
15073
100
AcDbEntity
  8
寸法
 62
     0
 48
50.0
370
    -2
100
AcDbBlockReference
  2
_DOTSMALL
 10
9372.656857918705
 20
9349.381099417476
 30
0.0
 41
100.0
 42
100.0
 43
100.0
 50
90.0
  0
INSERT
  5
173B4
330
15073
100
AcDbEntity
  8
寸法
 62
     0
 48
50.0
370
    -2
100
AcDbBlockReference
  2
_DOTSMALL
 10
9372.656857918705
 20
8899.381099417484
 30
0.0
 41
100.0
 42
100.0
 43
100.0
 50
270.0
  0
MTEXT
  5
173B5
330
15073
100
AcDbEntity
  8
寸法
 62
     7
 48
50.0
100
AcDbMText
 10
9272.656857918704
 20
9124.381099417474
 30
0.0
 40
120.0
 41
0.0
 71
     5
 72
     1
  1
\A1;450
  7
STYLE1
 11
0.0000000000000001
 21
1.0
 31
0.0
 73
     1
 44
1.0
1001
ACAD
1000
MTEXTBEGIN
1070
    73
1070
     1
1070
    44
1040
1.0
1070
    74
1070
     0
1000
MTEXTEND
  0
POINT
  5
173B6
330
15073
100
AcDbEntity
  8
DEFPOINTS
 62
     0
 48
50.0
100
AcDbPoint
 10
9017.299132056679
 20
9444.598915086364
 30
0.0
  0
POINT
  5
173B7
330
15073
100
AcDbEntity
  8
DEFPOINTS
 62
     0
 48
50.0
100
AcDbPoint
 10
9017.299132056688
 20
8994.598915086372
 30
0.0
  0
POINT
  5
173B8
330
15073
100
AcDbEntity
  8
DEFPOINTS
 62
     0
 48
50.0
100
AcDbPoint
 10
9372.656857918705
 20
8899.381099417484
 30
0.0
  0
ENDBLK
  5
1520A
330
15073
100
AcDbEntity
  8
0
 48
50.0
100
AcDbBlockEnd
  0
BLOCK
  5
15216
330
1508B
100
AcDbEntity
  8
0
 48
50.0
100
AcDbBlockBegin
  2
*D11
 70
     1
 10
0.0
 20
0.0
 30
0.0
  3
*D11
  1

  0
LINE
  5
173A7
330
1508B
100
AcDbEntity
  8
寸法
 62
     0
 48
50.0
370
    -2
100
AcDbLine
 10
9066.299125379073
 20
9474.098915086495
 30
0.0
 11
10062.83700192916
 21
9474.098915086495
 31
0.0
  0
LINE
  5
173A8
330
1508B
100
AcDbEntity
  8
寸法
 62
     0
 48
50.0
370
    -2
100
AcDbLine
 10
9066.299125379046
 20
7944.098915086481
 30
0.0
 11
10062.83700192916
 21
7944.098915086481
 31
0.0
  0
LINE
  5
173A9
330
1508B
100
AcDbEntity
  8
寸法
 62
     0
 48
50.0
370
    -2
100
AcDbLine
 10
10002.83700192916
 20
9474.098915086495
 30
0.0
 11
10002.83700192916
 21
7944.098915086481
 31
0.0
  0
INSERT
  5
173AA
330
1508B
100
AcDbEntity
  8
寸法
 62
     0
 48
50.0
370
    -2
100
AcDbBlockReference
  2
_DOTSMALL
 10
10002.83700192916
 20
9474.098915086495
 30
0.0
 41
100.0
 42
100.0
 43
100.0
 50
90.0
  0
INSERT
  5
173AB
330
1508B
100
AcDbEntity
  8
寸法
 62
     0
 48
50.0
370
    -2
100
AcDbBlockReference
  2
_DOTSMALL
 10
10002.83700192916
 20
7944.098915086481
 30
0.0
 41
100.0
 42
100.0
 43
100.0
 50
270.0
  0
MTEXT
  5
173AC
330
1508B
100
AcDbEntity
  8
寸法
 62
     7
 48
50.0
100
AcDbMText
 10
9902.837001929158
 20
8709.098915086489
 30
0.0
 40
120.0
 41
0.0
 71
     5
 72
     1
  1
\A1;1530
  7
STYLE1
 11
0.0000000000000001
 21
1.0
 31
0.0
 73
     1
 44
1.0
1001
ACAD
1000
MTEXTBEGIN
1070
    73
1070
     1
1070
    44
1040
1.0
1070
    74
1070
     0
1000
MTEXTEND
  0
POINT
  5
173AD
330
1508B
100
AcDbEntity
  8
DEFPOINTS
 62
     0
 48
50.0
100
AcDbPoint
 10
9046.299125379071
 20
9474.098915086495
 30
0.0
  0
POINT
  5
173AE
330
1508B
100
AcDbEntity
  8
DEFPOINTS
 62
     0
 48
50.0
100
AcDbPoint
 10
9046.299125379047
 20
7944.098915086481
 30
0.0
  0
POINT
  5
173AF
330
1508B
100
AcDbEntity
  8
DEFPOINTS
 62
     0
 48
50.0
100
AcDbPoint
 10
10002.83700192916
 20
7944.098915086481
 30
0.0
  0
ENDBLK
  5
15220
330
1508B
100
AcDbEntity
  8
0
 48
50.0
100
AcDbBlockEnd
  0
BLOCK
  5
15221
330
15097
100
AcDbEntity
  8
0
 48
50.0
100
AcDbBlockBegin
  2
*D12
 70
     1
 10
0.0
 20
0.0
 30
0.0
  3
*D12
  1

  0
LINE
  5
1739C
330
15097
100
AcDbEntity
  8
寸法
 62
     0
 48
50.0
370
    -2
100
AcDbLine
 10
9066.299125379046
 20
7999.098915086481
 30
0.0
 11
9753.725471113458
 21
7999.098915086481
 31
0.0
  0
LINE
  5
1739D
330
15097
100
AcDbEntity
  8
寸法
 62
     0
 48
50.0
370
    -2
100
AcDbLine
 10
9066.299125379046
 20
7944.098915086481
 30
0.0
 11
9753.725471113458
 21
7944.098915086481
 31
0.0
  0
LINE
  5
1739E
330
15097
100
AcDbEntity
  8
寸法
 62
     0
 48
50.0
370
    -2
100
AcDbLine
 10
9693.725471113458
 20
7999.098915086481
 30
0.0
 11
9693.725471113458
 21
8099.09891508648
 31
0.0
  0
LINE
  5
1739F
330
15097
100
AcDbEntity
  8
寸法
 62
     0
 48
50.0
370
    -2
100
AcDbLine
 10
9693.725471113458
 20
7944.098915086481
 30
0.0
 11
9693.725471113458
 21
7457.752166807378
 31
0.0
  0
LINE
  5
173A0
330
15097
100
AcDbEntity
  8
寸法
 62
     0
 48
50.0
370
    -2
100
AcDbLine
 10
9693.725471113458
 20
7999.098915086481
 30
0.0
 11
9693.725471113458
 21
7944.098915086481
 31
0.0
  0
INSERT
  5
173A1
330
15097
100
AcDbEntity
  8
寸法
 62
     0
 48
50.0
370
    -2
100
AcDbBlockReference
  2
_DOTSMALL
 10
9693.725471113458
 20
7999.098915086481
 30
0.0
 41
100.0
 42
100.0
 43
100.0
 50
270.0
  0
INSERT
  5
173A2
330
15097
100
AcDbEntity
  8
寸法
 62
     0
 48
50.0
370
    -2
100
AcDbBlockReference
  2
_DOTSMALL
 10
9693.725471113458
 20
7944.098915086481
 30
0.0
 41
100.0
 42
100.0
 43
100.0
 50
90.0
  0
MTEXT
  5
173A3
330
15097
100
AcDbEntity
  8
寸法
 62
     7
 48
50.0
100
AcDbMText
 10
9593.725471113456
 20
7566.237448181619
 30
0.0
 40
120.0
 41
0.0
 71
     5
 72
     1
  1
\A1;55
  7
STYLE1
 11
0.0000000000000001
 21
1.0
 31
0.0
 73
     1
 44
1.0
1001
ACAD
1000
MTEXTBEGIN
1070
    73
1070
     1
1070
    44
1040
1.0
1070
    74
1070
     0
1000
MTEXTEND
  0
POINT
  5
173A4
330
15097
100
AcDbEntity
  8
DEFPOINTS
 62
     0
 48
50.0
100
AcDbPoint
 10
9046.299125379047
 20
7999.098915086481
 30
0.0
  0
POINT
  5
173A5
330
15097
100
AcDbEntity
  8
DEFPOINTS
 62
     0
 48
50.0
100
AcDbPoint
 10
9046.299125379047
 20
7944.098915086481
 30
0.0
  0
POINT
  5
173A6
330
15097
100
AcDbEntity
  8
DEFPOINTS
 62
     0
 48
50.0
100
AcDbPoint
 10
9693.725471113458
 20
7944.098915086481
 30
0.0
  0
ENDBLK
  5
1522D
330
15097
100
AcDbEntity
  8
0
 48
50.0
100
AcDbBlockEnd
  0
BLOCK
  5
1522E
330
150A5
100
AcDbEntity
  8
0
 48
50.0
100
AcDbBlockBegin
  2
*D13
 70
     1
 10
0.0
 20
0.0
 30
0.0
  3
*D13
  1

  0
LINE
  5
17391
330
150A5
100
AcDbEntity
  8
寸法
 62
     0
 48
50.0
370
    -2
100
AcDbLine
 10
9066.299125379073
 20
9474.098915086495
 30
0.0
 11
9753.725471113483
 21
9474.098915086495
 31
0.0
  0
LINE
  5
17392
330
150A5
100
AcDbEntity
  8
寸法
 62
     0
 48
50.0
370
    -2
100
AcDbLine
 10
9066.299125379073
 20
9419.098915086495
 30
0.0
 11
9753.725471113483
 21
9419.098915086495
 31
0.0
  0
LINE
  5
17393
330
150A5
100
AcDbEntity
  8
寸法
 62
     0
 48
50.0
370
    -2
100
AcDbLine
 10
9693.725471113483
 20
9419.098915086495
 30
0.0
 11
9693.725471113483
 21
9319.098915086495
 31
0.0
  0
LINE
  5
17394
330
150A5
100
AcDbEntity
  8
寸法
 62
     0
 48
50.0
370
    -2
100
AcDbLine
 10
9693.725471113483
 20
9474.098915086495
 30
0.0
 11
9693.725471113483
 21
9891.069477834973
 31
0.0
  0
LINE
  5
17395
330
150A5
100
AcDbEntity
  8
寸法
 62
     0
 48
50.0
370
    -2
100
AcDbLine
 10
9693.725471113483
 20
9419.098915086495
 30
0.0
 11
9693.725471113483
 21
9474.098915086495
 31
0.0
  0
INSERT
  5
17396
330
150A5
100
AcDbEntity
  8
寸法
 62
     0
 48
50.0
370
    -2
100
AcDbBlockReference
  2
_DOTSMALL
 10
9693.725471113483
 20
9419.098915086495
 30
0.0
 41
100.0
 42
100.0
 43
100.0
 50
90.0
  0
INSERT
  5
17397
330
150A5
100
AcDbEntity
  8
寸法
 62
     0
 48
50.0
370
    -2
100
AcDbBlockReference
  2
_DOTSMALL
 10
9693.725471113483
 20
9474.098915086495
 30
0.0
 41
100.0
 42
100.0
 43
100.0
 50
270.0
  0
MTEXT
  5
17398
330
150A5
100
AcDbEntity
  8
寸法
 62
     7
 48
50.0
100
AcDbMText
 10
9593.725471113481
 20
9782.584196460735
 30
0.0
 40
120.0
 41
0.0
 71
     5
 72
     1
  1
\A1;55
  7
STYLE1
 11
0.0000000000000001
 21
1.0
 31
0.0
 73
     1
 44
1.0
1001
ACAD
1000
MTEXTBEGIN
1070
    73
1070
     1
1070
    44
1040
1.0
1070
    74
1070
     0
1000
MTEXTEND
  0
POINT
  5
17399
330
150A5
100
AcDbEntity
  8
DEFPOINTS
 62
     0
 48
50.0
100
AcDbPoint
 10
9046.299125379071
 20
9474.098915086495
 30
0.0
  0
POINT
  5
1739A
330
150A5
100
AcDbEntity
  8
DEFPOINTS
 62
     0
 48
50.0
100
AcDbPoint
 10
9046.299125379071
 20
9419.098915086495
 30
0.0
  0
POINT
  5
1739B
330
150A5
100
AcDbEntity
  8
DEFPOINTS
 62
     0
 48
50.0
100
AcDbPoint
 10
9693.725471113483
 20
9419.098915086495
 30
0.0
  0
ENDBLK
  5
1523A
330
150A5
100
AcDbEntity
  8
0
 48
50.0
100
AcDbBlockEnd
  0
BLOCK
  5
1523E
330
1523D
100
AcDbEntity
  8
0
 48
50.0
100
AcDbBlockBegin
  2
*D14
 70
     1
 10
0.0
 20
0.0
 30
0.0
  3
*D14
  1

  0
LINE
  5
17388
330
1523D
100
AcDbEntity
  8
寸法
 62
     0
 48
50.0
370
    -2
100
AcDbLine
 10
9066.299125379073
 20
9419.098915086495
 30
0.0
 11
9753.725471113481
 21
9419.098915086495
 31
0.0
  0
LINE
  5
17389
330
1523D
100
AcDbEntity
  8
寸法
 62
     0
 48
50.0
370
    -2
100
AcDbLine
 10
9066.299125379073
 20
8999.098915086495
 30
0.0
 11
9753.725471113481
 21
8999.098915086495
 31
0.0
  0
LINE
  5
1738A
330
1523D
100
AcDbEntity
  8
寸法
 62
     0
 48
50.0
370
    -2
100
AcDbLine
 10
9693.725471113481
 20
9419.098915086495
 30
0.0
 11
9693.725471113481
 21
8999.098915086495
 31
0.0
  0
INSERT
  5
1738B
330
1523D
100
AcDbEntity
  8
寸法
 62
     0
 48
50.0
370
    -2
100
AcDbBlockReference
  2
_DOTSMALL
 10
9693.725471113481
 20
9419.098915086495
 30
0.0
 41
100.0
 42
100.0
 43
100.0
 50
90.0
  0
INSERT
  5
1738C
330
1523D
100
AcDbEntity
  8
寸法
 62
     0
 48
50.0
370
    -2
100
AcDbBlockReference
  2
_DOTSMALL
 10
9693.725471113481
 20
8999.098915086495
 30
0.0
 41
100.0
 42
100.0
 43
100.0
 50
270.0
  0
MTEXT
  5
1738D
330
1523D
100
AcDbEntity
  8
寸法
 62
     7
 48
50.0
100
AcDbMText
 10
9593.713660089859
 20
9209.098915086498
 30
0.0
 40
120.0
 41
0.0
 71
     5
 72
     1
  1
\A1;420
  7
STYLE1
 11
0.0000000000000001
 21
1.0
 31
0.0
 73
     1
 44
1.0
1001
ACAD
1000
MTEXTBEGIN
1070
    73
1070
     1
1070
    44
1040
1.0
1070
    74
1070
     0
1000
MTEXTEND
  0
POINT
  5
1738E
330
1523D
100
AcDbEntity
  8
DEFPOINTS
 62
     0
 48
50.0
100
AcDbPoint
 10
9046.299125379071
 20
9419.098915086495
 30
0.0
  0
POINT
  5
1738F
330
1523D
100
AcDbEntity
  8
DEFPOINTS
 62
     0
 48
50.0
100
AcDbPoint
 10
9046.299125379071
 20
8999.098915086495
 30
0.0
  0
POINT
  5
17390
330
1523D
100
AcDbEntity
  8
DEFPOINTS
 62
     0
 48
50.0
100
AcDbPoint
 10
9693.725471113481
 20
8999.098915086495
 30
0.0
  0
ENDBLK
  5
15248
330
1523D
100
AcDbEntity
  8
0
 48
50.0
100
AcDbBlockEnd
  0
BLOCK
  5
1524B
330
1524A
100
AcDbEntity
  8
0
 48
50.0
100
AcDbBlockBegin
  2
*D15
 70
     1
 10
0.0
 20
0.0
 30
0.0
  3
*D15
  1

  0
LINE
  5
1737F
330
1524A
100
AcDbEntity
  8
寸法
 62
     0
 48
50.0
370
    -2
100
AcDbLine
 10
9066.299125379073
 20
8999.098915086495
 30
0.0
 11
9753.725471113481
 21
8999.098915086495
 31
0.0
  0
LINE
  5
17380
330
1524A
100
AcDbEntity
  8
寸法
 62
     0
 48
50.0
370
    -2
100
AcDbLine
 10
9066.299125379073
 20
8419.098915086495
 30
0.0
 11
9753.725471113481
 21
8419.098915086495
 31
0.0
  0
LINE
  5
17381
330
1524A
100
AcDbEntity
  8
寸法
 62
     0
 48
50.0
370
    -2
100
AcDbLine
 10
9693.725471113481
 20
8999.098915086495
 30
0.0
 11
9693.725471113481
 21
8419.098915086495
 31
0.0
  0
INSERT
  5
17382
330
1524A
100
AcDbEntity
  8
寸法
 62
     0
 48
50.0
370
    -2
100
AcDbBlockReference
  2
_DOTSMALL
 10
9693.725471113481
 20
8999.098915086495
 30
0.0
 41
100.0
 42
100.0
 43
100.0
 50
90.0
  0
INSERT
  5
17383
330
1524A
100
AcDbEntity
  8
寸法
 62
     0
 48
50.0
370
    -2
100
AcDbBlockReference
  2
_DOTSMALL
 10
9693.725471113481
 20
8419.098915086495
 30
0.0
 41
100.0
 42
100.0
 43
100.0
 50
270.0
  0
MTEXT
  5
17384
330
1524A
100
AcDbEntity
  8
寸法
 62
     7
 48
50.0
100
AcDbMText
 10
9593.725471113479
 20
8709.098915086498
 30
0.0
 40
120.0
 41
0.0
 71
     5
 72
     1
  1
\A1;580
  7
STYLE1
 11
0.0000000000000001
 21
1.0
 31
0.0
 73
     1
 44
1.0
1001
ACAD
1000
MTEXTBEGIN
1070
    73
1070
     1
1070
    44
1040
1.0
1070
    74
1070
     0
1000
MTEXTEND
  0
POINT
  5
17385
330
1524A
100
AcDbEntity
  8
DEFPOINTS
 62
     0
 48
50.0
100
AcDbPoint
 10
9046.299125379071
 20
8999.098915086495
 30
0.0
  0
POINT
  5
17386
330
1524A
100
AcDbEntity
  8
DEFPOINTS
 62
     0
 48
50.0
100
AcDbPoint
 10
9046.299125379071
 20
8419.098915086495
 30
0.0
  0
POINT
  5
17387
330
1524A
100
AcDbEntity
  8
DEFPOINTS
 62
     0
 48
50.0
100
AcDbPoint
 10
9693.725471113481
 20
8419.098915086495
 30
0.0
  0
ENDBLK
  5
15255
330
1524A
100
AcDbEntity
  8
0
 48
50.0
100
AcDbBlockEnd
  0
BLOCK
  5
15258
330
15257
100
AcDbEntity
  8
0
 48
50.0
100
AcDbBlockBegin
  2
*D16
 70
     1
 10
0.0
 20
0.0
 30
0.0
  3
*D16
  1

  0
LINE
  5
17376
330
15257
100
AcDbEntity
  8
寸法
 62
     0
 48
50.0
370
    -2
100
AcDbLine
 10
9066.299125379046
 20
7999.098915086452
 30
0.0
 11
9753.725471113481
 21
7999.098915086452
 31
0.0
  0
LINE
  5
17377
330
15257
100
AcDbEntity
  8
寸法
 62
     0
 48
50.0
370
    -2
100
AcDbLine
 10
9066.299125379073
 20
8419.098915086495
 30
0.0
 11
9753.725471113481
 21
8419.098915086495
 31
0.0
  0
LINE
  5
17378
330
15257
100
AcDbEntity
  8
寸法
 62
     0
 48
50.0
370
    -2
100
AcDbLine
 10
9693.725471113481
 20
7999.098915086452
 30
0.0
 11
9693.725471113481
 21
8419.098915086495
 31
0.0
  0
INSERT
  5
17379
330
15257
100
AcDbEntity
  8
寸法
 62
     0
 48
50.0
370
    -2
100
AcDbBlockReference
  2
_DOTSMALL
 10
9693.725471113481
 20
7999.098915086452
 30
0.0
 41
100.0
 42
100.0
 43
100.0
 50
270.0
  0
INSERT
  5
1737A
330
15257
100
AcDbEntity
  8
寸法
 62
     0
 48
50.0
370
    -2
100
AcDbBlockReference
  2
_DOTSMALL
 10
9693.725471113481
 20
8419.098915086495
 30
0.0
 41
100.0
 42
100.0
 43
100.0
 50
90.0
  0
MTEXT
  5
1737B
330
15257
100
AcDbEntity
  8
寸法
 62
     7
 48
50.0
100
AcDbMText
 10
9593.713660089859
 20
8209.098915086476
 30
0.0
 40
120.0
 41
0.0
 71
     5
 72
     1
  1
\A1;420
  7
STYLE1
 11
0.0000000000000001
 21
1.0
 31
0.0
 73
     1
 44
1.0
1001
ACAD
1000
MTEXTBEGIN
1070
    73
1070
     1
1070
    44
1040
1.0
1070
    74
1070
     0
1000
MTEXTEND
  0
POINT
  5
1737C
330
15257
100
AcDbEntity
  8
DEFPOINTS
 62
     0
 48
50.0
100
AcDbPoint
 10
9046.299125379047
 20
7999.098915086452
 30
0.0
  0
POINT
  5
1737D
330
15257
100
AcDbEntity
  8
DEFPOINTS
 62
     0
 48
50.0
100
AcDbPoint
 10
9046.299125379071
 20
8419.098915086495
 30
0.0
  0
POINT
  5
1737E
330
15257
100
AcDbEntity
  8
DEFPOINTS
 62
     0
 48
50.0
100
AcDbPoint
 10
9693.725471113481
 20
8419.098915086495
 30
0.0
  0
ENDBLK
  5
15262
330
15257
100
AcDbEntity
  8
0
 48
50.0
100
AcDbBlockEnd
  0
BLOCK
  5
153A4
330
15398
100
AcDbEntity
  8
0
 48
50.0
100
AcDbBlockBegin
  2
*D17
 70
     1
 10
0.0
 20
0.0
 30
0.0
  3
*D17
  1

  0
LINE
  5
1736D
330
15398
100
AcDbEntity
  8
寸法
 62
     0
 48
50.0
370
    -2
100
AcDbLine
 10
7201.299125379067
 20
7924.098915086394
 30
0.0
 11
7201.299125379067
 21
7444.275247291317
 31
0.0
  0
LINE
  5
1736E
330
15398
100
AcDbEntity
  8
寸法
 62
     0
 48
50.0
370
    -2
100
AcDbLine
 10
7886.299125379061
 20
7924.098915086357
 30
0.0
 11
7886.299125379061
 21
7444.275247291317
 31
0.0
  0
LINE
  5
1736F
330
15398
100
AcDbEntity
  8
寸法
 62
     0
 48
50.0
370
    -2
100
AcDbLine
 10
7201.299125379067
 20
7504.275247291317
 30
0.0
 11
7886.299125379061
 21
7504.275247291317
 31
0.0
  0
INSERT
  5
17370
330
15398
100
AcDbEntity
  8
寸法
 62
     0
 48
50.0
370
    -2
100
AcDbBlockReference
  2
_DOTSMALL
 10
7201.299125379067
 20
7504.275247291317
 30
0.0
 41
100.0
 42
100.0
 43
100.0
 50
180.0
  0
INSERT
  5
17371
330
15398
100
AcDbEntity
  8
寸法
 62
     0
 48
50.0
370
    -2
100
AcDbBlockReference
  2
_DOTSMALL
 10
7886.299125379061
 20
7504.275247291317
 30
0.0
 41
100.0
 42
100.0
 43
100.0
  0
MTEXT
  5
17372
330
15398
100
AcDbEntity
  8
寸法
 62
     7
 48
50.0
100
AcDbMText
 10
7543.799125379064
 20
7604.275247291316
 30
0.0
 40
120.0
 41
0.0
 71
     5
 72
     1
  1
\A1;685
  7
STYLE1
 73
     1
 44
1.0
1001
ACAD
1000
MTEXTBEGIN
1070
    73
1070
     1
1070
    44
1040
1.0
1070
    74
1070
     0
1000
MTEXTEND
  0
POINT
  5
17373
330
15398
100
AcDbEntity
  8
DEFPOINTS
 62
     0
 48
50.0
100
AcDbPoint
 10
7201.299125379067
 20
7944.098915086394
 30
0.0
  0
POINT
  5
17374
330
15398
100
AcDbEntity
  8
DEFPOINTS
 62
     0
 48
50.0
100
AcDbPoint
 10
7886.299125379061
 20
7944.098915086357
 30
0.0
  0
POINT
  5
17375
330
15398
100
AcDbEntity
  8
DEFPOINTS
 62
     0
 48
50.0
100
AcDbPoint
 10
7886.299125379061
 20
7504.275247291317
 30
0.0
  0
ENDBLK
  5
153AE
330
15398
100
AcDbEntity
  8
0
 48
50.0
100
AcDbBlockEnd
  0
BLOCK
  5
153B1
330
153B0
100
AcDbEntity
  8
0
 48
50.0
100
AcDbBlockBegin
  2
*D18
 70
     1
 10
0.0
 20
0.0
 30
0.0
  3
*D18
  1

  0
LINE
  5
17364
330
153B0
100
AcDbEntity
  8
寸法
 62
     0
 48
50.0
370
    -2
100
AcDbLine
 10
4351.299125379068
 20
7924.098915086394
 30
0.0
 11
4351.299125379068
 21
7444.275247291317
 31
0.0
  0
LINE
  5
17365
330
153B0
100
AcDbEntity
  8
寸法
 62
     0
 48
50.0
370
    -2
100
AcDbLine
 10
5036.29912537906
 20
7924.098915086357
 30
0.0
 11
5036.29912537906
 21
7444.275247291317
 31
0.0
  0
LINE
  5
17366
330
153B0
100
AcDbEntity
  8
寸法
 62
     0
 48
50.0
370
    -2
100
AcDbLine
 10
4351.299125379068
 20
7504.275247291317
 30
0.0
 11
5036.29912537906
 21
7504.275247291317
 31
0.0
  0
INSERT
  5
17367
330
153B0
100
AcDbEntity
  8
寸法
 62
     0
 48
50.0
370
    -2
100
AcDbBlockReference
  2
_DOTSMALL
 10
4351.299125379068
 20
7504.275247291317
 30
0.0
 41
100.0
 42
100.0
 43
100.0
 50
180.0
  0
INSERT
  5
17368
330
153B0
100
AcDbEntity
  8
寸法
 62
     0
 48
50.0
370
    -2
100
AcDbBlockReference
  2
_DOTSMALL
 10
5036.29912537906
 20
7504.275247291317
 30
0.0
 41
100.0
 42
100.0
 43
100.0
  0
MTEXT
  5
17369
330
153B0
100
AcDbEntity
  8
寸法
 62
     7
 48
50.0
100
AcDbMText
 10
4693.799125379064
 20
7604.275247291316
 30
0.0
 40
120.0
 41
0.0
 71
     5
 72
     1
  1
\A1;685
  7
STYLE1
 73
     1
 44
1.0
1001
ACAD
1000
MTEXTBEGIN
1070
    73
1070
     1
1070
    44
1040
1.0
1070
    74
1070
     0
1000
MTEXTEND
  0
POINT
  5
1736A
330
153B0
100
AcDbEntity
  8
DEFPOINTS
 62
     0
 48
50.0
100
AcDbPoint
 10
4351.299125379068
 20
7944.098915086394
 30
0.0
  0
POINT
  5
1736B
330
153B0
100
AcDbEntity
  8
DEFPOINTS
 62
     0
 48
50.0
100
AcDbPoint
 10
5036.29912537906
 20
7944.098915086357
 30
0.0
  0
POINT
  5
1736C
330
153B0
100
AcDbEntity
  8
DEFPOINTS
 62
     0
 48
50.0
100
AcDbPoint
 10
5036.29912537906
 20
7504.275247291317
 30
0.0
  0
ENDBLK
  5
153BB
330
153B0
100
AcDbEntity
  8
0
 48
50.0
100
AcDbBlockEnd
  0
BLOCK
  5
154A3
330
154A2
100
AcDbEntity
  8
0
 48
50.0
100
AcDbBlockBegin
  2
*D19
 70
     1
 10
0.0
 20
0.0
 30
0.0
  3
*D19
  1

  0
LINE
  5
17349
330
154A2
100
AcDbEntity
  8
寸法
 62
     0
 48
50.0
370
    -2
100
AcDbLine
 10
6251.299125379068
 20
9494.09891508643
 30
0.0
 11
6251.299125379068
 21
9749.907134711499
 31
0.0
  0
LINE
  5
1734A
330
154A2
100
AcDbEntity
  8
寸法
 62
     0
 48
50.0
370
    -2
100
AcDbLine
 10
7091.299125379068
 20
9494.098915086517
 30
0.0
 11
7091.299125379068
 21
9749.907134711499
 31
0.0
  0
LINE
  5
1734B
330
154A2
100
AcDbEntity
  8
寸法
 62
     0
 48
50.0
370
    -2
100
AcDbLine
 10
6251.299125379068
 20
9689.907134711498
 30
0.0
 11
7091.299125379068
 21
9689.907134711498
 31
0.0
  0
INSERT
  5
1734C
330
154A2
100
AcDbEntity
  8
寸法
 62
     0
 48
50.0
370
    -2
100
AcDbBlockReference
  2
_DOTSMALL
 10
6251.299125379068
 20
9689.907134711498
 30
0.0
 41
100.0
 42
100.0
 43
100.0
 50
180.0
  0
INSERT
  5
1734D
330
154A2
100
AcDbEntity
  8
寸法
 62
     0
 48
50.0
370
    -2
100
AcDbBlockReference
  2
_DOTSMALL
 10
7091.299125379068
 20
9689.907134711498
 30
0.0
 41
100.0
 42
100.0
 43
100.0
  0
MTEXT
  5
1734E
330
154A2
100
AcDbEntity
  8
寸法
 62
     7
 48
50.0
100
AcDbMText
 10
6671.299125379068
 20
9789.918945735122
 30
0.0
 40
120.0
 41
0.0
 71
     5
 72
     1
  1
\A1;2X420=840
  7
STYLE1
 73
     1
 44
1.0
1001
ACAD
1000
MTEXTBEGIN
1070
    73
1070
     1
1070
    44
1040
1.0
1070
    74
1070
     0
1000
MTEXTEND
  0
POINT
  5
1734F
330
154A2
100
AcDbEntity
  8
DEFPOINTS
 62
     0
 48
50.0
100
AcDbPoint
 10
6251.299125379068
 20
9474.098915086429
 30
0.0
  0
POINT
  5
17350
330
154A2
100
AcDbEntity
  8
DEFPOINTS
 62
     0
 48
50.0
100
AcDbPoint
 10
7091.299125379068
 20
9474.098915086518
 30
0.0
  0
POINT
  5
17351
330
154A2
100
AcDbEntity
  8
DEFPOINTS
 62
     0
 48
50.0
100
AcDbPoint
 10
7091.299125379068
 20
9689.907134711498
 30
0.0
  0
ENDBLK
  5
154AD
330
154A2
100
AcDbEntity
  8
0
 48
50.0
100
AcDbBlockEnd
  0
BLOCK
  5
154AF
330
154AE
100
AcDbEntity
  8
0
 48
50.0
100
AcDbBlockBegin
  2
*D20
 70
     1
 10
0.0
 20
0.0
 30
0.0
  3
*D20
  1

  0
LINE
  5
17352
330
154AE
100
AcDbEntity
  8
寸法
 62
     0
 48
50.0
370
    -2
100
AcDbLine
 10
7091.299125379068
 20
9494.098915086517
 30
0.0
 11
7091.299125379068
 21
9749.907134711499
 31
0.0
  0
LINE
  5
17353
330
154AE
100
AcDbEntity
  8
寸法
 62
     0
 48
50.0
370
    -2
100
AcDbLine
 10
7201.299125379072
 20
9494.098915086494
 30
0.0
 11
7201.299125379072
 21
9749.907134711499
 31
0.0
  0
LINE
  5
17354
330
154AE
100
AcDbEntity
  8
寸法
 62
     0
 48
50.0
370
    -2
100
AcDbLine
 10
7091.299125379068
 20
9689.907134711498
 30
0.0
 11
7201.299125379072
 21
9689.907134711498
 31
0.0
  0
MTEXT
  5
17355
330
154AE
100
AcDbEntity
  8
寸法
 62
     7
 48
50.0
100
AcDbMText
 10
7146.299125379072
 20
9941.640475660895
 30
0.0
 40
120.0
 41
0.0
 71
     5
 72
     1
  1
\A1;110
  7
STYLE1
 73
     1
 44
1.0
1001
ACAD
1000
MTEXTBEGIN
1070
    73
1070
     1
1070
    44
1040
1.0
1070
    74
1070
     0
1000
MTEXTEND
  0
INSERT
  5
17356
330
154AE
100
AcDbEntity
  8
寸法
 62
     0
 48
50.0
370
    -2
100
AcDbBlockReference
  2
_DOTSMALL
 10
7091.299125379068
 20
9689.907134711498
 30
0.0
 41
100.0
 42
100.0
 43
100.0
 50
180.0
  0
INSERT
  5
17357
330
154AE
100
AcDbEntity
  8
寸法
 62
     0
 48
50.0
370
    -2
100
AcDbBlockReference
  2
_DOTSMALL
 10
7201.299125379072
 20
9689.907134711498
 30
0.0
 41
100.0
 42
100.0
 43
100.0
  0
POINT
  5
17358
330
154AE
100
AcDbEntity
  8
DEFPOINTS
 62
     0
 48
50.0
100
AcDbPoint
 10
7091.299125379068
 20
9474.098915086518
 30
0.0
  0
POINT
  5
17359
330
154AE
100
AcDbEntity
  8
DEFPOINTS
 62
     0
 48
50.0
100
AcDbPoint
 10
7201.299125379072
 20
9474.098915086495
 30
0.0
  0
POINT
  5
1735A
330
154AE
100
AcDbEntity
  8
DEFPOINTS
 62
     0
 48
50.0
100
AcDbPoint
 10
7201.299125379072
 20
9689.907134711498
 30
0.0
  0
ENDBLK
  5
154B9
330
154AE
100
AcDbEntity
  8
0
 48
50.0
100
AcDbBlockEnd
  0
BLOCK
  5
154BB
330
154BA
100
AcDbEntity
  8
0
 48
50.0
100
AcDbBlockBegin
  2
*D21
 70
     1
 10
0.0
 20
0.0
 30
0.0
  3
*D21
  1

  0
LINE
  5
1735B
330
154BA
100
AcDbEntity
  8
寸法
 62
     0
 48
50.0
370
    -2
100
AcDbLine
 10
6251.299125379068
 20
7924.098915086394
 30
0.0
 11
6251.299125379068
 21
7444.275247291317
 31
0.0
  0
LINE
  5
1735C
330
154BA
100
AcDbEntity
  8
寸法
 62
     0
 48
50.0
370
    -2
100
AcDbLine
 10
6936.299125379061
 20
7924.098915086357
 30
0.0
 11
6936.299125379061
 21
7444.275247291317
 31
0.0
  0
LINE
  5
1735D
330
154BA
100
AcDbEntity
  8
寸法
 62
     0
 48
50.0
370
    -2
100
AcDbLine
 10
6251.299125379068
 20
7504.275247291317
 30
0.0
 11
6936.299125379061
 21
7504.275247291317
 31
0.0
  0
INSERT
  5
1735E
330
154BA
100
AcDbEntity
  8
寸法
 62
     0
 48
50.0
370
    -2
100
AcDbBlockReference
  2
_DOTSMALL
 10
6251.299125379068
 20
7504.275247291317
 30
0.0
 41
100.0
 42
100.0
 43
100.0
 50
180.0
  0
INSERT
  5
1735F
330
154BA
100
AcDbEntity
  8
寸法
 62
     0
 48
50.0
370
    -2
100
AcDbBlockReference
  2
_DOTSMALL
 10
6936.299125379061
 20
7504.275247291317
 30
0.0
 41
100.0
 42
100.0
 43
100.0
  0
MTEXT
  5
17360
330
154BA
100
AcDbEntity
  8
寸法
 62
     7
 48
50.0
100
AcDbMText
 10
6593.799125379064
 20
7604.275247291316
 30
0.0
 40
120.0
 41
0.0
 71
     5
 72
     1
  1
\A1;685
  7
STYLE1
 73
     1
 44
1.0
1001
ACAD
1000
MTEXTBEGIN
1070
    73
1070
     1
1070
    44
1040
1.0
1070
    74
1070
     0
1000
MTEXTEND
  0
POINT
  5
17361
330
154BA
100
AcDbEntity
  8
DEFPOINTS
 62
     0
 48
50.0
100
AcDbPoint
 10
6251.299125379068
 20
7944.098915086394
 30
0.0
  0
POINT
  5
17362
330
154BA
100
AcDbEntity
  8
DEFPOINTS
 62
     0
 48
50.0
100
AcDbPoint
 10
6936.299125379061
 20
7944.098915086357
 30
0.0
  0
POINT
  5
17363
330
154BA
100
AcDbEntity
  8
DEFPOINTS
 62
     0
 48
50.0
100
AcDbPoint
 10
6936.299125379061
 20
7504.275247291317
 30
0.0
  0
ENDBLK
  5
154C5
330
154BA
100
AcDbEntity
  8
0
 48
50.0
100
AcDbBlockEnd
  0
BLOCK
  5
15604
330
15603
100
AcDbEntity
  8
0
 48
50.0
100
AcDbBlockBegin
  2
*D22
 70
     1
 10
0.0
 20
0.0
 30
0.0
  3
*D22
  1

  0
LINE
  5
17340
330
15603
100
AcDbEntity
  8
寸法
 62
     0
 48
50.0
370
    -2
100
AcDbLine
 10
5301.299125379068
 20
7924.098915086394
 30
0.0
 11
5301.299125379068
 21
7444.275247291317
 31
0.0
  0
LINE
  5
17341
330
15603
100
AcDbEntity
  8
寸法
 62
     0
 48
50.0
370
    -2
100
AcDbLine
 10
5986.29912537906
 20
7924.098915086357
 30
0.0
 11
5986.29912537906
 21
7444.275247291317
 31
0.0
  0
LINE
  5
17342
330
15603
100
AcDbEntity
  8
寸法
 62
     0
 48
50.0
370
    -2
100
AcDbLine
 10
5301.299125379068
 20
7504.275247291317
 30
0.0
 11
5986.29912537906
 21
7504.275247291317
 31
0.0
  0
INSERT
  5
17343
330
15603
100
AcDbEntity
  8
寸法
 62
     0
 48
50.0
370
    -2
100
AcDbBlockReference
  2
_DOTSMALL
 10
5301.299125379068
 20
7504.275247291317
 30
0.0
 41
100.0
 42
100.0
 43
100.0
 50
180.0
  0
INSERT
  5
17344
330
15603
100
AcDbEntity
  8
寸法
 62
     0
 48
50.0
370
    -2
100
AcDbBlockReference
  2
_DOTSMALL
 10
5986.29912537906
 20
7504.275247291317
 30
0.0
 41
100.0
 42
100.0
 43
100.0
  0
MTEXT
  5
17345
330
15603
100
AcDbEntity
  8
寸法
 62
     7
 48
50.0
100
AcDbMText
 10
5643.799125379064
 20
7604.275247291316
 30
0.0
 40
120.0
 41
0.0
 71
     5
 72
     1
  1
\A1;685
  7
STYLE1
 73
     1
 44
1.0
1001
ACAD
1000
MTEXTBEGIN
1070
    73
1070
     1
1070
    44
1040
1.0
1070
    74
1070
     0
1000
MTEXTEND
  0
POINT
  5
17346
330
15603
100
AcDbEntity
  8
DEFPOINTS
 62
     0
 48
50.0
100
AcDbPoint
 10
5301.299125379068
 20
7944.098915086394
 30
0.0
  0
POINT
  5
17347
330
15603
100
AcDbEntity
  8
DEFPOINTS
 62
     0
 48
50.0
100
AcDbPoint
 10
5986.29912537906
 20
7944.098915086357
 30
0.0
  0
POINT
  5
17348
330
15603
100
AcDbEntity
  8
DEFPOINTS
 62
     0
 48
50.0
100
AcDbPoint
 10
5986.29912537906
 20
7504.275247291317
 30
0.0
  0
ENDBLK
  5
1560E
330
15603
100
AcDbEntity
  8
0
 48
50.0
100
AcDbBlockEnd
  0
BLOCK
  5
15610
330
1560F
100
AcDbEntity
  8
0
 48
50.0
100
AcDbBlockBegin
  2
*D23
 70
     1
 10
0.0
 20
0.0
 30
0.0
  3
*D23
  1

  0
LINE
  5
1732E
330
1560F
100
AcDbEntity
  8
寸法
 62
     0
 48
50.0
370
    -2
100
AcDbLine
 10
6141.299125379068
 20
9494.098915086517
 30
0.0
 11
6141.299125379068
 21
9749.907134711499
 31
0.0
  0
LINE
  5
1732F
330
1560F
100
AcDbEntity
  8
寸法
 62
     0
 48
50.0
370
    -2
100
AcDbLine
 10
6251.299125379071
 20
9494.098915086494
 30
0.0
 11
6251.299125379071
 21
9749.907134711499
 31
0.0
  0
LINE
  5
17330
330
1560F
100
AcDbEntity
  8
寸法
 62
     0
 48
50.0
370
    -2
100
AcDbLine
 10
6141.299125379068
 20
9689.907134711498
 30
0.0
 11
6251.299125379071
 21
9689.907134711498
 31
0.0
  0
MTEXT
  5
17331
330
1560F
100
AcDbEntity
  8
寸法
 62
     7
 48
50.0
100
AcDbMText
 10
6196.299125379072
 20
9941.640475660895
 30
0.0
 40
120.0
 41
0.0
 71
     5
 72
     1
  1
\A1;110
  7
STYLE1
 73
     1
 44
1.0
1001
ACAD
1000
MTEXTBEGIN
1070
    73
1070
     1
1070
    44
1040
1.0
1070
    74
1070
     0
1000
MTEXTEND
  0
INSERT
  5
17332
330
1560F
100
AcDbEntity
  8
寸法
 62
     0
 48
50.0
370
    -2
100
AcDbBlockReference
  2
_DOTSMALL
 10
6141.299125379068
 20
9689.907134711498
 30
0.0
 41
100.0
 42
100.0
 43
100.0
 50
180.0
  0
INSERT
  5
17333
330
1560F
100
AcDbEntity
  8
寸法
 62
     0
 48
50.0
370
    -2
100
AcDbBlockReference
  2
_DOTSMALL
 10
6251.299125379071
 20
9689.907134711498
 30
0.0
 41
100.0
 42
100.0
 43
100.0
  0
POINT
  5
17334
330
1560F
100
AcDbEntity
  8
DEFPOINTS
 62
     0
 48
50.0
100
AcDbPoint
 10
6141.299125379068
 20
9474.098915086518
 30
0.0
  0
POINT
  5
17335
330
1560F
100
AcDbEntity
  8
DEFPOINTS
 62
     0
 48
50.0
100
AcDbPoint
 10
6251.299125379071
 20
9474.098915086495
 30
0.0
  0
POINT
  5
17336
330
1560F
100
AcDbEntity
  8
DEFPOINTS
 62
     0
 48
50.0
100
AcDbPoint
 10
6251.299125379071
 20
9689.907134711498
 30
0.0
  0
ENDBLK
  5
1561A
330
1560F
100
AcDbEntity
  8
0
 48
50.0
100
AcDbBlockEnd
  0
BLOCK
  5
1561C
330
1561B
100
AcDbEntity
  8
0
 48
50.0
100
AcDbBlockBegin
  2
*D24
 70
     1
 10
0.0
 20
0.0
 30
0.0
  3
*D24
  1

  0
LINE
  5
17337
330
1561B
100
AcDbEntity
  8
寸法
 62
     0
 48
50.0
370
    -2
100
AcDbLine
 10
5301.299125379068
 20
9494.09891508643
 30
0.0
 11
5301.299125379068
 21
9749.907134711499
 31
0.0
  0
LINE
  5
17338
330
1561B
100
AcDbEntity
  8
寸法
 62
     0
 48
50.0
370
    -2
100
AcDbLine
 10
6141.299125379068
 20
9494.098915086517
 30
0.0
 11
6141.299125379068
 21
9749.907134711499
 31
0.0
  0
LINE
  5
17339
330
1561B
100
AcDbEntity
  8
寸法
 62
     0
 48
50.0
370
    -2
100
AcDbLine
 10
5301.299125379068
 20
9689.907134711498
 30
0.0
 11
6141.299125379068
 21
9689.907134711498
 31
0.0
  0
INSERT
  5
1733A
330
1561B
100
AcDbEntity
  8
寸法
 62
     0
 48
50.0
370
    -2
100
AcDbBlockReference
  2
_DOTSMALL
 10
5301.299125379068
 20
9689.907134711498
 30
0.0
 41
100.0
 42
100.0
 43
100.0
 50
180.0
  0
INSERT
  5
1733B
330
1561B
100
AcDbEntity
  8
寸法
 62
     0
 48
50.0
370
    -2
100
AcDbBlockReference
  2
_DOTSMALL
 10
6141.299125379068
 20
9689.907134711498
 30
0.0
 41
100.0
 42
100.0
 43
100.0
  0
MTEXT
  5
1733C
330
1561B
100
AcDbEntity
  8
寸法
 62
     7
 48
50.0
100
AcDbMText
 10
5721.299125379068
 20
9789.918945735122
 30
0.0
 40
120.0
 41
0.0
 71
     5
 72
     1
  1
\A1;2X420=840
  7
STYLE1
 73
     1
 44
1.0
1001
ACAD
1000
MTEXTBEGIN
1070
    73
1070
     1
1070
    44
1040
1.0
1070
    74
1070
     0
1000
MTEXTEND
  0
POINT
  5
1733D
330
1561B
100
AcDbEntity
  8
DEFPOINTS
 62
     0
 48
50.0
100
AcDbPoint
 10
5301.299125379068
 20
9474.098915086429
 30
0.0
  0
POINT
  5
1733E
330
1561B
100
AcDbEntity
  8
DEFPOINTS
 62
     0
 48
50.0
100
AcDbPoint
 10
6141.299125379068
 20
9474.098915086518
 30
0.0
  0
POINT
  5
1733F
330
1561B
100
AcDbEntity
  8
DEFPOINTS
 62
     0
 48
50.0
100
AcDbPoint
 10
6141.299125379068
 20
9689.907134711498
 30
0.0
  0
ENDBLK
  5
15626
330
1561B
100
AcDbEntity
  8
0
 48
50.0
100
AcDbBlockEnd
  0
BLOCK
  5
15FF9
330
15FEF
100
AcDbEntity
  8
0
 48
50.0
100
AcDbBlockBegin
  2
*D25
 70
     1
 10
0.0
 20
0.0
 30
0.0
  3
*D25
  1

  0
LINE
  5
1748D
330
15FEF
100
AcDbEntity
  8
寸法
 62
     0
 48
50.0
370
    -2
100
AcDbLine
 10
11406.16866789465
 20
4992.909735000502
 30
0.0
 11
10771.20794724722
 21
4992.909735000502
 31
0.0
  0
LINE
  5
1748E
330
15FEF
100
AcDbEntity
  8
寸法
 62
     0
 48
50.0
370
    -2
100
AcDbLine
 10
11406.16866789465
 20
3202.909735000505
 30
0.0
 11
10771.20794724722
 21
3202.909735000506
 31
0.0
  0
LINE
  5
1748F
330
15FEF
100
AcDbEntity
  8
寸法
 62
     0
 48
50.0
370
    -2
100
AcDbLine
 10
10831.20794724723
 20
4992.909735000502
 30
0.0
 11
10831.20794724722
 21
3202.909735000506
 31
0.0
  0
INSERT
  5
17490
330
15FEF
100
AcDbEntity
  8
寸法
 62
     0
 48
50.0
370
    -2
100
AcDbBlockReference
  2
_DOTSMALL
 10
10831.20794724723
 20
4992.909735000502
 30
0.0
 41
100.0
 42
100.0
 43
100.0
 50
90.0
  0
INSERT
  5
17491
330
15FEF
100
AcDbEntity
  8
寸法
 62
     0
 48
50.0
370
    -2
100
AcDbBlockReference
  2
_DOTSMALL
 10
10831.20794724722
 20
3202.909735000506
 30
0.0
 41
100.0
 42
100.0
 43
100.0
 50
270.0
  0
MTEXT
  5
17492
330
15FEF
100
AcDbEntity
  8
寸法
 62
     7
 48
50.0
100
AcDbMText
 10
10731.20794724722
 20
4107.94474687689
 30
0.0
 40
120.0
 41
0.0
 71
     5
 72
     1
  1
\A1;1790
  7
STYLE1
 11
0.0000000000000001
 21
1.0
 31
0.0
 73
     1
 44
1.0
1001
ACAD
1000
MTEXTBEGIN
1070
    73
1070
     1
1070
    44
1040
1.0
1070
    74
1070
     0
1000
MTEXTEND
  0
POINT
  5
17493
330
15FEF
100
AcDbEntity
  8
DEFPOINTS
 62
     0
 48
50.0
100
AcDbPoint
 10
11426.16866789465
 20
4992.909735000502
 30
0.0
  0
POINT
  5
17494
330
15FEF
100
AcDbEntity
  8
DEFPOINTS
 62
     0
 48
50.0
100
AcDbPoint
 10
11426.16866789465
 20
3202.909735000505
 30
0.0
  0
POINT
  5
17495
330
15FEF
100
AcDbEntity
  8
DEFPOINTS
 62
     0
 48
50.0
100
AcDbPoint
 10
10831.20794724722
 20
3202.909735000506
 30
0.0
  0
ENDBLK
  5
15FFA
330
15FEF
100
AcDbEntity
  8
0
 48
50.0
100
AcDbBlockEnd
  0
BLOCK
  5
16006
330
15FFB
100
AcDbEntity
  8
0
 48
50.0
100
AcDbBlockBegin
  2
*D26
 70
     1
 10
0.0
 20
0.0
 30
0.0
  3
*D26
  1

  0
LINE
  5
17483
330
15FFB
100
AcDbEntity
  8
寸法
 62
     0
 48
50.0
370
    -2
100
AcDbLine
 10
11368.52784262693
 20
5086.445346473977
 30
0.0
 11
10715.6276723329
 21
5111.096377713955
 31
0.0
  0
LINE
  5
17484
330
15FFB
100
AcDbEntity
  8
寸法
 62
     0
 48
50.0
370
    -2
100
AcDbLine
 10
11373.84767677888
 20
5227.344953870861
 30
0.0
 11
10720.94750648469
 21
5251.995985110845
 31
0.0
  0
LINE
  5
17485
330
15FFB
100
AcDbEntity
  8
寸法
 62
     0
 48
50.0
370
    -2
100
AcDbLine
 10
10775.58495207626
 20
5108.832618500427
 30
0.0
 11
10780.90478622805
 21
5249.732225897316
 31
0.0
  0
LINE
  5
17486
330
15FFB
100
AcDbEntity
  8
寸法
 62
     0
 48
50.0
370
    -2
100
AcDbLine
 10
10780.90478622805
 20
5249.732225897316
 30
0.0
 11
10794.48734150925
 21
5609.475904358147
 31
0.0
  0
INSERT
  5
17487
330
15FFB
100
AcDbEntity
  8
寸法
 62
     0
 48
50.0
370
    -2
100
AcDbBlockReference
  2
_DOTSMALL
 10
10775.58495207626
 20
5108.832618500427
 30
0.0
 41
100.0
 42
100.0
 43
100.0
 50
267.8377559871574
  0
INSERT
  5
17488
330
15FFB
100
AcDbEntity
  8
寸法
 62
     0
 48
50.0
370
    -2
100
AcDbBlockReference
  2
_DOTSMALL
 10
10780.90478622805
 20
5249.732225897316
 30
0.0
 41
100.0
 42
100.0
 43
100.0
 50
87.83775598715743
  0
MTEXT
  5
17489
330
15FFB
100
AcDbEntity
  8
寸法
 62
     7
 48
50.0
100
AcDbMText
 10
10689.65373030767
 20
5483.341396936754
 30
0.0
 40
120.0
 41
0.0
 71
     5
 72
     1
  1
\A1;141
  7
STYLE1
 11
0.03772932022548
 21
0.9992879957226159
 31
0.0
 73
     1
 44
1.0
1001
ACAD
1000
MTEXTBEGIN
1070
    73
1070
     1
1070
    44
1040
1.0
1070
    74
1070
     0
1000
MTEXTEND
  0
POINT
  5
1748A
330
15FFB
100
AcDbEntity
  8
DEFPOINTS
 62
     0
 48
50.0
100
AcDbPoint
 10
11388.51360254138
 20
5085.690760069468
 30
0.0
  0
POINT
  5
1748B
330
15FFB
100
AcDbEntity
  8
DEFPOINTS
 62
     0
 48
50.0
100
AcDbPoint
 10
11393.83343669333
 20
5226.590367466351
 30
0.0
  0
POINT
  5
1748C
330
15FFB
100
AcDbEntity
  8
DEFPOINTS
 62
     0
 48
50.0
100
AcDbPoint
 10
10780.90478622805
 20
5249.732225897316
 30
0.0
  0
ENDBLK
  5
16007
330
15FFB
100
AcDbEntity
  8
0
 48
50.0
100
AcDbBlockEnd
  0
BLOCK
  5
16013
330
16008
100
AcDbEntity
  8
0
 48
50.0
100
AcDbBlockBegin
  2
*D27
 70
     1
 10
0.0
 20
0.0
 30
0.0
  3
*D27
  1

  0
LINE
  5
17479
330
16008
100
AcDbEntity
  8
寸法
 62
     0
 48
50.0
370
    -2
100
AcDbLine
 10
12963.17103793943
 20
5194.720414612155
 30
0.0
 11
12963.17103793943
 21
5686.567188579806
 31
0.0
  0
LINE
  5
1747A
330
16008
100
AcDbEntity
  8
寸法
 62
     0
 48
50.0
370
    -2
100
AcDbLine
 10
13043.17103793943
 20
5192.909735000503
 30
0.0
 11
13043.17103793943
 21
5686.567188579806
 31
0.0
  0
LINE
  5
1747B
330
16008
100
AcDbEntity
  8
寸法
 62
     0
 48
50.0
370
    -2
100
AcDbLine
 10
12963.17103793943
 20
5626.567188579805
 30
0.0
 11
13043.17103793943
 21
5626.567188579805
 31
0.0
  0
LINE
  5
1747C
330
16008
100
AcDbEntity
  8
寸法
 62
     0
 48
50.0
370
    -2
100
AcDbLine
 10
13043.17103793943
 20
5626.567188579805
 30
0.0
 11
13355.26552612841
 21
5626.567188579805
 31
0.0
  0
INSERT
  5
1747D
330
16008
100
AcDbEntity
  8
寸法
 62
     0
 48
50.0
370
    -2
100
AcDbBlockReference
  2
_DOTSMALL
 10
12963.17103793943
 20
5626.567188579805
 30
0.0
 41
100.0
 42
100.0
 43
100.0
 50
180.0
  0
INSERT
  5
1747E
330
16008
100
AcDbEntity
  8
寸法
 62
     0
 48
50.0
370
    -2
100
AcDbBlockReference
  2
_DOTSMALL
 10
13043.17103793943
 20
5626.567188579805
 30
0.0
 41
100.0
 42
100.0
 43
100.0
  0
MTEXT
  5
1747F
330
16008
100
AcDbEntity
  8
寸法
 62
     7
 48
50.0
100
AcDbMText
 10
13249.21828203392
 20
5726.567188579806
 30
0.0
 40
120.0
 41
0.0
 71
     5
 72
     1
  1
\A1;80
  7
STYLE1
 73
     1
 44
1.0
1001
ACAD
1000
MTEXTBEGIN
1070
    73
1070
     1
1070
    44
1040
1.0
1070
    74
1070
     0
1000
MTEXTEND
  0
POINT
  5
17480
330
16008
100
AcDbEntity
  8
DEFPOINTS
 62
     0
 48
50.0
100
AcDbPoint
 10
12963.17103793943
 20
5174.720414612155
 30
0.0
  0
POINT
  5
17481
330
16008
100
AcDbEntity
  8
DEFPOINTS
 62
     0
 48
50.0
100
AcDbPoint
 10
13043.17103793943
 20
5172.909735000503
 30
0.0
  0
POINT
  5
17482
330
16008
100
AcDbEntity
  8
DEFPOINTS
 62
     0
 48
50.0
100
AcDbPoint
 10
13043.17103793943
 20
5626.567188579805
 30
0.0
  0
ENDBLK
  5
16014
330
16008
100
AcDbEntity
  8
0
 48
50.0
100
AcDbBlockEnd
  0
BLOCK
  5
1601F
330
16015
100
AcDbEntity
  8
0
 48
50.0
100
AcDbBlockBegin
  2
*D28
 70
     1
 10
0.0
 20
0.0
 30
0.0
  3
*D28
  1

  0
LINE
  5
17470
330
16015
100
AcDbEntity
  8
寸法
 62
     0
 48
50.0
370
    -2
100
AcDbLine
 10
13043.17103793943
 20
5192.909735000503
 30
0.0
 11
13043.17103793943
 21
5894.741509771769
 31
0.0
  0
LINE
  5
17471
330
16015
100
AcDbEntity
  8
寸法
 62
     0
 48
50.0
370
    -2
100
AcDbLine
 10
11373.17103793943
 20
5247.909735000507
 30
0.0
 11
11373.17103793943
 21
5894.741509771769
 31
0.0
  0
LINE
  5
17472
330
16015
100
AcDbEntity
  8
寸法
 62
     0
 48
50.0
370
    -2
100
AcDbLine
 10
13043.17103793943
 20
5834.741509771769
 30
0.0
 11
11373.17103793943
 21
5834.741509771769
 31
0.0
  0
INSERT
  5
17473
330
16015
100
AcDbEntity
  8
寸法
 62
     0
 48
50.0
370
    -2
100
AcDbBlockReference
  2
_DOTSMALL
 10
13043.17103793943
 20
5834.741509771769
 30
0.0
 41
100.0
 42
100.0
 43
100.0
  0
INSERT
  5
17474
330
16015
100
AcDbEntity
  8
寸法
 62
     0
 48
50.0
370
    -2
100
AcDbBlockReference
  2
_DOTSMALL
 10
11373.17103793943
 20
5834.741509771769
 30
0.0
 41
100.0
 42
100.0
 43
100.0
 50
180.0
  0
MTEXT
  5
17475
330
16015
100
AcDbEntity
  8
寸法
 62
     7
 48
50.0
100
AcDbMText
 10
12260.29586764125
 20
5934.741509771769
 30
0.0
 40
120.0
 41
0.0
 71
     5
 72
     1
  1
\A1;1670
  7
STYLE1
 73
     1
 44
1.0
1001
ACAD
1000
MTEXTBEGIN
1070
    73
1070
     1
1070
    44
1040
1.0
1070
    74
1070
     0
1000
MTEXTEND
  0
POINT
  5
17476
330
16015
100
AcDbEntity
  8
DEFPOINTS
 62
     0
 48
50.0
100
AcDbPoint
 10
13043.17103793943
 20
5172.909735000503
 30
0.0
  0
POINT
  5
17477
330
16015
100
AcDbEntity
  8
DEFPOINTS
 62
     0
 48
50.0
100
AcDbPoint
 10
11373.17103793943
 20
5227.909735000507
 30
0.0
  0
POINT
  5
17478
330
16015
100
AcDbEntity
  8
DEFPOINTS
 62
     0
 48
50.0
100
AcDbPoint
 10
11373.17103793943
 20
5834.741509771769
 30
0.0
  0
ENDBLK
  5
16020
330
16015
100
AcDbEntity
  8
0
 48
50.0
100
AcDbBlockEnd
  0
BLOCK
  5
1602D
330
16021
100
AcDbEntity
  8
0
 48
50.0
100
AcDbBlockBegin
  2
*D29
 70
     1
 10
0.0
 20
0.0
 30
0.0
  3
*D29
  1

  0
LINE
  5
17465
330
16021
100
AcDbEntity
  8
寸法
 62
     0
 48
50.0
370
    -2
100
AcDbLine
 10
11433.17103793943
 20
5243.911353123478
 30
0.0
 11
11433.17103793943
 21
5686.567188579806
 31
0.0
  0
LINE
  5
17466
330
16021
100
AcDbEntity
  8
寸法
 62
     0
 48
50.0
370
    -2
100
AcDbLine
 10
11373.17103793943
 20
5247.909735000507
 30
0.0
 11
11373.17103793943
 21
5686.567188579806
 31
0.0
  0
LINE
  5
17467
330
16021
100
AcDbEntity
  8
寸法
 62
     0
 48
50.0
370
    -2
100
AcDbLine
 10
11433.17103793943
 20
5626.567188579805
 30
0.0
 11
11533.17103793943
 21
5626.567188579805
 31
0.0
  0
LINE
  5
17468
330
16021
100
AcDbEntity
  8
寸法
 62
     0
 48
50.0
370
    -2
100
AcDbLine
 10
11373.17103793943
 20
5626.567188579805
 30
0.0
 11
10953.89544738825
 21
5626.567188579805
 31
0.0
  0
LINE
  5
17469
330
16021
100
AcDbEntity
  8
寸法
 62
     0
 48
50.0
370
    -2
100
AcDbLine
 10
11433.17103793943
 20
5626.567188579805
 30
0.0
 11
11373.17103793943
 21
5626.567188579805
 31
0.0
  0
INSERT
  5
1746A
330
16021
100
AcDbEntity
  8
寸法
 62
     0
 48
50.0
370
    -2
100
AcDbBlockReference
  2
_DOTSMALL
 10
11433.17103793943
 20
5626.567188579805
 30
0.0
 41
100.0
 42
100.0
 43
100.0
 50
180.0
  0
INSERT
  5
1746B
330
16021
100
AcDbEntity
  8
寸法
 62
     0
 48
50.0
370
    -2
100
AcDbBlockReference
  2
_DOTSMALL
 10
11373.17103793943
 20
5626.567188579805
 30
0.0
 41
100.0
 42
100.0
 43
100.0
  0
MTEXT
  5
1746C
330
16021
100
AcDbEntity
  8
寸法
 62
     7
 48
50.0
100
AcDbMText
 10
11063.53324266384
 20
5726.567188579806
 30
0.0
 40
120.0
 41
0.0
 71
     5
 72
     1
  1
\A1;60
  7
STYLE1
 73
     1
 44
1.0
1001
ACAD
1000
MTEXTBEGIN
1070
    73
1070
     1
1070
    44
1040
1.0
1070
    74
1070
     0
1000
MTEXTEND
  0
POINT
  5
1746D
330
16021
100
AcDbEntity
  8
DEFPOINTS
 62
     0
 48
50.0
100
AcDbPoint
 10
11433.17103793943
 20
5223.911353123478
 30
0.0
  0
POINT
  5
1746E
330
16021
100
AcDbEntity
  8
DEFPOINTS
 62
     0
 48
50.0
100
AcDbPoint
 10
11373.17103793943
 20
5227.909735000507
 30
0.0
  0
POINT
  5
1746F
330
16021
100
AcDbEntity
  8
DEFPOINTS
 62
     0
 48
50.0
100
AcDbPoint
 10
11373.17103793943
 20
5626.567188579805
 30
0.0
  0
ENDBLK
  5
1602E
330
16021
100
AcDbEntity
  8
0
 48
50.0
100
AcDbBlockEnd
  0
BLOCK
  5
16039
330
1602F
100
AcDbEntity
  8
0
 48
50.0
100
AcDbBlockBegin
  2
*D30
 70
     1
 10
0.0
 20
0.0
 30
0.0
  3
*D30
  1

  0
LINE
  5
1745C
330
1602F
100
AcDbEntity
  8
寸法
 62
     0
 48
50.0
370
    -2
100
AcDbLine
 10
12963.17103793943
 20
5194.720414612155
 30
0.0
 11
12963.17103793943
 21
5686.567188579806
 31
0.0
  0
LINE
  5
1745D
330
1602F
100
AcDbEntity
  8
寸法
 62
     0
 48
50.0
370
    -2
100
AcDbLine
 10
11433.17103793943
 20
5243.911353123478
 30
0.0
 11
11433.17103793943
 21
5686.567188579806
 31
0.0
  0
LINE
  5
1745E
330
1602F
100
AcDbEntity
  8
寸法
 62
     0
 48
50.0
370
    -2
100
AcDbLine
 10
12963.17103793943
 20
5626.567188579805
 30
0.0
 11
11433.17103793943
 21
5626.567188579805
 31
0.0
  0
INSERT
  5
1745F
330
1602F
100
AcDbEntity
  8
寸法
 62
     0
 48
50.0
370
    -2
100
AcDbBlockReference
  2
_DOTSMALL
 10
12963.17103793943
 20
5626.567188579805
 30
0.0
 41
100.0
 42
100.0
 43
100.0
  0
INSERT
  5
17460
330
1602F
100
AcDbEntity
  8
寸法
 62
     0
 48
50.0
370
    -2
100
AcDbBlockReference
  2
_DOTSMALL
 10
11433.17103793943
 20
5626.567188579805
 30
0.0
 41
100.0
 42
100.0
 43
100.0
 50
180.0
  0
MTEXT
  5
17461
330
1602F
100
AcDbEntity
  8
寸法
 62
     7
 48
50.0
100
AcDbMText
 10
12242.99007082997
 20
5726.567188579806
 30
0.0
 40
120.0
 41
0.0
 71
     5
 72
     1
  1
\A1;柱外寸法1530
  7
STYLE1
 73
     1
 44
1.0
1001
ACAD
1000
MTEXTBEGIN
1070
    73
1070
     1
1070
    44
1040
1.0
1070
    74
1070
     0
1000
MTEXTEND
  0
POINT
  5
17462
330
1602F
100
AcDbEntity
  8
DEFPOINTS
 62
     0
 48
50.0
100
AcDbPoint
 10
12963.17103793943
 20
5174.720414612155
 30
0.0
  0
POINT
  5
17463
330
1602F
100
AcDbEntity
  8
DEFPOINTS
 62
     0
 48
50.0
100
AcDbPoint
 10
11433.17103793943
 20
5223.911353123478
 30
0.0
  0
POINT
  5
17464
330
1602F
100
AcDbEntity
  8
DEFPOINTS
 62
     0
 48
50.0
100
AcDbPoint
 10
11433.17103793943
 20
5626.567188579805
 30
0.0
  0
ENDBLK
  5
1603A
330
1602F
100
AcDbEntity
  8
0
 48
50.0
100
AcDbBlockEnd
  0
BLOCK
  5
16045
330
1603B
100
AcDbEntity
  8
0
 48
50.0
100
AcDbBlockBegin
  2
*D31
 70
     1
 10
0.0
 20
0.0
 30
0.0
  3
*D31
  1

  0
LINE
  5
17453
330
1603B
100
AcDbEntity
  8
寸法
 62
     0
 48
50.0
370
    -2
100
AcDbLine
 10
12983.17103793943
 20
3152.909735000504
 30
0.0
 11
13728.09819591155
 21
3152.909735000503
 31
0.0
  0
LINE
  5
17454
330
1603B
100
AcDbEntity
  8
寸法
 62
     0
 48
50.0
370
    -2
100
AcDbLine
 10
13063.17103793943
 20
5172.909735000503
 30
0.0
 11
13728.09819591155
 21
5172.909735000503
 31
0.0
  0
LINE
  5
17455
330
1603B
100
AcDbEntity
  8
寸法
 62
     0
 48
50.0
370
    -2
100
AcDbLine
 10
13668.09819591155
 20
3152.909735000503
 30
0.0
 11
13668.09819591155
 21
5172.909735000503
 31
0.0
  0
INSERT
  5
17456
330
1603B
100
AcDbEntity
  8
寸法
 62
     0
 48
50.0
370
    -2
100
AcDbBlockReference
  2
_DOTSMALL
 10
13668.09819591155
 20
3152.909735000503
 30
0.0
 41
100.0
 42
100.0
 43
100.0
 50
270.0
  0
INSERT
  5
17457
330
1603B
100
AcDbEntity
  8
寸法
 62
     0
 48
50.0
370
    -2
100
AcDbBlockReference
  2
_DOTSMALL
 10
13668.09819591155
 20
5172.909735000503
 30
0.0
 41
100.0
 42
100.0
 43
100.0
 50
90.0
  0
MTEXT
  5
17458
330
1603B
100
AcDbEntity
  8
寸法
 62
     7
 48
50.0
100
AcDbMText
 10
13568.08638488793
 20
4162.909735000504
 30
0.0
 40
120.0
 41
0.0
 71
     5
 72
     1
  1
\A1;2020
  7
STYLE1
 11
0.0000000000000001
 21
1.0
 31
0.0
 73
     1
 44
1.0
1001
ACAD
1000
MTEXTBEGIN
1070
    73
1070
     1
1070
    44
1040
1.0
1070
    74
1070
     0
1000
MTEXTEND
  0
POINT
  5
17459
330
1603B
100
AcDbEntity
  8
DEFPOINTS
 62
     0
 48
50.0
100
AcDbPoint
 10
12963.17103793943
 20
3152.909735000504
 30
0.0
  0
POINT
  5
1745A
330
1603B
100
AcDbEntity
  8
DEFPOINTS
 62
     0
 48
50.0
100
AcDbPoint
 10
13043.17103793943
 20
5172.909735000503
 30
0.0
  0
POINT
  5
1745B
330
1603B
100
AcDbEntity
  8
DEFPOINTS
 62
     0
 48
50.0
100
AcDbPoint
 10
13668.09819591155
 20
5172.909735000503
 30
0.0
  0
ENDBLK
  5
16046
330
1603B
100
AcDbEntity
  8
0
 48
50.0
100
AcDbBlockEnd
  0
BLOCK
  5
16053
330
16047
100
AcDbEntity
  8
0
 48
50.0
100
AcDbBlockBegin
  2
*D32
 70
     1
 10
0.0
 20
0.0
 30
0.0
  3
*D32
  1

  0
LINE
  5
17448
330
16047
100
AcDbEntity
  8
寸法
 62
     0
 48
50.0
370
    -2
100
AcDbLine
 10
11406.16866789465
 20
3202.909735000505
 30
0.0
 11
10771.20794724722
 21
3202.909735000506
 31
0.0
  0
LINE
  5
17449
330
16047
100
AcDbEntity
  8
寸法
 62
     0
 48
50.0
370
    -2
100
AcDbLine
 10
11358.17103793943
 20
3152.909735000504
 30
0.0
 11
10771.20794724722
 21
3152.909735000504
 31
0.0
  0
LINE
  5
1744A
330
16047
100
AcDbEntity
  8
寸法
 62
     0
 48
50.0
370
    -2
100
AcDbLine
 10
10831.20794724722
 20
3202.909735000506
 30
0.0
 11
10831.20794724722
 21
3302.909735000506
 31
0.0
  0
LINE
  5
1744B
330
16047
100
AcDbEntity
  8
寸法
 62
     0
 48
50.0
370
    -2
100
AcDbLine
 10
10831.20794724722
 20
3152.909735000504
 30
0.0
 11
10831.20794724722
 21
2740.815246811524
 31
0.0
  0
LINE
  5
1744C
330
16047
100
AcDbEntity
  8
寸法
 62
     0
 48
50.0
370
    -2
100
AcDbLine
 10
10831.20794724722
 20
3202.909735000506
 30
0.0
 11
10831.20794724722
 21
3152.909735000504
 31
0.0
  0
INSERT
  5
1744D
330
16047
100
AcDbEntity
  8
寸法
 62
     0
 48
50.0
370
    -2
100
AcDbBlockReference
  2
_DOTSMALL
 10
10831.20794724722
 20
3202.909735000506
 30
0.0
 41
100.0
 42
100.0
 43
100.0
 50
270.0
  0
INSERT
  5
1744E
330
16047
100
AcDbEntity
  8
寸法
 62
     0
 48
50.0
370
    -2
100
AcDbBlockReference
  2
_DOTSMALL
 10
10831.20794724722
 20
3152.909735000504
 30
0.0
 41
100.0
 42
100.0
 43
100.0
 50
90.0
  0
MTEXT
  5
1744F
330
16047
100
AcDbEntity
  8
寸法
 62
     7
 48
50.0
100
AcDbMText
 10
10731.20794724722
 20
2846.862490906013
 30
0.0
 40
120.0
 41
0.0
 71
     5
 72
     1
  1
\A1;50
  7
STYLE1
 11
0.0000000000000001
 21
1.0
 31
0.0
 73
     1
 44
1.0
1001
ACAD
1000
MTEXTBEGIN
1070
    73
1070
     1
1070
    44
1040
1.0
1070
    74
1070
     0
1000
MTEXTEND
  0
POINT
  5
17450
330
16047
100
AcDbEntity
  8
DEFPOINTS
 62
     0
 48
50.0
100
AcDbPoint
 10
11426.16866789465
 20
3202.909735000505
 30
0.0
  0
POINT
  5
17451
330
16047
100
AcDbEntity
  8
DEFPOINTS
 62
     0
 48
50.0
100
AcDbPoint
 10
11378.17103793943
 20
3152.909735000504
 30
0.0
  0
POINT
  5
17452
330
16047
100
AcDbEntity
  8
DEFPOINTS
 62
     0
 48
50.0
100
AcDbPoint
 10
10831.20794724722
 20
3152.909735000504
 30
0.0
  0
ENDBLK
  5
16054
330
16047
100
AcDbEntity
  8
0
 48
50.0
100
AcDbBlockEnd
  0
BLOCK
  5
1605F
330
16055
100
AcDbEntity
  8
0
 48
50.0
100
AcDbBlockBegin
  2
*D33
 70
     1
 10
0.0
 20
0.0
 30
0.0
  3
*D33
  1

  0
LINE
  5
1743F
330
16055
100
AcDbEntity
  8
寸法
 62
     0
 48
50.0
370
    -2
100
AcDbLine
 10
11413.17103793943
 20
3152.909735000504
 30
0.0
 11
10468.89922629895
 21
3152.909735000504
 31
0.0
  0
LINE
  5
17440
330
16055
100
AcDbEntity
  8
寸法
 62
     0
 48
50.0
370
    -2
100
AcDbLine
 10
11353.17103793943
 20
5227.909735000507
 30
0.0
 11
10468.89922629895
 21
5227.909735000507
 31
0.0
  0
LINE
  5
17441
330
16055
100
AcDbEntity
  8
寸法
 62
     0
 48
50.0
370
    -2
100
AcDbLine
 10
10528.89922629895
 20
3152.909735000504
 30
0.0
 11
10528.89922629895
 21
5227.909735000507
 31
0.0
  0
INSERT
  5
17442
330
16055
100
AcDbEntity
  8
寸法
 62
     0
 48
50.0
370
    -2
100
AcDbBlockReference
  2
_DOTSMALL
 10
10528.89922629895
 20
3152.909735000504
 30
0.0
 41
100.0
 42
100.0
 43
100.0
 50
270.0
  0
INSERT
  5
17443
330
16055
100
AcDbEntity
  8
寸法
 62
     0
 48
50.0
370
    -2
100
AcDbBlockReference
  2
_DOTSMALL
 10
10528.89922629895
 20
5227.909735000507
 30
0.0
 41
100.0
 42
100.0
 43
100.0
 50
90.0
  0
MTEXT
  5
17444
330
16055
100
AcDbEntity
  8
寸法
 62
     7
 48
50.0
100
AcDbMText
 10
10428.88741527532
 20
4128.116725420304
 30
0.0
 40
120.0
 41
0.0
 71
     5
 72
     1
  1
\A1;2075
  7
STYLE1
 11
0.0000000000000001
 21
1.0
 31
0.0
 73
     1
 44
1.0
1001
ACAD
1000
MTEXTBEGIN
1070
    73
1070
     1
1070
    44
1040
1.0
1070
    74
1070
     0
1000
MTEXTEND
  0
POINT
  5
17445
330
16055
100
AcDbEntity
  8
DEFPOINTS
 62
     0
 48
50.0
100
AcDbPoint
 10
11433.17103793943
 20
3152.909735000504
 30
0.0
  0
POINT
  5
17446
330
16055
100
AcDbEntity
  8
DEFPOINTS
 62
     0
 48
50.0
100
AcDbPoint
 10
11373.17103793943
 20
5227.909735000507
 30
0.0
  0
POINT
  5
17447
330
16055
100
AcDbEntity
  8
DEFPOINTS
 62
     0
 48
50.0
100
AcDbPoint
 10
10528.89922629895
 20
5227.909735000507
 30
0.0
  0
ENDBLK
  5
16060
330
16055
100
AcDbEntity
  8
0
 48
50.0
100
AcDbBlockEnd
  0
BLOCK
  5
16DAF
330
16DA3
100
AcDbEntity
  8
0
 48
50.0
100
AcDbBlockBegin
  2
*D34
 70
     1
 10
0.0
 20
0.0
 30
0.0
  3
*D34
  1

  0
LINE
  5
17434
330
16DA3
100
AcDbEntity
  8
寸法
 62
     0
 48
50.0
370
    -2
100
AcDbLine
 10
9096.299125379049
 20
5247.909735000503
 30
0.0
 11
9096.299125379049
 21
5500.451320258743
 31
0.0
  0
LINE
  5
17435
330
16DA3
100
AcDbEntity
  8
寸法
 62
     0
 48
50.0
370
    -2
100
AcDbLine
 10
9046.299125379048
 20
5247.909735000504
 30
0.0
 11
9046.299125379048
 21
5500.451320258743
 31
0.0
  0
LINE
  5
17436
330
16DA3
100
AcDbEntity
  8
寸法
 62
     0
 48
50.0
370
    -2
100
AcDbLine
 10
9046.299125379048
 20
5440.451320258745
 30
0.0
 11
8946.299125379049
 21
5440.451320258745
 31
0.0
  0
LINE
  5
17437
330
16DA3
100
AcDbEntity
  8
寸法
 62
     0
 48
50.0
370
    -2
100
AcDbLine
 10
9096.299125379049
 20
5440.451320258745
 30
0.0
 11
9515.831650847772
 21
5440.451320258745
 31
0.0
  0
LINE
  5
17438
330
16DA3
100
AcDbEntity
  8
寸法
 62
     0
 48
50.0
370
    -2
100
AcDbLine
 10
9046.299125379048
 20
5440.451320258745
 30
0.0
 11
9096.299125379049
 21
5440.451320258745
 31
0.0
  0
INSERT
  5
17439
330
16DA3
100
AcDbEntity
  8
寸法
 62
     0
 48
50.0
370
    -2
100
AcDbBlockReference
  2
_DOTSMALL
 10
9046.299125379048
 20
5440.451320258745
 30
0.0
 41
100.0
 42
100.0
 43
100.0
  0
INSERT
  5
1743A
330
16DA3
100
AcDbEntity
  8
寸法
 62
     0
 48
50.0
370
    -2
100
AcDbBlockReference
  2
_DOTSMALL
 10
9096.299125379049
 20
5440.451320258745
 30
0.0
 41
100.0
 42
100.0
 43
100.0
 50
180.0
  0
MTEXT
  5
1743B
330
16DA3
100
AcDbEntity
  8
寸法
 62
     7
 48
50.0
100
AcDbMText
 10
9409.784406753287
 20
5540.451320258744
 30
0.0
 40
120.0
 41
0.0
 71
     5
 72
     1
  1
\A1;50
  7
STYLE1
 73
     1
 44
1.0
1001
ACAD
1000
MTEXTBEGIN
1070
    73
1070
     1
1070
    44
1040
1.0
1070
    74
1070
     0
1000
MTEXTEND
  0
POINT
  5
1743C
330
16DA3
100
AcDbEntity
  8
DEFPOINTS
 62
     0
 48
50.0
100
AcDbPoint
 10
9096.299125379049
 20
5227.909735000503
 30
0.0
  0
POINT
  5
1743D
330
16DA3
100
AcDbEntity
  8
DEFPOINTS
 62
     0
 48
50.0
100
AcDbPoint
 10
9046.299125379048
 20
5227.909735000505
 30
0.0
  0
POINT
  5
1743E
330
16DA3
100
AcDbEntity
  8
DEFPOINTS
 62
     0
 48
50.0
100
AcDbPoint
 10
9046.299125379048
 20
5440.451320258745
 30
0.0
  0
ENDBLK
  5
16DB0
330
16DA3
100
AcDbEntity
  8
0
 48
50.0
100
AcDbBlockEnd
  0
BLOCK
  5
16DBD
330
16DB1
100
AcDbEntity
  8
0
 48
50.0
100
AcDbBlockBegin
  2
*D35
 70
     1
 10
0.0
 20
0.0
 30
0.0
  3
*D35
  1

  0
LINE
  5
17429
330
16DB1
100
AcDbEntity
  8
寸法
 62
     0
 48
50.0
370
    -2
100
AcDbLine
 10
4296.299125379046
 20
5247.909735000511
 30
0.0
 11
4296.299125379046
 21
5500.451320258747
 31
0.0
  0
LINE
  5
1742A
330
16DB1
100
AcDbEntity
  8
寸法
 62
     0
 48
50.0
370
    -2
100
AcDbLine
 10
4246.299125379046
 20
5247.909735000508
 30
0.0
 11
4246.299125379046
 21
5500.451320258747
 31
0.0
  0
LINE
  5
1742B
330
16DB1
100
AcDbEntity
  8
寸法
 62
     0
 48
50.0
370
    -2
100
AcDbLine
 10
4296.299125379046
 20
5440.451320258748
 30
0.0
 11
4396.299125379046
 21
5440.451320258748
 31
0.0
  0
LINE
  5
1742C
330
16DB1
100
AcDbEntity
  8
寸法
 62
     0
 48
50.0
370
    -2
100
AcDbLine
 10
4246.299125379046
 20
5440.451320258748
 30
0.0
 11
3826.766599910311
 21
5440.451320258748
 31
0.0
  0
LINE
  5
1742D
330
16DB1
100
AcDbEntity
  8
寸法
 62
     0
 48
50.0
370
    -2
100
AcDbLine
 10
4296.299125379046
 20
5440.451320258748
 30
0.0
 11
4246.299125379046
 21
5440.451320258748
 31
0.0
  0
INSERT
  5
1742E
330
16DB1
100
AcDbEntity
  8
寸法
 62
     0
 48
50.0
370
    -2
100
AcDbBlockReference
  2
_DOTSMALL
 10
4296.299125379046
 20
5440.451320258748
 30
0.0
 41
100.0
 42
100.0
 43
100.0
 50
180.0
  0
INSERT
  5
1742F
330
16DB1
100
AcDbEntity
  8
寸法
 62
     0
 48
50.0
370
    -2
100
AcDbBlockReference
  2
_DOTSMALL
 10
4246.299125379046
 20
5440.451320258748
 30
0.0
 41
100.0
 42
100.0
 43
100.0
  0
MTEXT
  5
17430
330
16DB1
100
AcDbEntity
  8
寸法
 62
     7
 48
50.0
100
AcDbMText
 10
3932.813844004799
 20
5540.451320258748
 30
0.0
 40
120.0
 41
0.0
 71
     5
 72
     1
  1
\A1;50
  7
STYLE1
 73
     1
 44
1.0
1001
ACAD
1000
MTEXTBEGIN
1070
    73
1070
     1
1070
    44
1040
1.0
1070
    74
1070
     0
1000
MTEXTEND
  0
POINT
  5
17431
330
16DB1
100
AcDbEntity
  8
DEFPOINTS
 62
     0
 48
50.0
100
AcDbPoint
 10
4296.299125379046
 20
5227.90973500051
 30
0.0
  0
POINT
  5
17432
330
16DB1
100
AcDbEntity
  8
DEFPOINTS
 62
     0
 48
50.0
100
AcDbPoint
 10
4246.299125379046
 20
5227.909735000508
 30
0.0
  0
POINT
  5
17433
330
16DB1
100
AcDbEntity
  8
DEFPOINTS
 62
     0
 48
50.0
100
AcDbPoint
 10
4246.299125379046
 20
5440.451320258748
 30
0.0
  0
ENDBLK
  5
16DBE
330
16DB1
100
AcDbEntity
  8
0
 48
50.0
100
AcDbBlockEnd
  0
BLOCK
  5
16DC9
330
16DBF
100
AcDbEntity
  8
0
 48
50.0
100
AcDbBlockBegin
  2
*D36
 70
     1
 10
0.0
 20
0.0
 30
0.0
  3
*D36
  1

  0
LINE
  5
17420
330
16DBF
100
AcDbEntity
  8
寸法
 62
     0
 48
50.0
370
    -2
100
AcDbLine
 10
4246.299125379046
 20
5247.909735000508
 30
0.0
 11
4246.299125379046
 21
5723.408298696595
 31
0.0
  0
LINE
  5
17421
330
16DBF
100
AcDbEntity
  8
寸法
 62
     0
 48
50.0
370
    -2
100
AcDbLine
 10
9096.299125379049
 20
5247.909735000503
 30
0.0
 11
9096.299125379049
 21
5723.408298696595
 31
0.0
  0
LINE
  5
17422
330
16DBF
100
AcDbEntity
  8
寸法
 62
     0
 48
50.0
370
    -2
100
AcDbLine
 10
4246.299125379046
 20
5663.408298696595
 30
0.0
 11
9096.299125379049
 21
5663.408298696595
 31
0.0
  0
INSERT
  5
17423
330
16DBF
100
AcDbEntity
  8
寸法
 62
     0
 48
50.0
370
    -2
100
AcDbBlockReference
  2
_DOTSMALL
 10
4246.299125379046
 20
5663.408298696595
 30
0.0
 41
100.0
 42
100.0
 43
100.0
 50
180.0
  0
INSERT
  5
17424
330
16DBF
100
AcDbEntity
  8
寸法
 62
     0
 48
50.0
370
    -2
100
AcDbBlockReference
  2
_DOTSMALL
 10
9096.299125379049
 20
5663.408298696595
 30
0.0
 41
100.0
 42
100.0
 43
100.0
  0
MTEXT
  5
17425
330
16DBF
100
AcDbEntity
  8
寸法
 62
     7
 48
50.0
100
AcDbMText
 10
6671.299125379035
 20
5763.408298696595
 30
0.0
 40
120.0
 41
0.0
 71
     5
 72
     1
  1
\A1;4850
  7
STYLE1
 73
     1
 44
1.0
1001
ACAD
1000
MTEXTBEGIN
1070
    73
1070
     1
1070
    44
1040
1.0
1070
    74
1070
     0
1000
MTEXTEND
  0
POINT
  5
17426
330
16DBF
100
AcDbEntity
  8
DEFPOINTS
 62
     0
 48
50.0
100
AcDbPoint
 10
4246.299125379046
 20
5227.909735000508
 30
0.0
  0
POINT
  5
17427
330
16DBF
100
AcDbEntity
  8
DEFPOINTS
 62
     0
 48
50.0
100
AcDbPoint
 10
9096.299125379049
 20
5227.909735000503
 30
0.0
  0
POINT
  5
17428
330
16DBF
100
AcDbEntity
  8
DEFPOINTS
 62
     0
 48
50.0
100
AcDbPoint
 10
9096.299125379049
 20
5663.408298696595
 30
0.0
  0
ENDBLK
  5
16DCA
330
16DBF
100
AcDbEntity
  8
0
 48
50.0
100
AcDbBlockEnd
  0
BLOCK
  5
16DD5
330
16DCB
100
AcDbEntity
  8
0
 48
50.0
100
AcDbBlockBegin
  2
*D37
 70
     1
 10
0.0
 20
0.0
 30
0.0
  3
*D37
  1

  0
LINE
  5
17417
330
16DCB
100
AcDbEntity
  8
寸法
 62
     0
 48
50.0
370
    -2
100
AcDbLine
 10
9046.299125379048
 20
5247.909735000504
 30
0.0
 11
9046.299125379048
 21
5500.451320258747
 31
0.0
  0
LINE
  5
17418
330
16DCB
100
AcDbEntity
  8
寸法
 62
     0
 48
50.0
370
    -2
100
AcDbLine
 10
4296.299125379046
 20
5247.909735000511
 30
0.0
 11
4296.299125379046
 21
5500.451320258747
 31
0.0
  0
LINE
  5
17419
330
16DCB
100
AcDbEntity
  8
寸法
 62
     0
 48
50.0
370
    -2
100
AcDbLine
 10
9046.299125379048
 20
5440.451320258748
 30
0.0
 11
4296.299125379046
 21
5440.451320258748
 31
0.0
  0
INSERT
  5
1741A
330
16DCB
100
AcDbEntity
  8
寸法
 62
     0
 48
50.0
370
    -2
100
AcDbBlockReference
  2
_DOTSMALL
 10
9046.299125379048
 20
5440.451320258748
 30
0.0
 41
100.0
 42
100.0
 43
100.0
  0
INSERT
  5
1741B
330
16DCB
100
AcDbEntity
  8
寸法
 62
     0
 48
50.0
370
    -2
100
AcDbBlockReference
  2
_DOTSMALL
 10
4296.299125379046
 20
5440.451320258748
 30
0.0
 41
100.0
 42
100.0
 43
100.0
 50
180.0
  0
MTEXT
  5
1741C
330
16DCB
100
AcDbEntity
  8
寸法
 62
     7
 48
50.0
100
AcDbMText
 10
6671.299125379035
 20
5540.451320258748
 30
0.0
 40
120.0
 41
0.0
 71
     5
 72
     1
  1
\A1;柱外寸法4750
  7
STYLE1
 73
     1
 44
1.0
1001
ACAD
1000
MTEXTBEGIN
1070
    73
1070
     1
1070
    44
1040
1.0
1070
    74
1070
     0
1000
MTEXTEND
  0
POINT
  5
1741D
330
16DCB
100
AcDbEntity
  8
DEFPOINTS
 62
     0
 48
50.0
100
AcDbPoint
 10
9046.299125379048
 20
5227.909735000505
 30
0.0
  0
POINT
  5
1741E
330
16DCB
100
AcDbEntity
  8
DEFPOINTS
 62
     0
 48
50.0
100
AcDbPoint
 10
4296.299125379046
 20
5227.90973500051
 30
0.0
  0
POINT
  5
1741F
330
16DCB
100
AcDbEntity
  8
DEFPOINTS
 62
     0
 48
50.0
100
AcDbPoint
 10
4296.299125379046
 20
5440.451320258748
 30
0.0
  0
ENDBLK
  5
16DD6
330
16DCB
100
AcDbEntity
  8
0
 48
50.0
100
AcDbBlockEnd
  0
BLOCK
  5
16EEF
330
16EE5
100
AcDbEntity
  8
0
 48
50.0
100
AcDbBlockBegin
  2
*D38
 70
     1
 10
0.0
 20
0.0
 30
0.0
  3
*D38
  1

  0
LINE
  5
1740E
330
16EE5
100
AcDbEntity
  8
寸法
 62
     0
 48
50.0
370
    -2
100
AcDbLine
 10
4276.299125379046
 20
4974.409735000501
 30
0.0
 11
3918.194597771443
 21
4974.409735000501
 31
0.0
  0
LINE
  5
1740F
330
16EE5
100
AcDbEntity
  8
寸法
 62
     0
 48
50.0
370
    -2
100
AcDbLine
 10
4276.299125379046
 20
3214.409735000506
 30
0.0
 11
3918.194597771443
 21
3214.409735000506
 31
0.0
  0
LINE
  5
17410
330
16EE5
100
AcDbEntity
  8
寸法
 62
     0
 48
50.0
370
    -2
100
AcDbLine
 10
3978.194597771443
 20
4974.409735000501
 30
0.0
 11
3978.194597771443
 21
3214.409735000506
 31
0.0
  0
INSERT
  5
17411
330
16EE5
100
AcDbEntity
  8
寸法
 62
     0
 48
50.0
370
    -2
100
AcDbBlockReference
  2
_DOTSMALL
 10
3978.194597771443
 20
4974.409735000501
 30
0.0
 41
100.0
 42
100.0
 43
100.0
 50
90.0
  0
INSERT
  5
17412
330
16EE5
100
AcDbEntity
  8
寸法
 62
     0
 48
50.0
370
    -2
100
AcDbBlockReference
  2
_DOTSMALL
 10
3978.194597771443
 20
3214.409735000506
 30
0.0
 41
100.0
 42
100.0
 43
100.0
 50
270.0
  0
MTEXT
  5
17413
330
16EE5
100
AcDbEntity
  8
寸法
 62
     7
 48
50.0
100
AcDbMText
 10
3878.194597771442
 20
4093.409735000503
 30
0.0
 40
120.0
 41
0.0
 71
     5
 72
     1
  1
\A1;有効開口部高サ1760
  7
STYLE1
 11
0.0000000000000001
 21
1.0
 31
0.0
 73
     1
 44
1.0
1001
ACAD
1000
MTEXTBEGIN
1070
    73
1070
     1
1070
    44
1040
1.0
1070
    74
1070
     0
1000
MTEXTEND
  0
POINT
  5
17414
330
16EE5
100
AcDbEntity
  8
DEFPOINTS
 62
     0
 48
50.0
100
AcDbPoint
 10
4296.299125379046
 20
4974.409735000501
 30
0.0
  0
POINT
  5
17415
330
16EE5
100
AcDbEntity
  8
DEFPOINTS
 62
     0
 48
50.0
100
AcDbPoint
 10
4296.299125379046
 20
3214.409735000506
 30
0.0
  0
POINT
  5
17416
330
16EE5
100
AcDbEntity
  8
DEFPOINTS
 62
     0
 48
50.0
100
AcDbPoint
 10
3978.194597771443
 20
3214.409735000506
 30
0.0
  0
ENDBLK
  5
16EF0
330
16EE5
100
AcDbEntity
  8
0
 48
50.0
100
AcDbBlockEnd
  0
BLOCK
  5
1729F
330
17295
100
AcDbEntity
  8
0
 48
50.0
100
AcDbBlockBegin
  2
*D39
 70
     1
 10
0.0
 20
0.0
 30
0.0
  3
*D39
  1

  0
LINE
  5
174A9
330
17295
100
AcDbEntity
  8
寸法
 62
     0
 48
50.0
370
    -2
100
AcDbLine
 10
5269.94014820805
 20
8974.598915086367
 30
0.0
 11
5205.083820488155
 21
8732.551804843385
 31
0.0
  0
LINE
  5
174AA
330
17295
100
AcDbEntity
  8
寸法
 62
     0
 48
50.0
370
    -2
100
AcDbLine
 10
6161.940148208061
 20
8974.598915086366
 30
0.0
 11
6097.083820488167
 21
8732.551804843385
 31
0.0
  0
LINE
  5
174AB
330
17295
100
AcDbEntity
  8
寸法
 62
     0
 48
50.0
370
    -2
100
AcDbLine
 10
5221.160772034022
 20
8792.551804843384
 30
0.0
 11
6113.160772034035
 21
8792.551804843384
 31
0.0
  0
MTEXT
  5
174AC
330
17295
100
AcDbEntity
  8
寸法
 62
     7
 48
50.0
100
AcDbMText
 10
5766.424946832594
 20
8895.835920236381
 30
0.0
 40
120.0
 41
0.0
 71
     5
 72
     1
  1
\A1;892
  7
STYLE1
 73
     1
 44
1.0
1001
ACAD
1000
MTEXTBEGIN
1070
    73
1070
     1
1070
    44
1040
1.0
1070
    74
1070
     0
1000
MTEXTEND
  0
INSERT
  5
174AD
330
17295
100
AcDbEntity
  8
寸法
 62
     0
 48
50.0
370
    -2
100
AcDbBlockReference
  2
_DOTSMALL
 10
5221.160772034022
 20
8792.551804843384
 30
0.0
 41
100.0
 42
100.0
 43
100.0
 50
180.0
  0
INSERT
  5
174AE
330
17295
100
AcDbEntity
  8
寸法
 62
     0
 48
50.0
370
    -2
100
AcDbBlockReference
  2
_DOTSMALL
 10
6113.160772034035
 20
8792.551804843384
 30
0.0
 41
100.0
 42
100.0
 43
100.0
  0
POINT
  5
174AF
330
17295
100
AcDbEntity
  8
DEFPOINTS
 62
     0
 48
50.0
100
AcDbPoint
 10
5275.299132056673
 20
8994.598915086369
 30
0.0
  0
POINT
  5
174B0
330
17295
100
AcDbEntity
  8
DEFPOINTS
 62
     0
 48
50.0
100
AcDbPoint
 10
6167.299132056683
 20
8994.598915086363
 30
0.0
  0
POINT
  5
174B1
330
17295
100
AcDbEntity
  8
DEFPOINTS
 62
     0
 48
50.0
100
AcDbPoint
 10
6113.160772034035
 20
8792.551804843384
 30
0.0
  0
ENDBLK
  5
172A0
330
17295
100
AcDbEntity
  8
0
 48
50.0
100
AcDbBlockEnd
  0
BLOCK
  5
172AB
330
172A1
100
AcDbEntity
  8
0
 48
50.0
100
AcDbBlockBegin
  2
*D40
 70
     1
 10
0.0
 20
0.0
 30
0.0
  3
*D40
  1

  0
LINE
  5
174B2
330
172A1
100
AcDbEntity
  8
寸法
 62
     0
 48
50.0
370
    -2
100
AcDbLine
 10
6219.94014820805
 20
8974.598915086367
 30
0.0
 11
6155.083820488155
 21
8732.551804843385
 31
0.0
  0
LINE
  5
174B3
330
172A1
100
AcDbEntity
  8
寸法
 62
     0
 48
50.0
370
    -2
100
AcDbLine
 10
7111.940148208062
 20
8974.598915086366
 30
0.0
 11
7047.083820488167
 21
8732.551804843385
 31
0.0
  0
LINE
  5
174B4
330
172A1
100
AcDbEntity
  8
寸法
 62
     0
 48
50.0
370
    -2
100
AcDbLine
 10
6171.160772034022
 20
8792.551804843384
 30
0.0
 11
7063.160772034034
 21
8792.551804843384
 31
0.0
  0
MTEXT
  5
174B5
330
172A1
100
AcDbEntity
  8
寸法
 62
     7
 48
50.0
100
AcDbMText
 10
6716.424946832595
 20
8895.835920236381
 30
0.0
 40
120.0
 41
0.0
 71
     5
 72
     1
  1
\A1;892
  7
STYLE1
 73
     1
 44
1.0
1001
ACAD
1000
MTEXTBEGIN
1070
    73
1070
     1
1070
    44
1040
1.0
1070
    74
1070
     0
1000
MTEXTEND
  0
INSERT
  5
174B6
330
172A1
100
AcDbEntity
  8
寸法
 62
     0
 48
50.0
370
    -2
100
AcDbBlockReference
  2
_DOTSMALL
 10
6171.160772034022
 20
8792.551804843384
 30
0.0
 41
100.0
 42
100.0
 43
100.0
 50
180.0
  0
INSERT
  5
174B7
330
172A1
100
AcDbEntity
  8
寸法
 62
     0
 48
50.0
370
    -2
100
AcDbBlockReference
  2
_DOTSMALL
 10
7063.160772034034
 20
8792.551804843384
 30
0.0
 41
100.0
 42
100.0
 43
100.0
  0
POINT
  5
174B8
330
172A1
100
AcDbEntity
  8
DEFPOINTS
 62
     0
 48
50.0
100
AcDbPoint
 10
6225.299132056672
 20
8994.598915086369
 30
0.0
  0
POINT
  5
174B9
330
172A1
100
AcDbEntity
  8
DEFPOINTS
 62
     0
 48
50.0
100
AcDbPoint
 10
7117.299132056683
 20
8994.598915086363
 30
0.0
  0
POINT
  5
174BA
330
172A1
100
AcDbEntity
  8
DEFPOINTS
 62
     0
 48
50.0
100
AcDbPoint
 10
7063.160772034034
 20
8792.551804843384
 30
0.0
  0
ENDBLK
  5
172AC
330
172A1
100
AcDbEntity
  8
0
 48
50.0
100
AcDbBlockEnd
  0
BLOCK
  5
172B7
330
172AD
100
AcDbEntity
  8
0
 48
50.0
100
AcDbBlockBegin
  2
*D41
 70
     1
 10
0.0
 20
0.0
 30
0.0
  3
*D41
  1

  0
LINE
  5
174BB
330
172AD
100
AcDbEntity
  8
寸法
 62
     0
 48
50.0
370
    -2
100
AcDbLine
 10
7169.94014820805
 20
8974.598915086367
 30
0.0
 11
7105.083820488156
 21
8732.551804843385
 31
0.0
  0
LINE
  5
174BC
330
172AD
100
AcDbEntity
  8
寸法
 62
     0
 48
50.0
370
    -2
100
AcDbLine
 10
8061.940148208062
 20
8974.598915086366
 30
0.0
 11
7997.083820488168
 21
8732.551804843385
 31
0.0
  0
LINE
  5
174BD
330
172AD
100
AcDbEntity
  8
寸法
 62
     0
 48
50.0
370
    -2
100
AcDbLine
 10
7121.160772034023
 20
8792.551804843384
 30
0.0
 11
8013.160772034034
 21
8792.551804843384
 31
0.0
  0
MTEXT
  5
174BE
330
172AD
100
AcDbEntity
  8
寸法
 62
     7
 48
50.0
100
AcDbMText
 10
7666.424946832595
 20
8895.835920236381
 30
0.0
 40
120.0
 41
0.0
 71
     5
 72
     1
  1
\A1;892
  7
STYLE1
 73
     1
 44
1.0
1001
ACAD
1000
MTEXTBEGIN
1070
    73
1070
     1
1070
    44
1040
1.0
1070
    74
1070
     0
1000
MTEXTEND
  0
INSERT
  5
174BF
330
172AD
100
AcDbEntity
  8
寸法
 62
     0
 48
50.0
370
    -2
100
AcDbBlockReference
  2
_DOTSMALL
 10
7121.160772034023
 20
8792.551804843384
 30
0.0
 41
100.0
 42
100.0
 43
100.0
 50
180.0
  0
INSERT
  5
174C0
330
172AD
100
AcDbEntity
  8
寸法
 62
     0
 48
50.0
370
    -2
100
AcDbBlockReference
  2
_DOTSMALL
 10
8013.160772034034
 20
8792.551804843384
 30
0.0
 41
100.0
 42
100.0
 43
100.0
  0
POINT
  5
174C1
330
172AD
100
AcDbEntity
  8
DEFPOINTS
 62
     0
 48
50.0
100
AcDbPoint
 10
7175.299132056672
 20
8994.598915086369
 30
0.0
  0
POINT
  5
174C2
330
172AD
100
AcDbEntity
  8
DEFPOINTS
 62
     0
 48
50.0
100
AcDbPoint
 10
8067.299132056684
 20
8994.598915086363
 30
0.0
  0
POINT
  5
174C3
330
172AD
100
AcDbEntity
  8
DEFPOINTS
 62
     0
 48
50.0
100
AcDbPoint
 10
8013.160772034034
 20
8792.551804843384
 30
0.0
  0
ENDBLK
  5
172B8
330
172AD
100
AcDbEntity
  8
0
 48
50.0
100
AcDbBlockEnd
  0
BLOCK
  5
172C3
330
172B9
100
AcDbEntity
  8
0
 48
50.0
100
AcDbBlockBegin
  2
*D42
 70
     1
 10
0.0
 20
0.0
 30
0.0
  3
*D42
  1

  0
LINE
  5
174C4
330
172B9
100
AcDbEntity
  8
寸法
 62
     0
 48
50.0
370
    -2
100
AcDbLine
 10
8119.940148208049
 20
8974.598915086367
 30
0.0
 11
8055.083820488155
 21
8732.551804843385
 31
0.0
  0
LINE
  5
174C5
330
172B9
100
AcDbEntity
  8
寸法
 62
     0
 48
50.0
370
    -2
100
AcDbLine
 10
9011.940148208061
 20
8974.598915086366
 30
0.0
 11
8947.083820488167
 21
8732.551804843385
 31
0.0
  0
LINE
  5
174C6
330
172B9
100
AcDbEntity
  8
寸法
 62
     0
 48
50.0
370
    -2
100
AcDbLine
 10
8071.160772034023
 20
8792.551804843384
 30
0.0
 11
8963.160772034035
 21
8792.551804843384
 31
0.0
  0
MTEXT
  5
174C7
330
172B9
100
AcDbEntity
  8
寸法
 62
     7
 48
50.0
100
AcDbMText
 10
8609.953783938349
 20
8897.637080619913
 30
0.0
 40
120.0
 41
0.0
 71
     5
 72
     1
  1
\A1;892
  7
STYLE1
 73
     1
 44
1.0
1001
ACAD
1000
MTEXTBEGIN
1070
    73
1070
     1
1070
    44
1040
1.0
1070
    74
1070
     0
1000
MTEXTEND
  0
INSERT
  5
174C8
330
172B9
100
AcDbEntity
  8
寸法
 62
     0
 48
50.0
370
    -2
100
AcDbBlockReference
  2
_DOTSMALL
 10
8071.160772034023
 20
8792.551804843384
 30
0.0
 41
100.0
 42
100.0
 43
100.0
 50
180.0
  0
INSERT
  5
174C9
330
172B9
100
AcDbEntity
  8
寸法
 62
     0
 48
50.0
370
    -2
100
AcDbBlockReference
  2
_DOTSMALL
 10
8963.160772034035
 20
8792.551804843384
 30
0.0
 41
100.0
 42
100.0
 43
100.0
  0
POINT
  5
174CA
330
172B9
100
AcDbEntity
  8
DEFPOINTS
 62
     0
 48
50.0
100
AcDbPoint
 10
8125.299132056673
 20
8994.598915086369
 30
0.0
  0
POINT
  5
174CB
330
172B9
100
AcDbEntity
  8
DEFPOINTS
 62
     0
 48
50.0
100
AcDbPoint
 10
9017.299132056683
 20
8994.598915086363
 30
0.0
  0
POINT
  5
174CC
330
172B9
100
AcDbEntity
  8
DEFPOINTS
 62
     0
 48
50.0
100
AcDbPoint
 10
8963.160772034035
 20
8792.551804843384
 30
0.0
  0
ENDBLK
  5
172C4
330
172B9
100
AcDbEntity
  8
0
 48
50.0
100
AcDbBlockEnd
  0
BLOCK
  5
172F5
330
172EB
100
AcDbEntity
  8
0
 48
50.0
100
AcDbBlockBegin
  2
*D43
 70
     1
 10
0.0
 20
0.0
 30
0.0
  3
*D43
  1

  0
LINE
  5
174A0
330
172EB
100
AcDbEntity
  8
寸法
 62
     0
 48
50.0
370
    -2
100
AcDbLine
 10
4319.94014820805
 20
8974.598915086367
 30
0.0
 11
4255.083820488155
 21
8732.551804843385
 31
0.0
  0
LINE
  5
174A1
330
172EB
100
AcDbEntity
  8
寸法
 62
     0
 48
50.0
370
    -2
100
AcDbLine
 10
5211.940148208061
 20
8974.598915086366
 30
0.0
 11
5147.083820488167
 21
8732.551804843385
 31
0.0
  0
LINE
  5
174A2
330
172EB
100
AcDbEntity
  8
寸法
 62
     0
 48
50.0
370
    -2
100
AcDbLine
 10
4271.160772034022
 20
8792.551804843384
 30
0.0
 11
5163.160772034035
 21
8792.551804843384
 31
0.0
  0
MTEXT
  5
174A3
330
172EB
100
AcDbEntity
  8
寸法
 62
     7
 48
50.0
100
AcDbMText
 10
4816.424946832594
 20
8895.835920236381
 30
0.0
 40
120.0
 41
0.0
 71
     5
 72
     1
  1
\A1;892
  7
STYLE1
 73
     1
 44
1.0
1001
ACAD
1000
MTEXTBEGIN
1070
    73
1070
     1
1070
    44
1040
1.0
1070
    74
1070
     0
1000
MTEXTEND
  0
INSERT
  5
174A4
330
172EB
100
AcDbEntity
  8
寸法
 62
     0
 48
50.0
370
    -2
100
AcDbBlockReference
  2
_DOTSMALL
 10
4271.160772034022
 20
8792.551804843384
 30
0.0
 41
100.0
 42
100.0
 43
100.0
 50
180.0
  0
INSERT
  5
174A5
330
172EB
100
AcDbEntity
  8
寸法
 62
     0
 48
50.0
370
    -2
100
AcDbBlockReference
  2
_DOTSMALL
 10
5163.160772034035
 20
8792.551804843384
 30
0.0
 41
100.0
 42
100.0
 43
100.0
  0
POINT
  5
174A6
330
172EB
100
AcDbEntity
  8
DEFPOINTS
 62
     0
 48
50.0
100
AcDbPoint
 10
4325.299132056673
 20
8994.598915086369
 30
0.0
  0
POINT
  5
174A7
330
172EB
100
AcDbEntity
  8
DEFPOINTS
 62
     0
 48
50.0
100
AcDbPoint
 10
5217.299132056684
 20
8994.598915086363
 30
0.0
  0
POINT
  5
174A8
330
172EB
100
AcDbEntity
  8
DEFPOINTS
 62
     0
 48
50.0
100
AcDbPoint
 10
5163.160772034035
 20
8792.551804843384
 30
0.0
  0
ENDBLK
  5
172F6
330
172EB
100
AcDbEntity
  8
0
 48
50.0
100
AcDbBlockEnd
  0
ENDSEC
  0
SECTION
  2
ENTITIES
  0
LINE
  5
10B56
330
747D
100
AcDbEntity
  8
補助
  6
PHANTOM
 62
   230
 48
50.0
100
AcDbLine
 10
140.0
 20
0.0
 30
0.0
 11
139.9999999999995
 21
11409.6
 31
0.0
  0
LINE
  5
10B57
330
747D
100
AcDbEntity
  8
補助
  6
PHANTOM
 62
   230
 48
50.0
100
AcDbLine
 10
139.9999999999995
 20
11409.6
 30
0.0
 11
16307.2
 21
11409.6
 31
0.0
  0
LINE
  5
10B59
330
747D
100
AcDbEntity
  8
仕様書枠
  6
Continuous
 48
50.0
100
AcDbLine
 10
13107.2
 20
1200.0
 30
0.0
 11
13107.2
 21
-0.0000000000000729
 31
0.0
  0
LINE
  5
10B5C
330
747D
100
AcDbEntity
  8
仕様書枠
 48
50.0
100
AcDbLine
 10
16307.2
 20
1200.0
 30
0.0
 11
16307.2
 21
-0.0000000000000909
 31
0.0
  0
LINE
  5
10B5D
330
747D
100
AcDbEntity
  8
仕様書枠
 48
50.0
100
AcDbLine
 10
140.0
 20
0.0
 30
0.0
 11
16307.2
 21
-0.0000000000000909
 31
0.0
  0
LINE
  5
10B5E
330
747D
100
AcDbEntity
  8
補助
  6
PHANTOM
 62
   230
 48
50.0
100
AcDbLine
 10
16307.2
 20
11409.6
 30
0.0
 11
16307.2
 21
1200.0
 31
0.0
  0
LINE
  5
10B6C
330
747D
100
AcDbEntity
  8
仕様書枠
 48
50.0
100
AcDbLine
 10
13107.2
 20
1200.0
 30
0.0
 11
16307.2
 21
1200.0
 31
0.0
  0
LINE
  5
10B6D
330
747D
100
AcDbEntity
  8
補助
  6
PHANTOM
 62
   230
 48
50.0
100
AcDbLine
 10
13107.2
 20
11409.6
 30
0.0
 11
13107.2
 21
4800.0
 31
0.0
  0
LINE
  5
10B6F
330
747D
100
AcDbEntity
  8
補助
  6
PHANTOM
 62
   230
 48
50.0
100
AcDbLine
 10
13107.2
 20
4800.0
 30
0.0
 11
16307.2
 21
4800.0
 31
0.0
  0
LINE
  5
10B72
330
747D
100
AcDbEntity
  8
文字
 62
     7
 48
50.0
100
AcDbLine
 10
13187.2
 20
400.0
 30
0.0
 11
16227.2
 21
400.0
 31
0.0
  0
TEXT
  5
10B73
330
747D
100
AcDbEntity
  8
文字
 62
     7
 48
50.0
100
AcDbText
 10
13162.9790565769
 20
895.0906074299405
 30
0.0
 40
200.0
  1
外 形 図
  7
STYLE2
100
AcDbText
  0
TEXT
  5
10B74
330
747D
100
AcDbEntity
  8
文字
 62
     7
 48
50.0
100
AcDbText
 10
13201.43669998441
 20
477.2740661031255
 30
0.0
 40
160.0
  1
機種名
  7
STYLE2
100
AcDbText
  0
TEXT
  5
10B75
330
747D
100
AcDbEntity
  8
文字
 62
     7
 48
50.0
100
AcDbText
 10
13209.4053442172
 20
228.5435242569016
 30
0.0
 40
100.0
  1
○有効開口寸法 ： 685×1760(mm)
  7
STYLE2
100
AcDbText
  0
TEXT
  5
10B76
330
747D
100
AcDbEntity
  8
文字
 62
     7
 48
50.0
100
AcDbText
 10
13209.4053442172
 20
76.09434707649343
 30
0.0
 40
100.0
  1
○床面積 ： 7.27㎡(2.20坪) 　
  7
STYLE2
100
AcDbText
  0
TEXT
  5
10B79
330
747D
100
AcDbEntity
  8
文字
 62
     7
 48
50.0
100
AcDbText
 10
14524.131837222
 20
1031.557706291228
 30
0.0
 40
100.0
  1
NO.04     <縮尺> S=1/40
  7
STYLE2
100
AcDbText
  0
LINE
  5
10B7B
330
747D
100
AcDbEntity
  8
仕様書枠
 48
50.0
100
AcDbLine
 10
13107.2
 20
800.0
 30
0.0
 11
14251.2
 21
800.0
 31
0.0
  0
LINE
  5
10B88
330
747D
100
AcDbEntity
  8
仕様書枠
  6
Continuous
 48
50.0
100
AcDbLine
 10
14251.2
 20
1200.0
 30
0.0
 11
14251.2
 21
800.0
 31
0.0
  0
DIMENSION
  5
14E40
330
747D
100
AcDbEntity
  8
寸法
100
AcDbDimension
  2
*D1
 10
9046.299125379071
 20
9689.907134711477
 30
0.0
 11
9354.784406753312
 21
9689.907134711477
 31
0.0
 70
   160
 71
     5
 42
55.0
  3
INABA_S40G
100
AcDbAlignedDimension
 13
8991.299125379072
 23
9474.098915086495
 33
0.0
 14
9046.299125379071
 24
9474.098915086495
 34
0.0
100
AcDbRotatedDimension
1001
ACAD
1000
DSTYLE
1002
{
1002
}
  0
LINE
  5
14E41
330
747D
100
AcDbEntity
  8
細線
 48
50.0
100
AcDbLine
 10
9017.299132056665
 20
9444.598915086473
 30
0.0
 11
8125.299132056666
 21
8994.598915086372
 31
0.0
  0
LINE
  5
14E42
330
747D
100
AcDbEntity
  8
細線
 48
50.0
100
AcDbLine
 10
9017.299132056665
 20
8994.598915086474
 30
0.0
 11
8125.299132056666
 21
9444.598915086372
 31
0.0
  0
LINE
  5
14E43
330
747D
100
AcDbEntity
  8
部品1
100
AcDbLine
 10
8125.299132056666
 20
8994.598915086372
 30
0.0
 11
9017.299132056665
 21
8994.598915086474
 31
0.0
  0
LINE
  5
14E44
330
747D
100
AcDbEntity
  8
部品1
100
AcDbLine
 10
4296.299125379067
 20
9474.098915086401
 30
0.0
 11
9046.299125379071
 21
9474.098915086495
 31
0.0
  0
LINE
  5
14E45
330
747D
100
AcDbEntity
  8
部品1
100
AcDbLine
 10
8125.299132056666
 20
9444.598915086372
 30
0.0
 11
9017.299132056665
 21
9444.59891508648
 31
0.0
  0
LINE
  5
14E46
330
747D
100
AcDbEntity
  8
部品1
100
AcDbLine
 10
8124.299125378994
 20
9446.098915086444
 30
0.0
 11
9018.299125379071
 21
9446.098915086496
 31
0.0
  0
DIMENSION
  5
14E47
330
747D
100
AcDbEntity
  8
寸法
100
AcDbDimension
  2
*D2
 10
8991.299125379068
 20
9689.907134711498
 30
0.0
 11
8571.299125379068
 21
9689.907134711498
 31
0.0
 70
   160
  1
2X420=<>
 71
     5
 42
840.0
  3
INABA_S40G
100
AcDbAlignedDimension
 13
8151.299125379066
 23
9474.098915086429
 33
0.0
 14
8991.299125379068
 24
9474.098915086518
 34
0.0
100
AcDbRotatedDimension
1001
ACAD
1000
DSTYLE
1002
{
1002
}
  0
LINE
  5
14E48
330
747D
100
AcDbEntity
  8
部品1
 48
50.0
100
AcDbLine
 10
9018.299125379046
 20
8046.579849894083
 30
0.0
 11
8989.798153954252
 21
8075.599020799336
 31
0.0
  0
LINE
  5
14E49
330
747D
100
AcDbEntity
  8
部品1
 48
2.83
100
AcDbLine
 10
9014.299125379045
 20
7999.098915086452
 30
0.0
 11
8991.299125379047
 21
7999.098915086452
 31
0.0
  0
LINE
  5
14E4A
330
747D
100
AcDbEntity
  8
部品1
 48
5.0
100
AcDbLine
 10
9003.299125379045
 20
7973.598915086437
 30
0.0
 11
8120.299125379064
 21
7973.598915086437
 31
0.0
  0
LINE
  5
14E4B
330
747D
100
AcDbEntity
  8
部品1
100
AcDbLine
 10
9046.299125379047
 20
7944.098915086481
 30
0.0
 11
4296.299125379063
 21
7944.098915086385
 31
0.0
  0
DIMENSION
  5
14E4C
330
747D
100
AcDbEntity
  8
寸法
100
AcDbDimension
  2
*D3
 10
9046.299125379047
 20
6956.997040226244
 30
0.0
 11
6671.299125379055
 21
6956.997040226244
 31
0.0
 70
   160
 71
     5
 42
4749.999999999982
  3
INABA_S40G
100
AcDbAlignedDimension
 13
4296.299125379063
 23
7944.09891508632
 33
0.0
 14
9046.299125379047
 24
7944.098915086453
 34
0.0
100
AcDbRotatedDimension
1001
ACAD
1000
DSTYLE
1002
{
1002
}
  0
LINE
  5
14E4E
330
747D
100
AcDbEntity
  8
部品1
 48
50.0
100
AcDbLine
 10
8125.299132056666
 20
9444.598915086364
 30
0.0
 11
8125.299132056666
 21
8994.598915086372
 31
0.0
  0
LINE
  5
14E4F
330
747D
100
AcDbEntity
  8
部品1
 48
50.0
100
AcDbLine
 10
8067.299132056666
 20
9444.598915086473
 30
0.0
 11
8067.299132056666
 21
8994.598915086474
 31
0.0
  0
LINE
  5
14E50
330
747D
100
AcDbEntity
  8
部品1
 48
50.0
100
AcDbLine
 10
5275.299132056665
 20
9444.598915086364
 30
0.0
 11
5275.299132056665
 21
8994.598915086372
 31
0.0
  0
LINE
  5
14E51
330
747D
100
AcDbEntity
  8
部品1
 48
50.0
100
AcDbLine
 10
5217.299132056665
 20
9444.598915086473
 30
0.0
 11
5217.299132056665
 21
8994.598915086474
 31
0.0
  0
LINE
  5
14E52
330
747D
100
AcDbEntity
  8
細線
 48
50.0
100
AcDbLine
 10
8067.299132056666
 20
8994.598915086474
 30
0.0
 11
7175.299132056665
 21
9444.598915086372
 31
0.0
  0
LINE
  5
14E53
330
747D
100
AcDbEntity
  8
細線
 48
50.0
100
AcDbLine
 10
8067.299132056666
 20
9444.598915086473
 30
0.0
 11
7175.299132056665
 21
8994.598915086372
 31
0.0
  0
LINE
  5
14E54
330
747D
100
AcDbEntity
  8
部品1
 48
50.0
100
AcDbLine
 10
4325.299132056665
 20
9444.598915086364
 30
0.0
 11
4325.299132056665
 21
8994.598915086372
 31
0.0
  0
LINE
  5
14E55
330
747D
100
AcDbEntity
  8
細線
 48
50.0
100
AcDbLine
 10
5217.299132056665
 20
8994.598915086474
 30
0.0
 11
4325.299132056665
 21
9444.598915086372
 31
0.0
  0
LINE
  5
14E56
330
747D
100
AcDbEntity
  8
細線
 48
50.0
100
AcDbLine
 10
5217.299132056665
 20
9444.598915086473
 30
0.0
 11
4325.299132056665
 21
8994.598915086372
 31
0.0
  0
LINE
  5
14E57
330
747D
100
AcDbEntity
  8
部品1
 48
50.0
100
AcDbLine
 10
8096.299125379049
 20
7999.098915086436
 30
0.0
 11
8096.299125379049
 21
9419.098915086443
 31
0.0
  0
LINE
  5
14E58
330
747D
100
AcDbEntity
  8
部品1
 48
50.0
100
AcDbLine
 10
8068.29912537905
 20
7999.098915086436
 30
0.0
 11
8068.299125378995
 21
9446.098915086444
 31
0.0
  0
LINE
  5
14E59
330
747D
100
AcDbEntity
  8
部品1
 48
50.0
100
AcDbLine
 10
8124.299125379049
 20
7999.098915086436
 30
0.0
 11
8124.299125378994
 21
9474.098915086445
 31
0.0
  0
LINE
  5
14E5A
330
747D
100
AcDbEntity
  8
部品1
 48
50.0
100
AcDbLine
 10
5246.299125379049
 20
7999.098915086436
 30
0.0
 11
5246.299125379049
 21
9419.098915086443
 31
0.0
  0
LINE
  5
14E5B
330
747D
100
AcDbEntity
  8
部品1
 48
50.0
100
AcDbLine
 10
5218.29912537905
 20
7999.098915086436
 30
0.0
 11
5218.299125378995
 21
9446.098915086444
 31
0.0
  0
LINE
  5
14E5C
330
747D
100
AcDbEntity
  8
部品1
 48
50.0
100
AcDbLine
 10
5274.29912537905
 20
7999.098915086436
 30
0.0
 11
5274.299125378995
 21
9474.098915086445
 31
0.0
  0
LINE
  5
14E5D
330
747D
100
AcDbEntity
  8
部品1
100
AcDbLine
 10
4296.299125379035
 20
9474.098915086363
 30
0.0
 11
4296.299125379063
 21
7944.098915086357
 31
0.0
  0
LINE
  5
14E5E
330
747D
100
AcDbEntity
  8
部品1
100
AcDbLine
 10
4324.299125379046
 20
7999.098915086349
 30
0.0
 11
4324.299125379067
 21
9446.0989150864
 31
0.0
  0
LINE
  5
14E5F
330
747D
100
AcDbEntity
  8
破線
 48
10.0
100
AcDbLine
 10
4352.799728010868
 20
8771.598617560874
 30
0.0
 11
5190.799125379031
 21
8771.59859609523
 31
0.0
  0
LINE
  5
14E60
330
747D
100
AcDbEntity
  8
破線
 48
10.0
100
AcDbLine
 10
4352.799753872954
 20
8721.598617560884
 30
0.0
 11
5190.799125379031
 21
8721.598596095232
 31
0.0
  0
LINE
  5
14E61
330
747D
100
AcDbEntity
  8
部品1
100
AcDbLine
 10
4325.299132056665
 20
8994.598915086372
 30
0.0
 11
5217.299132056665
 21
8994.598915086474
 31
0.0
  0
LINE
  5
14E62
330
747D
100
AcDbEntity
  8
破線
 48
10.0
100
AcDbLine
 10
5167.299125379057
 20
8099.098915086422
 30
0.0
 11
4376.299125379056
 21
8099.098915086408
 31
0.0
  0
LINE
  5
14E64
330
747D
100
AcDbEntity
  8
部品1
 48
5.0
100
AcDbLine
 10
4339.299125379064
 20
7973.59891508632
 30
0.0
 11
5222.299125379064
 21
7973.598915086379
 31
0.0
  0
DIMENSION
  5
14E65
330
747D
100
AcDbEntity
  8
寸法
 48
50.0
100
AcDbDimension
  2
*D4
 10
8836.299125379062
 20
7504.275247291317
 30
0.0
 11
8493.799125379064
 21
7504.275247291317
 31
0.0
 70
   160
  1
有効開口部間口\P<>
 71
     5
 42
684.9999999999927
  3
INABA_S40G
100
AcDbAlignedDimension
 13
8151.299125379066
 23
7944.098915086394
 33
0.0
 14
8836.299125379062
 24
7944.098915086357
 34
0.0
100
AcDbRotatedDimension
  0
LINE
  5
14E66
330
747D
100
AcDbEntity
  8
部品1
100
AcDbLine
 10
5071.29912537906
 20
7970.098915086452
 30
0.0
 11
4341.299125379064
 21
7970.098915086423
 31
0.0
  0
LINE
  5
14E67
330
747D
100
AcDbEntity
  8
部品1
100
AcDbLine
 10
5190.799695827227
 20
8075.59833426648
 30
0.0
 11
4352.800096805458
 21
8075.597832777956
 31
0.0
  0
ARC
  5
14E68
330
747D
100
AcDbEntity
  8
想像線
 48
10.0
100
AcDbCircle
 10
5063.9470747019
 20
7945.793808462003
 30
0.0
 40
722.6499369155547
100
AcDbArc
 50
180.1343808685503
 51
270.5829222700355
  0
LINE
  5
14E6A
330
747D
100
AcDbEntity
  8
破線
 48
10.0
100
AcDbLine
 10
4376.299170047517
 20
8721.598629715769
 30
0.0
 11
4376.299125379056
 21
8099.098915086408
 31
0.0
  0
LINE
  5
14E6B
330
747D
100
AcDbEntity
  8
部品1
 48
5.0
100
AcDbLine
 10
4352.800096804029
 20
8075.598915086494
 30
0.0
 11
4352.799603872714
 21
8994.598915086408
 31
0.0
  0
LINE
  5
14E6C
330
747D
100
AcDbEntity
  8
部品1
 48
50.0
100
AcDbLine
 10
4352.800096805458
 20
8075.597832777956
 30
0.0
 11
4324.299125379046
 21
8046.578661845492
 31
0.0
  0
LINE
  5
14E6D
330
747D
100
AcDbEntity
  8
部品1
100
AcDbLine
 10
4324.29912537906
 20
7999.098915086364
 30
0.0
 11
4296.29912537906
 21
7999.098915086364
 31
0.0
  0
LINE
  5
14E6E
330
747D
100
AcDbEntity
  8
部品1
100
AcDbLine
 10
4324.299125379046
 20
7999.098915086349
 30
0.0
 11
4296.29912537906
 21
7999.098915086349
 31
0.0
  0
LINE
  5
14E6F
330
747D
100
AcDbEntity
  8
部品1
100
AcDbLine
 10
4324.299125379046
 20
7999.098915086321
 30
0.0
 11
4296.29912537906
 21
7999.098915086321
 31
0.0
  0
LINE
  5
14E70
330
747D
100
AcDbEntity
  8
部品1
 48
2.83
100
AcDbLine
 10
4328.299125379063
 20
7999.098915086321
 30
0.0
 11
4351.299125379064
 21
7999.098915086321
 31
0.0
  0
LINE
  5
14E71
330
747D
100
AcDbEntity
  8
部品1
 48
2.83
100
AcDbLine
 10
4296.299125379063
 20
7999.098915086321
 30
0.0
 11
4319.299125379064
 21
7999.098915086321
 31
0.0
  0
LINE
  5
14E72
330
747D
100
AcDbEntity
  8
部品1
 48
2.83
100
AcDbLine
 10
4339.299125379064
 20
7944.09891508632
 30
0.0
 11
4296.299125379063
 21
7944.09891508632
 31
0.0
  0
LINE
  5
14E73
330
747D
100
AcDbEntity
  8
部品1
 48
2.83
100
AcDbLine
 10
4339.299125379064
 20
7973.59891508632
 30
0.0
 11
4339.299125379064
 21
7944.09891508632
 31
0.0
  0
LINE
  5
14E74
330
747D
100
AcDbEntity
  8
部品1
100
AcDbLine
 10
4341.299125379064
 20
7970.098915086459
 30
0.0
 11
4341.299125379064
 21
7944.098915086422
 31
0.0
  0
LINE
  5
14E75
330
747D
100
AcDbEntity
  8
部品1
100
AcDbLine
 10
4296.29912537906
 20
7999.098915086321
 30
0.0
 11
4296.299125379063
 21
7944.09891508632
 31
0.0
  0
LINE
  5
14E76
330
747D
100
AcDbEntity
  8
部品1
 48
2.83
100
AcDbLine
 10
4351.299125379064
 20
7999.098915086321
 30
0.0
 11
4351.299125379068
 21
7973.59891508632
 31
0.0
  0
LINE
  5
14E77
330
747D
100
AcDbEntity
  8
部品1
 48
2.83
100
AcDbLine
 10
4296.299125379063
 20
7944.09891508632
 30
0.0
 11
4296.299125379063
 21
7999.098915086321
 31
0.0
  0
LINE
  5
14E78
330
747D
100
AcDbEntity
  8
部品1
100
AcDbLine
 10
4324.299125379046
 20
8419.098915086363
 30
0.0
 11
4296.299125379046
 21
8419.098915086363
 31
0.0
  0
LINE
  5
14E79
330
747D
100
AcDbEntity
  8
破線
 48
10.0
100
AcDbLine
 10
4376.299190303769
 20
8994.598915086408
 30
0.0
 11
4376.29917353997
 21
8771.598629715766
 31
0.0
  0
LINE
  5
14E7A
330
747D
100
AcDbEntity
  8
部品1
100
AcDbLine
 10
4324.299125379046
 20
8999.098915086364
 30
0.0
 11
4296.299125379046
 21
8999.098915086364
 31
0.0
  0
LINE
  5
14E7B
330
747D
100
AcDbEntity
  8
想像線
 48
10.0
100
AcDbLine
 10
8871.29912537906
 20
7944.098915086444
 30
0.0
 11
8871.29912537906
 21
7223.181271430654
 31
0.0
  0
LINE
  5
14E7D
330
747D
100
AcDbEntity
  8
想像線
 48
10.0
100
AcDbLine
 10
7921.299125379061
 20
7944.098915086437
 30
0.0
 11
7921.299125379061
 21
7223.181271430647
 31
0.0
  0
LINE
  5
14E7E
330
747D
100
AcDbEntity
  8
想像線
 48
10.0
100
AcDbLine
 10
5071.29912537906
 20
7944.098915086437
 30
0.0
 11
5071.29912537906
 21
7223.181271430647
 31
0.0
  0
ARC
  5
14E7F
330
747D
100
AcDbEntity
  8
想像線
 48
10.0
100
AcDbCircle
 10
7913.947074701899
 20
7945.793808461999
 30
0.0
 40
722.6499369155536
100
AcDbArc
 50
180.1343808685451
 51
270.5829222700355
  0
ARC
  5
14E81
330
747D
100
AcDbEntity
  8
想像線
 48
10.0
100
AcDbCircle
 10
8863.947074701902
 20
7945.793808462022
 30
0.0
 40
722.649936915561
100
AcDbArc
 50
180.1343808685485
 51
270.5829222700353
  0
TEXT
  5
14E82
330
747D
100
AcDbEntity
  8
部品1
100
AcDbText
 10
6378.433334280107
 20
6413.626697068085
 30
0.0
 40
135.0
  1
平面図
  7
STYLE2
100
AcDbText
  0
LWPOLYLINE
  5
14E83
330
747D
100
AcDbEntity
  8
部品1
100
AcDbPolyline
 90
        4
 70
     1
 43
0.0
 10
6288.51372445107
 20
6606.520226286611
 10
6288.51372445107
 20
6366.627904741076
 10
7051.98439067951
 20
6366.627904741076
 10
7051.98439067951
 20
6606.520226286611
  0
LINE
  5
14E84
330
747D
100
AcDbEntity
  8
破線
 48
10.0
100
AcDbLine
 10
7201.799121102976
 20
8721.598625360991
 30
0.0
 11
8040.799125379031
 21
8721.598590729161
 31
0.0
  0
LINE
  5
14E85
330
747D
100
AcDbEntity
  8
破線
 48
10.0
100
AcDbLine
 10
7201.799121102976
 20
8771.598625360992
 30
0.0
 11
8040.799125379031
 21
8771.59859072916
 31
0.0
  0
LINE
  5
14E86
330
747D
100
AcDbEntity
  8
部品1
100
AcDbLine
 10
7175.299132056665
 20
8994.598915086372
 30
0.0
 11
8067.299132056666
 21
8994.598915086474
 31
0.0
  0
LINE
  5
14E87
330
747D
100
AcDbEntity
  8
破線
 48
10.0
100
AcDbLine
 10
8017.299125379057
 20
8099.098915086445
 30
0.0
 11
7225.299125379057
 21
8099.098915086429
 31
0.0
  0
LINE
  5
14E88
330
747D
100
AcDbEntity
  8
部品1
100
AcDbLine
 10
7921.299125379061
 20
7970.098915086481
 30
0.0
 11
7191.299125379065
 21
7970.098915086459
 31
0.0
  0
LINE
  5
14E89
330
747D
100
AcDbEntity
  8
部品1
100
AcDbLine
 10
8040.799125379045
 20
8075.598915086445
 30
0.0
 11
7201.798632125167
 21
8075.598412888972
 31
0.0
  0
LINE
  5
14E8A
330
747D
100
AcDbEntity
  8
部品1
 48
5.0
100
AcDbLine
 10
7170.299125379064
 20
7973.598915086379
 30
0.0
 11
8072.299125379064
 21
7973.598915086437
 31
0.0
  0
LINE
  5
14E8C
330
747D
100
AcDbEntity
  8
部品1
 48
50.0
100
AcDbLine
 10
4770.799125379056
 20
8994.598915086422
 30
0.0
 11
4770.798962506953
 21
8075.598082923226
 31
0.0
  0
LINE
  5
14E8D
330
747D
100
AcDbEntity
  8
破線
 48
10.0
100
AcDbLine
 10
5167.299125379057
 20
8099.098915086445
 30
0.0
 11
5167.29911963109
 21
8721.59859706525
 31
0.0
  0
LINE
  5
14E8E
330
747D
100
AcDbEntity
  8
部品1
 48
50.0
100
AcDbLine
 10
5190.799125379046
 20
8075.598915086445
 30
0.0
 11
5190.799125379024
 21
8994.598915086504
 31
0.0
  0
LINE
  5
14E8F
330
747D
100
AcDbEntity
  8
破線
 48
10.0
100
AcDbLine
 10
5325.299125379057
 20
8099.098915086452
 30
0.0
 11
5325.299116826402
 21
8721.598624390972
 31
0.0
  0
LINE
  5
14E90
330
747D
100
AcDbEntity
  8
部品1
 48
50.0
100
AcDbLine
 10
5301.79911903476
 20
8075.598915111102
 30
0.0
 11
5301.799122007626
 21
8994.598915086445
 31
0.0
  0
LINE
  5
14E91
330
747D
100
AcDbEntity
  8
部品1
 48
50.0
100
AcDbLine
 10
7620.799125379057
 20
8994.598915086422
 30
0.0
 11
7620.798962506952
 21
8075.598082923226
 31
0.0
  0
LINE
  5
14E92
330
747D
100
AcDbEntity
  8
部品1
100
AcDbLine
 10
5071.29912537906
 20
7970.098915086488
 30
0.0
 11
5071.29912537906
 21
7944.09891508643
 31
0.0
  0
ARC
  5
14E93
330
747D
100
AcDbEntity
  8
部品1
 48
0.2
100
AcDbCircle
 10
5063.361573207742
 20
7945.096545041659
 30
0.0
 40
8.0
100
AcDbArc
 50
270.0
 51
352.8363522778074
  0
ARC
  5
14E94
330
747D
100
AcDbEntity
  8
部品1
 48
0.2
100
AcDbCircle
 10
5058.361573207742
 20
7945.096545041659
 30
0.0
 40
8.0
100
AcDbArc
 50
187.1636477221926
 51
269.9999999999992
  0
ARC
  5
14E95
330
747D
100
AcDbEntity
  8
細線
 48
0.2
100
AcDbCircle
 10
5063.361573207742
 20
7945.096545041659
 30
0.0
 40
4.049999999999999
100
AcDbArc
 50
194.2603506853988
 51
345.7396493146012
  0
LINE
  5
14E96
330
747D
100
AcDbEntity
  8
部品1
 48
0.2
100
AcDbLine
 10
5058.361573207742
 20
7937.096545041659
 30
0.0
 11
5063.361573207742
 21
7937.096545041659
 31
0.0
  0
LINE
  5
14E97
330
747D
100
AcDbEntity
  8
部品1
 48
5.0
100
AcDbLine
 10
5073.299125379064
 20
7973.598915086437
 30
0.0
 11
5073.299125379064
 21
7944.098915086437
 31
0.0
  0
LINE
  5
14E98
330
747D
100
AcDbEntity
  8
部品1
 48
50.0
100
AcDbLine
 10
5301.799125379046
 20
8075.598915111109
 30
0.0
 11
5274.29912537905
 21
8047.598915086437
 31
0.0
  0
LINE
  5
14E99
330
747D
100
AcDbEntity
  8
部品1
 48
5.0
100
AcDbLine
 10
5278.299125379064
 20
7999.098915086436
 30
0.0
 11
5301.299125379064
 21
7999.098915086436
 31
0.0
  0
LINE
  5
14E9A
330
747D
100
AcDbEntity
  8
部品1
 48
5.0
100
AcDbLine
 10
5218.29912537905
 20
7999.098915086436
 30
0.0
 11
5274.29912537905
 21
7999.098915086436
 31
0.0
  0
LINE
  5
14E9B
330
747D
100
AcDbEntity
  8
部品1
 48
5.0
100
AcDbLine
 10
5214.299125379064
 20
7999.098915086436
 30
0.0
 11
5191.299125379064
 21
7999.098915086436
 31
0.0
  0
LINE
  5
14E9C
330
747D
100
AcDbEntity
  8
部品1
 48
50.0
100
AcDbLine
 10
5218.29912537905
 20
8047.598915086437
 30
0.0
 11
5190.799125379046
 21
8075.598915086445
 31
0.0
  0
LINE
  5
14E9D
330
747D
100
AcDbEntity
  8
部品1
100
AcDbLine
 10
5291.299125379064
 20
7970.098915086459
 30
0.0
 11
5291.299125379064
 21
7944.098915086422
 31
0.0
  0
LINE
  5
14E9E
330
747D
100
AcDbEntity
  8
部品1
100
AcDbLine
 10
5289.299125379064
 20
7973.598915086386
 30
0.0
 11
5289.299125379064
 21
7944.098915086437
 31
0.0
  0
LINE
  5
14E9F
330
747D
100
AcDbEntity
  8
部品1
 48
5.0
100
AcDbLine
 10
5289.299125379064
 20
7973.598915086437
 30
0.0
 11
5289.299125379064
 21
7944.098915086437
 31
0.0
  0
LINE
  5
14EA0
330
747D
100
AcDbEntity
  8
部品1
100
AcDbLine
 10
5203.299125379061
 20
7973.598915086379
 30
0.0
 11
5203.299125379061
 21
7944.09891508643
 31
0.0
  0
LINE
  5
14EA1
330
747D
100
AcDbEntity
  8
部品1
 48
5.0
100
AcDbLine
 10
5203.299125379064
 20
7973.598915086437
 30
0.0
 11
5203.299125379064
 21
7944.098915086437
 31
0.0
  0
LINE
  5
14EA2
330
747D
100
AcDbEntity
  8
部品1
 48
5.0
100
AcDbLine
 10
5203.299125379064
 20
7944.098915086437
 30
0.0
 11
5289.299125379064
 21
7944.098915086437
 31
0.0
  0
LINE
  5
14EA3
330
747D
100
AcDbEntity
  8
部品1
 48
5.0
100
AcDbLine
 10
5191.299125379064
 20
7999.098915086436
 30
0.0
 11
5191.299125379067
 21
7973.598915086437
 31
0.0
  0
LINE
  5
14EA4
330
747D
100
AcDbEntity
  8
部品1
 48
5.0
100
AcDbLine
 10
5270.299125379068
 20
7999.098915086436
 30
0.0
 11
5270.299125379064
 21
7973.598915086437
 31
0.0
  0
LINE
  5
14EA5
330
747D
100
AcDbEntity
  8
部品1
 48
5.0
100
AcDbLine
 10
5222.299125379064
 20
7999.098915086436
 30
0.0
 11
5222.299125379064
 21
7973.598915086437
 31
0.0
  0
LINE
  5
14EA6
330
747D
100
AcDbEntity
  8
部品1
 48
5.0
100
AcDbLine
 10
5301.299125379064
 20
7999.098915086436
 30
0.0
 11
5301.299125379068
 21
7973.598915086437
 31
0.0
  0
LINE
  5
14EA7
330
747D
100
AcDbEntity
  8
部品1
 48
5.0
100
AcDbLine
 10
5246.299125379049
 20
8419.098915086436
 30
0.0
 11
5218.299125378995
 21
8419.098915086443
 31
0.0
  0
LINE
  5
14EA8
330
747D
100
AcDbEntity
  8
破線
 48
10.0
100
AcDbLine
 10
5325.299116157705
 20
8771.598624390973
 30
0.0
 11
5325.299112947945
 21
8994.598915086445
 31
0.0
  0
LINE
  5
14EA9
330
747D
100
AcDbEntity
  8
破線
 48
10.0
100
AcDbLine
 10
5167.29911918168
 20
8771.598597065255
 30
0.0
 11
5167.299117024504
 21
8994.598915086504
 31
0.0
  0
LINE
  5
14EAA
330
747D
100
AcDbEntity
  8
部品1
 48
50.0
100
AcDbLine
 10
5246.299125379039
 20
9037.098915086444
 30
0.0
 11
5274.299125379024
 21
9037.098915086444
 31
0.0
  0
LINE
  5
14EAB
330
747D
100
AcDbEntity
  8
部品1
 48
50.0
100
AcDbLine
 10
5246.299125379039
 20
8999.098915086445
 30
0.0
 11
5274.299125379024
 21
8999.098915086445
 31
0.0
  0
LINE
  5
14EAC
330
747D
100
AcDbEntity
  8
部品1
 48
5.0
100
AcDbLine
 10
5246.299125379049
 20
8999.098915086436
 30
0.0
 11
5218.299125378995
 21
8999.098915086445
 31
0.0
  0
LINE
  5
14EAD
330
747D
100
AcDbEntity
  8
破線
 48
10.0
100
AcDbLine
 10
8966.299170047491
 20
8721.598586374376
 30
0.0
 11
8966.299125379054
 21
8099.098915086488
 31
0.0
  0
LINE
  5
14EAE
330
747D
100
AcDbEntity
  8
破線
 48
10.0
100
AcDbLine
 10
8017.299125379057
 20
8099.098915086445
 30
0.0
 11
8017.29911963109
 21
8721.598591699182
 31
0.0
  0
LINE
  5
14EAF
330
747D
100
AcDbEntity
  8
破線
 48
10.0
100
AcDbLine
 10
8175.299125379057
 20
8099.098915086452
 30
0.0
 11
8175.299116826407
 21
8721.598619024891
 31
0.0
  0
LINE
  5
14EB0
330
747D
100
AcDbEntity
  8
部品1
 48
50.0
100
AcDbLine
 10
8151.799119034761
 20
8075.598915111102
 30
0.0
 11
8151.799122007625
 21
8994.598915086445
 31
0.0
  0
LINE
  5
14EB1
330
747D
100
AcDbEntity
  8
部品1
 48
50.0
100
AcDbLine
 10
8040.799125379045
 20
8075.598915086445
 30
0.0
 11
8040.799125379024
 21
8994.598915086504
 31
0.0
  0
LINE
  5
14EB2
330
747D
100
AcDbEntity
  8
部品1
 48
50.0
100
AcDbLine
 10
8570.799125379057
 20
8994.598915086422
 30
0.0
 11
8570.798962506954
 21
8075.598082923226
 31
0.0
  0
LINE
  5
14EB3
330
747D
100
AcDbEntity
  8
部品1
 48
5.0
100
AcDbLine
 10
8989.798153954115
 20
8075.598915086494
 30
0.0
 11
8989.798646885425
 21
8994.598915086438
 31
0.0
  0
LINE
  5
14EB4
330
747D
100
AcDbEntity
  8
部品1
100
AcDbLine
 10
8871.29912537906
 20
7970.098915086488
 30
0.0
 11
8141.299125379061
 21
7970.09891508643
 31
0.0
  0
LINE
  5
14EB5
330
747D
100
AcDbEntity
  8
部品1
100
AcDbLine
 10
8989.798153954252
 20
8075.599020799336
 30
0.0
 11
8151.799125379046
 21
8075.598915111109
 31
0.0
  0
LINE
  5
14EB6
330
747D
100
AcDbEntity
  8
破線
 48
10.0
100
AcDbLine
 10
8966.299125379046
 20
8099.098915086488
 30
0.0
 11
8175.299125379057
 21
8099.098915086452
 31
0.0
  0
LINE
  5
14EB7
330
747D
100
AcDbEntity
  8
部品1
100
AcDbLine
 10
7921.299125379061
 20
7970.098915086488
 30
0.0
 11
7921.299125379061
 21
7944.09891508643
 31
0.0
  0
ARC
  5
14EB8
330
747D
100
AcDbEntity
  8
部品1
 48
0.2
100
AcDbCircle
 10
7913.361573207741
 20
7945.096545041659
 30
0.0
 40
8.0
100
AcDbArc
 50
270.0
 51
352.8363522778074
  0
ARC
  5
14EB9
330
747D
100
AcDbEntity
  8
細線
 48
0.2
100
AcDbCircle
 10
7913.361573207741
 20
7945.096545041659
 30
0.0
 40
4.049999999999999
100
AcDbArc
 50
194.2603506853988
 51
345.7396493146012
  0
LINE
  5
14EBA
330
747D
100
AcDbEntity
  8
部品1
 48
0.2
100
AcDbLine
 10
7908.361573207741
 20
7937.096545041659
 30
0.0
 11
7913.361573207741
 21
7937.096545041659
 31
0.0
  0
LINE
  5
14EBB
330
747D
100
AcDbEntity
  8
部品1
 48
5.0
100
AcDbLine
 10
7923.299125379064
 20
7973.598915086437
 30
0.0
 11
7923.299125379064
 21
7944.098915086437
 31
0.0
  0
ARC
  5
14EBC
330
747D
100
AcDbEntity
  8
部品1
 48
0.2
100
AcDbCircle
 10
7908.361573207741
 20
7945.096545041659
 30
0.0
 40
8.0
100
AcDbArc
 50
187.1636477221926
 51
269.9999999999992
  0
LINE
  5
14EBD
330
747D
100
AcDbEntity
  8
部品1
 48
50.0
100
AcDbLine
 10
8151.799125379046
 20
8075.598915111109
 30
0.0
 11
8124.299125379049
 21
8047.598915086437
 31
0.0
  0
LINE
  5
14EBE
330
747D
100
AcDbEntity
  8
部品1
 48
50.0
100
AcDbLine
 10
8068.29912537905
 20
8047.598915086437
 30
0.0
 11
8040.799125379045
 21
8075.598915086445
 31
0.0
  0
LINE
  5
14EBF
330
747D
100
AcDbEntity
  8
部品1
 48
5.0
100
AcDbLine
 10
8068.29912537905
 20
7999.098915086436
 30
0.0
 11
8124.299125379049
 21
7999.098915086436
 31
0.0
  0
LINE
  5
14EC0
330
747D
100
AcDbEntity
  8
部品1
 48
5.0
100
AcDbLine
 10
8128.299125379063
 20
7999.098915086436
 30
0.0
 11
8151.299125379065
 21
7999.098915086436
 31
0.0
  0
LINE
  5
14EC1
330
747D
100
AcDbEntity
  8
部品1
 48
5.0
100
AcDbLine
 10
8064.299125379063
 20
7999.098915086436
 30
0.0
 11
8041.299125379065
 21
7999.098915086436
 31
0.0
  0
LINE
  5
14EC2
330
747D
100
AcDbEntity
  8
部品1
100
AcDbLine
 10
8139.299125379064
 20
7973.598915086386
 30
0.0
 11
8139.299125379064
 21
7944.098915086437
 31
0.0
  0
LINE
  5
14EC3
330
747D
100
AcDbEntity
  8
部品1
100
AcDbLine
 10
8141.299125379061
 20
7970.09891508643
 30
0.0
 11
8141.299125379061
 21
7944.098915086437
 31
0.0
  0
LINE
  5
14EC4
330
747D
100
AcDbEntity
  8
部品1
 48
5.0
100
AcDbLine
 10
8139.299125379064
 20
7973.598915086437
 30
0.0
 11
8139.299125379064
 21
7944.098915086437
 31
0.0
  0
LINE
  5
14EC5
330
747D
100
AcDbEntity
  8
部品1
100
AcDbLine
 10
8053.29912537906
 20
7973.598915086379
 30
0.0
 11
8053.29912537906
 21
7944.09891508643
 31
0.0
  0
LINE
  5
14EC6
330
747D
100
AcDbEntity
  8
部品1
 48
5.0
100
AcDbLine
 10
8053.299125379064
 20
7973.598915086437
 30
0.0
 11
8053.299125379064
 21
7944.098915086437
 31
0.0
  0
LINE
  5
14EC7
330
747D
100
AcDbEntity
  8
部品1
 48
5.0
100
AcDbLine
 10
8053.299125379064
 20
7944.098915086437
 30
0.0
 11
8139.299125379064
 21
7944.098915086437
 31
0.0
  0
LINE
  5
14EC8
330
747D
100
AcDbEntity
  8
部品1
 48
5.0
100
AcDbLine
 10
8151.299125379065
 20
7999.098915086436
 30
0.0
 11
8151.299125379066
 21
7973.598915086437
 31
0.0
  0
LINE
  5
14EC9
330
747D
100
AcDbEntity
  8
部品1
 48
5.0
100
AcDbLine
 10
8120.299125379068
 20
7999.098915086436
 30
0.0
 11
8120.299125379064
 21
7973.598915086437
 31
0.0
  0
LINE
  5
14ECA
330
747D
100
AcDbEntity
  8
部品1
 48
5.0
100
AcDbLine
 10
8072.299125379064
 20
7999.098915086436
 30
0.0
 11
8072.299125379064
 21
7973.598915086437
 31
0.0
  0
LINE
  5
14ECB
330
747D
100
AcDbEntity
  8
部品1
 48
5.0
100
AcDbLine
 10
8041.299125379065
 20
7999.098915086436
 30
0.0
 11
8041.299125379067
 21
7973.598915086437
 31
0.0
  0
LINE
  5
14ECC
330
747D
100
AcDbEntity
  8
部品1
 48
5.0
100
AcDbLine
 10
8096.299125379049
 20
8419.098915086436
 30
0.0
 11
8068.299125378995
 21
8419.098915086443
 31
0.0
  0
LINE
  5
14ECD
330
747D
100
AcDbEntity
  8
部品1
100
AcDbLine
 10
8871.29912537906
 20
7970.098915086488
 30
0.0
 11
8871.299125379065
 21
7944.098915086481
 31
0.0
  0
LINE
  5
14ECE
330
747D
100
AcDbEntity
  8
部品1
 48
0.2
100
AcDbLine
 10
8858.361573207742
 20
7937.096545041673
 30
0.0
 11
8863.361573207741
 21
7937.096545041673
 31
0.0
  0
ARC
  5
14ECF
330
747D
100
AcDbEntity
  8
部品1
 48
0.2
100
AcDbCircle
 10
8863.361573207741
 20
7945.096545041673
 30
0.0
 40
8.0
100
AcDbArc
 50
270.0
 51
352.8363522778074
  0
ARC
  5
14ED0
330
747D
100
AcDbEntity
  8
部品1
 48
0.2
100
AcDbCircle
 10
8858.361573207742
 20
7945.096545041673
 30
0.0
 40
8.0
100
AcDbArc
 50
187.1636477221926
 51
269.9999999999992
  0
ARC
  5
14ED1
330
747D
100
AcDbEntity
  8
細線
 48
0.2
100
AcDbCircle
 10
8863.361573207741
 20
7945.096545041673
 30
0.0
 40
4.049999999999999
100
AcDbArc
 50
194.2603506853988
 51
345.7396493146012
  0
LINE
  5
14ED2
330
747D
100
AcDbEntity
  8
部品1
 48
2.83
100
AcDbLine
 10
8873.299125379046
 20
7973.598915086451
 30
0.0
 11
8873.299125379046
 21
7944.098915086453
 31
0.0
  0
LINE
  5
14ED3
330
747D
100
AcDbEntity
  8
部品1
 48
2.83
100
AcDbLine
 10
8991.299125379047
 20
7999.098915086452
 30
0.0
 11
8991.299125379047
 21
7973.598915086451
 31
0.0
  0
LINE
  5
14ED4
330
747D
100
AcDbEntity
  8
破線
 48
10.0
100
AcDbLine
 10
8151.799121102973
 20
8771.598619994914
 30
0.0
 11
8989.798522747255
 21
8771.598585404383
 31
0.0
  0
LINE
  5
14ED5
330
747D
100
AcDbEntity
  8
破線
 48
10.0
100
AcDbLine
 10
8151.799121102973
 20
8721.598619994914
 30
0.0
 11
8989.798496885175
 21
8721.598585404384
 31
0.0
  0
LINE
  5
14ED6
330
747D
100
AcDbEntity
  8
破線
 48
10.0
100
AcDbLine
 10
8175.299116157708
 20
8771.598619024896
 30
0.0
 11
8175.299112947945
 21
8994.598915086445
 31
0.0
  0
LINE
  5
14ED7
330
747D
100
AcDbEntity
  8
破線
 48
10.0
100
AcDbLine
 10
8017.299119181677
 20
8771.598591699181
 30
0.0
 11
8017.299117024505
 21
8994.598915086504
 31
0.0
  0
LINE
  5
14ED8
330
747D
100
AcDbEntity
  8
部品1
 48
50.0
100
AcDbLine
 10
8096.299125379038
 20
9037.098915086444
 30
0.0
 11
8124.299125379023
 21
9037.098915086444
 31
0.0
  0
LINE
  5
14ED9
330
747D
100
AcDbEntity
  8
部品1
 48
50.0
100
AcDbLine
 10
8096.299125379038
 20
8999.098915086445
 30
0.0
 11
8124.299125379023
 21
8999.098915086445
 31
0.0
  0
LINE
  5
14EDA
330
747D
100
AcDbEntity
  8
部品1
 48
5.0
100
AcDbLine
 10
8096.299125379049
 20
8999.098915086436
 30
0.0
 11
8068.299125378995
 21
8999.098915086445
 31
0.0
  0
LINE
  5
14EDB
330
747D
100
AcDbEntity
  8
破線
 48
10.0
100
AcDbLine
 10
8966.299190303741
 20
8994.598915086445
 30
0.0
 11
8966.299173539944
 21
8771.598586374377
 31
0.0
  0
DIMENSION
  5
14EDC
330
747D
100
AcDbEntity
  8
寸法
100
AcDbDimension
  2
*D5
 10
4351.299125379068
 20
9689.907134711383
 30
0.0
 11
3987.813844004796
 21
9689.907134711383
 31
0.0
 70
   160
 71
     5
 42
55.00000000003274
  3
INABA_S40G
100
AcDbAlignedDimension
 13
4296.299125379035
 23
9474.098915086401
 33
0.0
 14
4351.299125379068
 24
9474.098915086401
 34
0.0
100
AcDbRotatedDimension
1001
ACAD
1000
DSTYLE
1002
{
1002
}
  0
LINE
  5
14EDD
330
747D
100
AcDbEntity
  8
部品1
100
AcDbLine
 10
4325.299132056665
 20
9444.598915086372
 30
0.0
 11
5217.299132056665
 21
9444.59891508648
 31
0.0
  0
LINE
  5
14EDE
330
747D
100
AcDbEntity
  8
部品1
100
AcDbLine
 10
4324.299125379067
 20
9446.0989150864
 30
0.0
 11
5243.679828397693
 21
9446.098915086421
 31
0.0
  0
DIMENSION
  5
14EDF
330
747D
100
AcDbEntity
  8
寸法
100
AcDbDimension
  2
*D6
 10
5191.299125379067
 20
9689.907134711498
 30
0.0
 11
4771.299125379067
 21
9689.907134711498
 31
0.0
 70
   160
  1
2X420=<>
 71
     5
 42
840.0
  3
INABA_S40G
100
AcDbAlignedDimension
 13
4351.299125379068
 23
9474.098915086429
 33
0.0
 14
5191.299125379067
 24
9474.098915086518
 34
0.0
100
AcDbRotatedDimension
1001
ACAD
1000
DSTYLE
1002
{
1002
}
  0
LINE
  5
14EE0
330
747D
100
AcDbEntity
  8
部品1
 48
50.0
100
AcDbLine
 10
4325.799132056658
 20
9444.598915086372
 30
0.0
 11
4324.299125379035
 21
9446.098915086365
 31
0.0
  0
LINE
  5
14EE1
330
747D
100
AcDbEntity
  8
部品1
100
AcDbLine
 10
4351.299125379035
 20
9474.098915086363
 30
0.0
 11
4351.299125379038
 21
9446.098915086365
 31
0.0
  0
LINE
  5
14EE2
330
747D
100
AcDbEntity
  8
部品1
100
AcDbLine
 10
4351.299125379068
 20
9474.098915086401
 30
0.0
 11
4351.299125379068
 21
9446.0989150864
 31
0.0
  0
LINE
  5
14EE3
330
747D
100
AcDbEntity
  8
部品1
100
AcDbLine
 10
4324.299125379038
 20
9419.098915086371
 30
0.0
 11
4296.299125379039
 21
9419.098915086371
 31
0.0
  0
LINE
  5
14EE4
330
747D
100
AcDbEntity
  8
部品1
100
AcDbLine
 10
7175.299132056665
 20
9444.598915086372
 30
0.0
 11
8067.299132056666
 21
9444.59891508648
 31
0.0
  0
LINE
  5
14EE5
330
747D
100
AcDbEntity
  8
部品1
100
AcDbLine
 10
7174.299125379016
 20
9446.098915086421
 30
0.0
 11
8093.679828397672
 21
9446.098915086444
 31
0.0
  0
DIMENSION
  5
14EE6
330
747D
100
AcDbEntity
  8
寸法
100
AcDbDimension
  2
*D7
 10
8041.299125379067
 20
9689.907134711498
 30
0.0
 11
7621.299125379067
 21
9689.907134711498
 31
0.0
 70
   160
  1
2X420=<>
 71
     5
 42
840.0
  3
INABA_S40G
100
AcDbAlignedDimension
 13
7201.299125379067
 23
9474.098915086429
 33
0.0
 14
8041.299125379067
 24
9474.098915086518
 34
0.0
100
AcDbRotatedDimension
1001
ACAD
1000
DSTYLE
1002
{
1002
}
  0
LINE
  5
14EE7
330
747D
100
AcDbEntity
  8
部品1
100
AcDbLine
 10
4770.799125379002
 20
9474.098915086356
 30
0.0
 11
4770.799125379002
 21
9446.098915086357
 31
0.0
  0
LINE
  5
14EE8
330
747D
100
AcDbEntity
  8
部品1
100
AcDbLine
 10
4770.799125379035
 20
9474.098915086393
 30
0.0
 11
4770.799125379035
 21
9446.098915086393
 31
0.0
  0
DIMENSION
  5
14EE9
330
747D
100
AcDbEntity
  8
寸法
 48
50.0
100
AcDbDimension
  2
*D8
 10
5301.299125379071
 20
9689.907134711498
 30
0.0
 11
5246.299125379072
 21
9941.640475660895
 31
0.0
 70
   160
 71
     5
 42
110.0000000000036
  3
INABA_S40G
100
AcDbAlignedDimension
 13
5191.299125379067
 23
9474.098915086518
 33
0.0
 14
5301.299125379071
 24
9474.098915086495
 34
0.0
100
AcDbRotatedDimension
1001
ACAD
1000
DSTYLE
1002
{
1070
   279
1070
     2
1002
}
  0
LINE
  5
14EEA
330
747D
100
AcDbEntity
  8
部品1
 48
50.0
100
AcDbLine
 10
5275.799132056658
 20
9444.598915086372
 30
0.0
 11
5274.299125379035
 21
9446.098915086365
 31
0.0
  0
LINE
  5
14EEB
330
747D
100
AcDbEntity
  8
部品1
 48
50.0
100
AcDbLine
 10
5216.851732867086
 20
9444.59891508648
 30
0.0
 11
5218.299125378962
 21
9446.098915086407
 31
0.0
  0
LINE
  5
14EEC
330
747D
100
AcDbEntity
  8
部品1
 48
5.0
100
AcDbLine
 10
5301.299125379071
 20
9474.098915086445
 30
0.0
 11
5301.299125379068
 21
9446.098915086452
 31
0.0
  0
LINE
  5
14EED
330
747D
100
AcDbEntity
  8
部品1
 48
5.0
100
AcDbLine
 10
5274.299125378998
 20
9419.098915086443
 30
0.0
 11
5218.299125378995
 21
9419.098915086443
 31
0.0
  0
LINE
  5
14EEE
330
747D
100
AcDbEntity
  8
部品1
 48
5.0
100
AcDbLine
 10
5221.008399826242
 20
9474.098915086445
 30
0.0
 11
5243.679828397671
 21
9446.098915086444
 31
0.0
  0
LINE
  5
14EEF
330
747D
100
AcDbEntity
  8
部品1
 48
5.0
100
AcDbLine
 10
5191.299125379067
 20
9446.098915086444
 30
0.0
 11
5191.299125379067
 21
9474.098915086445
 31
0.0
  0
DIMENSION
  5
14EF0
330
747D
100
AcDbEntity
  8
寸法
 48
50.0
100
AcDbDimension
  2
*D9
 10
8151.299125379072
 20
9689.907134711498
 30
0.0
 11
8096.299125379072
 21
9941.640475660895
 31
0.0
 70
   160
 71
     5
 42
110.0000000000036
  3
INABA_S40G
100
AcDbAlignedDimension
 13
8041.299125379067
 23
9474.098915086518
 33
0.0
 14
8151.299125379072
 24
9474.098915086495
 34
0.0
100
AcDbRotatedDimension
1001
ACAD
1000
DSTYLE
1002
{
1070
   279
1070
     2
1002
}
  0
LINE
  5
14EF1
330
747D
100
AcDbEntity
  8
部品1
 48
5.0
100
AcDbLine
 10
8041.299125379067
 20
9446.098915086444
 30
0.0
 11
8041.299125379067
 21
9474.098915086445
 31
0.0
  0
LINE
  5
14EF2
330
747D
100
AcDbEntity
  8
部品1
 48
50.0
100
AcDbLine
 10
8125.799132056657
 20
9444.598915086372
 30
0.0
 11
8124.299125379035
 21
9446.098915086365
 31
0.0
  0
LINE
  5
14EF3
330
747D
100
AcDbEntity
  8
部品1
 48
50.0
100
AcDbLine
 10
8066.851732867085
 20
9444.59891508648
 30
0.0
 11
8068.299125378961
 21
9446.098915086407
 31
0.0
  0
LINE
  5
14EF4
330
747D
100
AcDbEntity
  8
部品1
 48
5.0
100
AcDbLine
 10
8124.299125379
 20
9419.098915086443
 30
0.0
 11
8068.299125378995
 21
9419.098915086443
 31
0.0
  0
LINE
  5
14EF5
330
747D
100
AcDbEntity
  8
部品1
 48
5.0
100
AcDbLine
 10
8071.008399826242
 20
9474.098915086445
 30
0.0
 11
8093.679828397672
 21
9446.098915086444
 31
0.0
  0
LINE
  5
14EF6
330
747D
100
AcDbEntity
  8
部品1
 48
5.0
100
AcDbLine
 10
8151.299125379072
 20
9474.098915086445
 30
0.0
 11
8151.299125379066
 21
9446.098915086452
 31
0.0
  0
LINE
  5
14EF7
330
747D
100
AcDbEntity
  8
部品1
100
AcDbLine
 10
8991.299125379072
 20
9474.098915086495
 30
0.0
 11
8991.299125379072
 21
9446.098915086496
 31
0.0
  0
LINE
  5
14EF8
330
747D
100
AcDbEntity
  8
部品1
100
AcDbLine
 10
8991.299125379072
 20
9474.098915086511
 30
0.0
 11
8991.299125379072
 21
9446.09891508651
 31
0.0
  0
LINE
  5
14EF9
330
747D
100
AcDbEntity
  8
部品1
 48
50.0
100
AcDbLine
 10
9017.299132056665
 20
9444.598915086473
 30
0.0
 11
9017.299132056665
 21
8994.598915086474
 31
0.0
  0
LINE
  5
14EFA
330
747D
100
AcDbEntity
  8
部品1
100
AcDbLine
 10
9046.299125379071
 20
9474.098915086495
 30
0.0
 11
9046.299125379047
 21
7944.098915086481
 31
0.0
  0
LINE
  5
14EFB
330
747D
100
AcDbEntity
  8
部品1
100
AcDbLine
 10
9018.299125379071
 20
9446.098915086496
 30
0.0
 11
9018.299125379046
 21
7999.098915086481
 31
0.0
  0
DIMENSION
  5
14EFC
330
747D
100
AcDbEntity
  8
寸法
100
AcDbDimension
  2
*D10
 10
9372.656857918705
 20
8899.381099417484
 30
0.0
 11
9372.656857918704
 21
9124.381099417474
 31
0.0
 70
   160
 71
     5
 42
449.9999999999927
  3
INABA_S40G
100
AcDbAlignedDimension
 13
9017.299132056679
 23
9444.598915086364
 33
0.0
 14
9017.299132056688
 24
8994.598915086372
 34
0.0
 50
90.0
100
AcDbRotatedDimension
1001
ACAD
1000
DSTYLE
1002
{
1002
}
  0
DIMENSION
  5
14EFE
330
747D
100
AcDbEntity
  8
寸法
100
AcDbDimension
  2
*D11
 10
10002.83700192916
 20
7944.098915086481
 30
0.0
 11
10002.83700192916
 21
8709.098915086489
 31
0.0
 70
   160
 71
     5
 42
1530.000000000014
  3
INABA_S40G
100
AcDbAlignedDimension
 13
9046.299125379071
 23
9474.098915086495
 33
0.0
 14
9046.299125379047
 24
7944.098915086481
 34
0.0
 50
90.0
100
AcDbRotatedDimension
1001
ACAD
1000
DSTYLE
1002
{
1002
}
  0
DIMENSION
  5
14EFF
330
747D
100
AcDbEntity
  8
寸法
100
AcDbDimension
  2
*D12
 10
9693.725471113458
 20
7944.098915086481
 30
0.0
 11
9693.725471113456
 21
7566.237448181619
 31
0.0
 70
   160
 71
     5
 42
55.0
  3
INABA_S40G
100
AcDbAlignedDimension
 13
9046.299125379047
 23
7999.098915086481
 33
0.0
 14
9046.299125379047
 24
7944.098915086481
 34
0.0
 50
90.0
100
AcDbRotatedDimension
1001
ACAD
1000
DSTYLE
1002
{
1002
}
  0
LINE
  5
14F00
330
747D
100
AcDbEntity
  8
部品1
100
AcDbLine
 10
9018.299125379078
 20
7999.098915086495
 30
0.0
 11
9046.299125379078
 21
7999.098915086495
 31
0.0
  0
LINE
  5
14F01
330
747D
100
AcDbEntity
  8
部品1
100
AcDbLine
 10
9018.299125379046
 20
7999.098915086481
 30
0.0
 11
9046.299125379047
 21
7999.098915086481
 31
0.0
  0
LINE
  5
14F02
330
747D
100
AcDbEntity
  8
部品1
 48
2.83
100
AcDbLine
 10
9046.299125379047
 20
7999.098915086452
 30
0.0
 11
9023.299125379045
 21
7999.098915086452
 31
0.0
  0
LINE
  5
14F03
330
747D
100
AcDbEntity
  8
部品1
 48
2.83
100
AcDbLine
 10
9003.299125379045
 20
7973.598915086451
 30
0.0
 11
9003.299125379045
 21
7944.098915086453
 31
0.0
  0
LINE
  5
14F04
330
747D
100
AcDbEntity
  8
部品1
100
AcDbLine
 10
9018.299125379071
 20
8419.098915086495
 30
0.0
 11
9046.299125379071
 21
8419.098915086495
 31
0.0
  0
LINE
  5
14F05
330
747D
100
AcDbEntity
  8
部品1
100
AcDbLine
 10
9018.299125379071
 20
8999.098915086495
 30
0.0
 11
9046.299125379071
 21
8999.098915086495
 31
0.0
  0
DIMENSION
  5
14F06
330
747D
100
AcDbEntity
  8
寸法
100
AcDbDimension
  2
*D13
 10
9693.725471113483
 20
9419.098915086495
 30
0.0
 11
9693.725471113481
 21
9782.584196460735
 31
0.0
 70
   160
 71
     5
 42
55.0
  3
INABA_S40G
100
AcDbAlignedDimension
 13
9046.299125379071
 23
9474.098915086495
 33
0.0
 14
9046.299125379071
 24
9419.098915086495
 34
0.0
 50
90.0
100
AcDbRotatedDimension
1001
ACAD
1000
DSTYLE
1002
{
1002
}
  0
LINE
  5
14F07
330
747D
100
AcDbEntity
  8
部品1
 48
50.0
100
AcDbLine
 10
9016.851732867086
 20
9444.59891508648
 30
0.0
 11
9018.299125378963
 21
9446.098915086407
 31
0.0
  0
LINE
  5
14F08
330
747D
100
AcDbEntity
  8
部品1
100
AcDbLine
 10
9018.299125379071
 20
9419.098915086495
 30
0.0
 11
9046.299125379071
 21
9419.098915086495
 31
0.0
  0
DIMENSION
  5
15249
330
747D
100
AcDbEntity
  8
寸法
 48
50.0
100
AcDbDimension
  2
*D14
 10
9693.725471113481
 20
8999.098915086495
 30
0.0
 11
9593.713660089859
 21
9209.098915086498
 31
0.0
 70
    32
 71
     5
 42
420.0
  3
INABA_S40G
100
AcDbAlignedDimension
 13
9046.299125379071
 23
9419.098915086495
 33
0.0
 14
9046.299125379071
 24
8999.098915086495
 34
0.0
 50
90.0
100
AcDbRotatedDimension
  0
DIMENSION
  5
15256
330
747D
100
AcDbEntity
  8
寸法
 48
50.0
100
AcDbDimension
  2
*D15
 10
9693.725471113481
 20
8419.098915086495
 30
0.0
 11
9593.725471113479
 21
8709.098915086498
 31
0.0
 70
    32
 71
     5
 42
580.0
  3
INABA_S40G
100
AcDbAlignedDimension
 13
9046.299125379071
 23
8999.098915086495
 33
0.0
 14
9046.299125379071
 24
8419.098915086495
 34
0.0
 50
90.0
100
AcDbRotatedDimension
  0
DIMENSION
  5
15263
330
747D
100
AcDbEntity
  8
寸法
 48
50.0
100
AcDbDimension
  2
*D16
 10
9693.725471113481
 20
8419.098915086495
 30
0.0
 11
9593.713660089859
 21
8209.098915086476
 31
0.0
 70
    32
 71
     5
 42
420.0000000000436
  3
INABA_S40G
100
AcDbAlignedDimension
 13
9046.299125379047
 23
7999.098915086452
 33
0.0
 14
9046.299125379071
 24
8419.098915086495
 34
0.0
 50
90.0
100
AcDbRotatedDimension
  0
LINE
  5
1526E
330
747D
100
AcDbEntity
  8
部品1
100
AcDbLine
 10
7620.799125379035
 20
9474.098915086321
 30
0.0
 11
7620.799125379035
 21
9446.098915086322
 31
0.0
  0
LINE
  5
1526F
330
747D
100
AcDbEntity
  8
部品1
100
AcDbLine
 10
7620.799125379003
 20
9474.098915086285
 30
0.0
 11
7620.799125379003
 21
9446.098915086285
 31
0.0
  0
LINE
  5
15270
330
747D
100
AcDbEntity
  8
部品1
100
AcDbLine
 10
8570.799125379005
 20
9474.098915086285
 30
0.0
 11
8570.799125379005
 21
9446.098915086285
 31
0.0
  0
LINE
  5
15271
330
747D
100
AcDbEntity
  8
部品1
100
AcDbLine
 10
8570.799125379037
 20
9474.098915086321
 30
0.0
 11
8570.799125379037
 21
9446.098915086322
 31
0.0
  0
LINE
  5
152BA
330
747D
100
AcDbEntity
  8
細線
 48
50.0
100
AcDbLine
 10
4465.29912537906
 20
7970.098915086481
 30
0.0
 11
4465.29912537906
 21
7944.098915086434
 31
0.0
  0
LINE
  5
152BB
330
747D
100
AcDbEntity
  8
細線
 48
50.0
100
AcDbLine
 10
4691.29912537906
 20
7970.09891508647
 30
0.0
 11
4691.29912537906
 21
7944.098915086434
 31
0.0
  0
LINE
  5
152BC
330
747D
100
AcDbEntity
  8
細線
 48
50.0
100
AcDbLine
 10
4651.29912537906
 20
7970.09891508647
 30
0.0
 11
4651.29912537906
 21
7944.098915086434
 31
0.0
  0
LINE
  5
152BD
330
747D
100
AcDbEntity
  8
細線
 48
50.0
100
AcDbLine
 10
4878.299125379061
 20
7970.098915086684
 30
0.0
 11
4878.299125379061
 21
7944.098915086648
 31
0.0
  0
LINE
  5
152BE
330
747D
100
AcDbEntity
  8
細線
 48
50.0
100
AcDbLine
 10
4918.299125379061
 20
7970.098915086684
 30
0.0
 11
4918.299125379061
 21
7944.098915086648
 31
0.0
  0
LINE
  5
152BF
330
747D
100
AcDbEntity
  8
細線
 48
50.0
100
AcDbLine
 10
7315.29912537906
 20
7970.098915086481
 30
0.0
 11
7315.29912537906
 21
7944.098915086434
 31
0.0
  0
LINE
  5
152C0
330
747D
100
AcDbEntity
  8
細線
 48
50.0
100
AcDbLine
 10
7501.29912537906
 20
7970.09891508647
 30
0.0
 11
7501.29912537906
 21
7944.098915086434
 31
0.0
  0
LINE
  5
152C1
330
747D
100
AcDbEntity
  8
細線
 48
50.0
100
AcDbLine
 10
7541.299125379061
 20
7970.09891508647
 30
0.0
 11
7541.299125379061
 21
7944.098915086434
 31
0.0
  0
LINE
  5
152C2
330
747D
100
AcDbEntity
  8
細線
 48
50.0
100
AcDbLine
 10
7768.29912537906
 20
7970.098915086684
 30
0.0
 11
7768.29912537906
 21
7944.098915086648
 31
0.0
  0
LINE
  5
152C3
330
747D
100
AcDbEntity
  8
細線
 48
50.0
100
AcDbLine
 10
7728.299125379061
 20
7970.098915086684
 30
0.0
 11
7728.299125379061
 21
7944.098915086648
 31
0.0
  0
LINE
  5
152C4
330
747D
100
AcDbEntity
  8
細線
 48
50.0
100
AcDbLine
 10
8265.29912537906
 20
7970.098915086481
 30
0.0
 11
8265.29912537906
 21
7944.098915086434
 31
0.0
  0
LINE
  5
152C5
330
747D
100
AcDbEntity
  8
細線
 48
50.0
100
AcDbLine
 10
8491.299125379061
 20
7970.09891508647
 30
0.0
 11
8491.299125379061
 21
7944.098915086434
 31
0.0
  0
LINE
  5
152C6
330
747D
100
AcDbEntity
  8
細線
 48
50.0
100
AcDbLine
 10
8451.29912537906
 20
7970.09891508647
 30
0.0
 11
8451.29912537906
 21
7944.098915086434
 31
0.0
  0
LINE
  5
152C7
330
747D
100
AcDbEntity
  8
細線
 48
50.0
100
AcDbLine
 10
8678.29912537906
 20
7970.098915086684
 30
0.0
 11
8678.29912537906
 21
7944.098915086648
 31
0.0
  0
LINE
  5
152C8
330
747D
100
AcDbEntity
  8
細線
 48
50.0
100
AcDbLine
 10
8718.29912537906
 20
7970.098915086684
 30
0.0
 11
8718.29912537906
 21
7944.098915086648
 31
0.0
  0
DIMENSION
  5
15397
330
747D
100
AcDbEntity
  8
寸法
 48
50.0
100
AcDbDimension
  2
*D17
 10
7886.299125379061
 20
7504.275247291317
 30
0.0
 11
7543.799125379064
 21
7504.275247291317
 31
0.0
 70
   160
 71
     5
 42
684.9999999999927
  3
INABA_S40G
100
AcDbAlignedDimension
 13
7201.299125379067
 23
7944.098915086394
 33
0.0
 14
7886.299125379061
 24
7944.098915086357
 34
0.0
100
AcDbRotatedDimension
  0
DIMENSION
  5
153AF
330
747D
100
AcDbEntity
  8
寸法
 48
50.0
100
AcDbDimension
  2
*D18
 10
5036.29912537906
 20
7504.275247291317
 30
0.0
 11
4693.799125379064
 21
7504.275247291317
 31
0.0
 70
   160
 71
     5
 42
684.9999999999927
  3
INABA_S40G
100
AcDbAlignedDimension
 13
4351.299125379068
 23
7944.098915086394
 33
0.0
 14
5036.29912537906
 24
7944.098915086357
 34
0.0
100
AcDbRotatedDimension
  0
LINE
  5
15460
330
747D
100
AcDbEntity
  8
部品1
 48
50.0
100
AcDbLine
 10
7174.299125379049
 20
7999.098915086436
 30
0.0
 11
7174.299125378995
 21
9474.098915086445
 31
0.0
  0
LINE
  5
15461
330
747D
100
AcDbEntity
  8
部品1
 48
50.0
100
AcDbLine
 10
7118.29912537905
 20
7999.098915086436
 30
0.0
 11
7118.299125378995
 21
9446.098915086444
 31
0.0
  0
LINE
  5
15462
330
747D
100
AcDbEntity
  8
部品1
 48
50.0
100
AcDbLine
 10
7146.299125379049
 20
7999.098915086436
 30
0.0
 11
7146.299125379049
 21
9419.098915086443
 31
0.0
  0
LINE
  5
15463
330
747D
100
AcDbEntity
  8
細線
 48
50.0
100
AcDbLine
 10
7117.299132056665
 20
9444.598915086473
 30
0.0
 11
6225.299132056665
 21
8994.598915086372
 31
0.0
  0
LINE
  5
15464
330
747D
100
AcDbEntity
  8
細線
 48
50.0
100
AcDbLine
 10
7117.299132056665
 20
8994.598915086474
 30
0.0
 11
6225.299132056665
 21
9444.598915086372
 31
0.0
  0
LINE
  5
15465
330
747D
100
AcDbEntity
  8
部品1
 48
50.0
100
AcDbLine
 10
7117.299132056665
 20
9444.598915086473
 30
0.0
 11
7117.299132056665
 21
8994.598915086474
 31
0.0
  0
LINE
  5
15466
330
747D
100
AcDbEntity
  8
部品1
 48
50.0
100
AcDbLine
 10
7175.299132056665
 20
9444.598915086364
 30
0.0
 11
7175.299132056665
 21
8994.598915086372
 31
0.0
  0
ARC
  5
15467
330
747D
100
AcDbEntity
  8
想像線
 48
10.0
100
AcDbCircle
 10
6963.9470747019
 20
7945.793808461999
 30
0.0
 40
722.6499369155536
100
AcDbArc
 50
180.1343808685451
 51
270.5829222700355
  0
LINE
  5
15468
330
747D
100
AcDbEntity
  8
想像線
 48
10.0
100
AcDbLine
 10
6971.299125379061
 20
7944.098915086437
 30
0.0
 11
6971.299125379061
 21
7223.181271430647
 31
0.0
  0
LINE
  5
15469
330
747D
100
AcDbEntity
  8
部品1
 48
5.0
100
AcDbLine
 10
6220.299125379064
 20
7973.598915086379
 30
0.0
 11
7122.299125379064
 21
7973.598915086437
 31
0.0
  0
LINE
  5
1546A
330
747D
100
AcDbEntity
  8
部品1
100
AcDbLine
 10
7090.799125379046
 20
8075.598915086445
 30
0.0
 11
6251.798632125167
 21
8075.598412888972
 31
0.0
  0
LINE
  5
1546B
330
747D
100
AcDbEntity
  8
部品1
100
AcDbLine
 10
6225.299132056665
 20
8994.598915086372
 30
0.0
 11
7117.299132056665
 21
8994.598915086474
 31
0.0
  0
LINE
  5
1546C
330
747D
100
AcDbEntity
  8
破線
 48
10.0
100
AcDbLine
 10
6251.799121102976
 20
8771.598625360992
 30
0.0
 11
7090.799125379032
 21
8771.59859072916
 31
0.0
  0
LINE
  5
1546D
330
747D
100
AcDbEntity
  8
破線
 48
10.0
100
AcDbLine
 10
6251.799121102976
 20
8721.598625360991
 30
0.0
 11
7090.799125379032
 21
8721.598590729161
 31
0.0
  0
LINE
  5
1546E
330
747D
100
AcDbEntity
  8
破線
 48
10.0
100
AcDbLine
 10
7067.299125379057
 20
8099.098915086445
 30
0.0
 11
7067.299119631091
 21
8721.598591699182
 31
0.0
  0
LINE
  5
1546F
330
747D
100
AcDbEntity
  8
部品1
 48
50.0
100
AcDbLine
 10
6670.799125379057
 20
8994.598915086422
 30
0.0
 11
6670.798962506953
 21
8075.598082923226
 31
0.0
  0
DIMENSION
  5
15470
330
747D
100
AcDbEntity
  8
寸法
 48
50.0
100
AcDbDimension
  2
*D21
 10
6936.299125379061
 20
7504.275247291317
 30
0.0
 11
6593.799125379064
 21
7504.275247291317
 31
0.0
 70
   160
 71
     5
 42
684.9999999999927
  3
INABA_S40G
100
AcDbAlignedDimension
 13
6251.299125379068
 23
7944.098915086394
 33
0.0
 14
6936.299125379061
 24
7944.098915086357
 34
0.0
100
AcDbRotatedDimension
  0
LINE
  5
15471
330
747D
100
AcDbEntity
  8
部品1
100
AcDbLine
 10
6971.299125379061
 20
7970.098915086481
 30
0.0
 11
6241.299125379065
 21
7970.098915086459
 31
0.0
  0
LINE
  5
15472
330
747D
100
AcDbEntity
  8
破線
 48
10.0
100
AcDbLine
 10
7067.299125379057
 20
8099.098915086445
 30
0.0
 11
6275.299125379056
 21
8099.098915086429
 31
0.0
  0
LINE
  5
15473
330
747D
100
AcDbEntity
  8
細線
 48
50.0
100
AcDbLine
 10
6365.299125379061
 20
7970.098915086481
 30
0.0
 11
6365.299125379061
 21
7944.098915086434
 31
0.0
  0
LINE
  5
15474
330
747D
100
AcDbEntity
  8
細線
 48
50.0
100
AcDbLine
 10
6551.29912537906
 20
7970.09891508647
 30
0.0
 11
6551.29912537906
 21
7944.098915086434
 31
0.0
  0
LINE
  5
15475
330
747D
100
AcDbEntity
  8
細線
 48
50.0
100
AcDbLine
 10
6591.299125379061
 20
7970.09891508647
 30
0.0
 11
6591.299125379061
 21
7944.098915086434
 31
0.0
  0
LINE
  5
15476
330
747D
100
AcDbEntity
  8
細線
 48
50.0
100
AcDbLine
 10
6778.299125379061
 20
7970.098915086684
 30
0.0
 11
6778.299125379061
 21
7944.098915086648
 31
0.0
  0
LINE
  5
15477
330
747D
100
AcDbEntity
  8
細線
 48
50.0
100
AcDbLine
 10
6818.29912537906
 20
7970.098915086684
 30
0.0
 11
6818.29912537906
 21
7944.098915086648
 31
0.0
  0
ARC
  5
15478
330
747D
100
AcDbEntity
  8
部品1
 48
0.2
100
AcDbCircle
 10
6958.361573207742
 20
7945.096545041659
 30
0.0
 40
8.0
100
AcDbArc
 50
187.1636477221926
 51
269.9999999999992
  0
LINE
  5
15479
330
747D
100
AcDbEntity
  8
部品1
 48
5.0
100
AcDbLine
 10
6973.299125379064
 20
7973.598915086437
 30
0.0
 11
6973.299125379064
 21
7944.098915086437
 31
0.0
  0
LINE
  5
1547A
330
747D
100
AcDbEntity
  8
部品1
 48
0.2
100
AcDbLine
 10
6958.361573207742
 20
7937.096545041659
 30
0.0
 11
6963.361573207741
 21
7937.096545041659
 31
0.0
  0
ARC
  5
1547B
330
747D
100
AcDbEntity
  8
細線
 48
0.2
100
AcDbCircle
 10
6963.361573207741
 20
7945.096545041659
 30
0.0
 40
4.049999999999999
100
AcDbArc
 50
194.2603506853988
 51
345.7396493146012
  0
ARC
  5
1547C
330
747D
100
AcDbEntity
  8
部品1
 48
0.2
100
AcDbCircle
 10
6963.361573207741
 20
7945.096545041659
 30
0.0
 40
8.0
100
AcDbArc
 50
270.0
 51
352.8363522778074
  0
LINE
  5
1547D
330
747D
100
AcDbEntity
  8
部品1
100
AcDbLine
 10
6971.299125379061
 20
7970.098915086488
 30
0.0
 11
6971.299125379061
 21
7944.09891508643
 31
0.0
  0
LINE
  5
1547E
330
747D
100
AcDbEntity
  8
破線
 48
10.0
100
AcDbLine
 10
7067.299119181676
 20
8771.598591699181
 30
0.0
 11
7067.299117024504
 21
8994.598915086504
 31
0.0
  0
LINE
  5
1547F
330
747D
100
AcDbEntity
  8
部品1
 48
50.0
100
AcDbLine
 10
7090.799125379046
 20
8075.598915086445
 30
0.0
 11
7090.799125379025
 21
8994.598915086504
 31
0.0
  0
LINE
  5
15480
330
747D
100
AcDbEntity
  8
部品1
 48
50.0
100
AcDbLine
 10
7201.79911903476
 20
8075.598915111102
 30
0.0
 11
7201.799122007625
 21
8994.598915086445
 31
0.0
  0
LINE
  5
15481
330
747D
100
AcDbEntity
  8
破線
 48
10.0
100
AcDbLine
 10
7225.299125379057
 20
8099.098915086452
 30
0.0
 11
7225.299116826406
 21
8721.598619024891
 31
0.0
  0
LINE
  5
15482
330
747D
100
AcDbEntity
  8
部品1
 48
5.0
100
AcDbLine
 10
7091.299125379065
 20
7999.098915086436
 30
0.0
 11
7091.299125379068
 21
7973.598915086437
 31
0.0
  0
LINE
  5
15483
330
747D
100
AcDbEntity
  8
部品1
 48
5.0
100
AcDbLine
 10
7122.299125379064
 20
7999.098915086436
 30
0.0
 11
7122.299125379064
 21
7973.598915086437
 31
0.0
  0
LINE
  5
15484
330
747D
100
AcDbEntity
  8
部品1
 48
5.0
100
AcDbLine
 10
7170.299125379068
 20
7999.098915086436
 30
0.0
 11
7170.299125379064
 21
7973.598915086437
 31
0.0
  0
LINE
  5
15485
330
747D
100
AcDbEntity
  8
部品1
 48
5.0
100
AcDbLine
 10
7201.299125379065
 20
7999.098915086436
 30
0.0
 11
7201.299125379067
 21
7973.598915086437
 31
0.0
  0
LINE
  5
15486
330
747D
100
AcDbEntity
  8
部品1
 48
5.0
100
AcDbLine
 10
7103.299125379064
 20
7944.098915086437
 30
0.0
 11
7189.299125379064
 21
7944.098915086437
 31
0.0
  0
LINE
  5
15487
330
747D
100
AcDbEntity
  8
部品1
 48
5.0
100
AcDbLine
 10
7103.299125379064
 20
7973.598915086437
 30
0.0
 11
7103.299125379064
 21
7944.098915086437
 31
0.0
  0
LINE
  5
15488
330
747D
100
AcDbEntity
  8
部品1
100
AcDbLine
 10
7103.299125379061
 20
7973.598915086379
 30
0.0
 11
7103.299125379061
 21
7944.09891508643
 31
0.0
  0
LINE
  5
15489
330
747D
100
AcDbEntity
  8
部品1
 48
5.0
100
AcDbLine
 10
7189.299125379064
 20
7973.598915086437
 30
0.0
 11
7189.299125379064
 21
7944.098915086437
 31
0.0
  0
LINE
  5
1548A
330
747D
100
AcDbEntity
  8
部品1
100
AcDbLine
 10
7191.29912537906
 20
7970.09891508643
 30
0.0
 11
7191.29912537906
 21
7944.098915086437
 31
0.0
  0
LINE
  5
1548B
330
747D
100
AcDbEntity
  8
部品1
100
AcDbLine
 10
7189.299125379064
 20
7973.598915086386
 30
0.0
 11
7189.299125379064
 21
7944.098915086437
 31
0.0
  0
LINE
  5
1548C
330
747D
100
AcDbEntity
  8
部品1
 48
5.0
100
AcDbLine
 10
7114.299125379064
 20
7999.098915086436
 30
0.0
 11
7091.299125379065
 21
7999.098915086436
 31
0.0
  0
LINE
  5
1548D
330
747D
100
AcDbEntity
  8
部品1
 48
5.0
100
AcDbLine
 10
7178.299125379064
 20
7999.098915086436
 30
0.0
 11
7201.299125379065
 21
7999.098915086436
 31
0.0
  0
LINE
  5
1548E
330
747D
100
AcDbEntity
  8
部品1
 48
5.0
100
AcDbLine
 10
7118.29912537905
 20
7999.098915086436
 30
0.0
 11
7174.299125379049
 21
7999.098915086436
 31
0.0
  0
LINE
  5
1548F
330
747D
100
AcDbEntity
  8
部品1
 48
50.0
100
AcDbLine
 10
7118.29912537905
 20
8047.598915086437
 30
0.0
 11
7090.799125379046
 21
8075.598915086445
 31
0.0
  0
LINE
  5
15490
330
747D
100
AcDbEntity
  8
部品1
 48
50.0
100
AcDbLine
 10
7201.799125379046
 20
8075.598915111109
 30
0.0
 11
7174.299125379049
 21
8047.598915086437
 31
0.0
  0
LINE
  5
15491
330
747D
100
AcDbEntity
  8
破線
 48
10.0
100
AcDbLine
 10
7225.299116157708
 20
8771.598619024896
 30
0.0
 11
7225.299112947945
 21
8994.598915086445
 31
0.0
  0
LINE
  5
15492
330
747D
100
AcDbEntity
  8
部品1
 48
5.0
100
AcDbLine
 10
7146.299125379049
 20
8419.098915086436
 30
0.0
 11
7118.299125378995
 21
8419.098915086443
 31
0.0
  0
LINE
  5
15493
330
747D
100
AcDbEntity
  8
部品1
 48
5.0
100
AcDbLine
 10
7146.299125379049
 20
8999.098915086436
 30
0.0
 11
7118.299125378995
 21
8999.098915086445
 31
0.0
  0
LINE
  5
15494
330
747D
100
AcDbEntity
  8
部品1
 48
50.0
100
AcDbLine
 10
7146.299125379039
 20
8999.098915086445
 30
0.0
 11
7174.299125379024
 21
8999.098915086445
 31
0.0
  0
LINE
  5
15495
330
747D
100
AcDbEntity
  8
部品1
 48
50.0
100
AcDbLine
 10
7146.299125379039
 20
9037.098915086444
 30
0.0
 11
7174.299125379024
 21
9037.098915086444
 31
0.0
  0
DIMENSION
  5
15496
330
747D
100
AcDbEntity
  8
寸法
 48
50.0
100
AcDbDimension
  2
*D20
 10
7201.299125379072
 20
9689.907134711498
 30
0.0
 11
7146.299125379072
 21
9941.640475660895
 31
0.0
 70
   160
 71
     5
 42
110.0000000000036
  3
INABA_S40G
100
AcDbAlignedDimension
 13
7091.299125379068
 23
9474.098915086518
 33
0.0
 14
7201.299125379072
 24
9474.098915086495
 34
0.0
100
AcDbRotatedDimension
1001
ACAD
1000
DSTYLE
1002
{
1070
   279
1070
     2
1002
}
  0
DIMENSION
  5
15497
330
747D
100
AcDbEntity
  8
寸法
100
AcDbDimension
  2
*D19
 10
7091.299125379068
 20
9689.907134711498
 30
0.0
 11
6671.299125379068
 21
9689.907134711498
 31
0.0
 70
   160
  1
2X420=<>
 71
     5
 42
840.0
  3
INABA_S40G
100
AcDbAlignedDimension
 13
6251.299125379068
 23
9474.098915086429
 33
0.0
 14
7091.299125379068
 24
9474.098915086518
 34
0.0
100
AcDbRotatedDimension
1001
ACAD
1000
DSTYLE
1002
{
1002
}
  0
LINE
  5
15498
330
747D
100
AcDbEntity
  8
部品1
100
AcDbLine
 10
6224.299125379017
 20
9446.098915086421
 30
0.0
 11
7143.679828397671
 21
9446.098915086444
 31
0.0
  0
LINE
  5
15499
330
747D
100
AcDbEntity
  8
部品1
100
AcDbLine
 10
6225.299132056665
 20
9444.598915086372
 30
0.0
 11
7117.299132056665
 21
9444.59891508648
 31
0.0
  0
LINE
  5
1549A
330
747D
100
AcDbEntity
  8
部品1
100
AcDbLine
 10
6670.799125379002
 20
9474.098915086285
 30
0.0
 11
6670.799125379002
 21
9446.098915086285
 31
0.0
  0
LINE
  5
1549B
330
747D
100
AcDbEntity
  8
部品1
100
AcDbLine
 10
6670.799125379035
 20
9474.098915086321
 30
0.0
 11
6670.799125379035
 21
9446.098915086322
 31
0.0
  0
LINE
  5
1549C
330
747D
100
AcDbEntity
  8
部品1
 48
5.0
100
AcDbLine
 10
7201.299125379072
 20
9474.098915086445
 30
0.0
 11
7201.299125379067
 21
9446.098915086452
 31
0.0
  0
LINE
  5
1549D
330
747D
100
AcDbEntity
  8
部品1
 48
5.0
100
AcDbLine
 10
7121.008399826242
 20
9474.098915086445
 30
0.0
 11
7143.679828397671
 21
9446.098915086444
 31
0.0
  0
LINE
  5
1549E
330
747D
100
AcDbEntity
  8
部品1
 48
5.0
100
AcDbLine
 10
7091.299125379068
 20
9446.098915086444
 30
0.0
 11
7091.299125379068
 21
9474.098915086445
 31
0.0
  0
LINE
  5
1549F
330
747D
100
AcDbEntity
  8
部品1
 48
5.0
100
AcDbLine
 10
7174.299125379
 20
9419.098915086443
 30
0.0
 11
7118.299125378995
 21
9419.098915086443
 31
0.0
  0
LINE
  5
154A0
330
747D
100
AcDbEntity
  8
部品1
 48
50.0
100
AcDbLine
 10
7116.851732867086
 20
9444.59891508648
 30
0.0
 11
7118.299125378962
 21
9446.098915086407
 31
0.0
  0
LINE
  5
154A1
330
747D
100
AcDbEntity
  8
部品1
 48
50.0
100
AcDbLine
 10
7175.799132056657
 20
9444.598915086372
 30
0.0
 11
7174.299125379035
 21
9446.098915086365
 31
0.0
  0
LINE
  5
155C1
330
747D
100
AcDbEntity
  8
部品1
 48
50.0
100
AcDbLine
 10
6225.299132056665
 20
9444.598915086364
 30
0.0
 11
6225.299132056665
 21
8994.598915086372
 31
0.0
  0
LINE
  5
155C2
330
747D
100
AcDbEntity
  8
部品1
 48
50.0
100
AcDbLine
 10
6167.299132056665
 20
9444.598915086473
 30
0.0
 11
6167.299132056665
 21
8994.598915086474
 31
0.0
  0
LINE
  5
155C3
330
747D
100
AcDbEntity
  8
細線
 48
50.0
100
AcDbLine
 10
6167.299132056665
 20
8994.598915086474
 30
0.0
 11
5275.299132056665
 21
9444.598915086372
 31
0.0
  0
LINE
  5
155C4
330
747D
100
AcDbEntity
  8
細線
 48
50.0
100
AcDbLine
 10
6167.299132056665
 20
9444.598915086473
 30
0.0
 11
5275.299132056665
 21
8994.598915086372
 31
0.0
  0
LINE
  5
155C5
330
747D
100
AcDbEntity
  8
部品1
 48
50.0
100
AcDbLine
 10
6196.29912537905
 20
7999.098915086436
 30
0.0
 11
6196.29912537905
 21
9419.098915086443
 31
0.0
  0
LINE
  5
155C6
330
747D
100
AcDbEntity
  8
部品1
 48
50.0
100
AcDbLine
 10
6168.29912537905
 20
7999.098915086436
 30
0.0
 11
6168.299125378995
 21
9446.098915086444
 31
0.0
  0
LINE
  5
155C7
330
747D
100
AcDbEntity
  8
部品1
 48
50.0
100
AcDbLine
 10
6224.29912537905
 20
7999.098915086436
 30
0.0
 11
6224.299125378995
 21
9474.098915086445
 31
0.0
  0
LINE
  5
155C8
330
747D
100
AcDbEntity
  8
破線
 48
10.0
100
AcDbLine
 10
6117.299125379057
 20
8099.098915086445
 30
0.0
 11
5325.299125379057
 21
8099.098915086429
 31
0.0
  0
LINE
  5
155C9
330
747D
100
AcDbEntity
  8
部品1
100
AcDbLine
 10
6021.29912537906
 20
7970.098915086481
 30
0.0
 11
5291.299125379064
 21
7970.098915086459
 31
0.0
  0
DIMENSION
  5
155CA
330
747D
100
AcDbEntity
  8
寸法
 48
50.0
100
AcDbDimension
  2
*D22
 10
5986.29912537906
 20
7504.275247291317
 30
0.0
 11
5643.799125379064
 21
7504.275247291317
 31
0.0
 70
   160
 71
     5
 42
684.9999999999927
  3
INABA_S40G
100
AcDbAlignedDimension
 13
5301.299125379068
 23
7944.098915086394
 33
0.0
 14
5986.29912537906
 24
7944.098915086357
 34
0.0
100
AcDbRotatedDimension
  0
LINE
  5
155CB
330
747D
100
AcDbEntity
  8
破線
 48
10.0
100
AcDbLine
 10
5301.799121102977
 20
8721.598625360991
 30
0.0
 11
6140.799125379031
 21
8721.598590729161
 31
0.0
  0
LINE
  5
155CC
330
747D
100
AcDbEntity
  8
破線
 48
10.0
100
AcDbLine
 10
5301.799121102977
 20
8771.598625360992
 30
0.0
 11
6140.799125379031
 21
8771.59859072916
 31
0.0
  0
LINE
  5
155CD
330
747D
100
AcDbEntity
  8
部品1
100
AcDbLine
 10
5275.299132056665
 20
8994.598915086372
 30
0.0
 11
6167.299132056665
 21
8994.598915086474
 31
0.0
  0
LINE
  5
155CE
330
747D
100
AcDbEntity
  8
部品1
100
AcDbLine
 10
6140.799125379047
 20
8075.598915086445
 30
0.0
 11
5301.798632125167
 21
8075.598412888972
 31
0.0
  0
LINE
  5
155CF
330
747D
100
AcDbEntity
  8
部品1
 48
5.0
100
AcDbLine
 10
5270.299125379064
 20
7973.598915086379
 30
0.0
 11
6172.299125379065
 21
7973.598915086437
 31
0.0
  0
ARC
  5
155D0
330
747D
100
AcDbEntity
  8
想像線
 48
10.0
100
AcDbCircle
 10
6013.9470747019
 20
7945.793808461999
 30
0.0
 40
722.6499369155536
100
AcDbArc
 50
180.1343808685451
 51
270.5829222700355
  0
LINE
  5
155D1
330
747D
100
AcDbEntity
  8
部品1
 48
50.0
100
AcDbLine
 10
5720.799125379056
 20
8994.598915086422
 30
0.0
 11
5720.798962506953
 21
8075.598082923226
 31
0.0
  0
LINE
  5
155D2
330
747D
100
AcDbEntity
  8
細線
 48
50.0
100
AcDbLine
 10
5415.29912537906
 20
7970.098915086481
 30
0.0
 11
5415.29912537906
 21
7944.098915086434
 31
0.0
  0
LINE
  5
155D3
330
747D
100
AcDbEntity
  8
細線
 48
50.0
100
AcDbLine
 10
5641.29912537906
 20
7970.09891508647
 30
0.0
 11
5641.29912537906
 21
7944.098915086434
 31
0.0
  0
LINE
  5
155D4
330
747D
100
AcDbEntity
  8
細線
 48
50.0
100
AcDbLine
 10
5601.29912537906
 20
7970.09891508647
 30
0.0
 11
5601.29912537906
 21
7944.098915086434
 31
0.0
  0
LINE
  5
155D5
330
747D
100
AcDbEntity
  8
想像線
 48
10.0
100
AcDbLine
 10
6021.29912537906
 20
7944.098915086437
 30
0.0
 11
6021.29912537906
 21
7223.181271430647
 31
0.0
  0
LINE
  5
155D6
330
747D
100
AcDbEntity
  8
破線
 48
10.0
100
AcDbLine
 10
6275.299125379056
 20
8099.098915086452
 30
0.0
 11
6275.299116826405
 21
8721.598619024891
 31
0.0
  0
LINE
  5
155D7
330
747D
100
AcDbEntity
  8
部品1
 48
50.0
100
AcDbLine
 10
6251.79911903476
 20
8075.598915111102
 30
0.0
 11
6251.799122007625
 21
8994.598915086445
 31
0.0
  0
LINE
  5
155D8
330
747D
100
AcDbEntity
  8
部品1
 48
50.0
100
AcDbLine
 10
6140.799125379047
 20
8075.598915086445
 30
0.0
 11
6140.799125379024
 21
8994.598915086504
 31
0.0
  0
LINE
  5
155D9
330
747D
100
AcDbEntity
  8
破線
 48
10.0
100
AcDbLine
 10
6117.299125379057
 20
8099.098915086445
 30
0.0
 11
6117.29911963109
 21
8721.598591699182
 31
0.0
  0
LINE
  5
155DA
330
747D
100
AcDbEntity
  8
細線
 48
50.0
100
AcDbLine
 10
5868.29912537906
 20
7970.098915086684
 30
0.0
 11
5868.29912537906
 21
7944.098915086648
 31
0.0
  0
LINE
  5
155DB
330
747D
100
AcDbEntity
  8
細線
 48
50.0
100
AcDbLine
 10
5828.299125379061
 20
7970.098915086684
 30
0.0
 11
5828.299125379061
 21
7944.098915086648
 31
0.0
  0
LINE
  5
155DC
330
747D
100
AcDbEntity
  8
部品1
100
AcDbLine
 10
6021.29912537906
 20
7970.098915086488
 30
0.0
 11
6021.29912537906
 21
7944.09891508643
 31
0.0
  0
ARC
  5
155DD
330
747D
100
AcDbEntity
  8
部品1
 48
0.2
100
AcDbCircle
 10
6013.361573207742
 20
7945.096545041659
 30
0.0
 40
8.0
100
AcDbArc
 50
270.0
 51
352.8363522778074
  0
ARC
  5
155DE
330
747D
100
AcDbEntity
  8
細線
 48
0.2
100
AcDbCircle
 10
6013.361573207742
 20
7945.096545041659
 30
0.0
 40
4.049999999999999
100
AcDbArc
 50
194.2603506853988
 51
345.7396493146012
  0
LINE
  5
155DF
330
747D
100
AcDbEntity
  8
部品1
 48
0.2
100
AcDbLine
 10
6008.361573207742
 20
7937.096545041659
 30
0.0
 11
6013.361573207742
 21
7937.096545041659
 31
0.0
  0
LINE
  5
155E0
330
747D
100
AcDbEntity
  8
部品1
 48
5.0
100
AcDbLine
 10
6023.299125379065
 20
7973.598915086437
 30
0.0
 11
6023.299125379065
 21
7944.098915086437
 31
0.0
  0
ARC
  5
155E1
330
747D
100
AcDbEntity
  8
部品1
 48
0.2
100
AcDbCircle
 10
6008.361573207742
 20
7945.096545041659
 30
0.0
 40
8.0
100
AcDbArc
 50
187.1636477221926
 51
269.9999999999992
  0
LINE
  5
155E2
330
747D
100
AcDbEntity
  8
部品1
 48
50.0
100
AcDbLine
 10
6251.799125379046
 20
8075.598915111109
 30
0.0
 11
6224.29912537905
 21
8047.598915086437
 31
0.0
  0
LINE
  5
155E3
330
747D
100
AcDbEntity
  8
部品1
 48
5.0
100
AcDbLine
 10
6228.299125379064
 20
7999.098915086436
 30
0.0
 11
6251.299125379064
 21
7999.098915086436
 31
0.0
  0
LINE
  5
155E4
330
747D
100
AcDbEntity
  8
部品1
 48
50.0
100
AcDbLine
 10
6168.29912537905
 20
8047.598915086437
 30
0.0
 11
6140.799125379047
 21
8075.598915086445
 31
0.0
  0
LINE
  5
155E5
330
747D
100
AcDbEntity
  8
部品1
 48
5.0
100
AcDbLine
 10
6168.29912537905
 20
7999.098915086436
 30
0.0
 11
6224.29912537905
 21
7999.098915086436
 31
0.0
  0
LINE
  5
155E6
330
747D
100
AcDbEntity
  8
部品1
 48
5.0
100
AcDbLine
 10
6164.299125379064
 20
7999.098915086436
 30
0.0
 11
6141.299125379064
 21
7999.098915086436
 31
0.0
  0
LINE
  5
155E7
330
747D
100
AcDbEntity
  8
部品1
100
AcDbLine
 10
6239.299125379064
 20
7973.598915086386
 30
0.0
 11
6239.299125379064
 21
7944.098915086437
 31
0.0
  0
LINE
  5
155E8
330
747D
100
AcDbEntity
  8
部品1
100
AcDbLine
 10
6241.299125379061
 20
7970.09891508643
 30
0.0
 11
6241.299125379061
 21
7944.098915086437
 31
0.0
  0
LINE
  5
155E9
330
747D
100
AcDbEntity
  8
部品1
 48
5.0
100
AcDbLine
 10
6239.299125379064
 20
7973.598915086437
 30
0.0
 11
6239.299125379064
 21
7944.098915086437
 31
0.0
  0
LINE
  5
155EA
330
747D
100
AcDbEntity
  8
部品1
100
AcDbLine
 10
6153.29912537906
 20
7973.598915086379
 30
0.0
 11
6153.29912537906
 21
7944.09891508643
 31
0.0
  0
LINE
  5
155EB
330
747D
100
AcDbEntity
  8
部品1
 48
5.0
100
AcDbLine
 10
6153.299125379064
 20
7973.598915086437
 30
0.0
 11
6153.299125379064
 21
7944.098915086437
 31
0.0
  0
LINE
  5
155EC
330
747D
100
AcDbEntity
  8
部品1
 48
5.0
100
AcDbLine
 10
6153.299125379064
 20
7944.098915086437
 30
0.0
 11
6239.299125379064
 21
7944.098915086437
 31
0.0
  0
LINE
  5
155ED
330
747D
100
AcDbEntity
  8
部品1
 48
5.0
100
AcDbLine
 10
6220.299125379067
 20
7999.098915086436
 30
0.0
 11
6220.299125379064
 21
7973.598915086437
 31
0.0
  0
LINE
  5
155EE
330
747D
100
AcDbEntity
  8
部品1
 48
5.0
100
AcDbLine
 10
6172.299125379065
 20
7999.098915086436
 30
0.0
 11
6172.299125379065
 21
7973.598915086437
 31
0.0
  0
LINE
  5
155EF
330
747D
100
AcDbEntity
  8
部品1
 48
5.0
100
AcDbLine
 10
6141.299125379064
 20
7999.098915086436
 30
0.0
 11
6141.299125379068
 21
7973.598915086437
 31
0.0
  0
LINE
  5
155F0
330
747D
100
AcDbEntity
  8
部品1
 48
5.0
100
AcDbLine
 10
6251.299125379064
 20
7999.098915086436
 30
0.0
 11
6251.299125379068
 21
7973.598915086437
 31
0.0
  0
LINE
  5
155F1
330
747D
100
AcDbEntity
  8
破線
 48
10.0
100
AcDbLine
 10
6275.299116157708
 20
8771.598619024896
 30
0.0
 11
6275.299112947945
 21
8994.598915086445
 31
0.0
  0
LINE
  5
155F2
330
747D
100
AcDbEntity
  8
破線
 48
10.0
100
AcDbLine
 10
6117.299119181677
 20
8771.598591699181
 30
0.0
 11
6117.299117024504
 21
8994.598915086504
 31
0.0
  0
LINE
  5
155F3
330
747D
100
AcDbEntity
  8
部品1
 48
5.0
100
AcDbLine
 10
6196.29912537905
 20
8419.098915086436
 30
0.0
 11
6168.299125378995
 21
8419.098915086443
 31
0.0
  0
LINE
  5
155F4
330
747D
100
AcDbEntity
  8
部品1
 48
50.0
100
AcDbLine
 10
6196.299125379039
 20
8999.098915086445
 30
0.0
 11
6224.299125379024
 21
8999.098915086445
 31
0.0
  0
LINE
  5
155F5
330
747D
100
AcDbEntity
  8
部品1
 48
5.0
100
AcDbLine
 10
6196.29912537905
 20
8999.098915086436
 30
0.0
 11
6168.299125378995
 21
8999.098915086445
 31
0.0
  0
LINE
  5
155F6
330
747D
100
AcDbEntity
  8
部品1
 48
50.0
100
AcDbLine
 10
6196.299125379039
 20
9037.098915086444
 30
0.0
 11
6224.299125379024
 21
9037.098915086444
 31
0.0
  0
LINE
  5
155F7
330
747D
100
AcDbEntity
  8
部品1
100
AcDbLine
 10
5275.299132056665
 20
9444.598915086372
 30
0.0
 11
6167.299132056665
 21
9444.59891508648
 31
0.0
  0
LINE
  5
155F8
330
747D
100
AcDbEntity
  8
部品1
100
AcDbLine
 10
5274.299125379017
 20
9446.098915086421
 30
0.0
 11
6193.679828397671
 21
9446.098915086444
 31
0.0
  0
DIMENSION
  5
155F9
330
747D
100
AcDbEntity
  8
寸法
100
AcDbDimension
  2
*D24
 10
6141.299125379068
 20
9689.907134711498
 30
0.0
 11
5721.299125379068
 21
9689.907134711498
 31
0.0
 70
   160
  1
2X420=<>
 71
     5
 42
840.0
  3
INABA_S40G
100
AcDbAlignedDimension
 13
5301.299125379068
 23
9474.098915086429
 33
0.0
 14
6141.299125379068
 24
9474.098915086518
 34
0.0
100
AcDbRotatedDimension
1001
ACAD
1000
DSTYLE
1002
{
1002
}
  0
LINE
  5
155FA
330
747D
100
AcDbEntity
  8
部品1
100
AcDbLine
 10
5720.799125379035
 20
9474.098915086321
 30
0.0
 11
5720.799125379035
 21
9446.098915086322
 31
0.0
  0
LINE
  5
155FB
330
747D
100
AcDbEntity
  8
部品1
100
AcDbLine
 10
5720.799125379002
 20
9474.098915086285
 30
0.0
 11
5720.799125379002
 21
9446.098915086285
 31
0.0
  0
DIMENSION
  5
155FC
330
747D
100
AcDbEntity
  8
寸法
 48
50.0
100
AcDbDimension
  2
*D23
 10
6251.299125379071
 20
9689.907134711498
 30
0.0
 11
6196.299125379072
 21
9941.640475660895
 31
0.0
 70
   160
 71
     5
 42
110.0000000000036
  3
INABA_S40G
100
AcDbAlignedDimension
 13
6141.299125379068
 23
9474.098915086518
 33
0.0
 14
6251.299125379071
 24
9474.098915086495
 34
0.0
100
AcDbRotatedDimension
1001
ACAD
1000
DSTYLE
1002
{
1070
   279
1070
     2
1002
}
  0
LINE
  5
155FD
330
747D
100
AcDbEntity
  8
部品1
 48
5.0
100
AcDbLine
 10
6141.299125379068
 20
9446.098915086444
 30
0.0
 11
6141.299125379068
 21
9474.098915086445
 31
0.0
  0
LINE
  5
155FE
330
747D
100
AcDbEntity
  8
部品1
 48
5.0
100
AcDbLine
 10
6171.008399826241
 20
9474.098915086445
 30
0.0
 11
6193.679828397671
 21
9446.098915086444
 31
0.0
  0
LINE
  5
155FF
330
747D
100
AcDbEntity
  8
部品1
 48
5.0
100
AcDbLine
 10
6251.299125379071
 20
9474.098915086445
 30
0.0
 11
6251.299125379068
 21
9446.098915086452
 31
0.0
  0
LINE
  5
15600
330
747D
100
AcDbEntity
  8
部品1
 48
50.0
100
AcDbLine
 10
6225.799132056658
 20
9444.598915086372
 30
0.0
 11
6224.299125379035
 21
9446.098915086365
 31
0.0
  0
LINE
  5
15601
330
747D
100
AcDbEntity
  8
部品1
 48
50.0
100
AcDbLine
 10
6166.851732867086
 20
9444.59891508648
 30
0.0
 11
6168.299125378962
 21
9446.098915086407
 31
0.0
  0
LINE
  5
15602
330
747D
100
AcDbEntity
  8
部品1
 48
5.0
100
AcDbLine
 10
6224.299125378998
 20
9419.098915086443
 30
0.0
 11
6168.299125378995
 21
9419.098915086443
 31
0.0
  0
TEXT
  5
15DBD
330
747D
100
AcDbEntity
  8
文字
 62
     7
 48
50.0
100
AcDbText
 10
13583.11819016568
 20
9060.013745883729
 30
0.0
 40
100.0
  1
脇パネル
  7
STYLE1
100
AcDbText
  0
TEXT
  5
15DBE
330
747D
100
AcDbEntity
  8
文字
 62
     7
 48
50.0
100
AcDbText
 10
15022.63965474515
 20
9060.013745883725
 30
0.0
 40
100.0
  1
F12            0.6
  7
STYLE1
100
AcDbText
  0
TEXT
  5
15DBF
330
747D
100
AcDbEntity
  8
文字
 62
     7
 48
50.0
100
AcDbText
 10
13248.77747366447
 20
8550.013745883735
 30
0.0
 40
100.0
  1
16
  7
STYLE1
100
AcDbText
  0
LINE
  5
15DC0
330
747D
100
AcDbEntity
  8
仕様書枠
 48
50.0
100
AcDbLine
 10
16307.19999999997
 20
8179.600000000007
 30
0.0
 11
13127.19999999997
 21
8179.600000000007
 31
0.0
  0
DIMENSION
  5
15DC1
330
747D
100
AcDbEntity
  8
寸法
100
AcDbDimension
  2
*D25
 10
10831.20794724722
 20
3202.909735000506
 30
0.0
 11
10831.20794724722
 21
4107.94474687689
 31
0.0
 70
   160
 71
     5
 42
1789.999999999996
  3
INABA_S40G
100
AcDbAlignedDimension
 13
11426.16866789465
 23
4992.909735000502
 33
0.0
 14
11426.16866789465
 24
3202.909735000505
 34
0.0
 50
90.0
100
AcDbRotatedDimension
1001
ACAD
1000
DSTYLE
1002
{
1070
   288
1070
     1
1002
}
  0
LINE
  5
15DC2
330
747D
100
AcDbEntity
  8
部品1
 48
50.0
100
AcDbLine
 10
11426.16866789465
 20
3202.909735000505
 30
0.0
 11
11433.17103793943
 21
3202.909735000505
 31
0.0
  0
LINE
  5
15DC3
330
747D
100
AcDbEntity
  8
部品1
 48
0.2
100
AcDbLine
 10
11426.16866789465
 20
3213.659735000505
 30
0.0
 11
11426.16866789465
 21
3202.909735000505
 31
0.0
  0
LINE
  5
15DC4
330
747D
100
AcDbEntity
  8
部品1
 48
50.0
100
AcDbLine
 10
11426.16866789465
 20
3213.659735000505
 30
0.0
 11
11433.17103793943
 21
3213.659735000505
 31
0.0
  0
LINE
  5
15DC5
330
747D
100
AcDbEntity
  8
部品1
 48
50.0
100
AcDbLine
 10
11426.16866789465
 20
4982.159735000501
 30
0.0
 11
11433.17103793943
 21
4982.159735000501
 31
0.0
  0
LINE
  5
15DC6
330
747D
100
AcDbEntity
  8
部品1
 48
0.2
100
AcDbLine
 10
11426.16866789465
 20
4992.909735000502
 30
0.0
 11
11426.16866789465
 21
4982.159735000504
 31
0.0
  0
LINE
  5
15DC7
330
747D
100
AcDbEntity
  8
部品1
 48
50.0
100
AcDbLine
 10
12048.17103793943
 20
5358.777874101781
 30
0.0
 11
12348.17103793943
 21
5337.177874101783
 31
0.0
  0
LINE
  5
15DC8
330
747D
100
AcDbEntity
  8
細線
 48
50.0
100
AcDbLine
 10
12565.67103793943
 20
4992.909735000502
 30
0.0
 11
12565.67103793943
 21
3202.909735000502
 31
0.0
  0
LINE
  5
15DC9
330
747D
100
AcDbEntity
  8
細線
 48
50.0
100
AcDbLine
 10
12550.67103793943
 20
4992.909735000502
 30
0.0
 11
12550.67103793943
 21
3202.909735000502
 31
0.0
  0
LINE
  5
15DCA
330
747D
100
AcDbEntity
  8
細線
 48
50.0
100
AcDbLine
 10
12690.67103793943
 20
4992.909735000502
 30
0.0
 11
12690.67103793943
 21
3202.909735000502
 31
0.0
  0
LINE
  5
15DCB
330
747D
100
AcDbEntity
  8
細線
 48
50.0
100
AcDbLine
 10
12705.67103793943
 20
4992.909735000502
 30
0.0
 11
12705.67103793943
 21
3202.909735000502
 31
0.0
  0
LINE
  5
15DCC
330
747D
100
AcDbEntity
  8
細線
 48
50.0
100
AcDbLine
 10
12845.67103793943
 20
4992.909735000502
 30
0.0
 11
12845.67103793943
 21
3202.909735000502
 31
0.0
  0
LINE
  5
15DCD
330
747D
100
AcDbEntity
  8
細線
 48
50.0
100
AcDbLine
 10
12830.67103793943
 20
4992.909735000502
 30
0.0
 11
12830.67103793943
 21
3202.909735000502
 31
0.0
  0
LINE
  5
15DCE
330
747D
100
AcDbEntity
  8
部品1
100
AcDbLine
 10
12488.17103793943
 20
4992.909735000502
 30
0.0
 11
12488.17103793943
 21
3202.909735000502
 31
0.0
  0
TEXT
  5
15DCF
330
747D
100
AcDbEntity
  8
部品1
 48
50.0
100
AcDbText
 10
12525.26388522729
 20
5257.160638035932
 30
0.0
 40
120.0
  1
64
 50
90.0
  7
STYLE1
100
AcDbText
  0
TEXT
  5
15DD0
330
747D
100
AcDbEntity
  8
部品1
 48
50.0
100
AcDbText
 10
12036.43887316315
 20
5394.661896254214
 30
0.0
 40
120.0
  1
1000
  7
STYLE1
100
AcDbText
  0
LINE
  5
15DD1
330
747D
100
AcDbEntity
  8
部品1
 48
50.0
100
AcDbLine
 10
12348.17103793943
 20
5358.777874101781
 30
0.0
 11
12348.17103793943
 21
5337.177874101783
 31
0.0
  0
LINE
  5
15DD2
330
747D
100
AcDbEntity
  8
部品1
 48
50.0
100
AcDbLine
 10
12048.17103793943
 20
5358.777874101781
 30
0.0
 11
12348.17103793943
 21
5358.777874101781
 31
0.0
  0
DIMENSION
  5
15DD3
330
747D
100
AcDbEntity
  8
寸法
 48
50.0
100
AcDbDimension
  2
*D26
 10
10780.90478622805
 20
5249.732225897316
 30
0.0
 11
10789.58252987993
 21
5479.568464914206
 31
0.0
 70
   160
 71
     5
 42
141.0
  3
INABA_S40G
100
AcDbAlignedDimension
 13
11388.51360254138
 23
5085.690760069468
 33
0.0
 14
11393.83343669334
 24
5226.590367466351
 34
0.0
 50
87.83775598715743
100
AcDbRotatedDimension
1001
ACAD
1000
DSTYLE
1002
{
1070
   174
1070
     0
1070
   272
1070
     1
1070
   288
1070
     0
1070
   341
1005
0
1002
}
  0
DIMENSION
  5
15DD4
330
747D
100
AcDbEntity
  8
寸法
 48
50.0
100
AcDbDimension
  2
*D27
 10
13043.17103793943
 20
5626.567188579805
 30
0.0
 11
13249.21828203392
 21
5626.567188579805
 31
0.0
 70
   160
 71
     5
 42
80.0
  3
INABA_S40G
100
AcDbAlignedDimension
 13
12963.17103793943
 23
5174.720414612155
 33
0.0
 14
13043.17103793943
 24
5172.909735000503
 34
0.0
100
AcDbRotatedDimension
1001
ACAD
1000
DSTYLE
1002
{
1070
   174
1070
     0
1070
   272
1070
     1
1070
   288
1070
     0
1070
   341
1005
0
1002
}
  0
ARC
  5
15DD5
330
747D
100
AcDbEntity
  8
部品1
100
AcDbCircle
 10
13028.79857375336
 20
5066.34353588472
 30
0.0
 40
0.7
100
AcDbArc
 50
275.0921697642102
 51
354.1866997667606
  0
ARC
  5
15DD6
330
747D
100
AcDbEntity
  8
部品1
100
AcDbCircle
 10
13039.65791950268
 20
5143.386790702643
 30
0.0
 40
0.7
100
AcDbArc
 50
275.0921697642102
 51
354.1866997665532
  0
ARC
  5
15DD7
330
747D
100
AcDbEntity
  8
部品1
100
AcDbCircle
 10
13039.98632474529
 20
5139.701393845553
 30
0.0
 40
3.0
100
AcDbArc
 50
95.0921697642102
 51
174.1866997665532
  0
ARC
  5
15DD8
330
747D
100
AcDbEntity
  8
部品1
100
AcDbCircle
 10
13029.12697899596
 20
5062.65813902763
 30
0.0
 40
3.0
100
AcDbArc
 50
95.0921697642102
 51
174.1866997665532
  0
ARC
  5
15DD9
330
747D
100
AcDbEntity
  8
部品1
 48
50.0
100
AcDbCircle
 10
13018.09884372086
 20
5053.067394423748
 30
0.0
 40
7.0
100
AcDbArc
 50
267.8377559869492
 51
354.1866997665532
  0
ARC
  5
15DDA
330
747D
100
AcDbEntity
  8
部品1
 48
50.0
100
AcDbCircle
 10
13035.42094018537
 20
5163.96994156592
 30
0.0
 40
7.0
100
AcDbArc
 50
354.1866997665532
 51
87.03587545283093
  0
LINE
  5
15DDB
330
747D
100
AcDbEntity
  8
部品1
 48
50.0
100
AcDbLine
 10
13026.14240732535
 20
5062.962000744532
 30
0.0
 11
13025.06284428561
 21
5052.358383750974
 31
0.0
  0
LINE
  5
15DDC
330
747D
100
AcDbEntity
  8
部品1
 48
50.0
100
AcDbLine
 10
13037.00175307467
 20
5140.005255562456
 30
0.0
 11
13029.49497380984
 21
5066.272634817444
 31
0.0
  0
LINE
  5
15DDD
330
747D
100
AcDbEntity
  8
部品1
 48
50.0
100
AcDbLine
 10
13042.38494075013
 20
5163.260930893146
 30
0.0
 11
13040.35431955916
 21
5143.315889635365
 31
0.0
  0
ARC
  5
15DDE
330
747D
100
AcDbEntity
  8
部品1
100
AcDbCircle
 10
11379.20812981079
 20
5106.723893959406
 30
0.0
 40
0.7
100
AcDbArc
 50
181.0932240292114
 51
260.1877540314845
  0
ARC
  5
15DDF
330
747D
100
AcDbEntity
  8
部品1
100
AcDbCircle
 10
11374.43545621318
 20
5199.589672159525
 30
0.0
 40
0.7
100
AcDbArc
 50
181.0932240292114
 51
260.1877540314845
  0
ARC
  5
15DE0
330
747D
100
AcDbEntity
  8
部品1
100
AcDbCircle
 10
11373.80490181016
 20
5195.943797622128
 30
0.0
 40
3.0
100
AcDbArc
 50
1.093224029315636
 51
80.18775403169875
  0
ARC
  5
15DE1
330
747D
100
AcDbEntity
  8
部品1
100
AcDbCircle
 10
11378.57757540777
 20
5103.078019422008
 30
0.0
 40
3.0
100
AcDbArc
 50
1.093224029315636
 51
80.18775403148449
  0
ARC
  5
15DE2
330
747D
100
AcDbEntity
  8
部品1
 48
50.0
100
AcDbCircle
 10
11388.77770778297
 20
5092.685776039527
 30
0.0
 40
7.0
100
AcDbArc
 50
181.0932240293156
 51
267.8377559869492
  0
ARC
  5
15DE3
330
747D
100
AcDbEntity
  8
部品1
 48
50.0
100
AcDbCircle
 10
11380.35404968087
 20
5219.636835572623
 30
0.0
 40
7.0
100
AcDbArc
 50
87.03587545283093
 51
181.0932240293156
  0
LINE
  5
15DE4
330
747D
100
AcDbEntity
  8
部品1
 48
50.0
100
AcDbLine
 10
11381.5770293342
 20
5103.135257025191
 30
0.0
 11
11381.77898195463
 21
5092.552221632098
 31
0.0
  0
LINE
  5
15DE5
330
747D
100
AcDbEntity
  8
細線
 48
50.0
100
AcDbLine
 10
11378.97093627753
 20
5106.065305144
 30
0.0
 11
13028.97460070816
 21
5065.666029787932
 31
0.0
  0
LINE
  5
15DE6
330
747D
100
AcDbEntity
  8
細線
 48
50.0
100
AcDbLine
 10
11374.21046104024
 20
5198.926816841864
 30
0.0
 11
13039.84644578541
 21
5142.712655819462
 31
0.0
  0
LINE
  5
15DE7
330
747D
100
AcDbEntity
  8
部品1
 48
50.0
100
AcDbLine
 10
11376.80435573659
 20
5196.001035225311
 30
0.0
 11
11378.50825722796
 21
5106.710538518664
 31
0.0
  0
LINE
  5
15DE8
330
747D
100
AcDbEntity
  8
部品1
 48
50.0
100
AcDbLine
 10
11373.35532385253
 20
5219.503281165195
 30
0.0
 11
11373.73558363035
 21
5199.576316718783
 31
0.0
  0
LINE
  5
15DE9
330
747D
100
AcDbEntity
  8
細線
 48
50.0
100
AcDbLine
 10
13010.17103793943
 20
5172.286757654223
 30
0.0
 11
13005.42335505143
 21
5046.540985163479
 31
0.0
  0
LINE
  5
15DEA
330
747D
100
AcDbEntity
  8
細線
 48
50.0
100
AcDbLine
 10
11406.17103793943
 20
5225.309411375906
 30
0.0
 11
11400.88193638392
 21
5085.223778748552
 31
0.0
  0
LINE
  5
15DEB
330
747D
100
AcDbEntity
  8
部品1
100
AcDbLine
 10
11388.51360254138
 20
5085.690760069468
 30
0.0
 11
13017.83473847927
 21
5046.07237845369
 31
0.0
  0
LINE
  5
15DEC
330
747D
100
AcDbEntity
  8
部品1
100
AcDbLine
 10
11380.71602429639
 20
5226.627470334769
 30
0.0
 11
13035.78291480089
 21
5170.960576328067
 31
0.0
  0
LINE
  5
15DED
330
747D
100
AcDbEntity
  8
細線
 48
50.0
100
AcDbLine
 10
11565.67103793943
 20
4992.909735000502
 30
0.0
 11
11565.67103793943
 21
3202.909735000502
 31
0.0
  0
LINE
  5
15DEE
330
747D
100
AcDbEntity
  8
細線
 48
50.0
100
AcDbLine
 10
11550.67103793943
 20
4992.909735000502
 30
0.0
 11
11550.67103793943
 21
3202.909735000502
 31
0.0
  0
LINE
  5
15DEF
330
747D
100
AcDbEntity
  8
細線
 48
50.0
100
AcDbLine
 10
11690.67103793943
 20
4992.909735000502
 30
0.0
 11
11690.67103793943
 21
3202.909735000502
 31
0.0
  0
LINE
  5
15DF0
330
747D
100
AcDbEntity
  8
細線
 48
50.0
100
AcDbLine
 10
11705.67103793943
 20
4992.909735000502
 30
0.0
 11
11705.67103793943
 21
3202.909735000502
 31
0.0
  0
LINE
  5
15DF1
330
747D
100
AcDbEntity
  8
細線
 48
50.0
100
AcDbLine
 10
11845.67103793943
 20
4992.909735000502
 30
0.0
 11
11845.67103793943
 21
3202.909735000502
 31
0.0
  0
LINE
  5
15DF2
330
747D
100
AcDbEntity
  8
細線
 48
50.0
100
AcDbLine
 10
11830.67103793943
 20
4992.909735000502
 30
0.0
 11
11830.67103793943
 21
3202.909735000502
 31
0.0
  0
LINE
  5
15DF3
330
747D
100
AcDbEntity
  8
細線
 48
50.0
100
AcDbLine
 10
12408.17103793943
 20
4992.909735000502
 30
0.0
 11
12408.17103793943
 21
3202.909735000502
 31
0.0
  0
LINE
  5
15DF4
330
747D
100
AcDbEntity
  8
細線
 48
50.0
100
AcDbLine
 10
12423.17103793943
 20
4992.909735000502
 30
0.0
 11
12423.17103793943
 21
3202.909735000502
 31
0.0
  0
LWPOLYLINE
  5
15DF5
330
747D
100
AcDbEntity
  8
部品1
100
AcDbPolyline
 90
        4
 70
     1
 43
0.0
 10
11746.43570482521
 20
2449.833154183786
 10
11746.43570482521
 20
2209.940832638253
 10
12509.90637105365
 20
2209.940832638253
 10
12509.90637105365
 20
2449.833154183786
  0
TEXT
  5
15DF6
330
747D
100
AcDbEntity
  8
部品1
100
AcDbText
 10
11835.88180624882
 20
2256.93962496526
 30
0.0
 40
135.0
  1
側面図
  7
STYLE2
100
AcDbText
  0
LINE
  5
15DF7
330
747D
100
AcDbEntity
  8
部品1
100
AcDbLine
 10
11433.17103793943
 20
3152.909735000503
 30
0.0
 11
12963.17103793943
 21
3152.909735000501
 31
0.0
  0
DIMENSION
  5
15DF8
330
747D
100
AcDbEntity
  8
寸法
 48
50.0
100
AcDbDimension
  2
*D28
 10
11373.17103793943
 20
5834.741509771769
 30
0.0
 11
12260.29586764125
 21
5834.741509771769
 31
0.0
 70
   160
 71
     5
 42
1670.0
  3
INABA_S40G
100
AcDbAlignedDimension
 13
13043.17103793943
 23
5172.909735000503
 33
0.0
 14
11373.17103793943
 24
5227.909735000507
 34
0.0
100
AcDbRotatedDimension
1001
ACAD
1000
DSTYLE
1002
{
1070
   174
1070
     0
1070
   272
1070
     1
1070
   288
1070
     0
1070
   341
1005
0
1002
}
  0
DIMENSION
  5
15DF9
330
747D
100
AcDbEntity
  8
寸法
 48
50.0
100
AcDbDimension
  2
*D29
 10
11373.17103793943
 20
5626.567188579805
 30
0.0
 11
11063.53324266384
 21
5626.567188579805
 31
0.0
 70
   160
 71
     5
 42
60.0
  3
INABA_S40G
100
AcDbAlignedDimension
 13
11433.17103793943
 23
5223.911353123478
 33
0.0
 14
11373.17103793943
 24
5227.909735000507
 34
0.0
100
AcDbRotatedDimension
1001
ACAD
1000
DSTYLE
1002
{
1070
   174
1070
     0
1070
   272
1070
     1
1070
   288
1070
     0
1070
   341
1005
0
1002
}
  0
DIMENSION
  5
15DFA
330
747D
100
AcDbEntity
  8
寸法
 48
50.0
100
AcDbDimension
  2
*D30
 10
11433.17103793943
 20
5626.567188579805
 30
0.0
 11
12242.99007082997
 21
5626.567188579805
 31
0.0
 70
   160
  1
柱外寸法<>
 71
     5
 42
1530.0
  3
INABA_S40G
100
AcDbAlignedDimension
 13
12963.17103793943
 23
5174.720414612155
 33
0.0
 14
11433.17103793943
 24
5223.911353123478
 34
0.0
100
AcDbRotatedDimension
1001
ACAD
1000
DSTYLE
1002
{
1070
   174
1070
     0
1070
   272
1070
     1
1070
   288
1070
     0
1070
   341
1005
0
1002
}
  0
DIMENSION
  5
15DFB
330
747D
100
AcDbEntity
  8
寸法
100
AcDbDimension
  2
*D31
 10
13668.09819591155
 20
5172.909735000503
 30
0.0
 11
13568.08638488793
 21
4162.909735000504
 31
0.0
 70
    32
 71
     5
 42
2020.0
  3
INABA_S40G
100
AcDbAlignedDimension
 13
12963.17103793943
 23
3152.909735000504
 33
0.0
 14
13043.17103793943
 24
5172.909735000503
 34
0.0
 50
90.0
100
AcDbRotatedDimension
1001
ACAD
1000
DSTYLE
1002
{
1070
   174
1070
     0
1070
   272
1070
     1
1070
   288
1070
     0
1070
   341
1005
0
1002
}
  0
LINE
  5
15DFC
330
747D
100
AcDbEntity
  8
部品1
100
AcDbLine
 10
12908.17103793943
 20
4992.909735000502
 30
0.0
 11
12908.17103793943
 21
3202.909735000502
 31
0.0
  0
LINE
  5
15DFD
330
747D
100
AcDbEntity
  8
部品1
100
AcDbLine
 10
12963.17103793943
 20
5047.546315835754
 30
0.0
 11
12963.17103793943
 21
3052.909735000501
 31
0.0
  0
LINE
  5
15DFE
330
747D
100
AcDbEntity
  8
部品1
100
AcDbLine
 10
11908.17103793943
 20
4992.909735000502
 30
0.0
 11
11908.17103793943
 21
3202.909735000502
 31
0.0
  0
DIMENSION
  5
15DFF
330
747D
100
AcDbEntity
  8
寸法
100
AcDbDimension
  2
*D32
 10
10831.20794724722
 20
3152.909735000504
 30
0.0
 11
10831.20794724722
 21
2846.862490906013
 31
0.0
 70
   160
 71
     5
 42
50.00000000000182
  3
INABA_S40G
100
AcDbAlignedDimension
 13
11426.16866789465
 23
3202.909735000505
 33
0.0
 14
11378.17103793943
 24
3152.909735000504
 34
0.0
 50
90.0
100
AcDbRotatedDimension
1001
ACAD
1000
DSTYLE
1002
{
1070
   174
1070
     0
1070
   272
1070
     1
1070
   288
1070
     0
1070
   341
1005
0
1002
}
  0
DIMENSION
  5
15E00
330
747D
100
AcDbEntity
  8
寸法
100
AcDbDimension
  2
*D33
 10
10528.89922629895
 20
5227.909735000507
 30
0.0
 11
10528.89922629895
 21
4128.116725420304
 31
0.0
 70
   160
 71
     5
 42
2075.000000000003
  3
INABA_S40G
100
AcDbAlignedDimension
 13
11433.17103793943
 23
3152.909735000504
 33
0.0
 14
11373.17103793943
 24
5227.909735000507
 34
0.0
 50
90.0
100
AcDbRotatedDimension
1001
ACAD
1000
DSTYLE
1002
{
1070
   174
1070
     0
1070
   272
1070
     1
1070
   288
1070
     0
1070
   341
1005
0
1002
}
  0
LINE
  5
15E01
330
747D
100
AcDbEntity
  8
部品1
100
AcDbLine
 10
11433.17103793943
 20
5084.486628940943
 30
0.0
 11
11433.17103793943
 21
3052.909735000501
 31
0.0
  0
LINE
  5
15E02
330
747D
100
AcDbEntity
  8
部品1
100
AcDbLine
 10
11488.17103793942
 20
4992.909735000502
 30
0.0
 11
11488.17103793942
 21
3202.909735000502
 31
0.0
  0
LINE
  5
15E03
330
747D
100
AcDbEntity
  8
部品1
100
AcDbLine
 10
11433.17103793943
 20
3202.909735000502
 30
0.0
 11
12963.17103793943
 21
3202.909735000503
 31
0.0
  0
LINE
  5
15E04
330
747D
100
AcDbEntity
  8
部品1
100
AcDbLine
 10
11426.16866789465
 20
4992.909735000503
 30
0.0
 11
12963.17103793943
 21
4992.909735000502
 31
0.0
  0
TEXT
  5
15E05
330
747D
100
AcDbEntity
  8
文字
 62
     7
 48
50.0
100
AcDbText
 10
13583.1181901657
 20
9570.013745883729
 30
0.0
 40
100.0
  1
母屋中
  7
STYLE1
100
AcDbText
  0
TEXT
  5
15E06
330
747D
100
AcDbEntity
  8
文字
 62
     7
 48
50.0
100
AcDbText
 10
15022.63965474518
 20
9570.013745883725
 30
0.0
 40
100.0
  1
F12            1.0
  7
STYLE1
100
AcDbText
  0
TEXT
  5
15E07
330
747D
100
AcDbEntity
  8
文字
 62
     7
 48
50.0
100
AcDbText
 10
13248.77747366447
 20
8890.013745883731
 30
0.0
 40
100.0
  1
14
  7
STYLE1
100
AcDbText
  0
LINE
  5
15E08
330
747D
100
AcDbEntity
  8
仕様書枠
 48
50.0
100
AcDbLine
 10
16307.2
 20
9539.6
 30
0.0
 11
13127.2
 21
9539.6
 31
0.0
  0
TEXT
  5
15E09
330
747D
100
AcDbEntity
  8
文字
 62
     7
 48
50.0
100
AcDbText
 10
13583.11819016567
 20
8720.013745883733
 30
0.0
 40
100.0
  1
棚板
  7
STYLE1
100
AcDbText
  0
TEXT
  5
15E0A
330
747D
100
AcDbEntity
  8
文字
 62
     7
 48
50.0
100
AcDbText
 10
15022.63965474513
 20
8720.013745883729
 30
0.0
 40
100.0
  1
F12            0.6
  7
STYLE1
100
AcDbText
  0
TEXT
  5
15E0B
330
747D
100
AcDbEntity
  8
文字
 62
     7
 48
50.0
100
AcDbText
 10
13583.11819016567
 20
8890.013745883729
 30
0.0
 40
100.0
  1
扉
  7
STYLE1
100
AcDbText
  0
TEXT
  5
15E0C
330
747D
100
AcDbEntity
  8
文字
 62
     7
 48
50.0
100
AcDbText
 10
15022.63965474513
 20
8890.013745883726
 30
0.0
 40
100.0
  1
F12            0.8
  7
STYLE1
100
AcDbText
  0
TEXT
  5
15E0D
330
747D
100
AcDbEntity
  8
文字
 62
     7
 48
50.0
100
AcDbText
 10
15022.63965474517
 20
10590.01374588372
 30
0.0
 40
100.0
  1
F12            1.0
  7
STYLE1
100
AcDbText
  0
TEXT
  5
15E0E
330
747D
100
AcDbEntity
  8
文字
 62
     7
 48
50.0
100
AcDbText
 10
13583.1181901657
 20
10590.01374588373
 30
0.0
 40
100.0
  1
床パネル
 41
0.9
  7
STYLE1
100
AcDbText
  0
LINE
  5
15E0F
330
747D
100
AcDbEntity
  8
仕様書枠
 48
50.0
100
AcDbLine
 10
16307.19999999998
 20
8689.6
 30
0.0
 11
13127.19999999999
 21
8689.600000000003
 31
0.0
  0
LINE
  5
15E10
330
747D
100
AcDbEntity
  8
仕様書枠
 48
50.0
100
AcDbLine
 10
13127.2
 20
11409.6
 30
0.0
 11
13127.19999999999
 21
8179.600000000007
 31
0.0
  0
TEXT
  5
15E11
330
747D
100
AcDbEntity
  8
文字
 62
     7
 48
50.0
100
AcDbText
 10
13229.83081656552
 20
8210.013745883729
 30
0.0
 40
100.0
  1
Y10→溶融亜鉛-5％アルミニウム合金めっき鋼板(JIS G 3317)
 41
0.9
  7
STYLE1
100
AcDbText
  0
TEXT
  5
15E12
330
747D
100
AcDbEntity
  8
文字
 62
     7
 48
50.0
100
AcDbText
 10
13229.83081656552
 20
8380.013745883728
 30
0.0
 40
100.0
  1
F12→溶融亜鉛めっき鋼板(JIS G 3302)
  7
STYLE1
100
AcDbText
  0
LINE
  5
15E13
330
747D
100
AcDbEntity
  8
仕様書枠
 48
50.0
100
AcDbLine
 10
16307.19999999998
 20
8349.600000000004
 30
0.0
 11
13127.19999999999
 21
8349.600000000004
 31
0.0
  0
TEXT
  5
15E14
330
747D
100
AcDbEntity
  8
文字
 62
     7
 48
50.0
100
AcDbText
 10
15022.63965474515
 20
9230.013745883725
 30
0.0
 40
100.0
  1
F12            0.6
  7
STYLE1
100
AcDbText
  0
TEXT
  5
15E15
330
747D
100
AcDbEntity
  8
文字
 62
     7
 48
50.0
100
AcDbText
 10
15022.63965474516
 20
9400.013745883725
 30
0.0
 40
100.0
  1
Y10            0.5
  7
STYLE1
100
AcDbText
  0
TEXT
  5
15E16
330
747D
100
AcDbEntity
  8
文字
 62
     7
 48
50.0
100
AcDbText
 10
15022.63965474517
 20
9910.013745883725
 30
0.0
 40
100.0
  1
Y10            0.7
  7
STYLE1
100
AcDbText
  0
TEXT
  5
15E17
330
747D
100
AcDbEntity
  8
文字
 62
     7
 48
50.0
100
AcDbText
 10
15022.63965474517
 20
10080.01374588372
 30
0.0
 40
100.0
  1
Y10            0.7
  7
STYLE1
100
AcDbText
  0
TEXT
  5
15E18
330
747D
100
AcDbEntity
  8
文字
 62
     7
 48
50.0
100
AcDbText
 10
15022.63965474517
 20
10250.01374588372
 30
0.0
 40
100.0
  1
Y10            1.0
  7
STYLE1
100
AcDbText
  0
TEXT
  5
15E19
330
747D
100
AcDbEntity
  8
文字
 62
     7
 48
50.0
100
AcDbText
 10
15022.63965474517
 20
10420.01374588372
 30
0.0
 40
100.0
  1
Y10            1.0
  7
STYLE1
100
AcDbText
  0
TEXT
  5
15E1A
330
747D
100
AcDbEntity
  8
文字
 62
     7
 48
50.0
100
AcDbText
 10
15022.63965474518
 20
10760.01374588372
 30
0.0
 40
100.0
  1
F12            1.0
  7
STYLE1
100
AcDbText
  0
TEXT
  5
15E1B
330
747D
100
AcDbEntity
  8
文字
 62
     7
 48
50.0
100
AcDbText
 10
15022.63965474517
 20
11100.01374588372
 30
0.0
 40
100.0
  1
F12            1.2
  7
STYLE1
100
AcDbText
  0
TEXT
  5
15E1C
330
747D
100
AcDbEntity
  8
文字
 62
     7
 48
50.0
100
AcDbText
 10
13248.77747366447
 20
9230.013745883729
 30
0.0
 40
100.0
  1
12
  7
STYLE1
100
AcDbText
  0
TEXT
  5
15E1D
330
747D
100
AcDbEntity
  8
文字
 62
     7
 48
50.0
100
AcDbText
 10
13248.77747366447
 20
9060.013745883729
 30
0.0
 40
100.0
  1
13
  7
STYLE1
100
AcDbText
  0
LINE
  5
15E1E
330
747D
100
AcDbEntity
  8
仕様書枠
 48
50.0
100
AcDbLine
 10
16307.19999999998
 20
8519.600000000002
 30
0.0
 11
13127.19999999999
 21
8519.600000000004
 31
0.0
  0
LINE
  5
15E1F
330
747D
100
AcDbEntity
  8
仕様書枠
 48
50.0
100
AcDbLine
 10
16307.19999999998
 20
8859.6
 30
0.0
 11
13127.19999999999
 21
8859.6
 31
0.0
  0
TEXT
  5
15E20
330
747D
100
AcDbEntity
  8
文字
 62
     7
 48
50.0
100
AcDbText
 10
13248.77747366447
 20
9400.013745883729
 30
0.0
 40
100.0
  1
11
  7
STYLE1
100
AcDbText
  0
LINE
  5
15E21
330
747D
100
AcDbEntity
  8
仕様書枠
 48
50.0
100
AcDbLine
 10
16307.2
 20
9709.600000000001
 30
0.0
 11
13127.2
 21
9709.600000000001
 31
0.0
  0
LINE
  5
15E22
330
747D
100
AcDbEntity
  8
仕様書枠
 48
50.0
100
AcDbLine
 10
16307.2
 20
10049.6
 30
0.0
 11
13127.2
 21
10049.6
 31
0.0
  0
LINE
  5
15E23
330
747D
100
AcDbEntity
  8
仕様書枠
 48
50.0
100
AcDbLine
 10
16307.19999999998
 20
9199.600000000001
 30
0.0
 11
13127.19999999999
 21
9199.600000000001
 31
0.0
  0
LINE
  5
15E24
330
747D
100
AcDbEntity
  8
仕様書枠
 48
50.0
100
AcDbLine
 10
16307.19999999998
 20
9029.6
 30
0.0
 11
13127.19999999999
 21
9029.6
 31
0.0
  0
LINE
  5
15E25
330
747D
100
AcDbEntity
  8
仕様書枠
 48
50.0
100
AcDbLine
 10
16307.19999999998
 20
9369.600000000001
 30
0.0
 11
13127.19999999999
 21
9369.600000000001
 31
0.0
  0
TEXT
  5
15E26
330
747D
100
AcDbEntity
  8
文字
 62
     7
 48
50.0
100
AcDbText
 10
13271.19032244793
 20
10250.01374588373
 30
0.0
 40
100.0
  1
6
  7
STYLE1
100
AcDbText
  0
TEXT
  5
15E27
330
747D
100
AcDbEntity
  8
文字
 62
     7
 48
50.0
100
AcDbText
 10
13271.19032244792
 20
10080.01374588373
 30
0.0
 40
100.0
  1
7
  7
STYLE1
100
AcDbText
  0
TEXT
  5
15E28
330
747D
100
AcDbEntity
  8
文字
 62
     7
 48
50.0
100
AcDbText
 10
13271.19032244792
 20
9740.013745883729
 30
0.0
 40
100.0
  1
9
  7
STYLE1
100
AcDbText
  0
TEXT
  5
15E29
330
747D
100
AcDbEntity
  8
文字
 62
     7
 48
50.0
100
AcDbText
 10
13271.19032244792
 20
9910.01374588373
 30
0.0
 40
100.0
  1
8
  7
STYLE1
100
AcDbText
  0
TEXT
  5
15E2A
330
747D
100
AcDbEntity
  8
文字
 62
     7
 48
50.0
100
AcDbText
 10
13583.1181901657
 20
9910.01374588373
 30
0.0
 40
100.0
  1
鼻隠シ前後
  7
STYLE1
100
AcDbText
  0
TEXT
  5
15E2B
330
747D
100
AcDbEntity
  8
文字
 62
     7
 48
50.0
100
AcDbText
 10
13583.11819016569
 20
9400.013745883729
 30
0.0
 40
100.0
  1
屋根パネル
  7
STYLE1
100
AcDbText
  0
TEXT
  5
15E2C
330
747D
100
AcDbEntity
  8
文字
 62
     7
 48
50.0
100
AcDbText
 10
13583.11819016568
 20
9230.013745883729
 30
0.0
 40
100.0
  1
壁パネル
  7
STYLE1
100
AcDbText
  0
TEXT
  5
15E2D
330
747D
100
AcDbEntity
  8
文字
 62
     7
 48
50.0
100
AcDbText
 10
13248.77747366447
 20
9570.013745883729
 30
0.0
 40
100.0
  1
10
  7
STYLE1
100
AcDbText
  0
TEXT
  5
15E2E
330
747D
100
AcDbEntity
  8
文字
 62
     7
 48
50.0
100
AcDbText
 10
13583.1181901657
 20
10080.01374588373
 30
0.0
 40
100.0
  1
妻板左右
  7
STYLE1
100
AcDbText
  0
TEXT
  5
15E2F
330
747D
100
AcDbEntity
  8
文字
 62
     7
 48
50.0
100
AcDbText
 10
13271.19032244793
 20
10420.01374588373
 30
0.0
 40
100.0
  1
5
  7
STYLE1
100
AcDbText
  0
TEXT
  5
15E30
330
747D
100
AcDbEntity
  8
文字
 62
     7
 48
50.0
100
AcDbText
 10
13583.1181901657
 20
10250.01374588373
 30
0.0
 40
100.0
  1
桁後
  7
STYLE1
100
AcDbText
  0
TEXT
  5
15E31
330
747D
100
AcDbEntity
  8
文字
 62
     7
 48
50.0
100
AcDbText
 10
13583.1181901657
 20
10420.01374588373
 30
0.0
 40
100.0
  1
鴨居
  7
STYLE1
100
AcDbText
  0
TEXT
  5
15E32
330
747D
100
AcDbEntity
  8
文字
 62
     7
 48
50.0
100
AcDbText
 10
13583.1181901657
 20
10760.01374588373
 30
0.0
 40
100.0
  1
柱
  7
STYLE1
100
AcDbText
  0
TEXT
  5
15E33
330
747D
100
AcDbEntity
  8
文字
 62
     7
 48
50.0
100
AcDbText
 10
13583.11819016569
 20
11100.01374588373
 30
0.0
 40
100.0
  1
土台枠
  7
STYLE1
100
AcDbText
  0
TEXT
  5
15E34
330
747D
100
AcDbEntity
  8
文字
 62
     7
 48
50.0
100
AcDbText
 10
14859.79774614482
 20
11270.01374588373
 30
0.0
 40
100.0
  1
材料（材質）　　単位mm
  7
STYLE1
100
AcDbText
  0
TEXT
  5
15E35
330
747D
100
AcDbEntity
  8
文字
 62
     7
 48
50.0
100
AcDbText
 10
13732.03840939434
 20
11270.01374588373
 30
0.0
 40
100.0
  1
部　　品　　名
  7
STYLE1
100
AcDbText
  0
TEXT
  5
15E36
330
747D
100
AcDbEntity
  8
文字
 62
     7
 48
50.0
100
AcDbText
 10
13271.19032244793
 20
10760.01374588373
 30
0.0
 40
100.0
  1
3
  7
STYLE1
100
AcDbText
  0
TEXT
  5
15E37
330
747D
100
AcDbEntity
  8
文字
 62
     7
 48
50.0
100
AcDbText
 10
13271.19032244793
 20
10590.01374588373
 30
0.0
 40
100.0
  1
4
  7
STYLE1
100
AcDbText
  0
TEXT
  5
15E38
330
747D
100
AcDbEntity
  8
文字
 62
     7
 48
50.0
100
AcDbText
 10
13271.19032244792
 20
10930.01374588373
 30
0.0
 40
100.0
  1
2
  7
STYLE1
100
AcDbText
  0
TEXT
  5
15E39
330
747D
100
AcDbEntity
  8
文字
 62
     7
 48
50.0
100
AcDbText
 10
13271.19032244792
 20
11100.01374588373
 30
0.0
 40
100.0
  1
1
  7
STYLE1
100
AcDbText
  0
TEXT
  5
15E3A
330
747D
100
AcDbEntity
  8
文字
 62
     7
 48
50.0
100
AcDbText
 10
13197.42518560407
 20
11270.01374588373
 30
0.0
 40
100.0
  1
品番
  7
STYLE1
100
AcDbText
  0
LINE
  5
15E3B
330
747D
100
AcDbEntity
  8
仕様書枠
 48
50.0
100
AcDbLine
 10
16307.19999999999
 20
10559.6
 30
0.0
 11
13127.2
 21
10559.6
 31
0.0
  0
LINE
  5
15E3C
330
747D
100
AcDbEntity
  8
仕様書枠
 48
50.0
100
AcDbLine
 10
16307.19999999999
 20
10219.6
 30
0.0
 11
13127.2
 21
10219.6
 31
0.0
  0
LINE
  5
15E3D
330
747D
100
AcDbEntity
  8
仕様書枠
 48
50.0
100
AcDbLine
 10
16307.19999999999
 20
10389.6
 30
0.0
 11
13127.2
 21
10389.6
 31
0.0
  0
LINE
  5
15E3E
330
747D
100
AcDbEntity
  8
仕様書枠
 48
50.0
100
AcDbLine
 10
16307.19999999999
 20
11069.6
 30
0.0
 11
13127.2
 21
11069.6
 31
0.0
  0
LINE
  5
15E3F
330
747D
100
AcDbEntity
  8
仕様書枠
 48
50.0
100
AcDbLine
 10
16307.2
 20
10729.6
 30
0.0
 11
13127.2
 21
10729.6
 31
0.0
  0
LINE
  5
15E40
330
747D
100
AcDbEntity
  8
仕様書枠
 48
50.0
100
AcDbLine
 10
16307.19999999999
 20
11239.6
 30
0.0
 11
13127.2
 21
11239.6
 31
0.0
  0
LINE
  5
15E41
330
747D
100
AcDbEntity
  8
仕様書枠
 48
50.0
100
AcDbLine
 10
13490.2
 20
11409.6
 30
0.0
 11
13490.2
 21
8519.600000000004
 31
0.0
  0
LINE
  5
15E42
330
747D
100
AcDbEntity
  8
仕様書枠
 48
50.0
100
AcDbLine
 10
14785.2
 20
11409.59999999999
 30
0.0
 11
14785.19999999999
 21
8519.600000000002
 31
0.0
  0
LINE
  5
15E43
330
747D
100
AcDbEntity
  8
仕様書枠
 48
50.0
100
AcDbLine
 10
16307.19999999999
 20
8179.600000000007
 30
0.0
 11
16307.2
 21
11409.6
 31
0.0
  0
LINE
  5
15E44
330
747D
100
AcDbEntity
  8
仕様書枠
 48
50.0
100
AcDbLine
 10
16307.19999999999
 20
11409.6
 30
0.0
 11
13127.2
 21
11409.6
 31
0.0
  0
LINE
  5
15E45
330
747D
100
AcDbEntity
  8
仕様書枠
 48
50.0
100
AcDbLine
 10
16307.2
 20
9879.600000000001
 30
0.0
 11
13127.2
 21
9879.600000000001
 31
0.0
  0
TEXT
  5
15E46
330
747D
100
AcDbEntity
  8
文字
 62
     7
 48
50.0
100
AcDbText
 10
15022.63965474512
 20
8550.013745883722
 30
0.0
 40
100.0
  1
F12            2.3
  7
STYLE1
100
AcDbText
  0
TEXT
  5
15E47
330
747D
100
AcDbEntity
  8
文字
 62
     7
 48
50.0
100
AcDbText
 10
13583.11819016566
 20
8550.013745883729
 30
0.0
 40
100.0
  1
アンカープレート
  7
STYLE1
100
AcDbText
  0
TEXT
  5
15E48
330
747D
100
AcDbEntity
  8
文字
 62
     7
 48
50.0
100
AcDbText
 10
15022.63965474517
 20
9740.013745883729
 30
0.0
 40
100.0
  1
F12,Y10       0.7+1.0
  7
STYLE1
100
AcDbText
  0
TEXT
  5
15E49
330
747D
100
AcDbEntity
  8
文字
 62
     7
 48
50.0
100
AcDbText
 10
13583.1181901657
 20
9740.013745883729
 30
0.0
 40
100.0
  1
梁中・梁中央
 41
0.9
  7
STYLE1
100
AcDbText
  0
LINE
  5
15E4A
330
747D
100
AcDbEntity
  8
仕様書枠
 48
50.0
100
AcDbLine
 10
16307.2
 20
10899.6
 30
0.0
 11
13127.2
 21
10899.6
 31
0.0
  0
TEXT
  5
15E4B
330
747D
100
AcDbEntity
  8
文字
 62
     7
 48
50.0
100
AcDbText
 10
13248.77747366447
 20
8720.013745883735
 30
0.0
 40
100.0
  1
15
  7
STYLE1
100
AcDbText
  0
TEXT
  5
15E4C
330
747D
100
AcDbEntity
  8
文字
 62
     7
 48
50.0
100
AcDbText
 10
13583.11819016569
 20
10930.01374588373
 30
0.0
 40
100.0
  1
根太
  7
STYLE1
100
AcDbText
  0
TEXT
  5
15E4D
330
747D
100
AcDbEntity
  8
文字
 62
     7
 48
50.0
100
AcDbText
 10
15022.63965474517
 20
10930.01374588372
 30
0.0
 40
100.0
  1
F12            1.2
  7
STYLE1
100
AcDbText
  0
LINE
  5
15E4E
330
747D
100
AcDbEntity
  8
細線
 48
50.0
100
AcDbLine
 10
12278.17103793943
 20
4992.909735000502
 30
0.0
 11
12278.17103793943
 21
3202.909735000502
 31
0.0
  0
LINE
  5
15E4F
330
747D
100
AcDbEntity
  8
細線
 48
50.0
100
AcDbLine
 10
12263.17103793943
 20
4992.909735000502
 30
0.0
 11
12263.17103793943
 21
3202.909735000502
 31
0.0
  0
LINE
  5
15E50
330
747D
100
AcDbEntity
  8
細線
 48
50.0
100
AcDbLine
 10
12133.17103793943
 20
4992.909735000502
 30
0.0
 11
12133.17103793943
 21
3202.909735000502
 31
0.0
  0
LINE
  5
15E51
330
747D
100
AcDbEntity
  8
細線
 48
50.0
100
AcDbLine
 10
12118.17103793943
 20
4992.909735000502
 30
0.0
 11
12118.17103793943
 21
3202.909735000502
 31
0.0
  0
LINE
  5
15E52
330
747D
100
AcDbEntity
  8
細線
 48
50.0
100
AcDbLine
 10
11988.17103793943
 20
4992.909735000502
 30
0.0
 11
11988.17103793943
 21
3202.909735000502
 31
0.0
  0
LINE
  5
15E53
330
747D
100
AcDbEntity
  8
細線
 48
50.0
100
AcDbLine
 10
11973.17103793943
 20
4992.909735000502
 30
0.0
 11
11973.17103793943
 21
3202.909735000502
 31
0.0
  0
TEXT
  5
15E54
330
747D
100
AcDbEntity
  8
文字
 62
     7
 48
50.0
100
AcDbText
 10
14271.39351435261
 20
483.8967129911416
 30
0.0
 40
160.0
  1
ＮＸＮ－１４ＤＬ－５
  7
STYLE2
100
AcDbText
  0
LINE
  5
169F6
330
747D
100
AcDbEntity
  8
細線
100
AcDbLine
 10
7621.299125379046
 20
5052.409735000498
 30
0.0
 11
7621.299125379042
 21
5029.409735000498
 31
0.0
  0
LINE
  5
169F7
330
747D
100
AcDbEntity
  8
細線
100
AcDbLine
 10
7695.299125379043
 20
5040.409735000498
 30
0.0
 11
7621.299125379046
 21
5040.409735000498
 31
0.0
  0
LINE
  5
169F8
330
747D
100
AcDbEntity
  8
細線
100
AcDbLine
 10
7695.299125379043
 20
5034.409735000497
 30
0.0
 11
7621.299125379046
 21
5034.409735000497
 31
0.0
  0
LINE
  5
169F9
330
747D
100
AcDbEntity
  8
細線
100
AcDbLine
 10
7695.299125379043
 20
5046.409735000498
 30
0.0
 11
7621.299125379046
 21
5046.409735000498
 31
0.0
  0
LINE
  5
169FA
330
747D
100
AcDbEntity
  8
細線
100
AcDbLine
 10
7547.299125379047
 20
5046.409735000498
 30
0.0
 11
7616.299125379047
 21
5046.409735000498
 31
0.0
  0
LINE
  5
169FB
330
747D
100
AcDbEntity
  8
細線
100
AcDbLine
 10
7547.299125379042
 20
5034.409735000497
 30
0.0
 11
7621.299125379046
 21
5034.409735000497
 31
0.0
  0
LINE
  5
169FC
330
747D
100
AcDbEntity
  8
細線
100
AcDbLine
 10
7547.299125379047
 20
5040.409735000498
 30
0.0
 11
7621.299125379046
 21
5040.409735000498
 31
0.0
  0
LINE
  5
169FD
330
747D
100
AcDbEntity
  8
細線
100
AcDbLine
 10
7547.299125379047
 20
5046.409735000498
 30
0.0
 11
7621.299125379046
 21
5046.409735000498
 31
0.0
  0
LINE
  5
169FE
330
747D
100
AcDbEntity
  8
部品1
 48
0.01
100
AcDbLine
 10
7709.299125379046
 20
5058.909735000497
 30
0.0
 11
7533.299125379047
 21
5058.909735000497
 31
0.0
  0
LINE
  5
169FF
330
747D
100
AcDbEntity
  8
部品1
 48
0.01
100
AcDbLine
 10
7531.299125379046
 20
5056.909735000498
 30
0.0
 11
7531.299125379046
 21
5025.409735000497
 31
0.0
  0
LINE
  5
16A00
330
747D
100
AcDbEntity
  8
部品1
 48
0.01
100
AcDbLine
 10
7533.299125379047
 20
5023.409735000498
 30
0.0
 11
7709.299125379043
 21
5023.409735000498
 31
0.0
  0
LINE
  5
16A01
330
747D
100
AcDbEntity
  8
部品1
 48
0.01
100
AcDbLine
 10
7711.299125379042
 20
5025.409735000497
 30
0.0
 11
7711.299125379047
 21
5056.909735000498
 31
0.0
  0
LINE
  5
16A02
330
747D
100
AcDbEntity
  8
細線
100
AcDbLine
 10
7547.299125379047
 20
5052.409735000498
 30
0.0
 11
7547.299125379047
 21
5029.409735000498
 31
0.0
  0
LINE
  5
16A03
330
747D
100
AcDbEntity
  8
細線
100
AcDbLine
 10
7695.299125379046
 20
5029.409735000498
 30
0.0
 11
7695.299125379046
 21
5052.409735000498
 31
0.0
  0
LINE
  5
16A04
330
747D
100
AcDbEntity
  8
細線
100
AcDbLine
 10
7695.299125379046
 20
5052.409735000498
 30
0.0
 11
7621.299125379046
 21
5052.409735000498
 31
0.0
  0
LINE
  5
16A05
330
747D
100
AcDbEntity
  8
細線
100
AcDbLine
 10
7547.299125379047
 20
5029.409735000498
 30
0.0
 11
7621.299125379046
 21
5029.409735000498
 31
0.0
  0
LINE
  5
16A06
330
747D
100
AcDbEntity
  8
細線
100
AcDbLine
 10
7621.299125379046
 20
5052.409735000498
 30
0.0
 11
7547.299125379047
 21
5052.409735000498
 31
0.0
  0
LINE
  5
16A07
330
747D
100
AcDbEntity
  8
細線
100
AcDbLine
 10
7621.299125379042
 20
5029.409735000498
 30
0.0
 11
7695.299125379046
 21
5029.409735000498
 31
0.0
  0
ARC
  5
16A08
330
747D
100
AcDbEntity
  8
部品1
 48
0.01
100
AcDbCircle
 10
7533.299125379047
 20
5056.909735000498
 30
0.0
 40
2.0
100
AcDbArc
 50
90.0
 51
180.0
  0
ARC
  5
16A09
330
747D
100
AcDbEntity
  8
部品1
 48
0.01
100
AcDbCircle
 10
7533.299125379047
 20
5025.409735000497
 30
0.0
 40
2.0
100
AcDbArc
 50
180.0
 51
270.0
  0
ARC
  5
16A0A
330
747D
100
AcDbEntity
  8
部品1
 48
0.01
100
AcDbCircle
 10
7709.299125379046
 20
5056.909735000498
 30
0.0
 40
2.0
100
AcDbArc
 50
0.0
 51
90.0
  0
ARC
  5
16A0B
330
747D
100
AcDbEntity
  8
部品1
 48
0.01
100
AcDbCircle
 10
7709.299125379043
 20
5025.409735000497
 30
0.0
 40
2.0
100
AcDbArc
 50
270.0
 51
0.0
  0
ARC
  5
16A0C
330
747D
100
AcDbEntity
  8
部品1
 48
0.01
100
AcDbCircle
 10
8659.299125379043
 20
5025.409735000497
 30
0.0
 40
2.0
100
AcDbArc
 50
270.0
 51
0.0
  0
ARC
  5
16A0D
330
747D
100
AcDbEntity
  8
部品1
 48
0.01
100
AcDbCircle
 10
8659.299125379046
 20
5056.909735000498
 30
0.0
 40
2.0
100
AcDbArc
 50
0.0
 51
90.0
  0
ARC
  5
16A0E
330
747D
100
AcDbEntity
  8
部品1
 48
0.01
100
AcDbCircle
 10
8483.299125379046
 20
5025.409735000497
 30
0.0
 40
2.0
100
AcDbArc
 50
180.0
 51
270.0
  0
ARC
  5
16A0F
330
747D
100
AcDbEntity
  8
部品1
 48
0.01
100
AcDbCircle
 10
8483.299125379046
 20
5056.909735000498
 30
0.0
 40
2.0
100
AcDbArc
 50
90.0
 51
180.0
  0
LINE
  5
16A10
330
747D
100
AcDbEntity
  8
細線
100
AcDbLine
 10
8571.299125379042
 20
5029.409735000498
 30
0.0
 11
8645.299125379045
 21
5029.409735000498
 31
0.0
  0
LINE
  5
16A11
330
747D
100
AcDbEntity
  8
細線
100
AcDbLine
 10
8571.299125379047
 20
5052.409735000498
 30
0.0
 11
8497.299125379047
 21
5052.409735000498
 31
0.0
  0
LINE
  5
16A12
330
747D
100
AcDbEntity
  8
細線
100
AcDbLine
 10
8497.299125379047
 20
5029.409735000498
 30
0.0
 11
8571.299125379047
 21
5029.409735000498
 31
0.0
  0
LINE
  5
16A13
330
747D
100
AcDbEntity
  8
細線
100
AcDbLine
 10
8645.299125379045
 20
5052.409735000498
 30
0.0
 11
8571.299125379047
 21
5052.409735000498
 31
0.0
  0
LINE
  5
16A14
330
747D
100
AcDbEntity
  8
細線
100
AcDbLine
 10
8645.299125379045
 20
5029.409735000498
 30
0.0
 11
8645.299125379045
 21
5052.409735000498
 31
0.0
  0
LINE
  5
16A15
330
747D
100
AcDbEntity
  8
細線
100
AcDbLine
 10
8497.299125379047
 20
5052.409735000498
 30
0.0
 11
8497.299125379047
 21
5029.409735000498
 31
0.0
  0
LINE
  5
16A16
330
747D
100
AcDbEntity
  8
部品1
 48
0.01
100
AcDbLine
 10
8661.299125379043
 20
5025.409735000497
 30
0.0
 11
8661.299125379047
 21
5056.909735000498
 31
0.0
  0
LINE
  5
16A17
330
747D
100
AcDbEntity
  8
部品1
 48
0.01
100
AcDbLine
 10
8483.299125379046
 20
5023.409735000498
 30
0.0
 11
8659.299125379043
 21
5023.409735000498
 31
0.0
  0
LINE
  5
16A18
330
747D
100
AcDbEntity
  8
部品1
 48
0.01
100
AcDbLine
 10
8481.299125379045
 20
5056.909735000498
 30
0.0
 11
8481.299125379045
 21
5025.409735000497
 31
0.0
  0
LINE
  5
16A19
330
747D
100
AcDbEntity
  8
部品1
 48
0.01
100
AcDbLine
 10
8659.299125379046
 20
5058.909735000497
 30
0.0
 11
8483.299125379046
 21
5058.909735000497
 31
0.0
  0
LINE
  5
16A1A
330
747D
100
AcDbEntity
  8
細線
100
AcDbLine
 10
8497.299125379047
 20
5046.409735000498
 30
0.0
 11
8571.299125379047
 21
5046.409735000498
 31
0.0
  0
LINE
  5
16A1B
330
747D
100
AcDbEntity
  8
細線
100
AcDbLine
 10
8497.299125379047
 20
5040.409735000498
 30
0.0
 11
8571.299125379047
 21
5040.409735000498
 31
0.0
  0
LINE
  5
16A1C
330
747D
100
AcDbEntity
  8
細線
100
AcDbLine
 10
8497.299125379042
 20
5034.409735000497
 30
0.0
 11
8571.299125379047
 21
5034.409735000497
 31
0.0
  0
LINE
  5
16A1D
330
747D
100
AcDbEntity
  8
細線
100
AcDbLine
 10
8497.299125379047
 20
5046.409735000498
 30
0.0
 11
8566.299125379046
 21
5046.409735000498
 31
0.0
  0
LINE
  5
16A1E
330
747D
100
AcDbEntity
  8
細線
100
AcDbLine
 10
8645.299125379043
 20
5046.409735000498
 30
0.0
 11
8571.299125379047
 21
5046.409735000498
 31
0.0
  0
LINE
  5
16A1F
330
747D
100
AcDbEntity
  8
細線
100
AcDbLine
 10
8645.299125379043
 20
5034.409735000497
 30
0.0
 11
8571.299125379047
 21
5034.409735000497
 31
0.0
  0
LINE
  5
16A20
330
747D
100
AcDbEntity
  8
細線
100
AcDbLine
 10
8645.299125379043
 20
5040.409735000498
 30
0.0
 11
8571.299125379047
 21
5040.409735000498
 31
0.0
  0
LINE
  5
16A21
330
747D
100
AcDbEntity
  8
細線
100
AcDbLine
 10
8571.299125379047
 20
5052.409735000498
 30
0.0
 11
8571.299125379042
 21
5029.409735000498
 31
0.0
  0
LINE
  5
16A22
330
747D
100
AcDbEntity
  8
細線
100
AcDbLine
 10
4771.299125379046
 20
5052.409735000499
 30
0.0
 11
4771.299125379043
 21
5029.409735000499
 31
0.0
  0
LINE
  5
16A23
330
747D
100
AcDbEntity
  8
細線
100
AcDbLine
 10
4845.299125379042
 20
5040.409735000499
 30
0.0
 11
4771.299125379046
 21
5040.409735000499
 31
0.0
  0
LINE
  5
16A24
330
747D
100
AcDbEntity
  8
細線
100
AcDbLine
 10
4845.299125379042
 20
5034.409735000499
 30
0.0
 11
4771.299125379046
 21
5034.409735000499
 31
0.0
  0
LINE
  5
16A25
330
747D
100
AcDbEntity
  8
細線
100
AcDbLine
 10
4845.299125379042
 20
5046.4097350005
 30
0.0
 11
4771.299125379046
 21
5046.4097350005
 31
0.0
  0
LINE
  5
16A26
330
747D
100
AcDbEntity
  8
細線
100
AcDbLine
 10
4697.299125379045
 20
5046.4097350005
 30
0.0
 11
4766.299125379045
 21
5046.4097350005
 31
0.0
  0
LINE
  5
16A27
330
747D
100
AcDbEntity
  8
細線
100
AcDbLine
 10
4697.299125379042
 20
5034.409735000499
 30
0.0
 11
4771.299125379046
 21
5034.409735000499
 31
0.0
  0
LINE
  5
16A28
330
747D
100
AcDbEntity
  8
細線
100
AcDbLine
 10
4697.299125379045
 20
5040.409735000499
 30
0.0
 11
4771.299125379046
 21
5040.409735000499
 31
0.0
  0
LINE
  5
16A29
330
747D
100
AcDbEntity
  8
細線
100
AcDbLine
 10
4697.299125379045
 20
5046.4097350005
 30
0.0
 11
4771.299125379046
 21
5046.4097350005
 31
0.0
  0
LINE
  5
16A2A
330
747D
100
AcDbEntity
  8
部品1
 48
0.01
100
AcDbLine
 10
4859.299125379045
 20
5058.9097350005
 30
0.0
 11
4683.299125379046
 21
5058.9097350005
 31
0.0
  0
LINE
  5
16A2B
330
747D
100
AcDbEntity
  8
部品1
 48
0.01
100
AcDbLine
 10
4681.299125379046
 20
5056.909735000499
 30
0.0
 11
4681.299125379046
 21
5025.4097350005
 31
0.0
  0
LINE
  5
16A2C
330
747D
100
AcDbEntity
  8
部品1
 48
0.01
100
AcDbLine
 10
4683.299125379046
 20
5023.409735000499
 30
0.0
 11
4859.299125379042
 21
5023.409735000499
 31
0.0
  0
LINE
  5
16A2D
330
747D
100
AcDbEntity
  8
部品1
 48
0.01
100
AcDbLine
 10
4861.299125379042
 20
5025.4097350005
 30
0.0
 11
4861.299125379046
 21
5056.909735000499
 31
0.0
  0
LINE
  5
16A2E
330
747D
100
AcDbEntity
  8
細線
100
AcDbLine
 10
4697.299125379045
 20
5052.409735000499
 30
0.0
 11
4697.299125379045
 21
5029.409735000499
 31
0.0
  0
LINE
  5
16A2F
330
747D
100
AcDbEntity
  8
細線
100
AcDbLine
 10
4845.299125379046
 20
5029.409735000499
 30
0.0
 11
4845.299125379046
 21
5052.409735000499
 31
0.0
  0
LINE
  5
16A30
330
747D
100
AcDbEntity
  8
細線
100
AcDbLine
 10
4845.299125379046
 20
5052.409735000499
 30
0.0
 11
4771.299125379046
 21
5052.409735000499
 31
0.0
  0
LINE
  5
16A31
330
747D
100
AcDbEntity
  8
細線
100
AcDbLine
 10
4697.299125379045
 20
5029.409735000499
 30
0.0
 11
4771.299125379046
 21
5029.409735000499
 31
0.0
  0
LINE
  5
16A32
330
747D
100
AcDbEntity
  8
細線
100
AcDbLine
 10
4771.299125379046
 20
5052.409735000499
 30
0.0
 11
4697.299125379045
 21
5052.409735000499
 31
0.0
  0
LINE
  5
16A33
330
747D
100
AcDbEntity
  8
細線
100
AcDbLine
 10
4771.299125379043
 20
5029.409735000499
 30
0.0
 11
4845.299125379046
 21
5029.409735000499
 31
0.0
  0
ARC
  5
16A34
330
747D
100
AcDbEntity
  8
部品1
 48
0.01
100
AcDbCircle
 10
4683.299125379046
 20
5056.909735000499
 30
0.0
 40
2.0
100
AcDbArc
 50
90.0
 51
180.0
  0
ARC
  5
16A35
330
747D
100
AcDbEntity
  8
部品1
 48
0.01
100
AcDbCircle
 10
4683.299125379046
 20
5025.4097350005
 30
0.0
 40
2.0
100
AcDbArc
 50
180.0
 51
270.0
  0
ARC
  5
16A36
330
747D
100
AcDbEntity
  8
部品1
 48
0.01
100
AcDbCircle
 10
4859.299125379045
 20
5056.909735000499
 30
0.0
 40
2.0
100
AcDbArc
 50
0.0
 51
90.0
  0
ARC
  5
16A37
330
747D
100
AcDbEntity
  8
部品1
 48
0.01
100
AcDbCircle
 10
4859.299125379042
 20
5025.4097350005
 30
0.0
 40
2.0
100
AcDbArc
 50
270.0
 51
0.0
  0
ARC
  5
16A38
330
747D
100
AcDbEntity
  8
部品1
 48
0.01
100
AcDbCircle
 10
5809.299125379042
 20
5025.409735000497
 30
0.0
 40
2.0
100
AcDbArc
 50
270.0
 51
0.0
  0
ARC
  5
16A39
330
747D
100
AcDbEntity
  8
部品1
 48
0.01
100
AcDbCircle
 10
5809.299125379046
 20
5056.909735000498
 30
0.0
 40
2.0
100
AcDbArc
 50
0.0
 51
90.0
  0
ARC
  5
16A3A
330
747D
100
AcDbEntity
  8
部品1
 48
0.01
100
AcDbCircle
 10
5633.299125379046
 20
5025.409735000497
 30
0.0
 40
2.0
100
AcDbArc
 50
180.0
 51
270.0
  0
ARC
  5
16A3B
330
747D
100
AcDbEntity
  8
部品1
 48
0.01
100
AcDbCircle
 10
5633.299125379046
 20
5056.909735000498
 30
0.0
 40
2.0
100
AcDbArc
 50
90.0
 51
180.0
  0
LINE
  5
16A3C
330
747D
100
AcDbEntity
  8
細線
100
AcDbLine
 10
5721.299125379043
 20
5029.409735000498
 30
0.0
 11
5795.299125379045
 21
5029.409735000498
 31
0.0
  0
LINE
  5
16A3D
330
747D
100
AcDbEntity
  8
細線
100
AcDbLine
 10
5721.299125379046
 20
5052.409735000498
 30
0.0
 11
5647.299125379046
 21
5052.409735000498
 31
0.0
  0
LINE
  5
16A3E
330
747D
100
AcDbEntity
  8
細線
100
AcDbLine
 10
5647.299125379046
 20
5029.409735000498
 30
0.0
 11
5721.299125379046
 21
5029.409735000498
 31
0.0
  0
LINE
  5
16A3F
330
747D
100
AcDbEntity
  8
細線
100
AcDbLine
 10
5795.299125379045
 20
5052.409735000498
 30
0.0
 11
5721.299125379046
 21
5052.409735000498
 31
0.0
  0
LINE
  5
16A40
330
747D
100
AcDbEntity
  8
細線
100
AcDbLine
 10
5795.299125379045
 20
5029.409735000498
 30
0.0
 11
5795.299125379045
 21
5052.409735000498
 31
0.0
  0
LINE
  5
16A41
330
747D
100
AcDbEntity
  8
細線
100
AcDbLine
 10
5647.299125379046
 20
5052.409735000498
 30
0.0
 11
5647.299125379046
 21
5029.409735000498
 31
0.0
  0
LINE
  5
16A42
330
747D
100
AcDbEntity
  8
部品1
 48
0.01
100
AcDbLine
 10
5811.299125379043
 20
5025.409735000497
 30
0.0
 11
5811.299125379046
 21
5056.909735000498
 31
0.0
  0
LINE
  5
16A43
330
747D
100
AcDbEntity
  8
部品1
 48
0.01
100
AcDbLine
 10
5633.299125379046
 20
5023.409735000498
 30
0.0
 11
5809.299125379042
 21
5023.409735000498
 31
0.0
  0
LINE
  5
16A44
330
747D
100
AcDbEntity
  8
部品1
 48
0.01
100
AcDbLine
 10
5631.299125379046
 20
5056.909735000498
 30
0.0
 11
5631.299125379046
 21
5025.409735000497
 31
0.0
  0
LINE
  5
16A45
330
747D
100
AcDbEntity
  8
部品1
 48
0.01
100
AcDbLine
 10
5809.299125379046
 20
5058.909735000497
 30
0.0
 11
5633.299125379046
 21
5058.909735000497
 31
0.0
  0
LINE
  5
16A46
330
747D
100
AcDbEntity
  8
細線
100
AcDbLine
 10
5647.299125379046
 20
5046.409735000498
 30
0.0
 11
5721.299125379046
 21
5046.409735000498
 31
0.0
  0
LINE
  5
16A47
330
747D
100
AcDbEntity
  8
細線
100
AcDbLine
 10
5647.299125379046
 20
5040.409735000498
 30
0.0
 11
5721.299125379046
 21
5040.409735000498
 31
0.0
  0
LINE
  5
16A48
330
747D
100
AcDbEntity
  8
細線
100
AcDbLine
 10
5647.299125379042
 20
5034.409735000497
 30
0.0
 11
5721.299125379046
 21
5034.409735000497
 31
0.0
  0
LINE
  5
16A49
330
747D
100
AcDbEntity
  8
細線
100
AcDbLine
 10
5647.299125379046
 20
5046.409735000498
 30
0.0
 11
5716.299125379046
 21
5046.409735000498
 31
0.0
  0
LINE
  5
16A4A
330
747D
100
AcDbEntity
  8
細線
100
AcDbLine
 10
5795.299125379042
 20
5046.409735000498
 30
0.0
 11
5721.299125379046
 21
5046.409735000498
 31
0.0
  0
LINE
  5
16A4B
330
747D
100
AcDbEntity
  8
細線
100
AcDbLine
 10
5795.299125379042
 20
5034.409735000497
 30
0.0
 11
5721.299125379046
 21
5034.409735000497
 31
0.0
  0
LINE
  5
16A4C
330
747D
100
AcDbEntity
  8
細線
100
AcDbLine
 10
5795.299125379042
 20
5040.409735000498
 30
0.0
 11
5721.299125379046
 21
5040.409735000498
 31
0.0
  0
LINE
  5
16A4D
330
747D
100
AcDbEntity
  8
細線
100
AcDbLine
 10
5721.299125379046
 20
5052.409735000498
 30
0.0
 11
5721.299125379043
 21
5029.409735000498
 31
0.0
  0
LINE
  5
16A4E
330
747D
100
AcDbEntity
  8
細線
100
AcDbLine
 10
6671.299125379047
 20
5052.409735000498
 30
0.0
 11
6671.299125379042
 21
5029.409735000498
 31
0.0
  0
LINE
  5
16A4F
330
747D
100
AcDbEntity
  8
細線
100
AcDbLine
 10
6745.299125379043
 20
5040.409735000498
 30
0.0
 11
6671.299125379047
 21
5040.409735000498
 31
0.0
  0
LINE
  5
16A50
330
747D
100
AcDbEntity
  8
細線
100
AcDbLine
 10
6745.299125379043
 20
5034.409735000497
 30
0.0
 11
6671.299125379047
 21
5034.409735000497
 31
0.0
  0
LINE
  5
16A51
330
747D
100
AcDbEntity
  8
細線
100
AcDbLine
 10
6745.299125379043
 20
5046.409735000498
 30
0.0
 11
6671.299125379047
 21
5046.409735000498
 31
0.0
  0
LINE
  5
16A52
330
747D
100
AcDbEntity
  8
細線
100
AcDbLine
 10
6597.299125379047
 20
5046.409735000498
 30
0.0
 11
6666.299125379047
 21
5046.409735000498
 31
0.0
  0
LINE
  5
16A53
330
747D
100
AcDbEntity
  8
細線
100
AcDbLine
 10
6597.299125379042
 20
5034.409735000497
 30
0.0
 11
6671.299125379047
 21
5034.409735000497
 31
0.0
  0
LINE
  5
16A54
330
747D
100
AcDbEntity
  8
細線
100
AcDbLine
 10
6597.299125379047
 20
5040.409735000498
 30
0.0
 11
6671.299125379047
 21
5040.409735000498
 31
0.0
  0
LINE
  5
16A55
330
747D
100
AcDbEntity
  8
細線
100
AcDbLine
 10
6597.299125379047
 20
5046.409735000498
 30
0.0
 11
6671.299125379047
 21
5046.409735000498
 31
0.0
  0
LINE
  5
16A56
330
747D
100
AcDbEntity
  8
部品1
 48
0.01
100
AcDbLine
 10
6759.299125379046
 20
5058.909735000497
 30
0.0
 11
6583.299125379046
 21
5058.909735000497
 31
0.0
  0
LINE
  5
16A57
330
747D
100
AcDbEntity
  8
部品1
 48
0.01
100
AcDbLine
 10
6581.299125379046
 20
5056.909735000498
 30
0.0
 11
6581.299125379046
 21
5025.409735000497
 31
0.0
  0
LINE
  5
16A58
330
747D
100
AcDbEntity
  8
部品1
 48
0.01
100
AcDbLine
 10
6583.299125379046
 20
5023.409735000498
 30
0.0
 11
6759.299125379043
 21
5023.409735000498
 31
0.0
  0
LINE
  5
16A59
330
747D
100
AcDbEntity
  8
部品1
 48
0.01
100
AcDbLine
 10
6761.299125379043
 20
5025.409735000497
 30
0.0
 11
6761.299125379045
 21
5056.909735000498
 31
0.0
  0
LINE
  5
16A5A
330
747D
100
AcDbEntity
  8
細線
100
AcDbLine
 10
6597.299125379047
 20
5052.409735000498
 30
0.0
 11
6597.299125379047
 21
5029.409735000498
 31
0.0
  0
LINE
  5
16A5B
330
747D
100
AcDbEntity
  8
細線
100
AcDbLine
 10
6745.299125379045
 20
5029.409735000498
 30
0.0
 11
6745.299125379045
 21
5052.409735000498
 31
0.0
  0
LINE
  5
16A5C
330
747D
100
AcDbEntity
  8
細線
100
AcDbLine
 10
6745.299125379045
 20
5052.409735000498
 30
0.0
 11
6671.299125379047
 21
5052.409735000498
 31
0.0
  0
LINE
  5
16A5D
330
747D
100
AcDbEntity
  8
細線
100
AcDbLine
 10
6597.299125379047
 20
5029.409735000498
 30
0.0
 11
6671.299125379047
 21
5029.409735000498
 31
0.0
  0
LINE
  5
16A5E
330
747D
100
AcDbEntity
  8
細線
100
AcDbLine
 10
6671.299125379047
 20
5052.409735000498
 30
0.0
 11
6597.299125379047
 21
5052.409735000498
 31
0.0
  0
LINE
  5
16A5F
330
747D
100
AcDbEntity
  8
細線
100
AcDbLine
 10
6671.299125379042
 20
5029.409735000498
 30
0.0
 11
6745.299125379045
 21
5029.409735000498
 31
0.0
  0
ARC
  5
16A60
330
747D
100
AcDbEntity
  8
部品1
 48
0.01
100
AcDbCircle
 10
6583.299125379046
 20
5056.909735000498
 30
0.0
 40
2.0
100
AcDbArc
 50
90.0
 51
180.0
  0
ARC
  5
16A61
330
747D
100
AcDbEntity
  8
部品1
 48
0.01
100
AcDbCircle
 10
6583.299125379046
 20
5025.409735000497
 30
0.0
 40
2.0
100
AcDbArc
 50
180.0
 51
270.0
  0
ARC
  5
16A62
330
747D
100
AcDbEntity
  8
部品1
 48
0.01
100
AcDbCircle
 10
6759.299125379046
 20
5056.909735000498
 30
0.0
 40
2.0
100
AcDbArc
 50
0.0
 51
90.0
  0
ARC
  5
16A63
330
747D
100
AcDbEntity
  8
部品1
 48
0.01
100
AcDbCircle
 10
6759.299125379043
 20
5025.409735000497
 30
0.0
 40
2.0
100
AcDbArc
 50
270.0
 51
0.0
  0
LINE
  5
16A64
330
747D
100
AcDbEntity
  8
部品1
100
AcDbLine
 10
9095.879464363717
 20
5220.513209605264
 30
0.0
 11
9094.746067031371
 21
5200.537081622664
 31
0.0
  0
LINE
  5
16A65
330
747D
100
AcDbEntity
  8
細線
 48
50.0
100
AcDbLine
 10
9063.29912537905
 20
5227.909735000503
 30
0.0
 11
9063.29912537905
 21
5086.909735000503
 31
0.0
  0
LINE
  5
16A66
330
747D
100
AcDbEntity
  8
部品1
100
AcDbLine
 10
9083.309046709793
 20
5104.879674455606
 30
0.0
 11
9082.664140902682
 21
5093.513209605266
 31
0.0
  0
LINE
  5
16A67
330
747D
100
AcDbEntity
  8
部品1
100
AcDbLine
 10
9091.545077234638
 20
5197.079674455607
 30
0.0
 11
9086.510036506526
 21
5108.337081622663
 31
0.0
  0
ARC
  5
16A68
330
747D
100
AcDbEntity
  8
部品1
 48
50.0
100
AcDbCircle
 10
9094.540260130823
 20
5196.909735000505
 30
0.0
 40
3.0
100
AcDbArc
 50
97.6581272073637
 51
176.7526572096623
  0
ARC
  5
16A69
330
747D
100
AcDbEntity
  8
部品1
 48
50.0
100
AcDbCircle
 10
9086.304229605978
 20
5104.709735000502
 30
0.0
 40
3.0
100
AcDbArc
 50
97.6581272073637
 51
176.7526572096623
  0
ARC
  5
16A6A
330
747D
100
AcDbEntity
  8
部品1
 48
50.0
100
AcDbCircle
 10
9085.811160497419
 20
5108.376734162186
 30
0.0
 40
0.7
100
AcDbArc
 50
277.6581272073637
 51
356.7526572097143
  0
ARC
  5
16A6B
330
747D
100
AcDbEntity
  8
部品1
 48
50.0
100
AcDbCircle
 10
9094.047191022262
 20
5200.57673416219
 30
0.0
 40
0.7
100
AcDbArc
 50
277.6581272073637
 51
356.7526572096103
  0
ARC
  5
16A6C
330
747D
100
AcDbEntity
  8
部品1
100
AcDbCircle
 10
9075.675380811583
 20
5093.909735000504
 30
0.0
 40
7.0
100
AcDbArc
 50
270.0
 51
356.7526572096623
  0
ARC
  5
16A6D
330
747D
100
AcDbEntity
  8
部品1
100
AcDbCircle
 10
9088.890704272618
 20
5220.909735000503
 30
0.0
 40
7.0
100
AcDbArc
 50
356.7526572096623
 51
90.0
  0
DIMENSION
  5
16A6E
330
747D
100
AcDbEntity
  8
寸法
 48
50.0
100
AcDbDimension
  2
*D34
 10
9046.299125379048
 20
5440.451320258745
 30
0.0
 11
9409.784406753287
 21
5440.451320258745
 31
0.0
 70
   160
 71
     5
 42
50.0
  3
INABA_S40G
100
AcDbAlignedDimension
 13
9096.299125379049
 23
5227.909735000503
 33
0.0
 14
9046.299125379048
 24
5227.909735000505
 34
0.0
100
AcDbRotatedDimension
  0
LINE
  5
16A6F
330
747D
100
AcDbEntity
  8
部品1
 48
50.0
100
AcDbLine
 10
9088.890704272618
 20
5227.909735000508
 30
0.0
 11
4253.707546485474
 21
5227.909735000503
 31
0.0
  0
LINE
  5
16A70
330
747D
100
AcDbEntity
  8
細線
 48
50.0
100
AcDbLine
 10
9094.140474366746
 20
5199.882977563921
 30
0.0
 11
4248.45777638946
 21
5199.882977564502
 31
0.0
  0
LINE
  5
16A71
330
747D
100
AcDbEntity
  8
細線
 48
50.0
100
AcDbLine
 10
9085.904443841982
 20
5107.682977563928
 30
0.0
 11
4256.693806914292
 21
5107.682977564502
 31
0.0
  0
LINE
  5
16A72
330
747D
100
AcDbEntity
  8
部品1
 48
50.0
100
AcDbLine
 10
9075.675380811583
 20
5086.909735000503
 30
0.0
 11
4266.922869946509
 21
5086.909735000505
 31
0.0
  0
LINE
  5
16A73
330
747D
100
AcDbEntity
  8
細線
 48
50.0
100
AcDbLine
 10
4279.299125379046
 20
5227.909735000507
 30
0.0
 11
4279.299125379046
 21
5086.909735000505
 31
0.0
  0
ARC
  5
16A74
330
747D
100
AcDbEntity
  8
部品1
100
AcDbCircle
 10
4253.707546485474
 20
5220.909735000507
 30
0.0
 40
7.0
100
AcDbArc
 50
90.0
 51
183.2473427903377
  0
ARC
  5
16A75
330
747D
100
AcDbEntity
  8
部品1
100
AcDbCircle
 10
4266.922869946509
 20
5093.909735000508
 30
0.0
 40
7.0
100
AcDbArc
 50
183.2473427903377
 51
270.0
  0
ARC
  5
16A76
330
747D
100
AcDbEntity
  8
部品1
 48
50.0
100
AcDbCircle
 10
4248.551059735834
 20
5200.576734162194
 30
0.0
 40
0.7
100
AcDbArc
 50
183.2473427903897
 51
262.3418727926363
  0
ARC
  5
16A77
330
747D
100
AcDbEntity
  8
部品1
 48
50.0
100
AcDbCircle
 10
4256.787090260673
 20
5108.37673416219
 30
0.0
 40
0.7
100
AcDbArc
 50
183.2473427902856
 51
262.3418727926363
  0
ARC
  5
16A78
330
747D
100
AcDbEntity
  8
部品1
 48
50.0
100
AcDbCircle
 10
4256.294021152113
 20
5104.709735000506
 30
0.0
 40
3.0
100
AcDbArc
 50
3.247342790337682
 51
82.34187279263631
  0
ARC
  5
16A79
330
747D
100
AcDbEntity
  8
部品1
 48
50.0
100
AcDbCircle
 10
4248.057990627269
 20
5196.909735000509
 30
0.0
 40
3.0
100
AcDbArc
 50
3.247342790337682
 51
82.34187279263631
  0
LINE
  5
16A7A
330
747D
100
AcDbEntity
  8
部品1
100
AcDbLine
 10
4251.053173523454
 20
5197.07967445561
 30
0.0
 11
4256.088214251565
 21
5108.337081622667
 31
0.0
  0
LINE
  5
16A7B
330
747D
100
AcDbEntity
  8
部品1
100
AcDbLine
 10
4259.289204048302
 20
5104.879674455609
 30
0.0
 11
4259.93410985541
 21
5093.513209605267
 31
0.0
  0
LINE
  5
16A7C
330
747D
100
AcDbEntity
  8
部品1
100
AcDbLine
 10
4246.718786394376
 20
5220.513209605268
 30
0.0
 11
4247.852183726725
 21
5200.537081622668
 31
0.0
  0
DIMENSION
  5
16A7D
330
747D
100
AcDbEntity
  8
寸法
 48
50.0
100
AcDbDimension
  2
*D35
 10
4246.299125379046
 20
5440.451320258748
 30
0.0
 11
3932.813844004799
 21
5440.451320258748
 31
0.0
 70
   160
 71
     5
 42
50.0
  3
INABA_S40G
100
AcDbAlignedDimension
 13
4296.299125379046
 23
5227.90973500051
 33
0.0
 14
4246.299125379046
 24
5227.909735000508
 34
0.0
100
AcDbRotatedDimension
1001
ACAD
1000
DSTYLE
1002
{
1002
}
  0
DIMENSION
  5
16A7E
330
747D
100
AcDbEntity
  8
寸法
 48
50.0
100
AcDbDimension
  2
*D36
 10
9096.299125379049
 20
5663.408298696595
 30
0.0
 11
6671.299125379035
 21
5663.408298696595
 31
0.0
 70
   160
 71
     5
 42
4850.000000000004
  3
INABA_S40G
100
AcDbAlignedDimension
 13
4246.299125379046
 23
5227.909735000508
 33
0.0
 14
9096.299125379049
 24
5227.909735000503
 34
0.0
100
AcDbRotatedDimension
  0
DIMENSION
  5
16A7F
330
747D
100
AcDbEntity
  8
寸法
 48
50.0
100
AcDbDimension
  2
*D37
 10
4296.299125379046
 20
5440.451320258748
 30
0.0
 11
6671.299125379035
 21
5440.451320258748
 31
0.0
 70
   160
  1
柱外寸法<>
 71
     5
 42
4750.000000000003
  3
INABA_S40G
100
AcDbAlignedDimension
 13
9046.299125379048
 23
5227.909735000505
 33
0.0
 14
4296.299125379046
 24
5227.90973500051
 34
0.0
100
AcDbRotatedDimension
  0
TEXT
  5
16AD2
330
747D
100
AcDbEntity
  8
部品1
100
AcDbText
 10
6380.089196002773
 20
2256.939624965261
 30
0.0
 40
135.0
  1
正面図
  7
STYLE2
100
AcDbText
  0
LWPOLYLINE
  5
16AD3
330
747D
100
AcDbEntity
  8
部品1
100
AcDbPolyline
 90
        4
 70
     1
 43
0.0
 10
6289.563792264817
 20
2449.833154183786
 10
6289.563792264817
 20
2209.940832638254
 10
7053.034458493257
 20
2209.940832638254
 10
7053.034458493257
 20
2449.833154183786
  0
LINE
  5
16B12
330
747D
100
AcDbEntity
  8
部品1
100
AcDbLine
 10
5071.236677550365
 20
4990.409735000503
 30
0.0
 11
5071.299125379046
 21
4990.409735000501
 31
0.0
  0
ARC
  5
16B13
330
747D
100
AcDbEntity
  8
細線
 48
0.2
100
AcDbCircle
 10
5068.236677550365
 20
4990.630244831751
 30
0.0
 40
1.0
100
AcDbArc
 50
0.0
 51
73.39845040100872
  0
LINE
  5
16B14
330
747D
100
AcDbEntity
  8
細線
 48
50.0
100
AcDbLine
 10
5051.236677550365
 20
4990.409735000503
 30
0.0
 11
5051.236677550365
 21
4990.659735000503
 31
0.0
  0
ARC
  5
16B15
330
747D
100
AcDbEntity
  8
細線
 48
0.2
100
AcDbCircle
 10
5058.236677550365
 20
4990.630244831751
 30
0.0
 40
1.0
100
AcDbArc
 50
106.6015495989913
 51
180.0
  0
LINE
  5
16B16
330
747D
100
AcDbEntity
  8
細線
 48
0.2
100
AcDbLine
 10
5071.236677550365
 20
4990.659735000503
 30
0.0
 11
5051.236677550365
 21
4990.659735000503
 31
0.0
  0
LINE
  5
16B17
330
747D
100
AcDbEntity
  8
細線
 48
0.2
100
AcDbLine
 10
5071.236677550365
 20
4988.159735000503
 30
0.0
 11
5051.236677550365
 21
4988.159735000503
 31
0.0
  0
ARC
  5
16B18
330
747D
100
AcDbEntity
  8
細線
 48
0.2
100
AcDbCircle
 10
5063.236677550365
 20
4973.859735000505
 30
0.0
 40
18.49999999999796
100
AcDbArc
 50
73.39845040100872
 51
106.6015495989913
  0
LINE
  5
16B19
330
747D
100
AcDbEntity
  8
細線
 48
0.2
100
AcDbLine
 10
5068.920668846873
 20
4991.359735000504
 30
0.0
 11
5057.552686253861
 21
4991.359735000504
 31
0.0
  0
LINE
  5
16B1A
330
747D
100
AcDbEntity
  8
細線
 48
0.2
100
AcDbLine
 10
5071.236677550365
 20
4986.159735000503
 30
0.0
 11
5051.236677550365
 21
4986.159735000503
 31
0.0
  0
LINE
  5
16B1B
330
747D
100
AcDbEntity
  8
部品1
 48
0.2
100
AcDbLine
 10
5071.236677550365
 20
4983.659735000504
 30
0.0
 11
5051.236677550365
 21
4983.659735000504
 31
0.0
  0
LINE
  5
16B1C
330
747D
100
AcDbEntity
  8
部品1
 48
50.0
100
AcDbLine
 10
5051.236677550365
 20
4983.659735000504
 30
0.0
 11
5051.236677550365
 21
4990.409735000503
 31
0.0
  0
LINE
  5
16B1D
330
747D
100
AcDbEntity
  8
細線
 48
50.0
100
AcDbLine
 10
5059.373920356062
 20
4988.159735000503
 30
0.0
 11
5059.373920356062
 21
4986.159735000503
 31
0.0
  0
LINE
  5
16B1E
330
747D
100
AcDbEntity
  8
細線
 48
0.1
100
AcDbLine
 10
5071.236677550365
 20
4990.659735000503
 30
0.0
 11
5071.236677550365
 21
4983.659735000504
 31
0.0
  0
LINE
  5
16B1F
330
747D
100
AcDbEntity
  8
細線
 48
50.0
100
AcDbLine
 10
5067.224330402027
 20
4988.159735000503
 30
0.0
 11
5067.224330402027
 21
4986.159735000503
 31
0.0
  0
LINE
  5
16B20
330
747D
100
AcDbEntity
  8
細線
100
AcDbLine
 10
5329.299125379046
 20
4138.909227101939
 30
0.0
 11
5316.535798163076
 21
4138.909227101939
 31
0.0
  0
CIRCLE
  5
16B21
330
747D
100
AcDbEntity
  8
細線
 48
50.0
100
AcDbCircle
 10
5336.799990433541
 20
4195.409735000501
 30
0.0
 40
20.0
  0
LINE
  5
16B22
330
747D
100
AcDbEntity
  8
細線
100
AcDbLine
 10
5356.299125379046
 20
4153.409735000501
 30
0.0
 11
5317.132506909798
 21
4153.409735000501
 31
0.0
  0
ARC
  5
16B23
330
747D
100
AcDbEntity
  8
細線
100
AcDbCircle
 10
5351.299125379046
 20
4138.909735000502
 30
0.0
 40
6.0
100
AcDbArc
 50
0.0
 51
90.0
  0
ARC
  5
16B24
330
747D
100
AcDbEntity
  8
部品1
100
AcDbCircle
 10
5357.299125379046
 20
4148.909735000501
 30
0.0
 40
6.0
100
AcDbArc
 50
0.0
 51
90.0
  0
ARC
  5
16B25
330
747D
100
AcDbEntity
  8
細線
100
AcDbCircle
 10
5356.299125379046
 20
4147.909735000501
 30
0.0
 40
5.5
100
AcDbArc
 50
0.0
 51
90.0
  0
CIRCLE
  5
16B26
330
747D
100
AcDbEntity
  8
細線
 48
50.0
100
AcDbCircle
 10
5336.799990433541
 20
4195.409735000501
 30
0.0
 40
10.0
  0
ARC
  5
16B27
330
747D
100
AcDbEntity
  8
細線
100
AcDbCircle
 10
5341.506664557794
 20
4135.909735000502
 30
0.0
 40
6.0
100
AcDbArc
 50
0.0
 51
90.0
  0
LINE
  5
16B28
330
747D
100
AcDbEntity
  8
細線
100
AcDbLine
 10
5341.506664557794
 20
4141.909735000501
 30
0.0
 11
5329.299125379046
 21
4141.909735000501
 31
0.0
  0
ARC
  5
16B29
330
747D
100
AcDbEntity
  8
細線
100
AcDbCircle
 10
5330.79354928888
 20
4135.909735000502
 30
0.0
 40
3.0
100
AcDbArc
 50
8.09955083827424
 51
90.0
  0
LINE
  5
16B2A
330
747D
100
AcDbEntity
  8
細線
100
AcDbLine
 10
5330.79354928888
 20
4138.909735000502
 30
0.0
 11
5329.299125379046
 21
4138.909735000502
 31
0.0
  0
LINE
  5
16B2B
330
747D
100
AcDbEntity
  8
細線
100
AcDbLine
 10
5351.299125379046
 20
4144.909735000501
 30
0.0
 11
5320.680081743525
 21
4144.909735000501
 31
0.0
  0
LINE
  5
16B2C
330
747D
100
AcDbEntity
  8
細線
100
AcDbLine
 10
5317.132506909798
 20
4036.409735000501
 30
0.0
 11
5356.299125379046
 21
4036.409735000501
 31
0.0
  0
ARC
  5
16B2D
330
747D
100
AcDbEntity
  8
細線
100
AcDbCircle
 10
5351.299125379046
 20
4050.909735000501
 30
0.0
 40
6.0
100
AcDbArc
 50
270.0
 51
0.0
  0
ARC
  5
16B2E
330
747D
100
AcDbEntity
  8
部品1
100
AcDbCircle
 10
5357.299125379046
 20
4040.909735000501
 30
0.0
 40
6.0
100
AcDbArc
 50
270.0
 51
0.0
  0
ARC
  5
16B2F
330
747D
100
AcDbEntity
  8
細線
100
AcDbCircle
 10
5356.299125379046
 20
4041.9097350005
 30
0.0
 40
5.5
100
AcDbArc
 50
270.0
 51
0.0
  0
ARC
  5
16B30
330
747D
100
AcDbEntity
  8
細線
100
AcDbCircle
 10
5341.506664557794
 20
4053.909735000501
 30
0.0
 40
6.0
100
AcDbArc
 50
270.0
 51
0.0
  0
LINE
  5
16B31
330
747D
100
AcDbEntity
  8
細線
100
AcDbLine
 10
5329.299125379046
 20
4047.909735000501
 30
0.0
 11
5341.506664557794
 21
4047.909735000501
 31
0.0
  0
ARC
  5
16B32
330
747D
100
AcDbEntity
  8
細線
100
AcDbCircle
 10
5330.793549288883
 20
4053.909735000501
 30
0.0
 40
3.0
100
AcDbArc
 50
270.0
 51
351.9004491617258
  0
LINE
  5
16B33
330
747D
100
AcDbEntity
  8
細線
100
AcDbLine
 10
5329.299125379046
 20
4050.909735000501
 30
0.0
 11
5330.793549288883
 21
4050.909735000501
 31
0.0
  0
LINE
  5
16B34
330
747D
100
AcDbEntity
  8
細線
100
AcDbLine
 10
5320.680081743525
 20
4044.9097350005
 30
0.0
 11
5351.299125379046
 21
4044.9097350005
 31
0.0
  0
LINE
  5
16B35
330
747D
100
AcDbEntity
  8
部品1
100
AcDbLine
 10
5363.299125379047
 20
4040.909735000501
 30
0.0
 11
5363.299125379047
 21
4148.909735000501
 31
0.0
  0
LINE
  5
16B36
330
747D
100
AcDbEntity
  8
細線
100
AcDbLine
 10
5361.799125379047
 20
4041.9097350005
 30
0.0
 11
5361.799125379047
 21
4147.909735000501
 31
0.0
  0
LINE
  5
16B37
330
747D
100
AcDbEntity
  8
細線
100
AcDbLine
 10
5357.299125379046
 20
4050.909735000501
 30
0.0
 11
5357.299125379046
 21
4138.909735000502
 31
0.0
  0
ARC
  5
16B38
330
747D
100
AcDbEntity
  8
細線
100
AcDbCircle
 10
5042.696343471122
 20
4094.909735000501
 30
0.0
 40
294.0
100
AcDbArc
 50
351.9004491617258
 51
8.09955083827424
  0
LINE
  5
16B39
330
747D
100
AcDbEntity
  8
細線
100
AcDbLine
 10
5329.299125379046
 20
4144.909735000501
 30
0.0
 11
5329.299125379046
 21
4044.9097350005
 31
0.0
  0
LINE
  5
16B3A
330
747D
100
AcDbEntity
  8
細線
100
AcDbLine
 10
5347.506664557794
 20
4053.909735000501
 30
0.0
 11
5347.506664557794
 21
4135.909735000502
 31
0.0
  0
ARC
  5
16B3B
330
747D
100
AcDbEntity
  8
部品1
100
AcDbCircle
 10
5316.300855488033
 20
4148.909735000501
 30
0.0
 40
6.0
100
AcDbArc
 50
90.0
 51
169.4161974034734
  0
ARC
  5
16B3C
330
747D
100
AcDbEntity
  8
部品1
100
AcDbCircle
 10
5316.300855488033
 20
4040.909735000501
 30
0.0
 40
6.0
100
AcDbArc
 50
190.5838025965266
 51
270.0
  0
ARC
  5
16B3D
330
747D
100
AcDbEntity
  8
細線
100
AcDbCircle
 10
5605.299125379046
 20
4094.909735000501
 30
0.0
 40
294.0
100
AcDbArc
 50
171.2120626773498
 51
188.7879373226501
  0
ARC
  5
16B3E
330
747D
100
AcDbEntity
  8
細線
100
AcDbCircle
 10
5605.299125379046
 20
4094.909735000501
 30
0.0
 40
298.5
100
AcDbArc
 50
169.5785490272659
 51
190.4214509727341
  0
ARC
  5
16B3F
330
747D
100
AcDbEntity
  8
部品1
100
AcDbCircle
 10
5605.299125379046
 20
4094.909735000501
 30
0.0
 40
300.0
100
AcDbArc
 50
169.4161974034734
 51
190.5838025965266
  0
ARC
  5
16B40
330
747D
100
AcDbEntity
  8
細線
100
AcDbCircle
 10
5320.680081743525
 20
4050.909735000501
 30
0.0
 40
6.0
100
AcDbArc
 50
188.7879373226501
 51
270.0
  0
LINE
  5
16B41
330
747D
100
AcDbEntity
  8
細線
100
AcDbLine
 10
5329.299125379046
 20
4050.910242899064
 30
0.0
 11
5315.820420880224
 21
4050.910242899064
 31
0.0
  0
LINE
  5
16B42
330
747D
100
AcDbEntity
  8
部品1
100
AcDbLine
 10
5316.300855488033
 20
4034.909735000502
 30
0.0
 11
5357.299125379046
 21
4034.909735000502
 31
0.0
  0
ARC
  5
16B43
330
747D
100
AcDbEntity
  8
細線
100
AcDbCircle
 10
5317.132506909798
 20
4041.9097350005
 30
0.0
 40
5.5
100
AcDbArc
 50
190.4214509727341
 51
270.0
  0
ARC
  5
16B44
330
747D
100
AcDbEntity
  8
細線
100
AcDbCircle
 10
5320.680081743525
 20
4138.909735000502
 30
0.0
 40
6.0
100
AcDbArc
 50
90.0
 51
171.2120626773498
  0
LINE
  5
16B45
330
747D
100
AcDbEntity
  8
部品1
100
AcDbLine
 10
5357.299125379046
 20
4154.909735000501
 30
0.0
 11
5316.300855488033
 21
4154.909735000501
 31
0.0
  0
ARC
  5
16B46
330
747D
100
AcDbEntity
  8
細線
100
AcDbCircle
 10
5317.132506909798
 20
4147.909735000501
 30
0.0
 40
5.5
100
AcDbArc
 50
90.0
 51
169.5785490272659
  0
LINE
  5
16B47
330
747D
100
AcDbEntity
  8
部品1
100
AcDbLine
 10
4341.299125379046
 20
4990.409735000503
 30
0.0
 11
5051.236677550365
 21
4990.409735000503
 31
0.0
  0
LINE
  5
16B48
330
747D
100
AcDbEntity
  8
部品1
 48
0.2
100
AcDbLine
 10
5071.236677550365
 20
3206.159735000519
 30
0.0
 11
5051.236677550365
 21
3206.159735000519
 31
0.0
  0
LINE
  5
16B49
330
747D
100
AcDbEntity
  8
細線
 48
0.2
100
AcDbLine
 10
5071.236677550365
 20
3203.65973500052
 30
0.0
 11
5051.236677550365
 21
3203.65973500052
 31
0.0
  0
LINE
  5
16B4A
330
747D
100
AcDbEntity
  8
部品1
100
AcDbLine
 10
5071.236677550365
 20
3199.409735000513
 30
0.0
 11
5071.299125379046
 21
3199.409735000513
 31
0.0
  0
LINE
  5
16B4B
330
747D
100
AcDbEntity
  8
部品1
100
AcDbLine
 10
5071.236677550365
 20
3199.409735000521
 30
0.0
 11
5071.299125379046
 21
3199.409735000521
 31
0.0
  0
ARC
  5
16B4C
330
747D
100
AcDbEntity
  8
細線
 48
0.2
100
AcDbCircle
 10
5068.236677550365
 20
3199.189225169272
 30
0.0
 40
1.0
100
AcDbArc
 50
286.6015495989913
 51
0.0
  0
LINE
  5
16B4D
330
747D
100
AcDbEntity
  8
細線
 48
50.0
100
AcDbLine
 10
5051.236677550365
 20
3199.409735000521
 30
0.0
 11
5051.236677550365
 21
3199.15973500052
 31
0.0
  0
ARC
  5
16B4E
330
747D
100
AcDbEntity
  8
細線
 48
0.2
100
AcDbCircle
 10
5058.236677550365
 20
3199.189225169272
 30
0.0
 40
1.0
100
AcDbArc
 50
180.0
 51
253.3984504010087
  0
LINE
  5
16B4F
330
747D
100
AcDbEntity
  8
細線
 48
0.2
100
AcDbLine
 10
5068.920668846873
 20
3198.459735000519
 30
0.0
 11
5057.552686253861
 21
3198.459735000519
 31
0.0
  0
ARC
  5
16B50
330
747D
100
AcDbEntity
  8
細線
 48
0.2
100
AcDbCircle
 10
5063.236677550365
 20
3215.959735000517
 30
0.0
 40
18.49999999999796
100
AcDbArc
 50
253.3984504010087
 51
286.6015495989913
  0
LINE
  5
16B51
330
747D
100
AcDbEntity
  8
細線
 48
0.2
100
AcDbLine
 10
5071.236677550365
 20
3201.65973500052
 30
0.0
 11
5051.236677550365
 21
3201.659735000522
 31
0.0
  0
LINE
  5
16B52
330
747D
100
AcDbEntity
  8
細線
 48
0.2
100
AcDbLine
 10
5071.236677550365
 20
3199.15973500052
 30
0.0
 11
5051.236677550365
 21
3199.15973500052
 31
0.0
  0
LINE
  5
16B53
330
747D
100
AcDbEntity
  8
細線
 48
50.0
100
AcDbLine
 10
5067.224330402027
 20
3201.659735000522
 30
0.0
 11
5067.224330402027
 21
3203.65973500052
 31
0.0
  0
LINE
  5
16B54
330
747D
100
AcDbEntity
  8
細線
 48
0.1
100
AcDbLine
 10
5071.236677550365
 20
3199.15973500052
 30
0.0
 11
5071.236677550365
 21
3206.159735000519
 31
0.0
  0
LINE
  5
16B55
330
747D
100
AcDbEntity
  8
部品1
 48
50.0
100
AcDbLine
 10
5051.236677550365
 20
3206.159735000519
 30
0.0
 11
5051.236677550365
 21
3199.409735000521
 31
0.0
  0
LINE
  5
16B56
330
747D
100
AcDbEntity
  8
細線
 48
50.0
100
AcDbLine
 10
5059.373920356062
 20
3201.659735000522
 30
0.0
 11
5059.373920356062
 21
3203.65973500052
 31
0.0
  0
LINE
  5
16B57
330
747D
100
AcDbEntity
  8
部品1
100
AcDbLine
 10
4341.299125379046
 20
3199.409735000507
 30
0.0
 11
5051.236677550365
 21
3199.409735000521
 31
0.0
  0
LINE
  5
16B58
330
747D
100
AcDbEntity
  8
部品1
100
AcDbLine
 10
5289.299125379046
 20
4992.909735000502
 30
0.0
 11
5289.299125379046
 21
3195.909735000521
 31
0.0
  0
LINE
  5
16B59
330
747D
100
AcDbEntity
  8
部品1
100
AcDbLine
 10
5291.299125379046
 20
4990.409735000501
 30
0.0
 11
5291.299125379046
 21
3199.409735000516
 31
0.0
  0
LINE
  5
16B5A
330
747D
100
AcDbEntity
  8
部品1
100
AcDbLine
 10
5071.299125379042
 20
4990.409735000501
 30
0.0
 11
5071.299125379046
 21
3199.409735000521
 31
0.0
  0
LINE
  5
16B5B
330
747D
100
AcDbEntity
  8
部品1
100
AcDbLine
 10
5203.299125379047
 20
4992.909735000502
 30
0.0
 11
5203.299125379047
 21
3195.909735000521
 31
0.0
  0
LINE
  5
16B5C
330
747D
100
AcDbEntity
  8
部品1
100
AcDbLine
 10
5073.299125379046
 20
4992.909735000502
 30
0.0
 11
5073.299125379046
 21
3195.909735000521
 31
0.0
  0
LINE
  5
16B5D
330
747D
100
AcDbEntity
  8
部品1
 48
50.0
100
AcDbLine
 10
6196.299125379046
 20
3195.909735000505
 30
0.0
 11
6196.299125379046
 21
3152.909735000502
 31
0.0
  0
LINE
  5
16B5E
330
747D
100
AcDbEntity
  8
細線
 48
50.0
100
AcDbLine
 10
6186.299125379046
 20
5086.909735000504
 30
0.0
 11
6186.299125379046
 21
5227.909735000506
 31
0.0
  0
LINE
  5
16B5F
330
747D
100
AcDbEntity
  8
細線
 48
50.0
100
AcDbLine
 10
6196.299125379046
 20
5086.909735000504
 30
0.0
 11
6196.299125379046
 21
4992.909735000502
 31
0.0
  0
LINE
  5
16B9E
330
747D
100
AcDbEntity
  8
細線
 48
50.0
100
AcDbLine
 10
6017.224330402027
 20
4988.159735000503
 30
0.0
 11
6017.224330402027
 21
4986.159735000503
 31
0.0
  0
LINE
  5
16B9F
330
747D
100
AcDbEntity
  8
細線
 48
0.1
100
AcDbLine
 10
6021.236677550366
 20
4990.659735000503
 30
0.0
 11
6021.236677550366
 21
4983.659735000504
 31
0.0
  0
LINE
  5
16BA0
330
747D
100
AcDbEntity
  8
細線
 48
50.0
100
AcDbLine
 10
6009.373920356061
 20
4988.159735000503
 30
0.0
 11
6009.373920356061
 21
4986.159735000503
 31
0.0
  0
LINE
  5
16BA1
330
747D
100
AcDbEntity
  8
部品1
 48
50.0
100
AcDbLine
 10
6001.236677550365
 20
4983.659735000504
 30
0.0
 11
6001.236677550365
 21
4990.409735000503
 31
0.0
  0
LINE
  5
16BA2
330
747D
100
AcDbEntity
  8
部品1
 48
0.2
100
AcDbLine
 10
6021.236677550366
 20
4983.659735000504
 30
0.0
 11
6001.236677550365
 21
4983.659735000504
 31
0.0
  0
LINE
  5
16BA3
330
747D
100
AcDbEntity
  8
細線
 48
0.2
100
AcDbLine
 10
6021.236677550366
 20
4986.159735000503
 30
0.0
 11
6001.236677550365
 21
4986.159735000503
 31
0.0
  0
LINE
  5
16BA4
330
747D
100
AcDbEntity
  8
細線
 48
0.2
100
AcDbLine
 10
6018.920668846873
 20
4991.359735000504
 30
0.0
 11
6007.552686253861
 21
4991.359735000504
 31
0.0
  0
ARC
  5
16BA5
330
747D
100
AcDbEntity
  8
細線
 48
0.2
100
AcDbCircle
 10
6013.236677550366
 20
4973.859735000505
 30
0.0
 40
18.49999999999796
100
AcDbArc
 50
73.39845040100872
 51
106.6015495989913
  0
LINE
  5
16BA6
330
747D
100
AcDbEntity
  8
細線
 48
0.2
100
AcDbLine
 10
6021.236677550366
 20
4988.159735000503
 30
0.0
 11
6001.236677550365
 21
4988.159735000503
 31
0.0
  0
LINE
  5
16BA7
330
747D
100
AcDbEntity
  8
細線
 48
0.2
100
AcDbLine
 10
6021.236677550366
 20
4990.659735000503
 30
0.0
 11
6001.236677550365
 21
4990.659735000503
 31
0.0
  0
ARC
  5
16BA8
330
747D
100
AcDbEntity
  8
細線
 48
0.2
100
AcDbCircle
 10
6008.236677550365
 20
4990.630244831751
 30
0.0
 40
1.0
100
AcDbArc
 50
106.6015495989913
 51
180.0
  0
LINE
  5
16BA9
330
747D
100
AcDbEntity
  8
細線
 48
50.0
100
AcDbLine
 10
6001.236677550365
 20
4990.409735000503
 30
0.0
 11
6001.236677550365
 21
4990.659735000503
 31
0.0
  0
ARC
  5
16BAA
330
747D
100
AcDbEntity
  8
細線
 48
0.2
100
AcDbCircle
 10
6018.236677550365
 20
4990.630244831751
 30
0.0
 40
1.0
100
AcDbArc
 50
0.0
 51
73.39845040100872
  0
LINE
  5
16BAB
330
747D
100
AcDbEntity
  8
部品1
100
AcDbLine
 10
6021.236677550366
 20
4990.409735000503
 30
0.0
 11
6021.299125379046
 21
4990.409735000501
 31
0.0
  0
LINE
  5
16BAC
330
747D
100
AcDbEntity
  8
部品1
100
AcDbLine
 10
5291.299125379046
 20
4990.409735000503
 30
0.0
 11
6001.236677550365
 21
4990.409735000503
 31
0.0
  0
LINE
  5
16BAD
330
747D
100
AcDbEntity
  8
細線
100
AcDbLine
 10
6301.299125379046
 20
4144.909735000501
 30
0.0
 11
6270.680081743525
 21
4144.909735000501
 31
0.0
  0
LINE
  5
16BAE
330
747D
100
AcDbEntity
  8
細線
100
AcDbLine
 10
6280.79354928888
 20
4138.909735000502
 30
0.0
 11
6279.299125379046
 21
4138.909735000502
 31
0.0
  0
ARC
  5
16BAF
330
747D
100
AcDbEntity
  8
細線
100
AcDbCircle
 10
6280.79354928888
 20
4135.909735000502
 30
0.0
 40
3.0
100
AcDbArc
 50
8.09955083827424
 51
90.0
  0
LINE
  5
16BB0
330
747D
100
AcDbEntity
  8
細線
100
AcDbLine
 10
6291.506664557793
 20
4141.909735000501
 30
0.0
 11
6279.299125379046
 21
4141.909735000501
 31
0.0
  0
ARC
  5
16BB1
330
747D
100
AcDbEntity
  8
細線
100
AcDbCircle
 10
6291.506664557793
 20
4135.909735000502
 30
0.0
 40
6.0
100
AcDbArc
 50
0.0
 51
90.0
  0
CIRCLE
  5
16BB2
330
747D
100
AcDbEntity
  8
細線
 48
50.0
100
AcDbCircle
 10
6286.799990433541
 20
4195.409735000501
 30
0.0
 40
10.0
  0
ARC
  5
16BB3
330
747D
100
AcDbEntity
  8
細線
100
AcDbCircle
 10
6306.299125379046
 20
4147.909735000501
 30
0.0
 40
5.5
100
AcDbArc
 50
0.0
 51
90.0
  0
ARC
  5
16BB4
330
747D
100
AcDbEntity
  8
部品1
100
AcDbCircle
 10
6307.299125379046
 20
4148.909735000501
 30
0.0
 40
6.0
100
AcDbArc
 50
0.0
 51
90.0
  0
ARC
  5
16BB5
330
747D
100
AcDbEntity
  8
細線
100
AcDbCircle
 10
6301.299125379046
 20
4138.909735000502
 30
0.0
 40
6.0
100
AcDbArc
 50
0.0
 51
90.0
  0
ARC
  5
16BB6
330
747D
100
AcDbEntity
  8
部品1
100
AcDbCircle
 10
6266.300855488033
 20
4148.909735000501
 30
0.0
 40
6.0
100
AcDbArc
 50
90.0
 51
169.4161974034734
  0
ARC
  5
16BB7
330
747D
100
AcDbEntity
  8
細線
100
AcDbCircle
 10
6267.132506909798
 20
4147.909735000501
 30
0.0
 40
5.5
100
AcDbArc
 50
90.0
 51
169.5785490272659
  0
LINE
  5
16BB8
330
747D
100
AcDbEntity
  8
細線
100
AcDbLine
 10
6306.299125379046
 20
4153.409735000501
 30
0.0
 11
6267.132506909798
 21
4153.409735000501
 31
0.0
  0
LINE
  5
16BB9
330
747D
100
AcDbEntity
  8
部品1
100
AcDbLine
 10
6307.299125379046
 20
4154.909735000501
 30
0.0
 11
6266.300855488033
 21
4154.909735000501
 31
0.0
  0
CIRCLE
  5
16BBA
330
747D
100
AcDbEntity
  8
細線
 48
50.0
100
AcDbCircle
 10
6286.799990433541
 20
4195.409735000501
 30
0.0
 40
20.0
  0
LINE
  5
16BBB
330
747D
100
AcDbEntity
  8
細線
100
AcDbLine
 10
6279.299125379046
 20
4138.909227101939
 30
0.0
 11
6266.535798163077
 21
4138.909227101939
 31
0.0
  0
ARC
  5
16BBC
330
747D
100
AcDbEntity
  8
細線
100
AcDbCircle
 10
6270.680081743525
 20
4138.909735000502
 30
0.0
 40
6.0
100
AcDbArc
 50
90.0
 51
171.2120626773498
  0
LINE
  5
16BBD
330
747D
100
AcDbEntity
  8
細線
100
AcDbLine
 10
6270.680081743525
 20
4044.9097350005
 30
0.0
 11
6301.299125379046
 21
4044.9097350005
 31
0.0
  0
LINE
  5
16BBE
330
747D
100
AcDbEntity
  8
細線
100
AcDbLine
 10
6279.299125379046
 20
4050.909735000501
 30
0.0
 11
6280.793549288883
 21
4050.909735000501
 31
0.0
  0
ARC
  5
16BBF
330
747D
100
AcDbEntity
  8
細線
100
AcDbCircle
 10
6280.793549288883
 20
4053.909735000501
 30
0.0
 40
3.0
100
AcDbArc
 50
270.0
 51
351.9004491617258
  0
LINE
  5
16BC0
330
747D
100
AcDbEntity
  8
細線
100
AcDbLine
 10
6279.299125379046
 20
4047.909735000501
 30
0.0
 11
6291.506664557793
 21
4047.909735000501
 31
0.0
  0
ARC
  5
16BC1
330
747D
100
AcDbEntity
  8
細線
100
AcDbCircle
 10
6291.506664557793
 20
4053.909735000501
 30
0.0
 40
6.0
100
AcDbArc
 50
270.0
 51
0.0
  0
ARC
  5
16BC2
330
747D
100
AcDbEntity
  8
細線
100
AcDbCircle
 10
6306.299125379046
 20
4041.9097350005
 30
0.0
 40
5.5
100
AcDbArc
 50
270.0
 51
0.0
  0
ARC
  5
16BC3
330
747D
100
AcDbEntity
  8
部品1
100
AcDbCircle
 10
6307.299125379046
 20
4040.909735000501
 30
0.0
 40
6.0
100
AcDbArc
 50
270.0
 51
0.0
  0
ARC
  5
16BC4
330
747D
100
AcDbEntity
  8
細線
100
AcDbCircle
 10
6301.299125379046
 20
4050.909735000501
 30
0.0
 40
6.0
100
AcDbArc
 50
270.0
 51
0.0
  0
ARC
  5
16BC5
330
747D
100
AcDbEntity
  8
部品1
100
AcDbCircle
 10
6266.300855488033
 20
4040.909735000501
 30
0.0
 40
6.0
100
AcDbArc
 50
190.5838025965266
 51
270.0
  0
ARC
  5
16BC6
330
747D
100
AcDbEntity
  8
細線
100
AcDbCircle
 10
6267.132506909798
 20
4041.9097350005
 30
0.0
 40
5.5
100
AcDbArc
 50
190.4214509727341
 51
270.0
  0
LINE
  5
16BC7
330
747D
100
AcDbEntity
  8
細線
100
AcDbLine
 10
6267.132506909798
 20
4036.409735000501
 30
0.0
 11
6306.299125379046
 21
4036.409735000501
 31
0.0
  0
LINE
  5
16BC8
330
747D
100
AcDbEntity
  8
部品1
100
AcDbLine
 10
6266.300855488033
 20
4034.909735000502
 30
0.0
 11
6307.299125379046
 21
4034.909735000502
 31
0.0
  0
LINE
  5
16BC9
330
747D
100
AcDbEntity
  8
細線
100
AcDbLine
 10
6279.299125379046
 20
4050.910242899064
 30
0.0
 11
6265.820420880224
 21
4050.910242899064
 31
0.0
  0
ARC
  5
16BCA
330
747D
100
AcDbEntity
  8
細線
100
AcDbCircle
 10
6270.680081743525
 20
4050.909735000501
 30
0.0
 40
6.0
100
AcDbArc
 50
188.7879373226501
 51
270.0
  0
LINE
  5
16BCB
330
747D
100
AcDbEntity
  8
細線
100
AcDbLine
 10
6297.506664557793
 20
4053.909735000501
 30
0.0
 11
6297.506664557793
 21
4135.909735000502
 31
0.0
  0
LINE
  5
16BCC
330
747D
100
AcDbEntity
  8
細線
100
AcDbLine
 10
6279.299125379046
 20
4144.909735000501
 30
0.0
 11
6279.299125379046
 21
4044.9097350005
 31
0.0
  0
ARC
  5
16BCD
330
747D
100
AcDbEntity
  8
部品1
100
AcDbCircle
 10
6555.299125379047
 20
4094.909735000501
 30
0.0
 40
300.0
100
AcDbArc
 50
169.4161974034734
 51
190.5838025965266
  0
ARC
  5
16BCE
330
747D
100
AcDbEntity
  8
細線
100
AcDbCircle
 10
6555.299125379047
 20
4094.909735000501
 30
0.0
 40
298.5
100
AcDbArc
 50
169.5785490272659
 51
190.4214509727341
  0
ARC
  5
16BCF
330
747D
100
AcDbEntity
  8
細線
100
AcDbCircle
 10
6555.299125379047
 20
4094.909735000501
 30
0.0
 40
294.0
100
AcDbArc
 50
171.2120626773498
 51
188.7879373226501
  0
ARC
  5
16BD0
330
747D
100
AcDbEntity
  8
細線
100
AcDbCircle
 10
5992.696343471122
 20
4094.909735000501
 30
0.0
 40
294.0
100
AcDbArc
 50
351.9004491617258
 51
8.09955083827424
  0
LINE
  5
16BD1
330
747D
100
AcDbEntity
  8
細線
100
AcDbLine
 10
6307.299125379046
 20
4050.909735000501
 30
0.0
 11
6307.299125379046
 21
4138.909735000502
 31
0.0
  0
LINE
  5
16BD2
330
747D
100
AcDbEntity
  8
細線
100
AcDbLine
 10
6311.799125379046
 20
4041.9097350005
 30
0.0
 11
6311.799125379046
 21
4147.909735000501
 31
0.0
  0
LINE
  5
16BD3
330
747D
100
AcDbEntity
  8
部品1
100
AcDbLine
 10
6313.299125379046
 20
4040.909735000501
 30
0.0
 11
6313.299125379046
 21
4148.909735000501
 31
0.0
  0
LINE
  5
16BD4
330
747D
100
AcDbEntity
  8
細線
 48
0.2
100
AcDbLine
 10
6021.236677550366
 20
3203.65973500052
 30
0.0
 11
6001.236677550365
 21
3203.65973500052
 31
0.0
  0
LINE
  5
16BD5
330
747D
100
AcDbEntity
  8
部品1
 48
0.2
100
AcDbLine
 10
6021.236677550366
 20
3206.159735000519
 30
0.0
 11
6001.236677550365
 21
3206.159735000519
 31
0.0
  0
LINE
  5
16BD6
330
747D
100
AcDbEntity
  8
細線
 48
0.2
100
AcDbLine
 10
6021.236677550366
 20
3199.15973500052
 30
0.0
 11
6001.236677550365
 21
3199.15973500052
 31
0.0
  0
LINE
  5
16BD7
330
747D
100
AcDbEntity
  8
細線
 48
0.2
100
AcDbLine
 10
6021.236677550366
 20
3201.65973500052
 30
0.0
 11
6001.236677550365
 21
3201.659735000522
 31
0.0
  0
ARC
  5
16BD8
330
747D
100
AcDbEntity
  8
細線
 48
0.2
100
AcDbCircle
 10
6013.236677550366
 20
3215.959735000517
 30
0.0
 40
18.49999999999796
100
AcDbArc
 50
253.3984504010087
 51
286.6015495989913
  0
LINE
  5
16BD9
330
747D
100
AcDbEntity
  8
細線
 48
0.2
100
AcDbLine
 10
6018.920668846873
 20
3198.459735000519
 30
0.0
 11
6007.552686253861
 21
3198.459735000519
 31
0.0
  0
ARC
  5
16BDA
330
747D
100
AcDbEntity
  8
細線
 48
0.2
100
AcDbCircle
 10
6008.236677550365
 20
3199.189225169272
 30
0.0
 40
1.0
100
AcDbArc
 50
180.0
 51
253.3984504010087
  0
LINE
  5
16BDB
330
747D
100
AcDbEntity
  8
細線
 48
50.0
100
AcDbLine
 10
6001.236677550365
 20
3199.409735000521
 30
0.0
 11
6001.236677550365
 21
3199.15973500052
 31
0.0
  0
ARC
  5
16BDC
330
747D
100
AcDbEntity
  8
細線
 48
0.2
100
AcDbCircle
 10
6018.236677550365
 20
3199.189225169272
 30
0.0
 40
1.0
100
AcDbArc
 50
286.6015495989913
 51
0.0
  0
LINE
  5
16BDD
330
747D
100
AcDbEntity
  8
部品1
100
AcDbLine
 10
6021.236677550366
 20
3199.409735000521
 30
0.0
 11
6021.299125379046
 21
3199.409735000521
 31
0.0
  0
LINE
  5
16BDE
330
747D
100
AcDbEntity
  8
部品1
100
AcDbLine
 10
6021.236677550366
 20
3199.409735000513
 30
0.0
 11
6021.299125379046
 21
3199.409735000513
 31
0.0
  0
LINE
  5
16BDF
330
747D
100
AcDbEntity
  8
細線
 48
50.0
100
AcDbLine
 10
6009.373920356061
 20
3201.659735000522
 30
0.0
 11
6009.373920356061
 21
3203.65973500052
 31
0.0
  0
LINE
  5
16BE0
330
747D
100
AcDbEntity
  8
部品1
 48
50.0
100
AcDbLine
 10
6001.236677550365
 20
3206.159735000519
 30
0.0
 11
6001.236677550365
 21
3199.409735000521
 31
0.0
  0
LINE
  5
16BE1
330
747D
100
AcDbEntity
  8
細線
 48
0.1
100
AcDbLine
 10
6021.236677550366
 20
3199.15973500052
 30
0.0
 11
6021.236677550366
 21
3206.159735000519
 31
0.0
  0
LINE
  5
16BE2
330
747D
100
AcDbEntity
  8
細線
 48
50.0
100
AcDbLine
 10
6017.224330402027
 20
3201.659735000522
 30
0.0
 11
6017.224330402027
 21
3203.65973500052
 31
0.0
  0
LINE
  5
16BE3
330
747D
100
AcDbEntity
  8
部品1
100
AcDbLine
 10
5291.299125379046
 20
3199.409735000507
 30
0.0
 11
6001.236677550365
 21
3199.409735000521
 31
0.0
  0
LINE
  5
16BE4
330
747D
100
AcDbEntity
  8
部品1
100
AcDbLine
 10
6023.299125379046
 20
4992.909735000502
 30
0.0
 11
6023.299125379046
 21
3195.909735000521
 31
0.0
  0
LINE
  5
16BE5
330
747D
100
AcDbEntity
  8
部品1
100
AcDbLine
 10
6153.299125379046
 20
4992.909735000502
 30
0.0
 11
6153.299125379046
 21
3195.909735000521
 31
0.0
  0
LINE
  5
16BE6
330
747D
100
AcDbEntity
  8
部品1
100
AcDbLine
 10
6021.299125379043
 20
4990.409735000501
 30
0.0
 11
6021.299125379046
 21
3199.409735000521
 31
0.0
  0
LINE
  5
16BE7
330
747D
100
AcDbEntity
  8
部品1
100
AcDbLine
 10
6241.299125379046
 20
4990.409735000501
 30
0.0
 11
6241.299125379046
 21
3199.409735000516
 31
0.0
  0
LINE
  5
16BE8
330
747D
100
AcDbEntity
  8
部品1
100
AcDbLine
 10
6239.299125379046
 20
4992.909735000502
 30
0.0
 11
6239.299125379046
 21
3195.909735000521
 31
0.0
  0
ARC
  5
16BEB
330
747D
100
AcDbEntity
  8
細線
100
AcDbCircle
 10
8201.299125379046
 20
4138.909735000502
 30
0.0
 40
6.0
100
AcDbArc
 50
0.0
 51
90.0
  0
ARC
  5
16BEC
330
747D
100
AcDbEntity
  8
部品1
100
AcDbCircle
 10
8207.299125379046
 20
4148.909735000501
 30
0.0
 40
6.0
100
AcDbArc
 50
0.0
 51
90.0
  0
ARC
  5
16BED
330
747D
100
AcDbEntity
  8
細線
100
AcDbCircle
 10
8206.299125379045
 20
4147.909735000501
 30
0.0
 40
5.5
100
AcDbArc
 50
0.0
 51
90.0
  0
ARC
  5
16BEE
330
747D
100
AcDbEntity
  8
細線
100
AcDbCircle
 10
8167.132506909799
 20
4147.909735000501
 30
0.0
 40
5.5
100
AcDbArc
 50
90.0
 51
169.5785490272659
  0
ARC
  5
16BEF
330
747D
100
AcDbEntity
  8
部品1
100
AcDbCircle
 10
8166.300855488032
 20
4148.909735000501
 30
0.0
 40
6.0
100
AcDbArc
 50
90.0
 51
169.4161974034734
  0
ARC
  5
16BF0
330
747D
100
AcDbEntity
  8
細線
100
AcDbCircle
 10
8170.680081743524
 20
4138.909735000502
 30
0.0
 40
6.0
100
AcDbArc
 50
90.0
 51
171.2120626773498
  0
CIRCLE
  5
16BF1
330
747D
100
AcDbEntity
  8
細線
 48
50.0
100
AcDbCircle
 10
8186.79999043354
 20
4195.409735000501
 30
0.0
 40
10.0
  0
ARC
  5
16BF2
330
747D
100
AcDbEntity
  8
細線
100
AcDbCircle
 10
8191.506664557794
 20
4135.909735000502
 30
0.0
 40
6.0
100
AcDbArc
 50
0.0
 51
90.0
  0
LINE
  5
16BF3
330
747D
100
AcDbEntity
  8
細線
100
AcDbLine
 10
8191.506664557794
 20
4141.909735000501
 30
0.0
 11
8179.299125379046
 21
4141.909735000501
 31
0.0
  0
ARC
  5
16BF4
330
747D
100
AcDbEntity
  8
細線
100
AcDbCircle
 10
8180.793549288878
 20
4135.909735000502
 30
0.0
 40
3.0
100
AcDbArc
 50
8.09955083827424
 51
90.0
  0
LINE
  5
16BF5
330
747D
100
AcDbEntity
  8
細線
100
AcDbLine
 10
8180.793549288878
 20
4138.909735000502
 30
0.0
 11
8179.299125379046
 21
4138.909735000502
 31
0.0
  0
LINE
  5
16BF6
330
747D
100
AcDbEntity
  8
細線
100
AcDbLine
 10
8179.299125379046
 20
4138.909227101939
 30
0.0
 11
8166.535798163078
 21
4138.909227101939
 31
0.0
  0
CIRCLE
  5
16BF7
330
747D
100
AcDbEntity
  8
細線
 48
50.0
100
AcDbCircle
 10
8186.79999043354
 20
4195.409735000501
 30
0.0
 40
20.0
  0
LINE
  5
16BF8
330
747D
100
AcDbEntity
  8
細線
100
AcDbLine
 10
8201.299125379046
 20
4144.909735000501
 30
0.0
 11
8170.680081743524
 21
4144.909735000501
 31
0.0
  0
LINE
  5
16BF9
330
747D
100
AcDbEntity
  8
部品1
100
AcDbLine
 10
8207.299125379046
 20
4154.909735000501
 30
0.0
 11
8166.300855488032
 21
4154.909735000501
 31
0.0
  0
LINE
  5
16BFA
330
747D
100
AcDbEntity
  8
細線
100
AcDbLine
 10
8206.299125379045
 20
4153.409735000501
 30
0.0
 11
8167.132506909799
 21
4153.409735000501
 31
0.0
  0
ARC
  5
16BFB
330
747D
100
AcDbEntity
  8
細線
100
AcDbCircle
 10
8201.299125379046
 20
4050.909735000501
 30
0.0
 40
6.0
100
AcDbArc
 50
270.0
 51
0.0
  0
ARC
  5
16BFC
330
747D
100
AcDbEntity
  8
部品1
100
AcDbCircle
 10
8207.299125379046
 20
4040.909735000501
 30
0.0
 40
6.0
100
AcDbArc
 50
270.0
 51
0.0
  0
ARC
  5
16BFD
330
747D
100
AcDbEntity
  8
細線
100
AcDbCircle
 10
8206.299125379045
 20
4041.9097350005
 30
0.0
 40
5.5
100
AcDbArc
 50
270.0
 51
0.0
  0
ARC
  5
16BFE
330
747D
100
AcDbEntity
  8
細線
100
AcDbCircle
 10
8167.132506909799
 20
4041.9097350005
 30
0.0
 40
5.5
100
AcDbArc
 50
190.4214509727341
 51
270.0
  0
ARC
  5
16BFF
330
747D
100
AcDbEntity
  8
部品1
100
AcDbCircle
 10
8166.300855488032
 20
4040.909735000501
 30
0.0
 40
6.0
100
AcDbArc
 50
190.5838025965266
 51
270.0
  0
ARC
  5
16C00
330
747D
100
AcDbEntity
  8
細線
100
AcDbCircle
 10
8170.680081743524
 20
4050.909735000501
 30
0.0
 40
6.0
100
AcDbArc
 50
188.7879373226501
 51
270.0
  0
ARC
  5
16C01
330
747D
100
AcDbEntity
  8
細線
100
AcDbCircle
 10
8191.506664557794
 20
4053.909735000501
 30
0.0
 40
6.0
100
AcDbArc
 50
270.0
 51
0.0
  0
LINE
  5
16C02
330
747D
100
AcDbEntity
  8
細線
100
AcDbLine
 10
8179.299125379046
 20
4047.909735000501
 30
0.0
 11
8191.506664557794
 21
4047.909735000501
 31
0.0
  0
ARC
  5
16C03
330
747D
100
AcDbEntity
  8
細線
100
AcDbCircle
 10
8180.793549288884
 20
4053.909735000501
 30
0.0
 40
3.0
100
AcDbArc
 50
270.0
 51
351.9004491617258
  0
LINE
  5
16C04
330
747D
100
AcDbEntity
  8
細線
100
AcDbLine
 10
8179.299125379046
 20
4050.909735000501
 30
0.0
 11
8180.793549288884
 21
4050.909735000501
 31
0.0
  0
LINE
  5
16C05
330
747D
100
AcDbEntity
  8
細線
100
AcDbLine
 10
8179.299125379046
 20
4050.910242899064
 30
0.0
 11
8165.820420880223
 21
4050.910242899064
 31
0.0
  0
LINE
  5
16C06
330
747D
100
AcDbEntity
  8
細線
100
AcDbLine
 10
8170.680081743524
 20
4044.9097350005
 30
0.0
 11
8201.299125379046
 21
4044.9097350005
 31
0.0
  0
LINE
  5
16C07
330
747D
100
AcDbEntity
  8
部品1
100
AcDbLine
 10
8166.300855488032
 20
4034.909735000502
 30
0.0
 11
8207.299125379046
 21
4034.909735000502
 31
0.0
  0
LINE
  5
16C08
330
747D
100
AcDbEntity
  8
細線
100
AcDbLine
 10
8167.132506909799
 20
4036.409735000501
 30
0.0
 11
8206.299125379045
 21
4036.409735000501
 31
0.0
  0
LINE
  5
16C09
330
747D
100
AcDbEntity
  8
部品1
100
AcDbLine
 10
8213.299125379046
 20
4040.909735000501
 30
0.0
 11
8213.299125379046
 21
4148.909735000501
 31
0.0
  0
LINE
  5
16C0A
330
747D
100
AcDbEntity
  8
細線
100
AcDbLine
 10
8211.799125379046
 20
4041.9097350005
 30
0.0
 11
8211.799125379046
 21
4147.909735000501
 31
0.0
  0
LINE
  5
16C0B
330
747D
100
AcDbEntity
  8
細線
100
AcDbLine
 10
8207.299125379046
 20
4050.909735000501
 30
0.0
 11
8207.299125379046
 21
4138.909735000502
 31
0.0
  0
ARC
  5
16C0C
330
747D
100
AcDbEntity
  8
細線
100
AcDbCircle
 10
7892.696343471121
 20
4094.909735000501
 30
0.0
 40
294.0
100
AcDbArc
 50
351.9004491617258
 51
8.09955083827424
  0
ARC
  5
16C0D
330
747D
100
AcDbEntity
  8
細線
100
AcDbCircle
 10
8455.299125379047
 20
4094.909735000501
 30
0.0
 40
294.0
100
AcDbArc
 50
171.2120626773498
 51
188.7879373226501
  0
ARC
  5
16C0E
330
747D
100
AcDbEntity
  8
細線
100
AcDbCircle
 10
8455.299125379047
 20
4094.909735000501
 30
0.0
 40
298.5
100
AcDbArc
 50
169.5785490272659
 51
190.4214509727341
  0
ARC
  5
16C0F
330
747D
100
AcDbEntity
  8
部品1
100
AcDbCircle
 10
8455.299125379047
 20
4094.909735000501
 30
0.0
 40
300.0
100
AcDbArc
 50
169.4161974034734
 51
190.5838025965266
  0
LINE
  5
16C10
330
747D
100
AcDbEntity
  8
細線
100
AcDbLine
 10
8179.299125379046
 20
4144.909735000501
 30
0.0
 11
8179.299125379046
 21
4044.9097350005
 31
0.0
  0
LINE
  5
16C11
330
747D
100
AcDbEntity
  8
細線
100
AcDbLine
 10
8197.506664557794
 20
4053.909735000501
 30
0.0
 11
8197.506664557794
 21
4135.909735000502
 31
0.0
  0
LINE
  5
16C12
330
747D
100
AcDbEntity
  8
細線
100
AcDbLine
 10
7229.299125379046
 20
4138.909227101939
 30
0.0
 11
7216.535798163078
 21
4138.909227101939
 31
0.0
  0
LINE
  5
16C13
330
747D
100
AcDbEntity
  8
細線
100
AcDbLine
 10
7256.299125379046
 20
4153.409735000501
 30
0.0
 11
7217.132506909798
 21
4153.409735000501
 31
0.0
  0
LINE
  5
16C14
330
747D
100
AcDbEntity
  8
部品1
100
AcDbLine
 10
7257.299125379046
 20
4154.909735000501
 30
0.0
 11
7216.300855488032
 21
4154.909735000501
 31
0.0
  0
ARC
  5
16C15
330
747D
100
AcDbEntity
  8
細線
100
AcDbCircle
 10
7256.299125379046
 20
4147.909735000501
 30
0.0
 40
5.5
100
AcDbArc
 50
0.0
 51
90.0
  0
ARC
  5
16C16
330
747D
100
AcDbEntity
  8
部品1
100
AcDbCircle
 10
7257.299125379046
 20
4148.909735000501
 30
0.0
 40
6.0
100
AcDbArc
 50
0.0
 51
90.0
  0
LINE
  5
16C17
330
747D
100
AcDbEntity
  8
細線
100
AcDbLine
 10
7230.793549288879
 20
4138.909735000502
 30
0.0
 11
7229.299125379046
 21
4138.909735000502
 31
0.0
  0
ARC
  5
16C18
330
747D
100
AcDbEntity
  8
細線
100
AcDbCircle
 10
7230.793549288879
 20
4135.909735000502
 30
0.0
 40
3.0
100
AcDbArc
 50
8.09955083827424
 51
90.0
  0
LINE
  5
16C19
330
747D
100
AcDbEntity
  8
細線
100
AcDbLine
 10
7241.506664557793
 20
4141.909735000501
 30
0.0
 11
7229.299125379046
 21
4141.909735000501
 31
0.0
  0
ARC
  5
16C1A
330
747D
100
AcDbEntity
  8
細線
100
AcDbCircle
 10
7241.506664557793
 20
4135.909735000502
 30
0.0
 40
6.0
100
AcDbArc
 50
0.0
 51
90.0
  0
LINE
  5
16C1B
330
747D
100
AcDbEntity
  8
細線
100
AcDbLine
 10
7251.299125379046
 20
4144.909735000501
 30
0.0
 11
7220.680081743525
 21
4144.909735000501
 31
0.0
  0
ARC
  5
16C1C
330
747D
100
AcDbEntity
  8
細線
100
AcDbCircle
 10
7251.299125379046
 20
4138.909735000502
 30
0.0
 40
6.0
100
AcDbArc
 50
0.0
 51
90.0
  0
CIRCLE
  5
16C1D
330
747D
100
AcDbEntity
  8
細線
 48
50.0
100
AcDbCircle
 10
7236.79999043354
 20
4195.409735000501
 30
0.0
 40
10.0
  0
CIRCLE
  5
16C1E
330
747D
100
AcDbEntity
  8
細線
 48
50.0
100
AcDbCircle
 10
7236.79999043354
 20
4195.409735000501
 30
0.0
 40
20.0
  0
ARC
  5
16C1F
330
747D
100
AcDbEntity
  8
細線
100
AcDbCircle
 10
7220.680081743525
 20
4138.909735000502
 30
0.0
 40
6.0
100
AcDbArc
 50
90.0
 51
171.2120626773498
  0
ARC
  5
16C20
330
747D
100
AcDbEntity
  8
部品1
100
AcDbCircle
 10
7216.300855488032
 20
4148.909735000501
 30
0.0
 40
6.0
100
AcDbArc
 50
90.0
 51
169.4161974034734
  0
ARC
  5
16C21
330
747D
100
AcDbEntity
  8
細線
100
AcDbCircle
 10
7217.132506909798
 20
4147.909735000501
 30
0.0
 40
5.5
100
AcDbArc
 50
90.0
 51
169.5785490272659
  0
LINE
  5
16C22
330
747D
100
AcDbEntity
  8
細線
100
AcDbLine
 10
7229.299125379046
 20
4050.910242899064
 30
0.0
 11
7215.820420880223
 21
4050.910242899064
 31
0.0
  0
LINE
  5
16C23
330
747D
100
AcDbEntity
  8
細線
100
AcDbLine
 10
7217.132506909798
 20
4036.409735000501
 30
0.0
 11
7256.299125379046
 21
4036.409735000501
 31
0.0
  0
LINE
  5
16C24
330
747D
100
AcDbEntity
  8
部品1
100
AcDbLine
 10
7216.300855488032
 20
4034.909735000502
 30
0.0
 11
7257.299125379046
 21
4034.909735000502
 31
0.0
  0
ARC
  5
16C25
330
747D
100
AcDbEntity
  8
細線
100
AcDbCircle
 10
7256.299125379046
 20
4041.9097350005
 30
0.0
 40
5.5
100
AcDbArc
 50
270.0
 51
0.0
  0
ARC
  5
16C26
330
747D
100
AcDbEntity
  8
部品1
100
AcDbCircle
 10
7257.299125379046
 20
4040.909735000501
 30
0.0
 40
6.0
100
AcDbArc
 50
270.0
 51
0.0
  0
LINE
  5
16C27
330
747D
100
AcDbEntity
  8
細線
100
AcDbLine
 10
7229.299125379046
 20
4050.909735000501
 30
0.0
 11
7230.793549288883
 21
4050.909735000501
 31
0.0
  0
ARC
  5
16C28
330
747D
100
AcDbEntity
  8
細線
100
AcDbCircle
 10
7230.793549288883
 20
4053.909735000501
 30
0.0
 40
3.0
100
AcDbArc
 50
270.0
 51
351.9004491617258
  0
LINE
  5
16C29
330
747D
100
AcDbEntity
  8
細線
100
AcDbLine
 10
7229.299125379046
 20
4047.909735000501
 30
0.0
 11
7241.506664557793
 21
4047.909735000501
 31
0.0
  0
ARC
  5
16C2A
330
747D
100
AcDbEntity
  8
細線
100
AcDbCircle
 10
7241.506664557793
 20
4053.909735000501
 30
0.0
 40
6.0
100
AcDbArc
 50
270.0
 51
0.0
  0
LINE
  5
16C2B
330
747D
100
AcDbEntity
  8
細線
100
AcDbLine
 10
7220.680081743525
 20
4044.9097350005
 30
0.0
 11
7251.299125379046
 21
4044.9097350005
 31
0.0
  0
ARC
  5
16C2C
330
747D
100
AcDbEntity
  8
細線
100
AcDbCircle
 10
7251.299125379046
 20
4050.909735000501
 30
0.0
 40
6.0
100
AcDbArc
 50
270.0
 51
0.0
  0
ARC
  5
16C2D
330
747D
100
AcDbEntity
  8
細線
100
AcDbCircle
 10
7220.680081743525
 20
4050.909735000501
 30
0.0
 40
6.0
100
AcDbArc
 50
188.7879373226501
 51
270.0
  0
ARC
  5
16C2E
330
747D
100
AcDbEntity
  8
部品1
100
AcDbCircle
 10
7216.300855488032
 20
4040.909735000501
 30
0.0
 40
6.0
100
AcDbArc
 50
190.5838025965266
 51
270.0
  0
ARC
  5
16C2F
330
747D
100
AcDbEntity
  8
細線
100
AcDbCircle
 10
7217.132506909798
 20
4041.9097350005
 30
0.0
 40
5.5
100
AcDbArc
 50
190.4214509727341
 51
270.0
  0
LINE
  5
16C30
330
747D
100
AcDbEntity
  8
細線
100
AcDbLine
 10
7247.506664557794
 20
4053.909735000501
 30
0.0
 11
7247.506664557794
 21
4135.909735000502
 31
0.0
  0
LINE
  5
16C31
330
747D
100
AcDbEntity
  8
細線
100
AcDbLine
 10
7229.299125379046
 20
4144.909735000501
 30
0.0
 11
7229.299125379046
 21
4044.9097350005
 31
0.0
  0
ARC
  5
16C32
330
747D
100
AcDbEntity
  8
部品1
100
AcDbCircle
 10
7505.299125379046
 20
4094.909735000501
 30
0.0
 40
300.0
100
AcDbArc
 50
169.4161974034734
 51
190.5838025965266
  0
ARC
  5
16C33
330
747D
100
AcDbEntity
  8
細線
100
AcDbCircle
 10
7505.299125379046
 20
4094.909735000501
 30
0.0
 40
298.5
100
AcDbArc
 50
169.5785490272659
 51
190.4214509727341
  0
ARC
  5
16C34
330
747D
100
AcDbEntity
  8
細線
100
AcDbCircle
 10
7505.299125379046
 20
4094.909735000501
 30
0.0
 40
294.0
100
AcDbArc
 50
171.2120626773498
 51
188.7879373226501
  0
ARC
  5
16C35
330
747D
100
AcDbEntity
  8
細線
100
AcDbCircle
 10
6942.696343471121
 20
4094.909735000501
 30
0.0
 40
294.0
100
AcDbArc
 50
351.9004491617258
 51
8.09955083827424
  0
LINE
  5
16C36
330
747D
100
AcDbEntity
  8
細線
100
AcDbLine
 10
7257.299125379046
 20
4050.909735000501
 30
0.0
 11
7257.299125379046
 21
4138.909735000502
 31
0.0
  0
LINE
  5
16C37
330
747D
100
AcDbEntity
  8
細線
100
AcDbLine
 10
7261.799125379046
 20
4041.9097350005
 30
0.0
 11
7261.799125379046
 21
4147.909735000501
 31
0.0
  0
LINE
  5
16C38
330
747D
100
AcDbEntity
  8
部品1
100
AcDbLine
 10
7263.299125379046
 20
4040.909735000501
 30
0.0
 11
7263.299125379046
 21
4148.909735000501
 31
0.0
  0
ARC
  5
16C39
330
747D
100
AcDbEntity
  8
細線
100
AcDbCircle
 10
4370.680081743524
 20
4138.909735000502
 30
0.0
 40
6.0
100
AcDbArc
 50
90.0
 51
171.2120626773498
  0
LINE
  5
16C3A
330
747D
100
AcDbEntity
  8
細線
100
AcDbLine
 10
4379.299125379046
 20
4138.909227101939
 30
0.0
 11
4366.535798163076
 21
4138.909227101939
 31
0.0
  0
LINE
  5
16C3B
330
747D
100
AcDbEntity
  8
細線
100
AcDbLine
 10
4406.299125379046
 20
4153.409735000501
 30
0.0
 11
4367.132506909798
 21
4153.409735000501
 31
0.0
  0
LINE
  5
16C3C
330
747D
100
AcDbEntity
  8
部品1
100
AcDbLine
 10
4407.299125379046
 20
4154.909735000501
 30
0.0
 11
4366.300855488033
 21
4154.909735000501
 31
0.0
  0
ARC
  5
16C3D
330
747D
100
AcDbEntity
  8
部品1
100
AcDbCircle
 10
4366.300855488033
 20
4148.909735000501
 30
0.0
 40
6.0
100
AcDbArc
 50
90.0
 51
169.4161974034734
  0
ARC
  5
16C3E
330
747D
100
AcDbEntity
  8
細線
100
AcDbCircle
 10
4367.132506909798
 20
4147.909735000501
 30
0.0
 40
5.5
100
AcDbArc
 50
90.0
 51
169.5785490272659
  0
ARC
  5
16C3F
330
747D
100
AcDbEntity
  8
細線
100
AcDbCircle
 10
4406.299125379046
 20
4147.909735000501
 30
0.0
 40
5.5
100
AcDbArc
 50
0.0
 51
90.0
  0
ARC
  5
16C40
330
747D
100
AcDbEntity
  8
部品1
100
AcDbCircle
 10
4407.299125379046
 20
4148.909735000501
 30
0.0
 40
6.0
100
AcDbArc
 50
0.0
 51
90.0
  0
LINE
  5
16C41
330
747D
100
AcDbEntity
  8
細線
100
AcDbLine
 10
4380.793549288879
 20
4138.909735000502
 30
0.0
 11
4379.299125379046
 21
4138.909735000502
 31
0.0
  0
ARC
  5
16C42
330
747D
100
AcDbEntity
  8
細線
100
AcDbCircle
 10
4380.793549288879
 20
4135.909735000502
 30
0.0
 40
3.0
100
AcDbArc
 50
8.09955083827424
 51
90.0
  0
LINE
  5
16C43
330
747D
100
AcDbEntity
  8
細線
100
AcDbLine
 10
4391.506664557794
 20
4141.909735000501
 30
0.0
 11
4379.299125379046
 21
4141.909735000501
 31
0.0
  0
ARC
  5
16C44
330
747D
100
AcDbEntity
  8
細線
100
AcDbCircle
 10
4391.506664557794
 20
4135.909735000502
 30
0.0
 40
6.0
100
AcDbArc
 50
0.0
 51
90.0
  0
LINE
  5
16C45
330
747D
100
AcDbEntity
  8
細線
100
AcDbLine
 10
4401.299125379046
 20
4144.909735000501
 30
0.0
 11
4370.680081743524
 21
4144.909735000501
 31
0.0
  0
ARC
  5
16C46
330
747D
100
AcDbEntity
  8
細線
100
AcDbCircle
 10
4401.299125379046
 20
4138.909735000502
 30
0.0
 40
6.0
100
AcDbArc
 50
0.0
 51
90.0
  0
CIRCLE
  5
16C47
330
747D
100
AcDbEntity
  8
細線
 48
50.0
100
AcDbCircle
 10
4386.799990433541
 20
4195.409735000501
 30
0.0
 40
10.0
  0
CIRCLE
  5
16C48
330
747D
100
AcDbEntity
  8
細線
 48
50.0
100
AcDbCircle
 10
4386.799990433541
 20
4195.409735000501
 30
0.0
 40
20.0
  0
ARC
  5
16C49
330
747D
100
AcDbEntity
  8
細線
100
AcDbCircle
 10
4370.680081743524
 20
4050.909735000501
 30
0.0
 40
6.0
100
AcDbArc
 50
188.7879373226501
 51
270.0
  0
LINE
  5
16C4A
330
747D
100
AcDbEntity
  8
細線
100
AcDbLine
 10
4379.299125379046
 20
4050.910242899064
 30
0.0
 11
4365.820420880224
 21
4050.910242899064
 31
0.0
  0
LINE
  5
16C4B
330
747D
100
AcDbEntity
  8
細線
100
AcDbLine
 10
4367.132506909798
 20
4036.409735000501
 30
0.0
 11
4406.299125379046
 21
4036.409735000501
 31
0.0
  0
LINE
  5
16C4C
330
747D
100
AcDbEntity
  8
部品1
100
AcDbLine
 10
4366.300855488033
 20
4034.909735000502
 30
0.0
 11
4407.299125379046
 21
4034.909735000502
 31
0.0
  0
ARC
  5
16C4D
330
747D
100
AcDbEntity
  8
部品1
100
AcDbCircle
 10
4366.300855488033
 20
4040.909735000501
 30
0.0
 40
6.0
100
AcDbArc
 50
190.5838025965266
 51
270.0
  0
ARC
  5
16C4E
330
747D
100
AcDbEntity
  8
細線
100
AcDbCircle
 10
4367.132506909798
 20
4041.9097350005
 30
0.0
 40
5.5
100
AcDbArc
 50
190.4214509727341
 51
270.0
  0
ARC
  5
16C4F
330
747D
100
AcDbEntity
  8
細線
100
AcDbCircle
 10
4406.299125379046
 20
4041.9097350005
 30
0.0
 40
5.5
100
AcDbArc
 50
270.0
 51
0.0
  0
ARC
  5
16C50
330
747D
100
AcDbEntity
  8
部品1
100
AcDbCircle
 10
4407.299125379046
 20
4040.909735000501
 30
0.0
 40
6.0
100
AcDbArc
 50
270.0
 51
0.0
  0
LINE
  5
16C51
330
747D
100
AcDbEntity
  8
細線
100
AcDbLine
 10
4379.299125379046
 20
4050.909735000501
 30
0.0
 11
4380.793549288883
 21
4050.909735000501
 31
0.0
  0
ARC
  5
16C52
330
747D
100
AcDbEntity
  8
細線
100
AcDbCircle
 10
4380.793549288883
 20
4053.909735000501
 30
0.0
 40
3.0
100
AcDbArc
 50
270.0
 51
351.9004491617258
  0
LINE
  5
16C53
330
747D
100
AcDbEntity
  8
細線
100
AcDbLine
 10
4379.299125379046
 20
4047.909735000501
 30
0.0
 11
4391.506664557794
 21
4047.909735000501
 31
0.0
  0
ARC
  5
16C54
330
747D
100
AcDbEntity
  8
細線
100
AcDbCircle
 10
4391.506664557794
 20
4053.909735000501
 30
0.0
 40
6.0
100
AcDbArc
 50
270.0
 51
0.0
  0
LINE
  5
16C55
330
747D
100
AcDbEntity
  8
細線
100
AcDbLine
 10
4370.680081743524
 20
4044.9097350005
 30
0.0
 11
4401.299125379046
 21
4044.9097350005
 31
0.0
  0
ARC
  5
16C56
330
747D
100
AcDbEntity
  8
細線
100
AcDbCircle
 10
4401.299125379046
 20
4050.909735000501
 30
0.0
 40
6.0
100
AcDbArc
 50
270.0
 51
0.0
  0
LINE
  5
16C57
330
747D
100
AcDbEntity
  8
細線
100
AcDbLine
 10
4397.506664557794
 20
4053.909735000501
 30
0.0
 11
4397.506664557794
 21
4135.909735000502
 31
0.0
  0
LINE
  5
16C58
330
747D
100
AcDbEntity
  8
細線
100
AcDbLine
 10
4379.299125379046
 20
4144.909735000501
 30
0.0
 11
4379.299125379046
 21
4044.9097350005
 31
0.0
  0
ARC
  5
16C59
330
747D
100
AcDbEntity
  8
部品1
100
AcDbCircle
 10
4655.299125379046
 20
4094.909735000501
 30
0.0
 40
300.0
100
AcDbArc
 50
169.4161974034734
 51
190.5838025965266
  0
ARC
  5
16C5A
330
747D
100
AcDbEntity
  8
細線
100
AcDbCircle
 10
4655.299125379046
 20
4094.909735000501
 30
0.0
 40
298.5
100
AcDbArc
 50
169.5785490272659
 51
190.4214509727341
  0
ARC
  5
16C5B
330
747D
100
AcDbEntity
  8
細線
100
AcDbCircle
 10
4655.299125379046
 20
4094.909735000501
 30
0.0
 40
294.0
100
AcDbArc
 50
171.2120626773498
 51
188.7879373226501
  0
ARC
  5
16C5C
330
747D
100
AcDbEntity
  8
細線
100
AcDbCircle
 10
4092.696343471121
 20
4094.909735000501
 30
0.0
 40
294.0
100
AcDbArc
 50
351.9004491617258
 51
8.09955083827424
  0
LINE
  5
16C5D
330
747D
100
AcDbEntity
  8
細線
100
AcDbLine
 10
4407.299125379046
 20
4050.909735000501
 30
0.0
 11
4407.299125379046
 21
4138.909735000502
 31
0.0
  0
LINE
  5
16C5E
330
747D
100
AcDbEntity
  8
細線
100
AcDbLine
 10
4411.799125379046
 20
4041.9097350005
 30
0.0
 11
4411.799125379046
 21
4147.909735000501
 31
0.0
  0
LINE
  5
16C5F
330
747D
100
AcDbEntity
  8
部品1
100
AcDbLine
 10
4413.299125379046
 20
4040.909735000501
 30
0.0
 11
4413.299125379046
 21
4148.909735000501
 31
0.0
  0
LINE
  5
16C6F
330
747D
100
AcDbEntity
  8
細線
 48
0.1
100
AcDbLine
 10
8871.236677550365
 20
4990.659735000503
 30
0.0
 11
8871.236677550365
 21
4983.659735000504
 31
0.0
  0
LINE
  5
16C70
330
747D
100
AcDbEntity
  8
細線
 48
50.0
100
AcDbLine
 10
8859.373920356061
 20
4988.159735000503
 30
0.0
 11
8859.373920356061
 21
4986.159735000503
 31
0.0
  0
LINE
  5
16C71
330
747D
100
AcDbEntity
  8
細線
 48
50.0
100
AcDbLine
 10
8867.224330402025
 20
4988.159735000503
 30
0.0
 11
8867.224330402025
 21
4986.159735000503
 31
0.0
  0
LINE
  5
16C72
330
747D
100
AcDbEntity
  8
部品1
 48
50.0
100
AcDbLine
 10
8851.236677550366
 20
4983.659735000504
 30
0.0
 11
8851.236677550366
 21
4990.409735000503
 31
0.0
  0
LINE
  5
16C73
330
747D
100
AcDbEntity
  8
細線
 48
0.2
100
AcDbLine
 10
8871.236677550365
 20
4986.159735000503
 30
0.0
 11
8851.236677550366
 21
4986.159735000503
 31
0.0
  0
LINE
  5
16C74
330
747D
100
AcDbEntity
  8
部品1
 48
0.2
100
AcDbLine
 10
8871.236677550365
 20
4983.659735000504
 30
0.0
 11
8851.236677550366
 21
4983.659735000504
 31
0.0
  0
ARC
  5
16C75
330
747D
100
AcDbEntity
  8
細線
 48
0.2
100
AcDbCircle
 10
8868.236677550365
 20
4990.630244831751
 30
0.0
 40
1.0
100
AcDbArc
 50
0.0
 51
73.39845040100872
  0
LINE
  5
16C76
330
747D
100
AcDbEntity
  8
細線
 48
0.2
100
AcDbLine
 10
8871.236677550365
 20
4990.659735000503
 30
0.0
 11
8851.236677550366
 21
4990.659735000503
 31
0.0
  0
LINE
  5
16C77
330
747D
100
AcDbEntity
  8
細線
 48
0.2
100
AcDbLine
 10
8871.236677550365
 20
4988.159735000503
 30
0.0
 11
8851.236677550366
 21
4988.159735000503
 31
0.0
  0
ARC
  5
16C78
330
747D
100
AcDbEntity
  8
細線
 48
0.2
100
AcDbCircle
 10
8858.236677550365
 20
4990.630244831751
 30
0.0
 40
1.0
100
AcDbArc
 50
106.6015495989913
 51
180.0
  0
ARC
  5
16C79
330
747D
100
AcDbEntity
  8
細線
 48
0.2
100
AcDbCircle
 10
8863.236677550366
 20
4973.859735000505
 30
0.0
 40
18.49999999999796
100
AcDbArc
 50
73.39845040100872
 51
106.6015495989913
  0
LINE
  5
16C7A
330
747D
100
AcDbEntity
  8
細線
 48
0.2
100
AcDbLine
 10
8868.920668846874
 20
4991.359735000504
 30
0.0
 11
8857.55268625386
 21
4991.359735000504
 31
0.0
  0
LINE
  5
16C7B
330
747D
100
AcDbEntity
  8
細線
 48
50.0
100
AcDbLine
 10
8851.236677550366
 20
4990.409735000503
 30
0.0
 11
8851.236677550366
 21
4990.659735000503
 31
0.0
  0
LINE
  5
16C7C
330
747D
100
AcDbEntity
  8
部品1
100
AcDbLine
 10
8871.236677550365
 20
4990.409735000503
 30
0.0
 11
8871.299125379046
 21
4990.409735000501
 31
0.0
  0
LINE
  5
16C7D
330
747D
100
AcDbEntity
  8
部品1
100
AcDbLine
 10
8871.236677550365
 20
4990.4097350005
 30
0.0
 11
8871.299125379046
 21
4990.409735000501
 31
0.0
  0
LINE
  5
16C7E
330
747D
100
AcDbEntity
  8
細線
 48
0.1
100
AcDbLine
 10
7921.236677550365
 20
4990.659735000503
 30
0.0
 11
7921.236677550365
 21
4983.659735000504
 31
0.0
  0
LINE
  5
16C7F
330
747D
100
AcDbEntity
  8
細線
 48
50.0
100
AcDbLine
 10
7909.373920356062
 20
4988.159735000503
 30
0.0
 11
7909.373920356062
 21
4986.159735000503
 31
0.0
  0
LINE
  5
16C80
330
747D
100
AcDbEntity
  8
細線
 48
50.0
100
AcDbLine
 10
7917.224330402027
 20
4988.159735000503
 30
0.0
 11
7917.224330402027
 21
4986.159735000503
 31
0.0
  0
LINE
  5
16C81
330
747D
100
AcDbEntity
  8
部品1
 48
50.0
100
AcDbLine
 10
7901.236677550365
 20
4983.659735000504
 30
0.0
 11
7901.236677550365
 21
4990.409735000503
 31
0.0
  0
LINE
  5
16C82
330
747D
100
AcDbEntity
  8
細線
 48
0.2
100
AcDbLine
 10
7921.236677550365
 20
4986.159735000503
 30
0.0
 11
7901.236677550365
 21
4986.159735000503
 31
0.0
  0
LINE
  5
16C83
330
747D
100
AcDbEntity
  8
部品1
 48
0.2
100
AcDbLine
 10
7921.236677550365
 20
4983.659735000504
 30
0.0
 11
7901.236677550365
 21
4983.659735000504
 31
0.0
  0
ARC
  5
16C84
330
747D
100
AcDbEntity
  8
細線
 48
0.2
100
AcDbCircle
 10
7918.236677550365
 20
4990.630244831751
 30
0.0
 40
1.0
100
AcDbArc
 50
0.0
 51
73.39845040100872
  0
LINE
  5
16C85
330
747D
100
AcDbEntity
  8
細線
 48
0.2
100
AcDbLine
 10
7921.236677550365
 20
4990.659735000503
 30
0.0
 11
7901.236677550365
 21
4990.659735000503
 31
0.0
  0
LINE
  5
16C86
330
747D
100
AcDbEntity
  8
細線
 48
0.2
100
AcDbLine
 10
7921.236677550365
 20
4988.159735000503
 30
0.0
 11
7901.236677550365
 21
4988.159735000503
 31
0.0
  0
ARC
  5
16C87
330
747D
100
AcDbEntity
  8
細線
 48
0.2
100
AcDbCircle
 10
7908.236677550366
 20
4990.630244831751
 30
0.0
 40
1.0
100
AcDbArc
 50
106.6015495989913
 51
180.0
  0
ARC
  5
16C88
330
747D
100
AcDbEntity
  8
細線
 48
0.2
100
AcDbCircle
 10
7913.236677550365
 20
4973.859735000505
 30
0.0
 40
18.49999999999796
100
AcDbArc
 50
73.39845040100872
 51
106.6015495989913
  0
LINE
  5
16C89
330
747D
100
AcDbEntity
  8
細線
 48
0.2
100
AcDbLine
 10
7918.920668846872
 20
4991.359735000504
 30
0.0
 11
7907.552686253861
 21
4991.359735000504
 31
0.0
  0
LINE
  5
16C8A
330
747D
100
AcDbEntity
  8
細線
 48
50.0
100
AcDbLine
 10
7901.236677550365
 20
4990.409735000503
 30
0.0
 11
7901.236677550365
 21
4990.659735000503
 31
0.0
  0
LINE
  5
16C8B
330
747D
100
AcDbEntity
  8
部品1
100
AcDbLine
 10
7921.236677550365
 20
4990.409735000503
 30
0.0
 11
7921.299125379047
 21
4990.409735000501
 31
0.0
  0
LINE
  5
16C8C
330
747D
100
AcDbEntity
  8
部品1
100
AcDbLine
 10
7921.236677550365
 20
4990.4097350005
 30
0.0
 11
7921.299125379047
 21
4990.409735000501
 31
0.0
  0
LINE
  5
16C8D
330
747D
100
AcDbEntity
  8
部品1
100
AcDbLine
 10
8141.299125379047
 20
4990.4097350005
 30
0.0
 11
8851.236677550366
 21
4990.409735000501
 31
0.0
  0
LINE
  5
16C8E
330
747D
100
AcDbEntity
  8
部品1
 48
50.0
100
AcDbLine
 10
8851.236677550366
 20
3206.159735000519
 30
0.0
 11
8851.236677550366
 21
3199.409735000521
 31
0.0
  0
LINE
  5
16C8F
330
747D
100
AcDbEntity
  8
細線
 48
50.0
100
AcDbLine
 10
8867.224330402025
 20
3201.659735000522
 30
0.0
 11
8867.224330402025
 21
3203.65973500052
 31
0.0
  0
LINE
  5
16C90
330
747D
100
AcDbEntity
  8
細線
 48
50.0
100
AcDbLine
 10
8859.373920356061
 20
3201.659735000522
 30
0.0
 11
8859.373920356061
 21
3203.65973500052
 31
0.0
  0
LINE
  5
16C91
330
747D
100
AcDbEntity
  8
細線
 48
0.1
100
AcDbLine
 10
8871.236677550365
 20
3199.15973500052
 30
0.0
 11
8871.236677550365
 21
3206.159735000519
 31
0.0
  0
LINE
  5
16C92
330
747D
100
AcDbEntity
  8
部品1
100
AcDbLine
 10
8871.236677550365
 20
3199.409735000524
 30
0.0
 11
8871.299125379046
 21
3199.409735000524
 31
0.0
  0
LINE
  5
16C93
330
747D
100
AcDbEntity
  8
部品1
100
AcDbLine
 10
8871.236677550365
 20
3199.409735000521
 30
0.0
 11
8871.299125379046
 21
3199.409735000521
 31
0.0
  0
LINE
  5
16C94
330
747D
100
AcDbEntity
  8
細線
 48
50.0
100
AcDbLine
 10
8851.236677550366
 20
3199.409735000521
 30
0.0
 11
8851.236677550366
 21
3199.15973500052
 31
0.0
  0
LINE
  5
16C95
330
747D
100
AcDbEntity
  8
細線
 48
0.2
100
AcDbLine
 10
8868.920668846874
 20
3198.459735000519
 30
0.0
 11
8857.55268625386
 21
3198.459735000519
 31
0.0
  0
ARC
  5
16C96
330
747D
100
AcDbEntity
  8
細線
 48
0.2
100
AcDbCircle
 10
8863.236677550366
 20
3215.959735000517
 30
0.0
 40
18.49999999999796
100
AcDbArc
 50
253.3984504010087
 51
286.6015495989913
  0
ARC
  5
16C97
330
747D
100
AcDbEntity
  8
細線
 48
0.2
100
AcDbCircle
 10
8858.236677550365
 20
3199.189225169272
 30
0.0
 40
1.0
100
AcDbArc
 50
180.0
 51
253.3984504010087
  0
LINE
  5
16C98
330
747D
100
AcDbEntity
  8
細線
 48
0.2
100
AcDbLine
 10
8871.236677550365
 20
3201.65973500052
 30
0.0
 11
8851.236677550366
 21
3201.659735000522
 31
0.0
  0
LINE
  5
16C99
330
747D
100
AcDbEntity
  8
細線
 48
0.2
100
AcDbLine
 10
8871.236677550365
 20
3199.15973500052
 30
0.0
 11
8851.236677550366
 21
3199.15973500052
 31
0.0
  0
ARC
  5
16C9A
330
747D
100
AcDbEntity
  8
細線
 48
0.2
100
AcDbCircle
 10
8868.236677550365
 20
3199.189225169272
 30
0.0
 40
1.0
100
AcDbArc
 50
286.6015495989913
 51
0.0
  0
LINE
  5
16C9B
330
747D
100
AcDbEntity
  8
部品1
100
AcDbLine
 10
8871.236677550365
 20
3199.409735000521
 30
0.0
 11
8871.299125379046
 21
3199.409735000521
 31
0.0
  0
LINE
  5
16C9C
330
747D
100
AcDbEntity
  8
部品1
 48
0.2
100
AcDbLine
 10
8871.236677550365
 20
3206.159735000519
 30
0.0
 11
8851.236677550366
 21
3206.159735000519
 31
0.0
  0
LINE
  5
16C9D
330
747D
100
AcDbEntity
  8
細線
 48
0.2
100
AcDbLine
 10
8871.236677550365
 20
3203.65973500052
 30
0.0
 11
8851.236677550366
 21
3203.65973500052
 31
0.0
  0
LINE
  5
16C9E
330
747D
100
AcDbEntity
  8
部品1
 48
50.0
100
AcDbLine
 10
7901.236677550365
 20
3206.159735000519
 30
0.0
 11
7901.236677550365
 21
3199.409735000521
 31
0.0
  0
LINE
  5
16C9F
330
747D
100
AcDbEntity
  8
細線
 48
50.0
100
AcDbLine
 10
7917.224330402027
 20
3201.659735000522
 30
0.0
 11
7917.224330402027
 21
3203.65973500052
 31
0.0
  0
LINE
  5
16CA0
330
747D
100
AcDbEntity
  8
細線
 48
50.0
100
AcDbLine
 10
7909.373920356062
 20
3201.659735000522
 30
0.0
 11
7909.373920356062
 21
3203.65973500052
 31
0.0
  0
LINE
  5
16CA1
330
747D
100
AcDbEntity
  8
細線
 48
0.1
100
AcDbLine
 10
7921.236677550365
 20
3199.15973500052
 30
0.0
 11
7921.236677550365
 21
3206.159735000519
 31
0.0
  0
LINE
  5
16CA2
330
747D
100
AcDbEntity
  8
部品1
100
AcDbLine
 10
7921.236677550365
 20
3199.409735000524
 30
0.0
 11
7921.299125379047
 21
3199.409735000524
 31
0.0
  0
LINE
  5
16CA3
330
747D
100
AcDbEntity
  8
部品1
100
AcDbLine
 10
7921.236677550365
 20
3199.409735000521
 30
0.0
 11
7921.299125379047
 21
3199.409735000521
 31
0.0
  0
LINE
  5
16CA4
330
747D
100
AcDbEntity
  8
細線
 48
50.0
100
AcDbLine
 10
7901.236677550365
 20
3199.409735000521
 30
0.0
 11
7901.236677550365
 21
3199.15973500052
 31
0.0
  0
LINE
  5
16CA5
330
747D
100
AcDbEntity
  8
細線
 48
0.2
100
AcDbLine
 10
7918.920668846872
 20
3198.459735000519
 30
0.0
 11
7907.552686253861
 21
3198.459735000519
 31
0.0
  0
ARC
  5
16CA6
330
747D
100
AcDbEntity
  8
細線
 48
0.2
100
AcDbCircle
 10
7913.236677550365
 20
3215.959735000517
 30
0.0
 40
18.49999999999796
100
AcDbArc
 50
253.3984504010087
 51
286.6015495989913
  0
ARC
  5
16CA7
330
747D
100
AcDbEntity
  8
細線
 48
0.2
100
AcDbCircle
 10
7908.236677550366
 20
3199.189225169272
 30
0.0
 40
1.0
100
AcDbArc
 50
180.0
 51
253.3984504010087
  0
LINE
  5
16CA8
330
747D
100
AcDbEntity
  8
細線
 48
0.2
100
AcDbLine
 10
7921.236677550365
 20
3201.65973500052
 30
0.0
 11
7901.236677550365
 21
3201.659735000522
 31
0.0
  0
LINE
  5
16CA9
330
747D
100
AcDbEntity
  8
細線
 48
0.2
100
AcDbLine
 10
7921.236677550365
 20
3199.15973500052
 30
0.0
 11
7901.236677550365
 21
3199.15973500052
 31
0.0
  0
ARC
  5
16CAA
330
747D
100
AcDbEntity
  8
細線
 48
0.2
100
AcDbCircle
 10
7918.236677550365
 20
3199.189225169272
 30
0.0
 40
1.0
100
AcDbArc
 50
286.6015495989913
 51
0.0
  0
LINE
  5
16CAB
330
747D
100
AcDbEntity
  8
部品1
100
AcDbLine
 10
7921.236677550365
 20
3199.409735000521
 30
0.0
 11
7921.299125379047
 21
3199.409735000521
 31
0.0
  0
LINE
  5
16CAC
330
747D
100
AcDbEntity
  8
部品1
 48
0.2
100
AcDbLine
 10
7921.236677550365
 20
3206.159735000519
 30
0.0
 11
7901.236677550365
 21
3206.159735000519
 31
0.0
  0
LINE
  5
16CAD
330
747D
100
AcDbEntity
  8
細線
 48
0.2
100
AcDbLine
 10
7921.236677550365
 20
3203.65973500052
 30
0.0
 11
7901.236677550365
 21
3203.65973500052
 31
0.0
  0
LINE
  5
16CAE
330
747D
100
AcDbEntity
  8
部品1
100
AcDbLine
 10
8141.299125379047
 20
3199.409735000515
 30
0.0
 11
8851.236677550366
 21
3199.40973500052
 31
0.0
  0
LINE
  5
16CAF
330
747D
100
AcDbEntity
  8
部品1
100
AcDbLine
 10
8873.299125379046
 20
4992.909735000502
 30
0.0
 11
8873.299125379046
 21
3195.909735000521
 31
0.0
  0
LINE
  5
16CB0
330
747D
100
AcDbEntity
  8
部品1
100
AcDbLine
 10
9003.299125379045
 20
4992.909735000502
 30
0.0
 11
9003.299125379045
 21
3195.909735000521
 31
0.0
  0
LINE
  5
16CB1
330
747D
100
AcDbEntity
  8
部品1
100
AcDbLine
 10
9046.299125379047
 20
5086.909735000504
 30
0.0
 11
9046.299125379047
 21
3052.909735000501
 31
0.0
  0
LINE
  5
16CB2
330
747D
100
AcDbEntity
  8
部品1
100
AcDbLine
 10
8871.299125379044
 20
4990.409735000501
 30
0.0
 11
8871.299125379046
 21
3199.409735000524
 31
0.0
  0
LINE
  5
16CB3
330
747D
100
AcDbEntity
  8
部品1
100
AcDbLine
 10
8141.299125379047
 20
4990.4097350005
 30
0.0
 11
8141.299125379047
 21
3199.409735000516
 31
0.0
  0
LINE
  5
16CB4
330
747D
100
AcDbEntity
  8
部品1
100
AcDbLine
 10
8139.299125379045
 20
4992.909735000502
 30
0.0
 11
8139.299125379045
 21
3195.909735000521
 31
0.0
  0
LINE
  5
16CB5
330
747D
100
AcDbEntity
  8
部品1
100
AcDbLine
 10
7923.299125379045
 20
4992.909735000502
 30
0.0
 11
7923.299125379045
 21
3195.909735000521
 31
0.0
  0
LINE
  5
16CB6
330
747D
100
AcDbEntity
  8
部品1
100
AcDbLine
 10
7921.299125379047
 20
4990.409735000501
 30
0.0
 11
7921.299125379047
 21
3199.409735000524
 31
0.0
  0
LINE
  5
16CB7
330
747D
100
AcDbEntity
  8
部品1
100
AcDbLine
 10
8053.299125379046
 20
4992.909735000502
 30
0.0
 11
8053.299125379046
 21
3195.909735000521
 31
0.0
  0
LINE
  5
16CB8
330
747D
100
AcDbEntity
  8
細線
 48
50.0
100
AcDbLine
 10
6967.224330402027
 20
4988.159735000503
 30
0.0
 11
6967.224330402027
 21
4986.159735000503
 31
0.0
  0
LINE
  5
16CB9
330
747D
100
AcDbEntity
  8
細線
 48
0.1
100
AcDbLine
 10
6971.236677550365
 20
4990.659735000503
 30
0.0
 11
6971.236677550365
 21
4983.659735000504
 31
0.0
  0
LINE
  5
16CBA
330
747D
100
AcDbEntity
  8
細線
 48
50.0
100
AcDbLine
 10
6959.373920356061
 20
4988.159735000503
 30
0.0
 11
6959.373920356061
 21
4986.159735000503
 31
0.0
  0
LINE
  5
16CBB
330
747D
100
AcDbEntity
  8
部品1
 48
50.0
100
AcDbLine
 10
6951.236677550365
 20
4983.659735000504
 30
0.0
 11
6951.236677550365
 21
4990.409735000503
 31
0.0
  0
LINE
  5
16CBC
330
747D
100
AcDbEntity
  8
部品1
 48
0.2
100
AcDbLine
 10
6971.236677550365
 20
4983.659735000504
 30
0.0
 11
6951.236677550365
 21
4983.659735000504
 31
0.0
  0
LINE
  5
16CBD
330
747D
100
AcDbEntity
  8
細線
 48
0.2
100
AcDbLine
 10
6971.236677550365
 20
4986.159735000503
 30
0.0
 11
6951.236677550365
 21
4986.159735000503
 31
0.0
  0
LINE
  5
16CBE
330
747D
100
AcDbEntity
  8
細線
 48
0.2
100
AcDbLine
 10
6968.920668846873
 20
4991.359735000504
 30
0.0
 11
6957.552686253861
 21
4991.359735000504
 31
0.0
  0
ARC
  5
16CBF
330
747D
100
AcDbEntity
  8
細線
 48
0.2
100
AcDbCircle
 10
6963.236677550366
 20
4973.859735000505
 30
0.0
 40
18.49999999999796
100
AcDbArc
 50
73.39845040100872
 51
106.6015495989913
  0
LINE
  5
16CC0
330
747D
100
AcDbEntity
  8
細線
 48
0.2
100
AcDbLine
 10
6971.236677550365
 20
4988.159735000503
 30
0.0
 11
6951.236677550365
 21
4988.159735000503
 31
0.0
  0
LINE
  5
16CC1
330
747D
100
AcDbEntity
  8
細線
 48
0.2
100
AcDbLine
 10
6971.236677550365
 20
4990.659735000503
 30
0.0
 11
6951.236677550365
 21
4990.659735000503
 31
0.0
  0
ARC
  5
16CC2
330
747D
100
AcDbEntity
  8
細線
 48
0.2
100
AcDbCircle
 10
6958.236677550366
 20
4990.630244831751
 30
0.0
 40
1.0
100
AcDbArc
 50
106.6015495989913
 51
180.0
  0
LINE
  5
16CC3
330
747D
100
AcDbEntity
  8
細線
 48
50.0
100
AcDbLine
 10
6951.236677550365
 20
4990.409735000503
 30
0.0
 11
6951.236677550365
 21
4990.659735000503
 31
0.0
  0
ARC
  5
16CC4
330
747D
100
AcDbEntity
  8
細線
 48
0.2
100
AcDbCircle
 10
6968.236677550365
 20
4990.630244831751
 30
0.0
 40
1.0
100
AcDbArc
 50
0.0
 51
73.39845040100872
  0
LINE
  5
16CC5
330
747D
100
AcDbEntity
  8
部品1
100
AcDbLine
 10
6971.236677550365
 20
4990.409735000503
 30
0.0
 11
6971.299125379046
 21
4990.409735000501
 31
0.0
  0
LINE
  5
16CC6
330
747D
100
AcDbEntity
  8
部品1
100
AcDbLine
 10
6241.299125379046
 20
4990.409735000503
 30
0.0
 11
6951.236677550365
 21
4990.409735000503
 31
0.0
  0
LINE
  5
16CC7
330
747D
100
AcDbEntity
  8
細線
 48
0.2
100
AcDbLine
 10
6971.236677550365
 20
3199.15973500052
 30
0.0
 11
6951.236677550365
 21
3199.15973500052
 31
0.0
  0
LINE
  5
16CC8
330
747D
100
AcDbEntity
  8
細線
 48
0.2
100
AcDbLine
 10
6971.236677550365
 20
3201.65973500052
 30
0.0
 11
6951.236677550365
 21
3201.659735000522
 31
0.0
  0
ARC
  5
16CC9
330
747D
100
AcDbEntity
  8
細線
 48
0.2
100
AcDbCircle
 10
6963.236677550366
 20
3215.959735000517
 30
0.0
 40
18.49999999999796
100
AcDbArc
 50
253.3984504010087
 51
286.6015495989913
  0
LINE
  5
16CCA
330
747D
100
AcDbEntity
  8
細線
 48
0.2
100
AcDbLine
 10
6968.920668846873
 20
3198.459735000519
 30
0.0
 11
6957.552686253861
 21
3198.459735000519
 31
0.0
  0
LINE
  5
16CCB
330
747D
100
AcDbEntity
  8
細線
 48
0.2
100
AcDbLine
 10
6971.236677550365
 20
3203.65973500052
 30
0.0
 11
6951.236677550365
 21
3203.65973500052
 31
0.0
  0
LINE
  5
16CCC
330
747D
100
AcDbEntity
  8
部品1
 48
0.2
100
AcDbLine
 10
6971.236677550365
 20
3206.159735000519
 30
0.0
 11
6951.236677550365
 21
3206.159735000519
 31
0.0
  0
LINE
  5
16CCD
330
747D
100
AcDbEntity
  8
細線
 48
50.0
100
AcDbLine
 10
6959.373920356061
 20
3201.659735000522
 30
0.0
 11
6959.373920356061
 21
3203.65973500052
 31
0.0
  0
LINE
  5
16CCE
330
747D
100
AcDbEntity
  8
部品1
 48
50.0
100
AcDbLine
 10
6951.236677550365
 20
3206.159735000519
 30
0.0
 11
6951.236677550365
 21
3199.409735000521
 31
0.0
  0
ARC
  5
16CCF
330
747D
100
AcDbEntity
  8
細線
 48
0.2
100
AcDbCircle
 10
6958.236677550366
 20
3199.189225169272
 30
0.0
 40
1.0
100
AcDbArc
 50
180.0
 51
253.3984504010087
  0
LINE
  5
16CD0
330
747D
100
AcDbEntity
  8
細線
 48
50.0
100
AcDbLine
 10
6951.236677550365
 20
3199.409735000521
 30
0.0
 11
6951.236677550365
 21
3199.15973500052
 31
0.0
  0
LINE
  5
16CD1
330
747D
100
AcDbEntity
  8
細線
 48
0.1
100
AcDbLine
 10
6971.236677550365
 20
3199.15973500052
 30
0.0
 11
6971.236677550365
 21
3206.159735000519
 31
0.0
  0
LINE
  5
16CD2
330
747D
100
AcDbEntity
  8
細線
 48
50.0
100
AcDbLine
 10
6967.224330402027
 20
3201.659735000522
 30
0.0
 11
6967.224330402027
 21
3203.65973500052
 31
0.0
  0
ARC
  5
16CD3
330
747D
100
AcDbEntity
  8
細線
 48
0.2
100
AcDbCircle
 10
6968.236677550365
 20
3199.189225169272
 30
0.0
 40
1.0
100
AcDbArc
 50
286.6015495989913
 51
0.0
  0
LINE
  5
16CD4
330
747D
100
AcDbEntity
  8
部品1
100
AcDbLine
 10
6971.236677550365
 20
3199.409735000521
 30
0.0
 11
6971.299125379046
 21
3199.409735000521
 31
0.0
  0
LINE
  5
16CD5
330
747D
100
AcDbEntity
  8
部品1
100
AcDbLine
 10
6971.236677550365
 20
3199.409735000513
 30
0.0
 11
6971.299125379046
 21
3199.409735000513
 31
0.0
  0
LINE
  5
16CD6
330
747D
100
AcDbEntity
  8
部品1
100
AcDbLine
 10
6241.299125379046
 20
3199.409735000507
 30
0.0
 11
6951.236677550365
 21
3199.409735000521
 31
0.0
  0
LINE
  5
16CD7
330
747D
100
AcDbEntity
  8
部品1
100
AcDbLine
 10
6973.299125379046
 20
4992.909735000502
 30
0.0
 11
6973.299125379046
 21
3195.909735000521
 31
0.0
  0
DIMENSION
  5
16CD8
330
747D
100
AcDbEntity
  8
寸法
100
AcDbDimension
  2
*D38
 10
3978.194597771443
 20
3214.409735000506
 30
0.0
 11
3978.194597771442
 21
4093.409735000503
 31
0.0
 70
   160
  1
有効開口部高サ<>
 71
     5
 42
1759.999999999996
  3
INABA_S40G
100
AcDbAlignedDimension
 13
4296.299125379046
 23
4974.409735000501
 33
0.0
 14
4296.299125379046
 24
3214.409735000506
 34
0.0
 50
90.0
100
AcDbRotatedDimension
1001
ACAD
1000
DSTYLE
1002
{
1070
   288
1070
     1
1002
}
  0
LINE
  5
16CD9
330
747D
100
AcDbEntity
  8
部品1
100
AcDbLine
 10
7103.299125379045
 20
4992.909735000502
 30
0.0
 11
7103.299125379045
 21
3195.909735000521
 31
0.0
  0
LINE
  5
16CDA
330
747D
100
AcDbEntity
  8
部品1
100
AcDbLine
 10
6971.299125379042
 20
4990.409735000501
 30
0.0
 11
6971.299125379046
 21
3199.409735000521
 31
0.0
  0
LINE
  5
16CDB
330
747D
100
AcDbEntity
  8
部品1
100
AcDbLine
 10
4341.299125379046
 20
4990.409735000505
 30
0.0
 11
4341.299125379046
 21
3199.409735000507
 31
0.0
  0
LINE
  5
16CDC
330
747D
100
AcDbEntity
  8
部品1
100
AcDbLine
 10
4296.299125379046
 20
5086.909735000507
 30
0.0
 11
4296.299125379046
 21
3052.909735000501
 31
0.0
  0
LINE
  5
16CDD
330
747D
100
AcDbEntity
  8
部品1
100
AcDbLine
 10
4339.299125379046
 20
4992.909735000502
 30
0.0
 11
4339.299125379046
 21
3195.909735000521
 31
0.0
  0
LINE
  5
16CDE
330
747D
100
AcDbEntity
  8
部品1
100
AcDbLine
 10
7191.299125379046
 20
4990.409735000501
 30
0.0
 11
7191.299125379046
 21
3199.409735000516
 31
0.0
  0
LINE
  5
16CDF
330
747D
100
AcDbEntity
  8
部品1
100
AcDbLine
 10
7189.299125379045
 20
4992.909735000502
 30
0.0
 11
7189.299125379045
 21
3195.909735000521
 31
0.0
  0
LINE
  5
16CE0
330
747D
100
AcDbEntity
  8
部品1
100
AcDbLine
 10
4296.299125379046
 20
3195.909735000505
 30
0.0
 11
9046.299125379047
 21
3195.909735000521
 31
0.0
  0
LINE
  5
16CE1
330
747D
100
AcDbEntity
  8
部品1
100
AcDbLine
 10
4296.299125379046
 20
3152.909735000501
 30
0.0
 11
9046.299125379047
 21
3152.909735000501
 31
0.0
  0
LINE
  5
16CE2
330
747D
100
AcDbEntity
  8
部品1
100
AcDbLine
 10
4296.299125379046
 20
4992.909735000502
 30
0.0
 11
9046.299125379047
 21
4992.909735000502
 31
0.0
  0
LINE
  5
16CE3
330
747D
100
AcDbEntity
  8
部品1
100
AcDbLine
 10
7191.299125379046
 20
3199.409735000515
 30
0.0
 11
7901.236677550365
 21
3199.40973500052
 31
0.0
  0
LINE
  5
16CE4
330
747D
100
AcDbEntity
  8
部品1
100
AcDbLine
 10
7191.299125379046
 20
4990.4097350005
 30
0.0
 11
7901.236677550365
 21
4990.409735000501
 31
0.0
  0
TEXT
  5
16DA1
330
747D
100
AcDbEntity
  8
部品1
100
AcDbText
 10
3311.511748487559
 20
3089.016638606403
 30
0.0
 40
125.0
  1
▽G.L
  7
STYLE2
100
AcDbText
  0
LINE
  5
16DA2
330
747D
100
AcDbEntity
  8
Ｇ．Ｌ
100
AcDbLine
 10
3326.965731212833
 20
3052.909735000501
 30
0.0
 11
13852.64231400877
 21
3052.909735000501
 31
0.0
  0
DIMENSION
  5
1728D
330
747D
100
AcDbEntity
  8
寸法
100
AcDbDimension
  2
*D42
 10
8963.160772034035
 20
8792.551804843384
 30
0.0
 11
8609.953783938349
 21
8897.637080619913
 31
0.0
 70
   160
 71
     5
 42
892.000000000011
  3
INABA_S40G
100
AcDbAlignedDimension
 13
8125.299132056673
 23
8994.598915086369
 33
0.0
 14
9017.299132056683
 24
8994.598915086363
 34
0.0
100
AcDbRotatedDimension
1001
ACAD
1000
DSTYLE
1002
{
1070
   279
1070
     2
1002
}
  0
MTEXT
  5
1728E
330
747D
100
AcDbEntity
  8
寸法
 62
     7
 48
50.0
100
AcDbMText
 10
8586.578929667309
 20
9064.212662623654
 30
0.0
 40
96.0
 41
0.0
 71
     5
 72
     1
  1
棚 2段
  7
STYLE1
 73
     1
 44
1.0
1001
ACAD
1000
MTEXTBEGIN
1070
    73
1070
     1
1070
    44
1040
1.0
1070
    74
1070
     0
1000
MTEXTEND
  0
DIMENSION
  5
1728F
330
747D
100
AcDbEntity
  8
寸法
100
AcDbDimension
  2
*D41
 10
8013.160772034034
 20
8792.551804843384
 30
0.0
 11
7666.424946832595
 21
8895.835920236381
 31
0.0
 70
   160
 71
     5
 42
892.000000000011
  3
INABA_S40G
100
AcDbAlignedDimension
 13
7175.299132056672
 23
8994.598915086369
 33
0.0
 14
8067.299132056684
 24
8994.598915086363
 34
0.0
100
AcDbRotatedDimension
1001
ACAD
1000
DSTYLE
1002
{
1070
   279
1070
     2
1002
}
  0
MTEXT
  5
17290
330
747D
100
AcDbEntity
  8
寸法
 62
     7
 48
50.0
100
AcDbMText
 10
7635.847328222301
 20
9064.212662623667
 30
0.0
 40
96.0
 41
0.0
 71
     5
 72
     1
  1
棚 2段
  7
STYLE1
 73
     1
 44
1.0
1001
ACAD
1000
MTEXTBEGIN
1070
    73
1070
     1
1070
    44
1040
1.0
1070
    74
1070
     0
1000
MTEXTEND
  0
DIMENSION
  5
17291
330
747D
100
AcDbEntity
  8
寸法
100
AcDbDimension
  2
*D40
 10
7063.160772034034
 20
8792.551804843384
 30
0.0
 11
6716.424946832595
 21
8895.835920236381
 31
0.0
 70
   160
 71
     5
 42
892.000000000011
  3
INABA_S40G
100
AcDbAlignedDimension
 13
6225.299132056672
 23
8994.598915086369
 33
0.0
 14
7117.299132056683
 24
8994.598915086363
 34
0.0
100
AcDbRotatedDimension
1001
ACAD
1000
DSTYLE
1002
{
1070
   279
1070
     2
1002
}
  0
MTEXT
  5
17292
330
747D
100
AcDbEntity
  8
寸法
 62
     7
 48
50.0
100
AcDbMText
 10
6685.847328222301
 20
9064.212662623667
 30
0.0
 40
96.0
 41
0.0
 71
     5
 72
     1
  1
棚 2段
  7
STYLE1
 73
     1
 44
1.0
1001
ACAD
1000
MTEXTBEGIN
1070
    73
1070
     1
1070
    44
1040
1.0
1070
    74
1070
     0
1000
MTEXTEND
  0
DIMENSION
  5
17293
330
747D
100
AcDbEntity
  8
寸法
100
AcDbDimension
  2
*D39
 10
6113.160772034035
 20
8792.551804843384
 30
0.0
 11
5766.424946832594
 21
8895.835920236381
 31
0.0
 70
   160
 71
     5
 42
892.000000000011
  3
INABA_S40G
100
AcDbAlignedDimension
 13
5275.299132056673
 23
8994.598915086369
 33
0.0
 14
6167.299132056683
 24
8994.598915086363
 34
0.0
100
AcDbRotatedDimension
1001
ACAD
1000
DSTYLE
1002
{
1070
   279
1070
     2
1002
}
  0
MTEXT
  5
17294
330
747D
100
AcDbEntity
  8
寸法
 62
     7
 48
50.0
100
AcDbMText
 10
5735.847328222302
 20
9064.212662623667
 30
0.0
 40
96.0
 41
0.0
 71
     5
 72
     1
  1
棚 2段
  7
STYLE1
 73
     1
 44
1.0
1001
ACAD
1000
MTEXTBEGIN
1070
    73
1070
     1
1070
    44
1040
1.0
1070
    74
1070
     0
1000
MTEXTEND
  0
DIMENSION
  5
172E9
330
747D
100
AcDbEntity
  8
寸法
100
AcDbDimension
  2
*D43
 10
5163.160772034035
 20
8792.551804843384
 30
0.0
 11
4816.424946832594
 21
8895.835920236381
 31
0.0
 70
   160
 71
     5
 42
892.000000000011
  3
INABA_S40G
100
AcDbAlignedDimension
 13
4325.299132056673
 23
8994.598915086369
 33
0.0
 14
5217.299132056684
 24
8994.598915086363
 34
0.0
100
AcDbRotatedDimension
1001
ACAD
1000
DSTYLE
1002
{
1070
   279
1070
     2
1002
}
  0
MTEXT
  5
172EA
330
747D
100
AcDbEntity
  8
寸法
 62
     7
 48
50.0
100
AcDbMText
 10
4785.847328222302
 20
9064.212662623667
 30
0.0
 40
96.0
 41
0.0
 71
     5
 72
     1
  1
棚 2段
  7
STYLE1
 73
     1
 44
1.0
1001
ACAD
1000
MTEXTBEGIN
1070
    73
1070
     1
1070
    44
1040
1.0
1070
    74
1070
     0
1000
MTEXTEND
  0
TEXT
  5
174E6
330
747D
100
AcDbEntity
  8
文字
 62
     7
 48
50.0
100
AcDbText
 10
14260.68475616112
 20
855.469579666289
 30
0.0
 40
100.0
  1
～一般型・多雪地型・豪雪地型～
  7
STYLE2
100
AcDbText
  0
ENDSEC
  0
SECTION
  2
OBJECTS
  0
DICTIONARY
  5
7471
330
0
100
AcDbDictionary
281
     1
  3
ACAD_COLOR
350
15691
  3
ACAD_GROUP
350
7472
  3
ACAD_LAYOUT
350
15692
  3
ACAD_MATERIAL
350
15690
  3
ACAD_MLINESTYLE
350
7473
  3
ACAD_PLOTSETTINGS
350
15693
  3
ACAD_PLOTSTYLENAME
350
1568E
  3
ACDBHEADERROUNDTRIPXREC
350
17508
  3
AcDbVariableDictionary
350
17504
  3
CONTENTDICTIONARY
350
E71C
  3
DRAWINGVARIABLESDICT
350
F3B9
  0
DICTIONARY
  5
15883
330
7467
100
AcDbDictionary
280
     1
281
     1
  3
ACAD_LAYERSTATES
360
15884
  0
DICTIONARY
  5
15691
102
{ACAD_REACTORS
330
7471
102
}
330
7471
100
AcDbDictionary
281
     1
  0
DICTIONARY
  5
7472
102
{ACAD_REACTORS
330
7471
102
}
330
7471
100
AcDbDictionary
281
     1
  0
DICTIONARY
  5
15692
102
{ACAD_REACTORS
330
7471
102
}
330
7471
100
AcDbDictionary
281
     1
  3
Model
350
15694
  3
レイアウト1
350
15695
  0
DICTIONARY
  5
15690
102
{ACAD_REACTORS
330
7471
102
}
330
7471
100
AcDbDictionary
281
     1
  0
DICTIONARY
  5
7473
102
{ACAD_REACTORS
330
7471
102
}
330
7471
100
AcDbDictionary
281
     1
  3
STANDARD
350
7480
  0
DICTIONARY
  5
15693
102
{ACAD_REACTORS
330
7471
102
}
330
7471
100
AcDbDictionary
281
     1
  0
ACDBDICTIONARYWDFLT
  5
1568E
102
{ACAD_REACTORS
330
7471
102
}
330
7471
100
AcDbDictionary
281
     1
  3
Normal
350
1568F
100
AcDbDictionaryWithDefault
340
1568F
  0
DICTIONARY
  5
17508
102
{ACAD_REACTORS
330
7471
102
}
330
7471
100
AcDbDictionary
281
     1
  3
COLORDICT
350
1750A
  3
MATERIALDICT
350
17509
  0
DICTIONARY
  5
17504
102
{ACAD_REACTORS
330
7471
102
}
330
7471
100
AcDbDictionary
281
     1
  3
DIMASSOC
350
17505
  3
PROJECTNAME
350
17506
  0
DICTIONARY
  5
E71C
102
{ACAD_REACTORS
330
7471
102
}
330
7471
100
AcDbDictionary
281
     1
  0
DICTIONARY
  5
F3B9
102
{ACAD_REACTORS
330
7471
102
}
330
7471
100
AcDbDictionary
281
     1
1001
DRAWINGVARIABLESXDATA
1000
POLARMODE
1000
1
  0
DICTIONARY
  5
15884
102
{ACAD_REACTORS
330
15883
102
}
330
15883
100
AcDbDictionary
281
     1
  0
LAYOUT
  5
15694
102
{ACAD_XDICTIONARY
360
1750B
102
}
102
{ACAD_REACTORS
330
15692
102
}
330
15692
100
AcDbPlotSettings
  1

  2
Microsoft Office Document Image Writer
  4

  6

 40
0.0
 41
0.0
 42
0.0
 43
0.0
 44
0.0
 45
0.0
 46
0.0
 47
0.0
 48
0.0
 49
0.0
140
0.0
141
0.0
142
1.0
143
1.0
 70
  1712
 72
     0
 73
     0
 74
     0
  7

 75
     0
147
1.0
148
0.0
149
0.0
100
AcDbLayout
  1
Model
 70
     1
 71
     0
 10
0.0
 20
0.0
 11
12.0
 21
9.0
 12
0.0
 22
0.0
 32
0.0
 14
0.0
 24
0.0
 34
0.0
 15
0.0
 25
0.0
 35
0.0
146
0.0
 13
0.0
 23
0.0
 33
0.0
 16
1.0
 26
0.0
 36
0.0
 17
0.0
 27
1.0
 37
0.0
 76
     0
330
747D
  0
LAYOUT
  5
15695
102
{ACAD_XDICTIONARY
360
1750D
102
}
102
{ACAD_REACTORS
330
15692
102
}
330
15692
100
AcDbPlotSettings
  1

  2
Microsoft Office Document Image Writer
  4

  6

 40
0.0
 41
0.0
 42
0.0
 43
0.0
 44
0.0
 45
0.0
 46
0.0
 47
0.0
 48
0.0
 49
0.0
140
0.0
141
0.0
142
1.0
143
1.0
 70
   688
 72
     0
 73
     0
 74
     5
  7

 75
    16
147
1.0
148
0.0
149
0.0
100
AcDbLayout
  1
レイアウト1
 70
     0
 71
     1
 10
0.0
 20
0.0
 11
420.0
 21
297.0
 12
0.0
 22
0.0
 32
0.0
 14
1.000000000000000E+20
 24
1.000000000000000E+20
 34
1.000000000000000E+20
 15
-1.000000000000000E+20
 25
-1.000000000000000E+20
 35
-1.000000000000000E+20
146
0.0
 13
0.0
 23
0.0
 33
0.0
 16
1.0
 26
0.0
 36
0.0
 17
0.0
 27
1.0
 37
0.0
 76
     0
330
747A
  0
MLINESTYLE
  5
7480
102
{ACAD_REACTORS
330
7473
102
}
330
7473
100
AcDbMlineStyle
  2
STANDARD
 70
     0
  3

 62
     0
 51
90.0
 52
90.0
 71
     2
 49
0.5
 62
   256
  6
BYLAYER
 49
-0.5
 62
   256
  6
BYLAYER
  0
ACDBPLACEHOLDER
  5
1568F
102
{ACAD_REACTORS
330
1568E
102
}
330
1568E
  0
XRECORD
  5
1750A
102
{ACAD_REACTORS
330
17508
102
}
330
17508
100
AcDbXrecord
280
     1
340
15691
  0
XRECORD
  5
17509
102
{ACAD_REACTORS
330
17508
102
}
330
17508
100
AcDbXrecord
280
     1
340
15690
  0
DICTIONARYVAR
  5
17505
102
{ACAD_REACTORS
330
17504
102
}
330
17504
100
DictionaryVariables
280
     0
  1
1
  0
DICTIONARYVAR
  5
17506
102
{ACAD_REACTORS
330
17504
102
}
330
17504
100
DictionaryVariables
280
     0
  1

  0
DICTIONARY
  5
1750B
330
15694
100
AcDbDictionary
280
     1
281
     1
  3
ACAD_XREC_ROUNDTRIP
360
1750C
  0
DICTIONARY
  5
1750D
330
15695
100
AcDbDictionary
280
     1
281
     1
  3
ACAD_XREC_ROUNDTRIP
360
1750E
  0
XRECORD
  5
1750C
102
{ACAD_REACTORS
330
1750B
102
}
330
1750B
100
AcDbXrecord
280
     1
102
SHADEPLOT
 70
     0
102
SHADEPLOTRESLEVEL
 70
     2
102
SHADEPLOTCUSTOMDPI
 70
   300
  0
XRECORD
  5
1750E
102
{ACAD_REACTORS
330
1750D
102
}
330
1750D
100
AcDbXrecord
280
     1
102
SHADEPLOT
 70
     0
102
SHADEPLOTRESLEVEL
 70
     2
102
SHADEPLOTCUSTOMDPI
 70
   300
  0
ENDSEC
  0
EOF
