  0
SECTION
  2
HEADER
  9
$ACADVER
  1
AC1015
  9
$ACADMAINTVER
 70
    20
  9
$DWGCODEPAGE
  3
ANSI_932
  9
$INSBASE
 10
0.0
 20
0.0
 30
0.0
  9
$EXTMIN
 10
139.9999999999995
 20
-0.0000000000000909
 30
0.0
  9
$EXTMAX
 10
16307.2
 20
11409.6
 30
0.0
  9
$LIMMIN
 10
0.0
 20
0.0
  9
$LIMMAX
 10
16800.0
 20
11880.0
  9
$ORTHOMODE
 70
     0
  9
$REGENMODE
 70
     1
  9
$FILLMODE
 70
     1
  9
$QTEXTMODE
 70
     0
  9
$MIRRTEXT
 70
     1
  9
$LTSCALE
 40
20.0
  9
$ATTMODE
 70
     1
  9
$TEXTSIZE
 40
100.0
  9
$TRACEWID
 40
1.0
  9
$TEXTSTYLE
  7
STYLE3
  9
$CLAYER
  8
寸法
  9
$CELTYPE
  6
BYLAYER
  9
$CECOLOR
 62
   256
  9
$CELTSCALE
 40
50.0
  9
$DISPSILH
 70
     0
  9
$DIMSCALE
 40
40.0
  9
$DIMASZ
 40
2.5
  9
$DIMEXO
 40
0.5
  9
$DIMDLI
 40
7.0
  9
$DIMRND
 40
0.0
  9
$DIMDLE
 40
0.0
  9
$DIMEXE
 40
1.5
  9
$DIMTP
 40
0.0
  9
$DIMTM
 40
0.0
  9
$DIMTXT
 40
3.0
  9
$DIMCEN
 40
0.0
  9
$DIMTSZ
 40
0.0
  9
$DIMTOL
 70
     0
  9
$DIMLIM
 70
     0
  9
$DIMTIH
 70
     0
  9
$DIMTOH
 70
     0
  9
$DIMSE1
 70
     0
  9
$DIMSE2
 70
     0
  9
$DIMTAD
 70
     3
  9
$DIMZIN
 70
     8
  9
$DIMBLK
  1

  9
$DIMASO
 70
     1
  9
$DIMSHO
 70
     1
  9
$DIMPOST
  1

  9
$DIMAPOST
  1

  9
$DIMALT
 70
     0
  9
$DIMALTD
 70
     2
  9
$DIMALTF
 40
0.0394
  9
$DIMLFAC
 40
1.0
  9
$DIMTOFL
 70
     1
  9
$DIMTVP
 40
0.0
  9
$DIMTIX
 70
     1
  9
$DIMSOXD
 70
     0
  9
$DIMSAH
 70
     1
  9
$DIMBLK1
  1
DOTSMALL
  9
$DIMBLK2
  1
DOTSMALL
  9
$DIMSTYLE
  2
INABA_S40G
  9
$DIMCLRD
 70
     0
  9
$DIMCLRE
 70
     0
  9
$DIMCLRT
 70
     7
  9
$DIMTFAC
 40
1.0
  9
$DIMGAP
 40
1.0
  9
$DIMJUST
 70
     0
  9
$DIMSD1
 70
     0
  9
$DIMSD2
 70
     0
  9
$DIMTOLJ
 70
     1
  9
$DIMTZIN
 70
     0
  9
$DIMALTZ
 70
     0
  9
$DIMALTTZ
 70
     0
  9
$DIMUPT
 70
     0
  9
$DIMDEC
 70
     1
  9
$DIMTDEC
 70
     4
  9
$DIMALTU
 70
     2
  9
$DIMALTTD
 70
     2
  9
$DIMTXSTY
  7
STYLE1
  9
$DIMAUNIT
 70
     0
  9
$DIMADEC
 70
     0
  9
$DIMALTRND
 40
0.0
  9
$DIMAZIN
 70
     0
  9
$DIMDSEP
 70
    46
  9
$DIMATFIT
 70
     3
  9
$DIMFRAC
 70
     0
  9
$DIMLDRBLK
  1

  9
$DIMLUNIT
 70
     2
  9
$DIMLWD
 70
    -2
  9
$DIMLWE
 70
    -2
  9
$DIMTMOVE
 70
     0
  9
$LUNITS
 70
     2
  9
$LUPREC
 70
     1
  9
$SKETCHINC
 40
1.0
  9
$FILLETRAD
 40
5.0
  9
$AUNITS
 70
     0
  9
$AUPREC
 70
     0
  9
$MENU
  1
acad
  9
$ELEVATION
 40
0.0
  9
$PELEVATION
 40
0.0
  9
$THICKNESS
 40
0.0
  9
$LIMCHECK
 70
     0
  9
$CHAMFERA
 40
0.0
  9
$CHAMFERB
 40
0.0
  9
$CHAMFERC
 40
0.0
  9
$CHAMFERD
 40
0.0
  9
$SKPOLY
 70
     0
  9
$TDCREATE
 40
2452116.684896065
  9
$TDUCREATE
 40
2452116.309896065
  9
$TDUPDATE
 40
2455575.694857674
  9
$TDUUPDATE
 40
2455575.319857674
  9
$TDINDWG
 40
0.4840679051
  9
$TDUSRTIMER
 40
0.4840679051
  9
$USRTIMER
 70
     1
  9
$ANGBASE
 50
0.0
  9
$ANGDIR
 70
     0
  9
$PDMODE
 70
     3
  9
$PDSIZE
 40
2.0
  9
$PLINEWID
 40
0.0
  9
$SPLFRAME
 70
     0
  9
$SPLINETYPE
 70
     6
  9
$SPLINESEGS
 70
     8
  9
$HANDSEED
  5
16A3F
  9
$SURFTAB1
 70
     6
  9
$SURFTAB2
 70
     6
  9
$SURFTYPE
 70
     6
  9
$SURFU
 70
     6
  9
$SURFV
 70
     6
  9
$UCSBASE
  2

  9
$UCSNAME
  2

  9
$UCSORG
 10
0.0
 20
0.0
 30
0.0
  9
$UCSXDIR
 10
1.0
 20
0.0
 30
0.0
  9
$UCSYDIR
 10
0.0
 20
1.0
 30
0.0
  9
$UCSORTHOREF
  2

  9
$UCSORTHOVIEW
 70
     0
  9
$UCSORGTOP
 10
0.0
 20
0.0
 30
0.0
  9
$UCSORGBOTTOM
 10
0.0
 20
0.0
 30
0.0
  9
$UCSORGLEFT
 10
0.0
 20
0.0
 30
0.0
  9
$UCSORGRIGHT
 10
0.0
 20
0.0
 30
0.0
  9
$UCSORGFRONT
 10
0.0
 20
0.0
 30
0.0
  9
$UCSORGBACK
 10
0.0
 20
0.0
 30
0.0
  9
$PUCSBASE
  2

  9
$PUCSNAME
  2

  9
$PUCSORG
 10
0.0
 20
0.0
 30
0.0
  9
$PUCSXDIR
 10
1.0
 20
0.0
 30
0.0
  9
$PUCSYDIR
 10
0.0
 20
1.0
 30
0.0
  9
$PUCSORTHOREF
  2

  9
$PUCSORTHOVIEW
 70
     0
  9
$PUCSORGTOP
 10
0.0
 20
0.0
 30
0.0
  9
$PUCSORGBOTTOM
 10
0.0
 20
0.0
 30
0.0
  9
$PUCSORGLEFT
 10
0.0
 20
0.0
 30
0.0
  9
$PUCSORGRIGHT
 10
0.0
 20
0.0
 30
0.0
  9
$PUCSORGFRONT
 10
0.0
 20
0.0
 30
0.0
  9
$PUCSORGBACK
 10
0.0
 20
0.0
 30
0.0
  9
$USERI1
 70
     0
  9
$USERI2
 70
     0
  9
$USERI3
 70
     0
  9
$USERI4
 70
     0
  9
$USERI5
 70
     0
  9
$USERR1
 40
0.0
  9
$USERR2
 40
0.0
  9
$USERR3
 40
0.0
  9
$USERR4
 40
0.0
  9
$USERR5
 40
0.0
  9
$WORLDVIEW
 70
     1
  9
$SHADEDGE
 70
     3
  9
$SHADEDIF
 70
    70
  9
$TILEMODE
 70
     1
  9
$MAXACTVP
 70
    16
  9
$PINSBASE
 10
0.0
 20
0.0
 30
0.0
  9
$PLIMCHECK
 70
     0
  9
$PEXTMIN
 10
1.000000000000000E+20
 20
1.000000000000000E+20
 30
1.000000000000000E+20
  9
$PEXTMAX
 10
-1.000000000000000E+20
 20
-1.000000000000000E+20
 30
-1.000000000000000E+20
  9
$PLIMMIN
 10
0.0
 20
0.0
  9
$PLIMMAX
 10
420.0
 20
297.0
  9
$UNITMODE
 70
     0
  9
$VISRETAIN
 70
     0
  9
$PLINEGEN
 70
     0
  9
$PSLTSCALE
 70
     0
  9
$TREEDEPTH
 70
  3020
  9
$CMLSTYLE
  2
STANDARD
  9
$CMLJUST
 70
     0
  9
$CMLSCALE
 40
1.0
  9
$PROXYGRAPHICS
 70
     1
  9
$MEASUREMENT
 70
     1
  9
$CELWEIGHT
370
    -1
  9
$ENDCAPS
280
     0
  9
$JOINSTYLE
280
     0
  9
$LWDISPLAY
290
     0
  9
$INSUNITS
 70
     0
  9
$HYPERLINKBASE
  1

  9
$STYLESHEET
  1

  9
$XEDIT
290
     1
  9
$CEPSNTYPE
380
     0
  9
$PSTYLEMODE
290
     1
  9
$FINGERPRINTGUID
  2
{8D8793D9-B68D-4D7A-94F9-98CE43C8D2FA}
  9
$VERSIONGUID
  2
{47561705-23FF-4386-A05A-9F2D73044AC0}
  9
$EXTNAMES
290
     1
  9
$PSVPSCALE
 40
0.0
  9
$OLESTARTUP
290
     0
  0
ENDSEC
  0
SECTION
  2
CLASSES
  0
CLASS
  1
ACDBDICTIONARYWDFLT
  2
AcDbDictionaryWithDefault
  3
ObjectDBX Classes
 90
        0
280
     0
281
     0
  0
CLASS
  1
DICTIONARYVAR
  2
AcDbDictionaryVar
  3
ObjectDBX Classes
 90
        0
280
     0
281
     0
  0
CLASS
  1
ACDBPLACEHOLDER
  2
AcDbPlaceHolder
  3
ObjectDBX Classes
 90
        0
280
     0
281
     0
  0
CLASS
  1
LAYOUT
  2
AcDbLayout
  3
ObjectDBX Classes
 90
        0
280
     0
281
     0
  0
ENDSEC
  0
SECTION
  2
TABLES
  0
TABLE
  2
VPORT
  5
746D
330
0
100
AcDbSymbolTable
 70
     2
  0
VPORT
  5
16A37
330
746D
100
AcDbSymbolTableRecord
100
AcDbViewportTableRecord
  2
*Active
 70
     0
 10
0.0
 20
0.0
 11
1.0
 21
1.0
 12
9076.91645855874
 22
6347.66611132684
 13
0.0
 23
0.0
 14
10.0
 24
10.0
 15
10.0
 25
10.0
 16
0.0
 26
0.0
 36
1.0
 17
0.0
 27
0.0
 37
0.0
 40
12783.46462244035
 41
1.525925925925925
 42
50.0
 43
0.0
 44
0.0
 50
0.0
 51
0.0
 71
     0
 72
     0
 73
     1
 74
     0
 75
     0
 76
     0
 77
     0
 78
     0
281
     0
 65
     1
110
0.0
120
0.0
130
0.0
111
1.0
121
0.0
131
0.0
112
0.0
122
1.0
132
0.0
 79
     0
146
0.0
  0
ENDTAB
  0
TABLE
  2
LTYPE
  5
746A
330
0
100
AcDbSymbolTable
 70
     4
  0
LTYPE
  5
7477
330
746A
100
AcDbSymbolTableRecord
100
AcDbLinetypeTableRecord
  2
BYBLOCK
 70
     0
  3

 72
    65
 73
     0
 40
0.0
  0
LTYPE
  5
7478
330
746A
100
AcDbSymbolTableRecord
100
AcDbLinetypeTableRecord
  2
BYLAYER
 70
     0
  3

 72
    65
 73
     0
 40
0.0
  0
LTYPE
  5
7479
330
746A
100
AcDbSymbolTableRecord
100
AcDbLinetypeTableRecord
  2
CONTINUOUS
 70
     0
  3
Solid line
 72
    65
 73
     0
 40
0.0
  0
LTYPE
  5
7816
330
746A
100
AcDbSymbolTableRecord
100
AcDbLinetypeTableRecord
  2
CENTER
 70
     0
  3
____ _ ____ _ ____ _ ____ _ ____ _ ____ _ ____ 
 72
    65
 73
     4
 40
2.0
 49
1.25
 74
     0
 49
-0.25
 74
     0
 49
0.25
 74
     0
 49
-0.25
 74
     0
  0
LTYPE
  5
781A
330
746A
100
AcDbSymbolTableRecord
100
AcDbLinetypeTableRecord
  2
HIDDEN
 70
     0
  3
__ __ __ __ __ __ __ __ __ __ __ __ __ __ __ __
 72
    65
 73
     2
 40
0.375
 49
0.25
 74
     0
 49
-0.125
 74
     0
  0
LTYPE
  5
781B
330
746A
100
AcDbSymbolTableRecord
100
AcDbLinetypeTableRecord
  2
PHANTOM
 70
     0
  3
______  __  __  ______  __  __  ______  __  __ 
 72
    65
 73
     6
 40
2.5
 49
1.25
 74
     0
 49
-0.25
 74
     0
 49
0.25
 74
     0
 49
-0.25
 74
     0
 49
0.25
 74
     0
 49
-0.25
 74
     0
  0
ENDTAB
  0
TABLE
  2
LAYER
  5
7467
102
{ACAD_XDICTIONARY
360
15743
102
}
330
0
100
AcDbSymbolTable
 70
    12
  0
LAYER
  5
7474
330
7467
100
AcDbSymbolTableRecord
100
AcDbLayerTableRecord
  2
0
 70
     0
 62
     7
  6
CONTINUOUS
370
    -3
390
1557F
  0
LAYER
  5
DEB2
330
7467
100
AcDbSymbolTableRecord
100
AcDbLayerTableRecord
  2
センター
 70
     0
 62
     3
  6
CENTER
370
    -3
390
1557F
  0
LAYER
  5
DEB3
330
7467
100
AcDbSymbolTableRecord
100
AcDbLayerTableRecord
  2
寸法
 70
     0
 62
     4
  6
CONTINUOUS
370
    -3
390
1557F
  0
LAYER
  5
DEB4
330
7467
100
AcDbSymbolTableRecord
100
AcDbLayerTableRecord
  2
部品1
 70
     0
 62
     7
  6
CONTINUOUS
370
    -3
390
1557F
  0
LAYER
  5
DEB5
330
7467
100
AcDbSymbolTableRecord
100
AcDbLayerTableRecord
  2
補助
 70
     0
 62
    -1
  6
CONTINUOUS
370
    -3
390
1557F
  0
LAYER
  5
DEB6
330
7467
100
AcDbSymbolTableRecord
100
AcDbLayerTableRecord
  2
文字
 70
     0
 62
     7
  6
CONTINUOUS
370
    -3
390
1557F
  0
LAYER
  5
F255
330
7467
100
AcDbSymbolTableRecord
100
AcDbLayerTableRecord
  2
DEFPOINTS
 70
     0
 62
     7
  6
CONTINUOUS
290
     0
370
    -3
390
1557F
  0
LAYER
  5
10B54
330
7467
100
AcDbSymbolTableRecord
100
AcDbLayerTableRecord
  2
仕様書枠
 70
     0
 62
   230
  6
CONTINUOUS
370
    -3
390
1557F
  0
LAYER
  5
11729
330
7467
100
AcDbSymbolTableRecord
100
AcDbLayerTableRecord
  2
Ｇ．Ｌ
 70
     0
 62
    30
  6
CONTINUOUS
370
    -3
390
1557F
  0
LAYER
  5
1173F
330
7467
100
AcDbSymbolTableRecord
100
AcDbLayerTableRecord
  2
細線
 70
     0
 62
     5
  6
CONTINUOUS
370
    -3
390
1557F
  0
LAYER
  5
118A1
330
7467
100
AcDbSymbolTableRecord
100
AcDbLayerTableRecord
  2
想像線
 70
     0
 62
     6
  6
PHANTOM
370
    -3
390
1557F
  0
LAYER
  5
123C1
330
7467
100
AcDbSymbolTableRecord
100
AcDbLayerTableRecord
  2
破線
 70
     0
 62
     2
  6
HIDDEN
370
    -3
390
1557F
  0
ENDTAB
  0
TABLE
  2
STYLE
  5
7468
330
0
100
AcDbSymbolTable
 70
     4
  0
STYLE
  5
7475
330
7468
100
AcDbSymbolTableRecord
100
AcDbTextStyleTableRecord
  2
STANDARD
 70
     0
 40
0.0
 41
1.0
 50
0.0
 71
     0
 42
4.0
  3
txt
  4
C:\AutoCAD LT\bigfont.shx
  0
STYLE
  5
F706
330
7468
100
AcDbSymbolTableRecord
100
AcDbTextStyleTableRecord
  2
STYLE1
 70
     0
 40
0.0
 41
1.0
 50
0.0
 71
     0
 42
4.0
  3
isocp.shx
  4
bigfont.shx
  0
STYLE
  5
103BF
330
7468
100
AcDbSymbolTableRecord
100
AcDbTextStyleTableRecord
  2
STYLE2
 70
     0
 40
0.0
 41
1.0
 50
0.0
 71
     0
 42
100.0
  3
MS PGothic.ttf
  4

1001
ACAD
1000
MS PGothic
1071
    32818
  0
STYLE
  5
10BAA
330
7468
100
AcDbSymbolTableRecord
100
AcDbTextStyleTableRecord
  2
STYLE3
 70
     0
 40
0.0
 41
1.0
 50
0.0
 71
     0
 42
100.0
  3

  4

1001
ACAD
1000
DFPGothic-EB
1071
    32818
  0
ENDTAB
  0
TABLE
  2
VIEW
  5
746B
330
0
100
AcDbSymbolTable
 70
     0
  0
ENDTAB
  0
TABLE
  2
UCS
  5
746C
330
0
100
AcDbSymbolTable
 70
     0
  0
ENDTAB
  0
TABLE
  2
APPID
  5
746E
330
0
100
AcDbSymbolTable
 70
     6
  0
APPID
  5
7476
330
746E
100
AcDbSymbolTableRecord
100
AcDbRegAppTableRecord
  2
ACAD
 70
     0
  0
APPID
  5
DEA9
330
746E
100
AcDbSymbolTableRecord
100
AcDbRegAppTableRecord
  2
CONTENTBLOCKICON
 70
     0
  0
APPID
  5
DEAA
330
746E
100
AcDbSymbolTableRecord
100
AcDbRegAppTableRecord
  2
CONTENTBLOCKDESCRIPTION
 70
     0
  0
APPID
  5
E71D
330
746E
100
AcDbSymbolTableRecord
100
AcDbRegAppTableRecord
  2
CONTENTTABDATA
 70
     0
  0
APPID
  5
E71E
330
746E
100
AcDbSymbolTableRecord
100
AcDbRegAppTableRecord
  2
CONTENTCURRENTTAB
 70
     0
  0
APPID
  5
F3BA
330
746E
100
AcDbSymbolTableRecord
100
AcDbRegAppTableRecord
  2
DRAWINGVARIABLESXDATA
 70
     0
  0
ENDTAB
  0
TABLE
  2
DIMSTYLE
  5
746F
330
0
100
AcDbSymbolTable
 70
     2
100
AcDbDimStyleTable
 71
     0
  0
DIMSTYLE
105
7484
330
746F
100
AcDbSymbolTableRecord
100
AcDbDimStyleTableRecord
  2
JIS
 70
     0
 41
2.5
 42
1.0
 43
7.0
 44
1.0
 73
     0
 74
     0
 77
     1
 78
     8
140
2.5
141
0.0
143
0.0394
147
0.0
172
     1
174
     1
175
     1
340
7475
  0
DIMSTYLE
105
F71F
102
{ACAD_REACTORS
330
14E40
330
14E47
330
14E4C
330
14E65
330
14EDC
330
14EDF
330
14EE6
330
14EE9
330
14EF0
330
14EFC
330
14EFE
330
14EFF
330
14F06
330
15249
330
15256
330
15263
330
15397
330
153AF
330
15497
330
15496
330
15470
330
15AD6
330
15AD7
330
15ADB
330
15ADC
330
15ADD
330
15ADE
330
15B02
330
15B03
330
15B15
330
16452
330
16461
330
16462
330
16463
330
165D8
330
16806
330
16804
330
16802
330
16848
102
}
330
746F
100
AcDbSymbolTableRecord
100
AcDbDimStyleTableRecord
  2
INABA_S40G
 70
     0
 40
40.0
 41
2.5
 42
0.5
 43
7.0
 44
1.5
 73
     0
 74
     0
 77
     3
 78
     8
140
3.0
141
0.0
143
0.0394
147
1.0
172
     1
173
     1
174
     1
178
     7
271
     1
340
F706
341
F770
343
F770
344
F770
  0
ENDTAB
  0
TABLE
  2
BLOCK_RECORD
  5
7466
330
0
100
AcDbSymbolTable
 70
    40
  0
BLOCK_RECORD
  5
747D
330
7466
100
AcDbSymbolTableRecord
100
AcDbBlockTableRecord
  2
*MODEL_SPACE
340
15584
  0
BLOCK_RECORD
  5
747A
330
7466
100
AcDbSymbolTableRecord
100
AcDbBlockTableRecord
  2
*PAPER_SPACE
340
15585
  0
BLOCK_RECORD
  5
F770
330
7466
100
AcDbSymbolTableRecord
100
AcDbBlockTableRecord
  2
_DOTSMALL
340
0
102
{BLKREFS
331
16861
331
16862
331
1686A
331
1686B
331
16873
331
16874
331
1687E
331
1687F
331
16889
331
1688A
331
16892
331
16893
331
1689C
331
1689D
331
168A6
331
168A7
331
168AF
331
168B0
331
168BA
331
168BB
331
168C3
331
168C4
331
168CC
331
168CD
331
168D7
331
168D8
331
168E0
331
168E1
331
1690D
331
1690E
331
16917
331
16918
331
1691F
331
16920
331
16928
331
16929
331
16931
331
16932
331
1693A
331
1693B
331
16943
331
16944
331
1694C
331
1694D
331
16957
331
16958
331
16962
331
16963
331
1696B
331
1696C
331
16974
331
16975
331
1697E
331
1697F
331
16987
331
16988
331
1698F
331
16990
331
16998
331
16999
331
169A3
331
169A4
331
169AC
331
169AD
331
169B5
331
169B6
331
169BE
331
169BF
331
169C9
331
169CA
331
169DD
331
169DE
331
169E6
331
169E7
331
169EF
331
169F0
331
169F8
331
169F9
102
}
  0
BLOCK_RECORD
  5
14FC7
330
7466
100
AcDbSymbolTableRecord
100
AcDbBlockTableRecord
  2
*D1
340
0
  0
BLOCK_RECORD
  5
14FD5
330
7466
100
AcDbSymbolTableRecord
100
AcDbBlockTableRecord
  2
*D2
340
0
  0
BLOCK_RECORD
  5
14FE1
330
7466
100
AcDbSymbolTableRecord
100
AcDbBlockTableRecord
  2
*D3
340
0
  0
BLOCK_RECORD
  5
14FF9
330
7466
100
AcDbSymbolTableRecord
100
AcDbBlockTableRecord
  2
*D4
340
0
  0
BLOCK_RECORD
  5
15035
330
7466
100
AcDbSymbolTableRecord
100
AcDbBlockTableRecord
  2
*D5
340
0
  0
BLOCK_RECORD
  5
15043
330
7466
100
AcDbSymbolTableRecord
100
AcDbBlockTableRecord
  2
*D6
340
0
  0
BLOCK_RECORD
  5
1504F
330
7466
100
AcDbSymbolTableRecord
100
AcDbBlockTableRecord
  2
*D7
340
0
  0
BLOCK_RECORD
  5
1505B
330
7466
100
AcDbSymbolTableRecord
100
AcDbBlockTableRecord
  2
*D8
340
0
  0
BLOCK_RECORD
  5
15067
330
7466
100
AcDbSymbolTableRecord
100
AcDbBlockTableRecord
  2
*D9
340
0
  0
BLOCK_RECORD
  5
15073
330
7466
100
AcDbSymbolTableRecord
100
AcDbBlockTableRecord
  2
*D10
340
0
  0
BLOCK_RECORD
  5
1508B
330
7466
100
AcDbSymbolTableRecord
100
AcDbBlockTableRecord
  2
*D11
340
0
  0
BLOCK_RECORD
  5
15097
330
7466
100
AcDbSymbolTableRecord
100
AcDbBlockTableRecord
  2
*D12
340
0
  0
BLOCK_RECORD
  5
150A5
330
7466
100
AcDbSymbolTableRecord
100
AcDbBlockTableRecord
  2
*D13
340
0
  0
BLOCK_RECORD
  5
1523D
330
7466
100
AcDbSymbolTableRecord
100
AcDbBlockTableRecord
  2
*D14
340
0
  0
BLOCK_RECORD
  5
1524A
330
7466
100
AcDbSymbolTableRecord
100
AcDbBlockTableRecord
  2
*D15
340
0
  0
BLOCK_RECORD
  5
15257
330
7466
100
AcDbSymbolTableRecord
100
AcDbBlockTableRecord
  2
*D16
340
0
  0
BLOCK_RECORD
  5
15398
330
7466
100
AcDbSymbolTableRecord
100
AcDbBlockTableRecord
  2
*D17
340
0
  0
BLOCK_RECORD
  5
153B0
330
7466
100
AcDbSymbolTableRecord
100
AcDbBlockTableRecord
  2
*D18
340
0
  0
BLOCK_RECORD
  5
154A2
330
7466
100
AcDbSymbolTableRecord
100
AcDbBlockTableRecord
  2
*D19
340
0
  0
BLOCK_RECORD
  5
154AE
330
7466
100
AcDbSymbolTableRecord
100
AcDbBlockTableRecord
  2
*D20
340
0
  0
BLOCK_RECORD
  5
154BA
330
7466
100
AcDbSymbolTableRecord
100
AcDbBlockTableRecord
  2
*D21
340
0
  0
BLOCK_RECORD
  5
15D47
330
7466
100
AcDbSymbolTableRecord
100
AcDbBlockTableRecord
  2
*D22
340
0
  0
BLOCK_RECORD
  5
15D53
330
7466
100
AcDbSymbolTableRecord
100
AcDbBlockTableRecord
  2
*D23
340
0
  0
BLOCK_RECORD
  5
15D61
330
7466
100
AcDbSymbolTableRecord
100
AcDbBlockTableRecord
  2
*D24
340
0
  0
BLOCK_RECORD
  5
15D6D
330
7466
100
AcDbSymbolTableRecord
100
AcDbBlockTableRecord
  2
*D25
340
0
  0
BLOCK_RECORD
  5
15D79
330
7466
100
AcDbSymbolTableRecord
100
AcDbBlockTableRecord
  2
*D26
340
0
  0
BLOCK_RECORD
  5
15D87
330
7466
100
AcDbSymbolTableRecord
100
AcDbBlockTableRecord
  2
*D27
340
0
  0
BLOCK_RECORD
  5
15D93
330
7466
100
AcDbSymbolTableRecord
100
AcDbBlockTableRecord
  2
*D28
340
0
  0
BLOCK_RECORD
  5
15DA0
330
7466
100
AcDbSymbolTableRecord
100
AcDbBlockTableRecord
  2
*D29
340
0
  0
BLOCK_RECORD
  5
15DAD
330
7466
100
AcDbSymbolTableRecord
100
AcDbBlockTableRecord
  2
*D30
340
0
  0
BLOCK_RECORD
  5
165E7
330
7466
100
AcDbSymbolTableRecord
100
AcDbBlockTableRecord
  2
*D31
340
0
  0
BLOCK_RECORD
  5
165F5
330
7466
100
AcDbSymbolTableRecord
100
AcDbBlockTableRecord
  2
*D32
340
0
  0
BLOCK_RECORD
  5
16603
330
7466
100
AcDbSymbolTableRecord
100
AcDbBlockTableRecord
  2
*D33
340
0
  0
BLOCK_RECORD
  5
1660F
330
7466
100
AcDbSymbolTableRecord
100
AcDbBlockTableRecord
  2
*D34
340
0
  0
BLOCK_RECORD
  5
1668D
330
7466
100
AcDbSymbolTableRecord
100
AcDbBlockTableRecord
  2
*D35
340
0
  0
BLOCK_RECORD
  5
16808
330
7466
100
AcDbSymbolTableRecord
100
AcDbBlockTableRecord
  2
*D36
340
0
  0
BLOCK_RECORD
  5
16814
330
7466
100
AcDbSymbolTableRecord
100
AcDbBlockTableRecord
  2
*D37
340
0
  0
BLOCK_RECORD
  5
16820
330
7466
100
AcDbSymbolTableRecord
100
AcDbBlockTableRecord
  2
*D38
340
0
  0
BLOCK_RECORD
  5
16849
330
7466
100
AcDbSymbolTableRecord
100
AcDbBlockTableRecord
  2
*D39
340
0
  0
ENDTAB
  0
ENDSEC
  0
SECTION
  2
BLOCKS
  0
BLOCK
  5
7489
330
747D
100
AcDbEntity
  8
0
100
AcDbBlockBegin
  2
*MODEL_SPACE
 70
     0
 10
0.0
 20
0.0
 30
0.0
  3
*MODEL_SPACE
  1

  0
ENDBLK
  5
748A
330
747D
100
AcDbEntity
  8
0
100
AcDbBlockEnd
  0
BLOCK
  5
7487
330
747A
100
AcDbEntity
 67
     1
  8
0
100
AcDbBlockBegin
  2
*PAPER_SPACE
 70
     0
 10
0.0
 20
0.0
 30
0.0
  3
*PAPER_SPACE
  1

  0
ENDBLK
  5
7488
330
747A
100
AcDbEntity
 67
     1
  8
0
100
AcDbBlockEnd
  0
BLOCK
  5
F771
330
F770
100
AcDbEntity
  8
0
 48
50.0
100
AcDbBlockBegin
  2
_DOTSMALL
 70
     0
 10
0.0
 20
0.0
 30
0.0
  3
_DOTSMALL
  1

  0
LWPOLYLINE
  5
F772
330
F770
100
AcDbEntity
  8
0
  6
ByBlock
 62
     0
 48
50.0
100
AcDbPolyline
 90
        2
 70
     1
 43
0.5
 10
-0.0625
 20
0.0
 42
1.0
 10
0.0625
 20
0.0
 42
1.0
  0
ENDBLK
  5
F776
330
F770
100
AcDbEntity
  8
0
 48
50.0
100
AcDbBlockEnd
  0
BLOCK
  5
15162
330
14FC7
100
AcDbEntity
  8
0
 48
50.0
100
AcDbBlockBegin
  2
*D1
 70
     1
 10
0.0
 20
0.0
 30
0.0
  3
*D1
  1

  0
LINE
  5
169C4
330
14FC7
100
AcDbEntity
  8
寸法
 62
     0
 48
50.0
370
    -2
100
AcDbLine
 10
8057.590802131166
 20
9260.111290596164
 30
0.0
 11
8057.590802131166
 21
9515.919510221145
 31
0.0
  0
LINE
  5
169C5
330
14FC7
100
AcDbEntity
  8
寸法
 62
     0
 48
50.0
370
    -2
100
AcDbLine
 10
8112.590802131165
 20
9260.111290596164
 30
0.0
 11
8112.590802131165
 21
9515.919510221145
 31
0.0
  0
LINE
  5
169C6
330
14FC7
100
AcDbEntity
  8
寸法
 62
     0
 48
50.0
370
    -2
100
AcDbLine
 10
8057.590802131166
 20
9455.919510221145
 30
0.0
 11
7957.590802131166
 21
9455.919510221145
 31
0.0
  0
LINE
  5
169C7
330
14FC7
100
AcDbEntity
  8
寸法
 62
     0
 48
50.0
370
    -2
100
AcDbLine
 10
8112.590802131165
 20
9455.919510221145
 30
0.0
 11
8529.561364879645
 21
9455.919510221145
 31
0.0
  0
LINE
  5
169C8
330
14FC7
100
AcDbEntity
  8
寸法
 62
     0
 48
50.0
370
    -2
100
AcDbLine
 10
8057.590802131166
 20
9455.919510221145
 30
0.0
 11
8112.590802131165
 21
9455.919510221145
 31
0.0
  0
INSERT
  5
169C9
330
14FC7
100
AcDbEntity
  8
寸法
 62
     0
 48
50.0
370
    -2
100
AcDbBlockReference
  2
_DOTSMALL
 10
8057.590802131166
 20
9455.919510221145
 30
0.0
 41
100.0
 42
100.0
 43
100.0
  0
INSERT
  5
169CA
330
14FC7
100
AcDbEntity
  8
寸法
 62
     0
 48
50.0
370
    -2
100
AcDbBlockReference
  2
_DOTSMALL
 10
8112.590802131165
 20
9455.919510221145
 30
0.0
 41
100.0
 42
100.0
 43
100.0
 50
180.0
  0
MTEXT
  5
169CB
330
14FC7
100
AcDbEntity
  8
寸法
 62
     7
 48
50.0
100
AcDbMText
 10
8421.076083505406
 20
9555.919510221144
 30
0.0
 40
120.0
 41
0.0
 71
     5
 72
     1
  1
\A1;55
  7
STYLE1
 73
     1
 44
1.0
1001
ACAD
1000
MTEXTBEGIN
1070
    73
1070
     1
1070
    44
1040
1.0
1070
    74
1070
     0
1000
MTEXTEND
  0
POINT
  5
169CC
330
14FC7
100
AcDbEntity
  8
DEFPOINTS
 62
     0
 48
50.0
100
AcDbPoint
 10
8057.590802131166
 20
9240.111290596164
 30
0.0
  0
POINT
  5
169CD
330
14FC7
100
AcDbEntity
  8
DEFPOINTS
 62
     0
 48
50.0
100
AcDbPoint
 10
8112.590802131165
 20
9240.111290596164
 30
0.0
  0
POINT
  5
169CE
330
14FC7
100
AcDbEntity
  8
DEFPOINTS
 62
     0
 48
50.0
100
AcDbPoint
 10
8112.590802131165
 20
9455.919510221145
 30
0.0
  0
ENDBLK
  5
1516E
330
14FC7
100
AcDbEntity
  8
0
 48
50.0
100
AcDbBlockEnd
  0
BLOCK
  5
1516F
330
14FD5
100
AcDbEntity
  8
0
 48
50.0
100
AcDbBlockBegin
  2
*D2
 70
     1
 10
0.0
 20
0.0
 30
0.0
  3
*D2
  1

  0
LINE
  5
169BB
330
14FD5
100
AcDbEntity
  8
寸法
 62
     0
 48
50.0
370
    -2
100
AcDbLine
 10
7217.590802131162
 20
9260.111290596098
 30
0.0
 11
7217.590802131162
 21
9515.919510221166
 31
0.0
  0
LINE
  5
169BC
330
14FD5
100
AcDbEntity
  8
寸法
 62
     0
 48
50.0
370
    -2
100
AcDbLine
 10
8057.590802131164
 20
9260.111290596185
 30
0.0
 11
8057.590802131164
 21
9515.919510221166
 31
0.0
  0
LINE
  5
169BD
330
14FD5
100
AcDbEntity
  8
寸法
 62
     0
 48
50.0
370
    -2
100
AcDbLine
 10
7217.590802131162
 20
9455.919510221168
 30
0.0
 11
8057.590802131164
 21
9455.919510221168
 31
0.0
  0
INSERT
  5
169BE
330
14FD5
100
AcDbEntity
  8
寸法
 62
     0
 48
50.0
370
    -2
100
AcDbBlockReference
  2
_DOTSMALL
 10
7217.590802131162
 20
9455.919510221168
 30
0.0
 41
100.0
 42
100.0
 43
100.0
 50
180.0
  0
INSERT
  5
169BF
330
14FD5
100
AcDbEntity
  8
寸法
 62
     0
 48
50.0
370
    -2
100
AcDbBlockReference
  2
_DOTSMALL
 10
8057.590802131164
 20
9455.919510221168
 30
0.0
 41
100.0
 42
100.0
 43
100.0
  0
MTEXT
  5
169C0
330
14FD5
100
AcDbEntity
  8
寸法
 62
     7
 48
50.0
100
AcDbMText
 10
7637.590802131163
 20
9555.93132124479
 30
0.0
 40
120.0
 41
0.0
 71
     5
 72
     1
  1
\A1;2X420=840
  7
STYLE1
 73
     1
 44
1.0
1001
ACAD
1000
MTEXTBEGIN
1070
    73
1070
     1
1070
    44
1040
1.0
1070
    74
1070
     0
1000
MTEXTEND
  0
POINT
  5
169C1
330
14FD5
100
AcDbEntity
  8
DEFPOINTS
 62
     0
 48
50.0
100
AcDbPoint
 10
7217.590802131162
 20
9240.111290596098
 30
0.0
  0
POINT
  5
169C2
330
14FD5
100
AcDbEntity
  8
DEFPOINTS
 62
     0
 48
50.0
100
AcDbPoint
 10
8057.590802131164
 20
9240.111290596185
 30
0.0
  0
POINT
  5
169C3
330
14FD5
100
AcDbEntity
  8
DEFPOINTS
 62
     0
 48
50.0
100
AcDbPoint
 10
8057.590802131164
 20
9455.919510221168
 30
0.0
  0
ENDBLK
  5
15179
330
14FD5
100
AcDbEntity
  8
0
 48
50.0
100
AcDbBlockEnd
  0
BLOCK
  5
154C6
330
14FE1
100
AcDbEntity
  8
0
 48
50.0
100
AcDbBlockBegin
  2
*D3
 70
     1
 10
0.0
 20
0.0
 30
0.0
  3
*D3
  1

  0
LINE
  5
169B2
330
14FE1
100
AcDbEntity
  8
寸法
 62
     0
 48
50.0
370
    -2
100
AcDbLine
 10
4312.590802131158
 20
7690.111290595989
 30
0.0
 11
4312.590802131158
 21
6663.009415735912
 31
0.0
  0
LINE
  5
169B3
330
14FE1
100
AcDbEntity
  8
寸法
 62
     0
 48
50.0
370
    -2
100
AcDbLine
 10
8112.590802131141
 20
7690.11129059612
 30
0.0
 11
8112.590802131141
 21
6663.009415735912
 31
0.0
  0
LINE
  5
169B4
330
14FE1
100
AcDbEntity
  8
寸法
 62
     0
 48
50.0
370
    -2
100
AcDbLine
 10
4312.590802131158
 20
6723.009415735913
 30
0.0
 11
8112.590802131141
 21
6723.009415735913
 31
0.0
  0
INSERT
  5
169B5
330
14FE1
100
AcDbEntity
  8
寸法
 62
     0
 48
50.0
370
    -2
100
AcDbBlockReference
  2
_DOTSMALL
 10
4312.590802131158
 20
6723.009415735913
 30
0.0
 41
100.0
 42
100.0
 43
100.0
 50
180.0
  0
INSERT
  5
169B6
330
14FE1
100
AcDbEntity
  8
寸法
 62
     0
 48
50.0
370
    -2
100
AcDbBlockReference
  2
_DOTSMALL
 10
8112.590802131141
 20
6723.009415735913
 30
0.0
 41
100.0
 42
100.0
 43
100.0
  0
MTEXT
  5
169B7
330
14FE1
100
AcDbEntity
  8
寸法
 62
     7
 48
50.0
100
AcDbMText
 10
6212.590802131149
 20
6823.009415735914
 30
0.0
 40
120.0
 41
0.0
 71
     5
 72
     1
  1
\A1;3800
  7
STYLE1
 73
     1
 44
1.0
1001
ACAD
1000
MTEXTBEGIN
1070
    73
1070
     1
1070
    44
1040
1.0
1070
    74
1070
     0
1000
MTEXTEND
  0
POINT
  5
169B8
330
14FE1
100
AcDbEntity
  8
DEFPOINTS
 62
     0
 48
50.0
100
AcDbPoint
 10
4312.590802131158
 20
7710.111290595989
 30
0.0
  0
POINT
  5
169B9
330
14FE1
100
AcDbEntity
  8
DEFPOINTS
 62
     0
 48
50.0
100
AcDbPoint
 10
8112.590802131141
 20
7710.11129059612
 30
0.0
  0
POINT
  5
169BA
330
14FE1
100
AcDbEntity
  8
DEFPOINTS
 62
     0
 48
50.0
100
AcDbPoint
 10
8112.590802131141
 20
6723.009415735913
 30
0.0
  0
ENDBLK
  5
154D0
330
14FE1
100
AcDbEntity
  8
0
 48
50.0
100
AcDbBlockEnd
  0
BLOCK
  5
15190
330
14FF9
100
AcDbEntity
  8
0
 48
50.0
100
AcDbBlockBegin
  2
*D4
 70
     1
 10
0.0
 20
0.0
 30
0.0
  3
*D4
  1

  0
LINE
  5
169A9
330
14FF9
100
AcDbEntity
  8
寸法
 62
     0
 48
50.0
370
    -2
100
AcDbLine
 10
7217.590802131162
 20
7690.111290596061
 30
0.0
 11
7217.590802131162
 21
7210.287622800985
 31
0.0
  0
LINE
  5
169AA
330
14FF9
100
AcDbEntity
  8
寸法
 62
     0
 48
50.0
370
    -2
100
AcDbLine
 10
7902.590802131155
 20
7690.111290596026
 30
0.0
 11
7902.590802131155
 21
7210.287622800985
 31
0.0
  0
LINE
  5
169AB
330
14FF9
100
AcDbEntity
  8
寸法
 62
     0
 48
50.0
370
    -2
100
AcDbLine
 10
7217.590802131162
 20
7270.287622800984
 30
0.0
 11
7902.590802131155
 21
7270.287622800984
 31
0.0
  0
INSERT
  5
169AC
330
14FF9
100
AcDbEntity
  8
寸法
 62
     0
 48
50.0
370
    -2
100
AcDbBlockReference
  2
_DOTSMALL
 10
7217.590802131162
 20
7270.287622800984
 30
0.0
 41
100.0
 42
100.0
 43
100.0
 50
180.0
  0
INSERT
  5
169AD
330
14FF9
100
AcDbEntity
  8
寸法
 62
     0
 48
50.0
370
    -2
100
AcDbBlockReference
  2
_DOTSMALL
 10
7902.590802131155
 20
7270.287622800984
 30
0.0
 41
100.0
 42
100.0
 43
100.0
  0
MTEXT
  5
169AE
330
14FF9
100
AcDbEntity
  8
寸法
 62
     7
 48
50.0
100
AcDbMText
 10
7560.09080213116
 20
7470.287622800984
 30
0.0
 40
120.0
 41
0.0
 71
     5
 72
     1
  1
\A1;有効開口部間口\P685
  7
STYLE1
 73
     1
 44
1.0
1001
ACAD
1000
MTEXTBEGIN
1070
    73
1070
     1
1070
    44
1040
1.0
1070
    74
1070
     0
1000
MTEXTEND
  0
POINT
  5
169AF
330
14FF9
100
AcDbEntity
  8
DEFPOINTS
 62
     0
 48
50.0
100
AcDbPoint
 10
7217.590802131162
 20
7710.111290596062
 30
0.0
  0
POINT
  5
169B0
330
14FF9
100
AcDbEntity
  8
DEFPOINTS
 62
     0
 48
50.0
100
AcDbPoint
 10
7902.590802131155
 20
7710.111290596024
 30
0.0
  0
POINT
  5
169B1
330
14FF9
100
AcDbEntity
  8
DEFPOINTS
 62
     0
 48
50.0
100
AcDbPoint
 10
7902.590802131155
 20
7270.287622800984
 30
0.0
  0
ENDBLK
  5
1519A
330
14FF9
100
AcDbEntity
  8
0
 48
50.0
100
AcDbBlockEnd
  0
BLOCK
  5
151C7
330
15035
100
AcDbEntity
  8
0
 48
50.0
100
AcDbBlockBegin
  2
*D5
 70
     1
 10
0.0
 20
0.0
 30
0.0
  3
*D5
  1

  0
LINE
  5
1699E
330
15035
100
AcDbEntity
  8
寸法
 62
     0
 48
50.0
370
    -2
100
AcDbLine
 10
4312.590802131129
 20
9260.11129059607
 30
0.0
 11
4312.590802131129
 21
9515.919510221051
 31
0.0
  0
LINE
  5
1699F
330
15035
100
AcDbEntity
  8
寸法
 62
     0
 48
50.0
370
    -2
100
AcDbLine
 10
4367.590802131163
 20
9260.11129059607
 30
0.0
 11
4367.590802131163
 21
9515.919510221051
 31
0.0
  0
LINE
  5
169A0
330
15035
100
AcDbEntity
  8
寸法
 62
     0
 48
50.0
370
    -2
100
AcDbLine
 10
4367.590802131163
 20
9455.91951022105
 30
0.0
 11
4467.590802131162
 21
9455.91951022105
 31
0.0
  0
LINE
  5
169A1
330
15035
100
AcDbEntity
  8
寸法
 62
     0
 48
50.0
370
    -2
100
AcDbLine
 10
4312.590802131129
 20
9455.91951022105
 30
0.0
 11
3895.620239382651
 21
9455.91951022105
 31
0.0
  0
LINE
  5
169A2
330
15035
100
AcDbEntity
  8
寸法
 62
     0
 48
50.0
370
    -2
100
AcDbLine
 10
4367.590802131163
 20
9455.91951022105
 30
0.0
 11
4312.590802131129
 21
9455.91951022105
 31
0.0
  0
INSERT
  5
169A3
330
15035
100
AcDbEntity
  8
寸法
 62
     0
 48
50.0
370
    -2
100
AcDbBlockReference
  2
_DOTSMALL
 10
4367.590802131163
 20
9455.91951022105
 30
0.0
 41
100.0
 42
100.0
 43
100.0
 50
180.0
  0
INSERT
  5
169A4
330
15035
100
AcDbEntity
  8
寸法
 62
     0
 48
50.0
370
    -2
100
AcDbBlockReference
  2
_DOTSMALL
 10
4312.590802131129
 20
9455.91951022105
 30
0.0
 41
100.0
 42
100.0
 43
100.0
  0
MTEXT
  5
169A5
330
15035
100
AcDbEntity
  8
寸法
 62
     7
 48
50.0
100
AcDbMText
 10
4004.10552075689
 20
9555.91951022105
 30
0.0
 40
120.0
 41
0.0
 71
     5
 72
     1
  1
\A1;55
  7
STYLE1
 73
     1
 44
1.0
1001
ACAD
1000
MTEXTBEGIN
1070
    73
1070
     1
1070
    44
1040
1.0
1070
    74
1070
     0
1000
MTEXTEND
  0
POINT
  5
169A6
330
15035
100
AcDbEntity
  8
DEFPOINTS
 62
     0
 48
50.0
100
AcDbPoint
 10
4312.590802131129
 20
9240.111290596068
 30
0.0
  0
POINT
  5
169A7
330
15035
100
AcDbEntity
  8
DEFPOINTS
 62
     0
 48
50.0
100
AcDbPoint
 10
4367.590802131163
 20
9240.111290596068
 30
0.0
  0
POINT
  5
169A8
330
15035
100
AcDbEntity
  8
DEFPOINTS
 62
     0
 48
50.0
100
AcDbPoint
 10
4367.590802131163
 20
9455.91951022105
 30
0.0
  0
ENDBLK
  5
151D3
330
15035
100
AcDbEntity
  8
0
 48
50.0
100
AcDbBlockEnd
  0
BLOCK
  5
151D4
330
15043
100
AcDbEntity
  8
0
 48
50.0
100
AcDbBlockBegin
  2
*D6
 70
     1
 10
0.0
 20
0.0
 30
0.0
  3
*D6
  1

  0
LINE
  5
16995
330
15043
100
AcDbEntity
  8
寸法
 62
     0
 48
50.0
370
    -2
100
AcDbLine
 10
4367.590802131163
 20
9260.111290596098
 30
0.0
 11
4367.590802131163
 21
9515.919510221166
 31
0.0
  0
LINE
  5
16996
330
15043
100
AcDbEntity
  8
寸法
 62
     0
 48
50.0
370
    -2
100
AcDbLine
 10
5207.590802131162
 20
9260.111290596185
 30
0.0
 11
5207.590802131162
 21
9515.919510221166
 31
0.0
  0
LINE
  5
16997
330
15043
100
AcDbEntity
  8
寸法
 62
     0
 48
50.0
370
    -2
100
AcDbLine
 10
4367.590802131163
 20
9455.919510221168
 30
0.0
 11
5207.590802131162
 21
9455.919510221168
 31
0.0
  0
INSERT
  5
16998
330
15043
100
AcDbEntity
  8
寸法
 62
     0
 48
50.0
370
    -2
100
AcDbBlockReference
  2
_DOTSMALL
 10
4367.590802131163
 20
9455.919510221168
 30
0.0
 41
100.0
 42
100.0
 43
100.0
 50
180.0
  0
INSERT
  5
16999
330
15043
100
AcDbEntity
  8
寸法
 62
     0
 48
50.0
370
    -2
100
AcDbBlockReference
  2
_DOTSMALL
 10
5207.590802131162
 20
9455.919510221168
 30
0.0
 41
100.0
 42
100.0
 43
100.0
  0
MTEXT
  5
1699A
330
15043
100
AcDbEntity
  8
寸法
 62
     7
 48
50.0
100
AcDbMText
 10
4787.590802131162
 20
9555.93132124479
 30
0.0
 40
120.0
 41
0.0
 71
     5
 72
     1
  1
\A1;2X420=840
  7
STYLE1
 73
     1
 44
1.0
1001
ACAD
1000
MTEXTBEGIN
1070
    73
1070
     1
1070
    44
1040
1.0
1070
    74
1070
     0
1000
MTEXTEND
  0
POINT
  5
1699B
330
15043
100
AcDbEntity
  8
DEFPOINTS
 62
     0
 48
50.0
100
AcDbPoint
 10
4367.590802131163
 20
9240.111290596098
 30
0.0
  0
POINT
  5
1699C
330
15043
100
AcDbEntity
  8
DEFPOINTS
 62
     0
 48
50.0
100
AcDbPoint
 10
5207.590802131162
 20
9240.111290596185
 30
0.0
  0
POINT
  5
1699D
330
15043
100
AcDbEntity
  8
DEFPOINTS
 62
     0
 48
50.0
100
AcDbPoint
 10
5207.590802131162
 20
9455.919510221168
 30
0.0
  0
ENDBLK
  5
151DE
330
15043
100
AcDbEntity
  8
0
 48
50.0
100
AcDbBlockEnd
  0
BLOCK
  5
151DF
330
1504F
100
AcDbEntity
  8
0
 48
50.0
100
AcDbBlockBegin
  2
*D7
 70
     1
 10
0.0
 20
0.0
 30
0.0
  3
*D7
  1

  0
LINE
  5
1698C
330
1504F
100
AcDbEntity
  8
寸法
 62
     0
 48
50.0
370
    -2
100
AcDbLine
 10
6267.590802131163
 20
9260.111290596098
 30
0.0
 11
6267.590802131163
 21
9515.919510221166
 31
0.0
  0
LINE
  5
1698D
330
1504F
100
AcDbEntity
  8
寸法
 62
     0
 48
50.0
370
    -2
100
AcDbLine
 10
7107.590802131163
 20
9260.111290596185
 30
0.0
 11
7107.590802131163
 21
9515.919510221166
 31
0.0
  0
LINE
  5
1698E
330
1504F
100
AcDbEntity
  8
寸法
 62
     0
 48
50.0
370
    -2
100
AcDbLine
 10
6267.590802131163
 20
9455.919510221168
 30
0.0
 11
7107.590802131163
 21
9455.919510221168
 31
0.0
  0
INSERT
  5
1698F
330
1504F
100
AcDbEntity
  8
寸法
 62
     0
 48
50.0
370
    -2
100
AcDbBlockReference
  2
_DOTSMALL
 10
6267.590802131163
 20
9455.919510221168
 30
0.0
 41
100.0
 42
100.0
 43
100.0
 50
180.0
  0
INSERT
  5
16990
330
1504F
100
AcDbEntity
  8
寸法
 62
     0
 48
50.0
370
    -2
100
AcDbBlockReference
  2
_DOTSMALL
 10
7107.590802131163
 20
9455.919510221168
 30
0.0
 41
100.0
 42
100.0
 43
100.0
  0
MTEXT
  5
16991
330
1504F
100
AcDbEntity
  8
寸法
 62
     7
 48
50.0
100
AcDbMText
 10
6687.590802131163
 20
9555.93132124479
 30
0.0
 40
120.0
 41
0.0
 71
     5
 72
     1
  1
\A1;2X420=840
  7
STYLE1
 73
     1
 44
1.0
1001
ACAD
1000
MTEXTBEGIN
1070
    73
1070
     1
1070
    44
1040
1.0
1070
    74
1070
     0
1000
MTEXTEND
  0
POINT
  5
16992
330
1504F
100
AcDbEntity
  8
DEFPOINTS
 62
     0
 48
50.0
100
AcDbPoint
 10
6267.590802131163
 20
9240.111290596098
 30
0.0
  0
POINT
  5
16993
330
1504F
100
AcDbEntity
  8
DEFPOINTS
 62
     0
 48
50.0
100
AcDbPoint
 10
7107.590802131163
 20
9240.111290596185
 30
0.0
  0
POINT
  5
16994
330
1504F
100
AcDbEntity
  8
DEFPOINTS
 62
     0
 48
50.0
100
AcDbPoint
 10
7107.590802131163
 20
9455.919510221168
 30
0.0
  0
ENDBLK
  5
151E9
330
1504F
100
AcDbEntity
  8
0
 48
50.0
100
AcDbBlockEnd
  0
BLOCK
  5
1527D
330
1505B
100
AcDbEntity
  8
0
 48
50.0
100
AcDbBlockBegin
  2
*D8
 70
     1
 10
0.0
 20
0.0
 30
0.0
  3
*D8
  1

  0
LINE
  5
16983
330
1505B
100
AcDbEntity
  8
寸法
 62
     0
 48
50.0
370
    -2
100
AcDbLine
 10
5207.590802131162
 20
9260.111290596185
 30
0.0
 11
5207.590802131162
 21
9515.919510221166
 31
0.0
  0
LINE
  5
16984
330
1505B
100
AcDbEntity
  8
寸法
 62
     0
 48
50.0
370
    -2
100
AcDbLine
 10
5317.590802131166
 20
9260.111290596164
 30
0.0
 11
5317.590802131166
 21
9515.919510221166
 31
0.0
  0
LINE
  5
16985
330
1505B
100
AcDbEntity
  8
寸法
 62
     0
 48
50.0
370
    -2
100
AcDbLine
 10
5207.590802131162
 20
9455.919510221168
 30
0.0
 11
5317.590802131166
 21
9455.919510221168
 31
0.0
  0
MTEXT
  5
16986
330
1505B
100
AcDbEntity
  8
寸法
 62
     7
 48
50.0
100
AcDbMText
 10
5262.590802131166
 20
9707.652851170562
 30
0.0
 40
120.0
 41
0.0
 71
     5
 72
     1
  1
\A1;110
  7
STYLE1
 73
     1
 44
1.0
1001
ACAD
1000
MTEXTBEGIN
1070
    73
1070
     1
1070
    44
1040
1.0
1070
    74
1070
     0
1000
MTEXTEND
  0
INSERT
  5
16987
330
1505B
100
AcDbEntity
  8
寸法
 62
     0
 48
50.0
370
    -2
100
AcDbBlockReference
  2
_DOTSMALL
 10
5207.590802131162
 20
9455.919510221168
 30
0.0
 41
100.0
 42
100.0
 43
100.0
 50
180.0
  0
INSERT
  5
16988
330
1505B
100
AcDbEntity
  8
寸法
 62
     0
 48
50.0
370
    -2
100
AcDbBlockReference
  2
_DOTSMALL
 10
5317.590802131166
 20
9455.919510221168
 30
0.0
 41
100.0
 42
100.0
 43
100.0
  0
POINT
  5
16989
330
1505B
100
AcDbEntity
  8
DEFPOINTS
 62
     0
 48
50.0
100
AcDbPoint
 10
5207.590802131162
 20
9240.111290596185
 30
0.0
  0
POINT
  5
1698A
330
1505B
100
AcDbEntity
  8
DEFPOINTS
 62
     0
 48
50.0
100
AcDbPoint
 10
5317.590802131166
 20
9240.111290596164
 30
0.0
  0
POINT
  5
1698B
330
1505B
100
AcDbEntity
  8
DEFPOINTS
 62
     0
 48
50.0
100
AcDbPoint
 10
5317.590802131166
 20
9455.919510221168
 30
0.0
  0
ENDBLK
  5
15287
330
1505B
100
AcDbEntity
  8
0
 48
50.0
100
AcDbBlockEnd
  0
BLOCK
  5
15272
330
15067
100
AcDbEntity
  8
0
 48
50.0
100
AcDbBlockBegin
  2
*D9
 70
     1
 10
0.0
 20
0.0
 30
0.0
  3
*D9
  1

  0
LINE
  5
1697A
330
15067
100
AcDbEntity
  8
寸法
 62
     0
 48
50.0
370
    -2
100
AcDbLine
 10
7107.590802131163
 20
9260.111290596185
 30
0.0
 11
7107.590802131163
 21
9515.919510221166
 31
0.0
  0
LINE
  5
1697B
330
15067
100
AcDbEntity
  8
寸法
 62
     0
 48
50.0
370
    -2
100
AcDbLine
 10
7217.590802131166
 20
9260.111290596164
 30
0.0
 11
7217.590802131166
 21
9515.919510221166
 31
0.0
  0
LINE
  5
1697C
330
15067
100
AcDbEntity
  8
寸法
 62
     0
 48
50.0
370
    -2
100
AcDbLine
 10
7107.590802131163
 20
9455.919510221168
 30
0.0
 11
7217.590802131166
 21
9455.919510221168
 31
0.0
  0
MTEXT
  5
1697D
330
15067
100
AcDbEntity
  8
寸法
 62
     7
 48
50.0
100
AcDbMText
 10
7162.590802131166
 20
9707.652851170562
 30
0.0
 40
120.0
 41
0.0
 71
     5
 72
     1
  1
\A1;110
  7
STYLE1
 73
     1
 44
1.0
1001
ACAD
1000
MTEXTBEGIN
1070
    73
1070
     1
1070
    44
1040
1.0
1070
    74
1070
     0
1000
MTEXTEND
  0
INSERT
  5
1697E
330
15067
100
AcDbEntity
  8
寸法
 62
     0
 48
50.0
370
    -2
100
AcDbBlockReference
  2
_DOTSMALL
 10
7107.590802131163
 20
9455.919510221168
 30
0.0
 41
100.0
 42
100.0
 43
100.0
 50
180.0
  0
INSERT
  5
1697F
330
15067
100
AcDbEntity
  8
寸法
 62
     0
 48
50.0
370
    -2
100
AcDbBlockReference
  2
_DOTSMALL
 10
7217.590802131166
 20
9455.919510221168
 30
0.0
 41
100.0
 42
100.0
 43
100.0
  0
POINT
  5
16980
330
15067
100
AcDbEntity
  8
DEFPOINTS
 62
     0
 48
50.0
100
AcDbPoint
 10
7107.590802131163
 20
9240.111290596185
 30
0.0
  0
POINT
  5
16981
330
15067
100
AcDbEntity
  8
DEFPOINTS
 62
     0
 48
50.0
100
AcDbPoint
 10
7217.590802131166
 20
9240.111290596164
 30
0.0
  0
POINT
  5
16982
330
15067
100
AcDbEntity
  8
DEFPOINTS
 62
     0
 48
50.0
100
AcDbPoint
 10
7217.590802131166
 20
9455.919510221168
 30
0.0
  0
ENDBLK
  5
1527C
330
15067
100
AcDbEntity
  8
0
 48
50.0
100
AcDbBlockEnd
  0
BLOCK
  5
15200
330
15073
100
AcDbEntity
  8
0
 48
50.0
100
AcDbBlockBegin
  2
*D10
 70
     1
 10
0.0
 20
0.0
 30
0.0
  3
*D10
  1

  0
LINE
  5
16971
330
15073
100
AcDbEntity
  8
寸法
 62
     0
 48
50.0
370
    -2
100
AcDbLine
 10
8103.590808808775
 20
9205.252306747409
 30
0.0
 11
8498.9485346708
 21
9099.316523381276
 31
0.0
  0
LINE
  5
16972
330
15073
100
AcDbEntity
  8
寸法
 62
     0
 48
50.0
370
    -2
100
AcDbLine
 10
8103.590808808782
 20
8755.252306747419
 30
0.0
 11
8498.9485346708
 21
8649.316523381285
 31
0.0
  0
LINE
  5
16973
330
15073
100
AcDbEntity
  8
寸法
 62
     0
 48
50.0
370
    -2
100
AcDbLine
 10
8438.948534670801
 20
9115.393474927143
 30
0.0
 11
8438.948534670801
 21
8665.393474927153
 31
0.0
  0
INSERT
  5
16974
330
15073
100
AcDbEntity
  8
寸法
 62
     0
 48
50.0
370
    -2
100
AcDbBlockReference
  2
_DOTSMALL
 10
8438.948534670801
 20
9115.393474927143
 30
0.0
 41
100.0
 42
100.0
 43
100.0
 50
90.0
  0
INSERT
  5
16975
330
15073
100
AcDbEntity
  8
寸法
 62
     0
 48
50.0
370
    -2
100
AcDbBlockReference
  2
_DOTSMALL
 10
8438.948534670801
 20
8665.393474927153
 30
0.0
 41
100.0
 42
100.0
 43
100.0
 50
270.0
  0
MTEXT
  5
16976
330
15073
100
AcDbEntity
  8
寸法
 62
     7
 48
50.0
100
AcDbMText
 10
8338.948534670798
 20
8890.393474927142
 30
0.0
 40
120.0
 41
0.0
 71
     5
 72
     1
  1
\A1;450
  7
STYLE1
 11
0.0000000000000001
 21
1.0
 31
0.0
 73
     1
 44
1.0
1001
ACAD
1000
MTEXTBEGIN
1070
    73
1070
     1
1070
    44
1040
1.0
1070
    74
1070
     0
1000
MTEXTEND
  0
POINT
  5
16977
330
15073
100
AcDbEntity
  8
DEFPOINTS
 62
     0
 48
50.0
100
AcDbPoint
 10
8083.590808808775
 20
9210.611290596032
 30
0.0
  0
POINT
  5
16978
330
15073
100
AcDbEntity
  8
DEFPOINTS
 62
     0
 48
50.0
100
AcDbPoint
 10
8083.590808808782
 20
8760.61129059604
 30
0.0
  0
POINT
  5
16979
330
15073
100
AcDbEntity
  8
DEFPOINTS
 62
     0
 48
50.0
100
AcDbPoint
 10
8438.948534670801
 20
8665.393474927153
 30
0.0
  0
ENDBLK
  5
1520A
330
15073
100
AcDbEntity
  8
0
 48
50.0
100
AcDbBlockEnd
  0
BLOCK
  5
15216
330
1508B
100
AcDbEntity
  8
0
 48
50.0
100
AcDbBlockBegin
  2
*D11
 70
     1
 10
0.0
 20
0.0
 30
0.0
  3
*D11
  1

  0
LINE
  5
16968
330
1508B
100
AcDbEntity
  8
寸法
 62
     0
 48
50.0
370
    -2
100
AcDbLine
 10
8132.590802131167
 20
9240.111290596164
 30
0.0
 11
9129.128678681254
 21
9240.111290596164
 31
0.0
  0
LINE
  5
16969
330
1508B
100
AcDbEntity
  8
寸法
 62
     0
 48
50.0
370
    -2
100
AcDbLine
 10
8132.59080213114
 20
7710.111290596149
 30
0.0
 11
9129.128678681254
 21
7710.111290596149
 31
0.0
  0
LINE
  5
1696A
330
1508B
100
AcDbEntity
  8
寸法
 62
     0
 48
50.0
370
    -2
100
AcDbLine
 10
9069.128678681254
 20
9240.111290596164
 30
0.0
 11
9069.128678681254
 21
7710.111290596149
 31
0.0
  0
INSERT
  5
1696B
330
1508B
100
AcDbEntity
  8
寸法
 62
     0
 48
50.0
370
    -2
100
AcDbBlockReference
  2
_DOTSMALL
 10
9069.128678681254
 20
9240.111290596164
 30
0.0
 41
100.0
 42
100.0
 43
100.0
 50
90.0
  0
INSERT
  5
1696C
330
1508B
100
AcDbEntity
  8
寸法
 62
     0
 48
50.0
370
    -2
100
AcDbBlockReference
  2
_DOTSMALL
 10
9069.128678681254
 20
7710.111290596149
 30
0.0
 41
100.0
 42
100.0
 43
100.0
 50
270.0
  0
MTEXT
  5
1696D
330
1508B
100
AcDbEntity
  8
寸法
 62
     7
 48
50.0
100
AcDbMText
 10
8969.128678681252
 20
8475.111290596156
 30
0.0
 40
120.0
 41
0.0
 71
     5
 72
     1
  1
\A1;1530
  7
STYLE1
 11
0.0000000000000001
 21
1.0
 31
0.0
 73
     1
 44
1.0
1001
ACAD
1000
MTEXTBEGIN
1070
    73
1070
     1
1070
    44
1040
1.0
1070
    74
1070
     0
1000
MTEXTEND
  0
POINT
  5
1696E
330
1508B
100
AcDbEntity
  8
DEFPOINTS
 62
     0
 48
50.0
100
AcDbPoint
 10
8112.590802131165
 20
9240.111290596164
 30
0.0
  0
POINT
  5
1696F
330
1508B
100
AcDbEntity
  8
DEFPOINTS
 62
     0
 48
50.0
100
AcDbPoint
 10
8112.590802131141
 20
7710.111290596149
 30
0.0
  0
POINT
  5
16970
330
1508B
100
AcDbEntity
  8
DEFPOINTS
 62
     0
 48
50.0
100
AcDbPoint
 10
9069.128678681254
 20
7710.111290596149
 30
0.0
  0
ENDBLK
  5
15220
330
1508B
100
AcDbEntity
  8
0
 48
50.0
100
AcDbBlockEnd
  0
BLOCK
  5
15221
330
15097
100
AcDbEntity
  8
0
 48
50.0
100
AcDbBlockBegin
  2
*D12
 70
     1
 10
0.0
 20
0.0
 30
0.0
  3
*D12
  1

  0
LINE
  5
1695D
330
15097
100
AcDbEntity
  8
寸法
 62
     0
 48
50.0
370
    -2
100
AcDbLine
 10
8132.59080213114
 20
7765.111290596149
 30
0.0
 11
8820.017147865552
 21
7765.111290596149
 31
0.0
  0
LINE
  5
1695E
330
15097
100
AcDbEntity
  8
寸法
 62
     0
 48
50.0
370
    -2
100
AcDbLine
 10
8132.59080213114
 20
7710.111290596149
 30
0.0
 11
8820.017147865552
 21
7710.111290596149
 31
0.0
  0
LINE
  5
1695F
330
15097
100
AcDbEntity
  8
寸法
 62
     0
 48
50.0
370
    -2
100
AcDbLine
 10
8760.017147865552
 20
7765.111290596149
 30
0.0
 11
8760.017147865552
 21
7865.11129059615
 31
0.0
  0
LINE
  5
16960
330
15097
100
AcDbEntity
  8
寸法
 62
     0
 48
50.0
370
    -2
100
AcDbLine
 10
8760.017147865552
 20
7710.111290596149
 30
0.0
 11
8760.017147865552
 21
7223.764542317048
 31
0.0
  0
LINE
  5
16961
330
15097
100
AcDbEntity
  8
寸法
 62
     0
 48
50.0
370
    -2
100
AcDbLine
 10
8760.017147865552
 20
7765.111290596149
 30
0.0
 11
8760.017147865552
 21
7710.111290596149
 31
0.0
  0
INSERT
  5
16962
330
15097
100
AcDbEntity
  8
寸法
 62
     0
 48
50.0
370
    -2
100
AcDbBlockReference
  2
_DOTSMALL
 10
8760.017147865552
 20
7765.111290596149
 30
0.0
 41
100.0
 42
100.0
 43
100.0
 50
270.0
  0
INSERT
  5
16963
330
15097
100
AcDbEntity
  8
寸法
 62
     0
 48
50.0
370
    -2
100
AcDbBlockReference
  2
_DOTSMALL
 10
8760.017147865552
 20
7710.111290596149
 30
0.0
 41
100.0
 42
100.0
 43
100.0
 50
90.0
  0
MTEXT
  5
16964
330
15097
100
AcDbEntity
  8
寸法
 62
     7
 48
50.0
100
AcDbMText
 10
8660.01714786555
 20
7332.249823691288
 30
0.0
 40
120.0
 41
0.0
 71
     5
 72
     1
  1
\A1;55
  7
STYLE1
 11
0.0000000000000001
 21
1.0
 31
0.0
 73
     1
 44
1.0
1001
ACAD
1000
MTEXTBEGIN
1070
    73
1070
     1
1070
    44
1040
1.0
1070
    74
1070
     0
1000
MTEXTEND
  0
POINT
  5
16965
330
15097
100
AcDbEntity
  8
DEFPOINTS
 62
     0
 48
50.0
100
AcDbPoint
 10
8112.590802131141
 20
7765.111290596149
 30
0.0
  0
POINT
  5
16966
330
15097
100
AcDbEntity
  8
DEFPOINTS
 62
     0
 48
50.0
100
AcDbPoint
 10
8112.590802131141
 20
7710.111290596149
 30
0.0
  0
POINT
  5
16967
330
15097
100
AcDbEntity
  8
DEFPOINTS
 62
     0
 48
50.0
100
AcDbPoint
 10
8760.017147865552
 20
7710.111290596149
 30
0.0
  0
ENDBLK
  5
1522D
330
15097
100
AcDbEntity
  8
0
 48
50.0
100
AcDbBlockEnd
  0
BLOCK
  5
1522E
330
150A5
100
AcDbEntity
  8
0
 48
50.0
100
AcDbBlockBegin
  2
*D13
 70
     1
 10
0.0
 20
0.0
 30
0.0
  3
*D13
  1

  0
LINE
  5
16952
330
150A5
100
AcDbEntity
  8
寸法
 62
     0
 48
50.0
370
    -2
100
AcDbLine
 10
8132.590802131167
 20
9240.111290596164
 30
0.0
 11
8820.017147865577
 21
9240.111290596164
 31
0.0
  0
LINE
  5
16953
330
150A5
100
AcDbEntity
  8
寸法
 62
     0
 48
50.0
370
    -2
100
AcDbLine
 10
8132.590802131167
 20
9185.111290596164
 30
0.0
 11
8820.017147865577
 21
9185.111290596164
 31
0.0
  0
LINE
  5
16954
330
150A5
100
AcDbEntity
  8
寸法
 62
     0
 48
50.0
370
    -2
100
AcDbLine
 10
8760.017147865578
 20
9185.111290596164
 30
0.0
 11
8760.017147865578
 21
9085.111290596165
 31
0.0
  0
LINE
  5
16955
330
150A5
100
AcDbEntity
  8
寸法
 62
     0
 48
50.0
370
    -2
100
AcDbLine
 10
8760.017147865578
 20
9240.111290596164
 30
0.0
 11
8760.017147865578
 21
9657.08185334464
 31
0.0
  0
LINE
  5
16956
330
150A5
100
AcDbEntity
  8
寸法
 62
     0
 48
50.0
370
    -2
100
AcDbLine
 10
8760.017147865578
 20
9185.111290596164
 30
0.0
 11
8760.017147865578
 21
9240.111290596164
 31
0.0
  0
INSERT
  5
16957
330
150A5
100
AcDbEntity
  8
寸法
 62
     0
 48
50.0
370
    -2
100
AcDbBlockReference
  2
_DOTSMALL
 10
8760.017147865578
 20
9185.111290596164
 30
0.0
 41
100.0
 42
100.0
 43
100.0
 50
90.0
  0
INSERT
  5
16958
330
150A5
100
AcDbEntity
  8
寸法
 62
     0
 48
50.0
370
    -2
100
AcDbBlockReference
  2
_DOTSMALL
 10
8760.017147865578
 20
9240.111290596164
 30
0.0
 41
100.0
 42
100.0
 43
100.0
 50
270.0
  0
MTEXT
  5
16959
330
150A5
100
AcDbEntity
  8
寸法
 62
     7
 48
50.0
100
AcDbMText
 10
8660.017147865575
 20
9548.596571970405
 30
0.0
 40
120.0
 41
0.0
 71
     5
 72
     1
  1
\A1;55
  7
STYLE1
 11
0.0000000000000001
 21
1.0
 31
0.0
 73
     1
 44
1.0
1001
ACAD
1000
MTEXTBEGIN
1070
    73
1070
     1
1070
    44
1040
1.0
1070
    74
1070
     0
1000
MTEXTEND
  0
POINT
  5
1695A
330
150A5
100
AcDbEntity
  8
DEFPOINTS
 62
     0
 48
50.0
100
AcDbPoint
 10
8112.590802131165
 20
9240.111290596164
 30
0.0
  0
POINT
  5
1695B
330
150A5
100
AcDbEntity
  8
DEFPOINTS
 62
     0
 48
50.0
100
AcDbPoint
 10
8112.590802131165
 20
9185.111290596164
 30
0.0
  0
POINT
  5
1695C
330
150A5
100
AcDbEntity
  8
DEFPOINTS
 62
     0
 48
50.0
100
AcDbPoint
 10
8760.017147865578
 20
9185.111290596164
 30
0.0
  0
ENDBLK
  5
1523A
330
150A5
100
AcDbEntity
  8
0
 48
50.0
100
AcDbBlockEnd
  0
BLOCK
  5
1523E
330
1523D
100
AcDbEntity
  8
0
 48
50.0
100
AcDbBlockBegin
  2
*D14
 70
     1
 10
0.0
 20
0.0
 30
0.0
  3
*D14
  1

  0
LINE
  5
16949
330
1523D
100
AcDbEntity
  8
寸法
 62
     0
 48
50.0
370
    -2
100
AcDbLine
 10
8132.590802131167
 20
9185.111290596164
 30
0.0
 11
8820.017147865575
 21
9185.111290596164
 31
0.0
  0
LINE
  5
1694A
330
1523D
100
AcDbEntity
  8
寸法
 62
     0
 48
50.0
370
    -2
100
AcDbLine
 10
8132.590802131167
 20
8765.111290596165
 30
0.0
 11
8820.017147865575
 21
8765.111290596165
 31
0.0
  0
LINE
  5
1694B
330
1523D
100
AcDbEntity
  8
寸法
 62
     0
 48
50.0
370
    -2
100
AcDbLine
 10
8760.017147865575
 20
9185.111290596164
 30
0.0
 11
8760.017147865575
 21
8765.111290596165
 31
0.0
  0
INSERT
  5
1694C
330
1523D
100
AcDbEntity
  8
寸法
 62
     0
 48
50.0
370
    -2
100
AcDbBlockReference
  2
_DOTSMALL
 10
8760.017147865575
 20
9185.111290596164
 30
0.0
 41
100.0
 42
100.0
 43
100.0
 50
90.0
  0
INSERT
  5
1694D
330
1523D
100
AcDbEntity
  8
寸法
 62
     0
 48
50.0
370
    -2
100
AcDbBlockReference
  2
_DOTSMALL
 10
8760.017147865575
 20
8765.111290596165
 30
0.0
 41
100.0
 42
100.0
 43
100.0
 50
270.0
  0
MTEXT
  5
1694E
330
1523D
100
AcDbEntity
  8
寸法
 62
     7
 48
50.0
100
AcDbMText
 10
8660.005336841953
 20
8975.111290596165
 30
0.0
 40
120.0
 41
0.0
 71
     5
 72
     1
  1
\A1;420
  7
STYLE1
 11
0.0000000000000001
 21
1.0
 31
0.0
 73
     1
 44
1.0
1001
ACAD
1000
MTEXTBEGIN
1070
    73
1070
     1
1070
    44
1040
1.0
1070
    74
1070
     0
1000
MTEXTEND
  0
POINT
  5
1694F
330
1523D
100
AcDbEntity
  8
DEFPOINTS
 62
     0
 48
50.0
100
AcDbPoint
 10
8112.590802131165
 20
9185.111290596164
 30
0.0
  0
POINT
  5
16950
330
1523D
100
AcDbEntity
  8
DEFPOINTS
 62
     0
 48
50.0
100
AcDbPoint
 10
8112.590802131165
 20
8765.111290596165
 30
0.0
  0
POINT
  5
16951
330
1523D
100
AcDbEntity
  8
DEFPOINTS
 62
     0
 48
50.0
100
AcDbPoint
 10
8760.017147865575
 20
8765.111290596165
 30
0.0
  0
ENDBLK
  5
15248
330
1523D
100
AcDbEntity
  8
0
 48
50.0
100
AcDbBlockEnd
  0
BLOCK
  5
1524B
330
1524A
100
AcDbEntity
  8
0
 48
50.0
100
AcDbBlockBegin
  2
*D15
 70
     1
 10
0.0
 20
0.0
 30
0.0
  3
*D15
  1

  0
LINE
  5
16940
330
1524A
100
AcDbEntity
  8
寸法
 62
     0
 48
50.0
370
    -2
100
AcDbLine
 10
8132.590802131167
 20
8765.111290596165
 30
0.0
 11
8820.017147865575
 21
8765.111290596165
 31
0.0
  0
LINE
  5
16941
330
1524A
100
AcDbEntity
  8
寸法
 62
     0
 48
50.0
370
    -2
100
AcDbLine
 10
8132.590802131167
 20
8185.111290596164
 30
0.0
 11
8820.017147865575
 21
8185.111290596164
 31
0.0
  0
LINE
  5
16942
330
1524A
100
AcDbEntity
  8
寸法
 62
     0
 48
50.0
370
    -2
100
AcDbLine
 10
8760.017147865575
 20
8765.111290596165
 30
0.0
 11
8760.017147865575
 21
8185.111290596164
 31
0.0
  0
INSERT
  5
16943
330
1524A
100
AcDbEntity
  8
寸法
 62
     0
 48
50.0
370
    -2
100
AcDbBlockReference
  2
_DOTSMALL
 10
8760.017147865575
 20
8765.111290596165
 30
0.0
 41
100.0
 42
100.0
 43
100.0
 50
90.0
  0
INSERT
  5
16944
330
1524A
100
AcDbEntity
  8
寸法
 62
     0
 48
50.0
370
    -2
100
AcDbBlockReference
  2
_DOTSMALL
 10
8760.017147865575
 20
8185.111290596164
 30
0.0
 41
100.0
 42
100.0
 43
100.0
 50
270.0
  0
MTEXT
  5
16945
330
1524A
100
AcDbEntity
  8
寸法
 62
     7
 48
50.0
100
AcDbMText
 10
8660.017147865573
 20
8475.111290596165
 30
0.0
 40
120.0
 41
0.0
 71
     5
 72
     1
  1
\A1;580
  7
STYLE1
 11
0.0000000000000001
 21
1.0
 31
0.0
 73
     1
 44
1.0
1001
ACAD
1000
MTEXTBEGIN
1070
    73
1070
     1
1070
    44
1040
1.0
1070
    74
1070
     0
1000
MTEXTEND
  0
POINT
  5
16946
330
1524A
100
AcDbEntity
  8
DEFPOINTS
 62
     0
 48
50.0
100
AcDbPoint
 10
8112.590802131165
 20
8765.111290596165
 30
0.0
  0
POINT
  5
16947
330
1524A
100
AcDbEntity
  8
DEFPOINTS
 62
     0
 48
50.0
100
AcDbPoint
 10
8112.590802131165
 20
8185.111290596164
 30
0.0
  0
POINT
  5
16948
330
1524A
100
AcDbEntity
  8
DEFPOINTS
 62
     0
 48
50.0
100
AcDbPoint
 10
8760.017147865575
 20
8185.111290596164
 30
0.0
  0
ENDBLK
  5
15255
330
1524A
100
AcDbEntity
  8
0
 48
50.0
100
AcDbBlockEnd
  0
BLOCK
  5
15258
330
15257
100
AcDbEntity
  8
0
 48
50.0
100
AcDbBlockBegin
  2
*D16
 70
     1
 10
0.0
 20
0.0
 30
0.0
  3
*D16
  1

  0
LINE
  5
16937
330
15257
100
AcDbEntity
  8
寸法
 62
     0
 48
50.0
370
    -2
100
AcDbLine
 10
8132.590802131142
 20
7765.11129059612
 30
0.0
 11
8820.017147865575
 21
7765.11129059612
 31
0.0
  0
LINE
  5
16938
330
15257
100
AcDbEntity
  8
寸法
 62
     0
 48
50.0
370
    -2
100
AcDbLine
 10
8132.590802131167
 20
8185.111290596164
 30
0.0
 11
8820.017147865575
 21
8185.111290596164
 31
0.0
  0
LINE
  5
16939
330
15257
100
AcDbEntity
  8
寸法
 62
     0
 48
50.0
370
    -2
100
AcDbLine
 10
8760.017147865575
 20
7765.11129059612
 30
0.0
 11
8760.017147865575
 21
8185.111290596164
 31
0.0
  0
INSERT
  5
1693A
330
15257
100
AcDbEntity
  8
寸法
 62
     0
 48
50.0
370
    -2
100
AcDbBlockReference
  2
_DOTSMALL
 10
8760.017147865575
 20
7765.11129059612
 30
0.0
 41
100.0
 42
100.0
 43
100.0
 50
270.0
  0
INSERT
  5
1693B
330
15257
100
AcDbEntity
  8
寸法
 62
     0
 48
50.0
370
    -2
100
AcDbBlockReference
  2
_DOTSMALL
 10
8760.017147865575
 20
8185.111290596164
 30
0.0
 41
100.0
 42
100.0
 43
100.0
 50
90.0
  0
MTEXT
  5
1693C
330
15257
100
AcDbEntity
  8
寸法
 62
     7
 48
50.0
100
AcDbMText
 10
8660.005336841953
 20
7975.111290596143
 30
0.0
 40
120.0
 41
0.0
 71
     5
 72
     1
  1
\A1;420
  7
STYLE1
 11
0.0000000000000001
 21
1.0
 31
0.0
 73
     1
 44
1.0
1001
ACAD
1000
MTEXTBEGIN
1070
    73
1070
     1
1070
    44
1040
1.0
1070
    74
1070
     0
1000
MTEXTEND
  0
POINT
  5
1693D
330
15257
100
AcDbEntity
  8
DEFPOINTS
 62
     0
 48
50.0
100
AcDbPoint
 10
8112.590802131142
 20
7765.11129059612
 30
0.0
  0
POINT
  5
1693E
330
15257
100
AcDbEntity
  8
DEFPOINTS
 62
     0
 48
50.0
100
AcDbPoint
 10
8112.590802131165
 20
8185.111290596164
 30
0.0
  0
POINT
  5
1693F
330
15257
100
AcDbEntity
  8
DEFPOINTS
 62
     0
 48
50.0
100
AcDbPoint
 10
8760.017147865575
 20
8185.111290596164
 30
0.0
  0
ENDBLK
  5
15262
330
15257
100
AcDbEntity
  8
0
 48
50.0
100
AcDbBlockEnd
  0
BLOCK
  5
153A4
330
15398
100
AcDbEntity
  8
0
 48
50.0
100
AcDbBlockBegin
  2
*D17
 70
     1
 10
0.0
 20
0.0
 30
0.0
  3
*D17
  1

  0
LINE
  5
1692E
330
15398
100
AcDbEntity
  8
寸法
 62
     0
 48
50.0
370
    -2
100
AcDbLine
 10
6267.590802131163
 20
7690.111290596061
 30
0.0
 11
6267.590802131163
 21
7210.287622800985
 31
0.0
  0
LINE
  5
1692F
330
15398
100
AcDbEntity
  8
寸法
 62
     0
 48
50.0
370
    -2
100
AcDbLine
 10
6952.590802131155
 20
7690.111290596026
 30
0.0
 11
6952.590802131155
 21
7210.287622800985
 31
0.0
  0
LINE
  5
16930
330
15398
100
AcDbEntity
  8
寸法
 62
     0
 48
50.0
370
    -2
100
AcDbLine
 10
6267.590802131163
 20
7270.287622800984
 30
0.0
 11
6952.590802131155
 21
7270.287622800984
 31
0.0
  0
INSERT
  5
16931
330
15398
100
AcDbEntity
  8
寸法
 62
     0
 48
50.0
370
    -2
100
AcDbBlockReference
  2
_DOTSMALL
 10
6267.590802131163
 20
7270.287622800984
 30
0.0
 41
100.0
 42
100.0
 43
100.0
 50
180.0
  0
INSERT
  5
16932
330
15398
100
AcDbEntity
  8
寸法
 62
     0
 48
50.0
370
    -2
100
AcDbBlockReference
  2
_DOTSMALL
 10
6952.590802131155
 20
7270.287622800984
 30
0.0
 41
100.0
 42
100.0
 43
100.0
  0
MTEXT
  5
16933
330
15398
100
AcDbEntity
  8
寸法
 62
     7
 48
50.0
100
AcDbMText
 10
6610.09080213116
 20
7370.287622800984
 30
0.0
 40
120.0
 41
0.0
 71
     5
 72
     1
  1
\A1;685
  7
STYLE1
 73
     1
 44
1.0
1001
ACAD
1000
MTEXTBEGIN
1070
    73
1070
     1
1070
    44
1040
1.0
1070
    74
1070
     0
1000
MTEXTEND
  0
POINT
  5
16934
330
15398
100
AcDbEntity
  8
DEFPOINTS
 62
     0
 48
50.0
100
AcDbPoint
 10
6267.590802131163
 20
7710.111290596062
 30
0.0
  0
POINT
  5
16935
330
15398
100
AcDbEntity
  8
DEFPOINTS
 62
     0
 48
50.0
100
AcDbPoint
 10
6952.590802131155
 20
7710.111290596024
 30
0.0
  0
POINT
  5
16936
330
15398
100
AcDbEntity
  8
DEFPOINTS
 62
     0
 48
50.0
100
AcDbPoint
 10
6952.590802131155
 20
7270.287622800984
 30
0.0
  0
ENDBLK
  5
153AE
330
15398
100
AcDbEntity
  8
0
 48
50.0
100
AcDbBlockEnd
  0
BLOCK
  5
153B1
330
153B0
100
AcDbEntity
  8
0
 48
50.0
100
AcDbBlockBegin
  2
*D18
 70
     1
 10
0.0
 20
0.0
 30
0.0
  3
*D18
  1

  0
LINE
  5
16925
330
153B0
100
AcDbEntity
  8
寸法
 62
     0
 48
50.0
370
    -2
100
AcDbLine
 10
4367.590802131163
 20
7690.111290596061
 30
0.0
 11
4367.590802131163
 21
7210.287622800985
 31
0.0
  0
LINE
  5
16926
330
153B0
100
AcDbEntity
  8
寸法
 62
     0
 48
50.0
370
    -2
100
AcDbLine
 10
5052.590802131155
 20
7690.111290596026
 30
0.0
 11
5052.590802131155
 21
7210.287622800985
 31
0.0
  0
LINE
  5
16927
330
153B0
100
AcDbEntity
  8
寸法
 62
     0
 48
50.0
370
    -2
100
AcDbLine
 10
4367.590802131163
 20
7270.287622800984
 30
0.0
 11
5052.590802131155
 21
7270.287622800984
 31
0.0
  0
INSERT
  5
16928
330
153B0
100
AcDbEntity
  8
寸法
 62
     0
 48
50.0
370
    -2
100
AcDbBlockReference
  2
_DOTSMALL
 10
4367.590802131163
 20
7270.287622800984
 30
0.0
 41
100.0
 42
100.0
 43
100.0
 50
180.0
  0
INSERT
  5
16929
330
153B0
100
AcDbEntity
  8
寸法
 62
     0
 48
50.0
370
    -2
100
AcDbBlockReference
  2
_DOTSMALL
 10
5052.590802131155
 20
7270.287622800984
 30
0.0
 41
100.0
 42
100.0
 43
100.0
  0
MTEXT
  5
1692A
330
153B0
100
AcDbEntity
  8
寸法
 62
     7
 48
50.0
100
AcDbMText
 10
4710.090802131158
 20
7370.287622800984
 30
0.0
 40
120.0
 41
0.0
 71
     5
 72
     1
  1
\A1;685
  7
STYLE1
 73
     1
 44
1.0
1001
ACAD
1000
MTEXTBEGIN
1070
    73
1070
     1
1070
    44
1040
1.0
1070
    74
1070
     0
1000
MTEXTEND
  0
POINT
  5
1692B
330
153B0
100
AcDbEntity
  8
DEFPOINTS
 62
     0
 48
50.0
100
AcDbPoint
 10
4367.590802131163
 20
7710.111290596062
 30
0.0
  0
POINT
  5
1692C
330
153B0
100
AcDbEntity
  8
DEFPOINTS
 62
     0
 48
50.0
100
AcDbPoint
 10
5052.590802131155
 20
7710.111290596024
 30
0.0
  0
POINT
  5
1692D
330
153B0
100
AcDbEntity
  8
DEFPOINTS
 62
     0
 48
50.0
100
AcDbPoint
 10
5052.590802131155
 20
7270.287622800984
 30
0.0
  0
ENDBLK
  5
153BB
330
153B0
100
AcDbEntity
  8
0
 48
50.0
100
AcDbBlockEnd
  0
BLOCK
  5
154A3
330
154A2
100
AcDbEntity
  8
0
 48
50.0
100
AcDbBlockBegin
  2
*D19
 70
     1
 10
0.0
 20
0.0
 30
0.0
  3
*D19
  1

  0
LINE
  5
1690A
330
154A2
100
AcDbEntity
  8
寸法
 62
     0
 48
50.0
370
    -2
100
AcDbLine
 10
5317.590802131163
 20
9260.111290596098
 30
0.0
 11
5317.590802131163
 21
9515.919510221166
 31
0.0
  0
LINE
  5
1690B
330
154A2
100
AcDbEntity
  8
寸法
 62
     0
 48
50.0
370
    -2
100
AcDbLine
 10
6157.590802131163
 20
9260.111290596185
 30
0.0
 11
6157.590802131163
 21
9515.919510221166
 31
0.0
  0
LINE
  5
1690C
330
154A2
100
AcDbEntity
  8
寸法
 62
     0
 48
50.0
370
    -2
100
AcDbLine
 10
5317.590802131163
 20
9455.919510221168
 30
0.0
 11
6157.590802131163
 21
9455.919510221168
 31
0.0
  0
INSERT
  5
1690D
330
154A2
100
AcDbEntity
  8
寸法
 62
     0
 48
50.0
370
    -2
100
AcDbBlockReference
  2
_DOTSMALL
 10
5317.590802131163
 20
9455.919510221168
 30
0.0
 41
100.0
 42
100.0
 43
100.0
 50
180.0
  0
INSERT
  5
1690E
330
154A2
100
AcDbEntity
  8
寸法
 62
     0
 48
50.0
370
    -2
100
AcDbBlockReference
  2
_DOTSMALL
 10
6157.590802131163
 20
9455.919510221168
 30
0.0
 41
100.0
 42
100.0
 43
100.0
  0
MTEXT
  5
1690F
330
154A2
100
AcDbEntity
  8
寸法
 62
     7
 48
50.0
100
AcDbMText
 10
5737.590802131162
 20
9555.93132124479
 30
0.0
 40
120.0
 41
0.0
 71
     5
 72
     1
  1
\A1;2X420=840
  7
STYLE1
 73
     1
 44
1.0
1001
ACAD
1000
MTEXTBEGIN
1070
    73
1070
     1
1070
    44
1040
1.0
1070
    74
1070
     0
1000
MTEXTEND
  0
POINT
  5
16910
330
154A2
100
AcDbEntity
  8
DEFPOINTS
 62
     0
 48
50.0
100
AcDbPoint
 10
5317.590802131163
 20
9240.111290596098
 30
0.0
  0
POINT
  5
16911
330
154A2
100
AcDbEntity
  8
DEFPOINTS
 62
     0
 48
50.0
100
AcDbPoint
 10
6157.590802131163
 20
9240.111290596185
 30
0.0
  0
POINT
  5
16912
330
154A2
100
AcDbEntity
  8
DEFPOINTS
 62
     0
 48
50.0
100
AcDbPoint
 10
6157.590802131163
 20
9455.919510221168
 30
0.0
  0
ENDBLK
  5
154AD
330
154A2
100
AcDbEntity
  8
0
 48
50.0
100
AcDbBlockEnd
  0
BLOCK
  5
154AF
330
154AE
100
AcDbEntity
  8
0
 48
50.0
100
AcDbBlockBegin
  2
*D20
 70
     1
 10
0.0
 20
0.0
 30
0.0
  3
*D20
  1

  0
LINE
  5
16913
330
154AE
100
AcDbEntity
  8
寸法
 62
     0
 48
50.0
370
    -2
100
AcDbLine
 10
6157.590802131163
 20
9260.111290596185
 30
0.0
 11
6157.590802131163
 21
9515.919510221166
 31
0.0
  0
LINE
  5
16914
330
154AE
100
AcDbEntity
  8
寸法
 62
     0
 48
50.0
370
    -2
100
AcDbLine
 10
6267.590802131167
 20
9260.111290596164
 30
0.0
 11
6267.590802131167
 21
9515.919510221166
 31
0.0
  0
LINE
  5
16915
330
154AE
100
AcDbEntity
  8
寸法
 62
     0
 48
50.0
370
    -2
100
AcDbLine
 10
6157.590802131163
 20
9455.919510221168
 30
0.0
 11
6267.590802131167
 21
9455.919510221168
 31
0.0
  0
MTEXT
  5
16916
330
154AE
100
AcDbEntity
  8
寸法
 62
     7
 48
50.0
100
AcDbMText
 10
6212.590802131167
 20
9707.652851170562
 30
0.0
 40
120.0
 41
0.0
 71
     5
 72
     1
  1
\A1;110
  7
STYLE1
 73
     1
 44
1.0
1001
ACAD
1000
MTEXTBEGIN
1070
    73
1070
     1
1070
    44
1040
1.0
1070
    74
1070
     0
1000
MTEXTEND
  0
INSERT
  5
16917
330
154AE
100
AcDbEntity
  8
寸法
 62
     0
 48
50.0
370
    -2
100
AcDbBlockReference
  2
_DOTSMALL
 10
6157.590802131163
 20
9455.919510221168
 30
0.0
 41
100.0
 42
100.0
 43
100.0
 50
180.0
  0
INSERT
  5
16918
330
154AE
100
AcDbEntity
  8
寸法
 62
     0
 48
50.0
370
    -2
100
AcDbBlockReference
  2
_DOTSMALL
 10
6267.590802131167
 20
9455.919510221168
 30
0.0
 41
100.0
 42
100.0
 43
100.0
  0
POINT
  5
16919
330
154AE
100
AcDbEntity
  8
DEFPOINTS
 62
     0
 48
50.0
100
AcDbPoint
 10
6157.590802131163
 20
9240.111290596185
 30
0.0
  0
POINT
  5
1691A
330
154AE
100
AcDbEntity
  8
DEFPOINTS
 62
     0
 48
50.0
100
AcDbPoint
 10
6267.590802131167
 20
9240.111290596164
 30
0.0
  0
POINT
  5
1691B
330
154AE
100
AcDbEntity
  8
DEFPOINTS
 62
     0
 48
50.0
100
AcDbPoint
 10
6267.590802131167
 20
9455.919510221168
 30
0.0
  0
ENDBLK
  5
154B9
330
154AE
100
AcDbEntity
  8
0
 48
50.0
100
AcDbBlockEnd
  0
BLOCK
  5
154BB
330
154BA
100
AcDbEntity
  8
0
 48
50.0
100
AcDbBlockBegin
  2
*D21
 70
     1
 10
0.0
 20
0.0
 30
0.0
  3
*D21
  1

  0
LINE
  5
1691C
330
154BA
100
AcDbEntity
  8
寸法
 62
     0
 48
50.0
370
    -2
100
AcDbLine
 10
5317.590802131163
 20
7690.111290596061
 30
0.0
 11
5317.590802131163
 21
7210.287622800985
 31
0.0
  0
LINE
  5
1691D
330
154BA
100
AcDbEntity
  8
寸法
 62
     0
 48
50.0
370
    -2
100
AcDbLine
 10
6002.590802131155
 20
7690.111290596026
 30
0.0
 11
6002.590802131155
 21
7210.287622800985
 31
0.0
  0
LINE
  5
1691E
330
154BA
100
AcDbEntity
  8
寸法
 62
     0
 48
50.0
370
    -2
100
AcDbLine
 10
5317.590802131163
 20
7270.287622800984
 30
0.0
 11
6002.590802131155
 21
7270.287622800984
 31
0.0
  0
INSERT
  5
1691F
330
154BA
100
AcDbEntity
  8
寸法
 62
     0
 48
50.0
370
    -2
100
AcDbBlockReference
  2
_DOTSMALL
 10
5317.590802131163
 20
7270.287622800984
 30
0.0
 41
100.0
 42
100.0
 43
100.0
 50
180.0
  0
INSERT
  5
16920
330
154BA
100
AcDbEntity
  8
寸法
 62
     0
 48
50.0
370
    -2
100
AcDbBlockReference
  2
_DOTSMALL
 10
6002.590802131155
 20
7270.287622800984
 30
0.0
 41
100.0
 42
100.0
 43
100.0
  0
MTEXT
  5
16921
330
154BA
100
AcDbEntity
  8
寸法
 62
     7
 48
50.0
100
AcDbMText
 10
5660.090802131159
 20
7370.287622800984
 30
0.0
 40
120.0
 41
0.0
 71
     5
 72
     1
  1
\A1;685
  7
STYLE1
 73
     1
 44
1.0
1001
ACAD
1000
MTEXTBEGIN
1070
    73
1070
     1
1070
    44
1040
1.0
1070
    74
1070
     0
1000
MTEXTEND
  0
POINT
  5
16922
330
154BA
100
AcDbEntity
  8
DEFPOINTS
 62
     0
 48
50.0
100
AcDbPoint
 10
5317.590802131163
 20
7710.111290596062
 30
0.0
  0
POINT
  5
16923
330
154BA
100
AcDbEntity
  8
DEFPOINTS
 62
     0
 48
50.0
100
AcDbPoint
 10
6002.590802131155
 20
7710.111290596024
 30
0.0
  0
POINT
  5
16924
330
154BA
100
AcDbEntity
  8
DEFPOINTS
 62
     0
 48
50.0
100
AcDbPoint
 10
6002.590802131155
 20
7270.287622800984
 30
0.0
  0
ENDBLK
  5
154C5
330
154BA
100
AcDbEntity
  8
0
 48
50.0
100
AcDbBlockEnd
  0
BLOCK
  5
15D51
330
15D47
100
AcDbEntity
  8
0
 48
50.0
100
AcDbBlockBegin
  2
*D22
 70
     1
 10
0.0
 20
0.0
 30
0.0
  3
*D22
  1

  0
LINE
  5
168DD
330
15D47
100
AcDbEntity
  8
寸法
 62
     0
 48
50.0
370
    -2
100
AcDbLine
 10
10479.46271469152
 20
2918.922110510172
 30
0.0
 11
9535.190903051043
 21
2918.922110510172
 31
0.0
  0
LINE
  5
168DE
330
15D47
100
AcDbEntity
  8
寸法
 62
     0
 48
50.0
370
    -2
100
AcDbLine
 10
10419.46271469152
 20
4993.922110510175
 30
0.0
 11
9535.190903051045
 21
4993.922110510176
 31
0.0
  0
LINE
  5
168DF
330
15D47
100
AcDbEntity
  8
寸法
 62
     0
 48
50.0
370
    -2
100
AcDbLine
 10
9595.190903051044
 20
2918.922110510172
 30
0.0
 11
9595.190903051046
 21
4993.922110510176
 31
0.0
  0
INSERT
  5
168E0
330
15D47
100
AcDbEntity
  8
寸法
 62
     0
 48
50.0
370
    -2
100
AcDbBlockReference
  2
_DOTSMALL
 10
9595.190903051044
 20
2918.922110510172
 30
0.0
 41
100.0
 42
100.0
 43
100.0
 50
270.0
  0
INSERT
  5
168E1
330
15D47
100
AcDbEntity
  8
寸法
 62
     0
 48
50.0
370
    -2
100
AcDbBlockReference
  2
_DOTSMALL
 10
9595.190903051046
 20
4993.922110510176
 30
0.0
 41
100.0
 42
100.0
 43
100.0
 50
90.0
  0
MTEXT
  5
168E2
330
15D47
100
AcDbEntity
  8
寸法
 62
     7
 48
50.0
100
AcDbMText
 10
9495.179092027422
 20
3894.129100929973
 30
0.0
 40
120.0
 41
0.0
 71
     5
 72
     1
  1
\A1;2075
  7
STYLE1
 11
0.0000000000000001
 21
1.0
 31
0.0
 73
     1
 44
1.0
1001
ACAD
1000
MTEXTBEGIN
1070
    73
1070
     1
1070
    44
1040
1.0
1070
    74
1070
     0
1000
MTEXTEND
  0
POINT
  5
168E3
330
15D47
100
AcDbEntity
  8
DEFPOINTS
 62
     0
 48
50.0
100
AcDbPoint
 10
10499.46271469152
 20
2918.922110510172
 30
0.0
  0
POINT
  5
168E4
330
15D47
100
AcDbEntity
  8
DEFPOINTS
 62
     0
 48
50.0
100
AcDbPoint
 10
10439.46271469152
 20
4993.922110510175
 30
0.0
  0
POINT
  5
168E5
330
15D47
100
AcDbEntity
  8
DEFPOINTS
 62
     0
 48
50.0
100
AcDbPoint
 10
9595.190903051046
 20
4993.922110510176
 30
0.0
  0
ENDBLK
  5
15D52
330
15D47
100
AcDbEntity
  8
0
 48
50.0
100
AcDbBlockEnd
  0
BLOCK
  5
15D5F
330
15D53
100
AcDbEntity
  8
0
 48
50.0
100
AcDbBlockBegin
  2
*D23
 70
     1
 10
0.0
 20
0.0
 30
0.0
  3
*D23
  1

  0
LINE
  5
168D2
330
15D53
100
AcDbEntity
  8
寸法
 62
     0
 48
50.0
370
    -2
100
AcDbLine
 10
10472.46034464675
 20
2968.922110510174
 30
0.0
 11
9837.49962399932
 21
2968.922110510174
 31
0.0
  0
LINE
  5
168D3
330
15D53
100
AcDbEntity
  8
寸法
 62
     0
 48
50.0
370
    -2
100
AcDbLine
 10
10424.46271469152
 20
2918.922110510172
 30
0.0
 11
9837.49962399932
 21
2918.922110510172
 31
0.0
  0
LINE
  5
168D4
330
15D53
100
AcDbEntity
  8
寸法
 62
     0
 48
50.0
370
    -2
100
AcDbLine
 10
9897.499623999321
 20
2968.922110510174
 30
0.0
 11
9897.499623999321
 21
3068.922110510174
 31
0.0
  0
LINE
  5
168D5
330
15D53
100
AcDbEntity
  8
寸法
 62
     0
 48
50.0
370
    -2
100
AcDbLine
 10
9897.499623999321
 20
2918.922110510172
 30
0.0
 11
9897.499623999321
 21
2506.827622321191
 31
0.0
  0
LINE
  5
168D6
330
15D53
100
AcDbEntity
  8
寸法
 62
     0
 48
50.0
370
    -2
100
AcDbLine
 10
9897.499623999321
 20
2968.922110510174
 30
0.0
 11
9897.499623999321
 21
2918.922110510172
 31
0.0
  0
INSERT
  5
168D7
330
15D53
100
AcDbEntity
  8
寸法
 62
     0
 48
50.0
370
    -2
100
AcDbBlockReference
  2
_DOTSMALL
 10
9897.499623999321
 20
2968.922110510174
 30
0.0
 41
100.0
 42
100.0
 43
100.0
 50
270.0
  0
INSERT
  5
168D8
330
15D53
100
AcDbEntity
  8
寸法
 62
     0
 48
50.0
370
    -2
100
AcDbBlockReference
  2
_DOTSMALL
 10
9897.499623999321
 20
2918.922110510172
 30
0.0
 41
100.0
 42
100.0
 43
100.0
 50
90.0
  0
MTEXT
  5
168D9
330
15D53
100
AcDbEntity
  8
寸法
 62
     7
 48
50.0
100
AcDbMText
 10
9797.499623999321
 20
2612.874866415682
 30
0.0
 40
120.0
 41
0.0
 71
     5
 72
     1
  1
\A1;50
  7
STYLE1
 11
0.0000000000000001
 21
1.0
 31
0.0
 73
     1
 44
1.0
1001
ACAD
1000
MTEXTBEGIN
1070
    73
1070
     1
1070
    44
1040
1.0
1070
    74
1070
     0
1000
MTEXTEND
  0
POINT
  5
168DA
330
15D53
100
AcDbEntity
  8
DEFPOINTS
 62
     0
 48
50.0
100
AcDbPoint
 10
10492.46034464674
 20
2968.922110510174
 30
0.0
  0
POINT
  5
168DB
330
15D53
100
AcDbEntity
  8
DEFPOINTS
 62
     0
 48
50.0
100
AcDbPoint
 10
10444.46271469152
 20
2918.922110510172
 30
0.0
  0
POINT
  5
168DC
330
15D53
100
AcDbEntity
  8
DEFPOINTS
 62
     0
 48
50.0
100
AcDbPoint
 10
9897.499623999321
 20
2918.922110510172
 30
0.0
  0
ENDBLK
  5
15D60
330
15D53
100
AcDbEntity
  8
0
 48
50.0
100
AcDbBlockEnd
  0
BLOCK
  5
15D6B
330
15D61
100
AcDbEntity
  8
0
 48
50.0
100
AcDbBlockBegin
  2
*D24
 70
     1
 10
0.0
 20
0.0
 30
0.0
  3
*D24
  1

  0
LINE
  5
168C9
330
15D61
100
AcDbEntity
  8
寸法
 62
     0
 48
50.0
370
    -2
100
AcDbLine
 10
12049.46271469153
 20
2918.922110510172
 30
0.0
 11
12794.38987266365
 21
2918.922110510172
 31
0.0
  0
LINE
  5
168CA
330
15D61
100
AcDbEntity
  8
寸法
 62
     0
 48
50.0
370
    -2
100
AcDbLine
 10
12129.46271469152
 20
4938.922110510172
 30
0.0
 11
12794.38987266365
 21
4938.922110510172
 31
0.0
  0
LINE
  5
168CB
330
15D61
100
AcDbEntity
  8
寸法
 62
     0
 48
50.0
370
    -2
100
AcDbLine
 10
12734.38987266365
 20
2918.922110510172
 30
0.0
 11
12734.38987266365
 21
4938.922110510172
 31
0.0
  0
INSERT
  5
168CC
330
15D61
100
AcDbEntity
  8
寸法
 62
     0
 48
50.0
370
    -2
100
AcDbBlockReference
  2
_DOTSMALL
 10
12734.38987266365
 20
2918.922110510172
 30
0.0
 41
100.0
 42
100.0
 43
100.0
 50
270.0
  0
INSERT
  5
168CD
330
15D61
100
AcDbEntity
  8
寸法
 62
     0
 48
50.0
370
    -2
100
AcDbBlockReference
  2
_DOTSMALL
 10
12734.38987266365
 20
4938.922110510172
 30
0.0
 41
100.0
 42
100.0
 43
100.0
 50
90.0
  0
MTEXT
  5
168CE
330
15D61
100
AcDbEntity
  8
寸法
 62
     7
 48
50.0
100
AcDbMText
 10
12634.37806164003
 20
3928.922110510173
 30
0.0
 40
120.0
 41
0.0
 71
     5
 72
     1
  1
\A1;2020
  7
STYLE1
 11
0.0000000000000001
 21
1.0
 31
0.0
 73
     1
 44
1.0
1001
ACAD
1000
MTEXTBEGIN
1070
    73
1070
     1
1070
    44
1040
1.0
1070
    74
1070
     0
1000
MTEXTEND
  0
POINT
  5
168CF
330
15D61
100
AcDbEntity
  8
DEFPOINTS
 62
     0
 48
50.0
100
AcDbPoint
 10
12029.46271469153
 20
2918.922110510172
 30
0.0
  0
POINT
  5
168D0
330
15D61
100
AcDbEntity
  8
DEFPOINTS
 62
     0
 48
50.0
100
AcDbPoint
 10
12109.46271469152
 20
4938.922110510172
 30
0.0
  0
POINT
  5
168D1
330
15D61
100
AcDbEntity
  8
DEFPOINTS
 62
     0
 48
50.0
100
AcDbPoint
 10
12734.38987266365
 20
4938.922110510172
 30
0.0
  0
ENDBLK
  5
15D6C
330
15D61
100
AcDbEntity
  8
0
 48
50.0
100
AcDbBlockEnd
  0
BLOCK
  5
15D77
330
15D6D
100
AcDbEntity
  8
0
 48
50.0
100
AcDbBlockBegin
  2
*D25
 70
     1
 10
0.0
 20
0.0
 30
0.0
  3
*D25
  1

  0
LINE
  5
168C0
330
15D6D
100
AcDbEntity
  8
寸法
 62
     0
 48
50.0
370
    -2
100
AcDbLine
 10
12029.46271469152
 20
4960.732790121824
 30
0.0
 11
12029.46271469152
 21
5452.579564089474
 31
0.0
  0
LINE
  5
168C1
330
15D6D
100
AcDbEntity
  8
寸法
 62
     0
 48
50.0
370
    -2
100
AcDbLine
 10
10499.46271469152
 20
5009.923728633147
 30
0.0
 11
10499.46271469152
 21
5452.579564089474
 31
0.0
  0
LINE
  5
168C2
330
15D6D
100
AcDbEntity
  8
寸法
 62
     0
 48
50.0
370
    -2
100
AcDbLine
 10
12029.46271469152
 20
5392.579564089474
 30
0.0
 11
10499.46271469152
 21
5392.579564089474
 31
0.0
  0
INSERT
  5
168C3
330
15D6D
100
AcDbEntity
  8
寸法
 62
     0
 48
50.0
370
    -2
100
AcDbBlockReference
  2
_DOTSMALL
 10
12029.46271469152
 20
5392.579564089474
 30
0.0
 41
100.0
 42
100.0
 43
100.0
  0
INSERT
  5
168C4
330
15D6D
100
AcDbEntity
  8
寸法
 62
     0
 48
50.0
370
    -2
100
AcDbBlockReference
  2
_DOTSMALL
 10
10499.46271469152
 20
5392.579564089474
 30
0.0
 41
100.0
 42
100.0
 43
100.0
 50
180.0
  0
MTEXT
  5
168C5
330
15D6D
100
AcDbEntity
  8
寸法
 62
     7
 48
50.0
100
AcDbMText
 10
11309.28174758207
 20
5492.579564089474
 30
0.0
 40
120.0
 41
0.0
 71
     5
 72
     1
  1
\A1;柱外寸法1530
  7
STYLE1
 73
     1
 44
1.0
1001
ACAD
1000
MTEXTBEGIN
1070
    73
1070
     1
1070
    44
1040
1.0
1070
    74
1070
     0
1000
MTEXTEND
  0
POINT
  5
168C6
330
15D6D
100
AcDbEntity
  8
DEFPOINTS
 62
     0
 48
50.0
100
AcDbPoint
 10
12029.46271469152
 20
4940.732790121823
 30
0.0
  0
POINT
  5
168C7
330
15D6D
100
AcDbEntity
  8
DEFPOINTS
 62
     0
 48
50.0
100
AcDbPoint
 10
10499.46271469152
 20
4989.923728633146
 30
0.0
  0
POINT
  5
168C8
330
15D6D
100
AcDbEntity
  8
DEFPOINTS
 62
     0
 48
50.0
100
AcDbPoint
 10
10499.46271469152
 20
5392.579564089474
 30
0.0
  0
ENDBLK
  5
15D78
330
15D6D
100
AcDbEntity
  8
0
 48
50.0
100
AcDbBlockEnd
  0
BLOCK
  5
15D85
330
15D79
100
AcDbEntity
  8
0
 48
50.0
100
AcDbBlockBegin
  2
*D26
 70
     1
 10
0.0
 20
0.0
 30
0.0
  3
*D26
  1

  0
LINE
  5
168B5
330
15D79
100
AcDbEntity
  8
寸法
 62
     0
 48
50.0
370
    -2
100
AcDbLine
 10
10499.46271469152
 20
5009.923728633147
 30
0.0
 11
10499.46271469152
 21
5452.579564089474
 31
0.0
  0
LINE
  5
168B6
330
15D79
100
AcDbEntity
  8
寸法
 62
     0
 48
50.0
370
    -2
100
AcDbLine
 10
10439.46271469152
 20
5013.922110510176
 30
0.0
 11
10439.46271469152
 21
5452.579564089474
 31
0.0
  0
LINE
  5
168B7
330
15D79
100
AcDbEntity
  8
寸法
 62
     0
 48
50.0
370
    -2
100
AcDbLine
 10
10499.46271469152
 20
5392.579564089474
 30
0.0
 11
10599.46271469152
 21
5392.579564089474
 31
0.0
  0
LINE
  5
168B8
330
15D79
100
AcDbEntity
  8
寸法
 62
     0
 48
50.0
370
    -2
100
AcDbLine
 10
10439.46271469152
 20
5392.579564089474
 30
0.0
 11
10020.18712414034
 21
5392.579564089474
 31
0.0
  0
LINE
  5
168B9
330
15D79
100
AcDbEntity
  8
寸法
 62
     0
 48
50.0
370
    -2
100
AcDbLine
 10
10499.46271469152
 20
5392.579564089474
 30
0.0
 11
10439.46271469152
 21
5392.579564089474
 31
0.0
  0
INSERT
  5
168BA
330
15D79
100
AcDbEntity
  8
寸法
 62
     0
 48
50.0
370
    -2
100
AcDbBlockReference
  2
_DOTSMALL
 10
10499.46271469152
 20
5392.579564089474
 30
0.0
 41
100.0
 42
100.0
 43
100.0
 50
180.0
  0
INSERT
  5
168BB
330
15D79
100
AcDbEntity
  8
寸法
 62
     0
 48
50.0
370
    -2
100
AcDbBlockReference
  2
_DOTSMALL
 10
10439.46271469152
 20
5392.579564089474
 30
0.0
 41
100.0
 42
100.0
 43
100.0
  0
MTEXT
  5
168BC
330
15D79
100
AcDbEntity
  8
寸法
 62
     7
 48
50.0
100
AcDbMText
 10
10129.82491941593
 20
5492.579564089474
 30
0.0
 40
120.0
 41
0.0
 71
     5
 72
     1
  1
\A1;60
  7
STYLE1
 73
     1
 44
1.0
1001
ACAD
1000
MTEXTBEGIN
1070
    73
1070
     1
1070
    44
1040
1.0
1070
    74
1070
     0
1000
MTEXTEND
  0
POINT
  5
168BD
330
15D79
100
AcDbEntity
  8
DEFPOINTS
 62
     0
 48
50.0
100
AcDbPoint
 10
10499.46271469152
 20
4989.923728633146
 30
0.0
  0
POINT
  5
168BE
330
15D79
100
AcDbEntity
  8
DEFPOINTS
 62
     0
 48
50.0
100
AcDbPoint
 10
10439.46271469152
 20
4993.922110510175
 30
0.0
  0
POINT
  5
168BF
330
15D79
100
AcDbEntity
  8
DEFPOINTS
 62
     0
 48
50.0
100
AcDbPoint
 10
10439.46271469152
 20
5392.579564089474
 30
0.0
  0
ENDBLK
  5
15D86
330
15D79
100
AcDbEntity
  8
0
 48
50.0
100
AcDbBlockEnd
  0
BLOCK
  5
15D91
330
15D87
100
AcDbEntity
  8
0
 48
50.0
100
AcDbBlockBegin
  2
*D27
 70
     1
 10
0.0
 20
0.0
 30
0.0
  3
*D27
  1

  0
LINE
  5
168AC
330
15D87
100
AcDbEntity
  8
寸法
 62
     0
 48
50.0
370
    -2
100
AcDbLine
 10
12109.46271469152
 20
4958.922110510171
 30
0.0
 11
12109.46271469152
 21
5660.753885281438
 31
0.0
  0
LINE
  5
168AD
330
15D87
100
AcDbEntity
  8
寸法
 62
     0
 48
50.0
370
    -2
100
AcDbLine
 10
10439.46271469152
 20
5013.922110510176
 30
0.0
 11
10439.46271469152
 21
5660.753885281438
 31
0.0
  0
LINE
  5
168AE
330
15D87
100
AcDbEntity
  8
寸法
 62
     0
 48
50.0
370
    -2
100
AcDbLine
 10
12109.46271469152
 20
5600.753885281438
 30
0.0
 11
10439.46271469152
 21
5600.753885281438
 31
0.0
  0
INSERT
  5
168AF
330
15D87
100
AcDbEntity
  8
寸法
 62
     0
 48
50.0
370
    -2
100
AcDbBlockReference
  2
_DOTSMALL
 10
12109.46271469152
 20
5600.753885281438
 30
0.0
 41
100.0
 42
100.0
 43
100.0
  0
INSERT
  5
168B0
330
15D87
100
AcDbEntity
  8
寸法
 62
     0
 48
50.0
370
    -2
100
AcDbBlockReference
  2
_DOTSMALL
 10
10439.46271469152
 20
5600.753885281438
 30
0.0
 41
100.0
 42
100.0
 43
100.0
 50
180.0
  0
MTEXT
  5
168B1
330
15D87
100
AcDbEntity
  8
寸法
 62
     7
 48
50.0
100
AcDbMText
 10
11326.58754439334
 20
5700.753885281438
 30
0.0
 40
120.0
 41
0.0
 71
     5
 72
     1
  1
\A1;1670
  7
STYLE1
 73
     1
 44
1.0
1001
ACAD
1000
MTEXTBEGIN
1070
    73
1070
     1
1070
    44
1040
1.0
1070
    74
1070
     0
1000
MTEXTEND
  0
POINT
  5
168B2
330
15D87
100
AcDbEntity
  8
DEFPOINTS
 62
     0
 48
50.0
100
AcDbPoint
 10
12109.46271469152
 20
4938.922110510172
 30
0.0
  0
POINT
  5
168B3
330
15D87
100
AcDbEntity
  8
DEFPOINTS
 62
     0
 48
50.0
100
AcDbPoint
 10
10439.46271469152
 20
4993.922110510175
 30
0.0
  0
POINT
  5
168B4
330
15D87
100
AcDbEntity
  8
DEFPOINTS
 62
     0
 48
50.0
100
AcDbPoint
 10
10439.46271469152
 20
5600.753885281438
 30
0.0
  0
ENDBLK
  5
15D92
330
15D87
100
AcDbEntity
  8
0
 48
50.0
100
AcDbBlockEnd
  0
BLOCK
  5
15D9E
330
15D93
100
AcDbEntity
  8
0
 48
50.0
100
AcDbBlockBegin
  2
*D28
 70
     1
 10
0.0
 20
0.0
 30
0.0
  3
*D28
  1

  0
LINE
  5
168A2
330
15D93
100
AcDbEntity
  8
寸法
 62
     0
 48
50.0
370
    -2
100
AcDbLine
 10
12029.46271469152
 20
4960.732790121824
 30
0.0
 11
12029.46271469152
 21
5452.579564089474
 31
0.0
  0
LINE
  5
168A3
330
15D93
100
AcDbEntity
  8
寸法
 62
     0
 48
50.0
370
    -2
100
AcDbLine
 10
12109.46271469152
 20
4958.922110510171
 30
0.0
 11
12109.46271469152
 21
5452.579564089474
 31
0.0
  0
LINE
  5
168A4
330
15D93
100
AcDbEntity
  8
寸法
 62
     0
 48
50.0
370
    -2
100
AcDbLine
 10
12029.46271469152
 20
5392.579564089474
 30
0.0
 11
12109.46271469152
 21
5392.579564089474
 31
0.0
  0
LINE
  5
168A5
330
15D93
100
AcDbEntity
  8
寸法
 62
     0
 48
50.0
370
    -2
100
AcDbLine
 10
12109.46271469152
 20
5392.579564089474
 30
0.0
 11
12421.5572028805
 21
5392.579564089474
 31
0.0
  0
INSERT
  5
168A6
330
15D93
100
AcDbEntity
  8
寸法
 62
     0
 48
50.0
370
    -2
100
AcDbBlockReference
  2
_DOTSMALL
 10
12029.46271469152
 20
5392.579564089474
 30
0.0
 41
100.0
 42
100.0
 43
100.0
 50
180.0
  0
INSERT
  5
168A7
330
15D93
100
AcDbEntity
  8
寸法
 62
     0
 48
50.0
370
    -2
100
AcDbBlockReference
  2
_DOTSMALL
 10
12109.46271469152
 20
5392.579564089474
 30
0.0
 41
100.0
 42
100.0
 43
100.0
  0
MTEXT
  5
168A8
330
15D93
100
AcDbEntity
  8
寸法
 62
     7
 48
50.0
100
AcDbMText
 10
12315.50995878601
 20
5492.579564089474
 30
0.0
 40
120.0
 41
0.0
 71
     5
 72
     1
  1
\A1;80
  7
STYLE1
 73
     1
 44
1.0
1001
ACAD
1000
MTEXTBEGIN
1070
    73
1070
     1
1070
    44
1040
1.0
1070
    74
1070
     0
1000
MTEXTEND
  0
POINT
  5
168A9
330
15D93
100
AcDbEntity
  8
DEFPOINTS
 62
     0
 48
50.0
100
AcDbPoint
 10
12029.46271469152
 20
4940.732790121823
 30
0.0
  0
POINT
  5
168AA
330
15D93
100
AcDbEntity
  8
DEFPOINTS
 62
     0
 48
50.0
100
AcDbPoint
 10
12109.46271469152
 20
4938.922110510172
 30
0.0
  0
POINT
  5
168AB
330
15D93
100
AcDbEntity
  8
DEFPOINTS
 62
     0
 48
50.0
100
AcDbPoint
 10
12109.46271469152
 20
5392.579564089474
 30
0.0
  0
ENDBLK
  5
15D9F
330
15D93
100
AcDbEntity
  8
0
 48
50.0
100
AcDbBlockEnd
  0
BLOCK
  5
15DAB
330
15DA0
100
AcDbEntity
  8
0
 48
50.0
100
AcDbBlockBegin
  2
*D29
 70
     1
 10
0.0
 20
0.0
 30
0.0
  3
*D29
  1

  0
LINE
  5
16898
330
15DA0
100
AcDbEntity
  8
寸法
 62
     0
 48
50.0
370
    -2
100
AcDbLine
 10
10434.81951937903
 20
4852.457721983647
 30
0.0
 11
9781.919349084988
 21
4877.108753223625
 31
0.0
  0
LINE
  5
16899
330
15DA0
100
AcDbEntity
  8
寸法
 62
     0
 48
50.0
370
    -2
100
AcDbLine
 10
10440.13935353098
 20
4993.357329380529
 30
0.0
 11
9787.239183236779
 21
5018.008360620513
 31
0.0
  0
LINE
  5
1689A
330
15DA0
100
AcDbEntity
  8
寸法
 62
     0
 48
50.0
370
    -2
100
AcDbLine
 10
9841.876628828346
 20
4874.844994010096
 30
0.0
 11
9847.196462980138
 21
5015.744601406985
 31
0.0
  0
LINE
  5
1689B
330
15DA0
100
AcDbEntity
  8
寸法
 62
     0
 48
50.0
370
    -2
100
AcDbLine
 10
9847.196462980138
 20
5015.744601406985
 30
0.0
 11
9860.779018261338
 21
5375.488279867816
 31
0.0
  0
INSERT
  5
1689C
330
15DA0
100
AcDbEntity
  8
寸法
 62
     0
 48
50.0
370
    -2
100
AcDbBlockReference
  2
_DOTSMALL
 10
9841.876628828346
 20
4874.844994010096
 30
0.0
 41
100.0
 42
100.0
 43
100.0
 50
267.8377559871575
  0
INSERT
  5
1689D
330
15DA0
100
AcDbEntity
  8
寸法
 62
     0
 48
50.0
370
    -2
100
AcDbBlockReference
  2
_DOTSMALL
 10
9847.196462980138
 20
5015.744601406985
 30
0.0
 41
100.0
 42
100.0
 43
100.0
 50
87.83775598715747
  0
MTEXT
  5
1689E
330
15DA0
100
AcDbEntity
  8
寸法
 62
     7
 48
50.0
100
AcDbMText
 10
9755.945407059762
 20
5249.353772446424
 30
0.0
 40
120.0
 41
0.0
 71
     5
 72
     1
  1
\A1;141
  7
STYLE1
 11
0.0377293202254796
 21
0.9992879957226163
 31
0.0
 73
     1
 44
1.0
1001
ACAD
1000
MTEXTBEGIN
1070
    73
1070
     1
1070
    44
1040
1.0
1070
    74
1070
     0
1000
MTEXTEND
  0
POINT
  5
1689F
330
15DA0
100
AcDbEntity
  8
DEFPOINTS
 62
     0
 48
50.0
100
AcDbPoint
 10
10454.80527929348
 20
4851.703135579136
 30
0.0
  0
POINT
  5
168A0
330
15DA0
100
AcDbEntity
  8
DEFPOINTS
 62
     0
 48
50.0
100
AcDbPoint
 10
10460.12511344543
 20
4992.60274297602
 30
0.0
  0
POINT
  5
168A1
330
15DA0
100
AcDbEntity
  8
DEFPOINTS
 62
     0
 48
50.0
100
AcDbPoint
 10
9847.196462980138
 20
5015.744601406985
 30
0.0
  0
ENDBLK
  5
15DAC
330
15DA0
100
AcDbEntity
  8
0
 48
50.0
100
AcDbBlockEnd
  0
BLOCK
  5
15DB7
330
15DAD
100
AcDbEntity
  8
0
 48
50.0
100
AcDbBlockBegin
  2
*D30
 70
     1
 10
0.0
 20
0.0
 30
0.0
  3
*D30
  1

  0
LINE
  5
1688F
330
15DAD
100
AcDbEntity
  8
寸法
 62
     0
 48
50.0
370
    -2
100
AcDbLine
 10
10472.46034464675
 20
4758.92211051017
 30
0.0
 11
9837.499623999322
 21
4758.92211051017
 31
0.0
  0
LINE
  5
16890
330
15DAD
100
AcDbEntity
  8
寸法
 62
     0
 48
50.0
370
    -2
100
AcDbLine
 10
10472.46034464675
 20
2968.922110510174
 30
0.0
 11
9837.49962399932
 21
2968.922110510174
 31
0.0
  0
LINE
  5
16891
330
15DAD
100
AcDbEntity
  8
寸法
 62
     0
 48
50.0
370
    -2
100
AcDbLine
 10
9897.499623999323
 20
4758.92211051017
 30
0.0
 11
9897.499623999321
 21
2968.922110510174
 31
0.0
  0
INSERT
  5
16892
330
15DAD
100
AcDbEntity
  8
寸法
 62
     0
 48
50.0
370
    -2
100
AcDbBlockReference
  2
_DOTSMALL
 10
9897.499623999323
 20
4758.92211051017
 30
0.0
 41
100.0
 42
100.0
 43
100.0
 50
90.0
  0
INSERT
  5
16893
330
15DAD
100
AcDbEntity
  8
寸法
 62
     0
 48
50.0
370
    -2
100
AcDbBlockReference
  2
_DOTSMALL
 10
9897.499623999321
 20
2968.922110510174
 30
0.0
 41
100.0
 42
100.0
 43
100.0
 50
270.0
  0
MTEXT
  5
16894
330
15DAD
100
AcDbEntity
  8
寸法
 62
     7
 48
50.0
100
AcDbMText
 10
9797.499623999321
 20
3873.957122386559
 30
0.0
 40
120.0
 41
0.0
 71
     5
 72
     1
  1
\A1;1790
  7
STYLE1
 11
0.0000000000000001
 21
1.0
 31
0.0
 73
     1
 44
1.0
1001
ACAD
1000
MTEXTBEGIN
1070
    73
1070
     1
1070
    44
1040
1.0
1070
    74
1070
     0
1000
MTEXTEND
  0
POINT
  5
16895
330
15DAD
100
AcDbEntity
  8
DEFPOINTS
 62
     0
 48
50.0
100
AcDbPoint
 10
10492.46034464674
 20
4758.92211051017
 30
0.0
  0
POINT
  5
16896
330
15DAD
100
AcDbEntity
  8
DEFPOINTS
 62
     0
 48
50.0
100
AcDbPoint
 10
10492.46034464674
 20
2968.922110510174
 30
0.0
  0
POINT
  5
16897
330
15DAD
100
AcDbEntity
  8
DEFPOINTS
 62
     0
 48
50.0
100
AcDbPoint
 10
9897.499623999321
 20
2968.922110510174
 30
0.0
  0
ENDBLK
  5
15DB8
330
15DAD
100
AcDbEntity
  8
0
 48
50.0
100
AcDbBlockEnd
  0
BLOCK
  5
165F3
330
165E7
100
AcDbEntity
  8
0
 48
50.0
100
AcDbBlockBegin
  2
*D31
 70
     1
 10
0.0
 20
0.0
 30
0.0
  3
*D31
  1

  0
LINE
  5
16884
330
165E7
100
AcDbEntity
  8
寸法
 62
     0
 48
50.0
370
    -2
100
AcDbLine
 10
8162.590802131145
 20
5013.922110510172
 30
0.0
 11
8162.590802131145
 21
5266.463695768412
 31
0.0
  0
LINE
  5
16885
330
165E7
100
AcDbEntity
  8
寸法
 62
     0
 48
50.0
370
    -2
100
AcDbLine
 10
8112.590802131144
 20
5013.922110510173
 30
0.0
 11
8112.590802131144
 21
5266.463695768412
 31
0.0
  0
LINE
  5
16886
330
165E7
100
AcDbEntity
  8
寸法
 62
     0
 48
50.0
370
    -2
100
AcDbLine
 10
8112.590802131144
 20
5206.463695768412
 30
0.0
 11
8012.590802131144
 21
5206.463695768412
 31
0.0
  0
LINE
  5
16887
330
165E7
100
AcDbEntity
  8
寸法
 62
     0
 48
50.0
370
    -2
100
AcDbLine
 10
8162.590802131145
 20
5206.463695768412
 30
0.0
 11
8582.123327599868
 21
5206.463695768412
 31
0.0
  0
LINE
  5
16888
330
165E7
100
AcDbEntity
  8
寸法
 62
     0
 48
50.0
370
    -2
100
AcDbLine
 10
8112.590802131144
 20
5206.463695768412
 30
0.0
 11
8162.590802131145
 21
5206.463695768412
 31
0.0
  0
INSERT
  5
16889
330
165E7
100
AcDbEntity
  8
寸法
 62
     0
 48
50.0
370
    -2
100
AcDbBlockReference
  2
_DOTSMALL
 10
8112.590802131144
 20
5206.463695768412
 30
0.0
 41
100.0
 42
100.0
 43
100.0
  0
INSERT
  5
1688A
330
165E7
100
AcDbEntity
  8
寸法
 62
     0
 48
50.0
370
    -2
100
AcDbBlockReference
  2
_DOTSMALL
 10
8162.590802131145
 20
5206.463695768412
 30
0.0
 41
100.0
 42
100.0
 43
100.0
 50
180.0
  0
MTEXT
  5
1688B
330
165E7
100
AcDbEntity
  8
寸法
 62
     7
 48
50.0
100
AcDbMText
 10
8476.076083505381
 20
5306.463695768412
 30
0.0
 40
120.0
 41
0.0
 71
     5
 72
     1
  1
\A1;50
  7
STYLE1
 73
     1
 44
1.0
1001
ACAD
1000
MTEXTBEGIN
1070
    73
1070
     1
1070
    44
1040
1.0
1070
    74
1070
     0
1000
MTEXTEND
  0
POINT
  5
1688C
330
165E7
100
AcDbEntity
  8
DEFPOINTS
 62
     0
 48
50.0
100
AcDbPoint
 10
8162.590802131145
 20
4993.922110510172
 30
0.0
  0
POINT
  5
1688D
330
165E7
100
AcDbEntity
  8
DEFPOINTS
 62
     0
 48
50.0
100
AcDbPoint
 10
8112.590802131144
 20
4993.922110510173
 30
0.0
  0
POINT
  5
1688E
330
165E7
100
AcDbEntity
  8
DEFPOINTS
 62
     0
 48
50.0
100
AcDbPoint
 10
8112.590802131144
 20
5206.463695768412
 30
0.0
  0
ENDBLK
  5
165F4
330
165E7
100
AcDbEntity
  8
0
 48
50.0
100
AcDbBlockEnd
  0
BLOCK
  5
16601
330
165F5
100
AcDbEntity
  8
0
 48
50.0
100
AcDbBlockBegin
  2
*D32
 70
     1
 10
0.0
 20
0.0
 30
0.0
  3
*D32
  1

  0
LINE
  5
16879
330
165F5
100
AcDbEntity
  8
寸法
 62
     0
 48
50.0
370
    -2
100
AcDbLine
 10
4312.590802131141
 20
5013.922110510179
 30
0.0
 11
4312.590802131141
 21
5266.463695768416
 31
0.0
  0
LINE
  5
1687A
330
165F5
100
AcDbEntity
  8
寸法
 62
     0
 48
50.0
370
    -2
100
AcDbLine
 10
4262.590802131141
 20
5013.922110510176
 30
0.0
 11
4262.590802131141
 21
5266.463695768416
 31
0.0
  0
LINE
  5
1687B
330
165F5
100
AcDbEntity
  8
寸法
 62
     0
 48
50.0
370
    -2
100
AcDbLine
 10
4312.590802131141
 20
5206.463695768416
 30
0.0
 11
4412.59080213114
 21
5206.463695768416
 31
0.0
  0
LINE
  5
1687C
330
165F5
100
AcDbEntity
  8
寸法
 62
     0
 48
50.0
370
    -2
100
AcDbLine
 10
4262.590802131141
 20
5206.463695768416
 30
0.0
 11
3843.058276662406
 21
5206.463695768416
 31
0.0
  0
LINE
  5
1687D
330
165F5
100
AcDbEntity
  8
寸法
 62
     0
 48
50.0
370
    -2
100
AcDbLine
 10
4312.590802131141
 20
5206.463695768416
 30
0.0
 11
4262.590802131141
 21
5206.463695768416
 31
0.0
  0
INSERT
  5
1687E
330
165F5
100
AcDbEntity
  8
寸法
 62
     0
 48
50.0
370
    -2
100
AcDbBlockReference
  2
_DOTSMALL
 10
4312.590802131141
 20
5206.463695768416
 30
0.0
 41
100.0
 42
100.0
 43
100.0
 50
180.0
  0
INSERT
  5
1687F
330
165F5
100
AcDbEntity
  8
寸法
 62
     0
 48
50.0
370
    -2
100
AcDbBlockReference
  2
_DOTSMALL
 10
4262.590802131141
 20
5206.463695768416
 30
0.0
 41
100.0
 42
100.0
 43
100.0
  0
MTEXT
  5
16880
330
165F5
100
AcDbEntity
  8
寸法
 62
     7
 48
50.0
100
AcDbMText
 10
3949.105520756893
 20
5306.463695768417
 30
0.0
 40
120.0
 41
0.0
 71
     5
 72
     1
  1
\A1;50
  7
STYLE1
 73
     1
 44
1.0
1001
ACAD
1000
MTEXTBEGIN
1070
    73
1070
     1
1070
    44
1040
1.0
1070
    74
1070
     0
1000
MTEXTEND
  0
POINT
  5
16881
330
165F5
100
AcDbEntity
  8
DEFPOINTS
 62
     0
 48
50.0
100
AcDbPoint
 10
4312.590802131141
 20
4993.922110510179
 30
0.0
  0
POINT
  5
16882
330
165F5
100
AcDbEntity
  8
DEFPOINTS
 62
     0
 48
50.0
100
AcDbPoint
 10
4262.590802131141
 20
4993.922110510177
 30
0.0
  0
POINT
  5
16883
330
165F5
100
AcDbEntity
  8
DEFPOINTS
 62
     0
 48
50.0
100
AcDbPoint
 10
4262.590802131141
 20
5206.463695768416
 30
0.0
  0
ENDBLK
  5
16602
330
165F5
100
AcDbEntity
  8
0
 48
50.0
100
AcDbBlockEnd
  0
BLOCK
  5
1660D
330
16603
100
AcDbEntity
  8
0
 48
50.0
100
AcDbBlockBegin
  2
*D33
 70
     1
 10
0.0
 20
0.0
 30
0.0
  3
*D33
  1

  0
LINE
  5
16870
330
16603
100
AcDbEntity
  8
寸法
 62
     0
 48
50.0
370
    -2
100
AcDbLine
 10
4262.590802131141
 20
5013.922110510176
 30
0.0
 11
4262.590802131141
 21
5489.420674206264
 31
0.0
  0
LINE
  5
16871
330
16603
100
AcDbEntity
  8
寸法
 62
     0
 48
50.0
370
    -2
100
AcDbLine
 10
8162.590802131145
 20
5013.922110510172
 30
0.0
 11
8162.590802131145
 21
5489.420674206264
 31
0.0
  0
LINE
  5
16872
330
16603
100
AcDbEntity
  8
寸法
 62
     0
 48
50.0
370
    -2
100
AcDbLine
 10
4262.590802131141
 20
5429.420674206263
 30
0.0
 11
8162.590802131145
 21
5429.420674206263
 31
0.0
  0
INSERT
  5
16873
330
16603
100
AcDbEntity
  8
寸法
 62
     0
 48
50.0
370
    -2
100
AcDbBlockReference
  2
_DOTSMALL
 10
4262.590802131141
 20
5429.420674206263
 30
0.0
 41
100.0
 42
100.0
 43
100.0
 50
180.0
  0
INSERT
  5
16874
330
16603
100
AcDbEntity
  8
寸法
 62
     0
 48
50.0
370
    -2
100
AcDbBlockReference
  2
_DOTSMALL
 10
8162.590802131145
 20
5429.420674206263
 30
0.0
 41
100.0
 42
100.0
 43
100.0
  0
MTEXT
  5
16875
330
16603
100
AcDbEntity
  8
寸法
 62
     7
 48
50.0
100
AcDbMText
 10
6212.590802131131
 20
5529.420674206264
 30
0.0
 40
120.0
 41
0.0
 71
     5
 72
     1
  1
\A1;3900
  7
STYLE1
 73
     1
 44
1.0
1001
ACAD
1000
MTEXTBEGIN
1070
    73
1070
     1
1070
    44
1040
1.0
1070
    74
1070
     0
1000
MTEXTEND
  0
POINT
  5
16876
330
16603
100
AcDbEntity
  8
DEFPOINTS
 62
     0
 48
50.0
100
AcDbPoint
 10
4262.590802131141
 20
4993.922110510177
 30
0.0
  0
POINT
  5
16877
330
16603
100
AcDbEntity
  8
DEFPOINTS
 62
     0
 48
50.0
100
AcDbPoint
 10
8162.590802131145
 20
4993.922110510172
 30
0.0
  0
POINT
  5
16878
330
16603
100
AcDbEntity
  8
DEFPOINTS
 62
     0
 48
50.0
100
AcDbPoint
 10
8162.590802131145
 20
5429.420674206263
 30
0.0
  0
ENDBLK
  5
1660E
330
16603
100
AcDbEntity
  8
0
 48
50.0
100
AcDbBlockEnd
  0
BLOCK
  5
16619
330
1660F
100
AcDbEntity
  8
0
 48
50.0
100
AcDbBlockBegin
  2
*D34
 70
     1
 10
0.0
 20
0.0
 30
0.0
  3
*D34
  1

  0
LINE
  5
16867
330
1660F
100
AcDbEntity
  8
寸法
 62
     0
 48
50.0
370
    -2
100
AcDbLine
 10
8112.590802131144
 20
5013.922110510173
 30
0.0
 11
8112.590802131144
 21
5266.463695768416
 31
0.0
  0
LINE
  5
16868
330
1660F
100
AcDbEntity
  8
寸法
 62
     0
 48
50.0
370
    -2
100
AcDbLine
 10
4312.590802131141
 20
5013.922110510179
 30
0.0
 11
4312.590802131141
 21
5266.463695768416
 31
0.0
  0
LINE
  5
16869
330
1660F
100
AcDbEntity
  8
寸法
 62
     0
 48
50.0
370
    -2
100
AcDbLine
 10
8112.590802131144
 20
5206.463695768416
 30
0.0
 11
4312.590802131141
 21
5206.463695768416
 31
0.0
  0
INSERT
  5
1686A
330
1660F
100
AcDbEntity
  8
寸法
 62
     0
 48
50.0
370
    -2
100
AcDbBlockReference
  2
_DOTSMALL
 10
8112.590802131144
 20
5206.463695768416
 30
0.0
 41
100.0
 42
100.0
 43
100.0
  0
INSERT
  5
1686B
330
1660F
100
AcDbEntity
  8
寸法
 62
     0
 48
50.0
370
    -2
100
AcDbBlockReference
  2
_DOTSMALL
 10
4312.590802131141
 20
5206.463695768416
 30
0.0
 41
100.0
 42
100.0
 43
100.0
 50
180.0
  0
MTEXT
  5
1686C
330
1660F
100
AcDbEntity
  8
寸法
 62
     7
 48
50.0
100
AcDbMText
 10
6212.590802131131
 20
5306.463695768417
 30
0.0
 40
120.0
 41
0.0
 71
     5
 72
     1
  1
\A1;柱外寸法3800
  7
STYLE1
 73
     1
 44
1.0
1001
ACAD
1000
MTEXTBEGIN
1070
    73
1070
     1
1070
    44
1040
1.0
1070
    74
1070
     0
1000
MTEXTEND
  0
POINT
  5
1686D
330
1660F
100
AcDbEntity
  8
DEFPOINTS
 62
     0
 48
50.0
100
AcDbPoint
 10
8112.590802131144
 20
4993.922110510173
 30
0.0
  0
POINT
  5
1686E
330
1660F
100
AcDbEntity
  8
DEFPOINTS
 62
     0
 48
50.0
100
AcDbPoint
 10
4312.590802131141
 20
4993.922110510179
 30
0.0
  0
POINT
  5
1686F
330
1660F
100
AcDbEntity
  8
DEFPOINTS
 62
     0
 48
50.0
100
AcDbPoint
 10
4312.590802131141
 20
5206.463695768416
 30
0.0
  0
ENDBLK
  5
1661A
330
1660F
100
AcDbEntity
  8
0
 48
50.0
100
AcDbBlockEnd
  0
BLOCK
  5
16697
330
1668D
100
AcDbEntity
  8
0
 48
50.0
100
AcDbBlockBegin
  2
*D35
 70
     1
 10
0.0
 20
0.0
 30
0.0
  3
*D35
  1

  0
LINE
  5
1685E
330
1668D
100
AcDbEntity
  8
寸法
 62
     0
 48
50.0
370
    -2
100
AcDbLine
 10
4292.59080213114
 20
4740.422110510169
 30
0.0
 11
3934.486274523538
 21
4740.422110510169
 31
0.0
  0
LINE
  5
1685F
330
1668D
100
AcDbEntity
  8
寸法
 62
     0
 48
50.0
370
    -2
100
AcDbLine
 10
4292.59080213114
 20
2980.422110510174
 30
0.0
 11
3934.486274523537
 21
2980.422110510174
 31
0.0
  0
LINE
  5
16860
330
1668D
100
AcDbEntity
  8
寸法
 62
     0
 48
50.0
370
    -2
100
AcDbLine
 10
3994.486274523538
 20
4740.422110510169
 30
0.0
 11
3994.486274523537
 21
2980.422110510174
 31
0.0
  0
INSERT
  5
16861
330
1668D
100
AcDbEntity
  8
寸法
 62
     0
 48
50.0
370
    -2
100
AcDbBlockReference
  2
_DOTSMALL
 10
3994.486274523538
 20
4740.422110510169
 30
0.0
 41
100.0
 42
100.0
 43
100.0
 50
90.0
  0
INSERT
  5
16862
330
1668D
100
AcDbEntity
  8
寸法
 62
     0
 48
50.0
370
    -2
100
AcDbBlockReference
  2
_DOTSMALL
 10
3994.486274523537
 20
2980.422110510174
 30
0.0
 41
100.0
 42
100.0
 43
100.0
 50
270.0
  0
MTEXT
  5
16863
330
1668D
100
AcDbEntity
  8
寸法
 62
     7
 48
50.0
100
AcDbMText
 10
3894.486274523537
 20
3859.422110510172
 30
0.0
 40
120.0
 41
0.0
 71
     5
 72
     1
  1
\A1;有効開口部高サ1760
  7
STYLE1
 11
0.0000000000000001
 21
1.0
 31
0.0
 73
     1
 44
1.0
1001
ACAD
1000
MTEXTBEGIN
1070
    73
1070
     1
1070
    44
1040
1.0
1070
    74
1070
     0
1000
MTEXTEND
  0
POINT
  5
16864
330
1668D
100
AcDbEntity
  8
DEFPOINTS
 62
     0
 48
50.0
100
AcDbPoint
 10
4312.590802131141
 20
4740.422110510169
 30
0.0
  0
POINT
  5
16865
330
1668D
100
AcDbEntity
  8
DEFPOINTS
 62
     0
 48
50.0
100
AcDbPoint
 10
4312.590802131141
 20
2980.422110510174
 30
0.0
  0
POINT
  5
16866
330
1668D
100
AcDbEntity
  8
DEFPOINTS
 62
     0
 48
50.0
100
AcDbPoint
 10
3994.486274523537
 20
2980.422110510174
 30
0.0
  0
ENDBLK
  5
16698
330
1668D
100
AcDbEntity
  8
0
 48
50.0
100
AcDbBlockEnd
  0
BLOCK
  5
16812
330
16808
100
AcDbEntity
  8
0
 48
50.0
100
AcDbBlockBegin
  2
*D36
 70
     1
 10
0.0
 20
0.0
 30
0.0
  3
*D36
  1

  0
LINE
  5
169E2
330
16808
100
AcDbEntity
  8
寸法
 62
     0
 48
50.0
370
    -2
100
AcDbLine
 10
5286.231824960145
 20
8740.611290596037
 30
0.0
 11
5221.37549724025
 21
8498.564180353053
 31
0.0
  0
LINE
  5
169E3
330
16808
100
AcDbEntity
  8
寸法
 62
     0
 48
50.0
370
    -2
100
AcDbLine
 10
6178.231824960156
 20
8740.611290596033
 30
0.0
 11
6113.375497240262
 21
8498.564180353053
 31
0.0
  0
LINE
  5
169E4
330
16808
100
AcDbEntity
  8
寸法
 62
     0
 48
50.0
370
    -2
100
AcDbLine
 10
5237.452448786117
 20
8558.564180353052
 30
0.0
 11
6129.452448786128
 21
8558.564180353052
 31
0.0
  0
MTEXT
  5
169E5
330
16808
100
AcDbEntity
  8
寸法
 62
     7
 48
50.0
100
AcDbMText
 10
5782.716623584689
 20
8661.84829574605
 30
0.0
 40
120.0
 41
0.0
 71
     5
 72
     1
  1
\A1;892
  7
STYLE1
 73
     1
 44
1.0
1001
ACAD
1000
MTEXTBEGIN
1070
    73
1070
     1
1070
    44
1040
1.0
1070
    74
1070
     0
1000
MTEXTEND
  0
INSERT
  5
169E6
330
16808
100
AcDbEntity
  8
寸法
 62
     0
 48
50.0
370
    -2
100
AcDbBlockReference
  2
_DOTSMALL
 10
5237.452448786117
 20
8558.564180353052
 30
0.0
 41
100.0
 42
100.0
 43
100.0
 50
180.0
  0
INSERT
  5
169E7
330
16808
100
AcDbEntity
  8
寸法
 62
     0
 48
50.0
370
    -2
100
AcDbBlockReference
  2
_DOTSMALL
 10
6129.452448786128
 20
8558.564180353052
 30
0.0
 41
100.0
 42
100.0
 43
100.0
  0
POINT
  5
169E8
330
16808
100
AcDbEntity
  8
DEFPOINTS
 62
     0
 48
50.0
100
AcDbPoint
 10
5291.590808808767
 20
8760.611290596036
 30
0.0
  0
POINT
  5
169E9
330
16808
100
AcDbEntity
  8
DEFPOINTS
 62
     0
 48
50.0
100
AcDbPoint
 10
6183.590808808778
 20
8760.611290596033
 30
0.0
  0
POINT
  5
169EA
330
16808
100
AcDbEntity
  8
DEFPOINTS
 62
     0
 48
50.0
100
AcDbPoint
 10
6129.452448786128
 20
8558.564180353052
 30
0.0
  0
ENDBLK
  5
16813
330
16808
100
AcDbEntity
  8
0
 48
50.0
100
AcDbBlockEnd
  0
BLOCK
  5
1681E
330
16814
100
AcDbEntity
  8
0
 48
50.0
100
AcDbBlockBegin
  2
*D37
 70
     1
 10
0.0
 20
0.0
 30
0.0
  3
*D37
  1

  0
LINE
  5
169EB
330
16814
100
AcDbEntity
  8
寸法
 62
     0
 48
50.0
370
    -2
100
AcDbLine
 10
6236.231824960145
 20
8740.611290596037
 30
0.0
 11
6171.375497240251
 21
8498.564180353053
 31
0.0
  0
LINE
  5
169EC
330
16814
100
AcDbEntity
  8
寸法
 62
     0
 48
50.0
370
    -2
100
AcDbLine
 10
7128.231824960156
 20
8740.611290596033
 30
0.0
 11
7063.375497240262
 21
8498.564180353053
 31
0.0
  0
LINE
  5
169ED
330
16814
100
AcDbEntity
  8
寸法
 62
     0
 48
50.0
370
    -2
100
AcDbLine
 10
6187.452448786117
 20
8558.564180353052
 30
0.0
 11
7079.452448786129
 21
8558.564180353052
 31
0.0
  0
MTEXT
  5
169EE
330
16814
100
AcDbEntity
  8
寸法
 62
     7
 48
50.0
100
AcDbMText
 10
6732.716623584689
 20
8661.84829574605
 30
0.0
 40
120.0
 41
0.0
 71
     5
 72
     1
  1
\A1;892
  7
STYLE1
 73
     1
 44
1.0
1001
ACAD
1000
MTEXTBEGIN
1070
    73
1070
     1
1070
    44
1040
1.0
1070
    74
1070
     0
1000
MTEXTEND
  0
INSERT
  5
169EF
330
16814
100
AcDbEntity
  8
寸法
 62
     0
 48
50.0
370
    -2
100
AcDbBlockReference
  2
_DOTSMALL
 10
6187.452448786117
 20
8558.564180353052
 30
0.0
 41
100.0
 42
100.0
 43
100.0
 50
180.0
  0
INSERT
  5
169F0
330
16814
100
AcDbEntity
  8
寸法
 62
     0
 48
50.0
370
    -2
100
AcDbBlockReference
  2
_DOTSMALL
 10
7079.452448786129
 20
8558.564180353052
 30
0.0
 41
100.0
 42
100.0
 43
100.0
  0
POINT
  5
169F1
330
16814
100
AcDbEntity
  8
DEFPOINTS
 62
     0
 48
50.0
100
AcDbPoint
 10
6241.590808808767
 20
8760.611290596036
 30
0.0
  0
POINT
  5
169F2
330
16814
100
AcDbEntity
  8
DEFPOINTS
 62
     0
 48
50.0
100
AcDbPoint
 10
7133.590808808778
 20
8760.611290596033
 30
0.0
  0
POINT
  5
169F3
330
16814
100
AcDbEntity
  8
DEFPOINTS
 62
     0
 48
50.0
100
AcDbPoint
 10
7079.452448786129
 20
8558.564180353052
 30
0.0
  0
ENDBLK
  5
1681F
330
16814
100
AcDbEntity
  8
0
 48
50.0
100
AcDbBlockEnd
  0
BLOCK
  5
1682A
330
16820
100
AcDbEntity
  8
0
 48
50.0
100
AcDbBlockBegin
  2
*D38
 70
     1
 10
0.0
 20
0.0
 30
0.0
  3
*D38
  1

  0
LINE
  5
169F4
330
16820
100
AcDbEntity
  8
寸法
 62
     0
 48
50.0
370
    -2
100
AcDbLine
 10
7186.231824960144
 20
8740.611290596037
 30
0.0
 11
7121.37549724025
 21
8498.564180353053
 31
0.0
  0
LINE
  5
169F5
330
16820
100
AcDbEntity
  8
寸法
 62
     0
 48
50.0
370
    -2
100
AcDbLine
 10
8078.231824960155
 20
8740.611290596033
 30
0.0
 11
8013.375497240263
 21
8498.564180353053
 31
0.0
  0
LINE
  5
169F6
330
16820
100
AcDbEntity
  8
寸法
 62
     0
 48
50.0
370
    -2
100
AcDbLine
 10
7137.452448786118
 20
8558.564180353052
 30
0.0
 11
8029.452448786129
 21
8558.564180353052
 31
0.0
  0
MTEXT
  5
169F7
330
16820
100
AcDbEntity
  8
寸法
 62
     7
 48
50.0
100
AcDbMText
 10
7676.245460690442
 20
8663.649456129581
 30
0.0
 40
120.0
 41
0.0
 71
     5
 72
     1
  1
\A1;892
  7
STYLE1
 73
     1
 44
1.0
1001
ACAD
1000
MTEXTBEGIN
1070
    73
1070
     1
1070
    44
1040
1.0
1070
    74
1070
     0
1000
MTEXTEND
  0
INSERT
  5
169F8
330
16820
100
AcDbEntity
  8
寸法
 62
     0
 48
50.0
370
    -2
100
AcDbBlockReference
  2
_DOTSMALL
 10
7137.452448786118
 20
8558.564180353052
 30
0.0
 41
100.0
 42
100.0
 43
100.0
 50
180.0
  0
INSERT
  5
169F9
330
16820
100
AcDbEntity
  8
寸法
 62
     0
 48
50.0
370
    -2
100
AcDbBlockReference
  2
_DOTSMALL
 10
8029.452448786129
 20
8558.564180353052
 30
0.0
 41
100.0
 42
100.0
 43
100.0
  0
POINT
  5
169FA
330
16820
100
AcDbEntity
  8
DEFPOINTS
 62
     0
 48
50.0
100
AcDbPoint
 10
7191.590808808768
 20
8760.611290596036
 30
0.0
  0
POINT
  5
169FB
330
16820
100
AcDbEntity
  8
DEFPOINTS
 62
     0
 48
50.0
100
AcDbPoint
 10
8083.590808808777
 20
8760.611290596033
 30
0.0
  0
POINT
  5
169FC
330
16820
100
AcDbEntity
  8
DEFPOINTS
 62
     0
 48
50.0
100
AcDbPoint
 10
8029.452448786129
 20
8558.564180353052
 30
0.0
  0
ENDBLK
  5
1682B
330
16820
100
AcDbEntity
  8
0
 48
50.0
100
AcDbBlockEnd
  0
BLOCK
  5
16853
330
16849
100
AcDbEntity
  8
0
 48
50.0
100
AcDbBlockBegin
  2
*D39
 70
     1
 10
0.0
 20
0.0
 30
0.0
  3
*D39
  1

  0
LINE
  5
169D9
330
16849
100
AcDbEntity
  8
寸法
 62
     0
 48
50.0
370
    -2
100
AcDbLine
 10
4336.231824960145
 20
8740.611290596037
 30
0.0
 11
4271.37549724025
 21
8498.564180353053
 31
0.0
  0
LINE
  5
169DA
330
16849
100
AcDbEntity
  8
寸法
 62
     0
 48
50.0
370
    -2
100
AcDbLine
 10
5228.231824960156
 20
8740.611290596033
 30
0.0
 11
5163.375497240262
 21
8498.564180353053
 31
0.0
  0
LINE
  5
169DB
330
16849
100
AcDbEntity
  8
寸法
 62
     0
 48
50.0
370
    -2
100
AcDbLine
 10
4287.452448786117
 20
8558.564180353052
 30
0.0
 11
5179.452448786129
 21
8558.564180353052
 31
0.0
  0
MTEXT
  5
169DC
330
16849
100
AcDbEntity
  8
寸法
 62
     7
 48
50.0
100
AcDbMText
 10
4832.716623584689
 20
8661.84829574605
 30
0.0
 40
120.0
 41
0.0
 71
     5
 72
     1
  1
\A1;892
  7
STYLE1
 73
     1
 44
1.0
1001
ACAD
1000
MTEXTBEGIN
1070
    73
1070
     1
1070
    44
1040
1.0
1070
    74
1070
     0
1000
MTEXTEND
  0
INSERT
  5
169DD
330
16849
100
AcDbEntity
  8
寸法
 62
     0
 48
50.0
370
    -2
100
AcDbBlockReference
  2
_DOTSMALL
 10
4287.452448786117
 20
8558.564180353052
 30
0.0
 41
100.0
 42
100.0
 43
100.0
 50
180.0
  0
INSERT
  5
169DE
330
16849
100
AcDbEntity
  8
寸法
 62
     0
 48
50.0
370
    -2
100
AcDbBlockReference
  2
_DOTSMALL
 10
5179.452448786129
 20
8558.564180353052
 30
0.0
 41
100.0
 42
100.0
 43
100.0
  0
POINT
  5
169DF
330
16849
100
AcDbEntity
  8
DEFPOINTS
 62
     0
 48
50.0
100
AcDbPoint
 10
4341.590808808767
 20
8760.611290596036
 30
0.0
  0
POINT
  5
169E0
330
16849
100
AcDbEntity
  8
DEFPOINTS
 62
     0
 48
50.0
100
AcDbPoint
 10
5233.590808808778
 20
8760.611290596033
 30
0.0
  0
POINT
  5
169E1
330
16849
100
AcDbEntity
  8
DEFPOINTS
 62
     0
 48
50.0
100
AcDbPoint
 10
5179.452448786129
 20
8558.564180353052
 30
0.0
  0
ENDBLK
  5
16854
330
16849
100
AcDbEntity
  8
0
 48
50.0
100
AcDbBlockEnd
  0
ENDSEC
  0
SECTION
  2
ENTITIES
  0
LINE
  5
10B56
330
747D
100
AcDbEntity
  8
補助
  6
PHANTOM
 62
   230
 48
50.0
100
AcDbLine
 10
140.0
 20
0.0
 30
0.0
 11
139.9999999999995
 21
11409.6
 31
0.0
  0
LINE
  5
10B57
330
747D
100
AcDbEntity
  8
補助
  6
PHANTOM
 62
   230
 48
50.0
100
AcDbLine
 10
139.9999999999995
 20
11409.6
 30
0.0
 11
16307.2
 21
11409.6
 31
0.0
  0
LINE
  5
10B59
330
747D
100
AcDbEntity
  8
仕様書枠
  6
Continuous
 48
50.0
100
AcDbLine
 10
13107.2
 20
1200.0
 30
0.0
 11
13107.2
 21
-0.0000000000000729
 31
0.0
  0
LINE
  5
10B5C
330
747D
100
AcDbEntity
  8
仕様書枠
 48
50.0
100
AcDbLine
 10
16307.2
 20
1200.0
 30
0.0
 11
16307.2
 21
-0.0000000000000909
 31
0.0
  0
LINE
  5
10B5D
330
747D
100
AcDbEntity
  8
仕様書枠
 48
50.0
100
AcDbLine
 10
140.0
 20
0.0
 30
0.0
 11
16307.2
 21
-0.0000000000000909
 31
0.0
  0
LINE
  5
10B5E
330
747D
100
AcDbEntity
  8
補助
  6
PHANTOM
 62
   230
 48
50.0
100
AcDbLine
 10
16307.2
 20
11409.6
 30
0.0
 11
16307.2
 21
1200.0
 31
0.0
  0
LINE
  5
10B6C
330
747D
100
AcDbEntity
  8
仕様書枠
 48
50.0
100
AcDbLine
 10
13107.2
 20
1200.0
 30
0.0
 11
16307.2
 21
1200.0
 31
0.0
  0
LINE
  5
10B6D
330
747D
100
AcDbEntity
  8
補助
  6
PHANTOM
 62
   230
 48
50.0
100
AcDbLine
 10
13107.2
 20
11409.6
 30
0.0
 11
13107.2
 21
4800.0
 31
0.0
  0
LINE
  5
10B6F
330
747D
100
AcDbEntity
  8
補助
  6
PHANTOM
 62
   230
 48
50.0
100
AcDbLine
 10
13107.2
 20
4800.0
 30
0.0
 11
16307.2
 21
4800.0
 31
0.0
  0
LINE
  5
10B72
330
747D
100
AcDbEntity
  8
文字
 62
     7
 48
50.0
100
AcDbLine
 10
13187.2
 20
400.0
 30
0.0
 11
16227.2
 21
400.0
 31
0.0
  0
TEXT
  5
10B73
330
747D
100
AcDbEntity
  8
文字
 62
     7
 48
50.0
100
AcDbText
 10
13162.9790565769
 20
895.0906074299405
 30
0.0
 40
200.0
  1
外 形 図
  7
STYLE2
100
AcDbText
  0
TEXT
  5
10B74
330
747D
100
AcDbEntity
  8
文字
 62
     7
 48
50.0
100
AcDbText
 10
13201.43669998441
 20
477.2740661031255
 30
0.0
 40
160.0
  1
機種名
  7
STYLE2
100
AcDbText
  0
TEXT
  5
10B75
330
747D
100
AcDbEntity
  8
文字
 62
     7
 48
50.0
100
AcDbText
 10
13209.4053442172
 20
228.5435242569016
 30
0.0
 40
100.0
  1
○有効開口寸法 ： 685×1760(mm)
  7
STYLE2
100
AcDbText
  0
TEXT
  5
10B76
330
747D
100
AcDbEntity
  8
文字
 62
     7
 48
50.0
100
AcDbText
 10
13209.4053442172
 20
76.09434707649343
 30
0.0
 40
100.0
  1
○床面積 ： 5.81㎡(1.76坪) 　
  7
STYLE2
100
AcDbText
  0
TEXT
  5
10B79
330
747D
100
AcDbEntity
  8
文字
 62
     7
 48
50.0
100
AcDbText
 10
14524.131837222
 20
1031.557706291228
 30
0.0
 40
100.0
  1
NO.03     <縮尺> S=1/40
  7
STYLE2
100
AcDbText
  0
LINE
  5
10B7B
330
747D
100
AcDbEntity
  8
仕様書枠
 48
50.0
100
AcDbLine
 10
13107.2
 20
800.0
 30
0.0
 11
14251.2
 21
800.0
 31
0.0
  0
LINE
  5
10B88
330
747D
100
AcDbEntity
  8
仕様書枠
  6
Continuous
 48
50.0
100
AcDbLine
 10
14251.2
 20
1200.0
 30
0.0
 11
14251.2
 21
800.0
 31
0.0
  0
DIMENSION
  5
14E40
330
747D
100
AcDbEntity
  8
寸法
100
AcDbDimension
  2
*D1
 10
8112.590802131165
 20
9455.919510221145
 30
0.0
 11
8421.076083505406
 21
9455.919510221145
 31
0.0
 70
   160
 71
     5
 42
55.0
  3
INABA_S40G
100
AcDbAlignedDimension
 13
8057.590802131166
 23
9240.111290596164
 33
0.0
 14
8112.590802131165
 24
9240.111290596164
 34
0.0
100
AcDbRotatedDimension
1001
ACAD
1000
DSTYLE
1002
{
1002
}
  0
LINE
  5
14E41
330
747D
100
AcDbEntity
  8
細線
 48
50.0
100
AcDbLine
 10
8083.590808808761
 20
9210.611290596142
 30
0.0
 11
7191.590808808761
 21
8760.61129059604
 31
0.0
  0
LINE
  5
14E42
330
747D
100
AcDbEntity
  8
細線
 48
50.0
100
AcDbLine
 10
8083.590808808761
 20
8760.611290596143
 30
0.0
 11
7191.590808808761
 21
9210.611290596039
 31
0.0
  0
LINE
  5
14E43
330
747D
100
AcDbEntity
  8
部品1
100
AcDbLine
 10
7191.590808808761
 20
8760.61129059604
 30
0.0
 11
8083.590808808761
 21
8760.611290596143
 31
0.0
  0
LINE
  5
14E44
330
747D
100
AcDbEntity
  8
部品1
100
AcDbLine
 10
4312.590802131162
 20
9240.111290596068
 30
0.0
 11
8112.590802131165
 21
9240.111290596164
 31
0.0
  0
LINE
  5
14E45
330
747D
100
AcDbEntity
  8
部品1
100
AcDbLine
 10
7191.590808808761
 20
9210.611290596039
 30
0.0
 11
8083.590808808761
 21
9210.611290596149
 31
0.0
  0
LINE
  5
14E46
330
747D
100
AcDbEntity
  8
部品1
100
AcDbLine
 10
7190.590802131089
 20
9212.111290596112
 30
0.0
 11
8084.590802131165
 21
9212.111290596164
 31
0.0
  0
DIMENSION
  5
14E47
330
747D
100
AcDbEntity
  8
寸法
100
AcDbDimension
  2
*D2
 10
8057.590802131164
 20
9455.919510221168
 30
0.0
 11
7637.590802131163
 21
9455.919510221168
 31
0.0
 70
   160
  1
2X420=<>
 71
     5
 42
840.0
  3
INABA_S40G
100
AcDbAlignedDimension
 13
7217.590802131162
 23
9240.111290596098
 33
0.0
 14
8057.590802131164
 24
9240.111290596185
 34
0.0
100
AcDbRotatedDimension
1001
ACAD
1000
DSTYLE
1002
{
1002
}
  0
LINE
  5
14E48
330
747D
100
AcDbEntity
  8
部品1
 48
50.0
100
AcDbLine
 10
8084.59080213114
 20
7812.592225403751
 30
0.0
 11
8056.089830706346
 21
7841.611396309002
 31
0.0
  0
LINE
  5
14E49
330
747D
100
AcDbEntity
  8
部品1
 48
2.83
100
AcDbLine
 10
8080.590802131141
 20
7765.11129059612
 30
0.0
 11
8057.590802131141
 21
7765.11129059612
 31
0.0
  0
LINE
  5
14E4A
330
747D
100
AcDbEntity
  8
部品1
 48
5.0
100
AcDbLine
 10
8069.590802131141
 20
7739.611290596106
 30
0.0
 11
7186.59080213116
 21
7739.611290596106
 31
0.0
  0
LINE
  5
14E4B
330
747D
100
AcDbEntity
  8
部品1
100
AcDbLine
 10
8112.590802131141
 20
7710.111290596149
 30
0.0
 11
5262.590802131159
 21
7710.111290596055
 31
0.0
  0
DIMENSION
  5
14E4C
330
747D
100
AcDbEntity
  8
寸法
100
AcDbDimension
  2
*D3
 10
8112.590802131141
 20
6723.009415735913
 30
0.0
 11
6212.590802131149
 21
6723.009415735913
 31
0.0
 70
   160
 71
     5
 42
3799.999999999982
  3
INABA_S40G
100
AcDbAlignedDimension
 13
4312.590802131158
 23
7710.111290595989
 33
0.0
 14
8112.590802131141
 24
7710.11129059612
 34
0.0
100
AcDbRotatedDimension
1001
ACAD
1000
DSTYLE
1002
{
1002
}
  0
LINE
  5
14E4E
330
747D
100
AcDbEntity
  8
部品1
 48
50.0
100
AcDbLine
 10
7191.590808808761
 20
9210.611290596032
 30
0.0
 11
7191.590808808761
 21
8760.61129059604
 31
0.0
  0
LINE
  5
14E4F
330
747D
100
AcDbEntity
  8
部品1
 48
50.0
100
AcDbLine
 10
7133.590808808761
 20
9210.611290596142
 30
0.0
 11
7133.590808808761
 21
8760.611290596143
 31
0.0
  0
LINE
  5
14E50
330
747D
100
AcDbEntity
  8
部品1
 48
50.0
100
AcDbLine
 10
5291.590808808759
 20
9210.611290596032
 30
0.0
 11
5291.590808808759
 21
8760.61129059604
 31
0.0
  0
LINE
  5
14E51
330
747D
100
AcDbEntity
  8
部品1
 48
50.0
100
AcDbLine
 10
5233.590808808759
 20
9210.611290596142
 30
0.0
 11
5233.590808808759
 21
8760.611290596143
 31
0.0
  0
LINE
  5
14E52
330
747D
100
AcDbEntity
  8
細線
 48
50.0
100
AcDbLine
 10
7133.590808808761
 20
8760.611290596143
 30
0.0
 11
6241.590808808759
 21
9210.611290596039
 31
0.0
  0
LINE
  5
14E53
330
747D
100
AcDbEntity
  8
細線
 48
50.0
100
AcDbLine
 10
7133.590808808761
 20
9210.611290596142
 30
0.0
 11
6241.590808808759
 21
8760.61129059604
 31
0.0
  0
LINE
  5
14E54
330
747D
100
AcDbEntity
  8
部品1
 48
50.0
100
AcDbLine
 10
4341.590808808759
 20
9210.611290596032
 30
0.0
 11
4341.590808808759
 21
8760.61129059604
 31
0.0
  0
LINE
  5
14E55
330
747D
100
AcDbEntity
  8
細線
 48
50.0
100
AcDbLine
 10
5233.590808808759
 20
8760.611290596143
 30
0.0
 11
4341.590808808759
 21
9210.611290596039
 31
0.0
  0
LINE
  5
14E56
330
747D
100
AcDbEntity
  8
細線
 48
50.0
100
AcDbLine
 10
5233.590808808759
 20
9210.611290596142
 30
0.0
 11
4341.590808808759
 21
8760.61129059604
 31
0.0
  0
LINE
  5
14E57
330
747D
100
AcDbEntity
  8
部品1
 48
50.0
100
AcDbLine
 10
7162.590802131145
 20
7765.111290596106
 30
0.0
 11
7162.590802131145
 21
9185.111290596113
 31
0.0
  0
LINE
  5
14E58
330
747D
100
AcDbEntity
  8
部品1
 48
50.0
100
AcDbLine
 10
7134.590802131144
 20
7765.111290596106
 30
0.0
 11
7134.59080213109
 21
9212.111290596112
 31
0.0
  0
LINE
  5
14E59
330
747D
100
AcDbEntity
  8
部品1
 48
50.0
100
AcDbLine
 10
7190.590802131144
 20
7765.111290596106
 30
0.0
 11
7190.590802131089
 21
9240.111290596113
 31
0.0
  0
LINE
  5
14E5A
330
747D
100
AcDbEntity
  8
部品1
 48
50.0
100
AcDbLine
 10
5262.590802131144
 20
7765.111290596106
 30
0.0
 11
5262.590802131144
 21
9185.111290596113
 31
0.0
  0
LINE
  5
14E5B
330
747D
100
AcDbEntity
  8
部品1
 48
50.0
100
AcDbLine
 10
5234.590802131144
 20
7765.111290596106
 30
0.0
 11
5234.59080213109
 21
9212.111290596112
 31
0.0
  0
LINE
  5
14E5C
330
747D
100
AcDbEntity
  8
部品1
 48
50.0
100
AcDbLine
 10
5290.590802131145
 20
7765.111290596106
 30
0.0
 11
5290.59080213109
 21
9240.111290596113
 31
0.0
  0
LINE
  5
14E5D
330
747D
100
AcDbEntity
  8
部品1
100
AcDbLine
 10
4312.590802131129
 20
9240.111290596033
 30
0.0
 11
4312.590802131158
 21
7710.111290596024
 31
0.0
  0
LINE
  5
14E5E
330
747D
100
AcDbEntity
  8
部品1
100
AcDbLine
 10
4340.59080213114
 20
7765.111290596017
 30
0.0
 11
4340.590802131162
 21
9212.111290596068
 31
0.0
  0
LINE
  5
14E5F
330
747D
100
AcDbEntity
  8
破線
 48
10.0
100
AcDbLine
 10
4369.091404762963
 20
8537.610993070542
 30
0.0
 11
5207.090802131126
 21
8537.6109716049
 31
0.0
  0
LINE
  5
14E60
330
747D
100
AcDbEntity
  8
破線
 48
10.0
100
AcDbLine
 10
4369.091430625049
 20
8487.610993070553
 30
0.0
 11
5207.090802131126
 21
8487.610971604899
 31
0.0
  0
LINE
  5
14E61
330
747D
100
AcDbEntity
  8
部品1
100
AcDbLine
 10
4341.590808808759
 20
8760.61129059604
 30
0.0
 11
5233.590808808759
 21
8760.611290596143
 31
0.0
  0
LINE
  5
14E62
330
747D
100
AcDbEntity
  8
破線
 48
10.0
100
AcDbLine
 10
5183.590802131152
 20
7865.111290596091
 30
0.0
 11
4392.590802131151
 21
7865.111290596075
 31
0.0
  0
LINE
  5
14E63
330
747D
100
AcDbEntity
  8
部品1
100
AcDbLine
 10
5313.590802131159
 20
7710.111290596055
 30
0.0
 11
4312.590802131158
 21
7710.111290596024
 31
0.0
  0
LINE
  5
14E64
330
747D
100
AcDbEntity
  8
部品1
 48
5.0
100
AcDbLine
 10
4355.590802131159
 20
7739.611290595989
 30
0.0
 11
5238.59080213116
 21
7739.611290596048
 31
0.0
  0
DIMENSION
  5
14E65
330
747D
100
AcDbEntity
  8
寸法
 48
50.0
100
AcDbDimension
  2
*D4
 10
7902.590802131155
 20
7270.287622800984
 30
0.0
 11
7560.09080213116
 21
7270.287622800984
 31
0.0
 70
   160
  1
有効開口部間口\P<>
 71
     5
 42
684.9999999999927
  3
INABA_S40G
100
AcDbAlignedDimension
 13
7217.590802131162
 23
7710.111290596062
 33
0.0
 14
7902.590802131155
 24
7710.111290596024
 34
0.0
100
AcDbRotatedDimension
  0
LINE
  5
14E66
330
747D
100
AcDbEntity
  8
部品1
100
AcDbLine
 10
5087.590802131155
 20
7736.11129059612
 30
0.0
 11
4357.590802131158
 21
7736.111290596091
 31
0.0
  0
LINE
  5
14E67
330
747D
100
AcDbEntity
  8
部品1
100
AcDbLine
 10
5207.091372579322
 20
7841.610709776148
 30
0.0
 11
4369.091773557553
 21
7841.610208287623
 31
0.0
  0
ARC
  5
14E68
330
747D
100
AcDbEntity
  8
想像線
 48
10.0
100
AcDbCircle
 10
5080.238751453995
 20
7711.80618397167
 30
0.0
 40
722.6499369155547
100
AcDbArc
 50
180.1343808685503
 51
270.5829222700355
  0
LINE
  5
14E6A
330
747D
100
AcDbEntity
  8
破線
 48
10.0
100
AcDbLine
 10
4392.590846799612
 20
8487.611005225437
 30
0.0
 11
4392.590802131151
 21
7865.111290596075
 31
0.0
  0
LINE
  5
14E6B
330
747D
100
AcDbEntity
  8
部品1
 48
5.0
100
AcDbLine
 10
4369.091773556124
 20
7841.611290596164
 30
0.0
 11
4369.091280624808
 21
8760.611290596077
 31
0.0
  0
LINE
  5
14E6C
330
747D
100
AcDbEntity
  8
部品1
 48
50.0
100
AcDbLine
 10
4369.091773557553
 20
7841.610208287623
 30
0.0
 11
4340.59080213114
 21
7812.591037355161
 31
0.0
  0
LINE
  5
14E6D
330
747D
100
AcDbEntity
  8
部品1
100
AcDbLine
 10
4340.590802131155
 20
7765.111290596033
 30
0.0
 11
4312.590802131155
 21
7765.111290596033
 31
0.0
  0
LINE
  5
14E6E
330
747D
100
AcDbEntity
  8
部品1
100
AcDbLine
 10
4340.59080213114
 20
7765.111290596017
 30
0.0
 11
4312.590802131155
 21
7765.111290596017
 31
0.0
  0
LINE
  5
14E6F
330
747D
100
AcDbEntity
  8
部品1
100
AcDbLine
 10
4340.59080213114
 20
7765.111290595989
 30
0.0
 11
4312.590802131155
 21
7765.111290595989
 31
0.0
  0
LINE
  5
14E70
330
747D
100
AcDbEntity
  8
部品1
 48
2.83
100
AcDbLine
 10
4344.590802131159
 20
7765.111290595989
 30
0.0
 11
4367.590802131159
 21
7765.111290595989
 31
0.0
  0
LINE
  5
14E71
330
747D
100
AcDbEntity
  8
部品1
 48
2.83
100
AcDbLine
 10
4312.590802131158
 20
7765.111290595989
 30
0.0
 11
4335.590802131159
 21
7765.111290595989
 31
0.0
  0
LINE
  5
14E72
330
747D
100
AcDbEntity
  8
部品1
 48
2.83
100
AcDbLine
 10
4355.590802131159
 20
7710.111290595989
 30
0.0
 11
4312.590802131158
 21
7710.111290595989
 31
0.0
  0
LINE
  5
14E73
330
747D
100
AcDbEntity
  8
部品1
 48
2.83
100
AcDbLine
 10
4355.590802131159
 20
7739.611290595989
 30
0.0
 11
4355.590802131159
 21
7710.111290595989
 31
0.0
  0
LINE
  5
14E74
330
747D
100
AcDbEntity
  8
部品1
100
AcDbLine
 10
4357.590802131158
 20
7736.111290596127
 30
0.0
 11
4357.590802131158
 21
7710.11129059609
 31
0.0
  0
LINE
  5
14E75
330
747D
100
AcDbEntity
  8
部品1
100
AcDbLine
 10
4312.590802131155
 20
7765.111290595989
 30
0.0
 11
4312.590802131158
 21
7710.111290595989
 31
0.0
  0
LINE
  5
14E76
330
747D
100
AcDbEntity
  8
部品1
 48
2.83
100
AcDbLine
 10
4367.590802131159
 20
7765.111290595989
 30
0.0
 11
4367.590802131163
 21
7739.611290595989
 31
0.0
  0
LINE
  5
14E77
330
747D
100
AcDbEntity
  8
部品1
 48
2.83
100
AcDbLine
 10
4312.590802131158
 20
7710.111290595989
 30
0.0
 11
4312.590802131158
 21
7765.111290595989
 31
0.0
  0
LINE
  5
14E78
330
747D
100
AcDbEntity
  8
部品1
100
AcDbLine
 10
4340.59080213114
 20
8185.111290596033
 30
0.0
 11
4312.590802131141
 21
8185.111290596033
 31
0.0
  0
LINE
  5
14E79
330
747D
100
AcDbEntity
  8
破線
 48
10.0
100
AcDbLine
 10
4392.590867055864
 20
8760.611290596077
 30
0.0
 11
4392.590850292065
 21
8537.611005225434
 31
0.0
  0
LINE
  5
14E7A
330
747D
100
AcDbEntity
  8
部品1
100
AcDbLine
 10
4340.59080213114
 20
8765.111290596033
 30
0.0
 11
4312.590802131141
 21
8765.111290596033
 31
0.0
  0
LINE
  5
14E7B
330
747D
100
AcDbEntity
  8
想像線
 48
10.0
100
AcDbLine
 10
7937.590802131156
 20
7710.111290596113
 30
0.0
 11
7937.590802131156
 21
6989.193646940323
 31
0.0
  0
LINE
  5
14E7D
330
747D
100
AcDbEntity
  8
想像線
 48
10.0
100
AcDbLine
 10
6987.590802131156
 20
7710.111290596106
 30
0.0
 11
6987.590802131156
 21
6989.193646940314
 31
0.0
  0
LINE
  5
14E7E
330
747D
100
AcDbEntity
  8
想像線
 48
10.0
100
AcDbLine
 10
5087.590802131155
 20
7710.111290596106
 30
0.0
 11
5087.590802131155
 21
6989.193646940314
 31
0.0
  0
ARC
  5
14E7F
330
747D
100
AcDbEntity
  8
想像線
 48
10.0
100
AcDbCircle
 10
6980.238751453994
 20
7711.806183971669
 30
0.0
 40
722.6499369155536
100
AcDbArc
 50
180.1343808685451
 51
270.5829222700355
  0
ARC
  5
14E81
330
747D
100
AcDbEntity
  8
想像線
 48
10.0
100
AcDbCircle
 10
7930.238751453997
 20
7711.80618397169
 30
0.0
 40
722.649936915561
100
AcDbArc
 50
180.1343808685485
 51
270.5829222700353
  0
TEXT
  5
14E82
330
747D
100
AcDbEntity
  8
部品1
100
AcDbText
 10
5919.725011032202
 20
6179.639072577753
 30
0.0
 40
135.0
  1
平面図
  7
STYLE2
100
AcDbText
  0
LWPOLYLINE
  5
14E83
330
747D
100
AcDbEntity
  8
部品1
100
AcDbPolyline
 90
        4
 70
     1
 43
0.0
 10
5829.805401203164
 20
6372.53260179628
 10
5829.805401203164
 20
6132.640280250743
 10
6593.276067431606
 20
6132.640280250743
 10
6593.276067431606
 20
6372.53260179628
  0
LINE
  5
14E84
330
747D
100
AcDbEntity
  8
破線
 48
10.0
100
AcDbLine
 10
6268.090797855071
 20
8487.611000870661
 30
0.0
 11
7107.090802131127
 21
8487.610966238831
 31
0.0
  0
LINE
  5
14E85
330
747D
100
AcDbEntity
  8
破線
 48
10.0
100
AcDbLine
 10
6268.090797855071
 20
8537.61100087066
 30
0.0
 11
7107.090802131127
 21
8537.61096623883
 31
0.0
  0
LINE
  5
14E86
330
747D
100
AcDbEntity
  8
部品1
100
AcDbLine
 10
6241.590808808759
 20
8760.61129059604
 30
0.0
 11
7133.590808808761
 21
8760.611290596143
 31
0.0
  0
LINE
  5
14E87
330
747D
100
AcDbEntity
  8
破線
 48
10.0
100
AcDbLine
 10
7083.590802131151
 20
7865.111290596113
 30
0.0
 11
6291.590802131151
 21
7865.111290596098
 31
0.0
  0
LINE
  5
14E88
330
747D
100
AcDbEntity
  8
部品1
100
AcDbLine
 10
6987.590802131156
 20
7736.111290596149
 30
0.0
 11
6257.590802131159
 21
7736.111290596127
 31
0.0
  0
LINE
  5
14E89
330
747D
100
AcDbEntity
  8
部品1
100
AcDbLine
 10
7107.090802131141
 20
7841.611290596112
 30
0.0
 11
6268.090308877261
 21
7841.610788398641
 31
0.0
  0
LINE
  5
14E8A
330
747D
100
AcDbEntity
  8
部品1
 48
5.0
100
AcDbLine
 10
6236.590802131159
 20
7739.611290596048
 30
0.0
 11
7138.590802131159
 21
7739.611290596106
 31
0.0
  0
LINE
  5
14E8C
330
747D
100
AcDbEntity
  8
部品1
 48
50.0
100
AcDbLine
 10
4787.090802131151
 20
8760.611290596092
 30
0.0
 11
4787.090639259047
 21
7841.610458432893
 31
0.0
  0
LINE
  5
14E8D
330
747D
100
AcDbEntity
  8
破線
 48
10.0
100
AcDbLine
 10
5183.590802131152
 20
7865.111290596113
 30
0.0
 11
5183.590796383185
 21
8487.610972574918
 31
0.0
  0
LINE
  5
14E8E
330
747D
100
AcDbEntity
  8
部品1
 48
50.0
100
AcDbLine
 10
5207.090802131141
 20
7841.611290596112
 30
0.0
 11
5207.090802131119
 21
8760.611290596171
 31
0.0
  0
LINE
  5
14E8F
330
747D
100
AcDbEntity
  8
破線
 48
10.0
100
AcDbLine
 10
5341.590802131151
 20
7865.11129059612
 30
0.0
 11
5341.590793578497
 21
8487.61099990064
 31
0.0
  0
LINE
  5
14E90
330
747D
100
AcDbEntity
  8
部品1
 48
50.0
100
AcDbLine
 10
5318.090795786854
 20
7841.611290620772
 30
0.0
 11
5318.09079875972
 21
8760.611290596113
 31
0.0
  0
LINE
  5
14E91
330
747D
100
AcDbEntity
  8
部品1
 48
50.0
100
AcDbLine
 10
6687.090802131152
 20
8760.611290596092
 30
0.0
 11
6687.090639259048
 21
7841.610458432893
 31
0.0
  0
LINE
  5
14E92
330
747D
100
AcDbEntity
  8
部品1
100
AcDbLine
 10
5087.590802131155
 20
7736.111290596156
 30
0.0
 11
5087.590802131155
 21
7710.111290596099
 31
0.0
  0
ARC
  5
14E93
330
747D
100
AcDbEntity
  8
部品1
 48
0.2
100
AcDbCircle
 10
5079.653249959836
 20
7711.108920551327
 30
0.0
 40
8.0
100
AcDbArc
 50
270.0
 51
352.8363522778074
  0
ARC
  5
14E94
330
747D
100
AcDbEntity
  8
部品1
 48
0.2
100
AcDbCircle
 10
5074.653249959836
 20
7711.108920551327
 30
0.0
 40
8.0
100
AcDbArc
 50
187.1636477221926
 51
269.9999999999992
  0
ARC
  5
14E95
330
747D
100
AcDbEntity
  8
細線
 48
0.2
100
AcDbCircle
 10
5079.653249959836
 20
7711.108920551327
 30
0.0
 40
4.049999999999999
100
AcDbArc
 50
194.2603506853988
 51
345.7396493146012
  0
LINE
  5
14E96
330
747D
100
AcDbEntity
  8
部品1
 48
0.2
100
AcDbLine
 10
5074.653249959836
 20
7703.108920551327
 30
0.0
 11
5079.653249959836
 21
7703.108920551327
 31
0.0
  0
LINE
  5
14E97
330
747D
100
AcDbEntity
  8
部品1
 48
5.0
100
AcDbLine
 10
5089.590802131159
 20
7739.611290596106
 30
0.0
 11
5089.590802131159
 21
7710.111290596106
 31
0.0
  0
LINE
  5
14E98
330
747D
100
AcDbEntity
  8
部品1
 48
50.0
100
AcDbLine
 10
5318.090802131141
 20
7841.611290620779
 30
0.0
 11
5290.590802131145
 21
7813.611290596106
 31
0.0
  0
LINE
  5
14E99
330
747D
100
AcDbEntity
  8
部品1
 48
5.0
100
AcDbLine
 10
5294.590802131159
 20
7765.111290596106
 30
0.0
 11
5317.590802131159
 21
7765.111290596106
 31
0.0
  0
LINE
  5
14E9A
330
747D
100
AcDbEntity
  8
部品1
 48
5.0
100
AcDbLine
 10
5234.590802131144
 20
7765.111290596106
 30
0.0
 11
5290.590802131145
 21
7765.111290596106
 31
0.0
  0
LINE
  5
14E9B
330
747D
100
AcDbEntity
  8
部品1
 48
5.0
100
AcDbLine
 10
5230.590802131159
 20
7765.111290596106
 30
0.0
 11
5207.590802131159
 21
7765.111290596106
 31
0.0
  0
LINE
  5
14E9C
330
747D
100
AcDbEntity
  8
部品1
 48
50.0
100
AcDbLine
 10
5234.590802131144
 20
7813.611290596106
 30
0.0
 11
5207.090802131141
 21
7841.611290596112
 31
0.0
  0
LINE
  5
14E9D
330
747D
100
AcDbEntity
  8
部品1
100
AcDbLine
 10
5307.590802131159
 20
7736.111290596127
 30
0.0
 11
5307.590802131159
 21
7710.11129059609
 31
0.0
  0
LINE
  5
14E9E
330
747D
100
AcDbEntity
  8
部品1
100
AcDbLine
 10
5305.590802131159
 20
7739.611290596055
 30
0.0
 11
5305.590802131159
 21
7710.111290596106
 31
0.0
  0
LINE
  5
14E9F
330
747D
100
AcDbEntity
  8
部品1
 48
5.0
100
AcDbLine
 10
5305.590802131159
 20
7739.611290596106
 30
0.0
 11
5305.590802131159
 21
7710.111290596106
 31
0.0
  0
LINE
  5
14EA0
330
747D
100
AcDbEntity
  8
部品1
100
AcDbLine
 10
5219.590802131155
 20
7739.611290596048
 30
0.0
 11
5219.590802131155
 21
7710.111290596099
 31
0.0
  0
LINE
  5
14EA1
330
747D
100
AcDbEntity
  8
部品1
 48
5.0
100
AcDbLine
 10
5219.590802131159
 20
7739.611290596106
 30
0.0
 11
5219.590802131159
 21
7710.111290596106
 31
0.0
  0
LINE
  5
14EA2
330
747D
100
AcDbEntity
  8
部品1
 48
5.0
100
AcDbLine
 10
5219.590802131159
 20
7710.111290596106
 30
0.0
 11
5305.590802131159
 21
7710.111290596106
 31
0.0
  0
LINE
  5
14EA3
330
747D
100
AcDbEntity
  8
部品1
 48
5.0
100
AcDbLine
 10
5207.590802131159
 20
7765.111290596106
 30
0.0
 11
5207.590802131162
 21
7739.611290596106
 31
0.0
  0
LINE
  5
14EA4
330
747D
100
AcDbEntity
  8
部品1
 48
5.0
100
AcDbLine
 10
5286.590802131162
 20
7765.111290596106
 30
0.0
 11
5286.590802131159
 21
7739.611290596106
 31
0.0
  0
LINE
  5
14EA5
330
747D
100
AcDbEntity
  8
部品1
 48
5.0
100
AcDbLine
 10
5238.59080213116
 20
7765.111290596106
 30
0.0
 11
5238.59080213116
 21
7739.611290596106
 31
0.0
  0
LINE
  5
14EA6
330
747D
100
AcDbEntity
  8
部品1
 48
5.0
100
AcDbLine
 10
5317.590802131159
 20
7765.111290596106
 30
0.0
 11
5317.590802131163
 21
7739.611290596106
 31
0.0
  0
LINE
  5
14EA7
330
747D
100
AcDbEntity
  8
部品1
 48
5.0
100
AcDbLine
 10
5262.590802131144
 20
8185.111290596106
 30
0.0
 11
5234.59080213109
 21
8185.111290596113
 31
0.0
  0
LINE
  5
14EA8
330
747D
100
AcDbEntity
  8
破線
 48
10.0
100
AcDbLine
 10
5341.5907929098
 20
8537.610999900641
 30
0.0
 11
5341.59078970004
 21
8760.611290596113
 31
0.0
  0
LINE
  5
14EA9
330
747D
100
AcDbEntity
  8
破線
 48
10.0
100
AcDbLine
 10
5183.590795933774
 20
8537.610972574922
 30
0.0
 11
5183.590793776598
 21
8760.611290596171
 31
0.0
  0
LINE
  5
14EAA
330
747D
100
AcDbEntity
  8
部品1
 48
50.0
100
AcDbLine
 10
5262.590802131133
 20
8803.111290596111
 30
0.0
 11
5290.590802131119
 21
8803.111290596111
 31
0.0
  0
LINE
  5
14EAB
330
747D
100
AcDbEntity
  8
部品1
 48
50.0
100
AcDbLine
 10
5262.590802131133
 20
8765.111290596113
 30
0.0
 11
5290.590802131119
 21
8765.111290596113
 31
0.0
  0
LINE
  5
14EAC
330
747D
100
AcDbEntity
  8
部品1
 48
5.0
100
AcDbLine
 10
5262.590802131144
 20
8765.111290596106
 30
0.0
 11
5234.59080213109
 21
8765.111290596113
 31
0.0
  0
LINE
  5
14EAD
330
747D
100
AcDbEntity
  8
破線
 48
10.0
100
AcDbLine
 10
8032.590846799587
 20
8487.610961884046
 30
0.0
 11
8032.590802131148
 21
7865.111290596157
 31
0.0
  0
LINE
  5
14EAE
330
747D
100
AcDbEntity
  8
破線
 48
10.0
100
AcDbLine
 10
7083.590802131151
 20
7865.111290596113
 30
0.0
 11
7083.590796383186
 21
8487.610967208849
 31
0.0
  0
LINE
  5
14EAF
330
747D
100
AcDbEntity
  8
破線
 48
10.0
100
AcDbLine
 10
7241.590802131153
 20
7865.11129059612
 30
0.0
 11
7241.5907935785
 21
8487.610994534561
 31
0.0
  0
LINE
  5
14EB0
330
747D
100
AcDbEntity
  8
部品1
 48
50.0
100
AcDbLine
 10
7218.090795786856
 20
7841.611290620772
 30
0.0
 11
7218.090798759721
 21
8760.611290596113
 31
0.0
  0
LINE
  5
14EB1
330
747D
100
AcDbEntity
  8
部品1
 48
50.0
100
AcDbLine
 10
7107.090802131141
 20
7841.611290596112
 30
0.0
 11
7107.090802131118
 21
8760.611290596171
 31
0.0
  0
LINE
  5
14EB2
330
747D
100
AcDbEntity
  8
部品1
 48
50.0
100
AcDbLine
 10
7637.090802131152
 20
8760.611290596092
 30
0.0
 11
7637.090639259048
 21
7841.610458432893
 31
0.0
  0
LINE
  5
14EB3
330
747D
100
AcDbEntity
  8
部品1
 48
5.0
100
AcDbLine
 10
8056.089830706209
 20
7841.611290596164
 30
0.0
 11
8056.090323637519
 21
8760.611290596106
 31
0.0
  0
LINE
  5
14EB4
330
747D
100
AcDbEntity
  8
部品1
100
AcDbLine
 10
7937.590802131156
 20
7736.111290596156
 30
0.0
 11
7207.590802131154
 21
7736.111290596098
 31
0.0
  0
LINE
  5
14EB5
330
747D
100
AcDbEntity
  8
部品1
100
AcDbLine
 10
8056.089830706346
 20
7841.611396309002
 30
0.0
 11
7218.090802131141
 21
7841.611290620779
 31
0.0
  0
LINE
  5
14EB6
330
747D
100
AcDbEntity
  8
破線
 48
10.0
100
AcDbLine
 10
8032.59080213114
 20
7865.111290596157
 30
0.0
 11
7241.590802131153
 21
7865.11129059612
 31
0.0
  0
LINE
  5
14EB7
330
747D
100
AcDbEntity
  8
部品1
100
AcDbLine
 10
6987.590802131156
 20
7736.111290596156
 30
0.0
 11
6987.590802131156
 21
7710.111290596099
 31
0.0
  0
ARC
  5
14EB8
330
747D
100
AcDbEntity
  8
部品1
 48
0.2
100
AcDbCircle
 10
6979.653249959835
 20
7711.108920551327
 30
0.0
 40
8.0
100
AcDbArc
 50
270.0
 51
352.8363522778074
  0
ARC
  5
14EB9
330
747D
100
AcDbEntity
  8
細線
 48
0.2
100
AcDbCircle
 10
6979.653249959835
 20
7711.108920551327
 30
0.0
 40
4.049999999999999
100
AcDbArc
 50
194.2603506853988
 51
345.7396493146012
  0
LINE
  5
14EBA
330
747D
100
AcDbEntity
  8
部品1
 48
0.2
100
AcDbLine
 10
6974.653249959835
 20
7703.108920551327
 30
0.0
 11
6979.653249959835
 21
7703.108920551327
 31
0.0
  0
LINE
  5
14EBB
330
747D
100
AcDbEntity
  8
部品1
 48
5.0
100
AcDbLine
 10
6989.590802131158
 20
7739.611290596106
 30
0.0
 11
6989.590802131158
 21
7710.111290596106
 31
0.0
  0
ARC
  5
14EBC
330
747D
100
AcDbEntity
  8
部品1
 48
0.2
100
AcDbCircle
 10
6974.653249959835
 20
7711.108920551327
 30
0.0
 40
8.0
100
AcDbArc
 50
187.1636477221926
 51
269.9999999999992
  0
LINE
  5
14EBD
330
747D
100
AcDbEntity
  8
部品1
 48
50.0
100
AcDbLine
 10
7218.090802131141
 20
7841.611290620779
 30
0.0
 11
7190.590802131144
 21
7813.611290596106
 31
0.0
  0
LINE
  5
14EBE
330
747D
100
AcDbEntity
  8
部品1
 48
50.0
100
AcDbLine
 10
7134.590802131144
 20
7813.611290596106
 30
0.0
 11
7107.090802131141
 21
7841.611290596112
 31
0.0
  0
LINE
  5
14EBF
330
747D
100
AcDbEntity
  8
部品1
 48
5.0
100
AcDbLine
 10
7134.590802131144
 20
7765.111290596106
 30
0.0
 11
7190.590802131144
 21
7765.111290596106
 31
0.0
  0
LINE
  5
14EC0
330
747D
100
AcDbEntity
  8
部品1
 48
5.0
100
AcDbLine
 10
7194.590802131159
 20
7765.111290596106
 30
0.0
 11
7217.590802131159
 21
7765.111290596106
 31
0.0
  0
LINE
  5
14EC1
330
747D
100
AcDbEntity
  8
部品1
 48
5.0
100
AcDbLine
 10
7130.590802131159
 20
7765.111290596106
 30
0.0
 11
7107.590802131159
 21
7765.111290596106
 31
0.0
  0
LINE
  5
14EC2
330
747D
100
AcDbEntity
  8
部品1
100
AcDbLine
 10
7205.590802131159
 20
7739.611290596055
 30
0.0
 11
7205.590802131159
 21
7710.111290596106
 31
0.0
  0
LINE
  5
14EC3
330
747D
100
AcDbEntity
  8
部品1
100
AcDbLine
 10
7207.590802131154
 20
7736.111290596098
 30
0.0
 11
7207.590802131154
 21
7710.111290596106
 31
0.0
  0
LINE
  5
14EC4
330
747D
100
AcDbEntity
  8
部品1
 48
5.0
100
AcDbLine
 10
7205.590802131159
 20
7739.611290596106
 30
0.0
 11
7205.590802131159
 21
7710.111290596106
 31
0.0
  0
LINE
  5
14EC5
330
747D
100
AcDbEntity
  8
部品1
100
AcDbLine
 10
7119.590802131155
 20
7739.611290596048
 30
0.0
 11
7119.590802131155
 21
7710.111290596099
 31
0.0
  0
LINE
  5
14EC6
330
747D
100
AcDbEntity
  8
部品1
 48
5.0
100
AcDbLine
 10
7119.59080213116
 20
7739.611290596106
 30
0.0
 11
7119.59080213116
 21
7710.111290596106
 31
0.0
  0
LINE
  5
14EC7
330
747D
100
AcDbEntity
  8
部品1
 48
5.0
100
AcDbLine
 10
7119.59080213116
 20
7710.111290596106
 30
0.0
 11
7205.590802131159
 21
7710.111290596106
 31
0.0
  0
LINE
  5
14EC8
330
747D
100
AcDbEntity
  8
部品1
 48
5.0
100
AcDbLine
 10
7217.590802131159
 20
7765.111290596106
 30
0.0
 11
7217.590802131162
 21
7739.611290596106
 31
0.0
  0
LINE
  5
14EC9
330
747D
100
AcDbEntity
  8
部品1
 48
5.0
100
AcDbLine
 10
7186.590802131163
 20
7765.111290596106
 30
0.0
 11
7186.59080213116
 21
7739.611290596106
 31
0.0
  0
LINE
  5
14ECA
330
747D
100
AcDbEntity
  8
部品1
 48
5.0
100
AcDbLine
 10
7138.590802131159
 20
7765.111290596106
 30
0.0
 11
7138.590802131159
 21
7739.611290596106
 31
0.0
  0
LINE
  5
14ECB
330
747D
100
AcDbEntity
  8
部品1
 48
5.0
100
AcDbLine
 10
7107.590802131159
 20
7765.111290596106
 30
0.0
 11
7107.590802131163
 21
7739.611290596106
 31
0.0
  0
LINE
  5
14ECC
330
747D
100
AcDbEntity
  8
部品1
 48
5.0
100
AcDbLine
 10
7162.590802131145
 20
8185.111290596106
 30
0.0
 11
7134.59080213109
 21
8185.111290596113
 31
0.0
  0
LINE
  5
14ECD
330
747D
100
AcDbEntity
  8
部品1
100
AcDbLine
 10
7937.590802131156
 20
7736.111290596156
 30
0.0
 11
7937.590802131158
 21
7710.111290596149
 31
0.0
  0
LINE
  5
14ECE
330
747D
100
AcDbEntity
  8
部品1
 48
0.2
100
AcDbLine
 10
7924.653249959836
 20
7703.108920551342
 30
0.0
 11
7929.653249959836
 21
7703.108920551342
 31
0.0
  0
ARC
  5
14ECF
330
747D
100
AcDbEntity
  8
部品1
 48
0.2
100
AcDbCircle
 10
7929.653249959836
 20
7711.108920551343
 30
0.0
 40
8.0
100
AcDbArc
 50
270.0
 51
352.8363522778074
  0
ARC
  5
14ED0
330
747D
100
AcDbEntity
  8
部品1
 48
0.2
100
AcDbCircle
 10
7924.653249959836
 20
7711.108920551343
 30
0.0
 40
8.0
100
AcDbArc
 50
187.1636477221926
 51
269.9999999999992
  0
ARC
  5
14ED1
330
747D
100
AcDbEntity
  8
細線
 48
0.2
100
AcDbCircle
 10
7929.653249959836
 20
7711.108920551343
 30
0.0
 40
4.049999999999999
100
AcDbArc
 50
194.2603506853988
 51
345.7396493146012
  0
LINE
  5
14ED2
330
747D
100
AcDbEntity
  8
部品1
 48
2.83
100
AcDbLine
 10
7939.590802131141
 20
7739.61129059612
 30
0.0
 11
7939.590802131141
 21
7710.11129059612
 31
0.0
  0
LINE
  5
14ED3
330
747D
100
AcDbEntity
  8
部品1
 48
2.83
100
AcDbLine
 10
8057.590802131141
 20
7765.11129059612
 30
0.0
 11
8057.590802131141
 21
7739.61129059612
 31
0.0
  0
LINE
  5
14ED4
330
747D
100
AcDbEntity
  8
破線
 48
10.0
100
AcDbLine
 10
7218.090797855068
 20
8537.610995504584
 30
0.0
 11
8056.090199499351
 21
8537.610960914051
 31
0.0
  0
LINE
  5
14ED5
330
747D
100
AcDbEntity
  8
破線
 48
10.0
100
AcDbLine
 10
7218.090797855068
 20
8487.610995504583
 30
0.0
 11
8056.090173637269
 21
8487.610960914052
 31
0.0
  0
LINE
  5
14ED6
330
747D
100
AcDbEntity
  8
破線
 48
10.0
100
AcDbLine
 10
7241.590792909803
 20
8537.610994534563
 30
0.0
 11
7241.590789700039
 21
8760.611290596113
 31
0.0
  0
LINE
  5
14ED7
330
747D
100
AcDbEntity
  8
破線
 48
10.0
100
AcDbLine
 10
7083.590795933772
 20
8537.61096720885
 30
0.0
 11
7083.5907937766
 21
8760.611290596171
 31
0.0
  0
LINE
  5
14ED8
330
747D
100
AcDbEntity
  8
部品1
 48
50.0
100
AcDbLine
 10
7162.590802131133
 20
8803.111290596111
 30
0.0
 11
7190.590802131119
 21
8803.111290596111
 31
0.0
  0
LINE
  5
14ED9
330
747D
100
AcDbEntity
  8
部品1
 48
50.0
100
AcDbLine
 10
7162.590802131133
 20
8765.111290596113
 30
0.0
 11
7190.590802131119
 21
8765.111290596113
 31
0.0
  0
LINE
  5
14EDA
330
747D
100
AcDbEntity
  8
部品1
 48
5.0
100
AcDbLine
 10
7162.590802131145
 20
8765.111290596106
 30
0.0
 11
7134.59080213109
 21
8765.111290596113
 31
0.0
  0
LINE
  5
14EDB
330
747D
100
AcDbEntity
  8
破線
 48
10.0
100
AcDbLine
 10
8032.590867055835
 20
8760.611290596113
 30
0.0
 11
8032.59085029204
 21
8537.610961884047
 31
0.0
  0
DIMENSION
  5
14EDC
330
747D
100
AcDbEntity
  8
寸法
100
AcDbDimension
  2
*D5
 10
4367.590802131163
 20
9455.91951022105
 30
0.0
 11
4004.10552075689
 21
9455.91951022105
 31
0.0
 70
   160
 71
     5
 42
55.00000000003274
  3
INABA_S40G
100
AcDbAlignedDimension
 13
4312.590802131129
 23
9240.111290596068
 33
0.0
 14
4367.590802131163
 24
9240.111290596068
 34
0.0
100
AcDbRotatedDimension
1001
ACAD
1000
DSTYLE
1002
{
1002
}
  0
LINE
  5
14EDD
330
747D
100
AcDbEntity
  8
部品1
100
AcDbLine
 10
4341.590808808759
 20
9210.611290596039
 30
0.0
 11
5233.590808808759
 21
9210.611290596149
 31
0.0
  0
LINE
  5
14EDE
330
747D
100
AcDbEntity
  8
部品1
100
AcDbLine
 10
4340.590802131162
 20
9212.111290596068
 30
0.0
 11
5259.971505149788
 21
9212.111290596091
 31
0.0
  0
DIMENSION
  5
14EDF
330
747D
100
AcDbEntity
  8
寸法
100
AcDbDimension
  2
*D6
 10
5207.590802131162
 20
9455.919510221168
 30
0.0
 11
4787.590802131162
 21
9455.919510221168
 31
0.0
 70
   160
  1
2X420=<>
 71
     5
 42
840.0
  3
INABA_S40G
100
AcDbAlignedDimension
 13
4367.590802131163
 23
9240.111290596098
 33
0.0
 14
5207.590802131162
 24
9240.111290596185
 34
0.0
100
AcDbRotatedDimension
1001
ACAD
1000
DSTYLE
1002
{
1002
}
  0
LINE
  5
14EE0
330
747D
100
AcDbEntity
  8
部品1
 48
50.0
100
AcDbLine
 10
4342.090808808753
 20
9210.611290596039
 30
0.0
 11
4340.59080213113
 21
9212.111290596032
 31
0.0
  0
LINE
  5
14EE1
330
747D
100
AcDbEntity
  8
部品1
100
AcDbLine
 10
4367.59080213113
 20
9240.111290596033
 30
0.0
 11
4367.590802131133
 21
9212.111290596032
 31
0.0
  0
LINE
  5
14EE2
330
747D
100
AcDbEntity
  8
部品1
100
AcDbLine
 10
4367.590802131163
 20
9240.111290596068
 30
0.0
 11
4367.590802131163
 21
9212.111290596068
 31
0.0
  0
LINE
  5
14EE3
330
747D
100
AcDbEntity
  8
部品1
100
AcDbLine
 10
4340.590802131133
 20
9185.11129059604
 30
0.0
 11
4312.590802131133
 21
9185.11129059604
 31
0.0
  0
LINE
  5
14EE4
330
747D
100
AcDbEntity
  8
部品1
100
AcDbLine
 10
6241.590808808759
 20
9210.611290596039
 30
0.0
 11
7133.590808808761
 21
9210.611290596149
 31
0.0
  0
LINE
  5
14EE5
330
747D
100
AcDbEntity
  8
部品1
100
AcDbLine
 10
6240.590802131112
 20
9212.111290596091
 30
0.0
 11
7159.971505149766
 21
9212.111290596112
 31
0.0
  0
DIMENSION
  5
14EE6
330
747D
100
AcDbEntity
  8
寸法
100
AcDbDimension
  2
*D7
 10
7107.590802131163
 20
9455.919510221168
 30
0.0
 11
6687.590802131163
 21
9455.919510221168
 31
0.0
 70
   160
  1
2X420=<>
 71
     5
 42
840.0
  3
INABA_S40G
100
AcDbAlignedDimension
 13
6267.590802131163
 23
9240.111290596098
 33
0.0
 14
7107.590802131163
 24
9240.111290596185
 34
0.0
100
AcDbRotatedDimension
1001
ACAD
1000
DSTYLE
1002
{
1002
}
  0
LINE
  5
14EE7
330
747D
100
AcDbEntity
  8
部品1
100
AcDbLine
 10
4787.090802131097
 20
9240.111290596026
 30
0.0
 11
4787.090802131097
 21
9212.111290596025
 31
0.0
  0
LINE
  5
14EE8
330
747D
100
AcDbEntity
  8
部品1
100
AcDbLine
 10
4787.09080213113
 20
9240.111290596061
 30
0.0
 11
4787.09080213113
 21
9212.111290596061
 31
0.0
  0
DIMENSION
  5
14EE9
330
747D
100
AcDbEntity
  8
寸法
 48
50.0
100
AcDbDimension
  2
*D8
 10
5317.590802131166
 20
9455.919510221168
 30
0.0
 11
5262.590802131166
 21
9707.652851170562
 31
0.0
 70
   160
 71
     5
 42
110.0000000000036
  3
INABA_S40G
100
AcDbAlignedDimension
 13
5207.590802131162
 23
9240.111290596185
 33
0.0
 14
5317.590802131166
 24
9240.111290596164
 34
0.0
100
AcDbRotatedDimension
1001
ACAD
1000
DSTYLE
1002
{
1070
   279
1070
     2
1002
}
  0
LINE
  5
14EEA
330
747D
100
AcDbEntity
  8
部品1
 48
50.0
100
AcDbLine
 10
5292.090808808753
 20
9210.611290596039
 30
0.0
 11
5290.59080213113
 21
9212.111290596032
 31
0.0
  0
LINE
  5
14EEB
330
747D
100
AcDbEntity
  8
部品1
 48
50.0
100
AcDbLine
 10
5233.143409619181
 20
9210.611290596149
 30
0.0
 11
5234.590802131057
 21
9212.111290596077
 31
0.0
  0
LINE
  5
14EEC
330
747D
100
AcDbEntity
  8
部品1
 48
5.0
100
AcDbLine
 10
5317.590802131166
 20
9240.111290596113
 30
0.0
 11
5317.590802131163
 21
9212.111290596119
 31
0.0
  0
LINE
  5
14EED
330
747D
100
AcDbEntity
  8
部品1
 48
5.0
100
AcDbLine
 10
5290.590802131093
 20
9185.111290596113
 30
0.0
 11
5234.59080213109
 21
9185.111290596113
 31
0.0
  0
LINE
  5
14EEE
330
747D
100
AcDbEntity
  8
部品1
 48
5.0
100
AcDbLine
 10
5237.300076578336
 20
9240.111290596113
 30
0.0
 11
5259.971505149766
 21
9212.111290596112
 31
0.0
  0
LINE
  5
14EEF
330
747D
100
AcDbEntity
  8
部品1
 48
5.0
100
AcDbLine
 10
5207.590802131162
 20
9212.111290596112
 30
0.0
 11
5207.590802131162
 21
9240.111290596113
 31
0.0
  0
DIMENSION
  5
14EF0
330
747D
100
AcDbEntity
  8
寸法
 48
50.0
100
AcDbDimension
  2
*D9
 10
7217.590802131166
 20
9455.919510221168
 30
0.0
 11
7162.590802131166
 21
9707.652851170562
 31
0.0
 70
   160
 71
     5
 42
110.0000000000036
  3
INABA_S40G
100
AcDbAlignedDimension
 13
7107.590802131163
 23
9240.111290596185
 33
0.0
 14
7217.590802131166
 24
9240.111290596164
 34
0.0
100
AcDbRotatedDimension
1001
ACAD
1000
DSTYLE
1002
{
1070
   279
1070
     2
1002
}
  0
LINE
  5
14EF1
330
747D
100
AcDbEntity
  8
部品1
 48
5.0
100
AcDbLine
 10
7107.590802131163
 20
9212.111290596112
 30
0.0
 11
7107.590802131163
 21
9240.111290596113
 31
0.0
  0
LINE
  5
14EF2
330
747D
100
AcDbEntity
  8
部品1
 48
50.0
100
AcDbLine
 10
7192.090808808753
 20
9210.611290596039
 30
0.0
 11
7190.59080213113
 21
9212.111290596032
 31
0.0
  0
LINE
  5
14EF3
330
747D
100
AcDbEntity
  8
部品1
 48
50.0
100
AcDbLine
 10
7133.143409619181
 20
9210.611290596149
 30
0.0
 11
7134.590802131057
 21
9212.111290596077
 31
0.0
  0
LINE
  5
14EF4
330
747D
100
AcDbEntity
  8
部品1
 48
5.0
100
AcDbLine
 10
7190.590802131094
 20
9185.111290596113
 30
0.0
 11
7134.59080213109
 21
9185.111290596113
 31
0.0
  0
LINE
  5
14EF5
330
747D
100
AcDbEntity
  8
部品1
 48
5.0
100
AcDbLine
 10
7137.300076578336
 20
9240.111290596113
 30
0.0
 11
7159.971505149766
 21
9212.111290596112
 31
0.0
  0
LINE
  5
14EF6
330
747D
100
AcDbEntity
  8
部品1
 48
5.0
100
AcDbLine
 10
7217.590802131166
 20
9240.111290596113
 30
0.0
 11
7217.590802131162
 21
9212.111290596119
 31
0.0
  0
LINE
  5
14EF7
330
747D
100
AcDbEntity
  8
部品1
100
AcDbLine
 10
8057.590802131166
 20
9240.111290596164
 30
0.0
 11
8057.590802131166
 21
9212.111290596164
 31
0.0
  0
LINE
  5
14EF8
330
747D
100
AcDbEntity
  8
部品1
100
AcDbLine
 10
8057.590802131166
 20
9240.111290596178
 30
0.0
 11
8057.590802131166
 21
9212.111290596178
 31
0.0
  0
LINE
  5
14EF9
330
747D
100
AcDbEntity
  8
部品1
 48
50.0
100
AcDbLine
 10
8083.590808808761
 20
9210.611290596142
 30
0.0
 11
8083.590808808761
 21
8760.611290596143
 31
0.0
  0
LINE
  5
14EFA
330
747D
100
AcDbEntity
  8
部品1
100
AcDbLine
 10
8112.590802131165
 20
9240.111290596164
 30
0.0
 11
8112.590802131141
 21
7710.111290596149
 31
0.0
  0
LINE
  5
14EFB
330
747D
100
AcDbEntity
  8
部品1
100
AcDbLine
 10
8084.590802131165
 20
9212.111290596164
 30
0.0
 11
8084.59080213114
 21
7765.111290596149
 31
0.0
  0
DIMENSION
  5
14EFC
330
747D
100
AcDbEntity
  8
寸法
100
AcDbDimension
  2
*D10
 10
8438.948534670801
 20
8665.393474927153
 30
0.0
 11
8438.948534670798
 21
8890.393474927142
 31
0.0
 70
   160
 71
     5
 42
449.9999999999927
  3
INABA_S40G
100
AcDbAlignedDimension
 13
8083.590808808775
 23
9210.611290596032
 33
0.0
 14
8083.590808808782
 24
8760.61129059604
 34
0.0
 50
90.0
100
AcDbRotatedDimension
1001
ACAD
1000
DSTYLE
1002
{
1002
}
  0
DIMENSION
  5
14EFE
330
747D
100
AcDbEntity
  8
寸法
100
AcDbDimension
  2
*D11
 10
9069.128678681254
 20
7710.111290596149
 30
0.0
 11
9069.128678681252
 21
8475.111290596156
 31
0.0
 70
   160
 71
     5
 42
1530.000000000014
  3
INABA_S40G
100
AcDbAlignedDimension
 13
8112.590802131165
 23
9240.111290596164
 33
0.0
 14
8112.590802131141
 24
7710.111290596149
 34
0.0
 50
90.0
100
AcDbRotatedDimension
1001
ACAD
1000
DSTYLE
1002
{
1002
}
  0
DIMENSION
  5
14EFF
330
747D
100
AcDbEntity
  8
寸法
100
AcDbDimension
  2
*D12
 10
8760.017147865552
 20
7710.111290596149
 30
0.0
 11
8760.01714786555
 21
7332.249823691288
 31
0.0
 70
   160
 71
     5
 42
55.0
  3
INABA_S40G
100
AcDbAlignedDimension
 13
8112.590802131141
 23
7765.111290596149
 33
0.0
 14
8112.590802131141
 24
7710.111290596149
 34
0.0
 50
90.0
100
AcDbRotatedDimension
1001
ACAD
1000
DSTYLE
1002
{
1002
}
  0
LINE
  5
14F00
330
747D
100
AcDbEntity
  8
部品1
100
AcDbLine
 10
8084.590802131172
 20
7765.111290596164
 30
0.0
 11
8112.590802131173
 21
7765.111290596164
 31
0.0
  0
LINE
  5
14F01
330
747D
100
AcDbEntity
  8
部品1
100
AcDbLine
 10
8084.59080213114
 20
7765.111290596149
 30
0.0
 11
8112.590802131141
 21
7765.111290596149
 31
0.0
  0
LINE
  5
14F02
330
747D
100
AcDbEntity
  8
部品1
 48
2.83
100
AcDbLine
 10
8112.590802131141
 20
7765.11129059612
 30
0.0
 11
8089.590802131141
 21
7765.11129059612
 31
0.0
  0
LINE
  5
14F03
330
747D
100
AcDbEntity
  8
部品1
 48
2.83
100
AcDbLine
 10
8069.590802131141
 20
7739.61129059612
 30
0.0
 11
8069.590802131141
 21
7710.11129059612
 31
0.0
  0
LINE
  5
14F04
330
747D
100
AcDbEntity
  8
部品1
100
AcDbLine
 10
8084.590802131165
 20
8185.111290596164
 30
0.0
 11
8112.590802131165
 21
8185.111290596164
 31
0.0
  0
LINE
  5
14F05
330
747D
100
AcDbEntity
  8
部品1
100
AcDbLine
 10
8084.590802131165
 20
8765.111290596165
 30
0.0
 11
8112.590802131165
 21
8765.111290596165
 31
0.0
  0
DIMENSION
  5
14F06
330
747D
100
AcDbEntity
  8
寸法
100
AcDbDimension
  2
*D13
 10
8760.017147865578
 20
9185.111290596164
 30
0.0
 11
8760.017147865575
 21
9548.596571970405
 31
0.0
 70
   160
 71
     5
 42
55.0
  3
INABA_S40G
100
AcDbAlignedDimension
 13
8112.590802131165
 23
9240.111290596164
 33
0.0
 14
8112.590802131165
 24
9185.111290596164
 34
0.0
 50
90.0
100
AcDbRotatedDimension
1001
ACAD
1000
DSTYLE
1002
{
1002
}
  0
LINE
  5
14F07
330
747D
100
AcDbEntity
  8
部品1
 48
50.0
100
AcDbLine
 10
8083.14340961918
 20
9210.611290596149
 30
0.0
 11
8084.590802131058
 21
9212.111290596077
 31
0.0
  0
LINE
  5
14F08
330
747D
100
AcDbEntity
  8
部品1
100
AcDbLine
 10
8084.590802131165
 20
9185.111290596164
 30
0.0
 11
8112.590802131165
 21
9185.111290596164
 31
0.0
  0
DIMENSION
  5
15249
330
747D
100
AcDbEntity
  8
寸法
 48
50.0
100
AcDbDimension
  2
*D14
 10
8760.017147865575
 20
8765.111290596165
 30
0.0
 11
8660.005336841953
 21
8975.111290596165
 31
0.0
 70
    32
 71
     5
 42
420.0
  3
INABA_S40G
100
AcDbAlignedDimension
 13
8112.590802131165
 23
9185.111290596164
 33
0.0
 14
8112.590802131165
 24
8765.111290596165
 34
0.0
 50
90.0
100
AcDbRotatedDimension
  0
DIMENSION
  5
15256
330
747D
100
AcDbEntity
  8
寸法
 48
50.0
100
AcDbDimension
  2
*D15
 10
8760.017147865575
 20
8185.111290596164
 30
0.0
 11
8660.017147865573
 21
8475.111290596165
 31
0.0
 70
    32
 71
     5
 42
580.0
  3
INABA_S40G
100
AcDbAlignedDimension
 13
8112.590802131165
 23
8765.111290596165
 33
0.0
 14
8112.590802131165
 24
8185.111290596164
 34
0.0
 50
90.0
100
AcDbRotatedDimension
  0
DIMENSION
  5
15263
330
747D
100
AcDbEntity
  8
寸法
 48
50.0
100
AcDbDimension
  2
*D16
 10
8760.017147865575
 20
8185.111290596164
 30
0.0
 11
8660.005336841953
 21
7975.111290596143
 31
0.0
 70
    32
 71
     5
 42
420.0000000000436
  3
INABA_S40G
100
AcDbAlignedDimension
 13
8112.590802131142
 23
7765.11129059612
 33
0.0
 14
8112.590802131165
 24
8185.111290596164
 34
0.0
 50
90.0
100
AcDbRotatedDimension
  0
LINE
  5
1526E
330
747D
100
AcDbEntity
  8
部品1
100
AcDbLine
 10
6687.090802131129
 20
9240.111290595988
 30
0.0
 11
6687.090802131129
 21
9212.11129059599
 31
0.0
  0
LINE
  5
1526F
330
747D
100
AcDbEntity
  8
部品1
100
AcDbLine
 10
6687.090802131097
 20
9240.111290595953
 30
0.0
 11
6687.090802131097
 21
9212.111290595952
 31
0.0
  0
LINE
  5
15270
330
747D
100
AcDbEntity
  8
部品1
100
AcDbLine
 10
7637.090802131101
 20
9240.111290595953
 30
0.0
 11
7637.090802131101
 21
9212.111290595952
 31
0.0
  0
LINE
  5
15271
330
747D
100
AcDbEntity
  8
部品1
100
AcDbLine
 10
7637.090802131133
 20
9240.111290595988
 30
0.0
 11
7637.090802131133
 21
9212.11129059599
 31
0.0
  0
LINE
  5
152BA
330
747D
100
AcDbEntity
  8
細線
 48
50.0
100
AcDbLine
 10
4481.590802131155
 20
7736.111290596149
 30
0.0
 11
4481.590802131155
 21
7710.111290596102
 31
0.0
  0
LINE
  5
152BB
330
747D
100
AcDbEntity
  8
細線
 48
50.0
100
AcDbLine
 10
4707.590802131155
 20
7736.111290596138
 30
0.0
 11
4707.590802131155
 21
7710.111290596102
 31
0.0
  0
LINE
  5
152BC
330
747D
100
AcDbEntity
  8
細線
 48
50.0
100
AcDbLine
 10
4667.590802131154
 20
7736.111290596138
 30
0.0
 11
4667.590802131154
 21
7710.111290596102
 31
0.0
  0
LINE
  5
152BD
330
747D
100
AcDbEntity
  8
細線
 48
50.0
100
AcDbLine
 10
4894.590802131155
 20
7736.111290596352
 30
0.0
 11
4894.590802131155
 21
7710.111290596316
 31
0.0
  0
LINE
  5
152BE
330
747D
100
AcDbEntity
  8
細線
 48
50.0
100
AcDbLine
 10
4934.590802131155
 20
7736.111290596352
 30
0.0
 11
4934.590802131155
 21
7710.111290596316
 31
0.0
  0
LINE
  5
152BF
330
747D
100
AcDbEntity
  8
細線
 48
50.0
100
AcDbLine
 10
6381.590802131155
 20
7736.111290596149
 30
0.0
 11
6381.590802131155
 21
7710.111290596102
 31
0.0
  0
LINE
  5
152C0
330
747D
100
AcDbEntity
  8
細線
 48
50.0
100
AcDbLine
 10
6567.590802131156
 20
7736.111290596138
 30
0.0
 11
6567.590802131156
 21
7710.111290596102
 31
0.0
  0
LINE
  5
152C1
330
747D
100
AcDbEntity
  8
細線
 48
50.0
100
AcDbLine
 10
6607.590802131155
 20
7736.111290596138
 30
0.0
 11
6607.590802131155
 21
7710.111290596102
 31
0.0
  0
LINE
  5
152C2
330
747D
100
AcDbEntity
  8
細線
 48
50.0
100
AcDbLine
 10
6834.590802131156
 20
7736.111290596352
 30
0.0
 11
6834.590802131156
 21
7710.111290596316
 31
0.0
  0
LINE
  5
152C3
330
747D
100
AcDbEntity
  8
細線
 48
50.0
100
AcDbLine
 10
6794.590802131155
 20
7736.111290596352
 30
0.0
 11
6794.590802131155
 21
7710.111290596316
 31
0.0
  0
LINE
  5
152C4
330
747D
100
AcDbEntity
  8
細線
 48
50.0
100
AcDbLine
 10
7331.590802131156
 20
7736.111290596149
 30
0.0
 11
7331.590802131156
 21
7710.111290596102
 31
0.0
  0
LINE
  5
152C5
330
747D
100
AcDbEntity
  8
細線
 48
50.0
100
AcDbLine
 10
7557.590802131155
 20
7736.111290596138
 30
0.0
 11
7557.590802131155
 21
7710.111290596102
 31
0.0
  0
LINE
  5
152C6
330
747D
100
AcDbEntity
  8
細線
 48
50.0
100
AcDbLine
 10
7517.590802131156
 20
7736.111290596138
 30
0.0
 11
7517.590802131156
 21
7710.111290596102
 31
0.0
  0
LINE
  5
152C7
330
747D
100
AcDbEntity
  8
細線
 48
50.0
100
AcDbLine
 10
7744.590802131155
 20
7736.111290596352
 30
0.0
 11
7744.590802131155
 21
7710.111290596316
 31
0.0
  0
LINE
  5
152C8
330
747D
100
AcDbEntity
  8
細線
 48
50.0
100
AcDbLine
 10
7784.590802131155
 20
7736.111290596352
 30
0.0
 11
7784.590802131155
 21
7710.111290596316
 31
0.0
  0
DIMENSION
  5
15397
330
747D
100
AcDbEntity
  8
寸法
 48
50.0
100
AcDbDimension
  2
*D17
 10
6952.590802131155
 20
7270.287622800984
 30
0.0
 11
6610.09080213116
 21
7270.287622800984
 31
0.0
 70
   160
 71
     5
 42
684.9999999999927
  3
INABA_S40G
100
AcDbAlignedDimension
 13
6267.590802131163
 23
7710.111290596062
 33
0.0
 14
6952.590802131155
 24
7710.111290596024
 34
0.0
100
AcDbRotatedDimension
  0
DIMENSION
  5
153AF
330
747D
100
AcDbEntity
  8
寸法
 48
50.0
100
AcDbDimension
  2
*D18
 10
5052.590802131155
 20
7270.287622800984
 30
0.0
 11
4710.090802131158
 21
7270.287622800984
 31
0.0
 70
   160
 71
     5
 42
684.9999999999927
  3
INABA_S40G
100
AcDbAlignedDimension
 13
4367.590802131163
 23
7710.111290596062
 33
0.0
 14
5052.590802131155
 24
7710.111290596024
 34
0.0
100
AcDbRotatedDimension
  0
LINE
  5
15460
330
747D
100
AcDbEntity
  8
部品1
 48
50.0
100
AcDbLine
 10
6240.590802131144
 20
7765.111290596106
 30
0.0
 11
6240.59080213109
 21
9240.111290596113
 31
0.0
  0
LINE
  5
15461
330
747D
100
AcDbEntity
  8
部品1
 48
50.0
100
AcDbLine
 10
6184.590802131144
 20
7765.111290596106
 30
0.0
 11
6184.59080213109
 21
9212.111290596112
 31
0.0
  0
LINE
  5
15462
330
747D
100
AcDbEntity
  8
部品1
 48
50.0
100
AcDbLine
 10
6212.590802131145
 20
7765.111290596106
 30
0.0
 11
6212.590802131145
 21
9185.111290596113
 31
0.0
  0
LINE
  5
15463
330
747D
100
AcDbEntity
  8
細線
 48
50.0
100
AcDbLine
 10
6183.59080880876
 20
9210.611290596142
 30
0.0
 11
5291.590808808759
 21
8760.61129059604
 31
0.0
  0
LINE
  5
15464
330
747D
100
AcDbEntity
  8
細線
 48
50.0
100
AcDbLine
 10
6183.59080880876
 20
8760.611290596143
 30
0.0
 11
5291.590808808759
 21
9210.611290596039
 31
0.0
  0
LINE
  5
15465
330
747D
100
AcDbEntity
  8
部品1
 48
50.0
100
AcDbLine
 10
6183.59080880876
 20
9210.611290596142
 30
0.0
 11
6183.59080880876
 21
8760.611290596143
 31
0.0
  0
LINE
  5
15466
330
747D
100
AcDbEntity
  8
部品1
 48
50.0
100
AcDbLine
 10
6241.590808808759
 20
9210.611290596032
 30
0.0
 11
6241.590808808759
 21
8760.61129059604
 31
0.0
  0
ARC
  5
15467
330
747D
100
AcDbEntity
  8
想像線
 48
10.0
100
AcDbCircle
 10
6030.238751453994
 20
7711.806183971669
 30
0.0
 40
722.6499369155536
100
AcDbArc
 50
180.1343808685451
 51
270.5829222700355
  0
LINE
  5
15468
330
747D
100
AcDbEntity
  8
想像線
 48
10.0
100
AcDbLine
 10
6037.590802131155
 20
7710.111290596106
 30
0.0
 11
6037.590802131155
 21
6989.193646940314
 31
0.0
  0
LINE
  5
15469
330
747D
100
AcDbEntity
  8
部品1
 48
5.0
100
AcDbLine
 10
5286.590802131159
 20
7739.611290596048
 30
0.0
 11
6188.590802131159
 21
7739.611290596106
 31
0.0
  0
LINE
  5
1546A
330
747D
100
AcDbEntity
  8
部品1
100
AcDbLine
 10
6157.090802131141
 20
7841.611290596112
 30
0.0
 11
5318.090308877261
 21
7841.610788398641
 31
0.0
  0
LINE
  5
1546B
330
747D
100
AcDbEntity
  8
部品1
100
AcDbLine
 10
5291.590808808759
 20
8760.61129059604
 30
0.0
 11
6183.59080880876
 21
8760.611290596143
 31
0.0
  0
LINE
  5
1546C
330
747D
100
AcDbEntity
  8
破線
 48
10.0
100
AcDbLine
 10
5318.090797855071
 20
8537.61100087066
 30
0.0
 11
6157.090802131126
 21
8537.61096623883
 31
0.0
  0
LINE
  5
1546D
330
747D
100
AcDbEntity
  8
破線
 48
10.0
100
AcDbLine
 10
5318.090797855071
 20
8487.611000870661
 30
0.0
 11
6157.090802131126
 21
8487.610966238831
 31
0.0
  0
LINE
  5
1546E
330
747D
100
AcDbEntity
  8
破線
 48
10.0
100
AcDbLine
 10
6133.590802131152
 20
7865.111290596113
 30
0.0
 11
6133.590796383185
 21
8487.610967208849
 31
0.0
  0
LINE
  5
1546F
330
747D
100
AcDbEntity
  8
部品1
 48
50.0
100
AcDbLine
 10
5737.090802131151
 20
8760.611290596092
 30
0.0
 11
5737.090639259047
 21
7841.610458432893
 31
0.0
  0
DIMENSION
  5
15470
330
747D
100
AcDbEntity
  8
寸法
 48
50.0
100
AcDbDimension
  2
*D21
 10
6002.590802131155
 20
7270.287622800984
 30
0.0
 11
5660.090802131159
 21
7270.287622800984
 31
0.0
 70
   160
 71
     5
 42
684.9999999999927
  3
INABA_S40G
100
AcDbAlignedDimension
 13
5317.590802131163
 23
7710.111290596062
 33
0.0
 14
6002.590802131155
 24
7710.111290596024
 34
0.0
100
AcDbRotatedDimension
  0
LINE
  5
15471
330
747D
100
AcDbEntity
  8
部品1
100
AcDbLine
 10
6037.590802131155
 20
7736.111290596149
 30
0.0
 11
5307.590802131159
 21
7736.111290596127
 31
0.0
  0
LINE
  5
15472
330
747D
100
AcDbEntity
  8
破線
 48
10.0
100
AcDbLine
 10
6133.590802131152
 20
7865.111290596113
 30
0.0
 11
5341.590802131151
 21
7865.111290596098
 31
0.0
  0
LINE
  5
15473
330
747D
100
AcDbEntity
  8
細線
 48
50.0
100
AcDbLine
 10
5431.590802131155
 20
7736.111290596149
 30
0.0
 11
5431.590802131155
 21
7710.111290596102
 31
0.0
  0
LINE
  5
15474
330
747D
100
AcDbEntity
  8
細線
 48
50.0
100
AcDbLine
 10
5617.590802131156
 20
7736.111290596138
 30
0.0
 11
5617.590802131156
 21
7710.111290596102
 31
0.0
  0
LINE
  5
15475
330
747D
100
AcDbEntity
  8
細線
 48
50.0
100
AcDbLine
 10
5657.590802131156
 20
7736.111290596138
 30
0.0
 11
5657.590802131156
 21
7710.111290596102
 31
0.0
  0
LINE
  5
15476
330
747D
100
AcDbEntity
  8
細線
 48
50.0
100
AcDbLine
 10
5844.590802131155
 20
7736.111290596352
 30
0.0
 11
5844.590802131155
 21
7710.111290596316
 31
0.0
  0
LINE
  5
15477
330
747D
100
AcDbEntity
  8
細線
 48
50.0
100
AcDbLine
 10
5884.590802131155
 20
7736.111290596352
 30
0.0
 11
5884.590802131155
 21
7710.111290596316
 31
0.0
  0
ARC
  5
15478
330
747D
100
AcDbEntity
  8
部品1
 48
0.2
100
AcDbCircle
 10
6024.653249959836
 20
7711.108920551327
 30
0.0
 40
8.0
100
AcDbArc
 50
187.1636477221926
 51
269.9999999999992
  0
LINE
  5
15479
330
747D
100
AcDbEntity
  8
部品1
 48
5.0
100
AcDbLine
 10
6039.590802131159
 20
7739.611290596106
 30
0.0
 11
6039.590802131159
 21
7710.111290596106
 31
0.0
  0
LINE
  5
1547A
330
747D
100
AcDbEntity
  8
部品1
 48
0.2
100
AcDbLine
 10
6024.653249959836
 20
7703.108920551327
 30
0.0
 11
6029.653249959836
 21
7703.108920551327
 31
0.0
  0
ARC
  5
1547B
330
747D
100
AcDbEntity
  8
細線
 48
0.2
100
AcDbCircle
 10
6029.653249959836
 20
7711.108920551327
 30
0.0
 40
4.049999999999999
100
AcDbArc
 50
194.2603506853988
 51
345.7396493146012
  0
ARC
  5
1547C
330
747D
100
AcDbEntity
  8
部品1
 48
0.2
100
AcDbCircle
 10
6029.653249959836
 20
7711.108920551327
 30
0.0
 40
8.0
100
AcDbArc
 50
270.0
 51
352.8363522778074
  0
LINE
  5
1547D
330
747D
100
AcDbEntity
  8
部品1
100
AcDbLine
 10
6037.590802131155
 20
7736.111290596156
 30
0.0
 11
6037.590802131155
 21
7710.111290596099
 31
0.0
  0
LINE
  5
1547E
330
747D
100
AcDbEntity
  8
破線
 48
10.0
100
AcDbLine
 10
6133.590795933771
 20
8537.61096720885
 30
0.0
 11
6133.590793776598
 21
8760.611290596171
 31
0.0
  0
LINE
  5
1547F
330
747D
100
AcDbEntity
  8
部品1
 48
50.0
100
AcDbLine
 10
6157.090802131141
 20
7841.611290596112
 30
0.0
 11
6157.090802131119
 21
8760.611290596171
 31
0.0
  0
LINE
  5
15480
330
747D
100
AcDbEntity
  8
部品1
 48
50.0
100
AcDbLine
 10
6268.090795786855
 20
7841.611290620772
 30
0.0
 11
6268.09079875972
 21
8760.611290596113
 31
0.0
  0
LINE
  5
15481
330
747D
100
AcDbEntity
  8
破線
 48
10.0
100
AcDbLine
 10
6291.590802131151
 20
7865.11129059612
 30
0.0
 11
6291.5907935785
 21
8487.610994534561
 31
0.0
  0
LINE
  5
15482
330
747D
100
AcDbEntity
  8
部品1
 48
5.0
100
AcDbLine
 10
6157.590802131159
 20
7765.111290596106
 30
0.0
 11
6157.590802131163
 21
7739.611290596106
 31
0.0
  0
LINE
  5
15483
330
747D
100
AcDbEntity
  8
部品1
 48
5.0
100
AcDbLine
 10
6188.590802131159
 20
7765.111290596106
 30
0.0
 11
6188.590802131159
 21
7739.611290596106
 31
0.0
  0
LINE
  5
15484
330
747D
100
AcDbEntity
  8
部品1
 48
5.0
100
AcDbLine
 10
6236.590802131162
 20
7765.111290596106
 30
0.0
 11
6236.590802131159
 21
7739.611290596106
 31
0.0
  0
LINE
  5
15485
330
747D
100
AcDbEntity
  8
部品1
 48
5.0
100
AcDbLine
 10
6267.590802131159
 20
7765.111290596106
 30
0.0
 11
6267.590802131163
 21
7739.611290596106
 31
0.0
  0
LINE
  5
15486
330
747D
100
AcDbEntity
  8
部品1
 48
5.0
100
AcDbLine
 10
6169.590802131159
 20
7710.111290596106
 30
0.0
 11
6255.590802131159
 21
7710.111290596106
 31
0.0
  0
LINE
  5
15487
330
747D
100
AcDbEntity
  8
部品1
 48
5.0
100
AcDbLine
 10
6169.590802131159
 20
7739.611290596106
 30
0.0
 11
6169.590802131159
 21
7710.111290596106
 31
0.0
  0
LINE
  5
15488
330
747D
100
AcDbEntity
  8
部品1
100
AcDbLine
 10
6169.590802131155
 20
7739.611290596048
 30
0.0
 11
6169.590802131155
 21
7710.111290596099
 31
0.0
  0
LINE
  5
15489
330
747D
100
AcDbEntity
  8
部品1
 48
5.0
100
AcDbLine
 10
6255.590802131159
 20
7739.611290596106
 30
0.0
 11
6255.590802131159
 21
7710.111290596106
 31
0.0
  0
LINE
  5
1548A
330
747D
100
AcDbEntity
  8
部品1
100
AcDbLine
 10
6257.590802131155
 20
7736.111290596098
 30
0.0
 11
6257.590802131155
 21
7710.111290596106
 31
0.0
  0
LINE
  5
1548B
330
747D
100
AcDbEntity
  8
部品1
100
AcDbLine
 10
6255.590802131159
 20
7739.611290596055
 30
0.0
 11
6255.590802131159
 21
7710.111290596106
 31
0.0
  0
LINE
  5
1548C
330
747D
100
AcDbEntity
  8
部品1
 48
5.0
100
AcDbLine
 10
6180.590802131159
 20
7765.111290596106
 30
0.0
 11
6157.590802131159
 21
7765.111290596106
 31
0.0
  0
LINE
  5
1548D
330
747D
100
AcDbEntity
  8
部品1
 48
5.0
100
AcDbLine
 10
6244.590802131159
 20
7765.111290596106
 30
0.0
 11
6267.590802131159
 21
7765.111290596106
 31
0.0
  0
LINE
  5
1548E
330
747D
100
AcDbEntity
  8
部品1
 48
5.0
100
AcDbLine
 10
6184.590802131144
 20
7765.111290596106
 30
0.0
 11
6240.590802131144
 21
7765.111290596106
 31
0.0
  0
LINE
  5
1548F
330
747D
100
AcDbEntity
  8
部品1
 48
50.0
100
AcDbLine
 10
6184.590802131144
 20
7813.611290596106
 30
0.0
 11
6157.090802131141
 21
7841.611290596112
 31
0.0
  0
LINE
  5
15490
330
747D
100
AcDbEntity
  8
部品1
 48
50.0
100
AcDbLine
 10
6268.090802131141
 20
7841.611290620779
 30
0.0
 11
6240.590802131144
 21
7813.611290596106
 31
0.0
  0
LINE
  5
15491
330
747D
100
AcDbEntity
  8
破線
 48
10.0
100
AcDbLine
 10
6291.590792909803
 20
8537.610994534563
 30
0.0
 11
6291.59078970004
 21
8760.611290596113
 31
0.0
  0
LINE
  5
15492
330
747D
100
AcDbEntity
  8
部品1
 48
5.0
100
AcDbLine
 10
6212.590802131145
 20
8185.111290596106
 30
0.0
 11
6184.59080213109
 21
8185.111290596113
 31
0.0
  0
LINE
  5
15493
330
747D
100
AcDbEntity
  8
部品1
 48
5.0
100
AcDbLine
 10
6212.590802131145
 20
8765.111290596106
 30
0.0
 11
6184.59080213109
 21
8765.111290596113
 31
0.0
  0
LINE
  5
15494
330
747D
100
AcDbEntity
  8
部品1
 48
50.0
100
AcDbLine
 10
6212.590802131133
 20
8765.111290596113
 30
0.0
 11
6240.590802131119
 21
8765.111290596113
 31
0.0
  0
LINE
  5
15495
330
747D
100
AcDbEntity
  8
部品1
 48
50.0
100
AcDbLine
 10
6212.590802131133
 20
8803.111290596111
 30
0.0
 11
6240.590802131119
 21
8803.111290596111
 31
0.0
  0
DIMENSION
  5
15496
330
747D
100
AcDbEntity
  8
寸法
 48
50.0
100
AcDbDimension
  2
*D20
 10
6267.590802131167
 20
9455.919510221168
 30
0.0
 11
6212.590802131167
 21
9707.652851170562
 31
0.0
 70
   160
 71
     5
 42
110.0000000000036
  3
INABA_S40G
100
AcDbAlignedDimension
 13
6157.590802131163
 23
9240.111290596185
 33
0.0
 14
6267.590802131167
 24
9240.111290596164
 34
0.0
100
AcDbRotatedDimension
1001
ACAD
1000
DSTYLE
1002
{
1070
   279
1070
     2
1002
}
  0
DIMENSION
  5
15497
330
747D
100
AcDbEntity
  8
寸法
100
AcDbDimension
  2
*D19
 10
6157.590802131163
 20
9455.919510221168
 30
0.0
 11
5737.590802131162
 21
9455.919510221168
 31
0.0
 70
   160
  1
2X420=<>
 71
     5
 42
840.0
  3
INABA_S40G
100
AcDbAlignedDimension
 13
5317.590802131163
 23
9240.111290596098
 33
0.0
 14
6157.590802131163
 24
9240.111290596185
 34
0.0
100
AcDbRotatedDimension
1001
ACAD
1000
DSTYLE
1002
{
1002
}
  0
LINE
  5
15498
330
747D
100
AcDbEntity
  8
部品1
100
AcDbLine
 10
5290.590802131112
 20
9212.111290596091
 30
0.0
 11
6209.971505149766
 21
9212.111290596112
 31
0.0
  0
LINE
  5
15499
330
747D
100
AcDbEntity
  8
部品1
100
AcDbLine
 10
5291.590808808759
 20
9210.611290596039
 30
0.0
 11
6183.59080880876
 21
9210.611290596149
 31
0.0
  0
LINE
  5
1549A
330
747D
100
AcDbEntity
  8
部品1
100
AcDbLine
 10
5737.090802131097
 20
9240.111290595953
 30
0.0
 11
5737.090802131097
 21
9212.111290595952
 31
0.0
  0
LINE
  5
1549B
330
747D
100
AcDbEntity
  8
部品1
100
AcDbLine
 10
5737.09080213113
 20
9240.111290595988
 30
0.0
 11
5737.09080213113
 21
9212.11129059599
 31
0.0
  0
LINE
  5
1549C
330
747D
100
AcDbEntity
  8
部品1
 48
5.0
100
AcDbLine
 10
6267.590802131167
 20
9240.111290596113
 30
0.0
 11
6267.590802131163
 21
9212.111290596119
 31
0.0
  0
LINE
  5
1549D
330
747D
100
AcDbEntity
  8
部品1
 48
5.0
100
AcDbLine
 10
6187.300076578337
 20
9240.111290596113
 30
0.0
 11
6209.971505149766
 21
9212.111290596112
 31
0.0
  0
LINE
  5
1549E
330
747D
100
AcDbEntity
  8
部品1
 48
5.0
100
AcDbLine
 10
6157.590802131163
 20
9212.111290596112
 30
0.0
 11
6157.590802131163
 21
9240.111290596113
 31
0.0
  0
LINE
  5
1549F
330
747D
100
AcDbEntity
  8
部品1
 48
5.0
100
AcDbLine
 10
6240.590802131094
 20
9185.111290596113
 30
0.0
 11
6184.59080213109
 21
9185.111290596113
 31
0.0
  0
LINE
  5
154A0
330
747D
100
AcDbEntity
  8
部品1
 48
50.0
100
AcDbLine
 10
6183.14340961918
 20
9210.611290596149
 30
0.0
 11
6184.590802131057
 21
9212.111290596077
 31
0.0
  0
LINE
  5
154A1
330
747D
100
AcDbEntity
  8
部品1
 48
50.0
100
AcDbLine
 10
6242.090808808753
 20
9210.611290596039
 30
0.0
 11
6240.59080213113
 21
9212.111290596032
 31
0.0
  0
TEXT
  5
15A80
330
747D
100
AcDbEntity
  8
文字
 62
     7
 48
50.0
100
AcDbText
 10
14271.39351435261
 20
483.8967129911416
 30
0.0
 40
160.0
  1
ＮＸＮ－１４ＤＬ－４
  7
STYLE2
100
AcDbText
  0
LINE
  5
15A81
330
747D
100
AcDbEntity
  8
細線
 48
50.0
100
AcDbLine
 10
11039.46271469152
 20
4758.92211051017
 30
0.0
 11
11039.46271469152
 21
2968.92211051017
 31
0.0
  0
LINE
  5
15A82
330
747D
100
AcDbEntity
  8
細線
 48
50.0
100
AcDbLine
 10
11054.46271469152
 20
4758.92211051017
 30
0.0
 11
11054.46271469152
 21
2968.92211051017
 31
0.0
  0
LINE
  5
15A83
330
747D
100
AcDbEntity
  8
細線
 48
50.0
100
AcDbLine
 10
11184.46271469152
 20
4758.92211051017
 30
0.0
 11
11184.46271469152
 21
2968.92211051017
 31
0.0
  0
LINE
  5
15A84
330
747D
100
AcDbEntity
  8
細線
 48
50.0
100
AcDbLine
 10
11199.46271469152
 20
4758.92211051017
 30
0.0
 11
11199.46271469152
 21
2968.92211051017
 31
0.0
  0
LINE
  5
15A85
330
747D
100
AcDbEntity
  8
細線
 48
50.0
100
AcDbLine
 10
11329.46271469152
 20
4758.92211051017
 30
0.0
 11
11329.46271469152
 21
2968.92211051017
 31
0.0
  0
LINE
  5
15A86
330
747D
100
AcDbEntity
  8
細線
 48
50.0
100
AcDbLine
 10
11344.46271469152
 20
4758.92211051017
 30
0.0
 11
11344.46271469152
 21
2968.92211051017
 31
0.0
  0
TEXT
  5
15A87
330
747D
100
AcDbEntity
  8
文字
 62
     7
 48
50.0
100
AcDbText
 10
15022.63965474517
 20
10930.01374588372
 30
0.0
 40
100.0
  1
F12            1.2
  7
STYLE1
100
AcDbText
  0
TEXT
  5
15A88
330
747D
100
AcDbEntity
  8
文字
 62
     7
 48
50.0
100
AcDbText
 10
13583.11819016569
 20
10930.01374588373
 30
0.0
 40
100.0
  1
根太
  7
STYLE1
100
AcDbText
  0
TEXT
  5
15A89
330
747D
100
AcDbEntity
  8
文字
 62
     7
 48
50.0
100
AcDbText
 10
13248.77747366447
 20
8720.013745883735
 30
0.0
 40
100.0
  1
15
  7
STYLE1
100
AcDbText
  0
LINE
  5
15A8A
330
747D
100
AcDbEntity
  8
仕様書枠
 48
50.0
100
AcDbLine
 10
16307.2
 20
10899.6
 30
0.0
 11
13127.2
 21
10899.6
 31
0.0
  0
TEXT
  5
15A8B
330
747D
100
AcDbEntity
  8
文字
 62
     7
 48
50.0
100
AcDbText
 10
13583.1181901657
 20
9740.013745883729
 30
0.0
 40
100.0
  1
梁中・梁中央
 41
0.9
  7
STYLE1
100
AcDbText
  0
TEXT
  5
15A8C
330
747D
100
AcDbEntity
  8
文字
 62
     7
 48
50.0
100
AcDbText
 10
15022.63965474517
 20
9740.013745883729
 30
0.0
 40
100.0
  1
F12,Y10       0.7+1.0
  7
STYLE1
100
AcDbText
  0
TEXT
  5
15A8D
330
747D
100
AcDbEntity
  8
文字
 62
     7
 48
50.0
100
AcDbText
 10
13583.11819016566
 20
8550.013745883729
 30
0.0
 40
100.0
  1
アンカープレート
  7
STYLE1
100
AcDbText
  0
TEXT
  5
15A8E
330
747D
100
AcDbEntity
  8
文字
 62
     7
 48
50.0
100
AcDbText
 10
15022.63965474512
 20
8550.013745883722
 30
0.0
 40
100.0
  1
F12            2.3
  7
STYLE1
100
AcDbText
  0
LINE
  5
15A8F
330
747D
100
AcDbEntity
  8
仕様書枠
 48
50.0
100
AcDbLine
 10
16307.2
 20
9879.600000000001
 30
0.0
 11
13127.2
 21
9879.600000000001
 31
0.0
  0
LINE
  5
15A90
330
747D
100
AcDbEntity
  8
仕様書枠
 48
50.0
100
AcDbLine
 10
16307.19999999999
 20
11409.6
 30
0.0
 11
13127.2
 21
11409.6
 31
0.0
  0
LINE
  5
15A91
330
747D
100
AcDbEntity
  8
仕様書枠
 48
50.0
100
AcDbLine
 10
16307.19999999999
 20
8179.600000000007
 30
0.0
 11
16307.2
 21
11409.6
 31
0.0
  0
LINE
  5
15A92
330
747D
100
AcDbEntity
  8
仕様書枠
 48
50.0
100
AcDbLine
 10
14785.2
 20
11409.59999999999
 30
0.0
 11
14785.19999999999
 21
8519.600000000002
 31
0.0
  0
LINE
  5
15A93
330
747D
100
AcDbEntity
  8
仕様書枠
 48
50.0
100
AcDbLine
 10
13490.2
 20
11409.6
 30
0.0
 11
13490.2
 21
8519.600000000004
 31
0.0
  0
LINE
  5
15A94
330
747D
100
AcDbEntity
  8
仕様書枠
 48
50.0
100
AcDbLine
 10
16307.19999999999
 20
11239.6
 30
0.0
 11
13127.2
 21
11239.6
 31
0.0
  0
LINE
  5
15A95
330
747D
100
AcDbEntity
  8
仕様書枠
 48
50.0
100
AcDbLine
 10
16307.2
 20
10729.6
 30
0.0
 11
13127.2
 21
10729.6
 31
0.0
  0
LINE
  5
15A96
330
747D
100
AcDbEntity
  8
仕様書枠
 48
50.0
100
AcDbLine
 10
16307.19999999999
 20
11069.6
 30
0.0
 11
13127.2
 21
11069.6
 31
0.0
  0
LINE
  5
15A97
330
747D
100
AcDbEntity
  8
仕様書枠
 48
50.0
100
AcDbLine
 10
16307.19999999999
 20
10389.6
 30
0.0
 11
13127.2
 21
10389.6
 31
0.0
  0
LINE
  5
15A98
330
747D
100
AcDbEntity
  8
仕様書枠
 48
50.0
100
AcDbLine
 10
16307.19999999999
 20
10219.6
 30
0.0
 11
13127.2
 21
10219.6
 31
0.0
  0
LINE
  5
15A99
330
747D
100
AcDbEntity
  8
仕様書枠
 48
50.0
100
AcDbLine
 10
16307.19999999999
 20
10559.6
 30
0.0
 11
13127.2
 21
10559.6
 31
0.0
  0
TEXT
  5
15A9A
330
747D
100
AcDbEntity
  8
文字
 62
     7
 48
50.0
100
AcDbText
 10
13197.42518560407
 20
11270.01374588373
 30
0.0
 40
100.0
  1
品番
  7
STYLE1
100
AcDbText
  0
TEXT
  5
15A9B
330
747D
100
AcDbEntity
  8
文字
 62
     7
 48
50.0
100
AcDbText
 10
13271.19032244792
 20
11100.01374588373
 30
0.0
 40
100.0
  1
1
  7
STYLE1
100
AcDbText
  0
TEXT
  5
15A9C
330
747D
100
AcDbEntity
  8
文字
 62
     7
 48
50.0
100
AcDbText
 10
13271.19032244792
 20
10930.01374588373
 30
0.0
 40
100.0
  1
2
  7
STYLE1
100
AcDbText
  0
TEXT
  5
15A9D
330
747D
100
AcDbEntity
  8
文字
 62
     7
 48
50.0
100
AcDbText
 10
13271.19032244793
 20
10590.01374588373
 30
0.0
 40
100.0
  1
4
  7
STYLE1
100
AcDbText
  0
TEXT
  5
15A9E
330
747D
100
AcDbEntity
  8
文字
 62
     7
 48
50.0
100
AcDbText
 10
13271.19032244793
 20
10760.01374588373
 30
0.0
 40
100.0
  1
3
  7
STYLE1
100
AcDbText
  0
TEXT
  5
15A9F
330
747D
100
AcDbEntity
  8
文字
 62
     7
 48
50.0
100
AcDbText
 10
13732.03840939434
 20
11270.01374588373
 30
0.0
 40
100.0
  1
部　　品　　名
  7
STYLE1
100
AcDbText
  0
TEXT
  5
15AA0
330
747D
100
AcDbEntity
  8
文字
 62
     7
 48
50.0
100
AcDbText
 10
14859.79774614482
 20
11270.01374588373
 30
0.0
 40
100.0
  1
材料（材質）　　単位mm
  7
STYLE1
100
AcDbText
  0
TEXT
  5
15AA1
330
747D
100
AcDbEntity
  8
文字
 62
     7
 48
50.0
100
AcDbText
 10
13583.11819016569
 20
11100.01374588373
 30
0.0
 40
100.0
  1
土台枠
  7
STYLE1
100
AcDbText
  0
TEXT
  5
15AA2
330
747D
100
AcDbEntity
  8
文字
 62
     7
 48
50.0
100
AcDbText
 10
13583.1181901657
 20
10760.01374588373
 30
0.0
 40
100.0
  1
柱
  7
STYLE1
100
AcDbText
  0
TEXT
  5
15AA3
330
747D
100
AcDbEntity
  8
文字
 62
     7
 48
50.0
100
AcDbText
 10
13583.1181901657
 20
10420.01374588373
 30
0.0
 40
100.0
  1
鴨居
  7
STYLE1
100
AcDbText
  0
TEXT
  5
15AA4
330
747D
100
AcDbEntity
  8
文字
 62
     7
 48
50.0
100
AcDbText
 10
13583.1181901657
 20
10250.01374588373
 30
0.0
 40
100.0
  1
桁後
  7
STYLE1
100
AcDbText
  0
TEXT
  5
15AA5
330
747D
100
AcDbEntity
  8
文字
 62
     7
 48
50.0
100
AcDbText
 10
13271.19032244793
 20
10420.01374588373
 30
0.0
 40
100.0
  1
5
  7
STYLE1
100
AcDbText
  0
TEXT
  5
15AA6
330
747D
100
AcDbEntity
  8
文字
 62
     7
 48
50.0
100
AcDbText
 10
13583.1181901657
 20
10080.01374588373
 30
0.0
 40
100.0
  1
妻板左右
  7
STYLE1
100
AcDbText
  0
TEXT
  5
15AA7
330
747D
100
AcDbEntity
  8
文字
 62
     7
 48
50.0
100
AcDbText
 10
13248.77747366447
 20
9570.013745883729
 30
0.0
 40
100.0
  1
10
  7
STYLE1
100
AcDbText
  0
TEXT
  5
15AA8
330
747D
100
AcDbEntity
  8
文字
 62
     7
 48
50.0
100
AcDbText
 10
13583.11819016568
 20
9230.013745883729
 30
0.0
 40
100.0
  1
壁パネル
  7
STYLE1
100
AcDbText
  0
TEXT
  5
15AA9
330
747D
100
AcDbEntity
  8
文字
 62
     7
 48
50.0
100
AcDbText
 10
13583.11819016569
 20
9400.013745883729
 30
0.0
 40
100.0
  1
屋根パネル
  7
STYLE1
100
AcDbText
  0
TEXT
  5
15AAA
330
747D
100
AcDbEntity
  8
文字
 62
     7
 48
50.0
100
AcDbText
 10
13583.1181901657
 20
9910.01374588373
 30
0.0
 40
100.0
  1
鼻隠シ前後
  7
STYLE1
100
AcDbText
  0
TEXT
  5
15AAB
330
747D
100
AcDbEntity
  8
文字
 62
     7
 48
50.0
100
AcDbText
 10
13271.19032244792
 20
9910.01374588373
 30
0.0
 40
100.0
  1
8
  7
STYLE1
100
AcDbText
  0
TEXT
  5
15AAC
330
747D
100
AcDbEntity
  8
文字
 62
     7
 48
50.0
100
AcDbText
 10
13271.19032244792
 20
9740.013745883729
 30
0.0
 40
100.0
  1
9
  7
STYLE1
100
AcDbText
  0
TEXT
  5
15AAD
330
747D
100
AcDbEntity
  8
文字
 62
     7
 48
50.0
100
AcDbText
 10
13271.19032244792
 20
10080.01374588373
 30
0.0
 40
100.0
  1
7
  7
STYLE1
100
AcDbText
  0
TEXT
  5
15AAE
330
747D
100
AcDbEntity
  8
文字
 62
     7
 48
50.0
100
AcDbText
 10
13271.19032244793
 20
10250.01374588373
 30
0.0
 40
100.0
  1
6
  7
STYLE1
100
AcDbText
  0
LINE
  5
15AAF
330
747D
100
AcDbEntity
  8
仕様書枠
 48
50.0
100
AcDbLine
 10
16307.19999999998
 20
9369.600000000001
 30
0.0
 11
13127.19999999999
 21
9369.600000000001
 31
0.0
  0
LINE
  5
15AB0
330
747D
100
AcDbEntity
  8
仕様書枠
 48
50.0
100
AcDbLine
 10
16307.19999999998
 20
9029.6
 30
0.0
 11
13127.19999999999
 21
9029.6
 31
0.0
  0
LINE
  5
15AB1
330
747D
100
AcDbEntity
  8
仕様書枠
 48
50.0
100
AcDbLine
 10
16307.19999999998
 20
9199.600000000001
 30
0.0
 11
13127.19999999999
 21
9199.600000000001
 31
0.0
  0
LINE
  5
15AB2
330
747D
100
AcDbEntity
  8
仕様書枠
 48
50.0
100
AcDbLine
 10
16307.2
 20
10049.6
 30
0.0
 11
13127.2
 21
10049.6
 31
0.0
  0
LINE
  5
15AB3
330
747D
100
AcDbEntity
  8
仕様書枠
 48
50.0
100
AcDbLine
 10
16307.2
 20
9709.600000000001
 30
0.0
 11
13127.2
 21
9709.600000000001
 31
0.0
  0
TEXT
  5
15AB4
330
747D
100
AcDbEntity
  8
文字
 62
     7
 48
50.0
100
AcDbText
 10
13248.77747366447
 20
9400.013745883729
 30
0.0
 40
100.0
  1
11
  7
STYLE1
100
AcDbText
  0
LINE
  5
15AB5
330
747D
100
AcDbEntity
  8
仕様書枠
 48
50.0
100
AcDbLine
 10
16307.19999999998
 20
8859.6
 30
0.0
 11
13127.19999999999
 21
8859.6
 31
0.0
  0
LINE
  5
15AB6
330
747D
100
AcDbEntity
  8
仕様書枠
 48
50.0
100
AcDbLine
 10
16307.19999999998
 20
8519.600000000002
 30
0.0
 11
13127.19999999999
 21
8519.600000000004
 31
0.0
  0
TEXT
  5
15AB7
330
747D
100
AcDbEntity
  8
文字
 62
     7
 48
50.0
100
AcDbText
 10
13248.77747366447
 20
9060.013745883729
 30
0.0
 40
100.0
  1
13
  7
STYLE1
100
AcDbText
  0
TEXT
  5
15AB8
330
747D
100
AcDbEntity
  8
文字
 62
     7
 48
50.0
100
AcDbText
 10
13248.77747366447
 20
9230.013745883729
 30
0.0
 40
100.0
  1
12
  7
STYLE1
100
AcDbText
  0
TEXT
  5
15AB9
330
747D
100
AcDbEntity
  8
文字
 62
     7
 48
50.0
100
AcDbText
 10
15022.63965474517
 20
11100.01374588372
 30
0.0
 40
100.0
  1
F12            1.2
  7
STYLE1
100
AcDbText
  0
TEXT
  5
15ABA
330
747D
100
AcDbEntity
  8
文字
 62
     7
 48
50.0
100
AcDbText
 10
15022.63965474518
 20
10760.01374588372
 30
0.0
 40
100.0
  1
F12            1.0
  7
STYLE1
100
AcDbText
  0
TEXT
  5
15ABB
330
747D
100
AcDbEntity
  8
文字
 62
     7
 48
50.0
100
AcDbText
 10
15022.63965474517
 20
10420.01374588372
 30
0.0
 40
100.0
  1
Y10            1.0
  7
STYLE1
100
AcDbText
  0
TEXT
  5
15ABC
330
747D
100
AcDbEntity
  8
文字
 62
     7
 48
50.0
100
AcDbText
 10
15022.63965474517
 20
10250.01374588372
 30
0.0
 40
100.0
  1
Y10            1.0
  7
STYLE1
100
AcDbText
  0
TEXT
  5
15ABD
330
747D
100
AcDbEntity
  8
文字
 62
     7
 48
50.0
100
AcDbText
 10
15022.63965474517
 20
10080.01374588372
 30
0.0
 40
100.0
  1
Y10            0.7
  7
STYLE1
100
AcDbText
  0
TEXT
  5
15ABE
330
747D
100
AcDbEntity
  8
文字
 62
     7
 48
50.0
100
AcDbText
 10
15022.63965474517
 20
9910.013745883725
 30
0.0
 40
100.0
  1
Y10            0.7
  7
STYLE1
100
AcDbText
  0
TEXT
  5
15ABF
330
747D
100
AcDbEntity
  8
文字
 62
     7
 48
50.0
100
AcDbText
 10
15022.63965474516
 20
9400.013745883725
 30
0.0
 40
100.0
  1
Y10            0.5
  7
STYLE1
100
AcDbText
  0
TEXT
  5
15AC0
330
747D
100
AcDbEntity
  8
文字
 62
     7
 48
50.0
100
AcDbText
 10
15022.63965474515
 20
9230.013745883725
 30
0.0
 40
100.0
  1
F12            0.6
  7
STYLE1
100
AcDbText
  0
LINE
  5
15AC1
330
747D
100
AcDbEntity
  8
仕様書枠
 48
50.0
100
AcDbLine
 10
16307.19999999998
 20
8349.600000000004
 30
0.0
 11
13127.19999999999
 21
8349.600000000004
 31
0.0
  0
TEXT
  5
15AC2
330
747D
100
AcDbEntity
  8
文字
 62
     7
 48
50.0
100
AcDbText
 10
13229.83081656552
 20
8380.013745883728
 30
0.0
 40
100.0
  1
F12→溶融亜鉛めっき鋼板(JIS G 3302)
  7
STYLE1
100
AcDbText
  0
TEXT
  5
15AC3
330
747D
100
AcDbEntity
  8
文字
 62
     7
 48
50.0
100
AcDbText
 10
13229.83081656552
 20
8210.013745883729
 30
0.0
 40
100.0
  1
Y10→溶融亜鉛-5％アルミニウム合金めっき鋼板(JIS G 3317)
 41
0.9
  7
STYLE1
100
AcDbText
  0
LINE
  5
15AC4
330
747D
100
AcDbEntity
  8
仕様書枠
 48
50.0
100
AcDbLine
 10
13127.2
 20
11409.6
 30
0.0
 11
13127.19999999999
 21
8179.600000000007
 31
0.0
  0
LINE
  5
15AC5
330
747D
100
AcDbEntity
  8
仕様書枠
 48
50.0
100
AcDbLine
 10
16307.19999999998
 20
8689.6
 30
0.0
 11
13127.19999999999
 21
8689.600000000003
 31
0.0
  0
TEXT
  5
15AC6
330
747D
100
AcDbEntity
  8
文字
 62
     7
 48
50.0
100
AcDbText
 10
13583.1181901657
 20
10590.01374588373
 30
0.0
 40
100.0
  1
床パネル
 41
0.9
  7
STYLE1
100
AcDbText
  0
TEXT
  5
15AC7
330
747D
100
AcDbEntity
  8
文字
 62
     7
 48
50.0
100
AcDbText
 10
15022.63965474517
 20
10590.01374588372
 30
0.0
 40
100.0
  1
F12            1.0
  7
STYLE1
100
AcDbText
  0
TEXT
  5
15AC8
330
747D
100
AcDbEntity
  8
文字
 62
     7
 48
50.0
100
AcDbText
 10
15022.63965474513
 20
8890.013745883726
 30
0.0
 40
100.0
  1
F12            0.8
  7
STYLE1
100
AcDbText
  0
TEXT
  5
15AC9
330
747D
100
AcDbEntity
  8
文字
 62
     7
 48
50.0
100
AcDbText
 10
13583.11819016567
 20
8890.013745883729
 30
0.0
 40
100.0
  1
扉
  7
STYLE1
100
AcDbText
  0
TEXT
  5
15ACA
330
747D
100
AcDbEntity
  8
文字
 62
     7
 48
50.0
100
AcDbText
 10
15022.63965474513
 20
8720.013745883729
 30
0.0
 40
100.0
  1
F12            0.6
  7
STYLE1
100
AcDbText
  0
TEXT
  5
15ACB
330
747D
100
AcDbEntity
  8
文字
 62
     7
 48
50.0
100
AcDbText
 10
13583.11819016567
 20
8720.013745883733
 30
0.0
 40
100.0
  1
棚板
  7
STYLE1
100
AcDbText
  0
LINE
  5
15ACE
330
747D
100
AcDbEntity
  8
仕様書枠
 48
50.0
100
AcDbLine
 10
16307.2
 20
9539.6
 30
0.0
 11
13127.2
 21
9539.6
 31
0.0
  0
TEXT
  5
15ACF
330
747D
100
AcDbEntity
  8
文字
 62
     7
 48
50.0
100
AcDbText
 10
13248.77747366447
 20
8890.013745883731
 30
0.0
 40
100.0
  1
14
  7
STYLE1
100
AcDbText
  0
TEXT
  5
15AD0
330
747D
100
AcDbEntity
  8
文字
 62
     7
 48
50.0
100
AcDbText
 10
15022.63965474518
 20
9570.013745883725
 30
0.0
 40
100.0
  1
F12            1.0
  7
STYLE1
100
AcDbText
  0
TEXT
  5
15AD1
330
747D
100
AcDbEntity
  8
文字
 62
     7
 48
50.0
100
AcDbText
 10
13583.1181901657
 20
9570.013745883729
 30
0.0
 40
100.0
  1
母屋中
  7
STYLE1
100
AcDbText
  0
LINE
  5
15AD2
330
747D
100
AcDbEntity
  8
部品1
100
AcDbLine
 10
10492.46034464674
 20
4758.922110510171
 30
0.0
 11
12029.46271469153
 21
4758.92211051017
 31
0.0
  0
LINE
  5
15AD3
330
747D
100
AcDbEntity
  8
部品1
100
AcDbLine
 10
10499.46271469152
 20
2968.92211051017
 30
0.0
 11
12029.46271469153
 21
2968.922110510172
 31
0.0
  0
LINE
  5
15AD4
330
747D
100
AcDbEntity
  8
部品1
100
AcDbLine
 10
10554.46271469152
 20
4758.92211051017
 30
0.0
 11
10554.46271469152
 21
2968.92211051017
 31
0.0
  0
LINE
  5
15AD5
330
747D
100
AcDbEntity
  8
部品1
100
AcDbLine
 10
10499.46271469152
 20
4850.499004450612
 30
0.0
 11
10499.46271469152
 21
2818.92211051017
 31
0.0
  0
DIMENSION
  5
15AD6
330
747D
100
AcDbEntity
  8
寸法
100
AcDbDimension
  2
*D22
 10
9595.190903051046
 20
4993.922110510176
 30
0.0
 11
9595.190903051044
 21
3894.129100929973
 31
0.0
 70
   160
 71
     5
 42
2075.000000000004
  3
INABA_S40G
100
AcDbAlignedDimension
 13
10499.46271469152
 23
2918.922110510172
 33
0.0
 14
10439.46271469152
 24
4993.922110510175
 34
0.0
 50
90.0
100
AcDbRotatedDimension
1001
ACAD
1000
DSTYLE
1002
{
1070
   174
1070
     0
1070
   272
1070
     1
1070
   288
1070
     0
1070
   341
1005
0
1002
}
  0
DIMENSION
  5
15AD7
330
747D
100
AcDbEntity
  8
寸法
100
AcDbDimension
  2
*D23
 10
9897.499623999321
 20
2918.922110510172
 30
0.0
 11
9897.499623999321
 21
2612.874866415682
 31
0.0
 70
   160
 71
     5
 42
50.00000000000182
  3
INABA_S40G
100
AcDbAlignedDimension
 13
10492.46034464674
 23
2968.922110510174
 33
0.0
 14
10444.46271469152
 24
2918.922110510172
 34
0.0
 50
90.0
100
AcDbRotatedDimension
1001
ACAD
1000
DSTYLE
1002
{
1070
   174
1070
     0
1070
   272
1070
     1
1070
   288
1070
     0
1070
   341
1005
0
1002
}
  0
LINE
  5
15AD8
330
747D
100
AcDbEntity
  8
部品1
100
AcDbLine
 10
10974.46271469152
 20
4758.92211051017
 30
0.0
 11
10974.46271469152
 21
2968.92211051017
 31
0.0
  0
LINE
  5
15AD9
330
747D
100
AcDbEntity
  8
部品1
100
AcDbLine
 10
12029.46271469152
 20
4813.558691345423
 30
0.0
 11
12029.46271469153
 21
2818.92211051017
 31
0.0
  0
LINE
  5
15ADA
330
747D
100
AcDbEntity
  8
部品1
100
AcDbLine
 10
11974.46271469152
 20
4758.92211051017
 30
0.0
 11
11974.46271469152
 21
2968.92211051017
 31
0.0
  0
DIMENSION
  5
15ADB
330
747D
100
AcDbEntity
  8
寸法
100
AcDbDimension
  2
*D24
 10
12734.38987266365
 20
4938.922110510172
 30
0.0
 11
12634.37806164003
 21
3928.922110510173
 31
0.0
 70
    32
 71
     5
 42
2020.0
  3
INABA_S40G
100
AcDbAlignedDimension
 13
12029.46271469153
 23
2918.922110510172
 33
0.0
 14
12109.46271469152
 24
4938.922110510172
 34
0.0
 50
90.0
100
AcDbRotatedDimension
1001
ACAD
1000
DSTYLE
1002
{
1070
   174
1070
     0
1070
   272
1070
     1
1070
   288
1070
     0
1070
   341
1005
0
1002
}
  0
DIMENSION
  5
15ADC
330
747D
100
AcDbEntity
  8
寸法
 48
50.0
100
AcDbDimension
  2
*D25
 10
10499.46271469152
 20
5392.579564089474
 30
0.0
 11
11309.28174758207
 21
5392.579564089474
 31
0.0
 70
   160
  1
柱外寸法<>
 71
     5
 42
1530.0
  3
INABA_S40G
100
AcDbAlignedDimension
 13
12029.46271469152
 23
4940.732790121823
 33
0.0
 14
10499.46271469152
 24
4989.923728633146
 34
0.0
100
AcDbRotatedDimension
1001
ACAD
1000
DSTYLE
1002
{
1070
   174
1070
     0
1070
   272
1070
     1
1070
   288
1070
     0
1070
   341
1005
0
1002
}
  0
DIMENSION
  5
15ADD
330
747D
100
AcDbEntity
  8
寸法
 48
50.0
100
AcDbDimension
  2
*D26
 10
10439.46271469152
 20
5392.579564089474
 30
0.0
 11
10129.82491941593
 21
5392.579564089474
 31
0.0
 70
   160
 71
     5
 42
60.0
  3
INABA_S40G
100
AcDbAlignedDimension
 13
10499.46271469152
 23
4989.923728633146
 33
0.0
 14
10439.46271469152
 24
4993.922110510175
 34
0.0
100
AcDbRotatedDimension
1001
ACAD
1000
DSTYLE
1002
{
1070
   174
1070
     0
1070
   272
1070
     1
1070
   288
1070
     0
1070
   341
1005
0
1002
}
  0
DIMENSION
  5
15ADE
330
747D
100
AcDbEntity
  8
寸法
 48
50.0
100
AcDbDimension
  2
*D27
 10
10439.46271469152
 20
5600.753885281438
 30
0.0
 11
11326.58754439334
 21
5600.753885281438
 31
0.0
 70
   160
 71
     5
 42
1670.0
  3
INABA_S40G
100
AcDbAlignedDimension
 13
12109.46271469152
 23
4938.922110510172
 33
0.0
 14
10439.46271469152
 24
4993.922110510175
 34
0.0
100
AcDbRotatedDimension
1001
ACAD
1000
DSTYLE
1002
{
1070
   174
1070
     0
1070
   272
1070
     1
1070
   288
1070
     0
1070
   341
1005
0
1002
}
  0
LINE
  5
15ADF
330
747D
100
AcDbEntity
  8
部品1
100
AcDbLine
 10
10499.46271469152
 20
2918.922110510172
 30
0.0
 11
12029.46271469153
 21
2918.92211051017
 31
0.0
  0
TEXT
  5
15AE0
330
747D
100
AcDbEntity
  8
部品1
100
AcDbText
 10
10902.17348300091
 20
2022.952000474928
 30
0.0
 40
135.0
  1
側面図
  7
STYLE2
100
AcDbText
  0
LWPOLYLINE
  5
15AE1
330
747D
100
AcDbEntity
  8
部品1
100
AcDbPolyline
 90
        4
 70
     1
 43
0.0
 10
10812.7273815773
 20
2215.845529693454
 10
10812.7273815773
 20
1975.953208147921
 10
11576.19804780574
 20
1975.953208147921
 10
11576.19804780574
 20
2215.845529693454
  0
LINE
  5
15AE2
330
747D
100
AcDbEntity
  8
細線
 48
50.0
100
AcDbLine
 10
11489.46271469152
 20
4758.92211051017
 30
0.0
 11
11489.46271469152
 21
2968.92211051017
 31
0.0
  0
LINE
  5
15AE3
330
747D
100
AcDbEntity
  8
細線
 48
50.0
100
AcDbLine
 10
11474.46271469152
 20
4758.92211051017
 30
0.0
 11
11474.46271469152
 21
2968.92211051017
 31
0.0
  0
LINE
  5
15AE4
330
747D
100
AcDbEntity
  8
細線
 48
50.0
100
AcDbLine
 10
10896.96271469152
 20
4758.92211051017
 30
0.0
 11
10896.96271469152
 21
2968.92211051017
 31
0.0
  0
LINE
  5
15AE5
330
747D
100
AcDbEntity
  8
細線
 48
50.0
100
AcDbLine
 10
10911.96271469152
 20
4758.92211051017
 30
0.0
 11
10911.96271469152
 21
2968.92211051017
 31
0.0
  0
LINE
  5
15AE6
330
747D
100
AcDbEntity
  8
細線
 48
50.0
100
AcDbLine
 10
10771.96271469152
 20
4758.92211051017
 30
0.0
 11
10771.96271469152
 21
2968.92211051017
 31
0.0
  0
LINE
  5
15AE7
330
747D
100
AcDbEntity
  8
細線
 48
50.0
100
AcDbLine
 10
10756.96271469152
 20
4758.92211051017
 30
0.0
 11
10756.96271469152
 21
2968.92211051017
 31
0.0
  0
LINE
  5
15AE8
330
747D
100
AcDbEntity
  8
細線
 48
50.0
100
AcDbLine
 10
10616.96271469152
 20
4758.92211051017
 30
0.0
 11
10616.96271469152
 21
2968.92211051017
 31
0.0
  0
LINE
  5
15AE9
330
747D
100
AcDbEntity
  8
細線
 48
50.0
100
AcDbLine
 10
10631.96271469152
 20
4758.92211051017
 30
0.0
 11
10631.96271469152
 21
2968.92211051017
 31
0.0
  0
LINE
  5
15AEA
330
747D
100
AcDbEntity
  8
部品1
100
AcDbLine
 10
10447.00770104848
 20
4992.639845844436
 30
0.0
 11
12102.07459155298
 21
4936.972951837735
 31
0.0
  0
LINE
  5
15AEB
330
747D
100
AcDbEntity
  8
部品1
100
AcDbLine
 10
10454.80527929347
 20
4851.703135579136
 30
0.0
 11
12084.12641523136
 21
4812.084753963357
 31
0.0
  0
LINE
  5
15AEC
330
747D
100
AcDbEntity
  8
細線
 48
50.0
100
AcDbLine
 10
10472.46271469152
 20
4991.321786885575
 30
0.0
 11
10467.17361313601
 21
4851.23615425822
 31
0.0
  0
LINE
  5
15AED
330
747D
100
AcDbEntity
  8
細線
 48
50.0
100
AcDbLine
 10
12076.46271469152
 20
4938.299133163891
 30
0.0
 11
12071.71503180352
 21
4812.553360673148
 31
0.0
  0
LINE
  5
15AEE
330
747D
100
AcDbEntity
  8
部品1
 48
50.0
100
AcDbLine
 10
10439.64700060463
 20
4985.515656674863
 30
0.0
 11
10440.02726038244
 21
4965.588692228451
 31
0.0
  0
LINE
  5
15AEF
330
747D
100
AcDbEntity
  8
部品1
 48
50.0
100
AcDbLine
 10
10443.09603248869
 20
4962.013410734979
 30
0.0
 11
10444.79993398005
 21
4872.722914028333
 31
0.0
  0
LINE
  5
15AF0
330
747D
100
AcDbEntity
  8
細線
 48
50.0
100
AcDbLine
 10
10440.50213779234
 20
4964.939192351533
 30
0.0
 11
12106.1381225375
 21
4908.725031329129
 31
0.0
  0
LINE
  5
15AF1
330
747D
100
AcDbEntity
  8
細線
 48
50.0
100
AcDbLine
 10
10445.26261302962
 20
4872.077680653669
 30
0.0
 11
12095.26627746026
 21
4831.6784052976
 31
0.0
  0
LINE
  5
15AF2
330
747D
100
AcDbEntity
  8
部品1
 48
50.0
100
AcDbLine
 10
10447.86870608629
 20
4869.147632534859
 30
0.0
 11
10448.07065870672
 21
4858.564597141767
 31
0.0
  0
ARC
  5
15AF3
330
747D
100
AcDbEntity
  8
部品1
 48
50.0
100
AcDbCircle
 10
10446.64572643297
 20
4985.649211082291
 30
0.0
 40
7.0
100
AcDbArc
 50
87.03587545283097
 51
181.093224029316
  0
ARC
  5
15AF4
330
747D
100
AcDbEntity
  8
部品1
 48
50.0
100
AcDbCircle
 10
10455.06938453506
 20
4858.698151549195
 30
0.0
 40
7.0
100
AcDbArc
 50
181.093224029316
 51
267.8377559869488
  0
ARC
  5
15AF5
330
747D
100
AcDbEntity
  8
部品1
100
AcDbCircle
 10
10444.86925215986
 20
4869.090394931676
 30
0.0
 40
3.0
100
AcDbArc
 50
1.093224029316044
 51
80.18775403148566
  0
ARC
  5
15AF6
330
747D
100
AcDbEntity
  8
部品1
100
AcDbCircle
 10
10440.09657856226
 20
4961.956173131795
 30
0.0
 40
3.0
100
AcDbArc
 50
1.093224029316044
 51
80.18775403169732
  0
ARC
  5
15AF7
330
747D
100
AcDbEntity
  8
部品1
100
AcDbCircle
 10
10440.72713296528
 20
4965.602047669193
 30
0.0
 40
0.7
100
AcDbArc
 50
181.0932240292119
 51
260.1877540314857
  0
ARC
  5
15AF8
330
747D
100
AcDbEntity
  8
部品1
100
AcDbCircle
 10
10445.49980656289
 20
4872.736269469075
 30
0.0
 40
0.7
100
AcDbArc
 50
181.0932240292119
 51
260.1877540314857
  0
LINE
  5
15AF9
330
747D
100
AcDbEntity
  8
部品1
 48
50.0
100
AcDbLine
 10
12108.67661750222
 20
4929.273306402814
 30
0.0
 11
12106.64599631125
 21
4909.328265145034
 31
0.0
  0
LINE
  5
15AFA
330
747D
100
AcDbEntity
  8
部品1
 48
50.0
100
AcDbLine
 10
12103.29342982677
 20
4906.017631072125
 30
0.0
 11
12095.78665056193
 21
4832.285010327112
 31
0.0
  0
LINE
  5
15AFB
330
747D
100
AcDbEntity
  8
部品1
 48
50.0
100
AcDbLine
 10
12092.43408407745
 20
4828.9743762542
 30
0.0
 11
12091.35452103771
 21
4818.370759260642
 31
0.0
  0
ARC
  5
15AFC
330
747D
100
AcDbEntity
  8
部品1
 48
50.0
100
AcDbCircle
 10
12101.71261693747
 20
4929.982317075587
 30
0.0
 40
7.0
100
AcDbArc
 50
354.1866997665576
 51
87.03587545283097
  0
ARC
  5
15AFD
330
747D
100
AcDbEntity
  8
部品1
 48
50.0
100
AcDbCircle
 10
12084.39052047295
 20
4819.079769933416
 30
0.0
 40
7.0
100
AcDbArc
 50
267.8377559869488
 51
354.1866997665576
  0
ARC
  5
15AFE
330
747D
100
AcDbEntity
  8
部品1
100
AcDbCircle
 10
12095.41865574806
 20
4828.670514537298
 30
0.0
 40
3.0
100
AcDbArc
 50
95.0921697642102
 51
174.186699766558
  0
ARC
  5
15AFF
330
747D
100
AcDbEntity
  8
部品1
100
AcDbCircle
 10
12106.27800149738
 20
4905.713769355221
 30
0.0
 40
3.0
100
AcDbArc
 50
95.0921697642102
 51
174.186699766558
  0
ARC
  5
15B00
330
747D
100
AcDbEntity
  8
部品1
100
AcDbCircle
 10
12105.94959625478
 20
4909.399166212311
 30
0.0
 40
0.7
100
AcDbArc
 50
275.0921697642102
 51
354.1866997665576
  0
ARC
  5
15B01
330
747D
100
AcDbEntity
  8
部品1
100
AcDbCircle
 10
12095.09025050546
 20
4832.355911394389
 30
0.0
 40
0.7
100
AcDbArc
 50
275.0921697642102
 51
354.186699766763
  0
DIMENSION
  5
15B02
330
747D
100
AcDbEntity
  8
寸法
 48
50.0
100
AcDbDimension
  2
*D28
 10
12109.46271469152
 20
5392.579564089474
 30
0.0
 11
12315.50995878601
 21
5392.579564089474
 31
0.0
 70
   160
 71
     5
 42
80.0
  3
INABA_S40G
100
AcDbAlignedDimension
 13
12029.46271469152
 23
4940.732790121823
 33
0.0
 14
12109.46271469152
 24
4938.922110510172
 34
0.0
100
AcDbRotatedDimension
1001
ACAD
1000
DSTYLE
1002
{
1070
   174
1070
     0
1070
   272
1070
     1
1070
   288
1070
     0
1070
   341
1005
0
1002
}
  0
DIMENSION
  5
15B03
330
747D
100
AcDbEntity
  8
寸法
 48
50.0
100
AcDbDimension
  2
*D29
 10
9847.196462980138
 20
5015.744601406985
 30
0.0
 11
9855.874206632025
 21
5245.580840423876
 31
0.0
 70
   160
 71
     5
 42
141.0
  3
INABA_S40G
100
AcDbAlignedDimension
 13
10454.80527929347
 23
4851.703135579136
 33
0.0
 14
10460.12511344543
 24
4992.60274297602
 34
0.0
 50
87.83775598715747
100
AcDbRotatedDimension
1001
ACAD
1000
DSTYLE
1002
{
1070
   174
1070
     0
1070
   272
1070
     1
1070
   288
1070
     0
1070
   341
1005
0
1002
}
  0
LINE
  5
15B04
330
747D
100
AcDbEntity
  8
部品1
 48
50.0
100
AcDbLine
 10
11114.46271469152
 20
5124.790249611449
 30
0.0
 11
11414.46271469152
 21
5124.790249611449
 31
0.0
  0
LINE
  5
15B05
330
747D
100
AcDbEntity
  8
部品1
 48
50.0
100
AcDbLine
 10
11414.46271469152
 20
5124.790249611449
 30
0.0
 11
11414.46271469152
 21
5103.190249611451
 31
0.0
  0
TEXT
  5
15B06
330
747D
100
AcDbEntity
  8
部品1
 48
50.0
100
AcDbText
 10
11102.73054991525
 20
5160.674271763883
 30
0.0
 40
120.0
  1
1000
  7
STYLE1
100
AcDbText
  0
TEXT
  5
15B07
330
747D
100
AcDbEntity
  8
部品1
 48
50.0
100
AcDbText
 10
11591.55556197938
 20
5023.1730135456
 30
0.0
 40
120.0
  1
64
 50
90.0
  7
STYLE1
100
AcDbText
  0
LINE
  5
15B08
330
747D
100
AcDbEntity
  8
部品1
100
AcDbLine
 10
11554.46271469152
 20
4758.92211051017
 30
0.0
 11
11554.46271469152
 21
2968.92211051017
 31
0.0
  0
LINE
  5
15B09
330
747D
100
AcDbEntity
  8
細線
 48
50.0
100
AcDbLine
 10
11896.96271469153
 20
4758.92211051017
 30
0.0
 11
11896.96271469153
 21
2968.92211051017
 31
0.0
  0
LINE
  5
15B0A
330
747D
100
AcDbEntity
  8
細線
 48
50.0
100
AcDbLine
 10
11911.96271469152
 20
4758.92211051017
 30
0.0
 11
11911.96271469152
 21
2968.92211051017
 31
0.0
  0
LINE
  5
15B0B
330
747D
100
AcDbEntity
  8
細線
 48
50.0
100
AcDbLine
 10
11771.96271469152
 20
4758.92211051017
 30
0.0
 11
11771.96271469152
 21
2968.92211051017
 31
0.0
  0
LINE
  5
15B0C
330
747D
100
AcDbEntity
  8
細線
 48
50.0
100
AcDbLine
 10
11756.96271469153
 20
4758.92211051017
 30
0.0
 11
11756.96271469153
 21
2968.92211051017
 31
0.0
  0
LINE
  5
15B0D
330
747D
100
AcDbEntity
  8
細線
 48
50.0
100
AcDbLine
 10
11616.96271469152
 20
4758.92211051017
 30
0.0
 11
11616.96271469152
 21
2968.92211051017
 31
0.0
  0
LINE
  5
15B0E
330
747D
100
AcDbEntity
  8
細線
 48
50.0
100
AcDbLine
 10
11631.96271469152
 20
4758.92211051017
 30
0.0
 11
11631.96271469152
 21
2968.92211051017
 31
0.0
  0
LINE
  5
15B0F
330
747D
100
AcDbEntity
  8
部品1
 48
50.0
100
AcDbLine
 10
11114.46271469152
 20
5124.790249611449
 30
0.0
 11
11414.46271469152
 21
5103.190249611451
 31
0.0
  0
LINE
  5
15B10
330
747D
100
AcDbEntity
  8
部品1
 48
0.2
100
AcDbLine
 10
10492.46034464674
 20
4758.92211051017
 30
0.0
 11
10492.46034464674
 21
4748.172110510171
 31
0.0
  0
LINE
  5
15B11
330
747D
100
AcDbEntity
  8
部品1
 48
50.0
100
AcDbLine
 10
10492.46034464674
 20
4748.17211051017
 30
0.0
 11
10499.46271469152
 21
4748.17211051017
 31
0.0
  0
LINE
  5
15B12
330
747D
100
AcDbEntity
  8
部品1
 48
50.0
100
AcDbLine
 10
10492.46034464674
 20
2979.672110510174
 30
0.0
 11
10499.46271469152
 21
2979.672110510174
 31
0.0
  0
LINE
  5
15B13
330
747D
100
AcDbEntity
  8
部品1
 48
0.2
100
AcDbLine
 10
10492.46034464674
 20
2979.672110510174
 30
0.0
 11
10492.46034464674
 21
2968.922110510174
 31
0.0
  0
LINE
  5
15B14
330
747D
100
AcDbEntity
  8
部品1
 48
50.0
100
AcDbLine
 10
10492.46034464674
 20
2968.922110510174
 30
0.0
 11
10499.46271469152
 21
2968.922110510174
 31
0.0
  0
DIMENSION
  5
15B15
330
747D
100
AcDbEntity
  8
寸法
100
AcDbDimension
  2
*D30
 10
9897.499623999321
 20
2968.922110510174
 30
0.0
 11
9897.499623999321
 21
3873.957122386559
 31
0.0
 70
   160
 71
     5
 42
1789.999999999996
  3
INABA_S40G
100
AcDbAlignedDimension
 13
10492.46034464674
 23
4758.92211051017
 33
0.0
 14
10492.46034464674
 24
2968.922110510174
 34
0.0
 50
90.0
100
AcDbRotatedDimension
1001
ACAD
1000
DSTYLE
1002
{
1070
   288
1070
     1
1002
}
  0
LINE
  5
15B16
330
747D
100
AcDbEntity
  8
仕様書枠
 48
50.0
100
AcDbLine
 10
16307.19999999997
 20
8179.600000000007
 30
0.0
 11
13127.19999999997
 21
8179.600000000007
 31
0.0
  0
TEXT
  5
15B17
330
747D
100
AcDbEntity
  8
文字
 62
     7
 48
50.0
100
AcDbText
 10
13248.77747366447
 20
8550.013745883735
 30
0.0
 40
100.0
  1
16
  7
STYLE1
100
AcDbText
  0
TEXT
  5
15B18
330
747D
100
AcDbEntity
  8
文字
 62
     7
 48
50.0
100
AcDbText
 10
15022.63965474515
 20
9060.013745883725
 30
0.0
 40
100.0
  1
F12            0.6
  7
STYLE1
100
AcDbText
  0
TEXT
  5
15B19
330
747D
100
AcDbEntity
  8
文字
 62
     7
 48
50.0
100
AcDbText
 10
13583.11819016568
 20
9060.013745883729
 30
0.0
 40
100.0
  1
脇パネル
  7
STYLE1
100
AcDbText
  0
LINE
  5
163EE
330
747D
100
AcDbEntity
  8
細線
100
AcDbLine
 10
7637.59080213114
 20
4818.422110510166
 30
0.0
 11
7637.590802131137
 21
4795.422110510165
 31
0.0
  0
LINE
  5
163EF
330
747D
100
AcDbEntity
  8
細線
100
AcDbLine
 10
7711.590802131137
 20
4806.422110510165
 30
0.0
 11
7637.59080213114
 21
4806.422110510165
 31
0.0
  0
LINE
  5
163F0
330
747D
100
AcDbEntity
  8
細線
100
AcDbLine
 10
7711.590802131137
 20
4800.422110510166
 30
0.0
 11
7637.59080213114
 21
4800.422110510166
 31
0.0
  0
LINE
  5
163F1
330
747D
100
AcDbEntity
  8
細線
100
AcDbLine
 10
7711.590802131137
 20
4812.422110510166
 30
0.0
 11
7637.59080213114
 21
4812.422110510166
 31
0.0
  0
LINE
  5
163F2
330
747D
100
AcDbEntity
  8
細線
100
AcDbLine
 10
7563.590802131141
 20
4812.422110510166
 30
0.0
 11
7632.59080213114
 21
4812.422110510166
 31
0.0
  0
LINE
  5
163F3
330
747D
100
AcDbEntity
  8
細線
100
AcDbLine
 10
7563.590802131137
 20
4800.422110510166
 30
0.0
 11
7637.59080213114
 21
4800.422110510166
 31
0.0
  0
LINE
  5
163F4
330
747D
100
AcDbEntity
  8
細線
100
AcDbLine
 10
7563.590802131141
 20
4806.422110510165
 30
0.0
 11
7637.59080213114
 21
4806.422110510165
 31
0.0
  0
LINE
  5
163F5
330
747D
100
AcDbEntity
  8
細線
100
AcDbLine
 10
7563.590802131141
 20
4812.422110510166
 30
0.0
 11
7637.59080213114
 21
4812.422110510166
 31
0.0
  0
LINE
  5
163F6
330
747D
100
AcDbEntity
  8
部品1
 48
0.01
100
AcDbLine
 10
7725.590802131141
 20
4824.922110510166
 30
0.0
 11
7549.590802131141
 21
4824.922110510166
 31
0.0
  0
LINE
  5
163F7
330
747D
100
AcDbEntity
  8
部品1
 48
0.01
100
AcDbLine
 10
7547.590802131141
 20
4822.922110510166
 30
0.0
 11
7547.590802131141
 21
4791.422110510166
 31
0.0
  0
LINE
  5
163F8
330
747D
100
AcDbEntity
  8
部品1
 48
0.01
100
AcDbLine
 10
7549.590802131141
 20
4789.422110510166
 30
0.0
 11
7725.590802131137
 21
4789.422110510166
 31
0.0
  0
LINE
  5
163F9
330
747D
100
AcDbEntity
  8
部品1
 48
0.01
100
AcDbLine
 10
7727.590802131136
 20
4791.422110510166
 30
0.0
 11
7727.590802131141
 21
4822.922110510166
 31
0.0
  0
LINE
  5
163FA
330
747D
100
AcDbEntity
  8
細線
100
AcDbLine
 10
7563.590802131141
 20
4818.422110510166
 30
0.0
 11
7563.590802131141
 21
4795.422110510165
 31
0.0
  0
LINE
  5
163FB
330
747D
100
AcDbEntity
  8
細線
100
AcDbLine
 10
7711.590802131141
 20
4795.422110510165
 30
0.0
 11
7711.590802131141
 21
4818.422110510166
 31
0.0
  0
LINE
  5
163FC
330
747D
100
AcDbEntity
  8
細線
100
AcDbLine
 10
7711.590802131141
 20
4818.422110510166
 30
0.0
 11
7637.59080213114
 21
4818.422110510166
 31
0.0
  0
LINE
  5
163FD
330
747D
100
AcDbEntity
  8
細線
100
AcDbLine
 10
7563.590802131141
 20
4795.422110510165
 30
0.0
 11
7637.59080213114
 21
4795.422110510165
 31
0.0
  0
LINE
  5
163FE
330
747D
100
AcDbEntity
  8
細線
100
AcDbLine
 10
7637.59080213114
 20
4818.422110510166
 30
0.0
 11
7563.590802131141
 21
4818.422110510166
 31
0.0
  0
LINE
  5
163FF
330
747D
100
AcDbEntity
  8
細線
100
AcDbLine
 10
7637.590802131137
 20
4795.422110510165
 30
0.0
 11
7711.590802131141
 21
4795.422110510165
 31
0.0
  0
ARC
  5
16400
330
747D
100
AcDbEntity
  8
部品1
 48
0.01
100
AcDbCircle
 10
7549.590802131141
 20
4822.922110510166
 30
0.0
 40
2.0
100
AcDbArc
 50
90.0
 51
180.0
  0
ARC
  5
16401
330
747D
100
AcDbEntity
  8
部品1
 48
0.01
100
AcDbCircle
 10
7549.590802131141
 20
4791.422110510166
 30
0.0
 40
2.0
100
AcDbArc
 50
180.0
 51
270.0
  0
ARC
  5
16402
330
747D
100
AcDbEntity
  8
部品1
 48
0.01
100
AcDbCircle
 10
7725.590802131141
 20
4822.922110510166
 30
0.0
 40
2.0
100
AcDbArc
 50
0.0
 51
90.0
  0
ARC
  5
16403
330
747D
100
AcDbEntity
  8
部品1
 48
0.01
100
AcDbCircle
 10
7725.590802131137
 20
4791.422110510166
 30
0.0
 40
2.0
100
AcDbArc
 50
270.0
 51
0.0
  0
ARC
  5
16404
330
747D
100
AcDbEntity
  8
部品1
 48
0.01
100
AcDbCircle
 10
6775.590802131137
 20
4791.422110510166
 30
0.0
 40
2.0
100
AcDbArc
 50
270.0
 51
0.0
  0
ARC
  5
16405
330
747D
100
AcDbEntity
  8
部品1
 48
0.01
100
AcDbCircle
 10
6775.590802131141
 20
4822.922110510166
 30
0.0
 40
2.0
100
AcDbArc
 50
0.0
 51
90.0
  0
ARC
  5
16406
330
747D
100
AcDbEntity
  8
部品1
 48
0.01
100
AcDbCircle
 10
6599.590802131141
 20
4791.422110510166
 30
0.0
 40
2.0
100
AcDbArc
 50
180.0
 51
270.0
  0
ARC
  5
16407
330
747D
100
AcDbEntity
  8
部品1
 48
0.01
100
AcDbCircle
 10
6599.590802131141
 20
4822.922110510166
 30
0.0
 40
2.0
100
AcDbArc
 50
90.0
 51
180.0
  0
LINE
  5
16408
330
747D
100
AcDbEntity
  8
細線
100
AcDbLine
 10
6687.590802131137
 20
4795.422110510165
 30
0.0
 11
6761.590802131141
 21
4795.422110510165
 31
0.0
  0
LINE
  5
16409
330
747D
100
AcDbEntity
  8
細線
100
AcDbLine
 10
6687.59080213114
 20
4818.422110510166
 30
0.0
 11
6613.590802131141
 21
4818.422110510166
 31
0.0
  0
LINE
  5
1640A
330
747D
100
AcDbEntity
  8
細線
100
AcDbLine
 10
6613.590802131141
 20
4795.422110510165
 30
0.0
 11
6687.59080213114
 21
4795.422110510165
 31
0.0
  0
LINE
  5
1640B
330
747D
100
AcDbEntity
  8
細線
100
AcDbLine
 10
6761.590802131141
 20
4818.422110510166
 30
0.0
 11
6687.59080213114
 21
4818.422110510166
 31
0.0
  0
LINE
  5
1640C
330
747D
100
AcDbEntity
  8
細線
100
AcDbLine
 10
6761.590802131141
 20
4795.422110510165
 30
0.0
 11
6761.590802131141
 21
4818.422110510166
 31
0.0
  0
LINE
  5
1640D
330
747D
100
AcDbEntity
  8
細線
100
AcDbLine
 10
6613.590802131141
 20
4818.422110510166
 30
0.0
 11
6613.590802131141
 21
4795.422110510165
 31
0.0
  0
LINE
  5
1640E
330
747D
100
AcDbEntity
  8
部品1
 48
0.01
100
AcDbLine
 10
6777.590802131136
 20
4791.422110510166
 30
0.0
 11
6777.590802131141
 21
4822.922110510166
 31
0.0
  0
LINE
  5
1640F
330
747D
100
AcDbEntity
  8
部品1
 48
0.01
100
AcDbLine
 10
6599.590802131141
 20
4789.422110510166
 30
0.0
 11
6775.590802131137
 21
4789.422110510166
 31
0.0
  0
LINE
  5
16410
330
747D
100
AcDbEntity
  8
部品1
 48
0.01
100
AcDbLine
 10
6597.590802131141
 20
4822.922110510166
 30
0.0
 11
6597.590802131141
 21
4791.422110510166
 31
0.0
  0
LINE
  5
16411
330
747D
100
AcDbEntity
  8
部品1
 48
0.01
100
AcDbLine
 10
6775.590802131141
 20
4824.922110510166
 30
0.0
 11
6599.590802131141
 21
4824.922110510166
 31
0.0
  0
LINE
  5
16412
330
747D
100
AcDbEntity
  8
細線
100
AcDbLine
 10
6613.590802131141
 20
4812.422110510166
 30
0.0
 11
6687.59080213114
 21
4812.422110510166
 31
0.0
  0
LINE
  5
16413
330
747D
100
AcDbEntity
  8
細線
100
AcDbLine
 10
6613.590802131141
 20
4806.422110510165
 30
0.0
 11
6687.59080213114
 21
4806.422110510165
 31
0.0
  0
LINE
  5
16414
330
747D
100
AcDbEntity
  8
細線
100
AcDbLine
 10
6613.590802131136
 20
4800.422110510166
 30
0.0
 11
6687.59080213114
 21
4800.422110510166
 31
0.0
  0
LINE
  5
16415
330
747D
100
AcDbEntity
  8
細線
100
AcDbLine
 10
6613.590802131141
 20
4812.422110510166
 30
0.0
 11
6682.590802131141
 21
4812.422110510166
 31
0.0
  0
LINE
  5
16416
330
747D
100
AcDbEntity
  8
細線
100
AcDbLine
 10
6761.590802131137
 20
4812.422110510166
 30
0.0
 11
6687.59080213114
 21
4812.422110510166
 31
0.0
  0
LINE
  5
16417
330
747D
100
AcDbEntity
  8
細線
100
AcDbLine
 10
6761.590802131137
 20
4800.422110510166
 30
0.0
 11
6687.59080213114
 21
4800.422110510166
 31
0.0
  0
LINE
  5
16418
330
747D
100
AcDbEntity
  8
細線
100
AcDbLine
 10
6761.590802131137
 20
4806.422110510165
 30
0.0
 11
6687.59080213114
 21
4806.422110510165
 31
0.0
  0
LINE
  5
16419
330
747D
100
AcDbEntity
  8
細線
100
AcDbLine
 10
6687.59080213114
 20
4818.422110510166
 30
0.0
 11
6687.590802131137
 21
4795.422110510165
 31
0.0
  0
LINE
  5
1641A
330
747D
100
AcDbEntity
  8
細線
100
AcDbLine
 10
5737.590802131141
 20
4818.422110510166
 30
0.0
 11
5737.590802131137
 21
4795.422110510165
 31
0.0
  0
LINE
  5
1641B
330
747D
100
AcDbEntity
  8
細線
100
AcDbLine
 10
5811.590802131137
 20
4806.422110510165
 30
0.0
 11
5737.590802131141
 21
4806.422110510165
 31
0.0
  0
LINE
  5
1641C
330
747D
100
AcDbEntity
  8
細線
100
AcDbLine
 10
5811.590802131137
 20
4800.422110510166
 30
0.0
 11
5737.590802131141
 21
4800.422110510166
 31
0.0
  0
LINE
  5
1641D
330
747D
100
AcDbEntity
  8
細線
100
AcDbLine
 10
5811.590802131137
 20
4812.422110510166
 30
0.0
 11
5737.590802131141
 21
4812.422110510166
 31
0.0
  0
LINE
  5
1641E
330
747D
100
AcDbEntity
  8
細線
100
AcDbLine
 10
5663.590802131141
 20
4812.422110510166
 30
0.0
 11
5732.590802131141
 21
4812.422110510166
 31
0.0
  0
LINE
  5
1641F
330
747D
100
AcDbEntity
  8
細線
100
AcDbLine
 10
5663.590802131137
 20
4800.422110510166
 30
0.0
 11
5737.590802131141
 21
4800.422110510166
 31
0.0
  0
LINE
  5
16420
330
747D
100
AcDbEntity
  8
細線
100
AcDbLine
 10
5663.590802131141
 20
4806.422110510165
 30
0.0
 11
5737.590802131141
 21
4806.422110510165
 31
0.0
  0
LINE
  5
16421
330
747D
100
AcDbEntity
  8
細線
100
AcDbLine
 10
5663.590802131141
 20
4812.422110510166
 30
0.0
 11
5737.590802131141
 21
4812.422110510166
 31
0.0
  0
LINE
  5
16422
330
747D
100
AcDbEntity
  8
部品1
 48
0.01
100
AcDbLine
 10
5825.590802131141
 20
4824.922110510166
 30
0.0
 11
5649.59080213114
 21
4824.922110510166
 31
0.0
  0
LINE
  5
16423
330
747D
100
AcDbEntity
  8
部品1
 48
0.01
100
AcDbLine
 10
5647.590802131141
 20
4822.922110510166
 30
0.0
 11
5647.590802131141
 21
4791.422110510166
 31
0.0
  0
LINE
  5
16424
330
747D
100
AcDbEntity
  8
部品1
 48
0.01
100
AcDbLine
 10
5649.59080213114
 20
4789.422110510166
 30
0.0
 11
5825.590802131137
 21
4789.422110510166
 31
0.0
  0
LINE
  5
16425
330
747D
100
AcDbEntity
  8
部品1
 48
0.01
100
AcDbLine
 10
5827.590802131137
 20
4791.422110510166
 30
0.0
 11
5827.59080213114
 21
4822.922110510166
 31
0.0
  0
LINE
  5
16426
330
747D
100
AcDbEntity
  8
細線
100
AcDbLine
 10
5663.590802131141
 20
4818.422110510166
 30
0.0
 11
5663.590802131141
 21
4795.422110510165
 31
0.0
  0
LINE
  5
16427
330
747D
100
AcDbEntity
  8
細線
100
AcDbLine
 10
5811.59080213114
 20
4795.422110510165
 30
0.0
 11
5811.59080213114
 21
4818.422110510166
 31
0.0
  0
LINE
  5
16428
330
747D
100
AcDbEntity
  8
細線
100
AcDbLine
 10
5811.59080213114
 20
4818.422110510166
 30
0.0
 11
5737.590802131141
 21
4818.422110510166
 31
0.0
  0
LINE
  5
16429
330
747D
100
AcDbEntity
  8
細線
100
AcDbLine
 10
5663.590802131141
 20
4795.422110510165
 30
0.0
 11
5737.590802131141
 21
4795.422110510165
 31
0.0
  0
LINE
  5
1642A
330
747D
100
AcDbEntity
  8
細線
100
AcDbLine
 10
5737.590802131141
 20
4818.422110510166
 30
0.0
 11
5663.590802131141
 21
4818.422110510166
 31
0.0
  0
LINE
  5
1642B
330
747D
100
AcDbEntity
  8
細線
100
AcDbLine
 10
5737.590802131137
 20
4795.422110510165
 30
0.0
 11
5811.59080213114
 21
4795.422110510165
 31
0.0
  0
ARC
  5
1642C
330
747D
100
AcDbEntity
  8
部品1
 48
0.01
100
AcDbCircle
 10
5649.59080213114
 20
4822.922110510166
 30
0.0
 40
2.0
100
AcDbArc
 50
90.0
 51
180.0
  0
ARC
  5
1642D
330
747D
100
AcDbEntity
  8
部品1
 48
0.01
100
AcDbCircle
 10
5649.59080213114
 20
4791.422110510166
 30
0.0
 40
2.0
100
AcDbArc
 50
180.0
 51
270.0
  0
ARC
  5
1642E
330
747D
100
AcDbEntity
  8
部品1
 48
0.01
100
AcDbCircle
 10
5825.590802131141
 20
4822.922110510166
 30
0.0
 40
2.0
100
AcDbArc
 50
0.0
 51
90.0
  0
ARC
  5
1642F
330
747D
100
AcDbEntity
  8
部品1
 48
0.01
100
AcDbCircle
 10
5825.590802131137
 20
4791.422110510166
 30
0.0
 40
2.0
100
AcDbArc
 50
270.0
 51
0.0
  0
ARC
  5
16430
330
747D
100
AcDbEntity
  8
部品1
 48
0.01
100
AcDbCircle
 10
4875.590802131137
 20
4791.422110510167
 30
0.0
 40
2.0
100
AcDbArc
 50
270.0
 51
0.0
  0
ARC
  5
16431
330
747D
100
AcDbEntity
  8
部品1
 48
0.01
100
AcDbCircle
 10
4875.59080213114
 20
4822.922110510168
 30
0.0
 40
2.0
100
AcDbArc
 50
0.0
 51
90.0
  0
ARC
  5
16432
330
747D
100
AcDbEntity
  8
部品1
 48
0.01
100
AcDbCircle
 10
4699.59080213114
 20
4791.422110510167
 30
0.0
 40
2.0
100
AcDbArc
 50
180.0
 51
270.0
  0
ARC
  5
16433
330
747D
100
AcDbEntity
  8
部品1
 48
0.01
100
AcDbCircle
 10
4699.59080213114
 20
4822.922110510168
 30
0.0
 40
2.0
100
AcDbArc
 50
90.0
 51
180.0
  0
LINE
  5
16434
330
747D
100
AcDbEntity
  8
細線
100
AcDbLine
 10
4787.590802131137
 20
4795.422110510168
 30
0.0
 11
4861.59080213114
 21
4795.422110510168
 31
0.0
  0
LINE
  5
16435
330
747D
100
AcDbEntity
  8
細線
100
AcDbLine
 10
4787.59080213114
 20
4818.422110510168
 30
0.0
 11
4713.590802131141
 21
4818.422110510168
 31
0.0
  0
LINE
  5
16436
330
747D
100
AcDbEntity
  8
細線
100
AcDbLine
 10
4713.590802131141
 20
4795.422110510168
 30
0.0
 11
4787.59080213114
 21
4795.422110510168
 31
0.0
  0
LINE
  5
16437
330
747D
100
AcDbEntity
  8
細線
100
AcDbLine
 10
4861.59080213114
 20
4818.422110510168
 30
0.0
 11
4787.59080213114
 21
4818.422110510168
 31
0.0
  0
LINE
  5
16438
330
747D
100
AcDbEntity
  8
細線
100
AcDbLine
 10
4861.59080213114
 20
4795.422110510168
 30
0.0
 11
4861.59080213114
 21
4818.422110510168
 31
0.0
  0
LINE
  5
16439
330
747D
100
AcDbEntity
  8
細線
100
AcDbLine
 10
4713.590802131141
 20
4818.422110510168
 30
0.0
 11
4713.590802131141
 21
4795.422110510168
 31
0.0
  0
LINE
  5
1643A
330
747D
100
AcDbEntity
  8
部品1
 48
0.01
100
AcDbLine
 10
4877.590802131138
 20
4791.422110510167
 30
0.0
 11
4877.590802131141
 21
4822.922110510168
 31
0.0
  0
LINE
  5
1643B
330
747D
100
AcDbEntity
  8
部品1
 48
0.01
100
AcDbLine
 10
4699.59080213114
 20
4789.422110510168
 30
0.0
 11
4875.590802131137
 21
4789.422110510168
 31
0.0
  0
LINE
  5
1643C
330
747D
100
AcDbEntity
  8
部品1
 48
0.01
100
AcDbLine
 10
4697.59080213114
 20
4822.922110510168
 30
0.0
 11
4697.59080213114
 21
4791.422110510167
 31
0.0
  0
LINE
  5
1643D
330
747D
100
AcDbEntity
  8
部品1
 48
0.01
100
AcDbLine
 10
4875.59080213114
 20
4824.922110510168
 30
0.0
 11
4699.59080213114
 21
4824.922110510168
 31
0.0
  0
LINE
  5
1643E
330
747D
100
AcDbEntity
  8
細線
100
AcDbLine
 10
4713.590802131141
 20
4812.422110510168
 30
0.0
 11
4787.59080213114
 21
4812.422110510168
 31
0.0
  0
LINE
  5
1643F
330
747D
100
AcDbEntity
  8
細線
100
AcDbLine
 10
4713.590802131141
 20
4806.422110510168
 30
0.0
 11
4787.59080213114
 21
4806.422110510168
 31
0.0
  0
LINE
  5
16440
330
747D
100
AcDbEntity
  8
細線
100
AcDbLine
 10
4713.590802131137
 20
4800.422110510168
 30
0.0
 11
4787.59080213114
 21
4800.422110510168
 31
0.0
  0
LINE
  5
16441
330
747D
100
AcDbEntity
  8
細線
100
AcDbLine
 10
4713.590802131141
 20
4812.422110510168
 30
0.0
 11
4782.59080213114
 21
4812.422110510168
 31
0.0
  0
LINE
  5
16442
330
747D
100
AcDbEntity
  8
細線
100
AcDbLine
 10
4861.590802131137
 20
4812.422110510168
 30
0.0
 11
4787.59080213114
 21
4812.422110510168
 31
0.0
  0
LINE
  5
16443
330
747D
100
AcDbEntity
  8
細線
100
AcDbLine
 10
4861.590802131137
 20
4800.422110510168
 30
0.0
 11
4787.59080213114
 21
4800.422110510168
 31
0.0
  0
LINE
  5
16444
330
747D
100
AcDbEntity
  8
細線
100
AcDbLine
 10
4861.590802131137
 20
4806.422110510168
 30
0.0
 11
4787.59080213114
 21
4806.422110510168
 31
0.0
  0
LINE
  5
16445
330
747D
100
AcDbEntity
  8
細線
100
AcDbLine
 10
4787.59080213114
 20
4818.422110510168
 30
0.0
 11
4787.590802131137
 21
4795.422110510168
 31
0.0
  0
LWPOLYLINE
  5
16446
330
747D
100
AcDbEntity
  8
部品1
100
AcDbPolyline
 90
        4
 70
     1
 43
0.0
 10
5830.855469016911
 20
2215.845529693454
 10
5830.855469016911
 20
1975.953208147921
 10
6594.326135245353
 20
1975.953208147921
 10
6594.326135245353
 20
2215.845529693454
  0
TEXT
  5
16447
330
747D
100
AcDbEntity
  8
部品1
100
AcDbText
 10
5921.380872754867
 20
2022.95200047493
 30
0.0
 40
135.0
  1
正面図
  7
STYLE2
100
AcDbText
  0
LINE
  5
16448
330
747D
100
AcDbEntity
  8
部品1
100
AcDbLine
 10
8162.171141115811
 20
4986.525585114932
 30
0.0
 11
8161.037743783465
 21
4966.549457132333
 31
0.0
  0
LINE
  5
16449
330
747D
100
AcDbEntity
  8
細線
 48
50.0
100
AcDbLine
 10
8129.590802131145
 20
4993.922110510172
 30
0.0
 11
8129.590802131145
 21
4852.922110510172
 31
0.0
  0
LINE
  5
1644A
330
747D
100
AcDbEntity
  8
部品1
100
AcDbLine
 10
8149.600723461889
 20
4870.892049965274
 30
0.0
 11
8148.955817654776
 21
4859.525585114933
 31
0.0
  0
LINE
  5
1644B
330
747D
100
AcDbEntity
  8
部品1
100
AcDbLine
 10
8157.836753986734
 20
4963.092049965275
 30
0.0
 11
8152.801713258622
 21
4874.349457132332
 31
0.0
  0
ARC
  5
1644C
330
747D
100
AcDbEntity
  8
部品1
 48
50.0
100
AcDbCircle
 10
8160.831936882919
 20
4962.922110510174
 30
0.0
 40
3.0
100
AcDbArc
 50
97.65812720736519
 51
176.7526572096682
  0
ARC
  5
1644D
330
747D
100
AcDbEntity
  8
部品1
 48
50.0
100
AcDbCircle
 10
8152.595906358074
 20
4870.722110510171
 30
0.0
 40
3.0
100
AcDbArc
 50
97.65812720736519
 51
176.7526572096682
  0
ARC
  5
1644E
330
747D
100
AcDbEntity
  8
部品1
 48
50.0
100
AcDbCircle
 10
8152.102837249513
 20
4874.389109671854
 30
0.0
 40
0.7
100
AcDbArc
 50
277.6581272073652
 51
356.7526572097202
  0
ARC
  5
1644F
330
747D
100
AcDbEntity
  8
部品1
 48
50.0
100
AcDbCircle
 10
8160.338867774356
 20
4966.589109671859
 30
0.0
 40
0.7
100
AcDbArc
 50
277.6581272073652
 51
356.7526572096162
  0
ARC
  5
16450
330
747D
100
AcDbEntity
  8
部品1
100
AcDbCircle
 10
8141.967057563677
 20
4859.922110510173
 30
0.0
 40
7.0
100
AcDbArc
 50
270.0
 51
356.7526572096682
  0
ARC
  5
16451
330
747D
100
AcDbEntity
  8
部品1
100
AcDbCircle
 10
8155.182381024712
 20
4986.922110510171
 30
0.0
 40
7.0
100
AcDbArc
 50
356.7526572096682
 51
90.0
  0
DIMENSION
  5
16452
330
747D
100
AcDbEntity
  8
寸法
 48
50.0
100
AcDbDimension
  2
*D31
 10
8112.590802131144
 20
5206.463695768412
 30
0.0
 11
8476.076083505381
 21
5206.463695768412
 31
0.0
 70
   160
 71
     5
 42
50.0
  3
INABA_S40G
100
AcDbAlignedDimension
 13
8162.590802131145
 23
4993.922110510172
 33
0.0
 14
8112.590802131144
 24
4993.922110510173
 34
0.0
100
AcDbRotatedDimension
  0
LINE
  5
16453
330
747D
100
AcDbEntity
  8
部品1
 48
50.0
100
AcDbLine
 10
8155.182381024712
 20
4993.922110510176
 30
0.0
 11
4269.99922323757
 21
4993.922110510172
 31
0.0
  0
LINE
  5
16454
330
747D
100
AcDbEntity
  8
細線
 48
50.0
100
AcDbLine
 10
8160.432151119694
 20
4965.895353073705
 30
0.0
 11
4264.749453141553
 21
4965.895353074171
 31
0.0
  0
LINE
  5
16455
330
747D
100
AcDbEntity
  8
細線
 48
50.0
100
AcDbLine
 10
8152.196120594908
 20
4873.695353073708
 30
0.0
 11
4272.985483666388
 21
4873.69535307417
 31
0.0
  0
LINE
  5
16456
330
747D
100
AcDbEntity
  8
部品1
 48
50.0
100
AcDbLine
 10
8141.967057563677
 20
4852.922110510172
 30
0.0
 11
4283.214546698604
 21
4852.922110510173
 31
0.0
  0
LINE
  5
16457
330
747D
100
AcDbEntity
  8
細線
 48
50.0
100
AcDbLine
 10
4295.59080213114
 20
4993.922110510175
 30
0.0
 11
4295.59080213114
 21
4852.922110510173
 31
0.0
  0
ARC
  5
16458
330
747D
100
AcDbEntity
  8
部品1
100
AcDbCircle
 10
4269.99922323757
 20
4986.922110510175
 30
0.0
 40
7.0
100
AcDbArc
 50
90.0
 51
183.2473427903317
  0
ARC
  5
16459
330
747D
100
AcDbEntity
  8
部品1
100
AcDbCircle
 10
4283.214546698604
 20
4859.922110510177
 30
0.0
 40
7.0
100
AcDbArc
 50
183.2473427903317
 51
270.0
  0
ARC
  5
1645A
330
747D
100
AcDbEntity
  8
部品1
 48
50.0
100
AcDbCircle
 10
4264.842736487928
 20
4966.589109671862
 30
0.0
 40
0.7
100
AcDbArc
 50
183.2473427903838
 51
262.3418727926349
  0
ARC
  5
1645B
330
747D
100
AcDbEntity
  8
部品1
 48
50.0
100
AcDbCircle
 10
4273.078767012768
 20
4874.389109671859
 30
0.0
 40
0.7
100
AcDbArc
 50
183.2473427902797
 51
262.3418727926349
  0
ARC
  5
1645C
330
747D
100
AcDbEntity
  8
部品1
 48
50.0
100
AcDbCircle
 10
4272.585697904207
 20
4870.722110510175
 30
0.0
 40
3.0
100
AcDbArc
 50
3.247342790331777
 51
82.3418727926348
  0
ARC
  5
1645D
330
747D
100
AcDbEntity
  8
部品1
 48
50.0
100
AcDbCircle
 10
4264.349667379363
 20
4962.922110510177
 30
0.0
 40
3.0
100
AcDbArc
 50
3.247342790331777
 51
82.3418727926348
  0
LINE
  5
1645E
330
747D
100
AcDbEntity
  8
部品1
100
AcDbLine
 10
4267.344850275549
 20
4963.092049965279
 30
0.0
 11
4272.379891003661
 21
4874.349457132336
 31
0.0
  0
LINE
  5
1645F
330
747D
100
AcDbEntity
  8
部品1
100
AcDbLine
 10
4275.580880800396
 20
4870.892049965277
 30
0.0
 11
4276.225786607505
 21
4859.525585114936
 31
0.0
  0
LINE
  5
16460
330
747D
100
AcDbEntity
  8
部品1
100
AcDbLine
 10
4263.01046314647
 20
4986.525585114936
 30
0.0
 11
4264.14386047882
 21
4966.549457132336
 31
0.0
  0
DIMENSION
  5
16461
330
747D
100
AcDbEntity
  8
寸法
 48
50.0
100
AcDbDimension
  2
*D32
 10
4262.590802131141
 20
5206.463695768416
 30
0.0
 11
3949.105520756893
 21
5206.463695768416
 31
0.0
 70
   160
 71
     5
 42
50.0
  3
INABA_S40G
100
AcDbAlignedDimension
 13
4312.590802131141
 23
4993.922110510179
 33
0.0
 14
4262.590802131141
 24
4993.922110510177
 34
0.0
100
AcDbRotatedDimension
1001
ACAD
1000
DSTYLE
1002
{
1002
}
  0
DIMENSION
  5
16462
330
747D
100
AcDbEntity
  8
寸法
 48
50.0
100
AcDbDimension
  2
*D33
 10
8162.590802131145
 20
5429.420674206263
 30
0.0
 11
6212.590802131131
 21
5429.420674206263
 31
0.0
 70
   160
 71
     5
 42
3900.000000000004
  3
INABA_S40G
100
AcDbAlignedDimension
 13
4262.590802131141
 23
4993.922110510177
 33
0.0
 14
8162.590802131145
 24
4993.922110510172
 34
0.0
100
AcDbRotatedDimension
  0
DIMENSION
  5
16463
330
747D
100
AcDbEntity
  8
寸法
 48
50.0
100
AcDbDimension
  2
*D34
 10
4312.590802131141
 20
5206.463695768416
 30
0.0
 11
6212.590802131131
 21
5206.463695768416
 31
0.0
 70
   160
  1
柱外寸法<>
 71
     5
 42
3800.000000000004
  3
INABA_S40G
100
AcDbAlignedDimension
 13
8112.590802131144
 23
4993.922110510173
 33
0.0
 14
4312.590802131141
 24
4993.922110510179
 34
0.0
100
AcDbRotatedDimension
  0
LINE
  5
164AC
330
747D
100
AcDbEntity
  8
部品1
 48
50.0
100
AcDbLine
 10
6212.590802131141
 20
2961.922110510173
 30
0.0
 11
6212.590802131141
 21
2918.922110510171
 31
0.0
  0
LINE
  5
164AD
330
747D
100
AcDbEntity
  8
細線
 48
50.0
100
AcDbLine
 10
6202.59080213114
 20
4852.922110510172
 30
0.0
 11
6202.59080213114
 21
4993.922110510174
 31
0.0
  0
LINE
  5
164AE
330
747D
100
AcDbEntity
  8
細線
 48
50.0
100
AcDbLine
 10
6212.590802131141
 20
4852.922110510172
 30
0.0
 11
6212.590802131141
 21
4758.92211051017
 31
0.0
  0
LINE
  5
164AF
330
747D
100
AcDbEntity
  8
細線
 48
50.0
100
AcDbLine
 10
5083.51600715412
 20
4754.172110510171
 30
0.0
 11
5083.51600715412
 21
4752.172110510172
 31
0.0
  0
LINE
  5
164B0
330
747D
100
AcDbEntity
  8
細線
 48
0.1
100
AcDbLine
 10
5087.52835430246
 20
4756.672110510171
 30
0.0
 11
5087.52835430246
 21
4749.672110510171
 31
0.0
  0
LINE
  5
164B1
330
747D
100
AcDbEntity
  8
細線
 48
50.0
100
AcDbLine
 10
5075.665597108156
 20
4754.172110510171
 30
0.0
 11
5075.665597108156
 21
4752.172110510172
 31
0.0
  0
LINE
  5
164B2
330
747D
100
AcDbEntity
  8
部品1
 48
50.0
100
AcDbLine
 10
5067.52835430246
 20
4749.672110510171
 30
0.0
 11
5067.52835430246
 21
4756.422110510171
 31
0.0
  0
LINE
  5
164B3
330
747D
100
AcDbEntity
  8
部品1
 48
0.2
100
AcDbLine
 10
5087.52835430246
 20
4749.672110510171
 30
0.0
 11
5067.52835430246
 21
4749.672110510171
 31
0.0
  0
LINE
  5
164B4
330
747D
100
AcDbEntity
  8
細線
 48
0.2
100
AcDbLine
 10
5087.52835430246
 20
4752.172110510172
 30
0.0
 11
5067.52835430246
 21
4752.172110510172
 31
0.0
  0
LINE
  5
164B5
330
747D
100
AcDbEntity
  8
細線
 48
0.2
100
AcDbLine
 10
5085.212345598968
 20
4757.372110510172
 30
0.0
 11
5073.844363005956
 21
4757.372110510172
 31
0.0
  0
ARC
  5
164B6
330
747D
100
AcDbEntity
  8
細線
 48
0.2
100
AcDbCircle
 10
5079.52835430246
 20
4739.872110510174
 30
0.0
 40
18.49999999999796
100
AcDbArc
 50
73.39845040100779
 51
106.6015495989922
  0
LINE
  5
164B7
330
747D
100
AcDbEntity
  8
細線
 48
0.2
100
AcDbLine
 10
5087.52835430246
 20
4754.172110510171
 30
0.0
 11
5067.52835430246
 21
4754.172110510171
 31
0.0
  0
LINE
  5
164B8
330
747D
100
AcDbEntity
  8
細線
 48
0.2
100
AcDbLine
 10
5087.52835430246
 20
4756.672110510171
 30
0.0
 11
5067.52835430246
 21
4756.672110510171
 31
0.0
  0
ARC
  5
164B9
330
747D
100
AcDbEntity
  8
細線
 48
0.2
100
AcDbCircle
 10
5074.52835430246
 20
4756.642620341419
 30
0.0
 40
1.0
100
AcDbArc
 50
106.6015495989922
 51
180.0
  0
LINE
  5
164BA
330
747D
100
AcDbEntity
  8
細線
 48
50.0
100
AcDbLine
 10
5067.52835430246
 20
4756.422110510171
 30
0.0
 11
5067.52835430246
 21
4756.672110510171
 31
0.0
  0
ARC
  5
164BB
330
747D
100
AcDbEntity
  8
細線
 48
0.2
100
AcDbCircle
 10
5084.528354302459
 20
4756.642620341419
 30
0.0
 40
1.0
100
AcDbArc
 50
0.0
 51
73.39845040100779
  0
LINE
  5
164BC
330
747D
100
AcDbEntity
  8
部品1
100
AcDbLine
 10
5087.52835430246
 20
4756.422110510171
 30
0.0
 11
5087.590802131141
 21
4756.422110510169
 31
0.0
  0
LINE
  5
164BD
330
747D
100
AcDbEntity
  8
部品1
100
AcDbLine
 10
4357.590802131141
 20
4756.422110510171
 30
0.0
 11
5067.52835430246
 21
4756.422110510171
 31
0.0
  0
LINE
  5
164BE
330
747D
100
AcDbEntity
  8
細線
100
AcDbLine
 10
5367.59080213114
 20
3910.92211051017
 30
0.0
 11
5336.971758495618
 21
3910.92211051017
 31
0.0
  0
LINE
  5
164BF
330
747D
100
AcDbEntity
  8
細線
100
AcDbLine
 10
5347.085226040974
 20
3904.92211051017
 30
0.0
 11
5345.590802131141
 21
3904.92211051017
 31
0.0
  0
ARC
  5
164C0
330
747D
100
AcDbEntity
  8
細線
100
AcDbCircle
 10
5347.085226040974
 20
3901.92211051017
 30
0.0
 40
3.0
100
AcDbArc
 50
8.099550838261343
 51
90.0
  0
LINE
  5
164C1
330
747D
100
AcDbEntity
  8
細線
100
AcDbLine
 10
5357.798341309886
 20
3907.92211051017
 30
0.0
 11
5345.590802131141
 21
3907.92211051017
 31
0.0
  0
ARC
  5
164C2
330
747D
100
AcDbEntity
  8
細線
100
AcDbCircle
 10
5357.798341309886
 20
3901.92211051017
 30
0.0
 40
6.0
100
AcDbArc
 50
0.0
 51
90.0
  0
CIRCLE
  5
164C3
330
747D
100
AcDbEntity
  8
細線
 48
50.0
100
AcDbCircle
 10
5353.091667185633
 20
3961.42211051017
 30
0.0
 40
10.0
  0
ARC
  5
164C4
330
747D
100
AcDbEntity
  8
細線
100
AcDbCircle
 10
5372.59080213114
 20
3913.92211051017
 30
0.0
 40
5.5
100
AcDbArc
 50
0.0
 51
90.0
  0
ARC
  5
164C5
330
747D
100
AcDbEntity
  8
部品1
100
AcDbCircle
 10
5373.590802131141
 20
3914.92211051017
 30
0.0
 40
6.0
100
AcDbArc
 50
0.0
 51
90.0
  0
ARC
  5
164C6
330
747D
100
AcDbEntity
  8
細線
100
AcDbCircle
 10
5367.59080213114
 20
3904.92211051017
 30
0.0
 40
6.0
100
AcDbArc
 50
0.0
 51
90.0
  0
ARC
  5
164C7
330
747D
100
AcDbEntity
  8
部品1
100
AcDbCircle
 10
5332.592532240125
 20
3914.92211051017
 30
0.0
 40
6.0
100
AcDbArc
 50
90.0
 51
169.4161974034797
  0
ARC
  5
164C8
330
747D
100
AcDbEntity
  8
細線
100
AcDbCircle
 10
5333.424183661895
 20
3913.92211051017
 30
0.0
 40
5.5
100
AcDbArc
 50
90.0
 51
169.5785490272547
  0
LINE
  5
164C9
330
747D
100
AcDbEntity
  8
細線
100
AcDbLine
 10
5372.59080213114
 20
3919.42211051017
 30
0.0
 11
5333.424183661895
 21
3919.42211051017
 31
0.0
  0
LINE
  5
164CA
330
747D
100
AcDbEntity
  8
部品1
100
AcDbLine
 10
5373.590802131141
 20
3920.92211051017
 30
0.0
 11
5332.592532240125
 21
3920.92211051017
 31
0.0
  0
CIRCLE
  5
164CB
330
747D
100
AcDbEntity
  8
細線
 48
50.0
100
AcDbCircle
 10
5353.091667185633
 20
3961.42211051017
 30
0.0
 40
20.0
  0
LINE
  5
164CC
330
747D
100
AcDbEntity
  8
細線
100
AcDbLine
 10
5345.590802131141
 20
3904.921602611608
 30
0.0
 11
5332.827474915173
 21
3904.921602611608
 31
0.0
  0
ARC
  5
164CD
330
747D
100
AcDbEntity
  8
細線
100
AcDbCircle
 10
5336.971758495618
 20
3904.92211051017
 30
0.0
 40
6.0
100
AcDbArc
 50
90.0
 51
171.2120626773674
  0
LINE
  5
164CE
330
747D
100
AcDbEntity
  8
細線
100
AcDbLine
 10
5336.971758495618
 20
3810.922110510169
 30
0.0
 11
5367.59080213114
 21
3810.922110510169
 31
0.0
  0
LINE
  5
164CF
330
747D
100
AcDbEntity
  8
細線
100
AcDbLine
 10
5345.590802131141
 20
3816.92211051017
 30
0.0
 11
5347.085226040976
 21
3816.92211051017
 31
0.0
  0
ARC
  5
164D0
330
747D
100
AcDbEntity
  8
細線
100
AcDbCircle
 10
5347.085226040976
 20
3819.92211051017
 30
0.0
 40
3.0
100
AcDbArc
 50
270.0
 51
351.9004491617129
  0
LINE
  5
164D1
330
747D
100
AcDbEntity
  8
細線
100
AcDbLine
 10
5345.590802131141
 20
3813.92211051017
 30
0.0
 11
5357.798341309886
 21
3813.92211051017
 31
0.0
  0
ARC
  5
164D2
330
747D
100
AcDbEntity
  8
細線
100
AcDbCircle
 10
5357.798341309886
 20
3819.92211051017
 30
0.0
 40
6.0
100
AcDbArc
 50
270.0
 51
0.0
  0
ARC
  5
164D3
330
747D
100
AcDbEntity
  8
細線
100
AcDbCircle
 10
5372.59080213114
 20
3807.922110510169
 30
0.0
 40
5.5
100
AcDbArc
 50
270.0
 51
0.0
  0
ARC
  5
164D4
330
747D
100
AcDbEntity
  8
部品1
100
AcDbCircle
 10
5373.590802131141
 20
3806.92211051017
 30
0.0
 40
6.0
100
AcDbArc
 50
270.0
 51
0.0
  0
ARC
  5
164D5
330
747D
100
AcDbEntity
  8
細線
100
AcDbCircle
 10
5367.59080213114
 20
3816.92211051017
 30
0.0
 40
6.0
100
AcDbArc
 50
270.0
 51
0.0
  0
ARC
  5
164D6
330
747D
100
AcDbEntity
  8
部品1
100
AcDbCircle
 10
5332.592532240125
 20
3806.92211051017
 30
0.0
 40
6.0
100
AcDbArc
 50
190.5838025965202
 51
270.0
  0
ARC
  5
164D7
330
747D
100
AcDbEntity
  8
細線
100
AcDbCircle
 10
5333.424183661895
 20
3807.922110510169
 30
0.0
 40
5.5
100
AcDbArc
 50
190.4214509727453
 51
270.0
  0
LINE
  5
164D8
330
747D
100
AcDbEntity
  8
細線
100
AcDbLine
 10
5333.424183661895
 20
3802.42211051017
 30
0.0
 11
5372.59080213114
 21
3802.42211051017
 31
0.0
  0
LINE
  5
164D9
330
747D
100
AcDbEntity
  8
部品1
100
AcDbLine
 10
5332.592532240125
 20
3800.92211051017
 30
0.0
 11
5373.590802131141
 21
3800.92211051017
 31
0.0
  0
LINE
  5
164DA
330
747D
100
AcDbEntity
  8
細線
100
AcDbLine
 10
5345.590802131141
 20
3816.922618408733
 30
0.0
 11
5332.112097632318
 21
3816.922618408733
 31
0.0
  0
ARC
  5
164DB
330
747D
100
AcDbEntity
  8
細線
100
AcDbCircle
 10
5336.971758495618
 20
3816.92211051017
 30
0.0
 40
6.0
100
AcDbArc
 50
188.7879373226326
 51
270.0
  0
LINE
  5
164DC
330
747D
100
AcDbEntity
  8
細線
100
AcDbLine
 10
5363.798341309887
 20
3819.92211051017
 30
0.0
 11
5363.798341309887
 21
3901.92211051017
 31
0.0
  0
LINE
  5
164DD
330
747D
100
AcDbEntity
  8
細線
100
AcDbLine
 10
5345.590802131141
 20
3910.92211051017
 30
0.0
 11
5345.590802131141
 21
3810.922110510169
 31
0.0
  0
ARC
  5
164DE
330
747D
100
AcDbEntity
  8
部品1
100
AcDbCircle
 10
5621.590802131141
 20
3860.92211051017
 30
0.0
 40
300.0
100
AcDbArc
 50
169.4161974034797
 51
190.5838025965202
  0
ARC
  5
164DF
330
747D
100
AcDbEntity
  8
細線
100
AcDbCircle
 10
5621.590802131141
 20
3860.92211051017
 30
0.0
 40
298.5
100
AcDbArc
 50
169.5785490272547
 51
190.4214509727453
  0
ARC
  5
164E0
330
747D
100
AcDbEntity
  8
細線
100
AcDbCircle
 10
5621.590802131141
 20
3860.92211051017
 30
0.0
 40
294.0
100
AcDbArc
 50
171.2120626773674
 51
188.7879373226326
  0
ARC
  5
164E1
330
747D
100
AcDbEntity
  8
細線
100
AcDbCircle
 10
5058.988020223217
 20
3860.92211051017
 30
0.0
 40
294.0
100
AcDbArc
 50
351.9004491617387
 51
8.099550838261343
  0
LINE
  5
164E2
330
747D
100
AcDbEntity
  8
細線
100
AcDbLine
 10
5373.590802131141
 20
3816.92211051017
 30
0.0
 11
5373.590802131141
 21
3904.92211051017
 31
0.0
  0
LINE
  5
164E3
330
747D
100
AcDbEntity
  8
細線
100
AcDbLine
 10
5378.09080213114
 20
3807.922110510169
 30
0.0
 11
5378.09080213114
 21
3913.92211051017
 31
0.0
  0
LINE
  5
164E4
330
747D
100
AcDbEntity
  8
部品1
100
AcDbLine
 10
5379.59080213114
 20
3806.92211051017
 30
0.0
 11
5379.59080213114
 21
3914.92211051017
 31
0.0
  0
LINE
  5
164E5
330
747D
100
AcDbEntity
  8
細線
 48
0.2
100
AcDbLine
 10
5087.52835430246
 20
2969.672110510188
 30
0.0
 11
5067.52835430246
 21
2969.672110510188
 31
0.0
  0
LINE
  5
164E6
330
747D
100
AcDbEntity
  8
部品1
 48
0.2
100
AcDbLine
 10
5087.52835430246
 20
2972.172110510188
 30
0.0
 11
5067.52835430246
 21
2972.172110510188
 31
0.0
  0
LINE
  5
164E7
330
747D
100
AcDbEntity
  8
細線
 48
0.2
100
AcDbLine
 10
5087.52835430246
 20
2965.172110510188
 30
0.0
 11
5067.52835430246
 21
2965.172110510188
 31
0.0
  0
LINE
  5
164E8
330
747D
100
AcDbEntity
  8
細線
 48
0.2
100
AcDbLine
 10
5087.52835430246
 20
2967.672110510188
 30
0.0
 11
5067.52835430246
 21
2967.67211051019
 31
0.0
  0
ARC
  5
164E9
330
747D
100
AcDbEntity
  8
細線
 48
0.2
100
AcDbCircle
 10
5079.52835430246
 20
2981.972110510185
 30
0.0
 40
18.49999999999796
100
AcDbArc
 50
253.3984504010078
 51
286.6015495989922
  0
LINE
  5
164EA
330
747D
100
AcDbEntity
  8
細線
 48
0.2
100
AcDbLine
 10
5085.212345598968
 20
2964.472110510187
 30
0.0
 11
5073.844363005956
 21
2964.472110510187
 31
0.0
  0
ARC
  5
164EB
330
747D
100
AcDbEntity
  8
細線
 48
0.2
100
AcDbCircle
 10
5074.52835430246
 20
2965.20160067894
 30
0.0
 40
1.0
100
AcDbArc
 50
180.0
 51
253.3984504010078
  0
LINE
  5
164EC
330
747D
100
AcDbEntity
  8
細線
 48
50.0
100
AcDbLine
 10
5067.52835430246
 20
2965.42211051019
 30
0.0
 11
5067.52835430246
 21
2965.172110510188
 31
0.0
  0
ARC
  5
164ED
330
747D
100
AcDbEntity
  8
細線
 48
0.2
100
AcDbCircle
 10
5084.528354302459
 20
2965.20160067894
 30
0.0
 40
1.0
100
AcDbArc
 50
286.6015495989922
 51
0.0
  0
LINE
  5
164EE
330
747D
100
AcDbEntity
  8
部品1
100
AcDbLine
 10
5087.52835430246
 20
2965.42211051019
 30
0.0
 11
5087.590802131141
 21
2965.42211051019
 31
0.0
  0
LINE
  5
164EF
330
747D
100
AcDbEntity
  8
部品1
100
AcDbLine
 10
5087.52835430246
 20
2965.422110510181
 30
0.0
 11
5087.590802131141
 21
2965.422110510181
 31
0.0
  0
LINE
  5
164F0
330
747D
100
AcDbEntity
  8
細線
 48
50.0
100
AcDbLine
 10
5075.665597108156
 20
2967.67211051019
 30
0.0
 11
5075.665597108156
 21
2969.672110510188
 31
0.0
  0
LINE
  5
164F1
330
747D
100
AcDbEntity
  8
部品1
 48
50.0
100
AcDbLine
 10
5067.52835430246
 20
2972.172110510188
 30
0.0
 11
5067.52835430246
 21
2965.42211051019
 31
0.0
  0
LINE
  5
164F2
330
747D
100
AcDbEntity
  8
細線
 48
0.1
100
AcDbLine
 10
5087.52835430246
 20
2965.172110510188
 30
0.0
 11
5087.52835430246
 21
2972.172110510188
 31
0.0
  0
LINE
  5
164F3
330
747D
100
AcDbEntity
  8
細線
 48
50.0
100
AcDbLine
 10
5083.51600715412
 20
2967.67211051019
 30
0.0
 11
5083.51600715412
 21
2969.672110510188
 31
0.0
  0
LINE
  5
164F4
330
747D
100
AcDbEntity
  8
部品1
100
AcDbLine
 10
4357.590802131141
 20
2965.422110510175
 30
0.0
 11
5067.52835430246
 21
2965.42211051019
 31
0.0
  0
LINE
  5
164F5
330
747D
100
AcDbEntity
  8
部品1
100
AcDbLine
 10
5089.590802131141
 20
4758.92211051017
 30
0.0
 11
5089.590802131141
 21
2961.92211051019
 31
0.0
  0
LINE
  5
164F6
330
747D
100
AcDbEntity
  8
部品1
100
AcDbLine
 10
5219.590802131141
 20
4758.92211051017
 30
0.0
 11
5219.590802131141
 21
2961.92211051019
 31
0.0
  0
LINE
  5
164F7
330
747D
100
AcDbEntity
  8
部品1
100
AcDbLine
 10
5087.590802131138
 20
4756.422110510169
 30
0.0
 11
5087.590802131141
 21
2965.42211051019
 31
0.0
  0
LINE
  5
164F8
330
747D
100
AcDbEntity
  8
部品1
100
AcDbLine
 10
5307.590802131141
 20
4756.422110510169
 30
0.0
 11
5307.590802131141
 21
2965.422110510184
 31
0.0
  0
LINE
  5
164F9
330
747D
100
AcDbEntity
  8
部品1
100
AcDbLine
 10
5305.590802131141
 20
4758.92211051017
 30
0.0
 11
5305.590802131141
 21
2961.92211051019
 31
0.0
  0
ARC
  5
164FA
330
747D
100
AcDbEntity
  8
細線
100
AcDbCircle
 10
7267.590802131142
 20
3904.92211051017
 30
0.0
 40
6.0
100
AcDbArc
 50
0.0
 51
90.0
  0
ARC
  5
164FB
330
747D
100
AcDbEntity
  8
部品1
100
AcDbCircle
 10
7273.59080213114
 20
3914.92211051017
 30
0.0
 40
6.0
100
AcDbArc
 50
0.0
 51
90.0
  0
ARC
  5
164FC
330
747D
100
AcDbEntity
  8
細線
100
AcDbCircle
 10
7272.590802131141
 20
3913.92211051017
 30
0.0
 40
5.5
100
AcDbArc
 50
0.0
 51
90.0
  0
ARC
  5
164FD
330
747D
100
AcDbEntity
  8
細線
100
AcDbCircle
 10
7233.424183661894
 20
3913.92211051017
 30
0.0
 40
5.5
100
AcDbArc
 50
90.0
 51
169.5785490272547
  0
ARC
  5
164FE
330
747D
100
AcDbEntity
  8
部品1
100
AcDbCircle
 10
7232.592532240126
 20
3914.92211051017
 30
0.0
 40
6.0
100
AcDbArc
 50
90.0
 51
169.4161974034797
  0
ARC
  5
164FF
330
747D
100
AcDbEntity
  8
細線
100
AcDbCircle
 10
7236.971758495617
 20
3904.92211051017
 30
0.0
 40
6.0
100
AcDbArc
 50
90.0
 51
171.2120626773674
  0
CIRCLE
  5
16500
330
747D
100
AcDbEntity
  8
細線
 48
50.0
100
AcDbCircle
 10
7253.091667185635
 20
3961.42211051017
 30
0.0
 40
10.0
  0
ARC
  5
16501
330
747D
100
AcDbEntity
  8
細線
100
AcDbCircle
 10
7257.798341309886
 20
3901.92211051017
 30
0.0
 40
6.0
100
AcDbArc
 50
0.0
 51
90.0
  0
LINE
  5
16502
330
747D
100
AcDbEntity
  8
細線
100
AcDbLine
 10
7257.798341309886
 20
3907.92211051017
 30
0.0
 11
7245.59080213114
 21
3907.92211051017
 31
0.0
  0
ARC
  5
16503
330
747D
100
AcDbEntity
  8
細線
100
AcDbCircle
 10
7247.085226040974
 20
3901.92211051017
 30
0.0
 40
3.0
100
AcDbArc
 50
8.099550838261343
 51
90.0
  0
LINE
  5
16504
330
747D
100
AcDbEntity
  8
細線
100
AcDbLine
 10
7247.085226040974
 20
3904.92211051017
 30
0.0
 11
7245.59080213114
 21
3904.92211051017
 31
0.0
  0
LINE
  5
16505
330
747D
100
AcDbEntity
  8
細線
100
AcDbLine
 10
7245.59080213114
 20
3904.921602611608
 30
0.0
 11
7232.827474915173
 21
3904.921602611608
 31
0.0
  0
CIRCLE
  5
16506
330
747D
100
AcDbEntity
  8
細線
 48
50.0
100
AcDbCircle
 10
7253.091667185635
 20
3961.42211051017
 30
0.0
 40
20.0
  0
LINE
  5
16507
330
747D
100
AcDbEntity
  8
細線
100
AcDbLine
 10
7267.590802131142
 20
3910.92211051017
 30
0.0
 11
7236.971758495617
 21
3910.92211051017
 31
0.0
  0
LINE
  5
16508
330
747D
100
AcDbEntity
  8
部品1
100
AcDbLine
 10
7273.59080213114
 20
3920.92211051017
 30
0.0
 11
7232.592532240126
 21
3920.92211051017
 31
0.0
  0
LINE
  5
16509
330
747D
100
AcDbEntity
  8
細線
100
AcDbLine
 10
7272.590802131141
 20
3919.42211051017
 30
0.0
 11
7233.424183661894
 21
3919.42211051017
 31
0.0
  0
ARC
  5
1650A
330
747D
100
AcDbEntity
  8
細線
100
AcDbCircle
 10
7267.590802131142
 20
3816.92211051017
 30
0.0
 40
6.0
100
AcDbArc
 50
270.0
 51
0.0
  0
ARC
  5
1650B
330
747D
100
AcDbEntity
  8
部品1
100
AcDbCircle
 10
7273.59080213114
 20
3806.92211051017
 30
0.0
 40
6.0
100
AcDbArc
 50
270.0
 51
0.0
  0
ARC
  5
1650C
330
747D
100
AcDbEntity
  8
細線
100
AcDbCircle
 10
7272.590802131141
 20
3807.922110510169
 30
0.0
 40
5.5
100
AcDbArc
 50
270.0
 51
0.0
  0
ARC
  5
1650D
330
747D
100
AcDbEntity
  8
細線
100
AcDbCircle
 10
7233.424183661894
 20
3807.922110510169
 30
0.0
 40
5.5
100
AcDbArc
 50
190.4214509727453
 51
270.0
  0
ARC
  5
1650E
330
747D
100
AcDbEntity
  8
部品1
100
AcDbCircle
 10
7232.592532240126
 20
3806.92211051017
 30
0.0
 40
6.0
100
AcDbArc
 50
190.5838025965202
 51
270.0
  0
ARC
  5
1650F
330
747D
100
AcDbEntity
  8
細線
100
AcDbCircle
 10
7236.971758495617
 20
3816.92211051017
 30
0.0
 40
6.0
100
AcDbArc
 50
188.7879373226326
 51
270.0
  0
ARC
  5
16510
330
747D
100
AcDbEntity
  8
細線
100
AcDbCircle
 10
7257.798341309886
 20
3819.92211051017
 30
0.0
 40
6.0
100
AcDbArc
 50
270.0
 51
0.0
  0
LINE
  5
16511
330
747D
100
AcDbEntity
  8
細線
100
AcDbLine
 10
7245.59080213114
 20
3813.92211051017
 30
0.0
 11
7257.798341309886
 21
3813.92211051017
 31
0.0
  0
ARC
  5
16512
330
747D
100
AcDbEntity
  8
細線
100
AcDbCircle
 10
7247.085226040976
 20
3819.92211051017
 30
0.0
 40
3.0
100
AcDbArc
 50
270.0
 51
351.9004491617129
  0
LINE
  5
16513
330
747D
100
AcDbEntity
  8
細線
100
AcDbLine
 10
7245.59080213114
 20
3816.92211051017
 30
0.0
 11
7247.085226040976
 21
3816.92211051017
 31
0.0
  0
LINE
  5
16514
330
747D
100
AcDbEntity
  8
細線
100
AcDbLine
 10
7245.59080213114
 20
3816.922618408733
 30
0.0
 11
7232.112097632318
 21
3816.922618408733
 31
0.0
  0
LINE
  5
16515
330
747D
100
AcDbEntity
  8
細線
100
AcDbLine
 10
7236.971758495617
 20
3810.922110510169
 30
0.0
 11
7267.590802131142
 21
3810.922110510169
 31
0.0
  0
LINE
  5
16516
330
747D
100
AcDbEntity
  8
部品1
100
AcDbLine
 10
7232.592532240126
 20
3800.92211051017
 30
0.0
 11
7273.59080213114
 21
3800.92211051017
 31
0.0
  0
LINE
  5
16517
330
747D
100
AcDbEntity
  8
細線
100
AcDbLine
 10
7233.424183661894
 20
3802.42211051017
 30
0.0
 11
7272.590802131141
 21
3802.42211051017
 31
0.0
  0
LINE
  5
16518
330
747D
100
AcDbEntity
  8
部品1
100
AcDbLine
 10
7279.59080213114
 20
3806.92211051017
 30
0.0
 11
7279.59080213114
 21
3914.92211051017
 31
0.0
  0
LINE
  5
16519
330
747D
100
AcDbEntity
  8
細線
100
AcDbLine
 10
7278.09080213114
 20
3807.922110510169
 30
0.0
 11
7278.09080213114
 21
3913.92211051017
 31
0.0
  0
LINE
  5
1651A
330
747D
100
AcDbEntity
  8
細線
100
AcDbLine
 10
7273.59080213114
 20
3816.92211051017
 30
0.0
 11
7273.59080213114
 21
3904.92211051017
 31
0.0
  0
ARC
  5
1651B
330
747D
100
AcDbEntity
  8
細線
100
AcDbCircle
 10
6958.988020223216
 20
3860.92211051017
 30
0.0
 40
294.0
100
AcDbArc
 50
351.9004491617387
 51
8.099550838261343
  0
ARC
  5
1651C
330
747D
100
AcDbEntity
  8
細線
100
AcDbCircle
 10
7521.59080213114
 20
3860.92211051017
 30
0.0
 40
294.0
100
AcDbArc
 50
171.2120626773674
 51
188.7879373226326
  0
ARC
  5
1651D
330
747D
100
AcDbEntity
  8
細線
100
AcDbCircle
 10
7521.59080213114
 20
3860.92211051017
 30
0.0
 40
298.5
100
AcDbArc
 50
169.5785490272547
 51
190.4214509727453
  0
ARC
  5
1651E
330
747D
100
AcDbEntity
  8
部品1
100
AcDbCircle
 10
7521.59080213114
 20
3860.92211051017
 30
0.0
 40
300.0
100
AcDbArc
 50
169.4161974034797
 51
190.5838025965202
  0
LINE
  5
1651F
330
747D
100
AcDbEntity
  8
細線
100
AcDbLine
 10
7245.59080213114
 20
3910.92211051017
 30
0.0
 11
7245.59080213114
 21
3810.922110510169
 31
0.0
  0
LINE
  5
16520
330
747D
100
AcDbEntity
  8
細線
100
AcDbLine
 10
7263.798341309886
 20
3819.92211051017
 30
0.0
 11
7263.798341309886
 21
3901.92211051017
 31
0.0
  0
LINE
  5
16521
330
747D
100
AcDbEntity
  8
細線
100
AcDbLine
 10
6295.59080213114
 20
3904.921602611608
 30
0.0
 11
6282.827474915173
 21
3904.921602611608
 31
0.0
  0
LINE
  5
16522
330
747D
100
AcDbEntity
  8
細線
100
AcDbLine
 10
6322.59080213114
 20
3919.42211051017
 30
0.0
 11
6283.424183661895
 21
3919.42211051017
 31
0.0
  0
LINE
  5
16523
330
747D
100
AcDbEntity
  8
部品1
100
AcDbLine
 10
6323.590802131141
 20
3920.92211051017
 30
0.0
 11
6282.592532240125
 21
3920.92211051017
 31
0.0
  0
ARC
  5
16524
330
747D
100
AcDbEntity
  8
細線
100
AcDbCircle
 10
6322.59080213114
 20
3913.92211051017
 30
0.0
 40
5.5
100
AcDbArc
 50
0.0
 51
90.0
  0
ARC
  5
16525
330
747D
100
AcDbEntity
  8
部品1
100
AcDbCircle
 10
6323.590802131141
 20
3914.92211051017
 30
0.0
 40
6.0
100
AcDbArc
 50
0.0
 51
90.0
  0
LINE
  5
16526
330
747D
100
AcDbEntity
  8
細線
100
AcDbLine
 10
6297.085226040974
 20
3904.92211051017
 30
0.0
 11
6295.59080213114
 21
3904.92211051017
 31
0.0
  0
ARC
  5
16527
330
747D
100
AcDbEntity
  8
細線
100
AcDbCircle
 10
6297.085226040974
 20
3901.92211051017
 30
0.0
 40
3.0
100
AcDbArc
 50
8.099550838261343
 51
90.0
  0
LINE
  5
16528
330
747D
100
AcDbEntity
  8
細線
100
AcDbLine
 10
6307.798341309887
 20
3907.92211051017
 30
0.0
 11
6295.59080213114
 21
3907.92211051017
 31
0.0
  0
ARC
  5
16529
330
747D
100
AcDbEntity
  8
細線
100
AcDbCircle
 10
6307.798341309887
 20
3901.92211051017
 30
0.0
 40
6.0
100
AcDbArc
 50
0.0
 51
90.0
  0
LINE
  5
1652A
330
747D
100
AcDbEntity
  8
細線
100
AcDbLine
 10
6317.590802131141
 20
3910.92211051017
 30
0.0
 11
6286.971758495617
 21
3910.92211051017
 31
0.0
  0
ARC
  5
1652B
330
747D
100
AcDbEntity
  8
細線
100
AcDbCircle
 10
6317.590802131141
 20
3904.92211051017
 30
0.0
 40
6.0
100
AcDbArc
 50
0.0
 51
90.0
  0
CIRCLE
  5
1652C
330
747D
100
AcDbEntity
  8
細線
 48
50.0
100
AcDbCircle
 10
6303.091667185634
 20
3961.42211051017
 30
0.0
 40
10.0
  0
CIRCLE
  5
1652D
330
747D
100
AcDbEntity
  8
細線
 48
50.0
100
AcDbCircle
 10
6303.091667185634
 20
3961.42211051017
 30
0.0
 40
20.0
  0
ARC
  5
1652E
330
747D
100
AcDbEntity
  8
細線
100
AcDbCircle
 10
6286.971758495617
 20
3904.92211051017
 30
0.0
 40
6.0
100
AcDbArc
 50
90.0
 51
171.2120626773674
  0
ARC
  5
1652F
330
747D
100
AcDbEntity
  8
部品1
100
AcDbCircle
 10
6282.592532240125
 20
3914.92211051017
 30
0.0
 40
6.0
100
AcDbArc
 50
90.0
 51
169.4161974034797
  0
ARC
  5
16530
330
747D
100
AcDbEntity
  8
細線
100
AcDbCircle
 10
6283.424183661895
 20
3913.92211051017
 30
0.0
 40
5.5
100
AcDbArc
 50
90.0
 51
169.5785490272547
  0
LINE
  5
16531
330
747D
100
AcDbEntity
  8
細線
100
AcDbLine
 10
6295.59080213114
 20
3816.922618408733
 30
0.0
 11
6282.112097632318
 21
3816.922618408733
 31
0.0
  0
LINE
  5
16532
330
747D
100
AcDbEntity
  8
細線
100
AcDbLine
 10
6283.424183661895
 20
3802.42211051017
 30
0.0
 11
6322.59080213114
 21
3802.42211051017
 31
0.0
  0
LINE
  5
16533
330
747D
100
AcDbEntity
  8
部品1
100
AcDbLine
 10
6282.592532240125
 20
3800.92211051017
 30
0.0
 11
6323.590802131141
 21
3800.92211051017
 31
0.0
  0
ARC
  5
16534
330
747D
100
AcDbEntity
  8
細線
100
AcDbCircle
 10
6322.59080213114
 20
3807.922110510169
 30
0.0
 40
5.5
100
AcDbArc
 50
270.0
 51
0.0
  0
ARC
  5
16535
330
747D
100
AcDbEntity
  8
部品1
100
AcDbCircle
 10
6323.590802131141
 20
3806.92211051017
 30
0.0
 40
6.0
100
AcDbArc
 50
270.0
 51
0.0
  0
LINE
  5
16536
330
747D
100
AcDbEntity
  8
細線
100
AcDbLine
 10
6295.59080213114
 20
3816.92211051017
 30
0.0
 11
6297.085226040976
 21
3816.92211051017
 31
0.0
  0
ARC
  5
16537
330
747D
100
AcDbEntity
  8
細線
100
AcDbCircle
 10
6297.085226040976
 20
3819.92211051017
 30
0.0
 40
3.0
100
AcDbArc
 50
270.0
 51
351.9004491617129
  0
LINE
  5
16538
330
747D
100
AcDbEntity
  8
細線
100
AcDbLine
 10
6295.59080213114
 20
3813.92211051017
 30
0.0
 11
6307.798341309887
 21
3813.92211051017
 31
0.0
  0
ARC
  5
16539
330
747D
100
AcDbEntity
  8
細線
100
AcDbCircle
 10
6307.798341309887
 20
3819.92211051017
 30
0.0
 40
6.0
100
AcDbArc
 50
270.0
 51
0.0
  0
LINE
  5
1653A
330
747D
100
AcDbEntity
  8
細線
100
AcDbLine
 10
6286.971758495617
 20
3810.922110510169
 30
0.0
 11
6317.590802131141
 21
3810.922110510169
 31
0.0
  0
ARC
  5
1653B
330
747D
100
AcDbEntity
  8
細線
100
AcDbCircle
 10
6317.590802131141
 20
3816.92211051017
 30
0.0
 40
6.0
100
AcDbArc
 50
270.0
 51
0.0
  0
ARC
  5
1653C
330
747D
100
AcDbEntity
  8
細線
100
AcDbCircle
 10
6286.971758495617
 20
3816.92211051017
 30
0.0
 40
6.0
100
AcDbArc
 50
188.7879373226326
 51
270.0
  0
ARC
  5
1653D
330
747D
100
AcDbEntity
  8
部品1
100
AcDbCircle
 10
6282.592532240125
 20
3806.92211051017
 30
0.0
 40
6.0
100
AcDbArc
 50
190.5838025965202
 51
270.0
  0
ARC
  5
1653E
330
747D
100
AcDbEntity
  8
細線
100
AcDbCircle
 10
6283.424183661895
 20
3807.922110510169
 30
0.0
 40
5.5
100
AcDbArc
 50
190.4214509727453
 51
270.0
  0
LINE
  5
1653F
330
747D
100
AcDbEntity
  8
細線
100
AcDbLine
 10
6313.798341309887
 20
3819.92211051017
 30
0.0
 11
6313.798341309887
 21
3901.92211051017
 31
0.0
  0
LINE
  5
16540
330
747D
100
AcDbEntity
  8
細線
100
AcDbLine
 10
6295.59080213114
 20
3910.92211051017
 30
0.0
 11
6295.59080213114
 21
3810.922110510169
 31
0.0
  0
ARC
  5
16541
330
747D
100
AcDbEntity
  8
部品1
100
AcDbCircle
 10
6571.59080213114
 20
3860.92211051017
 30
0.0
 40
300.0
100
AcDbArc
 50
169.4161974034797
 51
190.5838025965202
  0
ARC
  5
16542
330
747D
100
AcDbEntity
  8
細線
100
AcDbCircle
 10
6571.59080213114
 20
3860.92211051017
 30
0.0
 40
298.5
100
AcDbArc
 50
169.5785490272547
 51
190.4214509727453
  0
ARC
  5
16543
330
747D
100
AcDbEntity
  8
細線
100
AcDbCircle
 10
6571.59080213114
 20
3860.92211051017
 30
0.0
 40
294.0
100
AcDbArc
 50
171.2120626773674
 51
188.7879373226326
  0
ARC
  5
16544
330
747D
100
AcDbEntity
  8
細線
100
AcDbCircle
 10
6008.988020223217
 20
3860.92211051017
 30
0.0
 40
294.0
100
AcDbArc
 50
351.9004491617387
 51
8.099550838261343
  0
LINE
  5
16545
330
747D
100
AcDbEntity
  8
細線
100
AcDbLine
 10
6323.590802131141
 20
3816.92211051017
 30
0.0
 11
6323.590802131141
 21
3904.92211051017
 31
0.0
  0
LINE
  5
16546
330
747D
100
AcDbEntity
  8
細線
100
AcDbLine
 10
6328.090802131141
 20
3807.922110510169
 30
0.0
 11
6328.090802131141
 21
3913.92211051017
 31
0.0
  0
LINE
  5
16547
330
747D
100
AcDbEntity
  8
部品1
100
AcDbLine
 10
6329.59080213114
 20
3806.92211051017
 30
0.0
 11
6329.59080213114
 21
3914.92211051017
 31
0.0
  0
ARC
  5
16548
330
747D
100
AcDbEntity
  8
細線
100
AcDbCircle
 10
4386.971758495618
 20
3904.92211051017
 30
0.0
 40
6.0
100
AcDbArc
 50
90.0
 51
171.2120626773674
  0
LINE
  5
16549
330
747D
100
AcDbEntity
  8
細線
100
AcDbLine
 10
4395.590802131141
 20
3904.921602611608
 30
0.0
 11
4382.827474915173
 21
3904.921602611608
 31
0.0
  0
LINE
  5
1654A
330
747D
100
AcDbEntity
  8
細線
100
AcDbLine
 10
4422.59080213114
 20
3919.42211051017
 30
0.0
 11
4383.424183661895
 21
3919.42211051017
 31
0.0
  0
LINE
  5
1654B
330
747D
100
AcDbEntity
  8
部品1
100
AcDbLine
 10
4423.59080213114
 20
3920.92211051017
 30
0.0
 11
4382.592532240125
 21
3920.92211051017
 31
0.0
  0
ARC
  5
1654C
330
747D
100
AcDbEntity
  8
部品1
100
AcDbCircle
 10
4382.592532240125
 20
3914.92211051017
 30
0.0
 40
6.0
100
AcDbArc
 50
90.0
 51
169.4161974034797
  0
ARC
  5
1654D
330
747D
100
AcDbEntity
  8
細線
100
AcDbCircle
 10
4383.424183661895
 20
3913.92211051017
 30
0.0
 40
5.5
100
AcDbArc
 50
90.0
 51
169.5785490272547
  0
ARC
  5
1654E
330
747D
100
AcDbEntity
  8
細線
100
AcDbCircle
 10
4422.59080213114
 20
3913.92211051017
 30
0.0
 40
5.5
100
AcDbArc
 50
0.0
 51
90.0
  0
ARC
  5
1654F
330
747D
100
AcDbEntity
  8
部品1
100
AcDbCircle
 10
4423.59080213114
 20
3914.92211051017
 30
0.0
 40
6.0
100
AcDbArc
 50
0.0
 51
90.0
  0
LINE
  5
16550
330
747D
100
AcDbEntity
  8
細線
100
AcDbLine
 10
4397.085226040974
 20
3904.92211051017
 30
0.0
 11
4395.590802131141
 21
3904.92211051017
 31
0.0
  0
ARC
  5
16551
330
747D
100
AcDbEntity
  8
細線
100
AcDbCircle
 10
4397.085226040974
 20
3901.92211051017
 30
0.0
 40
3.0
100
AcDbArc
 50
8.099550838261343
 51
90.0
  0
LINE
  5
16552
330
747D
100
AcDbEntity
  8
細線
100
AcDbLine
 10
4407.798341309886
 20
3907.92211051017
 30
0.0
 11
4395.590802131141
 21
3907.92211051017
 31
0.0
  0
ARC
  5
16553
330
747D
100
AcDbEntity
  8
細線
100
AcDbCircle
 10
4407.798341309886
 20
3901.92211051017
 30
0.0
 40
6.0
100
AcDbArc
 50
0.0
 51
90.0
  0
LINE
  5
16554
330
747D
100
AcDbEntity
  8
細線
100
AcDbLine
 10
4417.59080213114
 20
3910.92211051017
 30
0.0
 11
4386.971758495618
 21
3910.92211051017
 31
0.0
  0
ARC
  5
16555
330
747D
100
AcDbEntity
  8
細線
100
AcDbCircle
 10
4417.59080213114
 20
3904.92211051017
 30
0.0
 40
6.0
100
AcDbArc
 50
0.0
 51
90.0
  0
CIRCLE
  5
16556
330
747D
100
AcDbEntity
  8
細線
 48
50.0
100
AcDbCircle
 10
4403.091667185633
 20
3961.42211051017
 30
0.0
 40
10.0
  0
CIRCLE
  5
16557
330
747D
100
AcDbEntity
  8
細線
 48
50.0
100
AcDbCircle
 10
4403.091667185633
 20
3961.42211051017
 30
0.0
 40
20.0
  0
ARC
  5
16558
330
747D
100
AcDbEntity
  8
細線
100
AcDbCircle
 10
4386.971758495618
 20
3816.92211051017
 30
0.0
 40
6.0
100
AcDbArc
 50
188.7879373226326
 51
270.0
  0
LINE
  5
16559
330
747D
100
AcDbEntity
  8
細線
100
AcDbLine
 10
4395.590802131141
 20
3816.922618408733
 30
0.0
 11
4382.112097632318
 21
3816.922618408733
 31
0.0
  0
LINE
  5
1655A
330
747D
100
AcDbEntity
  8
細線
100
AcDbLine
 10
4383.424183661895
 20
3802.42211051017
 30
0.0
 11
4422.59080213114
 21
3802.42211051017
 31
0.0
  0
LINE
  5
1655B
330
747D
100
AcDbEntity
  8
部品1
100
AcDbLine
 10
4382.592532240125
 20
3800.92211051017
 30
0.0
 11
4423.59080213114
 21
3800.92211051017
 31
0.0
  0
ARC
  5
1655C
330
747D
100
AcDbEntity
  8
部品1
100
AcDbCircle
 10
4382.592532240125
 20
3806.92211051017
 30
0.0
 40
6.0
100
AcDbArc
 50
190.5838025965202
 51
270.0
  0
ARC
  5
1655D
330
747D
100
AcDbEntity
  8
細線
100
AcDbCircle
 10
4383.424183661895
 20
3807.922110510169
 30
0.0
 40
5.5
100
AcDbArc
 50
190.4214509727453
 51
270.0
  0
ARC
  5
1655E
330
747D
100
AcDbEntity
  8
細線
100
AcDbCircle
 10
4422.59080213114
 20
3807.922110510169
 30
0.0
 40
5.5
100
AcDbArc
 50
270.0
 51
0.0
  0
ARC
  5
1655F
330
747D
100
AcDbEntity
  8
部品1
100
AcDbCircle
 10
4423.59080213114
 20
3806.92211051017
 30
0.0
 40
6.0
100
AcDbArc
 50
270.0
 51
0.0
  0
LINE
  5
16560
330
747D
100
AcDbEntity
  8
細線
100
AcDbLine
 10
4395.590802131141
 20
3816.92211051017
 30
0.0
 11
4397.085226040975
 21
3816.92211051017
 31
0.0
  0
ARC
  5
16561
330
747D
100
AcDbEntity
  8
細線
100
AcDbCircle
 10
4397.085226040975
 20
3819.92211051017
 30
0.0
 40
3.0
100
AcDbArc
 50
270.0
 51
351.9004491617129
  0
LINE
  5
16562
330
747D
100
AcDbEntity
  8
細線
100
AcDbLine
 10
4395.590802131141
 20
3813.92211051017
 30
0.0
 11
4407.798341309886
 21
3813.92211051017
 31
0.0
  0
ARC
  5
16563
330
747D
100
AcDbEntity
  8
細線
100
AcDbCircle
 10
4407.798341309886
 20
3819.92211051017
 30
0.0
 40
6.0
100
AcDbArc
 50
270.0
 51
0.0
  0
LINE
  5
16564
330
747D
100
AcDbEntity
  8
細線
100
AcDbLine
 10
4386.971758495618
 20
3810.922110510169
 30
0.0
 11
4417.59080213114
 21
3810.922110510169
 31
0.0
  0
ARC
  5
16565
330
747D
100
AcDbEntity
  8
細線
100
AcDbCircle
 10
4417.59080213114
 20
3816.92211051017
 30
0.0
 40
6.0
100
AcDbArc
 50
270.0
 51
0.0
  0
LINE
  5
16566
330
747D
100
AcDbEntity
  8
細線
100
AcDbLine
 10
4413.798341309886
 20
3819.92211051017
 30
0.0
 11
4413.798341309886
 21
3901.92211051017
 31
0.0
  0
LINE
  5
16567
330
747D
100
AcDbEntity
  8
細線
100
AcDbLine
 10
4395.590802131141
 20
3910.92211051017
 30
0.0
 11
4395.590802131141
 21
3810.922110510169
 31
0.0
  0
ARC
  5
16568
330
747D
100
AcDbEntity
  8
部品1
100
AcDbCircle
 10
4671.590802131141
 20
3860.92211051017
 30
0.0
 40
300.0
100
AcDbArc
 50
169.4161974034797
 51
190.5838025965202
  0
ARC
  5
16569
330
747D
100
AcDbEntity
  8
細線
100
AcDbCircle
 10
4671.590802131141
 20
3860.92211051017
 30
0.0
 40
298.5
100
AcDbArc
 50
169.5785490272547
 51
190.4214509727453
  0
ARC
  5
1656A
330
747D
100
AcDbEntity
  8
細線
100
AcDbCircle
 10
4671.590802131141
 20
3860.92211051017
 30
0.0
 40
294.0
100
AcDbArc
 50
171.2120626773674
 51
188.7879373226326
  0
ARC
  5
1656B
330
747D
100
AcDbEntity
  8
細線
100
AcDbCircle
 10
4108.988020223216
 20
3860.92211051017
 30
0.0
 40
294.0
100
AcDbArc
 50
351.9004491617387
 51
8.099550838261343
  0
LINE
  5
1656C
330
747D
100
AcDbEntity
  8
細線
100
AcDbLine
 10
4423.59080213114
 20
3816.92211051017
 30
0.0
 11
4423.59080213114
 21
3904.92211051017
 31
0.0
  0
LINE
  5
1656D
330
747D
100
AcDbEntity
  8
細線
100
AcDbLine
 10
4428.09080213114
 20
3807.922110510169
 30
0.0
 11
4428.09080213114
 21
3913.92211051017
 31
0.0
  0
LINE
  5
1656E
330
747D
100
AcDbEntity
  8
部品1
100
AcDbLine
 10
4429.59080213114
 20
3806.92211051017
 30
0.0
 11
4429.59080213114
 21
3914.92211051017
 31
0.0
  0
LINE
  5
1656F
330
747D
100
AcDbEntity
  8
細線
 48
0.1
100
AcDbLine
 10
7937.528354302459
 20
4756.672110510171
 30
0.0
 11
7937.528354302459
 21
4749.672110510171
 31
0.0
  0
LINE
  5
16570
330
747D
100
AcDbEntity
  8
細線
 48
50.0
100
AcDbLine
 10
7925.665597108157
 20
4754.172110510171
 30
0.0
 11
7925.665597108157
 21
4752.172110510172
 31
0.0
  0
LINE
  5
16571
330
747D
100
AcDbEntity
  8
細線
 48
50.0
100
AcDbLine
 10
7933.516007154119
 20
4754.172110510171
 30
0.0
 11
7933.516007154119
 21
4752.172110510172
 31
0.0
  0
LINE
  5
16572
330
747D
100
AcDbEntity
  8
部品1
 48
50.0
100
AcDbLine
 10
7917.528354302461
 20
4749.672110510171
 30
0.0
 11
7917.528354302461
 21
4756.422110510171
 31
0.0
  0
LINE
  5
16573
330
747D
100
AcDbEntity
  8
細線
 48
0.2
100
AcDbLine
 10
7937.528354302459
 20
4752.172110510172
 30
0.0
 11
7917.528354302461
 21
4752.172110510172
 31
0.0
  0
LINE
  5
16574
330
747D
100
AcDbEntity
  8
部品1
 48
0.2
100
AcDbLine
 10
7937.528354302459
 20
4749.672110510171
 30
0.0
 11
7917.528354302461
 21
4749.672110510171
 31
0.0
  0
ARC
  5
16575
330
747D
100
AcDbEntity
  8
細線
 48
0.2
100
AcDbCircle
 10
7934.528354302459
 20
4756.642620341419
 30
0.0
 40
1.0
100
AcDbArc
 50
0.0
 51
73.39845040100779
  0
LINE
  5
16576
330
747D
100
AcDbEntity
  8
細線
 48
0.2
100
AcDbLine
 10
7937.528354302459
 20
4756.672110510171
 30
0.0
 11
7917.528354302461
 21
4756.672110510171
 31
0.0
  0
LINE
  5
16577
330
747D
100
AcDbEntity
  8
細線
 48
0.2
100
AcDbLine
 10
7937.528354302459
 20
4754.172110510171
 30
0.0
 11
7917.528354302461
 21
4754.172110510171
 31
0.0
  0
ARC
  5
16578
330
747D
100
AcDbEntity
  8
細線
 48
0.2
100
AcDbCircle
 10
7924.528354302459
 20
4756.642620341419
 30
0.0
 40
1.0
100
AcDbArc
 50
106.6015495989922
 51
180.0
  0
ARC
  5
16579
330
747D
100
AcDbEntity
  8
細線
 48
0.2
100
AcDbCircle
 10
7929.528354302459
 20
4739.872110510174
 30
0.0
 40
18.49999999999796
100
AcDbArc
 50
73.39845040100779
 51
106.6015495989922
  0
LINE
  5
1657A
330
747D
100
AcDbEntity
  8
細線
 48
0.2
100
AcDbLine
 10
7935.212345598968
 20
4757.372110510172
 30
0.0
 11
7923.844363005956
 21
4757.372110510172
 31
0.0
  0
LINE
  5
1657B
330
747D
100
AcDbEntity
  8
細線
 48
50.0
100
AcDbLine
 10
7917.528354302461
 20
4756.422110510171
 30
0.0
 11
7917.528354302461
 21
4756.672110510171
 31
0.0
  0
LINE
  5
1657C
330
747D
100
AcDbEntity
  8
部品1
100
AcDbLine
 10
7937.528354302459
 20
4756.422110510171
 30
0.0
 11
7937.59080213114
 21
4756.422110510169
 31
0.0
  0
LINE
  5
1657D
330
747D
100
AcDbEntity
  8
部品1
100
AcDbLine
 10
7937.528354302459
 20
4756.422110510167
 30
0.0
 11
7937.59080213114
 21
4756.422110510169
 31
0.0
  0
LINE
  5
1657E
330
747D
100
AcDbEntity
  8
細線
 48
0.1
100
AcDbLine
 10
6987.528354302459
 20
4756.672110510171
 30
0.0
 11
6987.528354302459
 21
4749.672110510171
 31
0.0
  0
LINE
  5
1657F
330
747D
100
AcDbEntity
  8
細線
 48
50.0
100
AcDbLine
 10
6975.665597108157
 20
4754.172110510171
 30
0.0
 11
6975.665597108157
 21
4752.172110510172
 31
0.0
  0
LINE
  5
16580
330
747D
100
AcDbEntity
  8
細線
 48
50.0
100
AcDbLine
 10
6983.516007154119
 20
4754.172110510171
 30
0.0
 11
6983.516007154119
 21
4752.172110510172
 31
0.0
  0
LINE
  5
16581
330
747D
100
AcDbEntity
  8
部品1
 48
50.0
100
AcDbLine
 10
6967.52835430246
 20
4749.672110510171
 30
0.0
 11
6967.52835430246
 21
4756.422110510171
 31
0.0
  0
LINE
  5
16582
330
747D
100
AcDbEntity
  8
細線
 48
0.2
100
AcDbLine
 10
6987.528354302459
 20
4752.172110510172
 30
0.0
 11
6967.52835430246
 21
4752.172110510172
 31
0.0
  0
LINE
  5
16583
330
747D
100
AcDbEntity
  8
部品1
 48
0.2
100
AcDbLine
 10
6987.528354302459
 20
4749.672110510171
 30
0.0
 11
6967.52835430246
 21
4749.672110510171
 31
0.0
  0
ARC
  5
16584
330
747D
100
AcDbEntity
  8
細線
 48
0.2
100
AcDbCircle
 10
6984.528354302459
 20
4756.642620341419
 30
0.0
 40
1.0
100
AcDbArc
 50
0.0
 51
73.39845040100779
  0
LINE
  5
16585
330
747D
100
AcDbEntity
  8
細線
 48
0.2
100
AcDbLine
 10
6987.528354302459
 20
4756.672110510171
 30
0.0
 11
6967.52835430246
 21
4756.672110510171
 31
0.0
  0
LINE
  5
16586
330
747D
100
AcDbEntity
  8
細線
 48
0.2
100
AcDbLine
 10
6987.528354302459
 20
4754.172110510171
 30
0.0
 11
6967.52835430246
 21
4754.172110510171
 31
0.0
  0
ARC
  5
16587
330
747D
100
AcDbEntity
  8
細線
 48
0.2
100
AcDbCircle
 10
6974.52835430246
 20
4756.642620341419
 30
0.0
 40
1.0
100
AcDbArc
 50
106.6015495989922
 51
180.0
  0
ARC
  5
16588
330
747D
100
AcDbEntity
  8
細線
 48
0.2
100
AcDbCircle
 10
6979.528354302459
 20
4739.872110510174
 30
0.0
 40
18.49999999999796
100
AcDbArc
 50
73.39845040100779
 51
106.6015495989922
  0
LINE
  5
16589
330
747D
100
AcDbEntity
  8
細線
 48
0.2
100
AcDbLine
 10
6985.212345598968
 20
4757.372110510172
 30
0.0
 11
6973.844363005956
 21
4757.372110510172
 31
0.0
  0
LINE
  5
1658A
330
747D
100
AcDbEntity
  8
細線
 48
50.0
100
AcDbLine
 10
6967.52835430246
 20
4756.422110510171
 30
0.0
 11
6967.52835430246
 21
4756.672110510171
 31
0.0
  0
LINE
  5
1658B
330
747D
100
AcDbEntity
  8
部品1
100
AcDbLine
 10
6987.528354302459
 20
4756.422110510171
 30
0.0
 11
6987.590802131141
 21
4756.422110510169
 31
0.0
  0
LINE
  5
1658C
330
747D
100
AcDbEntity
  8
部品1
100
AcDbLine
 10
6987.528354302459
 20
4756.422110510167
 30
0.0
 11
6987.590802131141
 21
4756.422110510169
 31
0.0
  0
LINE
  5
1658D
330
747D
100
AcDbEntity
  8
部品1
100
AcDbLine
 10
7207.59080213114
 20
4756.422110510167
 30
0.0
 11
7917.528354302461
 21
4756.422110510169
 31
0.0
  0
LINE
  5
1658E
330
747D
100
AcDbEntity
  8
部品1
 48
50.0
100
AcDbLine
 10
7917.528354302461
 20
2972.172110510188
 30
0.0
 11
7917.528354302461
 21
2965.42211051019
 31
0.0
  0
LINE
  5
1658F
330
747D
100
AcDbEntity
  8
細線
 48
50.0
100
AcDbLine
 10
7933.516007154119
 20
2967.67211051019
 30
0.0
 11
7933.516007154119
 21
2969.672110510188
 31
0.0
  0
LINE
  5
16590
330
747D
100
AcDbEntity
  8
細線
 48
50.0
100
AcDbLine
 10
7925.665597108157
 20
2967.67211051019
 30
0.0
 11
7925.665597108157
 21
2969.672110510188
 31
0.0
  0
LINE
  5
16591
330
747D
100
AcDbEntity
  8
細線
 48
0.1
100
AcDbLine
 10
7937.528354302459
 20
2965.172110510188
 30
0.0
 11
7937.528354302459
 21
2972.172110510188
 31
0.0
  0
LINE
  5
16592
330
747D
100
AcDbEntity
  8
部品1
100
AcDbLine
 10
7937.528354302459
 20
2965.422110510191
 30
0.0
 11
7937.59080213114
 21
2965.422110510191
 31
0.0
  0
LINE
  5
16593
330
747D
100
AcDbEntity
  8
部品1
100
AcDbLine
 10
7937.528354302459
 20
2965.42211051019
 30
0.0
 11
7937.59080213114
 21
2965.42211051019
 31
0.0
  0
LINE
  5
16594
330
747D
100
AcDbEntity
  8
細線
 48
50.0
100
AcDbLine
 10
7917.528354302461
 20
2965.42211051019
 30
0.0
 11
7917.528354302461
 21
2965.172110510188
 31
0.0
  0
LINE
  5
16595
330
747D
100
AcDbEntity
  8
細線
 48
0.2
100
AcDbLine
 10
7935.212345598968
 20
2964.472110510187
 30
0.0
 11
7923.844363005956
 21
2964.472110510187
 31
0.0
  0
ARC
  5
16596
330
747D
100
AcDbEntity
  8
細線
 48
0.2
100
AcDbCircle
 10
7929.528354302459
 20
2981.972110510185
 30
0.0
 40
18.49999999999796
100
AcDbArc
 50
253.3984504010078
 51
286.6015495989922
  0
ARC
  5
16597
330
747D
100
AcDbEntity
  8
細線
 48
0.2
100
AcDbCircle
 10
7924.528354302459
 20
2965.20160067894
 30
0.0
 40
1.0
100
AcDbArc
 50
180.0
 51
253.3984504010078
  0
LINE
  5
16598
330
747D
100
AcDbEntity
  8
細線
 48
0.2
100
AcDbLine
 10
7937.528354302459
 20
2967.672110510188
 30
0.0
 11
7917.528354302461
 21
2967.67211051019
 31
0.0
  0
LINE
  5
16599
330
747D
100
AcDbEntity
  8
細線
 48
0.2
100
AcDbLine
 10
7937.528354302459
 20
2965.172110510188
 30
0.0
 11
7917.528354302461
 21
2965.172110510188
 31
0.0
  0
ARC
  5
1659A
330
747D
100
AcDbEntity
  8
細線
 48
0.2
100
AcDbCircle
 10
7934.528354302459
 20
2965.20160067894
 30
0.0
 40
1.0
100
AcDbArc
 50
286.6015495989922
 51
0.0
  0
LINE
  5
1659B
330
747D
100
AcDbEntity
  8
部品1
100
AcDbLine
 10
7937.528354302459
 20
2965.42211051019
 30
0.0
 11
7937.59080213114
 21
2965.42211051019
 31
0.0
  0
LINE
  5
1659C
330
747D
100
AcDbEntity
  8
部品1
 48
0.2
100
AcDbLine
 10
7937.528354302459
 20
2972.172110510188
 30
0.0
 11
7917.528354302461
 21
2972.172110510188
 31
0.0
  0
LINE
  5
1659D
330
747D
100
AcDbEntity
  8
細線
 48
0.2
100
AcDbLine
 10
7937.528354302459
 20
2969.672110510188
 30
0.0
 11
7917.528354302461
 21
2969.672110510188
 31
0.0
  0
LINE
  5
1659E
330
747D
100
AcDbEntity
  8
部品1
 48
50.0
100
AcDbLine
 10
6967.52835430246
 20
2972.172110510188
 30
0.0
 11
6967.52835430246
 21
2965.42211051019
 31
0.0
  0
LINE
  5
1659F
330
747D
100
AcDbEntity
  8
細線
 48
50.0
100
AcDbLine
 10
6983.516007154119
 20
2967.67211051019
 30
0.0
 11
6983.516007154119
 21
2969.672110510188
 31
0.0
  0
LINE
  5
165A0
330
747D
100
AcDbEntity
  8
細線
 48
50.0
100
AcDbLine
 10
6975.665597108157
 20
2967.67211051019
 30
0.0
 11
6975.665597108157
 21
2969.672110510188
 31
0.0
  0
LINE
  5
165A1
330
747D
100
AcDbEntity
  8
細線
 48
0.1
100
AcDbLine
 10
6987.528354302459
 20
2965.172110510188
 30
0.0
 11
6987.528354302459
 21
2972.172110510188
 31
0.0
  0
LINE
  5
165A2
330
747D
100
AcDbEntity
  8
部品1
100
AcDbLine
 10
6987.528354302459
 20
2965.422110510191
 30
0.0
 11
6987.590802131141
 21
2965.422110510191
 31
0.0
  0
LINE
  5
165A3
330
747D
100
AcDbEntity
  8
部品1
100
AcDbLine
 10
6987.528354302459
 20
2965.42211051019
 30
0.0
 11
6987.590802131141
 21
2965.42211051019
 31
0.0
  0
LINE
  5
165A4
330
747D
100
AcDbEntity
  8
細線
 48
50.0
100
AcDbLine
 10
6967.52835430246
 20
2965.42211051019
 30
0.0
 11
6967.52835430246
 21
2965.172110510188
 31
0.0
  0
LINE
  5
165A5
330
747D
100
AcDbEntity
  8
細線
 48
0.2
100
AcDbLine
 10
6985.212345598968
 20
2964.472110510187
 30
0.0
 11
6973.844363005956
 21
2964.472110510187
 31
0.0
  0
ARC
  5
165A6
330
747D
100
AcDbEntity
  8
細線
 48
0.2
100
AcDbCircle
 10
6979.528354302459
 20
2981.972110510185
 30
0.0
 40
18.49999999999796
100
AcDbArc
 50
253.3984504010078
 51
286.6015495989922
  0
ARC
  5
165A7
330
747D
100
AcDbEntity
  8
細線
 48
0.2
100
AcDbCircle
 10
6974.52835430246
 20
2965.20160067894
 30
0.0
 40
1.0
100
AcDbArc
 50
180.0
 51
253.3984504010078
  0
LINE
  5
165A8
330
747D
100
AcDbEntity
  8
細線
 48
0.2
100
AcDbLine
 10
6987.528354302459
 20
2967.672110510188
 30
0.0
 11
6967.52835430246
 21
2967.67211051019
 31
0.0
  0
LINE
  5
165A9
330
747D
100
AcDbEntity
  8
細線
 48
0.2
100
AcDbLine
 10
6987.528354302459
 20
2965.172110510188
 30
0.0
 11
6967.52835430246
 21
2965.172110510188
 31
0.0
  0
ARC
  5
165AA
330
747D
100
AcDbEntity
  8
細線
 48
0.2
100
AcDbCircle
 10
6984.528354302459
 20
2965.20160067894
 30
0.0
 40
1.0
100
AcDbArc
 50
286.6015495989922
 51
0.0
  0
LINE
  5
165AB
330
747D
100
AcDbEntity
  8
部品1
100
AcDbLine
 10
6987.528354302459
 20
2965.42211051019
 30
0.0
 11
6987.590802131141
 21
2965.42211051019
 31
0.0
  0
LINE
  5
165AC
330
747D
100
AcDbEntity
  8
部品1
 48
0.2
100
AcDbLine
 10
6987.528354302459
 20
2972.172110510188
 30
0.0
 11
6967.52835430246
 21
2972.172110510188
 31
0.0
  0
LINE
  5
165AD
330
747D
100
AcDbEntity
  8
細線
 48
0.2
100
AcDbLine
 10
6987.528354302459
 20
2969.672110510188
 30
0.0
 11
6967.52835430246
 21
2969.672110510188
 31
0.0
  0
LINE
  5
165AE
330
747D
100
AcDbEntity
  8
部品1
100
AcDbLine
 10
7207.59080213114
 20
2965.422110510183
 30
0.0
 11
7917.528354302461
 21
2965.422110510188
 31
0.0
  0
LINE
  5
165AF
330
747D
100
AcDbEntity
  8
部品1
100
AcDbLine
 10
7939.590802131141
 20
4758.92211051017
 30
0.0
 11
7939.590802131141
 21
2961.92211051019
 31
0.0
  0
LINE
  5
165B0
330
747D
100
AcDbEntity
  8
部品1
100
AcDbLine
 10
8069.590802131141
 20
4758.92211051017
 30
0.0
 11
8069.590802131141
 21
2961.92211051019
 31
0.0
  0
LINE
  5
165B1
330
747D
100
AcDbEntity
  8
部品1
100
AcDbLine
 10
8112.590802131141
 20
4852.922110510171
 30
0.0
 11
8112.590802131141
 21
2818.92211051017
 31
0.0
  0
LINE
  5
165B2
330
747D
100
AcDbEntity
  8
部品1
100
AcDbLine
 10
7937.590802131139
 20
4756.422110510169
 30
0.0
 11
7937.59080213114
 21
2965.422110510191
 31
0.0
  0
LINE
  5
165B3
330
747D
100
AcDbEntity
  8
部品1
100
AcDbLine
 10
7207.59080213114
 20
4756.422110510167
 30
0.0
 11
7207.59080213114
 21
2965.422110510184
 31
0.0
  0
LINE
  5
165B4
330
747D
100
AcDbEntity
  8
部品1
100
AcDbLine
 10
7205.590802131141
 20
4758.92211051017
 30
0.0
 11
7205.590802131141
 21
2961.92211051019
 31
0.0
  0
LINE
  5
165B5
330
747D
100
AcDbEntity
  8
部品1
100
AcDbLine
 10
6989.590802131141
 20
4758.92211051017
 30
0.0
 11
6989.590802131141
 21
2961.92211051019
 31
0.0
  0
LINE
  5
165B6
330
747D
100
AcDbEntity
  8
部品1
100
AcDbLine
 10
6987.590802131141
 20
4756.422110510169
 30
0.0
 11
6987.590802131141
 21
2965.422110510191
 31
0.0
  0
LINE
  5
165B7
330
747D
100
AcDbEntity
  8
部品1
100
AcDbLine
 10
7119.590802131141
 20
4758.92211051017
 30
0.0
 11
7119.590802131141
 21
2961.92211051019
 31
0.0
  0
LINE
  5
165B8
330
747D
100
AcDbEntity
  8
細線
 48
50.0
100
AcDbLine
 10
6033.516007154119
 20
4754.172110510171
 30
0.0
 11
6033.516007154119
 21
4752.172110510172
 31
0.0
  0
LINE
  5
165B9
330
747D
100
AcDbEntity
  8
細線
 48
0.1
100
AcDbLine
 10
6037.52835430246
 20
4756.672110510171
 30
0.0
 11
6037.52835430246
 21
4749.672110510171
 31
0.0
  0
LINE
  5
165BA
330
747D
100
AcDbEntity
  8
細線
 48
50.0
100
AcDbLine
 10
6025.665597108156
 20
4754.172110510171
 30
0.0
 11
6025.665597108156
 21
4752.172110510172
 31
0.0
  0
LINE
  5
165BB
330
747D
100
AcDbEntity
  8
部品1
 48
50.0
100
AcDbLine
 10
6017.528354302459
 20
4749.672110510171
 30
0.0
 11
6017.528354302459
 21
4756.422110510171
 31
0.0
  0
LINE
  5
165BC
330
747D
100
AcDbEntity
  8
部品1
 48
0.2
100
AcDbLine
 10
6037.52835430246
 20
4749.672110510171
 30
0.0
 11
6017.528354302459
 21
4749.672110510171
 31
0.0
  0
LINE
  5
165BD
330
747D
100
AcDbEntity
  8
細線
 48
0.2
100
AcDbLine
 10
6037.52835430246
 20
4752.172110510172
 30
0.0
 11
6017.528354302459
 21
4752.172110510172
 31
0.0
  0
LINE
  5
165BE
330
747D
100
AcDbEntity
  8
細線
 48
0.2
100
AcDbLine
 10
6035.212345598967
 20
4757.372110510172
 30
0.0
 11
6023.844363005956
 21
4757.372110510172
 31
0.0
  0
ARC
  5
165BF
330
747D
100
AcDbEntity
  8
細線
 48
0.2
100
AcDbCircle
 10
6029.52835430246
 20
4739.872110510174
 30
0.0
 40
18.49999999999796
100
AcDbArc
 50
73.39845040100779
 51
106.6015495989922
  0
LINE
  5
165C0
330
747D
100
AcDbEntity
  8
細線
 48
0.2
100
AcDbLine
 10
6037.52835430246
 20
4754.172110510171
 30
0.0
 11
6017.528354302459
 21
4754.172110510171
 31
0.0
  0
LINE
  5
165C1
330
747D
100
AcDbEntity
  8
細線
 48
0.2
100
AcDbLine
 10
6037.52835430246
 20
4756.672110510171
 30
0.0
 11
6017.528354302459
 21
4756.672110510171
 31
0.0
  0
ARC
  5
165C2
330
747D
100
AcDbEntity
  8
細線
 48
0.2
100
AcDbCircle
 10
6024.52835430246
 20
4756.642620341419
 30
0.0
 40
1.0
100
AcDbArc
 50
106.6015495989922
 51
180.0
  0
LINE
  5
165C3
330
747D
100
AcDbEntity
  8
細線
 48
50.0
100
AcDbLine
 10
6017.528354302459
 20
4756.422110510171
 30
0.0
 11
6017.528354302459
 21
4756.672110510171
 31
0.0
  0
ARC
  5
165C4
330
747D
100
AcDbEntity
  8
細線
 48
0.2
100
AcDbCircle
 10
6034.52835430246
 20
4756.642620341419
 30
0.0
 40
1.0
100
AcDbArc
 50
0.0
 51
73.39845040100779
  0
LINE
  5
165C5
330
747D
100
AcDbEntity
  8
部品1
100
AcDbLine
 10
6037.52835430246
 20
4756.422110510171
 30
0.0
 11
6037.590802131141
 21
4756.422110510169
 31
0.0
  0
LINE
  5
165C6
330
747D
100
AcDbEntity
  8
部品1
100
AcDbLine
 10
5307.590802131141
 20
4756.422110510171
 30
0.0
 11
6017.528354302459
 21
4756.422110510171
 31
0.0
  0
LINE
  5
165C7
330
747D
100
AcDbEntity
  8
細線
 48
0.2
100
AcDbLine
 10
6037.52835430246
 20
2965.172110510188
 30
0.0
 11
6017.528354302459
 21
2965.172110510188
 31
0.0
  0
LINE
  5
165C8
330
747D
100
AcDbEntity
  8
細線
 48
0.2
100
AcDbLine
 10
6037.52835430246
 20
2967.672110510188
 30
0.0
 11
6017.528354302459
 21
2967.67211051019
 31
0.0
  0
ARC
  5
165C9
330
747D
100
AcDbEntity
  8
細線
 48
0.2
100
AcDbCircle
 10
6029.52835430246
 20
2981.972110510185
 30
0.0
 40
18.49999999999796
100
AcDbArc
 50
253.3984504010078
 51
286.6015495989922
  0
LINE
  5
165CA
330
747D
100
AcDbEntity
  8
細線
 48
0.2
100
AcDbLine
 10
6035.212345598967
 20
2964.472110510187
 30
0.0
 11
6023.844363005956
 21
2964.472110510187
 31
0.0
  0
LINE
  5
165CB
330
747D
100
AcDbEntity
  8
細線
 48
0.2
100
AcDbLine
 10
6037.52835430246
 20
2969.672110510188
 30
0.0
 11
6017.528354302459
 21
2969.672110510188
 31
0.0
  0
LINE
  5
165CC
330
747D
100
AcDbEntity
  8
部品1
 48
0.2
100
AcDbLine
 10
6037.52835430246
 20
2972.172110510188
 30
0.0
 11
6017.528354302459
 21
2972.172110510188
 31
0.0
  0
LINE
  5
165CD
330
747D
100
AcDbEntity
  8
細線
 48
50.0
100
AcDbLine
 10
6025.665597108156
 20
2967.67211051019
 30
0.0
 11
6025.665597108156
 21
2969.672110510188
 31
0.0
  0
LINE
  5
165CE
330
747D
100
AcDbEntity
  8
部品1
 48
50.0
100
AcDbLine
 10
6017.528354302459
 20
2972.172110510188
 30
0.0
 11
6017.528354302459
 21
2965.42211051019
 31
0.0
  0
ARC
  5
165CF
330
747D
100
AcDbEntity
  8
細線
 48
0.2
100
AcDbCircle
 10
6024.52835430246
 20
2965.20160067894
 30
0.0
 40
1.0
100
AcDbArc
 50
180.0
 51
253.3984504010078
  0
LINE
  5
165D0
330
747D
100
AcDbEntity
  8
細線
 48
50.0
100
AcDbLine
 10
6017.528354302459
 20
2965.42211051019
 30
0.0
 11
6017.528354302459
 21
2965.172110510188
 31
0.0
  0
LINE
  5
165D1
330
747D
100
AcDbEntity
  8
細線
 48
0.1
100
AcDbLine
 10
6037.52835430246
 20
2965.172110510188
 30
0.0
 11
6037.52835430246
 21
2972.172110510188
 31
0.0
  0
LINE
  5
165D2
330
747D
100
AcDbEntity
  8
細線
 48
50.0
100
AcDbLine
 10
6033.516007154119
 20
2967.67211051019
 30
0.0
 11
6033.516007154119
 21
2969.672110510188
 31
0.0
  0
ARC
  5
165D3
330
747D
100
AcDbEntity
  8
細線
 48
0.2
100
AcDbCircle
 10
6034.52835430246
 20
2965.20160067894
 30
0.0
 40
1.0
100
AcDbArc
 50
286.6015495989922
 51
0.0
  0
LINE
  5
165D4
330
747D
100
AcDbEntity
  8
部品1
100
AcDbLine
 10
6037.52835430246
 20
2965.42211051019
 30
0.0
 11
6037.590802131141
 21
2965.42211051019
 31
0.0
  0
LINE
  5
165D5
330
747D
100
AcDbEntity
  8
部品1
100
AcDbLine
 10
6037.52835430246
 20
2965.422110510181
 30
0.0
 11
6037.590802131141
 21
2965.422110510181
 31
0.0
  0
LINE
  5
165D6
330
747D
100
AcDbEntity
  8
部品1
100
AcDbLine
 10
5307.590802131141
 20
2965.422110510175
 30
0.0
 11
6017.528354302459
 21
2965.42211051019
 31
0.0
  0
LINE
  5
165D7
330
747D
100
AcDbEntity
  8
部品1
100
AcDbLine
 10
6039.59080213114
 20
4758.92211051017
 30
0.0
 11
6039.59080213114
 21
2961.92211051019
 31
0.0
  0
DIMENSION
  5
165D8
330
747D
100
AcDbEntity
  8
寸法
100
AcDbDimension
  2
*D35
 10
3994.486274523537
 20
2980.422110510174
 30
0.0
 11
3994.486274523537
 21
3859.422110510172
 31
0.0
 70
   160
  1
有効開口部高サ<>
 71
     5
 42
1759.999999999996
  3
INABA_S40G
100
AcDbAlignedDimension
 13
4312.590802131141
 23
4740.422110510169
 33
0.0
 14
4312.590802131141
 24
2980.422110510174
 34
0.0
 50
90.0
100
AcDbRotatedDimension
1001
ACAD
1000
DSTYLE
1002
{
1070
   288
1070
     1
1002
}
  0
LINE
  5
165D9
330
747D
100
AcDbEntity
  8
部品1
100
AcDbLine
 10
6169.590802131141
 20
4758.92211051017
 30
0.0
 11
6169.590802131141
 21
2961.92211051019
 31
0.0
  0
LINE
  5
165DA
330
747D
100
AcDbEntity
  8
部品1
100
AcDbLine
 10
6037.590802131139
 20
4756.422110510169
 30
0.0
 11
6037.590802131141
 21
2965.42211051019
 31
0.0
  0
LINE
  5
165DB
330
747D
100
AcDbEntity
  8
部品1
100
AcDbLine
 10
4357.590802131141
 20
4756.422110510174
 30
0.0
 11
4357.590802131141
 21
2965.422110510175
 31
0.0
  0
LINE
  5
165DC
330
747D
100
AcDbEntity
  8
部品1
100
AcDbLine
 10
4312.590802131141
 20
4852.922110510172
 30
0.0
 11
4312.590802131141
 21
2818.92211051017
 31
0.0
  0
LINE
  5
165DD
330
747D
100
AcDbEntity
  8
部品1
100
AcDbLine
 10
4355.590802131141
 20
4758.92211051017
 30
0.0
 11
4355.590802131141
 21
2961.92211051019
 31
0.0
  0
LINE
  5
165DE
330
747D
100
AcDbEntity
  8
部品1
100
AcDbLine
 10
6257.59080213114
 20
4756.422110510169
 30
0.0
 11
6257.59080213114
 21
2965.422110510184
 31
0.0
  0
LINE
  5
165DF
330
747D
100
AcDbEntity
  8
部品1
100
AcDbLine
 10
6255.590802131141
 20
4758.92211051017
 30
0.0
 11
6255.590802131141
 21
2961.92211051019
 31
0.0
  0
LINE
  5
165E0
330
747D
100
AcDbEntity
  8
部品1
100
AcDbLine
 10
4312.590802131141
 20
2961.922110510173
 30
0.0
 11
8112.590802131141
 21
2961.92211051019
 31
0.0
  0
LINE
  5
165E1
330
747D
100
AcDbEntity
  8
部品1
100
AcDbLine
 10
4312.590802131141
 20
2918.92211051017
 30
0.0
 11
8112.590802131141
 21
2918.92211051017
 31
0.0
  0
LINE
  5
165E2
330
747D
100
AcDbEntity
  8
部品1
100
AcDbLine
 10
4312.590802131141
 20
4758.92211051017
 30
0.0
 11
8112.590802131141
 21
4758.92211051017
 31
0.0
  0
LINE
  5
165E3
330
747D
100
AcDbEntity
  8
部品1
100
AcDbLine
 10
6257.59080213114
 20
2965.422110510183
 30
0.0
 11
6967.52835430246
 21
2965.422110510188
 31
0.0
  0
LINE
  5
165E4
330
747D
100
AcDbEntity
  8
部品1
100
AcDbLine
 10
6257.59080213114
 20
4756.422110510167
 30
0.0
 11
6967.52835430246
 21
4756.422110510169
 31
0.0
  0
TEXT
  5
165E5
330
747D
100
AcDbEntity
  8
部品1
100
AcDbText
 10
3327.803425239654
 20
2855.029014116071
 30
0.0
 40
125.0
  1
▽G.L
  7
STYLE2
100
AcDbText
  0
LINE
  5
165E6
330
747D
100
AcDbEntity
  8
Ｇ．Ｌ
100
AcDbLine
 10
3343.257407964928
 20
2818.92211051017
 30
0.0
 11
12922.42885145471
 21
2818.92211051017
 31
0.0
  0
DIMENSION
  5
16802
330
747D
100
AcDbEntity
  8
寸法
100
AcDbDimension
  2
*D38
 10
8029.452448786129
 20
8558.564180353052
 30
0.0
 11
7676.245460690442
 21
8663.649456129581
 31
0.0
 70
   160
 71
     5
 42
892.000000000011
  3
INABA_S40G
100
AcDbAlignedDimension
 13
7191.590808808768
 23
8760.611290596036
 33
0.0
 14
8083.590808808777
 24
8760.611290596033
 34
0.0
100
AcDbRotatedDimension
1001
ACAD
1000
DSTYLE
1002
{
1070
   279
1070
     2
1002
}
  0
MTEXT
  5
16803
330
747D
100
AcDbEntity
  8
寸法
 62
     7
 48
50.0
100
AcDbMText
 10
7652.870606419405
 20
8830.225038133324
 30
0.0
 40
96.0
 41
0.0
 71
     5
 72
     1
  1
棚 2段
  7
STYLE1
 73
     1
 44
1.0
1001
ACAD
1000
MTEXTBEGIN
1070
    73
1070
     1
1070
    44
1040
1.0
1070
    74
1070
     0
1000
MTEXTEND
  0
DIMENSION
  5
16804
330
747D
100
AcDbEntity
  8
寸法
100
AcDbDimension
  2
*D37
 10
7079.452448786129
 20
8558.564180353052
 30
0.0
 11
6732.716623584689
 21
8661.84829574605
 31
0.0
 70
   160
 71
     5
 42
892.000000000011
  3
INABA_S40G
100
AcDbAlignedDimension
 13
6241.590808808767
 23
8760.611290596036
 33
0.0
 14
7133.590808808778
 24
8760.611290596033
 34
0.0
100
AcDbRotatedDimension
1001
ACAD
1000
DSTYLE
1002
{
1070
   279
1070
     2
1002
}
  0
MTEXT
  5
16805
330
747D
100
AcDbEntity
  8
寸法
 62
     7
 48
50.0
100
AcDbMText
 10
6702.139004974397
 20
8830.225038133336
 30
0.0
 40
96.0
 41
0.0
 71
     5
 72
     1
  1
棚 2段
  7
STYLE1
 73
     1
 44
1.0
1001
ACAD
1000
MTEXTBEGIN
1070
    73
1070
     1
1070
    44
1040
1.0
1070
    74
1070
     0
1000
MTEXTEND
  0
DIMENSION
  5
16806
330
747D
100
AcDbEntity
  8
寸法
100
AcDbDimension
  2
*D36
 10
6129.452448786128
 20
8558.564180353052
 30
0.0
 11
5782.716623584689
 21
8661.84829574605
 31
0.0
 70
   160
 71
     5
 42
892.000000000011
  3
INABA_S40G
100
AcDbAlignedDimension
 13
5291.590808808767
 23
8760.611290596036
 33
0.0
 14
6183.590808808778
 24
8760.611290596033
 34
0.0
100
AcDbRotatedDimension
1001
ACAD
1000
DSTYLE
1002
{
1070
   279
1070
     2
1002
}
  0
MTEXT
  5
16807
330
747D
100
AcDbEntity
  8
寸法
 62
     7
 48
50.0
100
AcDbMText
 10
5752.139004974397
 20
8830.225038133336
 30
0.0
 40
96.0
 41
0.0
 71
     5
 72
     1
  1
棚 2段
  7
STYLE1
 73
     1
 44
1.0
1001
ACAD
1000
MTEXTBEGIN
1070
    73
1070
     1
1070
    44
1040
1.0
1070
    74
1070
     0
1000
MTEXTEND
  0
MTEXT
  5
16847
330
747D
100
AcDbEntity
  8
寸法
 62
     7
 48
50.0
100
AcDbMText
 10
4802.139004974397
 20
8830.225038133336
 30
0.0
 40
96.0
 41
0.0
 71
     5
 72
     1
  1
棚 2段
  7
STYLE1
 73
     1
 44
1.0
1001
ACAD
1000
MTEXTBEGIN
1070
    73
1070
     1
1070
    44
1040
1.0
1070
    74
1070
     0
1000
MTEXTEND
  0
DIMENSION
  5
16848
330
747D
100
AcDbEntity
  8
寸法
100
AcDbDimension
  2
*D39
 10
5179.452448786129
 20
8558.564180353052
 30
0.0
 11
4832.716623584689
 21
8661.84829574605
 31
0.0
 70
   160
 71
     5
 42
892.000000000011
  3
INABA_S40G
100
AcDbAlignedDimension
 13
4341.590808808767
 23
8760.611290596036
 33
0.0
 14
5233.590808808778
 24
8760.611290596033
 34
0.0
100
AcDbRotatedDimension
1001
ACAD
1000
DSTYLE
1002
{
1070
   279
1070
     2
1002
}
  0
TEXT
  5
16A16
330
747D
100
AcDbEntity
  8
文字
 62
     7
 48
50.0
100
AcDbText
 10
14260.68475616112
 20
855.469579666289
 30
0.0
 40
100.0
  1
～一般型・多雪地型・豪雪地型～
  7
STYLE2
100
AcDbText
  0
ENDSEC
  0
SECTION
  2
OBJECTS
  0
DICTIONARY
  5
7471
330
0
100
AcDbDictionary
281
     1
  3
ACAD_COLOR
350
15581
  3
ACAD_GROUP
350
7472
  3
ACAD_LAYOUT
350
15582
  3
ACAD_MATERIAL
350
15580
  3
ACAD_MLINESTYLE
350
7473
  3
ACAD_PLOTSETTINGS
350
15583
  3
ACAD_PLOTSTYLENAME
350
1557E
  3
ACDBHEADERROUNDTRIPXREC
350
16A38
  3
AcDbVariableDictionary
350
16A34
  3
CONTENTDICTIONARY
350
E71C
  3
DRAWINGVARIABLESDICT
350
F3B9
  0
DICTIONARY
  5
15743
330
7467
100
AcDbDictionary
280
     1
281
     1
  3
ACAD_LAYERSTATES
360
15744
  0
DICTIONARY
  5
15581
102
{ACAD_REACTORS
330
7471
102
}
330
7471
100
AcDbDictionary
281
     1
  0
DICTIONARY
  5
7472
102
{ACAD_REACTORS
330
7471
102
}
330
7471
100
AcDbDictionary
281
     1
  0
DICTIONARY
  5
15582
102
{ACAD_REACTORS
330
7471
102
}
330
7471
100
AcDbDictionary
281
     1
  3
Model
350
15584
  3
レイアウト1
350
15585
  0
DICTIONARY
  5
15580
102
{ACAD_REACTORS
330
7471
102
}
330
7471
100
AcDbDictionary
281
     1
  0
DICTIONARY
  5
7473
102
{ACAD_REACTORS
330
7471
102
}
330
7471
100
AcDbDictionary
281
     1
  3
STANDARD
350
7480
  0
DICTIONARY
  5
15583
102
{ACAD_REACTORS
330
7471
102
}
330
7471
100
AcDbDictionary
281
     1
  0
ACDBDICTIONARYWDFLT
  5
1557E
102
{ACAD_REACTORS
330
7471
102
}
330
7471
100
AcDbDictionary
281
     1
  3
Normal
350
1557F
100
AcDbDictionaryWithDefault
340
1557F
  0
DICTIONARY
  5
16A38
102
{ACAD_REACTORS
330
7471
102
}
330
7471
100
AcDbDictionary
281
     1
  3
COLORDICT
350
16A3A
  3
MATERIALDICT
350
16A39
  0
DICTIONARY
  5
16A34
102
{ACAD_REACTORS
330
7471
102
}
330
7471
100
AcDbDictionary
281
     1
  3
DIMASSOC
350
16A35
  3
PROJECTNAME
350
16A36
  0
DICTIONARY
  5
E71C
102
{ACAD_REACTORS
330
7471
102
}
330
7471
100
AcDbDictionary
281
     1
  0
DICTIONARY
  5
F3B9
102
{ACAD_REACTORS
330
7471
102
}
330
7471
100
AcDbDictionary
281
     1
1001
DRAWINGVARIABLESXDATA
1000
POLARMODE
1000
1
  0
DICTIONARY
  5
15744
102
{ACAD_REACTORS
330
15743
102
}
330
15743
100
AcDbDictionary
281
     1
  0
LAYOUT
  5
15584
102
{ACAD_XDICTIONARY
360
16A3B
102
}
102
{ACAD_REACTORS
330
15582
102
}
330
15582
100
AcDbPlotSettings
  1

  2
Microsoft Office Document Image Writer
  4

  6

 40
0.0
 41
0.0
 42
0.0
 43
0.0
 44
0.0
 45
0.0
 46
0.0
 47
0.0
 48
0.0
 49
0.0
140
0.0
141
0.0
142
1.0
143
1.0
 70
  1712
 72
     0
 73
     0
 74
     0
  7

 75
     0
147
1.0
148
0.0
149
0.0
100
AcDbLayout
  1
Model
 70
     1
 71
     0
 10
0.0
 20
0.0
 11
12.0
 21
9.0
 12
0.0
 22
0.0
 32
0.0
 14
0.0
 24
0.0
 34
0.0
 15
0.0
 25
0.0
 35
0.0
146
0.0
 13
0.0
 23
0.0
 33
0.0
 16
1.0
 26
0.0
 36
0.0
 17
0.0
 27
1.0
 37
0.0
 76
     0
330
747D
  0
LAYOUT
  5
15585
102
{ACAD_XDICTIONARY
360
16A3D
102
}
102
{ACAD_REACTORS
330
15582
102
}
330
15582
100
AcDbPlotSettings
  1

  2
Microsoft Office Document Image Writer
  4

  6

 40
0.0
 41
0.0
 42
0.0
 43
0.0
 44
0.0
 45
0.0
 46
0.0
 47
0.0
 48
0.0
 49
0.0
140
0.0
141
0.0
142
1.0
143
1.0
 70
   688
 72
     0
 73
     0
 74
     5
  7

 75
    16
147
1.0
148
0.0
149
0.0
100
AcDbLayout
  1
レイアウト1
 70
     0
 71
     1
 10
0.0
 20
0.0
 11
420.0
 21
297.0
 12
0.0
 22
0.0
 32
0.0
 14
1.000000000000000E+20
 24
1.000000000000000E+20
 34
1.000000000000000E+20
 15
-1.000000000000000E+20
 25
-1.000000000000000E+20
 35
-1.000000000000000E+20
146
0.0
 13
0.0
 23
0.0
 33
0.0
 16
1.0
 26
0.0
 36
0.0
 17
0.0
 27
1.0
 37
0.0
 76
     0
330
747A
  0
MLINESTYLE
  5
7480
102
{ACAD_REACTORS
330
7473
102
}
330
7473
100
AcDbMlineStyle
  2
STANDARD
 70
     0
  3

 62
     0
 51
90.0
 52
90.0
 71
     2
 49
0.5
 62
   256
  6
BYLAYER
 49
-0.5
 62
   256
  6
BYLAYER
  0
ACDBPLACEHOLDER
  5
1557F
102
{ACAD_REACTORS
330
1557E
102
}
330
1557E
  0
XRECORD
  5
16A3A
102
{ACAD_REACTORS
330
16A38
102
}
330
16A38
100
AcDbXrecord
280
     1
340
15581
  0
XRECORD
  5
16A39
102
{ACAD_REACTORS
330
16A38
102
}
330
16A38
100
AcDbXrecord
280
     1
340
15580
  0
DICTIONARYVAR
  5
16A35
102
{ACAD_REACTORS
330
16A34
102
}
330
16A34
100
DictionaryVariables
280
     0
  1
1
  0
DICTIONARYVAR
  5
16A36
102
{ACAD_REACTORS
330
16A34
102
}
330
16A34
100
DictionaryVariables
280
     0
  1

  0
DICTIONARY
  5
16A3B
330
15584
100
AcDbDictionary
280
     1
281
     1
  3
ACAD_XREC_ROUNDTRIP
360
16A3C
  0
DICTIONARY
  5
16A3D
330
15585
100
AcDbDictionary
280
     1
281
     1
  3
ACAD_XREC_ROUNDTRIP
360
16A3E
  0
XRECORD
  5
16A3C
102
{ACAD_REACTORS
330
16A3B
102
}
330
16A3B
100
AcDbXrecord
280
     1
102
SHADEPLOT
 70
     0
102
SHADEPLOTRESLEVEL
 70
     2
102
SHADEPLOTCUSTOMDPI
 70
   300
  0
XRECORD
  5
16A3E
102
{ACAD_REACTORS
330
16A3D
102
}
330
16A3D
100
AcDbXrecord
280
     1
102
SHADEPLOT
 70
     0
102
SHADEPLOTRESLEVEL
 70
     2
102
SHADEPLOTCUSTOMDPI
 70
   300
  0
ENDSEC
  0
EOF
