  0
SECTION
  2
HEADER
  9
$ACADVER
  1
AC1015
  9
$ACADMAINTVER
 70
    20
  9
$DWGCODEPAGE
  3
ANSI_932
  9
$INSBASE
 10
0.0
 20
0.0
 30
0.0
  9
$EXTMIN
 10
139.9999999999995
 20
-0.0000000000000909
 30
0.0
  9
$EXTMAX
 10
16307.2
 20
11409.6
 30
0.0
  9
$LIMMIN
 10
0.0
 20
0.0
  9
$LIMMAX
 10
16800.0
 20
11880.0
  9
$ORTHOMODE
 70
     0
  9
$REGENMODE
 70
     1
  9
$FILLMODE
 70
     1
  9
$QTEXTMODE
 70
     0
  9
$MIRRTEXT
 70
     1
  9
$LTSCALE
 40
20.0
  9
$ATTMODE
 70
     1
  9
$TEXTSIZE
 40
100.0
  9
$TRACEWID
 40
1.0
  9
$TEXTSTYLE
  7
STYLE3
  9
$CLAYER
  8
寸法
  9
$CELTYPE
  6
BYLAYER
  9
$CECOLOR
 62
   256
  9
$CELTSCALE
 40
50.0
  9
$DISPSILH
 70
     0
  9
$DIMSCALE
 40
40.0
  9
$DIMASZ
 40
2.5
  9
$DIMEXO
 40
0.5
  9
$DIMDLI
 40
7.0
  9
$DIMRND
 40
0.0
  9
$DIMDLE
 40
0.0
  9
$DIMEXE
 40
1.5
  9
$DIMTP
 40
0.0
  9
$DIMTM
 40
0.0
  9
$DIMTXT
 40
3.0
  9
$DIMCEN
 40
0.0
  9
$DIMTSZ
 40
0.0
  9
$DIMTOL
 70
     0
  9
$DIMLIM
 70
     0
  9
$DIMTIH
 70
     0
  9
$DIMTOH
 70
     0
  9
$DIMSE1
 70
     0
  9
$DIMSE2
 70
     0
  9
$DIMTAD
 70
     3
  9
$DIMZIN
 70
     8
  9
$DIMBLK
  1

  9
$DIMASO
 70
     1
  9
$DIMSHO
 70
     1
  9
$DIMPOST
  1

  9
$DIMAPOST
  1

  9
$DIMALT
 70
     0
  9
$DIMALTD
 70
     2
  9
$DIMALTF
 40
0.0394
  9
$DIMLFAC
 40
1.0
  9
$DIMTOFL
 70
     1
  9
$DIMTVP
 40
0.0
  9
$DIMTIX
 70
     1
  9
$DIMSOXD
 70
     0
  9
$DIMSAH
 70
     1
  9
$DIMBLK1
  1
DOTSMALL
  9
$DIMBLK2
  1
DOTSMALL
  9
$DIMSTYLE
  2
INABA_S40G
  9
$DIMCLRD
 70
     0
  9
$DIMCLRE
 70
     0
  9
$DIMCLRT
 70
     7
  9
$DIMTFAC
 40
1.0
  9
$DIMGAP
 40
1.0
  9
$DIMJUST
 70
     0
  9
$DIMSD1
 70
     0
  9
$DIMSD2
 70
     0
  9
$DIMTOLJ
 70
     1
  9
$DIMTZIN
 70
     0
  9
$DIMALTZ
 70
     0
  9
$DIMALTTZ
 70
     0
  9
$DIMUPT
 70
     0
  9
$DIMDEC
 70
     1
  9
$DIMTDEC
 70
     4
  9
$DIMALTU
 70
     2
  9
$DIMALTTD
 70
     2
  9
$DIMTXSTY
  7
STYLE1
  9
$DIMAUNIT
 70
     0
  9
$DIMADEC
 70
     0
  9
$DIMALTRND
 40
0.0
  9
$DIMAZIN
 70
     0
  9
$DIMDSEP
 70
    46
  9
$DIMATFIT
 70
     3
  9
$DIMFRAC
 70
     0
  9
$DIMLDRBLK
  1

  9
$DIMLUNIT
 70
     2
  9
$DIMLWD
 70
    -2
  9
$DIMLWE
 70
    -2
  9
$DIMTMOVE
 70
     0
  9
$LUNITS
 70
     2
  9
$LUPREC
 70
     1
  9
$SKETCHINC
 40
1.0
  9
$FILLETRAD
 40
5.0
  9
$AUNITS
 70
     0
  9
$AUPREC
 70
     0
  9
$MENU
  1
acad
  9
$ELEVATION
 40
0.0
  9
$PELEVATION
 40
0.0
  9
$THICKNESS
 40
0.0
  9
$LIMCHECK
 70
     0
  9
$CHAMFERA
 40
0.0
  9
$CHAMFERB
 40
0.0
  9
$CHAMFERC
 40
0.0
  9
$CHAMFERD
 40
0.0
  9
$SKPOLY
 70
     0
  9
$TDCREATE
 40
2452116.684896065
  9
$TDUCREATE
 40
2452116.309896065
  9
$TDUPDATE
 40
2455575.694826921
  9
$TDUUPDATE
 40
2455575.319826921
  9
$TDINDWG
 40
0.4788127778
  9
$TDUSRTIMER
 40
0.4788127778
  9
$USRTIMER
 70
     1
  9
$ANGBASE
 50
0.0
  9
$ANGDIR
 70
     0
  9
$PDMODE
 70
     3
  9
$PDSIZE
 40
2.0
  9
$PLINEWID
 40
0.0
  9
$SPLFRAME
 70
     0
  9
$SPLINETYPE
 70
     6
  9
$SPLINESEGS
 70
     8
  9
$HANDSEED
  5
16114
  9
$SURFTAB1
 70
     6
  9
$SURFTAB2
 70
     6
  9
$SURFTYPE
 70
     6
  9
$SURFU
 70
     6
  9
$SURFV
 70
     6
  9
$UCSBASE
  2

  9
$UCSNAME
  2

  9
$UCSORG
 10
0.0
 20
0.0
 30
0.0
  9
$UCSXDIR
 10
1.0
 20
0.0
 30
0.0
  9
$UCSYDIR
 10
0.0
 20
1.0
 30
0.0
  9
$UCSORTHOREF
  2

  9
$UCSORTHOVIEW
 70
     0
  9
$UCSORGTOP
 10
0.0
 20
0.0
 30
0.0
  9
$UCSORGBOTTOM
 10
0.0
 20
0.0
 30
0.0
  9
$UCSORGLEFT
 10
0.0
 20
0.0
 30
0.0
  9
$UCSORGRIGHT
 10
0.0
 20
0.0
 30
0.0
  9
$UCSORGFRONT
 10
0.0
 20
0.0
 30
0.0
  9
$UCSORGBACK
 10
0.0
 20
0.0
 30
0.0
  9
$PUCSBASE
  2

  9
$PUCSNAME
  2

  9
$PUCSORG
 10
0.0
 20
0.0
 30
0.0
  9
$PUCSXDIR
 10
1.0
 20
0.0
 30
0.0
  9
$PUCSYDIR
 10
0.0
 20
1.0
 30
0.0
  9
$PUCSORTHOREF
  2

  9
$PUCSORTHOVIEW
 70
     0
  9
$PUCSORGTOP
 10
0.0
 20
0.0
 30
0.0
  9
$PUCSORGBOTTOM
 10
0.0
 20
0.0
 30
0.0
  9
$PUCSORGLEFT
 10
0.0
 20
0.0
 30
0.0
  9
$PUCSORGRIGHT
 10
0.0
 20
0.0
 30
0.0
  9
$PUCSORGFRONT
 10
0.0
 20
0.0
 30
0.0
  9
$PUCSORGBACK
 10
0.0
 20
0.0
 30
0.0
  9
$USERI1
 70
     0
  9
$USERI2
 70
     0
  9
$USERI3
 70
     0
  9
$USERI4
 70
     0
  9
$USERI5
 70
     0
  9
$USERR1
 40
0.0
  9
$USERR2
 40
0.0
  9
$USERR3
 40
0.0
  9
$USERR4
 40
0.0
  9
$USERR5
 40
0.0
  9
$WORLDVIEW
 70
     1
  9
$SHADEDGE
 70
     3
  9
$SHADEDIF
 70
    70
  9
$TILEMODE
 70
     1
  9
$MAXACTVP
 70
    16
  9
$PINSBASE
 10
0.0
 20
0.0
 30
0.0
  9
$PLIMCHECK
 70
     0
  9
$PEXTMIN
 10
1.000000000000000E+20
 20
1.000000000000000E+20
 30
1.000000000000000E+20
  9
$PEXTMAX
 10
-1.000000000000000E+20
 20
-1.000000000000000E+20
 30
-1.000000000000000E+20
  9
$PLIMMIN
 10
0.0
 20
0.0
  9
$PLIMMAX
 10
420.0
 20
297.0
  9
$UNITMODE
 70
     0
  9
$VISRETAIN
 70
     0
  9
$PLINEGEN
 70
     0
  9
$PSLTSCALE
 70
     0
  9
$TREEDEPTH
 70
  3020
  9
$CMLSTYLE
  2
STANDARD
  9
$CMLJUST
 70
     0
  9
$CMLSCALE
 40
1.0
  9
$PROXYGRAPHICS
 70
     1
  9
$MEASUREMENT
 70
     1
  9
$CELWEIGHT
370
    -1
  9
$ENDCAPS
280
     0
  9
$JOINSTYLE
280
     0
  9
$LWDISPLAY
290
     0
  9
$INSUNITS
 70
     0
  9
$HYPERLINKBASE
  1

  9
$STYLESHEET
  1

  9
$XEDIT
290
     1
  9
$CEPSNTYPE
380
     0
  9
$PSTYLEMODE
290
     1
  9
$FINGERPRINTGUID
  2
{64B37927-8C25-4D7B-B9DC-ACE395123873}
  9
$VERSIONGUID
  2
{F8C05D4C-BFCF-40F5-BE8F-FD947340123B}
  9
$EXTNAMES
290
     1
  9
$PSVPSCALE
 40
0.0
  9
$OLESTARTUP
290
     0
  0
ENDSEC
  0
SECTION
  2
CLASSES
  0
CLASS
  1
ACDBDICTIONARYWDFLT
  2
AcDbDictionaryWithDefault
  3
ObjectDBX Classes
 90
        0
280
     0
281
     0
  0
CLASS
  1
DICTIONARYVAR
  2
AcDbDictionaryVar
  3
ObjectDBX Classes
 90
        0
280
     0
281
     0
  0
CLASS
  1
ACDBPLACEHOLDER
  2
AcDbPlaceHolder
  3
ObjectDBX Classes
 90
        0
280
     0
281
     0
  0
CLASS
  1
LAYOUT
  2
AcDbLayout
  3
ObjectDBX Classes
 90
        0
280
     0
281
     0
  0
ENDSEC
  0
SECTION
  2
TABLES
  0
TABLE
  2
VPORT
  5
746D
330
0
100
AcDbSymbolTable
 70
     2
  0
VPORT
  5
1610C
330
746D
100
AcDbSymbolTableRecord
100
AcDbViewportTableRecord
  2
*Active
 70
     0
 10
0.0
 20
0.0
 11
1.0
 21
1.0
 12
9076.91645855874
 22
6347.66611132684
 13
0.0
 23
0.0
 14
10.0
 24
10.0
 15
10.0
 25
10.0
 16
0.0
 26
0.0
 36
1.0
 17
0.0
 27
0.0
 37
0.0
 40
12783.46462244035
 41
1.525925925925925
 42
50.0
 43
0.0
 44
0.0
 50
0.0
 51
0.0
 71
     0
 72
     0
 73
     1
 74
     0
 75
     0
 76
     0
 77
     0
 78
     0
281
     0
 65
     1
110
0.0
120
0.0
130
0.0
111
1.0
121
0.0
131
0.0
112
0.0
122
1.0
132
0.0
 79
     0
146
0.0
  0
ENDTAB
  0
TABLE
  2
LTYPE
  5
746A
330
0
100
AcDbSymbolTable
 70
     4
  0
LTYPE
  5
7477
330
746A
100
AcDbSymbolTableRecord
100
AcDbLinetypeTableRecord
  2
BYBLOCK
 70
     0
  3

 72
    65
 73
     0
 40
0.0
  0
LTYPE
  5
7478
330
746A
100
AcDbSymbolTableRecord
100
AcDbLinetypeTableRecord
  2
BYLAYER
 70
     0
  3

 72
    65
 73
     0
 40
0.0
  0
LTYPE
  5
7479
330
746A
100
AcDbSymbolTableRecord
100
AcDbLinetypeTableRecord
  2
CONTINUOUS
 70
     0
  3
Solid line
 72
    65
 73
     0
 40
0.0
  0
LTYPE
  5
7816
330
746A
100
AcDbSymbolTableRecord
100
AcDbLinetypeTableRecord
  2
CENTER
 70
     0
  3
____ _ ____ _ ____ _ ____ _ ____ _ ____ _ ____ 
 72
    65
 73
     4
 40
2.0
 49
1.25
 74
     0
 49
-0.25
 74
     0
 49
0.25
 74
     0
 49
-0.25
 74
     0
  0
LTYPE
  5
781A
330
746A
100
AcDbSymbolTableRecord
100
AcDbLinetypeTableRecord
  2
HIDDEN
 70
     0
  3
__ __ __ __ __ __ __ __ __ __ __ __ __ __ __ __
 72
    65
 73
     2
 40
0.375
 49
0.25
 74
     0
 49
-0.125
 74
     0
  0
LTYPE
  5
781B
330
746A
100
AcDbSymbolTableRecord
100
AcDbLinetypeTableRecord
  2
PHANTOM
 70
     0
  3
______  __  __  ______  __  __  ______  __  __ 
 72
    65
 73
     6
 40
2.5
 49
1.25
 74
     0
 49
-0.25
 74
     0
 49
0.25
 74
     0
 49
-0.25
 74
     0
 49
0.25
 74
     0
 49
-0.25
 74
     0
  0
ENDTAB
  0
TABLE
  2
LAYER
  5
7467
102
{ACAD_XDICTIONARY
360
1559D
102
}
330
0
100
AcDbSymbolTable
 70
    12
  0
LAYER
  5
7474
330
7467
100
AcDbSymbolTableRecord
100
AcDbLayerTableRecord
  2
0
 70
     0
 62
     7
  6
CONTINUOUS
370
    -3
390
15409
  0
LAYER
  5
DEB2
330
7467
100
AcDbSymbolTableRecord
100
AcDbLayerTableRecord
  2
センター
 70
     0
 62
     3
  6
CENTER
370
    -3
390
15409
  0
LAYER
  5
DEB3
330
7467
100
AcDbSymbolTableRecord
100
AcDbLayerTableRecord
  2
寸法
 70
     0
 62
     4
  6
CONTINUOUS
370
    -3
390
15409
  0
LAYER
  5
DEB4
330
7467
100
AcDbSymbolTableRecord
100
AcDbLayerTableRecord
  2
部品1
 70
     0
 62
     7
  6
CONTINUOUS
370
    -3
390
15409
  0
LAYER
  5
DEB5
330
7467
100
AcDbSymbolTableRecord
100
AcDbLayerTableRecord
  2
補助
 70
     0
 62
    -1
  6
CONTINUOUS
370
    -3
390
15409
  0
LAYER
  5
DEB6
330
7467
100
AcDbSymbolTableRecord
100
AcDbLayerTableRecord
  2
文字
 70
     0
 62
     7
  6
CONTINUOUS
370
    -3
390
15409
  0
LAYER
  5
F255
330
7467
100
AcDbSymbolTableRecord
100
AcDbLayerTableRecord
  2
DEFPOINTS
 70
     0
 62
     7
  6
CONTINUOUS
290
     0
370
    -3
390
15409
  0
LAYER
  5
10B54
330
7467
100
AcDbSymbolTableRecord
100
AcDbLayerTableRecord
  2
仕様書枠
 70
     0
 62
   230
  6
CONTINUOUS
370
    -3
390
15409
  0
LAYER
  5
11729
330
7467
100
AcDbSymbolTableRecord
100
AcDbLayerTableRecord
  2
Ｇ．Ｌ
 70
     0
 62
    30
  6
CONTINUOUS
370
    -3
390
15409
  0
LAYER
  5
1173F
330
7467
100
AcDbSymbolTableRecord
100
AcDbLayerTableRecord
  2
細線
 70
     0
 62
     5
  6
CONTINUOUS
370
    -3
390
15409
  0
LAYER
  5
118A1
330
7467
100
AcDbSymbolTableRecord
100
AcDbLayerTableRecord
  2
想像線
 70
     0
 62
     6
  6
PHANTOM
370
    -3
390
15409
  0
LAYER
  5
123C1
330
7467
100
AcDbSymbolTableRecord
100
AcDbLayerTableRecord
  2
破線
 70
     0
 62
     2
  6
HIDDEN
370
    -3
390
15409
  0
ENDTAB
  0
TABLE
  2
STYLE
  5
7468
330
0
100
AcDbSymbolTable
 70
     4
  0
STYLE
  5
7475
330
7468
100
AcDbSymbolTableRecord
100
AcDbTextStyleTableRecord
  2
STANDARD
 70
     0
 40
0.0
 41
1.0
 50
0.0
 71
     0
 42
4.0
  3
txt
  4
C:\AutoCAD LT\bigfont.shx
  0
STYLE
  5
F706
330
7468
100
AcDbSymbolTableRecord
100
AcDbTextStyleTableRecord
  2
STYLE1
 70
     0
 40
0.0
 41
1.0
 50
0.0
 71
     0
 42
4.0
  3
isocp.shx
  4
bigfont.shx
  0
STYLE
  5
103BF
330
7468
100
AcDbSymbolTableRecord
100
AcDbTextStyleTableRecord
  2
STYLE2
 70
     0
 40
0.0
 41
1.0
 50
0.0
 71
     0
 42
100.0
  3
MS PGothic.ttf
  4

1001
ACAD
1000
MS PGothic
1071
    32818
  0
STYLE
  5
10BAA
330
7468
100
AcDbSymbolTableRecord
100
AcDbTextStyleTableRecord
  2
STYLE3
 70
     0
 40
0.0
 41
1.0
 50
0.0
 71
     0
 42
100.0
  3

  4

1001
ACAD
1000
DFPGothic-EB
1071
    32818
  0
ENDTAB
  0
TABLE
  2
VIEW
  5
746B
330
0
100
AcDbSymbolTable
 70
     0
  0
ENDTAB
  0
TABLE
  2
UCS
  5
746C
330
0
100
AcDbSymbolTable
 70
     0
  0
ENDTAB
  0
TABLE
  2
APPID
  5
746E
330
0
100
AcDbSymbolTable
 70
     6
  0
APPID
  5
7476
330
746E
100
AcDbSymbolTableRecord
100
AcDbRegAppTableRecord
  2
ACAD
 70
     0
  0
APPID
  5
DEA9
330
746E
100
AcDbSymbolTableRecord
100
AcDbRegAppTableRecord
  2
CONTENTBLOCKICON
 70
     0
  0
APPID
  5
DEAA
330
746E
100
AcDbSymbolTableRecord
100
AcDbRegAppTableRecord
  2
CONTENTBLOCKDESCRIPTION
 70
     0
  0
APPID
  5
E71D
330
746E
100
AcDbSymbolTableRecord
100
AcDbRegAppTableRecord
  2
CONTENTTABDATA
 70
     0
  0
APPID
  5
E71E
330
746E
100
AcDbSymbolTableRecord
100
AcDbRegAppTableRecord
  2
CONTENTCURRENTTAB
 70
     0
  0
APPID
  5
F3BA
330
746E
100
AcDbSymbolTableRecord
100
AcDbRegAppTableRecord
  2
DRAWINGVARIABLESXDATA
 70
     0
  0
ENDTAB
  0
TABLE
  2
DIMSTYLE
  5
746F
330
0
100
AcDbSymbolTable
 70
     2
100
AcDbDimStyleTable
 71
     0
  0
DIMSTYLE
105
7484
330
746F
100
AcDbSymbolTableRecord
100
AcDbDimStyleTableRecord
  2
JIS
 70
     0
 41
2.5
 42
1.0
 43
7.0
 44
1.0
 73
     0
 74
     0
 77
     1
 78
     8
140
2.5
141
0.0
143
0.0394
147
0.0
172
     1
174
     1
175
     1
340
7475
  0
DIMSTYLE
105
F71F
102
{ACAD_REACTORS
330
14D19
330
14E40
330
14E47
330
14E4C
330
14E65
330
14EDC
330
14EDF
330
14EE6
330
14EE9
330
14EF0
330
14EFC
330
14EFE
330
14EFF
330
14F06
330
15249
330
15256
330
15263
330
15397
330
153AF
330
15828
330
1583A
330
1583B
330
1585F
330
15860
330
15861
330
15862
330
15866
330
15867
330
15DE7
330
15DE5
330
15E13
330
15E2B
330
15E2A
330
15E2C
330
15E7E
102
}
330
746F
100
AcDbSymbolTableRecord
100
AcDbDimStyleTableRecord
  2
INABA_S40G
 70
     0
 40
40.0
 41
2.5
 42
0.5
 43
7.0
 44
1.5
 73
     0
 74
     0
 77
     3
 78
     8
140
3.0
141
0.0
143
0.0394
147
1.0
172
     1
173
     1
174
     1
178
     7
271
     1
340
F706
341
F770
343
F770
344
F770
  0
ENDTAB
  0
TABLE
  2
BLOCK_RECORD
  5
7466
330
0
100
AcDbSymbolTable
 70
    36
  0
BLOCK_RECORD
  5
747D
330
7466
100
AcDbSymbolTableRecord
100
AcDbBlockTableRecord
  2
*MODEL_SPACE
340
1540E
  0
BLOCK_RECORD
  5
747A
330
7466
100
AcDbSymbolTableRecord
100
AcDbBlockTableRecord
  2
*PAPER_SPACE
340
1540F
  0
BLOCK_RECORD
  5
F770
330
7466
100
AcDbSymbolTableRecord
100
AcDbBlockTableRecord
  2
_DOTSMALL
340
0
102
{BLKREFS
331
15F65
331
15F66
331
15F70
331
15F71
331
15F79
331
15F7A
331
15F82
331
15F83
331
15F8B
331
15F8C
331
15F96
331
15F97
331
15F9F
331
15FA0
331
15FA8
331
15FA9
331
15FB3
331
15FB4
331
15FBC
331
15FBD
331
15FC6
331
15FC7
331
15FD0
331
15FD1
331
15FD9
331
15FDA
331
15FE2
331
15FE3
331
16006
331
16007
331
1600F
331
16010
331
16018
331
16019
331
16021
331
16022
331
1602A
331
1602B
331
16035
331
16036
331
16040
331
16041
331
16049
331
1604A
331
16052
331
16053
331
1605C
331
1605D
331
16065
331
16066
331
1606D
331
1606E
331
16076
331
16077
331
16081
331
16082
331
1608A
331
1608B
331
16093
331
16094
331
1609C
331
1609D
331
160A7
331
160A8
331
160BB
331
160BC
331
160C4
331
160C5
331
160CD
331
160CE
102
}
  0
BLOCK_RECORD
  5
14F9F
330
7466
100
AcDbSymbolTableRecord
100
AcDbBlockTableRecord
  2
*D1
340
0
  0
BLOCK_RECORD
  5
14FC7
330
7466
100
AcDbSymbolTableRecord
100
AcDbBlockTableRecord
  2
*D2
340
0
  0
BLOCK_RECORD
  5
14FD5
330
7466
100
AcDbSymbolTableRecord
100
AcDbBlockTableRecord
  2
*D3
340
0
  0
BLOCK_RECORD
  5
14FE1
330
7466
100
AcDbSymbolTableRecord
100
AcDbBlockTableRecord
  2
*D4
340
0
  0
BLOCK_RECORD
  5
14FF9
330
7466
100
AcDbSymbolTableRecord
100
AcDbBlockTableRecord
  2
*D5
340
0
  0
BLOCK_RECORD
  5
15035
330
7466
100
AcDbSymbolTableRecord
100
AcDbBlockTableRecord
  2
*D6
340
0
  0
BLOCK_RECORD
  5
15043
330
7466
100
AcDbSymbolTableRecord
100
AcDbBlockTableRecord
  2
*D7
340
0
  0
BLOCK_RECORD
  5
1504F
330
7466
100
AcDbSymbolTableRecord
100
AcDbBlockTableRecord
  2
*D8
340
0
  0
BLOCK_RECORD
  5
1505B
330
7466
100
AcDbSymbolTableRecord
100
AcDbBlockTableRecord
  2
*D9
340
0
  0
BLOCK_RECORD
  5
15067
330
7466
100
AcDbSymbolTableRecord
100
AcDbBlockTableRecord
  2
*D10
340
0
  0
BLOCK_RECORD
  5
15073
330
7466
100
AcDbSymbolTableRecord
100
AcDbBlockTableRecord
  2
*D11
340
0
  0
BLOCK_RECORD
  5
1508B
330
7466
100
AcDbSymbolTableRecord
100
AcDbBlockTableRecord
  2
*D12
340
0
  0
BLOCK_RECORD
  5
15097
330
7466
100
AcDbSymbolTableRecord
100
AcDbBlockTableRecord
  2
*D13
340
0
  0
BLOCK_RECORD
  5
150A5
330
7466
100
AcDbSymbolTableRecord
100
AcDbBlockTableRecord
  2
*D14
340
0
  0
BLOCK_RECORD
  5
1523D
330
7466
100
AcDbSymbolTableRecord
100
AcDbBlockTableRecord
  2
*D15
340
0
  0
BLOCK_RECORD
  5
1524A
330
7466
100
AcDbSymbolTableRecord
100
AcDbBlockTableRecord
  2
*D16
340
0
  0
BLOCK_RECORD
  5
15257
330
7466
100
AcDbSymbolTableRecord
100
AcDbBlockTableRecord
  2
*D17
340
0
  0
BLOCK_RECORD
  5
15398
330
7466
100
AcDbSymbolTableRecord
100
AcDbBlockTableRecord
  2
*D18
340
0
  0
BLOCK_RECORD
  5
153B0
330
7466
100
AcDbSymbolTableRecord
100
AcDbBlockTableRecord
  2
*D19
340
0
  0
BLOCK_RECORD
  5
15A59
330
7466
100
AcDbSymbolTableRecord
100
AcDbBlockTableRecord
  2
*D20
340
0
  0
BLOCK_RECORD
  5
15A65
330
7466
100
AcDbSymbolTableRecord
100
AcDbBlockTableRecord
  2
*D21
340
0
  0
BLOCK_RECORD
  5
15A72
330
7466
100
AcDbSymbolTableRecord
100
AcDbBlockTableRecord
  2
*D22
340
0
  0
BLOCK_RECORD
  5
15A7F
330
7466
100
AcDbSymbolTableRecord
100
AcDbBlockTableRecord
  2
*D23
340
0
  0
BLOCK_RECORD
  5
15A8B
330
7466
100
AcDbSymbolTableRecord
100
AcDbBlockTableRecord
  2
*D24
340
0
  0
BLOCK_RECORD
  5
15A99
330
7466
100
AcDbSymbolTableRecord
100
AcDbBlockTableRecord
  2
*D25
340
0
  0
BLOCK_RECORD
  5
15AA5
330
7466
100
AcDbSymbolTableRecord
100
AcDbBlockTableRecord
  2
*D26
340
0
  0
BLOCK_RECORD
  5
15AB1
330
7466
100
AcDbSymbolTableRecord
100
AcDbBlockTableRecord
  2
*D27
340
0
  0
BLOCK_RECORD
  5
15ABF
330
7466
100
AcDbSymbolTableRecord
100
AcDbBlockTableRecord
  2
*D28
340
0
  0
BLOCK_RECORD
  5
15DE9
330
7466
100
AcDbSymbolTableRecord
100
AcDbBlockTableRecord
  2
*D29
340
0
  0
BLOCK_RECORD
  5
15DF5
330
7466
100
AcDbSymbolTableRecord
100
AcDbBlockTableRecord
  2
*D30
340
0
  0
BLOCK_RECORD
  5
15E15
330
7466
100
AcDbSymbolTableRecord
100
AcDbBlockTableRecord
  2
*D31
340
0
  0
BLOCK_RECORD
  5
15E3B
330
7466
100
AcDbSymbolTableRecord
100
AcDbBlockTableRecord
  2
*D32
340
0
  0
BLOCK_RECORD
  5
15E47
330
7466
100
AcDbSymbolTableRecord
100
AcDbBlockTableRecord
  2
*D33
340
0
  0
BLOCK_RECORD
  5
15E53
330
7466
100
AcDbSymbolTableRecord
100
AcDbBlockTableRecord
  2
*D34
340
0
  0
BLOCK_RECORD
  5
15E89
330
7466
100
AcDbSymbolTableRecord
100
AcDbBlockTableRecord
  2
*D35
340
0
  0
ENDTAB
  0
ENDSEC
  0
SECTION
  2
BLOCKS
  0
BLOCK
  5
7489
330
747D
100
AcDbEntity
  8
0
100
AcDbBlockBegin
  2
*MODEL_SPACE
 70
     0
 10
0.0
 20
0.0
 30
0.0
  3
*MODEL_SPACE
  1

  0
ENDBLK
  5
748A
330
747D
100
AcDbEntity
  8
0
100
AcDbBlockEnd
  0
BLOCK
  5
7487
330
747A
100
AcDbEntity
 67
     1
  8
0
100
AcDbBlockBegin
  2
*PAPER_SPACE
 70
     0
 10
0.0
 20
0.0
 30
0.0
  3
*PAPER_SPACE
  1

  0
ENDBLK
  5
7488
330
747A
100
AcDbEntity
 67
     1
  8
0
100
AcDbBlockEnd
  0
BLOCK
  5
F771
330
F770
100
AcDbEntity
  8
0
 48
50.0
100
AcDbBlockBegin
  2
_DOTSMALL
 70
     0
 10
0.0
 20
0.0
 30
0.0
  3
_DOTSMALL
  1

  0
LWPOLYLINE
  5
F772
330
F770
100
AcDbEntity
  8
0
  6
ByBlock
 62
     0
 48
50.0
100
AcDbPolyline
 90
        2
 70
     1
 43
0.5
 10
-0.0625
 20
0.0
 42
1.0
 10
0.0625
 20
0.0
 42
1.0
  0
ENDBLK
  5
F776
330
F770
100
AcDbEntity
  8
0
 48
50.0
100
AcDbBlockEnd
  0
BLOCK
  5
1513D
330
14F9F
100
AcDbEntity
  8
0
 48
50.0
100
AcDbBlockBegin
  2
*D1
 70
     1
 10
0.0
 20
0.0
 30
0.0
  3
*D1
  1

  0
LINE
  5
15FDF
330
14F9F
100
AcDbEntity
  8
寸法
 62
     0
 48
50.0
370
    -2
100
AcDbLine
 10
4952.544233315967
 20
5180.306328044402
 30
0.0
 11
4594.439705708363
 21
5180.306328044402
 31
0.0
  0
LINE
  5
15FE0
330
14F9F
100
AcDbEntity
  8
寸法
 62
     0
 48
50.0
370
    -2
100
AcDbLine
 10
4952.544233315967
 20
3420.306328044406
 30
0.0
 11
4594.439705708363
 21
3420.306328044406
 31
0.0
  0
LINE
  5
15FE1
330
14F9F
100
AcDbEntity
  8
寸法
 62
     0
 48
50.0
370
    -2
100
AcDbLine
 10
4654.439705708363
 20
5180.306328044402
 30
0.0
 11
4654.439705708363
 21
3420.306328044406
 31
0.0
  0
INSERT
  5
15FE2
330
14F9F
100
AcDbEntity
  8
寸法
 62
     0
 48
50.0
370
    -2
100
AcDbBlockReference
  2
_DOTSMALL
 10
4654.439705708363
 20
5180.306328044402
 30
0.0
 41
100.0
 42
100.0
 43
100.0
 50
90.0
  0
INSERT
  5
15FE3
330
14F9F
100
AcDbEntity
  8
寸法
 62
     0
 48
50.0
370
    -2
100
AcDbBlockReference
  2
_DOTSMALL
 10
4654.439705708363
 20
3420.306328044406
 30
0.0
 41
100.0
 42
100.0
 43
100.0
 50
270.0
  0
MTEXT
  5
15FE4
330
14F9F
100
AcDbEntity
  8
寸法
 62
     7
 48
50.0
100
AcDbMText
 10
4554.439705708363
 20
4299.306328044404
 30
0.0
 40
120.0
 41
0.0
 71
     5
 72
     1
  1
\A1;有効開口部高サ1760
  7
STYLE1
 11
0.0000000000000001
 21
1.0
 31
0.0
 73
     1
 44
1.0
1001
ACAD
1000
MTEXTBEGIN
1070
    73
1070
     1
1070
    44
1040
1.0
1070
    74
1070
     0
1000
MTEXTEND
  0
POINT
  5
15FE5
330
14F9F
100
AcDbEntity
  8
DEFPOINTS
 62
     0
 48
50.0
100
AcDbPoint
 10
4972.544233315966
 20
5180.306328044402
 30
0.0
  0
POINT
  5
15FE6
330
14F9F
100
AcDbEntity
  8
DEFPOINTS
 62
     0
 48
50.0
100
AcDbPoint
 10
4972.544233315966
 20
3420.306328044406
 30
0.0
  0
POINT
  5
15FE7
330
14F9F
100
AcDbEntity
  8
DEFPOINTS
 62
     0
 48
50.0
100
AcDbPoint
 10
4654.439705708363
 20
3420.306328044406
 30
0.0
  0
ENDBLK
  5
15147
330
14F9F
100
AcDbEntity
  8
0
 48
50.0
100
AcDbBlockEnd
  0
BLOCK
  5
15162
330
14FC7
100
AcDbEntity
  8
0
 48
50.0
100
AcDbBlockBegin
  2
*D2
 70
     1
 10
0.0
 20
0.0
 30
0.0
  3
*D2
  1

  0
LINE
  5
160A2
330
14FC7
100
AcDbEntity
  8
寸法
 62
     0
 48
50.0
370
    -2
100
AcDbLine
 10
7767.544233315992
 20
9699.995508130397
 30
0.0
 11
7767.544233315992
 21
9955.803727755379
 31
0.0
  0
LINE
  5
160A3
330
14FC7
100
AcDbEntity
  8
寸法
 62
     0
 48
50.0
370
    -2
100
AcDbLine
 10
7822.544233315992
 20
9699.995508130397
 30
0.0
 11
7822.544233315992
 21
9955.803727755379
 31
0.0
  0
LINE
  5
160A4
330
14FC7
100
AcDbEntity
  8
寸法
 62
     0
 48
50.0
370
    -2
100
AcDbLine
 10
7767.544233315992
 20
9895.803727755378
 30
0.0
 11
7667.544233315992
 21
9895.803727755378
 31
0.0
  0
LINE
  5
160A5
330
14FC7
100
AcDbEntity
  8
寸法
 62
     0
 48
50.0
370
    -2
100
AcDbLine
 10
7822.544233315992
 20
9895.803727755378
 30
0.0
 11
8239.514796064471
 21
9895.803727755378
 31
0.0
  0
LINE
  5
160A6
330
14FC7
100
AcDbEntity
  8
寸法
 62
     0
 48
50.0
370
    -2
100
AcDbLine
 10
7767.544233315992
 20
9895.803727755378
 30
0.0
 11
7822.544233315992
 21
9895.803727755378
 31
0.0
  0
INSERT
  5
160A7
330
14FC7
100
AcDbEntity
  8
寸法
 62
     0
 48
50.0
370
    -2
100
AcDbBlockReference
  2
_DOTSMALL
 10
7767.544233315992
 20
9895.803727755378
 30
0.0
 41
100.0
 42
100.0
 43
100.0
  0
INSERT
  5
160A8
330
14FC7
100
AcDbEntity
  8
寸法
 62
     0
 48
50.0
370
    -2
100
AcDbBlockReference
  2
_DOTSMALL
 10
7822.544233315992
 20
9895.803727755378
 30
0.0
 41
100.0
 42
100.0
 43
100.0
 50
180.0
  0
MTEXT
  5
160A9
330
14FC7
100
AcDbEntity
  8
寸法
 62
     7
 48
50.0
100
AcDbMText
 10
8131.029514690231
 20
9995.803727755379
 30
0.0
 40
120.0
 41
0.0
 71
     5
 72
     1
  1
\A1;55
  7
STYLE1
 73
     1
 44
1.0
1001
ACAD
1000
MTEXTBEGIN
1070
    73
1070
     1
1070
    44
1040
1.0
1070
    74
1070
     0
1000
MTEXTEND
  0
POINT
  5
160AA
330
14FC7
100
AcDbEntity
  8
DEFPOINTS
 62
     0
 48
50.0
100
AcDbPoint
 10
7767.544233315992
 20
9679.995508130396
 30
0.0
  0
POINT
  5
160AB
330
14FC7
100
AcDbEntity
  8
DEFPOINTS
 62
     0
 48
50.0
100
AcDbPoint
 10
7822.544233315992
 20
9679.995508130396
 30
0.0
  0
POINT
  5
160AC
330
14FC7
100
AcDbEntity
  8
DEFPOINTS
 62
     0
 48
50.0
100
AcDbPoint
 10
7822.544233315992
 20
9895.803727755378
 30
0.0
  0
ENDBLK
  5
1516E
330
14FC7
100
AcDbEntity
  8
0
 48
50.0
100
AcDbBlockEnd
  0
BLOCK
  5
1516F
330
14FD5
100
AcDbEntity
  8
0
 48
50.0
100
AcDbBlockBegin
  2
*D3
 70
     1
 10
0.0
 20
0.0
 30
0.0
  3
*D3
  1

  0
LINE
  5
16099
330
14FD5
100
AcDbEntity
  8
寸法
 62
     0
 48
50.0
370
    -2
100
AcDbLine
 10
6927.544233315988
 20
9699.995508130331
 30
0.0
 11
6927.544233315988
 21
9955.8037277554
 31
0.0
  0
LINE
  5
1609A
330
14FD5
100
AcDbEntity
  8
寸法
 62
     0
 48
50.0
370
    -2
100
AcDbLine
 10
7767.544233315987
 20
9699.995508130418
 30
0.0
 11
7767.544233315987
 21
9955.8037277554
 31
0.0
  0
LINE
  5
1609B
330
14FD5
100
AcDbEntity
  8
寸法
 62
     0
 48
50.0
370
    -2
100
AcDbLine
 10
6927.544233315988
 20
9895.803727755399
 30
0.0
 11
7767.544233315987
 21
9895.803727755399
 31
0.0
  0
INSERT
  5
1609C
330
14FD5
100
AcDbEntity
  8
寸法
 62
     0
 48
50.0
370
    -2
100
AcDbBlockReference
  2
_DOTSMALL
 10
6927.544233315988
 20
9895.803727755399
 30
0.0
 41
100.0
 42
100.0
 43
100.0
 50
180.0
  0
INSERT
  5
1609D
330
14FD5
100
AcDbEntity
  8
寸法
 62
     0
 48
50.0
370
    -2
100
AcDbBlockReference
  2
_DOTSMALL
 10
7767.544233315987
 20
9895.803727755399
 30
0.0
 41
100.0
 42
100.0
 43
100.0
  0
MTEXT
  5
1609E
330
14FD5
100
AcDbEntity
  8
寸法
 62
     7
 48
50.0
100
AcDbMText
 10
7347.544233315987
 20
9995.815538779021
 30
0.0
 40
120.0
 41
0.0
 71
     5
 72
     1
  1
\A1;2X420=840
  7
STYLE1
 73
     1
 44
1.0
1001
ACAD
1000
MTEXTBEGIN
1070
    73
1070
     1
1070
    44
1040
1.0
1070
    74
1070
     0
1000
MTEXTEND
  0
POINT
  5
1609F
330
14FD5
100
AcDbEntity
  8
DEFPOINTS
 62
     0
 48
50.0
100
AcDbPoint
 10
6927.544233315988
 20
9679.995508130332
 30
0.0
  0
POINT
  5
160A0
330
14FD5
100
AcDbEntity
  8
DEFPOINTS
 62
     0
 48
50.0
100
AcDbPoint
 10
7767.544233315987
 20
9679.995508130417
 30
0.0
  0
POINT
  5
160A1
330
14FD5
100
AcDbEntity
  8
DEFPOINTS
 62
     0
 48
50.0
100
AcDbPoint
 10
7767.544233315987
 20
9895.803727755399
 30
0.0
  0
ENDBLK
  5
15179
330
14FD5
100
AcDbEntity
  8
0
 48
50.0
100
AcDbBlockEnd
  0
BLOCK
  5
1517A
330
14FE1
100
AcDbEntity
  8
0
 48
50.0
100
AcDbBlockBegin
  2
*D4
 70
     1
 10
0.0
 20
0.0
 30
0.0
  3
*D4
  1

  0
LINE
  5
16090
330
14FE1
100
AcDbEntity
  8
寸法
 62
     0
 48
50.0
370
    -2
100
AcDbLine
 10
4972.544233315985
 20
8129.995508130221
 30
0.0
 11
4972.544233315985
 21
7102.893633270145
 31
0.0
  0
LINE
  5
16091
330
14FE1
100
AcDbEntity
  8
寸法
 62
     0
 48
50.0
370
    -2
100
AcDbLine
 10
7822.544233315966
 20
8129.995508130352
 30
0.0
 11
7822.544233315966
 21
7102.893633270145
 31
0.0
  0
LINE
  5
16092
330
14FE1
100
AcDbEntity
  8
寸法
 62
     0
 48
50.0
370
    -2
100
AcDbLine
 10
4972.544233315985
 20
7162.893633270146
 30
0.0
 11
7822.544233315966
 21
7162.893633270146
 31
0.0
  0
INSERT
  5
16093
330
14FE1
100
AcDbEntity
  8
寸法
 62
     0
 48
50.0
370
    -2
100
AcDbBlockReference
  2
_DOTSMALL
 10
4972.544233315985
 20
7162.893633270146
 30
0.0
 41
100.0
 42
100.0
 43
100.0
 50
180.0
  0
INSERT
  5
16094
330
14FE1
100
AcDbEntity
  8
寸法
 62
     0
 48
50.0
370
    -2
100
AcDbBlockReference
  2
_DOTSMALL
 10
7822.544233315966
 20
7162.893633270146
 30
0.0
 41
100.0
 42
100.0
 43
100.0
  0
MTEXT
  5
16095
330
14FE1
100
AcDbEntity
  8
寸法
 62
     7
 48
50.0
100
AcDbMText
 10
6332.544233315974
 20
7262.905444293767
 30
0.0
 40
120.0
 41
0.0
 71
     5
 72
     1
  1
\A1;2850
  7
STYLE1
 73
     1
 44
1.0
1001
ACAD
1000
MTEXTBEGIN
1070
    73
1070
     1
1070
    44
1040
1.0
1070
    74
1070
     0
1000
MTEXTEND
  0
POINT
  5
16096
330
14FE1
100
AcDbEntity
  8
DEFPOINTS
 62
     0
 48
50.0
100
AcDbPoint
 10
4972.544233315985
 20
8149.995508130222
 30
0.0
  0
POINT
  5
16097
330
14FE1
100
AcDbEntity
  8
DEFPOINTS
 62
     0
 48
50.0
100
AcDbPoint
 10
7822.544233315966
 20
8149.995508130352
 30
0.0
  0
POINT
  5
16098
330
14FE1
100
AcDbEntity
  8
DEFPOINTS
 62
     0
 48
50.0
100
AcDbPoint
 10
7822.544233315966
 20
7162.893633270146
 30
0.0
  0
ENDBLK
  5
15184
330
14FE1
100
AcDbEntity
  8
0
 48
50.0
100
AcDbBlockEnd
  0
BLOCK
  5
15190
330
14FF9
100
AcDbEntity
  8
0
 48
50.0
100
AcDbBlockBegin
  2
*D5
 70
     1
 10
0.0
 20
0.0
 30
0.0
  3
*D5
  1

  0
LINE
  5
16087
330
14FF9
100
AcDbEntity
  8
寸法
 62
     0
 48
50.0
370
    -2
100
AcDbLine
 10
6927.544233315988
 20
8129.995508130294
 30
0.0
 11
6927.544233315988
 21
7650.171840335217
 31
0.0
  0
LINE
  5
16088
330
14FF9
100
AcDbEntity
  8
寸法
 62
     0
 48
50.0
370
    -2
100
AcDbLine
 10
7612.544233315981
 20
8129.995508130258
 30
0.0
 11
7612.544233315981
 21
7650.171840335217
 31
0.0
  0
LINE
  5
16089
330
14FF9
100
AcDbEntity
  8
寸法
 62
     0
 48
50.0
370
    -2
100
AcDbLine
 10
6927.544233315988
 20
7710.171840335217
 30
0.0
 11
7612.544233315981
 21
7710.171840335217
 31
0.0
  0
INSERT
  5
1608A
330
14FF9
100
AcDbEntity
  8
寸法
 62
     0
 48
50.0
370
    -2
100
AcDbBlockReference
  2
_DOTSMALL
 10
6927.544233315988
 20
7710.171840335217
 30
0.0
 41
100.0
 42
100.0
 43
100.0
 50
180.0
  0
INSERT
  5
1608B
330
14FF9
100
AcDbEntity
  8
寸法
 62
     0
 48
50.0
370
    -2
100
AcDbBlockReference
  2
_DOTSMALL
 10
7612.544233315981
 20
7710.171840335217
 30
0.0
 41
100.0
 42
100.0
 43
100.0
  0
MTEXT
  5
1608C
330
14FF9
100
AcDbEntity
  8
寸法
 62
     7
 48
50.0
100
AcDbMText
 10
7270.044233315984
 20
7910.171840335216
 30
0.0
 40
120.0
 41
0.0
 71
     5
 72
     1
  1
\A1;有効開口部間口\P685
  7
STYLE1
 73
     1
 44
1.0
1001
ACAD
1000
MTEXTBEGIN
1070
    73
1070
     1
1070
    44
1040
1.0
1070
    74
1070
     0
1000
MTEXTEND
  0
POINT
  5
1608D
330
14FF9
100
AcDbEntity
  8
DEFPOINTS
 62
     0
 48
50.0
100
AcDbPoint
 10
6927.544233315988
 20
8149.995508130293
 30
0.0
  0
POINT
  5
1608E
330
14FF9
100
AcDbEntity
  8
DEFPOINTS
 62
     0
 48
50.0
100
AcDbPoint
 10
7612.544233315981
 20
8149.995508130258
 30
0.0
  0
POINT
  5
1608F
330
14FF9
100
AcDbEntity
  8
DEFPOINTS
 62
     0
 48
50.0
100
AcDbPoint
 10
7612.544233315981
 20
7710.171840335217
 30
0.0
  0
ENDBLK
  5
1519A
330
14FF9
100
AcDbEntity
  8
0
 48
50.0
100
AcDbBlockEnd
  0
BLOCK
  5
151C7
330
15035
100
AcDbEntity
  8
0
 48
50.0
100
AcDbBlockBegin
  2
*D6
 70
     1
 10
0.0
 20
0.0
 30
0.0
  3
*D6
  1

  0
LINE
  5
1607C
330
15035
100
AcDbEntity
  8
寸法
 62
     0
 48
50.0
370
    -2
100
AcDbLine
 10
4972.544233315955
 20
9699.995508130301
 30
0.0
 11
4972.544233315955
 21
9955.803727755283
 31
0.0
  0
LINE
  5
1607D
330
15035
100
AcDbEntity
  8
寸法
 62
     0
 48
50.0
370
    -2
100
AcDbLine
 10
5027.544233315988
 20
9699.995508130301
 30
0.0
 11
5027.544233315988
 21
9955.803727755283
 31
0.0
  0
LINE
  5
1607E
330
15035
100
AcDbEntity
  8
寸法
 62
     0
 48
50.0
370
    -2
100
AcDbLine
 10
5027.544233315988
 20
9895.803727755284
 30
0.0
 11
5127.544233315988
 21
9895.803727755284
 31
0.0
  0
LINE
  5
1607F
330
15035
100
AcDbEntity
  8
寸法
 62
     0
 48
50.0
370
    -2
100
AcDbLine
 10
4972.544233315955
 20
9895.803727755284
 30
0.0
 11
4555.573670567476
 21
9895.803727755284
 31
0.0
  0
LINE
  5
16080
330
15035
100
AcDbEntity
  8
寸法
 62
     0
 48
50.0
370
    -2
100
AcDbLine
 10
5027.544233315988
 20
9895.803727755284
 30
0.0
 11
4972.544233315955
 21
9895.803727755284
 31
0.0
  0
INSERT
  5
16081
330
15035
100
AcDbEntity
  8
寸法
 62
     0
 48
50.0
370
    -2
100
AcDbBlockReference
  2
_DOTSMALL
 10
5027.544233315988
 20
9895.803727755284
 30
0.0
 41
100.0
 42
100.0
 43
100.0
 50
180.0
  0
INSERT
  5
16082
330
15035
100
AcDbEntity
  8
寸法
 62
     0
 48
50.0
370
    -2
100
AcDbBlockReference
  2
_DOTSMALL
 10
4972.544233315955
 20
9895.803727755284
 30
0.0
 41
100.0
 42
100.0
 43
100.0
  0
MTEXT
  5
16083
330
15035
100
AcDbEntity
  8
寸法
 62
     7
 48
50.0
100
AcDbMText
 10
4664.058951941715
 20
9995.803727755284
 30
0.0
 40
120.0
 41
0.0
 71
     5
 72
     1
  1
\A1;55
  7
STYLE1
 73
     1
 44
1.0
1001
ACAD
1000
MTEXTBEGIN
1070
    73
1070
     1
1070
    44
1040
1.0
1070
    74
1070
     0
1000
MTEXTEND
  0
POINT
  5
16084
330
15035
100
AcDbEntity
  8
DEFPOINTS
 62
     0
 48
50.0
100
AcDbPoint
 10
4972.544233315955
 20
9679.995508130302
 30
0.0
  0
POINT
  5
16085
330
15035
100
AcDbEntity
  8
DEFPOINTS
 62
     0
 48
50.0
100
AcDbPoint
 10
5027.544233315988
 20
9679.995508130302
 30
0.0
  0
POINT
  5
16086
330
15035
100
AcDbEntity
  8
DEFPOINTS
 62
     0
 48
50.0
100
AcDbPoint
 10
5027.544233315988
 20
9895.803727755284
 30
0.0
  0
ENDBLK
  5
151D3
330
15035
100
AcDbEntity
  8
0
 48
50.0
100
AcDbBlockEnd
  0
BLOCK
  5
151D4
330
15043
100
AcDbEntity
  8
0
 48
50.0
100
AcDbBlockBegin
  2
*D7
 70
     1
 10
0.0
 20
0.0
 30
0.0
  3
*D7
  1

  0
LINE
  5
16073
330
15043
100
AcDbEntity
  8
寸法
 62
     0
 48
50.0
370
    -2
100
AcDbLine
 10
5027.544233315988
 20
9699.995508130331
 30
0.0
 11
5027.544233315988
 21
9955.8037277554
 31
0.0
  0
LINE
  5
16074
330
15043
100
AcDbEntity
  8
寸法
 62
     0
 48
50.0
370
    -2
100
AcDbLine
 10
5867.544233315988
 20
9699.995508130418
 30
0.0
 11
5867.544233315988
 21
9955.8037277554
 31
0.0
  0
LINE
  5
16075
330
15043
100
AcDbEntity
  8
寸法
 62
     0
 48
50.0
370
    -2
100
AcDbLine
 10
5027.544233315988
 20
9895.803727755399
 30
0.0
 11
5867.544233315988
 21
9895.803727755399
 31
0.0
  0
INSERT
  5
16076
330
15043
100
AcDbEntity
  8
寸法
 62
     0
 48
50.0
370
    -2
100
AcDbBlockReference
  2
_DOTSMALL
 10
5027.544233315988
 20
9895.803727755399
 30
0.0
 41
100.0
 42
100.0
 43
100.0
 50
180.0
  0
INSERT
  5
16077
330
15043
100
AcDbEntity
  8
寸法
 62
     0
 48
50.0
370
    -2
100
AcDbBlockReference
  2
_DOTSMALL
 10
5867.544233315988
 20
9895.803727755399
 30
0.0
 41
100.0
 42
100.0
 43
100.0
  0
MTEXT
  5
16078
330
15043
100
AcDbEntity
  8
寸法
 62
     7
 48
50.0
100
AcDbMText
 10
5447.544233315988
 20
9995.815538779021
 30
0.0
 40
120.0
 41
0.0
 71
     5
 72
     1
  1
\A1;2X420=840
  7
STYLE1
 73
     1
 44
1.0
1001
ACAD
1000
MTEXTBEGIN
1070
    73
1070
     1
1070
    44
1040
1.0
1070
    74
1070
     0
1000
MTEXTEND
  0
POINT
  5
16079
330
15043
100
AcDbEntity
  8
DEFPOINTS
 62
     0
 48
50.0
100
AcDbPoint
 10
5027.544233315988
 20
9679.995508130332
 30
0.0
  0
POINT
  5
1607A
330
15043
100
AcDbEntity
  8
DEFPOINTS
 62
     0
 48
50.0
100
AcDbPoint
 10
5867.544233315988
 20
9679.995508130417
 30
0.0
  0
POINT
  5
1607B
330
15043
100
AcDbEntity
  8
DEFPOINTS
 62
     0
 48
50.0
100
AcDbPoint
 10
5867.544233315988
 20
9895.803727755399
 30
0.0
  0
ENDBLK
  5
151DE
330
15043
100
AcDbEntity
  8
0
 48
50.0
100
AcDbBlockEnd
  0
BLOCK
  5
151DF
330
1504F
100
AcDbEntity
  8
0
 48
50.0
100
AcDbBlockBegin
  2
*D8
 70
     1
 10
0.0
 20
0.0
 30
0.0
  3
*D8
  1

  0
LINE
  5
1606A
330
1504F
100
AcDbEntity
  8
寸法
 62
     0
 48
50.0
370
    -2
100
AcDbLine
 10
5977.544233315988
 20
9699.995508130331
 30
0.0
 11
5977.544233315988
 21
9955.8037277554
 31
0.0
  0
LINE
  5
1606B
330
1504F
100
AcDbEntity
  8
寸法
 62
     0
 48
50.0
370
    -2
100
AcDbLine
 10
6817.544233315988
 20
9699.995508130418
 30
0.0
 11
6817.544233315988
 21
9955.8037277554
 31
0.0
  0
LINE
  5
1606C
330
1504F
100
AcDbEntity
  8
寸法
 62
     0
 48
50.0
370
    -2
100
AcDbLine
 10
5977.544233315988
 20
9895.803727755399
 30
0.0
 11
6817.544233315988
 21
9895.803727755399
 31
0.0
  0
INSERT
  5
1606D
330
1504F
100
AcDbEntity
  8
寸法
 62
     0
 48
50.0
370
    -2
100
AcDbBlockReference
  2
_DOTSMALL
 10
5977.544233315988
 20
9895.803727755399
 30
0.0
 41
100.0
 42
100.0
 43
100.0
 50
180.0
  0
INSERT
  5
1606E
330
1504F
100
AcDbEntity
  8
寸法
 62
     0
 48
50.0
370
    -2
100
AcDbBlockReference
  2
_DOTSMALL
 10
6817.544233315988
 20
9895.803727755399
 30
0.0
 41
100.0
 42
100.0
 43
100.0
  0
MTEXT
  5
1606F
330
1504F
100
AcDbEntity
  8
寸法
 62
     7
 48
50.0
100
AcDbMText
 10
6397.544233315988
 20
9995.815538779021
 30
0.0
 40
120.0
 41
0.0
 71
     5
 72
     1
  1
\A1;2X420=840
  7
STYLE1
 73
     1
 44
1.0
1001
ACAD
1000
MTEXTBEGIN
1070
    73
1070
     1
1070
    44
1040
1.0
1070
    74
1070
     0
1000
MTEXTEND
  0
POINT
  5
16070
330
1504F
100
AcDbEntity
  8
DEFPOINTS
 62
     0
 48
50.0
100
AcDbPoint
 10
5977.544233315988
 20
9679.995508130332
 30
0.0
  0
POINT
  5
16071
330
1504F
100
AcDbEntity
  8
DEFPOINTS
 62
     0
 48
50.0
100
AcDbPoint
 10
6817.544233315988
 20
9679.995508130417
 30
0.0
  0
POINT
  5
16072
330
1504F
100
AcDbEntity
  8
DEFPOINTS
 62
     0
 48
50.0
100
AcDbPoint
 10
6817.544233315988
 20
9895.803727755399
 30
0.0
  0
ENDBLK
  5
151E9
330
1504F
100
AcDbEntity
  8
0
 48
50.0
100
AcDbBlockEnd
  0
BLOCK
  5
1527D
330
1505B
100
AcDbEntity
  8
0
 48
50.0
100
AcDbBlockBegin
  2
*D9
 70
     1
 10
0.0
 20
0.0
 30
0.0
  3
*D9
  1

  0
LINE
  5
16061
330
1505B
100
AcDbEntity
  8
寸法
 62
     0
 48
50.0
370
    -2
100
AcDbLine
 10
5867.544233315988
 20
9699.995508130418
 30
0.0
 11
5867.544233315988
 21
9955.8037277554
 31
0.0
  0
LINE
  5
16062
330
1505B
100
AcDbEntity
  8
寸法
 62
     0
 48
50.0
370
    -2
100
AcDbLine
 10
5977.544233315992
 20
9699.995508130397
 30
0.0
 11
5977.544233315992
 21
9955.8037277554
 31
0.0
  0
LINE
  5
16063
330
1505B
100
AcDbEntity
  8
寸法
 62
     0
 48
50.0
370
    -2
100
AcDbLine
 10
5867.544233315988
 20
9895.803727755399
 30
0.0
 11
5977.544233315992
 21
9895.803727755399
 31
0.0
  0
MTEXT
  5
16064
330
1505B
100
AcDbEntity
  8
寸法
 62
     7
 48
50.0
100
AcDbMText
 10
5922.544233315992
 20
10147.53706870479
 30
0.0
 40
120.0
 41
0.0
 71
     5
 72
     1
  1
\A1;110
  7
STYLE1
 73
     1
 44
1.0
1001
ACAD
1000
MTEXTBEGIN
1070
    73
1070
     1
1070
    44
1040
1.0
1070
    74
1070
     0
1000
MTEXTEND
  0
INSERT
  5
16065
330
1505B
100
AcDbEntity
  8
寸法
 62
     0
 48
50.0
370
    -2
100
AcDbBlockReference
  2
_DOTSMALL
 10
5867.544233315988
 20
9895.803727755399
 30
0.0
 41
100.0
 42
100.0
 43
100.0
 50
180.0
  0
INSERT
  5
16066
330
1505B
100
AcDbEntity
  8
寸法
 62
     0
 48
50.0
370
    -2
100
AcDbBlockReference
  2
_DOTSMALL
 10
5977.544233315992
 20
9895.803727755399
 30
0.0
 41
100.0
 42
100.0
 43
100.0
  0
POINT
  5
16067
330
1505B
100
AcDbEntity
  8
DEFPOINTS
 62
     0
 48
50.0
100
AcDbPoint
 10
5867.544233315988
 20
9679.995508130417
 30
0.0
  0
POINT
  5
16068
330
1505B
100
AcDbEntity
  8
DEFPOINTS
 62
     0
 48
50.0
100
AcDbPoint
 10
5977.544233315992
 20
9679.995508130396
 30
0.0
  0
POINT
  5
16069
330
1505B
100
AcDbEntity
  8
DEFPOINTS
 62
     0
 48
50.0
100
AcDbPoint
 10
5977.544233315992
 20
9895.803727755399
 30
0.0
  0
ENDBLK
  5
15287
330
1505B
100
AcDbEntity
  8
0
 48
50.0
100
AcDbBlockEnd
  0
BLOCK
  5
15272
330
15067
100
AcDbEntity
  8
0
 48
50.0
100
AcDbBlockBegin
  2
*D10
 70
     1
 10
0.0
 20
0.0
 30
0.0
  3
*D10
  1

  0
LINE
  5
16058
330
15067
100
AcDbEntity
  8
寸法
 62
     0
 48
50.0
370
    -2
100
AcDbLine
 10
6817.544233315988
 20
9699.995508130418
 30
0.0
 11
6817.544233315988
 21
9955.8037277554
 31
0.0
  0
LINE
  5
16059
330
15067
100
AcDbEntity
  8
寸法
 62
     0
 48
50.0
370
    -2
100
AcDbLine
 10
6927.544233315991
 20
9699.995508130397
 30
0.0
 11
6927.544233315991
 21
9955.8037277554
 31
0.0
  0
LINE
  5
1605A
330
15067
100
AcDbEntity
  8
寸法
 62
     0
 48
50.0
370
    -2
100
AcDbLine
 10
6817.544233315988
 20
9895.803727755399
 30
0.0
 11
6927.544233315991
 21
9895.803727755399
 31
0.0
  0
MTEXT
  5
1605B
330
15067
100
AcDbEntity
  8
寸法
 62
     7
 48
50.0
100
AcDbMText
 10
6872.544233315991
 20
10147.53706870479
 30
0.0
 40
120.0
 41
0.0
 71
     5
 72
     1
  1
\A1;110
  7
STYLE1
 73
     1
 44
1.0
1001
ACAD
1000
MTEXTBEGIN
1070
    73
1070
     1
1070
    44
1040
1.0
1070
    74
1070
     0
1000
MTEXTEND
  0
INSERT
  5
1605C
330
15067
100
AcDbEntity
  8
寸法
 62
     0
 48
50.0
370
    -2
100
AcDbBlockReference
  2
_DOTSMALL
 10
6817.544233315988
 20
9895.803727755399
 30
0.0
 41
100.0
 42
100.0
 43
100.0
 50
180.0
  0
INSERT
  5
1605D
330
15067
100
AcDbEntity
  8
寸法
 62
     0
 48
50.0
370
    -2
100
AcDbBlockReference
  2
_DOTSMALL
 10
6927.544233315991
 20
9895.803727755399
 30
0.0
 41
100.0
 42
100.0
 43
100.0
  0
POINT
  5
1605E
330
15067
100
AcDbEntity
  8
DEFPOINTS
 62
     0
 48
50.0
100
AcDbPoint
 10
6817.544233315988
 20
9679.995508130417
 30
0.0
  0
POINT
  5
1605F
330
15067
100
AcDbEntity
  8
DEFPOINTS
 62
     0
 48
50.0
100
AcDbPoint
 10
6927.544233315991
 20
9679.995508130396
 30
0.0
  0
POINT
  5
16060
330
15067
100
AcDbEntity
  8
DEFPOINTS
 62
     0
 48
50.0
100
AcDbPoint
 10
6927.544233315991
 20
9895.803727755399
 30
0.0
  0
ENDBLK
  5
1527C
330
15067
100
AcDbEntity
  8
0
 48
50.0
100
AcDbBlockEnd
  0
BLOCK
  5
15200
330
15073
100
AcDbEntity
  8
0
 48
50.0
100
AcDbBlockBegin
  2
*D11
 70
     1
 10
0.0
 20
0.0
 30
0.0
  3
*D11
  1

  0
LINE
  5
1604F
330
15073
100
AcDbEntity
  8
寸法
 62
     0
 48
50.0
370
    -2
100
AcDbLine
 10
7813.5442399936
 20
9645.136524281644
 30
0.0
 11
8208.901965855627
 21
9539.200740915509
 31
0.0
  0
LINE
  5
16050
330
15073
100
AcDbEntity
  8
寸法
 62
     0
 48
50.0
370
    -2
100
AcDbLine
 10
7813.544239993608
 20
9195.13652428165
 30
0.0
 11
8208.901965855627
 21
9089.200740915519
 31
0.0
  0
LINE
  5
16051
330
15073
100
AcDbEntity
  8
寸法
 62
     0
 48
50.0
370
    -2
100
AcDbLine
 10
8148.901965855626
 20
9555.277692461375
 30
0.0
 11
8148.901965855626
 21
9105.277692461385
 31
0.0
  0
INSERT
  5
16052
330
15073
100
AcDbEntity
  8
寸法
 62
     0
 48
50.0
370
    -2
100
AcDbBlockReference
  2
_DOTSMALL
 10
8148.901965855626
 20
9555.277692461375
 30
0.0
 41
100.0
 42
100.0
 43
100.0
 50
90.0
  0
INSERT
  5
16053
330
15073
100
AcDbEntity
  8
寸法
 62
     0
 48
50.0
370
    -2
100
AcDbBlockReference
  2
_DOTSMALL
 10
8148.901965855626
 20
9105.277692461385
 30
0.0
 41
100.0
 42
100.0
 43
100.0
 50
270.0
  0
MTEXT
  5
16054
330
15073
100
AcDbEntity
  8
寸法
 62
     7
 48
50.0
100
AcDbMText
 10
8048.901965855625
 20
9330.277692461375
 30
0.0
 40
120.0
 41
0.0
 71
     5
 72
     1
  1
\A1;450
  7
STYLE1
 11
0.0000000000000001
 21
1.0
 31
0.0
 73
     1
 44
1.0
1001
ACAD
1000
MTEXTBEGIN
1070
    73
1070
     1
1070
    44
1040
1.0
1070
    74
1070
     0
1000
MTEXTEND
  0
POINT
  5
16055
330
15073
100
AcDbEntity
  8
DEFPOINTS
 62
     0
 48
50.0
100
AcDbPoint
 10
7793.5442399936
 20
9650.495508130266
 30
0.0
  0
POINT
  5
16056
330
15073
100
AcDbEntity
  8
DEFPOINTS
 62
     0
 48
50.0
100
AcDbPoint
 10
7793.544239993607
 20
9200.495508130272
 30
0.0
  0
POINT
  5
16057
330
15073
100
AcDbEntity
  8
DEFPOINTS
 62
     0
 48
50.0
100
AcDbPoint
 10
8148.901965855626
 20
9105.277692461385
 30
0.0
  0
ENDBLK
  5
1520A
330
15073
100
AcDbEntity
  8
0
 48
50.0
100
AcDbBlockEnd
  0
BLOCK
  5
15216
330
1508B
100
AcDbEntity
  8
0
 48
50.0
100
AcDbBlockBegin
  2
*D12
 70
     1
 10
0.0
 20
0.0
 30
0.0
  3
*D12
  1

  0
LINE
  5
16046
330
1508B
100
AcDbEntity
  8
寸法
 62
     0
 48
50.0
370
    -2
100
AcDbLine
 10
7842.544233315992
 20
9679.995508130396
 30
0.0
 11
8839.08210986608
 21
9679.995508130396
 31
0.0
  0
LINE
  5
16047
330
1508B
100
AcDbEntity
  8
寸法
 62
     0
 48
50.0
370
    -2
100
AcDbLine
 10
7842.544233315966
 20
8149.99550813038
 30
0.0
 11
8839.08210986608
 21
8149.99550813038
 31
0.0
  0
LINE
  5
16048
330
1508B
100
AcDbEntity
  8
寸法
 62
     0
 48
50.0
370
    -2
100
AcDbLine
 10
8779.082109866079
 20
9679.995508130396
 30
0.0
 11
8779.082109866079
 21
8149.99550813038
 31
0.0
  0
INSERT
  5
16049
330
1508B
100
AcDbEntity
  8
寸法
 62
     0
 48
50.0
370
    -2
100
AcDbBlockReference
  2
_DOTSMALL
 10
8779.082109866079
 20
9679.995508130396
 30
0.0
 41
100.0
 42
100.0
 43
100.0
 50
90.0
  0
INSERT
  5
1604A
330
1508B
100
AcDbEntity
  8
寸法
 62
     0
 48
50.0
370
    -2
100
AcDbBlockReference
  2
_DOTSMALL
 10
8779.082109866079
 20
8149.99550813038
 30
0.0
 41
100.0
 42
100.0
 43
100.0
 50
270.0
  0
MTEXT
  5
1604B
330
1508B
100
AcDbEntity
  8
寸法
 62
     7
 48
50.0
100
AcDbMText
 10
8679.082109866078
 20
8914.995508130388
 30
0.0
 40
120.0
 41
0.0
 71
     5
 72
     1
  1
\A1;1530
  7
STYLE1
 11
0.0000000000000001
 21
1.0
 31
0.0
 73
     1
 44
1.0
1001
ACAD
1000
MTEXTBEGIN
1070
    73
1070
     1
1070
    44
1040
1.0
1070
    74
1070
     0
1000
MTEXTEND
  0
POINT
  5
1604C
330
1508B
100
AcDbEntity
  8
DEFPOINTS
 62
     0
 48
50.0
100
AcDbPoint
 10
7822.544233315992
 20
9679.995508130396
 30
0.0
  0
POINT
  5
1604D
330
1508B
100
AcDbEntity
  8
DEFPOINTS
 62
     0
 48
50.0
100
AcDbPoint
 10
7822.544233315966
 20
8149.99550813038
 30
0.0
  0
POINT
  5
1604E
330
1508B
100
AcDbEntity
  8
DEFPOINTS
 62
     0
 48
50.0
100
AcDbPoint
 10
8779.082109866079
 20
8149.99550813038
 30
0.0
  0
ENDBLK
  5
15220
330
1508B
100
AcDbEntity
  8
0
 48
50.0
100
AcDbBlockEnd
  0
BLOCK
  5
15221
330
15097
100
AcDbEntity
  8
0
 48
50.0
100
AcDbBlockBegin
  2
*D13
 70
     1
 10
0.0
 20
0.0
 30
0.0
  3
*D13
  1

  0
LINE
  5
1603B
330
15097
100
AcDbEntity
  8
寸法
 62
     0
 48
50.0
370
    -2
100
AcDbLine
 10
7842.544233315966
 20
8204.995508130382
 30
0.0
 11
8529.970579050377
 21
8204.995508130382
 31
0.0
  0
LINE
  5
1603C
330
15097
100
AcDbEntity
  8
寸法
 62
     0
 48
50.0
370
    -2
100
AcDbLine
 10
7842.544233315966
 20
8149.99550813038
 30
0.0
 11
8529.970579050377
 21
8149.99550813038
 31
0.0
  0
LINE
  5
1603D
330
15097
100
AcDbEntity
  8
寸法
 62
     0
 48
50.0
370
    -2
100
AcDbLine
 10
8469.970579050379
 20
8204.995508130382
 30
0.0
 11
8469.970579050379
 21
8304.995508130382
 31
0.0
  0
LINE
  5
1603E
330
15097
100
AcDbEntity
  8
寸法
 62
     0
 48
50.0
370
    -2
100
AcDbLine
 10
8469.970579050379
 20
8149.99550813038
 30
0.0
 11
8469.970579050379
 21
7663.64875985128
 31
0.0
  0
LINE
  5
1603F
330
15097
100
AcDbEntity
  8
寸法
 62
     0
 48
50.0
370
    -2
100
AcDbLine
 10
8469.970579050379
 20
8204.995508130382
 30
0.0
 11
8469.970579050379
 21
8149.99550813038
 31
0.0
  0
INSERT
  5
16040
330
15097
100
AcDbEntity
  8
寸法
 62
     0
 48
50.0
370
    -2
100
AcDbBlockReference
  2
_DOTSMALL
 10
8469.970579050379
 20
8204.995508130382
 30
0.0
 41
100.0
 42
100.0
 43
100.0
 50
270.0
  0
INSERT
  5
16041
330
15097
100
AcDbEntity
  8
寸法
 62
     0
 48
50.0
370
    -2
100
AcDbBlockReference
  2
_DOTSMALL
 10
8469.970579050379
 20
8149.99550813038
 30
0.0
 41
100.0
 42
100.0
 43
100.0
 50
90.0
  0
MTEXT
  5
16042
330
15097
100
AcDbEntity
  8
寸法
 62
     7
 48
50.0
100
AcDbMText
 10
8369.970579050376
 20
7772.13404122552
 30
0.0
 40
120.0
 41
0.0
 71
     5
 72
     1
  1
\A1;55
  7
STYLE1
 11
0.0000000000000001
 21
1.0
 31
0.0
 73
     1
 44
1.0
1001
ACAD
1000
MTEXTBEGIN
1070
    73
1070
     1
1070
    44
1040
1.0
1070
    74
1070
     0
1000
MTEXTEND
  0
POINT
  5
16043
330
15097
100
AcDbEntity
  8
DEFPOINTS
 62
     0
 48
50.0
100
AcDbPoint
 10
7822.544233315966
 20
8204.995508130382
 30
0.0
  0
POINT
  5
16044
330
15097
100
AcDbEntity
  8
DEFPOINTS
 62
     0
 48
50.0
100
AcDbPoint
 10
7822.544233315966
 20
8149.99550813038
 30
0.0
  0
POINT
  5
16045
330
15097
100
AcDbEntity
  8
DEFPOINTS
 62
     0
 48
50.0
100
AcDbPoint
 10
8469.970579050379
 20
8149.99550813038
 30
0.0
  0
ENDBLK
  5
1522D
330
15097
100
AcDbEntity
  8
0
 48
50.0
100
AcDbBlockEnd
  0
BLOCK
  5
1522E
330
150A5
100
AcDbEntity
  8
0
 48
50.0
100
AcDbBlockBegin
  2
*D14
 70
     1
 10
0.0
 20
0.0
 30
0.0
  3
*D14
  1

  0
LINE
  5
16030
330
150A5
100
AcDbEntity
  8
寸法
 62
     0
 48
50.0
370
    -2
100
AcDbLine
 10
7842.544233315992
 20
9679.995508130396
 30
0.0
 11
8529.970579050404
 21
9679.995508130396
 31
0.0
  0
LINE
  5
16031
330
150A5
100
AcDbEntity
  8
寸法
 62
     0
 48
50.0
370
    -2
100
AcDbLine
 10
7842.544233315992
 20
9624.995508130396
 30
0.0
 11
8529.970579050404
 21
9624.995508130396
 31
0.0
  0
LINE
  5
16032
330
150A5
100
AcDbEntity
  8
寸法
 62
     0
 48
50.0
370
    -2
100
AcDbLine
 10
8469.970579050402
 20
9624.995508130396
 30
0.0
 11
8469.970579050402
 21
9524.995508130396
 31
0.0
  0
LINE
  5
16033
330
150A5
100
AcDbEntity
  8
寸法
 62
     0
 48
50.0
370
    -2
100
AcDbLine
 10
8469.970579050402
 20
9679.995508130396
 30
0.0
 11
8469.970579050402
 21
10096.96607087887
 31
0.0
  0
LINE
  5
16034
330
150A5
100
AcDbEntity
  8
寸法
 62
     0
 48
50.0
370
    -2
100
AcDbLine
 10
8469.970579050402
 20
9624.995508130396
 30
0.0
 11
8469.970579050402
 21
9679.995508130396
 31
0.0
  0
INSERT
  5
16035
330
150A5
100
AcDbEntity
  8
寸法
 62
     0
 48
50.0
370
    -2
100
AcDbBlockReference
  2
_DOTSMALL
 10
8469.970579050402
 20
9624.995508130396
 30
0.0
 41
100.0
 42
100.0
 43
100.0
 50
90.0
  0
INSERT
  5
16036
330
150A5
100
AcDbEntity
  8
寸法
 62
     0
 48
50.0
370
    -2
100
AcDbBlockReference
  2
_DOTSMALL
 10
8469.970579050402
 20
9679.995508130396
 30
0.0
 41
100.0
 42
100.0
 43
100.0
 50
270.0
  0
MTEXT
  5
16037
330
150A5
100
AcDbEntity
  8
寸法
 62
     7
 48
50.0
100
AcDbMText
 10
8369.9705790504
 20
9988.480789504636
 30
0.0
 40
120.0
 41
0.0
 71
     5
 72
     1
  1
\A1;55
  7
STYLE1
 11
0.0000000000000001
 21
1.0
 31
0.0
 73
     1
 44
1.0
1001
ACAD
1000
MTEXTBEGIN
1070
    73
1070
     1
1070
    44
1040
1.0
1070
    74
1070
     0
1000
MTEXTEND
  0
POINT
  5
16038
330
150A5
100
AcDbEntity
  8
DEFPOINTS
 62
     0
 48
50.0
100
AcDbPoint
 10
7822.544233315992
 20
9679.995508130396
 30
0.0
  0
POINT
  5
16039
330
150A5
100
AcDbEntity
  8
DEFPOINTS
 62
     0
 48
50.0
100
AcDbPoint
 10
7822.544233315992
 20
9624.995508130396
 30
0.0
  0
POINT
  5
1603A
330
150A5
100
AcDbEntity
  8
DEFPOINTS
 62
     0
 48
50.0
100
AcDbPoint
 10
8469.970579050402
 20
9624.995508130396
 30
0.0
  0
ENDBLK
  5
1523A
330
150A5
100
AcDbEntity
  8
0
 48
50.0
100
AcDbBlockEnd
  0
BLOCK
  5
1523E
330
1523D
100
AcDbEntity
  8
0
 48
50.0
100
AcDbBlockBegin
  2
*D15
 70
     1
 10
0.0
 20
0.0
 30
0.0
  3
*D15
  1

  0
LINE
  5
16027
330
1523D
100
AcDbEntity
  8
寸法
 62
     0
 48
50.0
370
    -2
100
AcDbLine
 10
7842.544233315992
 20
9624.995508130396
 30
0.0
 11
8529.970579050402
 21
9624.995508130396
 31
0.0
  0
LINE
  5
16028
330
1523D
100
AcDbEntity
  8
寸法
 62
     0
 48
50.0
370
    -2
100
AcDbLine
 10
7842.544233315992
 20
9204.995508130396
 30
0.0
 11
8529.970579050402
 21
9204.995508130396
 31
0.0
  0
LINE
  5
16029
330
1523D
100
AcDbEntity
  8
寸法
 62
     0
 48
50.0
370
    -2
100
AcDbLine
 10
8469.970579050402
 20
9624.995508130396
 30
0.0
 11
8469.970579050402
 21
9204.995508130396
 31
0.0
  0
INSERT
  5
1602A
330
1523D
100
AcDbEntity
  8
寸法
 62
     0
 48
50.0
370
    -2
100
AcDbBlockReference
  2
_DOTSMALL
 10
8469.970579050402
 20
9624.995508130396
 30
0.0
 41
100.0
 42
100.0
 43
100.0
 50
90.0
  0
INSERT
  5
1602B
330
1523D
100
AcDbEntity
  8
寸法
 62
     0
 48
50.0
370
    -2
100
AcDbBlockReference
  2
_DOTSMALL
 10
8469.970579050402
 20
9204.995508130396
 30
0.0
 41
100.0
 42
100.0
 43
100.0
 50
270.0
  0
MTEXT
  5
1602C
330
1523D
100
AcDbEntity
  8
寸法
 62
     7
 48
50.0
100
AcDbMText
 10
8369.958768026778
 20
9414.995508130399
 30
0.0
 40
120.0
 41
0.0
 71
     5
 72
     1
  1
\A1;420
  7
STYLE1
 11
0.0000000000000001
 21
1.0
 31
0.0
 73
     1
 44
1.0
1001
ACAD
1000
MTEXTBEGIN
1070
    73
1070
     1
1070
    44
1040
1.0
1070
    74
1070
     0
1000
MTEXTEND
  0
POINT
  5
1602D
330
1523D
100
AcDbEntity
  8
DEFPOINTS
 62
     0
 48
50.0
100
AcDbPoint
 10
7822.544233315992
 20
9624.995508130396
 30
0.0
  0
POINT
  5
1602E
330
1523D
100
AcDbEntity
  8
DEFPOINTS
 62
     0
 48
50.0
100
AcDbPoint
 10
7822.544233315992
 20
9204.995508130396
 30
0.0
  0
POINT
  5
1602F
330
1523D
100
AcDbEntity
  8
DEFPOINTS
 62
     0
 48
50.0
100
AcDbPoint
 10
8469.970579050402
 20
9204.995508130396
 30
0.0
  0
ENDBLK
  5
15248
330
1523D
100
AcDbEntity
  8
0
 48
50.0
100
AcDbBlockEnd
  0
BLOCK
  5
1524B
330
1524A
100
AcDbEntity
  8
0
 48
50.0
100
AcDbBlockBegin
  2
*D16
 70
     1
 10
0.0
 20
0.0
 30
0.0
  3
*D16
  1

  0
LINE
  5
1601E
330
1524A
100
AcDbEntity
  8
寸法
 62
     0
 48
50.0
370
    -2
100
AcDbLine
 10
7842.544233315992
 20
9204.995508130396
 30
0.0
 11
8529.970579050402
 21
9204.995508130396
 31
0.0
  0
LINE
  5
1601F
330
1524A
100
AcDbEntity
  8
寸法
 62
     0
 48
50.0
370
    -2
100
AcDbLine
 10
7842.544233315992
 20
8624.995508130396
 30
0.0
 11
8529.970579050402
 21
8624.995508130396
 31
0.0
  0
LINE
  5
16020
330
1524A
100
AcDbEntity
  8
寸法
 62
     0
 48
50.0
370
    -2
100
AcDbLine
 10
8469.970579050402
 20
9204.995508130396
 30
0.0
 11
8469.970579050402
 21
8624.995508130396
 31
0.0
  0
INSERT
  5
16021
330
1524A
100
AcDbEntity
  8
寸法
 62
     0
 48
50.0
370
    -2
100
AcDbBlockReference
  2
_DOTSMALL
 10
8469.970579050402
 20
9204.995508130396
 30
0.0
 41
100.0
 42
100.0
 43
100.0
 50
90.0
  0
INSERT
  5
16022
330
1524A
100
AcDbEntity
  8
寸法
 62
     0
 48
50.0
370
    -2
100
AcDbBlockReference
  2
_DOTSMALL
 10
8469.970579050402
 20
8624.995508130396
 30
0.0
 41
100.0
 42
100.0
 43
100.0
 50
270.0
  0
MTEXT
  5
16023
330
1524A
100
AcDbEntity
  8
寸法
 62
     7
 48
50.0
100
AcDbMText
 10
8369.9705790504
 20
8914.995508130399
 30
0.0
 40
120.0
 41
0.0
 71
     5
 72
     1
  1
\A1;580
  7
STYLE1
 11
0.0000000000000001
 21
1.0
 31
0.0
 73
     1
 44
1.0
1001
ACAD
1000
MTEXTBEGIN
1070
    73
1070
     1
1070
    44
1040
1.0
1070
    74
1070
     0
1000
MTEXTEND
  0
POINT
  5
16024
330
1524A
100
AcDbEntity
  8
DEFPOINTS
 62
     0
 48
50.0
100
AcDbPoint
 10
7822.544233315992
 20
9204.995508130396
 30
0.0
  0
POINT
  5
16025
330
1524A
100
AcDbEntity
  8
DEFPOINTS
 62
     0
 48
50.0
100
AcDbPoint
 10
7822.544233315992
 20
8624.995508130396
 30
0.0
  0
POINT
  5
16026
330
1524A
100
AcDbEntity
  8
DEFPOINTS
 62
     0
 48
50.0
100
AcDbPoint
 10
8469.970579050402
 20
8624.995508130396
 30
0.0
  0
ENDBLK
  5
15255
330
1524A
100
AcDbEntity
  8
0
 48
50.0
100
AcDbBlockEnd
  0
BLOCK
  5
15258
330
15257
100
AcDbEntity
  8
0
 48
50.0
100
AcDbBlockBegin
  2
*D17
 70
     1
 10
0.0
 20
0.0
 30
0.0
  3
*D17
  1

  0
LINE
  5
16015
330
15257
100
AcDbEntity
  8
寸法
 62
     0
 48
50.0
370
    -2
100
AcDbLine
 10
7842.544233315968
 20
8204.995508130352
 30
0.0
 11
8529.970579050402
 21
8204.995508130352
 31
0.0
  0
LINE
  5
16016
330
15257
100
AcDbEntity
  8
寸法
 62
     0
 48
50.0
370
    -2
100
AcDbLine
 10
7842.544233315992
 20
8624.995508130396
 30
0.0
 11
8529.970579050402
 21
8624.995508130396
 31
0.0
  0
LINE
  5
16017
330
15257
100
AcDbEntity
  8
寸法
 62
     0
 48
50.0
370
    -2
100
AcDbLine
 10
8469.970579050402
 20
8204.995508130352
 30
0.0
 11
8469.970579050402
 21
8624.995508130396
 31
0.0
  0
INSERT
  5
16018
330
15257
100
AcDbEntity
  8
寸法
 62
     0
 48
50.0
370
    -2
100
AcDbBlockReference
  2
_DOTSMALL
 10
8469.970579050402
 20
8204.995508130352
 30
0.0
 41
100.0
 42
100.0
 43
100.0
 50
270.0
  0
INSERT
  5
16019
330
15257
100
AcDbEntity
  8
寸法
 62
     0
 48
50.0
370
    -2
100
AcDbBlockReference
  2
_DOTSMALL
 10
8469.970579050402
 20
8624.995508130396
 30
0.0
 41
100.0
 42
100.0
 43
100.0
 50
90.0
  0
MTEXT
  5
1601A
330
15257
100
AcDbEntity
  8
寸法
 62
     7
 48
50.0
100
AcDbMText
 10
8369.958768026778
 20
8414.995508130376
 30
0.0
 40
120.0
 41
0.0
 71
     5
 72
     1
  1
\A1;420
  7
STYLE1
 11
0.0000000000000001
 21
1.0
 31
0.0
 73
     1
 44
1.0
1001
ACAD
1000
MTEXTBEGIN
1070
    73
1070
     1
1070
    44
1040
1.0
1070
    74
1070
     0
1000
MTEXTEND
  0
POINT
  5
1601B
330
15257
100
AcDbEntity
  8
DEFPOINTS
 62
     0
 48
50.0
100
AcDbPoint
 10
7822.544233315968
 20
8204.995508130352
 30
0.0
  0
POINT
  5
1601C
330
15257
100
AcDbEntity
  8
DEFPOINTS
 62
     0
 48
50.0
100
AcDbPoint
 10
7822.544233315992
 20
8624.995508130396
 30
0.0
  0
POINT
  5
1601D
330
15257
100
AcDbEntity
  8
DEFPOINTS
 62
     0
 48
50.0
100
AcDbPoint
 10
8469.970579050402
 20
8624.995508130396
 30
0.0
  0
ENDBLK
  5
15262
330
15257
100
AcDbEntity
  8
0
 48
50.0
100
AcDbBlockEnd
  0
BLOCK
  5
153A4
330
15398
100
AcDbEntity
  8
0
 48
50.0
100
AcDbBlockBegin
  2
*D18
 70
     1
 10
0.0
 20
0.0
 30
0.0
  3
*D18
  1

  0
LINE
  5
1600C
330
15398
100
AcDbEntity
  8
寸法
 62
     0
 48
50.0
370
    -2
100
AcDbLine
 10
5977.544233315988
 20
8129.995508130294
 30
0.0
 11
5977.544233315988
 21
7650.171840335217
 31
0.0
  0
LINE
  5
1600D
330
15398
100
AcDbEntity
  8
寸法
 62
     0
 48
50.0
370
    -2
100
AcDbLine
 10
6662.544233315981
 20
8129.995508130258
 30
0.0
 11
6662.544233315981
 21
7650.171840335217
 31
0.0
  0
LINE
  5
1600E
330
15398
100
AcDbEntity
  8
寸法
 62
     0
 48
50.0
370
    -2
100
AcDbLine
 10
5977.544233315988
 20
7710.171840335217
 30
0.0
 11
6662.544233315981
 21
7710.171840335217
 31
0.0
  0
INSERT
  5
1600F
330
15398
100
AcDbEntity
  8
寸法
 62
     0
 48
50.0
370
    -2
100
AcDbBlockReference
  2
_DOTSMALL
 10
5977.544233315988
 20
7710.171840335217
 30
0.0
 41
100.0
 42
100.0
 43
100.0
 50
180.0
  0
INSERT
  5
16010
330
15398
100
AcDbEntity
  8
寸法
 62
     0
 48
50.0
370
    -2
100
AcDbBlockReference
  2
_DOTSMALL
 10
6662.544233315981
 20
7710.171840335217
 30
0.0
 41
100.0
 42
100.0
 43
100.0
  0
MTEXT
  5
16011
330
15398
100
AcDbEntity
  8
寸法
 62
     7
 48
50.0
100
AcDbMText
 10
6320.044233315985
 20
7810.171840335216
 30
0.0
 40
120.0
 41
0.0
 71
     5
 72
     1
  1
\A1;685
  7
STYLE1
 73
     1
 44
1.0
1001
ACAD
1000
MTEXTBEGIN
1070
    73
1070
     1
1070
    44
1040
1.0
1070
    74
1070
     0
1000
MTEXTEND
  0
POINT
  5
16012
330
15398
100
AcDbEntity
  8
DEFPOINTS
 62
     0
 48
50.0
100
AcDbPoint
 10
5977.544233315988
 20
8149.995508130293
 30
0.0
  0
POINT
  5
16013
330
15398
100
AcDbEntity
  8
DEFPOINTS
 62
     0
 48
50.0
100
AcDbPoint
 10
6662.544233315981
 20
8149.995508130258
 30
0.0
  0
POINT
  5
16014
330
15398
100
AcDbEntity
  8
DEFPOINTS
 62
     0
 48
50.0
100
AcDbPoint
 10
6662.544233315981
 20
7710.171840335217
 30
0.0
  0
ENDBLK
  5
153AE
330
15398
100
AcDbEntity
  8
0
 48
50.0
100
AcDbBlockEnd
  0
BLOCK
  5
153B1
330
153B0
100
AcDbEntity
  8
0
 48
50.0
100
AcDbBlockBegin
  2
*D19
 70
     1
 10
0.0
 20
0.0
 30
0.0
  3
*D19
  1

  0
LINE
  5
16003
330
153B0
100
AcDbEntity
  8
寸法
 62
     0
 48
50.0
370
    -2
100
AcDbLine
 10
5027.544233315988
 20
8129.995508130294
 30
0.0
 11
5027.544233315988
 21
7650.171840335217
 31
0.0
  0
LINE
  5
16004
330
153B0
100
AcDbEntity
  8
寸法
 62
     0
 48
50.0
370
    -2
100
AcDbLine
 10
5712.544233315981
 20
8129.995508130258
 30
0.0
 11
5712.544233315981
 21
7650.171840335217
 31
0.0
  0
LINE
  5
16005
330
153B0
100
AcDbEntity
  8
寸法
 62
     0
 48
50.0
370
    -2
100
AcDbLine
 10
5027.544233315988
 20
7710.171840335217
 30
0.0
 11
5712.544233315981
 21
7710.171840335217
 31
0.0
  0
INSERT
  5
16006
330
153B0
100
AcDbEntity
  8
寸法
 62
     0
 48
50.0
370
    -2
100
AcDbBlockReference
  2
_DOTSMALL
 10
5027.544233315988
 20
7710.171840335217
 30
0.0
 41
100.0
 42
100.0
 43
100.0
 50
180.0
  0
INSERT
  5
16007
330
153B0
100
AcDbEntity
  8
寸法
 62
     0
 48
50.0
370
    -2
100
AcDbBlockReference
  2
_DOTSMALL
 10
5712.544233315981
 20
7710.171840335217
 30
0.0
 41
100.0
 42
100.0
 43
100.0
  0
MTEXT
  5
16008
330
153B0
100
AcDbEntity
  8
寸法
 62
     7
 48
50.0
100
AcDbMText
 10
5370.044233315985
 20
7810.171840335216
 30
0.0
 40
120.0
 41
0.0
 71
     5
 72
     1
  1
\A1;685
  7
STYLE1
 73
     1
 44
1.0
1001
ACAD
1000
MTEXTBEGIN
1070
    73
1070
     1
1070
    44
1040
1.0
1070
    74
1070
     0
1000
MTEXTEND
  0
POINT
  5
16009
330
153B0
100
AcDbEntity
  8
DEFPOINTS
 62
     0
 48
50.0
100
AcDbPoint
 10
5027.544233315988
 20
8149.995508130293
 30
0.0
  0
POINT
  5
1600A
330
153B0
100
AcDbEntity
  8
DEFPOINTS
 62
     0
 48
50.0
100
AcDbPoint
 10
5712.544233315981
 20
8149.995508130258
 30
0.0
  0
POINT
  5
1600B
330
153B0
100
AcDbEntity
  8
DEFPOINTS
 62
     0
 48
50.0
100
AcDbPoint
 10
5712.544233315981
 20
7710.171840335217
 30
0.0
  0
ENDBLK
  5
153BB
330
153B0
100
AcDbEntity
  8
0
 48
50.0
100
AcDbBlockEnd
  0
BLOCK
  5
15A63
330
15A59
100
AcDbEntity
  8
0
 48
50.0
100
AcDbBlockBegin
  2
*D20
 70
     1
 10
0.0
 20
0.0
 30
0.0
  3
*D20
  1

  0
LINE
  5
15FD6
330
15A59
100
AcDbEntity
  8
寸法
 62
     0
 48
50.0
370
    -2
100
AcDbLine
 10
10182.41377583157
 20
5198.806328044402
 30
0.0
 11
9547.453055184147
 21
5198.806328044402
 31
0.0
  0
LINE
  5
15FD7
330
15A59
100
AcDbEntity
  8
寸法
 62
     0
 48
50.0
370
    -2
100
AcDbLine
 10
10182.41377583157
 20
3408.806328044406
 30
0.0
 11
9547.453055184146
 21
3408.806328044406
 31
0.0
  0
LINE
  5
15FD8
330
15A59
100
AcDbEntity
  8
寸法
 62
     0
 48
50.0
370
    -2
100
AcDbLine
 10
9607.453055184148
 20
5198.806328044402
 30
0.0
 11
9607.453055184146
 21
3408.806328044406
 31
0.0
  0
INSERT
  5
15FD9
330
15A59
100
AcDbEntity
  8
寸法
 62
     0
 48
50.0
370
    -2
100
AcDbBlockReference
  2
_DOTSMALL
 10
9607.453055184148
 20
5198.806328044402
 30
0.0
 41
100.0
 42
100.0
 43
100.0
 50
90.0
  0
INSERT
  5
15FDA
330
15A59
100
AcDbEntity
  8
寸法
 62
     0
 48
50.0
370
    -2
100
AcDbBlockReference
  2
_DOTSMALL
 10
9607.453055184146
 20
3408.806328044406
 30
0.0
 41
100.0
 42
100.0
 43
100.0
 50
270.0
  0
MTEXT
  5
15FDB
330
15A59
100
AcDbEntity
  8
寸法
 62
     7
 48
50.0
100
AcDbMText
 10
9507.453055184145
 20
4313.841339920791
 30
0.0
 40
120.0
 41
0.0
 71
     5
 72
     1
  1
\A1;1790
  7
STYLE1
 11
0.0000000000000001
 21
1.0
 31
0.0
 73
     1
 44
1.0
1001
ACAD
1000
MTEXTBEGIN
1070
    73
1070
     1
1070
    44
1040
1.0
1070
    74
1070
     0
1000
MTEXTEND
  0
POINT
  5
15FDC
330
15A59
100
AcDbEntity
  8
DEFPOINTS
 62
     0
 48
50.0
100
AcDbPoint
 10
10202.41377583157
 20
5198.806328044402
 30
0.0
  0
POINT
  5
15FDD
330
15A59
100
AcDbEntity
  8
DEFPOINTS
 62
     0
 48
50.0
100
AcDbPoint
 10
10202.41377583157
 20
3408.806328044406
 30
0.0
  0
POINT
  5
15FDE
330
15A59
100
AcDbEntity
  8
DEFPOINTS
 62
     0
 48
50.0
100
AcDbPoint
 10
9607.453055184146
 20
3408.806328044406
 30
0.0
  0
ENDBLK
  5
15A64
330
15A59
100
AcDbEntity
  8
0
 48
50.0
100
AcDbBlockEnd
  0
BLOCK
  5
15A70
330
15A65
100
AcDbEntity
  8
0
 48
50.0
100
AcDbBlockBegin
  2
*D21
 70
     1
 10
0.0
 20
0.0
 30
0.0
  3
*D21
  1

  0
LINE
  5
15FCC
330
15A65
100
AcDbEntity
  8
寸法
 62
     0
 48
50.0
370
    -2
100
AcDbLine
 10
10144.77295056385
 20
5292.341939517879
 30
0.0
 11
9491.872780269815
 21
5316.992970757858
 31
0.0
  0
LINE
  5
15FCD
330
15A65
100
AcDbEntity
  8
寸法
 62
     0
 48
50.0
370
    -2
100
AcDbLine
 10
10150.0927847158
 20
5433.241546914762
 30
0.0
 11
9497.192614421608
 21
5457.892578154747
 31
0.0
  0
LINE
  5
15FCE
330
15A65
100
AcDbEntity
  8
寸法
 62
     0
 48
50.0
370
    -2
100
AcDbLine
 10
9551.830060013173
 20
5314.729211544329
 30
0.0
 11
9557.149894164966
 21
5455.628818941217
 31
0.0
  0
LINE
  5
15FCF
330
15A65
100
AcDbEntity
  8
寸法
 62
     0
 48
50.0
370
    -2
100
AcDbLine
 10
9557.149894164966
 20
5455.628818941217
 30
0.0
 11
9570.732449446165
 21
5815.372497402049
 31
0.0
  0
INSERT
  5
15FD0
330
15A65
100
AcDbEntity
  8
寸法
 62
     0
 48
50.0
370
    -2
100
AcDbBlockReference
  2
_DOTSMALL
 10
9551.830060013173
 20
5314.729211544329
 30
0.0
 41
100.0
 42
100.0
 43
100.0
 50
267.8377559871574
  0
INSERT
  5
15FD1
330
15A65
100
AcDbEntity
  8
寸法
 62
     0
 48
50.0
370
    -2
100
AcDbBlockReference
  2
_DOTSMALL
 10
9557.149894164966
 20
5455.628818941217
 30
0.0
 41
100.0
 42
100.0
 43
100.0
 50
87.83775598715743
  0
MTEXT
  5
15FD2
330
15A65
100
AcDbEntity
  8
寸法
 62
     7
 48
50.0
100
AcDbMText
 10
9465.898838244591
 20
5689.237989980656
 30
0.0
 40
120.0
 41
0.0
 71
     5
 72
     1
  1
\A1;141
  7
STYLE1
 11
0.03772932022548
 21
0.9992879957226159
 31
0.0
 73
     1
 44
1.0
1001
ACAD
1000
MTEXTBEGIN
1070
    73
1070
     1
1070
    44
1040
1.0
1070
    74
1070
     0
1000
MTEXTEND
  0
POINT
  5
15FD3
330
15A65
100
AcDbEntity
  8
DEFPOINTS
 62
     0
 48
50.0
100
AcDbPoint
 10
10164.7587104783
 20
5291.587353113369
 30
0.0
  0
POINT
  5
15FD4
330
15A65
100
AcDbEntity
  8
DEFPOINTS
 62
     0
 48
50.0
100
AcDbPoint
 10
10170.07854463026
 20
5432.486960510252
 30
0.0
  0
POINT
  5
15FD5
330
15A65
100
AcDbEntity
  8
DEFPOINTS
 62
     0
 48
50.0
100
AcDbPoint
 10
9557.149894164966
 20
5455.628818941217
 30
0.0
  0
ENDBLK
  5
15A71
330
15A65
100
AcDbEntity
  8
0
 48
50.0
100
AcDbBlockEnd
  0
BLOCK
  5
15A7D
330
15A72
100
AcDbEntity
  8
0
 48
50.0
100
AcDbBlockBegin
  2
*D22
 70
     1
 10
0.0
 20
0.0
 30
0.0
  3
*D22
  1

  0
LINE
  5
15FC2
330
15A72
100
AcDbEntity
  8
寸法
 62
     0
 48
50.0
370
    -2
100
AcDbLine
 10
11739.41614587635
 20
5400.617007656055
 30
0.0
 11
11739.41614587635
 21
5892.463781623707
 31
0.0
  0
LINE
  5
15FC3
330
15A72
100
AcDbEntity
  8
寸法
 62
     0
 48
50.0
370
    -2
100
AcDbLine
 10
11819.41614587635
 20
5398.806328044404
 30
0.0
 11
11819.41614587635
 21
5892.463781623707
 31
0.0
  0
LINE
  5
15FC4
330
15A72
100
AcDbEntity
  8
寸法
 62
     0
 48
50.0
370
    -2
100
AcDbLine
 10
11739.41614587635
 20
5832.463781623706
 30
0.0
 11
11819.41614587635
 21
5832.463781623706
 31
0.0
  0
LINE
  5
15FC5
330
15A72
100
AcDbEntity
  8
寸法
 62
     0
 48
50.0
370
    -2
100
AcDbLine
 10
11819.41614587635
 20
5832.463781623706
 30
0.0
 11
12131.51063406533
 21
5832.463781623706
 31
0.0
  0
INSERT
  5
15FC6
330
15A72
100
AcDbEntity
  8
寸法
 62
     0
 48
50.0
370
    -2
100
AcDbBlockReference
  2
_DOTSMALL
 10
11739.41614587635
 20
5832.463781623706
 30
0.0
 41
100.0
 42
100.0
 43
100.0
 50
180.0
  0
INSERT
  5
15FC7
330
15A72
100
AcDbEntity
  8
寸法
 62
     0
 48
50.0
370
    -2
100
AcDbBlockReference
  2
_DOTSMALL
 10
11819.41614587635
 20
5832.463781623706
 30
0.0
 41
100.0
 42
100.0
 43
100.0
  0
MTEXT
  5
15FC8
330
15A72
100
AcDbEntity
  8
寸法
 62
     7
 48
50.0
100
AcDbMText
 10
12025.46338997084
 20
5932.463781623706
 30
0.0
 40
120.0
 41
0.0
 71
     5
 72
     1
  1
\A1;80
  7
STYLE1
 73
     1
 44
1.0
1001
ACAD
1000
MTEXTBEGIN
1070
    73
1070
     1
1070
    44
1040
1.0
1070
    74
1070
     0
1000
MTEXTEND
  0
POINT
  5
15FC9
330
15A72
100
AcDbEntity
  8
DEFPOINTS
 62
     0
 48
50.0
100
AcDbPoint
 10
11739.41614587635
 20
5380.617007656056
 30
0.0
  0
POINT
  5
15FCA
330
15A72
100
AcDbEntity
  8
DEFPOINTS
 62
     0
 48
50.0
100
AcDbPoint
 10
11819.41614587635
 20
5378.806328044404
 30
0.0
  0
POINT
  5
15FCB
330
15A72
100
AcDbEntity
  8
DEFPOINTS
 62
     0
 48
50.0
100
AcDbPoint
 10
11819.41614587635
 20
5832.463781623706
 30
0.0
  0
ENDBLK
  5
15A7E
330
15A72
100
AcDbEntity
  8
0
 48
50.0
100
AcDbBlockEnd
  0
BLOCK
  5
15A89
330
15A7F
100
AcDbEntity
  8
0
 48
50.0
100
AcDbBlockBegin
  2
*D23
 70
     1
 10
0.0
 20
0.0
 30
0.0
  3
*D23
  1

  0
LINE
  5
15FB9
330
15A7F
100
AcDbEntity
  8
寸法
 62
     0
 48
50.0
370
    -2
100
AcDbLine
 10
11819.41614587635
 20
5398.806328044404
 30
0.0
 11
11819.41614587635
 21
6100.63810281567
 31
0.0
  0
LINE
  5
15FBA
330
15A7F
100
AcDbEntity
  8
寸法
 62
     0
 48
50.0
370
    -2
100
AcDbLine
 10
10149.41614587635
 20
5453.806328044407
 30
0.0
 11
10149.41614587635
 21
6100.63810281567
 31
0.0
  0
LINE
  5
15FBB
330
15A7F
100
AcDbEntity
  8
寸法
 62
     0
 48
50.0
370
    -2
100
AcDbLine
 10
11819.41614587635
 20
6040.63810281567
 30
0.0
 11
10149.41614587635
 21
6040.63810281567
 31
0.0
  0
INSERT
  5
15FBC
330
15A7F
100
AcDbEntity
  8
寸法
 62
     0
 48
50.0
370
    -2
100
AcDbBlockReference
  2
_DOTSMALL
 10
11819.41614587635
 20
6040.63810281567
 30
0.0
 41
100.0
 42
100.0
 43
100.0
  0
INSERT
  5
15FBD
330
15A7F
100
AcDbEntity
  8
寸法
 62
     0
 48
50.0
370
    -2
100
AcDbBlockReference
  2
_DOTSMALL
 10
10149.41614587635
 20
6040.63810281567
 30
0.0
 41
100.0
 42
100.0
 43
100.0
 50
180.0
  0
MTEXT
  5
15FBE
330
15A7F
100
AcDbEntity
  8
寸法
 62
     7
 48
50.0
100
AcDbMText
 10
11036.54097557817
 20
6140.63810281567
 30
0.0
 40
120.0
 41
0.0
 71
     5
 72
     1
  1
\A1;1670
  7
STYLE1
 73
     1
 44
1.0
1001
ACAD
1000
MTEXTBEGIN
1070
    73
1070
     1
1070
    44
1040
1.0
1070
    74
1070
     0
1000
MTEXTEND
  0
POINT
  5
15FBF
330
15A7F
100
AcDbEntity
  8
DEFPOINTS
 62
     0
 48
50.0
100
AcDbPoint
 10
11819.41614587635
 20
5378.806328044404
 30
0.0
  0
POINT
  5
15FC0
330
15A7F
100
AcDbEntity
  8
DEFPOINTS
 62
     0
 48
50.0
100
AcDbPoint
 10
10149.41614587635
 20
5433.806328044408
 30
0.0
  0
POINT
  5
15FC1
330
15A7F
100
AcDbEntity
  8
DEFPOINTS
 62
     0
 48
50.0
100
AcDbPoint
 10
10149.41614587635
 20
6040.63810281567
 30
0.0
  0
ENDBLK
  5
15A8A
330
15A7F
100
AcDbEntity
  8
0
 48
50.0
100
AcDbBlockEnd
  0
BLOCK
  5
15A97
330
15A8B
100
AcDbEntity
  8
0
 48
50.0
100
AcDbBlockBegin
  2
*D24
 70
     1
 10
0.0
 20
0.0
 30
0.0
  3
*D24
  1

  0
LINE
  5
15FAE
330
15A8B
100
AcDbEntity
  8
寸法
 62
     0
 48
50.0
370
    -2
100
AcDbLine
 10
10209.41614587635
 20
5449.807946167378
 30
0.0
 11
10209.41614587635
 21
5892.463781623707
 31
0.0
  0
LINE
  5
15FAF
330
15A8B
100
AcDbEntity
  8
寸法
 62
     0
 48
50.0
370
    -2
100
AcDbLine
 10
10149.41614587635
 20
5453.806328044407
 30
0.0
 11
10149.41614587635
 21
5892.463781623707
 31
0.0
  0
LINE
  5
15FB0
330
15A8B
100
AcDbEntity
  8
寸法
 62
     0
 48
50.0
370
    -2
100
AcDbLine
 10
10209.41614587635
 20
5832.463781623706
 30
0.0
 11
10309.41614587635
 21
5832.463781623706
 31
0.0
  0
LINE
  5
15FB1
330
15A8B
100
AcDbEntity
  8
寸法
 62
     0
 48
50.0
370
    -2
100
AcDbLine
 10
10149.41614587635
 20
5832.463781623706
 30
0.0
 11
9730.140555325171
 21
5832.463781623706
 31
0.0
  0
LINE
  5
15FB2
330
15A8B
100
AcDbEntity
  8
寸法
 62
     0
 48
50.0
370
    -2
100
AcDbLine
 10
10209.41614587635
 20
5832.463781623706
 30
0.0
 11
10149.41614587635
 21
5832.463781623706
 31
0.0
  0
INSERT
  5
15FB3
330
15A8B
100
AcDbEntity
  8
寸法
 62
     0
 48
50.0
370
    -2
100
AcDbBlockReference
  2
_DOTSMALL
 10
10209.41614587635
 20
5832.463781623706
 30
0.0
 41
100.0
 42
100.0
 43
100.0
 50
180.0
  0
INSERT
  5
15FB4
330
15A8B
100
AcDbEntity
  8
寸法
 62
     0
 48
50.0
370
    -2
100
AcDbBlockReference
  2
_DOTSMALL
 10
10149.41614587635
 20
5832.463781623706
 30
0.0
 41
100.0
 42
100.0
 43
100.0
  0
MTEXT
  5
15FB5
330
15A8B
100
AcDbEntity
  8
寸法
 62
     7
 48
50.0
100
AcDbMText
 10
9839.778350600759
 20
5932.463781623706
 30
0.0
 40
120.0
 41
0.0
 71
     5
 72
     1
  1
\A1;60
  7
STYLE1
 73
     1
 44
1.0
1001
ACAD
1000
MTEXTBEGIN
1070
    73
1070
     1
1070
    44
1040
1.0
1070
    74
1070
     0
1000
MTEXTEND
  0
POINT
  5
15FB6
330
15A8B
100
AcDbEntity
  8
DEFPOINTS
 62
     0
 48
50.0
100
AcDbPoint
 10
10209.41614587635
 20
5429.807946167379
 30
0.0
  0
POINT
  5
15FB7
330
15A8B
100
AcDbEntity
  8
DEFPOINTS
 62
     0
 48
50.0
100
AcDbPoint
 10
10149.41614587635
 20
5433.806328044408
 30
0.0
  0
POINT
  5
15FB8
330
15A8B
100
AcDbEntity
  8
DEFPOINTS
 62
     0
 48
50.0
100
AcDbPoint
 10
10149.41614587635
 20
5832.463781623706
 30
0.0
  0
ENDBLK
  5
15A98
330
15A8B
100
AcDbEntity
  8
0
 48
50.0
100
AcDbBlockEnd
  0
BLOCK
  5
15AA3
330
15A99
100
AcDbEntity
  8
0
 48
50.0
100
AcDbBlockBegin
  2
*D25
 70
     1
 10
0.0
 20
0.0
 30
0.0
  3
*D25
  1

  0
LINE
  5
15FA5
330
15A99
100
AcDbEntity
  8
寸法
 62
     0
 48
50.0
370
    -2
100
AcDbLine
 10
11739.41614587635
 20
5400.617007656055
 30
0.0
 11
11739.41614587635
 21
5892.463781623707
 31
0.0
  0
LINE
  5
15FA6
330
15A99
100
AcDbEntity
  8
寸法
 62
     0
 48
50.0
370
    -2
100
AcDbLine
 10
10209.41614587635
 20
5449.807946167378
 30
0.0
 11
10209.41614587635
 21
5892.463781623707
 31
0.0
  0
LINE
  5
15FA7
330
15A99
100
AcDbEntity
  8
寸法
 62
     0
 48
50.0
370
    -2
100
AcDbLine
 10
11739.41614587635
 20
5832.463781623706
 30
0.0
 11
10209.41614587635
 21
5832.463781623706
 31
0.0
  0
INSERT
  5
15FA8
330
15A99
100
AcDbEntity
  8
寸法
 62
     0
 48
50.0
370
    -2
100
AcDbBlockReference
  2
_DOTSMALL
 10
11739.41614587635
 20
5832.463781623706
 30
0.0
 41
100.0
 42
100.0
 43
100.0
  0
INSERT
  5
15FA9
330
15A99
100
AcDbEntity
  8
寸法
 62
     0
 48
50.0
370
    -2
100
AcDbBlockReference
  2
_DOTSMALL
 10
10209.41614587635
 20
5832.463781623706
 30
0.0
 41
100.0
 42
100.0
 43
100.0
 50
180.0
  0
MTEXT
  5
15FAA
330
15A99
100
AcDbEntity
  8
寸法
 62
     7
 48
50.0
100
AcDbMText
 10
11019.23517876689
 20
5932.463781623706
 30
0.0
 40
120.0
 41
0.0
 71
     5
 72
     1
  1
\A1;柱外寸法1530
  7
STYLE1
 73
     1
 44
1.0
1001
ACAD
1000
MTEXTBEGIN
1070
    73
1070
     1
1070
    44
1040
1.0
1070
    74
1070
     0
1000
MTEXTEND
  0
POINT
  5
15FAB
330
15A99
100
AcDbEntity
  8
DEFPOINTS
 62
     0
 48
50.0
100
AcDbPoint
 10
11739.41614587635
 20
5380.617007656056
 30
0.0
  0
POINT
  5
15FAC
330
15A99
100
AcDbEntity
  8
DEFPOINTS
 62
     0
 48
50.0
100
AcDbPoint
 10
10209.41614587635
 20
5429.807946167379
 30
0.0
  0
POINT
  5
15FAD
330
15A99
100
AcDbEntity
  8
DEFPOINTS
 62
     0
 48
50.0
100
AcDbPoint
 10
10209.41614587635
 20
5832.463781623706
 30
0.0
  0
ENDBLK
  5
15AA4
330
15A99
100
AcDbEntity
  8
0
 48
50.0
100
AcDbBlockEnd
  0
BLOCK
  5
15AAF
330
15AA5
100
AcDbEntity
  8
0
 48
50.0
100
AcDbBlockBegin
  2
*D26
 70
     1
 10
0.0
 20
0.0
 30
0.0
  3
*D26
  1

  0
LINE
  5
15F9C
330
15AA5
100
AcDbEntity
  8
寸法
 62
     0
 48
50.0
370
    -2
100
AcDbLine
 10
11759.41614587635
 20
3358.806328044405
 30
0.0
 11
12504.34330384847
 21
3358.806328044405
 31
0.0
  0
LINE
  5
15F9D
330
15AA5
100
AcDbEntity
  8
寸法
 62
     0
 48
50.0
370
    -2
100
AcDbLine
 10
11839.41614587635
 20
5378.806328044404
 30
0.0
 11
12504.34330384848
 21
5378.806328044404
 31
0.0
  0
LINE
  5
15F9E
330
15AA5
100
AcDbEntity
  8
寸法
 62
     0
 48
50.0
370
    -2
100
AcDbLine
 10
12444.34330384847
 20
3358.806328044405
 30
0.0
 11
12444.34330384848
 21
5378.806328044404
 31
0.0
  0
INSERT
  5
15F9F
330
15AA5
100
AcDbEntity
  8
寸法
 62
     0
 48
50.0
370
    -2
100
AcDbBlockReference
  2
_DOTSMALL
 10
12444.34330384847
 20
3358.806328044405
 30
0.0
 41
100.0
 42
100.0
 43
100.0
 50
270.0
  0
INSERT
  5
15FA0
330
15AA5
100
AcDbEntity
  8
寸法
 62
     0
 48
50.0
370
    -2
100
AcDbBlockReference
  2
_DOTSMALL
 10
12444.34330384848
 20
5378.806328044404
 30
0.0
 41
100.0
 42
100.0
 43
100.0
 50
90.0
  0
MTEXT
  5
15FA1
330
15AA5
100
AcDbEntity
  8
寸法
 62
     7
 48
50.0
100
AcDbMText
 10
12344.33149282485
 20
4368.806328044406
 30
0.0
 40
120.0
 41
0.0
 71
     5
 72
     1
  1
\A1;2020
  7
STYLE1
 11
0.0000000000000001
 21
1.0
 31
0.0
 73
     1
 44
1.0
1001
ACAD
1000
MTEXTBEGIN
1070
    73
1070
     1
1070
    44
1040
1.0
1070
    74
1070
     0
1000
MTEXTEND
  0
POINT
  5
15FA2
330
15AA5
100
AcDbEntity
  8
DEFPOINTS
 62
     0
 48
50.0
100
AcDbPoint
 10
11739.41614587635
 20
3358.806328044405
 30
0.0
  0
POINT
  5
15FA3
330
15AA5
100
AcDbEntity
  8
DEFPOINTS
 62
     0
 48
50.0
100
AcDbPoint
 10
11819.41614587635
 20
5378.806328044404
 30
0.0
  0
POINT
  5
15FA4
330
15AA5
100
AcDbEntity
  8
DEFPOINTS
 62
     0
 48
50.0
100
AcDbPoint
 10
12444.34330384848
 20
5378.806328044404
 30
0.0
  0
ENDBLK
  5
15AB0
330
15AA5
100
AcDbEntity
  8
0
 48
50.0
100
AcDbBlockEnd
  0
BLOCK
  5
15ABD
330
15AB1
100
AcDbEntity
  8
0
 48
50.0
100
AcDbBlockBegin
  2
*D27
 70
     1
 10
0.0
 20
0.0
 30
0.0
  3
*D27
  1

  0
LINE
  5
15F91
330
15AB1
100
AcDbEntity
  8
寸法
 62
     0
 48
50.0
370
    -2
100
AcDbLine
 10
10182.41377583157
 20
3408.806328044406
 30
0.0
 11
9547.453055184146
 21
3408.806328044406
 31
0.0
  0
LINE
  5
15F92
330
15AB1
100
AcDbEntity
  8
寸法
 62
     0
 48
50.0
370
    -2
100
AcDbLine
 10
10134.41614587635
 20
3358.806328044405
 30
0.0
 11
9547.453055184146
 21
3358.806328044405
 31
0.0
  0
LINE
  5
15F93
330
15AB1
100
AcDbEntity
  8
寸法
 62
     0
 48
50.0
370
    -2
100
AcDbLine
 10
9607.453055184146
 20
3408.806328044406
 30
0.0
 11
9607.453055184146
 21
3508.806328044406
 31
0.0
  0
LINE
  5
15F94
330
15AB1
100
AcDbEntity
  8
寸法
 62
     0
 48
50.0
370
    -2
100
AcDbLine
 10
9607.453055184146
 20
3358.806328044405
 30
0.0
 11
9607.453055184146
 21
2946.711839855424
 31
0.0
  0
LINE
  5
15F95
330
15AB1
100
AcDbEntity
  8
寸法
 62
     0
 48
50.0
370
    -2
100
AcDbLine
 10
9607.453055184146
 20
3408.806328044406
 30
0.0
 11
9607.453055184146
 21
3358.806328044405
 31
0.0
  0
INSERT
  5
15F96
330
15AB1
100
AcDbEntity
  8
寸法
 62
     0
 48
50.0
370
    -2
100
AcDbBlockReference
  2
_DOTSMALL
 10
9607.453055184146
 20
3408.806328044406
 30
0.0
 41
100.0
 42
100.0
 43
100.0
 50
270.0
  0
INSERT
  5
15F97
330
15AB1
100
AcDbEntity
  8
寸法
 62
     0
 48
50.0
370
    -2
100
AcDbBlockReference
  2
_DOTSMALL
 10
9607.453055184146
 20
3358.806328044405
 30
0.0
 41
100.0
 42
100.0
 43
100.0
 50
90.0
  0
MTEXT
  5
15F98
330
15AB1
100
AcDbEntity
  8
寸法
 62
     7
 48
50.0
100
AcDbMText
 10
9507.453055184145
 20
3052.759083949914
 30
0.0
 40
120.0
 41
0.0
 71
     5
 72
     1
  1
\A1;50
  7
STYLE1
 11
0.0000000000000001
 21
1.0
 31
0.0
 73
     1
 44
1.0
1001
ACAD
1000
MTEXTBEGIN
1070
    73
1070
     1
1070
    44
1040
1.0
1070
    74
1070
     0
1000
MTEXTEND
  0
POINT
  5
15F99
330
15AB1
100
AcDbEntity
  8
DEFPOINTS
 62
     0
 48
50.0
100
AcDbPoint
 10
10202.41377583157
 20
3408.806328044406
 30
0.0
  0
POINT
  5
15F9A
330
15AB1
100
AcDbEntity
  8
DEFPOINTS
 62
     0
 48
50.0
100
AcDbPoint
 10
10154.41614587635
 20
3358.806328044405
 30
0.0
  0
POINT
  5
15F9B
330
15AB1
100
AcDbEntity
  8
DEFPOINTS
 62
     0
 48
50.0
100
AcDbPoint
 10
9607.453055184146
 20
3358.806328044405
 30
0.0
  0
ENDBLK
  5
15ABE
330
15AB1
100
AcDbEntity
  8
0
 48
50.0
100
AcDbBlockEnd
  0
BLOCK
  5
15AC9
330
15ABF
100
AcDbEntity
  8
0
 48
50.0
100
AcDbBlockBegin
  2
*D28
 70
     1
 10
0.0
 20
0.0
 30
0.0
  3
*D28
  1

  0
LINE
  5
15F88
330
15ABF
100
AcDbEntity
  8
寸法
 62
     0
 48
50.0
370
    -2
100
AcDbLine
 10
10189.41614587635
 20
3358.806328044405
 30
0.0
 11
9245.144334235869
 21
3358.806328044405
 31
0.0
  0
LINE
  5
15F89
330
15ABF
100
AcDbEntity
  8
寸法
 62
     0
 48
50.0
370
    -2
100
AcDbLine
 10
10129.41614587635
 20
5433.806328044408
 30
0.0
 11
9245.144334235872
 21
5433.806328044408
 31
0.0
  0
LINE
  5
15F8A
330
15ABF
100
AcDbEntity
  8
寸法
 62
     0
 48
50.0
370
    -2
100
AcDbLine
 10
9305.144334235869
 20
3358.806328044405
 30
0.0
 11
9305.144334235871
 21
5433.806328044408
 31
0.0
  0
INSERT
  5
15F8B
330
15ABF
100
AcDbEntity
  8
寸法
 62
     0
 48
50.0
370
    -2
100
AcDbBlockReference
  2
_DOTSMALL
 10
9305.144334235869
 20
3358.806328044405
 30
0.0
 41
100.0
 42
100.0
 43
100.0
 50
270.0
  0
INSERT
  5
15F8C
330
15ABF
100
AcDbEntity
  8
寸法
 62
     0
 48
50.0
370
    -2
100
AcDbBlockReference
  2
_DOTSMALL
 10
9305.144334235871
 20
5433.806328044408
 30
0.0
 41
100.0
 42
100.0
 43
100.0
 50
90.0
  0
MTEXT
  5
15F8D
330
15ABF
100
AcDbEntity
  8
寸法
 62
     7
 48
50.0
100
AcDbMText
 10
9205.132523212247
 20
4334.013318464205
 30
0.0
 40
120.0
 41
0.0
 71
     5
 72
     1
  1
\A1;2075
  7
STYLE1
 11
0.0000000000000001
 21
1.0
 31
0.0
 73
     1
 44
1.0
1001
ACAD
1000
MTEXTBEGIN
1070
    73
1070
     1
1070
    44
1040
1.0
1070
    74
1070
     0
1000
MTEXTEND
  0
POINT
  5
15F8E
330
15ABF
100
AcDbEntity
  8
DEFPOINTS
 62
     0
 48
50.0
100
AcDbPoint
 10
10209.41614587635
 20
3358.806328044405
 30
0.0
  0
POINT
  5
15F8F
330
15ABF
100
AcDbEntity
  8
DEFPOINTS
 62
     0
 48
50.0
100
AcDbPoint
 10
10149.41614587635
 20
5433.806328044408
 30
0.0
  0
POINT
  5
15F90
330
15ABF
100
AcDbEntity
  8
DEFPOINTS
 62
     0
 48
50.0
100
AcDbPoint
 10
9305.144334235871
 20
5433.806328044408
 30
0.0
  0
ENDBLK
  5
15ACA
330
15ABF
100
AcDbEntity
  8
0
 48
50.0
100
AcDbBlockEnd
  0
BLOCK
  5
15DF3
330
15DE9
100
AcDbEntity
  8
0
 48
50.0
100
AcDbBlockBegin
  2
*D29
 70
     1
 10
0.0
 20
0.0
 30
0.0
  3
*D29
  1

  0
LINE
  5
160C0
330
15DE9
100
AcDbEntity
  8
寸法
 62
     0
 48
50.0
370
    -2
100
AcDbLine
 10
5946.18525614497
 20
9180.495508130269
 30
0.0
 11
5881.328928425076
 21
8938.448397887285
 31
0.0
  0
LINE
  5
160C1
330
15DE9
100
AcDbEntity
  8
寸法
 62
     0
 48
50.0
370
    -2
100
AcDbLine
 10
6838.185256144981
 20
9180.495508130265
 30
0.0
 11
6773.328928425087
 21
8938.448397887285
 31
0.0
  0
LINE
  5
160C2
330
15DE9
100
AcDbEntity
  8
寸法
 62
     0
 48
50.0
370
    -2
100
AcDbLine
 10
5897.405879970943
 20
8998.448397887285
 30
0.0
 11
6789.405879970954
 21
8998.448397887285
 31
0.0
  0
MTEXT
  5
160C3
330
15DE9
100
AcDbEntity
  8
寸法
 62
     7
 48
50.0
100
AcDbMText
 10
6442.670054769514
 20
9101.732513280282
 30
0.0
 40
120.0
 41
0.0
 71
     5
 72
     1
  1
\A1;892
  7
STYLE1
 73
     1
 44
1.0
1001
ACAD
1000
MTEXTBEGIN
1070
    73
1070
     1
1070
    44
1040
1.0
1070
    74
1070
     0
1000
MTEXTEND
  0
INSERT
  5
160C4
330
15DE9
100
AcDbEntity
  8
寸法
 62
     0
 48
50.0
370
    -2
100
AcDbBlockReference
  2
_DOTSMALL
 10
5897.405879970943
 20
8998.448397887285
 30
0.0
 41
100.0
 42
100.0
 43
100.0
 50
180.0
  0
INSERT
  5
160C5
330
15DE9
100
AcDbEntity
  8
寸法
 62
     0
 48
50.0
370
    -2
100
AcDbBlockReference
  2
_DOTSMALL
 10
6789.405879970954
 20
8998.448397887285
 30
0.0
 41
100.0
 42
100.0
 43
100.0
  0
POINT
  5
160C6
330
15DE9
100
AcDbEntity
  8
DEFPOINTS
 62
     0
 48
50.0
100
AcDbPoint
 10
5951.544239993593
 20
9200.495508130268
 30
0.0
  0
POINT
  5
160C7
330
15DE9
100
AcDbEntity
  8
DEFPOINTS
 62
     0
 48
50.0
100
AcDbPoint
 10
6843.544239993604
 20
9200.495508130265
 30
0.0
  0
POINT
  5
160C8
330
15DE9
100
AcDbEntity
  8
DEFPOINTS
 62
     0
 48
50.0
100
AcDbPoint
 10
6789.405879970954
 20
8998.448397887285
 30
0.0
  0
ENDBLK
  5
15DF4
330
15DE9
100
AcDbEntity
  8
0
 48
50.0
100
AcDbBlockEnd
  0
BLOCK
  5
15DFF
330
15DF5
100
AcDbEntity
  8
0
 48
50.0
100
AcDbBlockBegin
  2
*D30
 70
     1
 10
0.0
 20
0.0
 30
0.0
  3
*D30
  1

  0
LINE
  5
160C9
330
15DF5
100
AcDbEntity
  8
寸法
 62
     0
 48
50.0
370
    -2
100
AcDbLine
 10
6896.185256144971
 20
9180.495508130269
 30
0.0
 11
6831.328928425076
 21
8938.448397887285
 31
0.0
  0
LINE
  5
160CA
330
15DF5
100
AcDbEntity
  8
寸法
 62
     0
 48
50.0
370
    -2
100
AcDbLine
 10
7788.185256144982
 20
9180.495508130265
 30
0.0
 11
7723.328928425087
 21
8938.448397887285
 31
0.0
  0
LINE
  5
160CB
330
15DF5
100
AcDbEntity
  8
寸法
 62
     0
 48
50.0
370
    -2
100
AcDbLine
 10
6847.405879970942
 20
8998.448397887285
 30
0.0
 11
7739.405879970956
 21
8998.448397887285
 31
0.0
  0
MTEXT
  5
160CC
330
15DF5
100
AcDbEntity
  8
寸法
 62
     7
 48
50.0
100
AcDbMText
 10
7386.198891875269
 20
9103.533673663815
 30
0.0
 40
120.0
 41
0.0
 71
     5
 72
     1
  1
\A1;892
  7
STYLE1
 73
     1
 44
1.0
1001
ACAD
1000
MTEXTBEGIN
1070
    73
1070
     1
1070
    44
1040
1.0
1070
    74
1070
     0
1000
MTEXTEND
  0
INSERT
  5
160CD
330
15DF5
100
AcDbEntity
  8
寸法
 62
     0
 48
50.0
370
    -2
100
AcDbBlockReference
  2
_DOTSMALL
 10
6847.405879970942
 20
8998.448397887285
 30
0.0
 41
100.0
 42
100.0
 43
100.0
 50
180.0
  0
INSERT
  5
160CE
330
15DF5
100
AcDbEntity
  8
寸法
 62
     0
 48
50.0
370
    -2
100
AcDbBlockReference
  2
_DOTSMALL
 10
7739.405879970956
 20
8998.448397887285
 30
0.0
 41
100.0
 42
100.0
 43
100.0
  0
POINT
  5
160CF
330
15DF5
100
AcDbEntity
  8
DEFPOINTS
 62
     0
 48
50.0
100
AcDbPoint
 10
6901.544239993594
 20
9200.495508130268
 30
0.0
  0
POINT
  5
160D0
330
15DF5
100
AcDbEntity
  8
DEFPOINTS
 62
     0
 48
50.0
100
AcDbPoint
 10
7793.544239993604
 20
9200.495508130265
 30
0.0
  0
POINT
  5
160D1
330
15DF5
100
AcDbEntity
  8
DEFPOINTS
 62
     0
 48
50.0
100
AcDbPoint
 10
7739.405879970956
 20
8998.448397887285
 30
0.0
  0
ENDBLK
  5
15E00
330
15DF5
100
AcDbEntity
  8
0
 48
50.0
100
AcDbBlockEnd
  0
BLOCK
  5
15E1F
330
15E15
100
AcDbEntity
  8
0
 48
50.0
100
AcDbBlockBegin
  2
*D31
 70
     1
 10
0.0
 20
0.0
 30
0.0
  3
*D31
  1

  0
LINE
  5
160B7
330
15E15
100
AcDbEntity
  8
寸法
 62
     0
 48
50.0
370
    -2
100
AcDbLine
 10
4996.18525614497
 20
9180.495508130269
 30
0.0
 11
4931.328928425076
 21
8938.448397887285
 31
0.0
  0
LINE
  5
160B8
330
15E15
100
AcDbEntity
  8
寸法
 62
     0
 48
50.0
370
    -2
100
AcDbLine
 10
5888.185256144982
 20
9180.495508130265
 30
0.0
 11
5823.328928425087
 21
8938.448397887285
 31
0.0
  0
LINE
  5
160B9
330
15E15
100
AcDbEntity
  8
寸法
 62
     0
 48
50.0
370
    -2
100
AcDbLine
 10
4947.405879970943
 20
8998.448397887285
 30
0.0
 11
5839.405879970954
 21
8998.448397887285
 31
0.0
  0
MTEXT
  5
160BA
330
15E15
100
AcDbEntity
  8
寸法
 62
     7
 48
50.0
100
AcDbMText
 10
5492.670054769515
 20
9101.732513280282
 30
0.0
 40
120.0
 41
0.0
 71
     5
 72
     1
  1
\A1;892
  7
STYLE1
 73
     1
 44
1.0
1001
ACAD
1000
MTEXTBEGIN
1070
    73
1070
     1
1070
    44
1040
1.0
1070
    74
1070
     0
1000
MTEXTEND
  0
INSERT
  5
160BB
330
15E15
100
AcDbEntity
  8
寸法
 62
     0
 48
50.0
370
    -2
100
AcDbBlockReference
  2
_DOTSMALL
 10
4947.405879970943
 20
8998.448397887285
 30
0.0
 41
100.0
 42
100.0
 43
100.0
 50
180.0
  0
INSERT
  5
160BC
330
15E15
100
AcDbEntity
  8
寸法
 62
     0
 48
50.0
370
    -2
100
AcDbBlockReference
  2
_DOTSMALL
 10
5839.405879970954
 20
8998.448397887285
 30
0.0
 41
100.0
 42
100.0
 43
100.0
  0
POINT
  5
160BD
330
15E15
100
AcDbEntity
  8
DEFPOINTS
 62
     0
 48
50.0
100
AcDbPoint
 10
5001.544239993592
 20
9200.495508130268
 30
0.0
  0
POINT
  5
160BE
330
15E15
100
AcDbEntity
  8
DEFPOINTS
 62
     0
 48
50.0
100
AcDbPoint
 10
5893.544239993603
 20
9200.495508130265
 30
0.0
  0
POINT
  5
160BF
330
15E15
100
AcDbEntity
  8
DEFPOINTS
 62
     0
 48
50.0
100
AcDbPoint
 10
5839.405879970954
 20
8998.448397887285
 30
0.0
  0
ENDBLK
  5
15E20
330
15E15
100
AcDbEntity
  8
0
 48
50.0
100
AcDbBlockEnd
  0
BLOCK
  5
15E45
330
15E3B
100
AcDbEntity
  8
0
 48
50.0
100
AcDbBlockBegin
  2
*D32
 70
     1
 10
0.0
 20
0.0
 30
0.0
  3
*D32
  1

  0
LINE
  5
15F76
330
15E3B
100
AcDbEntity
  8
寸法
 62
     0
 48
50.0
370
    -2
100
AcDbLine
 10
4922.544233315966
 20
5453.806328044409
 30
0.0
 11
4922.544233315966
 21
5929.304891740496
 31
0.0
  0
LINE
  5
15F77
330
15E3B
100
AcDbEntity
  8
寸法
 62
     0
 48
50.0
370
    -2
100
AcDbLine
 10
7872.54423331597
 20
5453.806328044404
 30
0.0
 11
7872.54423331597
 21
5929.304891740496
 31
0.0
  0
LINE
  5
15F78
330
15E3B
100
AcDbEntity
  8
寸法
 62
     0
 48
50.0
370
    -2
100
AcDbLine
 10
4922.544233315966
 20
5869.304891740496
 30
0.0
 11
7872.54423331597
 21
5869.304891740496
 31
0.0
  0
INSERT
  5
15F79
330
15E3B
100
AcDbEntity
  8
寸法
 62
     0
 48
50.0
370
    -2
100
AcDbBlockReference
  2
_DOTSMALL
 10
4922.544233315966
 20
5869.304891740496
 30
0.0
 41
100.0
 42
100.0
 43
100.0
 50
180.0
  0
INSERT
  5
15F7A
330
15E3B
100
AcDbEntity
  8
寸法
 62
     0
 48
50.0
370
    -2
100
AcDbBlockReference
  2
_DOTSMALL
 10
7872.54423331597
 20
5869.304891740496
 30
0.0
 41
100.0
 42
100.0
 43
100.0
  0
MTEXT
  5
15F7B
330
15E3B
100
AcDbEntity
  8
寸法
 62
     7
 48
50.0
100
AcDbMText
 10
6397.544233315969
 20
5969.316702764118
 30
0.0
 40
120.0
 41
0.0
 71
     5
 72
     1
  1
\A1;2950
  7
STYLE1
 73
     1
 44
1.0
1001
ACAD
1000
MTEXTBEGIN
1070
    73
1070
     1
1070
    44
1040
1.0
1070
    74
1070
     0
1000
MTEXTEND
  0
POINT
  5
15F7C
330
15E3B
100
AcDbEntity
  8
DEFPOINTS
 62
     0
 48
50.0
100
AcDbPoint
 10
4922.544233315966
 20
5433.806328044409
 30
0.0
  0
POINT
  5
15F7D
330
15E3B
100
AcDbEntity
  8
DEFPOINTS
 62
     0
 48
50.0
100
AcDbPoint
 10
7872.54423331597
 20
5433.806328044404
 30
0.0
  0
POINT
  5
15F7E
330
15E3B
100
AcDbEntity
  8
DEFPOINTS
 62
     0
 48
50.0
100
AcDbPoint
 10
7872.54423331597
 20
5869.304891740496
 30
0.0
  0
ENDBLK
  5
15E46
330
15E3B
100
AcDbEntity
  8
0
 48
50.0
100
AcDbBlockEnd
  0
BLOCK
  5
15E51
330
15E47
100
AcDbEntity
  8
0
 48
50.0
100
AcDbBlockBegin
  2
*D33
 70
     1
 10
0.0
 20
0.0
 30
0.0
  3
*D33
  1

  0
LINE
  5
15F7F
330
15E47
100
AcDbEntity
  8
寸法
 62
     0
 48
50.0
370
    -2
100
AcDbLine
 10
7822.54423331597
 20
5453.806328044406
 30
0.0
 11
7822.54423331597
 21
5706.347913302648
 31
0.0
  0
LINE
  5
15F80
330
15E47
100
AcDbEntity
  8
寸法
 62
     0
 48
50.0
370
    -2
100
AcDbLine
 10
4972.544233315966
 20
5453.806328044411
 30
0.0
 11
4972.544233315966
 21
5706.347913302648
 31
0.0
  0
LINE
  5
15F81
330
15E47
100
AcDbEntity
  8
寸法
 62
     0
 48
50.0
370
    -2
100
AcDbLine
 10
7822.54423331597
 20
5646.347913302649
 30
0.0
 11
4972.544233315966
 21
5646.347913302649
 31
0.0
  0
INSERT
  5
15F82
330
15E47
100
AcDbEntity
  8
寸法
 62
     0
 48
50.0
370
    -2
100
AcDbBlockReference
  2
_DOTSMALL
 10
7822.54423331597
 20
5646.347913302649
 30
0.0
 41
100.0
 42
100.0
 43
100.0
  0
INSERT
  5
15F83
330
15E47
100
AcDbEntity
  8
寸法
 62
     0
 48
50.0
370
    -2
100
AcDbBlockReference
  2
_DOTSMALL
 10
4972.544233315966
 20
5646.347913302649
 30
0.0
 41
100.0
 42
100.0
 43
100.0
 50
180.0
  0
MTEXT
  5
15F84
330
15E47
100
AcDbEntity
  8
寸法
 62
     7
 48
50.0
100
AcDbMText
 10
6397.544233315969
 20
5746.35972432627
 30
0.0
 40
120.0
 41
0.0
 71
     5
 72
     1
  1
\A1;柱外寸法2850
  7
STYLE1
 73
     1
 44
1.0
1001
ACAD
1000
MTEXTBEGIN
1070
    73
1070
     1
1070
    44
1040
1.0
1070
    74
1070
     0
1000
MTEXTEND
  0
POINT
  5
15F85
330
15E47
100
AcDbEntity
  8
DEFPOINTS
 62
     0
 48
50.0
100
AcDbPoint
 10
7822.54423331597
 20
5433.806328044406
 30
0.0
  0
POINT
  5
15F86
330
15E47
100
AcDbEntity
  8
DEFPOINTS
 62
     0
 48
50.0
100
AcDbPoint
 10
4972.544233315966
 20
5433.806328044411
 30
0.0
  0
POINT
  5
15F87
330
15E47
100
AcDbEntity
  8
DEFPOINTS
 62
     0
 48
50.0
100
AcDbPoint
 10
4972.544233315966
 20
5646.347913302649
 30
0.0
  0
ENDBLK
  5
15E52
330
15E47
100
AcDbEntity
  8
0
 48
50.0
100
AcDbBlockEnd
  0
BLOCK
  5
15E5F
330
15E53
100
AcDbEntity
  8
0
 48
50.0
100
AcDbBlockBegin
  2
*D34
 70
     1
 10
0.0
 20
0.0
 30
0.0
  3
*D34
  1

  0
LINE
  5
15F6B
330
15E53
100
AcDbEntity
  8
寸法
 62
     0
 48
50.0
370
    -2
100
AcDbLine
 10
4972.544233315966
 20
5453.806328044411
 30
0.0
 11
4972.544233315966
 21
5706.347913302648
 31
0.0
  0
LINE
  5
15F6C
330
15E53
100
AcDbEntity
  8
寸法
 62
     0
 48
50.0
370
    -2
100
AcDbLine
 10
4922.544233315966
 20
5453.806328044409
 30
0.0
 11
4922.544233315966
 21
5706.347913302648
 31
0.0
  0
LINE
  5
15F6D
330
15E53
100
AcDbEntity
  8
寸法
 62
     0
 48
50.0
370
    -2
100
AcDbLine
 10
4972.544233315966
 20
5646.347913302649
 30
0.0
 11
5072.544233315966
 21
5646.347913302649
 31
0.0
  0
LINE
  5
15F6E
330
15E53
100
AcDbEntity
  8
寸法
 62
     0
 48
50.0
370
    -2
100
AcDbLine
 10
4922.544233315966
 20
5646.347913302649
 30
0.0
 11
4503.011707847231
 21
5646.347913302649
 31
0.0
  0
LINE
  5
15F6F
330
15E53
100
AcDbEntity
  8
寸法
 62
     0
 48
50.0
370
    -2
100
AcDbLine
 10
4972.544233315966
 20
5646.347913302649
 30
0.0
 11
4922.544233315966
 21
5646.347913302649
 31
0.0
  0
INSERT
  5
15F70
330
15E53
100
AcDbEntity
  8
寸法
 62
     0
 48
50.0
370
    -2
100
AcDbBlockReference
  2
_DOTSMALL
 10
4972.544233315966
 20
5646.347913302649
 30
0.0
 41
100.0
 42
100.0
 43
100.0
 50
180.0
  0
INSERT
  5
15F71
330
15E53
100
AcDbEntity
  8
寸法
 62
     0
 48
50.0
370
    -2
100
AcDbBlockReference
  2
_DOTSMALL
 10
4922.544233315966
 20
5646.347913302649
 30
0.0
 41
100.0
 42
100.0
 43
100.0
  0
MTEXT
  5
15F72
330
15E53
100
AcDbEntity
  8
寸法
 62
     7
 48
50.0
100
AcDbMText
 10
4609.058951941719
 20
5746.347913302649
 30
0.0
 40
120.0
 41
0.0
 71
     5
 72
     1
  1
\A1;50
  7
STYLE1
 73
     1
 44
1.0
1001
ACAD
1000
MTEXTBEGIN
1070
    73
1070
     1
1070
    44
1040
1.0
1070
    74
1070
     0
1000
MTEXTEND
  0
POINT
  5
15F73
330
15E53
100
AcDbEntity
  8
DEFPOINTS
 62
     0
 48
50.0
100
AcDbPoint
 10
4972.544233315966
 20
5433.806328044411
 30
0.0
  0
POINT
  5
15F74
330
15E53
100
AcDbEntity
  8
DEFPOINTS
 62
     0
 48
50.0
100
AcDbPoint
 10
4922.544233315966
 20
5433.806328044409
 30
0.0
  0
POINT
  5
15F75
330
15E53
100
AcDbEntity
  8
DEFPOINTS
 62
     0
 48
50.0
100
AcDbPoint
 10
4922.544233315966
 20
5646.347913302649
 30
0.0
  0
ENDBLK
  5
15E60
330
15E53
100
AcDbEntity
  8
0
 48
50.0
100
AcDbBlockEnd
  0
BLOCK
  5
15E95
330
15E89
100
AcDbEntity
  8
0
 48
50.0
100
AcDbBlockBegin
  2
*D35
 70
     1
 10
0.0
 20
0.0
 30
0.0
  3
*D35
  1

  0
LINE
  5
15F60
330
15E89
100
AcDbEntity
  8
寸法
 62
     0
 48
50.0
370
    -2
100
AcDbLine
 10
7872.54423331597
 20
5453.806328044404
 30
0.0
 11
7872.54423331597
 21
5706.347913302645
 31
0.0
  0
LINE
  5
15F61
330
15E89
100
AcDbEntity
  8
寸法
 62
     0
 48
50.0
370
    -2
100
AcDbLine
 10
7822.54423331597
 20
5453.806328044406
 30
0.0
 11
7822.54423331597
 21
5706.347913302645
 31
0.0
  0
LINE
  5
15F62
330
15E89
100
AcDbEntity
  8
寸法
 62
     0
 48
50.0
370
    -2
100
AcDbLine
 10
7822.54423331597
 20
5646.347913302645
 30
0.0
 11
7722.544233315971
 21
5646.347913302645
 31
0.0
  0
LINE
  5
15F63
330
15E89
100
AcDbEntity
  8
寸法
 62
     0
 48
50.0
370
    -2
100
AcDbLine
 10
7872.54423331597
 20
5646.347913302645
 30
0.0
 11
8292.076758784693
 21
5646.347913302645
 31
0.0
  0
LINE
  5
15F64
330
15E89
100
AcDbEntity
  8
寸法
 62
     0
 48
50.0
370
    -2
100
AcDbLine
 10
7822.54423331597
 20
5646.347913302645
 30
0.0
 11
7872.54423331597
 21
5646.347913302645
 31
0.0
  0
INSERT
  5
15F65
330
15E89
100
AcDbEntity
  8
寸法
 62
     0
 48
50.0
370
    -2
100
AcDbBlockReference
  2
_DOTSMALL
 10
7822.54423331597
 20
5646.347913302645
 30
0.0
 41
100.0
 42
100.0
 43
100.0
  0
INSERT
  5
15F66
330
15E89
100
AcDbEntity
  8
寸法
 62
     0
 48
50.0
370
    -2
100
AcDbBlockReference
  2
_DOTSMALL
 10
7872.54423331597
 20
5646.347913302645
 30
0.0
 41
100.0
 42
100.0
 43
100.0
 50
180.0
  0
MTEXT
  5
15F67
330
15E89
100
AcDbEntity
  8
寸法
 62
     7
 48
50.0
100
AcDbMText
 10
8186.029514690206
 20
5746.347913302646
 30
0.0
 40
120.0
 41
0.0
 71
     5
 72
     1
  1
\A1;50
  7
STYLE1
 73
     1
 44
1.0
1001
ACAD
1000
MTEXTBEGIN
1070
    73
1070
     1
1070
    44
1040
1.0
1070
    74
1070
     0
1000
MTEXTEND
  0
POINT
  5
15F68
330
15E89
100
AcDbEntity
  8
DEFPOINTS
 62
     0
 48
50.0
100
AcDbPoint
 10
7872.54423331597
 20
5433.806328044404
 30
0.0
  0
POINT
  5
15F69
330
15E89
100
AcDbEntity
  8
DEFPOINTS
 62
     0
 48
50.0
100
AcDbPoint
 10
7822.54423331597
 20
5433.806328044406
 30
0.0
  0
POINT
  5
15F6A
330
15E89
100
AcDbEntity
  8
DEFPOINTS
 62
     0
 48
50.0
100
AcDbPoint
 10
7822.54423331597
 20
5646.347913302645
 30
0.0
  0
ENDBLK
  5
15E96
330
15E89
100
AcDbEntity
  8
0
 48
50.0
100
AcDbBlockEnd
  0
ENDSEC
  0
SECTION
  2
ENTITIES
  0
LINE
  5
10B56
330
747D
100
AcDbEntity
  8
補助
  6
PHANTOM
 62
   230
 48
50.0
100
AcDbLine
 10
140.0
 20
0.0
 30
0.0
 11
139.9999999999995
 21
11409.6
 31
0.0
  0
LINE
  5
10B57
330
747D
100
AcDbEntity
  8
補助
  6
PHANTOM
 62
   230
 48
50.0
100
AcDbLine
 10
139.9999999999995
 20
11409.6
 30
0.0
 11
16307.2
 21
11409.6
 31
0.0
  0
LINE
  5
10B59
330
747D
100
AcDbEntity
  8
仕様書枠
  6
Continuous
 48
50.0
100
AcDbLine
 10
13107.2
 20
1200.0
 30
0.0
 11
13107.2
 21
-0.0000000000000729
 31
0.0
  0
LINE
  5
10B5C
330
747D
100
AcDbEntity
  8
仕様書枠
 48
50.0
100
AcDbLine
 10
16307.2
 20
1200.0
 30
0.0
 11
16307.2
 21
-0.0000000000000909
 31
0.0
  0
LINE
  5
10B5D
330
747D
100
AcDbEntity
  8
仕様書枠
 48
50.0
100
AcDbLine
 10
140.0
 20
0.0
 30
0.0
 11
16307.2
 21
-0.0000000000000909
 31
0.0
  0
LINE
  5
10B5E
330
747D
100
AcDbEntity
  8
補助
  6
PHANTOM
 62
   230
 48
50.0
100
AcDbLine
 10
16307.2
 20
11409.6
 30
0.0
 11
16307.2
 21
1200.0
 31
0.0
  0
LINE
  5
10B6C
330
747D
100
AcDbEntity
  8
仕様書枠
 48
50.0
100
AcDbLine
 10
13107.2
 20
1200.0
 30
0.0
 11
16307.2
 21
1200.0
 31
0.0
  0
LINE
  5
10B6D
330
747D
100
AcDbEntity
  8
補助
  6
PHANTOM
 62
   230
 48
50.0
100
AcDbLine
 10
13107.2
 20
11409.6
 30
0.0
 11
13107.2
 21
4800.0
 31
0.0
  0
LINE
  5
10B6F
330
747D
100
AcDbEntity
  8
補助
  6
PHANTOM
 62
   230
 48
50.0
100
AcDbLine
 10
13107.2
 20
4800.0
 30
0.0
 11
16307.2
 21
4800.0
 31
0.0
  0
LINE
  5
10B72
330
747D
100
AcDbEntity
  8
文字
 62
     7
 48
50.0
100
AcDbLine
 10
13187.2
 20
400.0
 30
0.0
 11
16227.2
 21
400.0
 31
0.0
  0
TEXT
  5
10B73
330
747D
100
AcDbEntity
  8
文字
 62
     7
 48
50.0
100
AcDbText
 10
13162.9790565769
 20
895.0906074299405
 30
0.0
 40
200.0
  1
外 形 図
  7
STYLE2
100
AcDbText
  0
TEXT
  5
10B74
330
747D
100
AcDbEntity
  8
文字
 62
     7
 48
50.0
100
AcDbText
 10
13201.43669998441
 20
477.2740661031255
 30
0.0
 40
160.0
  1
機種名
  7
STYLE2
100
AcDbText
  0
TEXT
  5
10B75
330
747D
100
AcDbEntity
  8
文字
 62
     7
 48
50.0
100
AcDbText
 10
13209.4053442172
 20
228.5435242569016
 30
0.0
 40
100.0
  1
○有効開口寸法 ： 685×1760(mm)
  7
STYLE2
100
AcDbText
  0
TEXT
  5
10B76
330
747D
100
AcDbEntity
  8
文字
 62
     7
 48
50.0
100
AcDbText
 10
13209.4053442172
 20
76.09434707649343
 30
0.0
 40
100.0
  1
○床面積 ： 4.36㎡(1.32坪) 　
  7
STYLE2
100
AcDbText
  0
TEXT
  5
10B79
330
747D
100
AcDbEntity
  8
文字
 62
     7
 48
50.0
100
AcDbText
 10
14524.131837222
 20
1031.557706291228
 30
0.0
 40
100.0
  1
NO.02     <縮尺> S=1/40
  7
STYLE2
100
AcDbText
  0
LINE
  5
10B7B
330
747D
100
AcDbEntity
  8
仕様書枠
 48
50.0
100
AcDbLine
 10
13107.2
 20
800.0
 30
0.0
 11
14251.2
 21
800.0
 31
0.0
  0
LINE
  5
10B88
330
747D
100
AcDbEntity
  8
仕様書枠
  6
Continuous
 48
50.0
100
AcDbLine
 10
14251.2
 20
1200.0
 30
0.0
 11
14251.2
 21
800.0
 31
0.0
  0
LINE
  5
13A41
330
747D
100
AcDbEntity
  8
Ｇ．Ｌ
100
AcDbLine
 10
4061.171826753743
 20
3258.806328044403
 30
0.0
 11
12644.63374277981
 21
3258.806328044403
 31
0.0
  0
TEXT
  5
13A63
330
747D
100
AcDbEntity
  8
部品1
100
AcDbText
 10
4080.649916124566
 20
3294.913231650304
 30
0.0
 40
125.0
  1
▽G.L
  7
STYLE2
100
AcDbText
  0
LINE
  5
14D05
330
747D
100
AcDbEntity
  8
部品1
100
AcDbLine
 10
5967.544233315965
 20
5196.3063280444
 30
0.0
 11
6677.481785487285
 21
5196.306328044403
 31
0.0
  0
LINE
  5
14D06
330
747D
100
AcDbEntity
  8
部品1
100
AcDbLine
 10
5967.544233315966
 20
3405.306328044416
 30
0.0
 11
6677.481785487285
 21
3405.306328044421
 31
0.0
  0
LINE
  5
14D07
330
747D
100
AcDbEntity
  8
部品1
100
AcDbLine
 10
4972.544233315966
 20
5198.806328044402
 30
0.0
 11
7822.544233315966
 21
5198.806328044402
 31
0.0
  0
LINE
  5
14D0E
330
747D
100
AcDbEntity
  8
部品1
100
AcDbLine
 10
4972.544233315966
 20
3358.806328044403
 30
0.0
 11
7822.544233315966
 21
3358.806328044403
 31
0.0
  0
LINE
  5
14D0F
330
747D
100
AcDbEntity
  8
部品1
100
AcDbLine
 10
4972.544233315966
 20
3401.806328044406
 30
0.0
 11
7822.544233315966
 21
3401.806328044422
 31
0.0
  0
LINE
  5
14D12
330
747D
100
AcDbEntity
  8
部品1
100
AcDbLine
 10
5965.544233315966
 20
5198.806328044402
 30
0.0
 11
5965.544233315966
 21
3401.806328044422
 31
0.0
  0
LINE
  5
14D13
330
747D
100
AcDbEntity
  8
部品1
100
AcDbLine
 10
5967.544233315965
 20
5196.306328044403
 30
0.0
 11
5967.544233315966
 21
3405.306328044416
 31
0.0
  0
LINE
  5
14D14
330
747D
100
AcDbEntity
  8
部品1
100
AcDbLine
 10
5015.544233315966
 20
5198.806328044402
 30
0.0
 11
5015.544233315966
 21
3401.806328044422
 31
0.0
  0
LINE
  5
14D15
330
747D
100
AcDbEntity
  8
部品1
100
AcDbLine
 10
4972.544233315966
 20
5292.806328044406
 30
0.0
 11
4972.544233315966
 21
3258.806328044403
 31
0.0
  0
LINE
  5
14D16
330
747D
100
AcDbEntity
  8
部品1
100
AcDbLine
 10
5017.544233315966
 20
5196.306328044406
 30
0.0
 11
5017.544233315966
 21
3405.306328044408
 31
0.0
  0
LINE
  5
14D17
330
747D
100
AcDbEntity
  8
部品1
100
AcDbLine
 10
5747.544233315965
 20
5196.306328044403
 30
0.0
 11
5747.544233315966
 21
3405.306328044423
 31
0.0
  0
LINE
  5
14D18
330
747D
100
AcDbEntity
  8
部品1
100
AcDbLine
 10
5879.544233315966
 20
5198.806328044402
 30
0.0
 11
5879.544233315966
 21
3401.806328044422
 31
0.0
  0
DIMENSION
  5
14D19
330
747D
100
AcDbEntity
  8
寸法
100
AcDbDimension
  2
*D1
 10
4654.439705708363
 20
3420.306328044406
 30
0.0
 11
4654.439705708362
 21
4299.306328044404
 31
0.0
 70
   160
  1
有効開口部高サ<>
 71
     5
 42
1759.999999999996
  3
INABA_S40G
100
AcDbAlignedDimension
 13
4972.544233315966
 23
5180.306328044402
 33
0.0
 14
4972.544233315966
 24
3420.306328044406
 34
0.0
 50
90.0
100
AcDbRotatedDimension
1001
ACAD
1000
DSTYLE
1002
{
1070
   288
1070
     1
1002
}
  0
LINE
  5
14D1A
330
747D
100
AcDbEntity
  8
部品1
100
AcDbLine
 10
5749.544233315966
 20
5198.806328044402
 30
0.0
 11
5749.544233315966
 21
3401.806328044422
 31
0.0
  0
LINE
  5
14D1B
330
747D
100
AcDbEntity
  8
部品1
100
AcDbLine
 10
5017.544233315966
 20
3405.306328044408
 30
0.0
 11
5727.481785487285
 21
3405.306328044423
 31
0.0
  0
LINE
  5
14D1D
330
747D
100
AcDbEntity
  8
部品1
100
AcDbLine
 10
5747.481785487285
 20
3405.306328044414
 30
0.0
 11
5747.544233315966
 21
3405.306328044414
 31
0.0
  0
LINE
  5
14D1E
330
747D
100
AcDbEntity
  8
部品1
100
AcDbLine
 10
5747.481785487285
 20
3405.306328044423
 30
0.0
 11
5747.544233315966
 21
3405.306328044423
 31
0.0
  0
ARC
  5
14D1F
330
747D
100
AcDbEntity
  8
細線
 48
0.2
100
AcDbCircle
 10
5744.481785487284
 20
3405.085818213173
 30
0.0
 40
1.0
100
AcDbArc
 50
286.6015495990217
 51
0.0
  0
LINE
  5
14D20
330
747D
100
AcDbEntity
  8
細線
 48
50.0
100
AcDbLine
 10
5743.469438338945
 20
3407.556328044423
 30
0.0
 11
5743.469438338945
 21
3409.556328044421
 31
0.0
  0
LINE
  5
14D21
330
747D
100
AcDbEntity
  8
細線
 48
0.1
100
AcDbLine
 10
5747.481785487284
 20
3405.056328044421
 30
0.0
 11
5747.481785487284
 21
3412.056328044421
 31
0.0
  0
LINE
  5
14D22
330
747D
100
AcDbEntity
  8
細線
 48
50.0
100
AcDbLine
 10
5727.481785487285
 20
3405.306328044423
 30
0.0
 11
5727.481785487285
 21
3405.056328044421
 31
0.0
  0
ARC
  5
14D23
330
747D
100
AcDbEntity
  8
細線
 48
0.2
100
AcDbCircle
 10
5734.481785487284
 20
3405.085818213173
 30
0.0
 40
1.0
100
AcDbArc
 50
179.9999999999984
 51
253.3984504009775
  0
LINE
  5
14D24
330
747D
100
AcDbEntity
  8
部品1
 48
50.0
100
AcDbLine
 10
5727.481785487285
 20
3412.056328044421
 30
0.0
 11
5727.481785487285
 21
3405.306328044423
 31
0.0
  0
LINE
  5
14D25
330
747D
100
AcDbEntity
  8
細線
 48
50.0
100
AcDbLine
 10
5735.619028292981
 20
3407.556328044423
 30
0.0
 11
5735.619028292982
 21
3409.556328044421
 31
0.0
  0
LINE
  5
14D26
330
747D
100
AcDbEntity
  8
部品1
 48
0.2
100
AcDbLine
 10
5747.481785487284
 20
3412.056328044421
 30
0.0
 11
5727.481785487285
 21
3412.056328044421
 31
0.0
  0
LINE
  5
14D27
330
747D
100
AcDbEntity
  8
細線
 48
0.2
100
AcDbLine
 10
5747.481785487284
 20
3409.556328044421
 30
0.0
 11
5727.481785487285
 21
3409.556328044421
 31
0.0
  0
LINE
  5
14D28
330
747D
100
AcDbEntity
  8
細線
 48
0.2
100
AcDbLine
 10
5745.165776783792
 20
3404.35632804442
 30
0.0
 11
5733.79779419078
 21
3404.35632804442
 31
0.0
  0
ARC
  5
14D29
330
747D
100
AcDbEntity
  8
細線
 48
0.2
100
AcDbCircle
 10
5739.481785487285
 20
3421.856328044418
 30
0.0
 40
18.49999999999796
100
AcDbArc
 50
253.3984504009772
 51
286.6015495990217
  0
LINE
  5
14D2A
330
747D
100
AcDbEntity
  8
細線
 48
0.2
100
AcDbLine
 10
5747.481785487284
 20
3407.556328044421
 30
0.0
 11
5727.481785487285
 21
3407.556328044423
 31
0.0
  0
LINE
  5
14D2B
330
747D
100
AcDbEntity
  8
細線
 48
0.2
100
AcDbLine
 10
5747.481785487284
 20
3405.056328044421
 30
0.0
 11
5727.481785487285
 21
3405.056328044421
 31
0.0
  0
LINE
  5
14D7D
330
747D
100
AcDbEntity
  8
部品1
100
AcDbLine
 10
5017.544233315966
 20
5196.306328044403
 30
0.0
 11
5727.481785487285
 21
5196.306328044403
 31
0.0
  0
LINE
  5
14D97
330
747D
100
AcDbEntity
  8
部品1
100
AcDbLine
 10
5747.481785487285
 20
5196.306328044403
 30
0.0
 11
5747.544233315966
 21
5196.306328044403
 31
0.0
  0
ARC
  5
14D98
330
747D
100
AcDbEntity
  8
細線
 48
0.2
100
AcDbCircle
 10
5744.481785487284
 20
5196.526837875651
 30
0.0
 40
1.0
100
AcDbArc
 50
0.0
 51
73.39845040097829
  0
LINE
  5
14D99
330
747D
100
AcDbEntity
  8
細線
 48
50.0
100
AcDbLine
 10
5727.481785487285
 20
5196.306328044403
 30
0.0
 11
5727.481785487285
 21
5196.556328044404
 31
0.0
  0
ARC
  5
14D9A
330
747D
100
AcDbEntity
  8
細線
 48
0.2
100
AcDbCircle
 10
5734.481785487284
 20
5196.526837875651
 30
0.0
 40
1.0
100
AcDbArc
 50
106.6015495990225
 51
180.0000000000016
  0
LINE
  5
14D9B
330
747D
100
AcDbEntity
  8
細線
 48
0.2
100
AcDbLine
 10
5747.481785487284
 20
5196.556328044404
 30
0.0
 11
5727.481785487285
 21
5196.556328044404
 31
0.0
  0
LINE
  5
14D9C
330
747D
100
AcDbEntity
  8
細線
 48
0.2
100
AcDbLine
 10
5747.481785487284
 20
5194.056328044403
 30
0.0
 11
5727.481785487285
 21
5194.056328044403
 31
0.0
  0
ARC
  5
14D9D
330
747D
100
AcDbEntity
  8
細線
 48
0.2
100
AcDbCircle
 10
5739.481785487285
 20
5179.756328044406
 30
0.0
 40
18.49999999999796
100
AcDbArc
 50
73.39845040097829
 51
106.6015495990228
  0
LINE
  5
14D9E
330
747D
100
AcDbEntity
  8
細線
 48
0.2
100
AcDbLine
 10
5745.165776783792
 20
5197.256328044405
 30
0.0
 11
5733.79779419078
 21
5197.256328044405
 31
0.0
  0
LINE
  5
14D9F
330
747D
100
AcDbEntity
  8
細線
 48
0.2
100
AcDbLine
 10
5747.481785487284
 20
5192.056328044404
 30
0.0
 11
5727.481785487285
 21
5192.056328044404
 31
0.0
  0
LINE
  5
14DA0
330
747D
100
AcDbEntity
  8
部品1
 48
0.2
100
AcDbLine
 10
5747.481785487284
 20
5189.556328044403
 30
0.0
 11
5727.481785487285
 21
5189.556328044403
 31
0.0
  0
LINE
  5
14DA1
330
747D
100
AcDbEntity
  8
部品1
 48
50.0
100
AcDbLine
 10
5727.481785487285
 20
5189.556328044403
 30
0.0
 11
5727.481785487285
 21
5196.306328044403
 31
0.0
  0
LINE
  5
14DA2
330
747D
100
AcDbEntity
  8
細線
 48
50.0
100
AcDbLine
 10
5735.619028292981
 20
5194.056328044403
 30
0.0
 11
5735.619028292982
 21
5192.056328044404
 31
0.0
  0
LINE
  5
14DA3
330
747D
100
AcDbEntity
  8
細線
 48
0.1
100
AcDbLine
 10
5747.481785487284
 20
5196.556328044404
 30
0.0
 11
5747.481785487284
 21
5189.556328044403
 31
0.0
  0
LINE
  5
14DA4
330
747D
100
AcDbEntity
  8
細線
 48
50.0
100
AcDbLine
 10
5743.469438338945
 20
5194.056328044403
 30
0.0
 11
5743.469438338945
 21
5192.056328044404
 31
0.0
  0
LINE
  5
14DA5
330
747D
100
AcDbEntity
  8
部品1
100
AcDbLine
 10
6829.544233315967
 20
5198.806328044402
 30
0.0
 11
6829.544233315967
 21
3401.806328044422
 31
0.0
  0
LINE
  5
14DA6
330
747D
100
AcDbEntity
  8
部品1
100
AcDbLine
 10
6697.544233315965
 20
5196.306328044403
 30
0.0
 11
6697.544233315968
 21
3405.306328044424
 31
0.0
  0
LINE
  5
14DA7
330
747D
100
AcDbEntity
  8
部品1
100
AcDbLine
 10
6699.544233315966
 20
5198.806328044402
 30
0.0
 11
6699.544233315966
 21
3401.806328044422
 31
0.0
  0
LINE
  5
14DA8
330
747D
100
AcDbEntity
  8
部品1
100
AcDbLine
 10
6915.544233315967
 20
5198.806328044402
 30
0.0
 11
6915.544233315967
 21
3401.806328044422
 31
0.0
  0
LINE
  5
14DA9
330
747D
100
AcDbEntity
  8
部品1
100
AcDbLine
 10
6917.544233315966
 20
5196.3063280444
 30
0.0
 11
6917.544233315966
 21
3405.306328044416
 31
0.0
  0
LINE
  5
14DAA
330
747D
100
AcDbEntity
  8
部品1
100
AcDbLine
 10
7647.544233315965
 20
5196.306328044403
 30
0.0
 11
7647.544233315968
 21
3405.306328044424
 31
0.0
  0
LINE
  5
14DAB
330
747D
100
AcDbEntity
  8
部品1
100
AcDbLine
 10
7822.544233315965
 20
5292.806328044404
 30
0.0
 11
7822.544233315966
 21
3258.806328044403
 31
0.0
  0
LINE
  5
14DAC
330
747D
100
AcDbEntity
  8
部品1
100
AcDbLine
 10
7779.544233315967
 20
5198.806328044402
 30
0.0
 11
7779.544233315967
 21
3401.806328044422
 31
0.0
  0
LINE
  5
14DAD
330
747D
100
AcDbEntity
  8
部品1
100
AcDbLine
 10
7649.544233315966
 20
5198.806328044402
 30
0.0
 11
7649.544233315966
 21
3401.806328044422
 31
0.0
  0
LINE
  5
14DAE
330
747D
100
AcDbEntity
  8
部品1
100
AcDbLine
 10
6917.544233315966
 20
3405.306328044416
 30
0.0
 11
7627.481785487285
 21
3405.306328044421
 31
0.0
  0
LINE
  5
14DB0
330
747D
100
AcDbEntity
  8
細線
 48
0.2
100
AcDbLine
 10
6697.481785487283
 20
3409.556328044421
 30
0.0
 11
6677.481785487285
 21
3409.556328044421
 31
0.0
  0
LINE
  5
14DB1
330
747D
100
AcDbEntity
  8
部品1
 48
0.2
100
AcDbLine
 10
6697.481785487283
 20
3412.056328044421
 30
0.0
 11
6677.481785487285
 21
3412.056328044421
 31
0.0
  0
LINE
  5
14DB2
330
747D
100
AcDbEntity
  8
部品1
100
AcDbLine
 10
6697.481785487285
 20
3405.306328044423
 30
0.0
 11
6697.544233315965
 21
3405.306328044423
 31
0.0
  0
ARC
  5
14DB3
330
747D
100
AcDbEntity
  8
細線
 48
0.2
100
AcDbCircle
 10
6694.481785487285
 20
3405.085818213173
 30
0.0
 40
1.0
100
AcDbArc
 50
286.6015495990217
 51
0.0
  0
LINE
  5
14DB4
330
747D
100
AcDbEntity
  8
細線
 48
0.2
100
AcDbLine
 10
6697.481785487283
 20
3405.056328044421
 30
0.0
 11
6677.481785487285
 21
3405.056328044421
 31
0.0
  0
LINE
  5
14DB5
330
747D
100
AcDbEntity
  8
細線
 48
0.2
100
AcDbLine
 10
6697.481785487283
 20
3407.556328044421
 30
0.0
 11
6677.481785487285
 21
3407.556328044423
 31
0.0
  0
ARC
  5
14DB6
330
747D
100
AcDbEntity
  8
細線
 48
0.2
100
AcDbCircle
 10
6684.481785487284
 20
3405.085818213173
 30
0.0
 40
1.0
100
AcDbArc
 50
179.9999999999984
 51
253.3984504009775
  0
ARC
  5
14DB7
330
747D
100
AcDbEntity
  8
細線
 48
0.2
100
AcDbCircle
 10
6689.481785487284
 20
3421.856328044418
 30
0.0
 40
18.49999999999796
100
AcDbArc
 50
253.3984504009772
 51
286.6015495990217
  0
LINE
  5
14DB8
330
747D
100
AcDbEntity
  8
細線
 48
0.2
100
AcDbLine
 10
6695.165776783793
 20
3404.35632804442
 30
0.0
 11
6683.79779419078
 21
3404.35632804442
 31
0.0
  0
LINE
  5
14DB9
330
747D
100
AcDbEntity
  8
細線
 48
50.0
100
AcDbLine
 10
6677.481785487285
 20
3405.306328044423
 30
0.0
 11
6677.481785487285
 21
3405.056328044421
 31
0.0
  0
LINE
  5
14DBA
330
747D
100
AcDbEntity
  8
部品1
100
AcDbLine
 10
6697.481785487285
 20
3405.306328044423
 30
0.0
 11
6697.544233315966
 21
3405.306328044423
 31
0.0
  0
LINE
  5
14DBB
330
747D
100
AcDbEntity
  8
部品1
100
AcDbLine
 10
6697.481785487285
 20
3405.306328044424
 30
0.0
 11
6697.544233315966
 21
3405.306328044424
 31
0.0
  0
LINE
  5
14DBC
330
747D
100
AcDbEntity
  8
細線
 48
0.1
100
AcDbLine
 10
6697.481785487283
 20
3405.056328044421
 30
0.0
 11
6697.481785487283
 21
3412.056328044421
 31
0.0
  0
LINE
  5
14DBD
330
747D
100
AcDbEntity
  8
細線
 48
50.0
100
AcDbLine
 10
6685.619028292982
 20
3407.556328044423
 30
0.0
 11
6685.619028292982
 21
3409.556328044421
 31
0.0
  0
LINE
  5
14DBE
330
747D
100
AcDbEntity
  8
細線
 48
50.0
100
AcDbLine
 10
6693.469438338945
 20
3407.556328044423
 30
0.0
 11
6693.469438338945
 21
3409.556328044421
 31
0.0
  0
LINE
  5
14DBF
330
747D
100
AcDbEntity
  8
部品1
 48
50.0
100
AcDbLine
 10
6677.481785487285
 20
3412.056328044421
 30
0.0
 11
6677.481785487285
 21
3405.306328044423
 31
0.0
  0
LINE
  5
14DC3
330
747D
100
AcDbEntity
  8
細線
 48
0.2
100
AcDbLine
 10
7647.481785487285
 20
3409.556328044421
 30
0.0
 11
7627.481785487285
 21
3409.556328044421
 31
0.0
  0
LINE
  5
14DC4
330
747D
100
AcDbEntity
  8
部品1
 48
0.2
100
AcDbLine
 10
7647.481785487285
 20
3412.056328044421
 30
0.0
 11
7627.481785487285
 21
3412.056328044421
 31
0.0
  0
LINE
  5
14DC5
330
747D
100
AcDbEntity
  8
部品1
100
AcDbLine
 10
7647.481785487285
 20
3405.306328044423
 30
0.0
 11
7647.544233315965
 21
3405.306328044423
 31
0.0
  0
ARC
  5
14DC6
330
747D
100
AcDbEntity
  8
細線
 48
0.2
100
AcDbCircle
 10
7644.481785487285
 20
3405.085818213173
 30
0.0
 40
1.0
100
AcDbArc
 50
286.6015495990217
 51
0.0
  0
LINE
  5
14DC7
330
747D
100
AcDbEntity
  8
細線
 48
0.2
100
AcDbLine
 10
7647.481785487285
 20
3405.056328044421
 30
0.0
 11
7627.481785487285
 21
3405.056328044421
 31
0.0
  0
LINE
  5
14DC8
330
747D
100
AcDbEntity
  8
細線
 48
0.2
100
AcDbLine
 10
7647.481785487285
 20
3407.556328044421
 30
0.0
 11
7627.481785487285
 21
3407.556328044423
 31
0.0
  0
ARC
  5
14DC9
330
747D
100
AcDbEntity
  8
細線
 48
0.2
100
AcDbCircle
 10
7634.481785487285
 20
3405.085818213173
 30
0.0
 40
1.0
100
AcDbArc
 50
179.9999999999984
 51
253.3984504009775
  0
ARC
  5
14DCA
330
747D
100
AcDbEntity
  8
細線
 48
0.2
100
AcDbCircle
 10
7639.481785487284
 20
3421.856328044418
 30
0.0
 40
18.49999999999796
100
AcDbArc
 50
253.3984504009772
 51
286.6015495990217
  0
LINE
  5
14DCB
330
747D
100
AcDbEntity
  8
細線
 48
0.2
100
AcDbLine
 10
7645.165776783793
 20
3404.35632804442
 30
0.0
 11
7633.797794190781
 21
3404.35632804442
 31
0.0
  0
LINE
  5
14DCC
330
747D
100
AcDbEntity
  8
細線
 48
50.0
100
AcDbLine
 10
7627.481785487285
 20
3405.306328044423
 30
0.0
 11
7627.481785487285
 21
3405.056328044421
 31
0.0
  0
LINE
  5
14DCD
330
747D
100
AcDbEntity
  8
部品1
100
AcDbLine
 10
7647.481785487285
 20
3405.306328044423
 30
0.0
 11
7647.544233315966
 21
3405.306328044423
 31
0.0
  0
LINE
  5
14DCE
330
747D
100
AcDbEntity
  8
部品1
100
AcDbLine
 10
7647.481785487285
 20
3405.306328044424
 30
0.0
 11
7647.544233315966
 21
3405.306328044424
 31
0.0
  0
LINE
  5
14DCF
330
747D
100
AcDbEntity
  8
細線
 48
0.1
100
AcDbLine
 10
7647.481785487285
 20
3405.056328044421
 30
0.0
 11
7647.481785487285
 21
3412.056328044421
 31
0.0
  0
LINE
  5
14DD0
330
747D
100
AcDbEntity
  8
細線
 48
50.0
100
AcDbLine
 10
7635.619028292982
 20
3407.556328044423
 30
0.0
 11
7635.619028292982
 21
3409.556328044421
 31
0.0
  0
LINE
  5
14DD1
330
747D
100
AcDbEntity
  8
細線
 48
50.0
100
AcDbLine
 10
7643.469438338946
 20
3407.556328044423
 30
0.0
 11
7643.469438338946
 21
3409.556328044421
 31
0.0
  0
LINE
  5
14DD2
330
747D
100
AcDbEntity
  8
部品1
 48
50.0
100
AcDbLine
 10
7627.481785487285
 20
3412.056328044421
 30
0.0
 11
7627.481785487285
 21
3405.306328044423
 31
0.0
  0
LINE
  5
14DFA
330
747D
100
AcDbEntity
  8
部品1
100
AcDbLine
 10
6917.544233315966
 20
5196.3063280444
 30
0.0
 11
7627.481785487285
 21
5196.306328044403
 31
0.0
  0
LINE
  5
14E09
330
747D
100
AcDbEntity
  8
部品1
100
AcDbLine
 10
6697.481785487285
 20
5196.3063280444
 30
0.0
 11
6697.544233315966
 21
5196.306328044403
 31
0.0
  0
LINE
  5
14E0A
330
747D
100
AcDbEntity
  8
部品1
100
AcDbLine
 10
6697.481785487285
 20
5196.306328044403
 30
0.0
 11
6697.544233315966
 21
5196.306328044403
 31
0.0
  0
LINE
  5
14E0B
330
747D
100
AcDbEntity
  8
細線
 48
50.0
100
AcDbLine
 10
6677.481785487285
 20
5196.306328044403
 30
0.0
 11
6677.481785487285
 21
5196.556328044404
 31
0.0
  0
LINE
  5
14E0C
330
747D
100
AcDbEntity
  8
細線
 48
0.2
100
AcDbLine
 10
6695.165776783793
 20
5197.256328044405
 30
0.0
 11
6683.79779419078
 21
5197.256328044405
 31
0.0
  0
ARC
  5
14E0D
330
747D
100
AcDbEntity
  8
細線
 48
0.2
100
AcDbCircle
 10
6689.481785487284
 20
5179.756328044406
 30
0.0
 40
18.49999999999796
100
AcDbArc
 50
73.39845040097829
 51
106.6015495990228
  0
ARC
  5
14E0E
330
747D
100
AcDbEntity
  8
細線
 48
0.2
100
AcDbCircle
 10
6684.481785487284
 20
5196.526837875651
 30
0.0
 40
1.0
100
AcDbArc
 50
106.6015495990225
 51
180.0000000000016
  0
LINE
  5
14E0F
330
747D
100
AcDbEntity
  8
細線
 48
0.2
100
AcDbLine
 10
6697.481785487283
 20
5194.056328044403
 30
0.0
 11
6677.481785487285
 21
5194.056328044403
 31
0.0
  0
LINE
  5
14E10
330
747D
100
AcDbEntity
  8
細線
 48
0.2
100
AcDbLine
 10
6697.481785487283
 20
5196.556328044404
 30
0.0
 11
6677.481785487285
 21
5196.556328044404
 31
0.0
  0
ARC
  5
14E11
330
747D
100
AcDbEntity
  8
細線
 48
0.2
100
AcDbCircle
 10
6694.481785487285
 20
5196.526837875651
 30
0.0
 40
1.0
100
AcDbArc
 50
0.0
 51
73.39845040097829
  0
LINE
  5
14E12
330
747D
100
AcDbEntity
  8
部品1
 48
0.2
100
AcDbLine
 10
6697.481785487283
 20
5189.556328044403
 30
0.0
 11
6677.481785487285
 21
5189.556328044403
 31
0.0
  0
LINE
  5
14E13
330
747D
100
AcDbEntity
  8
細線
 48
0.2
100
AcDbLine
 10
6697.481785487283
 20
5192.056328044404
 30
0.0
 11
6677.481785487285
 21
5192.056328044404
 31
0.0
  0
LINE
  5
14E14
330
747D
100
AcDbEntity
  8
部品1
 48
50.0
100
AcDbLine
 10
6677.481785487285
 20
5189.556328044403
 30
0.0
 11
6677.481785487285
 21
5196.306328044403
 31
0.0
  0
LINE
  5
14E15
330
747D
100
AcDbEntity
  8
細線
 48
50.0
100
AcDbLine
 10
6693.469438338945
 20
5194.056328044403
 30
0.0
 11
6693.469438338945
 21
5192.056328044404
 31
0.0
  0
LINE
  5
14E16
330
747D
100
AcDbEntity
  8
細線
 48
50.0
100
AcDbLine
 10
6685.619028292982
 20
5194.056328044403
 30
0.0
 11
6685.619028292982
 21
5192.056328044404
 31
0.0
  0
LINE
  5
14E17
330
747D
100
AcDbEntity
  8
細線
 48
0.1
100
AcDbLine
 10
6697.481785487283
 20
5196.556328044404
 30
0.0
 11
6697.481785487283
 21
5189.556328044403
 31
0.0
  0
LINE
  5
14E2F
330
747D
100
AcDbEntity
  8
部品1
100
AcDbLine
 10
7647.481785487285
 20
5196.3063280444
 30
0.0
 11
7647.544233315966
 21
5196.306328044403
 31
0.0
  0
LINE
  5
14E30
330
747D
100
AcDbEntity
  8
部品1
100
AcDbLine
 10
7647.481785487285
 20
5196.306328044403
 30
0.0
 11
7647.544233315966
 21
5196.306328044403
 31
0.0
  0
LINE
  5
14E31
330
747D
100
AcDbEntity
  8
細線
 48
50.0
100
AcDbLine
 10
7627.481785487285
 20
5196.306328044403
 30
0.0
 11
7627.481785487285
 21
5196.556328044404
 31
0.0
  0
LINE
  5
14E32
330
747D
100
AcDbEntity
  8
細線
 48
0.2
100
AcDbLine
 10
7645.165776783793
 20
5197.256328044405
 30
0.0
 11
7633.797794190781
 21
5197.256328044405
 31
0.0
  0
ARC
  5
14E33
330
747D
100
AcDbEntity
  8
細線
 48
0.2
100
AcDbCircle
 10
7639.481785487284
 20
5179.756328044406
 30
0.0
 40
18.49999999999796
100
AcDbArc
 50
73.39845040097829
 51
106.6015495990228
  0
ARC
  5
14E34
330
747D
100
AcDbEntity
  8
細線
 48
0.2
100
AcDbCircle
 10
7634.481785487285
 20
5196.526837875651
 30
0.0
 40
1.0
100
AcDbArc
 50
106.6015495990225
 51
180.0000000000016
  0
LINE
  5
14E35
330
747D
100
AcDbEntity
  8
細線
 48
0.2
100
AcDbLine
 10
7647.481785487285
 20
5194.056328044403
 30
0.0
 11
7627.481785487285
 21
5194.056328044403
 31
0.0
  0
LINE
  5
14E36
330
747D
100
AcDbEntity
  8
細線
 48
0.2
100
AcDbLine
 10
7647.481785487285
 20
5196.556328044404
 30
0.0
 11
7627.481785487285
 21
5196.556328044404
 31
0.0
  0
ARC
  5
14E37
330
747D
100
AcDbEntity
  8
細線
 48
0.2
100
AcDbCircle
 10
7644.481785487285
 20
5196.526837875651
 30
0.0
 40
1.0
100
AcDbArc
 50
0.0
 51
73.39845040097829
  0
LINE
  5
14E38
330
747D
100
AcDbEntity
  8
部品1
 48
0.2
100
AcDbLine
 10
7647.481785487285
 20
5189.556328044403
 30
0.0
 11
7627.481785487285
 21
5189.556328044403
 31
0.0
  0
LINE
  5
14E39
330
747D
100
AcDbEntity
  8
細線
 48
0.2
100
AcDbLine
 10
7647.481785487285
 20
5192.056328044404
 30
0.0
 11
7627.481785487285
 21
5192.056328044404
 31
0.0
  0
LINE
  5
14E3A
330
747D
100
AcDbEntity
  8
部品1
 48
50.0
100
AcDbLine
 10
7627.481785487285
 20
5189.556328044403
 30
0.0
 11
7627.481785487285
 21
5196.306328044403
 31
0.0
  0
LINE
  5
14E3B
330
747D
100
AcDbEntity
  8
細線
 48
50.0
100
AcDbLine
 10
7643.469438338946
 20
5194.056328044403
 30
0.0
 11
7643.469438338946
 21
5192.056328044404
 31
0.0
  0
LINE
  5
14E3C
330
747D
100
AcDbEntity
  8
細線
 48
50.0
100
AcDbLine
 10
7635.619028292982
 20
5194.056328044403
 30
0.0
 11
7635.619028292982
 21
5192.056328044404
 31
0.0
  0
LINE
  5
14E3D
330
747D
100
AcDbEntity
  8
細線
 48
0.1
100
AcDbLine
 10
7647.481785487285
 20
5196.556328044404
 30
0.0
 11
7647.481785487285
 21
5189.556328044403
 31
0.0
  0
DIMENSION
  5
14E40
330
747D
100
AcDbEntity
  8
寸法
100
AcDbDimension
  2
*D2
 10
7822.544233315992
 20
9895.803727755378
 30
0.0
 11
8131.029514690231
 21
9895.803727755378
 31
0.0
 70
   160
 71
     5
 42
55.0
  3
INABA_S40G
100
AcDbAlignedDimension
 13
7767.544233315992
 23
9679.995508130396
 33
0.0
 14
7822.544233315992
 24
9679.995508130396
 34
0.0
100
AcDbRotatedDimension
1001
ACAD
1000
DSTYLE
1002
{
1002
}
  0
LINE
  5
14E41
330
747D
100
AcDbEntity
  8
細線
 48
50.0
100
AcDbLine
 10
7793.544239993585
 20
9650.495508130376
 30
0.0
 11
6901.544239993585
 21
9200.495508130272
 31
0.0
  0
LINE
  5
14E42
330
747D
100
AcDbEntity
  8
細線
 48
50.0
100
AcDbLine
 10
7793.544239993585
 20
9200.495508130375
 30
0.0
 11
6901.544239993585
 21
9650.495508130273
 31
0.0
  0
LINE
  5
14E43
330
747D
100
AcDbEntity
  8
部品1
100
AcDbLine
 10
6901.544239993585
 20
9200.495508130272
 30
0.0
 11
7793.544239993585
 21
9200.495508130375
 31
0.0
  0
LINE
  5
14E44
330
747D
100
AcDbEntity
  8
部品1
100
AcDbLine
 10
4972.544233315988
 20
9679.995508130302
 30
0.0
 11
7822.544233315992
 21
9679.995508130396
 31
0.0
  0
LINE
  5
14E45
330
747D
100
AcDbEntity
  8
部品1
100
AcDbLine
 10
6901.544239993585
 20
9650.495508130273
 30
0.0
 11
7793.544239993585
 21
9650.495508130383
 31
0.0
  0
LINE
  5
14E46
330
747D
100
AcDbEntity
  8
部品1
100
AcDbLine
 10
6900.544233315915
 20
9651.995508130346
 30
0.0
 11
7794.544233315992
 21
9651.995508130397
 31
0.0
  0
DIMENSION
  5
14E47
330
747D
100
AcDbEntity
  8
寸法
100
AcDbDimension
  2
*D3
 10
7767.544233315987
 20
9895.803727755399
 30
0.0
 11
7347.544233315987
 21
9895.803727755399
 31
0.0
 70
   160
  1
2X420=<>
 71
     5
 42
840.0
  3
INABA_S40G
100
AcDbAlignedDimension
 13
6927.544233315988
 23
9679.995508130332
 33
0.0
 14
7767.544233315987
 24
9679.995508130417
 34
0.0
100
AcDbRotatedDimension
1001
ACAD
1000
DSTYLE
1002
{
1002
}
  0
LINE
  5
14E48
330
747D
100
AcDbEntity
  8
部品1
 48
50.0
100
AcDbLine
 10
7794.544233315966
 20
8252.476442937982
 30
0.0
 11
7766.043261891173
 21
8281.495613843235
 31
0.0
  0
LINE
  5
14E49
330
747D
100
AcDbEntity
  8
部品1
 48
2.83
100
AcDbLine
 10
7790.544233315967
 20
8204.995508130352
 30
0.0
 11
7767.544233315966
 21
8204.995508130352
 31
0.0
  0
LINE
  5
14E4A
330
747D
100
AcDbEntity
  8
部品1
 48
5.0
100
AcDbLine
 10
7779.544233315967
 20
8179.495508130338
 30
0.0
 11
6896.544233315984
 21
8179.495508130338
 31
0.0
  0
LINE
  5
14E4B
330
747D
100
AcDbEntity
  8
部品1
100
AcDbLine
 10
7822.544233315966
 20
8149.99550813038
 30
0.0
 11
4972.544233315985
 21
8149.995508130286
 31
0.0
  0
DIMENSION
  5
14E4C
330
747D
100
AcDbEntity
  8
寸法
100
AcDbDimension
  2
*D4
 10
7822.544233315966
 20
7162.893633270146
 30
0.0
 11
6332.544233315974
 21
7162.893633270146
 31
0.0
 70
   160
 71
     5
 42
2849.999999999982
  3
INABA_S40G
100
AcDbAlignedDimension
 13
4972.544233315985
 23
8149.995508130222
 33
0.0
 14
7822.544233315966
 24
8149.995508130352
 34
0.0
100
AcDbRotatedDimension
1001
ACAD
1000
DSTYLE
1002
{
1002
}
  0
LINE
  5
14E4E
330
747D
100
AcDbEntity
  8
部品1
 48
50.0
100
AcDbLine
 10
6901.544239993585
 20
9650.495508130266
 30
0.0
 11
6901.544239993585
 21
9200.495508130272
 31
0.0
  0
LINE
  5
14E4F
330
747D
100
AcDbEntity
  8
部品1
 48
50.0
100
AcDbLine
 10
6843.544239993585
 20
9650.495508130376
 30
0.0
 11
6843.544239993585
 21
9200.495508130375
 31
0.0
  0
LINE
  5
14E50
330
747D
100
AcDbEntity
  8
部品1
 48
50.0
100
AcDbLine
 10
5951.544239993586
 20
9650.495508130266
 30
0.0
 11
5951.544239993586
 21
9200.495508130272
 31
0.0
  0
LINE
  5
14E51
330
747D
100
AcDbEntity
  8
部品1
 48
50.0
100
AcDbLine
 10
5893.544239993586
 20
9650.495508130376
 30
0.0
 11
5893.544239993586
 21
9200.495508130375
 31
0.0
  0
LINE
  5
14E52
330
747D
100
AcDbEntity
  8
細線
 48
50.0
100
AcDbLine
 10
6843.544239993585
 20
9200.495508130375
 30
0.0
 11
5951.544239993586
 21
9650.495508130273
 31
0.0
  0
LINE
  5
14E53
330
747D
100
AcDbEntity
  8
細線
 48
50.0
100
AcDbLine
 10
6843.544239993585
 20
9650.495508130376
 30
0.0
 11
5951.544239993586
 21
9200.495508130272
 31
0.0
  0
LINE
  5
14E54
330
747D
100
AcDbEntity
  8
部品1
 48
50.0
100
AcDbLine
 10
5001.544239993585
 20
9650.495508130266
 30
0.0
 11
5001.544239993585
 21
9200.495508130272
 31
0.0
  0
LINE
  5
14E55
330
747D
100
AcDbEntity
  8
細線
 48
50.0
100
AcDbLine
 10
5893.544239993586
 20
9200.495508130375
 30
0.0
 11
5001.544239993585
 21
9650.495508130273
 31
0.0
  0
LINE
  5
14E56
330
747D
100
AcDbEntity
  8
細線
 48
50.0
100
AcDbLine
 10
5893.544239993586
 20
9650.495508130376
 30
0.0
 11
5001.544239993585
 21
9200.495508130272
 31
0.0
  0
LINE
  5
14E57
330
747D
100
AcDbEntity
  8
部品1
 48
50.0
100
AcDbLine
 10
6872.54423331597
 20
8204.995508130338
 30
0.0
 11
6872.54423331597
 21
9624.995508130346
 31
0.0
  0
LINE
  5
14E58
330
747D
100
AcDbEntity
  8
部品1
 48
50.0
100
AcDbLine
 10
6844.54423331597
 20
8204.995508130338
 30
0.0
 11
6844.544233315914
 21
9651.995508130346
 31
0.0
  0
LINE
  5
14E59
330
747D
100
AcDbEntity
  8
部品1
 48
50.0
100
AcDbLine
 10
6900.54423331597
 20
8204.995508130338
 30
0.0
 11
6900.544233315915
 21
9679.995508130346
 31
0.0
  0
LINE
  5
14E5A
330
747D
100
AcDbEntity
  8
部品1
 48
50.0
100
AcDbLine
 10
5922.54423331597
 20
8204.995508130338
 30
0.0
 11
5922.54423331597
 21
9624.995508130346
 31
0.0
  0
LINE
  5
14E5B
330
747D
100
AcDbEntity
  8
部品1
 48
50.0
100
AcDbLine
 10
5894.544233315969
 20
8204.995508130338
 30
0.0
 11
5894.544233315915
 21
9651.995508130346
 31
0.0
  0
LINE
  5
14E5C
330
747D
100
AcDbEntity
  8
部品1
 48
50.0
100
AcDbLine
 10
5950.544233315969
 20
8204.995508130338
 30
0.0
 11
5950.544233315915
 21
9679.995508130346
 31
0.0
  0
LINE
  5
14E5D
330
747D
100
AcDbEntity
  8
部品1
100
AcDbLine
 10
4972.544233315955
 20
9679.995508130266
 30
0.0
 11
4972.544233315985
 21
8149.995508130258
 31
0.0
  0
LINE
  5
14E5E
330
747D
100
AcDbEntity
  8
部品1
100
AcDbLine
 10
5000.544233315967
 20
8204.995508130251
 30
0.0
 11
5000.544233315988
 21
9651.995508130301
 31
0.0
  0
LINE
  5
14E5F
330
747D
100
AcDbEntity
  8
破線
 48
10.0
100
AcDbLine
 10
5029.044835947789
 20
8977.495210604775
 30
0.0
 11
5867.044233315952
 21
8977.495189139132
 31
0.0
  0
LINE
  5
14E60
330
747D
100
AcDbEntity
  8
破線
 48
10.0
100
AcDbLine
 10
5029.044861809874
 20
8927.495210604787
 30
0.0
 11
5867.044233315952
 21
8927.495189139133
 31
0.0
  0
LINE
  5
14E61
330
747D
100
AcDbEntity
  8
部品1
100
AcDbLine
 10
5001.544239993585
 20
9200.495508130272
 30
0.0
 11
5893.544239993586
 21
9200.495508130375
 31
0.0
  0
LINE
  5
14E62
330
747D
100
AcDbEntity
  8
破線
 48
10.0
100
AcDbLine
 10
5843.544233315977
 20
8304.995508130323
 30
0.0
 11
5052.544233315977
 21
8304.995508130309
 31
0.0
  0
LINE
  5
14E63
330
747D
100
AcDbEntity
  8
部品1
100
AcDbLine
 10
5973.544233315984
 20
8149.995508130286
 30
0.0
 11
4972.544233315985
 21
8149.995508130258
 31
0.0
  0
LINE
  5
14E64
330
747D
100
AcDbEntity
  8
部品1
 48
5.0
100
AcDbLine
 10
5015.544233315985
 20
8179.495508130221
 30
0.0
 11
5898.544233315984
 21
8179.49550813028
 31
0.0
  0
DIMENSION
  5
14E65
330
747D
100
AcDbEntity
  8
寸法
 48
50.0
100
AcDbDimension
  2
*D5
 10
7612.544233315981
 20
7710.171840335217
 30
0.0
 11
7270.044233315984
 21
7710.171840335217
 31
0.0
 70
   160
  1
有効開口部間口\P<>
 71
     5
 42
684.9999999999927
  3
INABA_S40G
100
AcDbAlignedDimension
 13
6927.544233315988
 23
8149.995508130293
 33
0.0
 14
7612.544233315981
 24
8149.995508130258
 34
0.0
100
AcDbRotatedDimension
  0
LINE
  5
14E66
330
747D
100
AcDbEntity
  8
部品1
100
AcDbLine
 10
5747.544233315981
 20
8175.995508130354
 30
0.0
 11
5017.544233315984
 21
8175.995508130323
 31
0.0
  0
LINE
  5
14E67
330
747D
100
AcDbEntity
  8
部品1
100
AcDbLine
 10
5867.044803764147
 20
8281.494927310381
 30
0.0
 11
5029.045204742379
 21
8281.494425821858
 31
0.0
  0
ARC
  5
14E68
330
747D
100
AcDbEntity
  8
想像線
 48
10.0
100
AcDbCircle
 10
5740.192182638821
 20
8151.690401505902
 30
0.0
 40
722.6499369155547
100
AcDbArc
 50
180.1343808685503
 51
270.5829222700355
  0
LINE
  5
14E6A
330
747D
100
AcDbEntity
  8
破線
 48
10.0
100
AcDbLine
 10
5052.544277984438
 20
8927.49522275967
 30
0.0
 11
5052.544233315977
 21
8304.995508130309
 31
0.0
  0
LINE
  5
14E6B
330
747D
100
AcDbEntity
  8
部品1
 48
5.0
100
AcDbLine
 10
5029.045204740949
 20
8281.495508130396
 30
0.0
 11
5029.044711809635
 21
9200.495508130309
 31
0.0
  0
LINE
  5
14E6C
330
747D
100
AcDbEntity
  8
部品1
 48
50.0
100
AcDbLine
 10
5029.045204742379
 20
8281.494425821858
 30
0.0
 11
5000.544233315967
 21
8252.475254889393
 31
0.0
  0
LINE
  5
14E6D
330
747D
100
AcDbEntity
  8
部品1
100
AcDbLine
 10
5000.544233315981
 20
8204.995508130265
 30
0.0
 11
4972.544233315981
 21
8204.995508130265
 31
0.0
  0
LINE
  5
14E6E
330
747D
100
AcDbEntity
  8
部品1
100
AcDbLine
 10
5000.544233315967
 20
8204.995508130251
 30
0.0
 11
4972.544233315981
 21
8204.995508130251
 31
0.0
  0
LINE
  5
14E6F
330
747D
100
AcDbEntity
  8
部品1
100
AcDbLine
 10
5000.544233315967
 20
8204.995508130222
 30
0.0
 11
4972.544233315981
 21
8204.995508130222
 31
0.0
  0
LINE
  5
14E70
330
747D
100
AcDbEntity
  8
部品1
 48
2.83
100
AcDbLine
 10
5004.544233315985
 20
8204.995508130222
 30
0.0
 11
5027.544233315984
 21
8204.995508130222
 31
0.0
  0
LINE
  5
14E71
330
747D
100
AcDbEntity
  8
部品1
 48
2.83
100
AcDbLine
 10
4972.544233315985
 20
8204.995508130222
 30
0.0
 11
4995.544233315984
 21
8204.995508130222
 31
0.0
  0
LINE
  5
14E72
330
747D
100
AcDbEntity
  8
部品1
 48
2.83
100
AcDbLine
 10
5015.544233315985
 20
8149.995508130222
 30
0.0
 11
4972.544233315985
 21
8149.995508130222
 31
0.0
  0
LINE
  5
14E73
330
747D
100
AcDbEntity
  8
部品1
 48
2.83
100
AcDbLine
 10
5015.544233315985
 20
8179.495508130221
 30
0.0
 11
5015.544233315985
 21
8149.995508130222
 31
0.0
  0
LINE
  5
14E74
330
747D
100
AcDbEntity
  8
部品1
100
AcDbLine
 10
5017.544233315984
 20
8175.995508130361
 30
0.0
 11
5017.544233315984
 21
8149.995508130324
 31
0.0
  0
LINE
  5
14E75
330
747D
100
AcDbEntity
  8
部品1
100
AcDbLine
 10
4972.544233315981
 20
8204.995508130222
 30
0.0
 11
4972.544233315985
 21
8149.995508130222
 31
0.0
  0
LINE
  5
14E76
330
747D
100
AcDbEntity
  8
部品1
 48
2.83
100
AcDbLine
 10
5027.544233315984
 20
8204.995508130222
 30
0.0
 11
5027.544233315988
 21
8179.495508130221
 31
0.0
  0
LINE
  5
14E77
330
747D
100
AcDbEntity
  8
部品1
 48
2.83
100
AcDbLine
 10
4972.544233315985
 20
8149.995508130222
 30
0.0
 11
4972.544233315985
 21
8204.995508130222
 31
0.0
  0
LINE
  5
14E78
330
747D
100
AcDbEntity
  8
部品1
100
AcDbLine
 10
5000.544233315967
 20
8624.995508130266
 30
0.0
 11
4972.544233315966
 21
8624.995508130266
 31
0.0
  0
LINE
  5
14E79
330
747D
100
AcDbEntity
  8
破線
 48
10.0
100
AcDbLine
 10
5052.54429824069
 20
9200.495508130309
 30
0.0
 11
5052.54428147689
 21
8977.495222759666
 31
0.0
  0
LINE
  5
14E7A
330
747D
100
AcDbEntity
  8
部品1
100
AcDbLine
 10
5000.544233315967
 20
9204.995508130265
 30
0.0
 11
4972.544233315966
 21
9204.995508130265
 31
0.0
  0
LINE
  5
14E7B
330
747D
100
AcDbEntity
  8
想像線
 48
10.0
100
AcDbLine
 10
7647.54423331598
 20
8149.995508130345
 30
0.0
 11
7647.54423331598
 21
7429.077864474556
 31
0.0
  0
LINE
  5
14E7D
330
747D
100
AcDbEntity
  8
想像線
 48
10.0
100
AcDbLine
 10
6697.54423331598
 20
8149.995508130338
 30
0.0
 11
6697.54423331598
 21
7429.077864474549
 31
0.0
  0
LINE
  5
14E7E
330
747D
100
AcDbEntity
  8
想像線
 48
10.0
100
AcDbLine
 10
5747.544233315981
 20
8149.995508130338
 30
0.0
 11
5747.544233315981
 21
7429.077864474549
 31
0.0
  0
ARC
  5
14E7F
330
747D
100
AcDbEntity
  8
想像線
 48
10.0
100
AcDbCircle
 10
6690.192182638821
 20
8151.6904015059
 30
0.0
 40
722.6499369155536
100
AcDbArc
 50
180.1343808685451
 51
270.5829222700355
  0
ARC
  5
14E81
330
747D
100
AcDbEntity
  8
想像線
 48
10.0
100
AcDbCircle
 10
7640.192182638823
 20
8151.690401505922
 30
0.0
 40
722.649936915561
100
AcDbArc
 50
180.1343808685485
 51
270.5829222700353
  0
TEXT
  5
14E82
330
747D
100
AcDbEntity
  8
部品1
100
AcDbText
 10
6104.678442217028
 20
6619.523290111985
 30
0.0
 40
135.0
  1
平面図
  7
STYLE2
100
AcDbText
  0
LWPOLYLINE
  5
14E83
330
747D
100
AcDbEntity
  8
部品1
100
AcDbPolyline
 90
        4
 70
     1
 43
0.0
 10
6014.75883238799
 20
6812.416819330512
 10
6014.75883238799
 20
6572.524497784977
 10
6778.22949861643
 20
6572.524497784977
 10
6778.22949861643
 20
6812.416819330512
  0
LINE
  5
14E84
330
747D
100
AcDbEntity
  8
破線
 48
10.0
100
AcDbLine
 10
5978.044229039897
 20
8927.495218404892
 30
0.0
 11
6817.044233315951
 21
8927.495183773062
 31
0.0
  0
LINE
  5
14E85
330
747D
100
AcDbEntity
  8
破線
 48
10.0
100
AcDbLine
 10
5978.044229039897
 20
8977.495218404893
 30
0.0
 11
6817.044233315951
 21
8977.495183773063
 31
0.0
  0
LINE
  5
14E86
330
747D
100
AcDbEntity
  8
部品1
100
AcDbLine
 10
5951.544239993586
 20
9200.495508130272
 30
0.0
 11
6843.544239993585
 21
9200.495508130375
 31
0.0
  0
LINE
  5
14E87
330
747D
100
AcDbEntity
  8
破線
 48
10.0
100
AcDbLine
 10
6793.544233315977
 20
8304.995508130344
 30
0.0
 11
6001.544233315978
 21
8304.99550813033
 31
0.0
  0
LINE
  5
14E88
330
747D
100
AcDbEntity
  8
部品1
100
AcDbLine
 10
6697.54423331598
 20
8175.995508130382
 30
0.0
 11
5967.544233315984
 21
8175.995508130361
 31
0.0
  0
LINE
  5
14E89
330
747D
100
AcDbEntity
  8
部品1
100
AcDbLine
 10
6817.044233315967
 20
8281.495508130346
 30
0.0
 11
5978.043740062087
 21
8281.495005932873
 31
0.0
  0
LINE
  5
14E8A
330
747D
100
AcDbEntity
  8
部品1
 48
5.0
100
AcDbLine
 10
5946.544233315984
 20
8179.49550813028
 30
0.0
 11
6848.544233315985
 21
8179.495508130338
 31
0.0
  0
LINE
  5
14E8C
330
747D
100
AcDbEntity
  8
部品1
 48
50.0
100
AcDbLine
 10
5447.044233315978
 20
9200.495508130323
 30
0.0
 11
5447.044070443873
 21
8281.494675967126
 31
0.0
  0
LINE
  5
14E8D
330
747D
100
AcDbEntity
  8
破線
 48
10.0
100
AcDbLine
 10
5843.544233315977
 20
8304.995508130344
 30
0.0
 11
5843.544227568011
 21
8927.495190109151
 31
0.0
  0
LINE
  5
14E8E
330
747D
100
AcDbEntity
  8
部品1
 48
50.0
100
AcDbLine
 10
5867.044233315966
 20
8281.495508130346
 30
0.0
 11
5867.044233315944
 21
9200.495508130403
 31
0.0
  0
LINE
  5
14E8F
330
747D
100
AcDbEntity
  8
破線
 48
10.0
100
AcDbLine
 10
6001.544233315978
 20
8304.995508130351
 30
0.0
 11
6001.544224763321
 21
8927.495217434872
 31
0.0
  0
LINE
  5
14E90
330
747D
100
AcDbEntity
  8
部品1
 48
50.0
100
AcDbLine
 10
5978.044226971681
 20
8281.495508155003
 30
0.0
 11
5978.044229944546
 21
9200.495508130345
 31
0.0
  0
LINE
  5
14E91
330
747D
100
AcDbEntity
  8
部品1
 48
50.0
100
AcDbLine
 10
6397.044233315977
 20
9200.495508130323
 30
0.0
 11
6397.044070443874
 21
8281.494675967126
 31
0.0
  0
LINE
  5
14E92
330
747D
100
AcDbEntity
  8
部品1
100
AcDbLine
 10
5747.544233315981
 20
8175.995508130389
 30
0.0
 11
5747.544233315981
 21
8149.995508130331
 31
0.0
  0
ARC
  5
14E93
330
747D
100
AcDbEntity
  8
部品1
 48
0.2
100
AcDbCircle
 10
5739.606681144661
 20
8150.99313808556
 30
0.0
 40
8.0
100
AcDbArc
 50
270.0
 51
352.8363522778074
  0
ARC
  5
14E94
330
747D
100
AcDbEntity
  8
部品1
 48
0.2
100
AcDbCircle
 10
5734.606681144661
 20
8150.99313808556
 30
0.0
 40
8.0
100
AcDbArc
 50
187.1636477221926
 51
269.9999999999992
  0
ARC
  5
14E95
330
747D
100
AcDbEntity
  8
細線
 48
0.2
100
AcDbCircle
 10
5739.606681144661
 20
8150.99313808556
 30
0.0
 40
4.049999999999999
100
AcDbArc
 50
194.2603506853988
 51
345.7396493146012
  0
LINE
  5
14E96
330
747D
100
AcDbEntity
  8
部品1
 48
0.2
100
AcDbLine
 10
5734.606681144661
 20
8142.993138085559
 30
0.0
 11
5739.606681144661
 21
8142.993138085559
 31
0.0
  0
LINE
  5
14E97
330
747D
100
AcDbEntity
  8
部品1
 48
5.0
100
AcDbLine
 10
5749.544233315984
 20
8179.495508130338
 30
0.0
 11
5749.544233315984
 21
8149.995508130338
 31
0.0
  0
LINE
  5
14E98
330
747D
100
AcDbEntity
  8
部品1
 48
50.0
100
AcDbLine
 10
5978.044233315966
 20
8281.495508155011
 30
0.0
 11
5950.544233315969
 21
8253.495508130338
 31
0.0
  0
LINE
  5
14E99
330
747D
100
AcDbEntity
  8
部品1
 48
5.0
100
AcDbLine
 10
5954.544233315985
 20
8204.995508130338
 30
0.0
 11
5977.544233315985
 21
8204.995508130338
 31
0.0
  0
LINE
  5
14E9A
330
747D
100
AcDbEntity
  8
部品1
 48
5.0
100
AcDbLine
 10
5894.544233315969
 20
8204.995508130338
 30
0.0
 11
5950.544233315969
 21
8204.995508130338
 31
0.0
  0
LINE
  5
14E9B
330
747D
100
AcDbEntity
  8
部品1
 48
5.0
100
AcDbLine
 10
5890.544233315985
 20
8204.995508130338
 30
0.0
 11
5867.544233315984
 21
8204.995508130338
 31
0.0
  0
LINE
  5
14E9C
330
747D
100
AcDbEntity
  8
部品1
 48
50.0
100
AcDbLine
 10
5894.544233315969
 20
8253.495508130338
 30
0.0
 11
5867.044233315966
 21
8281.495508130346
 31
0.0
  0
LINE
  5
14E9D
330
747D
100
AcDbEntity
  8
部品1
100
AcDbLine
 10
5967.544233315984
 20
8175.995508130361
 30
0.0
 11
5967.544233315984
 21
8149.995508130324
 31
0.0
  0
LINE
  5
14E9E
330
747D
100
AcDbEntity
  8
部品1
100
AcDbLine
 10
5965.544233315984
 20
8179.495508130287
 30
0.0
 11
5965.544233315984
 21
8149.995508130338
 31
0.0
  0
LINE
  5
14E9F
330
747D
100
AcDbEntity
  8
部品1
 48
5.0
100
AcDbLine
 10
5965.544233315984
 20
8179.495508130338
 30
0.0
 11
5965.544233315984
 21
8149.995508130338
 31
0.0
  0
LINE
  5
14EA0
330
747D
100
AcDbEntity
  8
部品1
100
AcDbLine
 10
5879.544233315981
 20
8179.49550813028
 30
0.0
 11
5879.544233315981
 21
8149.995508130331
 31
0.0
  0
LINE
  5
14EA1
330
747D
100
AcDbEntity
  8
部品1
 48
5.0
100
AcDbLine
 10
5879.544233315985
 20
8179.495508130338
 30
0.0
 11
5879.544233315985
 21
8149.995508130338
 31
0.0
  0
LINE
  5
14EA2
330
747D
100
AcDbEntity
  8
部品1
 48
5.0
100
AcDbLine
 10
5879.544233315985
 20
8149.995508130338
 30
0.0
 11
5965.544233315984
 21
8149.995508130338
 31
0.0
  0
LINE
  5
14EA3
330
747D
100
AcDbEntity
  8
部品1
 48
5.0
100
AcDbLine
 10
5867.544233315984
 20
8204.995508130338
 30
0.0
 11
5867.544233315988
 21
8179.495508130338
 31
0.0
  0
LINE
  5
14EA4
330
747D
100
AcDbEntity
  8
部品1
 48
5.0
100
AcDbLine
 10
5946.544233315989
 20
8204.995508130338
 30
0.0
 11
5946.544233315984
 21
8179.495508130338
 31
0.0
  0
LINE
  5
14EA5
330
747D
100
AcDbEntity
  8
部品1
 48
5.0
100
AcDbLine
 10
5898.544233315984
 20
8204.995508130338
 30
0.0
 11
5898.544233315984
 21
8179.495508130338
 31
0.0
  0
LINE
  5
14EA6
330
747D
100
AcDbEntity
  8
部品1
 48
5.0
100
AcDbLine
 10
5977.544233315985
 20
8204.995508130338
 30
0.0
 11
5977.544233315988
 21
8179.495508130338
 31
0.0
  0
LINE
  5
14EA7
330
747D
100
AcDbEntity
  8
部品1
 48
5.0
100
AcDbLine
 10
5922.54423331597
 20
8624.995508130337
 30
0.0
 11
5894.544233315915
 21
8624.995508130345
 31
0.0
  0
LINE
  5
14EA8
330
747D
100
AcDbEntity
  8
破線
 48
10.0
100
AcDbLine
 10
6001.544224094625
 20
8977.495217434872
 30
0.0
 11
6001.544220884865
 21
9200.495508130345
 31
0.0
  0
LINE
  5
14EA9
330
747D
100
AcDbEntity
  8
破線
 48
10.0
100
AcDbLine
 10
5843.5442271186
 20
8977.495190109156
 30
0.0
 11
5843.544224961425
 21
9200.495508130403
 31
0.0
  0
LINE
  5
14EAA
330
747D
100
AcDbEntity
  8
部品1
 48
50.0
100
AcDbLine
 10
5922.544233315959
 20
9242.995508130345
 30
0.0
 11
5950.544233315945
 21
9242.995508130345
 31
0.0
  0
LINE
  5
14EAB
330
747D
100
AcDbEntity
  8
部品1
 48
50.0
100
AcDbLine
 10
5922.544233315959
 20
9204.995508130345
 30
0.0
 11
5950.544233315945
 21
9204.995508130345
 31
0.0
  0
LINE
  5
14EAC
330
747D
100
AcDbEntity
  8
部品1
 48
5.0
100
AcDbLine
 10
5922.54423331597
 20
9204.995508130338
 30
0.0
 11
5894.544233315915
 21
9204.995508130345
 31
0.0
  0
LINE
  5
14EAD
330
747D
100
AcDbEntity
  8
破線
 48
10.0
100
AcDbLine
 10
7742.544277984413
 20
8927.495179418277
 30
0.0
 11
7742.544233315974
 21
8304.995508130389
 31
0.0
  0
LINE
  5
14EAE
330
747D
100
AcDbEntity
  8
破線
 48
10.0
100
AcDbLine
 10
6793.544233315977
 20
8304.995508130344
 30
0.0
 11
6793.54422756801
 21
8927.495184743083
 31
0.0
  0
LINE
  5
14EAF
330
747D
100
AcDbEntity
  8
破線
 48
10.0
100
AcDbLine
 10
6951.544233315977
 20
8304.995508130351
 30
0.0
 11
6951.544224763326
 21
8927.495212068793
 31
0.0
  0
LINE
  5
14EB0
330
747D
100
AcDbEntity
  8
部品1
 48
50.0
100
AcDbLine
 10
6928.04422697168
 20
8281.495508155003
 30
0.0
 11
6928.044229944545
 21
9200.495508130345
 31
0.0
  0
LINE
  5
14EB1
330
747D
100
AcDbEntity
  8
部品1
 48
50.0
100
AcDbLine
 10
6817.044233315967
 20
8281.495508130346
 30
0.0
 11
6817.044233315944
 21
9200.495508130403
 31
0.0
  0
LINE
  5
14EB2
330
747D
100
AcDbEntity
  8
部品1
 48
50.0
100
AcDbLine
 10
7347.044233315976
 20
9200.495508130323
 30
0.0
 11
7347.044070443873
 21
8281.494675967126
 31
0.0
  0
LINE
  5
14EB3
330
747D
100
AcDbEntity
  8
部品1
 48
5.0
100
AcDbLine
 10
7766.043261891034
 20
8281.495508130396
 30
0.0
 11
7766.043754822345
 21
9200.495508130337
 31
0.0
  0
LINE
  5
14EB4
330
747D
100
AcDbEntity
  8
部品1
100
AcDbLine
 10
7647.54423331598
 20
8175.995508130389
 30
0.0
 11
6917.544233315981
 21
8175.995508130331
 31
0.0
  0
LINE
  5
14EB5
330
747D
100
AcDbEntity
  8
部品1
100
AcDbLine
 10
7766.043261891173
 20
8281.495613843235
 30
0.0
 11
6928.044233315967
 21
8281.495508155011
 31
0.0
  0
LINE
  5
14EB6
330
747D
100
AcDbEntity
  8
破線
 48
10.0
100
AcDbLine
 10
7742.544233315967
 20
8304.995508130389
 30
0.0
 11
6951.544233315977
 21
8304.995508130351
 31
0.0
  0
LINE
  5
14EB7
330
747D
100
AcDbEntity
  8
部品1
100
AcDbLine
 10
6697.54423331598
 20
8175.995508130389
 30
0.0
 11
6697.54423331598
 21
8149.995508130331
 31
0.0
  0
ARC
  5
14EB8
330
747D
100
AcDbEntity
  8
部品1
 48
0.2
100
AcDbCircle
 10
6689.606681144661
 20
8150.99313808556
 30
0.0
 40
8.0
100
AcDbArc
 50
270.0
 51
352.8363522778074
  0
ARC
  5
14EB9
330
747D
100
AcDbEntity
  8
細線
 48
0.2
100
AcDbCircle
 10
6689.606681144661
 20
8150.99313808556
 30
0.0
 40
4.049999999999999
100
AcDbArc
 50
194.2603506853988
 51
345.7396493146012
  0
LINE
  5
14EBA
330
747D
100
AcDbEntity
  8
部品1
 48
0.2
100
AcDbLine
 10
6684.606681144662
 20
8142.993138085559
 30
0.0
 11
6689.606681144661
 21
8142.993138085559
 31
0.0
  0
LINE
  5
14EBB
330
747D
100
AcDbEntity
  8
部品1
 48
5.0
100
AcDbLine
 10
6699.544233315984
 20
8179.495508130338
 30
0.0
 11
6699.544233315984
 21
8149.995508130338
 31
0.0
  0
ARC
  5
14EBC
330
747D
100
AcDbEntity
  8
部品1
 48
0.2
100
AcDbCircle
 10
6684.606681144662
 20
8150.99313808556
 30
0.0
 40
8.0
100
AcDbArc
 50
187.1636477221926
 51
269.9999999999992
  0
LINE
  5
14EBD
330
747D
100
AcDbEntity
  8
部品1
 48
50.0
100
AcDbLine
 10
6928.044233315967
 20
8281.495508155011
 30
0.0
 11
6900.54423331597
 21
8253.495508130338
 31
0.0
  0
LINE
  5
14EBE
330
747D
100
AcDbEntity
  8
部品1
 48
50.0
100
AcDbLine
 10
6844.54423331597
 20
8253.495508130338
 30
0.0
 11
6817.044233315967
 21
8281.495508130346
 31
0.0
  0
LINE
  5
14EBF
330
747D
100
AcDbEntity
  8
部品1
 48
5.0
100
AcDbLine
 10
6844.54423331597
 20
8204.995508130338
 30
0.0
 11
6900.54423331597
 21
8204.995508130338
 31
0.0
  0
LINE
  5
14EC0
330
747D
100
AcDbEntity
  8
部品1
 48
5.0
100
AcDbLine
 10
6904.544233315984
 20
8204.995508130338
 30
0.0
 11
6927.544233315984
 21
8204.995508130338
 31
0.0
  0
LINE
  5
14EC1
330
747D
100
AcDbEntity
  8
部品1
 48
5.0
100
AcDbLine
 10
6840.544233315984
 20
8204.995508130338
 30
0.0
 11
6817.544233315985
 21
8204.995508130338
 31
0.0
  0
LINE
  5
14EC2
330
747D
100
AcDbEntity
  8
部品1
100
AcDbLine
 10
6915.544233315984
 20
8179.495508130287
 30
0.0
 11
6915.544233315984
 21
8149.995508130338
 31
0.0
  0
LINE
  5
14EC3
330
747D
100
AcDbEntity
  8
部品1
100
AcDbLine
 10
6917.544233315981
 20
8175.995508130331
 30
0.0
 11
6917.544233315981
 21
8149.995508130338
 31
0.0
  0
LINE
  5
14EC4
330
747D
100
AcDbEntity
  8
部品1
 48
5.0
100
AcDbLine
 10
6915.544233315984
 20
8179.495508130338
 30
0.0
 11
6915.544233315984
 21
8149.995508130338
 31
0.0
  0
LINE
  5
14EC5
330
747D
100
AcDbEntity
  8
部品1
100
AcDbLine
 10
6829.544233315981
 20
8179.49550813028
 30
0.0
 11
6829.544233315981
 21
8149.995508130331
 31
0.0
  0
LINE
  5
14EC6
330
747D
100
AcDbEntity
  8
部品1
 48
5.0
100
AcDbLine
 10
6829.544233315984
 20
8179.495508130338
 30
0.0
 11
6829.544233315984
 21
8149.995508130338
 31
0.0
  0
LINE
  5
14EC7
330
747D
100
AcDbEntity
  8
部品1
 48
5.0
100
AcDbLine
 10
6829.544233315984
 20
8149.995508130338
 30
0.0
 11
6915.544233315984
 21
8149.995508130338
 31
0.0
  0
LINE
  5
14EC8
330
747D
100
AcDbEntity
  8
部品1
 48
5.0
100
AcDbLine
 10
6927.544233315984
 20
8204.995508130338
 30
0.0
 11
6927.544233315988
 21
8179.495508130338
 31
0.0
  0
LINE
  5
14EC9
330
747D
100
AcDbEntity
  8
部品1
 48
5.0
100
AcDbLine
 10
6896.544233315989
 20
8204.995508130338
 30
0.0
 11
6896.544233315984
 21
8179.495508130338
 31
0.0
  0
LINE
  5
14ECA
330
747D
100
AcDbEntity
  8
部品1
 48
5.0
100
AcDbLine
 10
6848.544233315985
 20
8204.995508130338
 30
0.0
 11
6848.544233315985
 21
8179.495508130338
 31
0.0
  0
LINE
  5
14ECB
330
747D
100
AcDbEntity
  8
部品1
 48
5.0
100
AcDbLine
 10
6817.544233315985
 20
8204.995508130338
 30
0.0
 11
6817.544233315988
 21
8179.495508130338
 31
0.0
  0
LINE
  5
14ECC
330
747D
100
AcDbEntity
  8
部品1
 48
5.0
100
AcDbLine
 10
6872.54423331597
 20
8624.995508130337
 30
0.0
 11
6844.544233315914
 21
8624.995508130345
 31
0.0
  0
LINE
  5
14ECD
330
747D
100
AcDbEntity
  8
部品1
100
AcDbLine
 10
7647.54423331598
 20
8175.995508130389
 30
0.0
 11
7647.544233315985
 21
8149.99550813038
 31
0.0
  0
LINE
  5
14ECE
330
747D
100
AcDbEntity
  8
部品1
 48
0.2
100
AcDbLine
 10
7634.606681144662
 20
8142.993138085575
 30
0.0
 11
7639.606681144662
 21
8142.993138085575
 31
0.0
  0
ARC
  5
14ECF
330
747D
100
AcDbEntity
  8
部品1
 48
0.2
100
AcDbCircle
 10
7639.606681144662
 20
8150.993138085574
 30
0.0
 40
8.0
100
AcDbArc
 50
270.0
 51
352.8363522778074
  0
ARC
  5
14ED0
330
747D
100
AcDbEntity
  8
部品1
 48
0.2
100
AcDbCircle
 10
7634.606681144662
 20
8150.993138085574
 30
0.0
 40
8.0
100
AcDbArc
 50
187.1636477221926
 51
269.9999999999992
  0
ARC
  5
14ED1
330
747D
100
AcDbEntity
  8
細線
 48
0.2
100
AcDbCircle
 10
7639.606681144662
 20
8150.993138085574
 30
0.0
 40
4.049999999999999
100
AcDbArc
 50
194.2603506853988
 51
345.7396493146012
  0
LINE
  5
14ED2
330
747D
100
AcDbEntity
  8
部品1
 48
2.83
100
AcDbLine
 10
7649.544233315966
 20
8179.495508130353
 30
0.0
 11
7649.544233315966
 21
8149.995508130352
 31
0.0
  0
LINE
  5
14ED3
330
747D
100
AcDbEntity
  8
部品1
 48
2.83
100
AcDbLine
 10
7767.544233315966
 20
8204.995508130352
 30
0.0
 11
7767.544233315966
 21
8179.495508130353
 31
0.0
  0
LINE
  5
14ED4
330
747D
100
AcDbEntity
  8
破線
 48
10.0
100
AcDbLine
 10
6928.044229039894
 20
8977.495213038816
 30
0.0
 11
7766.043630684177
 21
8977.495178448284
 31
0.0
  0
LINE
  5
14ED5
330
747D
100
AcDbEntity
  8
破線
 48
10.0
100
AcDbLine
 10
6928.044229039894
 20
8927.495213038815
 30
0.0
 11
7766.043604822094
 21
8927.495178448284
 31
0.0
  0
LINE
  5
14ED6
330
747D
100
AcDbEntity
  8
破線
 48
10.0
100
AcDbLine
 10
6951.544224094629
 20
8977.495212068795
 30
0.0
 11
6951.544220884866
 21
9200.495508130345
 31
0.0
  0
LINE
  5
14ED7
330
747D
100
AcDbEntity
  8
破線
 48
10.0
100
AcDbLine
 10
6793.544227118596
 20
8977.495184743082
 30
0.0
 11
6793.544224961424
 21
9200.495508130403
 31
0.0
  0
LINE
  5
14ED8
330
747D
100
AcDbEntity
  8
部品1
 48
50.0
100
AcDbLine
 10
6872.544233315959
 20
9242.995508130345
 30
0.0
 11
6900.544233315945
 21
9242.995508130345
 31
0.0
  0
LINE
  5
14ED9
330
747D
100
AcDbEntity
  8
部品1
 48
50.0
100
AcDbLine
 10
6872.544233315959
 20
9204.995508130345
 30
0.0
 11
6900.544233315945
 21
9204.995508130345
 31
0.0
  0
LINE
  5
14EDA
330
747D
100
AcDbEntity
  8
部品1
 48
5.0
100
AcDbLine
 10
6872.54423331597
 20
9204.995508130338
 30
0.0
 11
6844.544233315914
 21
9204.995508130345
 31
0.0
  0
LINE
  5
14EDB
330
747D
100
AcDbEntity
  8
破線
 48
10.0
100
AcDbLine
 10
7742.544298240661
 20
9200.495508130345
 30
0.0
 11
7742.544281476864
 21
8977.495179418278
 31
0.0
  0
DIMENSION
  5
14EDC
330
747D
100
AcDbEntity
  8
寸法
100
AcDbDimension
  2
*D6
 10
5027.544233315988
 20
9895.803727755284
 30
0.0
 11
4664.058951941715
 21
9895.803727755284
 31
0.0
 70
   160
 71
     5
 42
55.00000000003274
  3
INABA_S40G
100
AcDbAlignedDimension
 13
4972.544233315955
 23
9679.995508130302
 33
0.0
 14
5027.544233315988
 24
9679.995508130302
 34
0.0
100
AcDbRotatedDimension
1001
ACAD
1000
DSTYLE
1002
{
1002
}
  0
LINE
  5
14EDD
330
747D
100
AcDbEntity
  8
部品1
100
AcDbLine
 10
5001.544239993585
 20
9650.495508130273
 30
0.0
 11
5893.544239993586
 21
9650.495508130383
 31
0.0
  0
LINE
  5
14EDE
330
747D
100
AcDbEntity
  8
部品1
100
AcDbLine
 10
5000.544233315988
 20
9651.995508130301
 30
0.0
 11
5919.924936334613
 21
9651.995508130324
 31
0.0
  0
DIMENSION
  5
14EDF
330
747D
100
AcDbEntity
  8
寸法
100
AcDbDimension
  2
*D7
 10
5867.544233315988
 20
9895.803727755399
 30
0.0
 11
5447.544233315988
 21
9895.803727755399
 31
0.0
 70
   160
  1
2X420=<>
 71
     5
 42
840.0
  3
INABA_S40G
100
AcDbAlignedDimension
 13
5027.544233315988
 23
9679.995508130332
 33
0.0
 14
5867.544233315988
 24
9679.995508130417
 34
0.0
100
AcDbRotatedDimension
1001
ACAD
1000
DSTYLE
1002
{
1002
}
  0
LINE
  5
14EE0
330
747D
100
AcDbEntity
  8
部品1
 48
50.0
100
AcDbLine
 10
5002.044239993578
 20
9650.495508130273
 30
0.0
 11
5000.544233315956
 21
9651.995508130266
 31
0.0
  0
LINE
  5
14EE1
330
747D
100
AcDbEntity
  8
部品1
100
AcDbLine
 10
5027.544233315955
 20
9679.995508130266
 30
0.0
 11
5027.544233315959
 21
9651.995508130266
 31
0.0
  0
LINE
  5
14EE2
330
747D
100
AcDbEntity
  8
部品1
100
AcDbLine
 10
5027.544233315988
 20
9679.995508130302
 30
0.0
 11
5027.544233315988
 21
9651.995508130301
 31
0.0
  0
LINE
  5
14EE3
330
747D
100
AcDbEntity
  8
部品1
100
AcDbLine
 10
5000.544233315959
 20
9624.995508130274
 30
0.0
 11
4972.544233315959
 21
9624.995508130274
 31
0.0
  0
LINE
  5
14EE4
330
747D
100
AcDbEntity
  8
部品1
100
AcDbLine
 10
5951.544239993586
 20
9650.495508130273
 30
0.0
 11
6843.544239993585
 21
9650.495508130383
 31
0.0
  0
LINE
  5
14EE5
330
747D
100
AcDbEntity
  8
部品1
100
AcDbLine
 10
5950.544233315937
 20
9651.995508130324
 30
0.0
 11
6869.924936334591
 21
9651.995508130346
 31
0.0
  0
DIMENSION
  5
14EE6
330
747D
100
AcDbEntity
  8
寸法
100
AcDbDimension
  2
*D8
 10
6817.544233315988
 20
9895.803727755399
 30
0.0
 11
6397.544233315988
 21
9895.803727755399
 31
0.0
 70
   160
  1
2X420=<>
 71
     5
 42
840.0
  3
INABA_S40G
100
AcDbAlignedDimension
 13
5977.544233315988
 23
9679.995508130332
 33
0.0
 14
6817.544233315988
 24
9679.995508130417
 34
0.0
100
AcDbRotatedDimension
1001
ACAD
1000
DSTYLE
1002
{
1002
}
  0
LINE
  5
14EE7
330
747D
100
AcDbEntity
  8
部品1
100
AcDbLine
 10
5447.044233315923
 20
9679.995508130259
 30
0.0
 11
5447.044233315923
 21
9651.995508130259
 31
0.0
  0
LINE
  5
14EE8
330
747D
100
AcDbEntity
  8
部品1
100
AcDbLine
 10
5447.044233315955
 20
9679.995508130295
 30
0.0
 11
5447.044233315955
 21
9651.995508130294
 31
0.0
  0
DIMENSION
  5
14EE9
330
747D
100
AcDbEntity
  8
寸法
 48
50.0
100
AcDbDimension
  2
*D9
 10
5977.544233315992
 20
9895.803727755399
 30
0.0
 11
5922.544233315992
 21
10147.53706870479
 31
0.0
 70
   160
 71
     5
 42
110.0000000000036
  3
INABA_S40G
100
AcDbAlignedDimension
 13
5867.544233315988
 23
9679.995508130417
 33
0.0
 14
5977.544233315992
 24
9679.995508130396
 34
0.0
100
AcDbRotatedDimension
1001
ACAD
1000
DSTYLE
1002
{
1070
   279
1070
     2
1002
}
  0
LINE
  5
14EEA
330
747D
100
AcDbEntity
  8
部品1
 48
50.0
100
AcDbLine
 10
5952.044239993578
 20
9650.495508130273
 30
0.0
 11
5950.544233315955
 21
9651.995508130266
 31
0.0
  0
LINE
  5
14EEB
330
747D
100
AcDbEntity
  8
部品1
 48
50.0
100
AcDbLine
 10
5893.096840804006
 20
9650.495508130383
 30
0.0
 11
5894.544233315883
 21
9651.99550813031
 31
0.0
  0
LINE
  5
14EEC
330
747D
100
AcDbEntity
  8
部品1
 48
5.0
100
AcDbLine
 10
5977.544233315992
 20
9679.995508130346
 30
0.0
 11
5977.544233315988
 21
9651.995508130353
 31
0.0
  0
LINE
  5
14EED
330
747D
100
AcDbEntity
  8
部品1
 48
5.0
100
AcDbLine
 10
5950.544233315919
 20
9624.995508130346
 30
0.0
 11
5894.544233315915
 21
9624.995508130346
 31
0.0
  0
LINE
  5
14EEE
330
747D
100
AcDbEntity
  8
部品1
 48
5.0
100
AcDbLine
 10
5897.253507763162
 20
9679.995508130346
 30
0.0
 11
5919.924936334592
 21
9651.995508130346
 31
0.0
  0
LINE
  5
14EEF
330
747D
100
AcDbEntity
  8
部品1
 48
5.0
100
AcDbLine
 10
5867.544233315988
 20
9651.995508130346
 30
0.0
 11
5867.544233315988
 21
9679.995508130346
 31
0.0
  0
DIMENSION
  5
14EF0
330
747D
100
AcDbEntity
  8
寸法
 48
50.0
100
AcDbDimension
  2
*D10
 10
6927.544233315991
 20
9895.803727755399
 30
0.0
 11
6872.544233315991
 21
10147.53706870479
 31
0.0
 70
   160
 71
     5
 42
110.0000000000036
  3
INABA_S40G
100
AcDbAlignedDimension
 13
6817.544233315988
 23
9679.995508130417
 33
0.0
 14
6927.544233315991
 24
9679.995508130396
 34
0.0
100
AcDbRotatedDimension
1001
ACAD
1000
DSTYLE
1002
{
1070
   279
1070
     2
1002
}
  0
LINE
  5
14EF1
330
747D
100
AcDbEntity
  8
部品1
 48
5.0
100
AcDbLine
 10
6817.544233315988
 20
9651.995508130346
 30
0.0
 11
6817.544233315988
 21
9679.995508130346
 31
0.0
  0
LINE
  5
14EF2
330
747D
100
AcDbEntity
  8
部品1
 48
50.0
100
AcDbLine
 10
6902.044239993578
 20
9650.495508130273
 30
0.0
 11
6900.544233315955
 21
9651.995508130266
 31
0.0
  0
LINE
  5
14EF3
330
747D
100
AcDbEntity
  8
部品1
 48
50.0
100
AcDbLine
 10
6843.096840804006
 20
9650.495508130383
 30
0.0
 11
6844.544233315883
 21
9651.99550813031
 31
0.0
  0
LINE
  5
14EF4
330
747D
100
AcDbEntity
  8
部品1
 48
5.0
100
AcDbLine
 10
6900.544233315919
 20
9624.995508130346
 30
0.0
 11
6844.544233315914
 21
9624.995508130346
 31
0.0
  0
LINE
  5
14EF5
330
747D
100
AcDbEntity
  8
部品1
 48
5.0
100
AcDbLine
 10
6847.253507763162
 20
9679.995508130346
 30
0.0
 11
6869.924936334591
 21
9651.995508130346
 31
0.0
  0
LINE
  5
14EF6
330
747D
100
AcDbEntity
  8
部品1
 48
5.0
100
AcDbLine
 10
6927.544233315991
 20
9679.995508130346
 30
0.0
 11
6927.544233315988
 21
9651.995508130353
 31
0.0
  0
LINE
  5
14EF7
330
747D
100
AcDbEntity
  8
部品1
100
AcDbLine
 10
7767.544233315992
 20
9679.995508130396
 30
0.0
 11
7767.544233315992
 21
9651.995508130397
 31
0.0
  0
LINE
  5
14EF8
330
747D
100
AcDbEntity
  8
部品1
100
AcDbLine
 10
7767.544233315992
 20
9679.99550813041
 30
0.0
 11
7767.544233315992
 21
9651.995508130411
 31
0.0
  0
LINE
  5
14EF9
330
747D
100
AcDbEntity
  8
部品1
 48
50.0
100
AcDbLine
 10
7793.544239993585
 20
9650.495508130376
 30
0.0
 11
7793.544239993585
 21
9200.495508130375
 31
0.0
  0
LINE
  5
14EFA
330
747D
100
AcDbEntity
  8
部品1
100
AcDbLine
 10
7822.544233315992
 20
9679.995508130396
 30
0.0
 11
7822.544233315966
 21
8149.99550813038
 31
0.0
  0
LINE
  5
14EFB
330
747D
100
AcDbEntity
  8
部品1
100
AcDbLine
 10
7794.544233315992
 20
9651.995508130397
 30
0.0
 11
7794.544233315966
 21
8204.995508130382
 31
0.0
  0
DIMENSION
  5
14EFC
330
747D
100
AcDbEntity
  8
寸法
100
AcDbDimension
  2
*D11
 10
8148.901965855626
 20
9105.277692461385
 30
0.0
 11
8148.901965855625
 21
9330.277692461375
 31
0.0
 70
   160
 71
     5
 42
449.9999999999927
  3
INABA_S40G
100
AcDbAlignedDimension
 13
7793.5442399936
 23
9650.495508130266
 33
0.0
 14
7793.544239993607
 24
9200.495508130272
 34
0.0
 50
90.0
100
AcDbRotatedDimension
1001
ACAD
1000
DSTYLE
1002
{
1002
}
  0
DIMENSION
  5
14EFE
330
747D
100
AcDbEntity
  8
寸法
100
AcDbDimension
  2
*D12
 10
8779.082109866079
 20
8149.99550813038
 30
0.0
 11
8779.082109866079
 21
8914.995508130388
 31
0.0
 70
   160
 71
     5
 42
1530.000000000014
  3
INABA_S40G
100
AcDbAlignedDimension
 13
7822.544233315992
 23
9679.995508130396
 33
0.0
 14
7822.544233315966
 24
8149.99550813038
 34
0.0
 50
90.0
100
AcDbRotatedDimension
1001
ACAD
1000
DSTYLE
1002
{
1002
}
  0
DIMENSION
  5
14EFF
330
747D
100
AcDbEntity
  8
寸法
100
AcDbDimension
  2
*D13
 10
8469.970579050379
 20
8149.99550813038
 30
0.0
 11
8469.970579050375
 21
7772.13404122552
 31
0.0
 70
   160
 71
     5
 42
55.0
  3
INABA_S40G
100
AcDbAlignedDimension
 13
7822.544233315966
 23
8204.995508130382
 33
0.0
 14
7822.544233315966
 24
8149.99550813038
 34
0.0
 50
90.0
100
AcDbRotatedDimension
1001
ACAD
1000
DSTYLE
1002
{
1002
}
  0
LINE
  5
14F00
330
747D
100
AcDbEntity
  8
部品1
100
AcDbLine
 10
7794.544233315999
 20
8204.995508130396
 30
0.0
 11
7822.544233315999
 21
8204.995508130396
 31
0.0
  0
LINE
  5
14F01
330
747D
100
AcDbEntity
  8
部品1
100
AcDbLine
 10
7794.544233315966
 20
8204.995508130382
 30
0.0
 11
7822.544233315966
 21
8204.995508130382
 31
0.0
  0
LINE
  5
14F02
330
747D
100
AcDbEntity
  8
部品1
 48
2.83
100
AcDbLine
 10
7822.544233315966
 20
8204.995508130352
 30
0.0
 11
7799.544233315966
 21
8204.995508130352
 31
0.0
  0
LINE
  5
14F03
330
747D
100
AcDbEntity
  8
部品1
 48
2.83
100
AcDbLine
 10
7779.544233315967
 20
8179.495508130353
 30
0.0
 11
7779.544233315967
 21
8149.995508130352
 31
0.0
  0
LINE
  5
14F04
330
747D
100
AcDbEntity
  8
部品1
100
AcDbLine
 10
7794.544233315992
 20
8624.995508130396
 30
0.0
 11
7822.544233315992
 21
8624.995508130396
 31
0.0
  0
LINE
  5
14F05
330
747D
100
AcDbEntity
  8
部品1
100
AcDbLine
 10
7794.544233315992
 20
9204.995508130396
 30
0.0
 11
7822.544233315992
 21
9204.995508130396
 31
0.0
  0
DIMENSION
  5
14F06
330
747D
100
AcDbEntity
  8
寸法
100
AcDbDimension
  2
*D14
 10
8469.970579050402
 20
9624.995508130396
 30
0.0
 11
8469.970579050402
 21
9988.480789504636
 31
0.0
 70
   160
 71
     5
 42
55.0
  3
INABA_S40G
100
AcDbAlignedDimension
 13
7822.544233315992
 23
9679.995508130396
 33
0.0
 14
7822.544233315992
 24
9624.995508130396
 34
0.0
 50
90.0
100
AcDbRotatedDimension
1001
ACAD
1000
DSTYLE
1002
{
1002
}
  0
LINE
  5
14F07
330
747D
100
AcDbEntity
  8
部品1
 48
50.0
100
AcDbLine
 10
7793.096840804006
 20
9650.495508130383
 30
0.0
 11
7794.544233315882
 21
9651.99550813031
 31
0.0
  0
LINE
  5
14F08
330
747D
100
AcDbEntity
  8
部品1
100
AcDbLine
 10
7794.544233315992
 20
9624.995508130396
 30
0.0
 11
7822.544233315992
 21
9624.995508130396
 31
0.0
  0
DIMENSION
  5
15249
330
747D
100
AcDbEntity
  8
寸法
 48
50.0
100
AcDbDimension
  2
*D15
 10
8469.970579050402
 20
9204.995508130396
 30
0.0
 11
8369.958768026778
 21
9414.995508130399
 31
0.0
 70
    32
 71
     5
 42
420.0
  3
INABA_S40G
100
AcDbAlignedDimension
 13
7822.544233315992
 23
9624.995508130396
 33
0.0
 14
7822.544233315992
 24
9204.995508130396
 34
0.0
 50
90.0
100
AcDbRotatedDimension
  0
DIMENSION
  5
15256
330
747D
100
AcDbEntity
  8
寸法
 48
50.0
100
AcDbDimension
  2
*D16
 10
8469.970579050402
 20
8624.995508130396
 30
0.0
 11
8369.9705790504
 21
8914.995508130399
 31
0.0
 70
    32
 71
     5
 42
580.0
  3
INABA_S40G
100
AcDbAlignedDimension
 13
7822.544233315992
 23
9204.995508130396
 33
0.0
 14
7822.544233315992
 24
8624.995508130396
 34
0.0
 50
90.0
100
AcDbRotatedDimension
  0
DIMENSION
  5
15263
330
747D
100
AcDbEntity
  8
寸法
 48
50.0
100
AcDbDimension
  2
*D17
 10
8469.970579050402
 20
8624.995508130396
 30
0.0
 11
8369.958768026778
 21
8414.995508130376
 31
0.0
 70
    32
 71
     5
 42
420.0000000000436
  3
INABA_S40G
100
AcDbAlignedDimension
 13
7822.544233315968
 23
8204.995508130352
 33
0.0
 14
7822.544233315992
 24
8624.995508130396
 34
0.0
 50
90.0
100
AcDbRotatedDimension
  0
LINE
  5
1526E
330
747D
100
AcDbEntity
  8
部品1
100
AcDbLine
 10
6397.044233315956
 20
9679.995508130222
 30
0.0
 11
6397.044233315956
 21
9651.995508130221
 31
0.0
  0
LINE
  5
1526F
330
747D
100
AcDbEntity
  8
部品1
100
AcDbLine
 10
6397.044233315923
 20
9679.995508130184
 30
0.0
 11
6397.044233315923
 21
9651.995508130186
 31
0.0
  0
LINE
  5
15270
330
747D
100
AcDbEntity
  8
部品1
100
AcDbLine
 10
7347.044233315926
 20
9679.995508130184
 30
0.0
 11
7347.044233315926
 21
9651.995508130186
 31
0.0
  0
LINE
  5
15271
330
747D
100
AcDbEntity
  8
部品1
100
AcDbLine
 10
7347.044233315959
 20
9679.995508130222
 30
0.0
 11
7347.044233315959
 21
9651.995508130221
 31
0.0
  0
LINE
  5
152BA
330
747D
100
AcDbEntity
  8
細線
 48
50.0
100
AcDbLine
 10
5141.544233315981
 20
8175.995508130382
 30
0.0
 11
5141.544233315981
 21
8149.995508130334
 31
0.0
  0
LINE
  5
152BB
330
747D
100
AcDbEntity
  8
細線
 48
50.0
100
AcDbLine
 10
5367.544233315981
 20
8175.99550813037
 30
0.0
 11
5367.544233315981
 21
8149.995508130334
 31
0.0
  0
LINE
  5
152BC
330
747D
100
AcDbEntity
  8
細線
 48
50.0
100
AcDbLine
 10
5327.544233315981
 20
8175.99550813037
 30
0.0
 11
5327.544233315981
 21
8149.995508130334
 31
0.0
  0
LINE
  5
152BD
330
747D
100
AcDbEntity
  8
細線
 48
50.0
100
AcDbLine
 10
5554.544233315981
 20
8175.995508130585
 30
0.0
 11
5554.544233315981
 21
8149.995508130549
 31
0.0
  0
LINE
  5
152BE
330
747D
100
AcDbEntity
  8
細線
 48
50.0
100
AcDbLine
 10
5594.544233315981
 20
8175.995508130585
 30
0.0
 11
5594.544233315981
 21
8149.995508130549
 31
0.0
  0
LINE
  5
152BF
330
747D
100
AcDbEntity
  8
細線
 48
50.0
100
AcDbLine
 10
6091.544233315981
 20
8175.995508130382
 30
0.0
 11
6091.544233315981
 21
8149.995508130334
 31
0.0
  0
LINE
  5
152C0
330
747D
100
AcDbEntity
  8
細線
 48
50.0
100
AcDbLine
 10
6277.544233315981
 20
8175.99550813037
 30
0.0
 11
6277.544233315981
 21
8149.995508130334
 31
0.0
  0
LINE
  5
152C1
330
747D
100
AcDbEntity
  8
細線
 48
50.0
100
AcDbLine
 10
6317.544233315981
 20
8175.99550813037
 30
0.0
 11
6317.544233315981
 21
8149.995508130334
 31
0.0
  0
LINE
  5
152C2
330
747D
100
AcDbEntity
  8
細線
 48
50.0
100
AcDbLine
 10
6544.54423331598
 20
8175.995508130585
 30
0.0
 11
6544.54423331598
 21
8149.995508130549
 31
0.0
  0
LINE
  5
152C3
330
747D
100
AcDbEntity
  8
細線
 48
50.0
100
AcDbLine
 10
6504.544233315981
 20
8175.995508130585
 30
0.0
 11
6504.544233315981
 21
8149.995508130549
 31
0.0
  0
LINE
  5
152C4
330
747D
100
AcDbEntity
  8
細線
 48
50.0
100
AcDbLine
 10
7041.544233315981
 20
8175.995508130382
 30
0.0
 11
7041.544233315981
 21
8149.995508130334
 31
0.0
  0
LINE
  5
152C5
330
747D
100
AcDbEntity
  8
細線
 48
50.0
100
AcDbLine
 10
7267.54423331598
 20
8175.99550813037
 30
0.0
 11
7267.54423331598
 21
8149.995508130334
 31
0.0
  0
LINE
  5
152C6
330
747D
100
AcDbEntity
  8
細線
 48
50.0
100
AcDbLine
 10
7227.544233315981
 20
8175.99550813037
 30
0.0
 11
7227.544233315981
 21
8149.995508130334
 31
0.0
  0
LINE
  5
152C7
330
747D
100
AcDbEntity
  8
細線
 48
50.0
100
AcDbLine
 10
7454.544233315981
 20
8175.995508130585
 30
0.0
 11
7454.544233315981
 21
8149.995508130549
 31
0.0
  0
LINE
  5
152C8
330
747D
100
AcDbEntity
  8
細線
 48
50.0
100
AcDbLine
 10
7494.544233315981
 20
8175.995508130585
 30
0.0
 11
7494.544233315981
 21
8149.995508130549
 31
0.0
  0
ARC
  5
1530C
330
747D
100
AcDbEntity
  8
細線
100
AcDbCircle
 10
5078.544233315964
 20
4247.806328044404
 30
0.0
 40
5.5
100
AcDbArc
 50
270.0
 51
0.0
  0
ARC
  5
1530D
330
747D
100
AcDbEntity
  8
部品1
100
AcDbCircle
 10
5079.544233315965
 20
4246.806328044405
 30
0.0
 40
6.0
100
AcDbArc
 50
270.0
 51
0.0
  0
ARC
  5
1530E
330
747D
100
AcDbEntity
  8
細線
100
AcDbCircle
 10
5039.377614846719
 20
4247.806328044404
 30
0.0
 40
5.5
100
AcDbArc
 50
190.4214509727298
 51
269.9999999999997
  0
ARC
  5
1530F
330
747D
100
AcDbEntity
  8
部品1
100
AcDbCircle
 10
5038.545963424949
 20
4246.806328044405
 30
0.0
 40
6.0
100
AcDbArc
 50
190.5838025965097
 51
270.0
  0
LINE
  5
15310
330
747D
100
AcDbEntity
  8
細線
100
AcDbLine
 10
5039.377614846719
 20
4242.306328044405
 30
0.0
 11
5078.544233315964
 21
4242.306328044405
 31
0.0
  0
LINE
  5
15311
330
747D
100
AcDbEntity
  8
部品1
100
AcDbLine
 10
5038.545963424949
 20
4240.806328044405
 30
0.0
 11
5079.544233315965
 21
4240.806328044405
 31
0.0
  0
CIRCLE
  5
15312
330
747D
100
AcDbEntity
  8
細線
 48
20.0
100
AcDbCircle
 10
5059.045098370457
 20
4401.306328044404
 30
0.0
 40
20.0
  0
CIRCLE
  5
15313
330
747D
100
AcDbEntity
  8
細線
 48
20.0
100
AcDbCircle
 10
5059.045098370457
 20
4401.306328044404
 30
0.0
 40
10.0
  0
ARC
  5
15314
330
747D
100
AcDbEntity
  8
細線
100
AcDbCircle
 10
5073.544233315964
 20
4344.806328044405
 30
0.0
 40
6.0
100
AcDbArc
 50
0.0
 51
90.0
  0
ARC
  5
15315
330
747D
100
AcDbEntity
  8
細線
100
AcDbCircle
 10
5063.75177249471
 20
4341.806328044405
 30
0.0
 40
6.0
100
AcDbArc
 50
0.0
 51
90.0
  0
ARC
  5
15316
330
747D
100
AcDbEntity
  8
細線
100
AcDbCircle
 10
5078.544233315964
 20
4353.806328044405
 30
0.0
 40
5.5
100
AcDbArc
 50
0.0
 51
90.0
  0
ARC
  5
15317
330
747D
100
AcDbEntity
  8
部品1
100
AcDbCircle
 10
5079.544233315965
 20
4354.806328044404
 30
0.0
 40
6.0
100
AcDbArc
 50
0.0
 51
90.0
  0
LINE
  5
15318
330
747D
100
AcDbEntity
  8
細線
100
AcDbLine
 10
5053.038657225798
 20
4344.806328044405
 30
0.0
 11
5051.544233315965
 21
4344.806328044405
 31
0.0
  0
ARC
  5
15319
330
747D
100
AcDbEntity
  8
細線
100
AcDbCircle
 10
5053.038657225798
 20
4341.806328044405
 30
0.0
 40
3.0
100
AcDbArc
 50
8.099550838277986
 51
90.0
  0
ARC
  5
1531A
330
747D
100
AcDbEntity
  8
細線
100
AcDbCircle
 10
5042.925189680442
 20
4344.806328044405
 30
0.0
 40
6.0
100
AcDbArc
 50
90.0
 51
171.2120626773636
  0
LINE
  5
1531B
330
747D
100
AcDbEntity
  8
細線
100
AcDbLine
 10
5051.544233315965
 20
4344.805820145841
 30
0.0
 11
5038.780906099997
 21
4344.805820145841
 31
0.0
  0
ARC
  5
1531C
330
747D
100
AcDbEntity
  8
細線
100
AcDbCircle
 10
5039.377614846719
 20
4353.806328044405
 30
0.0
 40
5.5
100
AcDbArc
 50
89.99999999999969
 51
169.5785490272683
  0
ARC
  5
1531D
330
747D
100
AcDbEntity
  8
部品1
100
AcDbCircle
 10
5038.545963424949
 20
4354.806328044404
 30
0.0
 40
6.0
100
AcDbArc
 50
90.0
 51
169.4161974034886
  0
LINE
  5
1531E
330
747D
100
AcDbEntity
  8
細線
100
AcDbLine
 10
5078.544233315964
 20
4359.306328044405
 30
0.0
 11
5039.377614846719
 21
4359.306328044405
 31
0.0
  0
LINE
  5
1531F
330
747D
100
AcDbEntity
  8
細線
100
AcDbLine
 10
5063.75177249471
 20
4347.806328044405
 30
0.0
 11
5051.544233315965
 21
4347.806328044405
 31
0.0
  0
LINE
  5
15320
330
747D
100
AcDbEntity
  8
細線
100
AcDbLine
 10
5073.544233315964
 20
4350.806328044405
 30
0.0
 11
5042.925189680442
 21
4350.806328044405
 31
0.0
  0
LINE
  5
15321
330
747D
100
AcDbEntity
  8
部品1
100
AcDbLine
 10
5079.544233315965
 20
4360.806328044405
 30
0.0
 11
5038.545963424949
 21
4360.806328044405
 31
0.0
  0
ARC
  5
15322
330
747D
100
AcDbEntity
  8
細線
100
AcDbCircle
 10
5073.544233315964
 20
4256.806328044405
 30
0.0
 40
6.0
100
AcDbArc
 50
270.0
 51
0.0
  0
ARC
  5
15323
330
747D
100
AcDbEntity
  8
細線
100
AcDbCircle
 10
5063.75177249471
 20
4259.806328044405
 30
0.0
 40
6.0
100
AcDbArc
 50
270.0
 51
360.0
  0
LINE
  5
15324
330
747D
100
AcDbEntity
  8
細線
100
AcDbLine
 10
5051.544233315965
 20
4256.806328044405
 30
0.0
 11
5053.038657225799
 21
4256.806328044405
 31
0.0
  0
ARC
  5
15325
330
747D
100
AcDbEntity
  8
細線
100
AcDbCircle
 10
5053.038657225799
 20
4259.806328044405
 30
0.0
 40
3.0
100
AcDbArc
 50
270.0
 51
351.9004491617184
  0
ARC
  5
15326
330
747D
100
AcDbEntity
  8
細線
100
AcDbCircle
 10
5042.925189680442
 20
4256.806328044405
 30
0.0
 40
6.0
100
AcDbArc
 50
188.7879373226349
 51
270.0
  0
LINE
  5
15327
330
747D
100
AcDbEntity
  8
細線
100
AcDbLine
 10
5051.544233315965
 20
4256.806835942966
 30
0.0
 11
5038.065528817142
 21
4256.806835942966
 31
0.0
  0
LINE
  5
15328
330
747D
100
AcDbEntity
  8
細線
100
AcDbLine
 10
5051.544233315965
 20
4253.806328044404
 30
0.0
 11
5063.75177249471
 21
4253.806328044404
 31
0.0
  0
LINE
  5
15329
330
747D
100
AcDbEntity
  8
細線
100
AcDbLine
 10
5042.925189680442
 20
4250.806328044404
 30
0.0
 11
5073.544233315964
 21
4250.806328044404
 31
0.0
  0
LINE
  5
1532A
330
747D
100
AcDbEntity
  8
細線
100
AcDbLine
 10
5069.75177249471
 20
4259.806328044405
 30
0.0
 11
5069.75177249471
 21
4341.806328044405
 31
0.0
  0
LINE
  5
1532B
330
747D
100
AcDbEntity
  8
細線
100
AcDbLine
 10
5079.544233315965
 20
4256.806328044405
 30
0.0
 11
5079.544233315965
 21
4344.806328044405
 31
0.0
  0
LINE
  5
1532C
330
747D
100
AcDbEntity
  8
細線
100
AcDbLine
 10
5084.044233315964
 20
4247.806328044404
 30
0.0
 11
5084.044233315964
 21
4353.806328044405
 31
0.0
  0
LINE
  5
1532D
330
747D
100
AcDbEntity
  8
部品1
100
AcDbLine
 10
5085.544233315964
 20
4246.806328044405
 30
0.0
 11
5085.544233315964
 21
4354.806328044404
 31
0.0
  0
LINE
  5
1532E
330
747D
100
AcDbEntity
  8
細線
100
AcDbLine
 10
5051.544233315965
 20
4350.806328044405
 30
0.0
 11
5051.544233315965
 21
4250.806328044404
 31
0.0
  0
ARC
  5
1532F
330
747D
100
AcDbEntity
  8
細線
100
AcDbCircle
 10
5327.544233315965
 20
4300.806328044404
 30
0.0
 40
298.5
100
AcDbArc
 50
169.578549027269
 51
190.4214509727309
  0
ARC
  5
15330
330
747D
100
AcDbEntity
  8
細線
100
AcDbCircle
 10
5327.544233315965
 20
4300.806328044404
 30
0.0
 40
294.0
100
AcDbArc
 50
171.212062677364
 51
188.7879373226359
  0
ARC
  5
15331
330
747D
100
AcDbEntity
  8
細線
100
AcDbCircle
 10
4764.94145140804
 20
4300.806328044404
 30
0.0
 40
294.0
100
AcDbArc
 50
351.900449161722
 51
8.099550838278029
  0
ARC
  5
15332
330
747D
100
AcDbEntity
  8
部品1
100
AcDbCircle
 10
5327.544233315965
 20
4300.806328044404
 30
0.0
 40
300.0
100
AcDbArc
 50
169.4161974034894
 51
190.5838025965105
  0
LINE
  5
15335
330
747D
100
AcDbEntity
  8
細線
100
AcDbLine
 10
6019.751772494711
 20
4259.806328044405
 30
0.0
 11
6019.751772494711
 21
4341.806328044405
 31
0.0
  0
LINE
  5
15336
330
747D
100
AcDbEntity
  8
細線
100
AcDbLine
 10
6029.544233315965
 20
4256.806328044405
 30
0.0
 11
6029.544233315965
 21
4344.806328044405
 31
0.0
  0
LINE
  5
15337
330
747D
100
AcDbEntity
  8
細線
100
AcDbLine
 10
6034.044233315964
 20
4247.806328044404
 30
0.0
 11
6034.044233315964
 21
4353.806328044405
 31
0.0
  0
LINE
  5
15338
330
747D
100
AcDbEntity
  8
部品1
100
AcDbLine
 10
6035.544233315964
 20
4246.806328044405
 30
0.0
 11
6035.544233315964
 21
4354.806328044404
 31
0.0
  0
LINE
  5
15339
330
747D
100
AcDbEntity
  8
細線
100
AcDbLine
 10
6001.544233315964
 20
4350.806328044405
 30
0.0
 11
6001.544233315964
 21
4250.806328044404
 31
0.0
  0
ARC
  5
1533A
330
747D
100
AcDbEntity
  8
細線
100
AcDbCircle
 10
6277.544233315964
 20
4300.806328044404
 30
0.0
 40
298.5
100
AcDbArc
 50
169.578549027269
 51
190.4214509727309
  0
ARC
  5
1533B
330
747D
100
AcDbEntity
  8
細線
100
AcDbCircle
 10
6277.544233315964
 20
4300.806328044404
 30
0.0
 40
294.0
100
AcDbArc
 50
171.212062677364
 51
188.7879373226359
  0
ARC
  5
1533C
330
747D
100
AcDbEntity
  8
細線
100
AcDbCircle
 10
5714.94145140804
 20
4300.806328044404
 30
0.0
 40
294.0
100
AcDbArc
 50
351.900449161722
 51
8.099550838278029
  0
ARC
  5
1533D
330
747D
100
AcDbEntity
  8
部品1
100
AcDbCircle
 10
6277.544233315964
 20
4300.806328044404
 30
0.0
 40
300.0
100
AcDbArc
 50
169.4161974034894
 51
190.5838025965105
  0
ARC
  5
1533E
330
747D
100
AcDbEntity
  8
細線
100
AcDbCircle
 10
6028.544233315964
 20
4247.806328044404
 30
0.0
 40
5.5
100
AcDbArc
 50
270.0
 51
0.0
  0
ARC
  5
1533F
330
747D
100
AcDbEntity
  8
部品1
100
AcDbCircle
 10
6029.544233315965
 20
4246.806328044405
 30
0.0
 40
6.0
100
AcDbArc
 50
270.0
 51
0.0
  0
ARC
  5
15340
330
747D
100
AcDbEntity
  8
細線
100
AcDbCircle
 10
5989.377614846719
 20
4247.806328044404
 30
0.0
 40
5.5
100
AcDbArc
 50
190.4214509727298
 51
269.9999999999997
  0
ARC
  5
15341
330
747D
100
AcDbEntity
  8
部品1
100
AcDbCircle
 10
5988.545963424949
 20
4246.806328044405
 30
0.0
 40
6.0
100
AcDbArc
 50
190.5838025965097
 51
270.0
  0
ARC
  5
15342
330
747D
100
AcDbEntity
  8
細線
100
AcDbCircle
 10
6013.75177249471
 20
4259.806328044405
 30
0.0
 40
6.0
100
AcDbArc
 50
270.0
 51
360.0
  0
LINE
  5
15343
330
747D
100
AcDbEntity
  8
細線
100
AcDbLine
 10
6001.544233315964
 20
4256.806328044405
 30
0.0
 11
6003.0386572258
 21
4256.806328044405
 31
0.0
  0
ARC
  5
15344
330
747D
100
AcDbEntity
  8
細線
100
AcDbCircle
 10
6003.0386572258
 20
4259.806328044405
 30
0.0
 40
3.0
100
AcDbArc
 50
270.0
 51
351.9004491617184
  0
ARC
  5
15345
330
747D
100
AcDbEntity
  8
細線
100
AcDbCircle
 10
5992.925189680441
 20
4256.806328044405
 30
0.0
 40
6.0
100
AcDbArc
 50
188.7879373226349
 51
270.0
  0
LINE
  5
15346
330
747D
100
AcDbEntity
  8
細線
100
AcDbLine
 10
6001.544233315964
 20
4256.806835942966
 30
0.0
 11
5988.065528817141
 21
4256.806835942966
 31
0.0
  0
LINE
  5
15347
330
747D
100
AcDbEntity
  8
細線
100
AcDbLine
 10
6001.544233315964
 20
4253.806328044404
 30
0.0
 11
6013.75177249471
 21
4253.806328044404
 31
0.0
  0
LINE
  5
15348
330
747D
100
AcDbEntity
  8
細線
100
AcDbLine
 10
5992.925189680441
 20
4250.806328044404
 30
0.0
 11
6023.544233315965
 21
4250.806328044404
 31
0.0
  0
LINE
  5
15349
330
747D
100
AcDbEntity
  8
細線
100
AcDbLine
 10
5989.377614846719
 20
4242.306328044405
 30
0.0
 11
6028.544233315964
 21
4242.306328044405
 31
0.0
  0
LINE
  5
1534A
330
747D
100
AcDbEntity
  8
部品1
100
AcDbLine
 10
5988.545963424949
 20
4240.806328044405
 30
0.0
 11
6029.544233315965
 21
4240.806328044405
 31
0.0
  0
ARC
  5
1534B
330
747D
100
AcDbEntity
  8
細線
100
AcDbCircle
 10
6023.544233315965
 20
4256.806328044405
 30
0.0
 40
6.0
100
AcDbArc
 50
270.0
 51
0.0
  0
ARC
  5
1534C
330
747D
100
AcDbEntity
  8
細線
100
AcDbCircle
 10
6028.544233315964
 20
4353.806328044405
 30
0.0
 40
5.5
100
AcDbArc
 50
0.0
 51
90.0
  0
ARC
  5
1534D
330
747D
100
AcDbEntity
  8
部品1
100
AcDbCircle
 10
6029.544233315965
 20
4354.806328044404
 30
0.0
 40
6.0
100
AcDbArc
 50
0.0
 51
90.0
  0
CIRCLE
  5
1534E
330
747D
100
AcDbEntity
  8
細線
 48
20.0
100
AcDbCircle
 10
6009.045098370457
 20
4401.306328044404
 30
0.0
 40
10.0
  0
ARC
  5
1534F
330
747D
100
AcDbEntity
  8
細線
100
AcDbCircle
 10
6013.75177249471
 20
4341.806328044405
 30
0.0
 40
6.0
100
AcDbArc
 50
0.0
 51
90.0
  0
LINE
  5
15350
330
747D
100
AcDbEntity
  8
細線
100
AcDbLine
 10
6003.038657225797
 20
4344.806328044405
 30
0.0
 11
6001.544233315964
 21
4344.806328044405
 31
0.0
  0
ARC
  5
15351
330
747D
100
AcDbEntity
  8
細線
100
AcDbCircle
 10
6003.038657225797
 20
4341.806328044405
 30
0.0
 40
3.0
100
AcDbArc
 50
8.099550838277986
 51
90.0
  0
ARC
  5
15352
330
747D
100
AcDbEntity
  8
細線
100
AcDbCircle
 10
5992.925189680441
 20
4344.806328044405
 30
0.0
 40
6.0
100
AcDbArc
 50
90.0
 51
171.2120626773636
  0
LINE
  5
15353
330
747D
100
AcDbEntity
  8
細線
100
AcDbLine
 10
6001.544233315964
 20
4344.805820145841
 30
0.0
 11
5988.780906099997
 21
4344.805820145841
 31
0.0
  0
ARC
  5
15354
330
747D
100
AcDbEntity
  8
細線
100
AcDbCircle
 10
5989.377614846719
 20
4353.806328044405
 30
0.0
 40
5.5
100
AcDbArc
 50
89.99999999999969
 51
169.5785490272683
  0
ARC
  5
15355
330
747D
100
AcDbEntity
  8
部品1
100
AcDbCircle
 10
5988.545963424949
 20
4354.806328044404
 30
0.0
 40
6.0
100
AcDbArc
 50
90.0
 51
169.4161974034886
  0
LINE
  5
15356
330
747D
100
AcDbEntity
  8
細線
100
AcDbLine
 10
6013.75177249471
 20
4347.806328044405
 30
0.0
 11
6001.544233315964
 21
4347.806328044405
 31
0.0
  0
LINE
  5
15357
330
747D
100
AcDbEntity
  8
細線
100
AcDbLine
 10
6023.544233315965
 20
4350.806328044405
 30
0.0
 11
5992.925189680441
 21
4350.806328044405
 31
0.0
  0
CIRCLE
  5
15358
330
747D
100
AcDbEntity
  8
細線
 48
20.0
100
AcDbCircle
 10
6009.045098370457
 20
4401.306328044404
 30
0.0
 40
20.0
  0
ARC
  5
15359
330
747D
100
AcDbEntity
  8
細線
100
AcDbCircle
 10
6023.544233315965
 20
4344.806328044405
 30
0.0
 40
6.0
100
AcDbArc
 50
0.0
 51
90.0
  0
LINE
  5
1535A
330
747D
100
AcDbEntity
  8
細線
100
AcDbLine
 10
6028.544233315964
 20
4359.306328044405
 30
0.0
 11
5989.377614846719
 21
4359.306328044405
 31
0.0
  0
LINE
  5
1535B
330
747D
100
AcDbEntity
  8
部品1
100
AcDbLine
 10
6029.544233315965
 20
4360.806328044405
 30
0.0
 11
5988.545963424949
 21
4360.806328044405
 31
0.0
  0
ARC
  5
1535C
330
747D
100
AcDbEntity
  8
部品1
100
AcDbCircle
 10
7227.544233315964
 20
4300.806328044404
 30
0.0
 40
300.0
100
AcDbArc
 50
169.4161974034894
 51
190.5838025965105
  0
ARC
  5
1535D
330
747D
100
AcDbEntity
  8
細線
100
AcDbCircle
 10
6664.94145140804
 20
4300.806328044404
 30
0.0
 40
294.0
100
AcDbArc
 50
351.900449161722
 51
8.099550838278029
  0
ARC
  5
1535E
330
747D
100
AcDbEntity
  8
細線
100
AcDbCircle
 10
7227.544233315964
 20
4300.806328044404
 30
0.0
 40
294.0
100
AcDbArc
 50
171.212062677364
 51
188.7879373226359
  0
ARC
  5
1535F
330
747D
100
AcDbEntity
  8
細線
100
AcDbCircle
 10
7227.544233315964
 20
4300.806328044404
 30
0.0
 40
298.5
100
AcDbArc
 50
169.578549027269
 51
190.4214509727309
  0
LINE
  5
15360
330
747D
100
AcDbEntity
  8
細線
100
AcDbLine
 10
6951.544233315964
 20
4350.806328044405
 30
0.0
 11
6951.544233315964
 21
4250.806328044404
 31
0.0
  0
LINE
  5
15361
330
747D
100
AcDbEntity
  8
部品1
100
AcDbLine
 10
6985.544233315964
 20
4246.806328044405
 30
0.0
 11
6985.544233315964
 21
4354.806328044404
 31
0.0
  0
LINE
  5
15362
330
747D
100
AcDbEntity
  8
細線
100
AcDbLine
 10
6984.044233315964
 20
4247.806328044404
 30
0.0
 11
6984.044233315964
 21
4353.806328044405
 31
0.0
  0
LINE
  5
15363
330
747D
100
AcDbEntity
  8
細線
100
AcDbLine
 10
6979.544233315964
 20
4256.806328044405
 30
0.0
 11
6979.544233315964
 21
4344.806328044405
 31
0.0
  0
LINE
  5
15364
330
747D
100
AcDbEntity
  8
細線
100
AcDbLine
 10
6969.75177249471
 20
4259.806328044405
 30
0.0
 11
6969.75177249471
 21
4341.806328044405
 31
0.0
  0
ARC
  5
15365
330
747D
100
AcDbEntity
  8
細線
100
AcDbCircle
 10
6973.544233315964
 20
4256.806328044405
 30
0.0
 40
6.0
100
AcDbArc
 50
270.0
 51
0.0
  0
LINE
  5
15366
330
747D
100
AcDbEntity
  8
部品1
100
AcDbLine
 10
6938.54596342495
 20
4240.806328044405
 30
0.0
 11
6979.544233315964
 21
4240.806328044405
 31
0.0
  0
LINE
  5
15367
330
747D
100
AcDbEntity
  8
細線
100
AcDbLine
 10
6939.377614846718
 20
4242.306328044405
 30
0.0
 11
6978.544233315965
 21
4242.306328044405
 31
0.0
  0
LINE
  5
15368
330
747D
100
AcDbEntity
  8
細線
100
AcDbLine
 10
6942.925189680441
 20
4250.806328044404
 30
0.0
 11
6973.544233315964
 21
4250.806328044404
 31
0.0
  0
LINE
  5
15369
330
747D
100
AcDbEntity
  8
細線
100
AcDbLine
 10
6951.544233315964
 20
4253.806328044404
 30
0.0
 11
6963.75177249471
 21
4253.806328044404
 31
0.0
  0
LINE
  5
1536A
330
747D
100
AcDbEntity
  8
細線
100
AcDbLine
 10
6951.544233315964
 20
4256.806835942966
 30
0.0
 11
6938.065528817142
 21
4256.806835942966
 31
0.0
  0
ARC
  5
1536B
330
747D
100
AcDbEntity
  8
細線
100
AcDbCircle
 10
6942.925189680441
 20
4256.806328044405
 30
0.0
 40
6.0
100
AcDbArc
 50
188.7879373226349
 51
270.0
  0
ARC
  5
1536C
330
747D
100
AcDbEntity
  8
細線
100
AcDbCircle
 10
6953.0386572258
 20
4259.806328044405
 30
0.0
 40
3.0
100
AcDbArc
 50
270.0
 51
351.9004491617184
  0
LINE
  5
1536D
330
747D
100
AcDbEntity
  8
細線
100
AcDbLine
 10
6951.544233315964
 20
4256.806328044405
 30
0.0
 11
6953.0386572258
 21
4256.806328044405
 31
0.0
  0
ARC
  5
1536E
330
747D
100
AcDbEntity
  8
細線
100
AcDbCircle
 10
6963.75177249471
 20
4259.806328044405
 30
0.0
 40
6.0
100
AcDbArc
 50
270.0
 51
360.0
  0
ARC
  5
1536F
330
747D
100
AcDbEntity
  8
部品1
100
AcDbCircle
 10
6938.54596342495
 20
4246.806328044405
 30
0.0
 40
6.0
100
AcDbArc
 50
190.5838025965097
 51
270.0
  0
ARC
  5
15370
330
747D
100
AcDbEntity
  8
細線
100
AcDbCircle
 10
6939.377614846718
 20
4247.806328044404
 30
0.0
 40
5.5
100
AcDbArc
 50
190.4214509727298
 51
269.9999999999997
  0
ARC
  5
15371
330
747D
100
AcDbEntity
  8
部品1
100
AcDbCircle
 10
6979.544233315964
 20
4246.806328044405
 30
0.0
 40
6.0
100
AcDbArc
 50
270.0
 51
0.0
  0
ARC
  5
15372
330
747D
100
AcDbEntity
  8
細線
100
AcDbCircle
 10
6978.544233315965
 20
4247.806328044404
 30
0.0
 40
5.5
100
AcDbArc
 50
270.0
 51
0.0
  0
LINE
  5
15373
330
747D
100
AcDbEntity
  8
部品1
100
AcDbLine
 10
6979.544233315964
 20
4360.806328044405
 30
0.0
 11
6938.54596342495
 21
4360.806328044405
 31
0.0
  0
LINE
  5
15374
330
747D
100
AcDbEntity
  8
細線
100
AcDbLine
 10
6978.544233315965
 20
4359.306328044405
 30
0.0
 11
6939.377614846718
 21
4359.306328044405
 31
0.0
  0
ARC
  5
15375
330
747D
100
AcDbEntity
  8
細線
100
AcDbCircle
 10
6973.544233315964
 20
4344.806328044405
 30
0.0
 40
6.0
100
AcDbArc
 50
0.0
 51
90.0
  0
CIRCLE
  5
15376
330
747D
100
AcDbEntity
  8
細線
 48
20.0
100
AcDbCircle
 10
6959.045098370459
 20
4401.306328044404
 30
0.0
 40
20.0
  0
LINE
  5
15377
330
747D
100
AcDbEntity
  8
細線
100
AcDbLine
 10
6973.544233315964
 20
4350.806328044405
 30
0.0
 11
6942.925189680441
 21
4350.806328044405
 31
0.0
  0
LINE
  5
15378
330
747D
100
AcDbEntity
  8
細線
100
AcDbLine
 10
6963.75177249471
 20
4347.806328044405
 30
0.0
 11
6951.544233315964
 21
4347.806328044405
 31
0.0
  0
ARC
  5
15379
330
747D
100
AcDbEntity
  8
部品1
100
AcDbCircle
 10
6938.54596342495
 20
4354.806328044404
 30
0.0
 40
6.0
100
AcDbArc
 50
90.0
 51
169.4161974034886
  0
ARC
  5
1537A
330
747D
100
AcDbEntity
  8
細線
100
AcDbCircle
 10
6939.377614846718
 20
4353.806328044405
 30
0.0
 40
5.5
100
AcDbArc
 50
89.99999999999969
 51
169.5785490272683
  0
LINE
  5
1537B
330
747D
100
AcDbEntity
  8
細線
100
AcDbLine
 10
6951.544233315964
 20
4344.805820145841
 30
0.0
 11
6938.780906099997
 21
4344.805820145841
 31
0.0
  0
ARC
  5
1537C
330
747D
100
AcDbEntity
  8
細線
100
AcDbCircle
 10
6942.925189680441
 20
4344.806328044405
 30
0.0
 40
6.0
100
AcDbArc
 50
90.0
 51
171.2120626773636
  0
ARC
  5
1537D
330
747D
100
AcDbEntity
  8
細線
100
AcDbCircle
 10
6953.038657225798
 20
4341.806328044405
 30
0.0
 40
3.0
100
AcDbArc
 50
8.099550838277986
 51
90.0
  0
LINE
  5
1537E
330
747D
100
AcDbEntity
  8
細線
100
AcDbLine
 10
6953.038657225798
 20
4344.806328044405
 30
0.0
 11
6951.544233315964
 21
4344.806328044405
 31
0.0
  0
ARC
  5
1537F
330
747D
100
AcDbEntity
  8
細線
100
AcDbCircle
 10
6963.75177249471
 20
4341.806328044405
 30
0.0
 40
6.0
100
AcDbArc
 50
0.0
 51
90.0
  0
CIRCLE
  5
15380
330
747D
100
AcDbEntity
  8
細線
 48
20.0
100
AcDbCircle
 10
6959.045098370459
 20
4401.306328044404
 30
0.0
 40
10.0
  0
ARC
  5
15381
330
747D
100
AcDbEntity
  8
部品1
100
AcDbCircle
 10
6979.544233315964
 20
4354.806328044404
 30
0.0
 40
6.0
100
AcDbArc
 50
0.0
 51
90.0
  0
ARC
  5
15382
330
747D
100
AcDbEntity
  8
細線
100
AcDbCircle
 10
6978.544233315965
 20
4353.806328044405
 30
0.0
 40
5.5
100
AcDbArc
 50
0.0
 51
90.0
  0
DIMENSION
  5
15397
330
747D
100
AcDbEntity
  8
寸法
 48
50.0
100
AcDbDimension
  2
*D18
 10
6662.544233315981
 20
7710.171840335217
 30
0.0
 11
6320.044233315985
 21
7710.171840335217
 31
0.0
 70
   160
 71
     5
 42
684.9999999999927
  3
INABA_S40G
100
AcDbAlignedDimension
 13
5977.544233315988
 23
8149.995508130293
 33
0.0
 14
6662.544233315981
 24
8149.995508130258
 34
0.0
100
AcDbRotatedDimension
  0
DIMENSION
  5
153AF
330
747D
100
AcDbEntity
  8
寸法
 48
50.0
100
AcDbDimension
  2
*D19
 10
5712.544233315981
 20
7710.171840335217
 30
0.0
 11
5370.044233315985
 21
7710.171840335217
 31
0.0
 70
   160
 71
     5
 42
684.9999999999927
  3
INABA_S40G
100
AcDbAlignedDimension
 13
5027.544233315988
 23
8149.995508130293
 33
0.0
 14
5712.544233315981
 24
8149.995508130258
 34
0.0
100
AcDbRotatedDimension
  0
TEXT
  5
157D8
330
747D
100
AcDbEntity
  8
文字
 62
     7
 48
50.0
100
AcDbText
 10
13583.11819016568
 20
9060.013745883729
 30
0.0
 40
100.0
  1
脇パネル
  7
STYLE1
100
AcDbText
  0
TEXT
  5
157D9
330
747D
100
AcDbEntity
  8
文字
 62
     7
 48
50.0
100
AcDbText
 10
15022.63965474515
 20
9060.013745883725
 30
0.0
 40
100.0
  1
F12            0.6
  7
STYLE1
100
AcDbText
  0
TEXT
  5
157DA
330
747D
100
AcDbEntity
  8
文字
 62
     7
 48
50.0
100
AcDbText
 10
13248.77747366447
 20
8550.013745883735
 30
0.0
 40
100.0
  1
16
  7
STYLE1
100
AcDbText
  0
LINE
  5
157DB
330
747D
100
AcDbEntity
  8
仕様書枠
 48
50.0
100
AcDbLine
 10
16307.19999999997
 20
8179.600000000007
 30
0.0
 11
13127.19999999998
 21
8179.600000000007
 31
0.0
  0
DIMENSION
  5
15828
330
747D
100
AcDbEntity
  8
寸法
100
AcDbDimension
  2
*D20
 10
9607.453055184146
 20
3408.806328044406
 30
0.0
 11
9607.453055184146
 21
4313.841339920791
 31
0.0
 70
   160
 71
     5
 42
1789.999999999995
  3
INABA_S40G
100
AcDbAlignedDimension
 13
10202.41377583157
 23
5198.806328044402
 33
0.0
 14
10202.41377583157
 24
3408.806328044406
 34
0.0
 50
90.0
100
AcDbRotatedDimension
1001
ACAD
1000
DSTYLE
1002
{
1070
   288
1070
     1
1002
}
  0
LINE
  5
15829
330
747D
100
AcDbEntity
  8
部品1
 48
50.0
100
AcDbLine
 10
10202.41377583157
 20
3408.806328044406
 30
0.0
 11
10209.41614587635
 21
3408.806328044406
 31
0.0
  0
LINE
  5
1582A
330
747D
100
AcDbEntity
  8
部品1
 48
0.2
100
AcDbLine
 10
10202.41377583157
 20
3419.556328044406
 30
0.0
 11
10202.41377583157
 21
3408.806328044406
 31
0.0
  0
LINE
  5
1582B
330
747D
100
AcDbEntity
  8
部品1
 48
50.0
100
AcDbLine
 10
10202.41377583157
 20
3419.556328044406
 30
0.0
 11
10209.41614587635
 21
3419.556328044406
 31
0.0
  0
LINE
  5
1582C
330
747D
100
AcDbEntity
  8
部品1
 48
50.0
100
AcDbLine
 10
10202.41377583157
 20
5188.056328044402
 30
0.0
 11
10209.41614587635
 21
5188.056328044402
 31
0.0
  0
LINE
  5
1582D
330
747D
100
AcDbEntity
  8
部品1
 48
0.2
100
AcDbLine
 10
10202.41377583157
 20
5198.806328044402
 30
0.0
 11
10202.41377583157
 21
5188.056328044404
 31
0.0
  0
LINE
  5
1582E
330
747D
100
AcDbEntity
  8
部品1
 48
50.0
100
AcDbLine
 10
10824.41614587635
 20
5564.674467145682
 30
0.0
 11
11124.41614587635
 21
5543.074467145683
 31
0.0
  0
LINE
  5
1582F
330
747D
100
AcDbEntity
  8
細線
 48
50.0
100
AcDbLine
 10
11341.91614587635
 20
5198.806328044402
 30
0.0
 11
11341.91614587635
 21
3408.806328044402
 31
0.0
  0
LINE
  5
15830
330
747D
100
AcDbEntity
  8
細線
 48
50.0
100
AcDbLine
 10
11326.91614587635
 20
5198.806328044402
 30
0.0
 11
11326.91614587635
 21
3408.806328044402
 31
0.0
  0
LINE
  5
15831
330
747D
100
AcDbEntity
  8
細線
 48
50.0
100
AcDbLine
 10
11466.91614587635
 20
5198.806328044402
 30
0.0
 11
11466.91614587635
 21
3408.806328044402
 31
0.0
  0
LINE
  5
15832
330
747D
100
AcDbEntity
  8
細線
 48
50.0
100
AcDbLine
 10
11481.91614587635
 20
5198.806328044402
 30
0.0
 11
11481.91614587635
 21
3408.806328044402
 31
0.0
  0
LINE
  5
15833
330
747D
100
AcDbEntity
  8
細線
 48
50.0
100
AcDbLine
 10
11621.91614587635
 20
5198.806328044402
 30
0.0
 11
11621.91614587635
 21
3408.806328044402
 31
0.0
  0
LINE
  5
15834
330
747D
100
AcDbEntity
  8
細線
 48
50.0
100
AcDbLine
 10
11606.91614587635
 20
5198.806328044402
 30
0.0
 11
11606.91614587635
 21
3408.806328044402
 31
0.0
  0
LINE
  5
15835
330
747D
100
AcDbEntity
  8
部品1
100
AcDbLine
 10
11264.41614587635
 20
5198.806328044402
 30
0.0
 11
11264.41614587635
 21
3408.806328044402
 31
0.0
  0
TEXT
  5
15836
330
747D
100
AcDbEntity
  8
部品1
 48
50.0
100
AcDbText
 10
11301.50899316421
 20
5463.057231079833
 30
0.0
 40
120.0
  1
64
 50
90.0
  7
STYLE1
100
AcDbText
  0
TEXT
  5
15837
330
747D
100
AcDbEntity
  8
部品1
 48
50.0
100
AcDbText
 10
10812.68398110007
 20
5600.558489298116
 30
0.0
 40
120.0
  1
1000
  7
STYLE1
100
AcDbText
  0
LINE
  5
15838
330
747D
100
AcDbEntity
  8
部品1
 48
50.0
100
AcDbLine
 10
11124.41614587635
 20
5564.674467145682
 30
0.0
 11
11124.41614587635
 21
5543.074467145683
 31
0.0
  0
LINE
  5
15839
330
747D
100
AcDbEntity
  8
部品1
 48
50.0
100
AcDbLine
 10
10824.41614587635
 20
5564.674467145682
 30
0.0
 11
11124.41614587635
 21
5564.674467145682
 31
0.0
  0
DIMENSION
  5
1583A
330
747D
100
AcDbEntity
  8
寸法
 48
50.0
100
AcDbDimension
  2
*D21
 10
9557.149894164966
 20
5455.628818941217
 30
0.0
 11
9565.827637816854
 21
5685.465057958108
 31
0.0
 70
   160
 71
     5
 42
141.0
  3
INABA_S40G
100
AcDbAlignedDimension
 13
10164.7587104783
 23
5291.587353113369
 33
0.0
 14
10170.07854463026
 24
5432.486960510252
 34
0.0
 50
87.83775598715743
100
AcDbRotatedDimension
1001
ACAD
1000
DSTYLE
1002
{
1070
   174
1070
     0
1070
   272
1070
     1
1070
   288
1070
     0
1070
   341
1005
0
1002
}
  0
DIMENSION
  5
1583B
330
747D
100
AcDbEntity
  8
寸法
 48
50.0
100
AcDbDimension
  2
*D22
 10
11819.41614587635
 20
5832.463781623706
 30
0.0
 11
12025.46338997084
 21
5832.463781623706
 31
0.0
 70
   160
 71
     5
 42
80.0
  3
INABA_S40G
100
AcDbAlignedDimension
 13
11739.41614587635
 23
5380.617007656056
 33
0.0
 14
11819.41614587635
 24
5378.806328044404
 34
0.0
100
AcDbRotatedDimension
1001
ACAD
1000
DSTYLE
1002
{
1070
   174
1070
     0
1070
   272
1070
     1
1070
   288
1070
     0
1070
   341
1005
0
1002
}
  0
ARC
  5
1583C
330
747D
100
AcDbEntity
  8
部品1
100
AcDbCircle
 10
11805.04368169028
 20
5272.240128928621
 30
0.0
 40
0.7
100
AcDbArc
 50
275.0921697642102
 51
354.1866997667606
  0
ARC
  5
1583D
330
747D
100
AcDbEntity
  8
部品1
100
AcDbCircle
 10
11815.9030274396
 20
5349.283383746544
 30
0.0
 40
0.7
100
AcDbArc
 50
275.0921697642102
 51
354.1866997665532
  0
ARC
  5
1583E
330
747D
100
AcDbEntity
  8
部品1
100
AcDbCircle
 10
11816.23143268221
 20
5345.597986889454
 30
0.0
 40
3.0
100
AcDbArc
 50
95.0921697642102
 51
174.1866997665532
  0
ARC
  5
1583F
330
747D
100
AcDbEntity
  8
部品1
100
AcDbCircle
 10
11805.37208693288
 20
5268.554732071531
 30
0.0
 40
3.0
100
AcDbArc
 50
95.0921697642102
 51
174.1866997665532
  0
ARC
  5
15840
330
747D
100
AcDbEntity
  8
部品1
 48
50.0
100
AcDbCircle
 10
11794.34395165778
 20
5258.963987467648
 30
0.0
 40
7.0
100
AcDbArc
 50
267.8377559869492
 51
354.1866997665532
  0
ARC
  5
15841
330
747D
100
AcDbEntity
  8
部品1
 48
50.0
100
AcDbCircle
 10
11811.66604812229
 20
5369.866534609821
 30
0.0
 40
7.0
100
AcDbArc
 50
354.1866997665532
 51
87.03587545283093
  0
LINE
  5
15842
330
747D
100
AcDbEntity
  8
部品1
 48
50.0
100
AcDbLine
 10
11802.38751526227
 20
5268.858593788433
 30
0.0
 11
11801.30795222253
 21
5258.254976794875
 31
0.0
  0
LINE
  5
15843
330
747D
100
AcDbEntity
  8
部品1
 48
50.0
100
AcDbLine
 10
11813.24686101159
 20
5345.901848606358
 30
0.0
 11
11805.74008174676
 21
5272.169227861344
 31
0.0
  0
LINE
  5
15844
330
747D
100
AcDbEntity
  8
部品1
 48
50.0
100
AcDbLine
 10
11818.63004868705
 20
5369.157523937047
 30
0.0
 11
11816.59942749608
 21
5349.212482679266
 31
0.0
  0
ARC
  5
15845
330
747D
100
AcDbEntity
  8
部品1
100
AcDbCircle
 10
10155.45323774771
 20
5312.620487003307
 30
0.0
 40
0.7
100
AcDbArc
 50
181.0932240292114
 51
260.1877540314845
  0
ARC
  5
15846
330
747D
100
AcDbEntity
  8
部品1
100
AcDbCircle
 10
10150.6805641501
 20
5405.486265203427
 30
0.0
 40
0.7
100
AcDbArc
 50
181.0932240292114
 51
260.1877540314845
  0
ARC
  5
15847
330
747D
100
AcDbEntity
  8
部品1
100
AcDbCircle
 10
10150.05000974708
 20
5401.840390666028
 30
0.0
 40
3.0
100
AcDbArc
 50
1.093224029315636
 51
80.18775403169875
  0
ARC
  5
15848
330
747D
100
AcDbEntity
  8
部品1
100
AcDbCircle
 10
10154.82268334469
 20
5308.974612465909
 30
0.0
 40
3.0
100
AcDbArc
 50
1.093224029315636
 51
80.18775403148449
  0
ARC
  5
15849
330
747D
100
AcDbEntity
  8
部品1
 48
50.0
100
AcDbCircle
 10
10165.02281571989
 20
5298.582369083428
 30
0.0
 40
7.0
100
AcDbArc
 50
181.0932240293156
 51
267.8377559869492
  0
ARC
  5
1584A
330
747D
100
AcDbEntity
  8
部品1
 48
50.0
100
AcDbCircle
 10
10156.59915761779
 20
5425.533428616524
 30
0.0
 40
7.0
100
AcDbArc
 50
87.03587545283093
 51
181.0932240293156
  0
LINE
  5
1584B
330
747D
100
AcDbEntity
  8
部品1
 48
50.0
100
AcDbLine
 10
10157.82213727112
 20
5309.031850069092
 30
0.0
 11
10158.02408989155
 21
5298.448814676
 31
0.0
  0
LINE
  5
1584C
330
747D
100
AcDbEntity
  8
細線
 48
50.0
100
AcDbLine
 10
10155.21604421445
 20
5311.961898187901
 30
0.0
 11
11805.21970864508
 21
5271.562622831833
 31
0.0
  0
LINE
  5
1584D
330
747D
100
AcDbEntity
  8
細線
 48
50.0
100
AcDbLine
 10
10150.45556897716
 20
5404.823409885764
 30
0.0
 11
11816.09155372233
 21
5348.609248863362
 31
0.0
  0
LINE
  5
1584E
330
747D
100
AcDbEntity
  8
部品1
 48
50.0
100
AcDbLine
 10
10153.04946367351
 20
5401.89762826921
 30
0.0
 11
10154.75336516488
 21
5312.607131562565
 31
0.0
  0
LINE
  5
1584F
330
747D
100
AcDbEntity
  8
部品1
 48
50.0
100
AcDbLine
 10
10149.60043178945
 20
5425.399874209095
 30
0.0
 11
10149.98069156727
 21
5405.472909762684
 31
0.0
  0
LINE
  5
15850
330
747D
100
AcDbEntity
  8
細線
 48
50.0
100
AcDbLine
 10
11786.41614587635
 20
5378.183350698123
 30
0.0
 11
11781.66846298835
 21
5252.437578207381
 31
0.0
  0
LINE
  5
15851
330
747D
100
AcDbEntity
  8
細線
 48
50.0
100
AcDbLine
 10
10182.41614587635
 20
5431.206004419808
 30
0.0
 11
10177.12704432084
 21
5291.120371792453
 31
0.0
  0
LINE
  5
15852
330
747D
100
AcDbEntity
  8
部品1
100
AcDbLine
 10
10164.7587104783
 20
5291.587353113369
 30
0.0
 11
11794.07984641619
 21
5251.96897149759
 31
0.0
  0
LINE
  5
15853
330
747D
100
AcDbEntity
  8
部品1
100
AcDbLine
 10
10156.96113223331
 20
5432.524063378669
 30
0.0
 11
11812.02802273781
 21
5376.857169371968
 31
0.0
  0
LINE
  5
15854
330
747D
100
AcDbEntity
  8
細線
 48
50.0
100
AcDbLine
 10
10341.91614587635
 20
5198.806328044402
 30
0.0
 11
10341.91614587635
 21
3408.806328044402
 31
0.0
  0
LINE
  5
15855
330
747D
100
AcDbEntity
  8
細線
 48
50.0
100
AcDbLine
 10
10326.91614587635
 20
5198.806328044402
 30
0.0
 11
10326.91614587635
 21
3408.806328044402
 31
0.0
  0
LINE
  5
15856
330
747D
100
AcDbEntity
  8
細線
 48
50.0
100
AcDbLine
 10
10466.91614587635
 20
5198.806328044402
 30
0.0
 11
10466.91614587635
 21
3408.806328044402
 31
0.0
  0
LINE
  5
15857
330
747D
100
AcDbEntity
  8
細線
 48
50.0
100
AcDbLine
 10
10481.91614587635
 20
5198.806328044402
 30
0.0
 11
10481.91614587635
 21
3408.806328044402
 31
0.0
  0
LINE
  5
15858
330
747D
100
AcDbEntity
  8
細線
 48
50.0
100
AcDbLine
 10
10621.91614587635
 20
5198.806328044402
 30
0.0
 11
10621.91614587635
 21
3408.806328044402
 31
0.0
  0
LINE
  5
15859
330
747D
100
AcDbEntity
  8
細線
 48
50.0
100
AcDbLine
 10
10606.91614587635
 20
5198.806328044402
 30
0.0
 11
10606.91614587635
 21
3408.806328044402
 31
0.0
  0
LINE
  5
1585A
330
747D
100
AcDbEntity
  8
細線
 48
50.0
100
AcDbLine
 10
11184.41614587635
 20
5198.806328044402
 30
0.0
 11
11184.41614587635
 21
3408.806328044402
 31
0.0
  0
LINE
  5
1585B
330
747D
100
AcDbEntity
  8
細線
 48
50.0
100
AcDbLine
 10
11199.41614587635
 20
5198.806328044402
 30
0.0
 11
11199.41614587635
 21
3408.806328044402
 31
0.0
  0
LWPOLYLINE
  5
1585C
330
747D
100
AcDbEntity
  8
部品1
100
AcDbPolyline
 90
        4
 70
     1
 43
0.0
 10
10522.68081276213
 20
2655.729747227687
 10
10522.68081276213
 20
2415.837425682154
 10
11286.15147899057
 20
2415.837425682154
 10
11286.15147899057
 20
2655.729747227687
  0
TEXT
  5
1585D
330
747D
100
AcDbEntity
  8
部品1
100
AcDbText
 10
10612.12691418573
 20
2462.836218009162
 30
0.0
 40
135.0
  1
側面図
  7
STYLE2
100
AcDbText
  0
LINE
  5
1585E
330
747D
100
AcDbEntity
  8
部品1
100
AcDbLine
 10
10209.41614587635
 20
3358.806328044405
 30
0.0
 11
11739.41614587635
 21
3358.806328044403
 31
0.0
  0
DIMENSION
  5
1585F
330
747D
100
AcDbEntity
  8
寸法
 48
50.0
100
AcDbDimension
  2
*D23
 10
10149.41614587635
 20
6040.63810281567
 30
0.0
 11
11036.54097557817
 21
6040.63810281567
 31
0.0
 70
   160
 71
     5
 42
1670.0
  3
INABA_S40G
100
AcDbAlignedDimension
 13
11819.41614587635
 23
5378.806328044404
 33
0.0
 14
10149.41614587635
 24
5433.806328044408
 34
0.0
100
AcDbRotatedDimension
1001
ACAD
1000
DSTYLE
1002
{
1070
   174
1070
     0
1070
   272
1070
     1
1070
   288
1070
     0
1070
   341
1005
0
1002
}
  0
DIMENSION
  5
15860
330
747D
100
AcDbEntity
  8
寸法
 48
50.0
100
AcDbDimension
  2
*D24
 10
10149.41614587635
 20
5832.463781623706
 30
0.0
 11
9839.778350600759
 21
5832.463781623706
 31
0.0
 70
   160
 71
     5
 42
60.0
  3
INABA_S40G
100
AcDbAlignedDimension
 13
10209.41614587635
 23
5429.807946167379
 33
0.0
 14
10149.41614587635
 24
5433.806328044408
 34
0.0
100
AcDbRotatedDimension
1001
ACAD
1000
DSTYLE
1002
{
1070
   174
1070
     0
1070
   272
1070
     1
1070
   288
1070
     0
1070
   341
1005
0
1002
}
  0
DIMENSION
  5
15861
330
747D
100
AcDbEntity
  8
寸法
 48
50.0
100
AcDbDimension
  2
*D25
 10
10209.41614587635
 20
5832.463781623706
 30
0.0
 11
11019.23517876689
 21
5832.463781623706
 31
0.0
 70
   160
  1
柱外寸法<>
 71
     5
 42
1530.0
  3
INABA_S40G
100
AcDbAlignedDimension
 13
11739.41614587635
 23
5380.617007656056
 33
0.0
 14
10209.41614587635
 24
5429.807946167379
 34
0.0
100
AcDbRotatedDimension
1001
ACAD
1000
DSTYLE
1002
{
1070
   174
1070
     0
1070
   272
1070
     1
1070
   288
1070
     0
1070
   341
1005
0
1002
}
  0
DIMENSION
  5
15862
330
747D
100
AcDbEntity
  8
寸法
100
AcDbDimension
  2
*D26
 10
12444.34330384848
 20
5378.806328044404
 30
0.0
 11
12344.33149282485
 21
4368.806328044406
 31
0.0
 70
    32
 71
     5
 42
2020.0
  3
INABA_S40G
100
AcDbAlignedDimension
 13
11739.41614587635
 23
3358.806328044405
 33
0.0
 14
11819.41614587635
 24
5378.806328044404
 34
0.0
 50
90.0
100
AcDbRotatedDimension
1001
ACAD
1000
DSTYLE
1002
{
1070
   174
1070
     0
1070
   272
1070
     1
1070
   288
1070
     0
1070
   341
1005
0
1002
}
  0
LINE
  5
15863
330
747D
100
AcDbEntity
  8
部品1
100
AcDbLine
 10
11684.41614587635
 20
5198.806328044402
 30
0.0
 11
11684.41614587635
 21
3408.806328044402
 31
0.0
  0
LINE
  5
15864
330
747D
100
AcDbEntity
  8
部品1
100
AcDbLine
 10
11739.41614587635
 20
5253.442908879655
 30
0.0
 11
11739.41614587635
 21
3258.806328044403
 31
0.0
  0
LINE
  5
15865
330
747D
100
AcDbEntity
  8
部品1
100
AcDbLine
 10
10684.41614587635
 20
5198.806328044402
 30
0.0
 11
10684.41614587635
 21
3408.806328044402
 31
0.0
  0
DIMENSION
  5
15866
330
747D
100
AcDbEntity
  8
寸法
100
AcDbDimension
  2
*D27
 10
9607.453055184146
 20
3358.806328044405
 30
0.0
 11
9607.453055184146
 21
3052.759083949914
 31
0.0
 70
   160
 71
     5
 42
50.00000000000182
  3
INABA_S40G
100
AcDbAlignedDimension
 13
10202.41377583157
 23
3408.806328044406
 33
0.0
 14
10154.41614587635
 24
3358.806328044405
 34
0.0
 50
90.0
100
AcDbRotatedDimension
1001
ACAD
1000
DSTYLE
1002
{
1070
   174
1070
     0
1070
   272
1070
     1
1070
   288
1070
     0
1070
   341
1005
0
1002
}
  0
DIMENSION
  5
15867
330
747D
100
AcDbEntity
  8
寸法
100
AcDbDimension
  2
*D28
 10
9305.144334235871
 20
5433.806328044408
 30
0.0
 11
9305.144334235869
 21
4334.013318464205
 31
0.0
 70
   160
 71
     5
 42
2075.000000000003
  3
INABA_S40G
100
AcDbAlignedDimension
 13
10209.41614587635
 23
3358.806328044405
 33
0.0
 14
10149.41614587635
 24
5433.806328044408
 34
0.0
 50
90.0
100
AcDbRotatedDimension
1001
ACAD
1000
DSTYLE
1002
{
1070
   174
1070
     0
1070
   272
1070
     1
1070
   288
1070
     0
1070
   341
1005
0
1002
}
  0
LINE
  5
15868
330
747D
100
AcDbEntity
  8
部品1
100
AcDbLine
 10
10209.41614587635
 20
5290.383221984845
 30
0.0
 11
10209.41614587635
 21
3258.806328044403
 31
0.0
  0
LINE
  5
15869
330
747D
100
AcDbEntity
  8
部品1
100
AcDbLine
 10
10264.41614587635
 20
5198.806328044402
 30
0.0
 11
10264.41614587635
 21
3408.806328044402
 31
0.0
  0
LINE
  5
1586A
330
747D
100
AcDbEntity
  8
部品1
100
AcDbLine
 10
10209.41614587635
 20
3408.806328044402
 30
0.0
 11
11739.41614587635
 21
3408.806328044405
 31
0.0
  0
LINE
  5
1586B
330
747D
100
AcDbEntity
  8
部品1
100
AcDbLine
 10
10202.41377583157
 20
5198.806328044404
 30
0.0
 11
11739.41614587635
 21
5198.806328044402
 31
0.0
  0
TEXT
  5
1586C
330
747D
100
AcDbEntity
  8
文字
 62
     7
 48
50.0
100
AcDbText
 10
13583.1181901657
 20
9570.013745883729
 30
0.0
 40
100.0
  1
母屋中
  7
STYLE1
100
AcDbText
  0
TEXT
  5
1586D
330
747D
100
AcDbEntity
  8
文字
 62
     7
 48
50.0
100
AcDbText
 10
15022.63965474518
 20
9570.013745883725
 30
0.0
 40
100.0
  1
F12            1.0
  7
STYLE1
100
AcDbText
  0
TEXT
  5
1586E
330
747D
100
AcDbEntity
  8
文字
 62
     7
 48
50.0
100
AcDbText
 10
13248.77747366447
 20
8890.013745883731
 30
0.0
 40
100.0
  1
14
  7
STYLE1
100
AcDbText
  0
LINE
  5
1586F
330
747D
100
AcDbEntity
  8
仕様書枠
 48
50.0
100
AcDbLine
 10
16307.2
 20
9539.6
 30
0.0
 11
13127.2
 21
9539.6
 31
0.0
  0
LWPOLYLINE
  5
15870
330
747D
100
AcDbEntity
  8
部品1
100
AcDbPolyline
 90
        4
 70
     1
 43
0.0
 10
6015.808900201758
 20
2655.729747227685
 10
6015.808900201758
 20
2415.837425682152
 10
6779.279566430195
 20
2415.837425682152
 10
6779.279566430195
 20
2655.729747227685
  0
TEXT
  5
15871
330
747D
100
AcDbEntity
  8
部品1
100
AcDbText
 10
6106.334303939714
 20
2462.836218009162
 30
0.0
 40
135.0
  1
正面図
  7
STYLE2
100
AcDbText
  0
TEXT
  5
15872
330
747D
100
AcDbEntity
  8
文字
 62
     7
 48
50.0
100
AcDbText
 10
13583.11819016567
 20
8720.013745883733
 30
0.0
 40
100.0
  1
棚板
  7
STYLE1
100
AcDbText
  0
TEXT
  5
15873
330
747D
100
AcDbEntity
  8
文字
 62
     7
 48
50.0
100
AcDbText
 10
15022.63965474514
 20
8720.013745883729
 30
0.0
 40
100.0
  1
F12            0.6
  7
STYLE1
100
AcDbText
  0
TEXT
  5
15874
330
747D
100
AcDbEntity
  8
文字
 62
     7
 48
50.0
100
AcDbText
 10
13583.11819016567
 20
8890.013745883729
 30
0.0
 40
100.0
  1
扉
  7
STYLE1
100
AcDbText
  0
TEXT
  5
15875
330
747D
100
AcDbEntity
  8
文字
 62
     7
 48
50.0
100
AcDbText
 10
15022.63965474514
 20
8890.013745883726
 30
0.0
 40
100.0
  1
F12            0.8
  7
STYLE1
100
AcDbText
  0
TEXT
  5
15876
330
747D
100
AcDbEntity
  8
文字
 62
     7
 48
50.0
100
AcDbText
 10
15022.63965474518
 20
10590.01374588372
 30
0.0
 40
100.0
  1
F12            1.0
  7
STYLE1
100
AcDbText
  0
TEXT
  5
15877
330
747D
100
AcDbEntity
  8
文字
 62
     7
 48
50.0
100
AcDbText
 10
13583.11819016571
 20
10590.01374588373
 30
0.0
 40
100.0
  1
床パネル
 41
0.9
  7
STYLE1
100
AcDbText
  0
LINE
  5
15878
330
747D
100
AcDbEntity
  8
仕様書枠
 48
50.0
100
AcDbLine
 10
16307.19999999999
 20
8689.6
 30
0.0
 11
13127.19999999999
 21
8689.600000000003
 31
0.0
  0
LINE
  5
15879
330
747D
100
AcDbEntity
  8
仕様書枠
 48
50.0
100
AcDbLine
 10
13127.2
 20
11409.6
 30
0.0
 11
13127.19999999999
 21
8179.600000000007
 31
0.0
  0
TEXT
  5
1587A
330
747D
100
AcDbEntity
  8
文字
 62
     7
 48
50.0
100
AcDbText
 10
13229.83081656553
 20
8210.013745883729
 30
0.0
 40
100.0
  1
Y10→溶融亜鉛-5％アルミニウム合金めっき鋼板(JIS G 3317)
 41
0.9
  7
STYLE1
100
AcDbText
  0
TEXT
  5
1587B
330
747D
100
AcDbEntity
  8
文字
 62
     7
 48
50.0
100
AcDbText
 10
13229.83081656553
 20
8380.013745883728
 30
0.0
 40
100.0
  1
F12→溶融亜鉛めっき鋼板(JIS G 3302)
  7
STYLE1
100
AcDbText
  0
LINE
  5
1587C
330
747D
100
AcDbEntity
  8
仕様書枠
 48
50.0
100
AcDbLine
 10
16307.19999999998
 20
8349.600000000004
 30
0.0
 11
13127.19999999999
 21
8349.600000000004
 31
0.0
  0
TEXT
  5
1587D
330
747D
100
AcDbEntity
  8
文字
 62
     7
 48
50.0
100
AcDbText
 10
15022.63965474515
 20
9230.013745883725
 30
0.0
 40
100.0
  1
F12            0.6
  7
STYLE1
100
AcDbText
  0
TEXT
  5
1587E
330
747D
100
AcDbEntity
  8
文字
 62
     7
 48
50.0
100
AcDbText
 10
15022.63965474517
 20
9400.013745883725
 30
0.0
 40
100.0
  1
Y10            0.5
  7
STYLE1
100
AcDbText
  0
TEXT
  5
1587F
330
747D
100
AcDbEntity
  8
文字
 62
     7
 48
50.0
100
AcDbText
 10
15022.63965474517
 20
9910.013745883725
 30
0.0
 40
100.0
  1
Y10            0.7
  7
STYLE1
100
AcDbText
  0
TEXT
  5
15880
330
747D
100
AcDbEntity
  8
文字
 62
     7
 48
50.0
100
AcDbText
 10
15022.63965474518
 20
10080.01374588372
 30
0.0
 40
100.0
  1
Y10            0.7
  7
STYLE1
100
AcDbText
  0
TEXT
  5
15881
330
747D
100
AcDbEntity
  8
文字
 62
     7
 48
50.0
100
AcDbText
 10
15022.63965474517
 20
10250.01374588372
 30
0.0
 40
100.0
  1
Y10            1.0
  7
STYLE1
100
AcDbText
  0
TEXT
  5
15882
330
747D
100
AcDbEntity
  8
文字
 62
     7
 48
50.0
100
AcDbText
 10
15022.63965474518
 20
10420.01374588372
 30
0.0
 40
100.0
  1
Y10            1.0
  7
STYLE1
100
AcDbText
  0
TEXT
  5
15883
330
747D
100
AcDbEntity
  8
文字
 62
     7
 48
50.0
100
AcDbText
 10
15022.63965474518
 20
10760.01374588372
 30
0.0
 40
100.0
  1
F12            1.0
  7
STYLE1
100
AcDbText
  0
TEXT
  5
15884
330
747D
100
AcDbEntity
  8
文字
 62
     7
 48
50.0
100
AcDbText
 10
15022.63965474517
 20
11100.01374588372
 30
0.0
 40
100.0
  1
F12            1.2
  7
STYLE1
100
AcDbText
  0
TEXT
  5
15885
330
747D
100
AcDbEntity
  8
文字
 62
     7
 48
50.0
100
AcDbText
 10
13248.77747366447
 20
9230.013745883729
 30
0.0
 40
100.0
  1
12
  7
STYLE1
100
AcDbText
  0
TEXT
  5
15886
330
747D
100
AcDbEntity
  8
文字
 62
     7
 48
50.0
100
AcDbText
 10
13248.77747366447
 20
9060.013745883729
 30
0.0
 40
100.0
  1
13
  7
STYLE1
100
AcDbText
  0
LINE
  5
15887
330
747D
100
AcDbEntity
  8
仕様書枠
 48
50.0
100
AcDbLine
 10
16307.19999999999
 20
8519.600000000002
 30
0.0
 11
13127.19999999999
 21
8519.600000000004
 31
0.0
  0
LINE
  5
15888
330
747D
100
AcDbEntity
  8
仕様書枠
 48
50.0
100
AcDbLine
 10
16307.19999999999
 20
8859.6
 30
0.0
 11
13127.19999999999
 21
8859.6
 31
0.0
  0
TEXT
  5
15889
330
747D
100
AcDbEntity
  8
文字
 62
     7
 48
50.0
100
AcDbText
 10
13248.77747366447
 20
9400.013745883729
 30
0.0
 40
100.0
  1
11
  7
STYLE1
100
AcDbText
  0
LINE
  5
1588A
330
747D
100
AcDbEntity
  8
仕様書枠
 48
50.0
100
AcDbLine
 10
16307.2
 20
9709.600000000001
 30
0.0
 11
13127.2
 21
9709.600000000001
 31
0.0
  0
LINE
  5
1588B
330
747D
100
AcDbEntity
  8
仕様書枠
 48
50.0
100
AcDbLine
 10
16307.2
 20
10049.6
 30
0.0
 11
13127.2
 21
10049.6
 31
0.0
  0
LINE
  5
1588C
330
747D
100
AcDbEntity
  8
仕様書枠
 48
50.0
100
AcDbLine
 10
16307.19999999999
 20
9199.600000000001
 30
0.0
 11
13127.19999999999
 21
9199.600000000001
 31
0.0
  0
LINE
  5
1588D
330
747D
100
AcDbEntity
  8
仕様書枠
 48
50.0
100
AcDbLine
 10
16307.19999999999
 20
9029.6
 30
0.0
 11
13127.19999999999
 21
9029.6
 31
0.0
  0
LINE
  5
1588E
330
747D
100
AcDbEntity
  8
仕様書枠
 48
50.0
100
AcDbLine
 10
16307.19999999999
 20
9369.600000000001
 30
0.0
 11
13127.19999999999
 21
9369.600000000001
 31
0.0
  0
TEXT
  5
1588F
330
747D
100
AcDbEntity
  8
文字
 62
     7
 48
50.0
100
AcDbText
 10
13271.19032244793
 20
10250.01374588373
 30
0.0
 40
100.0
  1
6
  7
STYLE1
100
AcDbText
  0
TEXT
  5
15890
330
747D
100
AcDbEntity
  8
文字
 62
     7
 48
50.0
100
AcDbText
 10
13271.19032244793
 20
10080.01374588373
 30
0.0
 40
100.0
  1
7
  7
STYLE1
100
AcDbText
  0
TEXT
  5
15891
330
747D
100
AcDbEntity
  8
文字
 62
     7
 48
50.0
100
AcDbText
 10
13271.19032244792
 20
9740.013745883729
 30
0.0
 40
100.0
  1
9
  7
STYLE1
100
AcDbText
  0
TEXT
  5
15892
330
747D
100
AcDbEntity
  8
文字
 62
     7
 48
50.0
100
AcDbText
 10
13271.19032244793
 20
9910.01374588373
 30
0.0
 40
100.0
  1
8
  7
STYLE1
100
AcDbText
  0
TEXT
  5
15893
330
747D
100
AcDbEntity
  8
文字
 62
     7
 48
50.0
100
AcDbText
 10
13583.1181901657
 20
9910.01374588373
 30
0.0
 40
100.0
  1
鼻隠シ前後
  7
STYLE1
100
AcDbText
  0
TEXT
  5
15894
330
747D
100
AcDbEntity
  8
文字
 62
     7
 48
50.0
100
AcDbText
 10
13583.11819016569
 20
9400.013745883729
 30
0.0
 40
100.0
  1
屋根パネル
  7
STYLE1
100
AcDbText
  0
TEXT
  5
15895
330
747D
100
AcDbEntity
  8
文字
 62
     7
 48
50.0
100
AcDbText
 10
13583.11819016568
 20
9230.013745883729
 30
0.0
 40
100.0
  1
壁パネル
  7
STYLE1
100
AcDbText
  0
TEXT
  5
15896
330
747D
100
AcDbEntity
  8
文字
 62
     7
 48
50.0
100
AcDbText
 10
13248.77747366447
 20
9570.013745883729
 30
0.0
 40
100.0
  1
10
  7
STYLE1
100
AcDbText
  0
TEXT
  5
15897
330
747D
100
AcDbEntity
  8
文字
 62
     7
 48
50.0
100
AcDbText
 10
13583.1181901657
 20
10080.01374588373
 30
0.0
 40
100.0
  1
妻板左右
  7
STYLE1
100
AcDbText
  0
TEXT
  5
15898
330
747D
100
AcDbEntity
  8
文字
 62
     7
 48
50.0
100
AcDbText
 10
13271.19032244793
 20
10420.01374588373
 30
0.0
 40
100.0
  1
5
  7
STYLE1
100
AcDbText
  0
TEXT
  5
15899
330
747D
100
AcDbEntity
  8
文字
 62
     7
 48
50.0
100
AcDbText
 10
13583.1181901657
 20
10250.01374588373
 30
0.0
 40
100.0
  1
桁後
  7
STYLE1
100
AcDbText
  0
TEXT
  5
1589A
330
747D
100
AcDbEntity
  8
文字
 62
     7
 48
50.0
100
AcDbText
 10
13583.1181901657
 20
10420.01374588373
 30
0.0
 40
100.0
  1
鴨居
  7
STYLE1
100
AcDbText
  0
TEXT
  5
1589B
330
747D
100
AcDbEntity
  8
文字
 62
     7
 48
50.0
100
AcDbText
 10
13583.1181901657
 20
10760.01374588373
 30
0.0
 40
100.0
  1
柱
  7
STYLE1
100
AcDbText
  0
TEXT
  5
1589C
330
747D
100
AcDbEntity
  8
文字
 62
     7
 48
50.0
100
AcDbText
 10
13583.11819016569
 20
11100.01374588373
 30
0.0
 40
100.0
  1
土台枠
  7
STYLE1
100
AcDbText
  0
TEXT
  5
1589D
330
747D
100
AcDbEntity
  8
文字
 62
     7
 48
50.0
100
AcDbText
 10
14859.79774614482
 20
11270.01374588373
 30
0.0
 40
100.0
  1
材料（材質）　　単位mm
  7
STYLE1
100
AcDbText
  0
TEXT
  5
1589E
330
747D
100
AcDbEntity
  8
文字
 62
     7
 48
50.0
100
AcDbText
 10
13732.03840939435
 20
11270.01374588373
 30
0.0
 40
100.0
  1
部　　品　　名
  7
STYLE1
100
AcDbText
  0
TEXT
  5
1589F
330
747D
100
AcDbEntity
  8
文字
 62
     7
 48
50.0
100
AcDbText
 10
13271.19032244793
 20
10760.01374588373
 30
0.0
 40
100.0
  1
3
  7
STYLE1
100
AcDbText
  0
TEXT
  5
158A0
330
747D
100
AcDbEntity
  8
文字
 62
     7
 48
50.0
100
AcDbText
 10
13271.19032244793
 20
10590.01374588373
 30
0.0
 40
100.0
  1
4
  7
STYLE1
100
AcDbText
  0
TEXT
  5
158A1
330
747D
100
AcDbEntity
  8
文字
 62
     7
 48
50.0
100
AcDbText
 10
13271.19032244792
 20
10930.01374588373
 30
0.0
 40
100.0
  1
2
  7
STYLE1
100
AcDbText
  0
TEXT
  5
158A2
330
747D
100
AcDbEntity
  8
文字
 62
     7
 48
50.0
100
AcDbText
 10
13271.19032244792
 20
11100.01374588373
 30
0.0
 40
100.0
  1
1
  7
STYLE1
100
AcDbText
  0
TEXT
  5
158A3
330
747D
100
AcDbEntity
  8
文字
 62
     7
 48
50.0
100
AcDbText
 10
13197.42518560407
 20
11270.01374588373
 30
0.0
 40
100.0
  1
品番
  7
STYLE1
100
AcDbText
  0
LINE
  5
158A4
330
747D
100
AcDbEntity
  8
仕様書枠
 48
50.0
100
AcDbLine
 10
16307.2
 20
10559.6
 30
0.0
 11
13127.2
 21
10559.6
 31
0.0
  0
LINE
  5
158A5
330
747D
100
AcDbEntity
  8
仕様書枠
 48
50.0
100
AcDbLine
 10
16307.2
 20
10219.6
 30
0.0
 11
13127.2
 21
10219.6
 31
0.0
  0
LINE
  5
158A6
330
747D
100
AcDbEntity
  8
仕様書枠
 48
50.0
100
AcDbLine
 10
16307.2
 20
10389.6
 30
0.0
 11
13127.2
 21
10389.6
 31
0.0
  0
LINE
  5
158A7
330
747D
100
AcDbEntity
  8
仕様書枠
 48
50.0
100
AcDbLine
 10
16307.2
 20
11069.6
 30
0.0
 11
13127.2
 21
11069.6
 31
0.0
  0
LINE
  5
158A8
330
747D
100
AcDbEntity
  8
仕様書枠
 48
50.0
100
AcDbLine
 10
16307.2
 20
10729.6
 30
0.0
 11
13127.2
 21
10729.6
 31
0.0
  0
LINE
  5
158A9
330
747D
100
AcDbEntity
  8
仕様書枠
 48
50.0
100
AcDbLine
 10
16307.2
 20
11239.6
 30
0.0
 11
13127.2
 21
11239.6
 31
0.0
  0
LINE
  5
158AA
330
747D
100
AcDbEntity
  8
仕様書枠
 48
50.0
100
AcDbLine
 10
13490.2
 20
11409.6
 30
0.0
 11
13490.20000000001
 21
8519.600000000004
 31
0.0
  0
LINE
  5
158AB
330
747D
100
AcDbEntity
  8
仕様書枠
 48
50.0
100
AcDbLine
 10
14785.2
 20
11409.59999999999
 30
0.0
 11
14785.2
 21
8519.600000000002
 31
0.0
  0
LINE
  5
158AC
330
747D
100
AcDbEntity
  8
仕様書枠
 48
50.0
100
AcDbLine
 10
16307.19999999999
 20
8179.600000000007
 30
0.0
 11
16307.2
 21
11409.6
 31
0.0
  0
LINE
  5
158AD
330
747D
100
AcDbEntity
  8
仕様書枠
 48
50.0
100
AcDbLine
 10
16307.2
 20
11409.6
 30
0.0
 11
13127.2
 21
11409.6
 31
0.0
  0
LINE
  5
158AE
330
747D
100
AcDbEntity
  8
仕様書枠
 48
50.0
100
AcDbLine
 10
16307.2
 20
9879.600000000001
 30
0.0
 11
13127.2
 21
9879.600000000001
 31
0.0
  0
TEXT
  5
158AF
330
747D
100
AcDbEntity
  8
文字
 62
     7
 48
50.0
100
AcDbText
 10
15022.63965474513
 20
8550.013745883722
 30
0.0
 40
100.0
  1
F12            2.3
  7
STYLE1
100
AcDbText
  0
TEXT
  5
158B0
330
747D
100
AcDbEntity
  8
文字
 62
     7
 48
50.0
100
AcDbText
 10
13583.11819016567
 20
8550.013745883729
 30
0.0
 40
100.0
  1
アンカープレート
  7
STYLE1
100
AcDbText
  0
TEXT
  5
158B1
330
747D
100
AcDbEntity
  8
文字
 62
     7
 48
50.0
100
AcDbText
 10
15022.63965474517
 20
9740.013745883729
 30
0.0
 40
100.0
  1
F12,Y10       0.7+1.0
  7
STYLE1
100
AcDbText
  0
TEXT
  5
158B2
330
747D
100
AcDbEntity
  8
文字
 62
     7
 48
50.0
100
AcDbText
 10
13583.1181901657
 20
9740.013745883729
 30
0.0
 40
100.0
  1
梁中央
 41
0.9
  7
STYLE1
100
AcDbText
  0
LINE
  5
158B3
330
747D
100
AcDbEntity
  8
仕様書枠
 48
50.0
100
AcDbLine
 10
16307.2
 20
10899.6
 30
0.0
 11
13127.2
 21
10899.6
 31
0.0
  0
TEXT
  5
158B4
330
747D
100
AcDbEntity
  8
文字
 62
     7
 48
50.0
100
AcDbText
 10
13248.77747366447
 20
8720.013745883735
 30
0.0
 40
100.0
  1
15
  7
STYLE1
100
AcDbText
  0
TEXT
  5
158B5
330
747D
100
AcDbEntity
  8
文字
 62
     7
 48
50.0
100
AcDbText
 10
13583.11819016569
 20
10930.01374588373
 30
0.0
 40
100.0
  1
根太
  7
STYLE1
100
AcDbText
  0
TEXT
  5
158B6
330
747D
100
AcDbEntity
  8
文字
 62
     7
 48
50.0
100
AcDbText
 10
15022.63965474517
 20
10930.01374588372
 30
0.0
 40
100.0
  1
F12            1.2
  7
STYLE1
100
AcDbText
  0
LINE
  5
158B7
330
747D
100
AcDbEntity
  8
細線
 48
50.0
100
AcDbLine
 10
11054.41614587635
 20
5198.806328044402
 30
0.0
 11
11054.41614587635
 21
3408.806328044402
 31
0.0
  0
LINE
  5
158B8
330
747D
100
AcDbEntity
  8
細線
 48
50.0
100
AcDbLine
 10
11039.41614587635
 20
5198.806328044402
 30
0.0
 11
11039.41614587635
 21
3408.806328044402
 31
0.0
  0
LINE
  5
158B9
330
747D
100
AcDbEntity
  8
細線
 48
50.0
100
AcDbLine
 10
10909.41614587635
 20
5198.806328044402
 30
0.0
 11
10909.41614587635
 21
3408.806328044402
 31
0.0
  0
LINE
  5
158BA
330
747D
100
AcDbEntity
  8
細線
 48
50.0
100
AcDbLine
 10
10894.41614587635
 20
5198.806328044402
 30
0.0
 11
10894.41614587635
 21
3408.806328044402
 31
0.0
  0
LINE
  5
158BB
330
747D
100
AcDbEntity
  8
細線
 48
50.0
100
AcDbLine
 10
10764.41614587635
 20
5198.806328044402
 30
0.0
 11
10764.41614587635
 21
3408.806328044402
 31
0.0
  0
LINE
  5
158BC
330
747D
100
AcDbEntity
  8
細線
 48
50.0
100
AcDbLine
 10
10749.41614587635
 20
5198.806328044402
 30
0.0
 11
10749.41614587635
 21
3408.806328044402
 31
0.0
  0
TEXT
  5
158BD
330
747D
100
AcDbEntity
  8
文字
 62
     7
 48
50.0
100
AcDbText
 10
14271.39351435261
 20
483.8967129911416
 30
0.0
 40
160.0
  1
ＮＸＮ－１４ＤＬ－３
  7
STYLE2
100
AcDbText
  0
DIMENSION
  5
15DE5
330
747D
100
AcDbEntity
  8
寸法
100
AcDbDimension
  2
*D30
 10
7739.405879970956
 20
8998.448397887285
 30
0.0
 11
7386.198891875269
 21
9103.533673663815
 31
0.0
 70
   160
 71
     5
 42
892.000000000011
  3
INABA_S40G
100
AcDbAlignedDimension
 13
6901.544239993594
 23
9200.495508130268
 33
0.0
 14
7793.544239993604
 24
9200.495508130265
 34
0.0
100
AcDbRotatedDimension
1001
ACAD
1000
DSTYLE
1002
{
1070
   279
1070
     2
1002
}
  0
MTEXT
  5
15DE6
330
747D
100
AcDbEntity
  8
寸法
 62
     7
 48
50.0
100
AcDbMText
 10
7362.82403760423
 20
9270.109255667556
 30
0.0
 40
96.0
 41
0.0
 71
     5
 72
     1
  1
棚 2段
  7
STYLE1
 73
     1
 44
1.0
1001
ACAD
1000
MTEXTBEGIN
1070
    73
1070
     1
1070
    44
1040
1.0
1070
    74
1070
     0
1000
MTEXTEND
  0
DIMENSION
  5
15DE7
330
747D
100
AcDbEntity
  8
寸法
100
AcDbDimension
  2
*D29
 10
6789.405879970954
 20
8998.448397887285
 30
0.0
 11
6442.670054769514
 21
9101.732513280282
 31
0.0
 70
   160
 71
     5
 42
892.000000000011
  3
INABA_S40G
100
AcDbAlignedDimension
 13
5951.544239993593
 23
9200.495508130268
 33
0.0
 14
6843.544239993604
 24
9200.495508130265
 34
0.0
100
AcDbRotatedDimension
1001
ACAD
1000
DSTYLE
1002
{
1070
   279
1070
     2
1002
}
  0
MTEXT
  5
15DE8
330
747D
100
AcDbEntity
  8
寸法
 62
     7
 48
50.0
100
AcDbMText
 10
6412.092436159223
 20
9270.109255667568
 30
0.0
 40
96.0
 41
0.0
 71
     5
 72
     1
  1
棚 2段
  7
STYLE1
 73
     1
 44
1.0
1001
ACAD
1000
MTEXTBEGIN
1070
    73
1070
     1
1070
    44
1040
1.0
1070
    74
1070
     0
1000
MTEXTEND
  0
DIMENSION
  5
15E13
330
747D
100
AcDbEntity
  8
寸法
100
AcDbDimension
  2
*D31
 10
5839.405879970954
 20
8998.448397887285
 30
0.0
 11
5492.670054769515
 21
9101.732513280282
 31
0.0
 70
   160
 71
     5
 42
892.000000000011
  3
INABA_S40G
100
AcDbAlignedDimension
 13
5001.544239993592
 23
9200.495508130268
 33
0.0
 14
5893.544239993603
 24
9200.495508130265
 34
0.0
100
AcDbRotatedDimension
1001
ACAD
1000
DSTYLE
1002
{
1070
   279
1070
     2
1002
}
  0
MTEXT
  5
15E14
330
747D
100
AcDbEntity
  8
寸法
 62
     7
 48
50.0
100
AcDbMText
 10
5462.092436159222
 20
9270.109255667568
 30
0.0
 40
96.0
 41
0.0
 71
     5
 72
     1
  1
棚 2段
  7
STYLE1
 73
     1
 44
1.0
1001
ACAD
1000
MTEXTBEGIN
1070
    73
1070
     1
1070
    44
1040
1.0
1070
    74
1070
     0
1000
MTEXTEND
  0
DIMENSION
  5
15E2A
330
747D
100
AcDbEntity
  8
寸法
 48
50.0
100
AcDbDimension
  2
*D33
 10
4972.544233315966
 20
5646.347913302649
 30
0.0
 11
6397.544233315969
 21
5646.347913302649
 31
0.0
 70
   160
  1
柱外寸法<>
 71
     5
 42
2850.000000000004
  3
INABA_S40G
100
AcDbAlignedDimension
 13
7822.54423331597
 23
5433.806328044406
 33
0.0
 14
4972.544233315966
 24
5433.806328044411
 34
0.0
100
AcDbRotatedDimension
  0
DIMENSION
  5
15E2B
330
747D
100
AcDbEntity
  8
寸法
 48
50.0
100
AcDbDimension
  2
*D32
 10
7872.54423331597
 20
5869.304891740496
 30
0.0
 11
6397.544233315969
 21
5869.304891740496
 31
0.0
 70
   160
 71
     5
 42
2950.000000000004
  3
INABA_S40G
100
AcDbAlignedDimension
 13
4922.544233315966
 23
5433.806328044409
 33
0.0
 14
7872.54423331597
 24
5433.806328044404
 34
0.0
100
AcDbRotatedDimension
  0
DIMENSION
  5
15E2C
330
747D
100
AcDbEntity
  8
寸法
 48
50.0
100
AcDbDimension
  2
*D34
 10
4922.544233315966
 20
5646.347913302649
 30
0.0
 11
4609.058951941719
 21
5646.347913302649
 31
0.0
 70
   160
 71
     5
 42
50.0
  3
INABA_S40G
100
AcDbAlignedDimension
 13
4972.544233315966
 23
5433.806328044411
 33
0.0
 14
4922.544233315966
 24
5433.806328044409
 34
0.0
100
AcDbRotatedDimension
1001
ACAD
1000
DSTYLE
1002
{
1002
}
  0
LINE
  5
15E2D
330
747D
100
AcDbEntity
  8
部品1
100
AcDbLine
 10
4922.963894331297
 20
5426.409802649168
 30
0.0
 11
4924.097291663645
 21
5406.433674666569
 31
0.0
  0
LINE
  5
15E2E
330
747D
100
AcDbEntity
  8
部品1
100
AcDbLine
 10
4935.534311985222
 20
5310.77626749951
 30
0.0
 11
4936.17921779233
 21
5299.409802649169
 31
0.0
  0
LINE
  5
15E2F
330
747D
100
AcDbEntity
  8
部品1
100
AcDbLine
 10
4927.298281460375
 20
5402.976267499511
 30
0.0
 11
4932.333322188486
 21
5314.233674666567
 31
0.0
  0
ARC
  5
15E30
330
747D
100
AcDbEntity
  8
部品1
 48
50.0
100
AcDbCircle
 10
4924.303098564189
 20
5402.806328044409
 30
0.0
 40
3.0
100
AcDbArc
 50
3.247342790337682
 51
82.3418727926348
  0
ARC
  5
15E31
330
747D
100
AcDbEntity
  8
部品1
 48
50.0
100
AcDbCircle
 10
4932.539129089033
 20
5310.606328044407
 30
0.0
 40
3.0
100
AcDbArc
 50
3.247342790337682
 51
82.3418727926348
  0
ARC
  5
15E32
330
747D
100
AcDbEntity
  8
部品1
 48
50.0
100
AcDbCircle
 10
4933.032198197594
 20
5314.273327206091
 30
0.0
 40
0.7
100
AcDbArc
 50
183.2473427902856
 51
262.3418727926349
  0
ARC
  5
15E33
330
747D
100
AcDbEntity
  8
部品1
 48
50.0
100
AcDbCircle
 10
4924.796167672753
 20
5406.473327206095
 30
0.0
 40
0.7
100
AcDbArc
 50
183.2473427903897
 51
262.3418727926349
  0
ARC
  5
15E34
330
747D
100
AcDbEntity
  8
部品1
100
AcDbCircle
 10
4943.16797788343
 20
5299.806328044409
 30
0.0
 40
7.0
100
AcDbArc
 50
183.2473427903377
 51
270.0
  0
ARC
  5
15E35
330
747D
100
AcDbEntity
  8
部品1
100
AcDbCircle
 10
4929.952654422396
 20
5426.806328044407
 30
0.0
 40
7.0
100
AcDbArc
 50
90.0
 51
183.2473427903377
  0
LINE
  5
15E36
330
747D
100
AcDbEntity
  8
細線
 48
50.0
100
AcDbLine
 10
4955.544233315966
 20
5433.806328044408
 30
0.0
 11
4955.544233315966
 21
5292.806328044406
 31
0.0
  0
LINE
  5
15E37
330
747D
100
AcDbEntity
  8
部品1
 48
50.0
100
AcDbLine
 10
7851.920488748503
 20
5292.806328044404
 30
0.0
 11
4943.16797788343
 21
5292.806328044406
 31
0.0
  0
LINE
  5
15E38
330
747D
100
AcDbEntity
  8
細線
 48
50.0
100
AcDbLine
 10
7862.149551780587
 20
5313.579570608054
 30
0.0
 11
4932.938914851213
 21
5313.579570608403
 31
0.0
  0
LINE
  5
15E39
330
747D
100
AcDbEntity
  8
細線
 48
50.0
100
AcDbLine
 10
7870.385582305374
 20
5405.779570608052
 30
0.0
 11
4924.70288432638
 21
5405.779570608403
 31
0.0
  0
LINE
  5
15E3A
330
747D
100
AcDbEntity
  8
部品1
 48
50.0
100
AcDbLine
 10
7865.135812209537
 20
5433.806328044407
 30
0.0
 11
4929.952654422396
 21
5433.806328044404
 31
0.0
  0
DIMENSION
  5
15E7E
330
747D
100
AcDbEntity
  8
寸法
 48
50.0
100
AcDbDimension
  2
*D35
 10
7822.54423331597
 20
5646.347913302645
 30
0.0
 11
8186.029514690206
 21
5646.347913302645
 31
0.0
 70
   160
 71
     5
 42
50.0
  3
INABA_S40G
100
AcDbAlignedDimension
 13
7872.54423331597
 23
5433.806328044404
 33
0.0
 14
7822.54423331597
 24
5433.806328044406
 34
0.0
100
AcDbRotatedDimension
  0
ARC
  5
15E7F
330
747D
100
AcDbEntity
  8
部品1
100
AcDbCircle
 10
7865.135812209537
 20
5426.806328044404
 30
0.0
 40
7.0
100
AcDbArc
 50
356.7526572096623
 51
90.0
  0
ARC
  5
15E80
330
747D
100
AcDbEntity
  8
部品1
100
AcDbCircle
 10
7851.920488748503
 20
5299.806328044406
 30
0.0
 40
7.0
100
AcDbArc
 50
270.0
 51
356.7526572096623
  0
ARC
  5
15E81
330
747D
100
AcDbEntity
  8
部品1
 48
50.0
100
AcDbCircle
 10
7870.292298959182
 20
5406.473327206091
 30
0.0
 40
0.7
100
AcDbArc
 50
277.6581272073652
 51
356.7526572096103
  0
ARC
  5
15E82
330
747D
100
AcDbEntity
  8
部品1
 48
50.0
100
AcDbCircle
 10
7862.056268434338
 20
5314.273327206087
 30
0.0
 40
0.7
100
AcDbArc
 50
277.6581272073652
 51
356.7526572097143
  0
ARC
  5
15E83
330
747D
100
AcDbEntity
  8
部品1
 48
50.0
100
AcDbCircle
 10
7862.5493375429
 20
5310.606328044404
 30
0.0
 40
3.0
100
AcDbArc
 50
97.65812720736519
 51
176.7526572096623
  0
ARC
  5
15E84
330
747D
100
AcDbEntity
  8
部品1
 48
50.0
100
AcDbCircle
 10
7870.785368067743
 20
5402.806328044405
 30
0.0
 40
3.0
100
AcDbArc
 50
97.65812720736519
 51
176.7526572096623
  0
LINE
  5
15E85
330
747D
100
AcDbEntity
  8
部品1
100
AcDbLine
 10
7867.790185171557
 20
5402.976267499507
 30
0.0
 11
7862.755144443447
 21
5314.233674666564
 31
0.0
  0
LINE
  5
15E86
330
747D
100
AcDbEntity
  8
部品1
100
AcDbLine
 10
7859.554154646715
 20
5310.776267499506
 30
0.0
 11
7858.909248839601
 21
5299.409802649166
 31
0.0
  0
LINE
  5
15E87
330
747D
100
AcDbEntity
  8
細線
 48
50.0
100
AcDbLine
 10
7839.544233315971
 20
5433.806328044404
 30
0.0
 11
7839.544233315971
 21
5292.806328044404
 31
0.0
  0
LINE
  5
15E88
330
747D
100
AcDbEntity
  8
部品1
100
AcDbLine
 10
7872.124572300636
 20
5426.409802649164
 30
0.0
 11
7870.99117496829
 21
5406.433674666565
 31
0.0
  0
LINE
  5
15EB4
330
747D
100
AcDbEntity
  8
細線
100
AcDbLine
 10
5447.544233315966
 20
5258.3063280444
 30
0.0
 11
5447.544233315962
 21
5235.3063280444
 31
0.0
  0
LINE
  5
15EB5
330
747D
100
AcDbEntity
  8
細線
100
AcDbLine
 10
5521.544233315963
 20
5246.306328044401
 30
0.0
 11
5447.544233315966
 21
5246.306328044401
 31
0.0
  0
LINE
  5
15EB6
330
747D
100
AcDbEntity
  8
細線
100
AcDbLine
 10
5521.544233315963
 20
5240.3063280444
 30
0.0
 11
5447.544233315966
 21
5240.3063280444
 31
0.0
  0
LINE
  5
15EB7
330
747D
100
AcDbEntity
  8
細線
100
AcDbLine
 10
5521.544233315963
 20
5252.306328044401
 30
0.0
 11
5447.544233315966
 21
5252.306328044401
 31
0.0
  0
LINE
  5
15EB8
330
747D
100
AcDbEntity
  8
細線
100
AcDbLine
 10
5373.544233315966
 20
5252.306328044401
 30
0.0
 11
5442.544233315967
 21
5252.306328044401
 31
0.0
  0
LINE
  5
15EB9
330
747D
100
AcDbEntity
  8
細線
100
AcDbLine
 10
5373.544233315962
 20
5240.3063280444
 30
0.0
 11
5447.544233315966
 21
5240.3063280444
 31
0.0
  0
LINE
  5
15EBA
330
747D
100
AcDbEntity
  8
細線
100
AcDbLine
 10
5373.544233315966
 20
5246.306328044401
 30
0.0
 11
5447.544233315966
 21
5246.306328044401
 31
0.0
  0
LINE
  5
15EBB
330
747D
100
AcDbEntity
  8
細線
100
AcDbLine
 10
5373.544233315966
 20
5252.306328044401
 30
0.0
 11
5447.544233315966
 21
5252.306328044401
 31
0.0
  0
LINE
  5
15EBC
330
747D
100
AcDbEntity
  8
部品1
 48
0.01
100
AcDbLine
 10
5535.544233315967
 20
5264.8063280444
 30
0.0
 11
5359.544233315967
 21
5264.8063280444
 31
0.0
  0
LINE
  5
15EBD
330
747D
100
AcDbEntity
  8
部品1
 48
0.01
100
AcDbLine
 10
5357.544233315966
 20
5262.8063280444
 30
0.0
 11
5357.544233315966
 21
5231.3063280444
 31
0.0
  0
LINE
  5
15EBE
330
747D
100
AcDbEntity
  8
部品1
 48
0.01
100
AcDbLine
 10
5359.544233315967
 20
5229.3063280444
 30
0.0
 11
5535.544233315963
 21
5229.3063280444
 31
0.0
  0
LINE
  5
15EBF
330
747D
100
AcDbEntity
  8
部品1
 48
0.01
100
AcDbLine
 10
5537.544233315962
 20
5231.3063280444
 30
0.0
 11
5537.544233315966
 21
5262.8063280444
 31
0.0
  0
LINE
  5
15EC0
330
747D
100
AcDbEntity
  8
細線
100
AcDbLine
 10
5373.544233315966
 20
5258.3063280444
 30
0.0
 11
5373.544233315966
 21
5235.3063280444
 31
0.0
  0
LINE
  5
15EC1
330
747D
100
AcDbEntity
  8
細線
100
AcDbLine
 10
5521.544233315966
 20
5235.3063280444
 30
0.0
 11
5521.544233315966
 21
5258.3063280444
 31
0.0
  0
LINE
  5
15EC2
330
747D
100
AcDbEntity
  8
細線
100
AcDbLine
 10
5521.544233315966
 20
5258.3063280444
 30
0.0
 11
5447.544233315966
 21
5258.3063280444
 31
0.0
  0
LINE
  5
15EC3
330
747D
100
AcDbEntity
  8
細線
100
AcDbLine
 10
5373.544233315966
 20
5235.3063280444
 30
0.0
 11
5447.544233315966
 21
5235.3063280444
 31
0.0
  0
LINE
  5
15EC4
330
747D
100
AcDbEntity
  8
細線
100
AcDbLine
 10
5447.544233315966
 20
5258.3063280444
 30
0.0
 11
5373.544233315966
 21
5258.3063280444
 31
0.0
  0
LINE
  5
15EC5
330
747D
100
AcDbEntity
  8
細線
100
AcDbLine
 10
5447.544233315962
 20
5235.3063280444
 30
0.0
 11
5521.544233315966
 21
5235.3063280444
 31
0.0
  0
ARC
  5
15EC6
330
747D
100
AcDbEntity
  8
部品1
 48
0.01
100
AcDbCircle
 10
5359.544233315967
 20
5262.8063280444
 30
0.0
 40
2.0
100
AcDbArc
 50
90.0
 51
180.0
  0
ARC
  5
15EC7
330
747D
100
AcDbEntity
  8
部品1
 48
0.01
100
AcDbCircle
 10
5359.544233315967
 20
5231.3063280444
 30
0.0
 40
2.0
100
AcDbArc
 50
180.0
 51
270.0
  0
ARC
  5
15EC8
330
747D
100
AcDbEntity
  8
部品1
 48
0.01
100
AcDbCircle
 10
5535.544233315967
 20
5262.8063280444
 30
0.0
 40
2.0
100
AcDbArc
 50
0.0
 51
90.0
  0
ARC
  5
15EC9
330
747D
100
AcDbEntity
  8
部品1
 48
0.01
100
AcDbCircle
 10
5535.544233315963
 20
5231.3063280444
 30
0.0
 40
2.0
100
AcDbArc
 50
270.0
 51
0.0
  0
ARC
  5
15ECA
330
747D
100
AcDbEntity
  8
部品1
 48
0.01
100
AcDbCircle
 10
6485.544233315962
 20
5231.306328044398
 30
0.0
 40
2.0
100
AcDbArc
 50
270.0
 51
0.0
  0
ARC
  5
15ECB
330
747D
100
AcDbEntity
  8
部品1
 48
0.01
100
AcDbCircle
 10
6485.544233315966
 20
5262.806328044399
 30
0.0
 40
2.0
100
AcDbArc
 50
0.0
 51
90.0
  0
ARC
  5
15ECC
330
747D
100
AcDbEntity
  8
部品1
 48
0.01
100
AcDbCircle
 10
6309.544233315967
 20
5231.306328044398
 30
0.0
 40
2.0
100
AcDbArc
 50
180.0
 51
270.0
  0
ARC
  5
15ECD
330
747D
100
AcDbEntity
  8
部品1
 48
0.01
100
AcDbCircle
 10
6309.544233315967
 20
5262.806328044399
 30
0.0
 40
2.0
100
AcDbArc
 50
90.0
 51
180.0
  0
LINE
  5
15ECE
330
747D
100
AcDbEntity
  8
細線
100
AcDbLine
 10
6397.544233315962
 20
5235.306328044398
 30
0.0
 11
6471.544233315966
 21
5235.306328044398
 31
0.0
  0
LINE
  5
15ECF
330
747D
100
AcDbEntity
  8
細線
100
AcDbLine
 10
6397.544233315966
 20
5258.306328044398
 30
0.0
 11
6323.544233315966
 21
5258.306328044398
 31
0.0
  0
LINE
  5
15ED0
330
747D
100
AcDbEntity
  8
細線
100
AcDbLine
 10
6323.544233315966
 20
5235.306328044398
 30
0.0
 11
6397.544233315966
 21
5235.306328044398
 31
0.0
  0
LINE
  5
15ED1
330
747D
100
AcDbEntity
  8
細線
100
AcDbLine
 10
6471.544233315966
 20
5258.306328044398
 30
0.0
 11
6397.544233315966
 21
5258.306328044398
 31
0.0
  0
LINE
  5
15ED2
330
747D
100
AcDbEntity
  8
細線
100
AcDbLine
 10
6471.544233315966
 20
5235.306328044398
 30
0.0
 11
6471.544233315966
 21
5258.306328044398
 31
0.0
  0
LINE
  5
15ED3
330
747D
100
AcDbEntity
  8
細線
100
AcDbLine
 10
6323.544233315966
 20
5258.306328044398
 30
0.0
 11
6323.544233315966
 21
5235.306328044398
 31
0.0
  0
LINE
  5
15ED4
330
747D
100
AcDbEntity
  8
部品1
 48
0.01
100
AcDbLine
 10
6487.544233315962
 20
5231.306328044398
 30
0.0
 11
6487.544233315967
 21
5262.806328044399
 31
0.0
  0
LINE
  5
15ED5
330
747D
100
AcDbEntity
  8
部品1
 48
0.01
100
AcDbLine
 10
6309.544233315967
 20
5229.306328044398
 30
0.0
 11
6485.544233315962
 21
5229.306328044398
 31
0.0
  0
LINE
  5
15ED6
330
747D
100
AcDbEntity
  8
部品1
 48
0.01
100
AcDbLine
 10
6307.544233315966
 20
5262.806328044399
 30
0.0
 11
6307.544233315966
 21
5231.306328044398
 31
0.0
  0
LINE
  5
15ED7
330
747D
100
AcDbEntity
  8
部品1
 48
0.01
100
AcDbLine
 10
6485.544233315966
 20
5264.806328044398
 30
0.0
 11
6309.544233315967
 21
5264.806328044398
 31
0.0
  0
LINE
  5
15ED8
330
747D
100
AcDbEntity
  8
細線
100
AcDbLine
 10
6323.544233315966
 20
5252.306328044398
 30
0.0
 11
6397.544233315966
 21
5252.306328044398
 31
0.0
  0
LINE
  5
15ED9
330
747D
100
AcDbEntity
  8
細線
100
AcDbLine
 10
6323.544233315966
 20
5246.306328044398
 30
0.0
 11
6397.544233315966
 21
5246.306328044398
 31
0.0
  0
LINE
  5
15EDA
330
747D
100
AcDbEntity
  8
細線
100
AcDbLine
 10
6323.544233315963
 20
5240.306328044399
 30
0.0
 11
6397.544233315966
 21
5240.306328044399
 31
0.0
  0
LINE
  5
15EDB
330
747D
100
AcDbEntity
  8
細線
100
AcDbLine
 10
6323.544233315966
 20
5252.306328044398
 30
0.0
 11
6392.544233315966
 21
5252.306328044398
 31
0.0
  0
LINE
  5
15EDC
330
747D
100
AcDbEntity
  8
細線
100
AcDbLine
 10
6471.544233315963
 20
5252.306328044398
 30
0.0
 11
6397.544233315966
 21
5252.306328044398
 31
0.0
  0
LINE
  5
15EDD
330
747D
100
AcDbEntity
  8
細線
100
AcDbLine
 10
6471.544233315963
 20
5240.306328044399
 30
0.0
 11
6397.544233315966
 21
5240.306328044399
 31
0.0
  0
LINE
  5
15EDE
330
747D
100
AcDbEntity
  8
細線
100
AcDbLine
 10
6471.544233315963
 20
5246.306328044398
 30
0.0
 11
6397.544233315966
 21
5246.306328044398
 31
0.0
  0
LINE
  5
15EDF
330
747D
100
AcDbEntity
  8
細線
100
AcDbLine
 10
6397.544233315966
 20
5258.306328044398
 30
0.0
 11
6397.544233315962
 21
5235.306328044398
 31
0.0
  0
LINE
  5
15EE0
330
747D
100
AcDbEntity
  8
細線
100
AcDbLine
 10
7347.544233315966
 20
5258.306328044398
 30
0.0
 11
7347.544233315963
 21
5235.306328044398
 31
0.0
  0
LINE
  5
15EE1
330
747D
100
AcDbEntity
  8
細線
100
AcDbLine
 10
7421.544233315962
 20
5246.306328044398
 30
0.0
 11
7347.544233315966
 21
5246.306328044398
 31
0.0
  0
LINE
  5
15EE2
330
747D
100
AcDbEntity
  8
細線
100
AcDbLine
 10
7421.544233315962
 20
5240.306328044399
 30
0.0
 11
7347.544233315966
 21
5240.306328044399
 31
0.0
  0
LINE
  5
15EE3
330
747D
100
AcDbEntity
  8
細線
100
AcDbLine
 10
7421.544233315962
 20
5252.306328044398
 30
0.0
 11
7347.544233315966
 21
5252.306328044398
 31
0.0
  0
LINE
  5
15EE4
330
747D
100
AcDbEntity
  8
細線
100
AcDbLine
 10
7273.544233315966
 20
5252.306328044398
 30
0.0
 11
7342.544233315966
 21
5252.306328044398
 31
0.0
  0
LINE
  5
15EE5
330
747D
100
AcDbEntity
  8
細線
100
AcDbLine
 10
7273.544233315963
 20
5240.306328044399
 30
0.0
 11
7347.544233315966
 21
5240.306328044399
 31
0.0
  0
LINE
  5
15EE6
330
747D
100
AcDbEntity
  8
細線
100
AcDbLine
 10
7273.544233315966
 20
5246.306328044398
 30
0.0
 11
7347.544233315966
 21
5246.306328044398
 31
0.0
  0
LINE
  5
15EE7
330
747D
100
AcDbEntity
  8
細線
100
AcDbLine
 10
7273.544233315966
 20
5252.306328044398
 30
0.0
 11
7347.544233315966
 21
5252.306328044398
 31
0.0
  0
LINE
  5
15EE8
330
747D
100
AcDbEntity
  8
部品1
 48
0.01
100
AcDbLine
 10
7435.544233315965
 20
5264.806328044398
 30
0.0
 11
7259.544233315967
 21
5264.806328044398
 31
0.0
  0
LINE
  5
15EE9
330
747D
100
AcDbEntity
  8
部品1
 48
0.01
100
AcDbLine
 10
7257.544233315967
 20
5262.806328044399
 30
0.0
 11
7257.544233315967
 21
5231.306328044398
 31
0.0
  0
LINE
  5
15EEA
330
747D
100
AcDbEntity
  8
部品1
 48
0.01
100
AcDbLine
 10
7259.544233315967
 20
5229.306328044398
 30
0.0
 11
7435.544233315963
 21
5229.306328044398
 31
0.0
  0
LINE
  5
15EEB
330
747D
100
AcDbEntity
  8
部品1
 48
0.01
100
AcDbLine
 10
7437.544233315962
 20
5231.306328044398
 30
0.0
 11
7437.544233315967
 21
5262.806328044399
 31
0.0
  0
LINE
  5
15EEC
330
747D
100
AcDbEntity
  8
細線
100
AcDbLine
 10
7273.544233315966
 20
5258.306328044398
 30
0.0
 11
7273.544233315966
 21
5235.306328044398
 31
0.0
  0
LINE
  5
15EED
330
747D
100
AcDbEntity
  8
細線
100
AcDbLine
 10
7421.544233315966
 20
5235.306328044398
 30
0.0
 11
7421.544233315966
 21
5258.306328044398
 31
0.0
  0
LINE
  5
15EEE
330
747D
100
AcDbEntity
  8
細線
100
AcDbLine
 10
7421.544233315966
 20
5258.306328044398
 30
0.0
 11
7347.544233315966
 21
5258.306328044398
 31
0.0
  0
LINE
  5
15EEF
330
747D
100
AcDbEntity
  8
細線
100
AcDbLine
 10
7273.544233315966
 20
5235.306328044398
 30
0.0
 11
7347.544233315966
 21
5235.306328044398
 31
0.0
  0
LINE
  5
15EF0
330
747D
100
AcDbEntity
  8
細線
100
AcDbLine
 10
7347.544233315966
 20
5258.306328044398
 30
0.0
 11
7273.544233315966
 21
5258.306328044398
 31
0.0
  0
LINE
  5
15EF1
330
747D
100
AcDbEntity
  8
細線
100
AcDbLine
 10
7347.544233315963
 20
5235.306328044398
 30
0.0
 11
7421.544233315966
 21
5235.306328044398
 31
0.0
  0
ARC
  5
15EF2
330
747D
100
AcDbEntity
  8
部品1
 48
0.01
100
AcDbCircle
 10
7259.544233315967
 20
5262.806328044399
 30
0.0
 40
2.0
100
AcDbArc
 50
90.0
 51
180.0
  0
ARC
  5
15EF3
330
747D
100
AcDbEntity
  8
部品1
 48
0.01
100
AcDbCircle
 10
7259.544233315967
 20
5231.306328044398
 30
0.0
 40
2.0
100
AcDbArc
 50
180.0
 51
270.0
  0
ARC
  5
15EF4
330
747D
100
AcDbEntity
  8
部品1
 48
0.01
100
AcDbCircle
 10
7435.544233315965
 20
5262.806328044399
 30
0.0
 40
2.0
100
AcDbArc
 50
0.0
 51
90.0
  0
ARC
  5
15EF5
330
747D
100
AcDbEntity
  8
部品1
 48
0.01
100
AcDbCircle
 10
7435.544233315963
 20
5231.306328044398
 30
0.0
 40
2.0
100
AcDbArc
 50
270.0
 51
0.0
  0
TEXT
  5
160EB
330
747D
100
AcDbEntity
  8
文字
 62
     7
 48
50.0
100
AcDbText
 10
14260.68475616112
 20
855.469579666289
 30
0.0
 40
100.0
  1
～一般型・多雪地型・豪雪地型～
  7
STYLE2
100
AcDbText
  0
ENDSEC
  0
SECTION
  2
OBJECTS
  0
DICTIONARY
  5
7471
330
0
100
AcDbDictionary
281
     1
  3
ACAD_COLOR
350
1540B
  3
ACAD_GROUP
350
7472
  3
ACAD_LAYOUT
350
1540C
  3
ACAD_MATERIAL
350
1540A
  3
ACAD_MLINESTYLE
350
7473
  3
ACAD_PLOTSETTINGS
350
1540D
  3
ACAD_PLOTSTYLENAME
350
15408
  3
ACDBHEADERROUNDTRIPXREC
350
1610D
  3
AcDbVariableDictionary
350
16109
  3
CONTENTDICTIONARY
350
E71C
  3
DRAWINGVARIABLESDICT
350
F3B9
  0
DICTIONARY
  5
1559D
330
7467
100
AcDbDictionary
280
     1
281
     1
  3
ACAD_LAYERSTATES
360
1559E
  0
DICTIONARY
  5
1540B
102
{ACAD_REACTORS
330
7471
102
}
330
7471
100
AcDbDictionary
281
     1
  0
DICTIONARY
  5
7472
102
{ACAD_REACTORS
330
7471
102
}
330
7471
100
AcDbDictionary
281
     1
  0
DICTIONARY
  5
1540C
102
{ACAD_REACTORS
330
7471
102
}
330
7471
100
AcDbDictionary
281
     1
  3
Model
350
1540E
  3
レイアウト1
350
1540F
  0
DICTIONARY
  5
1540A
102
{ACAD_REACTORS
330
7471
102
}
330
7471
100
AcDbDictionary
281
     1
  0
DICTIONARY
  5
7473
102
{ACAD_REACTORS
330
7471
102
}
330
7471
100
AcDbDictionary
281
     1
  3
STANDARD
350
7480
  0
DICTIONARY
  5
1540D
102
{ACAD_REACTORS
330
7471
102
}
330
7471
100
AcDbDictionary
281
     1
  0
ACDBDICTIONARYWDFLT
  5
15408
102
{ACAD_REACTORS
330
7471
102
}
330
7471
100
AcDbDictionary
281
     1
  3
Normal
350
15409
100
AcDbDictionaryWithDefault
340
15409
  0
DICTIONARY
  5
1610D
102
{ACAD_REACTORS
330
7471
102
}
330
7471
100
AcDbDictionary
281
     1
  3
COLORDICT
350
1610F
  3
MATERIALDICT
350
1610E
  0
DICTIONARY
  5
16109
102
{ACAD_REACTORS
330
7471
102
}
330
7471
100
AcDbDictionary
281
     1
  3
DIMASSOC
350
1610A
  3
PROJECTNAME
350
1610B
  0
DICTIONARY
  5
E71C
102
{ACAD_REACTORS
330
7471
102
}
330
7471
100
AcDbDictionary
281
     1
  0
DICTIONARY
  5
F3B9
102
{ACAD_REACTORS
330
7471
102
}
330
7471
100
AcDbDictionary
281
     1
1001
DRAWINGVARIABLESXDATA
1000
POLARMODE
1000
1
  0
DICTIONARY
  5
1559E
102
{ACAD_REACTORS
330
1559D
102
}
330
1559D
100
AcDbDictionary
281
     1
  0
LAYOUT
  5
1540E
102
{ACAD_XDICTIONARY
360
16110
102
}
102
{ACAD_REACTORS
330
1540C
102
}
330
1540C
100
AcDbPlotSettings
  1

  2
Microsoft Office Document Image Writer
  4

  6

 40
0.0
 41
0.0
 42
0.0
 43
0.0
 44
0.0
 45
0.0
 46
0.0
 47
0.0
 48
0.0
 49
0.0
140
0.0
141
0.0
142
1.0
143
1.0
 70
  1712
 72
     0
 73
     0
 74
     0
  7

 75
     0
147
1.0
148
0.0
149
0.0
100
AcDbLayout
  1
Model
 70
     1
 71
     0
 10
0.0
 20
0.0
 11
12.0
 21
9.0
 12
0.0
 22
0.0
 32
0.0
 14
0.0
 24
0.0
 34
0.0
 15
0.0
 25
0.0
 35
0.0
146
0.0
 13
0.0
 23
0.0
 33
0.0
 16
1.0
 26
0.0
 36
0.0
 17
0.0
 27
1.0
 37
0.0
 76
     0
330
747D
  0
LAYOUT
  5
1540F
102
{ACAD_XDICTIONARY
360
16112
102
}
102
{ACAD_REACTORS
330
1540C
102
}
330
1540C
100
AcDbPlotSettings
  1

  2
Microsoft Office Document Image Writer
  4

  6

 40
0.0
 41
0.0
 42
0.0
 43
0.0
 44
0.0
 45
0.0
 46
0.0
 47
0.0
 48
0.0
 49
0.0
140
0.0
141
0.0
142
1.0
143
1.0
 70
   688
 72
     0
 73
     0
 74
     5
  7

 75
    16
147
1.0
148
0.0
149
0.0
100
AcDbLayout
  1
レイアウト1
 70
     0
 71
     1
 10
0.0
 20
0.0
 11
420.0
 21
297.0
 12
0.0
 22
0.0
 32
0.0
 14
1.000000000000000E+20
 24
1.000000000000000E+20
 34
1.000000000000000E+20
 15
-1.000000000000000E+20
 25
-1.000000000000000E+20
 35
-1.000000000000000E+20
146
0.0
 13
0.0
 23
0.0
 33
0.0
 16
1.0
 26
0.0
 36
0.0
 17
0.0
 27
1.0
 37
0.0
 76
     0
330
747A
  0
MLINESTYLE
  5
7480
102
{ACAD_REACTORS
330
7473
102
}
330
7473
100
AcDbMlineStyle
  2
STANDARD
 70
     0
  3

 62
     0
 51
90.0
 52
90.0
 71
     2
 49
0.5
 62
   256
  6
BYLAYER
 49
-0.5
 62
   256
  6
BYLAYER
  0
ACDBPLACEHOLDER
  5
15409
102
{ACAD_REACTORS
330
15408
102
}
330
15408
  0
XRECORD
  5
1610F
102
{ACAD_REACTORS
330
1610D
102
}
330
1610D
100
AcDbXrecord
280
     1
340
1540B
  0
XRECORD
  5
1610E
102
{ACAD_REACTORS
330
1610D
102
}
330
1610D
100
AcDbXrecord
280
     1
340
1540A
  0
DICTIONARYVAR
  5
1610A
102
{ACAD_REACTORS
330
16109
102
}
330
16109
100
DictionaryVariables
280
     0
  1
1
  0
DICTIONARYVAR
  5
1610B
102
{ACAD_REACTORS
330
16109
102
}
330
16109
100
DictionaryVariables
280
     0
  1

  0
DICTIONARY
  5
16110
330
1540E
100
AcDbDictionary
280
     1
281
     1
  3
ACAD_XREC_ROUNDTRIP
360
16111
  0
DICTIONARY
  5
16112
330
1540F
100
AcDbDictionary
280
     1
281
     1
  3
ACAD_XREC_ROUNDTRIP
360
16113
  0
XRECORD
  5
16111
102
{ACAD_REACTORS
330
16110
102
}
330
16110
100
AcDbXrecord
280
     1
102
SHADEPLOT
 70
     0
102
SHADEPLOTRESLEVEL
 70
     2
102
SHADEPLOTCUSTOMDPI
 70
   300
  0
XRECORD
  5
16113
102
{ACAD_REACTORS
330
16112
102
}
330
16112
100
AcDbXrecord
280
     1
102
SHADEPLOT
 70
     0
102
SHADEPLOTRESLEVEL
 70
     2
102
SHADEPLOTCUSTOMDPI
 70
   300
  0
ENDSEC
  0
EOF
