  0
SECTION
  2
HEADER
  9
$ACADVER
  1
AC1015
  9
$ACADMAINTVER
 70
    20
  9
$DWGCODEPAGE
  3
ANSI_932
  9
$INSBASE
 10
0.0
 20
0.0
 30
0.0
  9
$EXTMIN
 10
139.9999999999995
 20
-0.0000000000000909
 30
0.0
  9
$EXTMAX
 10
16307.2
 20
11409.6
 30
0.0
  9
$LIMMIN
 10
0.0
 20
0.0
  9
$LIMMAX
 10
16800.0
 20
11880.0
  9
$ORTHOMODE
 70
     0
  9
$REGENMODE
 70
     1
  9
$FILLMODE
 70
     1
  9
$QTEXTMODE
 70
     0
  9
$MIRRTEXT
 70
     1
  9
$LTSCALE
 40
20.0
  9
$ATTMODE
 70
     1
  9
$TEXTSIZE
 40
100.0
  9
$TRACEWID
 40
1.0
  9
$TEXTSTYLE
  7
STYLE3
  9
$CLAYER
  8
寸法
  9
$CELTYPE
  6
BYLAYER
  9
$CECOLOR
 62
   256
  9
$CELTSCALE
 40
50.0
  9
$DISPSILH
 70
     0
  9
$DIMSCALE
 40
40.0
  9
$DIMASZ
 40
2.5
  9
$DIMEXO
 40
0.5
  9
$DIMDLI
 40
7.0
  9
$DIMRND
 40
0.0
  9
$DIMDLE
 40
0.0
  9
$DIMEXE
 40
1.5
  9
$DIMTP
 40
0.0
  9
$DIMTM
 40
0.0
  9
$DIMTXT
 40
3.0
  9
$DIMCEN
 40
0.0
  9
$DIMTSZ
 40
0.0
  9
$DIMTOL
 70
     0
  9
$DIMLIM
 70
     0
  9
$DIMTIH
 70
     0
  9
$DIMTOH
 70
     0
  9
$DIMSE1
 70
     0
  9
$DIMSE2
 70
     0
  9
$DIMTAD
 70
     3
  9
$DIMZIN
 70
     8
  9
$DIMBLK
  1

  9
$DIMASO
 70
     1
  9
$DIMSHO
 70
     1
  9
$DIMPOST
  1

  9
$DIMAPOST
  1

  9
$DIMALT
 70
     0
  9
$DIMALTD
 70
     2
  9
$DIMALTF
 40
0.0394
  9
$DIMLFAC
 40
1.0
  9
$DIMTOFL
 70
     1
  9
$DIMTVP
 40
0.0
  9
$DIMTIX
 70
     1
  9
$DIMSOXD
 70
     0
  9
$DIMSAH
 70
     1
  9
$DIMBLK1
  1
DOTSMALL
  9
$DIMBLK2
  1
DOTSMALL
  9
$DIMSTYLE
  2
INABA_S40G
  9
$DIMCLRD
 70
     0
  9
$DIMCLRE
 70
     0
  9
$DIMCLRT
 70
     7
  9
$DIMTFAC
 40
1.0
  9
$DIMGAP
 40
1.0
  9
$DIMJUST
 70
     0
  9
$DIMSD1
 70
     0
  9
$DIMSD2
 70
     0
  9
$DIMTOLJ
 70
     1
  9
$DIMTZIN
 70
     0
  9
$DIMALTZ
 70
     0
  9
$DIMALTTZ
 70
     0
  9
$DIMUPT
 70
     0
  9
$DIMDEC
 70
     1
  9
$DIMTDEC
 70
     4
  9
$DIMALTU
 70
     2
  9
$DIMALTTD
 70
     2
  9
$DIMTXSTY
  7
STYLE1
  9
$DIMAUNIT
 70
     0
  9
$DIMADEC
 70
     0
  9
$DIMALTRND
 40
0.0
  9
$DIMAZIN
 70
     0
  9
$DIMDSEP
 70
    46
  9
$DIMATFIT
 70
     3
  9
$DIMFRAC
 70
     0
  9
$DIMLDRBLK
  1

  9
$DIMLUNIT
 70
     2
  9
$DIMLWD
 70
    -2
  9
$DIMLWE
 70
    -2
  9
$DIMTMOVE
 70
     0
  9
$LUNITS
 70
     2
  9
$LUPREC
 70
     1
  9
$SKETCHINC
 40
1.0
  9
$FILLETRAD
 40
5.0
  9
$AUNITS
 70
     0
  9
$AUPREC
 70
     0
  9
$MENU
  1
acad
  9
$ELEVATION
 40
0.0
  9
$PELEVATION
 40
0.0
  9
$THICKNESS
 40
0.0
  9
$LIMCHECK
 70
     0
  9
$CHAMFERA
 40
0.0
  9
$CHAMFERB
 40
0.0
  9
$CHAMFERC
 40
0.0
  9
$CHAMFERD
 40
0.0
  9
$SKPOLY
 70
     0
  9
$TDCREATE
 40
2452116.684896065
  9
$TDUCREATE
 40
2452116.309896065
  9
$TDUPDATE
 40
2455575.693782731
  9
$TDUUPDATE
 40
2455575.318782731
  9
$TDINDWG
 40
0.5120427662
  9
$TDUSRTIMER
 40
0.5120427662
  9
$USRTIMER
 70
     1
  9
$ANGBASE
 50
0.0
  9
$ANGDIR
 70
     0
  9
$PDMODE
 70
     3
  9
$PDSIZE
 40
2.0
  9
$PLINEWID
 40
0.0
  9
$SPLFRAME
 70
     0
  9
$SPLINETYPE
 70
     6
  9
$SPLINESEGS
 70
     8
  9
$HANDSEED
  5
17730
  9
$SURFTAB1
 70
     6
  9
$SURFTAB2
 70
     6
  9
$SURFTYPE
 70
     6
  9
$SURFU
 70
     6
  9
$SURFV
 70
     6
  9
$UCSBASE
  2

  9
$UCSNAME
  2

  9
$UCSORG
 10
0.0
 20
0.0
 30
0.0
  9
$UCSXDIR
 10
1.0
 20
0.0
 30
0.0
  9
$UCSYDIR
 10
0.0
 20
1.0
 30
0.0
  9
$UCSORTHOREF
  2

  9
$UCSORTHOVIEW
 70
     0
  9
$UCSORGTOP
 10
0.0
 20
0.0
 30
0.0
  9
$UCSORGBOTTOM
 10
0.0
 20
0.0
 30
0.0
  9
$UCSORGLEFT
 10
0.0
 20
0.0
 30
0.0
  9
$UCSORGRIGHT
 10
0.0
 20
0.0
 30
0.0
  9
$UCSORGFRONT
 10
0.0
 20
0.0
 30
0.0
  9
$UCSORGBACK
 10
0.0
 20
0.0
 30
0.0
  9
$PUCSBASE
  2

  9
$PUCSNAME
  2

  9
$PUCSORG
 10
0.0
 20
0.0
 30
0.0
  9
$PUCSXDIR
 10
1.0
 20
0.0
 30
0.0
  9
$PUCSYDIR
 10
0.0
 20
1.0
 30
0.0
  9
$PUCSORTHOREF
  2

  9
$PUCSORTHOVIEW
 70
     0
  9
$PUCSORGTOP
 10
0.0
 20
0.0
 30
0.0
  9
$PUCSORGBOTTOM
 10
0.0
 20
0.0
 30
0.0
  9
$PUCSORGLEFT
 10
0.0
 20
0.0
 30
0.0
  9
$PUCSORGRIGHT
 10
0.0
 20
0.0
 30
0.0
  9
$PUCSORGFRONT
 10
0.0
 20
0.0
 30
0.0
  9
$PUCSORGBACK
 10
0.0
 20
0.0
 30
0.0
  9
$USERI1
 70
     0
  9
$USERI2
 70
     0
  9
$USERI3
 70
     0
  9
$USERI4
 70
     0
  9
$USERI5
 70
     0
  9
$USERR1
 40
0.0
  9
$USERR2
 40
0.0
  9
$USERR3
 40
0.0
  9
$USERR4
 40
0.0
  9
$USERR5
 40
0.0
  9
$WORLDVIEW
 70
     1
  9
$SHADEDGE
 70
     3
  9
$SHADEDIF
 70
    70
  9
$TILEMODE
 70
     1
  9
$MAXACTVP
 70
    16
  9
$PINSBASE
 10
0.0
 20
0.0
 30
0.0
  9
$PLIMCHECK
 70
     0
  9
$PEXTMIN
 10
1.000000000000000E+20
 20
1.000000000000000E+20
 30
1.000000000000000E+20
  9
$PEXTMAX
 10
-1.000000000000000E+20
 20
-1.000000000000000E+20
 30
-1.000000000000000E+20
  9
$PLIMMIN
 10
0.0
 20
0.0
  9
$PLIMMAX
 10
420.0
 20
297.0
  9
$UNITMODE
 70
     0
  9
$VISRETAIN
 70
     0
  9
$PLINEGEN
 70
     0
  9
$PSLTSCALE
 70
     0
  9
$TREEDEPTH
 70
  3020
  9
$CMLSTYLE
  2
STANDARD
  9
$CMLJUST
 70
     0
  9
$CMLSCALE
 40
1.0
  9
$PROXYGRAPHICS
 70
     1
  9
$MEASUREMENT
 70
     1
  9
$CELWEIGHT
370
    -1
  9
$ENDCAPS
280
     0
  9
$JOINSTYLE
280
     0
  9
$LWDISPLAY
290
     0
  9
$INSUNITS
 70
     0
  9
$HYPERLINKBASE
  1

  9
$STYLESHEET
  1

  9
$XEDIT
290
     1
  9
$CEPSNTYPE
380
     0
  9
$PSTYLEMODE
290
     1
  9
$FINGERPRINTGUID
  2
{BAB49C27-2D4C-4346-872B-8F81FBDF40E9}
  9
$VERSIONGUID
  2
{C1F88ACC-AEC3-48A4-9025-DE876C55A87D}
  9
$EXTNAMES
290
     1
  9
$PSVPSCALE
 40
0.0
  9
$OLESTARTUP
290
     0
  0
ENDSEC
  0
SECTION
  2
CLASSES
  0
CLASS
  1
ACDBDICTIONARYWDFLT
  2
AcDbDictionaryWithDefault
  3
ObjectDBX Classes
 90
        0
280
     0
281
     0
  0
CLASS
  1
DICTIONARYVAR
  2
AcDbDictionaryVar
  3
ObjectDBX Classes
 90
        0
280
     0
281
     0
  0
CLASS
  1
ACDBPLACEHOLDER
  2
AcDbPlaceHolder
  3
ObjectDBX Classes
 90
        0
280
     0
281
     0
  0
CLASS
  1
LAYOUT
  2
AcDbLayout
  3
ObjectDBX Classes
 90
        0
280
     0
281
     0
  0
ENDSEC
  0
SECTION
  2
TABLES
  0
TABLE
  2
VPORT
  5
746D
330
0
100
AcDbSymbolTable
 70
     2
  0
VPORT
  5
17728
330
746D
100
AcDbSymbolTableRecord
100
AcDbViewportTableRecord
  2
*Active
 70
     0
 10
0.0
 20
0.0
 11
1.0
 21
1.0
 12
8223.761025238502
 22
6348.450019463587
 13
0.0
 23
0.0
 14
10.0
 24
10.0
 15
10.0
 25
10.0
 16
0.0
 26
0.0
 36
1.0
 17
0.0
 27
0.0
 37
0.0
 40
12806.19294782812
 41
1.525925925925925
 42
50.0
 43
0.0
 44
0.0
 50
0.0
 51
0.0
 71
     0
 72
     0
 73
     1
 74
     0
 75
     0
 76
     0
 77
     0
 78
     0
281
     0
 65
     1
110
0.0
120
0.0
130
0.0
111
1.0
121
0.0
131
0.0
112
0.0
122
1.0
132
0.0
 79
     0
146
0.0
  0
ENDTAB
  0
TABLE
  2
LTYPE
  5
746A
330
0
100
AcDbSymbolTable
 70
     4
  0
LTYPE
  5
7477
330
746A
100
AcDbSymbolTableRecord
100
AcDbLinetypeTableRecord
  2
BYBLOCK
 70
     0
  3

 72
    65
 73
     0
 40
0.0
  0
LTYPE
  5
7478
330
746A
100
AcDbSymbolTableRecord
100
AcDbLinetypeTableRecord
  2
BYLAYER
 70
     0
  3

 72
    65
 73
     0
 40
0.0
  0
LTYPE
  5
7479
330
746A
100
AcDbSymbolTableRecord
100
AcDbLinetypeTableRecord
  2
CONTINUOUS
 70
     0
  3
Solid line
 72
    65
 73
     0
 40
0.0
  0
LTYPE
  5
7816
330
746A
100
AcDbSymbolTableRecord
100
AcDbLinetypeTableRecord
  2
CENTER
 70
     0
  3
____ _ ____ _ ____ _ ____ _ ____ _ ____ _ ____ 
 72
    65
 73
     4
 40
2.0
 49
1.25
 74
     0
 49
-0.25
 74
     0
 49
0.25
 74
     0
 49
-0.25
 74
     0
  0
LTYPE
  5
781A
330
746A
100
AcDbSymbolTableRecord
100
AcDbLinetypeTableRecord
  2
HIDDEN
 70
     0
  3
__ __ __ __ __ __ __ __ __ __ __ __ __ __ __ __
 72
    65
 73
     2
 40
0.375
 49
0.25
 74
     0
 49
-0.125
 74
     0
  0
LTYPE
  5
781B
330
746A
100
AcDbSymbolTableRecord
100
AcDbLinetypeTableRecord
  2
PHANTOM
 70
     0
  3
______  __  __  ______  __  __  ______  __  __ 
 72
    65
 73
     6
 40
2.5
 49
1.25
 74
     0
 49
-0.25
 74
     0
 49
0.25
 74
     0
 49
-0.25
 74
     0
 49
0.25
 74
     0
 49
-0.25
 74
     0
  0
ENDTAB
  0
TABLE
  2
LAYER
  5
7467
102
{ACAD_XDICTIONARY
360
16212
102
}
330
0
100
AcDbSymbolTable
 70
    12
  0
LAYER
  5
7474
330
7467
100
AcDbSymbolTableRecord
100
AcDbLayerTableRecord
  2
0
 70
     0
 62
     7
  6
CONTINUOUS
370
    -3
390
16006
  0
LAYER
  5
DEB2
330
7467
100
AcDbSymbolTableRecord
100
AcDbLayerTableRecord
  2
センター
 70
     0
 62
     3
  6
CENTER
370
    -3
390
16006
  0
LAYER
  5
DEB3
330
7467
100
AcDbSymbolTableRecord
100
AcDbLayerTableRecord
  2
寸法
 70
     0
 62
     4
  6
CONTINUOUS
370
    -3
390
16006
  0
LAYER
  5
DEB4
330
7467
100
AcDbSymbolTableRecord
100
AcDbLayerTableRecord
  2
部品1
 70
     0
 62
     7
  6
CONTINUOUS
370
    -3
390
16006
  0
LAYER
  5
DEB5
330
7467
100
AcDbSymbolTableRecord
100
AcDbLayerTableRecord
  2
補助
 70
     0
 62
    -1
  6
CONTINUOUS
370
    -3
390
16006
  0
LAYER
  5
DEB6
330
7467
100
AcDbSymbolTableRecord
100
AcDbLayerTableRecord
  2
文字
 70
     0
 62
     7
  6
CONTINUOUS
370
    -3
390
16006
  0
LAYER
  5
F255
330
7467
100
AcDbSymbolTableRecord
100
AcDbLayerTableRecord
  2
DEFPOINTS
 70
     0
 62
     7
  6
CONTINUOUS
290
     0
370
    -3
390
16006
  0
LAYER
  5
10B54
330
7467
100
AcDbSymbolTableRecord
100
AcDbLayerTableRecord
  2
仕様書枠
 70
     0
 62
   230
  6
CONTINUOUS
370
    -3
390
16006
  0
LAYER
  5
11729
330
7467
100
AcDbSymbolTableRecord
100
AcDbLayerTableRecord
  2
Ｇ．Ｌ
 70
     0
 62
    30
  6
CONTINUOUS
370
    -3
390
16006
  0
LAYER
  5
1173F
330
7467
100
AcDbSymbolTableRecord
100
AcDbLayerTableRecord
  2
細線
 70
     0
 62
     5
  6
CONTINUOUS
370
    -3
390
16006
  0
LAYER
  5
118A1
330
7467
100
AcDbSymbolTableRecord
100
AcDbLayerTableRecord
  2
想像線
 70
     0
 62
     6
  6
PHANTOM
370
    -3
390
16006
  0
LAYER
  5
123C1
330
7467
100
AcDbSymbolTableRecord
100
AcDbLayerTableRecord
  2
破線
 70
     0
 62
     2
  6
HIDDEN
370
    -3
390
16006
  0
ENDTAB
  0
TABLE
  2
STYLE
  5
7468
330
0
100
AcDbSymbolTable
 70
     4
  0
STYLE
  5
7475
330
7468
100
AcDbSymbolTableRecord
100
AcDbTextStyleTableRecord
  2
STANDARD
 70
     0
 40
0.0
 41
1.0
 50
0.0
 71
     0
 42
4.0
  3
txt
  4
C:\AutoCAD LT\bigfont.shx
  0
STYLE
  5
F706
330
7468
100
AcDbSymbolTableRecord
100
AcDbTextStyleTableRecord
  2
STYLE1
 70
     0
 40
0.0
 41
1.0
 50
0.0
 71
     0
 42
4.0
  3
isocp.shx
  4
bigfont.shx
  0
STYLE
  5
103BF
330
7468
100
AcDbSymbolTableRecord
100
AcDbTextStyleTableRecord
  2
STYLE2
 70
     0
 40
0.0
 41
1.0
 50
0.0
 71
     0
 42
100.0
  3
MS PGothic.ttf
  4

1001
ACAD
1000
MS PGothic
1071
    32818
  0
STYLE
  5
10BAA
330
7468
100
AcDbSymbolTableRecord
100
AcDbTextStyleTableRecord
  2
STYLE3
 70
     0
 40
0.0
 41
1.0
 50
0.0
 71
     0
 42
100.0
  3

  4

1001
ACAD
1000
DFPGothic-EB
1071
    32818
  0
ENDTAB
  0
TABLE
  2
VIEW
  5
746B
330
0
100
AcDbSymbolTable
 70
     0
  0
ENDTAB
  0
TABLE
  2
UCS
  5
746C
330
0
100
AcDbSymbolTable
 70
     0
  0
ENDTAB
  0
TABLE
  2
APPID
  5
746E
330
0
100
AcDbSymbolTable
 70
     6
  0
APPID
  5
7476
330
746E
100
AcDbSymbolTableRecord
100
AcDbRegAppTableRecord
  2
ACAD
 70
     0
  0
APPID
  5
DEA9
330
746E
100
AcDbSymbolTableRecord
100
AcDbRegAppTableRecord
  2
CONTENTBLOCKICON
 70
     0
  0
APPID
  5
DEAA
330
746E
100
AcDbSymbolTableRecord
100
AcDbRegAppTableRecord
  2
CONTENTBLOCKDESCRIPTION
 70
     0
  0
APPID
  5
E71D
330
746E
100
AcDbSymbolTableRecord
100
AcDbRegAppTableRecord
  2
CONTENTTABDATA
 70
     0
  0
APPID
  5
E71E
330
746E
100
AcDbSymbolTableRecord
100
AcDbRegAppTableRecord
  2
CONTENTCURRENTTAB
 70
     0
  0
APPID
  5
F3BA
330
746E
100
AcDbSymbolTableRecord
100
AcDbRegAppTableRecord
  2
DRAWINGVARIABLESXDATA
 70
     0
  0
ENDTAB
  0
TABLE
  2
DIMSTYLE
  5
746F
330
0
100
AcDbSymbolTable
 70
     2
100
AcDbDimStyleTable
 71
     1
340
F71F
  0
DIMSTYLE
105
7484
330
746F
100
AcDbSymbolTableRecord
100
AcDbDimStyleTableRecord
  2
JIS
 70
     0
 41
2.5
 42
1.0
 43
7.0
 44
1.0
 73
     0
 74
     0
 77
     1
 78
     8
140
2.5
141
0.0
143
0.0394
147
0.0
172
     1
174
     1
175
     1
340
7475
  0
DIMSTYLE
105
F71F
102
{ACAD_REACTORS
330
156F4
330
156F5
330
156F6
330
156F7
330
156F8
330
156F9
330
156FA
330
156FB
330
156FC
330
15717
330
15794
330
15795
330
1579F
330
157A3
330
157C5
330
15C33
330
15C4B
330
15D2A
330
15D25
330
15D05
330
15E7D
330
15E7A
330
15E4D
330
15F3D
330
15F63
330
15F66
330
165D4
330
165DE
330
165DF
330
165E3
330
165E4
330
165E5
330
165E6
330
1660C
330
1660D
330
16ED6
330
16ED5
330
16ED4
330
16F28
330
1758D
330
17590
330
175DF
330
175E2
330
17631
330
17634
102
}
330
746F
100
AcDbSymbolTableRecord
100
AcDbDimStyleTableRecord
  2
INABA_S40G
 70
     0
 40
40.0
 41
2.5
 42
0.5
 43
7.0
 44
1.5
 73
     0
 74
     0
 77
     3
 78
     8
140
3.0
141
0.0
143
0.0394
147
1.0
172
     1
173
     1
174
     1
178
     7
271
     1
340
F706
341
F770
343
F770
344
F770
  0
ENDTAB
  0
TABLE
  2
BLOCK_RECORD
  5
7466
330
0
100
AcDbSymbolTable
 70
    46
  0
BLOCK_RECORD
  5
747D
330
7466
100
AcDbSymbolTableRecord
100
AcDbBlockTableRecord
  2
*MODEL_SPACE
340
1600B
  0
BLOCK_RECORD
  5
747A
330
7466
100
AcDbSymbolTableRecord
100
AcDbBlockTableRecord
  2
*PAPER_SPACE
340
1600C
  0
BLOCK_RECORD
  5
F770
330
7466
100
AcDbSymbolTableRecord
100
AcDbBlockTableRecord
  2
_DOTSMALL
340
0
102
{BLKREFS
331
1739A
331
1739B
331
173A5
331
173A6
331
173AE
331
173AF
331
173B7
331
173B8
331
173C1
331
173C2
331
173CB
331
173CC
331
173D4
331
173D5
331
173DF
331
173E0
331
173E8
331
173E9
331
173F1
331
173F2
331
173FC
331
173FD
331
17405
331
17406
331
1740E
331
1740F
331
17417
331
17418
331
17457
331
17458
331
1745F
331
17460
331
17468
331
17469
331
17472
331
17473
331
1747A
331
1747B
331
17483
331
17484
331
1748D
331
1748E
331
17495
331
17496
331
1749E
331
1749F
331
174A7
331
174A8
331
174B0
331
174B1
331
174B9
331
174BA
331
174C2
331
174C3
331
174CB
331
174CC
331
174D6
331
174D7
331
174DF
331
174E0
331
174E8
331
174E9
331
174F1
331
174F2
331
174FA
331
174FB
331
17505
331
17506
331
1750E
331
1750F
331
17518
331
17519
331
17521
331
17522
331
1752B
331
1752C
331
17536
331
17537
331
175AE
331
175AF
331
175B7
331
175B8
331
17600
331
17601
331
17609
331
1760A
331
17652
331
17653
331
1765B
331
1765C
102
}
  0
BLOCK_RECORD
  5
158EC
330
7466
100
AcDbSymbolTableRecord
100
AcDbBlockTableRecord
  2
*D1
340
0
  0
BLOCK_RECORD
  5
158FA
330
7466
100
AcDbSymbolTableRecord
100
AcDbBlockTableRecord
  2
*D2
340
0
  0
BLOCK_RECORD
  5
15908
330
7466
100
AcDbSymbolTableRecord
100
AcDbBlockTableRecord
  2
*D3
340
0
  0
BLOCK_RECORD
  5
15914
330
7466
100
AcDbSymbolTableRecord
100
AcDbBlockTableRecord
  2
*D4
340
0
  0
BLOCK_RECORD
  5
15920
330
7466
100
AcDbSymbolTableRecord
100
AcDbBlockTableRecord
  2
*D5
340
0
  0
BLOCK_RECORD
  5
1592C
330
7466
100
AcDbSymbolTableRecord
100
AcDbBlockTableRecord
  2
*D6
340
0
  0
BLOCK_RECORD
  5
1593A
330
7466
100
AcDbSymbolTableRecord
100
AcDbBlockTableRecord
  2
*D7
340
0
  0
BLOCK_RECORD
  5
15946
330
7466
100
AcDbSymbolTableRecord
100
AcDbBlockTableRecord
  2
*D8
340
0
  0
BLOCK_RECORD
  5
15952
330
7466
100
AcDbSymbolTableRecord
100
AcDbBlockTableRecord
  2
*D9
340
0
  0
BLOCK_RECORD
  5
15976
330
7466
100
AcDbSymbolTableRecord
100
AcDbBlockTableRecord
  2
*D10
340
0
  0
BLOCK_RECORD
  5
159A6
330
7466
100
AcDbSymbolTableRecord
100
AcDbBlockTableRecord
  2
*D11
340
0
  0
BLOCK_RECORD
  5
159B4
330
7466
100
AcDbSymbolTableRecord
100
AcDbBlockTableRecord
  2
*D12
340
0
  0
BLOCK_RECORD
  5
159C0
330
7466
100
AcDbSymbolTableRecord
100
AcDbBlockTableRecord
  2
*D13
340
0
  0
BLOCK_RECORD
  5
159CC
330
7466
100
AcDbSymbolTableRecord
100
AcDbBlockTableRecord
  2
*D14
340
0
  0
BLOCK_RECORD
  5
159F0
330
7466
100
AcDbSymbolTableRecord
100
AcDbBlockTableRecord
  2
*D15
340
0
  0
BLOCK_RECORD
  5
15C34
330
7466
100
AcDbSymbolTableRecord
100
AcDbBlockTableRecord
  2
*D16
340
0
  0
BLOCK_RECORD
  5
15C4C
330
7466
100
AcDbSymbolTableRecord
100
AcDbBlockTableRecord
  2
*D17
340
0
  0
BLOCK_RECORD
  5
15D31
330
7466
100
AcDbSymbolTableRecord
100
AcDbBlockTableRecord
  2
*D18
340
0
  0
BLOCK_RECORD
  5
15D3D
330
7466
100
AcDbSymbolTableRecord
100
AcDbBlockTableRecord
  2
*D19
340
0
  0
BLOCK_RECORD
  5
15D49
330
7466
100
AcDbSymbolTableRecord
100
AcDbBlockTableRecord
  2
*D20
340
0
  0
BLOCK_RECORD
  5
15E84
330
7466
100
AcDbSymbolTableRecord
100
AcDbBlockTableRecord
  2
*D21
340
0
  0
BLOCK_RECORD
  5
15E90
330
7466
100
AcDbSymbolTableRecord
100
AcDbBlockTableRecord
  2
*D22
340
0
  0
BLOCK_RECORD
  5
15E9C
330
7466
100
AcDbSymbolTableRecord
100
AcDbBlockTableRecord
  2
*D23
340
0
  0
BLOCK_RECORD
  5
15F6D
330
7466
100
AcDbSymbolTableRecord
100
AcDbBlockTableRecord
  2
*D24
340
0
  0
BLOCK_RECORD
  5
15F79
330
7466
100
AcDbSymbolTableRecord
100
AcDbBlockTableRecord
  2
*D25
340
0
  0
BLOCK_RECORD
  5
15F85
330
7466
100
AcDbSymbolTableRecord
100
AcDbBlockTableRecord
  2
*D26
340
0
  0
BLOCK_RECORD
  5
169B4
330
7466
100
AcDbSymbolTableRecord
100
AcDbBlockTableRecord
  2
*D27
340
0
  0
BLOCK_RECORD
  5
169C0
330
7466
100
AcDbSymbolTableRecord
100
AcDbBlockTableRecord
  2
*D28
340
0
  0
BLOCK_RECORD
  5
169CC
330
7466
100
AcDbSymbolTableRecord
100
AcDbBlockTableRecord
  2
*D29
340
0
  0
BLOCK_RECORD
  5
169DA
330
7466
100
AcDbSymbolTableRecord
100
AcDbBlockTableRecord
  2
*D30
340
0
  0
BLOCK_RECORD
  5
169E6
330
7466
100
AcDbSymbolTableRecord
100
AcDbBlockTableRecord
  2
*D31
340
0
  0
BLOCK_RECORD
  5
169F2
330
7466
100
AcDbSymbolTableRecord
100
AcDbBlockTableRecord
  2
*D32
340
0
  0
BLOCK_RECORD
  5
16A00
330
7466
100
AcDbSymbolTableRecord
100
AcDbBlockTableRecord
  2
*D33
340
0
  0
BLOCK_RECORD
  5
16A0C
330
7466
100
AcDbSymbolTableRecord
100
AcDbBlockTableRecord
  2
*D34
340
0
  0
BLOCK_RECORD
  5
16A19
330
7466
100
AcDbSymbolTableRecord
100
AcDbBlockTableRecord
  2
*D35
340
0
  0
BLOCK_RECORD
  5
16EE5
330
7466
100
AcDbSymbolTableRecord
100
AcDbBlockTableRecord
  2
*D36
340
0
  0
BLOCK_RECORD
  5
16EF3
330
7466
100
AcDbSymbolTableRecord
100
AcDbBlockTableRecord
  2
*D37
340
0
  0
BLOCK_RECORD
  5
16EFF
330
7466
100
AcDbSymbolTableRecord
100
AcDbBlockTableRecord
  2
*D38
340
0
  0
BLOCK_RECORD
  5
16F33
330
7466
100
AcDbSymbolTableRecord
100
AcDbBlockTableRecord
  2
*D39
340
0
  0
BLOCK_RECORD
  5
17593
330
7466
100
AcDbSymbolTableRecord
100
AcDbBlockTableRecord
  2
*D40
340
0
  0
BLOCK_RECORD
  5
1759F
330
7466
100
AcDbSymbolTableRecord
100
AcDbBlockTableRecord
  2
*D41
340
0
  0
BLOCK_RECORD
  5
175E5
330
7466
100
AcDbSymbolTableRecord
100
AcDbBlockTableRecord
  2
*D42
340
0
  0
BLOCK_RECORD
  5
175F1
330
7466
100
AcDbSymbolTableRecord
100
AcDbBlockTableRecord
  2
*D43
340
0
  0
BLOCK_RECORD
  5
17637
330
7466
100
AcDbSymbolTableRecord
100
AcDbBlockTableRecord
  2
*D44
340
0
  0
BLOCK_RECORD
  5
17643
330
7466
100
AcDbSymbolTableRecord
100
AcDbBlockTableRecord
  2
*D45
340
0
  0
ENDTAB
  0
ENDSEC
  0
SECTION
  2
BLOCKS
  0
BLOCK
  5
7489
330
747D
100
AcDbEntity
  8
0
100
AcDbBlockBegin
  2
*MODEL_SPACE
 70
     0
 10
0.0
 20
0.0
 30
0.0
  3
*MODEL_SPACE
  1

  0
ENDBLK
  5
748A
330
747D
100
AcDbEntity
  8
0
100
AcDbBlockEnd
  0
BLOCK
  5
7487
330
747A
100
AcDbEntity
 67
     1
  8
0
100
AcDbBlockBegin
  2
*PAPER_SPACE
 70
     0
 10
0.0
 20
0.0
 30
0.0
  3
*PAPER_SPACE
  1

  0
ENDBLK
  5
7488
330
747A
100
AcDbEntity
 67
     1
  8
0
100
AcDbBlockEnd
  0
BLOCK
  5
F771
330
F770
100
AcDbEntity
  8
0
 48
50.0
100
AcDbBlockBegin
  2
_DOTSMALL
 70
     0
 10
0.0
 20
0.0
 30
0.0
  3
_DOTSMALL
  1

  0
LWPOLYLINE
  5
F772
330
F770
100
AcDbEntity
  8
0
  6
ByBlock
 62
     0
 48
50.0
100
AcDbPolyline
 90
        2
 70
     1
 43
0.5
 10
-0.0625
 20
0.0
 42
1.0
 10
0.0625
 20
0.0
 42
1.0
  0
ENDBLK
  5
F776
330
F770
100
AcDbEntity
  8
0
 48
50.0
100
AcDbBlockEnd
  0
BLOCK
  5
15A18
330
158EC
100
AcDbEntity
  8
0
 48
50.0
100
AcDbBlockBegin
  2
*D1
 70
     1
 10
0.0
 20
0.0
 30
0.0
  3
*D1
  1

  0
LINE
  5
17531
330
158EC
100
AcDbEntity
  8
寸法
 62
     0
 48
50.0
370
    -2
100
AcDbLine
 10
8868.698304377096
 20
9458.262299083919
 30
0.0
 11
9556.124650111508
 21
9458.262299083919
 31
0.0
  0
LINE
  5
17532
330
158EC
100
AcDbEntity
  8
寸法
 62
     0
 48
50.0
370
    -2
100
AcDbLine
 10
8868.698304377096
 20
9403.262299083918
 30
0.0
 11
9556.124650111508
 21
9403.262299083918
 31
0.0
  0
LINE
  5
17533
330
158EC
100
AcDbEntity
  8
寸法
 62
     0
 48
50.0
370
    -2
100
AcDbLine
 10
9496.124650111507
 20
9403.262299083918
 30
0.0
 11
9496.124650111507
 21
9303.262299083918
 31
0.0
  0
LINE
  5
17534
330
158EC
100
AcDbEntity
  8
寸法
 62
     0
 48
50.0
370
    -2
100
AcDbLine
 10
9496.124650111507
 20
9458.262299083919
 30
0.0
 11
9496.124650111507
 21
9875.232861832396
 31
0.0
  0
LINE
  5
17535
330
158EC
100
AcDbEntity
  8
寸法
 62
     0
 48
50.0
370
    -2
100
AcDbLine
 10
9496.124650111507
 20
9403.262299083918
 30
0.0
 11
9496.124650111507
 21
9458.262299083919
 31
0.0
  0
INSERT
  5
17536
330
158EC
100
AcDbEntity
  8
寸法
 62
     0
 48
50.0
370
    -2
100
AcDbBlockReference
  2
_DOTSMALL
 10
9496.124650111507
 20
9403.262299083918
 30
0.0
 41
100.0
 42
100.0
 43
100.0
 50
90.0
  0
INSERT
  5
17537
330
158EC
100
AcDbEntity
  8
寸法
 62
     0
 48
50.0
370
    -2
100
AcDbBlockReference
  2
_DOTSMALL
 10
9496.124650111507
 20
9458.262299083919
 30
0.0
 41
100.0
 42
100.0
 43
100.0
 50
270.0
  0
MTEXT
  5
17538
330
158EC
100
AcDbEntity
  8
寸法
 62
     7
 48
50.0
100
AcDbMText
 10
9396.124650111506
 20
9766.74758045816
 30
0.0
 40
120.0
 41
0.0
 71
     5
 72
     1
  1
\A1;55
  7
STYLE1
 11
0.0000000000000001
 21
1.0
 31
0.0
 73
     1
 44
1.0
1001
ACAD
1000
MTEXTBEGIN
1070
    73
1070
     1
1070
    44
1040
1.0
1070
    74
1070
     0
1000
MTEXTEND
  0
POINT
  5
17539
330
158EC
100
AcDbEntity
  8
DEFPOINTS
 62
     0
 48
50.0
100
AcDbPoint
 10
8848.698304377096
 20
9458.262299083919
 30
0.0
  0
POINT
  5
1753A
330
158EC
100
AcDbEntity
  8
DEFPOINTS
 62
     0
 48
50.0
100
AcDbPoint
 10
8848.698304377096
 20
9403.262299083918
 30
0.0
  0
POINT
  5
1753B
330
158EC
100
AcDbEntity
  8
DEFPOINTS
 62
     0
 48
50.0
100
AcDbPoint
 10
9496.124650111507
 20
9403.262299083918
 30
0.0
  0
ENDBLK
  5
15A24
330
158EC
100
AcDbEntity
  8
0
 48
50.0
100
AcDbBlockEnd
  0
BLOCK
  5
15A25
330
158FA
100
AcDbEntity
  8
0
 48
50.0
100
AcDbBlockBegin
  2
*D2
 70
     1
 10
0.0
 20
0.0
 30
0.0
  3
*D2
  1

  0
LINE
  5
17526
330
158FA
100
AcDbEntity
  8
寸法
 62
     0
 48
50.0
370
    -2
100
AcDbLine
 10
8793.698304377096
 20
9478.262299083919
 30
0.0
 11
8793.698304377096
 21
9734.070518708902
 31
0.0
  0
LINE
  5
17527
330
158FA
100
AcDbEntity
  8
寸法
 62
     0
 48
50.0
370
    -2
100
AcDbLine
 10
8848.698304377096
 20
9478.262299083919
 30
0.0
 11
8848.698304377096
 21
9734.070518708902
 31
0.0
  0
LINE
  5
17528
330
158FA
100
AcDbEntity
  8
寸法
 62
     0
 48
50.0
370
    -2
100
AcDbLine
 10
8793.698304377096
 20
9674.070518708902
 30
0.0
 11
8693.698304377097
 21
9674.070518708902
 31
0.0
  0
LINE
  5
17529
330
158FA
100
AcDbEntity
  8
寸法
 62
     0
 48
50.0
370
    -2
100
AcDbLine
 10
8848.698304377096
 20
9674.070518708902
 30
0.0
 11
9265.668867125572
 21
9674.070518708902
 31
0.0
  0
LINE
  5
1752A
330
158FA
100
AcDbEntity
  8
寸法
 62
     0
 48
50.0
370
    -2
100
AcDbLine
 10
8793.698304377096
 20
9674.070518708902
 30
0.0
 11
8848.698304377096
 21
9674.070518708902
 31
0.0
  0
INSERT
  5
1752B
330
158FA
100
AcDbEntity
  8
寸法
 62
     0
 48
50.0
370
    -2
100
AcDbBlockReference
  2
_DOTSMALL
 10
8793.698304377096
 20
9674.070518708902
 30
0.0
 41
100.0
 42
100.0
 43
100.0
  0
INSERT
  5
1752C
330
158FA
100
AcDbEntity
  8
寸法
 62
     0
 48
50.0
370
    -2
100
AcDbBlockReference
  2
_DOTSMALL
 10
8848.698304377096
 20
9674.070518708902
 30
0.0
 41
100.0
 42
100.0
 43
100.0
 50
180.0
  0
MTEXT
  5
1752D
330
158FA
100
AcDbEntity
  8
寸法
 62
     7
 48
50.0
100
AcDbMText
 10
9157.183585751335
 20
9774.070518708901
 30
0.0
 40
120.0
 41
0.0
 71
     5
 72
     1
  1
\A1;55
  7
STYLE1
 73
     1
 44
1.0
1001
ACAD
1000
MTEXTBEGIN
1070
    73
1070
     1
1070
    44
1040
1.0
1070
    74
1070
     0
1000
MTEXTEND
  0
POINT
  5
1752E
330
158FA
100
AcDbEntity
  8
DEFPOINTS
 62
     0
 48
50.0
100
AcDbPoint
 10
8793.698304377096
 20
9458.262299083919
 30
0.0
  0
POINT
  5
1752F
330
158FA
100
AcDbEntity
  8
DEFPOINTS
 62
     0
 48
50.0
100
AcDbPoint
 10
8848.698304377096
 20
9458.262299083919
 30
0.0
  0
POINT
  5
17530
330
158FA
100
AcDbEntity
  8
DEFPOINTS
 62
     0
 48
50.0
100
AcDbPoint
 10
8848.698304377096
 20
9674.070518708902
 30
0.0
  0
ENDBLK
  5
15A31
330
158FA
100
AcDbEntity
  8
0
 48
50.0
100
AcDbBlockEnd
  0
BLOCK
  5
15A32
330
15908
100
AcDbEntity
  8
0
 48
50.0
100
AcDbBlockBegin
  2
*D3
 70
     1
 10
0.0
 20
0.0
 30
0.0
  3
*D3
  1

  0
LINE
  5
1751D
330
15908
100
AcDbEntity
  8
寸法
 62
     0
 48
50.0
370
    -2
100
AcDbLine
 10
7843.698304377092
 20
9478.262299083942
 30
0.0
 11
7843.698304377092
 21
9734.070518708923
 31
0.0
  0
LINE
  5
1751E
330
15908
100
AcDbEntity
  8
寸法
 62
     0
 48
50.0
370
    -2
100
AcDbLine
 10
7953.698304377096
 20
9478.262299083919
 30
0.0
 11
7953.698304377096
 21
9734.070518708923
 31
0.0
  0
LINE
  5
1751F
330
15908
100
AcDbEntity
  8
寸法
 62
     0
 48
50.0
370
    -2
100
AcDbLine
 10
7843.698304377092
 20
9674.070518708923
 30
0.0
 11
7953.698304377096
 21
9674.070518708923
 31
0.0
  0
MTEXT
  5
17520
330
15908
100
AcDbEntity
  8
寸法
 62
     7
 48
50.0
100
AcDbMText
 10
7898.698304377096
 20
9932.284017178375
 30
0.0
 40
120.0
 41
0.0
 71
     5
 72
     1
  1
\A1;110
  7
STYLE1
 73
     1
 44
1.0
1001
ACAD
1000
MTEXTBEGIN
1070
    73
1070
     1
1070
    44
1040
1.0
1070
    74
1070
     0
1000
MTEXTEND
  0
INSERT
  5
17521
330
15908
100
AcDbEntity
  8
寸法
 62
     0
 48
50.0
370
    -2
100
AcDbBlockReference
  2
_DOTSMALL
 10
7843.698304377092
 20
9674.070518708923
 30
0.0
 41
100.0
 42
100.0
 43
100.0
 50
180.0
  0
INSERT
  5
17522
330
15908
100
AcDbEntity
  8
寸法
 62
     0
 48
50.0
370
    -2
100
AcDbBlockReference
  2
_DOTSMALL
 10
7953.698304377096
 20
9674.070518708923
 30
0.0
 41
100.0
 42
100.0
 43
100.0
  0
POINT
  5
17523
330
15908
100
AcDbEntity
  8
DEFPOINTS
 62
     0
 48
50.0
100
AcDbPoint
 10
7843.698304377092
 20
9458.262299083941
 30
0.0
  0
POINT
  5
17524
330
15908
100
AcDbEntity
  8
DEFPOINTS
 62
     0
 48
50.0
100
AcDbPoint
 10
7953.698304377096
 20
9458.262299083919
 30
0.0
  0
POINT
  5
17525
330
15908
100
AcDbEntity
  8
DEFPOINTS
 62
     0
 48
50.0
100
AcDbPoint
 10
7953.698304377096
 20
9674.070518708923
 30
0.0
  0
ENDBLK
  5
15A3C
330
15908
100
AcDbEntity
  8
0
 48
50.0
100
AcDbBlockEnd
  0
BLOCK
  5
15A3D
330
15914
100
AcDbEntity
  8
0
 48
50.0
100
AcDbBlockBegin
  2
*D4
 70
     1
 10
0.0
 20
0.0
 30
0.0
  3
*D4
  1

  0
LINE
  5
17514
330
15914
100
AcDbEntity
  8
寸法
 62
     0
 48
50.0
370
    -2
100
AcDbLine
 10
6893.698304377092
 20
9478.262299083942
 30
0.0
 11
6893.698304377092
 21
9734.070518708923
 31
0.0
  0
LINE
  5
17515
330
15914
100
AcDbEntity
  8
寸法
 62
     0
 48
50.0
370
    -2
100
AcDbLine
 10
7003.698304377095
 20
9478.262299083919
 30
0.0
 11
7003.698304377095
 21
9734.070518708923
 31
0.0
  0
LINE
  5
17516
330
15914
100
AcDbEntity
  8
寸法
 62
     0
 48
50.0
370
    -2
100
AcDbLine
 10
6893.698304377092
 20
9674.070518708923
 30
0.0
 11
7003.698304377095
 21
9674.070518708923
 31
0.0
  0
MTEXT
  5
17517
330
15914
100
AcDbEntity
  8
寸法
 62
     7
 48
50.0
100
AcDbMText
 10
6948.698304377095
 20
9928.348840080071
 30
0.0
 40
120.0
 41
0.0
 71
     5
 72
     1
  1
\A1;110
  7
STYLE1
 73
     1
 44
1.0
1001
ACAD
1000
MTEXTBEGIN
1070
    73
1070
     1
1070
    44
1040
1.0
1070
    74
1070
     0
1000
MTEXTEND
  0
INSERT
  5
17518
330
15914
100
AcDbEntity
  8
寸法
 62
     0
 48
50.0
370
    -2
100
AcDbBlockReference
  2
_DOTSMALL
 10
6893.698304377092
 20
9674.070518708923
 30
0.0
 41
100.0
 42
100.0
 43
100.0
 50
180.0
  0
INSERT
  5
17519
330
15914
100
AcDbEntity
  8
寸法
 62
     0
 48
50.0
370
    -2
100
AcDbBlockReference
  2
_DOTSMALL
 10
7003.698304377095
 20
9674.070518708923
 30
0.0
 41
100.0
 42
100.0
 43
100.0
  0
POINT
  5
1751A
330
15914
100
AcDbEntity
  8
DEFPOINTS
 62
     0
 48
50.0
100
AcDbPoint
 10
6893.698304377092
 20
9458.262299083941
 30
0.0
  0
POINT
  5
1751B
330
15914
100
AcDbEntity
  8
DEFPOINTS
 62
     0
 48
50.0
100
AcDbPoint
 10
7003.698304377095
 20
9458.262299083919
 30
0.0
  0
POINT
  5
1751C
330
15914
100
AcDbEntity
  8
DEFPOINTS
 62
     0
 48
50.0
100
AcDbPoint
 10
7003.698304377095
 20
9674.070518708923
 30
0.0
  0
ENDBLK
  5
15A47
330
15914
100
AcDbEntity
  8
0
 48
50.0
100
AcDbBlockEnd
  0
BLOCK
  5
15A48
330
15920
100
AcDbEntity
  8
0
 48
50.0
100
AcDbBlockBegin
  2
*D5
 70
     1
 10
0.0
 20
0.0
 30
0.0
  3
*D5
  1

  0
LINE
  5
1750B
330
15920
100
AcDbEntity
  8
寸法
 62
     0
 48
50.0
370
    -2
100
AcDbLine
 10
7003.698304377095
 20
9478.262299083853
 30
0.0
 11
7003.698304377095
 21
9734.070518708923
 31
0.0
  0
LINE
  5
1750C
330
15920
100
AcDbEntity
  8
寸法
 62
     0
 48
50.0
370
    -2
100
AcDbLine
 10
7843.698304377092
 20
9478.262299083942
 30
0.0
 11
7843.698304377092
 21
9734.070518708923
 31
0.0
  0
LINE
  5
1750D
330
15920
100
AcDbEntity
  8
寸法
 62
     0
 48
50.0
370
    -2
100
AcDbLine
 10
7003.698304377095
 20
9674.070518708923
 30
0.0
 11
7843.698304377092
 21
9674.070518708923
 31
0.0
  0
INSERT
  5
1750E
330
15920
100
AcDbEntity
  8
寸法
 62
     0
 48
50.0
370
    -2
100
AcDbBlockReference
  2
_DOTSMALL
 10
7003.698304377095
 20
9674.070518708923
 30
0.0
 41
100.0
 42
100.0
 43
100.0
 50
180.0
  0
INSERT
  5
1750F
330
15920
100
AcDbEntity
  8
寸法
 62
     0
 48
50.0
370
    -2
100
AcDbBlockReference
  2
_DOTSMALL
 10
7843.698304377092
 20
9674.070518708923
 30
0.0
 41
100.0
 42
100.0
 43
100.0
  0
MTEXT
  5
17510
330
15920
100
AcDbEntity
  8
寸法
 62
     7
 48
50.0
100
AcDbMText
 10
7423.698304377094
 20
9774.082329732545
 30
0.0
 40
120.0
 41
0.0
 71
     5
 72
     1
  1
\A1;2X420=840
  7
STYLE1
 73
     1
 44
1.0
1001
ACAD
1000
MTEXTBEGIN
1070
    73
1070
     1
1070
    44
1040
1.0
1070
    74
1070
     0
1000
MTEXTEND
  0
POINT
  5
17511
330
15920
100
AcDbEntity
  8
DEFPOINTS
 62
     0
 48
50.0
100
AcDbPoint
 10
7003.698304377095
 20
9458.262299083854
 30
0.0
  0
POINT
  5
17512
330
15920
100
AcDbEntity
  8
DEFPOINTS
 62
     0
 48
50.0
100
AcDbPoint
 10
7843.698304377092
 20
9458.262299083941
 30
0.0
  0
POINT
  5
17513
330
15920
100
AcDbEntity
  8
DEFPOINTS
 62
     0
 48
50.0
100
AcDbPoint
 10
7843.698304377092
 20
9674.070518708923
 30
0.0
  0
ENDBLK
  5
15A52
330
15920
100
AcDbEntity
  8
0
 48
50.0
100
AcDbBlockEnd
  0
BLOCK
  5
15A53
330
1592C
100
AcDbEntity
  8
0
 48
50.0
100
AcDbBlockBegin
  2
*D6
 70
     1
 10
0.0
 20
0.0
 30
0.0
  3
*D6
  1

  0
LINE
  5
17500
330
1592C
100
AcDbEntity
  8
寸法
 62
     0
 48
50.0
370
    -2
100
AcDbLine
 10
3148.69830437706
 20
9478.262299083825
 30
0.0
 11
3148.69830437706
 21
9734.070518708806
 31
0.0
  0
LINE
  5
17501
330
1592C
100
AcDbEntity
  8
寸法
 62
     0
 48
50.0
370
    -2
100
AcDbLine
 10
3203.698304377095
 20
9478.262299083825
 30
0.0
 11
3203.698304377095
 21
9734.070518708806
 31
0.0
  0
LINE
  5
17502
330
1592C
100
AcDbEntity
  8
寸法
 62
     0
 48
50.0
370
    -2
100
AcDbLine
 10
3203.698304377095
 20
9674.070518708807
 30
0.0
 11
3303.698304377095
 21
9674.070518708807
 31
0.0
  0
LINE
  5
17503
330
1592C
100
AcDbEntity
  8
寸法
 62
     0
 48
50.0
370
    -2
100
AcDbLine
 10
3148.69830437706
 20
9674.070518708807
 30
0.0
 11
2731.727741628581
 21
9674.070518708807
 31
0.0
  0
LINE
  5
17504
330
1592C
100
AcDbEntity
  8
寸法
 62
     0
 48
50.0
370
    -2
100
AcDbLine
 10
3203.698304377095
 20
9674.070518708807
 30
0.0
 11
3148.69830437706
 21
9674.070518708807
 31
0.0
  0
INSERT
  5
17505
330
1592C
100
AcDbEntity
  8
寸法
 62
     0
 48
50.0
370
    -2
100
AcDbBlockReference
  2
_DOTSMALL
 10
3203.698304377095
 20
9674.070518708807
 30
0.0
 41
100.0
 42
100.0
 43
100.0
 50
180.0
  0
INSERT
  5
17506
330
1592C
100
AcDbEntity
  8
寸法
 62
     0
 48
50.0
370
    -2
100
AcDbBlockReference
  2
_DOTSMALL
 10
3148.69830437706
 20
9674.070518708807
 30
0.0
 41
100.0
 42
100.0
 43
100.0
  0
MTEXT
  5
17507
330
1592C
100
AcDbEntity
  8
寸法
 62
     7
 48
50.0
100
AcDbMText
 10
2840.21302300282
 20
9774.070518708807
 30
0.0
 40
120.0
 41
0.0
 71
     5
 72
     1
  1
\A1;55
  7
STYLE1
 73
     1
 44
1.0
1001
ACAD
1000
MTEXTBEGIN
1070
    73
1070
     1
1070
    44
1040
1.0
1070
    74
1070
     0
1000
MTEXTEND
  0
POINT
  5
17508
330
1592C
100
AcDbEntity
  8
DEFPOINTS
 62
     0
 48
50.0
100
AcDbPoint
 10
3148.69830437706
 20
9458.262299083825
 30
0.0
  0
POINT
  5
17509
330
1592C
100
AcDbEntity
  8
DEFPOINTS
 62
     0
 48
50.0
100
AcDbPoint
 10
3203.698304377095
 20
9458.262299083825
 30
0.0
  0
POINT
  5
1750A
330
1592C
100
AcDbEntity
  8
DEFPOINTS
 62
     0
 48
50.0
100
AcDbPoint
 10
3203.698304377095
 20
9674.070518708807
 30
0.0
  0
ENDBLK
  5
15A5F
330
1592C
100
AcDbEntity
  8
0
 48
50.0
100
AcDbBlockEnd
  0
BLOCK
  5
15A60
330
1593A
100
AcDbEntity
  8
0
 48
50.0
100
AcDbBlockBegin
  2
*D7
 70
     1
 10
0.0
 20
0.0
 30
0.0
  3
*D7
  1

  0
LINE
  5
174F7
330
1593A
100
AcDbEntity
  8
寸法
 62
     0
 48
50.0
370
    -2
100
AcDbLine
 10
6053.698304377094
 20
9478.262299083853
 30
0.0
 11
6053.698304377094
 21
9734.070518708923
 31
0.0
  0
LINE
  5
174F8
330
1593A
100
AcDbEntity
  8
寸法
 62
     0
 48
50.0
370
    -2
100
AcDbLine
 10
6893.698304377092
 20
9478.262299083942
 30
0.0
 11
6893.698304377092
 21
9734.070518708923
 31
0.0
  0
LINE
  5
174F9
330
1593A
100
AcDbEntity
  8
寸法
 62
     0
 48
50.0
370
    -2
100
AcDbLine
 10
6053.698304377094
 20
9674.070518708923
 30
0.0
 11
6893.698304377092
 21
9674.070518708923
 31
0.0
  0
INSERT
  5
174FA
330
1593A
100
AcDbEntity
  8
寸法
 62
     0
 48
50.0
370
    -2
100
AcDbBlockReference
  2
_DOTSMALL
 10
6053.698304377094
 20
9674.070518708923
 30
0.0
 41
100.0
 42
100.0
 43
100.0
 50
180.0
  0
INSERT
  5
174FB
330
1593A
100
AcDbEntity
  8
寸法
 62
     0
 48
50.0
370
    -2
100
AcDbBlockReference
  2
_DOTSMALL
 10
6893.698304377092
 20
9674.070518708923
 30
0.0
 41
100.0
 42
100.0
 43
100.0
  0
MTEXT
  5
174FC
330
1593A
100
AcDbEntity
  8
寸法
 62
     7
 48
50.0
100
AcDbMText
 10
6473.698304377093
 20
9774.082329732545
 30
0.0
 40
120.0
 41
0.0
 71
     5
 72
     1
  1
\A1;2X420=840
  7
STYLE1
 73
     1
 44
1.0
1001
ACAD
1000
MTEXTBEGIN
1070
    73
1070
     1
1070
    44
1040
1.0
1070
    74
1070
     0
1000
MTEXTEND
  0
POINT
  5
174FD
330
1593A
100
AcDbEntity
  8
DEFPOINTS
 62
     0
 48
50.0
100
AcDbPoint
 10
6053.698304377094
 20
9458.262299083854
 30
0.0
  0
POINT
  5
174FE
330
1593A
100
AcDbEntity
  8
DEFPOINTS
 62
     0
 48
50.0
100
AcDbPoint
 10
6893.698304377092
 20
9458.262299083941
 30
0.0
  0
POINT
  5
174FF
330
1593A
100
AcDbEntity
  8
DEFPOINTS
 62
     0
 48
50.0
100
AcDbPoint
 10
6893.698304377092
 20
9674.070518708923
 30
0.0
  0
ENDBLK
  5
15A6A
330
1593A
100
AcDbEntity
  8
0
 48
50.0
100
AcDbBlockEnd
  0
BLOCK
  5
15A6B
330
15946
100
AcDbEntity
  8
0
 48
50.0
100
AcDbBlockBegin
  2
*D8
 70
     1
 10
0.0
 20
0.0
 30
0.0
  3
*D8
  1

  0
LINE
  5
174EE
330
15946
100
AcDbEntity
  8
寸法
 62
     0
 48
50.0
370
    -2
100
AcDbLine
 10
7953.698304377095
 20
9478.262299083853
 30
0.0
 11
7953.698304377095
 21
9734.070518708923
 31
0.0
  0
LINE
  5
174EF
330
15946
100
AcDbEntity
  8
寸法
 62
     0
 48
50.0
370
    -2
100
AcDbLine
 10
8793.698304377093
 20
9478.262299083942
 30
0.0
 11
8793.698304377093
 21
9734.070518708923
 31
0.0
  0
LINE
  5
174F0
330
15946
100
AcDbEntity
  8
寸法
 62
     0
 48
50.0
370
    -2
100
AcDbLine
 10
7953.698304377095
 20
9674.070518708923
 30
0.0
 11
8793.698304377093
 21
9674.070518708923
 31
0.0
  0
INSERT
  5
174F1
330
15946
100
AcDbEntity
  8
寸法
 62
     0
 48
50.0
370
    -2
100
AcDbBlockReference
  2
_DOTSMALL
 10
7953.698304377095
 20
9674.070518708923
 30
0.0
 41
100.0
 42
100.0
 43
100.0
 50
180.0
  0
INSERT
  5
174F2
330
15946
100
AcDbEntity
  8
寸法
 62
     0
 48
50.0
370
    -2
100
AcDbBlockReference
  2
_DOTSMALL
 10
8793.698304377093
 20
9674.070518708923
 30
0.0
 41
100.0
 42
100.0
 43
100.0
  0
MTEXT
  5
174F3
330
15946
100
AcDbEntity
  8
寸法
 62
     7
 48
50.0
100
AcDbMText
 10
8373.698304377091
 20
9774.082329732545
 30
0.0
 40
120.0
 41
0.0
 71
     5
 72
     1
  1
\A1;2X420=840
  7
STYLE1
 73
     1
 44
1.0
1001
ACAD
1000
MTEXTBEGIN
1070
    73
1070
     1
1070
    44
1040
1.0
1070
    74
1070
     0
1000
MTEXTEND
  0
POINT
  5
174F4
330
15946
100
AcDbEntity
  8
DEFPOINTS
 62
     0
 48
50.0
100
AcDbPoint
 10
7953.698304377095
 20
9458.262299083854
 30
0.0
  0
POINT
  5
174F5
330
15946
100
AcDbEntity
  8
DEFPOINTS
 62
     0
 48
50.0
100
AcDbPoint
 10
8793.698304377093
 20
9458.262299083941
 30
0.0
  0
POINT
  5
174F6
330
15946
100
AcDbEntity
  8
DEFPOINTS
 62
     0
 48
50.0
100
AcDbPoint
 10
8793.698304377093
 20
9674.070518708923
 30
0.0
  0
ENDBLK
  5
15A75
330
15946
100
AcDbEntity
  8
0
 48
50.0
100
AcDbBlockEnd
  0
BLOCK
  5
15F91
330
15952
100
AcDbEntity
  8
0
 48
50.0
100
AcDbBlockBegin
  2
*D9
 70
     1
 10
0.0
 20
0.0
 30
0.0
  3
*D9
  1

  0
LINE
  5
174E5
330
15952
100
AcDbEntity
  8
寸法
 62
     0
 48
50.0
370
    -2
100
AcDbLine
 10
3148.698304377089
 20
8068.262299083782
 30
0.0
 11
3148.698304377089
 21
7041.160424223668
 31
0.0
  0
LINE
  5
174E6
330
15952
100
AcDbEntity
  8
寸法
 62
     0
 48
50.0
370
    -2
100
AcDbLine
 10
8848.698304377071
 20
8068.262299083874
 30
0.0
 11
8848.698304377071
 21
7041.160424223668
 31
0.0
  0
LINE
  5
174E7
330
15952
100
AcDbEntity
  8
寸法
 62
     0
 48
50.0
370
    -2
100
AcDbLine
 10
3148.698304377089
 20
7101.160424223668
 30
0.0
 11
8848.698304377071
 21
7101.160424223668
 31
0.0
  0
INSERT
  5
174E8
330
15952
100
AcDbEntity
  8
寸法
 62
     0
 48
50.0
370
    -2
100
AcDbBlockReference
  2
_DOTSMALL
 10
3148.698304377089
 20
7101.160424223668
 30
0.0
 41
100.0
 42
100.0
 43
100.0
 50
180.0
  0
INSERT
  5
174E9
330
15952
100
AcDbEntity
  8
寸法
 62
     0
 48
50.0
370
    -2
100
AcDbBlockReference
  2
_DOTSMALL
 10
8848.698304377071
 20
7101.160424223668
 30
0.0
 41
100.0
 42
100.0
 43
100.0
  0
MTEXT
  5
174EA
330
15952
100
AcDbEntity
  8
寸法
 62
     7
 48
50.0
100
AcDbMText
 10
5998.69830437708
 20
7201.160424223669
 30
0.0
 40
120.0
 41
0.0
 71
     5
 72
     1
  1
\A1;5700
  7
STYLE1
 73
     1
 44
1.0
1001
ACAD
1000
MTEXTBEGIN
1070
    73
1070
     1
1070
    44
1040
1.0
1070
    74
1070
     0
1000
MTEXTEND
  0
POINT
  5
174EB
330
15952
100
AcDbEntity
  8
DEFPOINTS
 62
     0
 48
50.0
100
AcDbPoint
 10
3148.698304377089
 20
8088.262299083782
 30
0.0
  0
POINT
  5
174EC
330
15952
100
AcDbEntity
  8
DEFPOINTS
 62
     0
 48
50.0
100
AcDbPoint
 10
8848.698304377071
 20
8088.262299083876
 30
0.0
  0
POINT
  5
174ED
330
15952
100
AcDbEntity
  8
DEFPOINTS
 62
     0
 48
50.0
100
AcDbPoint
 10
8848.698304377071
 20
7101.160424223668
 30
0.0
  0
ENDBLK
  5
15F9B
330
15952
100
AcDbEntity
  8
0
 48
50.0
100
AcDbBlockEnd
  0
BLOCK
  5
15A97
330
15976
100
AcDbEntity
  8
0
 48
50.0
100
AcDbBlockBegin
  2
*D10
 70
     1
 10
0.0
 20
0.0
 30
0.0
  3
*D10
  1

  0
LINE
  5
174DC
330
15976
100
AcDbEntity
  8
寸法
 62
     0
 48
50.0
370
    -2
100
AcDbLine
 10
7953.698304377093
 20
8068.262299083817
 30
0.0
 11
7953.698304377093
 21
7588.43863128874
 31
0.0
  0
LINE
  5
174DD
330
15976
100
AcDbEntity
  8
寸法
 62
     0
 48
50.0
370
    -2
100
AcDbLine
 10
8638.698304377086
 20
8068.262299083782
 30
0.0
 11
8638.698304377086
 21
7588.43863128874
 31
0.0
  0
LINE
  5
174DE
330
15976
100
AcDbEntity
  8
寸法
 62
     0
 48
50.0
370
    -2
100
AcDbLine
 10
7953.698304377093
 20
7648.43863128874
 30
0.0
 11
8638.698304377086
 21
7648.43863128874
 31
0.0
  0
INSERT
  5
174DF
330
15976
100
AcDbEntity
  8
寸法
 62
     0
 48
50.0
370
    -2
100
AcDbBlockReference
  2
_DOTSMALL
 10
7953.698304377093
 20
7648.43863128874
 30
0.0
 41
100.0
 42
100.0
 43
100.0
 50
180.0
  0
INSERT
  5
174E0
330
15976
100
AcDbEntity
  8
寸法
 62
     0
 48
50.0
370
    -2
100
AcDbBlockReference
  2
_DOTSMALL
 10
8638.698304377086
 20
7648.43863128874
 30
0.0
 41
100.0
 42
100.0
 43
100.0
  0
MTEXT
  5
174E1
330
15976
100
AcDbEntity
  8
寸法
 62
     7
 48
50.0
100
AcDbMText
 10
8296.198304377089
 20
7848.43863128874
 30
0.0
 40
120.0
 41
0.0
 71
     5
 72
     1
  1
\A1;有効開口部間口\P685
  7
STYLE1
 73
     1
 44
1.0
1001
ACAD
1000
MTEXTBEGIN
1070
    73
1070
     1
1070
    44
1040
1.0
1070
    74
1070
     0
1000
MTEXTEND
  0
POINT
  5
174E2
330
15976
100
AcDbEntity
  8
DEFPOINTS
 62
     0
 48
50.0
100
AcDbPoint
 10
7953.698304377093
 20
8088.262299083817
 30
0.0
  0
POINT
  5
174E3
330
15976
100
AcDbEntity
  8
DEFPOINTS
 62
     0
 48
50.0
100
AcDbPoint
 10
8638.698304377086
 20
8088.262299083782
 30
0.0
  0
POINT
  5
174E4
330
15976
100
AcDbEntity
  8
DEFPOINTS
 62
     0
 48
50.0
100
AcDbPoint
 10
8638.698304377086
 20
7648.43863128874
 30
0.0
  0
ENDBLK
  5
15AA1
330
15976
100
AcDbEntity
  8
0
 48
50.0
100
AcDbBlockEnd
  0
BLOCK
  5
15AC3
330
159A6
100
AcDbEntity
  8
0
 48
50.0
100
AcDbBlockBegin
  2
*D11
 70
     1
 10
0.0
 20
0.0
 30
0.0
  3
*D11
  1

  0
LINE
  5
174D1
330
159A6
100
AcDbEntity
  8
寸法
 62
     0
 48
50.0
370
    -2
100
AcDbLine
 10
8868.698304377071
 20
8143.262299083906
 30
0.0
 11
9556.124650111483
 21
8143.262299083906
 31
0.0
  0
LINE
  5
174D2
330
159A6
100
AcDbEntity
  8
寸法
 62
     0
 48
50.0
370
    -2
100
AcDbLine
 10
8868.698304377071
 20
8088.262299083906
 30
0.0
 11
9556.124650111483
 21
8088.262299083906
 31
0.0
  0
LINE
  5
174D3
330
159A6
100
AcDbEntity
  8
寸法
 62
     0
 48
50.0
370
    -2
100
AcDbLine
 10
9496.124650111481
 20
8143.262299083906
 30
0.0
 11
9496.124650111481
 21
8243.262299083905
 31
0.0
  0
LINE
  5
174D4
330
159A6
100
AcDbEntity
  8
寸法
 62
     0
 48
50.0
370
    -2
100
AcDbLine
 10
9496.124650111481
 20
8088.262299083906
 30
0.0
 11
9496.124650111481
 21
7601.915550804803
 31
0.0
  0
LINE
  5
174D5
330
159A6
100
AcDbEntity
  8
寸法
 62
     0
 48
50.0
370
    -2
100
AcDbLine
 10
9496.124650111481
 20
8143.262299083906
 30
0.0
 11
9496.124650111481
 21
8088.262299083906
 31
0.0
  0
INSERT
  5
174D6
330
159A6
100
AcDbEntity
  8
寸法
 62
     0
 48
50.0
370
    -2
100
AcDbBlockReference
  2
_DOTSMALL
 10
9496.124650111481
 20
8143.262299083906
 30
0.0
 41
100.0
 42
100.0
 43
100.0
 50
270.0
  0
INSERT
  5
174D7
330
159A6
100
AcDbEntity
  8
寸法
 62
     0
 48
50.0
370
    -2
100
AcDbBlockReference
  2
_DOTSMALL
 10
9496.124650111481
 20
8088.262299083906
 30
0.0
 41
100.0
 42
100.0
 43
100.0
 50
90.0
  0
MTEXT
  5
174D8
330
159A6
100
AcDbEntity
  8
寸法
 62
     7
 48
50.0
100
AcDbMText
 10
9396.124650111479
 20
7710.400832179043
 30
0.0
 40
120.0
 41
0.0
 71
     5
 72
     1
  1
\A1;55
  7
STYLE1
 11
0.0000000000000001
 21
1.0
 31
0.0
 73
     1
 44
1.0
1001
ACAD
1000
MTEXTBEGIN
1070
    73
1070
     1
1070
    44
1040
1.0
1070
    74
1070
     0
1000
MTEXTEND
  0
POINT
  5
174D9
330
159A6
100
AcDbEntity
  8
DEFPOINTS
 62
     0
 48
50.0
100
AcDbPoint
 10
8848.698304377071
 20
8143.262299083906
 30
0.0
  0
POINT
  5
174DA
330
159A6
100
AcDbEntity
  8
DEFPOINTS
 62
     0
 48
50.0
100
AcDbPoint
 10
8848.698304377071
 20
8088.262299083906
 30
0.0
  0
POINT
  5
174DB
330
159A6
100
AcDbEntity
  8
DEFPOINTS
 62
     0
 48
50.0
100
AcDbPoint
 10
9496.124650111481
 20
8088.262299083906
 30
0.0
  0
ENDBLK
  5
15ACF
330
159A6
100
AcDbEntity
  8
0
 48
50.0
100
AcDbBlockEnd
  0
BLOCK
  5
15AD0
330
159B4
100
AcDbEntity
  8
0
 48
50.0
100
AcDbBlockBegin
  2
*D12
 70
     1
 10
0.0
 20
0.0
 30
0.0
  3
*D12
  1

  0
LINE
  5
174C8
330
159B4
100
AcDbEntity
  8
寸法
 62
     0
 48
50.0
370
    -2
100
AcDbLine
 10
8868.698304377096
 20
9458.262299083919
 30
0.0
 11
9865.236180927183
 21
9458.262299083919
 31
0.0
  0
LINE
  5
174C9
330
159B4
100
AcDbEntity
  8
寸法
 62
     0
 48
50.0
370
    -2
100
AcDbLine
 10
8868.698304377071
 20
8088.262299083906
 30
0.0
 11
9865.236180927183
 21
8088.262299083906
 31
0.0
  0
LINE
  5
174CA
330
159B4
100
AcDbEntity
  8
寸法
 62
     0
 48
50.0
370
    -2
100
AcDbLine
 10
9805.236180927185
 20
9458.262299083919
 30
0.0
 11
9805.236180927185
 21
8088.262299083906
 31
0.0
  0
INSERT
  5
174CB
330
159B4
100
AcDbEntity
  8
寸法
 62
     0
 48
50.0
370
    -2
100
AcDbBlockReference
  2
_DOTSMALL
 10
9805.236180927185
 20
9458.262299083919
 30
0.0
 41
100.0
 42
100.0
 43
100.0
 50
90.0
  0
INSERT
  5
174CC
330
159B4
100
AcDbEntity
  8
寸法
 62
     0
 48
50.0
370
    -2
100
AcDbBlockReference
  2
_DOTSMALL
 10
9805.236180927185
 20
8088.262299083906
 30
0.0
 41
100.0
 42
100.0
 43
100.0
 50
270.0
  0
MTEXT
  5
174CD
330
159B4
100
AcDbEntity
  8
寸法
 62
     7
 48
50.0
100
AcDbMText
 10
9705.236180927183
 20
8773.262299083912
 30
0.0
 40
120.0
 41
0.0
 71
     5
 72
     1
  1
\A1;1370
  7
STYLE1
 11
0.0000000000000001
 21
1.0
 31
0.0
 73
     1
 44
1.0
1001
ACAD
1000
MTEXTBEGIN
1070
    73
1070
     1
1070
    44
1040
1.0
1070
    74
1070
     0
1000
MTEXTEND
  0
POINT
  5
174CE
330
159B4
100
AcDbEntity
  8
DEFPOINTS
 62
     0
 48
50.0
100
AcDbPoint
 10
8848.698304377096
 20
9458.262299083919
 30
0.0
  0
POINT
  5
174CF
330
159B4
100
AcDbEntity
  8
DEFPOINTS
 62
     0
 48
50.0
100
AcDbPoint
 10
8848.698304377071
 20
8088.262299083906
 30
0.0
  0
POINT
  5
174D0
330
159B4
100
AcDbEntity
  8
DEFPOINTS
 62
     0
 48
50.0
100
AcDbPoint
 10
9805.236180927185
 20
8088.262299083906
 30
0.0
  0
ENDBLK
  5
15ADA
330
159B4
100
AcDbEntity
  8
0
 48
50.0
100
AcDbBlockEnd
  0
BLOCK
  5
15ADB
330
159C0
100
AcDbEntity
  8
0
 48
50.0
100
AcDbBlockBegin
  2
*D13
 70
     1
 10
0.0
 20
0.0
 30
0.0
  3
*D13
  1

  0
LINE
  5
174BF
330
159C0
100
AcDbEntity
  8
寸法
 62
     0
 48
50.0
370
    -2
100
AcDbLine
 10
8868.698304377096
 20
9403.262299083918
 30
0.0
 11
9556.124650111508
 21
9403.262299083918
 31
0.0
  0
LINE
  5
174C0
330
159C0
100
AcDbEntity
  8
寸法
 62
     0
 48
50.0
370
    -2
100
AcDbLine
 10
8868.698304377071
 20
8143.262299083906
 30
0.0
 11
9556.124650111508
 21
8143.262299083906
 31
0.0
  0
LINE
  5
174C1
330
159C0
100
AcDbEntity
  8
寸法
 62
     0
 48
50.0
370
    -2
100
AcDbLine
 10
9496.124650111507
 20
9403.262299083918
 30
0.0
 11
9496.124650111507
 21
8143.262299083906
 31
0.0
  0
INSERT
  5
174C2
330
159C0
100
AcDbEntity
  8
寸法
 62
     0
 48
50.0
370
    -2
100
AcDbBlockReference
  2
_DOTSMALL
 10
9496.124650111507
 20
9403.262299083918
 30
0.0
 41
100.0
 42
100.0
 43
100.0
 50
90.0
  0
INSERT
  5
174C3
330
159C0
100
AcDbEntity
  8
寸法
 62
     0
 48
50.0
370
    -2
100
AcDbBlockReference
  2
_DOTSMALL
 10
9496.124650111507
 20
8143.262299083906
 30
0.0
 41
100.0
 42
100.0
 43
100.0
 50
270.0
  0
MTEXT
  5
174C4
330
159C0
100
AcDbEntity
  8
寸法
 62
     7
 48
50.0
100
AcDbMText
 10
9396.112839087884
 20
8773.262299083912
 30
0.0
 40
120.0
 41
0.0
 71
     5
 72
     1
  1
\A1;3X420=1260
  7
STYLE1
 11
0.0000000000000001
 21
1.0
 31
0.0
 73
     1
 44
1.0
1001
ACAD
1000
MTEXTBEGIN
1070
    73
1070
     1
1070
    44
1040
1.0
1070
    74
1070
     0
1000
MTEXTEND
  0
POINT
  5
174C5
330
159C0
100
AcDbEntity
  8
DEFPOINTS
 62
     0
 48
50.0
100
AcDbPoint
 10
8848.698304377096
 20
9403.262299083918
 30
0.0
  0
POINT
  5
174C6
330
159C0
100
AcDbEntity
  8
DEFPOINTS
 62
     0
 48
50.0
100
AcDbPoint
 10
8848.698304377071
 20
8143.262299083906
 30
0.0
  0
POINT
  5
174C7
330
159C0
100
AcDbEntity
  8
DEFPOINTS
 62
     0
 48
50.0
100
AcDbPoint
 10
9496.124650111507
 20
8143.262299083906
 30
0.0
  0
ENDBLK
  5
15AE5
330
159C0
100
AcDbEntity
  8
0
 48
50.0
100
AcDbBlockEnd
  0
BLOCK
  5
15AE6
330
159CC
100
AcDbEntity
  8
0
 48
50.0
100
AcDbBlockBegin
  2
*D14
 70
     1
 10
0.0
 20
0.0
 30
0.0
  3
*D14
  1

  0
LINE
  5
174B6
330
159CC
100
AcDbEntity
  8
寸法
 62
     0
 48
50.0
370
    -2
100
AcDbLine
 10
8839.698311054702
 20
9423.403315235166
 30
0.0
 11
9235.056036916731
 21
9317.467531869031
 31
0.0
  0
LINE
  5
174B7
330
159CC
100
AcDbEntity
  8
寸法
 62
     0
 48
50.0
370
    -2
100
AcDbLine
 10
8839.698311054714
 20
8973.403315235172
 30
0.0
 11
9235.056036916731
 21
8867.46753186904
 31
0.0
  0
LINE
  5
174B8
330
159CC
100
AcDbEntity
  8
寸法
 62
     0
 48
50.0
370
    -2
100
AcDbLine
 10
9175.05603691673
 20
9333.544483414897
 30
0.0
 11
9175.05603691673
 21
8883.544483414906
 31
0.0
  0
INSERT
  5
174B9
330
159CC
100
AcDbEntity
  8
寸法
 62
     0
 48
50.0
370
    -2
100
AcDbBlockReference
  2
_DOTSMALL
 10
9175.05603691673
 20
9333.544483414897
 30
0.0
 41
100.0
 42
100.0
 43
100.0
 50
90.0
  0
INSERT
  5
174BA
330
159CC
100
AcDbEntity
  8
寸法
 62
     0
 48
50.0
370
    -2
100
AcDbBlockReference
  2
_DOTSMALL
 10
9175.05603691673
 20
8883.544483414906
 30
0.0
 41
100.0
 42
100.0
 43
100.0
 50
270.0
  0
MTEXT
  5
174BB
330
159CC
100
AcDbEntity
  8
寸法
 62
     7
 48
50.0
100
AcDbMText
 10
9075.056036916729
 20
9108.544483414899
 30
0.0
 40
120.0
 41
0.0
 71
     5
 72
     1
  1
\A1;450
  7
STYLE1
 11
0.0000000000000001
 21
1.0
 31
0.0
 73
     1
 44
1.0
1001
ACAD
1000
MTEXTBEGIN
1070
    73
1070
     1
1070
    44
1040
1.0
1070
    74
1070
     0
1000
MTEXTEND
  0
POINT
  5
174BC
330
159CC
100
AcDbEntity
  8
DEFPOINTS
 62
     0
 48
50.0
100
AcDbPoint
 10
8819.698311054702
 20
9428.762299083789
 30
0.0
  0
POINT
  5
174BD
330
159CC
100
AcDbEntity
  8
DEFPOINTS
 62
     0
 48
50.0
100
AcDbPoint
 10
8819.698311054713
 20
8978.762299083795
 30
0.0
  0
POINT
  5
174BE
330
159CC
100
AcDbEntity
  8
DEFPOINTS
 62
     0
 48
50.0
100
AcDbPoint
 10
9175.05603691673
 20
8883.544483414906
 30
0.0
  0
ENDBLK
  5
15AF0
330
159CC
100
AcDbEntity
  8
0
 48
50.0
100
AcDbBlockEnd
  0
BLOCK
  5
15B07
330
159F0
100
AcDbEntity
  8
0
 48
50.0
100
AcDbBlockBegin
  2
*D15
 70
     1
 10
0.0
 20
0.0
 30
0.0
  3
*D15
  1

  0
LINE
  5
17414
330
159F0
100
AcDbEntity
  8
寸法
 62
     0
 48
50.0
370
    -2
100
AcDbLine
 10
3128.698304377089
 20
5122.973660869245
 30
0.0
 11
2770.593776769486
 21
5122.973660869245
 31
0.0
  0
LINE
  5
17415
330
159F0
100
AcDbEntity
  8
寸法
 62
     0
 48
50.0
370
    -2
100
AcDbLine
 10
3128.698304377089
 20
3362.97366086925
 30
0.0
 11
2770.593776769486
 21
3362.973660869251
 31
0.0
  0
LINE
  5
17416
330
159F0
100
AcDbEntity
  8
寸法
 62
     0
 48
50.0
370
    -2
100
AcDbLine
 10
2830.593776769486
 20
5122.973660869245
 30
0.0
 11
2830.593776769486
 21
3362.973660869251
 31
0.0
  0
INSERT
  5
17417
330
159F0
100
AcDbEntity
  8
寸法
 62
     0
 48
50.0
370
    -2
100
AcDbBlockReference
  2
_DOTSMALL
 10
2830.593776769486
 20
5122.973660869245
 30
0.0
 41
100.0
 42
100.0
 43
100.0
 50
90.0
  0
INSERT
  5
17418
330
159F0
100
AcDbEntity
  8
寸法
 62
     0
 48
50.0
370
    -2
100
AcDbBlockReference
  2
_DOTSMALL
 10
2830.593776769486
 20
3362.973660869251
 30
0.0
 41
100.0
 42
100.0
 43
100.0
 50
270.0
  0
MTEXT
  5
17419
330
159F0
100
AcDbEntity
  8
寸法
 62
     7
 48
50.0
100
AcDbMText
 10
2730.593776769485
 20
4241.973660869247
 30
0.0
 40
120.0
 41
0.0
 71
     5
 72
     1
  1
\A1;有効開口部高サ1760
  7
STYLE1
 11
0.0000000000000001
 21
1.0
 31
0.0
 73
     1
 44
1.0
1001
ACAD
1000
MTEXTBEGIN
1070
    73
1070
     1
1070
    44
1040
1.0
1070
    74
1070
     0
1000
MTEXTEND
  0
POINT
  5
1741A
330
159F0
100
AcDbEntity
  8
DEFPOINTS
 62
     0
 48
50.0
100
AcDbPoint
 10
3148.698304377089
 20
5122.973660869245
 30
0.0
  0
POINT
  5
1741B
330
159F0
100
AcDbEntity
  8
DEFPOINTS
 62
     0
 48
50.0
100
AcDbPoint
 10
3148.698304377089
 20
3362.97366086925
 30
0.0
  0
POINT
  5
1741C
330
159F0
100
AcDbEntity
  8
DEFPOINTS
 62
     0
 48
50.0
100
AcDbPoint
 10
2830.593776769486
 20
3362.973660869251
 30
0.0
  0
ENDBLK
  5
15B11
330
159F0
100
AcDbEntity
  8
0
 48
50.0
100
AcDbBlockEnd
  0
BLOCK
  5
15C40
330
15C34
100
AcDbEntity
  8
0
 48
50.0
100
AcDbBlockBegin
  2
*D16
 70
     1
 10
0.0
 20
0.0
 30
0.0
  3
*D16
  1

  0
LINE
  5
174AD
330
15C34
100
AcDbEntity
  8
寸法
 62
     0
 48
50.0
370
    -2
100
AcDbLine
 10
7003.698304377093
 20
8068.262299083817
 30
0.0
 11
7003.698304377093
 21
7588.43863128874
 31
0.0
  0
LINE
  5
174AE
330
15C34
100
AcDbEntity
  8
寸法
 62
     0
 48
50.0
370
    -2
100
AcDbLine
 10
7688.698304377087
 20
8068.262299083782
 30
0.0
 11
7688.698304377087
 21
7588.43863128874
 31
0.0
  0
LINE
  5
174AF
330
15C34
100
AcDbEntity
  8
寸法
 62
     0
 48
50.0
370
    -2
100
AcDbLine
 10
7003.698304377093
 20
7648.43863128874
 30
0.0
 11
7688.698304377087
 21
7648.43863128874
 31
0.0
  0
INSERT
  5
174B0
330
15C34
100
AcDbEntity
  8
寸法
 62
     0
 48
50.0
370
    -2
100
AcDbBlockReference
  2
_DOTSMALL
 10
7003.698304377093
 20
7648.43863128874
 30
0.0
 41
100.0
 42
100.0
 43
100.0
 50
180.0
  0
INSERT
  5
174B1
330
15C34
100
AcDbEntity
  8
寸法
 62
     0
 48
50.0
370
    -2
100
AcDbBlockReference
  2
_DOTSMALL
 10
7688.698304377087
 20
7648.43863128874
 30
0.0
 41
100.0
 42
100.0
 43
100.0
  0
MTEXT
  5
174B2
330
15C34
100
AcDbEntity
  8
寸法
 62
     7
 48
50.0
100
AcDbMText
 10
7346.198304377089
 20
7748.438631288739
 30
0.0
 40
120.0
 41
0.0
 71
     5
 72
     1
  1
\A1;685
  7
STYLE1
 73
     1
 44
1.0
1001
ACAD
1000
MTEXTBEGIN
1070
    73
1070
     1
1070
    44
1040
1.0
1070
    74
1070
     0
1000
MTEXTEND
  0
POINT
  5
174B3
330
15C34
100
AcDbEntity
  8
DEFPOINTS
 62
     0
 48
50.0
100
AcDbPoint
 10
7003.698304377093
 20
8088.262299083817
 30
0.0
  0
POINT
  5
174B4
330
15C34
100
AcDbEntity
  8
DEFPOINTS
 62
     0
 48
50.0
100
AcDbPoint
 10
7688.698304377087
 20
8088.262299083782
 30
0.0
  0
POINT
  5
174B5
330
15C34
100
AcDbEntity
  8
DEFPOINTS
 62
     0
 48
50.0
100
AcDbPoint
 10
7688.698304377087
 20
7648.43863128874
 30
0.0
  0
ENDBLK
  5
15C4A
330
15C34
100
AcDbEntity
  8
0
 48
50.0
100
AcDbBlockEnd
  0
BLOCK
  5
15C4D
330
15C4C
100
AcDbEntity
  8
0
 48
50.0
100
AcDbBlockBegin
  2
*D17
 70
     1
 10
0.0
 20
0.0
 30
0.0
  3
*D17
  1

  0
LINE
  5
174A4
330
15C4C
100
AcDbEntity
  8
寸法
 62
     0
 48
50.0
370
    -2
100
AcDbLine
 10
6053.698304377093
 20
8068.262299083817
 30
0.0
 11
6053.698304377093
 21
7588.43863128874
 31
0.0
  0
LINE
  5
174A5
330
15C4C
100
AcDbEntity
  8
寸法
 62
     0
 48
50.0
370
    -2
100
AcDbLine
 10
6738.698304377087
 20
8068.262299083782
 30
0.0
 11
6738.698304377087
 21
7588.43863128874
 31
0.0
  0
LINE
  5
174A6
330
15C4C
100
AcDbEntity
  8
寸法
 62
     0
 48
50.0
370
    -2
100
AcDbLine
 10
6053.698304377093
 20
7648.43863128874
 30
0.0
 11
6738.698304377087
 21
7648.43863128874
 31
0.0
  0
INSERT
  5
174A7
330
15C4C
100
AcDbEntity
  8
寸法
 62
     0
 48
50.0
370
    -2
100
AcDbBlockReference
  2
_DOTSMALL
 10
6053.698304377093
 20
7648.43863128874
 30
0.0
 41
100.0
 42
100.0
 43
100.0
 50
180.0
  0
INSERT
  5
174A8
330
15C4C
100
AcDbEntity
  8
寸法
 62
     0
 48
50.0
370
    -2
100
AcDbBlockReference
  2
_DOTSMALL
 10
6738.698304377087
 20
7648.43863128874
 30
0.0
 41
100.0
 42
100.0
 43
100.0
  0
MTEXT
  5
174A9
330
15C4C
100
AcDbEntity
  8
寸法
 62
     7
 48
50.0
100
AcDbMText
 10
6396.198304377089
 20
7748.438631288739
 30
0.0
 40
120.0
 41
0.0
 71
     5
 72
     1
  1
\A1;685
  7
STYLE1
 73
     1
 44
1.0
1001
ACAD
1000
MTEXTBEGIN
1070
    73
1070
     1
1070
    44
1040
1.0
1070
    74
1070
     0
1000
MTEXTEND
  0
POINT
  5
174AA
330
15C4C
100
AcDbEntity
  8
DEFPOINTS
 62
     0
 48
50.0
100
AcDbPoint
 10
6053.698304377093
 20
8088.262299083817
 30
0.0
  0
POINT
  5
174AB
330
15C4C
100
AcDbEntity
  8
DEFPOINTS
 62
     0
 48
50.0
100
AcDbPoint
 10
6738.698304377087
 20
8088.262299083782
 30
0.0
  0
POINT
  5
174AC
330
15C4C
100
AcDbEntity
  8
DEFPOINTS
 62
     0
 48
50.0
100
AcDbPoint
 10
6738.698304377087
 20
7648.43863128874
 30
0.0
  0
ENDBLK
  5
15C57
330
15C4C
100
AcDbEntity
  8
0
 48
50.0
100
AcDbBlockEnd
  0
BLOCK
  5
15D32
330
15D31
100
AcDbEntity
  8
0
 48
50.0
100
AcDbBlockBegin
  2
*D18
 70
     1
 10
0.0
 20
0.0
 30
0.0
  3
*D18
  1

  0
LINE
  5
17489
330
15D31
100
AcDbEntity
  8
寸法
 62
     0
 48
50.0
370
    -2
100
AcDbLine
 10
4043.698304377092
 20
9478.262299083942
 30
0.0
 11
4043.698304377092
 21
9734.070518708923
 31
0.0
  0
LINE
  5
1748A
330
15D31
100
AcDbEntity
  8
寸法
 62
     0
 48
50.0
370
    -2
100
AcDbLine
 10
4153.698304377096
 20
9478.262299083919
 30
0.0
 11
4153.698304377096
 21
9734.070518708923
 31
0.0
  0
LINE
  5
1748B
330
15D31
100
AcDbEntity
  8
寸法
 62
     0
 48
50.0
370
    -2
100
AcDbLine
 10
4043.698304377092
 20
9674.070518708923
 30
0.0
 11
4153.698304377096
 21
9674.070518708923
 31
0.0
  0
MTEXT
  5
1748C
330
15D31
100
AcDbEntity
  8
寸法
 62
     7
 48
50.0
100
AcDbMText
 10
4098.698304377093
 20
9928.348840080071
 30
0.0
 40
120.0
 41
0.0
 71
     5
 72
     1
  1
\A1;110
  7
STYLE1
 73
     1
 44
1.0
1001
ACAD
1000
MTEXTBEGIN
1070
    73
1070
     1
1070
    44
1040
1.0
1070
    74
1070
     0
1000
MTEXTEND
  0
INSERT
  5
1748D
330
15D31
100
AcDbEntity
  8
寸法
 62
     0
 48
50.0
370
    -2
100
AcDbBlockReference
  2
_DOTSMALL
 10
4043.698304377092
 20
9674.070518708923
 30
0.0
 41
100.0
 42
100.0
 43
100.0
 50
180.0
  0
INSERT
  5
1748E
330
15D31
100
AcDbEntity
  8
寸法
 62
     0
 48
50.0
370
    -2
100
AcDbBlockReference
  2
_DOTSMALL
 10
4153.698304377096
 20
9674.070518708923
 30
0.0
 41
100.0
 42
100.0
 43
100.0
  0
POINT
  5
1748F
330
15D31
100
AcDbEntity
  8
DEFPOINTS
 62
     0
 48
50.0
100
AcDbPoint
 10
4043.698304377092
 20
9458.262299083941
 30
0.0
  0
POINT
  5
17490
330
15D31
100
AcDbEntity
  8
DEFPOINTS
 62
     0
 48
50.0
100
AcDbPoint
 10
4153.698304377096
 20
9458.262299083919
 30
0.0
  0
POINT
  5
17491
330
15D31
100
AcDbEntity
  8
DEFPOINTS
 62
     0
 48
50.0
100
AcDbPoint
 10
4153.698304377096
 20
9674.070518708923
 30
0.0
  0
ENDBLK
  5
15D3C
330
15D31
100
AcDbEntity
  8
0
 48
50.0
100
AcDbBlockEnd
  0
BLOCK
  5
15D3E
330
15D3D
100
AcDbEntity
  8
0
 48
50.0
100
AcDbBlockBegin
  2
*D19
 70
     1
 10
0.0
 20
0.0
 30
0.0
  3
*D19
  1

  0
LINE
  5
17492
330
15D3D
100
AcDbEntity
  8
寸法
 62
     0
 48
50.0
370
    -2
100
AcDbLine
 10
3203.698304377095
 20
9478.262299083853
 30
0.0
 11
3203.698304377095
 21
9734.070518708923
 31
0.0
  0
LINE
  5
17493
330
15D3D
100
AcDbEntity
  8
寸法
 62
     0
 48
50.0
370
    -2
100
AcDbLine
 10
4043.698304377092
 20
9478.262299083942
 30
0.0
 11
4043.698304377092
 21
9734.070518708923
 31
0.0
  0
LINE
  5
17494
330
15D3D
100
AcDbEntity
  8
寸法
 62
     0
 48
50.0
370
    -2
100
AcDbLine
 10
3203.698304377095
 20
9674.070518708923
 30
0.0
 11
4043.698304377092
 21
9674.070518708923
 31
0.0
  0
INSERT
  5
17495
330
15D3D
100
AcDbEntity
  8
寸法
 62
     0
 48
50.0
370
    -2
100
AcDbBlockReference
  2
_DOTSMALL
 10
3203.698304377095
 20
9674.070518708923
 30
0.0
 41
100.0
 42
100.0
 43
100.0
 50
180.0
  0
INSERT
  5
17496
330
15D3D
100
AcDbEntity
  8
寸法
 62
     0
 48
50.0
370
    -2
100
AcDbBlockReference
  2
_DOTSMALL
 10
4043.698304377092
 20
9674.070518708923
 30
0.0
 41
100.0
 42
100.0
 43
100.0
  0
MTEXT
  5
17497
330
15D3D
100
AcDbEntity
  8
寸法
 62
     7
 48
50.0
100
AcDbMText
 10
3623.698304377093
 20
9774.082329732545
 30
0.0
 40
120.0
 41
0.0
 71
     5
 72
     1
  1
\A1;2X420=840
  7
STYLE1
 73
     1
 44
1.0
1001
ACAD
1000
MTEXTBEGIN
1070
    73
1070
     1
1070
    44
1040
1.0
1070
    74
1070
     0
1000
MTEXTEND
  0
POINT
  5
17498
330
15D3D
100
AcDbEntity
  8
DEFPOINTS
 62
     0
 48
50.0
100
AcDbPoint
 10
3203.698304377095
 20
9458.262299083854
 30
0.0
  0
POINT
  5
17499
330
15D3D
100
AcDbEntity
  8
DEFPOINTS
 62
     0
 48
50.0
100
AcDbPoint
 10
4043.698304377092
 20
9458.262299083941
 30
0.0
  0
POINT
  5
1749A
330
15D3D
100
AcDbEntity
  8
DEFPOINTS
 62
     0
 48
50.0
100
AcDbPoint
 10
4043.698304377092
 20
9674.070518708923
 30
0.0
  0
ENDBLK
  5
15D48
330
15D3D
100
AcDbEntity
  8
0
 48
50.0
100
AcDbBlockEnd
  0
BLOCK
  5
15D4A
330
15D49
100
AcDbEntity
  8
0
 48
50.0
100
AcDbBlockBegin
  2
*D20
 70
     1
 10
0.0
 20
0.0
 30
0.0
  3
*D20
  1

  0
LINE
  5
1749B
330
15D49
100
AcDbEntity
  8
寸法
 62
     0
 48
50.0
370
    -2
100
AcDbLine
 10
3203.698304377093
 20
8068.262299083817
 30
0.0
 11
3203.698304377093
 21
7588.43863128874
 31
0.0
  0
LINE
  5
1749C
330
15D49
100
AcDbEntity
  8
寸法
 62
     0
 48
50.0
370
    -2
100
AcDbLine
 10
3888.698304377087
 20
8068.262299083782
 30
0.0
 11
3888.698304377087
 21
7588.43863128874
 31
0.0
  0
LINE
  5
1749D
330
15D49
100
AcDbEntity
  8
寸法
 62
     0
 48
50.0
370
    -2
100
AcDbLine
 10
3203.698304377093
 20
7648.43863128874
 30
0.0
 11
3888.698304377087
 21
7648.43863128874
 31
0.0
  0
INSERT
  5
1749E
330
15D49
100
AcDbEntity
  8
寸法
 62
     0
 48
50.0
370
    -2
100
AcDbBlockReference
  2
_DOTSMALL
 10
3203.698304377093
 20
7648.43863128874
 30
0.0
 41
100.0
 42
100.0
 43
100.0
 50
180.0
  0
INSERT
  5
1749F
330
15D49
100
AcDbEntity
  8
寸法
 62
     0
 48
50.0
370
    -2
100
AcDbBlockReference
  2
_DOTSMALL
 10
3888.698304377087
 20
7648.43863128874
 30
0.0
 41
100.0
 42
100.0
 43
100.0
  0
MTEXT
  5
174A0
330
15D49
100
AcDbEntity
  8
寸法
 62
     7
 48
50.0
100
AcDbMText
 10
3546.198304377089
 20
7748.438631288739
 30
0.0
 40
120.0
 41
0.0
 71
     5
 72
     1
  1
\A1;685
  7
STYLE1
 73
     1
 44
1.0
1001
ACAD
1000
MTEXTBEGIN
1070
    73
1070
     1
1070
    44
1040
1.0
1070
    74
1070
     0
1000
MTEXTEND
  0
POINT
  5
174A1
330
15D49
100
AcDbEntity
  8
DEFPOINTS
 62
     0
 48
50.0
100
AcDbPoint
 10
3203.698304377093
 20
8088.262299083817
 30
0.0
  0
POINT
  5
174A2
330
15D49
100
AcDbEntity
  8
DEFPOINTS
 62
     0
 48
50.0
100
AcDbPoint
 10
3888.698304377087
 20
8088.262299083782
 30
0.0
  0
POINT
  5
174A3
330
15D49
100
AcDbEntity
  8
DEFPOINTS
 62
     0
 48
50.0
100
AcDbPoint
 10
3888.698304377087
 20
7648.43863128874
 30
0.0
  0
ENDBLK
  5
15D54
330
15D49
100
AcDbEntity
  8
0
 48
50.0
100
AcDbBlockEnd
  0
BLOCK
  5
15E85
330
15E84
100
AcDbEntity
  8
0
 48
50.0
100
AcDbBlockBegin
  2
*D21
 70
     1
 10
0.0
 20
0.0
 30
0.0
  3
*D21
  1

  0
LINE
  5
1746E
330
15E84
100
AcDbEntity
  8
寸法
 62
     0
 48
50.0
370
    -2
100
AcDbLine
 10
5943.698304377092
 20
9478.262299083942
 30
0.0
 11
5943.698304377092
 21
9734.070518708923
 31
0.0
  0
LINE
  5
1746F
330
15E84
100
AcDbEntity
  8
寸法
 62
     0
 48
50.0
370
    -2
100
AcDbLine
 10
6053.698304377096
 20
9478.262299083919
 30
0.0
 11
6053.698304377096
 21
9734.070518708923
 31
0.0
  0
LINE
  5
17470
330
15E84
100
AcDbEntity
  8
寸法
 62
     0
 48
50.0
370
    -2
100
AcDbLine
 10
5943.698304377092
 20
9674.070518708923
 30
0.0
 11
6053.698304377096
 21
9674.070518708923
 31
0.0
  0
MTEXT
  5
17471
330
15E84
100
AcDbEntity
  8
寸法
 62
     7
 48
50.0
100
AcDbMText
 10
5998.698304377094
 20
9928.348840080071
 30
0.0
 40
120.0
 41
0.0
 71
     5
 72
     1
  1
\A1;110
  7
STYLE1
 73
     1
 44
1.0
1001
ACAD
1000
MTEXTBEGIN
1070
    73
1070
     1
1070
    44
1040
1.0
1070
    74
1070
     0
1000
MTEXTEND
  0
INSERT
  5
17472
330
15E84
100
AcDbEntity
  8
寸法
 62
     0
 48
50.0
370
    -2
100
AcDbBlockReference
  2
_DOTSMALL
 10
5943.698304377092
 20
9674.070518708923
 30
0.0
 41
100.0
 42
100.0
 43
100.0
 50
180.0
  0
INSERT
  5
17473
330
15E84
100
AcDbEntity
  8
寸法
 62
     0
 48
50.0
370
    -2
100
AcDbBlockReference
  2
_DOTSMALL
 10
6053.698304377096
 20
9674.070518708923
 30
0.0
 41
100.0
 42
100.0
 43
100.0
  0
POINT
  5
17474
330
15E84
100
AcDbEntity
  8
DEFPOINTS
 62
     0
 48
50.0
100
AcDbPoint
 10
5943.698304377092
 20
9458.262299083941
 30
0.0
  0
POINT
  5
17475
330
15E84
100
AcDbEntity
  8
DEFPOINTS
 62
     0
 48
50.0
100
AcDbPoint
 10
6053.698304377096
 20
9458.262299083919
 30
0.0
  0
POINT
  5
17476
330
15E84
100
AcDbEntity
  8
DEFPOINTS
 62
     0
 48
50.0
100
AcDbPoint
 10
6053.698304377096
 20
9674.070518708923
 30
0.0
  0
ENDBLK
  5
15E8F
330
15E84
100
AcDbEntity
  8
0
 48
50.0
100
AcDbBlockEnd
  0
BLOCK
  5
15E91
330
15E90
100
AcDbEntity
  8
0
 48
50.0
100
AcDbBlockBegin
  2
*D22
 70
     1
 10
0.0
 20
0.0
 30
0.0
  3
*D22
  1

  0
LINE
  5
17477
330
15E90
100
AcDbEntity
  8
寸法
 62
     0
 48
50.0
370
    -2
100
AcDbLine
 10
5103.698304377094
 20
9478.262299083853
 30
0.0
 11
5103.698304377094
 21
9734.070518708923
 31
0.0
  0
LINE
  5
17478
330
15E90
100
AcDbEntity
  8
寸法
 62
     0
 48
50.0
370
    -2
100
AcDbLine
 10
5943.698304377092
 20
9478.262299083942
 30
0.0
 11
5943.698304377092
 21
9734.070518708923
 31
0.0
  0
LINE
  5
17479
330
15E90
100
AcDbEntity
  8
寸法
 62
     0
 48
50.0
370
    -2
100
AcDbLine
 10
5103.698304377094
 20
9674.070518708923
 30
0.0
 11
5943.698304377092
 21
9674.070518708923
 31
0.0
  0
INSERT
  5
1747A
330
15E90
100
AcDbEntity
  8
寸法
 62
     0
 48
50.0
370
    -2
100
AcDbBlockReference
  2
_DOTSMALL
 10
5103.698304377094
 20
9674.070518708923
 30
0.0
 41
100.0
 42
100.0
 43
100.0
 50
180.0
  0
INSERT
  5
1747B
330
15E90
100
AcDbEntity
  8
寸法
 62
     0
 48
50.0
370
    -2
100
AcDbBlockReference
  2
_DOTSMALL
 10
5943.698304377092
 20
9674.070518708923
 30
0.0
 41
100.0
 42
100.0
 43
100.0
  0
MTEXT
  5
1747C
330
15E90
100
AcDbEntity
  8
寸法
 62
     7
 48
50.0
100
AcDbMText
 10
5523.698304377093
 20
9774.082329732545
 30
0.0
 40
120.0
 41
0.0
 71
     5
 72
     1
  1
\A1;2X420=840
  7
STYLE1
 73
     1
 44
1.0
1001
ACAD
1000
MTEXTBEGIN
1070
    73
1070
     1
1070
    44
1040
1.0
1070
    74
1070
     0
1000
MTEXTEND
  0
POINT
  5
1747D
330
15E90
100
AcDbEntity
  8
DEFPOINTS
 62
     0
 48
50.0
100
AcDbPoint
 10
5103.698304377094
 20
9458.262299083854
 30
0.0
  0
POINT
  5
1747E
330
15E90
100
AcDbEntity
  8
DEFPOINTS
 62
     0
 48
50.0
100
AcDbPoint
 10
5943.698304377092
 20
9458.262299083941
 30
0.0
  0
POINT
  5
1747F
330
15E90
100
AcDbEntity
  8
DEFPOINTS
 62
     0
 48
50.0
100
AcDbPoint
 10
5943.698304377092
 20
9674.070518708923
 30
0.0
  0
ENDBLK
  5
15E9B
330
15E90
100
AcDbEntity
  8
0
 48
50.0
100
AcDbBlockEnd
  0
BLOCK
  5
15E9D
330
15E9C
100
AcDbEntity
  8
0
 48
50.0
100
AcDbBlockBegin
  2
*D23
 70
     1
 10
0.0
 20
0.0
 30
0.0
  3
*D23
  1

  0
LINE
  5
17480
330
15E9C
100
AcDbEntity
  8
寸法
 62
     0
 48
50.0
370
    -2
100
AcDbLine
 10
5103.698304377092
 20
8068.262299083817
 30
0.0
 11
5103.698304377092
 21
7588.43863128874
 31
0.0
  0
LINE
  5
17481
330
15E9C
100
AcDbEntity
  8
寸法
 62
     0
 48
50.0
370
    -2
100
AcDbLine
 10
5788.698304377087
 20
8068.262299083782
 30
0.0
 11
5788.698304377087
 21
7588.43863128874
 31
0.0
  0
LINE
  5
17482
330
15E9C
100
AcDbEntity
  8
寸法
 62
     0
 48
50.0
370
    -2
100
AcDbLine
 10
5103.698304377092
 20
7648.43863128874
 30
0.0
 11
5788.698304377087
 21
7648.43863128874
 31
0.0
  0
INSERT
  5
17483
330
15E9C
100
AcDbEntity
  8
寸法
 62
     0
 48
50.0
370
    -2
100
AcDbBlockReference
  2
_DOTSMALL
 10
5103.698304377092
 20
7648.43863128874
 30
0.0
 41
100.0
 42
100.0
 43
100.0
 50
180.0
  0
INSERT
  5
17484
330
15E9C
100
AcDbEntity
  8
寸法
 62
     0
 48
50.0
370
    -2
100
AcDbBlockReference
  2
_DOTSMALL
 10
5788.698304377087
 20
7648.43863128874
 30
0.0
 41
100.0
 42
100.0
 43
100.0
  0
MTEXT
  5
17485
330
15E9C
100
AcDbEntity
  8
寸法
 62
     7
 48
50.0
100
AcDbMText
 10
5446.198304377088
 20
7748.438631288739
 30
0.0
 40
120.0
 41
0.0
 71
     5
 72
     1
  1
\A1;685
  7
STYLE1
 73
     1
 44
1.0
1001
ACAD
1000
MTEXTBEGIN
1070
    73
1070
     1
1070
    44
1040
1.0
1070
    74
1070
     0
1000
MTEXTEND
  0
POINT
  5
17486
330
15E9C
100
AcDbEntity
  8
DEFPOINTS
 62
     0
 48
50.0
100
AcDbPoint
 10
5103.698304377092
 20
8088.262299083817
 30
0.0
  0
POINT
  5
17487
330
15E9C
100
AcDbEntity
  8
DEFPOINTS
 62
     0
 48
50.0
100
AcDbPoint
 10
5788.698304377087
 20
8088.262299083782
 30
0.0
  0
POINT
  5
17488
330
15E9C
100
AcDbEntity
  8
DEFPOINTS
 62
     0
 48
50.0
100
AcDbPoint
 10
5788.698304377087
 20
7648.43863128874
 30
0.0
  0
ENDBLK
  5
15EA7
330
15E9C
100
AcDbEntity
  8
0
 48
50.0
100
AcDbBlockEnd
  0
BLOCK
  5
15F6E
330
15F6D
100
AcDbEntity
  8
0
 48
50.0
100
AcDbBlockBegin
  2
*D24
 70
     1
 10
0.0
 20
0.0
 30
0.0
  3
*D24
  1

  0
LINE
  5
17465
330
15F6D
100
AcDbEntity
  8
寸法
 62
     0
 48
50.0
370
    -2
100
AcDbLine
 10
4153.698304377092
 20
8068.262299083817
 30
0.0
 11
4153.698304377092
 21
7588.43863128874
 31
0.0
  0
LINE
  5
17466
330
15F6D
100
AcDbEntity
  8
寸法
 62
     0
 48
50.0
370
    -2
100
AcDbLine
 10
4838.698304377087
 20
8068.262299083782
 30
0.0
 11
4838.698304377087
 21
7588.43863128874
 31
0.0
  0
LINE
  5
17467
330
15F6D
100
AcDbEntity
  8
寸法
 62
     0
 48
50.0
370
    -2
100
AcDbLine
 10
4153.698304377092
 20
7648.43863128874
 30
0.0
 11
4838.698304377087
 21
7648.43863128874
 31
0.0
  0
INSERT
  5
17468
330
15F6D
100
AcDbEntity
  8
寸法
 62
     0
 48
50.0
370
    -2
100
AcDbBlockReference
  2
_DOTSMALL
 10
4153.698304377092
 20
7648.43863128874
 30
0.0
 41
100.0
 42
100.0
 43
100.0
 50
180.0
  0
INSERT
  5
17469
330
15F6D
100
AcDbEntity
  8
寸法
 62
     0
 48
50.0
370
    -2
100
AcDbBlockReference
  2
_DOTSMALL
 10
4838.698304377087
 20
7648.43863128874
 30
0.0
 41
100.0
 42
100.0
 43
100.0
  0
MTEXT
  5
1746A
330
15F6D
100
AcDbEntity
  8
寸法
 62
     7
 48
50.0
100
AcDbMText
 10
4496.198304377088
 20
7748.438631288739
 30
0.0
 40
120.0
 41
0.0
 71
     5
 72
     1
  1
\A1;685
  7
STYLE1
 73
     1
 44
1.0
1001
ACAD
1000
MTEXTBEGIN
1070
    73
1070
     1
1070
    44
1040
1.0
1070
    74
1070
     0
1000
MTEXTEND
  0
POINT
  5
1746B
330
15F6D
100
AcDbEntity
  8
DEFPOINTS
 62
     0
 48
50.0
100
AcDbPoint
 10
4153.698304377092
 20
8088.262299083817
 30
0.0
  0
POINT
  5
1746C
330
15F6D
100
AcDbEntity
  8
DEFPOINTS
 62
     0
 48
50.0
100
AcDbPoint
 10
4838.698304377087
 20
8088.262299083782
 30
0.0
  0
POINT
  5
1746D
330
15F6D
100
AcDbEntity
  8
DEFPOINTS
 62
     0
 48
50.0
100
AcDbPoint
 10
4838.698304377087
 20
7648.43863128874
 30
0.0
  0
ENDBLK
  5
15F78
330
15F6D
100
AcDbEntity
  8
0
 48
50.0
100
AcDbBlockEnd
  0
BLOCK
  5
15F7A
330
15F79
100
AcDbEntity
  8
0
 48
50.0
100
AcDbBlockBegin
  2
*D25
 70
     1
 10
0.0
 20
0.0
 30
0.0
  3
*D25
  1

  0
LINE
  5
1745C
330
15F79
100
AcDbEntity
  8
寸法
 62
     0
 48
50.0
370
    -2
100
AcDbLine
 10
4153.698304377094
 20
9478.262299083853
 30
0.0
 11
4153.698304377094
 21
9734.070518708923
 31
0.0
  0
LINE
  5
1745D
330
15F79
100
AcDbEntity
  8
寸法
 62
     0
 48
50.0
370
    -2
100
AcDbLine
 10
4993.698304377092
 20
9478.262299083942
 30
0.0
 11
4993.698304377092
 21
9734.070518708923
 31
0.0
  0
LINE
  5
1745E
330
15F79
100
AcDbEntity
  8
寸法
 62
     0
 48
50.0
370
    -2
100
AcDbLine
 10
4153.698304377094
 20
9674.070518708923
 30
0.0
 11
4993.698304377092
 21
9674.070518708923
 31
0.0
  0
INSERT
  5
1745F
330
15F79
100
AcDbEntity
  8
寸法
 62
     0
 48
50.0
370
    -2
100
AcDbBlockReference
  2
_DOTSMALL
 10
4153.698304377094
 20
9674.070518708923
 30
0.0
 41
100.0
 42
100.0
 43
100.0
 50
180.0
  0
INSERT
  5
17460
330
15F79
100
AcDbEntity
  8
寸法
 62
     0
 48
50.0
370
    -2
100
AcDbBlockReference
  2
_DOTSMALL
 10
4993.698304377092
 20
9674.070518708923
 30
0.0
 41
100.0
 42
100.0
 43
100.0
  0
MTEXT
  5
17461
330
15F79
100
AcDbEntity
  8
寸法
 62
     7
 48
50.0
100
AcDbMText
 10
4573.698304377093
 20
9774.082329732545
 30
0.0
 40
120.0
 41
0.0
 71
     5
 72
     1
  1
\A1;2X420=840
  7
STYLE1
 73
     1
 44
1.0
1001
ACAD
1000
MTEXTBEGIN
1070
    73
1070
     1
1070
    44
1040
1.0
1070
    74
1070
     0
1000
MTEXTEND
  0
POINT
  5
17462
330
15F79
100
AcDbEntity
  8
DEFPOINTS
 62
     0
 48
50.0
100
AcDbPoint
 10
4153.698304377094
 20
9458.262299083854
 30
0.0
  0
POINT
  5
17463
330
15F79
100
AcDbEntity
  8
DEFPOINTS
 62
     0
 48
50.0
100
AcDbPoint
 10
4993.698304377092
 20
9458.262299083941
 30
0.0
  0
POINT
  5
17464
330
15F79
100
AcDbEntity
  8
DEFPOINTS
 62
     0
 48
50.0
100
AcDbPoint
 10
4993.698304377092
 20
9674.070518708923
 30
0.0
  0
ENDBLK
  5
15F84
330
15F79
100
AcDbEntity
  8
0
 48
50.0
100
AcDbBlockEnd
  0
BLOCK
  5
15F86
330
15F85
100
AcDbEntity
  8
0
 48
50.0
100
AcDbBlockBegin
  2
*D26
 70
     1
 10
0.0
 20
0.0
 30
0.0
  3
*D26
  1

  0
LINE
  5
17453
330
15F85
100
AcDbEntity
  8
寸法
 62
     0
 48
50.0
370
    -2
100
AcDbLine
 10
4993.698304377092
 20
9478.262299083942
 30
0.0
 11
4993.698304377092
 21
9734.070518708923
 31
0.0
  0
LINE
  5
17454
330
15F85
100
AcDbEntity
  8
寸法
 62
     0
 48
50.0
370
    -2
100
AcDbLine
 10
5103.698304377096
 20
9478.262299083919
 30
0.0
 11
5103.698304377096
 21
9734.070518708923
 31
0.0
  0
LINE
  5
17455
330
15F85
100
AcDbEntity
  8
寸法
 62
     0
 48
50.0
370
    -2
100
AcDbLine
 10
4993.698304377092
 20
9674.070518708923
 30
0.0
 11
5103.698304377096
 21
9674.070518708923
 31
0.0
  0
MTEXT
  5
17456
330
15F85
100
AcDbEntity
  8
寸法
 62
     7
 48
50.0
100
AcDbMText
 10
5048.698304377094
 20
9928.348840080071
 30
0.0
 40
120.0
 41
0.0
 71
     5
 72
     1
  1
\A1;110
  7
STYLE1
 73
     1
 44
1.0
1001
ACAD
1000
MTEXTBEGIN
1070
    73
1070
     1
1070
    44
1040
1.0
1070
    74
1070
     0
1000
MTEXTEND
  0
INSERT
  5
17457
330
15F85
100
AcDbEntity
  8
寸法
 62
     0
 48
50.0
370
    -2
100
AcDbBlockReference
  2
_DOTSMALL
 10
4993.698304377092
 20
9674.070518708923
 30
0.0
 41
100.0
 42
100.0
 43
100.0
 50
180.0
  0
INSERT
  5
17458
330
15F85
100
AcDbEntity
  8
寸法
 62
     0
 48
50.0
370
    -2
100
AcDbBlockReference
  2
_DOTSMALL
 10
5103.698304377096
 20
9674.070518708923
 30
0.0
 41
100.0
 42
100.0
 43
100.0
  0
POINT
  5
17459
330
15F85
100
AcDbEntity
  8
DEFPOINTS
 62
     0
 48
50.0
100
AcDbPoint
 10
4993.698304377092
 20
9458.262299083941
 30
0.0
  0
POINT
  5
1745A
330
15F85
100
AcDbEntity
  8
DEFPOINTS
 62
     0
 48
50.0
100
AcDbPoint
 10
5103.698304377096
 20
9458.262299083919
 30
0.0
  0
POINT
  5
1745B
330
15F85
100
AcDbEntity
  8
DEFPOINTS
 62
     0
 48
50.0
100
AcDbPoint
 10
5103.698304377096
 20
9674.070518708923
 30
0.0
  0
ENDBLK
  5
15F90
330
15F85
100
AcDbEntity
  8
0
 48
50.0
100
AcDbBlockEnd
  0
BLOCK
  5
169BE
330
169B4
100
AcDbEntity
  8
0
 48
50.0
100
AcDbBlockBegin
  2
*D27
 70
     1
 10
0.0
 20
0.0
 30
0.0
  3
*D27
  1

  0
LINE
  5
1740B
330
169B4
100
AcDbEntity
  8
寸法
 62
     0
 48
50.0
370
    -2
100
AcDbLine
 10
10764.49568618457
 20
3301.473660869248
 30
0.0
 11
9580.745557001311
 21
3301.473660869248
 31
0.0
  0
LINE
  5
1740C
330
169B4
100
AcDbEntity
  8
寸法
 62
     0
 48
50.0
370
    -2
100
AcDbLine
 10
10704.49568618457
 20
5376.473660869251
 30
0.0
 11
9580.745557001312
 21
5376.473660869252
 31
0.0
  0
LINE
  5
1740D
330
169B4
100
AcDbEntity
  8
寸法
 62
     0
 48
50.0
370
    -2
100
AcDbLine
 10
9640.745557001309
 20
3301.473660869248
 30
0.0
 11
9640.745557001311
 21
5376.473660869252
 31
0.0
  0
INSERT
  5
1740E
330
169B4
100
AcDbEntity
  8
寸法
 62
     0
 48
50.0
370
    -2
100
AcDbBlockReference
  2
_DOTSMALL
 10
9640.745557001309
 20
3301.473660869248
 30
0.0
 41
100.0
 42
100.0
 43
100.0
 50
270.0
  0
INSERT
  5
1740F
330
169B4
100
AcDbEntity
  8
寸法
 62
     0
 48
50.0
370
    -2
100
AcDbBlockReference
  2
_DOTSMALL
 10
9640.745557001311
 20
5376.473660869252
 30
0.0
 41
100.0
 42
100.0
 43
100.0
 50
90.0
  0
MTEXT
  5
17410
330
169B4
100
AcDbEntity
  8
寸法
 62
     7
 48
50.0
100
AcDbMText
 10
9540.733745977687
 20
4338.973660869251
 30
0.0
 40
120.0
 41
0.0
 71
     5
 72
     1
  1
\A1;2075
  7
STYLE1
 11
0.0000000000000001
 21
1.0
 31
0.0
 73
     1
 44
1.0
1001
ACAD
1000
MTEXTBEGIN
1070
    73
1070
     1
1070
    44
1040
1.0
1070
    74
1070
     0
1000
MTEXTEND
  0
POINT
  5
17411
330
169B4
100
AcDbEntity
  8
DEFPOINTS
 62
     0
 48
50.0
100
AcDbPoint
 10
10784.49568618457
 20
3301.473660869248
 30
0.0
  0
POINT
  5
17412
330
169B4
100
AcDbEntity
  8
DEFPOINTS
 62
     0
 48
50.0
100
AcDbPoint
 10
10724.49568618457
 20
5376.473660869251
 30
0.0
  0
POINT
  5
17413
330
169B4
100
AcDbEntity
  8
DEFPOINTS
 62
     0
 48
50.0
100
AcDbPoint
 10
9640.745557001311
 20
5376.473660869252
 30
0.0
  0
ENDBLK
  5
169BF
330
169B4
100
AcDbEntity
  8
0
 48
50.0
100
AcDbBlockEnd
  0
BLOCK
  5
169CA
330
169C0
100
AcDbEntity
  8
0
 48
50.0
100
AcDbBlockBegin
  2
*D28
 70
     1
 10
0.0
 20
0.0
 30
0.0
  3
*D28
  1

  0
LINE
  5
17402
330
169C0
100
AcDbEntity
  8
寸法
 62
     0
 48
50.0
370
    -2
100
AcDbLine
 10
10764.49568618457
 20
5141.473660869245
 30
0.0
 11
9880.745557001313
 21
5141.473660869246
 31
0.0
  0
LINE
  5
17403
330
169C0
100
AcDbEntity
  8
寸法
 62
     0
 48
50.0
370
    -2
100
AcDbLine
 10
10764.49568618457
 20
3351.473660869248
 30
0.0
 11
9880.745557001311
 21
3351.473660869248
 31
0.0
  0
LINE
  5
17404
330
169C0
100
AcDbEntity
  8
寸法
 62
     0
 48
50.0
370
    -2
100
AcDbLine
 10
9940.745557001314
 20
5141.473660869246
 30
0.0
 11
9940.745557001312
 21
3351.473660869248
 31
0.0
  0
INSERT
  5
17405
330
169C0
100
AcDbEntity
  8
寸法
 62
     0
 48
50.0
370
    -2
100
AcDbBlockReference
  2
_DOTSMALL
 10
9940.745557001314
 20
5141.473660869246
 30
0.0
 41
100.0
 42
100.0
 43
100.0
 50
90.0
  0
INSERT
  5
17406
330
169C0
100
AcDbEntity
  8
寸法
 62
     0
 48
50.0
370
    -2
100
AcDbBlockReference
  2
_DOTSMALL
 10
9940.745557001312
 20
3351.473660869248
 30
0.0
 41
100.0
 42
100.0
 43
100.0
 50
270.0
  0
MTEXT
  5
17407
330
169C0
100
AcDbEntity
  8
寸法
 62
     7
 48
50.0
100
AcDbMText
 10
9840.745557001312
 20
4246.473660869248
 30
0.0
 40
120.0
 41
0.0
 71
     5
 72
     1
  1
\A1;1790
  7
STYLE1
 11
0.0000000000000001
 21
1.0
 31
0.0
 73
     1
 44
1.0
1001
ACAD
1000
MTEXTBEGIN
1070
    73
1070
     1
1070
    44
1040
1.0
1070
    74
1070
     0
1000
MTEXTEND
  0
POINT
  5
17408
330
169C0
100
AcDbEntity
  8
DEFPOINTS
 62
     0
 48
50.0
100
AcDbPoint
 10
10784.49568618457
 20
5141.473660869245
 30
0.0
  0
POINT
  5
17409
330
169C0
100
AcDbEntity
  8
DEFPOINTS
 62
     0
 48
50.0
100
AcDbPoint
 10
10784.49568618457
 20
3351.473660869248
 30
0.0
  0
POINT
  5
1740A
330
169C0
100
AcDbEntity
  8
DEFPOINTS
 62
     0
 48
50.0
100
AcDbPoint
 10
9940.745557001312
 20
3351.473660869248
 30
0.0
  0
ENDBLK
  5
169CB
330
169C0
100
AcDbEntity
  8
0
 48
50.0
100
AcDbBlockEnd
  0
BLOCK
  5
169D8
330
169CC
100
AcDbEntity
  8
0
 48
50.0
100
AcDbBlockBegin
  2
*D29
 70
     1
 10
0.0
 20
0.0
 30
0.0
  3
*D29
  1

  0
LINE
  5
173F7
330
169CC
100
AcDbEntity
  8
寸法
 62
     0
 48
50.0
370
    -2
100
AcDbLine
 10
10764.49568618457
 20
3351.473660869248
 30
0.0
 11
9880.745557001311
 21
3351.473660869248
 31
0.0
  0
LINE
  5
173F8
330
169CC
100
AcDbEntity
  8
寸法
 62
     0
 48
50.0
370
    -2
100
AcDbLine
 10
10709.49568618457
 20
3301.473660869248
 30
0.0
 11
9880.745557001311
 21
3301.473660869248
 31
0.0
  0
LINE
  5
173F9
330
169CC
100
AcDbEntity
  8
寸法
 62
     0
 48
50.0
370
    -2
100
AcDbLine
 10
9940.745557001312
 20
3351.473660869248
 30
0.0
 11
9940.745557001312
 21
3451.473660869248
 31
0.0
  0
LINE
  5
173FA
330
169CC
100
AcDbEntity
  8
寸法
 62
     0
 48
50.0
370
    -2
100
AcDbLine
 10
9940.745557001312
 20
3301.473660869248
 30
0.0
 11
9940.745557001312
 21
2889.379172680268
 31
0.0
  0
LINE
  5
173FB
330
169CC
100
AcDbEntity
  8
寸法
 62
     0
 48
50.0
370
    -2
100
AcDbLine
 10
9940.745557001312
 20
3351.473660869248
 30
0.0
 11
9940.745557001312
 21
3301.473660869248
 31
0.0
  0
INSERT
  5
173FC
330
169CC
100
AcDbEntity
  8
寸法
 62
     0
 48
50.0
370
    -2
100
AcDbBlockReference
  2
_DOTSMALL
 10
9940.745557001312
 20
3351.473660869248
 30
0.0
 41
100.0
 42
100.0
 43
100.0
 50
270.0
  0
INSERT
  5
173FD
330
169CC
100
AcDbEntity
  8
寸法
 62
     0
 48
50.0
370
    -2
100
AcDbBlockReference
  2
_DOTSMALL
 10
9940.745557001312
 20
3301.473660869248
 30
0.0
 41
100.0
 42
100.0
 43
100.0
 50
90.0
  0
MTEXT
  5
173FE
330
169CC
100
AcDbEntity
  8
寸法
 62
     7
 48
50.0
100
AcDbMText
 10
9840.745557001312
 20
2995.426416774758
 30
0.0
 40
120.0
 41
0.0
 71
     5
 72
     1
  1
\A1;50
  7
STYLE1
 11
0.0000000000000001
 21
1.0
 31
0.0
 73
     1
 44
1.0
1001
ACAD
1000
MTEXTBEGIN
1070
    73
1070
     1
1070
    44
1040
1.0
1070
    74
1070
     0
1000
MTEXTEND
  0
POINT
  5
173FF
330
169CC
100
AcDbEntity
  8
DEFPOINTS
 62
     0
 48
50.0
100
AcDbPoint
 10
10784.49568618457
 20
3351.473660869248
 30
0.0
  0
POINT
  5
17400
330
169CC
100
AcDbEntity
  8
DEFPOINTS
 62
     0
 48
50.0
100
AcDbPoint
 10
10729.49568618457
 20
3301.473660869248
 30
0.0
  0
POINT
  5
17401
330
169CC
100
AcDbEntity
  8
DEFPOINTS
 62
     0
 48
50.0
100
AcDbPoint
 10
9940.745557001312
 20
3301.473660869248
 30
0.0
  0
ENDBLK
  5
169D9
330
169CC
100
AcDbEntity
  8
0
 48
50.0
100
AcDbBlockEnd
  0
BLOCK
  5
169E4
330
169DA
100
AcDbEntity
  8
0
 48
50.0
100
AcDbBlockBegin
  2
*D30
 70
     1
 10
0.0
 20
0.0
 30
0.0
  3
*D30
  1

  0
LINE
  5
173EE
330
169DA
100
AcDbEntity
  8
寸法
 62
     0
 48
50.0
370
    -2
100
AcDbLine
 10
12174.49568618457
 20
3301.473660869248
 30
0.0
 11
12919.4228441567
 21
3301.473660869248
 31
0.0
  0
LINE
  5
173EF
330
169DA
100
AcDbEntity
  8
寸法
 62
     0
 48
50.0
370
    -2
100
AcDbLine
 10
12254.49568618457
 20
5321.473660869248
 30
0.0
 11
12919.4228441567
 21
5321.473660869248
 31
0.0
  0
LINE
  5
173F0
330
169DA
100
AcDbEntity
  8
寸法
 62
     0
 48
50.0
370
    -2
100
AcDbLine
 10
12859.4228441567
 20
3301.473660869248
 30
0.0
 11
12859.4228441567
 21
5321.473660869248
 31
0.0
  0
INSERT
  5
173F1
330
169DA
100
AcDbEntity
  8
寸法
 62
     0
 48
50.0
370
    -2
100
AcDbBlockReference
  2
_DOTSMALL
 10
12859.4228441567
 20
3301.473660869248
 30
0.0
 41
100.0
 42
100.0
 43
100.0
 50
270.0
  0
INSERT
  5
173F2
330
169DA
100
AcDbEntity
  8
寸法
 62
     0
 48
50.0
370
    -2
100
AcDbBlockReference
  2
_DOTSMALL
 10
12859.4228441567
 20
5321.473660869248
 30
0.0
 41
100.0
 42
100.0
 43
100.0
 50
90.0
  0
MTEXT
  5
173F3
330
169DA
100
AcDbEntity
  8
寸法
 62
     7
 48
50.0
100
AcDbMText
 10
12759.41103313308
 20
4311.473660869249
 30
0.0
 40
120.0
 41
0.0
 71
     5
 72
     1
  1
\A1;2020
  7
STYLE1
 11
0.0000000000000001
 21
1.0
 31
0.0
 73
     1
 44
1.0
1001
ACAD
1000
MTEXTBEGIN
1070
    73
1070
     1
1070
    44
1040
1.0
1070
    74
1070
     0
1000
MTEXTEND
  0
POINT
  5
173F4
330
169DA
100
AcDbEntity
  8
DEFPOINTS
 62
     0
 48
50.0
100
AcDbPoint
 10
12154.49568618457
 20
3301.473660869248
 30
0.0
  0
POINT
  5
173F5
330
169DA
100
AcDbEntity
  8
DEFPOINTS
 62
     0
 48
50.0
100
AcDbPoint
 10
12234.49568618457
 20
5321.473660869248
 30
0.0
  0
POINT
  5
173F6
330
169DA
100
AcDbEntity
  8
DEFPOINTS
 62
     0
 48
50.0
100
AcDbPoint
 10
12859.4228441567
 20
5321.473660869248
 30
0.0
  0
ENDBLK
  5
169E5
330
169DA
100
AcDbEntity
  8
0
 48
50.0
100
AcDbBlockEnd
  0
BLOCK
  5
169F0
330
169E6
100
AcDbEntity
  8
0
 48
50.0
100
AcDbBlockBegin
  2
*D31
 70
     1
 10
0.0
 20
0.0
 30
0.0
  3
*D31
  1

  0
LINE
  5
173E5
330
169E6
100
AcDbEntity
  8
寸法
 62
     0
 48
50.0
370
    -2
100
AcDbLine
 10
12154.49568618457
 20
5343.284340480899
 30
0.0
 11
12154.49568618457
 21
5835.13111444855
 31
0.0
  0
LINE
  5
173E6
330
169E6
100
AcDbEntity
  8
寸法
 62
     0
 48
50.0
370
    -2
100
AcDbLine
 10
10784.49568618457
 20
5392.475278992222
 30
0.0
 11
10784.49568618457
 21
5835.13111444855
 31
0.0
  0
LINE
  5
173E7
330
169E6
100
AcDbEntity
  8
寸法
 62
     0
 48
50.0
370
    -2
100
AcDbLine
 10
12154.49568618457
 20
5775.13111444855
 30
0.0
 11
10784.49568618457
 21
5775.13111444855
 31
0.0
  0
INSERT
  5
173E8
330
169E6
100
AcDbEntity
  8
寸法
 62
     0
 48
50.0
370
    -2
100
AcDbBlockReference
  2
_DOTSMALL
 10
12154.49568618457
 20
5775.13111444855
 30
0.0
 41
100.0
 42
100.0
 43
100.0
  0
INSERT
  5
173E9
330
169E6
100
AcDbEntity
  8
寸法
 62
     0
 48
50.0
370
    -2
100
AcDbBlockReference
  2
_DOTSMALL
 10
10784.49568618457
 20
5775.13111444855
 30
0.0
 41
100.0
 42
100.0
 43
100.0
 50
180.0
  0
MTEXT
  5
173EA
330
169E6
100
AcDbEntity
  8
寸法
 62
     7
 48
50.0
100
AcDbMText
 10
11434.31471907512
 20
5875.131114448549
 30
0.0
 40
120.0
 41
0.0
 71
     5
 72
     1
  1
\A1;柱外寸法1370
  7
STYLE1
 73
     1
 44
1.0
1001
ACAD
1000
MTEXTBEGIN
1070
    73
1070
     1
1070
    44
1040
1.0
1070
    74
1070
     0
1000
MTEXTEND
  0
POINT
  5
173EB
330
169E6
100
AcDbEntity
  8
DEFPOINTS
 62
     0
 48
50.0
100
AcDbPoint
 10
12154.49568618457
 20
5323.284340480899
 30
0.0
  0
POINT
  5
173EC
330
169E6
100
AcDbEntity
  8
DEFPOINTS
 62
     0
 48
50.0
100
AcDbPoint
 10
10784.49568618457
 20
5372.475278992222
 30
0.0
  0
POINT
  5
173ED
330
169E6
100
AcDbEntity
  8
DEFPOINTS
 62
     0
 48
50.0
100
AcDbPoint
 10
10784.49568618457
 20
5775.13111444855
 30
0.0
  0
ENDBLK
  5
169F1
330
169E6
100
AcDbEntity
  8
0
 48
50.0
100
AcDbBlockEnd
  0
BLOCK
  5
169FE
330
169F2
100
AcDbEntity
  8
0
 48
50.0
100
AcDbBlockBegin
  2
*D32
 70
     1
 10
0.0
 20
0.0
 30
0.0
  3
*D32
  1

  0
LINE
  5
173DA
330
169F2
100
AcDbEntity
  8
寸法
 62
     0
 48
50.0
370
    -2
100
AcDbLine
 10
10784.49568618457
 20
5392.475278992222
 30
0.0
 11
10784.49568618457
 21
5835.13111444855
 31
0.0
  0
LINE
  5
173DB
330
169F2
100
AcDbEntity
  8
寸法
 62
     0
 48
50.0
370
    -2
100
AcDbLine
 10
10724.49568618457
 20
5396.473660869251
 30
0.0
 11
10724.49568618457
 21
5835.13111444855
 31
0.0
  0
LINE
  5
173DC
330
169F2
100
AcDbEntity
  8
寸法
 62
     0
 48
50.0
370
    -2
100
AcDbLine
 10
10784.49568618457
 20
5775.13111444855
 30
0.0
 11
10884.49568618457
 21
5775.13111444855
 31
0.0
  0
LINE
  5
173DD
330
169F2
100
AcDbEntity
  8
寸法
 62
     0
 48
50.0
370
    -2
100
AcDbLine
 10
10724.49568618457
 20
5775.13111444855
 30
0.0
 11
10305.22009563339
 21
5775.13111444855
 31
0.0
  0
LINE
  5
173DE
330
169F2
100
AcDbEntity
  8
寸法
 62
     0
 48
50.0
370
    -2
100
AcDbLine
 10
10784.49568618457
 20
5775.13111444855
 30
0.0
 11
10724.49568618457
 21
5775.13111444855
 31
0.0
  0
INSERT
  5
173DF
330
169F2
100
AcDbEntity
  8
寸法
 62
     0
 48
50.0
370
    -2
100
AcDbBlockReference
  2
_DOTSMALL
 10
10784.49568618457
 20
5775.13111444855
 30
0.0
 41
100.0
 42
100.0
 43
100.0
 50
180.0
  0
INSERT
  5
173E0
330
169F2
100
AcDbEntity
  8
寸法
 62
     0
 48
50.0
370
    -2
100
AcDbBlockReference
  2
_DOTSMALL
 10
10724.49568618457
 20
5775.13111444855
 30
0.0
 41
100.0
 42
100.0
 43
100.0
  0
MTEXT
  5
173E1
330
169F2
100
AcDbEntity
  8
寸法
 62
     7
 48
50.0
100
AcDbMText
 10
10414.85789090898
 20
5875.131114448549
 30
0.0
 40
120.0
 41
0.0
 71
     5
 72
     1
  1
\A1;60
  7
STYLE1
 73
     1
 44
1.0
1001
ACAD
1000
MTEXTBEGIN
1070
    73
1070
     1
1070
    44
1040
1.0
1070
    74
1070
     0
1000
MTEXTEND
  0
POINT
  5
173E2
330
169F2
100
AcDbEntity
  8
DEFPOINTS
 62
     0
 48
50.0
100
AcDbPoint
 10
10784.49568618457
 20
5372.475278992222
 30
0.0
  0
POINT
  5
173E3
330
169F2
100
AcDbEntity
  8
DEFPOINTS
 62
     0
 48
50.0
100
AcDbPoint
 10
10724.49568618457
 20
5376.473660869251
 30
0.0
  0
POINT
  5
173E4
330
169F2
100
AcDbEntity
  8
DEFPOINTS
 62
     0
 48
50.0
100
AcDbPoint
 10
10724.49568618457
 20
5775.13111444855
 30
0.0
  0
ENDBLK
  5
169FF
330
169F2
100
AcDbEntity
  8
0
 48
50.0
100
AcDbBlockEnd
  0
BLOCK
  5
16A0A
330
16A00
100
AcDbEntity
  8
0
 48
50.0
100
AcDbBlockBegin
  2
*D33
 70
     1
 10
0.0
 20
0.0
 30
0.0
  3
*D33
  1

  0
LINE
  5
173D1
330
16A00
100
AcDbEntity
  8
寸法
 62
     0
 48
50.0
370
    -2
100
AcDbLine
 10
12234.49568618457
 20
5341.473660869247
 30
0.0
 11
12234.49568618457
 21
6043.305435640514
 31
0.0
  0
LINE
  5
173D2
330
16A00
100
AcDbEntity
  8
寸法
 62
     0
 48
50.0
370
    -2
100
AcDbLine
 10
10724.49568618457
 20
5396.473660869251
 30
0.0
 11
10724.49568618457
 21
6043.305435640514
 31
0.0
  0
LINE
  5
173D3
330
16A00
100
AcDbEntity
  8
寸法
 62
     0
 48
50.0
370
    -2
100
AcDbLine
 10
12234.49568618457
 20
5983.305435640513
 30
0.0
 11
10724.49568618457
 21
5983.305435640513
 31
0.0
  0
INSERT
  5
173D4
330
16A00
100
AcDbEntity
  8
寸法
 62
     0
 48
50.0
370
    -2
100
AcDbBlockReference
  2
_DOTSMALL
 10
12234.49568618457
 20
5983.305435640513
 30
0.0
 41
100.0
 42
100.0
 43
100.0
  0
INSERT
  5
173D5
330
16A00
100
AcDbEntity
  8
寸法
 62
     0
 48
50.0
370
    -2
100
AcDbBlockReference
  2
_DOTSMALL
 10
10724.49568618457
 20
5983.305435640513
 30
0.0
 41
100.0
 42
100.0
 43
100.0
 50
180.0
  0
MTEXT
  5
173D6
330
16A00
100
AcDbEntity
  8
寸法
 62
     7
 48
50.0
100
AcDbMText
 10
11451.62051588639
 20
6083.305435640514
 30
0.0
 40
120.0
 41
0.0
 71
     5
 72
     1
  1
\A1;1510
  7
STYLE1
 73
     1
 44
1.0
1001
ACAD
1000
MTEXTBEGIN
1070
    73
1070
     1
1070
    44
1040
1.0
1070
    74
1070
     0
1000
MTEXTEND
  0
POINT
  5
173D7
330
16A00
100
AcDbEntity
  8
DEFPOINTS
 62
     0
 48
50.0
100
AcDbPoint
 10
12234.49568618457
 20
5321.473660869248
 30
0.0
  0
POINT
  5
173D8
330
16A00
100
AcDbEntity
  8
DEFPOINTS
 62
     0
 48
50.0
100
AcDbPoint
 10
10724.49568618457
 20
5376.473660869251
 30
0.0
  0
POINT
  5
173D9
330
16A00
100
AcDbEntity
  8
DEFPOINTS
 62
     0
 48
50.0
100
AcDbPoint
 10
10724.49568618457
 20
5983.305435640513
 30
0.0
  0
ENDBLK
  5
16A0B
330
16A00
100
AcDbEntity
  8
0
 48
50.0
100
AcDbBlockEnd
  0
BLOCK
  5
16A17
330
16A0C
100
AcDbEntity
  8
0
 48
50.0
100
AcDbBlockBegin
  2
*D34
 70
     1
 10
0.0
 20
0.0
 30
0.0
  3
*D34
  1

  0
LINE
  5
173C7
330
16A0C
100
AcDbEntity
  8
寸法
 62
     0
 48
50.0
370
    -2
100
AcDbLine
 10
12154.49568618457
 20
5343.284340480899
 30
0.0
 11
12154.49568618457
 21
5835.13111444855
 31
0.0
  0
LINE
  5
173C8
330
16A0C
100
AcDbEntity
  8
寸法
 62
     0
 48
50.0
370
    -2
100
AcDbLine
 10
12234.49568618457
 20
5341.473660869247
 30
0.0
 11
12234.49568618457
 21
5835.13111444855
 31
0.0
  0
LINE
  5
173C9
330
16A0C
100
AcDbEntity
  8
寸法
 62
     0
 48
50.0
370
    -2
100
AcDbLine
 10
12154.49568618457
 20
5775.13111444855
 30
0.0
 11
12234.49568618457
 21
5775.13111444855
 31
0.0
  0
LINE
  5
173CA
330
16A0C
100
AcDbEntity
  8
寸法
 62
     0
 48
50.0
370
    -2
100
AcDbLine
 10
12234.49568618457
 20
5775.13111444855
 30
0.0
 11
12546.59017437355
 21
5775.13111444855
 31
0.0
  0
INSERT
  5
173CB
330
16A0C
100
AcDbEntity
  8
寸法
 62
     0
 48
50.0
370
    -2
100
AcDbBlockReference
  2
_DOTSMALL
 10
12154.49568618457
 20
5775.13111444855
 30
0.0
 41
100.0
 42
100.0
 43
100.0
 50
180.0
  0
INSERT
  5
173CC
330
16A0C
100
AcDbEntity
  8
寸法
 62
     0
 48
50.0
370
    -2
100
AcDbBlockReference
  2
_DOTSMALL
 10
12234.49568618457
 20
5775.13111444855
 30
0.0
 41
100.0
 42
100.0
 43
100.0
  0
MTEXT
  5
173CD
330
16A0C
100
AcDbEntity
  8
寸法
 62
     7
 48
50.0
100
AcDbMText
 10
12440.54293027906
 20
5875.131114448549
 30
0.0
 40
120.0
 41
0.0
 71
     5
 72
     1
  1
\A1;80
  7
STYLE1
 73
     1
 44
1.0
1001
ACAD
1000
MTEXTBEGIN
1070
    73
1070
     1
1070
    44
1040
1.0
1070
    74
1070
     0
1000
MTEXTEND
  0
POINT
  5
173CE
330
16A0C
100
AcDbEntity
  8
DEFPOINTS
 62
     0
 48
50.0
100
AcDbPoint
 10
12154.49568618457
 20
5323.284340480899
 30
0.0
  0
POINT
  5
173CF
330
16A0C
100
AcDbEntity
  8
DEFPOINTS
 62
     0
 48
50.0
100
AcDbPoint
 10
12234.49568618457
 20
5321.473660869248
 30
0.0
  0
POINT
  5
173D0
330
16A0C
100
AcDbEntity
  8
DEFPOINTS
 62
     0
 48
50.0
100
AcDbPoint
 10
12234.49568618457
 20
5775.13111444855
 30
0.0
  0
ENDBLK
  5
16A18
330
16A0C
100
AcDbEntity
  8
0
 48
50.0
100
AcDbBlockEnd
  0
BLOCK
  5
16A24
330
16A19
100
AcDbEntity
  8
0
 48
50.0
100
AcDbBlockBegin
  2
*D35
 70
     1
 10
0.0
 20
0.0
 30
0.0
  3
*D35
  1

  0
LINE
  5
173BD
330
16A19
100
AcDbEntity
  8
寸法
 62
     0
 48
50.0
370
    -2
100
AcDbLine
 10
10719.85249087207
 20
5235.009272342722
 30
0.0
 11
10066.95232057805
 21
5259.660303582699
 31
0.0
  0
LINE
  5
173BE
330
16A19
100
AcDbEntity
  8
寸法
 62
     0
 48
50.0
370
    -2
100
AcDbLine
 10
10725.17232502403
 20
5375.908879739603
 30
0.0
 11
10072.27215472984
 21
5400.559910979588
 31
0.0
  0
LINE
  5
173BF
330
16A19
100
AcDbEntity
  8
寸法
 62
     0
 48
50.0
370
    -2
100
AcDbLine
 10
10126.90960032141
 20
5257.396544369171
 30
0.0
 11
10132.2294344732
 21
5398.29615176606
 31
0.0
  0
LINE
  5
173C0
330
16A19
100
AcDbEntity
  8
寸法
 62
     0
 48
50.0
370
    -2
100
AcDbLine
 10
10132.2294344732
 20
5398.29615176606
 30
0.0
 11
10145.8119897544
 21
5758.039830226894
 31
0.0
  0
INSERT
  5
173C1
330
16A19
100
AcDbEntity
  8
寸法
 62
     0
 48
50.0
370
    -2
100
AcDbBlockReference
  2
_DOTSMALL
 10
10126.90960032141
 20
5257.396544369171
 30
0.0
 41
100.0
 42
100.0
 43
100.0
 50
267.8377559871575
  0
INSERT
  5
173C2
330
16A19
100
AcDbEntity
  8
寸法
 62
     0
 48
50.0
370
    -2
100
AcDbBlockReference
  2
_DOTSMALL
 10
10132.2294344732
 20
5398.29615176606
 30
0.0
 41
100.0
 42
100.0
 43
100.0
 50
87.83775598715747
  0
MTEXT
  5
173C3
330
16A19
100
AcDbEntity
  8
寸法
 62
     7
 48
50.0
100
AcDbMText
 10
10040.97837855282
 20
5631.905322805502
 30
0.0
 40
120.0
 41
0.0
 71
     5
 72
     1
  1
\A1;141
  7
STYLE1
 11
0.0377293202254796
 21
0.9992879957226163
 31
0.0
 73
     1
 44
1.0
1001
ACAD
1000
MTEXTBEGIN
1070
    73
1070
     1
1070
    44
1040
1.0
1070
    74
1070
     0
1000
MTEXTEND
  0
POINT
  5
173C4
330
16A19
100
AcDbEntity
  8
DEFPOINTS
 62
     0
 48
50.0
100
AcDbPoint
 10
10739.83825078652
 20
5234.254685938211
 30
0.0
  0
POINT
  5
173C5
330
16A19
100
AcDbEntity
  8
DEFPOINTS
 62
     0
 48
50.0
100
AcDbPoint
 10
10745.15808493848
 20
5375.154293335094
 30
0.0
  0
POINT
  5
173C6
330
16A19
100
AcDbEntity
  8
DEFPOINTS
 62
     0
 48
50.0
100
AcDbPoint
 10
10132.2294344732
 20
5398.29615176606
 30
0.0
  0
ENDBLK
  5
16A25
330
16A19
100
AcDbEntity
  8
0
 48
50.0
100
AcDbBlockEnd
  0
BLOCK
  5
16EF1
330
16EE5
100
AcDbEntity
  8
0
 48
50.0
100
AcDbBlockBegin
  2
*D36
 70
     1
 10
0.0
 20
0.0
 30
0.0
  3
*D36
  1

  0
LINE
  5
173A0
330
16EE5
100
AcDbEntity
  8
寸法
 62
     0
 48
50.0
370
    -2
100
AcDbLine
 10
3148.698304377089
 20
5396.473660869254
 30
0.0
 11
3148.698304377089
 21
5649.015246127492
 31
0.0
  0
LINE
  5
173A1
330
16EE5
100
AcDbEntity
  8
寸法
 62
     0
 48
50.0
370
    -2
100
AcDbLine
 10
3098.698304377089
 20
5396.473660869253
 30
0.0
 11
3098.698304377089
 21
5649.015246127492
 31
0.0
  0
LINE
  5
173A2
330
16EE5
100
AcDbEntity
  8
寸法
 62
     0
 48
50.0
370
    -2
100
AcDbLine
 10
3148.698304377089
 20
5589.015246127492
 30
0.0
 11
3248.698304377089
 21
5589.015246127492
 31
0.0
  0
LINE
  5
173A3
330
16EE5
100
AcDbEntity
  8
寸法
 62
     0
 48
50.0
370
    -2
100
AcDbLine
 10
3098.698304377089
 20
5589.015246127492
 30
0.0
 11
2679.165778908354
 21
5589.015246127492
 31
0.0
  0
LINE
  5
173A4
330
16EE5
100
AcDbEntity
  8
寸法
 62
     0
 48
50.0
370
    -2
100
AcDbLine
 10
3148.698304377089
 20
5589.015246127492
 30
0.0
 11
3098.698304377089
 21
5589.015246127492
 31
0.0
  0
INSERT
  5
173A5
330
16EE5
100
AcDbEntity
  8
寸法
 62
     0
 48
50.0
370
    -2
100
AcDbBlockReference
  2
_DOTSMALL
 10
3148.698304377089
 20
5589.015246127492
 30
0.0
 41
100.0
 42
100.0
 43
100.0
 50
180.0
  0
INSERT
  5
173A6
330
16EE5
100
AcDbEntity
  8
寸法
 62
     0
 48
50.0
370
    -2
100
AcDbBlockReference
  2
_DOTSMALL
 10
3098.698304377089
 20
5589.015246127492
 30
0.0
 41
100.0
 42
100.0
 43
100.0
  0
MTEXT
  5
173A7
330
16EE5
100
AcDbEntity
  8
寸法
 62
     7
 48
50.0
100
AcDbMText
 10
2785.213023002842
 20
5689.015246127492
 30
0.0
 40
120.0
 41
0.0
 71
     5
 72
     1
  1
\A1;50
  7
STYLE1
 73
     1
 44
1.0
1001
ACAD
1000
MTEXTBEGIN
1070
    73
1070
     1
1070
    44
1040
1.0
1070
    74
1070
     0
1000
MTEXTEND
  0
POINT
  5
173A8
330
16EE5
100
AcDbEntity
  8
DEFPOINTS
 62
     0
 48
50.0
100
AcDbPoint
 10
3148.698304377089
 20
5376.473660869255
 30
0.0
  0
POINT
  5
173A9
330
16EE5
100
AcDbEntity
  8
DEFPOINTS
 62
     0
 48
50.0
100
AcDbPoint
 10
3098.698304377089
 20
5376.473660869253
 30
0.0
  0
POINT
  5
173AA
330
16EE5
100
AcDbEntity
  8
DEFPOINTS
 62
     0
 48
50.0
100
AcDbPoint
 10
3098.698304377089
 20
5589.015246127492
 30
0.0
  0
ENDBLK
  5
16EF2
330
16EE5
100
AcDbEntity
  8
0
 48
50.0
100
AcDbBlockEnd
  0
BLOCK
  5
16EFD
330
16EF3
100
AcDbEntity
  8
0
 48
50.0
100
AcDbBlockBegin
  2
*D37
 70
     1
 10
0.0
 20
0.0
 30
0.0
  3
*D37
  1

  0
LINE
  5
173AB
330
16EF3
100
AcDbEntity
  8
寸法
 62
     0
 48
50.0
370
    -2
100
AcDbLine
 10
3098.698304377089
 20
5396.473660869253
 30
0.0
 11
3098.698304377089
 21
5871.97222456534
 31
0.0
  0
LINE
  5
173AC
330
16EF3
100
AcDbEntity
  8
寸法
 62
     0
 48
50.0
370
    -2
100
AcDbLine
 10
8898.698304377091
 20
5396.473660869247
 30
0.0
 11
8898.698304377091
 21
5871.97222456534
 31
0.0
  0
LINE
  5
173AD
330
16EF3
100
AcDbEntity
  8
寸法
 62
     0
 48
50.0
370
    -2
100
AcDbLine
 10
3098.698304377089
 20
5811.972224565339
 30
0.0
 11
8898.698304377091
 21
5811.972224565339
 31
0.0
  0
INSERT
  5
173AE
330
16EF3
100
AcDbEntity
  8
寸法
 62
     0
 48
50.0
370
    -2
100
AcDbBlockReference
  2
_DOTSMALL
 10
3098.698304377089
 20
5811.972224565339
 30
0.0
 41
100.0
 42
100.0
 43
100.0
 50
180.0
  0
INSERT
  5
173AF
330
16EF3
100
AcDbEntity
  8
寸法
 62
     0
 48
50.0
370
    -2
100
AcDbBlockReference
  2
_DOTSMALL
 10
8898.698304377091
 20
5811.972224565339
 30
0.0
 41
100.0
 42
100.0
 43
100.0
  0
MTEXT
  5
173B0
330
16EF3
100
AcDbEntity
  8
寸法
 62
     7
 48
50.0
100
AcDbMText
 10
5998.69830437708
 20
5911.972224565339
 30
0.0
 40
120.0
 41
0.0
 71
     5
 72
     1
  1
\A1;5800
  7
STYLE1
 73
     1
 44
1.0
1001
ACAD
1000
MTEXTBEGIN
1070
    73
1070
     1
1070
    44
1040
1.0
1070
    74
1070
     0
1000
MTEXTEND
  0
POINT
  5
173B1
330
16EF3
100
AcDbEntity
  8
DEFPOINTS
 62
     0
 48
50.0
100
AcDbPoint
 10
3098.698304377089
 20
5376.473660869253
 30
0.0
  0
POINT
  5
173B2
330
16EF3
100
AcDbEntity
  8
DEFPOINTS
 62
     0
 48
50.0
100
AcDbPoint
 10
8898.698304377091
 20
5376.473660869248
 30
0.0
  0
POINT
  5
173B3
330
16EF3
100
AcDbEntity
  8
DEFPOINTS
 62
     0
 48
50.0
100
AcDbPoint
 10
8898.698304377091
 20
5811.972224565339
 30
0.0
  0
ENDBLK
  5
16EFE
330
16EF3
100
AcDbEntity
  8
0
 48
50.0
100
AcDbBlockEnd
  0
BLOCK
  5
16F09
330
16EFF
100
AcDbEntity
  8
0
 48
50.0
100
AcDbBlockBegin
  2
*D38
 70
     1
 10
0.0
 20
0.0
 30
0.0
  3
*D38
  1

  0
LINE
  5
173B4
330
16EFF
100
AcDbEntity
  8
寸法
 62
     0
 48
50.0
370
    -2
100
AcDbLine
 10
8848.698304377093
 20
5396.473660869249
 30
0.0
 11
8848.698304377093
 21
5649.015246127492
 31
0.0
  0
LINE
  5
173B5
330
16EFF
100
AcDbEntity
  8
寸法
 62
     0
 48
50.0
370
    -2
100
AcDbLine
 10
3148.698304377089
 20
5396.473660869254
 30
0.0
 11
3148.698304377089
 21
5649.015246127492
 31
0.0
  0
LINE
  5
173B6
330
16EFF
100
AcDbEntity
  8
寸法
 62
     0
 48
50.0
370
    -2
100
AcDbLine
 10
8848.698304377093
 20
5589.015246127492
 30
0.0
 11
3148.698304377089
 21
5589.015246127492
 31
0.0
  0
INSERT
  5
173B7
330
16EFF
100
AcDbEntity
  8
寸法
 62
     0
 48
50.0
370
    -2
100
AcDbBlockReference
  2
_DOTSMALL
 10
8848.698304377093
 20
5589.015246127492
 30
0.0
 41
100.0
 42
100.0
 43
100.0
  0
INSERT
  5
173B8
330
16EFF
100
AcDbEntity
  8
寸法
 62
     0
 48
50.0
370
    -2
100
AcDbBlockReference
  2
_DOTSMALL
 10
3148.698304377089
 20
5589.015246127492
 30
0.0
 41
100.0
 42
100.0
 43
100.0
 50
180.0
  0
MTEXT
  5
173B9
330
16EFF
100
AcDbEntity
  8
寸法
 62
     7
 48
50.0
100
AcDbMText
 10
5998.69830437708
 20
5689.015246127492
 30
0.0
 40
120.0
 41
0.0
 71
     5
 72
     1
  1
\A1;柱外寸法5700
  7
STYLE1
 73
     1
 44
1.0
1001
ACAD
1000
MTEXTBEGIN
1070
    73
1070
     1
1070
    44
1040
1.0
1070
    74
1070
     0
1000
MTEXTEND
  0
POINT
  5
173BA
330
16EFF
100
AcDbEntity
  8
DEFPOINTS
 62
     0
 48
50.0
100
AcDbPoint
 10
8848.698304377093
 20
5376.473660869249
 30
0.0
  0
POINT
  5
173BB
330
16EFF
100
AcDbEntity
  8
DEFPOINTS
 62
     0
 48
50.0
100
AcDbPoint
 10
3148.698304377089
 20
5376.473660869255
 30
0.0
  0
POINT
  5
173BC
330
16EFF
100
AcDbEntity
  8
DEFPOINTS
 62
     0
 48
50.0
100
AcDbPoint
 10
3148.698304377089
 20
5589.015246127492
 30
0.0
  0
ENDBLK
  5
16F0A
330
16EFF
100
AcDbEntity
  8
0
 48
50.0
100
AcDbBlockEnd
  0
BLOCK
  5
16F3F
330
16F33
100
AcDbEntity
  8
0
 48
50.0
100
AcDbBlockBegin
  2
*D39
 70
     1
 10
0.0
 20
0.0
 30
0.0
  3
*D39
  1

  0
LINE
  5
17395
330
16F33
100
AcDbEntity
  8
寸法
 62
     0
 48
50.0
370
    -2
100
AcDbLine
 10
8898.698304377091
 20
5396.473660869247
 30
0.0
 11
8898.698304377091
 21
5649.015246127488
 31
0.0
  0
LINE
  5
17396
330
16F33
100
AcDbEntity
  8
寸法
 62
     0
 48
50.0
370
    -2
100
AcDbLine
 10
8848.698304377093
 20
5396.473660869249
 30
0.0
 11
8848.698304377093
 21
5649.015246127488
 31
0.0
  0
LINE
  5
17397
330
16F33
100
AcDbEntity
  8
寸法
 62
     0
 48
50.0
370
    -2
100
AcDbLine
 10
8848.698304377093
 20
5589.015246127488
 30
0.0
 11
8748.698304377091
 21
5589.015246127488
 31
0.0
  0
LINE
  5
17398
330
16F33
100
AcDbEntity
  8
寸法
 62
     0
 48
50.0
370
    -2
100
AcDbLine
 10
8898.698304377091
 20
5589.015246127488
 30
0.0
 11
9318.230829845814
 21
5589.015246127488
 31
0.0
  0
LINE
  5
17399
330
16F33
100
AcDbEntity
  8
寸法
 62
     0
 48
50.0
370
    -2
100
AcDbLine
 10
8848.698304377093
 20
5589.015246127488
 30
0.0
 11
8898.698304377091
 21
5589.015246127488
 31
0.0
  0
INSERT
  5
1739A
330
16F33
100
AcDbEntity
  8
寸法
 62
     0
 48
50.0
370
    -2
100
AcDbBlockReference
  2
_DOTSMALL
 10
8848.698304377093
 20
5589.015246127488
 30
0.0
 41
100.0
 42
100.0
 43
100.0
  0
INSERT
  5
1739B
330
16F33
100
AcDbEntity
  8
寸法
 62
     0
 48
50.0
370
    -2
100
AcDbBlockReference
  2
_DOTSMALL
 10
8898.698304377091
 20
5589.015246127488
 30
0.0
 41
100.0
 42
100.0
 43
100.0
 50
180.0
  0
MTEXT
  5
1739C
330
16F33
100
AcDbEntity
  8
寸法
 62
     7
 48
50.0
100
AcDbMText
 10
9212.183585751329
 20
5689.015246127489
 30
0.0
 40
120.0
 41
0.0
 71
     5
 72
     1
  1
\A1;50
  7
STYLE1
 73
     1
 44
1.0
1001
ACAD
1000
MTEXTBEGIN
1070
    73
1070
     1
1070
    44
1040
1.0
1070
    74
1070
     0
1000
MTEXTEND
  0
POINT
  5
1739D
330
16F33
100
AcDbEntity
  8
DEFPOINTS
 62
     0
 48
50.0
100
AcDbPoint
 10
8898.698304377091
 20
5376.473660869248
 30
0.0
  0
POINT
  5
1739E
330
16F33
100
AcDbEntity
  8
DEFPOINTS
 62
     0
 48
50.0
100
AcDbPoint
 10
8848.698304377093
 20
5376.473660869249
 30
0.0
  0
POINT
  5
1739F
330
16F33
100
AcDbEntity
  8
DEFPOINTS
 62
     0
 48
50.0
100
AcDbPoint
 10
8848.698304377093
 20
5589.015246127488
 30
0.0
  0
ENDBLK
  5
16F40
330
16F33
100
AcDbEntity
  8
0
 48
50.0
100
AcDbBlockEnd
  0
BLOCK
  5
1759D
330
17593
100
AcDbEntity
  8
0
 48
50.0
100
AcDbBlockBegin
  2
*D40
 70
     1
 10
0.0
 20
0.0
 30
0.0
  3
*D40
  1

  0
LINE
  5
175AB
330
17593
100
AcDbEntity
  8
寸法
 62
     0
 48
50.0
370
    -2
100
AcDbLine
 10
3172.339327206069
 20
8958.762299083796
 30
0.0
 11
3063.685929675247
 21
8553.262299083792
 31
0.0
  0
LINE
  5
175AC
330
17593
100
AcDbEntity
  8
寸法
 62
     0
 48
50.0
370
    -2
100
AcDbLine
 10
4064.339327206069
 20
8958.76229908382
 30
0.0
 11
3955.685929675241
 21
8553.262299083792
 31
0.0
  0
LINE
  5
175AD
330
17593
100
AcDbEntity
  8
寸法
 62
     0
 48
50.0
370
    -2
100
AcDbLine
 10
3079.762881221115
 20
8613.262299083791
 30
0.0
 11
3971.762881221108
 21
8613.262299083791
 31
0.0
  0
INSERT
  5
175AE
330
17593
100
AcDbEntity
  8
寸法
 62
     0
 48
50.0
370
    -2
100
AcDbBlockReference
  2
_DOTSMALL
 10
3079.762881221115
 20
8613.262299083791
 30
0.0
 41
100.0
 42
100.0
 43
100.0
 50
180.0
  0
INSERT
  5
175AF
330
17593
100
AcDbEntity
  8
寸法
 62
     0
 48
50.0
370
    -2
100
AcDbBlockReference
  2
_DOTSMALL
 10
3971.762881221108
 20
8613.262299083791
 30
0.0
 41
100.0
 42
100.0
 43
100.0
  0
MTEXT
  5
175B0
330
17593
100
AcDbEntity
  8
寸法
 62
     7
 48
50.0
100
AcDbMText
 10
3525.762881221112
 20
8713.303111648595
 30
0.0
 40
120.0
 41
0.0
 71
     5
 72
     1
  1
\A1;892
  7
STYLE1
 73
     1
 44
1.0
1001
ACAD
1000
MTEXTBEGIN
1070
    73
1070
     1
1070
    44
1040
1.0
1070
    74
1070
     0
1000
MTEXTEND
  0
POINT
  5
175B1
330
17593
100
AcDbEntity
  8
DEFPOINTS
 62
     0
 48
50.0
100
AcDbPoint
 10
3177.698311054692
 20
8978.762299083795
 30
0.0
  0
POINT
  5
175B2
330
17593
100
AcDbEntity
  8
DEFPOINTS
 62
     0
 48
50.0
100
AcDbPoint
 10
4069.698311054692
 20
8978.762299083822
 30
0.0
  0
POINT
  5
175B3
330
17593
100
AcDbEntity
  8
DEFPOINTS
 62
     0
 48
50.0
100
AcDbPoint
 10
3971.762881221108
 20
8613.262299083791
 30
0.0
  0
ENDBLK
  5
1759E
330
17593
100
AcDbEntity
  8
0
 48
50.0
100
AcDbBlockEnd
  0
BLOCK
  5
175A9
330
1759F
100
AcDbEntity
  8
0
 48
50.0
100
AcDbBlockBegin
  2
*D41
 70
     1
 10
0.0
 20
0.0
 30
0.0
  3
*D41
  1

  0
LINE
  5
175B4
330
1759F
100
AcDbEntity
  8
寸法
 62
     0
 48
50.0
370
    -2
100
AcDbLine
 10
4122.339327206069
 20
8958.762299083796
 30
0.0
 11
4013.685929675247
 21
8553.262299083792
 31
0.0
  0
LINE
  5
175B5
330
1759F
100
AcDbEntity
  8
寸法
 62
     0
 48
50.0
370
    -2
100
AcDbLine
 10
5014.339327206066
 20
8958.7622990839
 30
0.0
 11
4905.685929675215
 21
8553.262299083792
 31
0.0
  0
LINE
  5
175B6
330
1759F
100
AcDbEntity
  8
寸法
 62
     0
 48
50.0
370
    -2
100
AcDbLine
 10
4029.762881221114
 20
8613.262299083791
 30
0.0
 11
4921.762881221083
 21
8613.262299083791
 31
0.0
  0
INSERT
  5
175B7
330
1759F
100
AcDbEntity
  8
寸法
 62
     0
 48
50.0
370
    -2
100
AcDbBlockReference
  2
_DOTSMALL
 10
4029.762881221114
 20
8613.262299083791
 30
0.0
 41
100.0
 42
100.0
 43
100.0
 50
180.0
  0
INSERT
  5
175B8
330
1759F
100
AcDbEntity
  8
寸法
 62
     0
 48
50.0
370
    -2
100
AcDbBlockReference
  2
_DOTSMALL
 10
4921.762881221083
 20
8613.262299083791
 30
0.0
 41
100.0
 42
100.0
 43
100.0
  0
MTEXT
  5
175B9
330
1759F
100
AcDbEntity
  8
寸法
 62
     7
 48
50.0
100
AcDbMText
 10
4475.762881221099
 20
8713.303111648595
 30
0.0
 40
120.0
 41
0.0
 71
     5
 72
     1
  1
\A1;892
  7
STYLE1
 73
     1
 44
1.0
1001
ACAD
1000
MTEXTBEGIN
1070
    73
1070
     1
1070
    44
1040
1.0
1070
    74
1070
     0
1000
MTEXTEND
  0
POINT
  5
175BA
330
1759F
100
AcDbEntity
  8
DEFPOINTS
 62
     0
 48
50.0
100
AcDbPoint
 10
4127.698311054691
 20
8978.762299083795
 30
0.0
  0
POINT
  5
175BB
330
1759F
100
AcDbEntity
  8
DEFPOINTS
 62
     0
 48
50.0
100
AcDbPoint
 10
5019.698311054688
 20
8978.762299083902
 30
0.0
  0
POINT
  5
175BC
330
1759F
100
AcDbEntity
  8
DEFPOINTS
 62
     0
 48
50.0
100
AcDbPoint
 10
4921.762881221083
 20
8613.262299083791
 30
0.0
  0
ENDBLK
  5
175AA
330
1759F
100
AcDbEntity
  8
0
 48
50.0
100
AcDbBlockEnd
  0
BLOCK
  5
175EF
330
175E5
100
AcDbEntity
  8
0
 48
50.0
100
AcDbBlockBegin
  2
*D42
 70
     1
 10
0.0
 20
0.0
 30
0.0
  3
*D42
  1

  0
LINE
  5
175FD
330
175E5
100
AcDbEntity
  8
寸法
 62
     0
 48
50.0
370
    -2
100
AcDbLine
 10
5072.339327206069
 20
8958.762299083796
 30
0.0
 11
4963.685929675247
 21
8553.262299083792
 31
0.0
  0
LINE
  5
175FE
330
175E5
100
AcDbEntity
  8
寸法
 62
     0
 48
50.0
370
    -2
100
AcDbLine
 10
5964.339327206069
 20
8958.76229908382
 30
0.0
 11
5855.68592967524
 21
8553.262299083792
 31
0.0
  0
LINE
  5
175FF
330
175E5
100
AcDbEntity
  8
寸法
 62
     0
 48
50.0
370
    -2
100
AcDbLine
 10
4979.762881221115
 20
8613.262299083791
 30
0.0
 11
5871.762881221108
 21
8613.262299083791
 31
0.0
  0
INSERT
  5
17600
330
175E5
100
AcDbEntity
  8
寸法
 62
     0
 48
50.0
370
    -2
100
AcDbBlockReference
  2
_DOTSMALL
 10
4979.762881221115
 20
8613.262299083791
 30
0.0
 41
100.0
 42
100.0
 43
100.0
 50
180.0
  0
INSERT
  5
17601
330
175E5
100
AcDbEntity
  8
寸法
 62
     0
 48
50.0
370
    -2
100
AcDbBlockReference
  2
_DOTSMALL
 10
5871.762881221108
 20
8613.262299083791
 30
0.0
 41
100.0
 42
100.0
 43
100.0
  0
MTEXT
  5
17602
330
175E5
100
AcDbEntity
  8
寸法
 62
     7
 48
50.0
100
AcDbMText
 10
5425.762881221111
 20
8713.303111648595
 30
0.0
 40
120.0
 41
0.0
 71
     5
 72
     1
  1
\A1;892
  7
STYLE1
 73
     1
 44
1.0
1001
ACAD
1000
MTEXTBEGIN
1070
    73
1070
     1
1070
    44
1040
1.0
1070
    74
1070
     0
1000
MTEXTEND
  0
POINT
  5
17603
330
175E5
100
AcDbEntity
  8
DEFPOINTS
 62
     0
 48
50.0
100
AcDbPoint
 10
5077.698311054692
 20
8978.762299083795
 30
0.0
  0
POINT
  5
17604
330
175E5
100
AcDbEntity
  8
DEFPOINTS
 62
     0
 48
50.0
100
AcDbPoint
 10
5969.698311054692
 20
8978.762299083822
 30
0.0
  0
POINT
  5
17605
330
175E5
100
AcDbEntity
  8
DEFPOINTS
 62
     0
 48
50.0
100
AcDbPoint
 10
5871.762881221108
 20
8613.262299083791
 30
0.0
  0
ENDBLK
  5
175F0
330
175E5
100
AcDbEntity
  8
0
 48
50.0
100
AcDbBlockEnd
  0
BLOCK
  5
175FB
330
175F1
100
AcDbEntity
  8
0
 48
50.0
100
AcDbBlockBegin
  2
*D43
 70
     1
 10
0.0
 20
0.0
 30
0.0
  3
*D43
  1

  0
LINE
  5
17606
330
175F1
100
AcDbEntity
  8
寸法
 62
     0
 48
50.0
370
    -2
100
AcDbLine
 10
6022.339327206069
 20
8958.762299083796
 30
0.0
 11
5913.685929675247
 21
8553.262299083792
 31
0.0
  0
LINE
  5
17607
330
175F1
100
AcDbEntity
  8
寸法
 62
     0
 48
50.0
370
    -2
100
AcDbLine
 10
6914.339327206066
 20
8958.7622990839
 30
0.0
 11
6805.685929675215
 21
8553.262299083792
 31
0.0
  0
LINE
  5
17608
330
175F1
100
AcDbEntity
  8
寸法
 62
     0
 48
50.0
370
    -2
100
AcDbLine
 10
5929.762881221115
 20
8613.262299083791
 30
0.0
 11
6821.762881221083
 21
8613.262299083791
 31
0.0
  0
INSERT
  5
17609
330
175F1
100
AcDbEntity
  8
寸法
 62
     0
 48
50.0
370
    -2
100
AcDbBlockReference
  2
_DOTSMALL
 10
5929.762881221115
 20
8613.262299083791
 30
0.0
 41
100.0
 42
100.0
 43
100.0
 50
180.0
  0
INSERT
  5
1760A
330
175F1
100
AcDbEntity
  8
寸法
 62
     0
 48
50.0
370
    -2
100
AcDbBlockReference
  2
_DOTSMALL
 10
6821.762881221083
 20
8613.262299083791
 30
0.0
 41
100.0
 42
100.0
 43
100.0
  0
MTEXT
  5
1760B
330
175F1
100
AcDbEntity
  8
寸法
 62
     7
 48
50.0
100
AcDbMText
 10
6375.762881221099
 20
8713.303111648595
 30
0.0
 40
120.0
 41
0.0
 71
     5
 72
     1
  1
\A1;892
  7
STYLE1
 73
     1
 44
1.0
1001
ACAD
1000
MTEXTBEGIN
1070
    73
1070
     1
1070
    44
1040
1.0
1070
    74
1070
     0
1000
MTEXTEND
  0
POINT
  5
1760C
330
175F1
100
AcDbEntity
  8
DEFPOINTS
 62
     0
 48
50.0
100
AcDbPoint
 10
6027.698311054692
 20
8978.762299083795
 30
0.0
  0
POINT
  5
1760D
330
175F1
100
AcDbEntity
  8
DEFPOINTS
 62
     0
 48
50.0
100
AcDbPoint
 10
6919.698311054688
 20
8978.762299083902
 30
0.0
  0
POINT
  5
1760E
330
175F1
100
AcDbEntity
  8
DEFPOINTS
 62
     0
 48
50.0
100
AcDbPoint
 10
6821.762881221083
 20
8613.262299083791
 30
0.0
  0
ENDBLK
  5
175FC
330
175F1
100
AcDbEntity
  8
0
 48
50.0
100
AcDbBlockEnd
  0
BLOCK
  5
17641
330
17637
100
AcDbEntity
  8
0
 48
50.0
100
AcDbBlockBegin
  2
*D44
 70
     1
 10
0.0
 20
0.0
 30
0.0
  3
*D44
  1

  0
LINE
  5
1764F
330
17637
100
AcDbEntity
  8
寸法
 62
     0
 48
50.0
370
    -2
100
AcDbLine
 10
6971.33932720607
 20
8958.762299083817
 30
0.0
 11
6862.685929675247
 21
8553.262299083813
 31
0.0
  0
LINE
  5
17650
330
17637
100
AcDbEntity
  8
寸法
 62
     0
 48
50.0
370
    -2
100
AcDbLine
 10
7863.33932720607
 20
8958.762299083842
 30
0.0
 11
7754.68592967524
 21
8553.262299083813
 31
0.0
  0
LINE
  5
17651
330
17637
100
AcDbEntity
  8
寸法
 62
     0
 48
50.0
370
    -2
100
AcDbLine
 10
6878.762881221115
 20
8613.262299083814
 30
0.0
 11
7770.762881221108
 21
8613.262299083814
 31
0.0
  0
INSERT
  5
17652
330
17637
100
AcDbEntity
  8
寸法
 62
     0
 48
50.0
370
    -2
100
AcDbBlockReference
  2
_DOTSMALL
 10
6878.762881221115
 20
8613.262299083814
 30
0.0
 41
100.0
 42
100.0
 43
100.0
 50
180.0
  0
INSERT
  5
17653
330
17637
100
AcDbEntity
  8
寸法
 62
     0
 48
50.0
370
    -2
100
AcDbBlockReference
  2
_DOTSMALL
 10
7770.762881221108
 20
8613.262299083814
 30
0.0
 41
100.0
 42
100.0
 43
100.0
  0
MTEXT
  5
17654
330
17637
100
AcDbEntity
  8
寸法
 62
     7
 48
50.0
100
AcDbMText
 10
7324.762881221111
 20
8713.303111648617
 30
0.0
 40
120.0
 41
0.0
 71
     5
 72
     1
  1
\A1;892
  7
STYLE1
 73
     1
 44
1.0
1001
ACAD
1000
MTEXTBEGIN
1070
    73
1070
     1
1070
    44
1040
1.0
1070
    74
1070
     0
1000
MTEXTEND
  0
POINT
  5
17655
330
17637
100
AcDbEntity
  8
DEFPOINTS
 62
     0
 48
50.0
100
AcDbPoint
 10
6976.698311054692
 20
8978.762299083816
 30
0.0
  0
POINT
  5
17656
330
17637
100
AcDbEntity
  8
DEFPOINTS
 62
     0
 48
50.0
100
AcDbPoint
 10
7868.698311054692
 20
8978.762299083843
 30
0.0
  0
POINT
  5
17657
330
17637
100
AcDbEntity
  8
DEFPOINTS
 62
     0
 48
50.0
100
AcDbPoint
 10
7770.762881221108
 20
8613.262299083814
 30
0.0
  0
ENDBLK
  5
17642
330
17637
100
AcDbEntity
  8
0
 48
50.0
100
AcDbBlockEnd
  0
BLOCK
  5
1764D
330
17643
100
AcDbEntity
  8
0
 48
50.0
100
AcDbBlockBegin
  2
*D45
 70
     1
 10
0.0
 20
0.0
 30
0.0
  3
*D45
  1

  0
LINE
  5
17658
330
17643
100
AcDbEntity
  8
寸法
 62
     0
 48
50.0
370
    -2
100
AcDbLine
 10
7921.339327206069
 20
8958.762299083817
 30
0.0
 11
7812.685929675247
 21
8553.262299083813
 31
0.0
  0
LINE
  5
17659
330
17643
100
AcDbEntity
  8
寸法
 62
     0
 48
50.0
370
    -2
100
AcDbLine
 10
8813.339327206065
 20
8958.762299083922
 30
0.0
 11
8704.685929675216
 21
8553.262299083813
 31
0.0
  0
LINE
  5
1765A
330
17643
100
AcDbEntity
  8
寸法
 62
     0
 48
50.0
370
    -2
100
AcDbLine
 10
7828.762881221115
 20
8613.262299083814
 30
0.0
 11
8720.762881221082
 21
8613.262299083814
 31
0.0
  0
INSERT
  5
1765B
330
17643
100
AcDbEntity
  8
寸法
 62
     0
 48
50.0
370
    -2
100
AcDbBlockReference
  2
_DOTSMALL
 10
7828.762881221115
 20
8613.262299083814
 30
0.0
 41
100.0
 42
100.0
 43
100.0
 50
180.0
  0
INSERT
  5
1765C
330
17643
100
AcDbEntity
  8
寸法
 62
     0
 48
50.0
370
    -2
100
AcDbBlockReference
  2
_DOTSMALL
 10
8720.762881221082
 20
8613.262299083814
 30
0.0
 41
100.0
 42
100.0
 43
100.0
  0
MTEXT
  5
1765D
330
17643
100
AcDbEntity
  8
寸法
 62
     7
 48
50.0
100
AcDbMText
 10
8274.762881221098
 20
8713.303111648617
 30
0.0
 40
120.0
 41
0.0
 71
     5
 72
     1
  1
\A1;892
  7
STYLE1
 73
     1
 44
1.0
1001
ACAD
1000
MTEXTBEGIN
1070
    73
1070
     1
1070
    44
1040
1.0
1070
    74
1070
     0
1000
MTEXTEND
  0
POINT
  5
1765E
330
17643
100
AcDbEntity
  8
DEFPOINTS
 62
     0
 48
50.0
100
AcDbPoint
 10
7926.698311054692
 20
8978.762299083816
 30
0.0
  0
POINT
  5
1765F
330
17643
100
AcDbEntity
  8
DEFPOINTS
 62
     0
 48
50.0
100
AcDbPoint
 10
8818.698311054687
 20
8978.762299083923
 30
0.0
  0
POINT
  5
17660
330
17643
100
AcDbEntity
  8
DEFPOINTS
 62
     0
 48
50.0
100
AcDbPoint
 10
8720.762881221082
 20
8613.262299083814
 30
0.0
  0
ENDBLK
  5
1764E
330
17643
100
AcDbEntity
  8
0
 48
50.0
100
AcDbBlockEnd
  0
ENDSEC
  0
SECTION
  2
ENTITIES
  0
LINE
  5
10B56
330
747D
100
AcDbEntity
  8
補助
  6
PHANTOM
 62
   230
 48
50.0
100
AcDbLine
 10
140.0
 20
0.0
 30
0.0
 11
139.9999999999995
 21
11409.6
 31
0.0
  0
LINE
  5
10B57
330
747D
100
AcDbEntity
  8
補助
  6
PHANTOM
 62
   230
 48
50.0
100
AcDbLine
 10
139.9999999999995
 20
11409.6
 30
0.0
 11
16307.2
 21
11409.6
 31
0.0
  0
LINE
  5
10B59
330
747D
100
AcDbEntity
  8
仕様書枠
  6
Continuous
 48
50.0
100
AcDbLine
 10
13107.2
 20
1200.0
 30
0.0
 11
13107.2
 21
-0.0000000000000729
 31
0.0
  0
LINE
  5
10B5C
330
747D
100
AcDbEntity
  8
仕様書枠
 48
50.0
100
AcDbLine
 10
16307.2
 20
1200.0
 30
0.0
 11
16307.2
 21
-0.0000000000000909
 31
0.0
  0
LINE
  5
10B5D
330
747D
100
AcDbEntity
  8
仕様書枠
 48
50.0
100
AcDbLine
 10
140.0
 20
0.0
 30
0.0
 11
16307.2
 21
-0.0000000000000909
 31
0.0
  0
LINE
  5
10B5E
330
747D
100
AcDbEntity
  8
補助
  6
PHANTOM
 62
   230
 48
50.0
100
AcDbLine
 10
16307.2
 20
11409.6
 30
0.0
 11
16307.2
 21
1200.0
 31
0.0
  0
LINE
  5
10B6C
330
747D
100
AcDbEntity
  8
仕様書枠
 48
50.0
100
AcDbLine
 10
13107.2
 20
1200.0
 30
0.0
 11
16307.2
 21
1200.0
 31
0.0
  0
LINE
  5
10B6D
330
747D
100
AcDbEntity
  8
補助
  6
PHANTOM
 62
   230
 48
50.0
100
AcDbLine
 10
13107.2
 20
11409.6
 30
0.0
 11
13107.2
 21
4800.0
 31
0.0
  0
LINE
  5
10B6F
330
747D
100
AcDbEntity
  8
補助
  6
PHANTOM
 62
   230
 48
50.0
100
AcDbLine
 10
13107.2
 20
4800.0
 30
0.0
 11
16307.2
 21
4800.0
 31
0.0
  0
LINE
  5
10B72
330
747D
100
AcDbEntity
  8
文字
 62
     7
 48
50.0
100
AcDbLine
 10
13187.2
 20
400.0
 30
0.0
 11
16227.2
 21
400.0
 31
0.0
  0
TEXT
  5
10B73
330
747D
100
AcDbEntity
  8
文字
 62
     7
 48
50.0
100
AcDbText
 10
13162.9790565769
 20
895.0906074299405
 30
0.0
 40
200.0
  1
外 形 図
  7
STYLE2
100
AcDbText
  0
TEXT
  5
10B74
330
747D
100
AcDbEntity
  8
文字
 62
     7
 48
50.0
100
AcDbText
 10
13201.43669998441
 20
477.2740661031255
 30
0.0
 40
160.0
  1
機種名
  7
STYLE2
100
AcDbText
  0
TEXT
  5
10B75
330
747D
100
AcDbEntity
  8
文字
 62
     7
 48
50.0
100
AcDbText
 10
13209.4053442172
 20
228.5435242569016
 30
0.0
 40
100.0
  1
○有効開口寸法 ： 685×1760(mm)
  7
STYLE2
100
AcDbText
  0
TEXT
  5
10B76
330
747D
100
AcDbEntity
  8
文字
 62
     7
 48
50.0
100
AcDbText
 10
13209.4053442172
 20
76.09434707649343
 30
0.0
 40
100.0
  1
○床面積 ： 7.81㎡(2.37坪) 　
  7
STYLE2
100
AcDbText
  0
TEXT
  5
10B79
330
747D
100
AcDbEntity
  8
文字
 62
     7
 48
50.0
100
AcDbText
 10
14524.131837222
 20
1031.557706291228
 30
0.0
 40
100.0
  1
NO.05     <縮尺> S=1/40
  7
STYLE2
100
AcDbText
  0
LINE
  5
10B7B
330
747D
100
AcDbEntity
  8
仕様書枠
 48
50.0
100
AcDbLine
 10
13107.2
 20
800.0
 30
0.0
 11
14251.2
 21
800.0
 31
0.0
  0
LINE
  5
10B88
330
747D
100
AcDbEntity
  8
仕様書枠
  6
Continuous
 48
50.0
100
AcDbLine
 10
14251.2
 20
1200.0
 30
0.0
 11
14251.2
 21
800.0
 31
0.0
  0
LINE
  5
13A41
330
747D
100
AcDbEntity
  8
Ｇ．Ｌ
100
AcDbLine
 10
2179.364910210876
 20
3201.473660869246
 30
0.0
 11
13076.05311397452
 21
3201.473660869246
 31
0.0
  0
TEXT
  5
13A63
330
747D
100
AcDbEntity
  8
部品1
100
AcDbText
 10
2163.910927485602
 20
3237.580564475147
 30
0.0
 40
125.0
  1
▽G.L
  7
STYLE2
100
AcDbText
  0
TEXT
  5
13B2F
330
747D
100
AcDbEntity
  8
部品1
100
AcDbText
 10
5641.882581091897
 20
6557.790081065508
 30
0.0
 40
135.0
  1
平面図
  7
STYLE2
100
AcDbText
  0
LWPOLYLINE
  5
13B30
330
747D
100
AcDbEntity
  8
部品1
100
AcDbPolyline
 90
        4
 70
     1
 43
0.0
 10
5551.962971262859
 20
6750.683610284031
 10
5551.962971262859
 20
6510.791288738499
 10
6315.433637491297
 20
6510.791288738499
 10
6315.433637491297
 20
6750.683610284031
  0
DIMENSION
  5
156F4
330
747D
100
AcDbEntity
  8
寸法
100
AcDbDimension
  2
*D1
 10
9496.124650111507
 20
9403.262299083918
 30
0.0
 11
9496.124650111505
 21
9766.74758045816
 31
0.0
 70
   160
 71
     5
 42
55.0
  3
INABA_S40G
100
AcDbAlignedDimension
 13
8848.698304377096
 23
9458.262299083919
 33
0.0
 14
8848.698304377096
 24
9403.262299083918
 34
0.0
 50
90.0
100
AcDbRotatedDimension
1001
ACAD
1000
DSTYLE
1002
{
1002
}
  0
DIMENSION
  5
156F5
330
747D
100
AcDbEntity
  8
寸法
100
AcDbDimension
  2
*D2
 10
8848.698304377096
 20
9674.070518708902
 30
0.0
 11
9157.183585751335
 21
9674.070518708902
 31
0.0
 70
   160
 71
     5
 42
55.0
  3
INABA_S40G
100
AcDbAlignedDimension
 13
8793.698304377096
 23
9458.262299083919
 33
0.0
 14
8848.698304377096
 24
9458.262299083919
 34
0.0
100
AcDbRotatedDimension
1001
ACAD
1000
DSTYLE
1002
{
1002
}
  0
DIMENSION
  5
156F6
330
747D
100
AcDbEntity
  8
寸法
 48
50.0
100
AcDbDimension
  2
*D3
 10
7953.698304377096
 20
9674.070518708923
 30
0.0
 11
7898.698304377096
 21
9932.284017178375
 31
0.0
 70
   160
 71
     5
 42
110.0000000000036
  3
INABA_S40G
100
AcDbAlignedDimension
 13
7843.698304377092
 23
9458.262299083941
 33
0.0
 14
7953.698304377096
 24
9458.262299083919
 34
0.0
100
AcDbRotatedDimension
1001
ACAD
1000
DSTYLE
1002
{
1070
   279
1070
     2
1002
}
  0
DIMENSION
  5
156F7
330
747D
100
AcDbEntity
  8
寸法
 48
50.0
100
AcDbDimension
  2
*D4
 10
7003.698304377095
 20
9674.070518708923
 30
0.0
 11
6948.698304377095
 21
9928.348840080071
 31
0.0
 70
   160
 71
     5
 42
110.0000000000036
  3
INABA_S40G
100
AcDbAlignedDimension
 13
6893.698304377092
 23
9458.262299083941
 33
0.0
 14
7003.698304377095
 24
9458.262299083919
 34
0.0
100
AcDbRotatedDimension
1001
ACAD
1000
DSTYLE
1002
{
1070
   279
1070
     2
1002
}
  0
DIMENSION
  5
156F8
330
747D
100
AcDbEntity
  8
寸法
100
AcDbDimension
  2
*D5
 10
7843.698304377092
 20
9674.070518708923
 30
0.0
 11
7423.698304377094
 21
9674.070518708923
 31
0.0
 70
   160
  1
2X420=<>
 71
     5
 42
839.9999999999982
  3
INABA_S40G
100
AcDbAlignedDimension
 13
7003.698304377095
 23
9458.262299083854
 33
0.0
 14
7843.698304377092
 24
9458.262299083941
 34
0.0
100
AcDbRotatedDimension
1001
ACAD
1000
DSTYLE
1002
{
1002
}
  0
DIMENSION
  5
156F9
330
747D
100
AcDbEntity
  8
寸法
100
AcDbDimension
  2
*D6
 10
3203.698304377095
 20
9674.070518708807
 30
0.0
 11
2840.21302300282
 21
9674.070518708807
 31
0.0
 70
   160
 71
     5
 42
55.00000000003456
  3
INABA_S40G
100
AcDbAlignedDimension
 13
3148.69830437706
 23
9458.262299083825
 33
0.0
 14
3203.698304377095
 24
9458.262299083825
 34
0.0
100
AcDbRotatedDimension
1001
ACAD
1000
DSTYLE
1002
{
1002
}
  0
DIMENSION
  5
156FA
330
747D
100
AcDbEntity
  8
寸法
100
AcDbDimension
  2
*D7
 10
6893.698304377092
 20
9674.070518708923
 30
0.0
 11
6473.698304377093
 21
9674.070518708923
 31
0.0
 70
   160
  1
2X420=<>
 71
     5
 42
839.9999999999982
  3
INABA_S40G
100
AcDbAlignedDimension
 13
6053.698304377094
 23
9458.262299083854
 33
0.0
 14
6893.698304377092
 24
9458.262299083941
 34
0.0
100
AcDbRotatedDimension
1001
ACAD
1000
DSTYLE
1002
{
1002
}
  0
DIMENSION
  5
156FB
330
747D
100
AcDbEntity
  8
寸法
100
AcDbDimension
  2
*D8
 10
8793.698304377093
 20
9674.070518708923
 30
0.0
 11
8373.698304377091
 21
9674.070518708923
 31
0.0
 70
   160
  1
2X420=<>
 71
     5
 42
839.9999999999982
  3
INABA_S40G
100
AcDbAlignedDimension
 13
7953.698304377095
 23
9458.262299083854
 33
0.0
 14
8793.698304377093
 24
9458.262299083941
 34
0.0
100
AcDbRotatedDimension
1001
ACAD
1000
DSTYLE
1002
{
1002
}
  0
DIMENSION
  5
156FC
330
747D
100
AcDbEntity
  8
寸法
100
AcDbDimension
  2
*D9
 10
8848.698304377071
 20
7101.160424223668
 30
0.0
 11
5998.69830437708
 21
7101.160424223668
 31
0.0
 70
   160
 71
     5
 42
5699.999999999982
  3
INABA_S40G
100
AcDbAlignedDimension
 13
3148.698304377089
 23
8088.262299083782
 33
0.0
 14
8848.698304377071
 24
8088.262299083876
 34
0.0
100
AcDbRotatedDimension
1001
ACAD
1000
DSTYLE
1002
{
1002
}
  0
LINE
  5
156FD
330
747D
100
AcDbEntity
  8
部品1
100
AcDbLine
 10
8848.698304377071
 20
8088.262299083906
 30
0.0
 11
5998.698304377089
 21
8088.26229908381
 31
0.0
  0
LINE
  5
156FE
330
747D
100
AcDbEntity
  8
部品1
100
AcDbLine
 10
3148.69830437706
 20
9458.262299083825
 30
0.0
 11
8848.698304377096
 21
9458.262299083919
 31
0.0
  0
ARC
  5
156FF
330
747D
100
AcDbEntity
  8
想像線
 48
10.0
100
AcDbCircle
 10
8666.346253699932
 20
8089.957192459449
 30
0.0
 40
722.6499369155646
100
AcDbArc
 50
180.1343808685448
 51
270.5829222700351
  0
LINE
  5
15700
330
747D
100
AcDbEntity
  8
部品1
100
AcDbLine
 10
7927.698311054689
 20
9428.762299083796
 30
0.0
 11
8819.69831105469
 21
9428.762299083905
 31
0.0
  0
LINE
  5
15702
330
747D
100
AcDbEntity
  8
部品1
100
AcDbLine
 10
7927.698311054689
 20
8978.762299083795
 30
0.0
 11
8819.69831105469
 21
8978.762299083896
 31
0.0
  0
LINE
  5
15703
330
747D
100
AcDbEntity
  8
細線
 48
50.0
100
AcDbLine
 10
8819.69831105469
 20
9428.762299083897
 30
0.0
 11
7927.698311054689
 21
8978.762299083795
 31
0.0
  0
LINE
  5
15704
330
747D
100
AcDbEntity
  8
細線
 48
50.0
100
AcDbLine
 10
8819.69831105469
 20
8978.762299083896
 30
0.0
 11
7927.698311054689
 21
9428.762299083796
 31
0.0
  0
LINE
  5
15705
330
747D
100
AcDbEntity
  8
部品1
100
AcDbLine
 10
7926.698304377019
 20
9430.262299083869
 30
0.0
 11
8820.698304377096
 21
9430.262299083919
 31
0.0
  0
LINE
  5
15706
330
747D
100
AcDbEntity
  8
部品1
 48
5.0
100
AcDbLine
 10
8805.698304377068
 20
8117.762299083862
 30
0.0
 11
7922.698304377089
 21
8117.762299083862
 31
0.0
  0
LINE
  5
15707
330
747D
100
AcDbEntity
  8
破線
 48
10.0
100
AcDbLine
 10
8768.698304377073
 20
8243.262299083912
 30
0.0
 11
7977.698304377081
 21
8243.262299083875
 31
0.0
  0
LINE
  5
15708
330
747D
100
AcDbEntity
  8
部品1
100
AcDbLine
 10
8792.197332952278
 20
8219.762404796759
 30
0.0
 11
7954.198304377071
 21
8219.762299108534
 31
0.0
  0
LINE
  5
1570A
330
747D
100
AcDbEntity
  8
部品1
100
AcDbLine
 10
8673.698304377088
 20
8114.262299083911
 30
0.0
 11
7943.698304377086
 21
8114.262299083852
 31
0.0
  0
LINE
  5
1570B
330
747D
100
AcDbEntity
  8
部品1
 48
5.0
100
AcDbLine
 10
7843.698304377089
 20
8143.262299083861
 30
0.0
 11
7843.698304377091
 21
8117.762299083862
 31
0.0
  0
LINE
  5
1570C
330
747D
100
AcDbEntity
  8
部品1
 48
5.0
100
AcDbLine
 10
7874.69830437709
 20
8143.262299083861
 30
0.0
 11
7874.69830437709
 21
8117.762299083862
 31
0.0
  0
LINE
  5
1570D
330
747D
100
AcDbEntity
  8
部品1
 48
5.0
100
AcDbLine
 10
7922.698304377091
 20
8143.262299083861
 30
0.0
 11
7922.698304377089
 21
8117.762299083862
 31
0.0
  0
LINE
  5
1570E
330
747D
100
AcDbEntity
  8
部品1
 48
5.0
100
AcDbLine
 10
7953.698304377089
 20
8143.262299083861
 30
0.0
 11
7953.69830437709
 21
8117.762299083862
 31
0.0
  0
LINE
  5
1570F
330
747D
100
AcDbEntity
  8
部品1
 48
5.0
100
AcDbLine
 10
7003.698304377088
 20
8143.262299083861
 30
0.0
 11
7003.69830437709
 21
8117.762299083862
 31
0.0
  0
LINE
  5
15710
330
747D
100
AcDbEntity
  8
部品1
 48
5.0
100
AcDbLine
 10
6893.698304377089
 20
8143.262299083861
 30
0.0
 11
6893.698304377091
 21
8117.762299083862
 31
0.0
  0
LINE
  5
15711
330
747D
100
AcDbEntity
  8
部品1
 48
5.0
100
AcDbLine
 10
6924.698304377089
 20
8143.262299083861
 30
0.0
 11
6924.698304377089
 21
8117.762299083862
 31
0.0
  0
LINE
  5
15712
330
747D
100
AcDbEntity
  8
部品1
 48
5.0
100
AcDbLine
 10
6972.698304377091
 20
8143.262299083861
 30
0.0
 11
6972.698304377089
 21
8117.762299083862
 31
0.0
  0
LINE
  5
15713
330
747D
100
AcDbEntity
  8
部品1
 48
2.83
100
AcDbLine
 10
3148.698304377089
 20
8088.262299083744
 30
0.0
 11
3148.698304377089
 21
8143.262299083744
 31
0.0
  0
LINE
  5
15714
330
747D
100
AcDbEntity
  8
部品1
 48
2.83
100
AcDbLine
 10
3203.698304377089
 20
8143.262299083744
 30
0.0
 11
3203.698304377091
 21
8117.762299083745
 31
0.0
  0
LINE
  5
15715
330
747D
100
AcDbEntity
  8
部品1
100
AcDbLine
 10
3148.698304377085
 20
8143.262299083744
 30
0.0
 11
3148.698304377089
 21
8088.262299083744
 31
0.0
  0
LINE
  5
15716
330
747D
100
AcDbEntity
  8
部品1
100
AcDbLine
 10
3148.69830437706
 20
9458.262299083788
 30
0.0
 11
3148.698304377089
 21
8088.262299083782
 31
0.0
  0
DIMENSION
  5
15717
330
747D
100
AcDbEntity
  8
寸法
 48
50.0
100
AcDbDimension
  2
*D10
 10
8638.698304377086
 20
7648.43863128874
 30
0.0
 11
8296.198304377089
 21
7648.43863128874
 31
0.0
 70
   160
  1
有効開口部間口\P<>
 71
     5
 42
684.9999999999945
  3
INABA_S40G
100
AcDbAlignedDimension
 13
7953.698304377093
 23
8088.262299083817
 33
0.0
 14
8638.698304377086
 24
8088.262299083782
 34
0.0
100
AcDbRotatedDimension
  0
LINE
  5
15718
330
747D
100
AcDbEntity
  8
部品1
 48
5.0
100
AcDbLine
 10
6022.698304377088
 20
8117.762299083743
 30
0.0
 11
6924.698304377089
 21
8117.762299083803
 31
0.0
  0
LINE
  5
15719
330
747D
100
AcDbEntity
  8
部品1
100
AcDbLine
 10
6999.69830437709
 20
8088.26229908381
 30
0.0
 11
3148.698304377089
 21
8088.262299083782
 31
0.0
  0
ARC
  5
1571A
330
747D
100
AcDbEntity
  8
想像線
 48
10.0
100
AcDbCircle
 10
6766.346253699929
 20
8089.957192459429
 30
0.0
 40
722.6499369155575
100
AcDbArc
 50
180.1343808685506
 51
270.5829222700354
  0
LINE
  5
1571B
330
747D
100
AcDbEntity
  8
部品1
100
AcDbLine
 10
6773.698304377088
 20
8114.262299083875
 30
0.0
 11
6043.698304377088
 21
8114.262299083845
 31
0.0
  0
LINE
  5
1571C
330
747D
100
AcDbEntity
  8
部品1
100
AcDbLine
 10
3193.698304377089
 20
8114.262299083883
 30
0.0
 11
3193.698304377089
 21
8088.262299083847
 31
0.0
  0
LINE
  5
1571D
330
747D
100
AcDbEntity
  8
部品1
 48
2.83
100
AcDbLine
 10
3191.698304377089
 20
8117.762299083745
 30
0.0
 11
3191.698304377089
 21
8088.262299083744
 31
0.0
  0
LINE
  5
1571E
330
747D
100
AcDbEntity
  8
部品1
 48
2.83
100
AcDbLine
 10
3191.698304377089
 20
8088.262299083744
 30
0.0
 11
3148.698304377089
 21
8088.262299083744
 31
0.0
  0
LINE
  5
1571F
330
747D
100
AcDbEntity
  8
想像線
 48
10.0
100
AcDbLine
 10
6773.698304377088
 20
8088.262299083861
 30
0.0
 11
6773.698304377088
 21
7367.344655428071
 31
0.0
  0
LINE
  5
15720
330
747D
100
AcDbEntity
  8
部品1
 48
5.0
100
AcDbLine
 10
6775.698304377089
 20
8117.762299083862
 30
0.0
 11
6775.698304377089
 21
8088.262299083861
 31
0.0
  0
LINE
  5
15721
330
747D
100
AcDbEntity
  8
部品1
 48
0.2
100
AcDbLine
 10
6760.760752205766
 20
8081.259929039083
 30
0.0
 11
6765.760752205766
 21
8081.259929039083
 31
0.0
  0
ARC
  5
15722
330
747D
100
AcDbEntity
  8
細線
 48
0.2
100
AcDbCircle
 10
6765.760752205766
 20
8089.259929039084
 30
0.0
 40
4.049999999999999
100
AcDbArc
 50
194.2603506853988
 51
345.7396493146012
  0
ARC
  5
15723
330
747D
100
AcDbEntity
  8
部品1
 48
0.2
100
AcDbCircle
 10
6760.760752205766
 20
8089.259929039084
 30
0.0
 40
8.0
100
AcDbArc
 50
187.1636477221926
 51
269.9999999999992
  0
ARC
  5
15724
330
747D
100
AcDbEntity
  8
部品1
 48
0.2
100
AcDbCircle
 10
6765.760752205766
 20
8089.259929039084
 30
0.0
 40
8.0
100
AcDbArc
 50
270.0
 51
352.8363522778074
  0
LINE
  5
15725
330
747D
100
AcDbEntity
  8
部品1
100
AcDbLine
 10
6773.698304377088
 20
8114.262299083911
 30
0.0
 11
6773.698304377088
 21
8088.262299083854
 31
0.0
  0
ARC
  5
15726
330
747D
100
AcDbEntity
  8
想像線
 48
10.0
100
AcDbCircle
 10
7716.346253699928
 20
8089.957192459428
 30
0.0
 40
722.6499369155564
100
AcDbArc
 50
180.1343808685454
 51
270.5829222700355
  0
LINE
  5
15727
330
747D
100
AcDbEntity
  8
部品1
 48
5.0
100
AcDbLine
 10
6972.698304377089
 20
8117.762299083803
 30
0.0
 11
7874.69830437709
 21
8117.762299083862
 31
0.0
  0
LINE
  5
15729
330
747D
100
AcDbEntity
  8
部品1
100
AcDbLine
 10
7723.698304377087
 20
8114.262299083904
 30
0.0
 11
6993.698304377089
 21
8114.262299083883
 31
0.0
  0
LINE
  5
1572A
330
747D
100
AcDbEntity
  8
部品1
 48
5.0
100
AcDbLine
 10
6991.698304377088
 20
8117.762299083862
 30
0.0
 11
6991.698304377088
 21
8088.262299083861
 31
0.0
  0
LINE
  5
1572B
330
747D
100
AcDbEntity
  8
部品1
100
AcDbLine
 10
6991.698304377088
 20
8117.76229908381
 30
0.0
 11
6991.698304377088
 21
8088.262299083861
 31
0.0
  0
LINE
  5
1572C
330
747D
100
AcDbEntity
  8
部品1
100
AcDbLine
 10
6993.698304377089
 20
8114.262299083883
 30
0.0
 11
6993.698304377089
 21
8088.262299083847
 31
0.0
  0
LINE
  5
1572D
330
747D
100
AcDbEntity
  8
部品1
 48
5.0
100
AcDbLine
 10
6905.698304377088
 20
8117.762299083862
 30
0.0
 11
6905.698304377088
 21
8088.262299083861
 31
0.0
  0
LINE
  5
1572E
330
747D
100
AcDbEntity
  8
部品1
100
AcDbLine
 10
6905.698304377087
 20
8117.762299083803
 30
0.0
 11
6905.698304377086
 21
8088.262299083854
 31
0.0
  0
LINE
  5
1572F
330
747D
100
AcDbEntity
  8
部品1
 48
5.0
100
AcDbLine
 10
6905.698304377088
 20
8088.262299083861
 30
0.0
 11
6991.698304377088
 21
8088.262299083861
 31
0.0
  0
LINE
  5
15730
330
747D
100
AcDbEntity
  8
想像線
 48
10.0
100
AcDbLine
 10
7723.698304377087
 20
8088.262299083861
 30
0.0
 11
7723.698304377087
 21
7367.344655428071
 31
0.0
  0
ARC
  5
15731
330
747D
100
AcDbEntity
  8
部品1
 48
0.2
100
AcDbCircle
 10
7710.760752205766
 20
8089.259929039084
 30
0.0
 40
8.0
100
AcDbArc
 50
187.1636477221926
 51
269.9999999999992
  0
LINE
  5
15732
330
747D
100
AcDbEntity
  8
部品1
 48
5.0
100
AcDbLine
 10
7725.698304377089
 20
8117.762299083862
 30
0.0
 11
7725.698304377089
 21
8088.262299083861
 31
0.0
  0
LINE
  5
15733
330
747D
100
AcDbEntity
  8
部品1
 48
0.2
100
AcDbLine
 10
7710.760752205766
 20
8081.259929039083
 30
0.0
 11
7715.760752205766
 21
8081.259929039083
 31
0.0
  0
ARC
  5
15734
330
747D
100
AcDbEntity
  8
細線
 48
0.2
100
AcDbCircle
 10
7715.760752205766
 20
8089.259929039084
 30
0.0
 40
4.049999999999999
100
AcDbArc
 50
194.2603506853988
 51
345.7396493146012
  0
ARC
  5
15735
330
747D
100
AcDbEntity
  8
部品1
 48
0.2
100
AcDbCircle
 10
7715.760752205766
 20
8089.259929039084
 30
0.0
 40
8.0
100
AcDbArc
 50
270.0
 51
352.8363522778074
  0
LINE
  5
15736
330
747D
100
AcDbEntity
  8
部品1
100
AcDbLine
 10
7723.698304377087
 20
8114.262299083911
 30
0.0
 11
7723.698304377087
 21
8088.262299083854
 31
0.0
  0
LINE
  5
15737
330
747D
100
AcDbEntity
  8
部品1
 48
5.0
100
AcDbLine
 10
7855.698304377089
 20
8088.262299083861
 30
0.0
 11
7941.698304377088
 21
8088.262299083861
 31
0.0
  0
LINE
  5
15738
330
747D
100
AcDbEntity
  8
部品1
 48
5.0
100
AcDbLine
 10
7855.698304377089
 20
8117.762299083862
 30
0.0
 11
7855.698304377089
 21
8088.262299083861
 31
0.0
  0
LINE
  5
15739
330
747D
100
AcDbEntity
  8
部品1
100
AcDbLine
 10
7855.698304377087
 20
8117.762299083803
 30
0.0
 11
7855.698304377085
 21
8088.262299083854
 31
0.0
  0
LINE
  5
1573A
330
747D
100
AcDbEntity
  8
部品1
 48
5.0
100
AcDbLine
 10
7941.698304377088
 20
8117.762299083862
 30
0.0
 11
7941.698304377088
 21
8088.262299083861
 31
0.0
  0
LINE
  5
1573B
330
747D
100
AcDbEntity
  8
部品1
100
AcDbLine
 10
7943.698304377086
 20
8114.262299083852
 30
0.0
 11
7943.698304377085
 21
8088.262299083861
 31
0.0
  0
LINE
  5
1573C
330
747D
100
AcDbEntity
  8
部品1
100
AcDbLine
 10
7941.698304377088
 20
8117.76229908381
 30
0.0
 11
7941.698304377088
 21
8088.262299083861
 31
0.0
  0
LINE
  5
1573D
330
747D
100
AcDbEntity
  8
部品1
100
AcDbLine
 10
6027.69831105469
 20
9428.762299083796
 30
0.0
 11
6919.698311054689
 21
9428.762299083905
 31
0.0
  0
LINE
  5
1573E
330
747D
100
AcDbEntity
  8
部品1
100
AcDbLine
 10
6026.698304377094
 20
9430.262299083825
 30
0.0
 11
6946.079007395718
 21
9430.262299083846
 31
0.0
  0
LINE
  5
15740
330
747D
100
AcDbEntity
  8
部品1
100
AcDbLine
 10
6027.69831105469
 20
8978.762299083795
 30
0.0
 11
6919.698311054689
 21
8978.762299083896
 31
0.0
  0
LINE
  5
15741
330
747D
100
AcDbEntity
  8
部品1
100
AcDbLine
 10
6893.198874825252
 20
8219.761718263905
 30
0.0
 11
6055.199275803483
 21
8219.761216775379
 31
0.0
  0
LINE
  5
15742
330
747D
100
AcDbEntity
  8
破線
 48
10.0
100
AcDbLine
 10
6869.698304377081
 20
8243.262299083847
 30
0.0
 11
6078.698304377081
 21
8243.262299083832
 31
0.0
  0
LINE
  5
15743
330
747D
100
AcDbEntity
  8
細線
 48
50.0
100
AcDbLine
 10
6919.698311054689
 20
8978.762299083896
 30
0.0
 11
6027.69831105469
 21
9428.762299083796
 31
0.0
  0
LINE
  5
15744
330
747D
100
AcDbEntity
  8
細線
 48
50.0
100
AcDbLine
 10
6919.698311054689
 20
9428.762299083897
 30
0.0
 11
6027.69831105469
 21
8978.762299083795
 31
0.0
  0
LINE
  5
15745
330
747D
100
AcDbEntity
  8
部品1
 48
50.0
100
AcDbLine
 10
6473.198304377081
 20
8978.762299083847
 30
0.0
 11
6473.198141504977
 21
8219.761466920649
 31
0.0
  0
LINE
  5
15746
330
747D
100
AcDbEntity
  8
破線
 48
10.0
100
AcDbLine
 10
3228.698369301796
 20
8978.762299083831
 30
0.0
 11
3228.698356678774
 21
8835.762327338301
 31
0.0
  0
LINE
  5
15747
330
747D
100
AcDbEntity
  8
部品1
 48
5.0
100
AcDbLine
 10
3205.199275802052
 20
8219.762299083919
 30
0.0
 11
3205.19878287074
 21
8978.762299083831
 31
0.0
  0
LINE
  5
15748
330
747D
100
AcDbEntity
  8
部品1
100
AcDbLine
 10
3176.698304377071
 20
8143.262299083774
 30
0.0
 11
3176.698304377094
 21
9430.262299083825
 31
0.0
  0
LINE
  5
15749
330
747D
100
AcDbEntity
  8
部品1
 48
50.0
100
AcDbLine
 10
3205.199275803483
 20
8219.761216775379
 30
0.0
 11
3176.698304377071
 21
8190.742045842915
 31
0.0
  0
LINE
  5
1574A
330
747D
100
AcDbEntity
  8
部品1
 48
2.83
100
AcDbLine
 10
3148.698304377089
 20
8143.262299083744
 30
0.0
 11
3171.698304377089
 21
8143.262299083744
 31
0.0
  0
LINE
  5
1574B
330
747D
100
AcDbEntity
  8
部品1
 48
2.83
100
AcDbLine
 10
3180.698304377089
 20
8143.262299083744
 30
0.0
 11
3203.698304377089
 21
8143.262299083744
 31
0.0
  0
LINE
  5
1574C
330
747D
100
AcDbEntity
  8
部品1
100
AcDbLine
 10
3176.698304377071
 20
8143.262299083744
 30
0.0
 11
3148.698304377085
 21
8143.262299083744
 31
0.0
  0
LINE
  5
1574D
330
747D
100
AcDbEntity
  8
部品1
100
AcDbLine
 10
3176.698304377071
 20
8143.262299083774
 30
0.0
 11
3148.698304377085
 21
8143.262299083774
 31
0.0
  0
LINE
  5
1574E
330
747D
100
AcDbEntity
  8
部品1
100
AcDbLine
 10
3176.698304377085
 20
8143.262299083788
 30
0.0
 11
3148.698304377085
 21
8143.262299083788
 31
0.0
  0
LINE
  5
1574F
330
747D
100
AcDbEntity
  8
部品1
100
AcDbLine
 10
3176.698304377069
 20
8563.262299083788
 30
0.0
 11
3148.698304377069
 21
8563.262299083788
 31
0.0
  0
LINE
  5
15750
330
747D
100
AcDbEntity
  8
部品1
 48
50.0
100
AcDbLine
 10
3177.69831105469
 20
9428.762299083789
 30
0.0
 11
3177.69831105469
 21
8978.762299083795
 31
0.0
  0
LINE
  5
15751
330
747D
100
AcDbEntity
  8
部品1
100
AcDbLine
 10
3176.698304377069
 20
8983.262299083788
 30
0.0
 11
3148.698304377069
 21
8983.262299083788
 31
0.0
  0
LINE
  5
15752
330
747D
100
AcDbEntity
  8
部品1
 48
50.0
100
AcDbLine
 10
3178.198311054682
 20
9428.762299083796
 30
0.0
 11
3176.69830437706
 21
9430.262299083789
 31
0.0
  0
LINE
  5
15753
330
747D
100
AcDbEntity
  8
部品1
100
AcDbLine
 10
3203.69830437706
 20
9458.262299083788
 30
0.0
 11
3203.698304377062
 21
9430.262299083789
 31
0.0
  0
LINE
  5
15754
330
747D
100
AcDbEntity
  8
部品1
100
AcDbLine
 10
3203.698304377095
 20
9458.262299083825
 30
0.0
 11
3203.698304377095
 21
9430.262299083825
 31
0.0
  0
LINE
  5
15755
330
747D
100
AcDbEntity
  8
部品1
100
AcDbLine
 10
3176.698304377062
 20
9403.262299083795
 30
0.0
 11
3148.698304377062
 21
9403.262299083795
 31
0.0
  0
LINE
  5
15756
330
747D
100
AcDbEntity
  8
部品1
100
AcDbLine
 10
6473.198304377025
 20
9458.262299083781
 30
0.0
 11
6473.198304377027
 21
9430.26229908378
 31
0.0
  0
LINE
  5
15757
330
747D
100
AcDbEntity
  8
部品1
100
AcDbLine
 10
6473.19830437706
 20
9458.262299083818
 30
0.0
 11
6473.19830437706
 21
9430.262299083818
 31
0.0
  0
LINE
  5
15758
330
747D
100
AcDbEntity
  8
部品1
 48
50.0
100
AcDbLine
 10
7954.198298032787
 20
8219.762299108527
 30
0.0
 11
7954.19830100565
 21
8978.762299083868
 31
0.0
  0
LINE
  5
15759
330
747D
100
AcDbEntity
  8
部品1
 48
50.0
100
AcDbLine
 10
7843.198304377072
 20
8219.762299083868
 30
0.0
 11
7843.198304377049
 21
8978.762299083927
 31
0.0
  0
LINE
  5
1575A
330
747D
100
AcDbEntity
  8
破線
 48
10.0
100
AcDbLine
 10
7819.698304377081
 20
8243.262299083868
 30
0.0
 11
7819.698298214818
 21
8785.762137833266
 31
0.0
  0
LINE
  5
1575B
330
747D
100
AcDbEntity
  8
破線
 48
10.0
100
AcDbLine
 10
7977.698304377081
 20
8243.262299083875
 30
0.0
 11
7977.698295207978
 21
8785.76213131142
 31
0.0
  0
LINE
  5
1575C
330
747D
100
AcDbEntity
  8
部品1
 48
50.0
100
AcDbLine
 10
7423.198304377081
 20
8978.762299083847
 30
0.0
 11
7423.198141504977
 21
8219.761466920649
 31
0.0
  0
LINE
  5
1575D
330
747D
100
AcDbEntity
  8
部品1
 48
50.0
100
AcDbLine
 10
7004.198298032787
 20
8219.762299108527
 30
0.0
 11
7004.19830100565
 21
8978.762299083868
 31
0.0
  0
LINE
  5
1575E
330
747D
100
AcDbEntity
  8
破線
 48
10.0
100
AcDbLine
 10
7027.698304377081
 20
8243.262299083875
 30
0.0
 11
7027.698295207978
 21
8785.762170525053
 31
0.0
  0
LINE
  5
1575F
330
747D
100
AcDbEntity
  8
部品1
 48
50.0
100
AcDbLine
 10
6893.198304377072
 20
8219.762299083868
 30
0.0
 11
6893.198304377048
 21
8978.762299083927
 31
0.0
  0
LINE
  5
15760
330
747D
100
AcDbEntity
  8
破線
 48
10.0
100
AcDbLine
 10
6869.698304377081
 20
8243.262299083868
 30
0.0
 11
6869.69829821482
 21
8785.762177046899
 31
0.0
  0
LINE
  5
15762
330
747D
100
AcDbEntity
  8
部品1
 48
50.0
100
AcDbLine
 10
6948.698304377074
 20
8143.262299083861
 30
0.0
 11
6948.698304377074
 21
9403.262299083868
 31
0.0
  0
LINE
  5
15763
330
747D
100
AcDbEntity
  8
部品1
 48
50.0
100
AcDbLine
 10
6920.698304377075
 20
8143.262299083861
 30
0.0
 11
6920.698304377019
 21
9430.262299083869
 31
0.0
  0
LINE
  5
15764
330
747D
100
AcDbEntity
  8
部品1
 48
50.0
100
AcDbLine
 10
6976.698304377075
 20
8143.262299083861
 30
0.0
 11
6976.69830437702
 21
9458.262299083868
 31
0.0
  0
LINE
  5
15765
330
747D
100
AcDbEntity
  8
部品1
 48
50.0
100
AcDbLine
 10
7898.698304377075
 20
8143.262299083861
 30
0.0
 11
7898.698304377075
 21
9403.262299083868
 31
0.0
  0
LINE
  5
15766
330
747D
100
AcDbEntity
  8
部品1
 48
50.0
100
AcDbLine
 10
7870.698304377075
 20
8143.262299083861
 30
0.0
 11
7870.698304377019
 21
9430.262299083869
 31
0.0
  0
LINE
  5
15767
330
747D
100
AcDbEntity
  8
部品1
 48
50.0
100
AcDbLine
 10
7926.698304377075
 20
8143.262299083861
 30
0.0
 11
7926.698304377019
 21
9458.262299083868
 31
0.0
  0
LINE
  5
15768
330
747D
100
AcDbEntity
  8
部品1
100
AcDbLine
 10
7843.198304377072
 20
8219.762299083868
 30
0.0
 11
7004.197811123191
 21
8219.761796886396
 31
0.0
  0
LINE
  5
15769
330
747D
100
AcDbEntity
  8
破線
 48
10.0
100
AcDbLine
 10
7819.698304377081
 20
8243.262299083868
 30
0.0
 11
7027.698304377081
 21
8243.262299083854
 31
0.0
  0
LINE
  5
1576A
330
747D
100
AcDbEntity
  8
部品1
 48
5.0
100
AcDbLine
 10
6920.698304377075
 20
8143.262299083861
 30
0.0
 11
6976.698304377075
 21
8143.262299083861
 31
0.0
  0
LINE
  5
1576B
330
747D
100
AcDbEntity
  8
部品1
 48
50.0
100
AcDbLine
 10
7004.198304377071
 20
8219.762299108534
 30
0.0
 11
6976.698304377075
 21
8191.76229908386
 31
0.0
  0
LINE
  5
1576C
330
747D
100
AcDbEntity
  8
部品1
 48
5.0
100
AcDbLine
 10
6980.698304377089
 20
8143.262299083861
 30
0.0
 11
7003.698304377088
 21
8143.262299083861
 31
0.0
  0
LINE
  5
1576D
330
747D
100
AcDbEntity
  8
部品1
 48
5.0
100
AcDbLine
 10
6916.698304377089
 20
8143.262299083861
 30
0.0
 11
6893.698304377089
 21
8143.262299083861
 31
0.0
  0
LINE
  5
1576E
330
747D
100
AcDbEntity
  8
部品1
 48
50.0
100
AcDbLine
 10
6920.698304377075
 20
8191.76229908386
 30
0.0
 11
6893.198304377072
 21
8219.762299083868
 31
0.0
  0
LINE
  5
1576F
330
747D
100
AcDbEntity
  8
部品1
 48
5.0
100
AcDbLine
 10
6948.698304377074
 20
8563.262299083861
 30
0.0
 11
6920.698304377022
 21
8563.262299083868
 31
0.0
  0
LINE
  5
15770
330
747D
100
AcDbEntity
  8
部品1
 48
50.0
100
AcDbLine
 10
7870.698304377075
 20
8191.76229908386
 30
0.0
 11
7843.198304377072
 21
8219.762299083868
 31
0.0
  0
LINE
  5
15771
330
747D
100
AcDbEntity
  8
部品1
 48
5.0
100
AcDbLine
 10
7866.698304377088
 20
8143.262299083861
 30
0.0
 11
7843.698304377089
 21
8143.262299083861
 31
0.0
  0
LINE
  5
15772
330
747D
100
AcDbEntity
  8
部品1
 48
50.0
100
AcDbLine
 10
7954.198304377071
 20
8219.762299108534
 30
0.0
 11
7926.698304377075
 21
8191.76229908386
 31
0.0
  0
LINE
  5
15773
330
747D
100
AcDbEntity
  8
部品1
 48
5.0
100
AcDbLine
 10
7930.698304377088
 20
8143.262299083861
 30
0.0
 11
7953.698304377089
 21
8143.262299083861
 31
0.0
  0
LINE
  5
15774
330
747D
100
AcDbEntity
  8
部品1
 48
5.0
100
AcDbLine
 10
7870.698304377075
 20
8143.262299083861
 30
0.0
 11
7926.698304377075
 21
8143.262299083861
 31
0.0
  0
LINE
  5
15775
330
747D
100
AcDbEntity
  8
部品1
 48
5.0
100
AcDbLine
 10
7898.698304377075
 20
8563.262299083861
 30
0.0
 11
7870.698304377022
 21
8563.262299083868
 31
0.0
  0
LINE
  5
15776
330
747D
100
AcDbEntity
  8
部品1
100
AcDbLine
 10
6977.698311054689
 20
9428.762299083796
 30
0.0
 11
7869.69831105469
 21
9428.762299083905
 31
0.0
  0
LINE
  5
15777
330
747D
100
AcDbEntity
  8
部品1
100
AcDbLine
 10
6976.698304377042
 20
9430.262299083846
 30
0.0
 11
7896.079007395695
 21
9430.262299083869
 31
0.0
  0
LINE
  5
15778
330
747D
100
AcDbEntity
  8
部品1
100
AcDbLine
 10
6977.698311054689
 20
8978.762299083795
 30
0.0
 11
7869.69831105469
 21
8978.762299083896
 31
0.0
  0
LINE
  5
15779
330
747D
100
AcDbEntity
  8
細線
 48
50.0
100
AcDbLine
 10
7869.69831105469
 20
8978.762299083896
 30
0.0
 11
6977.698311054689
 21
9428.762299083796
 31
0.0
  0
LINE
  5
1577A
330
747D
100
AcDbEntity
  8
細線
 48
50.0
100
AcDbLine
 10
7869.69831105469
 20
9428.762299083897
 30
0.0
 11
6977.698311054689
 21
8978.762299083795
 31
0.0
  0
LINE
  5
1577B
330
747D
100
AcDbEntity
  8
部品1
 48
50.0
100
AcDbLine
 10
6977.698311054689
 20
9428.762299083789
 30
0.0
 11
6977.698311054689
 21
8978.762299083795
 31
0.0
  0
LINE
  5
1577C
330
747D
100
AcDbEntity
  8
部品1
 48
50.0
100
AcDbLine
 10
6919.698311054689
 20
9428.762299083897
 30
0.0
 11
6919.698311054689
 21
8978.762299083896
 31
0.0
  0
LINE
  5
1577D
330
747D
100
AcDbEntity
  8
部品1
 48
50.0
100
AcDbLine
 10
6948.698304377065
 20
9021.262299083868
 30
0.0
 11
6976.698304377049
 21
9021.262299083868
 31
0.0
  0
LINE
  5
1577E
330
747D
100
AcDbEntity
  8
部品1
 48
50.0
100
AcDbLine
 10
6948.698304377065
 20
8983.262299083868
 30
0.0
 11
6976.698304377049
 21
8983.262299083868
 31
0.0
  0
LINE
  5
1577F
330
747D
100
AcDbEntity
  8
部品1
 48
5.0
100
AcDbLine
 10
6948.698304377074
 20
8983.262299083861
 30
0.0
 11
6920.698304377022
 21
8983.262299083868
 31
0.0
  0
LINE
  5
15780
330
747D
100
AcDbEntity
  8
部品1
 48
50.0
100
AcDbLine
 10
6978.198311054683
 20
9428.762299083796
 30
0.0
 11
6976.698304377059
 21
9430.262299083789
 31
0.0
  0
LINE
  5
15781
330
747D
100
AcDbEntity
  8
部品1
 48
50.0
100
AcDbLine
 10
6919.25091186511
 20
9428.762299083905
 30
0.0
 11
6920.698304376987
 21
9430.262299083832
 31
0.0
  0
LINE
  5
15782
330
747D
100
AcDbEntity
  8
部品1
 48
5.0
100
AcDbLine
 10
7003.698304377095
 20
9458.262299083868
 30
0.0
 11
7003.698304377093
 21
9430.262299083876
 31
0.0
  0
LINE
  5
15783
330
747D
100
AcDbEntity
  8
部品1
 48
5.0
100
AcDbLine
 10
6976.698304377023
 20
9403.262299083868
 30
0.0
 11
6920.698304377022
 21
9403.262299083868
 31
0.0
  0
LINE
  5
15784
330
747D
100
AcDbEntity
  8
部品1
 48
5.0
100
AcDbLine
 10
6923.407578824267
 20
9458.262299083868
 30
0.0
 11
6946.079007395695
 21
9430.262299083869
 31
0.0
  0
LINE
  5
15785
330
747D
100
AcDbEntity
  8
部品1
 48
5.0
100
AcDbLine
 10
6893.698304377092
 20
9430.262299083869
 30
0.0
 11
6893.698304377092
 21
9458.262299083868
 31
0.0
  0
LINE
  5
15786
330
747D
100
AcDbEntity
  8
部品1
100
AcDbLine
 10
7423.198304377059
 20
9458.262299083903
 30
0.0
 11
7423.198304377059
 21
9430.262299083905
 31
0.0
  0
LINE
  5
15787
330
747D
100
AcDbEntity
  8
部品1
100
AcDbLine
 10
7423.198304377025
 20
9458.262299083868
 30
0.0
 11
7423.198304377027
 21
9430.262299083869
 31
0.0
  0
LINE
  5
15788
330
747D
100
AcDbEntity
  8
部品1
 48
50.0
100
AcDbLine
 10
7927.698311054689
 20
9428.762299083789
 30
0.0
 11
7927.698311054689
 21
8978.762299083795
 31
0.0
  0
LINE
  5
15789
330
747D
100
AcDbEntity
  8
部品1
 48
50.0
100
AcDbLine
 10
7869.69831105469
 20
9428.762299083897
 30
0.0
 11
7869.69831105469
 21
8978.762299083896
 31
0.0
  0
LINE
  5
1578A
330
747D
100
AcDbEntity
  8
部品1
 48
50.0
100
AcDbLine
 10
7898.698304377065
 20
9021.262299083868
 30
0.0
 11
7926.698304377049
 21
9021.262299083868
 31
0.0
  0
LINE
  5
1578B
330
747D
100
AcDbEntity
  8
部品1
 48
50.0
100
AcDbLine
 10
7898.698304377065
 20
8983.262299083868
 30
0.0
 11
7926.698304377049
 21
8983.262299083868
 31
0.0
  0
LINE
  5
1578C
330
747D
100
AcDbEntity
  8
部品1
 48
5.0
100
AcDbLine
 10
7898.698304377075
 20
8983.262299083861
 30
0.0
 11
7870.698304377022
 21
8983.262299083868
 31
0.0
  0
LINE
  5
1578D
330
747D
100
AcDbEntity
  8
部品1
 48
5.0
100
AcDbLine
 10
7843.698304377092
 20
9430.262299083869
 30
0.0
 11
7843.698304377092
 21
9458.262299083868
 31
0.0
  0
LINE
  5
1578E
330
747D
100
AcDbEntity
  8
部品1
 48
50.0
100
AcDbLine
 10
7928.198311054683
 20
9428.762299083796
 30
0.0
 11
7926.698304377059
 21
9430.262299083789
 31
0.0
  0
LINE
  5
1578F
330
747D
100
AcDbEntity
  8
部品1
 48
50.0
100
AcDbLine
 10
7869.25091186511
 20
9428.762299083905
 30
0.0
 11
7870.698304376986
 21
9430.262299083832
 31
0.0
  0
LINE
  5
15790
330
747D
100
AcDbEntity
  8
部品1
 48
5.0
100
AcDbLine
 10
7926.698304377024
 20
9403.262299083868
 30
0.0
 11
7870.698304377022
 21
9403.262299083868
 31
0.0
  0
LINE
  5
15791
330
747D
100
AcDbEntity
  8
部品1
 48
5.0
100
AcDbLine
 10
7873.407578824267
 20
9458.262299083868
 30
0.0
 11
7896.079007395695
 21
9430.262299083869
 31
0.0
  0
LINE
  5
15792
330
747D
100
AcDbEntity
  8
部品1
 48
5.0
100
AcDbLine
 10
7953.698304377096
 20
9458.262299083868
 30
0.0
 11
7953.698304377093
 21
9430.262299083876
 31
0.0
  0
LINE
  5
15793
330
747D
100
AcDbEntity
  8
部品1
 48
2.83
100
AcDbLine
 10
8793.698304377072
 20
8143.262299083875
 30
0.0
 11
8793.69830437707
 21
8117.762299083876
 31
0.0
  0
DIMENSION
  5
15794
330
747D
100
AcDbEntity
  8
寸法
100
AcDbDimension
  2
*D11
 10
9496.124650111481
 20
8088.262299083906
 30
0.0
 11
9496.124650111481
 21
7710.400832179043
 31
0.0
 70
   160
 71
     5
 42
55.0
  3
INABA_S40G
100
AcDbAlignedDimension
 13
8848.698304377071
 23
8143.262299083906
 33
0.0
 14
8848.698304377071
 24
8088.262299083906
 34
0.0
 50
90.0
100
AcDbRotatedDimension
1001
ACAD
1000
DSTYLE
1002
{
1002
}
  0
DIMENSION
  5
15795
330
747D
100
AcDbEntity
  8
寸法
100
AcDbDimension
  2
*D12
 10
9805.236180927185
 20
8088.262299083906
 30
0.0
 11
9805.236180927183
 21
8773.262299083912
 31
0.0
 70
   160
 71
     5
 42
1370.000000000014
  3
INABA_S40G
100
AcDbAlignedDimension
 13
8848.698304377096
 23
9458.262299083919
 33
0.0
 14
8848.698304377071
 24
8088.262299083906
 34
0.0
 50
90.0
100
AcDbRotatedDimension
1001
ACAD
1000
DSTYLE
1002
{
1002
}
  0
LINE
  5
15796
330
747D
100
AcDbEntity
  8
部品1
100
AcDbLine
 10
8848.698304377096
 20
9458.262299083919
 30
0.0
 11
8848.698304377071
 21
8088.262299083906
 31
0.0
  0
LINE
  5
15797
330
747D
100
AcDbEntity
  8
想像線
 48
10.0
100
AcDbLine
 10
8673.698304377088
 20
8088.262299083869
 30
0.0
 11
8673.698304377088
 21
7367.344655428079
 31
0.0
  0
LINE
  5
15798
330
747D
100
AcDbEntity
  8
部品1
 48
2.83
100
AcDbLine
 10
8675.698304377069
 20
8117.762299083876
 30
0.0
 11
8675.698304377069
 21
8088.262299083876
 31
0.0
  0
ARC
  5
15799
330
747D
100
AcDbEntity
  8
細線
 48
0.2
100
AcDbCircle
 10
8665.760752205766
 20
8089.259929039098
 30
0.0
 40
4.049999999999999
100
AcDbArc
 50
194.2603506853988
 51
345.7396493146012
  0
ARC
  5
1579A
330
747D
100
AcDbEntity
  8
部品1
 48
0.2
100
AcDbCircle
 10
8660.760752205765
 20
8089.259929039098
 30
0.0
 40
8.0
100
AcDbArc
 50
187.1636477221926
 51
269.9999999999992
  0
ARC
  5
1579B
330
747D
100
AcDbEntity
  8
部品1
 48
0.2
100
AcDbCircle
 10
8665.760752205766
 20
8089.259929039098
 30
0.0
 40
8.0
100
AcDbArc
 50
270.0
 51
352.8363522778074
  0
LINE
  5
1579C
330
747D
100
AcDbEntity
  8
部品1
 48
0.2
100
AcDbLine
 10
8660.760752205765
 20
8081.259929039097
 30
0.0
 11
8665.760752205766
 21
8081.259929039097
 31
0.0
  0
LINE
  5
1579D
330
747D
100
AcDbEntity
  8
部品1
100
AcDbLine
 10
8673.698304377088
 20
8114.262299083911
 30
0.0
 11
8673.698304377088
 21
8088.262299083906
 31
0.0
  0
LINE
  5
1579E
330
747D
100
AcDbEntity
  8
部品1
 48
2.83
100
AcDbLine
 10
8805.698304377068
 20
8117.762299083876
 30
0.0
 11
8805.698304377068
 21
8088.262299083876
 31
0.0
  0
DIMENSION
  5
1579F
330
747D
100
AcDbEntity
  8
寸法
100
AcDbDimension
  2
*D13
 10
9496.124650111507
 20
8143.262299083906
 30
0.0
 11
9496.124650111505
 21
8773.262299083912
 31
0.0
 70
   160
  1
3X420=<>
 71
     5
 42
1260.000000000014
  3
INABA_S40G
100
AcDbAlignedDimension
 13
8848.698304377096
 23
9403.262299083918
 33
0.0
 14
8848.698304377071
 24
8143.262299083906
 34
0.0
 50
90.0
100
AcDbRotatedDimension
1001
ACAD
1000
DSTYLE
1002
{
1002
}
  0
LINE
  5
157A0
330
747D
100
AcDbEntity
  8
部品1
 48
5.0
100
AcDbLine
 10
8792.19733295214
 20
8219.762299083919
 30
0.0
 11
8792.19782588345
 21
8978.762299083861
 31
0.0
  0
LINE
  5
157A1
330
747D
100
AcDbEntity
  8
破線
 48
10.0
100
AcDbLine
 10
8768.698369301763
 20
8978.762299083868
 30
0.0
 11
8768.698356678727
 21
8835.762098660898
 31
0.0
  0
LINE
  5
157A2
330
747D
100
AcDbEntity
  8
部品1
 48
50.0
100
AcDbLine
 10
8373.198304377082
 20
8978.762299083847
 30
0.0
 11
8373.198141504976
 21
8219.761466920649
 31
0.0
  0
DIMENSION
  5
157A3
330
747D
100
AcDbEntity
  8
寸法
100
AcDbDimension
  2
*D14
 10
9175.05603691673
 20
8883.544483414906
 30
0.0
 11
9175.056036916728
 21
9108.544483414899
 31
0.0
 70
   160
 71
     5
 42
449.9999999999927
  3
INABA_S40G
100
AcDbAlignedDimension
 13
8819.698311054702
 23
9428.762299083789
 33
0.0
 14
8819.698311054713
 24
8978.762299083795
 34
0.0
 50
90.0
100
AcDbRotatedDimension
1001
ACAD
1000
DSTYLE
1002
{
1002
}
  0
LINE
  5
157A4
330
747D
100
AcDbEntity
  8
部品1
100
AcDbLine
 10
8820.698304377096
 20
9430.262299083919
 30
0.0
 11
8820.698304377071
 21
8143.262299083906
 31
0.0
  0
LINE
  5
157A5
330
747D
100
AcDbEntity
  8
部品1
 48
50.0
100
AcDbLine
 10
8820.698304377071
 20
8190.743233891506
 30
0.0
 11
8792.197332952278
 21
8219.762404796759
 31
0.0
  0
LINE
  5
157A6
330
747D
100
AcDbEntity
  8
部品1
 48
2.83
100
AcDbLine
 10
8816.698304377068
 20
8143.262299083875
 30
0.0
 11
8793.69830437707
 21
8143.262299083875
 31
0.0
  0
LINE
  5
157A7
330
747D
100
AcDbEntity
  8
部品1
 48
2.83
100
AcDbLine
 10
8848.698304377069
 20
8143.262299083875
 30
0.0
 11
8825.698304377068
 21
8143.262299083875
 31
0.0
  0
LINE
  5
157A8
330
747D
100
AcDbEntity
  8
部品1
100
AcDbLine
 10
8820.698304377071
 20
8143.262299083906
 30
0.0
 11
8848.698304377071
 21
8143.262299083906
 31
0.0
  0
LINE
  5
157A9
330
747D
100
AcDbEntity
  8
部品1
100
AcDbLine
 10
8820.698304377103
 20
8143.26229908392
 30
0.0
 11
8848.698304377103
 21
8143.26229908392
 31
0.0
  0
LINE
  5
157AA
330
747D
100
AcDbEntity
  8
部品1
100
AcDbLine
 10
8820.698304377096
 20
8563.26229908392
 30
0.0
 11
8848.698304377096
 21
8563.26229908392
 31
0.0
  0
LINE
  5
157AB
330
747D
100
AcDbEntity
  8
部品1
100
AcDbLine
 10
8373.198304377028
 20
9458.262299083934
 30
0.0
 11
8373.198304377032
 21
9430.262299083933
 31
0.0
  0
LINE
  5
157AC
330
747D
100
AcDbEntity
  8
部品1
100
AcDbLine
 10
8373.198304377064
 20
9458.262299083969
 30
0.0
 11
8373.198304377064
 21
9430.26229908397
 31
0.0
  0
LINE
  5
157AD
330
747D
100
AcDbEntity
  8
部品1
 48
50.0
100
AcDbLine
 10
8819.69831105469
 20
9428.762299083897
 30
0.0
 11
8819.69831105469
 21
8978.762299083896
 31
0.0
  0
LINE
  5
157AE
330
747D
100
AcDbEntity
  8
部品1
100
AcDbLine
 10
8820.698304377096
 20
8983.26229908392
 30
0.0
 11
8848.698304377096
 21
8983.26229908392
 31
0.0
  0
LINE
  5
157AF
330
747D
100
AcDbEntity
  8
部品1
 48
50.0
100
AcDbLine
 10
8819.250911865109
 20
9428.762299083905
 30
0.0
 11
8820.698304376987
 21
9430.262299083832
 31
0.0
  0
LINE
  5
157B0
330
747D
100
AcDbEntity
  8
部品1
100
AcDbLine
 10
8793.698304377096
 20
9458.262299083919
 30
0.0
 11
8793.698304377096
 21
9430.262299083919
 31
0.0
  0
LINE
  5
157B1
330
747D
100
AcDbEntity
  8
部品1
100
AcDbLine
 10
8793.698304377096
 20
9458.262299083934
 30
0.0
 11
8793.698304377096
 21
9430.262299083933
 31
0.0
  0
LINE
  5
157B2
330
747D
100
AcDbEntity
  8
部品1
100
AcDbLine
 10
8820.698304377096
 20
9403.262299083918
 30
0.0
 11
8848.698304377096
 21
9403.262299083918
 31
0.0
  0
LINE
  5
157B3
330
747D
100
AcDbEntity
  8
部品1
100
AcDbLine
 10
6993.698304377089
 20
5138.973660869243
 30
0.0
 11
7703.635856548408
 21
5138.973660869246
 31
0.0
  0
LINE
  5
157B4
330
747D
100
AcDbEntity
  8
部品1
100
AcDbLine
 10
6993.698304377089
 20
3347.973660869259
 30
0.0
 11
7703.635856548408
 21
3347.973660869264
 31
0.0
  0
LINE
  5
157B5
330
747D
100
AcDbEntity
  8
部品1
100
AcDbLine
 10
3148.698304377089
 20
5141.473660869245
 30
0.0
 11
8848.698304377089
 21
5141.473660869245
 31
0.0
  0
LINE
  5
157BC
330
747D
100
AcDbEntity
  8
部品1
100
AcDbLine
 10
3148.698304377089
 20
3301.473660869246
 30
0.0
 11
8848.698304377089
 21
3301.473660869246
 31
0.0
  0
LINE
  5
157BD
330
747D
100
AcDbEntity
  8
部品1
100
AcDbLine
 10
3148.698304377089
 20
3344.47366086925
 30
0.0
 11
8848.698304377089
 21
3344.473660869266
 31
0.0
  0
LINE
  5
157BE
330
747D
100
AcDbEntity
  8
部品1
100
AcDbLine
 10
6991.698304377088
 20
5141.473660869245
 30
0.0
 11
6991.698304377088
 21
3344.473660869266
 31
0.0
  0
LINE
  5
157BF
330
747D
100
AcDbEntity
  8
部品1
100
AcDbLine
 10
6993.698304377089
 20
5138.973660869246
 30
0.0
 11
6993.698304377089
 21
3347.973660869261
 31
0.0
  0
LINE
  5
157C0
330
747D
100
AcDbEntity
  8
部品1
100
AcDbLine
 10
3191.698304377089
 20
5141.473660869245
 30
0.0
 11
3191.698304377089
 21
3344.473660869266
 31
0.0
  0
LINE
  5
157C1
330
747D
100
AcDbEntity
  8
部品1
100
AcDbLine
 10
3148.698304377089
 20
5235.473660869249
 30
0.0
 11
3148.698304377089
 21
3201.473660869246
 31
0.0
  0
LINE
  5
157C2
330
747D
100
AcDbEntity
  8
部品1
100
AcDbLine
 10
3193.698304377089
 20
5138.97366086925
 30
0.0
 11
3193.698304377089
 21
3347.973660869251
 31
0.0
  0
LINE
  5
157C3
330
747D
100
AcDbEntity
  8
部品1
100
AcDbLine
 10
6773.698304377088
 20
5138.973660869246
 30
0.0
 11
6773.698304377089
 21
3347.973660869266
 31
0.0
  0
LINE
  5
157C4
330
747D
100
AcDbEntity
  8
部品1
100
AcDbLine
 10
6905.698304377088
 20
5141.473660869245
 30
0.0
 11
6905.698304377088
 21
3344.473660869266
 31
0.0
  0
DIMENSION
  5
157C5
330
747D
100
AcDbEntity
  8
寸法
100
AcDbDimension
  2
*D15
 10
2830.593776769486
 20
3362.973660869251
 30
0.0
 11
2830.593776769485
 21
4241.973660869247
 31
0.0
 70
   160
  1
有効開口部高サ<>
 71
     5
 42
1759.999999999996
  3
INABA_S40G
100
AcDbAlignedDimension
 13
3148.698304377089
 23
5122.973660869245
 33
0.0
 14
3148.698304377089
 24
3362.97366086925
 34
0.0
 50
90.0
100
AcDbRotatedDimension
1001
ACAD
1000
DSTYLE
1002
{
1070
   288
1070
     1
1002
}
  0
LINE
  5
157C6
330
747D
100
AcDbEntity
  8
部品1
100
AcDbLine
 10
6775.698304377089
 20
5141.473660869245
 30
0.0
 11
6775.698304377089
 21
3344.473660869266
 31
0.0
  0
LINE
  5
157C7
330
747D
100
AcDbEntity
  8
部品1
100
AcDbLine
 10
6043.698304377088
 20
3347.973660869251
 30
0.0
 11
6753.635856548408
 21
3347.973660869266
 31
0.0
  0
LINE
  5
157C9
330
747D
100
AcDbEntity
  8
部品1
100
AcDbLine
 10
6773.635856548408
 20
3347.973660869256
 30
0.0
 11
6773.698304377089
 21
3347.973660869256
 31
0.0
  0
LINE
  5
157CA
330
747D
100
AcDbEntity
  8
部品1
100
AcDbLine
 10
6773.635856548408
 20
3347.973660869266
 30
0.0
 11
6773.698304377089
 21
3347.973660869266
 31
0.0
  0
ARC
  5
157CB
330
747D
100
AcDbEntity
  8
細線
 48
0.2
100
AcDbCircle
 10
6770.635856548408
 20
3347.753151038016
 30
0.0
 40
1.0
100
AcDbArc
 50
286.6015495990217
 51
0.0
  0
LINE
  5
157CC
330
747D
100
AcDbEntity
  8
細線
 48
50.0
100
AcDbLine
 10
6769.623509400068
 20
3350.223660869266
 30
0.0
 11
6769.623509400068
 21
3352.223660869264
 31
0.0
  0
LINE
  5
157CD
330
747D
100
AcDbEntity
  8
細線
 48
0.1
100
AcDbLine
 10
6773.635856548408
 20
3347.723660869263
 30
0.0
 11
6773.635856548408
 21
3354.723660869264
 31
0.0
  0
LINE
  5
157CE
330
747D
100
AcDbEntity
  8
細線
 48
50.0
100
AcDbLine
 10
6753.635856548408
 20
3347.973660869266
 30
0.0
 11
6753.635856548408
 21
3347.723660869263
 31
0.0
  0
ARC
  5
157CF
330
747D
100
AcDbEntity
  8
細線
 48
0.2
100
AcDbCircle
 10
6760.635856548408
 20
3347.753151038016
 30
0.0
 40
1.0
100
AcDbArc
 50
179.9999999999984
 51
253.3984504009775
  0
LINE
  5
157D0
330
747D
100
AcDbEntity
  8
部品1
 48
50.0
100
AcDbLine
 10
6753.635856548408
 20
3354.723660869264
 30
0.0
 11
6753.635856548408
 21
3347.973660869266
 31
0.0
  0
LINE
  5
157D1
330
747D
100
AcDbEntity
  8
細線
 48
50.0
100
AcDbLine
 10
6761.773099354105
 20
3350.223660869266
 30
0.0
 11
6761.773099354105
 21
3352.223660869264
 31
0.0
  0
LINE
  5
157D2
330
747D
100
AcDbEntity
  8
部品1
 48
0.2
100
AcDbLine
 10
6773.635856548408
 20
3354.723660869264
 30
0.0
 11
6753.635856548408
 21
3354.723660869264
 31
0.0
  0
LINE
  5
157D3
330
747D
100
AcDbEntity
  8
細線
 48
0.2
100
AcDbLine
 10
6773.635856548408
 20
3352.223660869264
 30
0.0
 11
6753.635856548408
 21
3352.223660869264
 31
0.0
  0
LINE
  5
157D4
330
747D
100
AcDbEntity
  8
細線
 48
0.2
100
AcDbLine
 10
6771.319847844916
 20
3347.023660869263
 30
0.0
 11
6759.951865251903
 21
3347.023660869263
 31
0.0
  0
ARC
  5
157D5
330
747D
100
AcDbEntity
  8
細線
 48
0.2
100
AcDbCircle
 10
6765.635856548408
 20
3364.523660869262
 30
0.0
 40
18.49999999999796
100
AcDbArc
 50
253.3984504009772
 51
286.6015495990217
  0
LINE
  5
157D6
330
747D
100
AcDbEntity
  8
細線
 48
0.2
100
AcDbLine
 10
6773.635856548408
 20
3350.223660869264
 30
0.0
 11
6753.635856548408
 21
3350.223660869266
 31
0.0
  0
LINE
  5
157D7
330
747D
100
AcDbEntity
  8
細線
 48
0.2
100
AcDbLine
 10
6773.635856548408
 20
3347.723660869263
 30
0.0
 11
6753.635856548408
 21
3347.723660869263
 31
0.0
  0
LINE
  5
15828
330
747D
100
AcDbEntity
  8
部品1
100
AcDbLine
 10
6043.698304377088
 20
5138.973660869247
 30
0.0
 11
6753.635856548408
 21
5138.973660869247
 31
0.0
  0
LINE
  5
15829
330
747D
100
AcDbEntity
  8
部品1
100
AcDbLine
 10
6773.635856548408
 20
5138.973660869247
 30
0.0
 11
6773.698304377089
 21
5138.973660869246
 31
0.0
  0
ARC
  5
1582A
330
747D
100
AcDbEntity
  8
細線
 48
0.2
100
AcDbCircle
 10
6770.635856548408
 20
5139.194170700495
 30
0.0
 40
1.0
100
AcDbArc
 50
0.0
 51
73.39845040097829
  0
LINE
  5
1582B
330
747D
100
AcDbEntity
  8
細線
 48
50.0
100
AcDbLine
 10
6753.635856548408
 20
5138.973660869247
 30
0.0
 11
6753.635856548408
 21
5139.223660869248
 31
0.0
  0
ARC
  5
1582C
330
747D
100
AcDbEntity
  8
細線
 48
0.2
100
AcDbCircle
 10
6760.635856548408
 20
5139.194170700495
 30
0.0
 40
1.0
100
AcDbArc
 50
106.6015495990225
 51
180.0000000000016
  0
LINE
  5
1582D
330
747D
100
AcDbEntity
  8
細線
 48
0.2
100
AcDbLine
 10
6773.635856548408
 20
5139.223660869248
 30
0.0
 11
6753.635856548408
 21
5139.223660869248
 31
0.0
  0
LINE
  5
1582E
330
747D
100
AcDbEntity
  8
細線
 48
0.2
100
AcDbLine
 10
6773.635856548408
 20
5136.723660869247
 30
0.0
 11
6753.635856548408
 21
5136.723660869247
 31
0.0
  0
ARC
  5
1582F
330
747D
100
AcDbEntity
  8
細線
 48
0.2
100
AcDbCircle
 10
6765.635856548408
 20
5122.42366086925
 30
0.0
 40
18.49999999999796
100
AcDbArc
 50
73.39845040097829
 51
106.6015495990228
  0
LINE
  5
15830
330
747D
100
AcDbEntity
  8
細線
 48
0.2
100
AcDbLine
 10
6771.319847844916
 20
5139.923660869248
 30
0.0
 11
6759.951865251903
 21
5139.923660869248
 31
0.0
  0
LINE
  5
15831
330
747D
100
AcDbEntity
  8
細線
 48
0.2
100
AcDbLine
 10
6773.635856548408
 20
5134.723660869248
 30
0.0
 11
6753.635856548408
 21
5134.723660869248
 31
0.0
  0
LINE
  5
15832
330
747D
100
AcDbEntity
  8
部品1
 48
0.2
100
AcDbLine
 10
6773.635856548408
 20
5132.223660869247
 30
0.0
 11
6753.635856548408
 21
5132.223660869247
 31
0.0
  0
LINE
  5
15833
330
747D
100
AcDbEntity
  8
部品1
 48
50.0
100
AcDbLine
 10
6753.635856548408
 20
5132.223660869247
 30
0.0
 11
6753.635856548408
 21
5138.973660869247
 31
0.0
  0
LINE
  5
15834
330
747D
100
AcDbEntity
  8
細線
 48
50.0
100
AcDbLine
 10
6761.773099354105
 20
5136.723660869247
 30
0.0
 11
6761.773099354105
 21
5134.723660869248
 31
0.0
  0
LINE
  5
15835
330
747D
100
AcDbEntity
  8
細線
 48
0.1
100
AcDbLine
 10
6773.635856548408
 20
5139.223660869248
 30
0.0
 11
6773.635856548408
 21
5132.223660869247
 31
0.0
  0
LINE
  5
15836
330
747D
100
AcDbEntity
  8
細線
 48
50.0
100
AcDbLine
 10
6769.623509400068
 20
5136.723660869247
 30
0.0
 11
6769.623509400068
 21
5134.723660869248
 31
0.0
  0
LINE
  5
15851
330
747D
100
AcDbEntity
  8
部品1
100
AcDbLine
 10
7855.698304377089
 20
5141.473660869245
 30
0.0
 11
7855.698304377089
 21
3344.473660869266
 31
0.0
  0
LINE
  5
15852
330
747D
100
AcDbEntity
  8
部品1
100
AcDbLine
 10
7723.698304377089
 20
5138.973660869246
 30
0.0
 11
7723.698304377089
 21
3347.973660869268
 31
0.0
  0
LINE
  5
15853
330
747D
100
AcDbEntity
  8
部品1
100
AcDbLine
 10
7725.698304377089
 20
5141.473660869245
 30
0.0
 11
7725.698304377089
 21
3344.473660869266
 31
0.0
  0
LINE
  5
15854
330
747D
100
AcDbEntity
  8
部品1
100
AcDbLine
 10
7941.698304377088
 20
5141.473660869245
 30
0.0
 11
7941.698304377088
 21
3344.473660869266
 31
0.0
  0
LINE
  5
15855
330
747D
100
AcDbEntity
  8
部品1
100
AcDbLine
 10
7943.69830437709
 20
5138.973660869243
 30
0.0
 11
7943.69830437709
 21
3347.973660869261
 31
0.0
  0
LINE
  5
15856
330
747D
100
AcDbEntity
  8
部品1
100
AcDbLine
 10
8673.698304377088
 20
5138.973660869246
 30
0.0
 11
8673.698304377088
 21
3347.973660869268
 31
0.0
  0
LINE
  5
15857
330
747D
100
AcDbEntity
  8
部品1
100
AcDbLine
 10
8848.698304377089
 20
5235.473660869248
 30
0.0
 11
8848.698304377089
 21
3201.473660869246
 31
0.0
  0
LINE
  5
15858
330
747D
100
AcDbEntity
  8
部品1
100
AcDbLine
 10
8805.698304377088
 20
5141.473660869245
 30
0.0
 11
8805.698304377088
 21
3344.473660869266
 31
0.0
  0
LINE
  5
15859
330
747D
100
AcDbEntity
  8
部品1
100
AcDbLine
 10
8675.698304377089
 20
5141.473660869245
 30
0.0
 11
8675.698304377089
 21
3344.473660869266
 31
0.0
  0
LINE
  5
1585A
330
747D
100
AcDbEntity
  8
部品1
100
AcDbLine
 10
7943.69830437709
 20
3347.973660869259
 30
0.0
 11
8653.635856548408
 21
3347.973660869264
 31
0.0
  0
LINE
  5
1585C
330
747D
100
AcDbEntity
  8
細線
 48
0.2
100
AcDbLine
 10
7723.635856548408
 20
3352.223660869264
 30
0.0
 11
7703.635856548408
 21
3352.223660869264
 31
0.0
  0
LINE
  5
1585D
330
747D
100
AcDbEntity
  8
部品1
 48
0.2
100
AcDbLine
 10
7723.635856548408
 20
3354.723660869264
 30
0.0
 11
7703.635856548408
 21
3354.723660869264
 31
0.0
  0
LINE
  5
1585E
330
747D
100
AcDbEntity
  8
部品1
100
AcDbLine
 10
7723.635856548408
 20
3347.973660869266
 30
0.0
 11
7723.698304377089
 21
3347.973660869266
 31
0.0
  0
ARC
  5
1585F
330
747D
100
AcDbEntity
  8
細線
 48
0.2
100
AcDbCircle
 10
7720.635856548408
 20
3347.753151038016
 30
0.0
 40
1.0
100
AcDbArc
 50
286.6015495990217
 51
0.0
  0
LINE
  5
15860
330
747D
100
AcDbEntity
  8
細線
 48
0.2
100
AcDbLine
 10
7723.635856548408
 20
3347.723660869263
 30
0.0
 11
7703.635856548408
 21
3347.723660869263
 31
0.0
  0
LINE
  5
15861
330
747D
100
AcDbEntity
  8
細線
 48
0.2
100
AcDbLine
 10
7723.635856548408
 20
3350.223660869264
 30
0.0
 11
7703.635856548408
 21
3350.223660869266
 31
0.0
  0
ARC
  5
15862
330
747D
100
AcDbEntity
  8
細線
 48
0.2
100
AcDbCircle
 10
7710.635856548408
 20
3347.753151038016
 30
0.0
 40
1.0
100
AcDbArc
 50
179.9999999999984
 51
253.3984504009775
  0
ARC
  5
15863
330
747D
100
AcDbEntity
  8
細線
 48
0.2
100
AcDbCircle
 10
7715.635856548408
 20
3364.523660869262
 30
0.0
 40
18.49999999999796
100
AcDbArc
 50
253.3984504009772
 51
286.6015495990217
  0
LINE
  5
15864
330
747D
100
AcDbEntity
  8
細線
 48
0.2
100
AcDbLine
 10
7721.319847844916
 20
3347.023660869263
 30
0.0
 11
7709.951865251904
 21
3347.023660869263
 31
0.0
  0
LINE
  5
15865
330
747D
100
AcDbEntity
  8
細線
 48
50.0
100
AcDbLine
 10
7703.635856548408
 20
3347.973660869266
 30
0.0
 11
7703.635856548408
 21
3347.723660869263
 31
0.0
  0
LINE
  5
15866
330
747D
100
AcDbEntity
  8
部品1
100
AcDbLine
 10
7723.635856548408
 20
3347.973660869266
 30
0.0
 11
7723.698304377089
 21
3347.973660869266
 31
0.0
  0
LINE
  5
15867
330
747D
100
AcDbEntity
  8
部品1
100
AcDbLine
 10
7723.635856548408
 20
3347.973660869268
 30
0.0
 11
7723.698304377089
 21
3347.973660869268
 31
0.0
  0
LINE
  5
15868
330
747D
100
AcDbEntity
  8
細線
 48
0.1
100
AcDbLine
 10
7723.635856548408
 20
3347.723660869263
 30
0.0
 11
7723.635856548408
 21
3354.723660869264
 31
0.0
  0
LINE
  5
15869
330
747D
100
AcDbEntity
  8
細線
 48
50.0
100
AcDbLine
 10
7711.773099354104
 20
3350.223660869266
 30
0.0
 11
7711.773099354104
 21
3352.223660869264
 31
0.0
  0
LINE
  5
1586A
330
747D
100
AcDbEntity
  8
細線
 48
50.0
100
AcDbLine
 10
7719.623509400069
 20
3350.223660869266
 30
0.0
 11
7719.623509400069
 21
3352.223660869264
 31
0.0
  0
LINE
  5
1586B
330
747D
100
AcDbEntity
  8
部品1
 48
50.0
100
AcDbLine
 10
7703.635856548408
 20
3354.723660869264
 30
0.0
 11
7703.635856548408
 21
3347.973660869266
 31
0.0
  0
LINE
  5
1586F
330
747D
100
AcDbEntity
  8
細線
 48
0.2
100
AcDbLine
 10
8673.635856548408
 20
3352.223660869264
 30
0.0
 11
8653.635856548408
 21
3352.223660869264
 31
0.0
  0
LINE
  5
15870
330
747D
100
AcDbEntity
  8
部品1
 48
0.2
100
AcDbLine
 10
8673.635856548408
 20
3354.723660869264
 30
0.0
 11
8653.635856548408
 21
3354.723660869264
 31
0.0
  0
LINE
  5
15871
330
747D
100
AcDbEntity
  8
部品1
100
AcDbLine
 10
8673.635856548408
 20
3347.973660869266
 30
0.0
 11
8673.698304377088
 21
3347.973660869266
 31
0.0
  0
ARC
  5
15872
330
747D
100
AcDbEntity
  8
細線
 48
0.2
100
AcDbCircle
 10
8670.635856548408
 20
3347.753151038016
 30
0.0
 40
1.0
100
AcDbArc
 50
286.6015495990217
 51
0.0
  0
LINE
  5
15873
330
747D
100
AcDbEntity
  8
細線
 48
0.2
100
AcDbLine
 10
8673.635856548408
 20
3347.723660869263
 30
0.0
 11
8653.635856548408
 21
3347.723660869263
 31
0.0
  0
LINE
  5
15874
330
747D
100
AcDbEntity
  8
細線
 48
0.2
100
AcDbLine
 10
8673.635856548408
 20
3350.223660869264
 30
0.0
 11
8653.635856548408
 21
3350.223660869266
 31
0.0
  0
ARC
  5
15875
330
747D
100
AcDbEntity
  8
細線
 48
0.2
100
AcDbCircle
 10
8660.635856548408
 20
3347.753151038016
 30
0.0
 40
1.0
100
AcDbArc
 50
179.9999999999984
 51
253.3984504009775
  0
ARC
  5
15876
330
747D
100
AcDbEntity
  8
細線
 48
0.2
100
AcDbCircle
 10
8665.635856548409
 20
3364.523660869262
 30
0.0
 40
18.49999999999796
100
AcDbArc
 50
253.3984504009772
 51
286.6015495990217
  0
LINE
  5
15877
330
747D
100
AcDbEntity
  8
細線
 48
0.2
100
AcDbLine
 10
8671.319847844916
 20
3347.023660869263
 30
0.0
 11
8659.951865251903
 21
3347.023660869263
 31
0.0
  0
LINE
  5
15878
330
747D
100
AcDbEntity
  8
細線
 48
50.0
100
AcDbLine
 10
8653.635856548408
 20
3347.973660869266
 30
0.0
 11
8653.635856548408
 21
3347.723660869263
 31
0.0
  0
LINE
  5
15879
330
747D
100
AcDbEntity
  8
部品1
100
AcDbLine
 10
8673.635856548408
 20
3347.973660869266
 30
0.0
 11
8673.698304377088
 21
3347.973660869266
 31
0.0
  0
LINE
  5
1587A
330
747D
100
AcDbEntity
  8
部品1
100
AcDbLine
 10
8673.635856548408
 20
3347.973660869268
 30
0.0
 11
8673.698304377088
 21
3347.973660869268
 31
0.0
  0
LINE
  5
1587B
330
747D
100
AcDbEntity
  8
細線
 48
0.1
100
AcDbLine
 10
8673.635856548408
 20
3347.723660869263
 30
0.0
 11
8673.635856548408
 21
3354.723660869264
 31
0.0
  0
LINE
  5
1587C
330
747D
100
AcDbEntity
  8
細線
 48
50.0
100
AcDbLine
 10
8661.773099354105
 20
3350.223660869266
 30
0.0
 11
8661.773099354105
 21
3352.223660869264
 31
0.0
  0
LINE
  5
1587D
330
747D
100
AcDbEntity
  8
細線
 48
50.0
100
AcDbLine
 10
8669.623509400068
 20
3350.223660869266
 30
0.0
 11
8669.623509400068
 21
3352.223660869264
 31
0.0
  0
LINE
  5
1587E
330
747D
100
AcDbEntity
  8
部品1
 48
50.0
100
AcDbLine
 10
8653.635856548408
 20
3354.723660869264
 30
0.0
 11
8653.635856548408
 21
3347.973660869266
 31
0.0
  0
LINE
  5
1587F
330
747D
100
AcDbEntity
  8
部品1
100
AcDbLine
 10
7943.69830437709
 20
5138.973660869243
 30
0.0
 11
8653.635856548408
 21
5138.973660869246
 31
0.0
  0
LINE
  5
158A7
330
747D
100
AcDbEntity
  8
部品1
100
AcDbLine
 10
7723.635856548408
 20
5138.973660869243
 30
0.0
 11
7723.698304377089
 21
5138.973660869246
 31
0.0
  0
LINE
  5
158A8
330
747D
100
AcDbEntity
  8
部品1
100
AcDbLine
 10
7723.635856548408
 20
5138.973660869247
 30
0.0
 11
7723.698304377089
 21
5138.973660869246
 31
0.0
  0
LINE
  5
158A9
330
747D
100
AcDbEntity
  8
細線
 48
50.0
100
AcDbLine
 10
7703.635856548408
 20
5138.973660869247
 30
0.0
 11
7703.635856548408
 21
5139.223660869248
 31
0.0
  0
LINE
  5
158AA
330
747D
100
AcDbEntity
  8
細線
 48
0.2
100
AcDbLine
 10
7721.319847844916
 20
5139.923660869248
 30
0.0
 11
7709.951865251904
 21
5139.923660869248
 31
0.0
  0
ARC
  5
158AB
330
747D
100
AcDbEntity
  8
細線
 48
0.2
100
AcDbCircle
 10
7715.635856548408
 20
5122.42366086925
 30
0.0
 40
18.49999999999796
100
AcDbArc
 50
73.39845040097829
 51
106.6015495990228
  0
ARC
  5
158AC
330
747D
100
AcDbEntity
  8
細線
 48
0.2
100
AcDbCircle
 10
7710.635856548408
 20
5139.194170700495
 30
0.0
 40
1.0
100
AcDbArc
 50
106.6015495990225
 51
180.0000000000016
  0
LINE
  5
158AD
330
747D
100
AcDbEntity
  8
細線
 48
0.2
100
AcDbLine
 10
7723.635856548408
 20
5136.723660869247
 30
0.0
 11
7703.635856548408
 21
5136.723660869247
 31
0.0
  0
LINE
  5
158AE
330
747D
100
AcDbEntity
  8
細線
 48
0.2
100
AcDbLine
 10
7723.635856548408
 20
5139.223660869248
 30
0.0
 11
7703.635856548408
 21
5139.223660869248
 31
0.0
  0
ARC
  5
158AF
330
747D
100
AcDbEntity
  8
細線
 48
0.2
100
AcDbCircle
 10
7720.635856548408
 20
5139.194170700495
 30
0.0
 40
1.0
100
AcDbArc
 50
0.0
 51
73.39845040097829
  0
LINE
  5
158B0
330
747D
100
AcDbEntity
  8
部品1
 48
0.2
100
AcDbLine
 10
7723.635856548408
 20
5132.223660869247
 30
0.0
 11
7703.635856548408
 21
5132.223660869247
 31
0.0
  0
LINE
  5
158B1
330
747D
100
AcDbEntity
  8
細線
 48
0.2
100
AcDbLine
 10
7723.635856548408
 20
5134.723660869248
 30
0.0
 11
7703.635856548408
 21
5134.723660869248
 31
0.0
  0
LINE
  5
158B2
330
747D
100
AcDbEntity
  8
部品1
 48
50.0
100
AcDbLine
 10
7703.635856548408
 20
5132.223660869247
 30
0.0
 11
7703.635856548408
 21
5138.973660869247
 31
0.0
  0
LINE
  5
158B3
330
747D
100
AcDbEntity
  8
細線
 48
50.0
100
AcDbLine
 10
7719.623509400069
 20
5136.723660869247
 30
0.0
 11
7719.623509400069
 21
5134.723660869248
 31
0.0
  0
LINE
  5
158B4
330
747D
100
AcDbEntity
  8
細線
 48
50.0
100
AcDbLine
 10
7711.773099354104
 20
5136.723660869247
 30
0.0
 11
7711.773099354104
 21
5134.723660869248
 31
0.0
  0
LINE
  5
158B5
330
747D
100
AcDbEntity
  8
細線
 48
0.1
100
AcDbLine
 10
7723.635856548408
 20
5139.223660869248
 30
0.0
 11
7723.635856548408
 21
5132.223660869247
 31
0.0
  0
LINE
  5
158B6
330
747D
100
AcDbEntity
  8
部品1
100
AcDbLine
 10
8673.635856548408
 20
5138.973660869243
 30
0.0
 11
8673.698304377088
 21
5138.973660869246
 31
0.0
  0
LINE
  5
158B7
330
747D
100
AcDbEntity
  8
部品1
100
AcDbLine
 10
8673.635856548408
 20
5138.973660869247
 30
0.0
 11
8673.698304377088
 21
5138.973660869246
 31
0.0
  0
LINE
  5
158B8
330
747D
100
AcDbEntity
  8
細線
 48
50.0
100
AcDbLine
 10
8653.635856548408
 20
5138.973660869247
 30
0.0
 11
8653.635856548408
 21
5139.223660869248
 31
0.0
  0
LINE
  5
158B9
330
747D
100
AcDbEntity
  8
細線
 48
0.2
100
AcDbLine
 10
8671.319847844916
 20
5139.923660869248
 30
0.0
 11
8659.951865251903
 21
5139.923660869248
 31
0.0
  0
ARC
  5
158BA
330
747D
100
AcDbEntity
  8
細線
 48
0.2
100
AcDbCircle
 10
8665.635856548409
 20
5122.42366086925
 30
0.0
 40
18.49999999999796
100
AcDbArc
 50
73.39845040097829
 51
106.6015495990228
  0
ARC
  5
158BB
330
747D
100
AcDbEntity
  8
細線
 48
0.2
100
AcDbCircle
 10
8660.635856548408
 20
5139.194170700495
 30
0.0
 40
1.0
100
AcDbArc
 50
106.6015495990225
 51
180.0000000000016
  0
LINE
  5
158BC
330
747D
100
AcDbEntity
  8
細線
 48
0.2
100
AcDbLine
 10
8673.635856548408
 20
5136.723660869247
 30
0.0
 11
8653.635856548408
 21
5136.723660869247
 31
0.0
  0
LINE
  5
158BD
330
747D
100
AcDbEntity
  8
細線
 48
0.2
100
AcDbLine
 10
8673.635856548408
 20
5139.223660869248
 30
0.0
 11
8653.635856548408
 21
5139.223660869248
 31
0.0
  0
ARC
  5
158BE
330
747D
100
AcDbEntity
  8
細線
 48
0.2
100
AcDbCircle
 10
8670.635856548408
 20
5139.194170700495
 30
0.0
 40
1.0
100
AcDbArc
 50
0.0
 51
73.39845040097829
  0
LINE
  5
158BF
330
747D
100
AcDbEntity
  8
部品1
 48
0.2
100
AcDbLine
 10
8673.635856548408
 20
5132.223660869247
 30
0.0
 11
8653.635856548408
 21
5132.223660869247
 31
0.0
  0
LINE
  5
158C0
330
747D
100
AcDbEntity
  8
細線
 48
0.2
100
AcDbLine
 10
8673.635856548408
 20
5134.723660869248
 30
0.0
 11
8653.635856548408
 21
5134.723660869248
 31
0.0
  0
LINE
  5
158C1
330
747D
100
AcDbEntity
  8
部品1
 48
50.0
100
AcDbLine
 10
8653.635856548408
 20
5132.223660869247
 30
0.0
 11
8653.635856548408
 21
5138.973660869247
 31
0.0
  0
LINE
  5
158C2
330
747D
100
AcDbEntity
  8
細線
 48
50.0
100
AcDbLine
 10
8669.623509400068
 20
5136.723660869247
 30
0.0
 11
8669.623509400068
 21
5134.723660869248
 31
0.0
  0
LINE
  5
158C3
330
747D
100
AcDbEntity
  8
細線
 48
50.0
100
AcDbLine
 10
8661.773099354105
 20
5136.723660869247
 30
0.0
 11
8661.773099354105
 21
5134.723660869248
 31
0.0
  0
LINE
  5
158C4
330
747D
100
AcDbEntity
  8
細線
 48
0.1
100
AcDbLine
 10
8673.635856548408
 20
5139.223660869248
 30
0.0
 11
8673.635856548408
 21
5132.223660869247
 31
0.0
  0
LINE
  5
15B55
330
747D
100
AcDbEntity
  8
細線
 48
50.0
100
AcDbLine
 10
6353.698304377087
 20
8114.262299083883
 30
0.0
 11
6353.698304377087
 21
8088.262299083847
 31
0.0
  0
LINE
  5
15B56
330
747D
100
AcDbEntity
  8
細線
 48
50.0
100
AcDbLine
 10
6393.698304377087
 20
8114.262299083883
 30
0.0
 11
6393.698304377087
 21
8088.262299083847
 31
0.0
  0
LINE
  5
15B57
330
747D
100
AcDbEntity
  8
細線
 48
50.0
100
AcDbLine
 10
3317.698304377087
 20
8114.262299083895
 30
0.0
 11
3317.698304377087
 21
8088.262299083847
 31
0.0
  0
LINE
  5
15B58
330
747D
100
AcDbEntity
  8
細線
 48
50.0
100
AcDbLine
 10
6620.698304377087
 20
8114.262299084098
 30
0.0
 11
6620.698304377087
 21
8088.262299084062
 31
0.0
  0
LINE
  5
15B59
330
747D
100
AcDbEntity
  8
細線
 48
50.0
100
AcDbLine
 10
6580.698304377087
 20
8114.262299084098
 30
0.0
 11
6580.698304377087
 21
8088.262299084062
 31
0.0
  0
LINE
  5
15B5A
330
747D
100
AcDbEntity
  8
細線
 48
50.0
100
AcDbLine
 10
7117.698304377087
 20
8114.262299083895
 30
0.0
 11
7117.698304377087
 21
8088.262299083847
 31
0.0
  0
LINE
  5
15B5B
330
747D
100
AcDbEntity
  8
細線
 48
50.0
100
AcDbLine
 10
7343.698304377086
 20
8114.262299083883
 30
0.0
 11
7343.698304377086
 21
8088.262299083847
 31
0.0
  0
LINE
  5
15B5C
330
747D
100
AcDbEntity
  8
細線
 48
50.0
100
AcDbLine
 10
7303.698304377087
 20
8114.262299083883
 30
0.0
 11
7303.698304377087
 21
8088.262299083847
 31
0.0
  0
LINE
  5
15B5D
330
747D
100
AcDbEntity
  8
細線
 48
50.0
100
AcDbLine
 10
7530.698304377087
 20
8114.262299084098
 30
0.0
 11
7530.698304377087
 21
8088.262299084062
 31
0.0
  0
LINE
  5
15B5E
330
747D
100
AcDbEntity
  8
細線
 48
50.0
100
AcDbLine
 10
7570.698304377088
 20
8114.262299084098
 30
0.0
 11
7570.698304377088
 21
8088.262299084062
 31
0.0
  0
LINE
  5
15B5F
330
747D
100
AcDbEntity
  8
細線
 48
50.0
100
AcDbLine
 10
8067.698304377087
 20
8114.262299083895
 30
0.0
 11
8067.698304377087
 21
8088.262299083847
 31
0.0
  0
LINE
  5
15B60
330
747D
100
AcDbEntity
  8
細線
 48
50.0
100
AcDbLine
 10
8253.698304377087
 20
8114.262299083883
 30
0.0
 11
8253.698304377087
 21
8088.262299083847
 31
0.0
  0
LINE
  5
15B61
330
747D
100
AcDbEntity
  8
細線
 48
50.0
100
AcDbLine
 10
8293.698304377086
 20
8114.262299083883
 30
0.0
 11
8293.698304377086
 21
8088.262299083847
 31
0.0
  0
LINE
  5
15B62
330
747D
100
AcDbEntity
  8
細線
 48
50.0
100
AcDbLine
 10
8520.698304377088
 20
8114.262299084098
 30
0.0
 11
8520.698304377088
 21
8088.262299084062
 31
0.0
  0
LINE
  5
15B63
330
747D
100
AcDbEntity
  8
細線
 48
50.0
100
AcDbLine
 10
8480.698304377087
 20
8114.262299084098
 30
0.0
 11
8480.698304377087
 21
8088.262299084062
 31
0.0
  0
LINE
  5
15BA9
330
747D
100
AcDbEntity
  8
部品1
100
AcDbLine
 10
3265.698304377089
 20
4189.473660869245
 30
0.0
 11
3265.698304377089
 21
4297.473660869246
 31
0.0
  0
LINE
  5
15BAA
330
747D
100
AcDbEntity
  8
細線
100
AcDbLine
 10
3264.198304377089
 20
4190.473660869246
 30
0.0
 11
3264.198304377089
 21
4296.473660869245
 31
0.0
  0
LINE
  5
15BAB
330
747D
100
AcDbEntity
  8
細線
100
AcDbLine
 10
3259.698304377089
 20
4199.473660869245
 30
0.0
 11
3259.698304377089
 21
4287.473660869245
 31
0.0
  0
ARC
  5
15BAC
330
747D
100
AcDbEntity
  8
細線
100
AcDbCircle
 10
2945.095522469165
 20
4243.473660869245
 30
0.0
 40
294.0
100
AcDbArc
 50
351.900449161722
 51
8.099550838278029
  0
ARC
  5
15BAD
330
747D
100
AcDbEntity
  8
細線
100
AcDbCircle
 10
3507.698304377089
 20
4243.473660869245
 30
0.0
 40
294.0
100
AcDbArc
 50
171.212062677364
 51
188.7879373226359
  0
ARC
  5
15BAE
330
747D
100
AcDbEntity
  8
細線
100
AcDbCircle
 10
3507.698304377089
 20
4243.473660869245
 30
0.0
 40
298.5
100
AcDbArc
 50
169.578549027269
 51
190.4214509727309
  0
ARC
  5
15BAF
330
747D
100
AcDbEntity
  8
部品1
100
AcDbCircle
 10
3507.698304377089
 20
4243.473660869245
 30
0.0
 40
300.0
100
AcDbArc
 50
169.4161974034894
 51
190.5838025965105
  0
LINE
  5
15BB0
330
747D
100
AcDbEntity
  8
細線
100
AcDbLine
 10
3231.698304377089
 20
4293.473660869245
 30
0.0
 11
3231.698304377089
 21
4193.473660869245
 31
0.0
  0
LINE
  5
15BB1
330
747D
100
AcDbEntity
  8
細線
100
AcDbLine
 10
3249.905843555835
 20
4202.473660869245
 30
0.0
 11
3249.905843555835
 21
4284.473660869245
 31
0.0
  0
ARC
  5
15BB2
330
747D
100
AcDbEntity
  8
細線
100
AcDbCircle
 10
3253.698304377089
 20
4199.473660869245
 30
0.0
 40
6.0
100
AcDbArc
 50
270.0
 51
0.0
  0
LINE
  5
15BB3
330
747D
100
AcDbEntity
  8
細線
100
AcDbLine
 10
3223.079260741566
 20
4193.473660869245
 30
0.0
 11
3253.698304377089
 21
4193.473660869245
 31
0.0
  0
ARC
  5
15BB4
330
747D
100
AcDbEntity
  8
細線
100
AcDbCircle
 10
3243.905843555835
 20
4202.473660869245
 30
0.0
 40
6.0
100
AcDbArc
 50
270.0
 51
360.0
  0
LINE
  5
15BB5
330
747D
100
AcDbEntity
  8
細線
100
AcDbLine
 10
3231.698304377089
 20
4196.473660869245
 30
0.0
 11
3243.905843555835
 21
4196.473660869245
 31
0.0
  0
ARC
  5
15BB6
330
747D
100
AcDbEntity
  8
細線
100
AcDbCircle
 10
3233.192728286924
 20
4202.473660869245
 30
0.0
 40
3.0
100
AcDbArc
 50
270.0
 51
351.9004491617184
  0
LINE
  5
15BB7
330
747D
100
AcDbEntity
  8
細線
100
AcDbLine
 10
3231.698304377089
 20
4199.473660869245
 30
0.0
 11
3233.192728286924
 21
4199.473660869245
 31
0.0
  0
ARC
  5
15BB8
330
747D
100
AcDbEntity
  8
部品1
100
AcDbCircle
 10
3259.698304377089
 20
4189.473660869245
 30
0.0
 40
6.0
100
AcDbArc
 50
270.0
 51
0.0
  0
ARC
  5
15BB9
330
747D
100
AcDbEntity
  8
細線
100
AcDbCircle
 10
3258.698304377089
 20
4190.473660869246
 30
0.0
 40
5.5
100
AcDbArc
 50
270.0
 51
0.0
  0
ARC
  5
15BBA
330
747D
100
AcDbEntity
  8
細線
100
AcDbCircle
 10
3219.531685907843
 20
4190.473660869246
 30
0.0
 40
5.5
100
AcDbArc
 50
190.4214509727298
 51
269.9999999999997
  0
ARC
  5
15BBB
330
747D
100
AcDbEntity
  8
部品1
100
AcDbCircle
 10
3218.700034486074
 20
4189.473660869245
 30
0.0
 40
6.0
100
AcDbArc
 50
190.5838025965097
 51
270.0
  0
LINE
  5
15BBC
330
747D
100
AcDbEntity
  8
部品1
100
AcDbLine
 10
3218.700034486074
 20
4183.473660869245
 30
0.0
 11
3259.698304377089
 21
4183.473660869245
 31
0.0
  0
LINE
  5
15BBD
330
747D
100
AcDbEntity
  8
細線
100
AcDbLine
 10
3219.531685907843
 20
4184.973660869245
 30
0.0
 11
3258.698304377089
 21
4184.973660869245
 31
0.0
  0
LINE
  5
15BBE
330
747D
100
AcDbEntity
  8
細線
100
AcDbLine
 10
3231.698304377089
 20
4199.474168767808
 30
0.0
 11
3218.219599878266
 21
4199.474168767808
 31
0.0
  0
ARC
  5
15BBF
330
747D
100
AcDbEntity
  8
細線
100
AcDbCircle
 10
3223.079260741566
 20
4199.473660869245
 30
0.0
 40
6.0
100
AcDbArc
 50
188.7879373226349
 51
270.0
  0
CIRCLE
  5
15BC0
330
747D
100
AcDbEntity
  8
細線
 48
50.0
100
AcDbCircle
 10
3239.199169431582
 20
4343.973660869245
 30
0.0
 40
20.0
  0
CIRCLE
  5
15BC1
330
747D
100
AcDbEntity
  8
細線
 48
50.0
100
AcDbCircle
 10
3239.199169431582
 20
4343.973660869245
 30
0.0
 40
10.0
  0
ARC
  5
15BC2
330
747D
100
AcDbEntity
  8
細線
100
AcDbCircle
 10
3253.698304377089
 20
4287.473660869245
 30
0.0
 40
6.0
100
AcDbArc
 50
0.0
 51
90.0
  0
LINE
  5
15BC3
330
747D
100
AcDbEntity
  8
細線
100
AcDbLine
 10
3253.698304377089
 20
4293.473660869245
 30
0.0
 11
3223.079260741566
 21
4293.473660869245
 31
0.0
  0
ARC
  5
15BC4
330
747D
100
AcDbEntity
  8
細線
100
AcDbCircle
 10
3243.905843555835
 20
4284.473660869245
 30
0.0
 40
6.0
100
AcDbArc
 50
0.0
 51
90.0
  0
LINE
  5
15BC5
330
747D
100
AcDbEntity
  8
細線
100
AcDbLine
 10
3243.905843555835
 20
4290.473660869245
 30
0.0
 11
3231.698304377089
 21
4290.473660869245
 31
0.0
  0
ARC
  5
15BC6
330
747D
100
AcDbEntity
  8
細線
100
AcDbCircle
 10
3233.192728286922
 20
4284.473660869245
 30
0.0
 40
3.0
100
AcDbArc
 50
8.099550838277986
 51
90.0
  0
LINE
  5
15BC7
330
747D
100
AcDbEntity
  8
細線
100
AcDbLine
 10
3233.192728286922
 20
4287.473660869245
 30
0.0
 11
3231.698304377089
 21
4287.473660869245
 31
0.0
  0
ARC
  5
15BC8
330
747D
100
AcDbEntity
  8
部品1
100
AcDbCircle
 10
3259.698304377089
 20
4297.473660869246
 30
0.0
 40
6.0
100
AcDbArc
 50
0.0
 51
90.0
  0
ARC
  5
15BC9
330
747D
100
AcDbEntity
  8
細線
100
AcDbCircle
 10
3258.698304377089
 20
4296.473660869245
 30
0.0
 40
5.5
100
AcDbArc
 50
0.0
 51
90.0
  0
ARC
  5
15BCA
330
747D
100
AcDbEntity
  8
細線
100
AcDbCircle
 10
3219.531685907843
 20
4296.473660869245
 30
0.0
 40
5.5
100
AcDbArc
 50
89.99999999999969
 51
169.5785490272683
  0
ARC
  5
15BCB
330
747D
100
AcDbEntity
  8
部品1
100
AcDbCircle
 10
3218.700034486074
 20
4297.473660869246
 30
0.0
 40
6.0
100
AcDbArc
 50
90.0
 51
169.4161974034886
  0
LINE
  5
15BCC
330
747D
100
AcDbEntity
  8
部品1
100
AcDbLine
 10
3259.698304377089
 20
4303.473660869245
 30
0.0
 11
3218.700034486074
 21
4303.473660869245
 31
0.0
  0
LINE
  5
15BCD
330
747D
100
AcDbEntity
  8
細線
100
AcDbLine
 10
3258.698304377089
 20
4301.973660869245
 30
0.0
 11
3219.531685907843
 21
4301.973660869245
 31
0.0
  0
LINE
  5
15BCE
330
747D
100
AcDbEntity
  8
細線
100
AcDbLine
 10
3231.698304377089
 20
4287.473152970684
 30
0.0
 11
3218.934977161121
 21
4287.473152970684
 31
0.0
  0
ARC
  5
15BCF
330
747D
100
AcDbEntity
  8
細線
100
AcDbCircle
 10
3223.079260741566
 20
4287.473660869245
 30
0.0
 40
6.0
100
AcDbArc
 50
90.0
 51
171.2120626773636
  0
LINE
  5
15BD0
330
747D
100
AcDbEntity
  8
部品1
100
AcDbLine
 10
7065.69830437709
 20
4189.473660869245
 30
0.0
 11
7065.69830437709
 21
4297.473660869246
 31
0.0
  0
LINE
  5
15BD1
330
747D
100
AcDbEntity
  8
細線
100
AcDbLine
 10
7064.198304377089
 20
4190.473660869246
 30
0.0
 11
7064.198304377089
 21
4296.473660869245
 31
0.0
  0
LINE
  5
15BD2
330
747D
100
AcDbEntity
  8
細線
100
AcDbLine
 10
7059.698304377089
 20
4199.473660869245
 30
0.0
 11
7059.698304377089
 21
4287.473660869245
 31
0.0
  0
ARC
  5
15BD3
330
747D
100
AcDbEntity
  8
細線
100
AcDbCircle
 10
6745.095522469163
 20
4243.473660869245
 30
0.0
 40
294.0
100
AcDbArc
 50
351.900449161722
 51
8.099550838278029
  0
ARC
  5
15BD4
330
747D
100
AcDbEntity
  8
細線
100
AcDbCircle
 10
7307.69830437709
 20
4243.473660869245
 30
0.0
 40
294.0
100
AcDbArc
 50
171.212062677364
 51
188.7879373226359
  0
ARC
  5
15BD5
330
747D
100
AcDbEntity
  8
細線
100
AcDbCircle
 10
7307.69830437709
 20
4243.473660869245
 30
0.0
 40
298.5
100
AcDbArc
 50
169.578549027269
 51
190.4214509727309
  0
ARC
  5
15BD6
330
747D
100
AcDbEntity
  8
部品1
100
AcDbCircle
 10
7307.69830437709
 20
4243.473660869245
 30
0.0
 40
300.0
100
AcDbArc
 50
169.4161974034894
 51
190.5838025965105
  0
LINE
  5
15BD7
330
747D
100
AcDbEntity
  8
細線
100
AcDbLine
 10
7031.698304377089
 20
4293.473660869245
 30
0.0
 11
7031.698304377089
 21
4193.473660869245
 31
0.0
  0
LINE
  5
15BD8
330
747D
100
AcDbEntity
  8
細線
100
AcDbLine
 10
7049.905843555835
 20
4202.473660869245
 30
0.0
 11
7049.905843555835
 21
4284.473660869245
 31
0.0
  0
ARC
  5
15BD9
330
747D
100
AcDbEntity
  8
細線
100
AcDbCircle
 10
7019.531685907843
 20
4190.473660869246
 30
0.0
 40
5.5
100
AcDbArc
 50
190.4214509727298
 51
269.9999999999997
  0
ARC
  5
15BDA
330
747D
100
AcDbEntity
  8
部品1
100
AcDbCircle
 10
7018.700034486073
 20
4189.473660869245
 30
0.0
 40
6.0
100
AcDbArc
 50
190.5838025965097
 51
270.0
  0
ARC
  5
15BDB
330
747D
100
AcDbEntity
  8
細線
100
AcDbCircle
 10
7023.079260741567
 20
4199.473660869245
 30
0.0
 40
6.0
100
AcDbArc
 50
188.7879373226349
 51
270.0
  0
ARC
  5
15BDC
330
747D
100
AcDbEntity
  8
細線
100
AcDbCircle
 10
7053.698304377089
 20
4199.473660869245
 30
0.0
 40
6.0
100
AcDbArc
 50
270.0
 51
0.0
  0
LINE
  5
15BDD
330
747D
100
AcDbEntity
  8
細線
100
AcDbLine
 10
7023.079260741567
 20
4193.473660869245
 30
0.0
 11
7053.698304377089
 21
4193.473660869245
 31
0.0
  0
ARC
  5
15BDE
330
747D
100
AcDbEntity
  8
細線
100
AcDbCircle
 10
7043.905843555835
 20
4202.473660869245
 30
0.0
 40
6.0
100
AcDbArc
 50
270.0
 51
360.0
  0
LINE
  5
15BDF
330
747D
100
AcDbEntity
  8
細線
100
AcDbLine
 10
7031.698304377089
 20
4196.473660869245
 30
0.0
 11
7043.905843555835
 21
4196.473660869245
 31
0.0
  0
ARC
  5
15BE0
330
747D
100
AcDbEntity
  8
細線
100
AcDbCircle
 10
7033.192728286924
 20
4202.473660869245
 30
0.0
 40
3.0
100
AcDbArc
 50
270.0
 51
351.9004491617184
  0
LINE
  5
15BE1
330
747D
100
AcDbEntity
  8
細線
100
AcDbLine
 10
7031.698304377089
 20
4199.473660869245
 30
0.0
 11
7033.192728286924
 21
4199.473660869245
 31
0.0
  0
ARC
  5
15BE2
330
747D
100
AcDbEntity
  8
部品1
100
AcDbCircle
 10
7059.698304377089
 20
4189.473660869245
 30
0.0
 40
6.0
100
AcDbArc
 50
270.0
 51
0.0
  0
ARC
  5
15BE3
330
747D
100
AcDbEntity
  8
細線
100
AcDbCircle
 10
7058.698304377088
 20
4190.473660869246
 30
0.0
 40
5.5
100
AcDbArc
 50
270.0
 51
0.0
  0
LINE
  5
15BE4
330
747D
100
AcDbEntity
  8
部品1
100
AcDbLine
 10
7018.700034486073
 20
4183.473660869245
 30
0.0
 11
7059.698304377089
 21
4183.473660869245
 31
0.0
  0
LINE
  5
15BE5
330
747D
100
AcDbEntity
  8
細線
100
AcDbLine
 10
7019.531685907843
 20
4184.973660869245
 30
0.0
 11
7058.698304377088
 21
4184.973660869245
 31
0.0
  0
LINE
  5
15BE6
330
747D
100
AcDbEntity
  8
細線
100
AcDbLine
 10
7031.698304377089
 20
4199.474168767808
 30
0.0
 11
7018.219599878266
 21
4199.474168767808
 31
0.0
  0
ARC
  5
15BE7
330
747D
100
AcDbEntity
  8
細線
100
AcDbCircle
 10
7019.531685907843
 20
4296.473660869245
 30
0.0
 40
5.5
100
AcDbArc
 50
89.99999999999969
 51
169.5785490272683
  0
ARC
  5
15BE8
330
747D
100
AcDbEntity
  8
部品1
100
AcDbCircle
 10
7018.700034486073
 20
4297.473660869246
 30
0.0
 40
6.0
100
AcDbArc
 50
90.0
 51
169.4161974034886
  0
ARC
  5
15BE9
330
747D
100
AcDbEntity
  8
細線
100
AcDbCircle
 10
7023.079260741567
 20
4287.473660869245
 30
0.0
 40
6.0
100
AcDbArc
 50
90.0
 51
171.2120626773636
  0
CIRCLE
  5
15BEA
330
747D
100
AcDbEntity
  8
細線
 48
50.0
100
AcDbCircle
 10
7039.199169431582
 20
4343.973660869245
 30
0.0
 40
20.0
  0
CIRCLE
  5
15BEB
330
747D
100
AcDbEntity
  8
細線
 48
50.0
100
AcDbCircle
 10
7039.199169431582
 20
4343.973660869245
 30
0.0
 40
10.0
  0
ARC
  5
15BEC
330
747D
100
AcDbEntity
  8
細線
100
AcDbCircle
 10
7053.698304377089
 20
4287.473660869245
 30
0.0
 40
6.0
100
AcDbArc
 50
0.0
 51
90.0
  0
LINE
  5
15BED
330
747D
100
AcDbEntity
  8
細線
100
AcDbLine
 10
7053.698304377089
 20
4293.473660869245
 30
0.0
 11
7023.079260741567
 21
4293.473660869245
 31
0.0
  0
ARC
  5
15BEE
330
747D
100
AcDbEntity
  8
細線
100
AcDbCircle
 10
7043.905843555835
 20
4284.473660869245
 30
0.0
 40
6.0
100
AcDbArc
 50
0.0
 51
90.0
  0
LINE
  5
15BEF
330
747D
100
AcDbEntity
  8
細線
100
AcDbLine
 10
7043.905843555835
 20
4290.473660869245
 30
0.0
 11
7031.698304377089
 21
4290.473660869245
 31
0.0
  0
ARC
  5
15BF0
330
747D
100
AcDbEntity
  8
細線
100
AcDbCircle
 10
7033.192728286921
 20
4284.473660869245
 30
0.0
 40
3.0
100
AcDbArc
 50
8.099550838277986
 51
90.0
  0
LINE
  5
15BF1
330
747D
100
AcDbEntity
  8
細線
100
AcDbLine
 10
7033.192728286921
 20
4287.473660869245
 30
0.0
 11
7031.698304377089
 21
4287.473660869245
 31
0.0
  0
ARC
  5
15BF2
330
747D
100
AcDbEntity
  8
部品1
100
AcDbCircle
 10
7059.698304377089
 20
4297.473660869246
 30
0.0
 40
6.0
100
AcDbArc
 50
0.0
 51
90.0
  0
ARC
  5
15BF3
330
747D
100
AcDbEntity
  8
細線
100
AcDbCircle
 10
7058.698304377088
 20
4296.473660869245
 30
0.0
 40
5.5
100
AcDbArc
 50
0.0
 51
90.0
  0
LINE
  5
15BF4
330
747D
100
AcDbEntity
  8
部品1
100
AcDbLine
 10
7059.698304377089
 20
4303.473660869245
 30
0.0
 11
7018.700034486073
 21
4303.473660869245
 31
0.0
  0
LINE
  5
15BF5
330
747D
100
AcDbEntity
  8
細線
100
AcDbLine
 10
7058.698304377088
 20
4301.973660869245
 30
0.0
 11
7019.531685907843
 21
4301.973660869245
 31
0.0
  0
LINE
  5
15BF6
330
747D
100
AcDbEntity
  8
細線
100
AcDbLine
 10
7031.698304377089
 20
4287.473152970684
 30
0.0
 11
7018.934977161122
 21
4287.473152970684
 31
0.0
  0
LINE
  5
15BF7
330
747D
100
AcDbEntity
  8
細線
100
AcDbLine
 10
7999.905843555835
 20
4202.473660869245
 30
0.0
 11
7999.905843555835
 21
4284.473660869245
 31
0.0
  0
LINE
  5
15BF8
330
747D
100
AcDbEntity
  8
細線
100
AcDbLine
 10
7981.698304377089
 20
4293.473660869245
 30
0.0
 11
7981.698304377089
 21
4193.473660869245
 31
0.0
  0
ARC
  5
15BF9
330
747D
100
AcDbEntity
  8
部品1
100
AcDbCircle
 10
8257.69830437709
 20
4243.473660869245
 30
0.0
 40
300.0
100
AcDbArc
 50
169.4161974034894
 51
190.5838025965105
  0
ARC
  5
15BFA
330
747D
100
AcDbEntity
  8
細線
100
AcDbCircle
 10
8257.69830437709
 20
4243.473660869245
 30
0.0
 40
298.5
100
AcDbArc
 50
169.578549027269
 51
190.4214509727309
  0
ARC
  5
15BFB
330
747D
100
AcDbEntity
  8
細線
100
AcDbCircle
 10
8257.69830437709
 20
4243.473660869245
 30
0.0
 40
294.0
100
AcDbArc
 50
171.212062677364
 51
188.7879373226359
  0
ARC
  5
15BFC
330
747D
100
AcDbEntity
  8
細線
100
AcDbCircle
 10
7695.095522469164
 20
4243.473660869245
 30
0.0
 40
294.0
100
AcDbArc
 50
351.900449161722
 51
8.099550838278029
  0
LINE
  5
15BFD
330
747D
100
AcDbEntity
  8
細線
100
AcDbLine
 10
8009.698304377089
 20
4199.473660869245
 30
0.0
 11
8009.698304377089
 21
4287.473660869245
 31
0.0
  0
LINE
  5
15BFE
330
747D
100
AcDbEntity
  8
細線
100
AcDbLine
 10
8014.198304377089
 20
4190.473660869246
 30
0.0
 11
8014.198304377089
 21
4296.473660869245
 31
0.0
  0
LINE
  5
15BFF
330
747D
100
AcDbEntity
  8
部品1
100
AcDbLine
 10
8015.698304377089
 20
4189.473660869245
 30
0.0
 11
8015.698304377089
 21
4297.473660869246
 31
0.0
  0
LINE
  5
15C00
330
747D
100
AcDbEntity
  8
細線
100
AcDbLine
 10
7969.531685907843
 20
4184.973660869245
 30
0.0
 11
8008.698304377089
 21
4184.973660869245
 31
0.0
  0
LINE
  5
15C01
330
747D
100
AcDbEntity
  8
部品1
100
AcDbLine
 10
7968.700034486073
 20
4183.473660869245
 30
0.0
 11
8009.698304377089
 21
4183.473660869245
 31
0.0
  0
LINE
  5
15C02
330
747D
100
AcDbEntity
  8
細線
100
AcDbLine
 10
7973.079260741567
 20
4193.473660869245
 30
0.0
 11
8003.698304377088
 21
4193.473660869245
 31
0.0
  0
LINE
  5
15C03
330
747D
100
AcDbEntity
  8
細線
100
AcDbLine
 10
7981.698304377089
 20
4199.474168767808
 30
0.0
 11
7968.219599878266
 21
4199.474168767808
 31
0.0
  0
LINE
  5
15C04
330
747D
100
AcDbEntity
  8
細線
100
AcDbLine
 10
7981.698304377089
 20
4199.473660869245
 30
0.0
 11
7983.192728286924
 21
4199.473660869245
 31
0.0
  0
ARC
  5
15C05
330
747D
100
AcDbEntity
  8
細線
100
AcDbCircle
 10
7983.192728286924
 20
4202.473660869245
 30
0.0
 40
3.0
100
AcDbArc
 50
270.0
 51
351.9004491617184
  0
LINE
  5
15C06
330
747D
100
AcDbEntity
  8
細線
100
AcDbLine
 10
7981.698304377089
 20
4196.473660869245
 30
0.0
 11
7993.905843555835
 21
4196.473660869245
 31
0.0
  0
ARC
  5
15C07
330
747D
100
AcDbEntity
  8
細線
100
AcDbCircle
 10
7993.905843555835
 20
4202.473660869245
 30
0.0
 40
6.0
100
AcDbArc
 50
270.0
 51
360.0
  0
ARC
  5
15C08
330
747D
100
AcDbEntity
  8
細線
100
AcDbCircle
 10
7973.079260741567
 20
4199.473660869245
 30
0.0
 40
6.0
100
AcDbArc
 50
188.7879373226349
 51
270.0
  0
ARC
  5
15C09
330
747D
100
AcDbEntity
  8
部品1
100
AcDbCircle
 10
7968.700034486073
 20
4189.473660869245
 30
0.0
 40
6.0
100
AcDbArc
 50
190.5838025965097
 51
270.0
  0
ARC
  5
15C0A
330
747D
100
AcDbEntity
  8
細線
100
AcDbCircle
 10
7969.531685907843
 20
4190.473660869246
 30
0.0
 40
5.5
100
AcDbArc
 50
190.4214509727298
 51
269.9999999999997
  0
ARC
  5
15C0B
330
747D
100
AcDbEntity
  8
細線
100
AcDbCircle
 10
8008.698304377089
 20
4190.473660869246
 30
0.0
 40
5.5
100
AcDbArc
 50
270.0
 51
0.0
  0
ARC
  5
15C0C
330
747D
100
AcDbEntity
  8
部品1
100
AcDbCircle
 10
8009.698304377089
 20
4189.473660869245
 30
0.0
 40
6.0
100
AcDbArc
 50
270.0
 51
0.0
  0
ARC
  5
15C0D
330
747D
100
AcDbEntity
  8
細線
100
AcDbCircle
 10
8003.698304377088
 20
4199.473660869245
 30
0.0
 40
6.0
100
AcDbArc
 50
270.0
 51
0.0
  0
LINE
  5
15C0E
330
747D
100
AcDbEntity
  8
細線
100
AcDbLine
 10
8008.698304377089
 20
4301.973660869245
 30
0.0
 11
7969.531685907843
 21
4301.973660869245
 31
0.0
  0
LINE
  5
15C0F
330
747D
100
AcDbEntity
  8
部品1
100
AcDbLine
 10
8009.698304377089
 20
4303.473660869245
 30
0.0
 11
7968.700034486073
 21
4303.473660869245
 31
0.0
  0
LINE
  5
15C10
330
747D
100
AcDbEntity
  8
細線
100
AcDbLine
 10
8003.698304377088
 20
4293.473660869245
 30
0.0
 11
7973.079260741567
 21
4293.473660869245
 31
0.0
  0
CIRCLE
  5
15C11
330
747D
100
AcDbEntity
  8
細線
 48
50.0
100
AcDbCircle
 10
7989.199169431582
 20
4343.973660869245
 30
0.0
 40
20.0
  0
LINE
  5
15C12
330
747D
100
AcDbEntity
  8
細線
100
AcDbLine
 10
7981.698304377089
 20
4287.473152970684
 30
0.0
 11
7968.934977161122
 21
4287.473152970684
 31
0.0
  0
LINE
  5
15C13
330
747D
100
AcDbEntity
  8
細線
100
AcDbLine
 10
7983.192728286922
 20
4287.473660869245
 30
0.0
 11
7981.698304377089
 21
4287.473660869245
 31
0.0
  0
ARC
  5
15C14
330
747D
100
AcDbEntity
  8
細線
100
AcDbCircle
 10
7983.192728286922
 20
4284.473660869245
 30
0.0
 40
3.0
100
AcDbArc
 50
8.099550838277986
 51
90.0
  0
LINE
  5
15C15
330
747D
100
AcDbEntity
  8
細線
100
AcDbLine
 10
7993.905843555835
 20
4290.473660869245
 30
0.0
 11
7981.698304377089
 21
4290.473660869245
 31
0.0
  0
ARC
  5
15C16
330
747D
100
AcDbEntity
  8
細線
100
AcDbCircle
 10
7993.905843555835
 20
4284.473660869245
 30
0.0
 40
6.0
100
AcDbArc
 50
0.0
 51
90.0
  0
CIRCLE
  5
15C17
330
747D
100
AcDbEntity
  8
細線
 48
50.0
100
AcDbCircle
 10
7989.199169431582
 20
4343.973660869245
 30
0.0
 40
10.0
  0
ARC
  5
15C18
330
747D
100
AcDbEntity
  8
細線
100
AcDbCircle
 10
7973.079260741567
 20
4287.473660869245
 30
0.0
 40
6.0
100
AcDbArc
 50
90.0
 51
171.2120626773636
  0
ARC
  5
15C19
330
747D
100
AcDbEntity
  8
部品1
100
AcDbCircle
 10
7968.700034486073
 20
4297.473660869246
 30
0.0
 40
6.0
100
AcDbArc
 50
90.0
 51
169.4161974034886
  0
ARC
  5
15C1A
330
747D
100
AcDbEntity
  8
細線
100
AcDbCircle
 10
7969.531685907843
 20
4296.473660869245
 30
0.0
 40
5.5
100
AcDbArc
 50
89.99999999999969
 51
169.5785490272683
  0
ARC
  5
15C1B
330
747D
100
AcDbEntity
  8
細線
100
AcDbCircle
 10
8008.698304377089
 20
4296.473660869245
 30
0.0
 40
5.5
100
AcDbArc
 50
0.0
 51
90.0
  0
ARC
  5
15C1C
330
747D
100
AcDbEntity
  8
部品1
100
AcDbCircle
 10
8009.698304377089
 20
4297.473660869246
 30
0.0
 40
6.0
100
AcDbArc
 50
0.0
 51
90.0
  0
ARC
  5
15C1D
330
747D
100
AcDbEntity
  8
細線
100
AcDbCircle
 10
8003.698304377088
 20
4287.473660869245
 30
0.0
 40
6.0
100
AcDbArc
 50
0.0
 51
90.0
  0
DIMENSION
  5
15C33
330
747D
100
AcDbEntity
  8
寸法
 48
50.0
100
AcDbDimension
  2
*D16
 10
7688.698304377087
 20
7648.43863128874
 30
0.0
 11
7346.198304377089
 21
7648.43863128874
 31
0.0
 70
   160
 71
     5
 42
684.9999999999945
  3
INABA_S40G
100
AcDbAlignedDimension
 13
7003.698304377093
 23
8088.262299083817
 33
0.0
 14
7688.698304377087
 24
8088.262299083782
 34
0.0
100
AcDbRotatedDimension
  0
DIMENSION
  5
15C4B
330
747D
100
AcDbEntity
  8
寸法
 48
50.0
100
AcDbDimension
  2
*D17
 10
6738.698304377087
 20
7648.43863128874
 30
0.0
 11
6396.198304377089
 21
7648.43863128874
 31
0.0
 70
   160
 71
     5
 42
684.9999999999945
  3
INABA_S40G
100
AcDbAlignedDimension
 13
6053.698304377093
 23
8088.262299083817
 33
0.0
 14
6738.698304377087
 24
8088.262299083782
 34
0.0
100
AcDbRotatedDimension
  0
LINE
  5
15C83
330
747D
100
AcDbEntity
  8
部品1
100
AcDbLine
 10
6041.698304377089
 20
5141.473660869245
 30
0.0
 11
6041.698304377089
 21
3344.473660869266
 31
0.0
  0
LINE
  5
15C84
330
747D
100
AcDbEntity
  8
部品1
100
AcDbLine
 10
6043.698304377088
 20
5138.973660869246
 30
0.0
 11
6043.698304377088
 21
3347.973660869261
 31
0.0
  0
LINE
  5
15C85
330
747D
100
AcDbEntity
  8
部品1
100
AcDbLine
 10
5823.698304377087
 20
5138.973660869246
 30
0.0
 11
5823.698304377089
 21
3347.973660869266
 31
0.0
  0
LINE
  5
15C86
330
747D
100
AcDbEntity
  8
部品1
100
AcDbLine
 10
5955.698304377089
 20
5141.473660869245
 30
0.0
 11
5955.698304377089
 21
3344.473660869266
 31
0.0
  0
LINE
  5
15C87
330
747D
100
AcDbEntity
  8
部品1
100
AcDbLine
 10
5825.698304377088
 20
5141.473660869245
 30
0.0
 11
5825.698304377088
 21
3344.473660869266
 31
0.0
  0
LINE
  5
15C88
330
747D
100
AcDbEntity
  8
部品1
100
AcDbLine
 10
5093.698304377088
 20
3347.973660869251
 30
0.0
 11
5803.635856548408
 21
3347.973660869266
 31
0.0
  0
LINE
  5
15C89
330
747D
100
AcDbEntity
  8
細線
 48
50.0
100
AcDbLine
 10
5819.623509400067
 20
3350.223660869266
 30
0.0
 11
5819.623509400067
 21
3352.223660869264
 31
0.0
  0
LINE
  5
15C8A
330
747D
100
AcDbEntity
  8
細線
 48
0.1
100
AcDbLine
 10
5823.635856548408
 20
3347.723660869263
 30
0.0
 11
5823.635856548408
 21
3354.723660869264
 31
0.0
  0
LINE
  5
15C8B
330
747D
100
AcDbEntity
  8
部品1
 48
50.0
100
AcDbLine
 10
5803.635856548408
 20
3354.723660869264
 30
0.0
 11
5803.635856548408
 21
3347.973660869266
 31
0.0
  0
LINE
  5
15C8C
330
747D
100
AcDbEntity
  8
細線
 48
50.0
100
AcDbLine
 10
5811.773099354105
 20
3350.223660869266
 30
0.0
 11
5811.773099354105
 21
3352.223660869264
 31
0.0
  0
LINE
  5
15C8D
330
747D
100
AcDbEntity
  8
部品1
100
AcDbLine
 10
5823.635856548408
 20
3347.973660869256
 30
0.0
 11
5823.698304377089
 21
3347.973660869256
 31
0.0
  0
LINE
  5
15C8E
330
747D
100
AcDbEntity
  8
部品1
100
AcDbLine
 10
5823.635856548408
 20
3347.973660869266
 30
0.0
 11
5823.698304377089
 21
3347.973660869266
 31
0.0
  0
ARC
  5
15C8F
330
747D
100
AcDbEntity
  8
細線
 48
0.2
100
AcDbCircle
 10
5820.635856548408
 20
3347.753151038016
 30
0.0
 40
1.0
100
AcDbArc
 50
286.6015495990217
 51
0.0
  0
LINE
  5
15C90
330
747D
100
AcDbEntity
  8
細線
 48
50.0
100
AcDbLine
 10
5803.635856548408
 20
3347.973660869266
 30
0.0
 11
5803.635856548408
 21
3347.723660869263
 31
0.0
  0
ARC
  5
15C91
330
747D
100
AcDbEntity
  8
細線
 48
0.2
100
AcDbCircle
 10
5810.635856548408
 20
3347.753151038016
 30
0.0
 40
1.0
100
AcDbArc
 50
179.9999999999984
 51
253.3984504009775
  0
LINE
  5
15C92
330
747D
100
AcDbEntity
  8
細線
 48
0.2
100
AcDbLine
 10
5821.319847844915
 20
3347.023660869263
 30
0.0
 11
5809.951865251903
 21
3347.023660869263
 31
0.0
  0
ARC
  5
15C93
330
747D
100
AcDbEntity
  8
細線
 48
0.2
100
AcDbCircle
 10
5815.635856548408
 20
3364.523660869262
 30
0.0
 40
18.49999999999796
100
AcDbArc
 50
253.3984504009772
 51
286.6015495990217
  0
LINE
  5
15C94
330
747D
100
AcDbEntity
  8
細線
 48
0.2
100
AcDbLine
 10
5823.635856548408
 20
3350.223660869264
 30
0.0
 11
5803.635856548408
 21
3350.223660869266
 31
0.0
  0
LINE
  5
15C95
330
747D
100
AcDbEntity
  8
細線
 48
0.2
100
AcDbLine
 10
5823.635856548408
 20
3347.723660869263
 30
0.0
 11
5803.635856548408
 21
3347.723660869263
 31
0.0
  0
LINE
  5
15C96
330
747D
100
AcDbEntity
  8
部品1
 48
0.2
100
AcDbLine
 10
5823.635856548408
 20
3354.723660869264
 30
0.0
 11
5803.635856548408
 21
3354.723660869264
 31
0.0
  0
LINE
  5
15C97
330
747D
100
AcDbEntity
  8
細線
 48
0.2
100
AcDbLine
 10
5823.635856548408
 20
3352.223660869264
 30
0.0
 11
5803.635856548408
 21
3352.223660869264
 31
0.0
  0
LINE
  5
15C98
330
747D
100
AcDbEntity
  8
部品1
100
AcDbLine
 10
6115.698304377088
 20
4189.473660869245
 30
0.0
 11
6115.698304377088
 21
4297.473660869246
 31
0.0
  0
LINE
  5
15C99
330
747D
100
AcDbEntity
  8
細線
100
AcDbLine
 10
6114.198304377089
 20
4190.473660869246
 30
0.0
 11
6114.198304377089
 21
4296.473660869245
 31
0.0
  0
LINE
  5
15C9A
330
747D
100
AcDbEntity
  8
細線
100
AcDbLine
 10
6109.698304377089
 20
4199.473660869245
 30
0.0
 11
6109.698304377089
 21
4287.473660869245
 31
0.0
  0
ARC
  5
15C9B
330
747D
100
AcDbEntity
  8
細線
100
AcDbCircle
 10
5795.095522469164
 20
4243.473660869245
 30
0.0
 40
294.0
100
AcDbArc
 50
351.900449161722
 51
8.099550838278029
  0
ARC
  5
15C9C
330
747D
100
AcDbEntity
  8
細線
100
AcDbCircle
 10
6357.698304377088
 20
4243.473660869245
 30
0.0
 40
294.0
100
AcDbArc
 50
171.212062677364
 51
188.7879373226359
  0
ARC
  5
15C9D
330
747D
100
AcDbEntity
  8
細線
100
AcDbCircle
 10
6357.698304377088
 20
4243.473660869245
 30
0.0
 40
298.5
100
AcDbArc
 50
169.578549027269
 51
190.4214509727309
  0
ARC
  5
15C9E
330
747D
100
AcDbEntity
  8
部品1
100
AcDbCircle
 10
6357.698304377088
 20
4243.473660869245
 30
0.0
 40
300.0
100
AcDbArc
 50
169.4161974034894
 51
190.5838025965105
  0
LINE
  5
15C9F
330
747D
100
AcDbEntity
  8
細線
100
AcDbLine
 10
6081.698304377089
 20
4293.473660869245
 30
0.0
 11
6081.698304377089
 21
4193.473660869245
 31
0.0
  0
LINE
  5
15CA0
330
747D
100
AcDbEntity
  8
細線
100
AcDbLine
 10
6099.905843555834
 20
4202.473660869245
 30
0.0
 11
6099.905843555834
 21
4284.473660869245
 31
0.0
  0
ARC
  5
15CA1
330
747D
100
AcDbEntity
  8
細線
100
AcDbCircle
 10
6073.079260741566
 20
4199.473660869245
 30
0.0
 40
6.0
100
AcDbArc
 50
188.7879373226349
 51
270.0
  0
LINE
  5
15CA2
330
747D
100
AcDbEntity
  8
細線
100
AcDbLine
 10
6081.698304377089
 20
4199.474168767808
 30
0.0
 11
6068.219599878267
 21
4199.474168767808
 31
0.0
  0
LINE
  5
15CA3
330
747D
100
AcDbEntity
  8
部品1
100
AcDbLine
 10
6068.700034486074
 20
4183.473660869245
 30
0.0
 11
6109.698304377089
 21
4183.473660869245
 31
0.0
  0
LINE
  5
15CA4
330
747D
100
AcDbEntity
  8
細線
100
AcDbLine
 10
6069.531685907843
 20
4184.973660869245
 30
0.0
 11
6108.698304377089
 21
4184.973660869245
 31
0.0
  0
ARC
  5
15CA5
330
747D
100
AcDbEntity
  8
細線
100
AcDbCircle
 10
6069.531685907843
 20
4190.473660869246
 30
0.0
 40
5.5
100
AcDbArc
 50
190.4214509727298
 51
269.9999999999997
  0
ARC
  5
15CA6
330
747D
100
AcDbEntity
  8
部品1
100
AcDbCircle
 10
6068.700034486074
 20
4189.473660869245
 30
0.0
 40
6.0
100
AcDbArc
 50
190.5838025965097
 51
270.0
  0
ARC
  5
15CA7
330
747D
100
AcDbEntity
  8
細線
100
AcDbCircle
 10
6103.698304377089
 20
4199.473660869245
 30
0.0
 40
6.0
100
AcDbArc
 50
270.0
 51
0.0
  0
ARC
  5
15CA8
330
747D
100
AcDbEntity
  8
部品1
100
AcDbCircle
 10
6109.698304377089
 20
4189.473660869245
 30
0.0
 40
6.0
100
AcDbArc
 50
270.0
 51
0.0
  0
ARC
  5
15CA9
330
747D
100
AcDbEntity
  8
細線
100
AcDbCircle
 10
6108.698304377089
 20
4190.473660869246
 30
0.0
 40
5.5
100
AcDbArc
 50
270.0
 51
0.0
  0
ARC
  5
15CAA
330
747D
100
AcDbEntity
  8
細線
100
AcDbCircle
 10
6093.905843555834
 20
4202.473660869245
 30
0.0
 40
6.0
100
AcDbArc
 50
270.0
 51
360.0
  0
LINE
  5
15CAB
330
747D
100
AcDbEntity
  8
細線
100
AcDbLine
 10
6081.698304377089
 20
4196.473660869245
 30
0.0
 11
6093.905843555834
 21
4196.473660869245
 31
0.0
  0
ARC
  5
15CAC
330
747D
100
AcDbEntity
  8
細線
100
AcDbCircle
 10
6083.192728286924
 20
4202.473660869245
 30
0.0
 40
3.0
100
AcDbArc
 50
270.0
 51
351.9004491617184
  0
LINE
  5
15CAD
330
747D
100
AcDbEntity
  8
細線
100
AcDbLine
 10
6081.698304377089
 20
4199.473660869245
 30
0.0
 11
6083.192728286924
 21
4199.473660869245
 31
0.0
  0
LINE
  5
15CAE
330
747D
100
AcDbEntity
  8
細線
100
AcDbLine
 10
6073.079260741566
 20
4193.473660869245
 30
0.0
 11
6103.698304377089
 21
4193.473660869245
 31
0.0
  0
ARC
  5
15CAF
330
747D
100
AcDbEntity
  8
細線
100
AcDbCircle
 10
6073.079260741566
 20
4287.473660869245
 30
0.0
 40
6.0
100
AcDbArc
 50
90.0
 51
171.2120626773636
  0
LINE
  5
15CB0
330
747D
100
AcDbEntity
  8
細線
100
AcDbLine
 10
6081.698304377089
 20
4287.473152970684
 30
0.0
 11
6068.934977161121
 21
4287.473152970684
 31
0.0
  0
CIRCLE
  5
15CB1
330
747D
100
AcDbEntity
  8
細線
 48
50.0
100
AcDbCircle
 10
6089.199169431582
 20
4343.973660869245
 30
0.0
 40
20.0
  0
LINE
  5
15CB2
330
747D
100
AcDbEntity
  8
部品1
100
AcDbLine
 10
6109.698304377089
 20
4303.473660869245
 30
0.0
 11
6068.700034486074
 21
4303.473660869245
 31
0.0
  0
LINE
  5
15CB3
330
747D
100
AcDbEntity
  8
細線
100
AcDbLine
 10
6108.698304377089
 20
4301.973660869245
 30
0.0
 11
6069.531685907843
 21
4301.973660869245
 31
0.0
  0
ARC
  5
15CB4
330
747D
100
AcDbEntity
  8
細線
100
AcDbCircle
 10
6069.531685907843
 20
4296.473660869245
 30
0.0
 40
5.5
100
AcDbArc
 50
89.99999999999969
 51
169.5785490272683
  0
ARC
  5
15CB5
330
747D
100
AcDbEntity
  8
部品1
100
AcDbCircle
 10
6068.700034486074
 20
4297.473660869246
 30
0.0
 40
6.0
100
AcDbArc
 50
90.0
 51
169.4161974034886
  0
ARC
  5
15CB6
330
747D
100
AcDbEntity
  8
細線
100
AcDbCircle
 10
6103.698304377089
 20
4287.473660869245
 30
0.0
 40
6.0
100
AcDbArc
 50
0.0
 51
90.0
  0
ARC
  5
15CB7
330
747D
100
AcDbEntity
  8
部品1
100
AcDbCircle
 10
6109.698304377089
 20
4297.473660869246
 30
0.0
 40
6.0
100
AcDbArc
 50
0.0
 51
90.0
  0
ARC
  5
15CB8
330
747D
100
AcDbEntity
  8
細線
100
AcDbCircle
 10
6108.698304377089
 20
4296.473660869245
 30
0.0
 40
5.5
100
AcDbArc
 50
0.0
 51
90.0
  0
CIRCLE
  5
15CB9
330
747D
100
AcDbEntity
  8
細線
 48
50.0
100
AcDbCircle
 10
6089.199169431582
 20
4343.973660869245
 30
0.0
 40
10.0
  0
ARC
  5
15CBA
330
747D
100
AcDbEntity
  8
細線
100
AcDbCircle
 10
6093.905843555834
 20
4284.473660869245
 30
0.0
 40
6.0
100
AcDbArc
 50
0.0
 51
90.0
  0
LINE
  5
15CBB
330
747D
100
AcDbEntity
  8
細線
100
AcDbLine
 10
6093.905843555834
 20
4290.473660869245
 30
0.0
 11
6081.698304377089
 21
4290.473660869245
 31
0.0
  0
ARC
  5
15CBC
330
747D
100
AcDbEntity
  8
細線
100
AcDbCircle
 10
6083.192728286922
 20
4284.473660869245
 30
0.0
 40
3.0
100
AcDbArc
 50
8.099550838277986
 51
90.0
  0
LINE
  5
15CBD
330
747D
100
AcDbEntity
  8
細線
100
AcDbLine
 10
6083.192728286922
 20
4287.473660869245
 30
0.0
 11
6081.698304377089
 21
4287.473660869245
 31
0.0
  0
LINE
  5
15CBE
330
747D
100
AcDbEntity
  8
細線
100
AcDbLine
 10
6103.698304377089
 20
4293.473660869245
 30
0.0
 11
6073.079260741566
 21
4293.473660869245
 31
0.0
  0
LINE
  5
15CC5
330
747D
100
AcDbEntity
  8
部品1
100
AcDbLine
 10
5093.698304377088
 20
5138.973660869247
 30
0.0
 11
5803.635856548408
 21
5138.973660869247
 31
0.0
  0
LINE
  5
15CCD
330
747D
100
AcDbEntity
  8
部品1
100
AcDbLine
 10
5823.635856548408
 20
5138.973660869247
 30
0.0
 11
5823.698304377089
 21
5138.973660869246
 31
0.0
  0
ARC
  5
15CCE
330
747D
100
AcDbEntity
  8
細線
 48
0.2
100
AcDbCircle
 10
5820.635856548408
 20
5139.194170700495
 30
0.0
 40
1.0
100
AcDbArc
 50
0.0
 51
73.39845040097829
  0
LINE
  5
15CCF
330
747D
100
AcDbEntity
  8
細線
 48
50.0
100
AcDbLine
 10
5803.635856548408
 20
5138.973660869247
 30
0.0
 11
5803.635856548408
 21
5139.223660869248
 31
0.0
  0
ARC
  5
15CD0
330
747D
100
AcDbEntity
  8
細線
 48
0.2
100
AcDbCircle
 10
5810.635856548408
 20
5139.194170700495
 30
0.0
 40
1.0
100
AcDbArc
 50
106.6015495990225
 51
180.0000000000016
  0
LINE
  5
15CD1
330
747D
100
AcDbEntity
  8
細線
 48
0.2
100
AcDbLine
 10
5823.635856548408
 20
5139.223660869248
 30
0.0
 11
5803.635856548408
 21
5139.223660869248
 31
0.0
  0
LINE
  5
15CD2
330
747D
100
AcDbEntity
  8
細線
 48
0.2
100
AcDbLine
 10
5823.635856548408
 20
5136.723660869247
 30
0.0
 11
5803.635856548408
 21
5136.723660869247
 31
0.0
  0
ARC
  5
15CD3
330
747D
100
AcDbEntity
  8
細線
 48
0.2
100
AcDbCircle
 10
5815.635856548408
 20
5122.42366086925
 30
0.0
 40
18.49999999999796
100
AcDbArc
 50
73.39845040097829
 51
106.6015495990228
  0
LINE
  5
15CD4
330
747D
100
AcDbEntity
  8
細線
 48
0.2
100
AcDbLine
 10
5821.319847844915
 20
5139.923660869248
 30
0.0
 11
5809.951865251903
 21
5139.923660869248
 31
0.0
  0
LINE
  5
15CD5
330
747D
100
AcDbEntity
  8
細線
 48
0.2
100
AcDbLine
 10
5823.635856548408
 20
5134.723660869248
 30
0.0
 11
5803.635856548408
 21
5134.723660869248
 31
0.0
  0
LINE
  5
15CD6
330
747D
100
AcDbEntity
  8
部品1
 48
0.2
100
AcDbLine
 10
5823.635856548408
 20
5132.223660869247
 30
0.0
 11
5803.635856548408
 21
5132.223660869247
 31
0.0
  0
LINE
  5
15CD7
330
747D
100
AcDbEntity
  8
部品1
 48
50.0
100
AcDbLine
 10
5803.635856548408
 20
5132.223660869247
 30
0.0
 11
5803.635856548408
 21
5138.973660869247
 31
0.0
  0
LINE
  5
15CD8
330
747D
100
AcDbEntity
  8
細線
 48
50.0
100
AcDbLine
 10
5811.773099354105
 20
5136.723660869247
 30
0.0
 11
5811.773099354105
 21
5134.723660869248
 31
0.0
  0
LINE
  5
15CD9
330
747D
100
AcDbEntity
  8
細線
 48
0.1
100
AcDbLine
 10
5823.635856548408
 20
5139.223660869248
 30
0.0
 11
5823.635856548408
 21
5132.223660869247
 31
0.0
  0
LINE
  5
15CDA
330
747D
100
AcDbEntity
  8
細線
 48
50.0
100
AcDbLine
 10
5819.623509400067
 20
5136.723660869247
 30
0.0
 11
5819.623509400067
 21
5134.723660869248
 31
0.0
  0
LINE
  5
15CF2
330
747D
100
AcDbEntity
  8
細線
 48
50.0
100
AcDbLine
 10
4069.69831105469
 20
8978.762299083896
 30
0.0
 11
3177.69831105469
 21
9428.762299083796
 31
0.0
  0
LINE
  5
15CF3
330
747D
100
AcDbEntity
  8
細線
 48
50.0
100
AcDbLine
 10
4069.69831105469
 20
9428.762299083897
 30
0.0
 11
3177.69831105469
 21
8978.762299083795
 31
0.0
  0
LINE
  5
15CF4
330
747D
100
AcDbEntity
  8
部品1
 48
50.0
100
AcDbLine
 10
4098.698304377074
 20
8143.262299083861
 30
0.0
 11
4098.698304377074
 21
9403.262299083868
 31
0.0
  0
LINE
  5
15CF5
330
747D
100
AcDbEntity
  8
部品1
 48
50.0
100
AcDbLine
 10
4070.698304377073
 20
8143.262299083861
 30
0.0
 11
4070.69830437702
 21
9430.262299083869
 31
0.0
  0
LINE
  5
15CF6
330
747D
100
AcDbEntity
  8
部品1
 48
50.0
100
AcDbLine
 10
4126.698304377074
 20
8143.262299083861
 30
0.0
 11
4126.698304377019
 21
9458.262299083868
 31
0.0
  0
LINE
  5
15CF7
330
747D
100
AcDbEntity
  8
部品1
 48
50.0
100
AcDbLine
 10
4127.69831105469
 20
9428.762299083789
 30
0.0
 11
4127.69831105469
 21
8978.762299083795
 31
0.0
  0
LINE
  5
15CF8
330
747D
100
AcDbEntity
  8
部品1
 48
50.0
100
AcDbLine
 10
4069.69831105469
 20
9428.762299083897
 30
0.0
 11
4069.69831105469
 21
8978.762299083896
 31
0.0
  0
ARC
  5
15CF9
330
747D
100
AcDbEntity
  8
想像線
 48
10.0
100
AcDbCircle
 10
3916.346253699929
 20
8089.957192459429
 30
0.0
 40
722.6499369155575
100
AcDbArc
 50
180.1343808685506
 51
270.5829222700354
  0
LINE
  5
15CFA
330
747D
100
AcDbEntity
  8
想像線
 48
10.0
100
AcDbLine
 10
3923.698304377087
 20
8088.262299083861
 30
0.0
 11
3923.698304377087
 21
7367.344655428071
 31
0.0
  0
LINE
  5
15CFB
330
747D
100
AcDbEntity
  8
部品1
 48
50.0
100
AcDbLine
 10
3623.198304377082
 20
8978.762299083847
 30
0.0
 11
3623.198141504978
 21
8219.761466920649
 31
0.0
  0
LINE
  5
15CFC
330
747D
100
AcDbEntity
  8
部品1
 48
50.0
100
AcDbLine
 10
4154.198298032786
 20
8219.762299108527
 30
0.0
 11
4154.19830100565
 21
8978.762299083868
 31
0.0
  0
LINE
  5
15CFD
330
747D
100
AcDbEntity
  8
破線
 48
10.0
100
AcDbLine
 10
4177.698304377082
 20
8243.262299083875
 30
0.0
 11
4177.698295207975
 21
8785.762288165949
 31
0.0
  0
LINE
  5
15CFE
330
747D
100
AcDbEntity
  8
部品1
 48
50.0
100
AcDbLine
 10
4043.198304377073
 20
8219.762299083868
 30
0.0
 11
4043.198304377049
 21
8978.762299083927
 31
0.0
  0
LINE
  5
15CFF
330
747D
100
AcDbEntity
  8
破線
 48
10.0
100
AcDbLine
 10
4019.698304377081
 20
8243.262299083868
 30
0.0
 11
4019.698298214818
 21
8785.762294687797
 31
0.0
  0
LINE
  5
15D00
330
747D
100
AcDbEntity
  8
部品1
 48
5.0
100
AcDbLine
 10
3191.698304377089
 20
8117.762299083745
 30
0.0
 11
4074.698304377089
 21
8117.762299083803
 31
0.0
  0
LINE
  5
15D02
330
747D
100
AcDbEntity
  8
部品1
100
AcDbLine
 10
3923.698304377087
 20
8114.262299083875
 30
0.0
 11
3193.698304377089
 21
8114.262299083845
 31
0.0
  0
LINE
  5
15D03
330
747D
100
AcDbEntity
  8
部品1
100
AcDbLine
 10
4043.198874825251
 20
8219.761718263905
 30
0.0
 11
3205.199275803483
 21
8219.761216775379
 31
0.0
  0
LINE
  5
15D04
330
747D
100
AcDbEntity
  8
破線
 48
10.0
100
AcDbLine
 10
4019.698304377081
 20
8243.262299083847
 30
0.0
 11
3228.698304377082
 21
8243.262299083832
 31
0.0
  0
DIMENSION
  5
15D05
330
747D
100
AcDbEntity
  8
寸法
 48
50.0
100
AcDbDimension
  2
*D20
 10
3888.698304377087
 20
7648.43863128874
 30
0.0
 11
3546.198304377089
 21
7648.43863128874
 31
0.0
 70
   160
 71
     5
 42
684.9999999999945
  3
INABA_S40G
100
AcDbAlignedDimension
 13
3203.698304377093
 23
8088.262299083817
 33
0.0
 14
3888.698304377087
 24
8088.262299083782
 34
0.0
100
AcDbRotatedDimension
  0
LINE
  5
15D06
330
747D
100
AcDbEntity
  8
細線
 48
50.0
100
AcDbLine
 10
3503.698304377087
 20
8114.262299083883
 30
0.0
 11
3503.698304377087
 21
8088.262299083847
 31
0.0
  0
LINE
  5
15D07
330
747D
100
AcDbEntity
  8
細線
 48
50.0
100
AcDbLine
 10
3543.698304377087
 20
8114.262299083883
 30
0.0
 11
3543.698304377087
 21
8088.262299083847
 31
0.0
  0
LINE
  5
15D08
330
747D
100
AcDbEntity
  8
細線
 48
50.0
100
AcDbLine
 10
3770.698304377087
 20
8114.262299084098
 30
0.0
 11
3770.698304377087
 21
8088.262299084062
 31
0.0
  0
LINE
  5
15D09
330
747D
100
AcDbEntity
  8
細線
 48
50.0
100
AcDbLine
 10
3730.698304377087
 20
8114.262299084098
 30
0.0
 11
3730.698304377087
 21
8088.262299084062
 31
0.0
  0
LINE
  5
15D0A
330
747D
100
AcDbEntity
  8
部品1
 48
5.0
100
AcDbLine
 10
3925.698304377089
 20
8117.762299083862
 30
0.0
 11
3925.698304377089
 21
8088.262299083861
 31
0.0
  0
LINE
  5
15D0B
330
747D
100
AcDbEntity
  8
部品1
 48
0.2
100
AcDbLine
 10
3910.760752205766
 20
8081.259929039083
 30
0.0
 11
3915.760752205766
 21
8081.259929039083
 31
0.0
  0
ARC
  5
15D0C
330
747D
100
AcDbEntity
  8
細線
 48
0.2
100
AcDbCircle
 10
3915.760752205766
 20
8089.259929039084
 30
0.0
 40
4.049999999999999
100
AcDbArc
 50
194.2603506853988
 51
345.7396493146012
  0
ARC
  5
15D0D
330
747D
100
AcDbEntity
  8
部品1
 48
0.2
100
AcDbCircle
 10
3910.760752205766
 20
8089.259929039084
 30
0.0
 40
8.0
100
AcDbArc
 50
187.1636477221926
 51
269.9999999999992
  0
ARC
  5
15D0E
330
747D
100
AcDbEntity
  8
部品1
 48
0.2
100
AcDbCircle
 10
3915.760752205766
 20
8089.259929039084
 30
0.0
 40
8.0
100
AcDbArc
 50
270.0
 51
352.8363522778074
  0
LINE
  5
15D0F
330
747D
100
AcDbEntity
  8
部品1
100
AcDbLine
 10
3923.698304377087
 20
8114.262299083911
 30
0.0
 11
3923.698304377087
 21
8088.262299083854
 31
0.0
  0
LINE
  5
15D10
330
747D
100
AcDbEntity
  8
部品1
 48
5.0
100
AcDbLine
 10
4153.698304377089
 20
8143.262299083861
 30
0.0
 11
4153.69830437709
 21
8117.762299083862
 31
0.0
  0
LINE
  5
15D11
330
747D
100
AcDbEntity
  8
部品1
 48
5.0
100
AcDbLine
 10
4043.698304377088
 20
8143.262299083861
 30
0.0
 11
4043.69830437709
 21
8117.762299083862
 31
0.0
  0
LINE
  5
15D12
330
747D
100
AcDbEntity
  8
部品1
 48
5.0
100
AcDbLine
 10
4074.698304377089
 20
8143.262299083861
 30
0.0
 11
4074.698304377089
 21
8117.762299083862
 31
0.0
  0
LINE
  5
15D13
330
747D
100
AcDbEntity
  8
部品1
 48
5.0
100
AcDbLine
 10
4122.698304377091
 20
8143.262299083861
 30
0.0
 11
4122.698304377088
 21
8117.762299083862
 31
0.0
  0
LINE
  5
15D14
330
747D
100
AcDbEntity
  8
部品1
 48
5.0
100
AcDbLine
 10
4141.698304377089
 20
8117.762299083862
 30
0.0
 11
4141.698304377089
 21
8088.262299083861
 31
0.0
  0
LINE
  5
15D15
330
747D
100
AcDbEntity
  8
部品1
100
AcDbLine
 10
4141.698304377089
 20
8117.76229908381
 30
0.0
 11
4141.698304377089
 21
8088.262299083861
 31
0.0
  0
LINE
  5
15D16
330
747D
100
AcDbEntity
  8
部品1
100
AcDbLine
 10
4143.698304377088
 20
8114.262299083883
 30
0.0
 11
4143.698304377088
 21
8088.262299083847
 31
0.0
  0
LINE
  5
15D17
330
747D
100
AcDbEntity
  8
部品1
 48
5.0
100
AcDbLine
 10
4055.698304377089
 20
8117.762299083862
 30
0.0
 11
4055.698304377089
 21
8088.262299083861
 31
0.0
  0
LINE
  5
15D18
330
747D
100
AcDbEntity
  8
部品1
100
AcDbLine
 10
4055.698304377087
 20
8117.762299083803
 30
0.0
 11
4055.698304377084
 21
8088.262299083854
 31
0.0
  0
LINE
  5
15D1A
330
747D
100
AcDbEntity
  8
部品1
 48
5.0
100
AcDbLine
 10
4070.698304377073
 20
8143.262299083861
 30
0.0
 11
4126.698304377074
 21
8143.262299083861
 31
0.0
  0
LINE
  5
15D1B
330
747D
100
AcDbEntity
  8
部品1
 48
50.0
100
AcDbLine
 10
4154.198304377071
 20
8219.762299108534
 30
0.0
 11
4126.698304377074
 21
8191.76229908386
 31
0.0
  0
LINE
  5
15D1C
330
747D
100
AcDbEntity
  8
部品1
 48
5.0
100
AcDbLine
 10
4130.698304377089
 20
8143.262299083861
 30
0.0
 11
4153.698304377089
 21
8143.262299083861
 31
0.0
  0
LINE
  5
15D1D
330
747D
100
AcDbEntity
  8
部品1
 48
5.0
100
AcDbLine
 10
4066.698304377089
 20
8143.262299083861
 30
0.0
 11
4043.698304377088
 21
8143.262299083861
 31
0.0
  0
LINE
  5
15D1E
330
747D
100
AcDbEntity
  8
部品1
 48
50.0
100
AcDbLine
 10
4070.698304377073
 20
8191.76229908386
 30
0.0
 11
4043.198304377073
 21
8219.762299083868
 31
0.0
  0
LINE
  5
15D1F
330
747D
100
AcDbEntity
  8
細線
 48
50.0
100
AcDbLine
 10
6167.698304377086
 20
8114.262299083895
 30
0.0
 11
6167.698304377086
 21
8088.262299083847
 31
0.0
  0
LINE
  5
15D20
330
747D
100
AcDbEntity
  8
部品1
100
AcDbLine
 10
3177.69831105469
 20
8978.762299083795
 30
0.0
 11
4069.69831105469
 21
8978.762299083896
 31
0.0
  0
LINE
  5
15D21
330
747D
100
AcDbEntity
  8
部品1
 48
5.0
100
AcDbLine
 10
4098.698304377074
 20
8563.262299083861
 30
0.0
 11
4070.698304377021
 21
8563.262299083868
 31
0.0
  0
LINE
  5
15D22
330
747D
100
AcDbEntity
  8
部品1
 48
50.0
100
AcDbLine
 10
4098.698304377065
 20
9021.262299083868
 30
0.0
 11
4126.698304377049
 21
9021.262299083868
 31
0.0
  0
LINE
  5
15D23
330
747D
100
AcDbEntity
  8
部品1
 48
50.0
100
AcDbLine
 10
4098.698304377065
 20
8983.262299083868
 30
0.0
 11
4126.698304377049
 21
8983.262299083868
 31
0.0
  0
LINE
  5
15D24
330
747D
100
AcDbEntity
  8
部品1
 48
5.0
100
AcDbLine
 10
4098.698304377074
 20
8983.262299083861
 30
0.0
 11
4070.698304377021
 21
8983.262299083868
 31
0.0
  0
DIMENSION
  5
15D25
330
747D
100
AcDbEntity
  8
寸法
100
AcDbDimension
  2
*D19
 10
4043.698304377092
 20
9674.070518708923
 30
0.0
 11
3623.698304377093
 21
9674.070518708923
 31
0.0
 70
   160
  1
2X420=<>
 71
     5
 42
839.9999999999982
  3
INABA_S40G
100
AcDbAlignedDimension
 13
3203.698304377095
 23
9458.262299083854
 33
0.0
 14
4043.698304377092
 24
9458.262299083941
 34
0.0
100
AcDbRotatedDimension
1001
ACAD
1000
DSTYLE
1002
{
1002
}
  0
LINE
  5
15D26
330
747D
100
AcDbEntity
  8
部品1
100
AcDbLine
 10
3177.69831105469
 20
9428.762299083796
 30
0.0
 11
4069.69831105469
 21
9428.762299083905
 31
0.0
  0
LINE
  5
15D27
330
747D
100
AcDbEntity
  8
部品1
100
AcDbLine
 10
3176.698304377094
 20
9430.262299083825
 30
0.0
 11
4096.079007395718
 21
9430.262299083846
 31
0.0
  0
LINE
  5
15D28
330
747D
100
AcDbEntity
  8
部品1
100
AcDbLine
 10
3623.198304377025
 20
9458.262299083781
 30
0.0
 11
3623.198304377027
 21
9430.26229908378
 31
0.0
  0
LINE
  5
15D29
330
747D
100
AcDbEntity
  8
部品1
100
AcDbLine
 10
3623.19830437706
 20
9458.262299083818
 30
0.0
 11
3623.19830437706
 21
9430.262299083818
 31
0.0
  0
DIMENSION
  5
15D2A
330
747D
100
AcDbEntity
  8
寸法
 48
50.0
100
AcDbDimension
  2
*D18
 10
4153.698304377096
 20
9674.070518708923
 30
0.0
 11
4098.698304377093
 21
9928.348840080071
 31
0.0
 70
   160
 71
     5
 42
110.0000000000036
  3
INABA_S40G
100
AcDbAlignedDimension
 13
4043.698304377092
 23
9458.262299083941
 33
0.0
 14
4153.698304377096
 24
9458.262299083919
 34
0.0
100
AcDbRotatedDimension
1001
ACAD
1000
DSTYLE
1002
{
1070
   279
1070
     2
1002
}
  0
LINE
  5
15D2B
330
747D
100
AcDbEntity
  8
部品1
 48
50.0
100
AcDbLine
 10
4128.198311054682
 20
9428.762299083796
 30
0.0
 11
4126.69830437706
 21
9430.262299083789
 31
0.0
  0
LINE
  5
15D2C
330
747D
100
AcDbEntity
  8
部品1
 48
50.0
100
AcDbLine
 10
4069.25091186511
 20
9428.762299083905
 30
0.0
 11
4070.698304376986
 21
9430.262299083832
 31
0.0
  0
LINE
  5
15D2D
330
747D
100
AcDbEntity
  8
部品1
 48
5.0
100
AcDbLine
 10
4153.698304377096
 20
9458.262299083868
 30
0.0
 11
4153.698304377092
 21
9430.262299083876
 31
0.0
  0
LINE
  5
15D2E
330
747D
100
AcDbEntity
  8
部品1
 48
5.0
100
AcDbLine
 10
4126.698304377023
 20
9403.262299083868
 30
0.0
 11
4070.698304377021
 21
9403.262299083868
 31
0.0
  0
LINE
  5
15D2F
330
747D
100
AcDbEntity
  8
部品1
 48
5.0
100
AcDbLine
 10
4073.407578824268
 20
9458.262299083868
 30
0.0
 11
4096.079007395696
 21
9430.262299083869
 31
0.0
  0
LINE
  5
15D30
330
747D
100
AcDbEntity
  8
部品1
 48
5.0
100
AcDbLine
 10
4043.698304377092
 20
9430.262299083869
 30
0.0
 11
4043.698304377092
 21
9458.262299083868
 31
0.0
  0
LINE
  5
15D83
330
747D
100
AcDbEntity
  8
細線
 48
50.0
100
AcDbLine
 10
5998.698304377089
 20
5235.473660869248
 30
0.0
 11
5998.698304377089
 21
5141.473660869245
 31
0.0
  0
LINE
  5
15D93
330
747D
100
AcDbEntity
  8
細線
 48
50.0
100
AcDbLine
 10
5988.69830437709
 20
5235.473660869249
 30
0.0
 11
5988.69830437709
 21
5376.473660869251
 31
0.0
  0
LINE
  5
15D96
330
747D
100
AcDbEntity
  8
部品1
 48
50.0
100
AcDbLine
 10
5998.698304377089
 20
3344.47366086925
 30
0.0
 11
5998.698304377089
 21
3301.473660869247
 31
0.0
  0
LINE
  5
15DCC
330
747D
100
AcDbEntity
  8
部品1
100
AcDbLine
 10
4875.698304377088
 20
5141.473660869245
 30
0.0
 11
4875.698304377088
 21
3344.473660869266
 31
0.0
  0
LINE
  5
15DCD
330
747D
100
AcDbEntity
  8
部品1
100
AcDbLine
 10
5005.698304377089
 20
5141.473660869245
 30
0.0
 11
5005.698304377089
 21
3344.473660869266
 31
0.0
  0
LINE
  5
15DCE
330
747D
100
AcDbEntity
  8
部品1
100
AcDbLine
 10
4873.698304377087
 20
5138.973660869246
 30
0.0
 11
4873.698304377089
 21
3347.973660869266
 31
0.0
  0
LINE
  5
15DCF
330
747D
100
AcDbEntity
  8
部品1
100
AcDbLine
 10
5093.698304377088
 20
5138.973660869246
 30
0.0
 11
5093.698304377088
 21
3347.973660869261
 31
0.0
  0
LINE
  5
15DD0
330
747D
100
AcDbEntity
  8
部品1
100
AcDbLine
 10
5091.698304377089
 20
5141.473660869245
 30
0.0
 11
5091.698304377089
 21
3344.473660869266
 31
0.0
  0
LINE
  5
15DD1
330
747D
100
AcDbEntity
  8
部品1
100
AcDbLine
 10
4143.698304377088
 20
3347.973660869251
 30
0.0
 11
4853.635856548407
 21
3347.973660869266
 31
0.0
  0
LINE
  5
15DD2
330
747D
100
AcDbEntity
  8
細線
 48
50.0
100
AcDbLine
 10
4861.773099354104
 20
3350.223660869266
 30
0.0
 11
4861.773099354104
 21
3352.223660869264
 31
0.0
  0
LINE
  5
15DD3
330
747D
100
AcDbEntity
  8
部品1
 48
50.0
100
AcDbLine
 10
4853.635856548407
 20
3354.723660869264
 30
0.0
 11
4853.635856548407
 21
3347.973660869266
 31
0.0
  0
LINE
  5
15DD4
330
747D
100
AcDbEntity
  8
細線
 48
0.1
100
AcDbLine
 10
4873.635856548408
 20
3347.723660869263
 30
0.0
 11
4873.635856548408
 21
3354.723660869264
 31
0.0
  0
LINE
  5
15DD5
330
747D
100
AcDbEntity
  8
細線
 48
50.0
100
AcDbLine
 10
4869.623509400067
 20
3350.223660869266
 30
0.0
 11
4869.623509400067
 21
3352.223660869264
 31
0.0
  0
LINE
  5
15DD6
330
747D
100
AcDbEntity
  8
細線
 48
0.2
100
AcDbLine
 10
4873.635856548408
 20
3347.723660869263
 30
0.0
 11
4853.635856548407
 21
3347.723660869263
 31
0.0
  0
LINE
  5
15DD7
330
747D
100
AcDbEntity
  8
細線
 48
0.2
100
AcDbLine
 10
4873.635856548408
 20
3350.223660869264
 30
0.0
 11
4853.635856548407
 21
3350.223660869266
 31
0.0
  0
ARC
  5
15DD8
330
747D
100
AcDbEntity
  8
細線
 48
0.2
100
AcDbCircle
 10
4865.635856548408
 20
3364.523660869262
 30
0.0
 40
18.49999999999796
100
AcDbArc
 50
253.3984504009772
 51
286.6015495990217
  0
LINE
  5
15DD9
330
747D
100
AcDbEntity
  8
細線
 48
0.2
100
AcDbLine
 10
4871.319847844915
 20
3347.023660869263
 30
0.0
 11
4859.951865251904
 21
3347.023660869263
 31
0.0
  0
ARC
  5
15DDA
330
747D
100
AcDbEntity
  8
細線
 48
0.2
100
AcDbCircle
 10
4860.635856548408
 20
3347.753151038016
 30
0.0
 40
1.0
100
AcDbArc
 50
179.9999999999984
 51
253.3984504009775
  0
LINE
  5
15DDB
330
747D
100
AcDbEntity
  8
細線
 48
50.0
100
AcDbLine
 10
4853.635856548407
 20
3347.973660869266
 30
0.0
 11
4853.635856548407
 21
3347.723660869263
 31
0.0
  0
ARC
  5
15DDC
330
747D
100
AcDbEntity
  8
細線
 48
0.2
100
AcDbCircle
 10
4870.635856548408
 20
3347.753151038016
 30
0.0
 40
1.0
100
AcDbArc
 50
286.6015495990217
 51
0.0
  0
LINE
  5
15DDD
330
747D
100
AcDbEntity
  8
部品1
100
AcDbLine
 10
4873.635856548408
 20
3347.973660869266
 30
0.0
 11
4873.698304377089
 21
3347.973660869266
 31
0.0
  0
LINE
  5
15DDE
330
747D
100
AcDbEntity
  8
部品1
100
AcDbLine
 10
4873.635856548408
 20
3347.973660869256
 30
0.0
 11
4873.698304377089
 21
3347.973660869256
 31
0.0
  0
LINE
  5
15DDF
330
747D
100
AcDbEntity
  8
細線
 48
0.2
100
AcDbLine
 10
4873.635856548408
 20
3352.223660869264
 30
0.0
 11
4853.635856548407
 21
3352.223660869264
 31
0.0
  0
LINE
  5
15DE0
330
747D
100
AcDbEntity
  8
部品1
 48
0.2
100
AcDbLine
 10
4873.635856548408
 20
3354.723660869264
 30
0.0
 11
4853.635856548407
 21
3354.723660869264
 31
0.0
  0
LINE
  5
15DE1
330
747D
100
AcDbEntity
  8
部品1
100
AcDbLine
 10
4143.698304377088
 20
5138.973660869247
 30
0.0
 11
4853.635856548407
 21
5138.973660869247
 31
0.0
  0
ARC
  5
15DE2
330
747D
100
AcDbEntity
  8
細線
100
AcDbCircle
 10
5119.531685907843
 20
4296.473660869245
 30
0.0
 40
5.5
100
AcDbArc
 50
89.99999999999969
 51
169.5785490272683
  0
LINE
  5
15DE3
330
747D
100
AcDbEntity
  8
部品1
100
AcDbLine
 10
5159.698304377089
 20
4303.473660869245
 30
0.0
 11
5118.700034486074
 21
4303.473660869245
 31
0.0
  0
ARC
  5
15DE4
330
747D
100
AcDbEntity
  8
細線
100
AcDbCircle
 10
5123.079260741565
 20
4287.473660869245
 30
0.0
 40
6.0
100
AcDbArc
 50
90.0
 51
171.2120626773636
  0
ARC
  5
15DE5
330
747D
100
AcDbEntity
  8
細線
100
AcDbCircle
 10
5119.531685907843
 20
4190.473660869246
 30
0.0
 40
5.5
100
AcDbArc
 50
190.4214509727298
 51
269.9999999999997
  0
LINE
  5
15DE6
330
747D
100
AcDbEntity
  8
部品1
100
AcDbLine
 10
5118.700034486074
 20
4183.473660869245
 30
0.0
 11
5159.698304377089
 21
4183.473660869245
 31
0.0
  0
LINE
  5
15DE7
330
747D
100
AcDbEntity
  8
細線
100
AcDbLine
 10
5131.698304377088
 20
4199.474168767808
 30
0.0
 11
5118.219599878266
 21
4199.474168767808
 31
0.0
  0
ARC
  5
15DE8
330
747D
100
AcDbEntity
  8
細線
100
AcDbCircle
 10
5123.079260741565
 20
4199.473660869245
 30
0.0
 40
6.0
100
AcDbArc
 50
188.7879373226349
 51
270.0
  0
ARC
  5
15DE9
330
747D
100
AcDbEntity
  8
部品1
100
AcDbCircle
 10
5407.698304377088
 20
4243.473660869245
 30
0.0
 40
300.0
100
AcDbArc
 50
169.4161974034894
 51
190.5838025965105
  0
ARC
  5
15DEA
330
747D
100
AcDbEntity
  8
細線
100
AcDbCircle
 10
5407.698304377088
 20
4243.473660869245
 30
0.0
 40
298.5
100
AcDbArc
 50
169.578549027269
 51
190.4214509727309
  0
ARC
  5
15DEB
330
747D
100
AcDbEntity
  8
細線
100
AcDbCircle
 10
5407.698304377088
 20
4243.473660869245
 30
0.0
 40
294.0
100
AcDbArc
 50
171.212062677364
 51
188.7879373226359
  0
ARC
  5
15DEC
330
747D
100
AcDbEntity
  8
部品1
100
AcDbCircle
 10
5118.700034486074
 20
4189.473660869245
 30
0.0
 40
6.0
100
AcDbArc
 50
190.5838025965097
 51
270.0
  0
ARC
  5
15DED
330
747D
100
AcDbEntity
  8
部品1
100
AcDbCircle
 10
5118.700034486074
 20
4297.473660869246
 30
0.0
 40
6.0
100
AcDbArc
 50
90.0
 51
169.4161974034886
  0
LINE
  5
15DEE
330
747D
100
AcDbEntity
  8
細線
100
AcDbLine
 10
5149.905843555835
 20
4202.473660869245
 30
0.0
 11
5149.905843555835
 21
4284.473660869245
 31
0.0
  0
LINE
  5
15DEF
330
747D
100
AcDbEntity
  8
細線
100
AcDbLine
 10
5131.698304377088
 20
4293.473660869245
 30
0.0
 11
5131.698304377088
 21
4193.473660869245
 31
0.0
  0
ARC
  5
15DF0
330
747D
100
AcDbEntity
  8
細線
100
AcDbCircle
 10
4845.095522469165
 20
4243.473660869245
 30
0.0
 40
294.0
100
AcDbArc
 50
351.900449161722
 51
8.099550838278029
  0
LINE
  5
15DF1
330
747D
100
AcDbEntity
  8
細線
100
AcDbLine
 10
5159.698304377089
 20
4199.473660869245
 30
0.0
 11
5159.698304377089
 21
4287.473660869245
 31
0.0
  0
LINE
  5
15DF2
330
747D
100
AcDbEntity
  8
細線
100
AcDbLine
 10
5164.198304377089
 20
4190.473660869246
 30
0.0
 11
5164.198304377089
 21
4296.473660869245
 31
0.0
  0
LINE
  5
15DF3
330
747D
100
AcDbEntity
  8
部品1
100
AcDbLine
 10
5165.698304377088
 20
4189.473660869245
 30
0.0
 11
5165.698304377088
 21
4297.473660869246
 31
0.0
  0
LINE
  5
15DF4
330
747D
100
AcDbEntity
  8
細線
100
AcDbLine
 10
5123.079260741565
 20
4193.473660869245
 30
0.0
 11
5153.698304377089
 21
4193.473660869245
 31
0.0
  0
LINE
  5
15DF5
330
747D
100
AcDbEntity
  8
細線
100
AcDbLine
 10
5131.698304377088
 20
4199.473660869245
 30
0.0
 11
5133.192728286924
 21
4199.473660869245
 31
0.0
  0
ARC
  5
15DF6
330
747D
100
AcDbEntity
  8
細線
100
AcDbCircle
 10
5133.192728286924
 20
4202.473660869245
 30
0.0
 40
3.0
100
AcDbArc
 50
270.0
 51
351.9004491617184
  0
LINE
  5
15DF7
330
747D
100
AcDbEntity
  8
細線
100
AcDbLine
 10
5131.698304377088
 20
4196.473660869245
 30
0.0
 11
5143.905843555835
 21
4196.473660869245
 31
0.0
  0
ARC
  5
15DF8
330
747D
100
AcDbEntity
  8
細線
100
AcDbCircle
 10
5143.905843555835
 20
4202.473660869245
 30
0.0
 40
6.0
100
AcDbArc
 50
270.0
 51
360.0
  0
ARC
  5
15DF9
330
747D
100
AcDbEntity
  8
細線
100
AcDbCircle
 10
5158.698304377089
 20
4190.473660869246
 30
0.0
 40
5.5
100
AcDbArc
 50
270.0
 51
0.0
  0
ARC
  5
15DFA
330
747D
100
AcDbEntity
  8
部品1
100
AcDbCircle
 10
5159.698304377089
 20
4189.473660869245
 30
0.0
 40
6.0
100
AcDbArc
 50
270.0
 51
0.0
  0
ARC
  5
15DFB
330
747D
100
AcDbEntity
  8
細線
100
AcDbCircle
 10
5153.698304377089
 20
4199.473660869245
 30
0.0
 40
6.0
100
AcDbArc
 50
270.0
 51
0.0
  0
LINE
  5
15DFC
330
747D
100
AcDbEntity
  8
細線
100
AcDbLine
 10
5119.531685907843
 20
4184.973660869245
 30
0.0
 11
5158.698304377089
 21
4184.973660869245
 31
0.0
  0
LINE
  5
15DFD
330
747D
100
AcDbEntity
  8
細線
100
AcDbLine
 10
5153.698304377089
 20
4293.473660869245
 30
0.0
 11
5123.079260741565
 21
4293.473660869245
 31
0.0
  0
LINE
  5
15DFE
330
747D
100
AcDbEntity
  8
細線
100
AcDbLine
 10
5133.192728286922
 20
4287.473660869245
 30
0.0
 11
5131.698304377088
 21
4287.473660869245
 31
0.0
  0
ARC
  5
15DFF
330
747D
100
AcDbEntity
  8
細線
100
AcDbCircle
 10
5133.192728286922
 20
4284.473660869245
 30
0.0
 40
3.0
100
AcDbArc
 50
8.099550838277986
 51
90.0
  0
LINE
  5
15E00
330
747D
100
AcDbEntity
  8
細線
100
AcDbLine
 10
5143.905843555835
 20
4290.473660869245
 30
0.0
 11
5131.698304377088
 21
4290.473660869245
 31
0.0
  0
ARC
  5
15E01
330
747D
100
AcDbEntity
  8
細線
100
AcDbCircle
 10
5143.905843555835
 20
4284.473660869245
 30
0.0
 40
6.0
100
AcDbArc
 50
0.0
 51
90.0
  0
CIRCLE
  5
15E02
330
747D
100
AcDbEntity
  8
細線
 48
50.0
100
AcDbCircle
 10
5139.199169431582
 20
4343.973660869245
 30
0.0
 40
10.0
  0
ARC
  5
15E03
330
747D
100
AcDbEntity
  8
細線
100
AcDbCircle
 10
5158.698304377089
 20
4296.473660869245
 30
0.0
 40
5.5
100
AcDbArc
 50
0.0
 51
90.0
  0
ARC
  5
15E04
330
747D
100
AcDbEntity
  8
部品1
100
AcDbCircle
 10
5159.698304377089
 20
4297.473660869246
 30
0.0
 40
6.0
100
AcDbArc
 50
0.0
 51
90.0
  0
ARC
  5
15E05
330
747D
100
AcDbEntity
  8
細線
100
AcDbCircle
 10
5153.698304377089
 20
4287.473660869245
 30
0.0
 40
6.0
100
AcDbArc
 50
0.0
 51
90.0
  0
LINE
  5
15E06
330
747D
100
AcDbEntity
  8
細線
100
AcDbLine
 10
5158.698304377089
 20
4301.973660869245
 30
0.0
 11
5119.531685907843
 21
4301.973660869245
 31
0.0
  0
CIRCLE
  5
15E07
330
747D
100
AcDbEntity
  8
細線
 48
50.0
100
AcDbCircle
 10
5139.199169431582
 20
4343.973660869245
 30
0.0
 40
20.0
  0
LINE
  5
15E08
330
747D
100
AcDbEntity
  8
細線
100
AcDbLine
 10
5131.698304377088
 20
4287.473152970684
 30
0.0
 11
5118.934977161121
 21
4287.473152970684
 31
0.0
  0
LINE
  5
15E13
330
747D
100
AcDbEntity
  8
細線
 48
50.0
100
AcDbLine
 10
4869.623509400067
 20
5136.723660869247
 30
0.0
 11
4869.623509400067
 21
5134.723660869248
 31
0.0
  0
LINE
  5
15E14
330
747D
100
AcDbEntity
  8
細線
 48
0.1
100
AcDbLine
 10
4873.635856548408
 20
5139.223660869248
 30
0.0
 11
4873.635856548408
 21
5132.223660869247
 31
0.0
  0
LINE
  5
15E15
330
747D
100
AcDbEntity
  8
細線
 48
50.0
100
AcDbLine
 10
4861.773099354104
 20
5136.723660869247
 30
0.0
 11
4861.773099354104
 21
5134.723660869248
 31
0.0
  0
LINE
  5
15E16
330
747D
100
AcDbEntity
  8
部品1
 48
50.0
100
AcDbLine
 10
4853.635856548407
 20
5132.223660869247
 30
0.0
 11
4853.635856548407
 21
5138.973660869247
 31
0.0
  0
LINE
  5
15E17
330
747D
100
AcDbEntity
  8
部品1
 48
0.2
100
AcDbLine
 10
4873.635856548408
 20
5132.223660869247
 30
0.0
 11
4853.635856548407
 21
5132.223660869247
 31
0.0
  0
LINE
  5
15E18
330
747D
100
AcDbEntity
  8
細線
 48
0.2
100
AcDbLine
 10
4873.635856548408
 20
5134.723660869248
 30
0.0
 11
4853.635856548407
 21
5134.723660869248
 31
0.0
  0
LINE
  5
15E19
330
747D
100
AcDbEntity
  8
細線
 48
0.2
100
AcDbLine
 10
4871.319847844915
 20
5139.923660869248
 30
0.0
 11
4859.951865251904
 21
5139.923660869248
 31
0.0
  0
ARC
  5
15E1A
330
747D
100
AcDbEntity
  8
細線
 48
0.2
100
AcDbCircle
 10
4865.635856548408
 20
5122.42366086925
 30
0.0
 40
18.49999999999796
100
AcDbArc
 50
73.39845040097829
 51
106.6015495990228
  0
LINE
  5
15E1B
330
747D
100
AcDbEntity
  8
細線
 48
0.2
100
AcDbLine
 10
4873.635856548408
 20
5136.723660869247
 30
0.0
 11
4853.635856548407
 21
5136.723660869247
 31
0.0
  0
LINE
  5
15E1C
330
747D
100
AcDbEntity
  8
細線
 48
0.2
100
AcDbLine
 10
4873.635856548408
 20
5139.223660869248
 30
0.0
 11
4853.635856548407
 21
5139.223660869248
 31
0.0
  0
ARC
  5
15E1D
330
747D
100
AcDbEntity
  8
細線
 48
0.2
100
AcDbCircle
 10
4860.635856548408
 20
5139.194170700495
 30
0.0
 40
1.0
100
AcDbArc
 50
106.6015495990225
 51
180.0000000000016
  0
LINE
  5
15E1E
330
747D
100
AcDbEntity
  8
細線
 48
50.0
100
AcDbLine
 10
4853.635856548407
 20
5138.973660869247
 30
0.0
 11
4853.635856548407
 21
5139.223660869248
 31
0.0
  0
ARC
  5
15E1F
330
747D
100
AcDbEntity
  8
細線
 48
0.2
100
AcDbCircle
 10
4870.635856548408
 20
5139.194170700495
 30
0.0
 40
1.0
100
AcDbArc
 50
0.0
 51
73.39845040097829
  0
LINE
  5
15E20
330
747D
100
AcDbEntity
  8
部品1
100
AcDbLine
 10
4873.635856548408
 20
5138.973660869247
 30
0.0
 11
4873.698304377089
 21
5138.973660869246
 31
0.0
  0
LINE
  5
15E46
330
747D
100
AcDbEntity
  8
部品1
 48
50.0
100
AcDbLine
 10
5969.69831105469
 20
9428.762299083897
 30
0.0
 11
5969.69831105469
 21
8978.762299083896
 31
0.0
  0
LINE
  5
15E47
330
747D
100
AcDbEntity
  8
部品1
 48
50.0
100
AcDbLine
 10
6027.69831105469
 20
9428.762299083789
 30
0.0
 11
6027.69831105469
 21
8978.762299083795
 31
0.0
  0
LINE
  5
15E48
330
747D
100
AcDbEntity
  8
部品1
 48
50.0
100
AcDbLine
 10
6026.698304377074
 20
8143.262299083861
 30
0.0
 11
6026.69830437702
 21
9458.262299083868
 31
0.0
  0
LINE
  5
15E49
330
747D
100
AcDbEntity
  8
部品1
 48
50.0
100
AcDbLine
 10
5970.698304377074
 20
8143.262299083861
 30
0.0
 11
5970.69830437702
 21
9430.262299083869
 31
0.0
  0
LINE
  5
15E4A
330
747D
100
AcDbEntity
  8
部品1
 48
50.0
100
AcDbLine
 10
5998.698304377074
 20
8143.262299083861
 30
0.0
 11
5998.698304377074
 21
9403.262299083868
 31
0.0
  0
LINE
  5
15E4B
330
747D
100
AcDbEntity
  8
細線
 48
50.0
100
AcDbLine
 10
5969.69831105469
 20
9428.762299083897
 30
0.0
 11
5077.69831105469
 21
8978.762299083795
 31
0.0
  0
LINE
  5
15E4C
330
747D
100
AcDbEntity
  8
細線
 48
50.0
100
AcDbLine
 10
5969.69831105469
 20
8978.762299083896
 30
0.0
 11
5077.69831105469
 21
9428.762299083796
 31
0.0
  0
DIMENSION
  5
15E4D
330
747D
100
AcDbEntity
  8
寸法
 48
50.0
100
AcDbDimension
  2
*D23
 10
5788.698304377087
 20
7648.43863128874
 30
0.0
 11
5446.198304377088
 21
7648.43863128874
 31
0.0
 70
   160
 71
     5
 42
684.9999999999945
  3
INABA_S40G
100
AcDbAlignedDimension
 13
5103.698304377092
 23
8088.262299083817
 33
0.0
 14
5788.698304377087
 24
8088.262299083782
 34
0.0
100
AcDbRotatedDimension
  0
LINE
  5
15E4E
330
747D
100
AcDbEntity
  8
破線
 48
10.0
100
AcDbLine
 10
5919.698304377082
 20
8243.262299083847
 30
0.0
 11
5128.698304377081
 21
8243.262299083832
 31
0.0
  0
LINE
  5
15E4F
330
747D
100
AcDbEntity
  8
部品1
100
AcDbLine
 10
5943.198874825251
 20
8219.761718263905
 30
0.0
 11
5105.199275803482
 21
8219.761216775379
 31
0.0
  0
LINE
  5
15E50
330
747D
100
AcDbEntity
  8
部品1
100
AcDbLine
 10
5077.69831105469
 20
8978.762299083795
 30
0.0
 11
5969.69831105469
 21
8978.762299083896
 31
0.0
  0
LINE
  5
15E51
330
747D
100
AcDbEntity
  8
部品1
100
AcDbLine
 10
5823.698304377087
 20
8114.262299083875
 30
0.0
 11
5093.698304377088
 21
8114.262299083845
 31
0.0
  0
ARC
  5
15E52
330
747D
100
AcDbEntity
  8
想像線
 48
10.0
100
AcDbCircle
 10
5816.346253699929
 20
8089.957192459429
 30
0.0
 40
722.6499369155575
100
AcDbArc
 50
180.1343808685506
 51
270.5829222700354
  0
LINE
  5
15E53
330
747D
100
AcDbEntity
  8
部品1
 48
5.0
100
AcDbLine
 10
5072.698304377088
 20
8117.762299083743
 30
0.0
 11
5974.698304377088
 21
8117.762299083803
 31
0.0
  0
LINE
  5
15E54
330
747D
100
AcDbEntity
  8
部品1
 48
50.0
100
AcDbLine
 10
5523.198304377082
 20
8978.762299083847
 30
0.0
 11
5523.198141504978
 21
8219.761466920649
 31
0.0
  0
LINE
  5
15E55
330
747D
100
AcDbEntity
  8
細線
 48
50.0
100
AcDbLine
 10
5217.698304377087
 20
8114.262299083895
 30
0.0
 11
5217.698304377087
 21
8088.262299083847
 31
0.0
  0
LINE
  5
15E56
330
747D
100
AcDbEntity
  8
細線
 48
50.0
100
AcDbLine
 10
5443.698304377087
 20
8114.262299083883
 30
0.0
 11
5443.698304377087
 21
8088.262299083847
 31
0.0
  0
LINE
  5
15E57
330
747D
100
AcDbEntity
  8
細線
 48
50.0
100
AcDbLine
 10
5403.698304377087
 20
8114.262299083883
 30
0.0
 11
5403.698304377087
 21
8088.262299083847
 31
0.0
  0
LINE
  5
15E58
330
747D
100
AcDbEntity
  8
細線
 48
50.0
100
AcDbLine
 10
5630.698304377087
 20
8114.262299084098
 30
0.0
 11
5630.698304377087
 21
8088.262299084062
 31
0.0
  0
LINE
  5
15E59
330
747D
100
AcDbEntity
  8
細線
 48
50.0
100
AcDbLine
 10
5670.698304377086
 20
8114.262299084098
 30
0.0
 11
5670.698304377086
 21
8088.262299084062
 31
0.0
  0
LINE
  5
15E5A
330
747D
100
AcDbEntity
  8
想像線
 48
10.0
100
AcDbLine
 10
5823.698304377087
 20
8088.262299083861
 30
0.0
 11
5823.698304377087
 21
7367.344655428071
 31
0.0
  0
LINE
  5
15E5B
330
747D
100
AcDbEntity
  8
破線
 48
10.0
100
AcDbLine
 10
5919.698304377082
 20
8243.262299083868
 30
0.0
 11
5919.698298214818
 21
8785.762216260531
 31
0.0
  0
LINE
  5
15E5C
330
747D
100
AcDbEntity
  8
部品1
 48
50.0
100
AcDbLine
 10
5943.198304377073
 20
8219.762299083868
 30
0.0
 11
5943.198304377048
 21
8978.762299083927
 31
0.0
  0
LINE
  5
15E5D
330
747D
100
AcDbEntity
  8
破線
 48
10.0
100
AcDbLine
 10
6077.698304377082
 20
8243.262299083875
 30
0.0
 11
6077.698295207976
 21
8785.762209738685
 31
0.0
  0
LINE
  5
15E5E
330
747D
100
AcDbEntity
  8
部品1
 48
50.0
100
AcDbLine
 10
6054.198298032787
 20
8219.762299108527
 30
0.0
 11
6054.198301005651
 21
8978.762299083868
 31
0.0
  0
LINE
  5
15E5F
330
747D
100
AcDbEntity
  8
部品1
100
AcDbLine
 10
5823.698304377087
 20
8114.262299083911
 30
0.0
 11
5823.698304377087
 21
8088.262299083854
 31
0.0
  0
ARC
  5
15E60
330
747D
100
AcDbEntity
  8
部品1
 48
0.2
100
AcDbCircle
 10
5815.760752205766
 20
8089.259929039084
 30
0.0
 40
8.0
100
AcDbArc
 50
270.0
 51
352.8363522778074
  0
ARC
  5
15E61
330
747D
100
AcDbEntity
  8
部品1
 48
0.2
100
AcDbCircle
 10
5810.760752205766
 20
8089.259929039084
 30
0.0
 40
8.0
100
AcDbArc
 50
187.1636477221926
 51
269.9999999999992
  0
ARC
  5
15E62
330
747D
100
AcDbEntity
  8
細線
 48
0.2
100
AcDbCircle
 10
5815.760752205766
 20
8089.259929039084
 30
0.0
 40
4.049999999999999
100
AcDbArc
 50
194.2603506853988
 51
345.7396493146012
  0
LINE
  5
15E63
330
747D
100
AcDbEntity
  8
部品1
 48
0.2
100
AcDbLine
 10
5810.760752205766
 20
8081.259929039083
 30
0.0
 11
5815.760752205766
 21
8081.259929039083
 31
0.0
  0
LINE
  5
15E64
330
747D
100
AcDbEntity
  8
部品1
 48
5.0
100
AcDbLine
 10
5825.698304377088
 20
8117.762299083862
 30
0.0
 11
5825.698304377088
 21
8088.262299083861
 31
0.0
  0
LINE
  5
15E65
330
747D
100
AcDbEntity
  8
部品1
 48
50.0
100
AcDbLine
 10
5970.698304377074
 20
8191.76229908386
 30
0.0
 11
5943.198304377073
 21
8219.762299083868
 31
0.0
  0
LINE
  5
15E66
330
747D
100
AcDbEntity
  8
部品1
 48
5.0
100
AcDbLine
 10
5966.698304377089
 20
8143.262299083861
 30
0.0
 11
5943.698304377089
 21
8143.262299083861
 31
0.0
  0
LINE
  5
15E67
330
747D
100
AcDbEntity
  8
部品1
 48
5.0
100
AcDbLine
 10
6030.698304377089
 20
8143.262299083861
 30
0.0
 11
6053.698304377089
 21
8143.262299083861
 31
0.0
  0
LINE
  5
15E68
330
747D
100
AcDbEntity
  8
部品1
 48
50.0
100
AcDbLine
 10
6054.19830437707
 20
8219.762299108534
 30
0.0
 11
6026.698304377074
 21
8191.76229908386
 31
0.0
  0
LINE
  5
15E69
330
747D
100
AcDbEntity
  8
部品1
 48
5.0
100
AcDbLine
 10
5970.698304377074
 20
8143.262299083861
 30
0.0
 11
6026.698304377074
 21
8143.262299083861
 31
0.0
  0
LINE
  5
15E6A
330
747D
100
AcDbEntity
  8
部品1
 48
5.0
100
AcDbLine
 10
5955.698304377089
 20
8088.262299083861
 30
0.0
 11
6041.698304377089
 21
8088.262299083861
 31
0.0
  0
LINE
  5
15E6B
330
747D
100
AcDbEntity
  8
部品1
100
AcDbLine
 10
5955.698304377087
 20
8117.762299083803
 30
0.0
 11
5955.698304377086
 21
8088.262299083854
 31
0.0
  0
LINE
  5
15E6C
330
747D
100
AcDbEntity
  8
部品1
 48
5.0
100
AcDbLine
 10
5955.698304377089
 20
8117.762299083862
 30
0.0
 11
5955.698304377089
 21
8088.262299083861
 31
0.0
  0
LINE
  5
15E6D
330
747D
100
AcDbEntity
  8
部品1
100
AcDbLine
 10
6043.698304377088
 20
8114.262299083883
 30
0.0
 11
6043.698304377088
 21
8088.262299083847
 31
0.0
  0
LINE
  5
15E6E
330
747D
100
AcDbEntity
  8
部品1
100
AcDbLine
 10
6041.698304377089
 20
8117.76229908381
 30
0.0
 11
6041.698304377089
 21
8088.262299083861
 31
0.0
  0
LINE
  5
15E6F
330
747D
100
AcDbEntity
  8
部品1
 48
5.0
100
AcDbLine
 10
6041.698304377089
 20
8117.762299083862
 30
0.0
 11
6041.698304377089
 21
8088.262299083861
 31
0.0
  0
LINE
  5
15E70
330
747D
100
AcDbEntity
  8
部品1
 48
5.0
100
AcDbLine
 10
6022.69830437709
 20
8143.262299083861
 30
0.0
 11
6022.698304377088
 21
8117.762299083862
 31
0.0
  0
LINE
  5
15E71
330
747D
100
AcDbEntity
  8
部品1
 48
5.0
100
AcDbLine
 10
5974.698304377088
 20
8143.262299083861
 30
0.0
 11
5974.698304377088
 21
8117.762299083862
 31
0.0
  0
LINE
  5
15E72
330
747D
100
AcDbEntity
  8
部品1
 48
5.0
100
AcDbLine
 10
5943.698304377089
 20
8143.262299083861
 30
0.0
 11
5943.698304377091
 21
8117.762299083862
 31
0.0
  0
LINE
  5
15E73
330
747D
100
AcDbEntity
  8
部品1
 48
5.0
100
AcDbLine
 10
6053.698304377089
 20
8143.262299083861
 30
0.0
 11
6053.698304377091
 21
8117.762299083862
 31
0.0
  0
LINE
  5
15E74
330
747D
100
AcDbEntity
  8
部品1
 48
5.0
100
AcDbLine
 10
5998.698304377074
 20
8563.262299083861
 30
0.0
 11
5970.698304377021
 21
8563.262299083868
 31
0.0
  0
LINE
  5
15E75
330
747D
100
AcDbEntity
  8
部品1
 48
5.0
100
AcDbLine
 10
5998.698304377074
 20
8983.262299083861
 30
0.0
 11
5970.698304377021
 21
8983.262299083868
 31
0.0
  0
LINE
  5
15E76
330
747D
100
AcDbEntity
  8
部品1
 48
50.0
100
AcDbLine
 10
5998.698304377064
 20
8983.262299083868
 30
0.0
 11
6026.698304377049
 21
8983.262299083868
 31
0.0
  0
LINE
  5
15E77
330
747D
100
AcDbEntity
  8
部品1
 48
50.0
100
AcDbLine
 10
5998.698304377064
 20
9021.262299083868
 30
0.0
 11
6026.698304377049
 21
9021.262299083868
 31
0.0
  0
LINE
  5
15E78
330
747D
100
AcDbEntity
  8
部品1
100
AcDbLine
 10
5076.698304377094
 20
9430.262299083825
 30
0.0
 11
5996.079007395717
 21
9430.262299083846
 31
0.0
  0
LINE
  5
15E79
330
747D
100
AcDbEntity
  8
部品1
100
AcDbLine
 10
5077.69831105469
 20
9428.762299083796
 30
0.0
 11
5969.69831105469
 21
9428.762299083905
 31
0.0
  0
DIMENSION
  5
15E7A
330
747D
100
AcDbEntity
  8
寸法
100
AcDbDimension
  2
*D22
 10
5943.698304377092
 20
9674.070518708923
 30
0.0
 11
5523.698304377093
 21
9674.070518708923
 31
0.0
 70
   160
  1
2X420=<>
 71
     5
 42
839.9999999999982
  3
INABA_S40G
100
AcDbAlignedDimension
 13
5103.698304377094
 23
9458.262299083854
 33
0.0
 14
5943.698304377092
 24
9458.262299083941
 34
0.0
100
AcDbRotatedDimension
1001
ACAD
1000
DSTYLE
1002
{
1002
}
  0
LINE
  5
15E7B
330
747D
100
AcDbEntity
  8
部品1
100
AcDbLine
 10
5523.19830437706
 20
9458.262299083818
 30
0.0
 11
5523.19830437706
 21
9430.262299083818
 31
0.0
  0
LINE
  5
15E7C
330
747D
100
AcDbEntity
  8
部品1
100
AcDbLine
 10
5523.198304377025
 20
9458.262299083781
 30
0.0
 11
5523.198304377027
 21
9430.26229908378
 31
0.0
  0
DIMENSION
  5
15E7D
330
747D
100
AcDbEntity
  8
寸法
 48
50.0
100
AcDbDimension
  2
*D21
 10
6053.698304377096
 20
9674.070518708923
 30
0.0
 11
5998.698304377094
 21
9928.348840080071
 31
0.0
 70
   160
 71
     5
 42
110.0000000000036
  3
INABA_S40G
100
AcDbAlignedDimension
 13
5943.698304377092
 23
9458.262299083941
 33
0.0
 14
6053.698304377096
 24
9458.262299083919
 34
0.0
100
AcDbRotatedDimension
1001
ACAD
1000
DSTYLE
1002
{
1070
   279
1070
     2
1002
}
  0
LINE
  5
15E7E
330
747D
100
AcDbEntity
  8
部品1
 48
5.0
100
AcDbLine
 10
5943.698304377092
 20
9430.262299083869
 30
0.0
 11
5943.698304377092
 21
9458.262299083868
 31
0.0
  0
LINE
  5
15E7F
330
747D
100
AcDbEntity
  8
部品1
 48
5.0
100
AcDbLine
 10
5973.407578824268
 20
9458.262299083868
 30
0.0
 11
5996.079007395696
 21
9430.262299083869
 31
0.0
  0
LINE
  5
15E80
330
747D
100
AcDbEntity
  8
部品1
 48
5.0
100
AcDbLine
 10
6026.698304377023
 20
9403.262299083868
 30
0.0
 11
5970.698304377021
 21
9403.262299083868
 31
0.0
  0
LINE
  5
15E81
330
747D
100
AcDbEntity
  8
部品1
 48
5.0
100
AcDbLine
 10
6053.698304377096
 20
9458.262299083868
 30
0.0
 11
6053.698304377093
 21
9430.262299083876
 31
0.0
  0
LINE
  5
15E82
330
747D
100
AcDbEntity
  8
部品1
 48
50.0
100
AcDbLine
 10
5969.250911865111
 20
9428.762299083905
 30
0.0
 11
5970.698304376987
 21
9430.262299083832
 31
0.0
  0
LINE
  5
15E83
330
747D
100
AcDbEntity
  8
部品1
 48
50.0
100
AcDbLine
 10
6028.198311054683
 20
9428.762299083796
 30
0.0
 11
6026.69830437706
 21
9430.262299083789
 31
0.0
  0
LINE
  5
15ECB
330
747D
100
AcDbEntity
  8
部品1
100
AcDbLine
 10
3925.698304377089
 20
5141.473660869245
 30
0.0
 11
3925.698304377089
 21
3344.473660869266
 31
0.0
  0
LINE
  5
15ECC
330
747D
100
AcDbEntity
  8
部品1
100
AcDbLine
 10
4055.698304377089
 20
5141.473660869245
 30
0.0
 11
4055.698304377089
 21
3344.473660869266
 31
0.0
  0
LINE
  5
15ECD
330
747D
100
AcDbEntity
  8
部品1
100
AcDbLine
 10
3923.698304377087
 20
5138.973660869246
 30
0.0
 11
3923.698304377089
 21
3347.973660869266
 31
0.0
  0
LINE
  5
15ECE
330
747D
100
AcDbEntity
  8
部品1
100
AcDbLine
 10
4143.698304377088
 20
5138.973660869246
 30
0.0
 11
4143.698304377088
 21
3347.973660869261
 31
0.0
  0
LINE
  5
15ECF
330
747D
100
AcDbEntity
  8
部品1
100
AcDbLine
 10
4141.698304377089
 20
5141.473660869245
 30
0.0
 11
4141.698304377089
 21
3344.473660869266
 31
0.0
  0
LINE
  5
15ED0
330
747D
100
AcDbEntity
  8
部品1
100
AcDbLine
 10
3193.698304377089
 20
3347.973660869251
 30
0.0
 11
3903.635856548408
 21
3347.973660869266
 31
0.0
  0
LINE
  5
15ED1
330
747D
100
AcDbEntity
  8
細線
 48
50.0
100
AcDbLine
 10
3911.773099354105
 20
3350.223660869266
 30
0.0
 11
3911.773099354105
 21
3352.223660869264
 31
0.0
  0
LINE
  5
15ED2
330
747D
100
AcDbEntity
  8
部品1
 48
50.0
100
AcDbLine
 10
3903.635856548408
 20
3354.723660869264
 30
0.0
 11
3903.635856548408
 21
3347.973660869266
 31
0.0
  0
LINE
  5
15ED3
330
747D
100
AcDbEntity
  8
細線
 48
0.1
100
AcDbLine
 10
3923.635856548408
 20
3347.723660869263
 30
0.0
 11
3923.635856548408
 21
3354.723660869264
 31
0.0
  0
LINE
  5
15ED4
330
747D
100
AcDbEntity
  8
細線
 48
50.0
100
AcDbLine
 10
3919.623509400068
 20
3350.223660869266
 30
0.0
 11
3919.623509400068
 21
3352.223660869264
 31
0.0
  0
LINE
  5
15ED5
330
747D
100
AcDbEntity
  8
細線
 48
0.2
100
AcDbLine
 10
3923.635856548408
 20
3347.723660869263
 30
0.0
 11
3903.635856548408
 21
3347.723660869263
 31
0.0
  0
LINE
  5
15ED6
330
747D
100
AcDbEntity
  8
細線
 48
0.2
100
AcDbLine
 10
3923.635856548408
 20
3350.223660869264
 30
0.0
 11
3903.635856548408
 21
3350.223660869266
 31
0.0
  0
ARC
  5
15ED7
330
747D
100
AcDbEntity
  8
細線
 48
0.2
100
AcDbCircle
 10
3915.635856548408
 20
3364.523660869262
 30
0.0
 40
18.49999999999796
100
AcDbArc
 50
253.3984504009772
 51
286.6015495990217
  0
LINE
  5
15ED8
330
747D
100
AcDbEntity
  8
細線
 48
0.2
100
AcDbLine
 10
3921.319847844916
 20
3347.023660869263
 30
0.0
 11
3909.951865251904
 21
3347.023660869263
 31
0.0
  0
ARC
  5
15ED9
330
747D
100
AcDbEntity
  8
細線
 48
0.2
100
AcDbCircle
 10
3910.635856548408
 20
3347.753151038016
 30
0.0
 40
1.0
100
AcDbArc
 50
179.9999999999984
 51
253.3984504009775
  0
LINE
  5
15EDA
330
747D
100
AcDbEntity
  8
細線
 48
50.0
100
AcDbLine
 10
3903.635856548408
 20
3347.973660869266
 30
0.0
 11
3903.635856548408
 21
3347.723660869263
 31
0.0
  0
ARC
  5
15EDB
330
747D
100
AcDbEntity
  8
細線
 48
0.2
100
AcDbCircle
 10
3920.635856548408
 20
3347.753151038016
 30
0.0
 40
1.0
100
AcDbArc
 50
286.6015495990217
 51
0.0
  0
LINE
  5
15EDC
330
747D
100
AcDbEntity
  8
部品1
100
AcDbLine
 10
3923.635856548408
 20
3347.973660869266
 30
0.0
 11
3923.698304377089
 21
3347.973660869266
 31
0.0
  0
LINE
  5
15EDD
330
747D
100
AcDbEntity
  8
部品1
100
AcDbLine
 10
3923.635856548408
 20
3347.973660869256
 30
0.0
 11
3923.698304377089
 21
3347.973660869256
 31
0.0
  0
LINE
  5
15EDE
330
747D
100
AcDbEntity
  8
細線
 48
0.2
100
AcDbLine
 10
3923.635856548408
 20
3352.223660869264
 30
0.0
 11
3903.635856548408
 21
3352.223660869264
 31
0.0
  0
LINE
  5
15EDF
330
747D
100
AcDbEntity
  8
部品1
 48
0.2
100
AcDbLine
 10
3923.635856548408
 20
3354.723660869264
 30
0.0
 11
3903.635856548408
 21
3354.723660869264
 31
0.0
  0
LINE
  5
15EE0
330
747D
100
AcDbEntity
  8
部品1
100
AcDbLine
 10
3193.698304377089
 20
5138.973660869247
 30
0.0
 11
3903.635856548408
 21
5138.973660869247
 31
0.0
  0
LINE
  5
15EEB
330
747D
100
AcDbEntity
  8
細線
 48
50.0
100
AcDbLine
 10
3919.623509400068
 20
5136.723660869247
 30
0.0
 11
3919.623509400068
 21
5134.723660869248
 31
0.0
  0
LINE
  5
15EEC
330
747D
100
AcDbEntity
  8
細線
 48
0.1
100
AcDbLine
 10
3923.635856548408
 20
5139.223660869248
 30
0.0
 11
3923.635856548408
 21
5132.223660869247
 31
0.0
  0
LINE
  5
15EED
330
747D
100
AcDbEntity
  8
細線
 48
50.0
100
AcDbLine
 10
3911.773099354105
 20
5136.723660869247
 30
0.0
 11
3911.773099354105
 21
5134.723660869248
 31
0.0
  0
LINE
  5
15EEE
330
747D
100
AcDbEntity
  8
部品1
 48
50.0
100
AcDbLine
 10
3903.635856548408
 20
5132.223660869247
 30
0.0
 11
3903.635856548408
 21
5138.973660869247
 31
0.0
  0
LINE
  5
15EEF
330
747D
100
AcDbEntity
  8
部品1
 48
0.2
100
AcDbLine
 10
3923.635856548408
 20
5132.223660869247
 30
0.0
 11
3903.635856548408
 21
5132.223660869247
 31
0.0
  0
LINE
  5
15EF0
330
747D
100
AcDbEntity
  8
細線
 48
0.2
100
AcDbLine
 10
3923.635856548408
 20
5134.723660869248
 30
0.0
 11
3903.635856548408
 21
5134.723660869248
 31
0.0
  0
LINE
  5
15EF1
330
747D
100
AcDbEntity
  8
細線
 48
0.2
100
AcDbLine
 10
3921.319847844916
 20
5139.923660869248
 30
0.0
 11
3909.951865251904
 21
5139.923660869248
 31
0.0
  0
ARC
  5
15EF2
330
747D
100
AcDbEntity
  8
細線
 48
0.2
100
AcDbCircle
 10
3915.635856548408
 20
5122.42366086925
 30
0.0
 40
18.49999999999796
100
AcDbArc
 50
73.39845040097829
 51
106.6015495990228
  0
LINE
  5
15EF3
330
747D
100
AcDbEntity
  8
細線
 48
0.2
100
AcDbLine
 10
3923.635856548408
 20
5136.723660869247
 30
0.0
 11
3903.635856548408
 21
5136.723660869247
 31
0.0
  0
LINE
  5
15EF4
330
747D
100
AcDbEntity
  8
細線
 48
0.2
100
AcDbLine
 10
3923.635856548408
 20
5139.223660869248
 30
0.0
 11
3903.635856548408
 21
5139.223660869248
 31
0.0
  0
ARC
  5
15EF5
330
747D
100
AcDbEntity
  8
細線
 48
0.2
100
AcDbCircle
 10
3910.635856548408
 20
5139.194170700495
 30
0.0
 40
1.0
100
AcDbArc
 50
106.6015495990225
 51
180.0000000000016
  0
LINE
  5
15EF6
330
747D
100
AcDbEntity
  8
細線
 48
50.0
100
AcDbLine
 10
3903.635856548408
 20
5138.973660869247
 30
0.0
 11
3903.635856548408
 21
5139.223660869248
 31
0.0
  0
ARC
  5
15EF7
330
747D
100
AcDbEntity
  8
細線
 48
0.2
100
AcDbCircle
 10
3920.635856548408
 20
5139.194170700495
 30
0.0
 40
1.0
100
AcDbArc
 50
0.0
 51
73.39845040097829
  0
LINE
  5
15EF8
330
747D
100
AcDbEntity
  8
部品1
100
AcDbLine
 10
3923.635856548408
 20
5138.973660869247
 30
0.0
 11
3923.698304377089
 21
5138.973660869246
 31
0.0
  0
ARC
  5
15EFD
330
747D
100
AcDbEntity
  8
部品1
100
AcDbCircle
 10
4457.698304377088
 20
4243.473660869245
 30
0.0
 40
300.0
100
AcDbArc
 50
169.4161974034894
 51
190.5838025965105
  0
ARC
  5
15EFE
330
747D
100
AcDbEntity
  8
細線
100
AcDbCircle
 10
4457.698304377088
 20
4243.473660869245
 30
0.0
 40
298.5
100
AcDbArc
 50
169.578549027269
 51
190.4214509727309
  0
ARC
  5
15EFF
330
747D
100
AcDbEntity
  8
細線
100
AcDbCircle
 10
4457.698304377088
 20
4243.473660869245
 30
0.0
 40
294.0
100
AcDbArc
 50
171.212062677364
 51
188.7879373226359
  0
LINE
  5
15F00
330
747D
100
AcDbEntity
  8
細線
100
AcDbLine
 10
4199.905843555835
 20
4202.473660869245
 30
0.0
 11
4199.905843555835
 21
4284.473660869245
 31
0.0
  0
LINE
  5
15F01
330
747D
100
AcDbEntity
  8
細線
100
AcDbLine
 10
4181.698304377088
 20
4293.473660869245
 30
0.0
 11
4181.698304377088
 21
4193.473660869245
 31
0.0
  0
ARC
  5
15F02
330
747D
100
AcDbEntity
  8
細線
100
AcDbCircle
 10
3895.095522469165
 20
4243.473660869245
 30
0.0
 40
294.0
100
AcDbArc
 50
351.900449161722
 51
8.099550838278029
  0
LINE
  5
15F03
330
747D
100
AcDbEntity
  8
細線
100
AcDbLine
 10
4209.698304377089
 20
4199.473660869245
 30
0.0
 11
4209.698304377089
 21
4287.473660869245
 31
0.0
  0
LINE
  5
15F04
330
747D
100
AcDbEntity
  8
細線
100
AcDbLine
 10
4214.198304377088
 20
4190.473660869246
 30
0.0
 11
4214.198304377088
 21
4296.473660869245
 31
0.0
  0
LINE
  5
15F05
330
747D
100
AcDbEntity
  8
部品1
100
AcDbLine
 10
4215.698304377088
 20
4189.473660869245
 30
0.0
 11
4215.698304377088
 21
4297.473660869246
 31
0.0
  0
ARC
  5
15F06
330
747D
100
AcDbEntity
  8
細線
100
AcDbCircle
 10
4169.531685907843
 20
4190.473660869246
 30
0.0
 40
5.5
100
AcDbArc
 50
190.4214509727298
 51
269.9999999999997
  0
LINE
  5
15F07
330
747D
100
AcDbEntity
  8
部品1
100
AcDbLine
 10
4168.700034486073
 20
4183.473660869245
 30
0.0
 11
4209.698304377089
 21
4183.473660869245
 31
0.0
  0
LINE
  5
15F08
330
747D
100
AcDbEntity
  8
細線
100
AcDbLine
 10
4181.698304377088
 20
4199.474168767808
 30
0.0
 11
4168.219599878266
 21
4199.474168767808
 31
0.0
  0
ARC
  5
15F09
330
747D
100
AcDbEntity
  8
細線
100
AcDbCircle
 10
4173.079260741565
 20
4199.473660869245
 30
0.0
 40
6.0
100
AcDbArc
 50
188.7879373226349
 51
270.0
  0
ARC
  5
15F0A
330
747D
100
AcDbEntity
  8
部品1
100
AcDbCircle
 10
4168.700034486073
 20
4189.473660869245
 30
0.0
 40
6.0
100
AcDbArc
 50
190.5838025965097
 51
270.0
  0
LINE
  5
15F0B
330
747D
100
AcDbEntity
  8
細線
100
AcDbLine
 10
4173.079260741565
 20
4193.473660869245
 30
0.0
 11
4203.698304377089
 21
4193.473660869245
 31
0.0
  0
LINE
  5
15F0C
330
747D
100
AcDbEntity
  8
細線
100
AcDbLine
 10
4181.698304377088
 20
4199.473660869245
 30
0.0
 11
4183.192728286924
 21
4199.473660869245
 31
0.0
  0
ARC
  5
15F0D
330
747D
100
AcDbEntity
  8
細線
100
AcDbCircle
 10
4183.192728286924
 20
4202.473660869245
 30
0.0
 40
3.0
100
AcDbArc
 50
270.0
 51
351.9004491617184
  0
LINE
  5
15F0E
330
747D
100
AcDbEntity
  8
細線
100
AcDbLine
 10
4181.698304377088
 20
4196.473660869245
 30
0.0
 11
4193.905843555834
 21
4196.473660869245
 31
0.0
  0
ARC
  5
15F0F
330
747D
100
AcDbEntity
  8
細線
100
AcDbCircle
 10
4193.905843555834
 20
4202.473660869245
 30
0.0
 40
6.0
100
AcDbArc
 50
270.0
 51
360.0
  0
ARC
  5
15F10
330
747D
100
AcDbEntity
  8
細線
100
AcDbCircle
 10
4208.698304377088
 20
4190.473660869246
 30
0.0
 40
5.5
100
AcDbArc
 50
270.0
 51
0.0
  0
ARC
  5
15F11
330
747D
100
AcDbEntity
  8
部品1
100
AcDbCircle
 10
4209.698304377089
 20
4189.473660869245
 30
0.0
 40
6.0
100
AcDbArc
 50
270.0
 51
0.0
  0
ARC
  5
15F12
330
747D
100
AcDbEntity
  8
細線
100
AcDbCircle
 10
4203.698304377089
 20
4199.473660869245
 30
0.0
 40
6.0
100
AcDbArc
 50
270.0
 51
0.0
  0
LINE
  5
15F13
330
747D
100
AcDbEntity
  8
細線
100
AcDbLine
 10
4169.531685907843
 20
4184.973660869245
 30
0.0
 11
4208.698304377088
 21
4184.973660869245
 31
0.0
  0
ARC
  5
15F14
330
747D
100
AcDbEntity
  8
細線
100
AcDbCircle
 10
4169.531685907843
 20
4296.473660869245
 30
0.0
 40
5.5
100
AcDbArc
 50
89.99999999999969
 51
169.5785490272683
  0
LINE
  5
15F15
330
747D
100
AcDbEntity
  8
部品1
100
AcDbLine
 10
4209.698304377089
 20
4303.473660869245
 30
0.0
 11
4168.700034486073
 21
4303.473660869245
 31
0.0
  0
ARC
  5
15F16
330
747D
100
AcDbEntity
  8
細線
100
AcDbCircle
 10
4173.079260741565
 20
4287.473660869245
 30
0.0
 40
6.0
100
AcDbArc
 50
90.0
 51
171.2120626773636
  0
ARC
  5
15F17
330
747D
100
AcDbEntity
  8
部品1
100
AcDbCircle
 10
4168.700034486073
 20
4297.473660869246
 30
0.0
 40
6.0
100
AcDbArc
 50
90.0
 51
169.4161974034886
  0
LINE
  5
15F18
330
747D
100
AcDbEntity
  8
細線
100
AcDbLine
 10
4203.698304377089
 20
4293.473660869245
 30
0.0
 11
4173.079260741565
 21
4293.473660869245
 31
0.0
  0
LINE
  5
15F19
330
747D
100
AcDbEntity
  8
細線
100
AcDbLine
 10
4183.192728286922
 20
4287.473660869245
 30
0.0
 11
4181.698304377088
 21
4287.473660869245
 31
0.0
  0
ARC
  5
15F1A
330
747D
100
AcDbEntity
  8
細線
100
AcDbCircle
 10
4183.192728286922
 20
4284.473660869245
 30
0.0
 40
3.0
100
AcDbArc
 50
8.099550838277986
 51
90.0
  0
LINE
  5
15F1B
330
747D
100
AcDbEntity
  8
細線
100
AcDbLine
 10
4193.905843555834
 20
4290.473660869245
 30
0.0
 11
4181.698304377088
 21
4290.473660869245
 31
0.0
  0
ARC
  5
15F1C
330
747D
100
AcDbEntity
  8
細線
100
AcDbCircle
 10
4193.905843555834
 20
4284.473660869245
 30
0.0
 40
6.0
100
AcDbArc
 50
0.0
 51
90.0
  0
CIRCLE
  5
15F1D
330
747D
100
AcDbEntity
  8
細線
 48
50.0
100
AcDbCircle
 10
4189.199169431581
 20
4343.973660869245
 30
0.0
 40
10.0
  0
ARC
  5
15F1E
330
747D
100
AcDbEntity
  8
細線
100
AcDbCircle
 10
4208.698304377088
 20
4296.473660869245
 30
0.0
 40
5.5
100
AcDbArc
 50
0.0
 51
90.0
  0
ARC
  5
15F1F
330
747D
100
AcDbEntity
  8
部品1
100
AcDbCircle
 10
4209.698304377089
 20
4297.473660869246
 30
0.0
 40
6.0
100
AcDbArc
 50
0.0
 51
90.0
  0
ARC
  5
15F20
330
747D
100
AcDbEntity
  8
細線
100
AcDbCircle
 10
4203.698304377089
 20
4287.473660869245
 30
0.0
 40
6.0
100
AcDbArc
 50
0.0
 51
90.0
  0
LINE
  5
15F21
330
747D
100
AcDbEntity
  8
細線
100
AcDbLine
 10
4208.698304377088
 20
4301.973660869245
 30
0.0
 11
4169.531685907843
 21
4301.973660869245
 31
0.0
  0
CIRCLE
  5
15F22
330
747D
100
AcDbEntity
  8
細線
 48
50.0
100
AcDbCircle
 10
4189.199169431581
 20
4343.973660869245
 30
0.0
 40
20.0
  0
LINE
  5
15F23
330
747D
100
AcDbEntity
  8
細線
100
AcDbLine
 10
4181.698304377088
 20
4287.473152970684
 30
0.0
 11
4168.934977161121
 21
4287.473152970684
 31
0.0
  0
LINE
  5
15F2F
330
747D
100
AcDbEntity
  8
部品1
 48
50.0
100
AcDbLine
 10
5019.69831105469
 20
9428.762299083897
 30
0.0
 11
5019.69831105469
 21
8978.762299083896
 31
0.0
  0
LINE
  5
15F30
330
747D
100
AcDbEntity
  8
部品1
 48
50.0
100
AcDbLine
 10
5077.69831105469
 20
9428.762299083789
 30
0.0
 11
5077.69831105469
 21
8978.762299083795
 31
0.0
  0
LINE
  5
15F31
330
747D
100
AcDbEntity
  8
部品1
 48
50.0
100
AcDbLine
 10
5076.698304377075
 20
8143.262299083861
 30
0.0
 11
5076.698304377019
 21
9458.262299083868
 31
0.0
  0
LINE
  5
15F32
330
747D
100
AcDbEntity
  8
部品1
 48
50.0
100
AcDbLine
 10
5020.698304377074
 20
8143.262299083861
 30
0.0
 11
5020.69830437702
 21
9430.262299083869
 31
0.0
  0
LINE
  5
15F33
330
747D
100
AcDbEntity
  8
部品1
 48
50.0
100
AcDbLine
 10
5048.698304377074
 20
8143.262299083861
 30
0.0
 11
5048.698304377074
 21
9403.262299083868
 31
0.0
  0
LINE
  5
15F34
330
747D
100
AcDbEntity
  8
細線
 48
50.0
100
AcDbLine
 10
5019.69831105469
 20
9428.762299083897
 30
0.0
 11
4127.69831105469
 21
8978.762299083795
 31
0.0
  0
LINE
  5
15F35
330
747D
100
AcDbEntity
  8
細線
 48
50.0
100
AcDbLine
 10
5019.69831105469
 20
8978.762299083896
 30
0.0
 11
4127.69831105469
 21
9428.762299083796
 31
0.0
  0
ARC
  5
15F36
330
747D
100
AcDbEntity
  8
想像線
 48
10.0
100
AcDbCircle
 10
4866.346253699929
 20
8089.957192459429
 30
0.0
 40
722.6499369155575
100
AcDbArc
 50
180.1343808685506
 51
270.5829222700354
  0
LINE
  5
15F37
330
747D
100
AcDbEntity
  8
想像線
 48
10.0
100
AcDbLine
 10
4873.698304377087
 20
8088.262299083861
 30
0.0
 11
4873.698304377087
 21
7367.344655428071
 31
0.0
  0
LINE
  5
15F38
330
747D
100
AcDbEntity
  8
部品1
 48
50.0
100
AcDbLine
 10
4573.198304377082
 20
8978.762299083847
 30
0.0
 11
4573.198141504978
 21
8219.761466920649
 31
0.0
  0
LINE
  5
15F39
330
747D
100
AcDbEntity
  8
破線
 48
10.0
100
AcDbLine
 10
4969.698304377081
 20
8243.262299083868
 30
0.0
 11
4969.698298214819
 21
8785.762255474162
 31
0.0
  0
LINE
  5
15F3A
330
747D
100
AcDbEntity
  8
部品1
 48
50.0
100
AcDbLine
 10
4993.198304377073
 20
8219.762299083868
 30
0.0
 11
4993.198304377049
 21
8978.762299083927
 31
0.0
  0
LINE
  5
15F3B
330
747D
100
AcDbEntity
  8
破線
 48
10.0
100
AcDbLine
 10
5127.698304377082
 20
8243.262299083875
 30
0.0
 11
5127.698295207975
 21
8785.762248952318
 31
0.0
  0
LINE
  5
15F3C
330
747D
100
AcDbEntity
  8
部品1
 48
50.0
100
AcDbLine
 10
5104.198298032787
 20
8219.762299108527
 30
0.0
 11
5104.19830100565
 21
8978.762299083868
 31
0.0
  0
DIMENSION
  5
15F3D
330
747D
100
AcDbEntity
  8
寸法
 48
50.0
100
AcDbDimension
  2
*D24
 10
4838.698304377087
 20
7648.43863128874
 30
0.0
 11
4496.198304377088
 21
7648.43863128874
 31
0.0
 70
   160
 71
     5
 42
684.9999999999945
  3
INABA_S40G
100
AcDbAlignedDimension
 13
4153.698304377092
 23
8088.262299083817
 33
0.0
 14
4838.698304377087
 24
8088.262299083782
 34
0.0
100
AcDbRotatedDimension
  0
LINE
  5
15F3E
330
747D
100
AcDbEntity
  8
破線
 48
10.0
100
AcDbLine
 10
4969.698304377081
 20
8243.262299083847
 30
0.0
 11
4178.698304377081
 21
8243.262299083832
 31
0.0
  0
LINE
  5
15F3F
330
747D
100
AcDbEntity
  8
部品1
100
AcDbLine
 10
4993.198874825251
 20
8219.761718263905
 30
0.0
 11
4155.199275803482
 21
8219.761216775379
 31
0.0
  0
LINE
  5
15F40
330
747D
100
AcDbEntity
  8
部品1
100
AcDbLine
 10
4873.698304377087
 20
8114.262299083875
 30
0.0
 11
4143.698304377088
 21
8114.262299083845
 31
0.0
  0
LINE
  5
15F41
330
747D
100
AcDbEntity
  8
部品1
 48
5.0
100
AcDbLine
 10
4122.698304377088
 20
8117.762299083743
 30
0.0
 11
5024.698304377089
 21
8117.762299083803
 31
0.0
  0
LINE
  5
15F42
330
747D
100
AcDbEntity
  8
細線
 48
50.0
100
AcDbLine
 10
4267.698304377087
 20
8114.262299083895
 30
0.0
 11
4267.698304377087
 21
8088.262299083847
 31
0.0
  0
LINE
  5
15F43
330
747D
100
AcDbEntity
  8
細線
 48
50.0
100
AcDbLine
 10
4453.698304377087
 20
8114.262299083883
 30
0.0
 11
4453.698304377087
 21
8088.262299083847
 31
0.0
  0
LINE
  5
15F44
330
747D
100
AcDbEntity
  8
細線
 48
50.0
100
AcDbLine
 10
4493.698304377087
 20
8114.262299083883
 30
0.0
 11
4493.698304377087
 21
8088.262299083847
 31
0.0
  0
LINE
  5
15F45
330
747D
100
AcDbEntity
  8
細線
 48
50.0
100
AcDbLine
 10
4680.698304377087
 20
8114.262299084098
 30
0.0
 11
4680.698304377087
 21
8088.262299084062
 31
0.0
  0
LINE
  5
15F46
330
747D
100
AcDbEntity
  8
細線
 48
50.0
100
AcDbLine
 10
4720.698304377086
 20
8114.262299084098
 30
0.0
 11
4720.698304377086
 21
8088.262299084062
 31
0.0
  0
LINE
  5
15F47
330
747D
100
AcDbEntity
  8
部品1
100
AcDbLine
 10
4873.698304377087
 20
8114.262299083911
 30
0.0
 11
4873.698304377087
 21
8088.262299083854
 31
0.0
  0
ARC
  5
15F48
330
747D
100
AcDbEntity
  8
部品1
 48
0.2
100
AcDbCircle
 10
4865.760752205765
 20
8089.259929039084
 30
0.0
 40
8.0
100
AcDbArc
 50
270.0
 51
352.8363522778074
  0
ARC
  5
15F49
330
747D
100
AcDbEntity
  8
部品1
 48
0.2
100
AcDbCircle
 10
4860.760752205766
 20
8089.259929039084
 30
0.0
 40
8.0
100
AcDbArc
 50
187.1636477221926
 51
269.9999999999992
  0
ARC
  5
15F4A
330
747D
100
AcDbEntity
  8
細線
 48
0.2
100
AcDbCircle
 10
4865.760752205765
 20
8089.259929039084
 30
0.0
 40
4.049999999999999
100
AcDbArc
 50
194.2603506853988
 51
345.7396493146012
  0
LINE
  5
15F4B
330
747D
100
AcDbEntity
  8
部品1
 48
0.2
100
AcDbLine
 10
4860.760752205766
 20
8081.259929039083
 30
0.0
 11
4865.760752205765
 21
8081.259929039083
 31
0.0
  0
LINE
  5
15F4C
330
747D
100
AcDbEntity
  8
部品1
 48
5.0
100
AcDbLine
 10
4875.698304377088
 20
8117.762299083862
 30
0.0
 11
4875.698304377088
 21
8088.262299083861
 31
0.0
  0
LINE
  5
15F4D
330
747D
100
AcDbEntity
  8
部品1
 48
50.0
100
AcDbLine
 10
5020.698304377074
 20
8191.76229908386
 30
0.0
 11
4993.198304377073
 21
8219.762299083868
 31
0.0
  0
LINE
  5
15F4E
330
747D
100
AcDbEntity
  8
部品1
 48
5.0
100
AcDbLine
 10
5016.698304377089
 20
8143.262299083861
 30
0.0
 11
4993.698304377089
 21
8143.262299083861
 31
0.0
  0
LINE
  5
15F4F
330
747D
100
AcDbEntity
  8
部品1
 48
5.0
100
AcDbLine
 10
5080.698304377089
 20
8143.262299083861
 30
0.0
 11
5103.698304377089
 21
8143.262299083861
 31
0.0
  0
LINE
  5
15F50
330
747D
100
AcDbEntity
  8
部品1
 48
50.0
100
AcDbLine
 10
5104.198304377071
 20
8219.762299108534
 30
0.0
 11
5076.698304377075
 21
8191.76229908386
 31
0.0
  0
LINE
  5
15F51
330
747D
100
AcDbEntity
  8
部品1
 48
5.0
100
AcDbLine
 10
5020.698304377074
 20
8143.262299083861
 30
0.0
 11
5076.698304377075
 21
8143.262299083861
 31
0.0
  0
LINE
  5
15F52
330
747D
100
AcDbEntity
  8
部品1
 48
5.0
100
AcDbLine
 10
5005.698304377089
 20
8088.262299083861
 30
0.0
 11
5091.698304377089
 21
8088.262299083861
 31
0.0
  0
LINE
  5
15F53
330
747D
100
AcDbEntity
  8
部品1
100
AcDbLine
 10
5005.698304377087
 20
8117.762299083803
 30
0.0
 11
5005.698304377085
 21
8088.262299083854
 31
0.0
  0
LINE
  5
15F54
330
747D
100
AcDbEntity
  8
部品1
 48
5.0
100
AcDbLine
 10
5005.698304377089
 20
8117.762299083862
 30
0.0
 11
5005.698304377089
 21
8088.262299083861
 31
0.0
  0
LINE
  5
15F55
330
747D
100
AcDbEntity
  8
部品1
100
AcDbLine
 10
5093.698304377088
 20
8114.262299083883
 30
0.0
 11
5093.698304377088
 21
8088.262299083847
 31
0.0
  0
LINE
  5
15F56
330
747D
100
AcDbEntity
  8
部品1
100
AcDbLine
 10
5091.698304377089
 20
8117.76229908381
 30
0.0
 11
5091.698304377089
 21
8088.262299083861
 31
0.0
  0
LINE
  5
15F57
330
747D
100
AcDbEntity
  8
部品1
 48
5.0
100
AcDbLine
 10
5091.698304377089
 20
8117.762299083862
 30
0.0
 11
5091.698304377089
 21
8088.262299083861
 31
0.0
  0
LINE
  5
15F58
330
747D
100
AcDbEntity
  8
部品1
 48
5.0
100
AcDbLine
 10
5072.698304377091
 20
8143.262299083861
 30
0.0
 11
5072.698304377088
 21
8117.762299083862
 31
0.0
  0
LINE
  5
15F59
330
747D
100
AcDbEntity
  8
部品1
 48
5.0
100
AcDbLine
 10
5024.698304377089
 20
8143.262299083861
 30
0.0
 11
5024.698304377089
 21
8117.762299083862
 31
0.0
  0
LINE
  5
15F5A
330
747D
100
AcDbEntity
  8
部品1
 48
5.0
100
AcDbLine
 10
4993.698304377089
 20
8143.262299083861
 30
0.0
 11
4993.69830437709
 21
8117.762299083862
 31
0.0
  0
LINE
  5
15F5B
330
747D
100
AcDbEntity
  8
部品1
 48
5.0
100
AcDbLine
 10
5103.698304377089
 20
8143.262299083861
 30
0.0
 11
5103.698304377091
 21
8117.762299083862
 31
0.0
  0
LINE
  5
15F5C
330
747D
100
AcDbEntity
  8
部品1
100
AcDbLine
 10
4127.69831105469
 20
8978.762299083795
 30
0.0
 11
5019.69831105469
 21
8978.762299083896
 31
0.0
  0
LINE
  5
15F5D
330
747D
100
AcDbEntity
  8
部品1
 48
5.0
100
AcDbLine
 10
5048.698304377074
 20
8563.262299083861
 30
0.0
 11
5020.698304377021
 21
8563.262299083868
 31
0.0
  0
LINE
  5
15F5E
330
747D
100
AcDbEntity
  8
部品1
 48
5.0
100
AcDbLine
 10
5048.698304377074
 20
8983.262299083861
 30
0.0
 11
5020.698304377021
 21
8983.262299083868
 31
0.0
  0
LINE
  5
15F5F
330
747D
100
AcDbEntity
  8
部品1
 48
50.0
100
AcDbLine
 10
5048.698304377065
 20
8983.262299083868
 30
0.0
 11
5076.698304377049
 21
8983.262299083868
 31
0.0
  0
LINE
  5
15F60
330
747D
100
AcDbEntity
  8
部品1
 48
50.0
100
AcDbLine
 10
5048.698304377065
 20
9021.262299083868
 30
0.0
 11
5076.698304377049
 21
9021.262299083868
 31
0.0
  0
LINE
  5
15F61
330
747D
100
AcDbEntity
  8
部品1
100
AcDbLine
 10
4126.698304377094
 20
9430.262299083825
 30
0.0
 11
5046.079007395718
 21
9430.262299083846
 31
0.0
  0
LINE
  5
15F62
330
747D
100
AcDbEntity
  8
部品1
100
AcDbLine
 10
4127.69831105469
 20
9428.762299083796
 30
0.0
 11
5019.69831105469
 21
9428.762299083905
 31
0.0
  0
DIMENSION
  5
15F63
330
747D
100
AcDbEntity
  8
寸法
100
AcDbDimension
  2
*D25
 10
4993.698304377092
 20
9674.070518708923
 30
0.0
 11
4573.698304377093
 21
9674.070518708923
 31
0.0
 70
   160
  1
2X420=<>
 71
     5
 42
839.9999999999982
  3
INABA_S40G
100
AcDbAlignedDimension
 13
4153.698304377094
 23
9458.262299083854
 33
0.0
 14
4993.698304377092
 24
9458.262299083941
 34
0.0
100
AcDbRotatedDimension
1001
ACAD
1000
DSTYLE
1002
{
1002
}
  0
LINE
  5
15F64
330
747D
100
AcDbEntity
  8
部品1
100
AcDbLine
 10
4573.19830437706
 20
9458.262299083818
 30
0.0
 11
4573.19830437706
 21
9430.262299083818
 31
0.0
  0
LINE
  5
15F65
330
747D
100
AcDbEntity
  8
部品1
100
AcDbLine
 10
4573.198304377025
 20
9458.262299083781
 30
0.0
 11
4573.198304377027
 21
9430.26229908378
 31
0.0
  0
DIMENSION
  5
15F66
330
747D
100
AcDbEntity
  8
寸法
 48
50.0
100
AcDbDimension
  2
*D26
 10
5103.698304377096
 20
9674.070518708923
 30
0.0
 11
5048.698304377094
 21
9928.348840080071
 31
0.0
 70
   160
 71
     5
 42
110.0000000000036
  3
INABA_S40G
100
AcDbAlignedDimension
 13
4993.698304377092
 23
9458.262299083941
 33
0.0
 14
5103.698304377096
 24
9458.262299083919
 34
0.0
100
AcDbRotatedDimension
1001
ACAD
1000
DSTYLE
1002
{
1070
   279
1070
     2
1002
}
  0
LINE
  5
15F67
330
747D
100
AcDbEntity
  8
部品1
 48
5.0
100
AcDbLine
 10
4993.698304377092
 20
9430.262299083869
 30
0.0
 11
4993.698304377092
 21
9458.262299083868
 31
0.0
  0
LINE
  5
15F68
330
747D
100
AcDbEntity
  8
部品1
 48
5.0
100
AcDbLine
 10
5023.407578824269
 20
9458.262299083868
 30
0.0
 11
5046.079007395696
 21
9430.262299083869
 31
0.0
  0
LINE
  5
15F69
330
747D
100
AcDbEntity
  8
部品1
 48
5.0
100
AcDbLine
 10
5076.698304377023
 20
9403.262299083868
 30
0.0
 11
5020.698304377021
 21
9403.262299083868
 31
0.0
  0
LINE
  5
15F6A
330
747D
100
AcDbEntity
  8
部品1
 48
5.0
100
AcDbLine
 10
5103.698304377096
 20
9458.262299083868
 30
0.0
 11
5103.698304377092
 21
9430.262299083876
 31
0.0
  0
LINE
  5
15F6B
330
747D
100
AcDbEntity
  8
部品1
 48
50.0
100
AcDbLine
 10
5019.25091186511
 20
9428.762299083905
 30
0.0
 11
5020.698304376987
 21
9430.262299083832
 31
0.0
  0
LINE
  5
15F6C
330
747D
100
AcDbEntity
  8
部品1
 48
50.0
100
AcDbLine
 10
5078.198311054682
 20
9428.762299083796
 30
0.0
 11
5076.69830437706
 21
9430.262299083789
 31
0.0
  0
DIMENSION
  5
165D4
330
747D
100
AcDbEntity
  8
寸法
100
AcDbDimension
  2
*D27
 10
9640.745557001311
 20
5376.473660869252
 30
0.0
 11
9540.733745977687
 21
4338.973660869251
 31
0.0
 70
    32
 71
     5
 42
2075.000000000004
  3
INABA_S40G
100
AcDbAlignedDimension
 13
10784.49568618457
 23
3301.473660869248
 33
0.0
 14
10724.49568618457
 24
5376.473660869251
 34
0.0
 50
90.0
100
AcDbRotatedDimension
1001
ACAD
1000
DSTYLE
1002
{
1070
   174
1070
     0
1070
   272
1070
     1
1070
   288
1070
     0
1070
   341
1005
0
1002
}
  0
LINE
  5
165D5
330
747D
100
AcDbEntity
  8
部品1
 48
0.2
100
AcDbLine
 10
10777.49331613979
 20
5141.473660869244
 30
0.0
 11
10777.49331613979
 21
5130.723660869246
 31
0.0
  0
LINE
  5
165D6
330
747D
100
AcDbEntity
  8
部品1
 48
50.0
100
AcDbLine
 10
10777.49331613979
 20
5130.723660869244
 30
0.0
 11
10784.49568618457
 21
5130.723660869244
 31
0.0
  0
LINE
  5
165D7
330
747D
100
AcDbEntity
  8
部品1
 48
50.0
100
AcDbLine
 10
10777.49331613979
 20
3362.223660869247
 30
0.0
 11
10784.49568618457
 21
3362.223660869247
 31
0.0
  0
LINE
  5
165D8
330
747D
100
AcDbEntity
  8
部品1
 48
0.2
100
AcDbLine
 10
10777.49331613979
 20
3362.223660869247
 30
0.0
 11
10777.49331613979
 21
3351.473660869248
 31
0.0
  0
LINE
  5
165D9
330
747D
100
AcDbEntity
  8
部品1
 48
50.0
100
AcDbLine
 10
10777.49331613979
 20
3351.473660869248
 30
0.0
 11
10784.49568618457
 21
3351.473660869248
 31
0.0
  0
LINE
  5
165DA
330
747D
100
AcDbEntity
  8
部品1
100
AcDbLine
 10
10777.49331613979
 20
5141.473660869245
 30
0.0
 11
12154.49568618457
 21
5141.473660869245
 31
0.0
  0
LINE
  5
165DB
330
747D
100
AcDbEntity
  8
部品1
100
AcDbLine
 10
10784.49568618457
 20
3351.473660869246
 30
0.0
 11
12154.49568618457
 21
3351.473660869248
 31
0.0
  0
LINE
  5
165DC
330
747D
100
AcDbEntity
  8
部品1
100
AcDbLine
 10
10839.49568618457
 20
5141.473660869245
 30
0.0
 11
10839.49568618457
 21
3351.473660869246
 31
0.0
  0
LINE
  5
165DD
330
747D
100
AcDbEntity
  8
部品1
100
AcDbLine
 10
10784.49568618457
 20
5233.050554809688
 30
0.0
 11
10784.49568618457
 21
3201.473660869246
 31
0.0
  0
DIMENSION
  5
165DE
330
747D
100
AcDbEntity
  8
寸法
100
AcDbDimension
  2
*D28
 10
9940.745557001312
 20
3351.473660869248
 30
0.0
 11
9840.745557001312
 21
4246.473660869248
 31
0.0
 70
    32
 71
     5
 42
1789.999999999998
  3
INABA_S40G
100
AcDbAlignedDimension
 13
10784.49568618457
 23
5141.473660869245
 33
0.0
 14
10784.49568618457
 24
3351.473660869248
 34
0.0
 50
90.0
100
AcDbRotatedDimension
1001
ACAD
1000
DSTYLE
1002
{
1070
   174
1070
     0
1070
   272
1070
     1
1070
   288
1070
     0
1070
   341
1005
0
1002
}
  0
DIMENSION
  5
165DF
330
747D
100
AcDbEntity
  8
寸法
100
AcDbDimension
  2
*D29
 10
9940.745557001312
 20
3301.473660869248
 30
0.0
 11
9940.745557001312
 21
2995.426416774758
 31
0.0
 70
   160
 71
     5
 42
50.0
  3
INABA_S40G
100
AcDbAlignedDimension
 13
10784.49568618457
 23
3351.473660869248
 33
0.0
 14
10729.49568618457
 24
3301.473660869248
 34
0.0
 50
90.0
100
AcDbRotatedDimension
1001
ACAD
1000
DSTYLE
1002
{
1070
   174
1070
     0
1070
   272
1070
     1
1070
   288
1070
     0
1070
   341
1005
0
1002
}
  0
LINE
  5
165E0
330
747D
100
AcDbEntity
  8
部品1
100
AcDbLine
 10
11259.49568618457
 20
5141.473660869245
 30
0.0
 11
11259.49568618457
 21
3351.473660869246
 31
0.0
  0
LINE
  5
165E1
330
747D
100
AcDbEntity
  8
部品1
100
AcDbLine
 10
12154.49568618457
 20
5196.110241704499
 30
0.0
 11
12154.49568618457
 21
3201.473660869246
 31
0.0
  0
LINE
  5
165E2
330
747D
100
AcDbEntity
  8
部品1
100
AcDbLine
 10
12099.49568618457
 20
5141.473660869245
 30
0.0
 11
12099.49568618457
 21
3351.473660869246
 31
0.0
  0
DIMENSION
  5
165E3
330
747D
100
AcDbEntity
  8
寸法
100
AcDbDimension
  2
*D30
 10
12859.4228441567
 20
5321.473660869248
 30
0.0
 11
12759.41103313308
 21
4311.473660869249
 31
0.0
 70
    32
 71
     5
 42
2020.0
  3
INABA_S40G
100
AcDbAlignedDimension
 13
12154.49568618457
 23
3301.473660869248
 33
0.0
 14
12234.49568618457
 24
5321.473660869248
 34
0.0
 50
90.0
100
AcDbRotatedDimension
1001
ACAD
1000
DSTYLE
1002
{
1070
   174
1070
     0
1070
   272
1070
     1
1070
   288
1070
     0
1070
   341
1005
0
1002
}
  0
DIMENSION
  5
165E4
330
747D
100
AcDbEntity
  8
寸法
 48
50.0
100
AcDbDimension
  2
*D31
 10
10784.49568618457
 20
5775.13111444855
 30
0.0
 11
11434.31471907512
 21
5775.13111444855
 31
0.0
 70
   160
  1
柱外寸法<>
 71
     5
 42
1370.0
  3
INABA_S40G
100
AcDbAlignedDimension
 13
12154.49568618457
 23
5323.284340480899
 33
0.0
 14
10784.49568618457
 24
5372.475278992222
 34
0.0
100
AcDbRotatedDimension
1001
ACAD
1000
DSTYLE
1002
{
1070
   174
1070
     0
1070
   272
1070
     1
1070
   288
1070
     0
1070
   341
1005
0
1002
}
  0
DIMENSION
  5
165E5
330
747D
100
AcDbEntity
  8
寸法
 48
50.0
100
AcDbDimension
  2
*D32
 10
10724.49568618457
 20
5775.13111444855
 30
0.0
 11
10414.85789090898
 21
5775.13111444855
 31
0.0
 70
   160
 71
     5
 42
60.0
  3
INABA_S40G
100
AcDbAlignedDimension
 13
10784.49568618457
 23
5372.475278992222
 33
0.0
 14
10724.49568618457
 24
5376.473660869251
 34
0.0
100
AcDbRotatedDimension
1001
ACAD
1000
DSTYLE
1002
{
1070
   174
1070
     0
1070
   272
1070
     1
1070
   288
1070
     0
1070
   341
1005
0
1002
}
  0
DIMENSION
  5
165E6
330
747D
100
AcDbEntity
  8
寸法
 48
50.0
100
AcDbDimension
  2
*D33
 10
10724.49568618457
 20
5983.305435640513
 30
0.0
 11
11451.62051588639
 21
5983.305435640513
 31
0.0
 70
   160
 71
     5
 42
1510.0
  3
INABA_S40G
100
AcDbAlignedDimension
 13
12234.49568618457
 23
5321.473660869248
 33
0.0
 14
10724.49568618457
 24
5376.473660869251
 34
0.0
100
AcDbRotatedDimension
1001
ACAD
1000
DSTYLE
1002
{
1070
   174
1070
     0
1070
   272
1070
     1
1070
   288
1070
     0
1070
   341
1005
0
1002
}
  0
LINE
  5
165E7
330
747D
100
AcDbEntity
  8
部品1
100
AcDbLine
 10
10784.49568618457
 20
3301.473660869246
 30
0.0
 11
12154.49568618457
 21
3301.473660869246
 31
0.0
  0
LINE
  5
165E8
330
747D
100
AcDbEntity
  8
細線
 48
50.0
100
AcDbLine
 10
11336.99568618457
 20
5141.473660869245
 30
0.0
 11
11336.99568618457
 21
3351.473660869246
 31
0.0
  0
LINE
  5
165E9
330
747D
100
AcDbEntity
  8
細線
 48
50.0
100
AcDbLine
 10
11321.99568618457
 20
5141.473660869245
 30
0.0
 11
11321.99568618457
 21
3351.473660869246
 31
0.0
  0
LINE
  5
165EA
330
747D
100
AcDbEntity
  8
細線
 48
50.0
100
AcDbLine
 10
11461.99568618457
 20
5141.473660869245
 30
0.0
 11
11461.99568618457
 21
3351.473660869246
 31
0.0
  0
LINE
  5
165EB
330
747D
100
AcDbEntity
  8
細線
 48
50.0
100
AcDbLine
 10
11476.99568618457
 20
5141.473660869245
 30
0.0
 11
11476.99568618457
 21
3351.473660869246
 31
0.0
  0
LINE
  5
165EC
330
747D
100
AcDbEntity
  8
細線
 48
50.0
100
AcDbLine
 10
11616.99568618457
 20
5141.473660869245
 30
0.0
 11
11616.99568618457
 21
3351.473660869246
 31
0.0
  0
LINE
  5
165ED
330
747D
100
AcDbEntity
  8
細線
 48
50.0
100
AcDbLine
 10
11601.99568618457
 20
5141.473660869245
 30
0.0
 11
11601.99568618457
 21
3351.473660869246
 31
0.0
  0
LINE
  5
165EE
330
747D
100
AcDbEntity
  8
細線
 48
50.0
100
AcDbLine
 10
11181.99568618457
 20
5141.473660869245
 30
0.0
 11
11181.99568618457
 21
3351.473660869246
 31
0.0
  0
LINE
  5
165EF
330
747D
100
AcDbEntity
  8
細線
 48
50.0
100
AcDbLine
 10
11196.99568618457
 20
5141.473660869245
 30
0.0
 11
11196.99568618457
 21
3351.473660869246
 31
0.0
  0
LINE
  5
165F0
330
747D
100
AcDbEntity
  8
細線
 48
50.0
100
AcDbLine
 10
11056.99568618457
 20
5141.473660869245
 30
0.0
 11
11056.99568618457
 21
3351.473660869246
 31
0.0
  0
LINE
  5
165F1
330
747D
100
AcDbEntity
  8
細線
 48
50.0
100
AcDbLine
 10
11041.99568618457
 20
5141.473660869245
 30
0.0
 11
11041.99568618457
 21
3351.473660869246
 31
0.0
  0
LINE
  5
165F2
330
747D
100
AcDbEntity
  8
細線
 48
50.0
100
AcDbLine
 10
10901.99568618457
 20
5141.473660869245
 30
0.0
 11
10901.99568618457
 21
3351.473660869246
 31
0.0
  0
LINE
  5
165F3
330
747D
100
AcDbEntity
  8
細線
 48
50.0
100
AcDbLine
 10
10916.99568618457
 20
5141.473660869245
 30
0.0
 11
10916.99568618457
 21
3351.473660869246
 31
0.0
  0
LINE
  5
165F4
330
747D
100
AcDbEntity
  8
部品1
100
AcDbLine
 10
10732.04067254153
 20
5375.191396203512
 30
0.0
 11
12227.10756304603
 21
5319.524502196811
 31
0.0
  0
LINE
  5
165F5
330
747D
100
AcDbEntity
  8
部品1
100
AcDbLine
 10
10739.83825078652
 20
5234.254685938213
 30
0.0
 11
12209.15938672441
 21
5194.636304322433
 31
0.0
  0
LINE
  5
165F6
330
747D
100
AcDbEntity
  8
細線
 48
50.0
100
AcDbLine
 10
10757.49568618457
 20
5373.873337244652
 30
0.0
 11
10752.20658462906
 21
5233.787704617296
 31
0.0
  0
LINE
  5
165F7
330
747D
100
AcDbEntity
  8
細線
 48
50.0
100
AcDbLine
 10
12201.49568618457
 20
5320.850683522968
 30
0.0
 11
12196.74800329657
 21
5195.104911032224
 31
0.0
  0
LINE
  5
165F8
330
747D
100
AcDbEntity
  8
部品1
 48
50.0
100
AcDbLine
 10
10724.67997209768
 20
5368.067207033939
 30
0.0
 11
10725.06023187549
 21
5348.140242587527
 31
0.0
  0
LINE
  5
165F9
330
747D
100
AcDbEntity
  8
部品1
 48
50.0
100
AcDbLine
 10
10728.12900398173
 20
5344.564961094055
 30
0.0
 11
10729.8329054731
 21
5255.274464387408
 31
0.0
  0
LINE
  5
165FA
330
747D
100
AcDbEntity
  8
細線
 48
50.0
100
AcDbLine
 10
10725.53510928538
 20
5347.490742710608
 30
0.0
 11
12231.17109403055
 21
5291.276581688205
 31
0.0
  0
LINE
  5
165FB
330
747D
100
AcDbEntity
  8
細線
 48
50.0
100
AcDbLine
 10
10730.29558452267
 20
5254.629231012745
 30
0.0
 11
12220.29924895331
 21
5214.229955656676
 31
0.0
  0
LINE
  5
165FC
330
747D
100
AcDbEntity
  8
部品1
 48
50.0
100
AcDbLine
 10
10732.90167757934
 20
5251.699182893935
 30
0.0
 11
10733.10363019977
 21
5241.116147500843
 31
0.0
  0
ARC
  5
165FD
330
747D
100
AcDbEntity
  8
部品1
 48
50.0
100
AcDbCircle
 10
10731.67869792602
 20
5368.200761441367
 30
0.0
 40
7.0
100
AcDbArc
 50
87.03587545283093
 51
181.0932240292895
  0
ARC
  5
165FE
330
747D
100
AcDbEntity
  8
部品1
 48
50.0
100
AcDbCircle
 10
10740.10235602811
 20
5241.249701908271
 30
0.0
 40
7.0
100
AcDbArc
 50
181.0932240292895
 51
267.8377559869487
  0
ARC
  5
165FF
330
747D
100
AcDbEntity
  8
部品1
100
AcDbCircle
 10
10729.90222365291
 20
5251.641945290752
 30
0.0
 40
3.0
100
AcDbArc
 50
1.093224029289586
 51
80.18775403169653
  0
ARC
  5
16600
330
747D
100
AcDbEntity
  8
部品1
100
AcDbCircle
 10
10725.1295500553
 20
5344.507723490871
 30
0.0
 40
3.0
100
AcDbArc
 50
1.093224029289586
 51
80.18775403169653
  0
ARC
  5
16601
330
747D
100
AcDbEntity
  8
部品1
100
AcDbCircle
 10
10725.76010445833
 20
5348.15359802827
 30
0.0
 40
0.7
100
AcDbArc
 50
181.0932240292114
 51
260.1877540314867
  0
ARC
  5
16602
330
747D
100
AcDbEntity
  8
部品1
100
AcDbCircle
 10
10730.53277805593
 20
5255.287819828151
 30
0.0
 40
0.7
100
AcDbArc
 50
181.0932240292375
 51
260.1877540314867
  0
LINE
  5
16603
330
747D
100
AcDbEntity
  8
部品1
 48
50.0
100
AcDbLine
 10
12233.70958899527
 20
5311.824856761891
 30
0.0
 11
12231.6789678043
 21
5291.87981550411
 31
0.0
  0
LINE
  5
16604
330
747D
100
AcDbEntity
  8
部品1
 48
50.0
100
AcDbLine
 10
12228.32640131982
 20
5288.569181431201
 30
0.0
 11
12220.81962205498
 21
5214.836560686188
 31
0.0
  0
LINE
  5
16605
330
747D
100
AcDbEntity
  8
部品1
 48
50.0
100
AcDbLine
 10
12217.4670555705
 20
5211.525926613276
 30
0.0
 11
12216.38749253076
 21
5200.922309619718
 31
0.0
  0
ARC
  5
16606
330
747D
100
AcDbEntity
  8
部品1
 48
50.0
100
AcDbCircle
 10
12226.74558843052
 20
5312.533867434664
 30
0.0
 40
7.0
100
AcDbArc
 50
354.1866997665273
 51
87.03587545283093
  0
ARC
  5
16607
330
747D
100
AcDbEntity
  8
部品1
 48
50.0
100
AcDbCircle
 10
12209.423491966
 20
5201.631320292491
 30
0.0
 40
7.0
100
AcDbArc
 50
267.8377559869487
 51
354.1866997665273
  0
ARC
  5
16608
330
747D
100
AcDbEntity
  8
部品1
100
AcDbCircle
 10
12220.4516272411
 20
5211.222064896374
 30
0.0
 40
3.0
100
AcDbArc
 50
95.0921697642102
 51
174.1866997665272
  0
ARC
  5
16609
330
747D
100
AcDbEntity
  8
部品1
100
AcDbCircle
 10
12231.31097299043
 20
5288.265319714297
 30
0.0
 40
3.0
100
AcDbArc
 50
95.0921697642102
 51
174.1866997665272
  0
ARC
  5
1660A
330
747D
100
AcDbEntity
  8
部品1
100
AcDbCircle
 10
12230.98256774783
 20
5291.950716571387
 30
0.0
 40
0.7
100
AcDbArc
 50
275.0921697642102
 51
354.1866997665273
  0
ARC
  5
1660B
330
747D
100
AcDbEntity
  8
部品1
100
AcDbCircle
 10
12220.12322199851
 20
5214.907461753464
 30
0.0
 40
0.7
100
AcDbArc
 50
275.0921697642102
 51
354.1866997666828
  0
DIMENSION
  5
1660C
330
747D
100
AcDbEntity
  8
寸法
 48
50.0
100
AcDbDimension
  2
*D34
 10
12234.49568618457
 20
5775.13111444855
 30
0.0
 11
12440.54293027906
 21
5775.13111444855
 31
0.0
 70
   160
 71
     5
 42
80.0
  3
INABA_S40G
100
AcDbAlignedDimension
 13
12154.49568618457
 23
5323.284340480899
 33
0.0
 14
12234.49568618457
 24
5321.473660869248
 34
0.0
100
AcDbRotatedDimension
1001
ACAD
1000
DSTYLE
1002
{
1070
   174
1070
     0
1070
   272
1070
     1
1070
   288
1070
     0
1070
   341
1005
0
1002
}
  0
DIMENSION
  5
1660D
330
747D
100
AcDbEntity
  8
寸法
 48
50.0
100
AcDbDimension
  2
*D35
 10
10132.2294344732
 20
5398.29615176606
 30
0.0
 11
10140.90717812509
 21
5628.132390782955
 31
0.0
 70
   160
 71
     5
 42
141.0
  3
INABA_S40G
100
AcDbAlignedDimension
 13
10739.83825078652
 23
5234.254685938213
 33
0.0
 14
10745.15808493848
 24
5375.154293335095
 34
0.0
 50
87.83775598715747
100
AcDbRotatedDimension
1001
ACAD
1000
DSTYLE
1002
{
1070
   174
1070
     0
1070
   272
1070
     1
1070
   288
1070
     0
1070
   341
1005
0
1002
}
  0
LINE
  5
1660E
330
747D
100
AcDbEntity
  8
部品1
 48
50.0
100
AcDbLine
 10
11329.49568618457
 20
5507.341799970525
 30
0.0
 11
11629.49568618457
 21
5507.341799970525
 31
0.0
  0
LINE
  5
1660F
330
747D
100
AcDbEntity
  8
部品1
 48
50.0
100
AcDbLine
 10
11629.49568618457
 20
5507.341799970525
 30
0.0
 11
11629.49568618457
 21
5485.741799970527
 31
0.0
  0
TEXT
  5
16610
330
747D
100
AcDbEntity
  8
部品1
 48
50.0
100
AcDbText
 10
11317.7635214083
 20
5543.225822122959
 30
0.0
 40
120.0
  1
1000
  7
STYLE1
100
AcDbText
  0
TEXT
  5
16611
330
747D
100
AcDbEntity
  8
部品1
 48
50.0
100
AcDbText
 10
11806.58853347243
 20
5405.724563904676
 30
0.0
 40
120.0
  1
71
 50
90.0
  7
STYLE1
100
AcDbText
  0
LINE
  5
16612
330
747D
100
AcDbEntity
  8
部品1
100
AcDbLine
 10
11679.49568618457
 20
5141.473660869245
 30
0.0
 11
11679.49568618457
 21
3351.473660869246
 31
0.0
  0
LINE
  5
16613
330
747D
100
AcDbEntity
  8
細線
 48
50.0
100
AcDbLine
 10
12021.99568618457
 20
5141.473660869245
 30
0.0
 11
12021.99568618457
 21
3351.473660869246
 31
0.0
  0
LINE
  5
16614
330
747D
100
AcDbEntity
  8
細線
 48
50.0
100
AcDbLine
 10
12036.99568618457
 20
5141.473660869245
 30
0.0
 11
12036.99568618457
 21
3351.473660869246
 31
0.0
  0
LINE
  5
16615
330
747D
100
AcDbEntity
  8
細線
 48
50.0
100
AcDbLine
 10
11896.99568618457
 20
5141.473660869245
 30
0.0
 11
11896.99568618457
 21
3351.473660869246
 31
0.0
  0
LINE
  5
16616
330
747D
100
AcDbEntity
  8
細線
 48
50.0
100
AcDbLine
 10
11881.99568618457
 20
5141.473660869245
 30
0.0
 11
11881.99568618457
 21
3351.473660869246
 31
0.0
  0
LINE
  5
16617
330
747D
100
AcDbEntity
  8
細線
 48
50.0
100
AcDbLine
 10
11741.99568618457
 20
5141.473660869245
 30
0.0
 11
11741.99568618457
 21
3351.473660869246
 31
0.0
  0
LINE
  5
16618
330
747D
100
AcDbEntity
  8
細線
 48
50.0
100
AcDbLine
 10
11756.99568618457
 20
5141.473660869245
 30
0.0
 11
11756.99568618457
 21
3351.473660869246
 31
0.0
  0
LINE
  5
16619
330
747D
100
AcDbEntity
  8
部品1
 48
50.0
100
AcDbLine
 10
11329.49568618457
 20
5507.341799970525
 30
0.0
 11
11629.49568618457
 21
5485.741799970527
 31
0.0
  0
LWPOLYLINE
  5
1661A
330
747D
100
AcDbEntity
  8
部品1
100
AcDbPolyline
 90
        4
 70
     1
 43
0.0
 10
11097.76035307035
 20
2410.424374512806
 10
11097.76035307035
 20
2170.532052967274
 10
11861.23101929879
 20
2170.532052967274
 10
11861.23101929879
 20
2410.424374512806
  0
TEXT
  5
1661B
330
747D
100
AcDbEntity
  8
部品1
100
AcDbText
 10
11187.20645449396
 20
2217.530845294281
 30
0.0
 40
135.0
  1
側面図
  7
STYLE2
100
AcDbText
  0
TEXT
  5
16620
330
747D
100
AcDbEntity
  8
文字
 62
     7
 48
50.0
100
AcDbText
 10
14271.39351435261
 20
483.8967129911411
 30
0.0
 40
160.0
  1
ＮＸＮ－１３ＤＬ－６
  7
STYLE2
100
AcDbText
  0
LINE
  5
1665B
330
747D
100
AcDbEntity
  8
仕様書枠
 48
50.0
100
AcDbLine
 10
16307.19999999999
 20
11409.6
 30
0.0
 11
13127.2
 21
11409.6
 31
0.0
  0
TEXT
  5
16666
330
747D
100
AcDbEntity
  8
部品1
100
AcDbText
 10
5707.488375000815
 20
2217.530845294281
 30
0.0
 40
135.0
  1
正面図
  7
STYLE2
100
AcDbText
  0
LWPOLYLINE
  5
16667
330
747D
100
AcDbEntity
  8
部品1
100
AcDbPolyline
 90
        4
 70
     1
 43
0.0
 10
5616.962971262859
 20
2410.424374512806
 10
5616.962971262859
 20
2170.532052967274
 10
6380.4336374913
 20
2170.532052967274
 10
6380.4336374913
 20
2410.424374512806
  0
MTEXT
  5
16E4E
330
747D
100
AcDbEntity
  8
寸法
 62
     7
 48
50.0
100
AcDbMText
 10
4588.246507220326
 20
9048.376046621092
 30
0.0
 40
96.0
 41
0.0
 71
     5
 72
     1
  1
棚 2段
  7
STYLE1
 73
     1
 44
1.0
1001
ACAD
1000
MTEXTBEGIN
1070
    73
1070
     1
1070
    44
1040
1.0
1070
    74
1070
     0
1000
MTEXTEND
  0
MTEXT
  5
16E4F
330
747D
100
AcDbEntity
  8
寸法
 62
     7
 48
50.0
100
AcDbMText
 10
5538.246507220327
 20
9048.376046621092
 30
0.0
 40
96.0
 41
0.0
 71
     5
 72
     1
  1
棚 2段
  7
STYLE1
 73
     1
 44
1.0
1001
ACAD
1000
MTEXTBEGIN
1070
    73
1070
     1
1070
    44
1040
1.0
1070
    74
1070
     0
1000
MTEXTEND
  0
MTEXT
  5
16E50
330
747D
100
AcDbEntity
  8
寸法
 62
     7
 48
50.0
100
AcDbMText
 10
6488.978108665334
 20
9048.376046621079
 30
0.0
 40
96.0
 41
0.0
 71
     5
 72
     1
  1
棚 2段
  7
STYLE1
 73
     1
 44
1.0
1001
ACAD
1000
MTEXTBEGIN
1070
    73
1070
     1
1070
    44
1040
1.0
1070
    74
1070
     0
1000
MTEXTEND
  0
MTEXT
  5
16E51
330
747D
100
AcDbEntity
  8
寸法
 62
     7
 48
50.0
100
AcDbMText
 10
7438.978108665335
 20
9048.376046621079
 30
0.0
 40
96.0
 41
0.0
 71
     5
 72
     1
  1
棚 2段
  7
STYLE1
 73
     1
 44
1.0
1001
ACAD
1000
MTEXTBEGIN
1070
    73
1070
     1
1070
    44
1040
1.0
1070
    74
1070
     0
1000
MTEXTEND
  0
MTEXT
  5
16E52
330
747D
100
AcDbEntity
  8
寸法
 62
     7
 48
50.0
100
AcDbMText
 10
8388.978108665334
 20
9048.376046621079
 30
0.0
 40
96.0
 41
0.0
 71
     5
 72
     1
  1
棚 2段
  7
STYLE1
 73
     1
 44
1.0
1001
ACAD
1000
MTEXTBEGIN
1070
    73
1070
     1
1070
    44
1040
1.0
1070
    74
1070
     0
1000
MTEXTEND
  0
MTEXT
  5
16EBE
330
747D
100
AcDbEntity
  8
寸法
 62
     7
 48
50.0
100
AcDbMText
 10
3647.376334051099
 20
9052.98190096397
 30
0.0
 40
96.0
 41
0.0
 71
     5
 72
     1
  1
棚 2段
  7
STYLE1
 73
     1
 44
1.0
1001
ACAD
1000
MTEXTBEGIN
1070
    73
1070
     1
1070
    44
1040
1.0
1070
    74
1070
     0
1000
MTEXTEND
  0
DIMENSION
  5
16ED4
330
747D
100
AcDbEntity
  8
寸法
 48
50.0
100
AcDbDimension
  2
*D38
 10
3148.698304377089
 20
5589.015246127492
 30
0.0
 11
5998.69830437708
 21
5589.015246127492
 31
0.0
 70
   160
  1
柱外寸法<>
 71
     5
 42
5700.000000000003
  3
INABA_S40G
100
AcDbAlignedDimension
 13
8848.698304377093
 23
5376.473660869249
 33
0.0
 14
3148.698304377089
 24
5376.473660869255
 34
0.0
100
AcDbRotatedDimension
  0
DIMENSION
  5
16ED5
330
747D
100
AcDbEntity
  8
寸法
 48
50.0
100
AcDbDimension
  2
*D37
 10
8898.698304377091
 20
5811.972224565339
 30
0.0
 11
5998.69830437708
 21
5811.972224565339
 31
0.0
 70
   160
 71
     5
 42
5800.000000000004
  3
INABA_S40G
100
AcDbAlignedDimension
 13
3098.698304377089
 23
5376.473660869253
 33
0.0
 14
8898.698304377091
 24
5376.473660869248
 34
0.0
100
AcDbRotatedDimension
  0
DIMENSION
  5
16ED6
330
747D
100
AcDbEntity
  8
寸法
 48
50.0
100
AcDbDimension
  2
*D36
 10
3098.698304377089
 20
5589.015246127492
 30
0.0
 11
2785.213023002842
 21
5589.015246127492
 31
0.0
 70
   160
 71
     5
 42
50.0
  3
INABA_S40G
100
AcDbAlignedDimension
 13
3148.698304377089
 23
5376.473660869255
 33
0.0
 14
3098.698304377089
 24
5376.473660869253
 34
0.0
100
AcDbRotatedDimension
1001
ACAD
1000
DSTYLE
1002
{
1002
}
  0
LINE
  5
16ED7
330
747D
100
AcDbEntity
  8
部品1
100
AcDbLine
 10
3099.117965392419
 20
5369.077135474012
 30
0.0
 11
3100.251362724768
 21
5349.101007491412
 31
0.0
  0
LINE
  5
16ED8
330
747D
100
AcDbEntity
  8
部品1
100
AcDbLine
 10
3111.688383046345
 20
5253.443600324353
 30
0.0
 11
3112.333288853454
 21
5242.077135474012
 31
0.0
  0
LINE
  5
16ED9
330
747D
100
AcDbEntity
  8
部品1
100
AcDbLine
 10
3103.452352521497
 20
5345.643600324354
 30
0.0
 11
3108.487393249609
 21
5256.901007491411
 31
0.0
  0
ARC
  5
16EDA
330
747D
100
AcDbEntity
  8
部品1
 48
50.0
100
AcDbCircle
 10
3100.457169625312
 20
5345.473660869252
 30
0.0
 40
3.0
100
AcDbArc
 50
3.247342790337682
 51
82.34187279263654
  0
ARC
  5
16EDB
330
747D
100
AcDbEntity
  8
部品1
 48
50.0
100
AcDbCircle
 10
3108.693200150156
 20
5253.27366086925
 30
0.0
 40
3.0
100
AcDbArc
 50
3.247342790337682
 51
82.34187279263654
  0
ARC
  5
16EDC
330
747D
100
AcDbEntity
  8
部品1
 48
50.0
100
AcDbCircle
 10
3109.186269258717
 20
5256.940660030934
 30
0.0
 40
0.7
100
AcDbArc
 50
183.2473427902856
 51
262.3418727926365
  0
ARC
  5
16EDD
330
747D
100
AcDbEntity
  8
部品1
 48
50.0
100
AcDbCircle
 10
3100.950238733876
 20
5349.140660030938
 30
0.0
 40
0.7
100
AcDbArc
 50
183.2473427903897
 51
262.3418727926365
  0
ARC
  5
16EDE
330
747D
100
AcDbEntity
  8
部品1
100
AcDbCircle
 10
3119.322048944552
 20
5242.473660869253
 30
0.0
 40
7.0
100
AcDbArc
 50
183.2473427903377
 51
270.0
  0
ARC
  5
16EDF
330
747D
100
AcDbEntity
  8
部品1
100
AcDbCircle
 10
3106.106725483518
 20
5369.473660869251
 30
0.0
 40
7.0
100
AcDbArc
 50
90.0
 51
183.2473427903377
  0
LINE
  5
16EE0
330
747D
100
AcDbEntity
  8
細線
 48
50.0
100
AcDbLine
 10
3131.698304377089
 20
5376.473660869251
 30
0.0
 11
3131.698304377089
 21
5235.473660869249
 31
0.0
  0
LINE
  5
16EE1
330
747D
100
AcDbEntity
  8
部品1
 48
50.0
100
AcDbLine
 10
8878.074559809626
 20
5235.473660869248
 30
0.0
 11
3119.322048944552
 21
5235.473660869249
 31
0.0
  0
LINE
  5
16EE2
330
747D
100
AcDbEntity
  8
細線
 48
50.0
100
AcDbLine
 10
8888.303622839197
 20
5256.24690343256
 30
0.0
 11
3109.092985912335
 21
5256.246903433247
 31
0.0
  0
LINE
  5
16EE3
330
747D
100
AcDbEntity
  8
細線
 48
50.0
100
AcDbLine
 10
8896.539653363962
 20
5348.446903432554
 30
0.0
 11
3100.856955387503
 21
5348.446903433247
 31
0.0
  0
LINE
  5
16EE4
330
747D
100
AcDbEntity
  8
部品1
 48
50.0
100
AcDbLine
 10
8891.28988327066
 20
5376.473660869254
 30
0.0
 11
3106.106725483518
 21
5376.473660869248
 31
0.0
  0
DIMENSION
  5
16F28
330
747D
100
AcDbEntity
  8
寸法
 48
50.0
100
AcDbDimension
  2
*D39
 10
8848.698304377093
 20
5589.015246127488
 30
0.0
 11
9212.183585751329
 21
5589.015246127488
 31
0.0
 70
   160
 71
     5
 42
50.0
  3
INABA_S40G
100
AcDbAlignedDimension
 13
8898.698304377091
 23
5376.473660869248
 33
0.0
 14
8848.698304377093
 24
5376.473660869249
 34
0.0
100
AcDbRotatedDimension
  0
ARC
  5
16F29
330
747D
100
AcDbEntity
  8
部品1
100
AcDbCircle
 10
8891.28988327066
 20
5369.473660869247
 30
0.0
 40
7.0
100
AcDbArc
 50
356.7526572096623
 51
90.0
  0
ARC
  5
16F2A
330
747D
100
AcDbEntity
  8
部品1
100
AcDbCircle
 10
8878.074559809626
 20
5242.473660869249
 30
0.0
 40
7.0
100
AcDbArc
 50
270.0
 51
356.7526572096623
  0
ARC
  5
16F2B
330
747D
100
AcDbEntity
  8
部品1
 48
50.0
100
AcDbCircle
 10
8896.446370020305
 20
5349.140660030935
 30
0.0
 40
0.7
100
AcDbArc
 50
277.6581272073635
 51
356.7526572096103
  0
ARC
  5
16F2C
330
747D
100
AcDbEntity
  8
部品1
 48
50.0
100
AcDbCircle
 10
8888.210339495461
 20
5256.940660030931
 30
0.0
 40
0.7
100
AcDbArc
 50
277.6581272073635
 51
356.7526572097143
  0
ARC
  5
16F2D
330
747D
100
AcDbEntity
  8
部品1
 48
50.0
100
AcDbCircle
 10
8888.703408604021
 20
5253.273660869247
 30
0.0
 40
3.0
100
AcDbArc
 50
97.65812720736347
 51
176.7526572096623
  0
ARC
  5
16F2E
330
747D
100
AcDbEntity
  8
部品1
 48
50.0
100
AcDbCircle
 10
8896.939439128866
 20
5345.473660869249
 30
0.0
 40
3.0
100
AcDbArc
 50
97.65812720736347
 51
176.7526572096623
  0
LINE
  5
16F2F
330
747D
100
AcDbEntity
  8
部品1
100
AcDbLine
 10
8893.94425623268
 20
5345.643600324351
 30
0.0
 11
8888.909215504568
 21
5256.901007491407
 31
0.0
  0
LINE
  5
16F30
330
747D
100
AcDbEntity
  8
部品1
100
AcDbLine
 10
8885.708225707835
 20
5253.44360032435
 30
0.0
 11
8885.063319900725
 21
5242.07713547401
 31
0.0
  0
LINE
  5
16F31
330
747D
100
AcDbEntity
  8
細線
 48
50.0
100
AcDbLine
 10
8865.698304377092
 20
5376.473660869248
 30
0.0
 11
8865.698304377092
 21
5235.473660869248
 31
0.0
  0
LINE
  5
16F32
330
747D
100
AcDbEntity
  8
部品1
100
AcDbLine
 10
8898.278643361759
 20
5369.077135474008
 30
0.0
 11
8897.145246029413
 21
5349.101007491409
 31
0.0
  0
LINE
  5
17311
330
747D
100
AcDbEntity
  8
細線
100
AcDbLine
 10
5523.698304377089
 20
5200.973660869242
 30
0.0
 11
5523.698304377085
 21
5177.973660869241
 31
0.0
  0
LINE
  5
17312
330
747D
100
AcDbEntity
  8
細線
100
AcDbLine
 10
5597.698304377085
 20
5188.973660869242
 30
0.0
 11
5523.698304377089
 21
5188.973660869242
 31
0.0
  0
LINE
  5
17313
330
747D
100
AcDbEntity
  8
細線
100
AcDbLine
 10
5597.698304377085
 20
5182.973660869242
 30
0.0
 11
5523.698304377089
 21
5182.973660869242
 31
0.0
  0
LINE
  5
17314
330
747D
100
AcDbEntity
  8
細線
100
AcDbLine
 10
5597.698304377085
 20
5194.973660869242
 30
0.0
 11
5523.698304377089
 21
5194.973660869242
 31
0.0
  0
LINE
  5
17315
330
747D
100
AcDbEntity
  8
細線
100
AcDbLine
 10
5449.698304377089
 20
5194.973660869242
 30
0.0
 11
5518.698304377089
 21
5194.973660869242
 31
0.0
  0
LINE
  5
17316
330
747D
100
AcDbEntity
  8
細線
100
AcDbLine
 10
5449.698304377085
 20
5182.973660869242
 30
0.0
 11
5523.698304377089
 21
5182.973660869242
 31
0.0
  0
LINE
  5
17317
330
747D
100
AcDbEntity
  8
細線
100
AcDbLine
 10
5449.698304377089
 20
5188.973660869242
 30
0.0
 11
5523.698304377089
 21
5188.973660869242
 31
0.0
  0
LINE
  5
17318
330
747D
100
AcDbEntity
  8
細線
100
AcDbLine
 10
5449.698304377089
 20
5194.973660869242
 30
0.0
 11
5523.698304377089
 21
5194.973660869242
 31
0.0
  0
LINE
  5
17319
330
747D
100
AcDbEntity
  8
部品1
 48
0.01
100
AcDbLine
 10
5611.698304377089
 20
5207.473660869242
 30
0.0
 11
5435.698304377089
 21
5207.473660869242
 31
0.0
  0
LINE
  5
1731A
330
747D
100
AcDbEntity
  8
部品1
 48
0.01
100
AcDbLine
 10
5433.698304377088
 20
5205.473660869242
 30
0.0
 11
5433.698304377088
 21
5173.973660869242
 31
0.0
  0
LINE
  5
1731B
330
747D
100
AcDbEntity
  8
部品1
 48
0.01
100
AcDbLine
 10
5435.698304377089
 20
5171.973660869242
 30
0.0
 11
5611.698304377085
 21
5171.973660869242
 31
0.0
  0
LINE
  5
1731C
330
747D
100
AcDbEntity
  8
部品1
 48
0.01
100
AcDbLine
 10
5613.698304377085
 20
5173.973660869242
 30
0.0
 11
5613.698304377089
 21
5205.473660869242
 31
0.0
  0
LINE
  5
1731D
330
747D
100
AcDbEntity
  8
細線
100
AcDbLine
 10
5449.698304377089
 20
5200.973660869242
 30
0.0
 11
5449.698304377089
 21
5177.973660869241
 31
0.0
  0
LINE
  5
1731E
330
747D
100
AcDbEntity
  8
細線
100
AcDbLine
 10
5597.698304377089
 20
5177.973660869241
 30
0.0
 11
5597.698304377089
 21
5200.973660869242
 31
0.0
  0
LINE
  5
1731F
330
747D
100
AcDbEntity
  8
細線
100
AcDbLine
 10
5597.698304377089
 20
5200.973660869242
 30
0.0
 11
5523.698304377089
 21
5200.973660869242
 31
0.0
  0
LINE
  5
17320
330
747D
100
AcDbEntity
  8
細線
100
AcDbLine
 10
5449.698304377089
 20
5177.973660869241
 30
0.0
 11
5523.698304377089
 21
5177.973660869241
 31
0.0
  0
LINE
  5
17321
330
747D
100
AcDbEntity
  8
細線
100
AcDbLine
 10
5523.698304377089
 20
5200.973660869242
 30
0.0
 11
5449.698304377089
 21
5200.973660869242
 31
0.0
  0
LINE
  5
17322
330
747D
100
AcDbEntity
  8
細線
100
AcDbLine
 10
5523.698304377085
 20
5177.973660869241
 30
0.0
 11
5597.698304377089
 21
5177.973660869241
 31
0.0
  0
ARC
  5
17323
330
747D
100
AcDbEntity
  8
部品1
 48
0.01
100
AcDbCircle
 10
5435.698304377089
 20
5205.473660869242
 30
0.0
 40
2.0
100
AcDbArc
 50
90.0
 51
180.0
  0
ARC
  5
17324
330
747D
100
AcDbEntity
  8
部品1
 48
0.01
100
AcDbCircle
 10
5435.698304377089
 20
5173.973660869242
 30
0.0
 40
2.0
100
AcDbArc
 50
180.0
 51
270.0
  0
ARC
  5
17325
330
747D
100
AcDbEntity
  8
部品1
 48
0.01
100
AcDbCircle
 10
5611.698304377089
 20
5205.473660869242
 30
0.0
 40
2.0
100
AcDbArc
 50
0.0
 51
90.0
  0
ARC
  5
17326
330
747D
100
AcDbEntity
  8
部品1
 48
0.01
100
AcDbCircle
 10
5611.698304377085
 20
5173.973660869242
 30
0.0
 40
2.0
100
AcDbArc
 50
270.0
 51
0.0
  0
ARC
  5
17327
330
747D
100
AcDbEntity
  8
部品1
 48
0.01
100
AcDbCircle
 10
4661.698304377085
 20
5173.973660869242
 30
0.0
 40
2.0
100
AcDbArc
 50
270.0
 51
0.0
  0
ARC
  5
17328
330
747D
100
AcDbEntity
  8
部品1
 48
0.01
100
AcDbCircle
 10
4661.698304377089
 20
5205.473660869242
 30
0.0
 40
2.0
100
AcDbArc
 50
0.0
 51
90.0
  0
ARC
  5
17329
330
747D
100
AcDbEntity
  8
部品1
 48
0.01
100
AcDbCircle
 10
4485.698304377089
 20
5173.973660869242
 30
0.0
 40
2.0
100
AcDbArc
 50
180.0
 51
270.0
  0
ARC
  5
1732A
330
747D
100
AcDbEntity
  8
部品1
 48
0.01
100
AcDbCircle
 10
4485.698304377089
 20
5205.473660869242
 30
0.0
 40
2.0
100
AcDbArc
 50
90.0
 51
180.0
  0
LINE
  5
1732B
330
747D
100
AcDbEntity
  8
細線
100
AcDbLine
 10
4573.698304377085
 20
5177.973660869241
 30
0.0
 11
4647.698304377088
 21
5177.973660869241
 31
0.0
  0
LINE
  5
1732C
330
747D
100
AcDbEntity
  8
細線
100
AcDbLine
 10
4573.698304377089
 20
5200.973660869242
 30
0.0
 11
4499.698304377089
 21
5200.973660869242
 31
0.0
  0
LINE
  5
1732D
330
747D
100
AcDbEntity
  8
細線
100
AcDbLine
 10
4499.698304377089
 20
5177.973660869241
 30
0.0
 11
4573.698304377089
 21
5177.973660869241
 31
0.0
  0
LINE
  5
1732E
330
747D
100
AcDbEntity
  8
細線
100
AcDbLine
 10
4647.698304377088
 20
5200.973660869242
 30
0.0
 11
4573.698304377089
 21
5200.973660869242
 31
0.0
  0
LINE
  5
1732F
330
747D
100
AcDbEntity
  8
細線
100
AcDbLine
 10
4647.698304377088
 20
5177.973660869241
 30
0.0
 11
4647.698304377088
 21
5200.973660869242
 31
0.0
  0
LINE
  5
17330
330
747D
100
AcDbEntity
  8
細線
100
AcDbLine
 10
4499.698304377089
 20
5200.973660869242
 30
0.0
 11
4499.698304377089
 21
5177.973660869241
 31
0.0
  0
LINE
  5
17331
330
747D
100
AcDbEntity
  8
部品1
 48
0.01
100
AcDbLine
 10
4663.698304377085
 20
5173.973660869242
 30
0.0
 11
4663.698304377088
 21
5205.473660869242
 31
0.0
  0
LINE
  5
17332
330
747D
100
AcDbEntity
  8
部品1
 48
0.01
100
AcDbLine
 10
4485.698304377089
 20
5171.973660869242
 30
0.0
 11
4661.698304377085
 21
5171.973660869242
 31
0.0
  0
LINE
  5
17333
330
747D
100
AcDbEntity
  8
部品1
 48
0.01
100
AcDbLine
 10
4483.698304377088
 20
5205.473660869242
 30
0.0
 11
4483.698304377088
 21
5173.973660869242
 31
0.0
  0
LINE
  5
17334
330
747D
100
AcDbEntity
  8
部品1
 48
0.01
100
AcDbLine
 10
4661.698304377089
 20
5207.473660869242
 30
0.0
 11
4485.698304377089
 21
5207.473660869242
 31
0.0
  0
LINE
  5
17335
330
747D
100
AcDbEntity
  8
細線
100
AcDbLine
 10
4499.698304377089
 20
5194.973660869242
 30
0.0
 11
4573.698304377089
 21
5194.973660869242
 31
0.0
  0
LINE
  5
17336
330
747D
100
AcDbEntity
  8
細線
100
AcDbLine
 10
4499.698304377089
 20
5188.973660869242
 30
0.0
 11
4573.698304377089
 21
5188.973660869242
 31
0.0
  0
LINE
  5
17337
330
747D
100
AcDbEntity
  8
細線
100
AcDbLine
 10
4499.698304377085
 20
5182.973660869242
 30
0.0
 11
4573.698304377089
 21
5182.973660869242
 31
0.0
  0
LINE
  5
17338
330
747D
100
AcDbEntity
  8
細線
100
AcDbLine
 10
4499.698304377089
 20
5194.973660869242
 30
0.0
 11
4568.698304377089
 21
5194.973660869242
 31
0.0
  0
LINE
  5
17339
330
747D
100
AcDbEntity
  8
細線
100
AcDbLine
 10
4647.698304377085
 20
5194.973660869242
 30
0.0
 11
4573.698304377089
 21
5194.973660869242
 31
0.0
  0
LINE
  5
1733A
330
747D
100
AcDbEntity
  8
細線
100
AcDbLine
 10
4647.698304377085
 20
5182.973660869242
 30
0.0
 11
4573.698304377089
 21
5182.973660869242
 31
0.0
  0
LINE
  5
1733B
330
747D
100
AcDbEntity
  8
細線
100
AcDbLine
 10
4647.698304377085
 20
5188.973660869242
 30
0.0
 11
4573.698304377089
 21
5188.973660869242
 31
0.0
  0
LINE
  5
1733C
330
747D
100
AcDbEntity
  8
細線
100
AcDbLine
 10
4573.698304377089
 20
5200.973660869242
 30
0.0
 11
4573.698304377085
 21
5177.973660869241
 31
0.0
  0
LINE
  5
1733D
330
747D
100
AcDbEntity
  8
細線
100
AcDbLine
 10
3623.698304377089
 20
5200.973660869244
 30
0.0
 11
3623.698304377086
 21
5177.973660869244
 31
0.0
  0
LINE
  5
1733E
330
747D
100
AcDbEntity
  8
細線
100
AcDbLine
 10
3697.698304377085
 20
5188.973660869244
 30
0.0
 11
3623.698304377089
 21
5188.973660869244
 31
0.0
  0
LINE
  5
1733F
330
747D
100
AcDbEntity
  8
細線
100
AcDbLine
 10
3697.698304377085
 20
5182.973660869244
 30
0.0
 11
3623.698304377089
 21
5182.973660869244
 31
0.0
  0
LINE
  5
17340
330
747D
100
AcDbEntity
  8
細線
100
AcDbLine
 10
3697.698304377085
 20
5194.973660869244
 30
0.0
 11
3623.698304377089
 21
5194.973660869244
 31
0.0
  0
LINE
  5
17341
330
747D
100
AcDbEntity
  8
細線
100
AcDbLine
 10
3549.698304377089
 20
5194.973660869244
 30
0.0
 11
3618.698304377089
 21
5194.973660869244
 31
0.0
  0
LINE
  5
17342
330
747D
100
AcDbEntity
  8
細線
100
AcDbLine
 10
3549.698304377086
 20
5182.973660869244
 30
0.0
 11
3623.698304377089
 21
5182.973660869244
 31
0.0
  0
LINE
  5
17343
330
747D
100
AcDbEntity
  8
細線
100
AcDbLine
 10
3549.698304377089
 20
5188.973660869244
 30
0.0
 11
3623.698304377089
 21
5188.973660869244
 31
0.0
  0
LINE
  5
17344
330
747D
100
AcDbEntity
  8
細線
100
AcDbLine
 10
3549.698304377089
 20
5194.973660869244
 30
0.0
 11
3623.698304377089
 21
5194.973660869244
 31
0.0
  0
LINE
  5
17345
330
747D
100
AcDbEntity
  8
部品1
 48
0.01
100
AcDbLine
 10
3711.698304377089
 20
5207.473660869244
 30
0.0
 11
3535.698304377089
 21
5207.473660869244
 31
0.0
  0
LINE
  5
17346
330
747D
100
AcDbEntity
  8
部品1
 48
0.01
100
AcDbLine
 10
3533.698304377089
 20
5205.473660869244
 30
0.0
 11
3533.698304377089
 21
5173.973660869243
 31
0.0
  0
LINE
  5
17347
330
747D
100
AcDbEntity
  8
部品1
 48
0.01
100
AcDbLine
 10
3535.698304377089
 20
5171.973660869244
 30
0.0
 11
3711.698304377085
 21
5171.973660869244
 31
0.0
  0
LINE
  5
17348
330
747D
100
AcDbEntity
  8
部品1
 48
0.01
100
AcDbLine
 10
3713.698304377086
 20
5173.973660869243
 30
0.0
 11
3713.698304377089
 21
5205.473660869244
 31
0.0
  0
LINE
  5
17349
330
747D
100
AcDbEntity
  8
細線
100
AcDbLine
 10
3549.698304377089
 20
5200.973660869244
 30
0.0
 11
3549.698304377089
 21
5177.973660869244
 31
0.0
  0
LINE
  5
1734A
330
747D
100
AcDbEntity
  8
細線
100
AcDbLine
 10
3697.698304377089
 20
5177.973660869244
 30
0.0
 11
3697.698304377089
 21
5200.973660869244
 31
0.0
  0
LINE
  5
1734B
330
747D
100
AcDbEntity
  8
細線
100
AcDbLine
 10
3697.698304377089
 20
5200.973660869244
 30
0.0
 11
3623.698304377089
 21
5200.973660869244
 31
0.0
  0
LINE
  5
1734C
330
747D
100
AcDbEntity
  8
細線
100
AcDbLine
 10
3549.698304377089
 20
5177.973660869244
 30
0.0
 11
3623.698304377089
 21
5177.973660869244
 31
0.0
  0
LINE
  5
1734D
330
747D
100
AcDbEntity
  8
細線
100
AcDbLine
 10
3623.698304377089
 20
5200.973660869244
 30
0.0
 11
3549.698304377089
 21
5200.973660869244
 31
0.0
  0
LINE
  5
1734E
330
747D
100
AcDbEntity
  8
細線
100
AcDbLine
 10
3623.698304377086
 20
5177.973660869244
 30
0.0
 11
3697.698304377089
 21
5177.973660869244
 31
0.0
  0
ARC
  5
1734F
330
747D
100
AcDbEntity
  8
部品1
 48
0.01
100
AcDbCircle
 10
3535.698304377089
 20
5205.473660869244
 30
0.0
 40
2.0
100
AcDbArc
 50
90.0
 51
180.0
  0
ARC
  5
17350
330
747D
100
AcDbEntity
  8
部品1
 48
0.01
100
AcDbCircle
 10
3535.698304377089
 20
5173.973660869243
 30
0.0
 40
2.0
100
AcDbArc
 50
180.0
 51
270.0
  0
ARC
  5
17351
330
747D
100
AcDbEntity
  8
部品1
 48
0.01
100
AcDbCircle
 10
3711.698304377089
 20
5205.473660869244
 30
0.0
 40
2.0
100
AcDbArc
 50
0.0
 51
90.0
  0
ARC
  5
17352
330
747D
100
AcDbEntity
  8
部品1
 48
0.01
100
AcDbCircle
 10
3711.698304377085
 20
5173.973660869243
 30
0.0
 40
2.0
100
AcDbArc
 50
270.0
 51
0.0
  0
ARC
  5
17353
330
747D
100
AcDbEntity
  8
部品1
 48
0.01
100
AcDbCircle
 10
7511.698304377086
 20
5173.973660869242
 30
0.0
 40
2.0
100
AcDbArc
 50
270.0
 51
0.0
  0
ARC
  5
17354
330
747D
100
AcDbEntity
  8
部品1
 48
0.01
100
AcDbCircle
 10
7511.698304377088
 20
5205.473660869242
 30
0.0
 40
2.0
100
AcDbArc
 50
0.0
 51
90.0
  0
ARC
  5
17355
330
747D
100
AcDbEntity
  8
部品1
 48
0.01
100
AcDbCircle
 10
7335.698304377089
 20
5173.973660869242
 30
0.0
 40
2.0
100
AcDbArc
 50
180.0
 51
270.0
  0
ARC
  5
17356
330
747D
100
AcDbEntity
  8
部品1
 48
0.01
100
AcDbCircle
 10
7335.698304377089
 20
5205.473660869242
 30
0.0
 40
2.0
100
AcDbArc
 50
90.0
 51
180.0
  0
LINE
  5
17357
330
747D
100
AcDbEntity
  8
細線
100
AcDbLine
 10
7423.698304377085
 20
5177.973660869241
 30
0.0
 11
7497.698304377088
 21
5177.973660869241
 31
0.0
  0
LINE
  5
17358
330
747D
100
AcDbEntity
  8
細線
100
AcDbLine
 10
7423.698304377089
 20
5200.973660869242
 30
0.0
 11
7349.698304377089
 21
5200.973660869242
 31
0.0
  0
LINE
  5
17359
330
747D
100
AcDbEntity
  8
細線
100
AcDbLine
 10
7349.698304377089
 20
5177.973660869241
 30
0.0
 11
7423.698304377089
 21
5177.973660869241
 31
0.0
  0
LINE
  5
1735A
330
747D
100
AcDbEntity
  8
細線
100
AcDbLine
 10
7497.698304377088
 20
5200.973660869242
 30
0.0
 11
7423.698304377089
 21
5200.973660869242
 31
0.0
  0
LINE
  5
1735B
330
747D
100
AcDbEntity
  8
細線
100
AcDbLine
 10
7497.698304377088
 20
5177.973660869241
 30
0.0
 11
7497.698304377088
 21
5200.973660869242
 31
0.0
  0
LINE
  5
1735C
330
747D
100
AcDbEntity
  8
細線
100
AcDbLine
 10
7349.698304377089
 20
5200.973660869242
 30
0.0
 11
7349.698304377089
 21
5177.973660869241
 31
0.0
  0
LINE
  5
1735D
330
747D
100
AcDbEntity
  8
部品1
 48
0.01
100
AcDbLine
 10
7513.698304377085
 20
5173.973660869242
 30
0.0
 11
7513.698304377088
 21
5205.473660869242
 31
0.0
  0
LINE
  5
1735E
330
747D
100
AcDbEntity
  8
部品1
 48
0.01
100
AcDbLine
 10
7335.698304377089
 20
5171.973660869242
 30
0.0
 11
7511.698304377086
 21
5171.973660869242
 31
0.0
  0
LINE
  5
1735F
330
747D
100
AcDbEntity
  8
部品1
 48
0.01
100
AcDbLine
 10
7333.698304377088
 20
5205.473660869242
 30
0.0
 11
7333.698304377088
 21
5173.973660869242
 31
0.0
  0
LINE
  5
17360
330
747D
100
AcDbEntity
  8
部品1
 48
0.01
100
AcDbLine
 10
7511.698304377088
 20
5207.473660869242
 30
0.0
 11
7335.698304377089
 21
5207.473660869242
 31
0.0
  0
LINE
  5
17361
330
747D
100
AcDbEntity
  8
細線
100
AcDbLine
 10
7349.698304377089
 20
5194.973660869242
 30
0.0
 11
7423.698304377089
 21
5194.973660869242
 31
0.0
  0
LINE
  5
17362
330
747D
100
AcDbEntity
  8
細線
100
AcDbLine
 10
7349.698304377089
 20
5188.973660869242
 30
0.0
 11
7423.698304377089
 21
5188.973660869242
 31
0.0
  0
LINE
  5
17363
330
747D
100
AcDbEntity
  8
細線
100
AcDbLine
 10
7349.698304377085
 20
5182.973660869242
 30
0.0
 11
7423.698304377089
 21
5182.973660869242
 31
0.0
  0
LINE
  5
17364
330
747D
100
AcDbEntity
  8
細線
100
AcDbLine
 10
7349.698304377089
 20
5194.973660869242
 30
0.0
 11
7418.698304377089
 21
5194.973660869242
 31
0.0
  0
LINE
  5
17365
330
747D
100
AcDbEntity
  8
細線
100
AcDbLine
 10
7497.698304377085
 20
5194.973660869242
 30
0.0
 11
7423.698304377089
 21
5194.973660869242
 31
0.0
  0
LINE
  5
17366
330
747D
100
AcDbEntity
  8
細線
100
AcDbLine
 10
7497.698304377085
 20
5182.973660869242
 30
0.0
 11
7423.698304377089
 21
5182.973660869242
 31
0.0
  0
LINE
  5
17367
330
747D
100
AcDbEntity
  8
細線
100
AcDbLine
 10
7497.698304377085
 20
5188.973660869242
 30
0.0
 11
7423.698304377089
 21
5188.973660869242
 31
0.0
  0
LINE
  5
17368
330
747D
100
AcDbEntity
  8
細線
100
AcDbLine
 10
7423.698304377089
 20
5200.973660869242
 30
0.0
 11
7423.698304377085
 21
5177.973660869241
 31
0.0
  0
LINE
  5
17369
330
747D
100
AcDbEntity
  8
細線
100
AcDbLine
 10
6473.698304377089
 20
5200.973660869242
 30
0.0
 11
6473.698304377085
 21
5177.973660869241
 31
0.0
  0
LINE
  5
1736A
330
747D
100
AcDbEntity
  8
細線
100
AcDbLine
 10
6547.698304377085
 20
5188.973660869242
 30
0.0
 11
6473.698304377089
 21
5188.973660869242
 31
0.0
  0
LINE
  5
1736B
330
747D
100
AcDbEntity
  8
細線
100
AcDbLine
 10
6547.698304377085
 20
5182.973660869242
 30
0.0
 11
6473.698304377089
 21
5182.973660869242
 31
0.0
  0
LINE
  5
1736C
330
747D
100
AcDbEntity
  8
細線
100
AcDbLine
 10
6547.698304377085
 20
5194.973660869242
 30
0.0
 11
6473.698304377089
 21
5194.973660869242
 31
0.0
  0
LINE
  5
1736D
330
747D
100
AcDbEntity
  8
細線
100
AcDbLine
 10
6399.698304377089
 20
5194.973660869242
 30
0.0
 11
6468.698304377089
 21
5194.973660869242
 31
0.0
  0
LINE
  5
1736E
330
747D
100
AcDbEntity
  8
細線
100
AcDbLine
 10
6399.698304377086
 20
5182.973660869242
 30
0.0
 11
6473.698304377089
 21
5182.973660869242
 31
0.0
  0
LINE
  5
1736F
330
747D
100
AcDbEntity
  8
細線
100
AcDbLine
 10
6399.698304377089
 20
5188.973660869242
 30
0.0
 11
6473.698304377089
 21
5188.973660869242
 31
0.0
  0
LINE
  5
17370
330
747D
100
AcDbEntity
  8
細線
100
AcDbLine
 10
6399.698304377089
 20
5194.973660869242
 30
0.0
 11
6473.698304377089
 21
5194.973660869242
 31
0.0
  0
LINE
  5
17371
330
747D
100
AcDbEntity
  8
部品1
 48
0.01
100
AcDbLine
 10
6561.698304377088
 20
5207.473660869242
 30
0.0
 11
6385.698304377089
 21
5207.473660869242
 31
0.0
  0
LINE
  5
17372
330
747D
100
AcDbEntity
  8
部品1
 48
0.01
100
AcDbLine
 10
6383.698304377089
 20
5205.473660869242
 30
0.0
 11
6383.698304377089
 21
5173.973660869242
 31
0.0
  0
LINE
  5
17373
330
747D
100
AcDbEntity
  8
部品1
 48
0.01
100
AcDbLine
 10
6385.698304377089
 20
5171.973660869242
 30
0.0
 11
6561.698304377086
 21
5171.973660869242
 31
0.0
  0
LINE
  5
17374
330
747D
100
AcDbEntity
  8
部品1
 48
0.01
100
AcDbLine
 10
6563.698304377085
 20
5173.973660869242
 30
0.0
 11
6563.698304377088
 21
5205.473660869242
 31
0.0
  0
LINE
  5
17375
330
747D
100
AcDbEntity
  8
細線
100
AcDbLine
 10
6399.698304377089
 20
5200.973660869242
 30
0.0
 11
6399.698304377089
 21
5177.973660869241
 31
0.0
  0
LINE
  5
17376
330
747D
100
AcDbEntity
  8
細線
100
AcDbLine
 10
6547.698304377089
 20
5177.973660869241
 30
0.0
 11
6547.698304377089
 21
5200.973660869242
 31
0.0
  0
LINE
  5
17377
330
747D
100
AcDbEntity
  8
細線
100
AcDbLine
 10
6547.698304377089
 20
5200.973660869242
 30
0.0
 11
6473.698304377089
 21
5200.973660869242
 31
0.0
  0
LINE
  5
17378
330
747D
100
AcDbEntity
  8
細線
100
AcDbLine
 10
6399.698304377089
 20
5177.973660869241
 30
0.0
 11
6473.698304377089
 21
5177.973660869241
 31
0.0
  0
LINE
  5
17379
330
747D
100
AcDbEntity
  8
細線
100
AcDbLine
 10
6473.698304377089
 20
5200.973660869242
 30
0.0
 11
6399.698304377089
 21
5200.973660869242
 31
0.0
  0
LINE
  5
1737A
330
747D
100
AcDbEntity
  8
細線
100
AcDbLine
 10
6473.698304377085
 20
5177.973660869241
 30
0.0
 11
6547.698304377089
 21
5177.973660869241
 31
0.0
  0
ARC
  5
1737B
330
747D
100
AcDbEntity
  8
部品1
 48
0.01
100
AcDbCircle
 10
6385.698304377089
 20
5205.473660869242
 30
0.0
 40
2.0
100
AcDbArc
 50
90.0
 51
180.0
  0
ARC
  5
1737C
330
747D
100
AcDbEntity
  8
部品1
 48
0.01
100
AcDbCircle
 10
6385.698304377089
 20
5173.973660869242
 30
0.0
 40
2.0
100
AcDbArc
 50
180.0
 51
270.0
  0
ARC
  5
1737D
330
747D
100
AcDbEntity
  8
部品1
 48
0.01
100
AcDbCircle
 10
6561.698304377088
 20
5205.473660869242
 30
0.0
 40
2.0
100
AcDbArc
 50
0.0
 51
90.0
  0
ARC
  5
1737E
330
747D
100
AcDbEntity
  8
部品1
 48
0.01
100
AcDbCircle
 10
6561.698304377086
 20
5173.973660869242
 30
0.0
 40
2.0
100
AcDbArc
 50
270.0
 51
0.0
  0
LINE
  5
1737F
330
747D
100
AcDbEntity
  8
細線
100
AcDbLine
 10
8373.698304377089
 20
5200.973660869242
 30
0.0
 11
8373.698304377084
 21
5177.973660869241
 31
0.0
  0
LINE
  5
17380
330
747D
100
AcDbEntity
  8
細線
100
AcDbLine
 10
8447.698304377086
 20
5188.973660869242
 30
0.0
 11
8373.698304377089
 21
5188.973660869242
 31
0.0
  0
LINE
  5
17381
330
747D
100
AcDbEntity
  8
細線
100
AcDbLine
 10
8447.698304377086
 20
5182.973660869242
 30
0.0
 11
8373.698304377089
 21
5182.973660869242
 31
0.0
  0
LINE
  5
17382
330
747D
100
AcDbEntity
  8
細線
100
AcDbLine
 10
8447.698304377086
 20
5194.973660869242
 30
0.0
 11
8373.698304377089
 21
5194.973660869242
 31
0.0
  0
LINE
  5
17383
330
747D
100
AcDbEntity
  8
細線
100
AcDbLine
 10
8299.698304377089
 20
5194.973660869242
 30
0.0
 11
8368.698304377089
 21
5194.973660869242
 31
0.0
  0
LINE
  5
17384
330
747D
100
AcDbEntity
  8
細線
100
AcDbLine
 10
8299.698304377086
 20
5182.973660869242
 30
0.0
 11
8373.698304377089
 21
5182.973660869242
 31
0.0
  0
LINE
  5
17385
330
747D
100
AcDbEntity
  8
細線
100
AcDbLine
 10
8299.698304377089
 20
5188.973660869242
 30
0.0
 11
8373.698304377089
 21
5188.973660869242
 31
0.0
  0
LINE
  5
17386
330
747D
100
AcDbEntity
  8
細線
100
AcDbLine
 10
8299.698304377089
 20
5194.973660869242
 30
0.0
 11
8373.698304377089
 21
5194.973660869242
 31
0.0
  0
LINE
  5
17387
330
747D
100
AcDbEntity
  8
部品1
 48
0.01
100
AcDbLine
 10
8461.698304377089
 20
5207.473660869242
 30
0.0
 11
8285.69830437709
 21
5207.473660869242
 31
0.0
  0
LINE
  5
17388
330
747D
100
AcDbEntity
  8
部品1
 48
0.01
100
AcDbLine
 10
8283.698304377088
 20
5205.473660869242
 30
0.0
 11
8283.698304377088
 21
5173.973660869242
 31
0.0
  0
LINE
  5
17389
330
747D
100
AcDbEntity
  8
部品1
 48
0.01
100
AcDbLine
 10
8285.69830437709
 20
5171.973660869242
 30
0.0
 11
8461.698304377085
 21
5171.973660869242
 31
0.0
  0
LINE
  5
1738A
330
747D
100
AcDbEntity
  8
部品1
 48
0.01
100
AcDbLine
 10
8463.698304377086
 20
5173.973660869242
 30
0.0
 11
8463.698304377087
 21
5205.473660869242
 31
0.0
  0
LINE
  5
1738B
330
747D
100
AcDbEntity
  8
細線
100
AcDbLine
 10
8299.698304377089
 20
5200.973660869242
 30
0.0
 11
8299.698304377089
 21
5177.973660869241
 31
0.0
  0
LINE
  5
1738C
330
747D
100
AcDbEntity
  8
細線
100
AcDbLine
 10
8447.698304377089
 20
5177.973660869241
 30
0.0
 11
8447.698304377089
 21
5200.973660869242
 31
0.0
  0
LINE
  5
1738D
330
747D
100
AcDbEntity
  8
細線
100
AcDbLine
 10
8447.698304377089
 20
5200.973660869242
 30
0.0
 11
8373.698304377089
 21
5200.973660869242
 31
0.0
  0
LINE
  5
1738E
330
747D
100
AcDbEntity
  8
細線
100
AcDbLine
 10
8299.698304377089
 20
5177.973660869241
 30
0.0
 11
8373.698304377089
 21
5177.973660869241
 31
0.0
  0
LINE
  5
1738F
330
747D
100
AcDbEntity
  8
細線
100
AcDbLine
 10
8373.698304377089
 20
5200.973660869242
 30
0.0
 11
8299.698304377089
 21
5200.973660869242
 31
0.0
  0
LINE
  5
17390
330
747D
100
AcDbEntity
  8
細線
100
AcDbLine
 10
8373.698304377084
 20
5177.973660869241
 30
0.0
 11
8447.698304377089
 21
5177.973660869241
 31
0.0
  0
ARC
  5
17391
330
747D
100
AcDbEntity
  8
部品1
 48
0.01
100
AcDbCircle
 10
8285.69830437709
 20
5205.473660869242
 30
0.0
 40
2.0
100
AcDbArc
 50
90.0
 51
180.0
  0
ARC
  5
17392
330
747D
100
AcDbEntity
  8
部品1
 48
0.01
100
AcDbCircle
 10
8285.69830437709
 20
5173.973660869242
 30
0.0
 40
2.0
100
AcDbArc
 50
180.0
 51
270.0
  0
ARC
  5
17393
330
747D
100
AcDbEntity
  8
部品1
 48
0.01
100
AcDbCircle
 10
8461.698304377089
 20
5205.473660869242
 30
0.0
 40
2.0
100
AcDbArc
 50
0.0
 51
90.0
  0
ARC
  5
17394
330
747D
100
AcDbEntity
  8
部品1
 48
0.01
100
AcDbCircle
 10
8461.698304377085
 20
5173.973660869242
 30
0.0
 40
2.0
100
AcDbArc
 50
270.0
 51
0.0
  0
TEXT
  5
17560
330
747D
100
AcDbEntity
  8
文字
 62
     7
 48
50.0
100
AcDbText
 10
14260.68475616112
 20
855.469579666289
 30
0.0
 40
100.0
  1
～一般型・多雪地型・豪雪地型～
  7
STYLE2
100
AcDbText
  0
DIMENSION
  5
1758D
330
747D
100
AcDbEntity
  8
寸法
100
AcDbDimension
  2
*D40
 10
3971.762881221108
 20
8613.262299083791
 30
0.0
 11
3525.762881221112
 21
8613.262299083791
 31
0.0
 70
   160
 71
     5
 42
892.0
  3
INABA_S40G
100
AcDbAlignedDimension
 13
3177.698311054692
 23
8978.762299083795
 33
0.0
 14
4069.698311054692
 24
8978.762299083822
 34
0.0
100
AcDbRotatedDimension
1001
ACAD
1000
DSTYLE
1002
{
1002
}
  0
LINE
  5
1758E
330
747D
100
AcDbEntity
  8
破線
 48
10.0
100
AcDbLine
 10
3205.198917564904
 20
8835.762328308302
 30
0.0
 11
4043.198304377054
 21
8835.762293717774
 31
0.0
  0
LINE
  5
1758F
330
747D
100
AcDbEntity
  8
破線
 48
10.0
100
AcDbLine
 10
3205.198917564904
 20
8785.762328308301
 30
0.0
 11
4043.198304377055
 21
8785.762293717775
 31
0.0
  0
DIMENSION
  5
17590
330
747D
100
AcDbEntity
  8
寸法
100
AcDbDimension
  2
*D41
 10
4921.762881221083
 20
8613.262299083791
 30
0.0
 11
4475.762881221099
 21
8613.262299083791
 31
0.0
 70
   160
 71
     5
 42
891.9999999999964
  3
INABA_S40G
100
AcDbAlignedDimension
 13
4127.698311054691
 23
8978.762299083795
 33
0.0
 14
5019.698311054688
 24
8978.762299083902
 34
0.0
100
AcDbRotatedDimension
1001
ACAD
1000
DSTYLE
1002
{
1002
}
  0
LINE
  5
17591
330
747D
100
AcDbEntity
  8
破線
 48
10.0
100
AcDbLine
 10
4154.198300445542
 20
8835.762327173172
 30
0.0
 11
4993.198304377055
 21
8835.762292541343
 31
0.0
  0
LINE
  5
17592
330
747D
100
AcDbEntity
  8
破線
 48
10.0
100
AcDbLine
 10
4154.198300249703
 20
8785.762327173173
 30
0.0
 11
4993.198304377057
 21
8785.762292541344
 31
0.0
  0
DIMENSION
  5
175DF
330
747D
100
AcDbEntity
  8
寸法
100
AcDbDimension
  2
*D42
 10
5871.762881221108
 20
8613.262299083791
 30
0.0
 11
5425.762881221111
 21
8613.262299083791
 31
0.0
 70
   160
 71
     5
 42
892.0
  3
INABA_S40G
100
AcDbAlignedDimension
 13
5077.698311054692
 23
8978.762299083795
 33
0.0
 14
5969.698311054692
 24
8978.762299083822
 34
0.0
100
AcDbRotatedDimension
1001
ACAD
1000
DSTYLE
1002
{
1002
}
  0
LINE
  5
175E0
330
747D
100
AcDbEntity
  8
破線
 48
10.0
100
AcDbLine
 10
5105.198917564904
 20
8835.762328308302
 30
0.0
 11
5943.198304377054
 21
8835.762293717774
 31
0.0
  0
LINE
  5
175E1
330
747D
100
AcDbEntity
  8
破線
 48
10.0
100
AcDbLine
 10
5105.198917564904
 20
8785.762328308301
 30
0.0
 11
5943.198304377055
 21
8785.762293717775
 31
0.0
  0
DIMENSION
  5
175E2
330
747D
100
AcDbEntity
  8
寸法
100
AcDbDimension
  2
*D43
 10
6821.762881221083
 20
8613.262299083791
 30
0.0
 11
6375.762881221099
 21
8613.262299083791
 31
0.0
 70
   160
 71
     5
 42
891.9999999999964
  3
INABA_S40G
100
AcDbAlignedDimension
 13
6027.698311054692
 23
8978.762299083795
 33
0.0
 14
6919.698311054688
 24
8978.762299083902
 34
0.0
100
AcDbRotatedDimension
1001
ACAD
1000
DSTYLE
1002
{
1002
}
  0
LINE
  5
175E3
330
747D
100
AcDbEntity
  8
破線
 48
10.0
100
AcDbLine
 10
6054.198300445542
 20
8835.762327173172
 30
0.0
 11
6893.198304377055
 21
8835.762292541343
 31
0.0
  0
LINE
  5
175E4
330
747D
100
AcDbEntity
  8
破線
 48
10.0
100
AcDbLine
 10
6054.198300249703
 20
8785.762327173173
 30
0.0
 11
6893.198304377057
 21
8785.762292541344
 31
0.0
  0
DIMENSION
  5
17631
330
747D
100
AcDbEntity
  8
寸法
100
AcDbDimension
  2
*D44
 10
7770.762881221108
 20
8613.262299083814
 30
0.0
 11
7324.762881221111
 21
8613.262299083814
 31
0.0
 70
   160
 71
     5
 42
892.0
  3
INABA_S40G
100
AcDbAlignedDimension
 13
6976.698311054692
 23
8978.762299083816
 33
0.0
 14
7868.698311054692
 24
8978.762299083843
 34
0.0
100
AcDbRotatedDimension
1001
ACAD
1000
DSTYLE
1002
{
1002
}
  0
LINE
  5
17632
330
747D
100
AcDbEntity
  8
破線
 48
10.0
100
AcDbLine
 10
7004.198917564905
 20
8835.762328308323
 30
0.0
 11
7842.198304377054
 21
8835.762293717795
 31
0.0
  0
LINE
  5
17633
330
747D
100
AcDbEntity
  8
破線
 48
10.0
100
AcDbLine
 10
7004.198917564905
 20
8785.762328308322
 30
0.0
 11
7842.198304377055
 21
8785.762293717796
 31
0.0
  0
DIMENSION
  5
17634
330
747D
100
AcDbEntity
  8
寸法
100
AcDbDimension
  2
*D45
 10
8720.762881221082
 20
8613.262299083814
 30
0.0
 11
8274.762881221098
 21
8613.262299083814
 31
0.0
 70
   160
 71
     5
 42
891.9999999999964
  3
INABA_S40G
100
AcDbAlignedDimension
 13
7926.698311054692
 23
8978.762299083816
 33
0.0
 14
8818.698311054687
 24
8978.762299083923
 34
0.0
100
AcDbRotatedDimension
1001
ACAD
1000
DSTYLE
1002
{
1002
}
  0
LINE
  5
17635
330
747D
100
AcDbEntity
  8
破線
 48
10.0
100
AcDbLine
 10
7953.198300445542
 20
8835.762327173194
 30
0.0
 11
8792.198304377057
 21
8835.762292541364
 31
0.0
  0
LINE
  5
17636
330
747D
100
AcDbEntity
  8
破線
 48
10.0
100
AcDbLine
 10
7953.198300249704
 20
8785.762327173195
 30
0.0
 11
8792.198304377057
 21
8785.762292541365
 31
0.0
  0
LINE
  5
17661
330
747D
100
AcDbEntity
  8
破線
 48
10.0
100
AcDbLine
 10
3228.69835226513
 20
8785.762327338304
 30
0.0
 11
3228.698304377082
 21
8243.262299083832
 31
0.0
  0
LINE
  5
17662
330
747D
100
AcDbEntity
  8
破線
 48
10.0
100
AcDbLine
 10
4019.698297646866
 20
8835.762294687794
 30
0.0
 11
4019.698296022528
 21
8978.762299083927
 31
0.0
  0
LINE
  5
17663
330
747D
100
AcDbEntity
  8
破線
 48
10.0
100
AcDbLine
 10
4177.698294362897
 20
8835.76228816595
 30
0.0
 11
4177.698291945969
 21
8978.762299083868
 31
0.0
  0
LINE
  5
17664
330
747D
100
AcDbEntity
  8
破線
 48
10.0
100
AcDbLine
 10
4969.698297646868
 20
8835.762255474158
 30
0.0
 11
4969.698296022528
 21
8978.762299083927
 31
0.0
  0
LINE
  5
17665
330
747D
100
AcDbEntity
  8
破線
 48
10.0
100
AcDbLine
 10
5127.698294362897
 20
8835.762248952315
 30
0.0
 11
5127.69829194597
 21
8978.762299083868
 31
0.0
  0
LINE
  5
17666
330
747D
100
AcDbEntity
  8
破線
 48
10.0
100
AcDbLine
 10
5919.698297646865
 20
8835.762216260524
 30
0.0
 11
5919.698296022528
 21
8978.762299083927
 31
0.0
  0
LINE
  5
17667
330
747D
100
AcDbEntity
  8
破線
 48
10.0
100
AcDbLine
 10
6077.698294362898
 20
8835.76220973868
 30
0.0
 11
6077.69829194597
 21
8978.762299083868
 31
0.0
  0
LINE
  5
17668
330
747D
100
AcDbEntity
  8
破線
 48
10.0
100
AcDbLine
 10
6869.698297646867
 20
8835.762177046888
 30
0.0
 11
6869.698296022528
 21
8978.762299083927
 31
0.0
  0
LINE
  5
17669
330
747D
100
AcDbEntity
  8
破線
 48
10.0
100
AcDbLine
 10
7027.698294362899
 20
8835.762170525047
 30
0.0
 11
7027.69829194597
 21
8978.762299083868
 31
0.0
  0
LINE
  5
1766A
330
747D
100
AcDbEntity
  8
破線
 48
10.0
100
AcDbLine
 10
7819.698297646867
 20
8835.762137833254
 30
0.0
 11
7819.698296022528
 21
8978.762299083927
 31
0.0
  0
LINE
  5
1766B
330
747D
100
AcDbEntity
  8
破線
 48
10.0
100
AcDbLine
 10
7977.698294362898
 20
8835.762131311412
 30
0.0
 11
7977.698291945969
 21
8978.762299083868
 31
0.0
  0
LINE
  5
1766C
330
747D
100
AcDbEntity
  8
破線
 48
10.0
100
AcDbLine
 10
8768.698352265085
 20
8785.762098660908
 30
0.0
 11
8768.698304377078
 21
8243.262299083912
 31
0.0
  0
TEXT
  5
176C6
330
747D
100
AcDbEntity
  8
文字
 62
     7
 48
50.0
100
AcDbText
 10
13583.11819016568
 20
9060.013745883729
 30
0.0
 40
100.0
  1
脇パネル
  7
STYLE1
100
AcDbText
  0
TEXT
  5
176C7
330
747D
100
AcDbEntity
  8
文字
 62
     7
 48
50.0
100
AcDbText
 10
15022.63965474515
 20
9060.013745883725
 30
0.0
 40
100.0
  1
F12            0.6
  7
STYLE1
100
AcDbText
  0
TEXT
  5
176C8
330
747D
100
AcDbEntity
  8
文字
 62
     7
 48
50.0
100
AcDbText
 10
13248.77747366447
 20
8550.013745883735
 30
0.0
 40
100.0
  1
16
  7
STYLE1
100
AcDbText
  0
LINE
  5
176C9
330
747D
100
AcDbEntity
  8
仕様書枠
 48
50.0
100
AcDbLine
 10
16307.19999999997
 20
8179.600000000007
 30
0.0
 11
13127.19999999997
 21
8179.600000000007
 31
0.0
  0
TEXT
  5
176CA
330
747D
100
AcDbEntity
  8
文字
 62
     7
 48
50.0
100
AcDbText
 10
13583.1181901657
 20
9570.013745883729
 30
0.0
 40
100.0
  1
母屋中
  7
STYLE1
100
AcDbText
  0
TEXT
  5
176CB
330
747D
100
AcDbEntity
  8
文字
 62
     7
 48
50.0
100
AcDbText
 10
15022.63965474518
 20
9570.013745883725
 30
0.0
 40
100.0
  1
F12            1.0
  7
STYLE1
100
AcDbText
  0
TEXT
  5
176CC
330
747D
100
AcDbEntity
  8
文字
 62
     7
 48
50.0
100
AcDbText
 10
13248.77747366447
 20
8890.013745883731
 30
0.0
 40
100.0
  1
14
  7
STYLE1
100
AcDbText
  0
LINE
  5
176CD
330
747D
100
AcDbEntity
  8
仕様書枠
 48
50.0
100
AcDbLine
 10
16307.2
 20
9539.6
 30
0.0
 11
13127.2
 21
9539.6
 31
0.0
  0
TEXT
  5
176CE
330
747D
100
AcDbEntity
  8
文字
 62
     7
 48
50.0
100
AcDbText
 10
13583.11819016567
 20
8720.013745883733
 30
0.0
 40
100.0
  1
棚板
  7
STYLE1
100
AcDbText
  0
TEXT
  5
176CF
330
747D
100
AcDbEntity
  8
文字
 62
     7
 48
50.0
100
AcDbText
 10
15022.63965474513
 20
8720.013745883729
 30
0.0
 40
100.0
  1
F12            0.6
  7
STYLE1
100
AcDbText
  0
TEXT
  5
176D0
330
747D
100
AcDbEntity
  8
文字
 62
     7
 48
50.0
100
AcDbText
 10
13583.11819016567
 20
8890.013745883729
 30
0.0
 40
100.0
  1
扉
  7
STYLE1
100
AcDbText
  0
TEXT
  5
176D1
330
747D
100
AcDbEntity
  8
文字
 62
     7
 48
50.0
100
AcDbText
 10
15022.63965474513
 20
8890.013745883726
 30
0.0
 40
100.0
  1
F12            0.8
  7
STYLE1
100
AcDbText
  0
TEXT
  5
176D2
330
747D
100
AcDbEntity
  8
文字
 62
     7
 48
50.0
100
AcDbText
 10
15022.63965474517
 20
10590.01374588372
 30
0.0
 40
100.0
  1
F12            1.0
  7
STYLE1
100
AcDbText
  0
TEXT
  5
176D3
330
747D
100
AcDbEntity
  8
文字
 62
     7
 48
50.0
100
AcDbText
 10
13583.1181901657
 20
10590.01374588373
 30
0.0
 40
100.0
  1
床パネル
 41
0.9
  7
STYLE1
100
AcDbText
  0
LINE
  5
176D4
330
747D
100
AcDbEntity
  8
仕様書枠
 48
50.0
100
AcDbLine
 10
16307.19999999998
 20
8689.6
 30
0.0
 11
13127.19999999999
 21
8689.600000000003
 31
0.0
  0
LINE
  5
176D5
330
747D
100
AcDbEntity
  8
仕様書枠
 48
50.0
100
AcDbLine
 10
13127.2
 20
11409.6
 30
0.0
 11
13127.19999999999
 21
8179.600000000007
 31
0.0
  0
TEXT
  5
176D6
330
747D
100
AcDbEntity
  8
文字
 62
     7
 48
50.0
100
AcDbText
 10
13229.83081656552
 20
8210.013745883729
 30
0.0
 40
100.0
  1
Y10→溶融亜鉛-5％アルミニウム合金めっき鋼板(JIS G 3317)
 41
0.9
  7
STYLE1
100
AcDbText
  0
TEXT
  5
176D7
330
747D
100
AcDbEntity
  8
文字
 62
     7
 48
50.0
100
AcDbText
 10
13229.83081656552
 20
8380.013745883728
 30
0.0
 40
100.0
  1
F12→溶融亜鉛めっき鋼板(JIS G 3302)
  7
STYLE1
100
AcDbText
  0
LINE
  5
176D8
330
747D
100
AcDbEntity
  8
仕様書枠
 48
50.0
100
AcDbLine
 10
16307.19999999998
 20
8349.600000000004
 30
0.0
 11
13127.19999999999
 21
8349.600000000004
 31
0.0
  0
TEXT
  5
176D9
330
747D
100
AcDbEntity
  8
文字
 62
     7
 48
50.0
100
AcDbText
 10
15022.63965474515
 20
9230.013745883725
 30
0.0
 40
100.0
  1
F12            0.6
  7
STYLE1
100
AcDbText
  0
TEXT
  5
176DA
330
747D
100
AcDbEntity
  8
文字
 62
     7
 48
50.0
100
AcDbText
 10
15022.63965474516
 20
9400.013745883725
 30
0.0
 40
100.0
  1
Y10            0.5
  7
STYLE1
100
AcDbText
  0
TEXT
  5
176DB
330
747D
100
AcDbEntity
  8
文字
 62
     7
 48
50.0
100
AcDbText
 10
15022.63965474517
 20
9910.013745883725
 30
0.0
 40
100.0
  1
Y10            0.7
  7
STYLE1
100
AcDbText
  0
TEXT
  5
176DC
330
747D
100
AcDbEntity
  8
文字
 62
     7
 48
50.0
100
AcDbText
 10
15022.63965474517
 20
10080.01374588372
 30
0.0
 40
100.0
  1
Y10            0.7
  7
STYLE1
100
AcDbText
  0
TEXT
  5
176DD
330
747D
100
AcDbEntity
  8
文字
 62
     7
 48
50.0
100
AcDbText
 10
15022.63965474517
 20
10250.01374588372
 30
0.0
 40
100.0
  1
Y10            1.0
  7
STYLE1
100
AcDbText
  0
TEXT
  5
176DE
330
747D
100
AcDbEntity
  8
文字
 62
     7
 48
50.0
100
AcDbText
 10
15022.63965474517
 20
10420.01374588372
 30
0.0
 40
100.0
  1
Y10            1.0
  7
STYLE1
100
AcDbText
  0
TEXT
  5
176DF
330
747D
100
AcDbEntity
  8
文字
 62
     7
 48
50.0
100
AcDbText
 10
15022.63965474518
 20
10760.01374588372
 30
0.0
 40
100.0
  1
F12            1.0
  7
STYLE1
100
AcDbText
  0
TEXT
  5
176E0
330
747D
100
AcDbEntity
  8
文字
 62
     7
 48
50.0
100
AcDbText
 10
15022.63965474517
 20
11100.01374588372
 30
0.0
 40
100.0
  1
F12            1.2
  7
STYLE1
100
AcDbText
  0
TEXT
  5
176E1
330
747D
100
AcDbEntity
  8
文字
 62
     7
 48
50.0
100
AcDbText
 10
13248.77747366447
 20
9230.013745883729
 30
0.0
 40
100.0
  1
12
  7
STYLE1
100
AcDbText
  0
TEXT
  5
176E2
330
747D
100
AcDbEntity
  8
文字
 62
     7
 48
50.0
100
AcDbText
 10
13248.77747366447
 20
9060.013745883729
 30
0.0
 40
100.0
  1
13
  7
STYLE1
100
AcDbText
  0
LINE
  5
176E3
330
747D
100
AcDbEntity
  8
仕様書枠
 48
50.0
100
AcDbLine
 10
16307.19999999998
 20
8519.600000000002
 30
0.0
 11
13127.19999999999
 21
8519.600000000004
 31
0.0
  0
LINE
  5
176E4
330
747D
100
AcDbEntity
  8
仕様書枠
 48
50.0
100
AcDbLine
 10
16307.19999999998
 20
8859.6
 30
0.0
 11
13127.19999999999
 21
8859.6
 31
0.0
  0
TEXT
  5
176E5
330
747D
100
AcDbEntity
  8
文字
 62
     7
 48
50.0
100
AcDbText
 10
13248.77747366447
 20
9400.013745883729
 30
0.0
 40
100.0
  1
11
  7
STYLE1
100
AcDbText
  0
LINE
  5
176E6
330
747D
100
AcDbEntity
  8
仕様書枠
 48
50.0
100
AcDbLine
 10
16307.2
 20
9709.600000000001
 30
0.0
 11
13127.2
 21
9709.600000000001
 31
0.0
  0
LINE
  5
176E7
330
747D
100
AcDbEntity
  8
仕様書枠
 48
50.0
100
AcDbLine
 10
16307.2
 20
10049.6
 30
0.0
 11
13127.2
 21
10049.6
 31
0.0
  0
LINE
  5
176E8
330
747D
100
AcDbEntity
  8
仕様書枠
 48
50.0
100
AcDbLine
 10
16307.19999999998
 20
9199.600000000001
 30
0.0
 11
13127.19999999999
 21
9199.600000000001
 31
0.0
  0
LINE
  5
176E9
330
747D
100
AcDbEntity
  8
仕様書枠
 48
50.0
100
AcDbLine
 10
16307.19999999998
 20
9029.6
 30
0.0
 11
13127.19999999999
 21
9029.6
 31
0.0
  0
LINE
  5
176EA
330
747D
100
AcDbEntity
  8
仕様書枠
 48
50.0
100
AcDbLine
 10
16307.19999999998
 20
9369.600000000001
 30
0.0
 11
13127.19999999999
 21
9369.600000000001
 31
0.0
  0
TEXT
  5
176EB
330
747D
100
AcDbEntity
  8
文字
 62
     7
 48
50.0
100
AcDbText
 10
13271.19032244793
 20
10250.01374588373
 30
0.0
 40
100.0
  1
6
  7
STYLE1
100
AcDbText
  0
TEXT
  5
176EC
330
747D
100
AcDbEntity
  8
文字
 62
     7
 48
50.0
100
AcDbText
 10
13271.19032244792
 20
10080.01374588373
 30
0.0
 40
100.0
  1
7
  7
STYLE1
100
AcDbText
  0
TEXT
  5
176ED
330
747D
100
AcDbEntity
  8
文字
 62
     7
 48
50.0
100
AcDbText
 10
13271.19032244792
 20
9740.013745883729
 30
0.0
 40
100.0
  1
9
  7
STYLE1
100
AcDbText
  0
TEXT
  5
176EE
330
747D
100
AcDbEntity
  8
文字
 62
     7
 48
50.0
100
AcDbText
 10
13271.19032244792
 20
9910.01374588373
 30
0.0
 40
100.0
  1
8
  7
STYLE1
100
AcDbText
  0
TEXT
  5
176EF
330
747D
100
AcDbEntity
  8
文字
 62
     7
 48
50.0
100
AcDbText
 10
13583.1181901657
 20
9910.01374588373
 30
0.0
 40
100.0
  1
鼻隠シ前後
  7
STYLE1
100
AcDbText
  0
TEXT
  5
176F0
330
747D
100
AcDbEntity
  8
文字
 62
     7
 48
50.0
100
AcDbText
 10
13583.11819016569
 20
9400.013745883729
 30
0.0
 40
100.0
  1
屋根パネル
  7
STYLE1
100
AcDbText
  0
TEXT
  5
176F1
330
747D
100
AcDbEntity
  8
文字
 62
     7
 48
50.0
100
AcDbText
 10
13583.11819016568
 20
9230.013745883729
 30
0.0
 40
100.0
  1
壁パネル
  7
STYLE1
100
AcDbText
  0
TEXT
  5
176F2
330
747D
100
AcDbEntity
  8
文字
 62
     7
 48
50.0
100
AcDbText
 10
13248.77747366447
 20
9570.013745883729
 30
0.0
 40
100.0
  1
10
  7
STYLE1
100
AcDbText
  0
TEXT
  5
176F3
330
747D
100
AcDbEntity
  8
文字
 62
     7
 48
50.0
100
AcDbText
 10
13583.1181901657
 20
10080.01374588373
 30
0.0
 40
100.0
  1
妻板左右
  7
STYLE1
100
AcDbText
  0
TEXT
  5
176F4
330
747D
100
AcDbEntity
  8
文字
 62
     7
 48
50.0
100
AcDbText
 10
13271.19032244793
 20
10420.01374588373
 30
0.0
 40
100.0
  1
5
  7
STYLE1
100
AcDbText
  0
TEXT
  5
176F5
330
747D
100
AcDbEntity
  8
文字
 62
     7
 48
50.0
100
AcDbText
 10
13583.1181901657
 20
10250.01374588373
 30
0.0
 40
100.0
  1
桁後
  7
STYLE1
100
AcDbText
  0
TEXT
  5
176F6
330
747D
100
AcDbEntity
  8
文字
 62
     7
 48
50.0
100
AcDbText
 10
13583.1181901657
 20
10420.01374588373
 30
0.0
 40
100.0
  1
鴨居
  7
STYLE1
100
AcDbText
  0
TEXT
  5
176F7
330
747D
100
AcDbEntity
  8
文字
 62
     7
 48
50.0
100
AcDbText
 10
13583.1181901657
 20
10760.01374588373
 30
0.0
 40
100.0
  1
柱
  7
STYLE1
100
AcDbText
  0
TEXT
  5
176F8
330
747D
100
AcDbEntity
  8
文字
 62
     7
 48
50.0
100
AcDbText
 10
13583.11819016569
 20
11100.01374588373
 30
0.0
 40
100.0
  1
土台枠
  7
STYLE1
100
AcDbText
  0
TEXT
  5
176F9
330
747D
100
AcDbEntity
  8
文字
 62
     7
 48
50.0
100
AcDbText
 10
14859.79774614482
 20
11270.01374588373
 30
0.0
 40
100.0
  1
材料（材質）　　単位mm
  7
STYLE1
100
AcDbText
  0
TEXT
  5
176FA
330
747D
100
AcDbEntity
  8
文字
 62
     7
 48
50.0
100
AcDbText
 10
13732.03840939434
 20
11270.01374588373
 30
0.0
 40
100.0
  1
部　　品　　名
  7
STYLE1
100
AcDbText
  0
TEXT
  5
176FB
330
747D
100
AcDbEntity
  8
文字
 62
     7
 48
50.0
100
AcDbText
 10
13271.19032244793
 20
10760.01374588373
 30
0.0
 40
100.0
  1
3
  7
STYLE1
100
AcDbText
  0
TEXT
  5
176FC
330
747D
100
AcDbEntity
  8
文字
 62
     7
 48
50.0
100
AcDbText
 10
13271.19032244793
 20
10590.01374588373
 30
0.0
 40
100.0
  1
4
  7
STYLE1
100
AcDbText
  0
TEXT
  5
176FD
330
747D
100
AcDbEntity
  8
文字
 62
     7
 48
50.0
100
AcDbText
 10
13271.19032244792
 20
10930.01374588373
 30
0.0
 40
100.0
  1
2
  7
STYLE1
100
AcDbText
  0
TEXT
  5
176FE
330
747D
100
AcDbEntity
  8
文字
 62
     7
 48
50.0
100
AcDbText
 10
13271.19032244792
 20
11100.01374588373
 30
0.0
 40
100.0
  1
1
  7
STYLE1
100
AcDbText
  0
TEXT
  5
176FF
330
747D
100
AcDbEntity
  8
文字
 62
     7
 48
50.0
100
AcDbText
 10
13197.42518560407
 20
11270.01374588373
 30
0.0
 40
100.0
  1
品番
  7
STYLE1
100
AcDbText
  0
LINE
  5
17700
330
747D
100
AcDbEntity
  8
仕様書枠
 48
50.0
100
AcDbLine
 10
16307.19999999999
 20
10559.6
 30
0.0
 11
13127.2
 21
10559.6
 31
0.0
  0
LINE
  5
17701
330
747D
100
AcDbEntity
  8
仕様書枠
 48
50.0
100
AcDbLine
 10
16307.19999999999
 20
10219.6
 30
0.0
 11
13127.2
 21
10219.6
 31
0.0
  0
LINE
  5
17702
330
747D
100
AcDbEntity
  8
仕様書枠
 48
50.0
100
AcDbLine
 10
16307.19999999999
 20
10389.6
 30
0.0
 11
13127.2
 21
10389.6
 31
0.0
  0
LINE
  5
17703
330
747D
100
AcDbEntity
  8
仕様書枠
 48
50.0
100
AcDbLine
 10
16307.19999999999
 20
11069.6
 30
0.0
 11
13127.2
 21
11069.6
 31
0.0
  0
LINE
  5
17704
330
747D
100
AcDbEntity
  8
仕様書枠
 48
50.0
100
AcDbLine
 10
16307.2
 20
10729.6
 30
0.0
 11
13127.2
 21
10729.6
 31
0.0
  0
LINE
  5
17705
330
747D
100
AcDbEntity
  8
仕様書枠
 48
50.0
100
AcDbLine
 10
16307.19999999999
 20
11239.6
 30
0.0
 11
13127.2
 21
11239.6
 31
0.0
  0
LINE
  5
17706
330
747D
100
AcDbEntity
  8
仕様書枠
 48
50.0
100
AcDbLine
 10
13490.2
 20
11409.6
 30
0.0
 11
13490.2
 21
8519.600000000004
 31
0.0
  0
LINE
  5
17707
330
747D
100
AcDbEntity
  8
仕様書枠
 48
50.0
100
AcDbLine
 10
14785.2
 20
11409.59999999999
 30
0.0
 11
14785.19999999999
 21
8519.600000000002
 31
0.0
  0
LINE
  5
17708
330
747D
100
AcDbEntity
  8
仕様書枠
 48
50.0
100
AcDbLine
 10
16307.19999999999
 20
8179.600000000007
 30
0.0
 11
16307.2
 21
11409.6
 31
0.0
  0
LINE
  5
17709
330
747D
100
AcDbEntity
  8
仕様書枠
 48
50.0
100
AcDbLine
 10
16307.2
 20
9879.600000000001
 30
0.0
 11
13127.2
 21
9879.600000000001
 31
0.0
  0
TEXT
  5
1770A
330
747D
100
AcDbEntity
  8
文字
 62
     7
 48
50.0
100
AcDbText
 10
15022.63965474512
 20
8550.013745883722
 30
0.0
 40
100.0
  1
F12            2.3
  7
STYLE1
100
AcDbText
  0
TEXT
  5
1770B
330
747D
100
AcDbEntity
  8
文字
 62
     7
 48
50.0
100
AcDbText
 10
13583.11819016566
 20
8550.013745883729
 30
0.0
 40
100.0
  1
アンカープレート
  7
STYLE1
100
AcDbText
  0
TEXT
  5
1770C
330
747D
100
AcDbEntity
  8
文字
 62
     7
 48
50.0
100
AcDbText
 10
15022.63965474517
 20
9740.013745883729
 30
0.0
 40
100.0
  1
F12,Y10       0.7+1.0
  7
STYLE1
100
AcDbText
  0
TEXT
  5
1770D
330
747D
100
AcDbEntity
  8
文字
 62
     7
 48
50.0
100
AcDbText
 10
13583.1181901657
 20
9740.013745883729
 30
0.0
 40
100.0
  1
梁中・梁中央
 41
0.9
  7
STYLE1
100
AcDbText
  0
LINE
  5
1770E
330
747D
100
AcDbEntity
  8
仕様書枠
 48
50.0
100
AcDbLine
 10
16307.2
 20
10899.6
 30
0.0
 11
13127.2
 21
10899.6
 31
0.0
  0
TEXT
  5
1770F
330
747D
100
AcDbEntity
  8
文字
 62
     7
 48
50.0
100
AcDbText
 10
13248.77747366447
 20
8720.013745883735
 30
0.0
 40
100.0
  1
15
  7
STYLE1
100
AcDbText
  0
TEXT
  5
17710
330
747D
100
AcDbEntity
  8
文字
 62
     7
 48
50.0
100
AcDbText
 10
13583.11819016569
 20
10930.01374588373
 30
0.0
 40
100.0
  1
根太
  7
STYLE1
100
AcDbText
  0
TEXT
  5
17711
330
747D
100
AcDbEntity
  8
文字
 62
     7
 48
50.0
100
AcDbText
 10
15022.63965474517
 20
10930.01374588372
 30
0.0
 40
100.0
  1
F12            1.2
  7
STYLE1
100
AcDbText
  0
ENDSEC
  0
SECTION
  2
OBJECTS
  0
DICTIONARY
  5
7471
330
0
100
AcDbDictionary
281
     1
  3
ACAD_COLOR
350
16008
  3
ACAD_GROUP
350
7472
  3
ACAD_LAYOUT
350
16009
  3
ACAD_MATERIAL
350
16007
  3
ACAD_MLINESTYLE
350
7473
  3
ACAD_PLOTSETTINGS
350
1600A
  3
ACAD_PLOTSTYLENAME
350
16005
  3
ACDBHEADERROUNDTRIPXREC
350
17729
  3
AcDbVariableDictionary
350
17725
  3
CONTENTDICTIONARY
350
E71C
  3
DRAWINGVARIABLESDICT
350
F3B9
  0
DICTIONARY
  5
16212
330
7467
100
AcDbDictionary
280
     1
281
     1
  3
ACAD_LAYERSTATES
360
16213
  0
DICTIONARY
  5
16008
102
{ACAD_REACTORS
330
7471
102
}
330
7471
100
AcDbDictionary
281
     1
  0
DICTIONARY
  5
7472
102
{ACAD_REACTORS
330
7471
102
}
330
7471
100
AcDbDictionary
281
     1
  0
DICTIONARY
  5
16009
102
{ACAD_REACTORS
330
7471
102
}
330
7471
100
AcDbDictionary
281
     1
  3
Model
350
1600B
  3
レイアウト1
350
1600C
  0
DICTIONARY
  5
16007
102
{ACAD_REACTORS
330
7471
102
}
330
7471
100
AcDbDictionary
281
     1
  0
DICTIONARY
  5
7473
102
{ACAD_REACTORS
330
7471
102
}
330
7471
100
AcDbDictionary
281
     1
  3
STANDARD
350
7480
  0
DICTIONARY
  5
1600A
102
{ACAD_REACTORS
330
7471
102
}
330
7471
100
AcDbDictionary
281
     1
  0
ACDBDICTIONARYWDFLT
  5
16005
102
{ACAD_REACTORS
330
7471
102
}
330
7471
100
AcDbDictionary
281
     1
  3
Normal
350
16006
100
AcDbDictionaryWithDefault
340
16006
  0
DICTIONARY
  5
17729
102
{ACAD_REACTORS
330
7471
102
}
330
7471
100
AcDbDictionary
281
     1
  3
COLORDICT
350
1772B
  3
MATERIALDICT
350
1772A
  0
DICTIONARY
  5
17725
102
{ACAD_REACTORS
330
7471
102
}
330
7471
100
AcDbDictionary
281
     1
  3
DIMASSOC
350
17726
  3
PROJECTNAME
350
17727
  0
DICTIONARY
  5
E71C
102
{ACAD_REACTORS
330
7471
102
}
330
7471
100
AcDbDictionary
281
     1
  0
DICTIONARY
  5
F3B9
102
{ACAD_REACTORS
330
7471
102
}
330
7471
100
AcDbDictionary
281
     1
1001
DRAWINGVARIABLESXDATA
1000
POLARMODE
1000
1
  0
DICTIONARY
  5
16213
102
{ACAD_REACTORS
330
16212
102
}
330
16212
100
AcDbDictionary
281
     1
  0
LAYOUT
  5
1600B
102
{ACAD_XDICTIONARY
360
1772C
102
}
102
{ACAD_REACTORS
330
16009
102
}
330
16009
100
AcDbPlotSettings
  1

  2
Microsoft Office Document Image Writer
  4

  6

 40
0.0
 41
0.0
 42
0.0
 43
0.0
 44
0.0
 45
0.0
 46
0.0
 47
0.0
 48
0.0
 49
0.0
140
0.0
141
0.0
142
1.0
143
1.0
 70
  1712
 72
     0
 73
     0
 74
     0
  7

 75
     0
147
1.0
148
0.0
149
0.0
100
AcDbLayout
  1
Model
 70
     1
 71
     0
 10
0.0
 20
0.0
 11
12.0
 21
9.0
 12
0.0
 22
0.0
 32
0.0
 14
0.0
 24
0.0
 34
0.0
 15
0.0
 25
0.0
 35
0.0
146
0.0
 13
0.0
 23
0.0
 33
0.0
 16
1.0
 26
0.0
 36
0.0
 17
0.0
 27
1.0
 37
0.0
 76
     0
330
747D
  0
LAYOUT
  5
1600C
102
{ACAD_XDICTIONARY
360
1772E
102
}
102
{ACAD_REACTORS
330
16009
102
}
330
16009
100
AcDbPlotSettings
  1

  2
Microsoft Office Document Image Writer
  4

  6

 40
0.0
 41
0.0
 42
0.0
 43
0.0
 44
0.0
 45
0.0
 46
0.0
 47
0.0
 48
0.0
 49
0.0
140
0.0
141
0.0
142
1.0
143
1.0
 70
   688
 72
     0
 73
     0
 74
     5
  7

 75
    16
147
1.0
148
0.0
149
0.0
100
AcDbLayout
  1
レイアウト1
 70
     0
 71
     1
 10
0.0
 20
0.0
 11
420.0
 21
297.0
 12
0.0
 22
0.0
 32
0.0
 14
1.000000000000000E+20
 24
1.000000000000000E+20
 34
1.000000000000000E+20
 15
-1.000000000000000E+20
 25
-1.000000000000000E+20
 35
-1.000000000000000E+20
146
0.0
 13
0.0
 23
0.0
 33
0.0
 16
1.0
 26
0.0
 36
0.0
 17
0.0
 27
1.0
 37
0.0
 76
     0
330
747A
  0
MLINESTYLE
  5
7480
102
{ACAD_REACTORS
330
7473
102
}
330
7473
100
AcDbMlineStyle
  2
STANDARD
 70
     0
  3

 62
     0
 51
90.0
 52
90.0
 71
     2
 49
0.5
 62
   256
  6
BYLAYER
 49
-0.5
 62
   256
  6
BYLAYER
  0
ACDBPLACEHOLDER
  5
16006
102
{ACAD_REACTORS
330
16005
102
}
330
16005
  0
XRECORD
  5
1772B
102
{ACAD_REACTORS
330
17729
102
}
330
17729
100
AcDbXrecord
280
     1
340
16008
  0
XRECORD
  5
1772A
102
{ACAD_REACTORS
330
17729
102
}
330
17729
100
AcDbXrecord
280
     1
340
16007
  0
DICTIONARYVAR
  5
17726
102
{ACAD_REACTORS
330
17725
102
}
330
17725
100
DictionaryVariables
280
     0
  1
1
  0
DICTIONARYVAR
  5
17727
102
{ACAD_REACTORS
330
17725
102
}
330
17725
100
DictionaryVariables
280
     0
  1

  0
DICTIONARY
  5
1772C
330
1600B
100
AcDbDictionary
280
     1
281
     1
  3
ACAD_XREC_ROUNDTRIP
360
1772D
  0
DICTIONARY
  5
1772E
330
1600C
100
AcDbDictionary
280
     1
281
     1
  3
ACAD_XREC_ROUNDTRIP
360
1772F
  0
XRECORD
  5
1772D
102
{ACAD_REACTORS
330
1772C
102
}
330
1772C
100
AcDbXrecord
280
     1
102
SHADEPLOT
 70
     0
102
SHADEPLOTRESLEVEL
 70
     2
102
SHADEPLOTCUSTOMDPI
 70
   300
  0
XRECORD
  5
1772F
102
{ACAD_REACTORS
330
1772E
102
}
330
1772E
100
AcDbXrecord
280
     1
102
SHADEPLOT
 70
     0
102
SHADEPLOTRESLEVEL
 70
     2
102
SHADEPLOTCUSTOMDPI
 70
   300
  0
ENDSEC
  0
EOF
