  0
SECTION
  2
HEADER
  9
$ACADVER
  1
AC1015
  9
$ACADMAINTVER
 70
    20
  9
$DWGCODEPAGE
  3
ANSI_932
  9
$INSBASE
 10
0.0
 20
0.0
 30
0.0
  9
$EXTMIN
 10
139.9999999999995
 20
-0.0000000000000909
 30
0.0
  9
$EXTMAX
 10
16307.2
 20
11409.6
 30
0.0
  9
$LIMMIN
 10
0.0
 20
0.0
  9
$LIMMAX
 10
16800.0
 20
11880.0
  9
$ORTHOMODE
 70
     0
  9
$REGENMODE
 70
     1
  9
$FILLMODE
 70
     1
  9
$QTEXTMODE
 70
     0
  9
$MIRRTEXT
 70
     1
  9
$LTSCALE
 40
20.0
  9
$ATTMODE
 70
     1
  9
$TEXTSIZE
 40
100.0
  9
$TRACEWID
 40
1.0
  9
$TEXTSTYLE
  7
STYLE3
  9
$CLAYER
  8
寸法
  9
$CELTYPE
  6
BYLAYER
  9
$CECOLOR
 62
   256
  9
$CELTSCALE
 40
50.0
  9
$DISPSILH
 70
     0
  9
$DIMSCALE
 40
40.0
  9
$DIMASZ
 40
2.5
  9
$DIMEXO
 40
0.5
  9
$DIMDLI
 40
7.0
  9
$DIMRND
 40
0.0
  9
$DIMDLE
 40
0.0
  9
$DIMEXE
 40
1.5
  9
$DIMTP
 40
0.0
  9
$DIMTM
 40
0.0
  9
$DIMTXT
 40
3.0
  9
$DIMCEN
 40
0.0
  9
$DIMTSZ
 40
0.0
  9
$DIMTOL
 70
     0
  9
$DIMLIM
 70
     0
  9
$DIMTIH
 70
     0
  9
$DIMTOH
 70
     0
  9
$DIMSE1
 70
     0
  9
$DIMSE2
 70
     0
  9
$DIMTAD
 70
     3
  9
$DIMZIN
 70
     8
  9
$DIMBLK
  1

  9
$DIMASO
 70
     1
  9
$DIMSHO
 70
     1
  9
$DIMPOST
  1

  9
$DIMAPOST
  1

  9
$DIMALT
 70
     0
  9
$DIMALTD
 70
     2
  9
$DIMALTF
 40
0.0394
  9
$DIMLFAC
 40
1.0
  9
$DIMTOFL
 70
     1
  9
$DIMTVP
 40
0.0
  9
$DIMTIX
 70
     1
  9
$DIMSOXD
 70
     0
  9
$DIMSAH
 70
     1
  9
$DIMBLK1
  1
DOTSMALL
  9
$DIMBLK2
  1
DOTSMALL
  9
$DIMSTYLE
  2
INABA_S40G
  9
$DIMCLRD
 70
     0
  9
$DIMCLRE
 70
     0
  9
$DIMCLRT
 70
     7
  9
$DIMTFAC
 40
1.0
  9
$DIMGAP
 40
1.0
  9
$DIMJUST
 70
     0
  9
$DIMSD1
 70
     0
  9
$DIMSD2
 70
     0
  9
$DIMTOLJ
 70
     1
  9
$DIMTZIN
 70
     0
  9
$DIMALTZ
 70
     0
  9
$DIMALTTZ
 70
     0
  9
$DIMUPT
 70
     0
  9
$DIMDEC
 70
     1
  9
$DIMTDEC
 70
     4
  9
$DIMALTU
 70
     2
  9
$DIMALTTD
 70
     2
  9
$DIMTXSTY
  7
STYLE1
  9
$DIMAUNIT
 70
     0
  9
$DIMADEC
 70
     0
  9
$DIMALTRND
 40
0.0
  9
$DIMAZIN
 70
     0
  9
$DIMDSEP
 70
    46
  9
$DIMATFIT
 70
     3
  9
$DIMFRAC
 70
     0
  9
$DIMLDRBLK
  1

  9
$DIMLUNIT
 70
     2
  9
$DIMLWD
 70
    -2
  9
$DIMLWE
 70
    -2
  9
$DIMTMOVE
 70
     0
  9
$LUNITS
 70
     2
  9
$LUPREC
 70
     1
  9
$SKETCHINC
 40
1.0
  9
$FILLETRAD
 40
5.0
  9
$AUNITS
 70
     0
  9
$AUPREC
 70
     0
  9
$MENU
  1
acad
  9
$ELEVATION
 40
0.0
  9
$PELEVATION
 40
0.0
  9
$THICKNESS
 40
0.0
  9
$LIMCHECK
 70
     0
  9
$CHAMFERA
 40
0.0
  9
$CHAMFERB
 40
0.0
  9
$CHAMFERC
 40
0.0
  9
$CHAMFERD
 40
0.0
  9
$SKPOLY
 70
     0
  9
$TDCREATE
 40
2452116.684896065
  9
$TDUCREATE
 40
2452116.309896065
  9
$TDUPDATE
 40
2455575.693752165
  9
$TDUUPDATE
 40
2455575.318752165
  9
$TDINDWG
 40
0.4944425694
  9
$TDUSRTIMER
 40
0.4944425694
  9
$USRTIMER
 70
     1
  9
$ANGBASE
 50
0.0
  9
$ANGDIR
 70
     0
  9
$PDMODE
 70
     3
  9
$PDSIZE
 40
2.0
  9
$PLINEWID
 40
0.0
  9
$SPLFRAME
 70
     0
  9
$SPLINETYPE
 70
     6
  9
$SPLINESEGS
 70
     8
  9
$HANDSEED
  5
173A6
  9
$SURFTAB1
 70
     6
  9
$SURFTAB2
 70
     6
  9
$SURFTYPE
 70
     6
  9
$SURFU
 70
     6
  9
$SURFV
 70
     6
  9
$UCSBASE
  2

  9
$UCSNAME
  2

  9
$UCSORG
 10
0.0
 20
0.0
 30
0.0
  9
$UCSXDIR
 10
1.0
 20
0.0
 30
0.0
  9
$UCSYDIR
 10
0.0
 20
1.0
 30
0.0
  9
$UCSORTHOREF
  2

  9
$UCSORTHOVIEW
 70
     0
  9
$UCSORGTOP
 10
0.0
 20
0.0
 30
0.0
  9
$UCSORGBOTTOM
 10
0.0
 20
0.0
 30
0.0
  9
$UCSORGLEFT
 10
0.0
 20
0.0
 30
0.0
  9
$UCSORGRIGHT
 10
0.0
 20
0.0
 30
0.0
  9
$UCSORGFRONT
 10
0.0
 20
0.0
 30
0.0
  9
$UCSORGBACK
 10
0.0
 20
0.0
 30
0.0
  9
$PUCSBASE
  2

  9
$PUCSNAME
  2

  9
$PUCSORG
 10
0.0
 20
0.0
 30
0.0
  9
$PUCSXDIR
 10
1.0
 20
0.0
 30
0.0
  9
$PUCSYDIR
 10
0.0
 20
1.0
 30
0.0
  9
$PUCSORTHOREF
  2

  9
$PUCSORTHOVIEW
 70
     0
  9
$PUCSORGTOP
 10
0.0
 20
0.0
 30
0.0
  9
$PUCSORGBOTTOM
 10
0.0
 20
0.0
 30
0.0
  9
$PUCSORGLEFT
 10
0.0
 20
0.0
 30
0.0
  9
$PUCSORGRIGHT
 10
0.0
 20
0.0
 30
0.0
  9
$PUCSORGFRONT
 10
0.0
 20
0.0
 30
0.0
  9
$PUCSORGBACK
 10
0.0
 20
0.0
 30
0.0
  9
$USERI1
 70
     0
  9
$USERI2
 70
     0
  9
$USERI3
 70
     0
  9
$USERI4
 70
     0
  9
$USERI5
 70
     0
  9
$USERR1
 40
0.0
  9
$USERR2
 40
0.0
  9
$USERR3
 40
0.0
  9
$USERR4
 40
0.0
  9
$USERR5
 40
0.0
  9
$WORLDVIEW
 70
     1
  9
$SHADEDGE
 70
     3
  9
$SHADEDIF
 70
    70
  9
$TILEMODE
 70
     1
  9
$MAXACTVP
 70
    16
  9
$PINSBASE
 10
0.0
 20
0.0
 30
0.0
  9
$PLIMCHECK
 70
     0
  9
$PEXTMIN
 10
1.000000000000000E+20
 20
1.000000000000000E+20
 30
1.000000000000000E+20
  9
$PEXTMAX
 10
-1.000000000000000E+20
 20
-1.000000000000000E+20
 30
-1.000000000000000E+20
  9
$PLIMMIN
 10
0.0
 20
0.0
  9
$PLIMMAX
 10
420.0
 20
297.0
  9
$UNITMODE
 70
     0
  9
$VISRETAIN
 70
     0
  9
$PLINEGEN
 70
     0
  9
$PSLTSCALE
 70
     0
  9
$TREEDEPTH
 70
  3020
  9
$CMLSTYLE
  2
STANDARD
  9
$CMLJUST
 70
     0
  9
$CMLSCALE
 40
1.0
  9
$PROXYGRAPHICS
 70
     1
  9
$MEASUREMENT
 70
     1
  9
$CELWEIGHT
370
    -1
  9
$ENDCAPS
280
     0
  9
$JOINSTYLE
280
     0
  9
$LWDISPLAY
290
     0
  9
$INSUNITS
 70
     0
  9
$HYPERLINKBASE
  1

  9
$STYLESHEET
  1

  9
$XEDIT
290
     1
  9
$CEPSNTYPE
380
     0
  9
$PSTYLEMODE
290
     1
  9
$FINGERPRINTGUID
  2
{E456F124-076C-4052-A2A0-02E3FCCBDE36}
  9
$VERSIONGUID
  2
{0856017F-3FDF-4DBA-BC3D-F301F493A95A}
  9
$EXTNAMES
290
     1
  9
$PSVPSCALE
 40
0.0
  9
$OLESTARTUP
290
     0
  0
ENDSEC
  0
SECTION
  2
CLASSES
  0
CLASS
  1
ACDBDICTIONARYWDFLT
  2
AcDbDictionaryWithDefault
  3
ObjectDBX Classes
 90
        0
280
     0
281
     0
  0
CLASS
  1
DICTIONARYVAR
  2
AcDbDictionaryVar
  3
ObjectDBX Classes
 90
        0
280
     0
281
     0
  0
CLASS
  1
ACDBPLACEHOLDER
  2
AcDbPlaceHolder
  3
ObjectDBX Classes
 90
        0
280
     0
281
     0
  0
CLASS
  1
LAYOUT
  2
AcDbLayout
  3
ObjectDBX Classes
 90
        0
280
     0
281
     0
  0
ENDSEC
  0
SECTION
  2
TABLES
  0
TABLE
  2
VPORT
  5
746D
330
0
100
AcDbSymbolTable
 70
     2
  0
VPORT
  5
1739E
330
746D
100
AcDbSymbolTableRecord
100
AcDbViewportTableRecord
  2
*Active
 70
     0
 10
0.0
 20
0.0
 11
1.0
 21
1.0
 12
8223.761025238502
 22
6348.618810942607
 13
0.0
 23
0.0
 14
10.0
 24
10.0
 15
10.0
 25
10.0
 16
0.0
 26
0.0
 36
1.0
 17
0.0
 27
0.0
 37
0.0
 40
12805.80217557516
 41
1.525925925925925
 42
50.0
 43
0.0
 44
0.0
 50
0.0
 51
0.0
 71
     0
 72
     0
 73
     1
 74
     0
 75
     0
 76
     0
 77
     0
 78
     0
281
     0
 65
     1
110
0.0
120
0.0
130
0.0
111
1.0
121
0.0
131
0.0
112
0.0
122
1.0
132
0.0
 79
     0
146
0.0
  0
ENDTAB
  0
TABLE
  2
LTYPE
  5
746A
330
0
100
AcDbSymbolTable
 70
     4
  0
LTYPE
  5
7477
330
746A
100
AcDbSymbolTableRecord
100
AcDbLinetypeTableRecord
  2
BYBLOCK
 70
     0
  3

 72
    65
 73
     0
 40
0.0
  0
LTYPE
  5
7478
330
746A
100
AcDbSymbolTableRecord
100
AcDbLinetypeTableRecord
  2
BYLAYER
 70
     0
  3

 72
    65
 73
     0
 40
0.0
  0
LTYPE
  5
7479
330
746A
100
AcDbSymbolTableRecord
100
AcDbLinetypeTableRecord
  2
CONTINUOUS
 70
     0
  3
Solid line
 72
    65
 73
     0
 40
0.0
  0
LTYPE
  5
7816
330
746A
100
AcDbSymbolTableRecord
100
AcDbLinetypeTableRecord
  2
CENTER
 70
     0
  3
____ _ ____ _ ____ _ ____ _ ____ _ ____ _ ____ 
 72
    65
 73
     4
 40
2.0
 49
1.25
 74
     0
 49
-0.25
 74
     0
 49
0.25
 74
     0
 49
-0.25
 74
     0
  0
LTYPE
  5
781A
330
746A
100
AcDbSymbolTableRecord
100
AcDbLinetypeTableRecord
  2
HIDDEN
 70
     0
  3
__ __ __ __ __ __ __ __ __ __ __ __ __ __ __ __
 72
    65
 73
     2
 40
0.375
 49
0.25
 74
     0
 49
-0.125
 74
     0
  0
LTYPE
  5
781B
330
746A
100
AcDbSymbolTableRecord
100
AcDbLinetypeTableRecord
  2
PHANTOM
 70
     0
  3
______  __  __  ______  __  __  ______  __  __ 
 72
    65
 73
     6
 40
2.5
 49
1.25
 74
     0
 49
-0.25
 74
     0
 49
0.25
 74
     0
 49
-0.25
 74
     0
 49
0.25
 74
     0
 49
-0.25
 74
     0
  0
ENDTAB
  0
TABLE
  2
LAYER
  5
7467
102
{ACAD_XDICTIONARY
360
160D6
102
}
330
0
100
AcDbSymbolTable
 70
    12
  0
LAYER
  5
7474
330
7467
100
AcDbSymbolTableRecord
100
AcDbLayerTableRecord
  2
0
 70
     0
 62
     7
  6
CONTINUOUS
370
    -3
390
15EFA
  0
LAYER
  5
DEB2
330
7467
100
AcDbSymbolTableRecord
100
AcDbLayerTableRecord
  2
センター
 70
     0
 62
     3
  6
CENTER
370
    -3
390
15EFA
  0
LAYER
  5
DEB3
330
7467
100
AcDbSymbolTableRecord
100
AcDbLayerTableRecord
  2
寸法
 70
     0
 62
     4
  6
CONTINUOUS
370
    -3
390
15EFA
  0
LAYER
  5
DEB4
330
7467
100
AcDbSymbolTableRecord
100
AcDbLayerTableRecord
  2
部品1
 70
     0
 62
     7
  6
CONTINUOUS
370
    -3
390
15EFA
  0
LAYER
  5
DEB5
330
7467
100
AcDbSymbolTableRecord
100
AcDbLayerTableRecord
  2
補助
 70
     0
 62
    -1
  6
CONTINUOUS
370
    -3
390
15EFA
  0
LAYER
  5
DEB6
330
7467
100
AcDbSymbolTableRecord
100
AcDbLayerTableRecord
  2
文字
 70
     0
 62
     7
  6
CONTINUOUS
370
    -3
390
15EFA
  0
LAYER
  5
F255
330
7467
100
AcDbSymbolTableRecord
100
AcDbLayerTableRecord
  2
DEFPOINTS
 70
     0
 62
     7
  6
CONTINUOUS
290
     0
370
    -3
390
15EFA
  0
LAYER
  5
10B54
330
7467
100
AcDbSymbolTableRecord
100
AcDbLayerTableRecord
  2
仕様書枠
 70
     0
 62
   230
  6
CONTINUOUS
370
    -3
390
15EFA
  0
LAYER
  5
11729
330
7467
100
AcDbSymbolTableRecord
100
AcDbLayerTableRecord
  2
Ｇ．Ｌ
 70
     0
 62
    30
  6
CONTINUOUS
370
    -3
390
15EFA
  0
LAYER
  5
1173F
330
7467
100
AcDbSymbolTableRecord
100
AcDbLayerTableRecord
  2
細線
 70
     0
 62
     5
  6
CONTINUOUS
370
    -3
390
15EFA
  0
LAYER
  5
118A1
330
7467
100
AcDbSymbolTableRecord
100
AcDbLayerTableRecord
  2
想像線
 70
     0
 62
     6
  6
PHANTOM
370
    -3
390
15EFA
  0
LAYER
  5
123C1
330
7467
100
AcDbSymbolTableRecord
100
AcDbLayerTableRecord
  2
破線
 70
     0
 62
     2
  6
HIDDEN
370
    -3
390
15EFA
  0
ENDTAB
  0
TABLE
  2
STYLE
  5
7468
330
0
100
AcDbSymbolTable
 70
     4
  0
STYLE
  5
7475
330
7468
100
AcDbSymbolTableRecord
100
AcDbTextStyleTableRecord
  2
STANDARD
 70
     0
 40
0.0
 41
1.0
 50
0.0
 71
     0
 42
4.0
  3
txt
  4
C:\AutoCAD LT\bigfont.shx
  0
STYLE
  5
F706
330
7468
100
AcDbSymbolTableRecord
100
AcDbTextStyleTableRecord
  2
STYLE1
 70
     0
 40
0.0
 41
1.0
 50
0.0
 71
     0
 42
4.0
  3
isocp.shx
  4
bigfont.shx
  0
STYLE
  5
103BF
330
7468
100
AcDbSymbolTableRecord
100
AcDbTextStyleTableRecord
  2
STYLE2
 70
     0
 40
0.0
 41
1.0
 50
0.0
 71
     0
 42
100.0
  3
MS PGothic.ttf
  4

1001
ACAD
1000
MS PGothic
1071
    32818
  0
STYLE
  5
10BAA
330
7468
100
AcDbSymbolTableRecord
100
AcDbTextStyleTableRecord
  2
STYLE3
 70
     0
 40
0.0
 41
1.0
 50
0.0
 71
     0
 42
100.0
  3

  4

1001
ACAD
1000
DFPGothic-EB
1071
    32818
  0
ENDTAB
  0
TABLE
  2
VIEW
  5
746B
330
0
100
AcDbSymbolTable
 70
     0
  0
ENDTAB
  0
TABLE
  2
UCS
  5
746C
330
0
100
AcDbSymbolTable
 70
     0
  0
ENDTAB
  0
TABLE
  2
APPID
  5
746E
330
0
100
AcDbSymbolTable
 70
     6
  0
APPID
  5
7476
330
746E
100
AcDbSymbolTableRecord
100
AcDbRegAppTableRecord
  2
ACAD
 70
     0
  0
APPID
  5
DEA9
330
746E
100
AcDbSymbolTableRecord
100
AcDbRegAppTableRecord
  2
CONTENTBLOCKICON
 70
     0
  0
APPID
  5
DEAA
330
746E
100
AcDbSymbolTableRecord
100
AcDbRegAppTableRecord
  2
CONTENTBLOCKDESCRIPTION
 70
     0
  0
APPID
  5
E71D
330
746E
100
AcDbSymbolTableRecord
100
AcDbRegAppTableRecord
  2
CONTENTTABDATA
 70
     0
  0
APPID
  5
E71E
330
746E
100
AcDbSymbolTableRecord
100
AcDbRegAppTableRecord
  2
CONTENTCURRENTTAB
 70
     0
  0
APPID
  5
F3BA
330
746E
100
AcDbSymbolTableRecord
100
AcDbRegAppTableRecord
  2
DRAWINGVARIABLESXDATA
 70
     0
  0
ENDTAB
  0
TABLE
  2
DIMSTYLE
  5
746F
330
0
100
AcDbSymbolTable
 70
     2
100
AcDbDimStyleTable
 71
     1
340
F71F
  0
DIMSTYLE
105
7484
330
746F
100
AcDbSymbolTableRecord
100
AcDbDimStyleTableRecord
  2
JIS
 70
     0
 41
2.5
 42
1.0
 43
7.0
 44
1.0
 73
     0
 74
     0
 77
     1
 78
     8
140
2.5
141
0.0
143
0.0394
147
0.0
172
     1
174
     1
175
     1
340
7475
  0
DIMSTYLE
105
F71F
102
{ACAD_REACTORS
330
156F4
330
156F5
330
156F6
330
156F7
330
156F8
330
156F9
330
156FA
330
156FB
330
156FC
330
15717
330
15794
330
15795
330
1579F
330
157A3
330
157C5
330
15C33
330
15C4B
330
15D2A
330
15D25
330
15D05
330
15E7D
330
15E7A
330
15E4D
330
16466
330
16467
330
1648D
330
1648E
330
1648F
330
16490
330
16494
330
16495
330
1649F
330
16BF6
330
16BF5
330
16BF4
330
16C48
330
1723F
330
17242
330
17291
330
17294
330
172C3
102
}
330
746F
100
AcDbSymbolTableRecord
100
AcDbDimStyleTableRecord
  2
INABA_S40G
 70
     0
 40
40.0
 41
2.5
 42
0.5
 43
7.0
 44
1.5
 73
     0
 74
     0
 77
     3
 78
     8
140
3.0
141
0.0
143
0.0394
147
1.0
172
     1
173
     1
174
     1
178
     7
271
     1
340
F706
341
F770
343
F770
344
F770
  0
ENDTAB
  0
TABLE
  2
BLOCK_RECORD
  5
7466
330
0
100
AcDbSymbolTable
 70
    42
  0
BLOCK_RECORD
  5
747D
330
7466
100
AcDbSymbolTableRecord
100
AcDbBlockTableRecord
  2
*MODEL_SPACE
340
15EFF
  0
BLOCK_RECORD
  5
747A
330
7466
100
AcDbSymbolTableRecord
100
AcDbBlockTableRecord
  2
*PAPER_SPACE
340
15F00
  0
BLOCK_RECORD
  5
F770
330
7466
100
AcDbSymbolTableRecord
100
AcDbBlockTableRecord
  2
_DOTSMALL
340
0
102
{BLKREFS
331
16CEC
331
16CED
331
16CF7
331
16CF8
331
16D00
331
16D01
331
16D09
331
16D0A
331
16D3F
331
16D40
331
16D48
331
16D49
331
16D53
331
16D54
331
16D5C
331
16D5D
331
16D65
331
16D66
331
16D70
331
16D71
331
16D79
331
16D7A
331
16D83
331
16D84
331
16D8D
331
16D8E
331
16D97
331
16D98
331
16D9F
331
16DA0
331
16DA8
331
16DA9
331
16DB2
331
16DB3
331
16DBA
331
16DBB
331
16DC3
331
16DC4
331
16DCC
331
16DCD
331
16DD5
331
16DD6
331
16DDE
331
16DDF
331
16DE7
331
16DE8
331
16DF0
331
16DF1
331
16DF9
331
16DFA
331
16E04
331
16E05
331
16E0D
331
16E0E
331
16E16
331
16E17
331
16E1F
331
16E20
331
16E28
331
16E29
331
16E33
331
16E34
331
16E3C
331
16E3D
331
16E46
331
16E47
331
16E4F
331
16E50
331
16E59
331
16E5A
331
16E64
331
16E65
331
17260
331
17261
331
17269
331
1726A
331
172B2
331
172B3
331
172BB
331
172BC
331
172D3
331
172D4
102
}
  0
BLOCK_RECORD
  5
158EC
330
7466
100
AcDbSymbolTableRecord
100
AcDbBlockTableRecord
  2
*D1
340
0
  0
BLOCK_RECORD
  5
158FA
330
7466
100
AcDbSymbolTableRecord
100
AcDbBlockTableRecord
  2
*D2
340
0
  0
BLOCK_RECORD
  5
15908
330
7466
100
AcDbSymbolTableRecord
100
AcDbBlockTableRecord
  2
*D3
340
0
  0
BLOCK_RECORD
  5
15914
330
7466
100
AcDbSymbolTableRecord
100
AcDbBlockTableRecord
  2
*D4
340
0
  0
BLOCK_RECORD
  5
15920
330
7466
100
AcDbSymbolTableRecord
100
AcDbBlockTableRecord
  2
*D5
340
0
  0
BLOCK_RECORD
  5
1592C
330
7466
100
AcDbSymbolTableRecord
100
AcDbBlockTableRecord
  2
*D6
340
0
  0
BLOCK_RECORD
  5
1593A
330
7466
100
AcDbSymbolTableRecord
100
AcDbBlockTableRecord
  2
*D7
340
0
  0
BLOCK_RECORD
  5
15946
330
7466
100
AcDbSymbolTableRecord
100
AcDbBlockTableRecord
  2
*D8
340
0
  0
BLOCK_RECORD
  5
15952
330
7466
100
AcDbSymbolTableRecord
100
AcDbBlockTableRecord
  2
*D9
340
0
  0
BLOCK_RECORD
  5
15976
330
7466
100
AcDbSymbolTableRecord
100
AcDbBlockTableRecord
  2
*D10
340
0
  0
BLOCK_RECORD
  5
159A6
330
7466
100
AcDbSymbolTableRecord
100
AcDbBlockTableRecord
  2
*D11
340
0
  0
BLOCK_RECORD
  5
159B4
330
7466
100
AcDbSymbolTableRecord
100
AcDbBlockTableRecord
  2
*D12
340
0
  0
BLOCK_RECORD
  5
159C0
330
7466
100
AcDbSymbolTableRecord
100
AcDbBlockTableRecord
  2
*D13
340
0
  0
BLOCK_RECORD
  5
159CC
330
7466
100
AcDbSymbolTableRecord
100
AcDbBlockTableRecord
  2
*D14
340
0
  0
BLOCK_RECORD
  5
159F0
330
7466
100
AcDbSymbolTableRecord
100
AcDbBlockTableRecord
  2
*D15
340
0
  0
BLOCK_RECORD
  5
15C34
330
7466
100
AcDbSymbolTableRecord
100
AcDbBlockTableRecord
  2
*D16
340
0
  0
BLOCK_RECORD
  5
15C4C
330
7466
100
AcDbSymbolTableRecord
100
AcDbBlockTableRecord
  2
*D17
340
0
  0
BLOCK_RECORD
  5
15D31
330
7466
100
AcDbSymbolTableRecord
100
AcDbBlockTableRecord
  2
*D18
340
0
  0
BLOCK_RECORD
  5
15D3D
330
7466
100
AcDbSymbolTableRecord
100
AcDbBlockTableRecord
  2
*D19
340
0
  0
BLOCK_RECORD
  5
15D49
330
7466
100
AcDbSymbolTableRecord
100
AcDbBlockTableRecord
  2
*D20
340
0
  0
BLOCK_RECORD
  5
15E84
330
7466
100
AcDbSymbolTableRecord
100
AcDbBlockTableRecord
  2
*D21
340
0
  0
BLOCK_RECORD
  5
15E90
330
7466
100
AcDbSymbolTableRecord
100
AcDbBlockTableRecord
  2
*D22
340
0
  0
BLOCK_RECORD
  5
15E9C
330
7466
100
AcDbSymbolTableRecord
100
AcDbBlockTableRecord
  2
*D23
340
0
  0
BLOCK_RECORD
  5
16758
330
7466
100
AcDbSymbolTableRecord
100
AcDbBlockTableRecord
  2
*D24
340
0
  0
BLOCK_RECORD
  5
16765
330
7466
100
AcDbSymbolTableRecord
100
AcDbBlockTableRecord
  2
*D25
340
0
  0
BLOCK_RECORD
  5
16772
330
7466
100
AcDbSymbolTableRecord
100
AcDbBlockTableRecord
  2
*D26
340
0
  0
BLOCK_RECORD
  5
1677E
330
7466
100
AcDbSymbolTableRecord
100
AcDbBlockTableRecord
  2
*D27
340
0
  0
BLOCK_RECORD
  5
1678C
330
7466
100
AcDbSymbolTableRecord
100
AcDbBlockTableRecord
  2
*D28
340
0
  0
BLOCK_RECORD
  5
16798
330
7466
100
AcDbSymbolTableRecord
100
AcDbBlockTableRecord
  2
*D29
340
0
  0
BLOCK_RECORD
  5
167A4
330
7466
100
AcDbSymbolTableRecord
100
AcDbBlockTableRecord
  2
*D30
340
0
  0
BLOCK_RECORD
  5
167B2
330
7466
100
AcDbSymbolTableRecord
100
AcDbBlockTableRecord
  2
*D31
340
0
  0
BLOCK_RECORD
  5
167BE
330
7466
100
AcDbSymbolTableRecord
100
AcDbBlockTableRecord
  2
*D32
340
0
  0
BLOCK_RECORD
  5
16C05
330
7466
100
AcDbSymbolTableRecord
100
AcDbBlockTableRecord
  2
*D33
340
0
  0
BLOCK_RECORD
  5
16C13
330
7466
100
AcDbSymbolTableRecord
100
AcDbBlockTableRecord
  2
*D34
340
0
  0
BLOCK_RECORD
  5
16C1F
330
7466
100
AcDbSymbolTableRecord
100
AcDbBlockTableRecord
  2
*D35
340
0
  0
BLOCK_RECORD
  5
16C53
330
7466
100
AcDbSymbolTableRecord
100
AcDbBlockTableRecord
  2
*D36
340
0
  0
BLOCK_RECORD
  5
17245
330
7466
100
AcDbSymbolTableRecord
100
AcDbBlockTableRecord
  2
*D37
340
0
  0
BLOCK_RECORD
  5
17251
330
7466
100
AcDbSymbolTableRecord
100
AcDbBlockTableRecord
  2
*D38
340
0
  0
BLOCK_RECORD
  5
17297
330
7466
100
AcDbSymbolTableRecord
100
AcDbBlockTableRecord
  2
*D39
340
0
  0
BLOCK_RECORD
  5
172A3
330
7466
100
AcDbSymbolTableRecord
100
AcDbBlockTableRecord
  2
*D40
340
0
  0
BLOCK_RECORD
  5
172C4
330
7466
100
AcDbSymbolTableRecord
100
AcDbBlockTableRecord
  2
*D41
340
0
  0
ENDTAB
  0
ENDSEC
  0
SECTION
  2
BLOCKS
  0
BLOCK
  5
7489
330
747D
100
AcDbEntity
  8
0
100
AcDbBlockBegin
  2
*MODEL_SPACE
 70
     0
 10
0.0
 20
0.0
 30
0.0
  3
*MODEL_SPACE
  1

  0
ENDBLK
  5
748A
330
747D
100
AcDbEntity
  8
0
100
AcDbBlockEnd
  0
BLOCK
  5
7487
330
747A
100
AcDbEntity
 67
     1
  8
0
100
AcDbBlockBegin
  2
*PAPER_SPACE
 70
     0
 10
0.0
 20
0.0
 30
0.0
  3
*PAPER_SPACE
  1

  0
ENDBLK
  5
7488
330
747A
100
AcDbEntity
 67
     1
  8
0
100
AcDbBlockEnd
  0
BLOCK
  5
F771
330
F770
100
AcDbEntity
  8
0
 48
50.0
100
AcDbBlockBegin
  2
_DOTSMALL
 70
     0
 10
0.0
 20
0.0
 30
0.0
  3
_DOTSMALL
  1

  0
LWPOLYLINE
  5
F772
330
F770
100
AcDbEntity
  8
0
  6
ByBlock
 62
     0
 48
50.0
100
AcDbPolyline
 90
        2
 70
     1
 43
0.5
 10
-0.0625
 20
0.0
 42
1.0
 10
0.0625
 20
0.0
 42
1.0
  0
ENDBLK
  5
F776
330
F770
100
AcDbEntity
  8
0
 48
50.0
100
AcDbBlockEnd
  0
BLOCK
  5
15A18
330
158EC
100
AcDbEntity
  8
0
 48
50.0
100
AcDbBlockBegin
  2
*D1
 70
     1
 10
0.0
 20
0.0
 30
0.0
  3
*D1
  1

  0
LINE
  5
16E5F
330
158EC
100
AcDbEntity
  8
寸法
 62
     0
 48
50.0
370
    -2
100
AcDbLine
 10
8597.611119403657
 20
9289.766171212086
 30
0.0
 11
9285.037465138067
 21
9289.766171212086
 31
0.0
  0
LINE
  5
16E60
330
158EC
100
AcDbEntity
  8
寸法
 62
     0
 48
50.0
370
    -2
100
AcDbLine
 10
8597.611119403657
 20
9234.766171212086
 30
0.0
 11
9285.037465138067
 21
9234.766171212086
 31
0.0
  0
LINE
  5
16E61
330
158EC
100
AcDbEntity
  8
寸法
 62
     0
 48
50.0
370
    -2
100
AcDbLine
 10
9225.037465138068
 20
9234.766171212086
 30
0.0
 11
9225.037465138068
 21
9134.766171212087
 31
0.0
  0
LINE
  5
16E62
330
158EC
100
AcDbEntity
  8
寸法
 62
     0
 48
50.0
370
    -2
100
AcDbLine
 10
9225.037465138068
 20
9289.766171212086
 30
0.0
 11
9225.037465138068
 21
9706.736733960562
 31
0.0
  0
LINE
  5
16E63
330
158EC
100
AcDbEntity
  8
寸法
 62
     0
 48
50.0
370
    -2
100
AcDbLine
 10
9225.037465138068
 20
9234.766171212086
 30
0.0
 11
9225.037465138068
 21
9289.766171212086
 31
0.0
  0
INSERT
  5
16E64
330
158EC
100
AcDbEntity
  8
寸法
 62
     0
 48
50.0
370
    -2
100
AcDbBlockReference
  2
_DOTSMALL
 10
9225.037465138068
 20
9234.766171212086
 30
0.0
 41
100.0
 42
100.0
 43
100.0
 50
90.0
  0
INSERT
  5
16E65
330
158EC
100
AcDbEntity
  8
寸法
 62
     0
 48
50.0
370
    -2
100
AcDbBlockReference
  2
_DOTSMALL
 10
9225.037465138068
 20
9289.766171212086
 30
0.0
 41
100.0
 42
100.0
 43
100.0
 50
270.0
  0
MTEXT
  5
16E66
330
158EC
100
AcDbEntity
  8
寸法
 62
     7
 48
50.0
100
AcDbMText
 10
9125.037465138067
 20
9598.251452586326
 30
0.0
 40
120.0
 41
0.0
 71
     5
 72
     1
  1
\A1;55
  7
STYLE1
 11
0.0000000000000001
 21
1.0
 31
0.0
 73
     1
 44
1.0
1001
ACAD
1000
MTEXTBEGIN
1070
    73
1070
     1
1070
    44
1040
1.0
1070
    74
1070
     0
1000
MTEXTEND
  0
POINT
  5
16E67
330
158EC
100
AcDbEntity
  8
DEFPOINTS
 62
     0
 48
50.0
100
AcDbPoint
 10
8577.611119403657
 20
9289.766171212086
 30
0.0
  0
POINT
  5
16E68
330
158EC
100
AcDbEntity
  8
DEFPOINTS
 62
     0
 48
50.0
100
AcDbPoint
 10
8577.611119403657
 20
9234.766171212086
 30
0.0
  0
POINT
  5
16E69
330
158EC
100
AcDbEntity
  8
DEFPOINTS
 62
     0
 48
50.0
100
AcDbPoint
 10
9225.037465138068
 20
9234.766171212086
 30
0.0
  0
ENDBLK
  5
15A24
330
158EC
100
AcDbEntity
  8
0
 48
50.0
100
AcDbBlockEnd
  0
BLOCK
  5
15A25
330
158FA
100
AcDbEntity
  8
0
 48
50.0
100
AcDbBlockBegin
  2
*D2
 70
     1
 10
0.0
 20
0.0
 30
0.0
  3
*D2
  1

  0
LINE
  5
16E54
330
158FA
100
AcDbEntity
  8
寸法
 62
     0
 48
50.0
370
    -2
100
AcDbLine
 10
8522.611119403656
 20
9309.766171212087
 30
0.0
 11
8522.611119403656
 21
9565.574390837069
 31
0.0
  0
LINE
  5
16E55
330
158FA
100
AcDbEntity
  8
寸法
 62
     0
 48
50.0
370
    -2
100
AcDbLine
 10
8577.611119403657
 20
9309.766171212087
 30
0.0
 11
8577.611119403657
 21
9565.574390837069
 31
0.0
  0
LINE
  5
16E56
330
158FA
100
AcDbEntity
  8
寸法
 62
     0
 48
50.0
370
    -2
100
AcDbLine
 10
8522.611119403656
 20
9505.574390837066
 30
0.0
 11
8422.611119403656
 21
9505.574390837066
 31
0.0
  0
LINE
  5
16E57
330
158FA
100
AcDbEntity
  8
寸法
 62
     0
 48
50.0
370
    -2
100
AcDbLine
 10
8577.611119403657
 20
9505.574390837066
 30
0.0
 11
8994.581682152134
 21
9505.574390837066
 31
0.0
  0
LINE
  5
16E58
330
158FA
100
AcDbEntity
  8
寸法
 62
     0
 48
50.0
370
    -2
100
AcDbLine
 10
8522.611119403656
 20
9505.574390837066
 30
0.0
 11
8577.611119403657
 21
9505.574390837066
 31
0.0
  0
INSERT
  5
16E59
330
158FA
100
AcDbEntity
  8
寸法
 62
     0
 48
50.0
370
    -2
100
AcDbBlockReference
  2
_DOTSMALL
 10
8522.611119403656
 20
9505.574390837066
 30
0.0
 41
100.0
 42
100.0
 43
100.0
  0
INSERT
  5
16E5A
330
158FA
100
AcDbEntity
  8
寸法
 62
     0
 48
50.0
370
    -2
100
AcDbBlockReference
  2
_DOTSMALL
 10
8577.611119403657
 20
9505.574390837066
 30
0.0
 41
100.0
 42
100.0
 43
100.0
 50
180.0
  0
MTEXT
  5
16E5B
330
158FA
100
AcDbEntity
  8
寸法
 62
     7
 48
50.0
100
AcDbMText
 10
8886.096400777894
 20
9605.57439083707
 30
0.0
 40
120.0
 41
0.0
 71
     5
 72
     1
  1
\A1;55
  7
STYLE1
 73
     1
 44
1.0
1001
ACAD
1000
MTEXTBEGIN
1070
    73
1070
     1
1070
    44
1040
1.0
1070
    74
1070
     0
1000
MTEXTEND
  0
POINT
  5
16E5C
330
158FA
100
AcDbEntity
  8
DEFPOINTS
 62
     0
 48
50.0
100
AcDbPoint
 10
8522.611119403656
 20
9289.766171212086
 30
0.0
  0
POINT
  5
16E5D
330
158FA
100
AcDbEntity
  8
DEFPOINTS
 62
     0
 48
50.0
100
AcDbPoint
 10
8577.611119403657
 20
9289.766171212086
 30
0.0
  0
POINT
  5
16E5E
330
158FA
100
AcDbEntity
  8
DEFPOINTS
 62
     0
 48
50.0
100
AcDbPoint
 10
8577.611119403657
 20
9505.574390837066
 30
0.0
  0
ENDBLK
  5
15A31
330
158FA
100
AcDbEntity
  8
0
 48
50.0
100
AcDbBlockEnd
  0
BLOCK
  5
15A32
330
15908
100
AcDbEntity
  8
0
 48
50.0
100
AcDbBlockBegin
  2
*D3
 70
     1
 10
0.0
 20
0.0
 30
0.0
  3
*D3
  1

  0
LINE
  5
16E4B
330
15908
100
AcDbEntity
  8
寸法
 62
     0
 48
50.0
370
    -2
100
AcDbLine
 10
7572.611119403653
 20
9309.766171212109
 30
0.0
 11
7572.611119403653
 21
9565.57439083709
 31
0.0
  0
LINE
  5
16E4C
330
15908
100
AcDbEntity
  8
寸法
 62
     0
 48
50.0
370
    -2
100
AcDbLine
 10
7682.611119403657
 20
9309.766171212087
 30
0.0
 11
7682.611119403657
 21
9565.57439083709
 31
0.0
  0
LINE
  5
16E4D
330
15908
100
AcDbEntity
  8
寸法
 62
     0
 48
50.0
370
    -2
100
AcDbLine
 10
7572.611119403653
 20
9505.574390837089
 30
0.0
 11
7682.611119403657
 21
9505.574390837089
 31
0.0
  0
MTEXT
  5
16E4E
330
15908
100
AcDbEntity
  8
寸法
 62
     7
 48
50.0
100
AcDbMText
 10
7627.611119403657
 20
9763.787889306543
 30
0.0
 40
120.0
 41
0.0
 71
     5
 72
     1
  1
\A1;110
  7
STYLE1
 73
     1
 44
1.0
1001
ACAD
1000
MTEXTBEGIN
1070
    73
1070
     1
1070
    44
1040
1.0
1070
    74
1070
     0
1000
MTEXTEND
  0
INSERT
  5
16E4F
330
15908
100
AcDbEntity
  8
寸法
 62
     0
 48
50.0
370
    -2
100
AcDbBlockReference
  2
_DOTSMALL
 10
7572.611119403653
 20
9505.574390837089
 30
0.0
 41
100.0
 42
100.0
 43
100.0
 50
180.0
  0
INSERT
  5
16E50
330
15908
100
AcDbEntity
  8
寸法
 62
     0
 48
50.0
370
    -2
100
AcDbBlockReference
  2
_DOTSMALL
 10
7682.611119403657
 20
9505.574390837089
 30
0.0
 41
100.0
 42
100.0
 43
100.0
  0
POINT
  5
16E51
330
15908
100
AcDbEntity
  8
DEFPOINTS
 62
     0
 48
50.0
100
AcDbPoint
 10
7572.611119403653
 20
9289.766171212107
 30
0.0
  0
POINT
  5
16E52
330
15908
100
AcDbEntity
  8
DEFPOINTS
 62
     0
 48
50.0
100
AcDbPoint
 10
7682.611119403657
 20
9289.766171212086
 30
0.0
  0
POINT
  5
16E53
330
15908
100
AcDbEntity
  8
DEFPOINTS
 62
     0
 48
50.0
100
AcDbPoint
 10
7682.611119403657
 20
9505.574390837089
 30
0.0
  0
ENDBLK
  5
15A3C
330
15908
100
AcDbEntity
  8
0
 48
50.0
100
AcDbBlockEnd
  0
BLOCK
  5
15A3D
330
15914
100
AcDbEntity
  8
0
 48
50.0
100
AcDbBlockBegin
  2
*D4
 70
     1
 10
0.0
 20
0.0
 30
0.0
  3
*D4
  1

  0
LINE
  5
16E42
330
15914
100
AcDbEntity
  8
寸法
 62
     0
 48
50.0
370
    -2
100
AcDbLine
 10
6622.611119403654
 20
9309.766171212109
 30
0.0
 11
6622.611119403654
 21
9565.57439083709
 31
0.0
  0
LINE
  5
16E43
330
15914
100
AcDbEntity
  8
寸法
 62
     0
 48
50.0
370
    -2
100
AcDbLine
 10
6732.611119403657
 20
9309.766171212087
 30
0.0
 11
6732.611119403657
 21
9565.57439083709
 31
0.0
  0
LINE
  5
16E44
330
15914
100
AcDbEntity
  8
寸法
 62
     0
 48
50.0
370
    -2
100
AcDbLine
 10
6622.611119403654
 20
9505.574390837089
 30
0.0
 11
6732.611119403657
 21
9505.574390837089
 31
0.0
  0
MTEXT
  5
16E45
330
15914
100
AcDbEntity
  8
寸法
 62
     7
 48
50.0
100
AcDbMText
 10
6677.611119403654
 20
9759.852712208237
 30
0.0
 40
120.0
 41
0.0
 71
     5
 72
     1
  1
\A1;110
  7
STYLE1
 73
     1
 44
1.0
1001
ACAD
1000
MTEXTBEGIN
1070
    73
1070
     1
1070
    44
1040
1.0
1070
    74
1070
     0
1000
MTEXTEND
  0
INSERT
  5
16E46
330
15914
100
AcDbEntity
  8
寸法
 62
     0
 48
50.0
370
    -2
100
AcDbBlockReference
  2
_DOTSMALL
 10
6622.611119403654
 20
9505.574390837089
 30
0.0
 41
100.0
 42
100.0
 43
100.0
 50
180.0
  0
INSERT
  5
16E47
330
15914
100
AcDbEntity
  8
寸法
 62
     0
 48
50.0
370
    -2
100
AcDbBlockReference
  2
_DOTSMALL
 10
6732.611119403657
 20
9505.574390837089
 30
0.0
 41
100.0
 42
100.0
 43
100.0
  0
POINT
  5
16E48
330
15914
100
AcDbEntity
  8
DEFPOINTS
 62
     0
 48
50.0
100
AcDbPoint
 10
6622.611119403654
 20
9289.766171212107
 30
0.0
  0
POINT
  5
16E49
330
15914
100
AcDbEntity
  8
DEFPOINTS
 62
     0
 48
50.0
100
AcDbPoint
 10
6732.611119403657
 20
9289.766171212086
 30
0.0
  0
POINT
  5
16E4A
330
15914
100
AcDbEntity
  8
DEFPOINTS
 62
     0
 48
50.0
100
AcDbPoint
 10
6732.611119403657
 20
9505.574390837089
 30
0.0
  0
ENDBLK
  5
15A47
330
15914
100
AcDbEntity
  8
0
 48
50.0
100
AcDbBlockEnd
  0
BLOCK
  5
15A48
330
15920
100
AcDbEntity
  8
0
 48
50.0
100
AcDbBlockBegin
  2
*D5
 70
     1
 10
0.0
 20
0.0
 30
0.0
  3
*D5
  1

  0
LINE
  5
16E39
330
15920
100
AcDbEntity
  8
寸法
 62
     0
 48
50.0
370
    -2
100
AcDbLine
 10
6732.611119403654
 20
9309.766171212022
 30
0.0
 11
6732.611119403654
 21
9565.57439083709
 31
0.0
  0
LINE
  5
16E3A
330
15920
100
AcDbEntity
  8
寸法
 62
     0
 48
50.0
370
    -2
100
AcDbLine
 10
7572.611119403653
 20
9309.766171212109
 30
0.0
 11
7572.611119403653
 21
9565.57439083709
 31
0.0
  0
LINE
  5
16E3B
330
15920
100
AcDbEntity
  8
寸法
 62
     0
 48
50.0
370
    -2
100
AcDbLine
 10
6732.611119403654
 20
9505.574390837089
 30
0.0
 11
7572.611119403653
 21
9505.574390837089
 31
0.0
  0
INSERT
  5
16E3C
330
15920
100
AcDbEntity
  8
寸法
 62
     0
 48
50.0
370
    -2
100
AcDbBlockReference
  2
_DOTSMALL
 10
6732.611119403654
 20
9505.574390837089
 30
0.0
 41
100.0
 42
100.0
 43
100.0
 50
180.0
  0
INSERT
  5
16E3D
330
15920
100
AcDbEntity
  8
寸法
 62
     0
 48
50.0
370
    -2
100
AcDbBlockReference
  2
_DOTSMALL
 10
7572.611119403653
 20
9505.574390837089
 30
0.0
 41
100.0
 42
100.0
 43
100.0
  0
MTEXT
  5
16E3E
330
15920
100
AcDbEntity
  8
寸法
 62
     7
 48
50.0
100
AcDbMText
 10
7152.611119403655
 20
9605.586201860711
 30
0.0
 40
120.0
 41
0.0
 71
     5
 72
     1
  1
\A1;2X420=840
  7
STYLE1
 73
     1
 44
1.0
1001
ACAD
1000
MTEXTBEGIN
1070
    73
1070
     1
1070
    44
1040
1.0
1070
    74
1070
     0
1000
MTEXTEND
  0
POINT
  5
16E3F
330
15920
100
AcDbEntity
  8
DEFPOINTS
 62
     0
 48
50.0
100
AcDbPoint
 10
6732.611119403654
 20
9289.76617121202
 30
0.0
  0
POINT
  5
16E40
330
15920
100
AcDbEntity
  8
DEFPOINTS
 62
     0
 48
50.0
100
AcDbPoint
 10
7572.611119403653
 20
9289.766171212107
 30
0.0
  0
POINT
  5
16E41
330
15920
100
AcDbEntity
  8
DEFPOINTS
 62
     0
 48
50.0
100
AcDbPoint
 10
7572.611119403653
 20
9505.574390837089
 30
0.0
  0
ENDBLK
  5
15A52
330
15920
100
AcDbEntity
  8
0
 48
50.0
100
AcDbBlockEnd
  0
BLOCK
  5
15A53
330
1592C
100
AcDbEntity
  8
0
 48
50.0
100
AcDbBlockBegin
  2
*D6
 70
     1
 10
0.0
 20
0.0
 30
0.0
  3
*D6
  1

  0
LINE
  5
16E2E
330
1592C
100
AcDbEntity
  8
寸法
 62
     0
 48
50.0
370
    -2
100
AcDbLine
 10
3827.61111940362
 20
9309.766171211991
 30
0.0
 11
3827.61111940362
 21
9565.574390836973
 31
0.0
  0
LINE
  5
16E2F
330
1592C
100
AcDbEntity
  8
寸法
 62
     0
 48
50.0
370
    -2
100
AcDbLine
 10
3882.611119403655
 20
9309.766171211991
 30
0.0
 11
3882.611119403655
 21
9565.574390836973
 31
0.0
  0
LINE
  5
16E30
330
1592C
100
AcDbEntity
  8
寸法
 62
     0
 48
50.0
370
    -2
100
AcDbLine
 10
3882.611119403655
 20
9505.574390836974
 30
0.0
 11
3982.611119403655
 21
9505.574390836974
 31
0.0
  0
LINE
  5
16E31
330
1592C
100
AcDbEntity
  8
寸法
 62
     0
 48
50.0
370
    -2
100
AcDbLine
 10
3827.61111940362
 20
9505.574390836974
 30
0.0
 11
3410.640556655142
 21
9505.574390836974
 31
0.0
  0
LINE
  5
16E32
330
1592C
100
AcDbEntity
  8
寸法
 62
     0
 48
50.0
370
    -2
100
AcDbLine
 10
3882.611119403655
 20
9505.574390836974
 30
0.0
 11
3827.61111940362
 21
9505.574390836974
 31
0.0
  0
INSERT
  5
16E33
330
1592C
100
AcDbEntity
  8
寸法
 62
     0
 48
50.0
370
    -2
100
AcDbBlockReference
  2
_DOTSMALL
 10
3882.611119403655
 20
9505.574390836974
 30
0.0
 41
100.0
 42
100.0
 43
100.0
 50
180.0
  0
INSERT
  5
16E34
330
1592C
100
AcDbEntity
  8
寸法
 62
     0
 48
50.0
370
    -2
100
AcDbBlockReference
  2
_DOTSMALL
 10
3827.61111940362
 20
9505.574390836974
 30
0.0
 41
100.0
 42
100.0
 43
100.0
  0
MTEXT
  5
16E35
330
1592C
100
AcDbEntity
  8
寸法
 62
     7
 48
50.0
100
AcDbMText
 10
3519.12583802938
 20
9605.574390836974
 30
0.0
 40
120.0
 41
0.0
 71
     5
 72
     1
  1
\A1;55
  7
STYLE1
 73
     1
 44
1.0
1001
ACAD
1000
MTEXTBEGIN
1070
    73
1070
     1
1070
    44
1040
1.0
1070
    74
1070
     0
1000
MTEXTEND
  0
POINT
  5
16E36
330
1592C
100
AcDbEntity
  8
DEFPOINTS
 62
     0
 48
50.0
100
AcDbPoint
 10
3827.61111940362
 20
9289.766171211992
 30
0.0
  0
POINT
  5
16E37
330
1592C
100
AcDbEntity
  8
DEFPOINTS
 62
     0
 48
50.0
100
AcDbPoint
 10
3882.611119403655
 20
9289.766171211992
 30
0.0
  0
POINT
  5
16E38
330
1592C
100
AcDbEntity
  8
DEFPOINTS
 62
     0
 48
50.0
100
AcDbPoint
 10
3882.611119403655
 20
9505.574390836974
 30
0.0
  0
ENDBLK
  5
15A5F
330
1592C
100
AcDbEntity
  8
0
 48
50.0
100
AcDbBlockEnd
  0
BLOCK
  5
15A60
330
1593A
100
AcDbEntity
  8
0
 48
50.0
100
AcDbBlockBegin
  2
*D7
 70
     1
 10
0.0
 20
0.0
 30
0.0
  3
*D7
  1

  0
LINE
  5
16E25
330
1593A
100
AcDbEntity
  8
寸法
 62
     0
 48
50.0
370
    -2
100
AcDbLine
 10
5782.611119403655
 20
9309.766171212022
 30
0.0
 11
5782.611119403655
 21
9565.57439083709
 31
0.0
  0
LINE
  5
16E26
330
1593A
100
AcDbEntity
  8
寸法
 62
     0
 48
50.0
370
    -2
100
AcDbLine
 10
6622.611119403654
 20
9309.766171212109
 30
0.0
 11
6622.611119403654
 21
9565.57439083709
 31
0.0
  0
LINE
  5
16E27
330
1593A
100
AcDbEntity
  8
寸法
 62
     0
 48
50.0
370
    -2
100
AcDbLine
 10
5782.611119403655
 20
9505.574390837089
 30
0.0
 11
6622.611119403654
 21
9505.574390837089
 31
0.0
  0
INSERT
  5
16E28
330
1593A
100
AcDbEntity
  8
寸法
 62
     0
 48
50.0
370
    -2
100
AcDbBlockReference
  2
_DOTSMALL
 10
5782.611119403655
 20
9505.574390837089
 30
0.0
 41
100.0
 42
100.0
 43
100.0
 50
180.0
  0
INSERT
  5
16E29
330
1593A
100
AcDbEntity
  8
寸法
 62
     0
 48
50.0
370
    -2
100
AcDbBlockReference
  2
_DOTSMALL
 10
6622.611119403654
 20
9505.574390837089
 30
0.0
 41
100.0
 42
100.0
 43
100.0
  0
MTEXT
  5
16E2A
330
1593A
100
AcDbEntity
  8
寸法
 62
     7
 48
50.0
100
AcDbMText
 10
6202.611119403654
 20
9605.586201860711
 30
0.0
 40
120.0
 41
0.0
 71
     5
 72
     1
  1
\A1;2X420=840
  7
STYLE1
 73
     1
 44
1.0
1001
ACAD
1000
MTEXTBEGIN
1070
    73
1070
     1
1070
    44
1040
1.0
1070
    74
1070
     0
1000
MTEXTEND
  0
POINT
  5
16E2B
330
1593A
100
AcDbEntity
  8
DEFPOINTS
 62
     0
 48
50.0
100
AcDbPoint
 10
5782.611119403655
 20
9289.76617121202
 30
0.0
  0
POINT
  5
16E2C
330
1593A
100
AcDbEntity
  8
DEFPOINTS
 62
     0
 48
50.0
100
AcDbPoint
 10
6622.611119403654
 20
9289.766171212107
 30
0.0
  0
POINT
  5
16E2D
330
1593A
100
AcDbEntity
  8
DEFPOINTS
 62
     0
 48
50.0
100
AcDbPoint
 10
6622.611119403654
 20
9505.574390837089
 30
0.0
  0
ENDBLK
  5
15A6A
330
1593A
100
AcDbEntity
  8
0
 48
50.0
100
AcDbBlockEnd
  0
BLOCK
  5
15A6B
330
15946
100
AcDbEntity
  8
0
 48
50.0
100
AcDbBlockBegin
  2
*D8
 70
     1
 10
0.0
 20
0.0
 30
0.0
  3
*D8
  1

  0
LINE
  5
16E1C
330
15946
100
AcDbEntity
  8
寸法
 62
     0
 48
50.0
370
    -2
100
AcDbLine
 10
7682.611119403656
 20
9309.766171212022
 30
0.0
 11
7682.611119403656
 21
9565.57439083709
 31
0.0
  0
LINE
  5
16E1D
330
15946
100
AcDbEntity
  8
寸法
 62
     0
 48
50.0
370
    -2
100
AcDbLine
 10
8522.611119403654
 20
9309.766171212109
 30
0.0
 11
8522.611119403654
 21
9565.57439083709
 31
0.0
  0
LINE
  5
16E1E
330
15946
100
AcDbEntity
  8
寸法
 62
     0
 48
50.0
370
    -2
100
AcDbLine
 10
7682.611119403656
 20
9505.574390837089
 30
0.0
 11
8522.611119403654
 21
9505.574390837089
 31
0.0
  0
INSERT
  5
16E1F
330
15946
100
AcDbEntity
  8
寸法
 62
     0
 48
50.0
370
    -2
100
AcDbBlockReference
  2
_DOTSMALL
 10
7682.611119403656
 20
9505.574390837089
 30
0.0
 41
100.0
 42
100.0
 43
100.0
 50
180.0
  0
INSERT
  5
16E20
330
15946
100
AcDbEntity
  8
寸法
 62
     0
 48
50.0
370
    -2
100
AcDbBlockReference
  2
_DOTSMALL
 10
8522.611119403654
 20
9505.574390837089
 30
0.0
 41
100.0
 42
100.0
 43
100.0
  0
MTEXT
  5
16E21
330
15946
100
AcDbEntity
  8
寸法
 62
     7
 48
50.0
100
AcDbMText
 10
8102.611119403654
 20
9605.586201860711
 30
0.0
 40
120.0
 41
0.0
 71
     5
 72
     1
  1
\A1;2X420=840
  7
STYLE1
 73
     1
 44
1.0
1001
ACAD
1000
MTEXTBEGIN
1070
    73
1070
     1
1070
    44
1040
1.0
1070
    74
1070
     0
1000
MTEXTEND
  0
POINT
  5
16E22
330
15946
100
AcDbEntity
  8
DEFPOINTS
 62
     0
 48
50.0
100
AcDbPoint
 10
7682.611119403656
 20
9289.76617121202
 30
0.0
  0
POINT
  5
16E23
330
15946
100
AcDbEntity
  8
DEFPOINTS
 62
     0
 48
50.0
100
AcDbPoint
 10
8522.611119403654
 20
9289.766171212107
 30
0.0
  0
POINT
  5
16E24
330
15946
100
AcDbEntity
  8
DEFPOINTS
 62
     0
 48
50.0
100
AcDbPoint
 10
8522.611119403654
 20
9505.574390837089
 30
0.0
  0
ENDBLK
  5
15A75
330
15946
100
AcDbEntity
  8
0
 48
50.0
100
AcDbBlockEnd
  0
BLOCK
  5
15EA8
330
15952
100
AcDbEntity
  8
0
 48
50.0
100
AcDbBlockBegin
  2
*D9
 70
     1
 10
0.0
 20
0.0
 30
0.0
  3
*D9
  1

  0
LINE
  5
16E13
330
15952
100
AcDbEntity
  8
寸法
 62
     0
 48
50.0
370
    -2
100
AcDbLine
 10
3827.61111940365
 20
7899.766171211848
 30
0.0
 11
3827.61111940365
 21
6872.664296351835
 31
0.0
  0
LINE
  5
16E14
330
15952
100
AcDbEntity
  8
寸法
 62
     0
 48
50.0
370
    -2
100
AcDbLine
 10
8577.611119403632
 20
7899.766171212043
 30
0.0
 11
8577.611119403632
 21
6872.664296351835
 31
0.0
  0
LINE
  5
16E15
330
15952
100
AcDbEntity
  8
寸法
 62
     0
 48
50.0
370
    -2
100
AcDbLine
 10
3827.61111940365
 20
6932.664296351835
 30
0.0
 11
8577.611119403632
 21
6932.664296351835
 31
0.0
  0
INSERT
  5
16E16
330
15952
100
AcDbEntity
  8
寸法
 62
     0
 48
50.0
370
    -2
100
AcDbBlockReference
  2
_DOTSMALL
 10
3827.61111940365
 20
6932.664296351835
 30
0.0
 41
100.0
 42
100.0
 43
100.0
 50
180.0
  0
INSERT
  5
16E17
330
15952
100
AcDbEntity
  8
寸法
 62
     0
 48
50.0
370
    -2
100
AcDbBlockReference
  2
_DOTSMALL
 10
8577.611119403632
 20
6932.664296351835
 30
0.0
 41
100.0
 42
100.0
 43
100.0
  0
MTEXT
  5
16E18
330
15952
100
AcDbEntity
  8
寸法
 62
     7
 48
50.0
100
AcDbMText
 10
6202.61111940364
 20
7032.664296351835
 30
0.0
 40
120.0
 41
0.0
 71
     5
 72
     1
  1
\A1;4750
  7
STYLE1
 73
     1
 44
1.0
1001
ACAD
1000
MTEXTBEGIN
1070
    73
1070
     1
1070
    44
1040
1.0
1070
    74
1070
     0
1000
MTEXTEND
  0
POINT
  5
16E19
330
15952
100
AcDbEntity
  8
DEFPOINTS
 62
     0
 48
50.0
100
AcDbPoint
 10
3827.61111940365
 20
7919.766171211847
 30
0.0
  0
POINT
  5
16E1A
330
15952
100
AcDbEntity
  8
DEFPOINTS
 62
     0
 48
50.0
100
AcDbPoint
 10
8577.611119403632
 20
7919.766171212042
 30
0.0
  0
POINT
  5
16E1B
330
15952
100
AcDbEntity
  8
DEFPOINTS
 62
     0
 48
50.0
100
AcDbPoint
 10
8577.611119403632
 20
6932.664296351835
 30
0.0
  0
ENDBLK
  5
15EB2
330
15952
100
AcDbEntity
  8
0
 48
50.0
100
AcDbBlockEnd
  0
BLOCK
  5
15A97
330
15976
100
AcDbEntity
  8
0
 48
50.0
100
AcDbBlockBegin
  2
*D10
 70
     1
 10
0.0
 20
0.0
 30
0.0
  3
*D10
  1

  0
LINE
  5
16E0A
330
15976
100
AcDbEntity
  8
寸法
 62
     0
 48
50.0
370
    -2
100
AcDbLine
 10
7682.611119403652
 20
7899.766171211985
 30
0.0
 11
7682.611119403652
 21
7419.942503416907
 31
0.0
  0
LINE
  5
16E0B
330
15976
100
AcDbEntity
  8
寸法
 62
     0
 48
50.0
370
    -2
100
AcDbLine
 10
8367.611119403647
 20
7899.766171211948
 30
0.0
 11
8367.611119403647
 21
7419.942503416907
 31
0.0
  0
LINE
  5
16E0C
330
15976
100
AcDbEntity
  8
寸法
 62
     0
 48
50.0
370
    -2
100
AcDbLine
 10
7682.611119403652
 20
7479.942503416907
 30
0.0
 11
8367.611119403647
 21
7479.942503416907
 31
0.0
  0
INSERT
  5
16E0D
330
15976
100
AcDbEntity
  8
寸法
 62
     0
 48
50.0
370
    -2
100
AcDbBlockReference
  2
_DOTSMALL
 10
7682.611119403652
 20
7479.942503416907
 30
0.0
 41
100.0
 42
100.0
 43
100.0
 50
180.0
  0
INSERT
  5
16E0E
330
15976
100
AcDbEntity
  8
寸法
 62
     0
 48
50.0
370
    -2
100
AcDbBlockReference
  2
_DOTSMALL
 10
8367.611119403647
 20
7479.942503416907
 30
0.0
 41
100.0
 42
100.0
 43
100.0
  0
MTEXT
  5
16E0F
330
15976
100
AcDbEntity
  8
寸法
 62
     7
 48
50.0
100
AcDbMText
 10
8025.111119403652
 20
7679.942503416907
 30
0.0
 40
120.0
 41
0.0
 71
     5
 72
     1
  1
\A1;有効開口部間口\P685
  7
STYLE1
 73
     1
 44
1.0
1001
ACAD
1000
MTEXTBEGIN
1070
    73
1070
     1
1070
    44
1040
1.0
1070
    74
1070
     0
1000
MTEXTEND
  0
POINT
  5
16E10
330
15976
100
AcDbEntity
  8
DEFPOINTS
 62
     0
 48
50.0
100
AcDbPoint
 10
7682.611119403652
 20
7919.766171211984
 30
0.0
  0
POINT
  5
16E11
330
15976
100
AcDbEntity
  8
DEFPOINTS
 62
     0
 48
50.0
100
AcDbPoint
 10
8367.611119403647
 20
7919.766171211948
 30
0.0
  0
POINT
  5
16E12
330
15976
100
AcDbEntity
  8
DEFPOINTS
 62
     0
 48
50.0
100
AcDbPoint
 10
8367.611119403647
 20
7479.942503416907
 30
0.0
  0
ENDBLK
  5
15AA1
330
15976
100
AcDbEntity
  8
0
 48
50.0
100
AcDbBlockEnd
  0
BLOCK
  5
15AC3
330
159A6
100
AcDbEntity
  8
0
 48
50.0
100
AcDbBlockBegin
  2
*D11
 70
     1
 10
0.0
 20
0.0
 30
0.0
  3
*D11
  1

  0
LINE
  5
16DFF
330
159A6
100
AcDbEntity
  8
寸法
 62
     0
 48
50.0
370
    -2
100
AcDbLine
 10
8597.61111940363
 20
7974.766171212071
 30
0.0
 11
9285.037465138042
 21
7974.766171212071
 31
0.0
  0
LINE
  5
16E00
330
159A6
100
AcDbEntity
  8
寸法
 62
     0
 48
50.0
370
    -2
100
AcDbLine
 10
8597.61111940363
 20
7919.766171212072
 30
0.0
 11
9285.037465138042
 21
7919.766171212072
 31
0.0
  0
LINE
  5
16E01
330
159A6
100
AcDbEntity
  8
寸法
 62
     0
 48
50.0
370
    -2
100
AcDbLine
 10
9225.037465138042
 20
7974.766171212071
 30
0.0
 11
9225.037465138042
 21
8074.766171212072
 31
0.0
  0
LINE
  5
16E02
330
159A6
100
AcDbEntity
  8
寸法
 62
     0
 48
50.0
370
    -2
100
AcDbLine
 10
9225.037465138042
 20
7919.766171212072
 30
0.0
 11
9225.037465138042
 21
7433.41942293297
 31
0.0
  0
LINE
  5
16E03
330
159A6
100
AcDbEntity
  8
寸法
 62
     0
 48
50.0
370
    -2
100
AcDbLine
 10
9225.037465138042
 20
7974.766171212071
 30
0.0
 11
9225.037465138042
 21
7919.766171212072
 31
0.0
  0
INSERT
  5
16E04
330
159A6
100
AcDbEntity
  8
寸法
 62
     0
 48
50.0
370
    -2
100
AcDbBlockReference
  2
_DOTSMALL
 10
9225.037465138042
 20
7974.766171212071
 30
0.0
 41
100.0
 42
100.0
 43
100.0
 50
270.0
  0
INSERT
  5
16E05
330
159A6
100
AcDbEntity
  8
寸法
 62
     0
 48
50.0
370
    -2
100
AcDbBlockReference
  2
_DOTSMALL
 10
9225.037465138042
 20
7919.766171212072
 30
0.0
 41
100.0
 42
100.0
 43
100.0
 50
90.0
  0
MTEXT
  5
16E06
330
159A6
100
AcDbEntity
  8
寸法
 62
     7
 48
50.0
100
AcDbMText
 10
9125.03746513804
 20
7541.90470430721
 30
0.0
 40
120.0
 41
0.0
 71
     5
 72
     1
  1
\A1;55
  7
STYLE1
 11
0.0000000000000001
 21
1.0
 31
0.0
 73
     1
 44
1.0
1001
ACAD
1000
MTEXTBEGIN
1070
    73
1070
     1
1070
    44
1040
1.0
1070
    74
1070
     0
1000
MTEXTEND
  0
POINT
  5
16E07
330
159A6
100
AcDbEntity
  8
DEFPOINTS
 62
     0
 48
50.0
100
AcDbPoint
 10
8577.611119403632
 20
7974.766171212071
 30
0.0
  0
POINT
  5
16E08
330
159A6
100
AcDbEntity
  8
DEFPOINTS
 62
     0
 48
50.0
100
AcDbPoint
 10
8577.611119403632
 20
7919.766171212072
 30
0.0
  0
POINT
  5
16E09
330
159A6
100
AcDbEntity
  8
DEFPOINTS
 62
     0
 48
50.0
100
AcDbPoint
 10
9225.037465138042
 20
7919.766171212072
 30
0.0
  0
ENDBLK
  5
15ACF
330
159A6
100
AcDbEntity
  8
0
 48
50.0
100
AcDbBlockEnd
  0
BLOCK
  5
15AD0
330
159B4
100
AcDbEntity
  8
0
 48
50.0
100
AcDbBlockBegin
  2
*D12
 70
     1
 10
0.0
 20
0.0
 30
0.0
  3
*D12
  1

  0
LINE
  5
16DF6
330
159B4
100
AcDbEntity
  8
寸法
 62
     0
 48
50.0
370
    -2
100
AcDbLine
 10
8597.611119403657
 20
9289.766171212086
 30
0.0
 11
9594.148995953744
 21
9289.766171212086
 31
0.0
  0
LINE
  5
16DF7
330
159B4
100
AcDbEntity
  8
寸法
 62
     0
 48
50.0
370
    -2
100
AcDbLine
 10
8597.61111940363
 20
7919.766171212072
 30
0.0
 11
9594.148995953744
 21
7919.766171212072
 31
0.0
  0
LINE
  5
16DF8
330
159B4
100
AcDbEntity
  8
寸法
 62
     0
 48
50.0
370
    -2
100
AcDbLine
 10
9534.148995953746
 20
9289.766171212086
 30
0.0
 11
9534.148995953746
 21
7919.766171212072
 31
0.0
  0
INSERT
  5
16DF9
330
159B4
100
AcDbEntity
  8
寸法
 62
     0
 48
50.0
370
    -2
100
AcDbBlockReference
  2
_DOTSMALL
 10
9534.148995953746
 20
9289.766171212086
 30
0.0
 41
100.0
 42
100.0
 43
100.0
 50
90.0
  0
INSERT
  5
16DFA
330
159B4
100
AcDbEntity
  8
寸法
 62
     0
 48
50.0
370
    -2
100
AcDbBlockReference
  2
_DOTSMALL
 10
9534.148995953746
 20
7919.766171212072
 30
0.0
 41
100.0
 42
100.0
 43
100.0
 50
270.0
  0
MTEXT
  5
16DFB
330
159B4
100
AcDbEntity
  8
寸法
 62
     7
 48
50.0
100
AcDbMText
 10
9434.148995953743
 20
8604.766171212078
 30
0.0
 40
120.0
 41
0.0
 71
     5
 72
     1
  1
\A1;1370
  7
STYLE1
 11
0.0000000000000001
 21
1.0
 31
0.0
 73
     1
 44
1.0
1001
ACAD
1000
MTEXTBEGIN
1070
    73
1070
     1
1070
    44
1040
1.0
1070
    74
1070
     0
1000
MTEXTEND
  0
POINT
  5
16DFC
330
159B4
100
AcDbEntity
  8
DEFPOINTS
 62
     0
 48
50.0
100
AcDbPoint
 10
8577.611119403657
 20
9289.766171212086
 30
0.0
  0
POINT
  5
16DFD
330
159B4
100
AcDbEntity
  8
DEFPOINTS
 62
     0
 48
50.0
100
AcDbPoint
 10
8577.611119403632
 20
7919.766171212072
 30
0.0
  0
POINT
  5
16DFE
330
159B4
100
AcDbEntity
  8
DEFPOINTS
 62
     0
 48
50.0
100
AcDbPoint
 10
9534.148995953746
 20
7919.766171212072
 30
0.0
  0
ENDBLK
  5
15ADA
330
159B4
100
AcDbEntity
  8
0
 48
50.0
100
AcDbBlockEnd
  0
BLOCK
  5
15ADB
330
159C0
100
AcDbEntity
  8
0
 48
50.0
100
AcDbBlockBegin
  2
*D13
 70
     1
 10
0.0
 20
0.0
 30
0.0
  3
*D13
  1

  0
LINE
  5
16DED
330
159C0
100
AcDbEntity
  8
寸法
 62
     0
 48
50.0
370
    -2
100
AcDbLine
 10
8597.611119403657
 20
9234.766171212086
 30
0.0
 11
9285.037465138067
 21
9234.766171212086
 31
0.0
  0
LINE
  5
16DEE
330
159C0
100
AcDbEntity
  8
寸法
 62
     0
 48
50.0
370
    -2
100
AcDbLine
 10
8597.61111940363
 20
7974.766171212071
 30
0.0
 11
9285.037465138067
 21
7974.766171212071
 31
0.0
  0
LINE
  5
16DEF
330
159C0
100
AcDbEntity
  8
寸法
 62
     0
 48
50.0
370
    -2
100
AcDbLine
 10
9225.037465138068
 20
9234.766171212086
 30
0.0
 11
9225.037465138068
 21
7974.766171212071
 31
0.0
  0
INSERT
  5
16DF0
330
159C0
100
AcDbEntity
  8
寸法
 62
     0
 48
50.0
370
    -2
100
AcDbBlockReference
  2
_DOTSMALL
 10
9225.037465138068
 20
9234.766171212086
 30
0.0
 41
100.0
 42
100.0
 43
100.0
 50
90.0
  0
INSERT
  5
16DF1
330
159C0
100
AcDbEntity
  8
寸法
 62
     0
 48
50.0
370
    -2
100
AcDbBlockReference
  2
_DOTSMALL
 10
9225.037465138068
 20
7974.766171212071
 30
0.0
 41
100.0
 42
100.0
 43
100.0
 50
270.0
  0
MTEXT
  5
16DF2
330
159C0
100
AcDbEntity
  8
寸法
 62
     7
 48
50.0
100
AcDbMText
 10
9125.025654114445
 20
8604.766171212078
 30
0.0
 40
120.0
 41
0.0
 71
     5
 72
     1
  1
\A1;3X420=1260
  7
STYLE1
 11
0.0000000000000001
 21
1.0
 31
0.0
 73
     1
 44
1.0
1001
ACAD
1000
MTEXTBEGIN
1070
    73
1070
     1
1070
    44
1040
1.0
1070
    74
1070
     0
1000
MTEXTEND
  0
POINT
  5
16DF3
330
159C0
100
AcDbEntity
  8
DEFPOINTS
 62
     0
 48
50.0
100
AcDbPoint
 10
8577.611119403657
 20
9234.766171212086
 30
0.0
  0
POINT
  5
16DF4
330
159C0
100
AcDbEntity
  8
DEFPOINTS
 62
     0
 48
50.0
100
AcDbPoint
 10
8577.611119403632
 20
7974.766171212071
 30
0.0
  0
POINT
  5
16DF5
330
159C0
100
AcDbEntity
  8
DEFPOINTS
 62
     0
 48
50.0
100
AcDbPoint
 10
9225.037465138068
 20
7974.766171212071
 30
0.0
  0
ENDBLK
  5
15AE5
330
159C0
100
AcDbEntity
  8
0
 48
50.0
100
AcDbBlockEnd
  0
BLOCK
  5
15AE6
330
159CC
100
AcDbEntity
  8
0
 48
50.0
100
AcDbBlockBegin
  2
*D14
 70
     1
 10
0.0
 20
0.0
 30
0.0
  3
*D14
  1

  0
LINE
  5
16DE4
330
159CC
100
AcDbEntity
  8
寸法
 62
     0
 48
50.0
370
    -2
100
AcDbLine
 10
8568.611126081263
 20
9254.907187363334
 30
0.0
 11
8963.96885194329
 21
9148.971403997197
 31
0.0
  0
LINE
  5
16DE5
330
159CC
100
AcDbEntity
  8
寸法
 62
     0
 48
50.0
370
    -2
100
AcDbLine
 10
8568.611126081274
 20
8804.90718736334
 30
0.0
 11
8963.96885194329
 21
8698.971403997209
 31
0.0
  0
LINE
  5
16DE6
330
159CC
100
AcDbEntity
  8
寸法
 62
     0
 48
50.0
370
    -2
100
AcDbLine
 10
8903.968851943291
 20
9165.048355543063
 30
0.0
 11
8903.968851943291
 21
8715.048355543075
 31
0.0
  0
INSERT
  5
16DE7
330
159CC
100
AcDbEntity
  8
寸法
 62
     0
 48
50.0
370
    -2
100
AcDbBlockReference
  2
_DOTSMALL
 10
8903.968851943291
 20
9165.048355543063
 30
0.0
 41
100.0
 42
100.0
 43
100.0
 50
90.0
  0
INSERT
  5
16DE8
330
159CC
100
AcDbEntity
  8
寸法
 62
     0
 48
50.0
370
    -2
100
AcDbBlockReference
  2
_DOTSMALL
 10
8903.968851943291
 20
8715.048355543075
 30
0.0
 41
100.0
 42
100.0
 43
100.0
 50
270.0
  0
MTEXT
  5
16DE9
330
159CC
100
AcDbEntity
  8
寸法
 62
     7
 48
50.0
100
AcDbMText
 10
8803.96885194329
 20
8940.048355543066
 30
0.0
 40
120.0
 41
0.0
 71
     5
 72
     1
  1
\A1;450
  7
STYLE1
 11
0.0000000000000001
 21
1.0
 31
0.0
 73
     1
 44
1.0
1001
ACAD
1000
MTEXTBEGIN
1070
    73
1070
     1
1070
    44
1040
1.0
1070
    74
1070
     0
1000
MTEXTEND
  0
POINT
  5
16DEA
330
159CC
100
AcDbEntity
  8
DEFPOINTS
 62
     0
 48
50.0
100
AcDbPoint
 10
8548.611126081263
 20
9260.266171211956
 30
0.0
  0
POINT
  5
16DEB
330
159CC
100
AcDbEntity
  8
DEFPOINTS
 62
     0
 48
50.0
100
AcDbPoint
 10
8548.611126081274
 20
8810.266171211962
 30
0.0
  0
POINT
  5
16DEC
330
159CC
100
AcDbEntity
  8
DEFPOINTS
 62
     0
 48
50.0
100
AcDbPoint
 10
8903.968851943291
 20
8715.048355543075
 30
0.0
  0
ENDBLK
  5
15AF0
330
159CC
100
AcDbEntity
  8
0
 48
50.0
100
AcDbBlockEnd
  0
BLOCK
  5
15B07
330
159F0
100
AcDbEntity
  8
0
 48
50.0
100
AcDbBlockBegin
  2
*D15
 70
     1
 10
0.0
 20
0.0
 30
0.0
  3
*D15
  1

  0
LINE
  5
16DDB
330
159F0
100
AcDbEntity
  8
寸法
 62
     0
 48
50.0
370
    -2
100
AcDbLine
 10
3807.611119403649
 20
4954.477532997413
 30
0.0
 11
3449.506591796046
 21
4954.477532997413
 31
0.0
  0
LINE
  5
16DDC
330
159F0
100
AcDbEntity
  8
寸法
 62
     0
 48
50.0
370
    -2
100
AcDbLine
 10
3807.611119403649
 20
3194.477532997417
 30
0.0
 11
3449.506591796046
 21
3194.477532997417
 31
0.0
  0
LINE
  5
16DDD
330
159F0
100
AcDbEntity
  8
寸法
 62
     0
 48
50.0
370
    -2
100
AcDbLine
 10
3509.506591796046
 20
4954.477532997413
 30
0.0
 11
3509.506591796046
 21
3194.477532997417
 31
0.0
  0
INSERT
  5
16DDE
330
159F0
100
AcDbEntity
  8
寸法
 62
     0
 48
50.0
370
    -2
100
AcDbBlockReference
  2
_DOTSMALL
 10
3509.506591796046
 20
4954.477532997413
 30
0.0
 41
100.0
 42
100.0
 43
100.0
 50
90.0
  0
INSERT
  5
16DDF
330
159F0
100
AcDbEntity
  8
寸法
 62
     0
 48
50.0
370
    -2
100
AcDbBlockReference
  2
_DOTSMALL
 10
3509.506591796046
 20
3194.477532997417
 30
0.0
 41
100.0
 42
100.0
 43
100.0
 50
270.0
  0
MTEXT
  5
16DE0
330
159F0
100
AcDbEntity
  8
寸法
 62
     7
 48
50.0
100
AcDbMText
 10
3409.506591796045
 20
4073.477532997414
 30
0.0
 40
120.0
 41
0.0
 71
     5
 72
     1
  1
\A1;有効開口部高サ1760
  7
STYLE1
 11
0.0000000000000001
 21
1.0
 31
0.0
 73
     1
 44
1.0
1001
ACAD
1000
MTEXTBEGIN
1070
    73
1070
     1
1070
    44
1040
1.0
1070
    74
1070
     0
1000
MTEXTEND
  0
POINT
  5
16DE1
330
159F0
100
AcDbEntity
  8
DEFPOINTS
 62
     0
 48
50.0
100
AcDbPoint
 10
3827.61111940365
 20
4954.477532997413
 30
0.0
  0
POINT
  5
16DE2
330
159F0
100
AcDbEntity
  8
DEFPOINTS
 62
     0
 48
50.0
100
AcDbPoint
 10
3827.61111940365
 20
3194.477532997417
 30
0.0
  0
POINT
  5
16DE3
330
159F0
100
AcDbEntity
  8
DEFPOINTS
 62
     0
 48
50.0
100
AcDbPoint
 10
3509.506591796046
 20
3194.477532997417
 30
0.0
  0
ENDBLK
  5
15B11
330
159F0
100
AcDbEntity
  8
0
 48
50.0
100
AcDbBlockEnd
  0
BLOCK
  5
15C40
330
15C34
100
AcDbEntity
  8
0
 48
50.0
100
AcDbBlockBegin
  2
*D16
 70
     1
 10
0.0
 20
0.0
 30
0.0
  3
*D16
  1

  0
LINE
  5
16DD2
330
15C34
100
AcDbEntity
  8
寸法
 62
     0
 48
50.0
370
    -2
100
AcDbLine
 10
6732.611119403653
 20
7899.766171211985
 30
0.0
 11
6732.611119403653
 21
7419.942503416907
 31
0.0
  0
LINE
  5
16DD3
330
15C34
100
AcDbEntity
  8
寸法
 62
     0
 48
50.0
370
    -2
100
AcDbLine
 10
7417.611119403648
 20
7899.766171211948
 30
0.0
 11
7417.611119403648
 21
7419.942503416907
 31
0.0
  0
LINE
  5
16DD4
330
15C34
100
AcDbEntity
  8
寸法
 62
     0
 48
50.0
370
    -2
100
AcDbLine
 10
6732.611119403653
 20
7479.942503416907
 30
0.0
 11
7417.611119403648
 21
7479.942503416907
 31
0.0
  0
INSERT
  5
16DD5
330
15C34
100
AcDbEntity
  8
寸法
 62
     0
 48
50.0
370
    -2
100
AcDbBlockReference
  2
_DOTSMALL
 10
6732.611119403653
 20
7479.942503416907
 30
0.0
 41
100.0
 42
100.0
 43
100.0
 50
180.0
  0
INSERT
  5
16DD6
330
15C34
100
AcDbEntity
  8
寸法
 62
     0
 48
50.0
370
    -2
100
AcDbBlockReference
  2
_DOTSMALL
 10
7417.611119403648
 20
7479.942503416907
 30
0.0
 41
100.0
 42
100.0
 43
100.0
  0
MTEXT
  5
16DD7
330
15C34
100
AcDbEntity
  8
寸法
 62
     7
 48
50.0
100
AcDbMText
 10
7075.11111940365
 20
7579.942503416908
 30
0.0
 40
120.0
 41
0.0
 71
     5
 72
     1
  1
\A1;685
  7
STYLE1
 73
     1
 44
1.0
1001
ACAD
1000
MTEXTBEGIN
1070
    73
1070
     1
1070
    44
1040
1.0
1070
    74
1070
     0
1000
MTEXTEND
  0
POINT
  5
16DD8
330
15C34
100
AcDbEntity
  8
DEFPOINTS
 62
     0
 48
50.0
100
AcDbPoint
 10
6732.611119403653
 20
7919.766171211984
 30
0.0
  0
POINT
  5
16DD9
330
15C34
100
AcDbEntity
  8
DEFPOINTS
 62
     0
 48
50.0
100
AcDbPoint
 10
7417.611119403648
 20
7919.766171211948
 30
0.0
  0
POINT
  5
16DDA
330
15C34
100
AcDbEntity
  8
DEFPOINTS
 62
     0
 48
50.0
100
AcDbPoint
 10
7417.611119403648
 20
7479.942503416907
 30
0.0
  0
ENDBLK
  5
15C4A
330
15C34
100
AcDbEntity
  8
0
 48
50.0
100
AcDbBlockEnd
  0
BLOCK
  5
15C4D
330
15C4C
100
AcDbEntity
  8
0
 48
50.0
100
AcDbBlockBegin
  2
*D17
 70
     1
 10
0.0
 20
0.0
 30
0.0
  3
*D17
  1

  0
LINE
  5
16DC9
330
15C4C
100
AcDbEntity
  8
寸法
 62
     0
 48
50.0
370
    -2
100
AcDbLine
 10
5782.611119403653
 20
7899.766171211985
 30
0.0
 11
5782.611119403653
 21
7419.942503416907
 31
0.0
  0
LINE
  5
16DCA
330
15C4C
100
AcDbEntity
  8
寸法
 62
     0
 48
50.0
370
    -2
100
AcDbLine
 10
6467.611119403648
 20
7899.766171211948
 30
0.0
 11
6467.611119403648
 21
7419.942503416907
 31
0.0
  0
LINE
  5
16DCB
330
15C4C
100
AcDbEntity
  8
寸法
 62
     0
 48
50.0
370
    -2
100
AcDbLine
 10
5782.611119403653
 20
7479.942503416907
 30
0.0
 11
6467.611119403648
 21
7479.942503416907
 31
0.0
  0
INSERT
  5
16DCC
330
15C4C
100
AcDbEntity
  8
寸法
 62
     0
 48
50.0
370
    -2
100
AcDbBlockReference
  2
_DOTSMALL
 10
5782.611119403653
 20
7479.942503416907
 30
0.0
 41
100.0
 42
100.0
 43
100.0
 50
180.0
  0
INSERT
  5
16DCD
330
15C4C
100
AcDbEntity
  8
寸法
 62
     0
 48
50.0
370
    -2
100
AcDbBlockReference
  2
_DOTSMALL
 10
6467.611119403648
 20
7479.942503416907
 30
0.0
 41
100.0
 42
100.0
 43
100.0
  0
MTEXT
  5
16DCE
330
15C4C
100
AcDbEntity
  8
寸法
 62
     7
 48
50.0
100
AcDbMText
 10
6125.11111940365
 20
7579.942503416908
 30
0.0
 40
120.0
 41
0.0
 71
     5
 72
     1
  1
\A1;685
  7
STYLE1
 73
     1
 44
1.0
1001
ACAD
1000
MTEXTBEGIN
1070
    73
1070
     1
1070
    44
1040
1.0
1070
    74
1070
     0
1000
MTEXTEND
  0
POINT
  5
16DCF
330
15C4C
100
AcDbEntity
  8
DEFPOINTS
 62
     0
 48
50.0
100
AcDbPoint
 10
5782.611119403653
 20
7919.766171211984
 30
0.0
  0
POINT
  5
16DD0
330
15C4C
100
AcDbEntity
  8
DEFPOINTS
 62
     0
 48
50.0
100
AcDbPoint
 10
6467.611119403648
 20
7919.766171211948
 30
0.0
  0
POINT
  5
16DD1
330
15C4C
100
AcDbEntity
  8
DEFPOINTS
 62
     0
 48
50.0
100
AcDbPoint
 10
6467.611119403648
 20
7479.942503416907
 30
0.0
  0
ENDBLK
  5
15C57
330
15C4C
100
AcDbEntity
  8
0
 48
50.0
100
AcDbBlockEnd
  0
BLOCK
  5
15D32
330
15D31
100
AcDbEntity
  8
0
 48
50.0
100
AcDbBlockBegin
  2
*D18
 70
     1
 10
0.0
 20
0.0
 30
0.0
  3
*D18
  1

  0
LINE
  5
16DAE
330
15D31
100
AcDbEntity
  8
寸法
 62
     0
 48
50.0
370
    -2
100
AcDbLine
 10
4722.611119403653
 20
9309.766171212109
 30
0.0
 11
4722.611119403653
 21
9565.57439083709
 31
0.0
  0
LINE
  5
16DAF
330
15D31
100
AcDbEntity
  8
寸法
 62
     0
 48
50.0
370
    -2
100
AcDbLine
 10
4832.611119403657
 20
9309.766171212087
 30
0.0
 11
4832.611119403657
 21
9565.57439083709
 31
0.0
  0
LINE
  5
16DB0
330
15D31
100
AcDbEntity
  8
寸法
 62
     0
 48
50.0
370
    -2
100
AcDbLine
 10
4722.611119403653
 20
9505.574390837089
 30
0.0
 11
4832.611119403657
 21
9505.574390837089
 31
0.0
  0
MTEXT
  5
16DB1
330
15D31
100
AcDbEntity
  8
寸法
 62
     7
 48
50.0
100
AcDbMText
 10
4777.611119403655
 20
9759.852712208237
 30
0.0
 40
120.0
 41
0.0
 71
     5
 72
     1
  1
\A1;110
  7
STYLE1
 73
     1
 44
1.0
1001
ACAD
1000
MTEXTBEGIN
1070
    73
1070
     1
1070
    44
1040
1.0
1070
    74
1070
     0
1000
MTEXTEND
  0
INSERT
  5
16DB2
330
15D31
100
AcDbEntity
  8
寸法
 62
     0
 48
50.0
370
    -2
100
AcDbBlockReference
  2
_DOTSMALL
 10
4722.611119403653
 20
9505.574390837089
 30
0.0
 41
100.0
 42
100.0
 43
100.0
 50
180.0
  0
INSERT
  5
16DB3
330
15D31
100
AcDbEntity
  8
寸法
 62
     0
 48
50.0
370
    -2
100
AcDbBlockReference
  2
_DOTSMALL
 10
4832.611119403657
 20
9505.574390837089
 30
0.0
 41
100.0
 42
100.0
 43
100.0
  0
POINT
  5
16DB4
330
15D31
100
AcDbEntity
  8
DEFPOINTS
 62
     0
 48
50.0
100
AcDbPoint
 10
4722.611119403653
 20
9289.766171212107
 30
0.0
  0
POINT
  5
16DB5
330
15D31
100
AcDbEntity
  8
DEFPOINTS
 62
     0
 48
50.0
100
AcDbPoint
 10
4832.611119403657
 20
9289.766171212086
 30
0.0
  0
POINT
  5
16DB6
330
15D31
100
AcDbEntity
  8
DEFPOINTS
 62
     0
 48
50.0
100
AcDbPoint
 10
4832.611119403657
 20
9505.574390837089
 30
0.0
  0
ENDBLK
  5
15D3C
330
15D31
100
AcDbEntity
  8
0
 48
50.0
100
AcDbBlockEnd
  0
BLOCK
  5
15D3E
330
15D3D
100
AcDbEntity
  8
0
 48
50.0
100
AcDbBlockBegin
  2
*D19
 70
     1
 10
0.0
 20
0.0
 30
0.0
  3
*D19
  1

  0
LINE
  5
16DB7
330
15D3D
100
AcDbEntity
  8
寸法
 62
     0
 48
50.0
370
    -2
100
AcDbLine
 10
3882.611119403655
 20
9309.766171212022
 30
0.0
 11
3882.611119403655
 21
9565.57439083709
 31
0.0
  0
LINE
  5
16DB8
330
15D3D
100
AcDbEntity
  8
寸法
 62
     0
 48
50.0
370
    -2
100
AcDbLine
 10
4722.611119403653
 20
9309.766171212109
 30
0.0
 11
4722.611119403653
 21
9565.57439083709
 31
0.0
  0
LINE
  5
16DB9
330
15D3D
100
AcDbEntity
  8
寸法
 62
     0
 48
50.0
370
    -2
100
AcDbLine
 10
3882.611119403655
 20
9505.574390837089
 30
0.0
 11
4722.611119403653
 21
9505.574390837089
 31
0.0
  0
INSERT
  5
16DBA
330
15D3D
100
AcDbEntity
  8
寸法
 62
     0
 48
50.0
370
    -2
100
AcDbBlockReference
  2
_DOTSMALL
 10
3882.611119403655
 20
9505.574390837089
 30
0.0
 41
100.0
 42
100.0
 43
100.0
 50
180.0
  0
INSERT
  5
16DBB
330
15D3D
100
AcDbEntity
  8
寸法
 62
     0
 48
50.0
370
    -2
100
AcDbBlockReference
  2
_DOTSMALL
 10
4722.611119403653
 20
9505.574390837089
 30
0.0
 41
100.0
 42
100.0
 43
100.0
  0
MTEXT
  5
16DBC
330
15D3D
100
AcDbEntity
  8
寸法
 62
     7
 48
50.0
100
AcDbMText
 10
4302.611119403653
 20
9605.586201860711
 30
0.0
 40
120.0
 41
0.0
 71
     5
 72
     1
  1
\A1;2X420=840
  7
STYLE1
 73
     1
 44
1.0
1001
ACAD
1000
MTEXTBEGIN
1070
    73
1070
     1
1070
    44
1040
1.0
1070
    74
1070
     0
1000
MTEXTEND
  0
POINT
  5
16DBD
330
15D3D
100
AcDbEntity
  8
DEFPOINTS
 62
     0
 48
50.0
100
AcDbPoint
 10
3882.611119403655
 20
9289.76617121202
 30
0.0
  0
POINT
  5
16DBE
330
15D3D
100
AcDbEntity
  8
DEFPOINTS
 62
     0
 48
50.0
100
AcDbPoint
 10
4722.611119403653
 20
9289.766171212107
 30
0.0
  0
POINT
  5
16DBF
330
15D3D
100
AcDbEntity
  8
DEFPOINTS
 62
     0
 48
50.0
100
AcDbPoint
 10
4722.611119403653
 20
9505.574390837089
 30
0.0
  0
ENDBLK
  5
15D48
330
15D3D
100
AcDbEntity
  8
0
 48
50.0
100
AcDbBlockEnd
  0
BLOCK
  5
15D4A
330
15D49
100
AcDbEntity
  8
0
 48
50.0
100
AcDbBlockBegin
  2
*D20
 70
     1
 10
0.0
 20
0.0
 30
0.0
  3
*D20
  1

  0
LINE
  5
16DC0
330
15D49
100
AcDbEntity
  8
寸法
 62
     0
 48
50.0
370
    -2
100
AcDbLine
 10
3882.611119403653
 20
7899.766171211985
 30
0.0
 11
3882.611119403653
 21
7419.942503416907
 31
0.0
  0
LINE
  5
16DC1
330
15D49
100
AcDbEntity
  8
寸法
 62
     0
 48
50.0
370
    -2
100
AcDbLine
 10
4567.611119403647
 20
7899.766171211948
 30
0.0
 11
4567.611119403647
 21
7419.942503416907
 31
0.0
  0
LINE
  5
16DC2
330
15D49
100
AcDbEntity
  8
寸法
 62
     0
 48
50.0
370
    -2
100
AcDbLine
 10
3882.611119403653
 20
7479.942503416907
 30
0.0
 11
4567.611119403647
 21
7479.942503416907
 31
0.0
  0
INSERT
  5
16DC3
330
15D49
100
AcDbEntity
  8
寸法
 62
     0
 48
50.0
370
    -2
100
AcDbBlockReference
  2
_DOTSMALL
 10
3882.611119403653
 20
7479.942503416907
 30
0.0
 41
100.0
 42
100.0
 43
100.0
 50
180.0
  0
INSERT
  5
16DC4
330
15D49
100
AcDbEntity
  8
寸法
 62
     0
 48
50.0
370
    -2
100
AcDbBlockReference
  2
_DOTSMALL
 10
4567.611119403647
 20
7479.942503416907
 30
0.0
 41
100.0
 42
100.0
 43
100.0
  0
MTEXT
  5
16DC5
330
15D49
100
AcDbEntity
  8
寸法
 62
     7
 48
50.0
100
AcDbMText
 10
4225.111119403649
 20
7579.942503416908
 30
0.0
 40
120.0
 41
0.0
 71
     5
 72
     1
  1
\A1;685
  7
STYLE1
 73
     1
 44
1.0
1001
ACAD
1000
MTEXTBEGIN
1070
    73
1070
     1
1070
    44
1040
1.0
1070
    74
1070
     0
1000
MTEXTEND
  0
POINT
  5
16DC6
330
15D49
100
AcDbEntity
  8
DEFPOINTS
 62
     0
 48
50.0
100
AcDbPoint
 10
3882.611119403653
 20
7919.766171211984
 30
0.0
  0
POINT
  5
16DC7
330
15D49
100
AcDbEntity
  8
DEFPOINTS
 62
     0
 48
50.0
100
AcDbPoint
 10
4567.611119403647
 20
7919.766171211948
 30
0.0
  0
POINT
  5
16DC8
330
15D49
100
AcDbEntity
  8
DEFPOINTS
 62
     0
 48
50.0
100
AcDbPoint
 10
4567.611119403647
 20
7479.942503416907
 30
0.0
  0
ENDBLK
  5
15D54
330
15D49
100
AcDbEntity
  8
0
 48
50.0
100
AcDbBlockEnd
  0
BLOCK
  5
15E85
330
15E84
100
AcDbEntity
  8
0
 48
50.0
100
AcDbBlockBegin
  2
*D21
 70
     1
 10
0.0
 20
0.0
 30
0.0
  3
*D21
  1

  0
LINE
  5
16D93
330
15E84
100
AcDbEntity
  8
寸法
 62
     0
 48
50.0
370
    -2
100
AcDbLine
 10
5672.611119403653
 20
9309.766171212109
 30
0.0
 11
5672.611119403653
 21
9565.57439083709
 31
0.0
  0
LINE
  5
16D94
330
15E84
100
AcDbEntity
  8
寸法
 62
     0
 48
50.0
370
    -2
100
AcDbLine
 10
5782.611119403657
 20
9309.766171212087
 30
0.0
 11
5782.611119403657
 21
9565.57439083709
 31
0.0
  0
LINE
  5
16D95
330
15E84
100
AcDbEntity
  8
寸法
 62
     0
 48
50.0
370
    -2
100
AcDbLine
 10
5672.611119403653
 20
9505.574390837089
 30
0.0
 11
5782.611119403657
 21
9505.574390837089
 31
0.0
  0
MTEXT
  5
16D96
330
15E84
100
AcDbEntity
  8
寸法
 62
     7
 48
50.0
100
AcDbMText
 10
5727.611119403655
 20
9759.852712208237
 30
0.0
 40
120.0
 41
0.0
 71
     5
 72
     1
  1
\A1;110
  7
STYLE1
 73
     1
 44
1.0
1001
ACAD
1000
MTEXTBEGIN
1070
    73
1070
     1
1070
    44
1040
1.0
1070
    74
1070
     0
1000
MTEXTEND
  0
INSERT
  5
16D97
330
15E84
100
AcDbEntity
  8
寸法
 62
     0
 48
50.0
370
    -2
100
AcDbBlockReference
  2
_DOTSMALL
 10
5672.611119403653
 20
9505.574390837089
 30
0.0
 41
100.0
 42
100.0
 43
100.0
 50
180.0
  0
INSERT
  5
16D98
330
15E84
100
AcDbEntity
  8
寸法
 62
     0
 48
50.0
370
    -2
100
AcDbBlockReference
  2
_DOTSMALL
 10
5782.611119403657
 20
9505.574390837089
 30
0.0
 41
100.0
 42
100.0
 43
100.0
  0
POINT
  5
16D99
330
15E84
100
AcDbEntity
  8
DEFPOINTS
 62
     0
 48
50.0
100
AcDbPoint
 10
5672.611119403653
 20
9289.766171212107
 30
0.0
  0
POINT
  5
16D9A
330
15E84
100
AcDbEntity
  8
DEFPOINTS
 62
     0
 48
50.0
100
AcDbPoint
 10
5782.611119403657
 20
9289.766171212086
 30
0.0
  0
POINT
  5
16D9B
330
15E84
100
AcDbEntity
  8
DEFPOINTS
 62
     0
 48
50.0
100
AcDbPoint
 10
5782.611119403657
 20
9505.574390837089
 30
0.0
  0
ENDBLK
  5
15E8F
330
15E84
100
AcDbEntity
  8
0
 48
50.0
100
AcDbBlockEnd
  0
BLOCK
  5
15E91
330
15E90
100
AcDbEntity
  8
0
 48
50.0
100
AcDbBlockBegin
  2
*D22
 70
     1
 10
0.0
 20
0.0
 30
0.0
  3
*D22
  1

  0
LINE
  5
16D9C
330
15E90
100
AcDbEntity
  8
寸法
 62
     0
 48
50.0
370
    -2
100
AcDbLine
 10
4832.611119403654
 20
9309.766171212022
 30
0.0
 11
4832.611119403654
 21
9565.57439083709
 31
0.0
  0
LINE
  5
16D9D
330
15E90
100
AcDbEntity
  8
寸法
 62
     0
 48
50.0
370
    -2
100
AcDbLine
 10
5672.611119403653
 20
9309.766171212109
 30
0.0
 11
5672.611119403653
 21
9565.57439083709
 31
0.0
  0
LINE
  5
16D9E
330
15E90
100
AcDbEntity
  8
寸法
 62
     0
 48
50.0
370
    -2
100
AcDbLine
 10
4832.611119403654
 20
9505.574390837089
 30
0.0
 11
5672.611119403653
 21
9505.574390837089
 31
0.0
  0
INSERT
  5
16D9F
330
15E90
100
AcDbEntity
  8
寸法
 62
     0
 48
50.0
370
    -2
100
AcDbBlockReference
  2
_DOTSMALL
 10
4832.611119403654
 20
9505.574390837089
 30
0.0
 41
100.0
 42
100.0
 43
100.0
 50
180.0
  0
INSERT
  5
16DA0
330
15E90
100
AcDbEntity
  8
寸法
 62
     0
 48
50.0
370
    -2
100
AcDbBlockReference
  2
_DOTSMALL
 10
5672.611119403653
 20
9505.574390837089
 30
0.0
 41
100.0
 42
100.0
 43
100.0
  0
MTEXT
  5
16DA1
330
15E90
100
AcDbEntity
  8
寸法
 62
     7
 48
50.0
100
AcDbMText
 10
5252.611119403653
 20
9605.586201860711
 30
0.0
 40
120.0
 41
0.0
 71
     5
 72
     1
  1
\A1;2X420=840
  7
STYLE1
 73
     1
 44
1.0
1001
ACAD
1000
MTEXTBEGIN
1070
    73
1070
     1
1070
    44
1040
1.0
1070
    74
1070
     0
1000
MTEXTEND
  0
POINT
  5
16DA2
330
15E90
100
AcDbEntity
  8
DEFPOINTS
 62
     0
 48
50.0
100
AcDbPoint
 10
4832.611119403654
 20
9289.76617121202
 30
0.0
  0
POINT
  5
16DA3
330
15E90
100
AcDbEntity
  8
DEFPOINTS
 62
     0
 48
50.0
100
AcDbPoint
 10
5672.611119403653
 20
9289.766171212107
 30
0.0
  0
POINT
  5
16DA4
330
15E90
100
AcDbEntity
  8
DEFPOINTS
 62
     0
 48
50.0
100
AcDbPoint
 10
5672.611119403653
 20
9505.574390837089
 30
0.0
  0
ENDBLK
  5
15E9B
330
15E90
100
AcDbEntity
  8
0
 48
50.0
100
AcDbBlockEnd
  0
BLOCK
  5
15E9D
330
15E9C
100
AcDbEntity
  8
0
 48
50.0
100
AcDbBlockBegin
  2
*D23
 70
     1
 10
0.0
 20
0.0
 30
0.0
  3
*D23
  1

  0
LINE
  5
16DA5
330
15E9C
100
AcDbEntity
  8
寸法
 62
     0
 48
50.0
370
    -2
100
AcDbLine
 10
4832.611119403653
 20
7899.766171211985
 30
0.0
 11
4832.611119403653
 21
7419.942503416907
 31
0.0
  0
LINE
  5
16DA6
330
15E9C
100
AcDbEntity
  8
寸法
 62
     0
 48
50.0
370
    -2
100
AcDbLine
 10
5517.611119403648
 20
7899.766171211948
 30
0.0
 11
5517.611119403648
 21
7419.942503416907
 31
0.0
  0
LINE
  5
16DA7
330
15E9C
100
AcDbEntity
  8
寸法
 62
     0
 48
50.0
370
    -2
100
AcDbLine
 10
4832.611119403653
 20
7479.942503416907
 30
0.0
 11
5517.611119403648
 21
7479.942503416907
 31
0.0
  0
INSERT
  5
16DA8
330
15E9C
100
AcDbEntity
  8
寸法
 62
     0
 48
50.0
370
    -2
100
AcDbBlockReference
  2
_DOTSMALL
 10
4832.611119403653
 20
7479.942503416907
 30
0.0
 41
100.0
 42
100.0
 43
100.0
 50
180.0
  0
INSERT
  5
16DA9
330
15E9C
100
AcDbEntity
  8
寸法
 62
     0
 48
50.0
370
    -2
100
AcDbBlockReference
  2
_DOTSMALL
 10
5517.611119403648
 20
7479.942503416907
 30
0.0
 41
100.0
 42
100.0
 43
100.0
  0
MTEXT
  5
16DAA
330
15E9C
100
AcDbEntity
  8
寸法
 62
     7
 48
50.0
100
AcDbMText
 10
5175.111119403649
 20
7579.942503416908
 30
0.0
 40
120.0
 41
0.0
 71
     5
 72
     1
  1
\A1;685
  7
STYLE1
 73
     1
 44
1.0
1001
ACAD
1000
MTEXTBEGIN
1070
    73
1070
     1
1070
    44
1040
1.0
1070
    74
1070
     0
1000
MTEXTEND
  0
POINT
  5
16DAB
330
15E9C
100
AcDbEntity
  8
DEFPOINTS
 62
     0
 48
50.0
100
AcDbPoint
 10
4832.611119403653
 20
7919.766171211984
 30
0.0
  0
POINT
  5
16DAC
330
15E9C
100
AcDbEntity
  8
DEFPOINTS
 62
     0
 48
50.0
100
AcDbPoint
 10
5517.611119403648
 20
7919.766171211948
 30
0.0
  0
POINT
  5
16DAD
330
15E9C
100
AcDbEntity
  8
DEFPOINTS
 62
     0
 48
50.0
100
AcDbPoint
 10
5517.611119403648
 20
7479.942503416907
 30
0.0
  0
ENDBLK
  5
15EA7
330
15E9C
100
AcDbEntity
  8
0
 48
50.0
100
AcDbBlockEnd
  0
BLOCK
  5
16763
330
16758
100
AcDbEntity
  8
0
 48
50.0
100
AcDbBlockBegin
  2
*D24
 70
     1
 10
0.0
 20
0.0
 30
0.0
  3
*D24
  1

  0
LINE
  5
16D89
330
16758
100
AcDbEntity
  8
寸法
 62
     0
 48
50.0
370
    -2
100
AcDbLine
 10
10448.76530589863
 20
5066.513144470889
 30
0.0
 11
9795.865135604612
 21
5091.164175710868
 31
0.0
  0
LINE
  5
16D8A
330
16758
100
AcDbEntity
  8
寸法
 62
     0
 48
50.0
370
    -2
100
AcDbLine
 10
10454.08514005059
 20
5207.412751867773
 30
0.0
 11
9801.184969756405
 21
5232.063783107757
 31
0.0
  0
LINE
  5
16D8B
330
16758
100
AcDbEntity
  8
寸法
 62
     0
 48
50.0
370
    -2
100
AcDbLine
 10
9855.822415347969
 20
5088.900416497338
 30
0.0
 11
9861.142249499762
 21
5229.800023894227
 31
0.0
  0
LINE
  5
16D8C
330
16758
100
AcDbEntity
  8
寸法
 62
     0
 48
50.0
370
    -2
100
AcDbLine
 10
9861.142249499762
 20
5229.800023894227
 30
0.0
 11
9874.72480478096
 21
5589.543702355062
 31
0.0
  0
INSERT
  5
16D8D
330
16758
100
AcDbEntity
  8
寸法
 62
     0
 48
50.0
370
    -2
100
AcDbBlockReference
  2
_DOTSMALL
 10
9855.822415347969
 20
5088.900416497338
 30
0.0
 41
100.0
 42
100.0
 43
100.0
 50
267.8377559871574
  0
INSERT
  5
16D8E
330
16758
100
AcDbEntity
  8
寸法
 62
     0
 48
50.0
370
    -2
100
AcDbBlockReference
  2
_DOTSMALL
 10
9861.142249499762
 20
5229.800023894227
 30
0.0
 41
100.0
 42
100.0
 43
100.0
 50
87.83775598715743
  0
MTEXT
  5
16D8F
330
16758
100
AcDbEntity
  8
寸法
 62
     7
 48
50.0
100
AcDbMText
 10
9769.891193579388
 20
5463.409194933669
 30
0.0
 40
120.0
 41
0.0
 71
     5
 72
     1
  1
\A1;141
  7
STYLE1
 11
0.03772932022548
 21
0.9992879957226159
 31
0.0
 73
     1
 44
1.0
1001
ACAD
1000
MTEXTBEGIN
1070
    73
1070
     1
1070
    44
1040
1.0
1070
    74
1070
     0
1000
MTEXTEND
  0
POINT
  5
16D90
330
16758
100
AcDbEntity
  8
DEFPOINTS
 62
     0
 48
50.0
100
AcDbPoint
 10
10468.75106581308
 20
5065.758558066379
 30
0.0
  0
POINT
  5
16D91
330
16758
100
AcDbEntity
  8
DEFPOINTS
 62
     0
 48
50.0
100
AcDbPoint
 10
10474.07089996504
 20
5206.658165463263
 30
0.0
  0
POINT
  5
16D92
330
16758
100
AcDbEntity
  8
DEFPOINTS
 62
     0
 48
50.0
100
AcDbPoint
 10
9861.142249499762
 20
5229.800023894227
 30
0.0
  0
ENDBLK
  5
16764
330
16758
100
AcDbEntity
  8
0
 48
50.0
100
AcDbBlockEnd
  0
BLOCK
  5
16770
330
16765
100
AcDbEntity
  8
0
 48
50.0
100
AcDbBlockBegin
  2
*D25
 70
     1
 10
0.0
 20
0.0
 30
0.0
  3
*D25
  1

  0
LINE
  5
16D7F
330
16765
100
AcDbEntity
  8
寸法
 62
     0
 48
50.0
370
    -2
100
AcDbLine
 10
11883.40850121113
 20
5174.788212609066
 30
0.0
 11
11883.40850121113
 21
5666.634986576717
 31
0.0
  0
LINE
  5
16D80
330
16765
100
AcDbEntity
  8
寸法
 62
     0
 48
50.0
370
    -2
100
AcDbLine
 10
11963.40850121113
 20
5172.977532997414
 30
0.0
 11
11963.40850121113
 21
5666.634986576717
 31
0.0
  0
LINE
  5
16D81
330
16765
100
AcDbEntity
  8
寸法
 62
     0
 48
50.0
370
    -2
100
AcDbLine
 10
11883.40850121113
 20
5606.634986576717
 30
0.0
 11
11963.40850121113
 21
5606.634986576717
 31
0.0
  0
LINE
  5
16D82
330
16765
100
AcDbEntity
  8
寸法
 62
     0
 48
50.0
370
    -2
100
AcDbLine
 10
11963.40850121113
 20
5606.634986576717
 30
0.0
 11
12275.50298940011
 21
5606.634986576717
 31
0.0
  0
INSERT
  5
16D83
330
16765
100
AcDbEntity
  8
寸法
 62
     0
 48
50.0
370
    -2
100
AcDbBlockReference
  2
_DOTSMALL
 10
11883.40850121113
 20
5606.634986576717
 30
0.0
 41
100.0
 42
100.0
 43
100.0
 50
180.0
  0
INSERT
  5
16D84
330
16765
100
AcDbEntity
  8
寸法
 62
     0
 48
50.0
370
    -2
100
AcDbBlockReference
  2
_DOTSMALL
 10
11963.40850121113
 20
5606.634986576717
 30
0.0
 41
100.0
 42
100.0
 43
100.0
  0
MTEXT
  5
16D85
330
16765
100
AcDbEntity
  8
寸法
 62
     7
 48
50.0
100
AcDbMText
 10
12169.45574530562
 20
5706.634986576717
 30
0.0
 40
120.0
 41
0.0
 71
     5
 72
     1
  1
\A1;80
  7
STYLE1
 73
     1
 44
1.0
1001
ACAD
1000
MTEXTBEGIN
1070
    73
1070
     1
1070
    44
1040
1.0
1070
    74
1070
     0
1000
MTEXTEND
  0
POINT
  5
16D86
330
16765
100
AcDbEntity
  8
DEFPOINTS
 62
     0
 48
50.0
100
AcDbPoint
 10
11883.40850121113
 20
5154.788212609066
 30
0.0
  0
POINT
  5
16D87
330
16765
100
AcDbEntity
  8
DEFPOINTS
 62
     0
 48
50.0
100
AcDbPoint
 10
11963.40850121113
 20
5152.977532997415
 30
0.0
  0
POINT
  5
16D88
330
16765
100
AcDbEntity
  8
DEFPOINTS
 62
     0
 48
50.0
100
AcDbPoint
 10
11963.40850121113
 20
5606.634986576717
 30
0.0
  0
ENDBLK
  5
16771
330
16765
100
AcDbEntity
  8
0
 48
50.0
100
AcDbBlockEnd
  0
BLOCK
  5
1677C
330
16772
100
AcDbEntity
  8
0
 48
50.0
100
AcDbBlockBegin
  2
*D26
 70
     1
 10
0.0
 20
0.0
 30
0.0
  3
*D26
  1

  0
LINE
  5
16D76
330
16772
100
AcDbEntity
  8
寸法
 62
     0
 48
50.0
370
    -2
100
AcDbLine
 10
11963.40850121113
 20
5172.977532997414
 30
0.0
 11
11963.40850121113
 21
5874.809307768681
 31
0.0
  0
LINE
  5
16D77
330
16772
100
AcDbEntity
  8
寸法
 62
     0
 48
50.0
370
    -2
100
AcDbLine
 10
10453.40850121113
 20
5227.977532997418
 30
0.0
 11
10453.40850121113
 21
5874.809307768681
 31
0.0
  0
LINE
  5
16D78
330
16772
100
AcDbEntity
  8
寸法
 62
     0
 48
50.0
370
    -2
100
AcDbLine
 10
11963.40850121113
 20
5814.809307768681
 30
0.0
 11
10453.40850121113
 21
5814.809307768681
 31
0.0
  0
INSERT
  5
16D79
330
16772
100
AcDbEntity
  8
寸法
 62
     0
 48
50.0
370
    -2
100
AcDbBlockReference
  2
_DOTSMALL
 10
11963.40850121113
 20
5814.809307768681
 30
0.0
 41
100.0
 42
100.0
 43
100.0
  0
INSERT
  5
16D7A
330
16772
100
AcDbEntity
  8
寸法
 62
     0
 48
50.0
370
    -2
100
AcDbBlockReference
  2
_DOTSMALL
 10
10453.40850121113
 20
5814.809307768681
 30
0.0
 41
100.0
 42
100.0
 43
100.0
 50
180.0
  0
MTEXT
  5
16D7B
330
16772
100
AcDbEntity
  8
寸法
 62
     7
 48
50.0
100
AcDbMText
 10
11180.53333091295
 20
5914.809307768681
 30
0.0
 40
120.0
 41
0.0
 71
     5
 72
     1
  1
\A1;1510
  7
STYLE1
 73
     1
 44
1.0
1001
ACAD
1000
MTEXTBEGIN
1070
    73
1070
     1
1070
    44
1040
1.0
1070
    74
1070
     0
1000
MTEXTEND
  0
POINT
  5
16D7C
330
16772
100
AcDbEntity
  8
DEFPOINTS
 62
     0
 48
50.0
100
AcDbPoint
 10
11963.40850121113
 20
5152.977532997415
 30
0.0
  0
POINT
  5
16D7D
330
16772
100
AcDbEntity
  8
DEFPOINTS
 62
     0
 48
50.0
100
AcDbPoint
 10
10453.40850121113
 20
5207.977532997418
 30
0.0
  0
POINT
  5
16D7E
330
16772
100
AcDbEntity
  8
DEFPOINTS
 62
     0
 48
50.0
100
AcDbPoint
 10
10453.40850121113
 20
5814.809307768681
 30
0.0
  0
ENDBLK
  5
1677D
330
16772
100
AcDbEntity
  8
0
 48
50.0
100
AcDbBlockEnd
  0
BLOCK
  5
1678A
330
1677E
100
AcDbEntity
  8
0
 48
50.0
100
AcDbBlockBegin
  2
*D27
 70
     1
 10
0.0
 20
0.0
 30
0.0
  3
*D27
  1

  0
LINE
  5
16D6B
330
1677E
100
AcDbEntity
  8
寸法
 62
     0
 48
50.0
370
    -2
100
AcDbLine
 10
10513.40850121113
 20
5223.979151120389
 30
0.0
 11
10513.40850121113
 21
5666.634986576717
 31
0.0
  0
LINE
  5
16D6C
330
1677E
100
AcDbEntity
  8
寸法
 62
     0
 48
50.0
370
    -2
100
AcDbLine
 10
10453.40850121113
 20
5227.977532997418
 30
0.0
 11
10453.40850121113
 21
5666.634986576717
 31
0.0
  0
LINE
  5
16D6D
330
1677E
100
AcDbEntity
  8
寸法
 62
     0
 48
50.0
370
    -2
100
AcDbLine
 10
10513.40850121113
 20
5606.634986576717
 30
0.0
 11
10613.40850121113
 21
5606.634986576717
 31
0.0
  0
LINE
  5
16D6E
330
1677E
100
AcDbEntity
  8
寸法
 62
     0
 48
50.0
370
    -2
100
AcDbLine
 10
10453.40850121113
 20
5606.634986576717
 30
0.0
 11
10034.13291065995
 21
5606.634986576717
 31
0.0
  0
LINE
  5
16D6F
330
1677E
100
AcDbEntity
  8
寸法
 62
     0
 48
50.0
370
    -2
100
AcDbLine
 10
10513.40850121113
 20
5606.634986576717
 30
0.0
 11
10453.40850121113
 21
5606.634986576717
 31
0.0
  0
INSERT
  5
16D70
330
1677E
100
AcDbEntity
  8
寸法
 62
     0
 48
50.0
370
    -2
100
AcDbBlockReference
  2
_DOTSMALL
 10
10513.40850121113
 20
5606.634986576717
 30
0.0
 41
100.0
 42
100.0
 43
100.0
 50
180.0
  0
INSERT
  5
16D71
330
1677E
100
AcDbEntity
  8
寸法
 62
     0
 48
50.0
370
    -2
100
AcDbBlockReference
  2
_DOTSMALL
 10
10453.40850121113
 20
5606.634986576717
 30
0.0
 41
100.0
 42
100.0
 43
100.0
  0
MTEXT
  5
16D72
330
1677E
100
AcDbEntity
  8
寸法
 62
     7
 48
50.0
100
AcDbMText
 10
10143.77070593554
 20
5706.634986576717
 30
0.0
 40
120.0
 41
0.0
 71
     5
 72
     1
  1
\A1;60
  7
STYLE1
 73
     1
 44
1.0
1001
ACAD
1000
MTEXTBEGIN
1070
    73
1070
     1
1070
    44
1040
1.0
1070
    74
1070
     0
1000
MTEXTEND
  0
POINT
  5
16D73
330
1677E
100
AcDbEntity
  8
DEFPOINTS
 62
     0
 48
50.0
100
AcDbPoint
 10
10513.40850121113
 20
5203.979151120389
 30
0.0
  0
POINT
  5
16D74
330
1677E
100
AcDbEntity
  8
DEFPOINTS
 62
     0
 48
50.0
100
AcDbPoint
 10
10453.40850121113
 20
5207.977532997418
 30
0.0
  0
POINT
  5
16D75
330
1677E
100
AcDbEntity
  8
DEFPOINTS
 62
     0
 48
50.0
100
AcDbPoint
 10
10453.40850121113
 20
5606.634986576717
 30
0.0
  0
ENDBLK
  5
1678B
330
1677E
100
AcDbEntity
  8
0
 48
50.0
100
AcDbBlockEnd
  0
BLOCK
  5
16796
330
1678C
100
AcDbEntity
  8
0
 48
50.0
100
AcDbBlockBegin
  2
*D28
 70
     1
 10
0.0
 20
0.0
 30
0.0
  3
*D28
  1

  0
LINE
  5
16D62
330
1678C
100
AcDbEntity
  8
寸法
 62
     0
 48
50.0
370
    -2
100
AcDbLine
 10
11883.40850121113
 20
5174.788212609066
 30
0.0
 11
11883.40850121113
 21
5666.634986576717
 31
0.0
  0
LINE
  5
16D63
330
1678C
100
AcDbEntity
  8
寸法
 62
     0
 48
50.0
370
    -2
100
AcDbLine
 10
10513.40850121113
 20
5223.979151120389
 30
0.0
 11
10513.40850121113
 21
5666.634986576717
 31
0.0
  0
LINE
  5
16D64
330
1678C
100
AcDbEntity
  8
寸法
 62
     0
 48
50.0
370
    -2
100
AcDbLine
 10
11883.40850121113
 20
5606.634986576717
 30
0.0
 11
10513.40850121113
 21
5606.634986576717
 31
0.0
  0
INSERT
  5
16D65
330
1678C
100
AcDbEntity
  8
寸法
 62
     0
 48
50.0
370
    -2
100
AcDbBlockReference
  2
_DOTSMALL
 10
11883.40850121113
 20
5606.634986576717
 30
0.0
 41
100.0
 42
100.0
 43
100.0
  0
INSERT
  5
16D66
330
1678C
100
AcDbEntity
  8
寸法
 62
     0
 48
50.0
370
    -2
100
AcDbBlockReference
  2
_DOTSMALL
 10
10513.40850121113
 20
5606.634986576717
 30
0.0
 41
100.0
 42
100.0
 43
100.0
 50
180.0
  0
MTEXT
  5
16D67
330
1678C
100
AcDbEntity
  8
寸法
 62
     7
 48
50.0
100
AcDbMText
 10
11163.22753410168
 20
5706.634986576717
 30
0.0
 40
120.0
 41
0.0
 71
     5
 72
     1
  1
\A1;柱外寸法1370
  7
STYLE1
 73
     1
 44
1.0
1001
ACAD
1000
MTEXTBEGIN
1070
    73
1070
     1
1070
    44
1040
1.0
1070
    74
1070
     0
1000
MTEXTEND
  0
POINT
  5
16D68
330
1678C
100
AcDbEntity
  8
DEFPOINTS
 62
     0
 48
50.0
100
AcDbPoint
 10
11883.40850121113
 20
5154.788212609066
 30
0.0
  0
POINT
  5
16D69
330
1678C
100
AcDbEntity
  8
DEFPOINTS
 62
     0
 48
50.0
100
AcDbPoint
 10
10513.40850121113
 20
5203.979151120389
 30
0.0
  0
POINT
  5
16D6A
330
1678C
100
AcDbEntity
  8
DEFPOINTS
 62
     0
 48
50.0
100
AcDbPoint
 10
10513.40850121113
 20
5606.634986576717
 30
0.0
  0
ENDBLK
  5
16797
330
1678C
100
AcDbEntity
  8
0
 48
50.0
100
AcDbBlockEnd
  0
BLOCK
  5
167A2
330
16798
100
AcDbEntity
  8
0
 48
50.0
100
AcDbBlockBegin
  2
*D29
 70
     1
 10
0.0
 20
0.0
 30
0.0
  3
*D29
  1

  0
LINE
  5
16D59
330
16798
100
AcDbEntity
  8
寸法
 62
     0
 48
50.0
370
    -2
100
AcDbLine
 10
11903.40850121113
 20
3132.977532997415
 30
0.0
 11
12648.33565918326
 21
3132.977532997415
 31
0.0
  0
LINE
  5
16D5A
330
16798
100
AcDbEntity
  8
寸法
 62
     0
 48
50.0
370
    -2
100
AcDbLine
 10
11983.40850121113
 20
5152.977532997415
 30
0.0
 11
12648.33565918326
 21
5152.977532997415
 31
0.0
  0
LINE
  5
16D5B
330
16798
100
AcDbEntity
  8
寸法
 62
     0
 48
50.0
370
    -2
100
AcDbLine
 10
12588.33565918326
 20
3132.977532997415
 30
0.0
 11
12588.33565918326
 21
5152.977532997415
 31
0.0
  0
INSERT
  5
16D5C
330
16798
100
AcDbEntity
  8
寸法
 62
     0
 48
50.0
370
    -2
100
AcDbBlockReference
  2
_DOTSMALL
 10
12588.33565918326
 20
3132.977532997415
 30
0.0
 41
100.0
 42
100.0
 43
100.0
 50
270.0
  0
INSERT
  5
16D5D
330
16798
100
AcDbEntity
  8
寸法
 62
     0
 48
50.0
370
    -2
100
AcDbBlockReference
  2
_DOTSMALL
 10
12588.33565918326
 20
5152.977532997415
 30
0.0
 41
100.0
 42
100.0
 43
100.0
 50
90.0
  0
MTEXT
  5
16D5E
330
16798
100
AcDbEntity
  8
寸法
 62
     7
 48
50.0
100
AcDbMText
 10
12488.32384815964
 20
4142.977532997416
 30
0.0
 40
120.0
 41
0.0
 71
     5
 72
     1
  1
\A1;2020
  7
STYLE1
 11
0.0000000000000001
 21
1.0
 31
0.0
 73
     1
 44
1.0
1001
ACAD
1000
MTEXTBEGIN
1070
    73
1070
     1
1070
    44
1040
1.0
1070
    74
1070
     0
1000
MTEXTEND
  0
POINT
  5
16D5F
330
16798
100
AcDbEntity
  8
DEFPOINTS
 62
     0
 48
50.0
100
AcDbPoint
 10
11883.40850121113
 20
3132.977532997415
 30
0.0
  0
POINT
  5
16D60
330
16798
100
AcDbEntity
  8
DEFPOINTS
 62
     0
 48
50.0
100
AcDbPoint
 10
11963.40850121113
 20
5152.977532997415
 30
0.0
  0
POINT
  5
16D61
330
16798
100
AcDbEntity
  8
DEFPOINTS
 62
     0
 48
50.0
100
AcDbPoint
 10
12588.33565918326
 20
5152.977532997415
 30
0.0
  0
ENDBLK
  5
167A3
330
16798
100
AcDbEntity
  8
0
 48
50.0
100
AcDbBlockEnd
  0
BLOCK
  5
167B0
330
167A4
100
AcDbEntity
  8
0
 48
50.0
100
AcDbBlockBegin
  2
*D30
 70
     1
 10
0.0
 20
0.0
 30
0.0
  3
*D30
  1

  0
LINE
  5
16D4E
330
167A4
100
AcDbEntity
  8
寸法
 62
     0
 48
50.0
370
    -2
100
AcDbLine
 10
10493.40850121113
 20
3182.977532997415
 30
0.0
 11
9609.658372027872
 21
3182.977532997415
 31
0.0
  0
LINE
  5
16D4F
330
167A4
100
AcDbEntity
  8
寸法
 62
     0
 48
50.0
370
    -2
100
AcDbLine
 10
10438.40850121113
 20
3132.977532997415
 30
0.0
 11
9609.658372027872
 21
3132.977532997415
 31
0.0
  0
LINE
  5
16D50
330
167A4
100
AcDbEntity
  8
寸法
 62
     0
 48
50.0
370
    -2
100
AcDbLine
 10
9669.658372027873
 20
3182.977532997415
 30
0.0
 11
9669.658372027873
 21
3282.977532997415
 31
0.0
  0
LINE
  5
16D51
330
167A4
100
AcDbEntity
  8
寸法
 62
     0
 48
50.0
370
    -2
100
AcDbLine
 10
9669.658372027873
 20
3132.977532997415
 30
0.0
 11
9669.658372027873
 21
2720.883044808435
 31
0.0
  0
LINE
  5
16D52
330
167A4
100
AcDbEntity
  8
寸法
 62
     0
 48
50.0
370
    -2
100
AcDbLine
 10
9669.658372027873
 20
3182.977532997415
 30
0.0
 11
9669.658372027873
 21
3132.977532997415
 31
0.0
  0
INSERT
  5
16D53
330
167A4
100
AcDbEntity
  8
寸法
 62
     0
 48
50.0
370
    -2
100
AcDbBlockReference
  2
_DOTSMALL
 10
9669.658372027873
 20
3182.977532997415
 30
0.0
 41
100.0
 42
100.0
 43
100.0
 50
270.0
  0
INSERT
  5
16D54
330
167A4
100
AcDbEntity
  8
寸法
 62
     0
 48
50.0
370
    -2
100
AcDbBlockReference
  2
_DOTSMALL
 10
9669.658372027873
 20
3132.977532997415
 30
0.0
 41
100.0
 42
100.0
 43
100.0
 50
90.0
  0
MTEXT
  5
16D55
330
167A4
100
AcDbEntity
  8
寸法
 62
     7
 48
50.0
100
AcDbMText
 10
9569.658372027872
 20
2826.930288902925
 30
0.0
 40
120.0
 41
0.0
 71
     5
 72
     1
  1
\A1;50
  7
STYLE1
 11
0.0000000000000001
 21
1.0
 31
0.0
 73
     1
 44
1.0
1001
ACAD
1000
MTEXTBEGIN
1070
    73
1070
     1
1070
    44
1040
1.0
1070
    74
1070
     0
1000
MTEXTEND
  0
POINT
  5
16D56
330
167A4
100
AcDbEntity
  8
DEFPOINTS
 62
     0
 48
50.0
100
AcDbPoint
 10
10513.40850121113
 20
3182.977532997415
 30
0.0
  0
POINT
  5
16D57
330
167A4
100
AcDbEntity
  8
DEFPOINTS
 62
     0
 48
50.0
100
AcDbPoint
 10
10458.40850121113
 20
3132.977532997415
 30
0.0
  0
POINT
  5
16D58
330
167A4
100
AcDbEntity
  8
DEFPOINTS
 62
     0
 48
50.0
100
AcDbPoint
 10
9669.658372027873
 20
3132.977532997415
 30
0.0
  0
ENDBLK
  5
167B1
330
167A4
100
AcDbEntity
  8
0
 48
50.0
100
AcDbBlockEnd
  0
BLOCK
  5
167BC
330
167B2
100
AcDbEntity
  8
0
 48
50.0
100
AcDbBlockBegin
  2
*D31
 70
     1
 10
0.0
 20
0.0
 30
0.0
  3
*D31
  1

  0
LINE
  5
16D45
330
167B2
100
AcDbEntity
  8
寸法
 62
     0
 48
50.0
370
    -2
100
AcDbLine
 10
10493.40850121113
 20
4972.977532997413
 30
0.0
 11
9609.658372027874
 21
4972.977532997414
 31
0.0
  0
LINE
  5
16D46
330
167B2
100
AcDbEntity
  8
寸法
 62
     0
 48
50.0
370
    -2
100
AcDbLine
 10
10493.40850121113
 20
3182.977532997415
 30
0.0
 11
9609.658372027872
 21
3182.977532997415
 31
0.0
  0
LINE
  5
16D47
330
167B2
100
AcDbEntity
  8
寸法
 62
     0
 48
50.0
370
    -2
100
AcDbLine
 10
9669.658372027875
 20
4972.977532997414
 30
0.0
 11
9669.658372027873
 21
3182.977532997415
 31
0.0
  0
INSERT
  5
16D48
330
167B2
100
AcDbEntity
  8
寸法
 62
     0
 48
50.0
370
    -2
100
AcDbBlockReference
  2
_DOTSMALL
 10
9669.658372027875
 20
4972.977532997414
 30
0.0
 41
100.0
 42
100.0
 43
100.0
 50
90.0
  0
INSERT
  5
16D49
330
167B2
100
AcDbEntity
  8
寸法
 62
     0
 48
50.0
370
    -2
100
AcDbBlockReference
  2
_DOTSMALL
 10
9669.658372027873
 20
3182.977532997415
 30
0.0
 41
100.0
 42
100.0
 43
100.0
 50
270.0
  0
MTEXT
  5
16D4A
330
167B2
100
AcDbEntity
  8
寸法
 62
     7
 48
50.0
100
AcDbMText
 10
9569.658372027872
 20
4077.977532997415
 30
0.0
 40
120.0
 41
0.0
 71
     5
 72
     1
  1
\A1;1790
  7
STYLE1
 11
0.0000000000000001
 21
1.0
 31
0.0
 73
     1
 44
1.0
1001
ACAD
1000
MTEXTBEGIN
1070
    73
1070
     1
1070
    44
1040
1.0
1070
    74
1070
     0
1000
MTEXTEND
  0
POINT
  5
16D4B
330
167B2
100
AcDbEntity
  8
DEFPOINTS
 62
     0
 48
50.0
100
AcDbPoint
 10
10513.40850121113
 20
4972.977532997413
 30
0.0
  0
POINT
  5
16D4C
330
167B2
100
AcDbEntity
  8
DEFPOINTS
 62
     0
 48
50.0
100
AcDbPoint
 10
10513.40850121113
 20
3182.977532997415
 30
0.0
  0
POINT
  5
16D4D
330
167B2
100
AcDbEntity
  8
DEFPOINTS
 62
     0
 48
50.0
100
AcDbPoint
 10
9669.658372027873
 20
3182.977532997415
 30
0.0
  0
ENDBLK
  5
167BD
330
167B2
100
AcDbEntity
  8
0
 48
50.0
100
AcDbBlockEnd
  0
BLOCK
  5
167C8
330
167BE
100
AcDbEntity
  8
0
 48
50.0
100
AcDbBlockBegin
  2
*D32
 70
     1
 10
0.0
 20
0.0
 30
0.0
  3
*D32
  1

  0
LINE
  5
16D3C
330
167BE
100
AcDbEntity
  8
寸法
 62
     0
 48
50.0
370
    -2
100
AcDbLine
 10
10493.40850121113
 20
3132.977532997415
 30
0.0
 11
9309.65837202787
 21
3132.977532997415
 31
0.0
  0
LINE
  5
16D3D
330
167BE
100
AcDbEntity
  8
寸法
 62
     0
 48
50.0
370
    -2
100
AcDbLine
 10
10433.40850121113
 20
5207.977532997418
 30
0.0
 11
9309.658372027874
 21
5207.977532997419
 31
0.0
  0
LINE
  5
16D3E
330
167BE
100
AcDbEntity
  8
寸法
 62
     0
 48
50.0
370
    -2
100
AcDbLine
 10
9369.65837202787
 20
3132.977532997415
 30
0.0
 11
9369.658372027872
 21
5207.977532997419
 31
0.0
  0
INSERT
  5
16D3F
330
167BE
100
AcDbEntity
  8
寸法
 62
     0
 48
50.0
370
    -2
100
AcDbBlockReference
  2
_DOTSMALL
 10
9369.65837202787
 20
3132.977532997415
 30
0.0
 41
100.0
 42
100.0
 43
100.0
 50
270.0
  0
INSERT
  5
16D40
330
167BE
100
AcDbEntity
  8
寸法
 62
     0
 48
50.0
370
    -2
100
AcDbBlockReference
  2
_DOTSMALL
 10
9369.658372027872
 20
5207.977532997419
 30
0.0
 41
100.0
 42
100.0
 43
100.0
 50
90.0
  0
MTEXT
  5
16D41
330
167BE
100
AcDbEntity
  8
寸法
 62
     7
 48
50.0
100
AcDbMText
 10
9269.646561004249
 20
4170.477532997418
 30
0.0
 40
120.0
 41
0.0
 71
     5
 72
     1
  1
\A1;2075
  7
STYLE1
 11
0.0000000000000001
 21
1.0
 31
0.0
 73
     1
 44
1.0
1001
ACAD
1000
MTEXTBEGIN
1070
    73
1070
     1
1070
    44
1040
1.0
1070
    74
1070
     0
1000
MTEXTEND
  0
POINT
  5
16D42
330
167BE
100
AcDbEntity
  8
DEFPOINTS
 62
     0
 48
50.0
100
AcDbPoint
 10
10513.40850121113
 20
3132.977532997415
 30
0.0
  0
POINT
  5
16D43
330
167BE
100
AcDbEntity
  8
DEFPOINTS
 62
     0
 48
50.0
100
AcDbPoint
 10
10453.40850121113
 20
5207.977532997418
 30
0.0
  0
POINT
  5
16D44
330
167BE
100
AcDbEntity
  8
DEFPOINTS
 62
     0
 48
50.0
100
AcDbPoint
 10
9369.658372027872
 20
5207.977532997419
 30
0.0
  0
ENDBLK
  5
167C9
330
167BE
100
AcDbEntity
  8
0
 48
50.0
100
AcDbBlockEnd
  0
BLOCK
  5
16C11
330
16C05
100
AcDbEntity
  8
0
 48
50.0
100
AcDbBlockBegin
  2
*D33
 70
     1
 10
0.0
 20
0.0
 30
0.0
  3
*D33
  1

  0
LINE
  5
16CF2
330
16C05
100
AcDbEntity
  8
寸法
 62
     0
 48
50.0
370
    -2
100
AcDbLine
 10
3827.61111940365
 20
5227.977532997422
 30
0.0
 11
3827.61111940365
 21
5480.519118255659
 31
0.0
  0
LINE
  5
16CF3
330
16C05
100
AcDbEntity
  8
寸法
 62
     0
 48
50.0
370
    -2
100
AcDbLine
 10
3777.61111940365
 20
5227.97753299742
 30
0.0
 11
3777.61111940365
 21
5480.519118255659
 31
0.0
  0
LINE
  5
16CF4
330
16C05
100
AcDbEntity
  8
寸法
 62
     0
 48
50.0
370
    -2
100
AcDbLine
 10
3827.61111940365
 20
5420.519118255659
 30
0.0
 11
3927.61111940365
 21
5420.519118255659
 31
0.0
  0
LINE
  5
16CF5
330
16C05
100
AcDbEntity
  8
寸法
 62
     0
 48
50.0
370
    -2
100
AcDbLine
 10
3777.61111940365
 20
5420.519118255659
 30
0.0
 11
3358.078593934914
 21
5420.519118255659
 31
0.0
  0
LINE
  5
16CF6
330
16C05
100
AcDbEntity
  8
寸法
 62
     0
 48
50.0
370
    -2
100
AcDbLine
 10
3827.61111940365
 20
5420.519118255659
 30
0.0
 11
3777.61111940365
 21
5420.519118255659
 31
0.0
  0
INSERT
  5
16CF7
330
16C05
100
AcDbEntity
  8
寸法
 62
     0
 48
50.0
370
    -2
100
AcDbBlockReference
  2
_DOTSMALL
 10
3827.61111940365
 20
5420.519118255659
 30
0.0
 41
100.0
 42
100.0
 43
100.0
 50
180.0
  0
INSERT
  5
16CF8
330
16C05
100
AcDbEntity
  8
寸法
 62
     0
 48
50.0
370
    -2
100
AcDbBlockReference
  2
_DOTSMALL
 10
3777.61111940365
 20
5420.519118255659
 30
0.0
 41
100.0
 42
100.0
 43
100.0
  0
MTEXT
  5
16CF9
330
16C05
100
AcDbEntity
  8
寸法
 62
     7
 48
50.0
100
AcDbMText
 10
3464.125838029402
 20
5520.519118255659
 30
0.0
 40
120.0
 41
0.0
 71
     5
 72
     1
  1
\A1;50
  7
STYLE1
 73
     1
 44
1.0
1001
ACAD
1000
MTEXTBEGIN
1070
    73
1070
     1
1070
    44
1040
1.0
1070
    74
1070
     0
1000
MTEXTEND
  0
POINT
  5
16CFA
330
16C05
100
AcDbEntity
  8
DEFPOINTS
 62
     0
 48
50.0
100
AcDbPoint
 10
3827.61111940365
 20
5207.977532997421
 30
0.0
  0
POINT
  5
16CFB
330
16C05
100
AcDbEntity
  8
DEFPOINTS
 62
     0
 48
50.0
100
AcDbPoint
 10
3777.61111940365
 20
5207.97753299742
 30
0.0
  0
POINT
  5
16CFC
330
16C05
100
AcDbEntity
  8
DEFPOINTS
 62
     0
 48
50.0
100
AcDbPoint
 10
3777.61111940365
 20
5420.519118255659
 30
0.0
  0
ENDBLK
  5
16C12
330
16C05
100
AcDbEntity
  8
0
 48
50.0
100
AcDbBlockEnd
  0
BLOCK
  5
16C1D
330
16C13
100
AcDbEntity
  8
0
 48
50.0
100
AcDbBlockBegin
  2
*D34
 70
     1
 10
0.0
 20
0.0
 30
0.0
  3
*D34
  1

  0
LINE
  5
16CFD
330
16C13
100
AcDbEntity
  8
寸法
 62
     0
 48
50.0
370
    -2
100
AcDbLine
 10
3777.61111940365
 20
5227.97753299742
 30
0.0
 11
3777.61111940365
 21
5703.476096693506
 31
0.0
  0
LINE
  5
16CFE
330
16C13
100
AcDbEntity
  8
寸法
 62
     0
 48
50.0
370
    -2
100
AcDbLine
 10
8627.611119403653
 20
5227.977532997414
 30
0.0
 11
8627.611119403653
 21
5703.476096693506
 31
0.0
  0
LINE
  5
16CFF
330
16C13
100
AcDbEntity
  8
寸法
 62
     0
 48
50.0
370
    -2
100
AcDbLine
 10
3777.61111940365
 20
5643.476096693507
 30
0.0
 11
8627.611119403653
 21
5643.476096693507
 31
0.0
  0
INSERT
  5
16D00
330
16C13
100
AcDbEntity
  8
寸法
 62
     0
 48
50.0
370
    -2
100
AcDbBlockReference
  2
_DOTSMALL
 10
3777.61111940365
 20
5643.476096693507
 30
0.0
 41
100.0
 42
100.0
 43
100.0
 50
180.0
  0
INSERT
  5
16D01
330
16C13
100
AcDbEntity
  8
寸法
 62
     0
 48
50.0
370
    -2
100
AcDbBlockReference
  2
_DOTSMALL
 10
8627.611119403653
 20
5643.476096693507
 30
0.0
 41
100.0
 42
100.0
 43
100.0
  0
MTEXT
  5
16D02
330
16C13
100
AcDbEntity
  8
寸法
 62
     7
 48
50.0
100
AcDbMText
 10
6202.61111940364
 20
5743.476096693506
 30
0.0
 40
120.0
 41
0.0
 71
     5
 72
     1
  1
\A1;4850
  7
STYLE1
 73
     1
 44
1.0
1001
ACAD
1000
MTEXTBEGIN
1070
    73
1070
     1
1070
    44
1040
1.0
1070
    74
1070
     0
1000
MTEXTEND
  0
POINT
  5
16D03
330
16C13
100
AcDbEntity
  8
DEFPOINTS
 62
     0
 48
50.0
100
AcDbPoint
 10
3777.61111940365
 20
5207.97753299742
 30
0.0
  0
POINT
  5
16D04
330
16C13
100
AcDbEntity
  8
DEFPOINTS
 62
     0
 48
50.0
100
AcDbPoint
 10
8627.611119403653
 20
5207.977532997414
 30
0.0
  0
POINT
  5
16D05
330
16C13
100
AcDbEntity
  8
DEFPOINTS
 62
     0
 48
50.0
100
AcDbPoint
 10
8627.611119403653
 20
5643.476096693507
 30
0.0
  0
ENDBLK
  5
16C1E
330
16C13
100
AcDbEntity
  8
0
 48
50.0
100
AcDbBlockEnd
  0
BLOCK
  5
16C29
330
16C1F
100
AcDbEntity
  8
0
 48
50.0
100
AcDbBlockBegin
  2
*D35
 70
     1
 10
0.0
 20
0.0
 30
0.0
  3
*D35
  1

  0
LINE
  5
16D06
330
16C1F
100
AcDbEntity
  8
寸法
 62
     0
 48
50.0
370
    -2
100
AcDbLine
 10
8577.611119403654
 20
5227.977532997416
 30
0.0
 11
8577.611119403654
 21
5480.519118255659
 31
0.0
  0
LINE
  5
16D07
330
16C1F
100
AcDbEntity
  8
寸法
 62
     0
 48
50.0
370
    -2
100
AcDbLine
 10
3827.61111940365
 20
5227.977532997422
 30
0.0
 11
3827.61111940365
 21
5480.519118255659
 31
0.0
  0
LINE
  5
16D08
330
16C1F
100
AcDbEntity
  8
寸法
 62
     0
 48
50.0
370
    -2
100
AcDbLine
 10
8577.611119403654
 20
5420.519118255659
 30
0.0
 11
3827.61111940365
 21
5420.519118255659
 31
0.0
  0
INSERT
  5
16D09
330
16C1F
100
AcDbEntity
  8
寸法
 62
     0
 48
50.0
370
    -2
100
AcDbBlockReference
  2
_DOTSMALL
 10
8577.611119403654
 20
5420.519118255659
 30
0.0
 41
100.0
 42
100.0
 43
100.0
  0
INSERT
  5
16D0A
330
16C1F
100
AcDbEntity
  8
寸法
 62
     0
 48
50.0
370
    -2
100
AcDbBlockReference
  2
_DOTSMALL
 10
3827.61111940365
 20
5420.519118255659
 30
0.0
 41
100.0
 42
100.0
 43
100.0
 50
180.0
  0
MTEXT
  5
16D0B
330
16C1F
100
AcDbEntity
  8
寸法
 62
     7
 48
50.0
100
AcDbMText
 10
6202.61111940364
 20
5520.519118255659
 30
0.0
 40
120.0
 41
0.0
 71
     5
 72
     1
  1
\A1;柱外寸法4750
  7
STYLE1
 73
     1
 44
1.0
1001
ACAD
1000
MTEXTBEGIN
1070
    73
1070
     1
1070
    44
1040
1.0
1070
    74
1070
     0
1000
MTEXTEND
  0
POINT
  5
16D0C
330
16C1F
100
AcDbEntity
  8
DEFPOINTS
 62
     0
 48
50.0
100
AcDbPoint
 10
8577.611119403654
 20
5207.977532997416
 30
0.0
  0
POINT
  5
16D0D
330
16C1F
100
AcDbEntity
  8
DEFPOINTS
 62
     0
 48
50.0
100
AcDbPoint
 10
3827.61111940365
 20
5207.977532997421
 30
0.0
  0
POINT
  5
16D0E
330
16C1F
100
AcDbEntity
  8
DEFPOINTS
 62
     0
 48
50.0
100
AcDbPoint
 10
3827.61111940365
 20
5420.519118255659
 30
0.0
  0
ENDBLK
  5
16C2A
330
16C1F
100
AcDbEntity
  8
0
 48
50.0
100
AcDbBlockEnd
  0
BLOCK
  5
16C5F
330
16C53
100
AcDbEntity
  8
0
 48
50.0
100
AcDbBlockBegin
  2
*D36
 70
     1
 10
0.0
 20
0.0
 30
0.0
  3
*D36
  1

  0
LINE
  5
16CE7
330
16C53
100
AcDbEntity
  8
寸法
 62
     0
 48
50.0
370
    -2
100
AcDbLine
 10
8627.611119403653
 20
5227.977532997414
 30
0.0
 11
8627.611119403653
 21
5480.519118255656
 31
0.0
  0
LINE
  5
16CE8
330
16C53
100
AcDbEntity
  8
寸法
 62
     0
 48
50.0
370
    -2
100
AcDbLine
 10
8577.611119403654
 20
5227.977532997416
 30
0.0
 11
8577.611119403654
 21
5480.519118255656
 31
0.0
  0
LINE
  5
16CE9
330
16C53
100
AcDbEntity
  8
寸法
 62
     0
 48
50.0
370
    -2
100
AcDbLine
 10
8577.611119403654
 20
5420.519118255655
 30
0.0
 11
8477.611119403652
 21
5420.519118255655
 31
0.0
  0
LINE
  5
16CEA
330
16C53
100
AcDbEntity
  8
寸法
 62
     0
 48
50.0
370
    -2
100
AcDbLine
 10
8627.611119403653
 20
5420.519118255655
 30
0.0
 11
9047.143644872376
 21
5420.519118255655
 31
0.0
  0
LINE
  5
16CEB
330
16C53
100
AcDbEntity
  8
寸法
 62
     0
 48
50.0
370
    -2
100
AcDbLine
 10
8577.611119403654
 20
5420.519118255655
 30
0.0
 11
8627.611119403653
 21
5420.519118255655
 31
0.0
  0
INSERT
  5
16CEC
330
16C53
100
AcDbEntity
  8
寸法
 62
     0
 48
50.0
370
    -2
100
AcDbBlockReference
  2
_DOTSMALL
 10
8577.611119403654
 20
5420.519118255655
 30
0.0
 41
100.0
 42
100.0
 43
100.0
  0
INSERT
  5
16CED
330
16C53
100
AcDbEntity
  8
寸法
 62
     0
 48
50.0
370
    -2
100
AcDbBlockReference
  2
_DOTSMALL
 10
8627.611119403653
 20
5420.519118255655
 30
0.0
 41
100.0
 42
100.0
 43
100.0
 50
180.0
  0
MTEXT
  5
16CEE
330
16C53
100
AcDbEntity
  8
寸法
 62
     7
 48
50.0
100
AcDbMText
 10
8941.09640077789
 20
5520.519118255656
 30
0.0
 40
120.0
 41
0.0
 71
     5
 72
     1
  1
\A1;50
  7
STYLE1
 73
     1
 44
1.0
1001
ACAD
1000
MTEXTBEGIN
1070
    73
1070
     1
1070
    44
1040
1.0
1070
    74
1070
     0
1000
MTEXTEND
  0
POINT
  5
16CEF
330
16C53
100
AcDbEntity
  8
DEFPOINTS
 62
     0
 48
50.0
100
AcDbPoint
 10
8627.611119403653
 20
5207.977532997414
 30
0.0
  0
POINT
  5
16CF0
330
16C53
100
AcDbEntity
  8
DEFPOINTS
 62
     0
 48
50.0
100
AcDbPoint
 10
8577.611119403654
 20
5207.977532997416
 30
0.0
  0
POINT
  5
16CF1
330
16C53
100
AcDbEntity
  8
DEFPOINTS
 62
     0
 48
50.0
100
AcDbPoint
 10
8577.611119403654
 20
5420.519118255655
 30
0.0
  0
ENDBLK
  5
16C60
330
16C53
100
AcDbEntity
  8
0
 48
50.0
100
AcDbBlockEnd
  0
BLOCK
  5
1724F
330
17245
100
AcDbEntity
  8
0
 48
50.0
100
AcDbBlockBegin
  2
*D37
 70
     1
 10
0.0
 20
0.0
 30
0.0
  3
*D37
  1

  0
LINE
  5
1725D
330
17245
100
AcDbEntity
  8
寸法
 62
     0
 48
50.0
370
    -2
100
AcDbLine
 10
3851.25214223263
 20
8790.266171211962
 30
0.0
 11
3742.598744701808
 21
8384.766171211959
 31
0.0
  0
LINE
  5
1725E
330
17245
100
AcDbEntity
  8
寸法
 62
     0
 48
50.0
370
    -2
100
AcDbLine
 10
4743.25214223263
 20
8790.266171211987
 30
0.0
 11
4634.5987447018
 21
8384.766171211959
 31
0.0
  0
LINE
  5
1725F
330
17245
100
AcDbEntity
  8
寸法
 62
     0
 48
50.0
370
    -2
100
AcDbLine
 10
3758.675696247676
 20
8444.766171211959
 30
0.0
 11
4650.675696247668
 21
8444.766171211959
 31
0.0
  0
INSERT
  5
17260
330
17245
100
AcDbEntity
  8
寸法
 62
     0
 48
50.0
370
    -2
100
AcDbBlockReference
  2
_DOTSMALL
 10
3758.675696247676
 20
8444.766171211959
 30
0.0
 41
100.0
 42
100.0
 43
100.0
 50
180.0
  0
INSERT
  5
17261
330
17245
100
AcDbEntity
  8
寸法
 62
     0
 48
50.0
370
    -2
100
AcDbBlockReference
  2
_DOTSMALL
 10
4650.675696247668
 20
8444.766171211959
 30
0.0
 41
100.0
 42
100.0
 43
100.0
  0
MTEXT
  5
17262
330
17245
100
AcDbEntity
  8
寸法
 62
     7
 48
50.0
100
AcDbMText
 10
4204.675696247671
 20
8544.806983776762
 30
0.0
 40
120.0
 41
0.0
 71
     5
 72
     1
  1
\A1;892
  7
STYLE1
 73
     1
 44
1.0
1001
ACAD
1000
MTEXTBEGIN
1070
    73
1070
     1
1070
    44
1040
1.0
1070
    74
1070
     0
1000
MTEXTEND
  0
POINT
  5
17263
330
17245
100
AcDbEntity
  8
DEFPOINTS
 62
     0
 48
50.0
100
AcDbPoint
 10
3856.611126081253
 20
8810.266171211962
 30
0.0
  0
POINT
  5
17264
330
17245
100
AcDbEntity
  8
DEFPOINTS
 62
     0
 48
50.0
100
AcDbPoint
 10
4748.611126081252
 20
8810.266171211988
 30
0.0
  0
POINT
  5
17265
330
17245
100
AcDbEntity
  8
DEFPOINTS
 62
     0
 48
50.0
100
AcDbPoint
 10
4650.675696247668
 20
8444.766171211959
 30
0.0
  0
ENDBLK
  5
17250
330
17245
100
AcDbEntity
  8
0
 48
50.0
100
AcDbBlockEnd
  0
BLOCK
  5
1725B
330
17251
100
AcDbEntity
  8
0
 48
50.0
100
AcDbBlockBegin
  2
*D38
 70
     1
 10
0.0
 20
0.0
 30
0.0
  3
*D38
  1

  0
LINE
  5
17266
330
17251
100
AcDbEntity
  8
寸法
 62
     0
 48
50.0
370
    -2
100
AcDbLine
 10
4801.25214223263
 20
8790.266171211962
 30
0.0
 11
4692.598744701808
 21
8384.766171211959
 31
0.0
  0
LINE
  5
17267
330
17251
100
AcDbEntity
  8
寸法
 62
     0
 48
50.0
370
    -2
100
AcDbLine
 10
5693.252142232626
 20
8790.266171212067
 30
0.0
 11
5584.598744701776
 21
8384.766171211959
 31
0.0
  0
LINE
  5
17268
330
17251
100
AcDbEntity
  8
寸法
 62
     0
 48
50.0
370
    -2
100
AcDbLine
 10
4708.675696247675
 20
8444.766171211959
 30
0.0
 11
5600.675696247644
 21
8444.766171211959
 31
0.0
  0
INSERT
  5
17269
330
17251
100
AcDbEntity
  8
寸法
 62
     0
 48
50.0
370
    -2
100
AcDbBlockReference
  2
_DOTSMALL
 10
4708.675696247675
 20
8444.766171211959
 30
0.0
 41
100.0
 42
100.0
 43
100.0
 50
180.0
  0
INSERT
  5
1726A
330
17251
100
AcDbEntity
  8
寸法
 62
     0
 48
50.0
370
    -2
100
AcDbBlockReference
  2
_DOTSMALL
 10
5600.675696247644
 20
8444.766171211959
 30
0.0
 41
100.0
 42
100.0
 43
100.0
  0
MTEXT
  5
1726B
330
17251
100
AcDbEntity
  8
寸法
 62
     7
 48
50.0
100
AcDbMText
 10
5154.675696247659
 20
8544.806983776762
 30
0.0
 40
120.0
 41
0.0
 71
     5
 72
     1
  1
\A1;892
  7
STYLE1
 73
     1
 44
1.0
1001
ACAD
1000
MTEXTBEGIN
1070
    73
1070
     1
1070
    44
1040
1.0
1070
    74
1070
     0
1000
MTEXTEND
  0
POINT
  5
1726C
330
17251
100
AcDbEntity
  8
DEFPOINTS
 62
     0
 48
50.0
100
AcDbPoint
 10
4806.611126081253
 20
8810.266171211962
 30
0.0
  0
POINT
  5
1726D
330
17251
100
AcDbEntity
  8
DEFPOINTS
 62
     0
 48
50.0
100
AcDbPoint
 10
5698.611126081249
 20
8810.266171212068
 30
0.0
  0
POINT
  5
1726E
330
17251
100
AcDbEntity
  8
DEFPOINTS
 62
     0
 48
50.0
100
AcDbPoint
 10
5600.675696247644
 20
8444.766171211959
 30
0.0
  0
ENDBLK
  5
1725C
330
17251
100
AcDbEntity
  8
0
 48
50.0
100
AcDbBlockEnd
  0
BLOCK
  5
172A1
330
17297
100
AcDbEntity
  8
0
 48
50.0
100
AcDbBlockBegin
  2
*D39
 70
     1
 10
0.0
 20
0.0
 30
0.0
  3
*D39
  1

  0
LINE
  5
172AF
330
17297
100
AcDbEntity
  8
寸法
 62
     0
 48
50.0
370
    -2
100
AcDbLine
 10
5751.25214223263
 20
8790.266171211962
 30
0.0
 11
5642.598744701808
 21
8384.766171211959
 31
0.0
  0
LINE
  5
172B0
330
17297
100
AcDbEntity
  8
寸法
 62
     0
 48
50.0
370
    -2
100
AcDbLine
 10
6643.25214223263
 20
8790.266171211987
 30
0.0
 11
6534.5987447018
 21
8384.766171211959
 31
0.0
  0
LINE
  5
172B1
330
17297
100
AcDbEntity
  8
寸法
 62
     0
 48
50.0
370
    -2
100
AcDbLine
 10
5658.675696247676
 20
8444.766171211959
 30
0.0
 11
6550.675696247669
 21
8444.766171211959
 31
0.0
  0
INSERT
  5
172B2
330
17297
100
AcDbEntity
  8
寸法
 62
     0
 48
50.0
370
    -2
100
AcDbBlockReference
  2
_DOTSMALL
 10
5658.675696247676
 20
8444.766171211959
 30
0.0
 41
100.0
 42
100.0
 43
100.0
 50
180.0
  0
INSERT
  5
172B3
330
17297
100
AcDbEntity
  8
寸法
 62
     0
 48
50.0
370
    -2
100
AcDbBlockReference
  2
_DOTSMALL
 10
6550.675696247669
 20
8444.766171211959
 30
0.0
 41
100.0
 42
100.0
 43
100.0
  0
MTEXT
  5
172B4
330
17297
100
AcDbEntity
  8
寸法
 62
     7
 48
50.0
100
AcDbMText
 10
6104.675696247672
 20
8544.806983776762
 30
0.0
 40
120.0
 41
0.0
 71
     5
 72
     1
  1
\A1;892
  7
STYLE1
 73
     1
 44
1.0
1001
ACAD
1000
MTEXTBEGIN
1070
    73
1070
     1
1070
    44
1040
1.0
1070
    74
1070
     0
1000
MTEXTEND
  0
POINT
  5
172B5
330
17297
100
AcDbEntity
  8
DEFPOINTS
 62
     0
 48
50.0
100
AcDbPoint
 10
5756.611126081253
 20
8810.266171211962
 30
0.0
  0
POINT
  5
172B6
330
17297
100
AcDbEntity
  8
DEFPOINTS
 62
     0
 48
50.0
100
AcDbPoint
 10
6648.611126081252
 20
8810.266171211988
 30
0.0
  0
POINT
  5
172B7
330
17297
100
AcDbEntity
  8
DEFPOINTS
 62
     0
 48
50.0
100
AcDbPoint
 10
6550.675696247669
 20
8444.766171211959
 30
0.0
  0
ENDBLK
  5
172A2
330
17297
100
AcDbEntity
  8
0
 48
50.0
100
AcDbBlockEnd
  0
BLOCK
  5
172AD
330
172A3
100
AcDbEntity
  8
0
 48
50.0
100
AcDbBlockBegin
  2
*D40
 70
     1
 10
0.0
 20
0.0
 30
0.0
  3
*D40
  1

  0
LINE
  5
172B8
330
172A3
100
AcDbEntity
  8
寸法
 62
     0
 48
50.0
370
    -2
100
AcDbLine
 10
6701.25214223263
 20
8790.266171211962
 30
0.0
 11
6592.598744701807
 21
8384.766171211959
 31
0.0
  0
LINE
  5
172B9
330
172A3
100
AcDbEntity
  8
寸法
 62
     0
 48
50.0
370
    -2
100
AcDbLine
 10
7593.252142232626
 20
8790.266171212067
 30
0.0
 11
7484.598744701776
 21
8384.766171211959
 31
0.0
  0
LINE
  5
172BA
330
172A3
100
AcDbEntity
  8
寸法
 62
     0
 48
50.0
370
    -2
100
AcDbLine
 10
6608.675696247676
 20
8444.766171211959
 30
0.0
 11
7500.675696247644
 21
8444.766171211959
 31
0.0
  0
INSERT
  5
172BB
330
172A3
100
AcDbEntity
  8
寸法
 62
     0
 48
50.0
370
    -2
100
AcDbBlockReference
  2
_DOTSMALL
 10
6608.675696247676
 20
8444.766171211959
 30
0.0
 41
100.0
 42
100.0
 43
100.0
 50
180.0
  0
INSERT
  5
172BC
330
172A3
100
AcDbEntity
  8
寸法
 62
     0
 48
50.0
370
    -2
100
AcDbBlockReference
  2
_DOTSMALL
 10
7500.675696247644
 20
8444.766171211959
 30
0.0
 41
100.0
 42
100.0
 43
100.0
  0
MTEXT
  5
172BD
330
172A3
100
AcDbEntity
  8
寸法
 62
     7
 48
50.0
100
AcDbMText
 10
7054.675696247659
 20
8544.806983776762
 30
0.0
 40
120.0
 41
0.0
 71
     5
 72
     1
  1
\A1;892
  7
STYLE1
 73
     1
 44
1.0
1001
ACAD
1000
MTEXTBEGIN
1070
    73
1070
     1
1070
    44
1040
1.0
1070
    74
1070
     0
1000
MTEXTEND
  0
POINT
  5
172BE
330
172A3
100
AcDbEntity
  8
DEFPOINTS
 62
     0
 48
50.0
100
AcDbPoint
 10
6706.611126081252
 20
8810.266171211962
 30
0.0
  0
POINT
  5
172BF
330
172A3
100
AcDbEntity
  8
DEFPOINTS
 62
     0
 48
50.0
100
AcDbPoint
 10
7598.611126081249
 20
8810.266171212068
 30
0.0
  0
POINT
  5
172C0
330
172A3
100
AcDbEntity
  8
DEFPOINTS
 62
     0
 48
50.0
100
AcDbPoint
 10
7500.675696247644
 20
8444.766171211959
 30
0.0
  0
ENDBLK
  5
172AE
330
172A3
100
AcDbEntity
  8
0
 48
50.0
100
AcDbBlockEnd
  0
BLOCK
  5
172CE
330
172C4
100
AcDbEntity
  8
0
 48
50.0
100
AcDbBlockBegin
  2
*D41
 70
     1
 10
0.0
 20
0.0
 30
0.0
  3
*D41
  1

  0
LINE
  5
172D0
330
172C4
100
AcDbEntity
  8
寸法
 62
     0
 48
50.0
370
    -2
100
AcDbLine
 10
7651.25214223263
 20
8790.266187268464
 30
0.0
 11
7542.598744701807
 21
8384.766187268461
 31
0.0
  0
LINE
  5
172D1
330
172C4
100
AcDbEntity
  8
寸法
 62
     0
 48
50.0
370
    -2
100
AcDbLine
 10
8543.252142232626
 20
8790.266187268569
 30
0.0
 11
8434.598744701776
 21
8384.766187268461
 31
0.0
  0
LINE
  5
172D2
330
172C4
100
AcDbEntity
  8
寸法
 62
     0
 48
50.0
370
    -2
100
AcDbLine
 10
7558.675696247675
 20
8444.766187268461
 30
0.0
 11
8450.675696247643
 21
8444.766187268461
 31
0.0
  0
INSERT
  5
172D3
330
172C4
100
AcDbEntity
  8
寸法
 62
     0
 48
50.0
370
    -2
100
AcDbBlockReference
  2
_DOTSMALL
 10
7558.675696247675
 20
8444.766187268461
 30
0.0
 41
100.0
 42
100.0
 43
100.0
 50
180.0
  0
INSERT
  5
172D4
330
172C4
100
AcDbEntity
  8
寸法
 62
     0
 48
50.0
370
    -2
100
AcDbBlockReference
  2
_DOTSMALL
 10
8450.675696247643
 20
8444.766187268461
 30
0.0
 41
100.0
 42
100.0
 43
100.0
  0
MTEXT
  5
172D5
330
172C4
100
AcDbEntity
  8
寸法
 62
     7
 48
50.0
100
AcDbMText
 10
8004.675696247659
 20
8544.806999833262
 30
0.0
 40
120.0
 41
0.0
 71
     5
 72
     1
  1
\A1;892
  7
STYLE1
 73
     1
 44
1.0
1001
ACAD
1000
MTEXTBEGIN
1070
    73
1070
     1
1070
    44
1040
1.0
1070
    74
1070
     0
1000
MTEXTEND
  0
POINT
  5
172D6
330
172C4
100
AcDbEntity
  8
DEFPOINTS
 62
     0
 48
50.0
100
AcDbPoint
 10
7656.611126081251
 20
8810.266187268464
 30
0.0
  0
POINT
  5
172D7
330
172C4
100
AcDbEntity
  8
DEFPOINTS
 62
     0
 48
50.0
100
AcDbPoint
 10
8548.611126081249
 20
8810.26618726857
 30
0.0
  0
POINT
  5
172D8
330
172C4
100
AcDbEntity
  8
DEFPOINTS
 62
     0
 48
50.0
100
AcDbPoint
 10
8450.675696247643
 20
8444.766187268461
 30
0.0
  0
ENDBLK
  5
172CF
330
172C4
100
AcDbEntity
  8
0
 48
50.0
100
AcDbBlockEnd
  0
ENDSEC
  0
SECTION
  2
ENTITIES
  0
LINE
  5
10B56
330
747D
100
AcDbEntity
  8
補助
  6
PHANTOM
 62
   230
 48
50.0
100
AcDbLine
 10
140.0
 20
0.0
 30
0.0
 11
139.9999999999995
 21
11409.6
 31
0.0
  0
LINE
  5
10B57
330
747D
100
AcDbEntity
  8
補助
  6
PHANTOM
 62
   230
 48
50.0
100
AcDbLine
 10
139.9999999999995
 20
11409.6
 30
0.0
 11
16307.2
 21
11409.6
 31
0.0
  0
LINE
  5
10B59
330
747D
100
AcDbEntity
  8
仕様書枠
  6
Continuous
 48
50.0
100
AcDbLine
 10
13107.2
 20
1200.0
 30
0.0
 11
13107.2
 21
-0.0000000000000729
 31
0.0
  0
LINE
  5
10B5C
330
747D
100
AcDbEntity
  8
仕様書枠
 48
50.0
100
AcDbLine
 10
16307.2
 20
1200.0
 30
0.0
 11
16307.2
 21
-0.0000000000000909
 31
0.0
  0
LINE
  5
10B5D
330
747D
100
AcDbEntity
  8
仕様書枠
 48
50.0
100
AcDbLine
 10
140.0
 20
0.0
 30
0.0
 11
16307.2
 21
-0.0000000000000909
 31
0.0
  0
LINE
  5
10B5E
330
747D
100
AcDbEntity
  8
補助
  6
PHANTOM
 62
   230
 48
50.0
100
AcDbLine
 10
16307.2
 20
11409.6
 30
0.0
 11
16307.2
 21
1200.0
 31
0.0
  0
LINE
  5
10B6C
330
747D
100
AcDbEntity
  8
仕様書枠
 48
50.0
100
AcDbLine
 10
13107.2
 20
1200.0
 30
0.0
 11
16307.2
 21
1200.0
 31
0.0
  0
LINE
  5
10B6D
330
747D
100
AcDbEntity
  8
補助
  6
PHANTOM
 62
   230
 48
50.0
100
AcDbLine
 10
13107.2
 20
11409.6
 30
0.0
 11
13107.2
 21
4800.0
 31
0.0
  0
LINE
  5
10B6F
330
747D
100
AcDbEntity
  8
補助
  6
PHANTOM
 62
   230
 48
50.0
100
AcDbLine
 10
13107.2
 20
4800.0
 30
0.0
 11
16307.2
 21
4800.0
 31
0.0
  0
LINE
  5
10B72
330
747D
100
AcDbEntity
  8
文字
 62
     7
 48
50.0
100
AcDbLine
 10
13187.2
 20
400.0
 30
0.0
 11
16227.2
 21
400.0
 31
0.0
  0
TEXT
  5
10B73
330
747D
100
AcDbEntity
  8
文字
 62
     7
 48
50.0
100
AcDbText
 10
13162.9790565769
 20
895.0906074299405
 30
0.0
 40
200.0
  1
外 形 図
  7
STYLE2
100
AcDbText
  0
TEXT
  5
10B74
330
747D
100
AcDbEntity
  8
文字
 62
     7
 48
50.0
100
AcDbText
 10
13201.43669998441
 20
477.2740661031255
 30
0.0
 40
160.0
  1
機種名
  7
STYLE2
100
AcDbText
  0
TEXT
  5
10B75
330
747D
100
AcDbEntity
  8
文字
 62
     7
 48
50.0
100
AcDbText
 10
13209.4053442172
 20
228.5435242569016
 30
0.0
 40
100.0
  1
○有効開口寸法 ： 685×1760(mm)
  7
STYLE2
100
AcDbText
  0
TEXT
  5
10B76
330
747D
100
AcDbEntity
  8
文字
 62
     7
 48
50.0
100
AcDbText
 10
13209.4053442172
 20
76.09434707649343
 30
0.0
 40
100.0
  1
○床面積 ： 6.51㎡(1.97坪) 　
  7
STYLE2
100
AcDbText
  0
TEXT
  5
10B79
330
747D
100
AcDbEntity
  8
文字
 62
     7
 48
50.0
100
AcDbText
 10
14524.131837222
 20
1031.557706291228
 30
0.0
 40
100.0
  1
NO.04     <縮尺> S=1/40
  7
STYLE2
100
AcDbText
  0
LINE
  5
10B7B
330
747D
100
AcDbEntity
  8
仕様書枠
 48
50.0
100
AcDbLine
 10
13107.2
 20
800.0
 30
0.0
 11
14251.2
 21
800.0
 31
0.0
  0
LINE
  5
10B88
330
747D
100
AcDbEntity
  8
仕様書枠
  6
Continuous
 48
50.0
100
AcDbLine
 10
14251.2
 20
1200.0
 30
0.0
 11
14251.2
 21
800.0
 31
0.0
  0
LINE
  5
13A41
330
747D
100
AcDbEntity
  8
Ｇ．Ｌ
100
AcDbLine
 10
2858.277725237437
 20
3032.977532997413
 30
0.0
 11
12819.68325734359
 21
3032.977532997413
 31
0.0
  0
TEXT
  5
13A63
330
747D
100
AcDbEntity
  8
部品1
100
AcDbText
 10
2842.823742512163
 20
3069.084436603314
 30
0.0
 40
125.0
  1
▽G.L
  7
STYLE2
100
AcDbText
  0
TEXT
  5
13B2F
330
747D
100
AcDbEntity
  8
部品1
100
AcDbText
 10
5845.795396118457
 20
6389.293953193675
 30
0.0
 40
135.0
  1
平面図
  7
STYLE2
100
AcDbText
  0
LWPOLYLINE
  5
13B30
330
747D
100
AcDbEntity
  8
部品1
100
AcDbPolyline
 90
        4
 70
     1
 43
0.0
 10
5755.875786289418
 20
6582.187482412199
 10
5755.875786289418
 20
6342.295160866666
 10
6519.346452517858
 20
6342.295160866666
 10
6519.346452517858
 20
6582.187482412199
  0
DIMENSION
  5
156F4
330
747D
100
AcDbEntity
  8
寸法
100
AcDbDimension
  2
*D1
 10
9225.037465138068
 20
9234.766171212086
 30
0.0
 11
9225.037465138067
 21
9598.251452586326
 31
0.0
 70
   160
 71
     5
 42
55.0
  3
INABA_S40G
100
AcDbAlignedDimension
 13
8577.611119403657
 23
9289.766171212086
 33
0.0
 14
8577.611119403657
 24
9234.766171212086
 34
0.0
 50
90.0
100
AcDbRotatedDimension
1001
ACAD
1000
DSTYLE
1002
{
1002
}
  0
DIMENSION
  5
156F5
330
747D
100
AcDbEntity
  8
寸法
100
AcDbDimension
  2
*D2
 10
8577.611119403657
 20
9505.574390837066
 30
0.0
 11
8886.096400777894
 21
9505.574390837066
 31
0.0
 70
   160
 71
     5
 42
55.0
  3
INABA_S40G
100
AcDbAlignedDimension
 13
8522.611119403656
 23
9289.766171212086
 33
0.0
 14
8577.611119403657
 24
9289.766171212086
 34
0.0
100
AcDbRotatedDimension
1001
ACAD
1000
DSTYLE
1002
{
1002
}
  0
DIMENSION
  5
156F6
330
747D
100
AcDbEntity
  8
寸法
 48
50.0
100
AcDbDimension
  2
*D3
 10
7682.611119403657
 20
9505.574390837089
 30
0.0
 11
7627.611119403657
 21
9763.787889306543
 31
0.0
 70
   160
 71
     5
 42
110.0000000000036
  3
INABA_S40G
100
AcDbAlignedDimension
 13
7572.611119403653
 23
9289.766171212107
 33
0.0
 14
7682.611119403657
 24
9289.766171212086
 34
0.0
100
AcDbRotatedDimension
1001
ACAD
1000
DSTYLE
1002
{
1070
   279
1070
     2
1002
}
  0
DIMENSION
  5
156F7
330
747D
100
AcDbEntity
  8
寸法
 48
50.0
100
AcDbDimension
  2
*D4
 10
6732.611119403657
 20
9505.574390837089
 30
0.0
 11
6677.611119403654
 21
9759.852712208237
 31
0.0
 70
   160
 71
     5
 42
110.0000000000036
  3
INABA_S40G
100
AcDbAlignedDimension
 13
6622.611119403654
 23
9289.766171212107
 33
0.0
 14
6732.611119403657
 24
9289.766171212086
 34
0.0
100
AcDbRotatedDimension
1001
ACAD
1000
DSTYLE
1002
{
1070
   279
1070
     2
1002
}
  0
DIMENSION
  5
156F8
330
747D
100
AcDbEntity
  8
寸法
100
AcDbDimension
  2
*D5
 10
7572.611119403653
 20
9505.574390837089
 30
0.0
 11
7152.611119403655
 21
9505.574390837089
 31
0.0
 70
   160
  1
2X420=<>
 71
     5
 42
839.9999999999982
  3
INABA_S40G
100
AcDbAlignedDimension
 13
6732.611119403654
 23
9289.76617121202
 33
0.0
 14
7572.611119403653
 24
9289.766171212107
 34
0.0
100
AcDbRotatedDimension
1001
ACAD
1000
DSTYLE
1002
{
1002
}
  0
DIMENSION
  5
156F9
330
747D
100
AcDbEntity
  8
寸法
100
AcDbDimension
  2
*D6
 10
3882.611119403655
 20
9505.574390836974
 30
0.0
 11
3519.12583802938
 21
9505.574390836974
 31
0.0
 70
   160
 71
     5
 42
55.00000000003456
  3
INABA_S40G
100
AcDbAlignedDimension
 13
3827.61111940362
 23
9289.766171211992
 33
0.0
 14
3882.611119403655
 24
9289.766171211992
 34
0.0
100
AcDbRotatedDimension
1001
ACAD
1000
DSTYLE
1002
{
1002
}
  0
DIMENSION
  5
156FA
330
747D
100
AcDbEntity
  8
寸法
100
AcDbDimension
  2
*D7
 10
6622.611119403654
 20
9505.574390837089
 30
0.0
 11
6202.611119403654
 21
9505.574390837089
 31
0.0
 70
   160
  1
2X420=<>
 71
     5
 42
839.9999999999982
  3
INABA_S40G
100
AcDbAlignedDimension
 13
5782.611119403655
 23
9289.76617121202
 33
0.0
 14
6622.611119403654
 24
9289.766171212107
 34
0.0
100
AcDbRotatedDimension
1001
ACAD
1000
DSTYLE
1002
{
1002
}
  0
DIMENSION
  5
156FB
330
747D
100
AcDbEntity
  8
寸法
100
AcDbDimension
  2
*D8
 10
8522.611119403654
 20
9505.574390837089
 30
0.0
 11
8102.611119403654
 21
9505.574390837089
 31
0.0
 70
   160
  1
2X420=<>
 71
     5
 42
839.9999999999982
  3
INABA_S40G
100
AcDbAlignedDimension
 13
7682.611119403656
 23
9289.76617121202
 33
0.0
 14
8522.611119403654
 24
9289.766171212107
 34
0.0
100
AcDbRotatedDimension
1001
ACAD
1000
DSTYLE
1002
{
1002
}
  0
DIMENSION
  5
156FC
330
747D
100
AcDbEntity
  8
寸法
100
AcDbDimension
  2
*D9
 10
8577.611119403632
 20
6932.664296351835
 30
0.0
 11
6202.61111940364
 21
6932.664296351835
 31
0.0
 70
   160
 71
     5
 42
4749.999999999982
  3
INABA_S40G
100
AcDbAlignedDimension
 13
3827.61111940365
 23
7919.766171211847
 33
0.0
 14
8577.611119403632
 24
7919.766171212042
 34
0.0
100
AcDbRotatedDimension
1001
ACAD
1000
DSTYLE
1002
{
1002
}
  0
LINE
  5
156FD
330
747D
100
AcDbEntity
  8
部品1
100
AcDbLine
 10
8577.611119403632
 20
7919.766171212072
 30
0.0
 11
5727.61111940365
 21
7919.766171211977
 31
0.0
  0
LINE
  5
156FE
330
747D
100
AcDbEntity
  8
部品1
100
AcDbLine
 10
3827.61111940362
 20
9289.766171211992
 30
0.0
 11
8577.611119403657
 21
9289.766171212086
 31
0.0
  0
ARC
  5
156FF
330
747D
100
AcDbEntity
  8
想像線
 48
10.0
100
AcDbCircle
 10
8395.259068726494
 20
7921.461064587615
 30
0.0
 40
722.6499369155646
100
AcDbArc
 50
180.1343808685448
 51
270.5829222700351
  0
LINE
  5
15700
330
747D
100
AcDbEntity
  8
部品1
100
AcDbLine
 10
7656.611126081251
 20
9260.266171211963
 30
0.0
 11
8548.611126081251
 21
9260.266171212071
 31
0.0
  0
LINE
  5
15702
330
747D
100
AcDbEntity
  8
部品1
100
AcDbLine
 10
7656.611126081251
 20
8810.266171211962
 30
0.0
 11
8548.611126081251
 21
8810.266171212065
 31
0.0
  0
LINE
  5
15703
330
747D
100
AcDbEntity
  8
細線
 48
50.0
100
AcDbLine
 10
8548.611126081251
 20
9260.266171212064
 30
0.0
 11
7656.611126081251
 21
8810.266171211962
 31
0.0
  0
LINE
  5
15704
330
747D
100
AcDbEntity
  8
細線
 48
50.0
100
AcDbLine
 10
8548.611126081251
 20
8810.266171212065
 30
0.0
 11
7656.611126081251
 21
9260.266171211963
 31
0.0
  0
LINE
  5
15705
330
747D
100
AcDbEntity
  8
部品1
100
AcDbLine
 10
7655.61111940358
 20
9261.766171212036
 30
0.0
 11
8549.611119403657
 21
9261.766171212086
 31
0.0
  0
LINE
  5
15706
330
747D
100
AcDbEntity
  8
部品1
 48
5.0
100
AcDbLine
 10
8534.61111940363
 20
7949.266171212028
 30
0.0
 11
7651.61111940365
 21
7949.266171212028
 31
0.0
  0
LINE
  5
15707
330
747D
100
AcDbEntity
  8
破線
 48
10.0
100
AcDbLine
 10
8497.611119403634
 20
8074.766171212079
 30
0.0
 11
7706.611119403643
 21
8074.766171212043
 31
0.0
  0
LINE
  5
15708
330
747D
100
AcDbEntity
  8
部品1
100
AcDbLine
 10
8521.11014797884
 20
8051.266276924925
 30
0.0
 11
7683.111119403631
 21
8051.266171236701
 31
0.0
  0
LINE
  5
1570A
330
747D
100
AcDbEntity
  8
部品1
100
AcDbLine
 10
8402.611119403648
 20
7945.766171212079
 30
0.0
 11
7672.611119403647
 21
7945.766171212021
 31
0.0
  0
LINE
  5
1570B
330
747D
100
AcDbEntity
  8
部品1
 48
5.0
100
AcDbLine
 10
7572.611119403649
 20
7974.766171212028
 30
0.0
 11
7572.611119403652
 21
7949.266171212028
 31
0.0
  0
LINE
  5
1570C
330
747D
100
AcDbEntity
  8
部品1
 48
5.0
100
AcDbLine
 10
7603.611119403649
 20
7974.766171212028
 30
0.0
 11
7603.611119403649
 21
7949.266171212028
 31
0.0
  0
LINE
  5
1570D
330
747D
100
AcDbEntity
  8
部品1
 48
5.0
100
AcDbLine
 10
7651.611119403651
 20
7974.766171212028
 30
0.0
 11
7651.61111940365
 21
7949.266171212028
 31
0.0
  0
LINE
  5
1570E
330
747D
100
AcDbEntity
  8
部品1
 48
5.0
100
AcDbLine
 10
7682.61111940365
 20
7974.766171212028
 30
0.0
 11
7682.611119403651
 21
7949.266171212028
 31
0.0
  0
LINE
  5
1570F
330
747D
100
AcDbEntity
  8
部品1
 48
5.0
100
AcDbLine
 10
6732.611119403649
 20
7974.766171212028
 30
0.0
 11
6732.611119403651
 21
7949.266171212028
 31
0.0
  0
LINE
  5
15710
330
747D
100
AcDbEntity
  8
部品1
 48
5.0
100
AcDbLine
 10
6622.611119403649
 20
7974.766171212028
 30
0.0
 11
6622.611119403652
 21
7949.266171212028
 31
0.0
  0
LINE
  5
15711
330
747D
100
AcDbEntity
  8
部品1
 48
5.0
100
AcDbLine
 10
6653.611119403649
 20
7974.766171212028
 30
0.0
 11
6653.611119403649
 21
7949.266171212028
 31
0.0
  0
LINE
  5
15712
330
747D
100
AcDbEntity
  8
部品1
 48
5.0
100
AcDbLine
 10
6701.611119403651
 20
7974.766171212028
 30
0.0
 11
6701.61111940365
 21
7949.266171212028
 31
0.0
  0
LINE
  5
15713
330
747D
100
AcDbEntity
  8
部品1
 48
2.83
100
AcDbLine
 10
3827.61111940365
 20
7919.766171211911
 30
0.0
 11
3827.61111940365
 21
7974.766171211911
 31
0.0
  0
LINE
  5
15714
330
747D
100
AcDbEntity
  8
部品1
 48
2.83
100
AcDbLine
 10
3882.611119403649
 20
7974.766171211911
 30
0.0
 11
3882.611119403652
 21
7949.266171211911
 31
0.0
  0
LINE
  5
15715
330
747D
100
AcDbEntity
  8
部品1
100
AcDbLine
 10
3827.611119403646
 20
7974.766171211911
 30
0.0
 11
3827.61111940365
 21
7919.766171211911
 31
0.0
  0
LINE
  5
15716
330
747D
100
AcDbEntity
  8
部品1
100
AcDbLine
 10
3827.61111940362
 20
9289.766171211956
 30
0.0
 11
3827.61111940365
 21
7919.766171211948
 31
0.0
  0
DIMENSION
  5
15717
330
747D
100
AcDbEntity
  8
寸法
 48
50.0
100
AcDbDimension
  2
*D10
 10
8367.611119403647
 20
7479.942503416907
 30
0.0
 11
8025.111119403652
 21
7479.942503416907
 31
0.0
 70
   160
  1
有効開口部間口\P<>
 71
     5
 42
684.9999999999945
  3
INABA_S40G
100
AcDbAlignedDimension
 13
7682.611119403652
 23
7919.766171211984
 33
0.0
 14
8367.611119403647
 24
7919.766171211948
 34
0.0
100
AcDbRotatedDimension
  0
LINE
  5
15718
330
747D
100
AcDbEntity
  8
部品1
 48
5.0
100
AcDbLine
 10
5751.61111940365
 20
7949.26617121191
 30
0.0
 11
6653.611119403649
 21
7949.26617121197
 31
0.0
  0
LINE
  5
15719
330
747D
100
AcDbEntity
  8
部品1
100
AcDbLine
 10
6728.611119403649
 20
7919.766171211977
 30
0.0
 11
3827.61111940365
 21
7919.766171211948
 31
0.0
  0
ARC
  5
1571A
330
747D
100
AcDbEntity
  8
想像線
 48
10.0
100
AcDbCircle
 10
6495.259068726489
 20
7921.461064587596
 30
0.0
 40
722.6499369155575
100
AcDbArc
 50
180.1343808685506
 51
270.5829222700354
  0
LINE
  5
1571B
330
747D
100
AcDbEntity
  8
部品1
100
AcDbLine
 10
6502.611119403647
 20
7945.766171212042
 30
0.0
 11
5772.611119403649
 21
7945.766171212014
 31
0.0
  0
LINE
  5
1571C
330
747D
100
AcDbEntity
  8
部品1
100
AcDbLine
 10
3872.611119403649
 20
7945.766171212049
 30
0.0
 11
3872.611119403649
 21
7919.766171212014
 31
0.0
  0
LINE
  5
1571D
330
747D
100
AcDbEntity
  8
部品1
 48
2.83
100
AcDbLine
 10
3870.61111940365
 20
7949.266171211911
 30
0.0
 11
3870.61111940365
 21
7919.766171211911
 31
0.0
  0
LINE
  5
1571E
330
747D
100
AcDbEntity
  8
部品1
 48
2.83
100
AcDbLine
 10
3870.61111940365
 20
7919.766171211911
 30
0.0
 11
3827.61111940365
 21
7919.766171211911
 31
0.0
  0
LINE
  5
1571F
330
747D
100
AcDbEntity
  8
想像線
 48
10.0
100
AcDbLine
 10
6502.611119403647
 20
7919.766171212028
 30
0.0
 11
6502.611119403647
 21
7198.848527556238
 31
0.0
  0
LINE
  5
15720
330
747D
100
AcDbEntity
  8
部品1
 48
5.0
100
AcDbLine
 10
6504.61111940365
 20
7949.266171212028
 30
0.0
 11
6504.61111940365
 21
7919.766171212028
 31
0.0
  0
LINE
  5
15721
330
747D
100
AcDbEntity
  8
部品1
 48
0.2
100
AcDbLine
 10
6489.673567232327
 20
7912.76380116725
 30
0.0
 11
6494.673567232327
 21
7912.76380116725
 31
0.0
  0
ARC
  5
15722
330
747D
100
AcDbEntity
  8
細線
 48
0.2
100
AcDbCircle
 10
6494.673567232327
 20
7920.76380116725
 30
0.0
 40
4.049999999999999
100
AcDbArc
 50
194.2603506853988
 51
345.7396493146012
  0
ARC
  5
15723
330
747D
100
AcDbEntity
  8
部品1
 48
0.2
100
AcDbCircle
 10
6489.673567232327
 20
7920.76380116725
 30
0.0
 40
8.0
100
AcDbArc
 50
187.1636477221926
 51
269.9999999999992
  0
ARC
  5
15724
330
747D
100
AcDbEntity
  8
部品1
 48
0.2
100
AcDbCircle
 10
6494.673567232327
 20
7920.76380116725
 30
0.0
 40
8.0
100
AcDbArc
 50
270.0
 51
352.8363522778074
  0
LINE
  5
15725
330
747D
100
AcDbEntity
  8
部品1
100
AcDbLine
 10
6502.611119403647
 20
7945.766171212079
 30
0.0
 11
6502.611119403647
 21
7919.766171212021
 31
0.0
  0
ARC
  5
15726
330
747D
100
AcDbEntity
  8
想像線
 48
10.0
100
AcDbCircle
 10
7445.259068726487
 20
7921.461064587595
 30
0.0
 40
722.6499369155564
100
AcDbArc
 50
180.1343808685454
 51
270.5829222700355
  0
LINE
  5
15727
330
747D
100
AcDbEntity
  8
部品1
 48
5.0
100
AcDbLine
 10
6701.61111940365
 20
7949.26617121197
 30
0.0
 11
7603.611119403649
 21
7949.266171212028
 31
0.0
  0
LINE
  5
15729
330
747D
100
AcDbEntity
  8
部品1
100
AcDbLine
 10
7452.611119403647
 20
7945.766171212072
 30
0.0
 11
6722.611119403649
 21
7945.766171212049
 31
0.0
  0
LINE
  5
1572A
330
747D
100
AcDbEntity
  8
部品1
 48
5.0
100
AcDbLine
 10
6720.611119403649
 20
7949.266171212028
 30
0.0
 11
6720.611119403649
 21
7919.766171212028
 31
0.0
  0
LINE
  5
1572B
330
747D
100
AcDbEntity
  8
部品1
100
AcDbLine
 10
6720.611119403649
 20
7949.266171211977
 30
0.0
 11
6720.611119403649
 21
7919.766171212028
 31
0.0
  0
LINE
  5
1572C
330
747D
100
AcDbEntity
  8
部品1
100
AcDbLine
 10
6722.611119403649
 20
7945.766171212049
 30
0.0
 11
6722.611119403649
 21
7919.766171212014
 31
0.0
  0
LINE
  5
1572D
330
747D
100
AcDbEntity
  8
部品1
 48
5.0
100
AcDbLine
 10
6634.61111940365
 20
7949.266171212028
 30
0.0
 11
6634.61111940365
 21
7919.766171212028
 31
0.0
  0
LINE
  5
1572E
330
747D
100
AcDbEntity
  8
部品1
100
AcDbLine
 10
6634.611119403648
 20
7949.26617121197
 30
0.0
 11
6634.611119403645
 21
7919.766171212021
 31
0.0
  0
LINE
  5
1572F
330
747D
100
AcDbEntity
  8
部品1
 48
5.0
100
AcDbLine
 10
6634.61111940365
 20
7919.766171212028
 30
0.0
 11
6720.611119403649
 21
7919.766171212028
 31
0.0
  0
LINE
  5
15730
330
747D
100
AcDbEntity
  8
想像線
 48
10.0
100
AcDbLine
 10
7452.611119403647
 20
7919.766171212028
 30
0.0
 11
7452.611119403647
 21
7198.848527556238
 31
0.0
  0
ARC
  5
15731
330
747D
100
AcDbEntity
  8
部品1
 48
0.2
100
AcDbCircle
 10
7439.673567232327
 20
7920.76380116725
 30
0.0
 40
8.0
100
AcDbArc
 50
187.1636477221926
 51
269.9999999999992
  0
LINE
  5
15732
330
747D
100
AcDbEntity
  8
部品1
 48
5.0
100
AcDbLine
 10
7454.61111940365
 20
7949.266171212028
 30
0.0
 11
7454.61111940365
 21
7919.766171212028
 31
0.0
  0
LINE
  5
15733
330
747D
100
AcDbEntity
  8
部品1
 48
0.2
100
AcDbLine
 10
7439.673567232327
 20
7912.76380116725
 30
0.0
 11
7444.673567232327
 21
7912.76380116725
 31
0.0
  0
ARC
  5
15734
330
747D
100
AcDbEntity
  8
細線
 48
0.2
100
AcDbCircle
 10
7444.673567232327
 20
7920.76380116725
 30
0.0
 40
4.049999999999999
100
AcDbArc
 50
194.2603506853988
 51
345.7396493146012
  0
ARC
  5
15735
330
747D
100
AcDbEntity
  8
部品1
 48
0.2
100
AcDbCircle
 10
7444.673567232327
 20
7920.76380116725
 30
0.0
 40
8.0
100
AcDbArc
 50
270.0
 51
352.8363522778074
  0
LINE
  5
15736
330
747D
100
AcDbEntity
  8
部品1
100
AcDbLine
 10
7452.611119403647
 20
7945.766171212079
 30
0.0
 11
7452.611119403647
 21
7919.766171212021
 31
0.0
  0
LINE
  5
15737
330
747D
100
AcDbEntity
  8
部品1
 48
5.0
100
AcDbLine
 10
7584.61111940365
 20
7919.766171212028
 30
0.0
 11
7670.611119403649
 21
7919.766171212028
 31
0.0
  0
LINE
  5
15738
330
747D
100
AcDbEntity
  8
部品1
 48
5.0
100
AcDbLine
 10
7584.61111940365
 20
7949.266171212028
 30
0.0
 11
7584.61111940365
 21
7919.766171212028
 31
0.0
  0
LINE
  5
15739
330
747D
100
AcDbEntity
  8
部品1
100
AcDbLine
 10
7584.611119403648
 20
7949.26617121197
 30
0.0
 11
7584.611119403645
 21
7919.766171212021
 31
0.0
  0
LINE
  5
1573A
330
747D
100
AcDbEntity
  8
部品1
 48
5.0
100
AcDbLine
 10
7670.611119403649
 20
7949.266171212028
 30
0.0
 11
7670.611119403649
 21
7919.766171212028
 31
0.0
  0
LINE
  5
1573B
330
747D
100
AcDbEntity
  8
部品1
100
AcDbLine
 10
7672.611119403647
 20
7945.766171212021
 30
0.0
 11
7672.611119403646
 21
7919.766171212028
 31
0.0
  0
LINE
  5
1573C
330
747D
100
AcDbEntity
  8
部品1
100
AcDbLine
 10
7670.611119403649
 20
7949.266171211977
 30
0.0
 11
7670.611119403649
 21
7919.766171212028
 31
0.0
  0
LINE
  5
1573D
330
747D
100
AcDbEntity
  8
部品1
100
AcDbLine
 10
5756.61112608125
 20
9260.266171211963
 30
0.0
 11
6648.611126081251
 21
9260.266171212071
 31
0.0
  0
LINE
  5
1573E
330
747D
100
AcDbEntity
  8
部品1
100
AcDbLine
 10
5755.611119403654
 20
9261.766171211991
 30
0.0
 11
6674.991822422278
 21
9261.766171212014
 31
0.0
  0
LINE
  5
15740
330
747D
100
AcDbEntity
  8
部品1
100
AcDbLine
 10
5756.61112608125
 20
8810.266171211962
 30
0.0
 11
6648.611126081251
 21
8810.266171212065
 31
0.0
  0
LINE
  5
15741
330
747D
100
AcDbEntity
  8
部品1
100
AcDbLine
 10
6622.111689851812
 20
8051.265590392072
 30
0.0
 11
5784.112090830044
 21
8051.265088903546
 31
0.0
  0
LINE
  5
15742
330
747D
100
AcDbEntity
  8
破線
 48
10.0
100
AcDbLine
 10
6598.611119403642
 20
8074.766171212013
 30
0.0
 11
5807.611119403642
 21
8074.766171211999
 31
0.0
  0
LINE
  5
15743
330
747D
100
AcDbEntity
  8
細線
 48
50.0
100
AcDbLine
 10
6648.611126081251
 20
8810.266171212065
 30
0.0
 11
5756.61112608125
 21
9260.266171211963
 31
0.0
  0
LINE
  5
15744
330
747D
100
AcDbEntity
  8
細線
 48
50.0
100
AcDbLine
 10
6648.611126081251
 20
9260.266171212064
 30
0.0
 11
5756.61112608125
 21
8810.266171211962
 31
0.0
  0
LINE
  5
15745
330
747D
100
AcDbEntity
  8
部品1
 48
50.0
100
AcDbLine
 10
6202.111119403642
 20
8810.266171212013
 30
0.0
 11
6202.110956531538
 21
8051.265339048816
 31
0.0
  0
LINE
  5
15746
330
747D
100
AcDbEntity
  8
破線
 48
10.0
100
AcDbLine
 10
3907.611184328356
 20
8810.266171211999
 30
0.0
 11
3907.611171705335
 21
8667.266199466469
 31
0.0
  0
LINE
  5
15747
330
747D
100
AcDbEntity
  8
部品1
 48
5.0
100
AcDbLine
 10
3884.112090828612
 20
8051.266171212086
 30
0.0
 11
3884.111597897302
 21
8810.266171211999
 31
0.0
  0
LINE
  5
15748
330
747D
100
AcDbEntity
  8
部品1
100
AcDbLine
 10
3855.611119403631
 20
7974.766171211941
 30
0.0
 11
3855.611119403654
 21
9261.766171211991
 31
0.0
  0
LINE
  5
15749
330
747D
100
AcDbEntity
  8
部品1
 48
50.0
100
AcDbLine
 10
3884.112090830044
 20
8051.265088903546
 30
0.0
 11
3855.611119403631
 21
8022.245917971082
 31
0.0
  0
LINE
  5
1574A
330
747D
100
AcDbEntity
  8
部品1
 48
2.83
100
AcDbLine
 10
3827.61111940365
 20
7974.766171211911
 30
0.0
 11
3850.611119403649
 21
7974.766171211911
 31
0.0
  0
LINE
  5
1574B
330
747D
100
AcDbEntity
  8
部品1
 48
2.83
100
AcDbLine
 10
3859.61111940365
 20
7974.766171211911
 30
0.0
 11
3882.611119403649
 21
7974.766171211911
 31
0.0
  0
LINE
  5
1574C
330
747D
100
AcDbEntity
  8
部品1
100
AcDbLine
 10
3855.611119403631
 20
7974.766171211911
 30
0.0
 11
3827.611119403646
 21
7974.766171211911
 31
0.0
  0
LINE
  5
1574D
330
747D
100
AcDbEntity
  8
部品1
100
AcDbLine
 10
3855.611119403631
 20
7974.766171211941
 30
0.0
 11
3827.611119403646
 21
7974.766171211941
 31
0.0
  0
LINE
  5
1574E
330
747D
100
AcDbEntity
  8
部品1
100
AcDbLine
 10
3855.611119403646
 20
7974.766171211955
 30
0.0
 11
3827.611119403646
 21
7974.766171211955
 31
0.0
  0
LINE
  5
1574F
330
747D
100
AcDbEntity
  8
部品1
100
AcDbLine
 10
3855.61111940363
 20
8394.766171211955
 30
0.0
 11
3827.61111940363
 21
8394.766171211955
 31
0.0
  0
LINE
  5
15750
330
747D
100
AcDbEntity
  8
部品1
 48
50.0
100
AcDbLine
 10
3856.611126081251
 20
9260.266171211956
 30
0.0
 11
3856.611126081251
 21
8810.266171211962
 31
0.0
  0
LINE
  5
15751
330
747D
100
AcDbEntity
  8
部品1
100
AcDbLine
 10
3855.61111940363
 20
8814.766171211955
 30
0.0
 11
3827.61111940363
 21
8814.766171211955
 31
0.0
  0
LINE
  5
15752
330
747D
100
AcDbEntity
  8
部品1
 48
50.0
100
AcDbLine
 10
3857.111126081243
 20
9260.266171211963
 30
0.0
 11
3855.611119403621
 21
9261.766171211956
 31
0.0
  0
LINE
  5
15753
330
747D
100
AcDbEntity
  8
部品1
100
AcDbLine
 10
3882.61111940362
 20
9289.766171211956
 30
0.0
 11
3882.611119403622
 21
9261.766171211956
 31
0.0
  0
LINE
  5
15754
330
747D
100
AcDbEntity
  8
部品1
100
AcDbLine
 10
3882.611119403655
 20
9289.766171211992
 30
0.0
 11
3882.611119403655
 21
9261.766171211991
 31
0.0
  0
LINE
  5
15755
330
747D
100
AcDbEntity
  8
部品1
100
AcDbLine
 10
3855.611119403622
 20
9234.766171211964
 30
0.0
 11
3827.611119403622
 21
9234.766171211964
 31
0.0
  0
LINE
  5
15756
330
747D
100
AcDbEntity
  8
部品1
100
AcDbLine
 10
6202.111119403586
 20
9289.766171211949
 30
0.0
 11
6202.111119403587
 21
9261.766171211949
 31
0.0
  0
LINE
  5
15757
330
747D
100
AcDbEntity
  8
部品1
100
AcDbLine
 10
6202.11111940362
 20
9289.766171211985
 30
0.0
 11
6202.11111940362
 21
9261.766171211984
 31
0.0
  0
LINE
  5
15758
330
747D
100
AcDbEntity
  8
部品1
 48
50.0
100
AcDbLine
 10
7683.111113059347
 20
8051.266171236694
 30
0.0
 11
7683.111116032211
 21
8810.266171212035
 31
0.0
  0
LINE
  5
15759
330
747D
100
AcDbEntity
  8
部品1
 48
50.0
100
AcDbLine
 10
7572.111119403633
 20
8051.266171212034
 30
0.0
 11
7572.11111940361
 21
8810.266171212093
 31
0.0
  0
LINE
  5
1575A
330
747D
100
AcDbEntity
  8
破線
 48
10.0
100
AcDbLine
 10
7548.611119403642
 20
8074.766171212035
 30
0.0
 11
7548.611113241378
 21
8617.266049175064
 31
0.0
  0
LINE
  5
1575B
330
747D
100
AcDbEntity
  8
破線
 48
10.0
100
AcDbLine
 10
7706.611119403643
 20
8074.766171212043
 30
0.0
 11
7706.611110234537
 21
8617.26604265322
 31
0.0
  0
LINE
  5
1575C
330
747D
100
AcDbEntity
  8
部品1
 48
50.0
100
AcDbLine
 10
7152.111119403642
 20
8810.266171212013
 30
0.0
 11
7152.110956531538
 21
8051.265339048816
 31
0.0
  0
LINE
  5
1575D
330
747D
100
AcDbEntity
  8
部品1
 48
50.0
100
AcDbLine
 10
6733.111113059347
 20
8051.266171236694
 30
0.0
 11
6733.111116032211
 21
8810.266171212035
 31
0.0
  0
LINE
  5
1575E
330
747D
100
AcDbEntity
  8
破線
 48
10.0
100
AcDbLine
 10
6756.611119403642
 20
8074.766171212043
 30
0.0
 11
6756.611110234537
 21
8617.266081866851
 31
0.0
  0
LINE
  5
1575F
330
747D
100
AcDbEntity
  8
部品1
 48
50.0
100
AcDbLine
 10
6622.111119403633
 20
8051.266171212034
 30
0.0
 11
6622.111119403609
 21
8810.266171212093
 31
0.0
  0
LINE
  5
15760
330
747D
100
AcDbEntity
  8
破線
 48
10.0
100
AcDbLine
 10
6598.611119403642
 20
8074.766171212035
 30
0.0
 11
6598.611113241379
 21
8617.266088388699
 31
0.0
  0
LINE
  5
15762
330
747D
100
AcDbEntity
  8
部品1
 48
50.0
100
AcDbLine
 10
6677.611119403635
 20
7974.766171212028
 30
0.0
 11
6677.611119403635
 21
9234.766171212035
 31
0.0
  0
LINE
  5
15763
330
747D
100
AcDbEntity
  8
部品1
 48
50.0
100
AcDbLine
 10
6649.611119403634
 20
7974.766171212028
 30
0.0
 11
6649.61111940358
 21
9261.766171212036
 31
0.0
  0
LINE
  5
15764
330
747D
100
AcDbEntity
  8
部品1
 48
50.0
100
AcDbLine
 10
6705.611119403634
 20
7974.766171212028
 30
0.0
 11
6705.611119403581
 21
9289.766171212034
 31
0.0
  0
LINE
  5
15765
330
747D
100
AcDbEntity
  8
部品1
 48
50.0
100
AcDbLine
 10
7627.611119403635
 20
7974.766171212028
 30
0.0
 11
7627.611119403635
 21
9234.766171212035
 31
0.0
  0
LINE
  5
15766
330
747D
100
AcDbEntity
  8
部品1
 48
50.0
100
AcDbLine
 10
7599.611119403634
 20
7974.766171212028
 30
0.0
 11
7599.61111940358
 21
9261.766171212036
 31
0.0
  0
LINE
  5
15767
330
747D
100
AcDbEntity
  8
部品1
 48
50.0
100
AcDbLine
 10
7655.611119403634
 20
7974.766171212028
 30
0.0
 11
7655.61111940358
 21
9289.766171212034
 31
0.0
  0
LINE
  5
15768
330
747D
100
AcDbEntity
  8
部品1
100
AcDbLine
 10
7572.111119403633
 20
8051.266171212034
 30
0.0
 11
6733.110626149752
 21
8051.265669014563
 31
0.0
  0
LINE
  5
15769
330
747D
100
AcDbEntity
  8
破線
 48
10.0
100
AcDbLine
 10
7548.611119403642
 20
8074.766171212035
 30
0.0
 11
6756.611119403642
 21
8074.76617121202
 31
0.0
  0
LINE
  5
1576A
330
747D
100
AcDbEntity
  8
部品1
 48
5.0
100
AcDbLine
 10
6649.611119403634
 20
7974.766171212028
 30
0.0
 11
6705.611119403634
 21
7974.766171212028
 31
0.0
  0
LINE
  5
1576B
330
747D
100
AcDbEntity
  8
部品1
 48
50.0
100
AcDbLine
 10
6733.111119403631
 20
8051.266171236701
 30
0.0
 11
6705.611119403634
 21
8023.266171212027
 31
0.0
  0
LINE
  5
1576C
330
747D
100
AcDbEntity
  8
部品1
 48
5.0
100
AcDbLine
 10
6709.61111940365
 20
7974.766171212028
 30
0.0
 11
6732.611119403649
 21
7974.766171212028
 31
0.0
  0
LINE
  5
1576D
330
747D
100
AcDbEntity
  8
部品1
 48
5.0
100
AcDbLine
 10
6645.61111940365
 20
7974.766171212028
 30
0.0
 11
6622.611119403649
 21
7974.766171212028
 31
0.0
  0
LINE
  5
1576E
330
747D
100
AcDbEntity
  8
部品1
 48
50.0
100
AcDbLine
 10
6649.611119403634
 20
8023.266171212027
 30
0.0
 11
6622.111119403633
 21
8051.266171212034
 31
0.0
  0
LINE
  5
1576F
330
747D
100
AcDbEntity
  8
部品1
 48
5.0
100
AcDbLine
 10
6677.611119403635
 20
8394.766171212028
 30
0.0
 11
6649.611119403582
 21
8394.766171212035
 31
0.0
  0
LINE
  5
15770
330
747D
100
AcDbEntity
  8
部品1
 48
50.0
100
AcDbLine
 10
7599.611119403634
 20
8023.266171212027
 30
0.0
 11
7572.111119403633
 21
8051.266171212034
 31
0.0
  0
LINE
  5
15771
330
747D
100
AcDbEntity
  8
部品1
 48
5.0
100
AcDbLine
 10
7595.611119403649
 20
7974.766171212028
 30
0.0
 11
7572.611119403649
 21
7974.766171212028
 31
0.0
  0
LINE
  5
15772
330
747D
100
AcDbEntity
  8
部品1
 48
50.0
100
AcDbLine
 10
7683.111119403631
 20
8051.266171236701
 30
0.0
 11
7655.611119403634
 21
8023.266171212027
 31
0.0
  0
LINE
  5
15773
330
747D
100
AcDbEntity
  8
部品1
 48
5.0
100
AcDbLine
 10
7659.611119403649
 20
7974.766171212028
 30
0.0
 11
7682.61111940365
 21
7974.766171212028
 31
0.0
  0
LINE
  5
15774
330
747D
100
AcDbEntity
  8
部品1
 48
5.0
100
AcDbLine
 10
7599.611119403634
 20
7974.766171212028
 30
0.0
 11
7655.611119403634
 21
7974.766171212028
 31
0.0
  0
LINE
  5
15775
330
747D
100
AcDbEntity
  8
部品1
 48
5.0
100
AcDbLine
 10
7627.611119403635
 20
8394.766171212028
 30
0.0
 11
7599.611119403582
 21
8394.766171212035
 31
0.0
  0
LINE
  5
15776
330
747D
100
AcDbEntity
  8
部品1
100
AcDbLine
 10
6706.61112608125
 20
9260.266171211963
 30
0.0
 11
7598.611126081251
 21
9260.266171212071
 31
0.0
  0
LINE
  5
15777
330
747D
100
AcDbEntity
  8
部品1
100
AcDbLine
 10
6705.611119403602
 20
9261.766171212014
 30
0.0
 11
7624.991822422257
 21
9261.766171212036
 31
0.0
  0
LINE
  5
15778
330
747D
100
AcDbEntity
  8
部品1
100
AcDbLine
 10
6706.61112608125
 20
8810.266171211962
 30
0.0
 11
7598.611126081251
 21
8810.266171212065
 31
0.0
  0
LINE
  5
15779
330
747D
100
AcDbEntity
  8
細線
 48
50.0
100
AcDbLine
 10
7598.611126081251
 20
8810.266171212065
 30
0.0
 11
6706.61112608125
 21
9260.266171211963
 31
0.0
  0
LINE
  5
1577A
330
747D
100
AcDbEntity
  8
細線
 48
50.0
100
AcDbLine
 10
7598.611126081251
 20
9260.266171212064
 30
0.0
 11
6706.61112608125
 21
8810.266171211962
 31
0.0
  0
LINE
  5
1577B
330
747D
100
AcDbEntity
  8
部品1
 48
50.0
100
AcDbLine
 10
6706.61112608125
 20
9260.266171211956
 30
0.0
 11
6706.61112608125
 21
8810.266171211962
 31
0.0
  0
LINE
  5
1577C
330
747D
100
AcDbEntity
  8
部品1
 48
50.0
100
AcDbLine
 10
6648.611126081251
 20
9260.266171212064
 30
0.0
 11
6648.611126081251
 21
8810.266171212065
 31
0.0
  0
LINE
  5
1577D
330
747D
100
AcDbEntity
  8
部品1
 48
50.0
100
AcDbLine
 10
6677.611119403626
 20
8852.766171212035
 30
0.0
 11
6705.611119403609
 21
8852.766171212035
 31
0.0
  0
LINE
  5
1577E
330
747D
100
AcDbEntity
  8
部品1
 48
50.0
100
AcDbLine
 10
6677.611119403626
 20
8814.766171212035
 30
0.0
 11
6705.611119403609
 21
8814.766171212035
 31
0.0
  0
LINE
  5
1577F
330
747D
100
AcDbEntity
  8
部品1
 48
5.0
100
AcDbLine
 10
6677.611119403635
 20
8814.766171212028
 30
0.0
 11
6649.611119403582
 21
8814.766171212035
 31
0.0
  0
LINE
  5
15780
330
747D
100
AcDbEntity
  8
部品1
 48
50.0
100
AcDbLine
 10
6707.111126081243
 20
9260.266171211963
 30
0.0
 11
6705.61111940362
 21
9261.766171211956
 31
0.0
  0
LINE
  5
15781
330
747D
100
AcDbEntity
  8
部品1
 48
50.0
100
AcDbLine
 10
6648.163726891671
 20
9260.266171212071
 30
0.0
 11
6649.611119403548
 21
9261.766171212
 31
0.0
  0
LINE
  5
15782
330
747D
100
AcDbEntity
  8
部品1
 48
5.0
100
AcDbLine
 10
6732.611119403657
 20
9289.766171212034
 30
0.0
 11
6732.611119403653
 21
9261.766171212043
 31
0.0
  0
LINE
  5
15783
330
747D
100
AcDbEntity
  8
部品1
 48
5.0
100
AcDbLine
 10
6705.611119403584
 20
9234.766171212035
 30
0.0
 11
6649.611119403582
 21
9234.766171212035
 31
0.0
  0
LINE
  5
15784
330
747D
100
AcDbEntity
  8
部品1
 48
5.0
100
AcDbLine
 10
6652.320393850828
 20
9289.766171212034
 30
0.0
 11
6674.991822422256
 21
9261.766171212036
 31
0.0
  0
LINE
  5
15785
330
747D
100
AcDbEntity
  8
部品1
 48
5.0
100
AcDbLine
 10
6622.611119403654
 20
9261.766171212036
 30
0.0
 11
6622.611119403654
 21
9289.766171212034
 31
0.0
  0
LINE
  5
15786
330
747D
100
AcDbEntity
  8
部品1
100
AcDbLine
 10
7152.11111940362
 20
9289.766171212072
 30
0.0
 11
7152.11111940362
 21
9261.766171212071
 31
0.0
  0
LINE
  5
15787
330
747D
100
AcDbEntity
  8
部品1
100
AcDbLine
 10
7152.111119403585
 20
9289.766171212034
 30
0.0
 11
7152.111119403588
 21
9261.766171212036
 31
0.0
  0
LINE
  5
15788
330
747D
100
AcDbEntity
  8
部品1
 48
50.0
100
AcDbLine
 10
7656.611126081251
 20
9260.266171211956
 30
0.0
 11
7656.611126081251
 21
8810.266171211962
 31
0.0
  0
LINE
  5
15789
330
747D
100
AcDbEntity
  8
部品1
 48
50.0
100
AcDbLine
 10
7598.611126081251
 20
9260.266171212064
 30
0.0
 11
7598.611126081251
 21
8810.266171212065
 31
0.0
  0
LINE
  5
1578A
330
747D
100
AcDbEntity
  8
部品1
 48
50.0
100
AcDbLine
 10
7627.611119403626
 20
8852.766171212035
 30
0.0
 11
7655.611119403609
 21
8852.766171212035
 31
0.0
  0
LINE
  5
1578B
330
747D
100
AcDbEntity
  8
部品1
 48
50.0
100
AcDbLine
 10
7627.611119403626
 20
8814.766171212035
 30
0.0
 11
7655.611119403609
 21
8814.766171212035
 31
0.0
  0
LINE
  5
1578C
330
747D
100
AcDbEntity
  8
部品1
 48
5.0
100
AcDbLine
 10
7627.611119403635
 20
8814.766171212028
 30
0.0
 11
7599.611119403582
 21
8814.766171212035
 31
0.0
  0
LINE
  5
1578D
330
747D
100
AcDbEntity
  8
部品1
 48
5.0
100
AcDbLine
 10
7572.611119403653
 20
9261.766171212036
 30
0.0
 11
7572.611119403653
 21
9289.766171212034
 31
0.0
  0
LINE
  5
1578E
330
747D
100
AcDbEntity
  8
部品1
 48
50.0
100
AcDbLine
 10
7657.111126081243
 20
9260.266171211963
 30
0.0
 11
7655.61111940362
 21
9261.766171211956
 31
0.0
  0
LINE
  5
1578F
330
747D
100
AcDbEntity
  8
部品1
 48
50.0
100
AcDbLine
 10
7598.163726891671
 20
9260.266171212071
 30
0.0
 11
7599.611119403547
 21
9261.766171212
 31
0.0
  0
LINE
  5
15790
330
747D
100
AcDbEntity
  8
部品1
 48
5.0
100
AcDbLine
 10
7655.611119403584
 20
9234.766171212035
 30
0.0
 11
7599.611119403582
 21
9234.766171212035
 31
0.0
  0
LINE
  5
15791
330
747D
100
AcDbEntity
  8
部品1
 48
5.0
100
AcDbLine
 10
7602.320393850829
 20
9289.766171212034
 30
0.0
 11
7624.991822422257
 21
9261.766171212036
 31
0.0
  0
LINE
  5
15792
330
747D
100
AcDbEntity
  8
部品1
 48
5.0
100
AcDbLine
 10
7682.611119403657
 20
9289.766171212034
 30
0.0
 11
7682.611119403652
 21
9261.766171212043
 31
0.0
  0
LINE
  5
15793
330
747D
100
AcDbEntity
  8
部品1
 48
2.83
100
AcDbLine
 10
8522.611119403631
 20
7974.766171212043
 30
0.0
 11
8522.611119403629
 21
7949.266171212042
 31
0.0
  0
DIMENSION
  5
15794
330
747D
100
AcDbEntity
  8
寸法
100
AcDbDimension
  2
*D11
 10
9225.037465138042
 20
7919.766171212072
 30
0.0
 11
9225.037465138042
 21
7541.90470430721
 31
0.0
 70
   160
 71
     5
 42
55.0
  3
INABA_S40G
100
AcDbAlignedDimension
 13
8577.611119403632
 23
7974.766171212071
 33
0.0
 14
8577.611119403632
 24
7919.766171212072
 34
0.0
 50
90.0
100
AcDbRotatedDimension
1001
ACAD
1000
DSTYLE
1002
{
1002
}
  0
DIMENSION
  5
15795
330
747D
100
AcDbEntity
  8
寸法
100
AcDbDimension
  2
*D12
 10
9534.148995953746
 20
7919.766171212072
 30
0.0
 11
9534.148995953742
 21
8604.766171212078
 31
0.0
 70
   160
 71
     5
 42
1370.000000000014
  3
INABA_S40G
100
AcDbAlignedDimension
 13
8577.611119403657
 23
9289.766171212086
 33
0.0
 14
8577.611119403632
 24
7919.766171212072
 34
0.0
 50
90.0
100
AcDbRotatedDimension
1001
ACAD
1000
DSTYLE
1002
{
1002
}
  0
LINE
  5
15796
330
747D
100
AcDbEntity
  8
部品1
100
AcDbLine
 10
8577.611119403657
 20
9289.766171212086
 30
0.0
 11
8577.611119403632
 21
7919.766171212072
 31
0.0
  0
LINE
  5
15797
330
747D
100
AcDbEntity
  8
想像線
 48
10.0
100
AcDbLine
 10
8402.611119403648
 20
7919.766171212035
 30
0.0
 11
8402.611119403648
 21
7198.848527556245
 31
0.0
  0
LINE
  5
15798
330
747D
100
AcDbEntity
  8
部品1
 48
2.83
100
AcDbLine
 10
8404.611119403631
 20
7949.266171212042
 30
0.0
 11
8404.611119403631
 21
7919.766171212042
 31
0.0
  0
ARC
  5
15799
330
747D
100
AcDbEntity
  8
細線
 48
0.2
100
AcDbCircle
 10
8394.673567232327
 20
7920.763801167264
 30
0.0
 40
4.049999999999999
100
AcDbArc
 50
194.2603506853988
 51
345.7396493146012
  0
ARC
  5
1579A
330
747D
100
AcDbEntity
  8
部品1
 48
0.2
100
AcDbCircle
 10
8389.673567232327
 20
7920.763801167264
 30
0.0
 40
8.0
100
AcDbArc
 50
187.1636477221926
 51
269.9999999999992
  0
ARC
  5
1579B
330
747D
100
AcDbEntity
  8
部品1
 48
0.2
100
AcDbCircle
 10
8394.673567232327
 20
7920.763801167264
 30
0.0
 40
8.0
100
AcDbArc
 50
270.0
 51
352.8363522778074
  0
LINE
  5
1579C
330
747D
100
AcDbEntity
  8
部品1
 48
0.2
100
AcDbLine
 10
8389.673567232327
 20
7912.763801167264
 30
0.0
 11
8394.673567232327
 21
7912.763801167264
 31
0.0
  0
LINE
  5
1579D
330
747D
100
AcDbEntity
  8
部品1
100
AcDbLine
 10
8402.611119403648
 20
7945.766171212079
 30
0.0
 11
8402.611119403649
 21
7919.766171212072
 31
0.0
  0
LINE
  5
1579E
330
747D
100
AcDbEntity
  8
部品1
 48
2.83
100
AcDbLine
 10
8534.61111940363
 20
7949.266171212042
 30
0.0
 11
8534.61111940363
 21
7919.766171212042
 31
0.0
  0
DIMENSION
  5
1579F
330
747D
100
AcDbEntity
  8
寸法
100
AcDbDimension
  2
*D13
 10
9225.037465138068
 20
7974.766171212071
 30
0.0
 11
9225.037465138067
 21
8604.766171212078
 31
0.0
 70
   160
  1
3X420=<>
 71
     5
 42
1260.000000000014
  3
INABA_S40G
100
AcDbAlignedDimension
 13
8577.611119403657
 23
9234.766171212086
 33
0.0
 14
8577.611119403632
 24
7974.766171212071
 34
0.0
 50
90.0
100
AcDbRotatedDimension
1001
ACAD
1000
DSTYLE
1002
{
1002
}
  0
LINE
  5
157A0
330
747D
100
AcDbEntity
  8
部品1
 48
5.0
100
AcDbLine
 10
8521.110147978699
 20
8051.266171212086
 30
0.0
 11
8521.110640910011
 21
8810.266171212028
 31
0.0
  0
LINE
  5
157A1
330
747D
100
AcDbEntity
  8
破線
 48
10.0
100
AcDbLine
 10
8497.611184328324
 20
8810.266171212035
 30
0.0
 11
8497.611171705292
 21
8667.266010002698
 31
0.0
  0
LINE
  5
157A2
330
747D
100
AcDbEntity
  8
部品1
 48
50.0
100
AcDbLine
 10
8102.111119403643
 20
8810.266171212013
 30
0.0
 11
8102.110956531538
 21
8051.265339048816
 31
0.0
  0
DIMENSION
  5
157A3
330
747D
100
AcDbEntity
  8
寸法
100
AcDbDimension
  2
*D14
 10
8903.968851943291
 20
8715.048355543075
 30
0.0
 11
8903.96885194329
 21
8940.048355543066
 31
0.0
 70
   160
 71
     5
 42
449.9999999999927
  3
INABA_S40G
100
AcDbAlignedDimension
 13
8548.611126081263
 23
9260.266171211956
 33
0.0
 14
8548.611126081274
 24
8810.266171211962
 34
0.0
 50
90.0
100
AcDbRotatedDimension
1001
ACAD
1000
DSTYLE
1002
{
1002
}
  0
LINE
  5
157A4
330
747D
100
AcDbEntity
  8
部品1
100
AcDbLine
 10
8549.611119403657
 20
9261.766171212086
 30
0.0
 11
8549.611119403632
 21
7974.766171212071
 31
0.0
  0
LINE
  5
157A5
330
747D
100
AcDbEntity
  8
部品1
 48
50.0
100
AcDbLine
 10
8549.611119403632
 20
8022.247106019674
 30
0.0
 11
8521.11014797884
 21
8051.266276924925
 31
0.0
  0
LINE
  5
157A6
330
747D
100
AcDbEntity
  8
部品1
 48
2.83
100
AcDbLine
 10
8545.611119403629
 20
7974.766171212043
 30
0.0
 11
8522.611119403629
 21
7974.766171212043
 31
0.0
  0
LINE
  5
157A7
330
747D
100
AcDbEntity
  8
部品1
 48
2.83
100
AcDbLine
 10
8577.611119403629
 20
7974.766171212043
 30
0.0
 11
8554.611119403629
 21
7974.766171212043
 31
0.0
  0
LINE
  5
157A8
330
747D
100
AcDbEntity
  8
部品1
100
AcDbLine
 10
8549.611119403632
 20
7974.766171212071
 30
0.0
 11
8577.611119403632
 21
7974.766171212071
 31
0.0
  0
LINE
  5
157A9
330
747D
100
AcDbEntity
  8
部品1
100
AcDbLine
 10
8549.611119403664
 20
7974.766171212086
 30
0.0
 11
8577.611119403664
 21
7974.766171212086
 31
0.0
  0
LINE
  5
157AA
330
747D
100
AcDbEntity
  8
部品1
100
AcDbLine
 10
8549.611119403657
 20
8394.766171212086
 30
0.0
 11
8577.611119403657
 21
8394.766171212086
 31
0.0
  0
LINE
  5
157AB
330
747D
100
AcDbEntity
  8
部品1
100
AcDbLine
 10
8102.111119403589
 20
9289.7661712121
 30
0.0
 11
8102.111119403591
 21
9261.7661712121
 31
0.0
  0
LINE
  5
157AC
330
747D
100
AcDbEntity
  8
部品1
100
AcDbLine
 10
8102.111119403623
 20
9289.766171212137
 30
0.0
 11
8102.111119403623
 21
9261.766171212137
 31
0.0
  0
LINE
  5
157AD
330
747D
100
AcDbEntity
  8
部品1
 48
50.0
100
AcDbLine
 10
8548.611126081251
 20
9260.266171212064
 30
0.0
 11
8548.611126081251
 21
8810.266171212065
 31
0.0
  0
LINE
  5
157AE
330
747D
100
AcDbEntity
  8
部品1
100
AcDbLine
 10
8549.611119403657
 20
8814.766171212086
 30
0.0
 11
8577.611119403657
 21
8814.766171212086
 31
0.0
  0
LINE
  5
157AF
330
747D
100
AcDbEntity
  8
部品1
 48
50.0
100
AcDbLine
 10
8548.163726891671
 20
9260.266171212071
 30
0.0
 11
8549.611119403548
 21
9261.766171212
 31
0.0
  0
LINE
  5
157B0
330
747D
100
AcDbEntity
  8
部品1
100
AcDbLine
 10
8522.611119403656
 20
9289.766171212086
 30
0.0
 11
8522.611119403656
 21
9261.766171212086
 31
0.0
  0
LINE
  5
157B1
330
747D
100
AcDbEntity
  8
部品1
100
AcDbLine
 10
8522.611119403656
 20
9289.7661712121
 30
0.0
 11
8522.611119403656
 21
9261.7661712121
 31
0.0
  0
LINE
  5
157B2
330
747D
100
AcDbEntity
  8
部品1
100
AcDbLine
 10
8549.611119403657
 20
9234.766171212086
 30
0.0
 11
8577.611119403657
 21
9234.766171212086
 31
0.0
  0
LINE
  5
157B3
330
747D
100
AcDbEntity
  8
部品1
100
AcDbLine
 10
6722.611119403649
 20
4970.477532997411
 30
0.0
 11
7432.548671574969
 21
4970.477532997413
 31
0.0
  0
LINE
  5
157B4
330
747D
100
AcDbEntity
  8
部品1
100
AcDbLine
 10
6722.611119403649
 20
3179.477532997426
 30
0.0
 11
7432.548671574969
 21
3179.477532997431
 31
0.0
  0
LINE
  5
157B5
330
747D
100
AcDbEntity
  8
部品1
100
AcDbLine
 10
3827.61111940365
 20
4972.977532997413
 30
0.0
 11
8577.611119403648
 21
4972.977532997413
 31
0.0
  0
LINE
  5
157BC
330
747D
100
AcDbEntity
  8
部品1
100
AcDbLine
 10
3827.61111940365
 20
3132.977532997413
 30
0.0
 11
8577.611119403648
 21
3132.977532997413
 31
0.0
  0
LINE
  5
157BD
330
747D
100
AcDbEntity
  8
部品1
100
AcDbLine
 10
3827.61111940365
 20
3175.977532997416
 30
0.0
 11
8577.611119403648
 21
3175.977532997433
 31
0.0
  0
LINE
  5
157BE
330
747D
100
AcDbEntity
  8
部品1
100
AcDbLine
 10
6720.611119403649
 20
4972.977532997413
 30
0.0
 11
6720.611119403649
 21
3175.977532997433
 31
0.0
  0
LINE
  5
157BF
330
747D
100
AcDbEntity
  8
部品1
100
AcDbLine
 10
6722.611119403649
 20
4970.477532997413
 30
0.0
 11
6722.611119403649
 21
3179.477532997428
 31
0.0
  0
LINE
  5
157C0
330
747D
100
AcDbEntity
  8
部品1
100
AcDbLine
 10
3870.61111940365
 20
4972.977532997413
 30
0.0
 11
3870.61111940365
 21
3175.977532997433
 31
0.0
  0
LINE
  5
157C1
330
747D
100
AcDbEntity
  8
部品1
100
AcDbLine
 10
3827.61111940365
 20
5066.977532997417
 30
0.0
 11
3827.61111940365
 21
3032.977532997413
 31
0.0
  0
LINE
  5
157C2
330
747D
100
AcDbEntity
  8
部品1
100
AcDbLine
 10
3872.611119403649
 20
4970.477532997416
 30
0.0
 11
3872.611119403649
 21
3179.477532997418
 31
0.0
  0
LINE
  5
157C3
330
747D
100
AcDbEntity
  8
部品1
100
AcDbLine
 10
6502.611119403647
 20
4970.477532997413
 30
0.0
 11
6502.611119403649
 21
3179.477532997433
 31
0.0
  0
LINE
  5
157C4
330
747D
100
AcDbEntity
  8
部品1
100
AcDbLine
 10
6634.61111940365
 20
4972.977532997413
 30
0.0
 11
6634.61111940365
 21
3175.977532997433
 31
0.0
  0
DIMENSION
  5
157C5
330
747D
100
AcDbEntity
  8
寸法
100
AcDbDimension
  2
*D15
 10
3509.506591796046
 20
3194.477532997417
 30
0.0
 11
3509.506591796045
 21
4073.477532997414
 31
0.0
 70
   160
  1
有効開口部高サ<>
 71
     5
 42
1759.999999999996
  3
INABA_S40G
100
AcDbAlignedDimension
 13
3827.61111940365
 23
4954.477532997413
 33
0.0
 14
3827.61111940365
 24
3194.477532997417
 34
0.0
 50
90.0
100
AcDbRotatedDimension
1001
ACAD
1000
DSTYLE
1002
{
1070
   288
1070
     1
1002
}
  0
LINE
  5
157C6
330
747D
100
AcDbEntity
  8
部品1
100
AcDbLine
 10
6504.61111940365
 20
4972.977532997413
 30
0.0
 11
6504.61111940365
 21
3175.977532997433
 31
0.0
  0
LINE
  5
157C7
330
747D
100
AcDbEntity
  8
部品1
100
AcDbLine
 10
5772.611119403649
 20
3179.477532997418
 30
0.0
 11
6482.548671574969
 21
3179.477532997433
 31
0.0
  0
LINE
  5
157C9
330
747D
100
AcDbEntity
  8
部品1
100
AcDbLine
 10
6502.548671574968
 20
3179.477532997424
 30
0.0
 11
6502.611119403649
 21
3179.477532997424
 31
0.0
  0
LINE
  5
157CA
330
747D
100
AcDbEntity
  8
部品1
100
AcDbLine
 10
6502.548671574968
 20
3179.477532997433
 30
0.0
 11
6502.611119403649
 21
3179.477532997433
 31
0.0
  0
ARC
  5
157CB
330
747D
100
AcDbEntity
  8
細線
 48
0.2
100
AcDbCircle
 10
6499.548671574969
 20
3179.257023166183
 30
0.0
 40
1.0
100
AcDbArc
 50
286.6015495990217
 51
0.0
  0
LINE
  5
157CC
330
747D
100
AcDbEntity
  8
細線
 48
50.0
100
AcDbLine
 10
6498.536324426628
 20
3181.727532997433
 30
0.0
 11
6498.536324426628
 21
3183.727532997431
 31
0.0
  0
LINE
  5
157CD
330
747D
100
AcDbEntity
  8
細線
 48
0.1
100
AcDbLine
 10
6502.548671574968
 20
3179.227532997431
 30
0.0
 11
6502.548671574968
 21
3186.227532997431
 31
0.0
  0
LINE
  5
157CE
330
747D
100
AcDbEntity
  8
細線
 48
50.0
100
AcDbLine
 10
6482.548671574969
 20
3179.477532997433
 30
0.0
 11
6482.548671574969
 21
3179.227532997431
 31
0.0
  0
ARC
  5
157CF
330
747D
100
AcDbEntity
  8
細線
 48
0.2
100
AcDbCircle
 10
6489.548671574969
 20
3179.257023166183
 30
0.0
 40
1.0
100
AcDbArc
 50
179.9999999999984
 51
253.3984504009775
  0
LINE
  5
157D0
330
747D
100
AcDbEntity
  8
部品1
 48
50.0
100
AcDbLine
 10
6482.548671574969
 20
3186.227532997431
 30
0.0
 11
6482.548671574969
 21
3179.477532997433
 31
0.0
  0
LINE
  5
157D1
330
747D
100
AcDbEntity
  8
細線
 48
50.0
100
AcDbLine
 10
6490.685914380666
 20
3181.727532997433
 30
0.0
 11
6490.685914380666
 21
3183.727532997431
 31
0.0
  0
LINE
  5
157D2
330
747D
100
AcDbEntity
  8
部品1
 48
0.2
100
AcDbLine
 10
6502.548671574968
 20
3186.227532997431
 30
0.0
 11
6482.548671574969
 21
3186.227532997431
 31
0.0
  0
LINE
  5
157D3
330
747D
100
AcDbEntity
  8
細線
 48
0.2
100
AcDbLine
 10
6502.548671574968
 20
3183.727532997431
 30
0.0
 11
6482.548671574969
 21
3183.727532997431
 31
0.0
  0
LINE
  5
157D4
330
747D
100
AcDbEntity
  8
細線
 48
0.2
100
AcDbLine
 10
6500.232662871477
 20
3178.52753299743
 30
0.0
 11
6488.864680278465
 21
3178.52753299743
 31
0.0
  0
ARC
  5
157D5
330
747D
100
AcDbEntity
  8
細線
 48
0.2
100
AcDbCircle
 10
6494.548671574968
 20
3196.027532997428
 30
0.0
 40
18.49999999999796
100
AcDbArc
 50
253.3984504009772
 51
286.6015495990217
  0
LINE
  5
157D6
330
747D
100
AcDbEntity
  8
細線
 48
0.2
100
AcDbLine
 10
6502.548671574968
 20
3181.727532997431
 30
0.0
 11
6482.548671574969
 21
3181.727532997433
 31
0.0
  0
LINE
  5
157D7
330
747D
100
AcDbEntity
  8
細線
 48
0.2
100
AcDbLine
 10
6502.548671574968
 20
3179.227532997431
 30
0.0
 11
6482.548671574969
 21
3179.227532997431
 31
0.0
  0
LINE
  5
15828
330
747D
100
AcDbEntity
  8
部品1
100
AcDbLine
 10
5772.611119403649
 20
4970.477532997414
 30
0.0
 11
6482.548671574969
 21
4970.477532997414
 31
0.0
  0
LINE
  5
15829
330
747D
100
AcDbEntity
  8
部品1
100
AcDbLine
 10
6502.548671574968
 20
4970.477532997414
 30
0.0
 11
6502.611119403649
 21
4970.477532997413
 31
0.0
  0
ARC
  5
1582A
330
747D
100
AcDbEntity
  8
細線
 48
0.2
100
AcDbCircle
 10
6499.548671574969
 20
4970.698042828662
 30
0.0
 40
1.0
100
AcDbArc
 50
0.0
 51
73.39845040097829
  0
LINE
  5
1582B
330
747D
100
AcDbEntity
  8
細線
 48
50.0
100
AcDbLine
 10
6482.548671574969
 20
4970.477532997414
 30
0.0
 11
6482.548671574969
 21
4970.727532997415
 31
0.0
  0
ARC
  5
1582C
330
747D
100
AcDbEntity
  8
細線
 48
0.2
100
AcDbCircle
 10
6489.548671574969
 20
4970.698042828662
 30
0.0
 40
1.0
100
AcDbArc
 50
106.6015495990225
 51
180.0000000000016
  0
LINE
  5
1582D
330
747D
100
AcDbEntity
  8
細線
 48
0.2
100
AcDbLine
 10
6502.548671574968
 20
4970.727532997415
 30
0.0
 11
6482.548671574969
 21
4970.727532997415
 31
0.0
  0
LINE
  5
1582E
330
747D
100
AcDbEntity
  8
細線
 48
0.2
100
AcDbLine
 10
6502.548671574968
 20
4968.227532997414
 30
0.0
 11
6482.548671574969
 21
4968.227532997414
 31
0.0
  0
ARC
  5
1582F
330
747D
100
AcDbEntity
  8
細線
 48
0.2
100
AcDbCircle
 10
6494.548671574968
 20
4953.927532997417
 30
0.0
 40
18.49999999999796
100
AcDbArc
 50
73.39845040097829
 51
106.6015495990228
  0
LINE
  5
15830
330
747D
100
AcDbEntity
  8
細線
 48
0.2
100
AcDbLine
 10
6500.232662871477
 20
4971.427532997416
 30
0.0
 11
6488.864680278465
 21
4971.427532997416
 31
0.0
  0
LINE
  5
15831
330
747D
100
AcDbEntity
  8
細線
 48
0.2
100
AcDbLine
 10
6502.548671574968
 20
4966.227532997415
 30
0.0
 11
6482.548671574969
 21
4966.227532997415
 31
0.0
  0
LINE
  5
15832
330
747D
100
AcDbEntity
  8
部品1
 48
0.2
100
AcDbLine
 10
6502.548671574968
 20
4963.727532997414
 30
0.0
 11
6482.548671574969
 21
4963.727532997414
 31
0.0
  0
LINE
  5
15833
330
747D
100
AcDbEntity
  8
部品1
 48
50.0
100
AcDbLine
 10
6482.548671574969
 20
4963.727532997414
 30
0.0
 11
6482.548671574969
 21
4970.477532997414
 31
0.0
  0
LINE
  5
15834
330
747D
100
AcDbEntity
  8
細線
 48
50.0
100
AcDbLine
 10
6490.685914380666
 20
4968.227532997414
 30
0.0
 11
6490.685914380666
 21
4966.227532997415
 31
0.0
  0
LINE
  5
15835
330
747D
100
AcDbEntity
  8
細線
 48
0.1
100
AcDbLine
 10
6502.548671574968
 20
4970.727532997415
 30
0.0
 11
6502.548671574968
 21
4963.727532997414
 31
0.0
  0
LINE
  5
15836
330
747D
100
AcDbEntity
  8
細線
 48
50.0
100
AcDbLine
 10
6498.536324426628
 20
4968.227532997414
 30
0.0
 11
6498.536324426628
 21
4966.227532997415
 31
0.0
  0
LINE
  5
15851
330
747D
100
AcDbEntity
  8
部品1
100
AcDbLine
 10
7584.61111940365
 20
4972.977532997413
 30
0.0
 11
7584.61111940365
 21
3175.977532997433
 31
0.0
  0
LINE
  5
15852
330
747D
100
AcDbEntity
  8
部品1
100
AcDbLine
 10
7452.611119403648
 20
4970.477532997413
 30
0.0
 11
7452.611119403648
 21
3179.477532997435
 31
0.0
  0
LINE
  5
15853
330
747D
100
AcDbEntity
  8
部品1
100
AcDbLine
 10
7454.61111940365
 20
4972.977532997413
 30
0.0
 11
7454.61111940365
 21
3175.977532997433
 31
0.0
  0
LINE
  5
15854
330
747D
100
AcDbEntity
  8
部品1
100
AcDbLine
 10
7670.611119403649
 20
4972.977532997413
 30
0.0
 11
7670.611119403649
 21
3175.977532997433
 31
0.0
  0
LINE
  5
15855
330
747D
100
AcDbEntity
  8
部品1
100
AcDbLine
 10
7672.611119403649
 20
4970.477532997411
 30
0.0
 11
7672.611119403649
 21
3179.477532997428
 31
0.0
  0
LINE
  5
15856
330
747D
100
AcDbEntity
  8
部品1
100
AcDbLine
 10
8402.611119403648
 20
4970.477532997413
 30
0.0
 11
8402.611119403649
 21
3179.477532997435
 31
0.0
  0
LINE
  5
15857
330
747D
100
AcDbEntity
  8
部品1
100
AcDbLine
 10
8577.611119403648
 20
5066.977532997416
 30
0.0
 11
8577.611119403648
 21
3032.977532997413
 31
0.0
  0
LINE
  5
15858
330
747D
100
AcDbEntity
  8
部品1
100
AcDbLine
 10
8534.611119403649
 20
4972.977532997413
 30
0.0
 11
8534.611119403649
 21
3175.977532997433
 31
0.0
  0
LINE
  5
15859
330
747D
100
AcDbEntity
  8
部品1
100
AcDbLine
 10
8404.61111940365
 20
4972.977532997413
 30
0.0
 11
8404.61111940365
 21
3175.977532997433
 31
0.0
  0
LINE
  5
1585A
330
747D
100
AcDbEntity
  8
部品1
100
AcDbLine
 10
7672.611119403649
 20
3179.477532997426
 30
0.0
 11
8382.548671574969
 21
3179.477532997431
 31
0.0
  0
LINE
  5
1585C
330
747D
100
AcDbEntity
  8
細線
 48
0.2
100
AcDbLine
 10
7452.54867157497
 20
3183.727532997431
 30
0.0
 11
7432.548671574969
 21
3183.727532997431
 31
0.0
  0
LINE
  5
1585D
330
747D
100
AcDbEntity
  8
部品1
 48
0.2
100
AcDbLine
 10
7452.54867157497
 20
3186.227532997431
 30
0.0
 11
7432.548671574969
 21
3186.227532997431
 31
0.0
  0
LINE
  5
1585E
330
747D
100
AcDbEntity
  8
部品1
100
AcDbLine
 10
7452.54867157497
 20
3179.477532997433
 30
0.0
 11
7452.611119403648
 21
3179.477532997433
 31
0.0
  0
ARC
  5
1585F
330
747D
100
AcDbEntity
  8
細線
 48
0.2
100
AcDbCircle
 10
7449.548671574969
 20
3179.257023166183
 30
0.0
 40
1.0
100
AcDbArc
 50
286.6015495990217
 51
0.0
  0
LINE
  5
15860
330
747D
100
AcDbEntity
  8
細線
 48
0.2
100
AcDbLine
 10
7452.54867157497
 20
3179.227532997431
 30
0.0
 11
7432.548671574969
 21
3179.227532997431
 31
0.0
  0
LINE
  5
15861
330
747D
100
AcDbEntity
  8
細線
 48
0.2
100
AcDbLine
 10
7452.54867157497
 20
3181.727532997431
 30
0.0
 11
7432.548671574969
 21
3181.727532997433
 31
0.0
  0
ARC
  5
15862
330
747D
100
AcDbEntity
  8
細線
 48
0.2
100
AcDbCircle
 10
7439.548671574968
 20
3179.257023166183
 30
0.0
 40
1.0
100
AcDbArc
 50
179.9999999999984
 51
253.3984504009775
  0
ARC
  5
15863
330
747D
100
AcDbEntity
  8
細線
 48
0.2
100
AcDbCircle
 10
7444.548671574968
 20
3196.027532997428
 30
0.0
 40
18.49999999999796
100
AcDbArc
 50
253.3984504009772
 51
286.6015495990217
  0
LINE
  5
15864
330
747D
100
AcDbEntity
  8
細線
 48
0.2
100
AcDbLine
 10
7450.232662871477
 20
3178.52753299743
 30
0.0
 11
7438.864680278465
 21
3178.52753299743
 31
0.0
  0
LINE
  5
15865
330
747D
100
AcDbEntity
  8
細線
 48
50.0
100
AcDbLine
 10
7432.548671574969
 20
3179.477532997433
 30
0.0
 11
7432.548671574969
 21
3179.227532997431
 31
0.0
  0
LINE
  5
15866
330
747D
100
AcDbEntity
  8
部品1
100
AcDbLine
 10
7452.54867157497
 20
3179.477532997433
 30
0.0
 11
7452.611119403648
 21
3179.477532997433
 31
0.0
  0
LINE
  5
15867
330
747D
100
AcDbEntity
  8
部品1
100
AcDbLine
 10
7452.54867157497
 20
3179.477532997435
 30
0.0
 11
7452.611119403648
 21
3179.477532997435
 31
0.0
  0
LINE
  5
15868
330
747D
100
AcDbEntity
  8
細線
 48
0.1
100
AcDbLine
 10
7452.54867157497
 20
3179.227532997431
 30
0.0
 11
7452.54867157497
 21
3186.227532997431
 31
0.0
  0
LINE
  5
15869
330
747D
100
AcDbEntity
  8
細線
 48
50.0
100
AcDbLine
 10
7440.685914380665
 20
3181.727532997433
 30
0.0
 11
7440.685914380665
 21
3183.727532997431
 31
0.0
  0
LINE
  5
1586A
330
747D
100
AcDbEntity
  8
細線
 48
50.0
100
AcDbLine
 10
7448.536324426628
 20
3181.727532997433
 30
0.0
 11
7448.536324426628
 21
3183.727532997431
 31
0.0
  0
LINE
  5
1586B
330
747D
100
AcDbEntity
  8
部品1
 48
50.0
100
AcDbLine
 10
7432.548671574969
 20
3186.227532997431
 30
0.0
 11
7432.548671574969
 21
3179.477532997433
 31
0.0
  0
LINE
  5
1586F
330
747D
100
AcDbEntity
  8
細線
 48
0.2
100
AcDbLine
 10
8402.548671574969
 20
3183.727532997431
 30
0.0
 11
8382.548671574969
 21
3183.727532997431
 31
0.0
  0
LINE
  5
15870
330
747D
100
AcDbEntity
  8
部品1
 48
0.2
100
AcDbLine
 10
8402.548671574969
 20
3186.227532997431
 30
0.0
 11
8382.548671574969
 21
3186.227532997431
 31
0.0
  0
LINE
  5
15871
330
747D
100
AcDbEntity
  8
部品1
100
AcDbLine
 10
8402.548671574969
 20
3179.477532997433
 30
0.0
 11
8402.611119403649
 21
3179.477532997433
 31
0.0
  0
ARC
  5
15872
330
747D
100
AcDbEntity
  8
細線
 48
0.2
100
AcDbCircle
 10
8399.548671574969
 20
3179.257023166183
 30
0.0
 40
1.0
100
AcDbArc
 50
286.6015495990217
 51
0.0
  0
LINE
  5
15873
330
747D
100
AcDbEntity
  8
細線
 48
0.2
100
AcDbLine
 10
8402.548671574969
 20
3179.227532997431
 30
0.0
 11
8382.548671574969
 21
3179.227532997431
 31
0.0
  0
LINE
  5
15874
330
747D
100
AcDbEntity
  8
細線
 48
0.2
100
AcDbLine
 10
8402.548671574969
 20
3181.727532997431
 30
0.0
 11
8382.548671574969
 21
3181.727532997433
 31
0.0
  0
ARC
  5
15875
330
747D
100
AcDbEntity
  8
細線
 48
0.2
100
AcDbCircle
 10
8389.548671574969
 20
3179.257023166183
 30
0.0
 40
1.0
100
AcDbArc
 50
179.9999999999984
 51
253.3984504009775
  0
ARC
  5
15876
330
747D
100
AcDbEntity
  8
細線
 48
0.2
100
AcDbCircle
 10
8394.548671574968
 20
3196.027532997428
 30
0.0
 40
18.49999999999796
100
AcDbArc
 50
253.3984504009772
 51
286.6015495990217
  0
LINE
  5
15877
330
747D
100
AcDbEntity
  8
細線
 48
0.2
100
AcDbLine
 10
8400.232662871477
 20
3178.52753299743
 30
0.0
 11
8388.864680278464
 21
3178.52753299743
 31
0.0
  0
LINE
  5
15878
330
747D
100
AcDbEntity
  8
細線
 48
50.0
100
AcDbLine
 10
8382.548671574969
 20
3179.477532997433
 30
0.0
 11
8382.548671574969
 21
3179.227532997431
 31
0.0
  0
LINE
  5
15879
330
747D
100
AcDbEntity
  8
部品1
100
AcDbLine
 10
8402.548671574969
 20
3179.477532997433
 30
0.0
 11
8402.611119403649
 21
3179.477532997433
 31
0.0
  0
LINE
  5
1587A
330
747D
100
AcDbEntity
  8
部品1
100
AcDbLine
 10
8402.548671574969
 20
3179.477532997435
 30
0.0
 11
8402.611119403649
 21
3179.477532997435
 31
0.0
  0
LINE
  5
1587B
330
747D
100
AcDbEntity
  8
細線
 48
0.1
100
AcDbLine
 10
8402.548671574969
 20
3179.227532997431
 30
0.0
 11
8402.548671574969
 21
3186.227532997431
 31
0.0
  0
LINE
  5
1587C
330
747D
100
AcDbEntity
  8
細線
 48
50.0
100
AcDbLine
 10
8390.685914380666
 20
3181.727532997433
 30
0.0
 11
8390.685914380666
 21
3183.727532997431
 31
0.0
  0
LINE
  5
1587D
330
747D
100
AcDbEntity
  8
細線
 48
50.0
100
AcDbLine
 10
8398.536324426627
 20
3181.727532997433
 30
0.0
 11
8398.536324426627
 21
3183.727532997431
 31
0.0
  0
LINE
  5
1587E
330
747D
100
AcDbEntity
  8
部品1
 48
50.0
100
AcDbLine
 10
8382.548671574969
 20
3186.227532997431
 30
0.0
 11
8382.548671574969
 21
3179.477532997433
 31
0.0
  0
LINE
  5
1587F
330
747D
100
AcDbEntity
  8
部品1
100
AcDbLine
 10
7672.611119403649
 20
4970.477532997411
 30
0.0
 11
8382.548671574969
 21
4970.477532997413
 31
0.0
  0
LINE
  5
158A7
330
747D
100
AcDbEntity
  8
部品1
100
AcDbLine
 10
7452.54867157497
 20
4970.477532997411
 30
0.0
 11
7452.611119403648
 21
4970.477532997413
 31
0.0
  0
LINE
  5
158A8
330
747D
100
AcDbEntity
  8
部品1
100
AcDbLine
 10
7452.54867157497
 20
4970.477532997414
 30
0.0
 11
7452.611119403648
 21
4970.477532997413
 31
0.0
  0
LINE
  5
158A9
330
747D
100
AcDbEntity
  8
細線
 48
50.0
100
AcDbLine
 10
7432.548671574969
 20
4970.477532997414
 30
0.0
 11
7432.548671574969
 21
4970.727532997415
 31
0.0
  0
LINE
  5
158AA
330
747D
100
AcDbEntity
  8
細線
 48
0.2
100
AcDbLine
 10
7450.232662871477
 20
4971.427532997416
 30
0.0
 11
7438.864680278465
 21
4971.427532997416
 31
0.0
  0
ARC
  5
158AB
330
747D
100
AcDbEntity
  8
細線
 48
0.2
100
AcDbCircle
 10
7444.548671574968
 20
4953.927532997417
 30
0.0
 40
18.49999999999796
100
AcDbArc
 50
73.39845040097829
 51
106.6015495990228
  0
ARC
  5
158AC
330
747D
100
AcDbEntity
  8
細線
 48
0.2
100
AcDbCircle
 10
7439.548671574968
 20
4970.698042828662
 30
0.0
 40
1.0
100
AcDbArc
 50
106.6015495990225
 51
180.0000000000016
  0
LINE
  5
158AD
330
747D
100
AcDbEntity
  8
細線
 48
0.2
100
AcDbLine
 10
7452.54867157497
 20
4968.227532997414
 30
0.0
 11
7432.548671574969
 21
4968.227532997414
 31
0.0
  0
LINE
  5
158AE
330
747D
100
AcDbEntity
  8
細線
 48
0.2
100
AcDbLine
 10
7452.54867157497
 20
4970.727532997415
 30
0.0
 11
7432.548671574969
 21
4970.727532997415
 31
0.0
  0
ARC
  5
158AF
330
747D
100
AcDbEntity
  8
細線
 48
0.2
100
AcDbCircle
 10
7449.548671574969
 20
4970.698042828662
 30
0.0
 40
1.0
100
AcDbArc
 50
0.0
 51
73.39845040097829
  0
LINE
  5
158B0
330
747D
100
AcDbEntity
  8
部品1
 48
0.2
100
AcDbLine
 10
7452.54867157497
 20
4963.727532997414
 30
0.0
 11
7432.548671574969
 21
4963.727532997414
 31
0.0
  0
LINE
  5
158B1
330
747D
100
AcDbEntity
  8
細線
 48
0.2
100
AcDbLine
 10
7452.54867157497
 20
4966.227532997415
 30
0.0
 11
7432.548671574969
 21
4966.227532997415
 31
0.0
  0
LINE
  5
158B2
330
747D
100
AcDbEntity
  8
部品1
 48
50.0
100
AcDbLine
 10
7432.548671574969
 20
4963.727532997414
 30
0.0
 11
7432.548671574969
 21
4970.477532997414
 31
0.0
  0
LINE
  5
158B3
330
747D
100
AcDbEntity
  8
細線
 48
50.0
100
AcDbLine
 10
7448.536324426628
 20
4968.227532997414
 30
0.0
 11
7448.536324426628
 21
4966.227532997415
 31
0.0
  0
LINE
  5
158B4
330
747D
100
AcDbEntity
  8
細線
 48
50.0
100
AcDbLine
 10
7440.685914380665
 20
4968.227532997414
 30
0.0
 11
7440.685914380665
 21
4966.227532997415
 31
0.0
  0
LINE
  5
158B5
330
747D
100
AcDbEntity
  8
細線
 48
0.1
100
AcDbLine
 10
7452.54867157497
 20
4970.727532997415
 30
0.0
 11
7452.54867157497
 21
4963.727532997414
 31
0.0
  0
LINE
  5
158B6
330
747D
100
AcDbEntity
  8
部品1
100
AcDbLine
 10
8402.548671574969
 20
4970.477532997411
 30
0.0
 11
8402.611119403649
 21
4970.477532997413
 31
0.0
  0
LINE
  5
158B7
330
747D
100
AcDbEntity
  8
部品1
100
AcDbLine
 10
8402.548671574969
 20
4970.477532997414
 30
0.0
 11
8402.611119403649
 21
4970.477532997413
 31
0.0
  0
LINE
  5
158B8
330
747D
100
AcDbEntity
  8
細線
 48
50.0
100
AcDbLine
 10
8382.548671574969
 20
4970.477532997414
 30
0.0
 11
8382.548671574969
 21
4970.727532997415
 31
0.0
  0
LINE
  5
158B9
330
747D
100
AcDbEntity
  8
細線
 48
0.2
100
AcDbLine
 10
8400.232662871477
 20
4971.427532997416
 30
0.0
 11
8388.864680278464
 21
4971.427532997416
 31
0.0
  0
ARC
  5
158BA
330
747D
100
AcDbEntity
  8
細線
 48
0.2
100
AcDbCircle
 10
8394.548671574968
 20
4953.927532997417
 30
0.0
 40
18.49999999999796
100
AcDbArc
 50
73.39845040097829
 51
106.6015495990228
  0
ARC
  5
158BB
330
747D
100
AcDbEntity
  8
細線
 48
0.2
100
AcDbCircle
 10
8389.548671574969
 20
4970.698042828662
 30
0.0
 40
1.0
100
AcDbArc
 50
106.6015495990225
 51
180.0000000000016
  0
LINE
  5
158BC
330
747D
100
AcDbEntity
  8
細線
 48
0.2
100
AcDbLine
 10
8402.548671574969
 20
4968.227532997414
 30
0.0
 11
8382.548671574969
 21
4968.227532997414
 31
0.0
  0
LINE
  5
158BD
330
747D
100
AcDbEntity
  8
細線
 48
0.2
100
AcDbLine
 10
8402.548671574969
 20
4970.727532997415
 30
0.0
 11
8382.548671574969
 21
4970.727532997415
 31
0.0
  0
ARC
  5
158BE
330
747D
100
AcDbEntity
  8
細線
 48
0.2
100
AcDbCircle
 10
8399.548671574969
 20
4970.698042828662
 30
0.0
 40
1.0
100
AcDbArc
 50
0.0
 51
73.39845040097829
  0
LINE
  5
158BF
330
747D
100
AcDbEntity
  8
部品1
 48
0.2
100
AcDbLine
 10
8402.548671574969
 20
4963.727532997414
 30
0.0
 11
8382.548671574969
 21
4963.727532997414
 31
0.0
  0
LINE
  5
158C0
330
747D
100
AcDbEntity
  8
細線
 48
0.2
100
AcDbLine
 10
8402.548671574969
 20
4966.227532997415
 30
0.0
 11
8382.548671574969
 21
4966.227532997415
 31
0.0
  0
LINE
  5
158C1
330
747D
100
AcDbEntity
  8
部品1
 48
50.0
100
AcDbLine
 10
8382.548671574969
 20
4963.727532997414
 30
0.0
 11
8382.548671574969
 21
4970.477532997414
 31
0.0
  0
LINE
  5
158C2
330
747D
100
AcDbEntity
  8
細線
 48
50.0
100
AcDbLine
 10
8398.536324426627
 20
4968.227532997414
 30
0.0
 11
8398.536324426627
 21
4966.227532997415
 31
0.0
  0
LINE
  5
158C3
330
747D
100
AcDbEntity
  8
細線
 48
50.0
100
AcDbLine
 10
8390.685914380666
 20
4968.227532997414
 30
0.0
 11
8390.685914380666
 21
4966.227532997415
 31
0.0
  0
LINE
  5
158C4
330
747D
100
AcDbEntity
  8
細線
 48
0.1
100
AcDbLine
 10
8402.548671574969
 20
4970.727532997415
 30
0.0
 11
8402.548671574969
 21
4963.727532997414
 31
0.0
  0
LINE
  5
15B55
330
747D
100
AcDbEntity
  8
細線
 48
50.0
100
AcDbLine
 10
6082.611119403647
 20
7945.766171212049
 30
0.0
 11
6082.611119403647
 21
7919.766171212014
 31
0.0
  0
LINE
  5
15B56
330
747D
100
AcDbEntity
  8
細線
 48
50.0
100
AcDbLine
 10
6122.611119403647
 20
7945.766171212049
 30
0.0
 11
6122.611119403647
 21
7919.766171212014
 31
0.0
  0
LINE
  5
15B57
330
747D
100
AcDbEntity
  8
細線
 48
50.0
100
AcDbLine
 10
3996.611119403648
 20
7945.766171212061
 30
0.0
 11
3996.611119403648
 21
7919.766171212014
 31
0.0
  0
LINE
  5
15B58
330
747D
100
AcDbEntity
  8
細線
 48
50.0
100
AcDbLine
 10
6349.611119403648
 20
7945.766171212264
 30
0.0
 11
6349.611119403648
 21
7919.766171212228
 31
0.0
  0
LINE
  5
15B59
330
747D
100
AcDbEntity
  8
細線
 48
50.0
100
AcDbLine
 10
6309.611119403648
 20
7945.766171212264
 30
0.0
 11
6309.611119403648
 21
7919.766171212228
 31
0.0
  0
LINE
  5
15B5A
330
747D
100
AcDbEntity
  8
細線
 48
50.0
100
AcDbLine
 10
6846.611119403647
 20
7945.766171212061
 30
0.0
 11
6846.611119403647
 21
7919.766171212014
 31
0.0
  0
LINE
  5
15B5B
330
747D
100
AcDbEntity
  8
細線
 48
50.0
100
AcDbLine
 10
7072.611119403648
 20
7945.766171212049
 30
0.0
 11
7072.611119403648
 21
7919.766171212014
 31
0.0
  0
LINE
  5
15B5C
330
747D
100
AcDbEntity
  8
細線
 48
50.0
100
AcDbLine
 10
7032.611119403647
 20
7945.766171212049
 30
0.0
 11
7032.611119403647
 21
7919.766171212014
 31
0.0
  0
LINE
  5
15B5D
330
747D
100
AcDbEntity
  8
細線
 48
50.0
100
AcDbLine
 10
7259.611119403648
 20
7945.766171212264
 30
0.0
 11
7259.611119403648
 21
7919.766171212228
 31
0.0
  0
LINE
  5
15B5E
330
747D
100
AcDbEntity
  8
細線
 48
50.0
100
AcDbLine
 10
7299.611119403647
 20
7945.766171212264
 30
0.0
 11
7299.611119403647
 21
7919.766171212228
 31
0.0
  0
LINE
  5
15B5F
330
747D
100
AcDbEntity
  8
細線
 48
50.0
100
AcDbLine
 10
7796.611119403647
 20
7945.766171212061
 30
0.0
 11
7796.611119403647
 21
7919.766171212014
 31
0.0
  0
LINE
  5
15B60
330
747D
100
AcDbEntity
  8
細線
 48
50.0
100
AcDbLine
 10
7982.611119403647
 20
7945.766171212049
 30
0.0
 11
7982.611119403647
 21
7919.766171212014
 31
0.0
  0
LINE
  5
15B61
330
747D
100
AcDbEntity
  8
細線
 48
50.0
100
AcDbLine
 10
8022.611119403647
 20
7945.766171212049
 30
0.0
 11
8022.611119403647
 21
7919.766171212014
 31
0.0
  0
LINE
  5
15B62
330
747D
100
AcDbEntity
  8
細線
 48
50.0
100
AcDbLine
 10
8249.611119403647
 20
7945.766171212264
 30
0.0
 11
8249.611119403647
 21
7919.766171212228
 31
0.0
  0
LINE
  5
15B63
330
747D
100
AcDbEntity
  8
細線
 48
50.0
100
AcDbLine
 10
8209.611119403648
 20
7945.766171212264
 30
0.0
 11
8209.611119403648
 21
7919.766171212228
 31
0.0
  0
LINE
  5
15BA9
330
747D
100
AcDbEntity
  8
部品1
100
AcDbLine
 10
3944.61111940365
 20
4020.977532997412
 30
0.0
 11
3944.61111940365
 21
4128.977532997413
 31
0.0
  0
LINE
  5
15BAA
330
747D
100
AcDbEntity
  8
細線
100
AcDbLine
 10
3943.11111940365
 20
4021.977532997413
 30
0.0
 11
3943.11111940365
 21
4127.977532997412
 31
0.0
  0
LINE
  5
15BAB
330
747D
100
AcDbEntity
  8
細線
100
AcDbLine
 10
3938.611119403649
 20
4030.977532997413
 30
0.0
 11
3938.611119403649
 21
4118.977532997412
 31
0.0
  0
ARC
  5
15BAC
330
747D
100
AcDbEntity
  8
細線
100
AcDbCircle
 10
3624.008337495725
 20
4074.977532997412
 30
0.0
 40
294.0
100
AcDbArc
 50
351.900449161722
 51
8.099550838278029
  0
ARC
  5
15BAD
330
747D
100
AcDbEntity
  8
細線
100
AcDbCircle
 10
4186.611119403649
 20
4074.977532997412
 30
0.0
 40
294.0
100
AcDbArc
 50
171.212062677364
 51
188.7879373226359
  0
ARC
  5
15BAE
330
747D
100
AcDbEntity
  8
細線
100
AcDbCircle
 10
4186.611119403649
 20
4074.977532997412
 30
0.0
 40
298.5
100
AcDbArc
 50
169.578549027269
 51
190.4214509727309
  0
ARC
  5
15BAF
330
747D
100
AcDbEntity
  8
部品1
100
AcDbCircle
 10
4186.611119403649
 20
4074.977532997412
 30
0.0
 40
300.0
100
AcDbArc
 50
169.4161974034894
 51
190.5838025965105
  0
LINE
  5
15BB0
330
747D
100
AcDbEntity
  8
細線
100
AcDbLine
 10
3910.611119403649
 20
4124.977532997412
 30
0.0
 11
3910.611119403649
 21
4024.977532997413
 31
0.0
  0
LINE
  5
15BB1
330
747D
100
AcDbEntity
  8
細線
100
AcDbLine
 10
3928.818658582395
 20
4033.977532997413
 30
0.0
 11
3928.818658582395
 21
4115.977532997413
 31
0.0
  0
ARC
  5
15BB2
330
747D
100
AcDbEntity
  8
細線
100
AcDbCircle
 10
3932.611119403649
 20
4030.977532997413
 30
0.0
 40
6.0
100
AcDbArc
 50
270.0
 51
0.0
  0
LINE
  5
15BB3
330
747D
100
AcDbEntity
  8
細線
100
AcDbLine
 10
3901.992075768127
 20
4024.977532997413
 30
0.0
 11
3932.611119403649
 21
4024.977532997413
 31
0.0
  0
ARC
  5
15BB4
330
747D
100
AcDbEntity
  8
細線
100
AcDbCircle
 10
3922.818658582395
 20
4033.977532997413
 30
0.0
 40
6.0
100
AcDbArc
 50
270.0
 51
360.0
  0
LINE
  5
15BB5
330
747D
100
AcDbEntity
  8
細線
100
AcDbLine
 10
3910.611119403649
 20
4027.977532997413
 30
0.0
 11
3922.818658582395
 21
4027.977532997413
 31
0.0
  0
ARC
  5
15BB6
330
747D
100
AcDbEntity
  8
細線
100
AcDbCircle
 10
3912.105543313484
 20
4033.977532997413
 30
0.0
 40
3.0
100
AcDbArc
 50
270.0
 51
351.9004491617184
  0
LINE
  5
15BB7
330
747D
100
AcDbEntity
  8
細線
100
AcDbLine
 10
3910.611119403649
 20
4030.977532997413
 30
0.0
 11
3912.105543313484
 21
4030.977532997413
 31
0.0
  0
ARC
  5
15BB8
330
747D
100
AcDbEntity
  8
部品1
100
AcDbCircle
 10
3938.611119403649
 20
4020.977532997412
 30
0.0
 40
6.0
100
AcDbArc
 50
270.0
 51
0.0
  0
ARC
  5
15BB9
330
747D
100
AcDbEntity
  8
細線
100
AcDbCircle
 10
3937.61111940365
 20
4021.977532997413
 30
0.0
 40
5.5
100
AcDbArc
 50
270.0
 51
0.0
  0
ARC
  5
15BBA
330
747D
100
AcDbEntity
  8
細線
100
AcDbCircle
 10
3898.444500934404
 20
4021.977532997413
 30
0.0
 40
5.5
100
AcDbArc
 50
190.4214509727298
 51
269.9999999999997
  0
ARC
  5
15BBB
330
747D
100
AcDbEntity
  8
部品1
100
AcDbCircle
 10
3897.612849512634
 20
4020.977532997412
 30
0.0
 40
6.0
100
AcDbArc
 50
190.5838025965097
 51
270.0
  0
LINE
  5
15BBC
330
747D
100
AcDbEntity
  8
部品1
100
AcDbLine
 10
3897.612849512634
 20
4014.977532997412
 30
0.0
 11
3938.611119403649
 21
4014.977532997412
 31
0.0
  0
LINE
  5
15BBD
330
747D
100
AcDbEntity
  8
細線
100
AcDbLine
 10
3898.444500934404
 20
4016.477532997412
 30
0.0
 11
3937.61111940365
 21
4016.477532997412
 31
0.0
  0
LINE
  5
15BBE
330
747D
100
AcDbEntity
  8
細線
100
AcDbLine
 10
3910.611119403649
 20
4030.978040895976
 30
0.0
 11
3897.132414904827
 21
4030.978040895976
 31
0.0
  0
ARC
  5
15BBF
330
747D
100
AcDbEntity
  8
細線
100
AcDbCircle
 10
3901.992075768127
 20
4030.977532997413
 30
0.0
 40
6.0
100
AcDbArc
 50
188.7879373226349
 51
270.0
  0
CIRCLE
  5
15BC0
330
747D
100
AcDbEntity
  8
細線
 48
50.0
100
AcDbCircle
 10
3918.111984458143
 20
4175.477532997413
 30
0.0
 40
20.0
  0
CIRCLE
  5
15BC1
330
747D
100
AcDbEntity
  8
細線
 48
50.0
100
AcDbCircle
 10
3918.111984458143
 20
4175.477532997413
 30
0.0
 40
10.0
  0
ARC
  5
15BC2
330
747D
100
AcDbEntity
  8
細線
100
AcDbCircle
 10
3932.611119403649
 20
4118.977532997412
 30
0.0
 40
6.0
100
AcDbArc
 50
0.0
 51
90.0
  0
LINE
  5
15BC3
330
747D
100
AcDbEntity
  8
細線
100
AcDbLine
 10
3932.611119403649
 20
4124.977532997412
 30
0.0
 11
3901.992075768127
 21
4124.977532997412
 31
0.0
  0
ARC
  5
15BC4
330
747D
100
AcDbEntity
  8
細線
100
AcDbCircle
 10
3922.818658582395
 20
4115.977532997413
 30
0.0
 40
6.0
100
AcDbArc
 50
0.0
 51
90.0
  0
LINE
  5
15BC5
330
747D
100
AcDbEntity
  8
細線
100
AcDbLine
 10
3922.818658582395
 20
4121.977532997412
 30
0.0
 11
3910.611119403649
 21
4121.977532997412
 31
0.0
  0
ARC
  5
15BC6
330
747D
100
AcDbEntity
  8
細線
100
AcDbCircle
 10
3912.105543313483
 20
4115.977532997413
 30
0.0
 40
3.0
100
AcDbArc
 50
8.099550838277986
 51
90.0
  0
LINE
  5
15BC7
330
747D
100
AcDbEntity
  8
細線
100
AcDbLine
 10
3912.105543313483
 20
4118.977532997412
 30
0.0
 11
3910.611119403649
 21
4118.977532997412
 31
0.0
  0
ARC
  5
15BC8
330
747D
100
AcDbEntity
  8
部品1
100
AcDbCircle
 10
3938.611119403649
 20
4128.977532997413
 30
0.0
 40
6.0
100
AcDbArc
 50
0.0
 51
90.0
  0
ARC
  5
15BC9
330
747D
100
AcDbEntity
  8
細線
100
AcDbCircle
 10
3937.61111940365
 20
4127.977532997412
 30
0.0
 40
5.5
100
AcDbArc
 50
0.0
 51
90.0
  0
ARC
  5
15BCA
330
747D
100
AcDbEntity
  8
細線
100
AcDbCircle
 10
3898.444500934404
 20
4127.977532997412
 30
0.0
 40
5.5
100
AcDbArc
 50
89.99999999999969
 51
169.5785490272683
  0
ARC
  5
15BCB
330
747D
100
AcDbEntity
  8
部品1
100
AcDbCircle
 10
3897.612849512634
 20
4128.977532997413
 30
0.0
 40
6.0
100
AcDbArc
 50
90.0
 51
169.4161974034886
  0
LINE
  5
15BCC
330
747D
100
AcDbEntity
  8
部品1
100
AcDbLine
 10
3938.611119403649
 20
4134.977532997413
 30
0.0
 11
3897.612849512634
 21
4134.977532997413
 31
0.0
  0
LINE
  5
15BCD
330
747D
100
AcDbEntity
  8
細線
100
AcDbLine
 10
3937.61111940365
 20
4133.477532997413
 30
0.0
 11
3898.444500934404
 21
4133.477532997413
 31
0.0
  0
LINE
  5
15BCE
330
747D
100
AcDbEntity
  8
細線
100
AcDbLine
 10
3910.611119403649
 20
4118.977025098851
 30
0.0
 11
3897.847792187683
 21
4118.977025098851
 31
0.0
  0
ARC
  5
15BCF
330
747D
100
AcDbEntity
  8
細線
100
AcDbCircle
 10
3901.992075768127
 20
4118.977532997412
 30
0.0
 40
6.0
100
AcDbArc
 50
90.0
 51
171.2120626773636
  0
LINE
  5
15BD0
330
747D
100
AcDbEntity
  8
部品1
100
AcDbLine
 10
6794.611119403649
 20
4020.977532997412
 30
0.0
 11
6794.611119403649
 21
4128.977532997413
 31
0.0
  0
LINE
  5
15BD1
330
747D
100
AcDbEntity
  8
細線
100
AcDbLine
 10
6793.111119403649
 20
4021.977532997413
 30
0.0
 11
6793.111119403649
 21
4127.977532997412
 31
0.0
  0
LINE
  5
15BD2
330
747D
100
AcDbEntity
  8
細線
100
AcDbLine
 10
6788.611119403649
 20
4030.977532997413
 30
0.0
 11
6788.611119403649
 21
4118.977532997412
 31
0.0
  0
ARC
  5
15BD3
330
747D
100
AcDbEntity
  8
細線
100
AcDbCircle
 10
6474.008337495725
 20
4074.977532997412
 30
0.0
 40
294.0
100
AcDbArc
 50
351.900449161722
 51
8.099550838278029
  0
ARC
  5
15BD4
330
747D
100
AcDbEntity
  8
細線
100
AcDbCircle
 10
7036.611119403649
 20
4074.977532997412
 30
0.0
 40
294.0
100
AcDbArc
 50
171.212062677364
 51
188.7879373226359
  0
ARC
  5
15BD5
330
747D
100
AcDbEntity
  8
細線
100
AcDbCircle
 10
7036.611119403649
 20
4074.977532997412
 30
0.0
 40
298.5
100
AcDbArc
 50
169.578549027269
 51
190.4214509727309
  0
ARC
  5
15BD6
330
747D
100
AcDbEntity
  8
部品1
100
AcDbCircle
 10
7036.611119403649
 20
4074.977532997412
 30
0.0
 40
300.0
100
AcDbArc
 50
169.4161974034894
 51
190.5838025965105
  0
LINE
  5
15BD7
330
747D
100
AcDbEntity
  8
細線
100
AcDbLine
 10
6760.61111940365
 20
4124.977532997412
 30
0.0
 11
6760.61111940365
 21
4024.977532997413
 31
0.0
  0
LINE
  5
15BD8
330
747D
100
AcDbEntity
  8
細線
100
AcDbLine
 10
6778.818658582395
 20
4033.977532997413
 30
0.0
 11
6778.818658582395
 21
4115.977532997413
 31
0.0
  0
ARC
  5
15BD9
330
747D
100
AcDbEntity
  8
細線
100
AcDbCircle
 10
6748.444500934404
 20
4021.977532997413
 30
0.0
 40
5.5
100
AcDbArc
 50
190.4214509727298
 51
269.9999999999997
  0
ARC
  5
15BDA
330
747D
100
AcDbEntity
  8
部品1
100
AcDbCircle
 10
6747.612849512634
 20
4020.977532997412
 30
0.0
 40
6.0
100
AcDbArc
 50
190.5838025965097
 51
270.0
  0
ARC
  5
15BDB
330
747D
100
AcDbEntity
  8
細線
100
AcDbCircle
 10
6751.992075768126
 20
4030.977532997413
 30
0.0
 40
6.0
100
AcDbArc
 50
188.7879373226349
 51
270.0
  0
ARC
  5
15BDC
330
747D
100
AcDbEntity
  8
細線
100
AcDbCircle
 10
6782.61111940365
 20
4030.977532997413
 30
0.0
 40
6.0
100
AcDbArc
 50
270.0
 51
0.0
  0
LINE
  5
15BDD
330
747D
100
AcDbEntity
  8
細線
100
AcDbLine
 10
6751.992075768126
 20
4024.977532997413
 30
0.0
 11
6782.61111940365
 21
4024.977532997413
 31
0.0
  0
ARC
  5
15BDE
330
747D
100
AcDbEntity
  8
細線
100
AcDbCircle
 10
6772.818658582394
 20
4033.977532997413
 30
0.0
 40
6.0
100
AcDbArc
 50
270.0
 51
360.0
  0
LINE
  5
15BDF
330
747D
100
AcDbEntity
  8
細線
100
AcDbLine
 10
6760.61111940365
 20
4027.977532997413
 30
0.0
 11
6772.818658582394
 21
4027.977532997413
 31
0.0
  0
ARC
  5
15BE0
330
747D
100
AcDbEntity
  8
細線
100
AcDbCircle
 10
6762.105543313484
 20
4033.977532997413
 30
0.0
 40
3.0
100
AcDbArc
 50
270.0
 51
351.9004491617184
  0
LINE
  5
15BE1
330
747D
100
AcDbEntity
  8
細線
100
AcDbLine
 10
6760.61111940365
 20
4030.977532997413
 30
0.0
 11
6762.105543313484
 21
4030.977532997413
 31
0.0
  0
ARC
  5
15BE2
330
747D
100
AcDbEntity
  8
部品1
100
AcDbCircle
 10
6788.611119403649
 20
4020.977532997412
 30
0.0
 40
6.0
100
AcDbArc
 50
270.0
 51
0.0
  0
ARC
  5
15BE3
330
747D
100
AcDbEntity
  8
細線
100
AcDbCircle
 10
6787.611119403649
 20
4021.977532997413
 30
0.0
 40
5.5
100
AcDbArc
 50
270.0
 51
0.0
  0
LINE
  5
15BE4
330
747D
100
AcDbEntity
  8
部品1
100
AcDbLine
 10
6747.612849512634
 20
4014.977532997412
 30
0.0
 11
6788.611119403649
 21
4014.977532997412
 31
0.0
  0
LINE
  5
15BE5
330
747D
100
AcDbEntity
  8
細線
100
AcDbLine
 10
6748.444500934404
 20
4016.477532997412
 30
0.0
 11
6787.611119403649
 21
4016.477532997412
 31
0.0
  0
LINE
  5
15BE6
330
747D
100
AcDbEntity
  8
細線
100
AcDbLine
 10
6760.61111940365
 20
4030.978040895976
 30
0.0
 11
6747.132414904827
 21
4030.978040895976
 31
0.0
  0
ARC
  5
15BE7
330
747D
100
AcDbEntity
  8
細線
100
AcDbCircle
 10
6748.444500934404
 20
4127.977532997412
 30
0.0
 40
5.5
100
AcDbArc
 50
89.99999999999969
 51
169.5785490272683
  0
ARC
  5
15BE8
330
747D
100
AcDbEntity
  8
部品1
100
AcDbCircle
 10
6747.612849512634
 20
4128.977532997413
 30
0.0
 40
6.0
100
AcDbArc
 50
90.0
 51
169.4161974034886
  0
ARC
  5
15BE9
330
747D
100
AcDbEntity
  8
細線
100
AcDbCircle
 10
6751.992075768126
 20
4118.977532997412
 30
0.0
 40
6.0
100
AcDbArc
 50
90.0
 51
171.2120626773636
  0
CIRCLE
  5
15BEA
330
747D
100
AcDbEntity
  8
細線
 48
50.0
100
AcDbCircle
 10
6768.111984458143
 20
4175.477532997413
 30
0.0
 40
20.0
  0
CIRCLE
  5
15BEB
330
747D
100
AcDbEntity
  8
細線
 48
50.0
100
AcDbCircle
 10
6768.111984458143
 20
4175.477532997413
 30
0.0
 40
10.0
  0
ARC
  5
15BEC
330
747D
100
AcDbEntity
  8
細線
100
AcDbCircle
 10
6782.61111940365
 20
4118.977532997412
 30
0.0
 40
6.0
100
AcDbArc
 50
0.0
 51
90.0
  0
LINE
  5
15BED
330
747D
100
AcDbEntity
  8
細線
100
AcDbLine
 10
6782.61111940365
 20
4124.977532997412
 30
0.0
 11
6751.992075768126
 21
4124.977532997412
 31
0.0
  0
ARC
  5
15BEE
330
747D
100
AcDbEntity
  8
細線
100
AcDbCircle
 10
6772.818658582394
 20
4115.977532997413
 30
0.0
 40
6.0
100
AcDbArc
 50
0.0
 51
90.0
  0
LINE
  5
15BEF
330
747D
100
AcDbEntity
  8
細線
100
AcDbLine
 10
6772.818658582394
 20
4121.977532997412
 30
0.0
 11
6760.61111940365
 21
4121.977532997412
 31
0.0
  0
ARC
  5
15BF0
330
747D
100
AcDbEntity
  8
細線
100
AcDbCircle
 10
6762.105543313483
 20
4115.977532997413
 30
0.0
 40
3.0
100
AcDbArc
 50
8.099550838277986
 51
90.0
  0
LINE
  5
15BF1
330
747D
100
AcDbEntity
  8
細線
100
AcDbLine
 10
6762.105543313483
 20
4118.977532997412
 30
0.0
 11
6760.61111940365
 21
4118.977532997412
 31
0.0
  0
ARC
  5
15BF2
330
747D
100
AcDbEntity
  8
部品1
100
AcDbCircle
 10
6788.611119403649
 20
4128.977532997413
 30
0.0
 40
6.0
100
AcDbArc
 50
0.0
 51
90.0
  0
ARC
  5
15BF3
330
747D
100
AcDbEntity
  8
細線
100
AcDbCircle
 10
6787.611119403649
 20
4127.977532997412
 30
0.0
 40
5.5
100
AcDbArc
 50
0.0
 51
90.0
  0
LINE
  5
15BF4
330
747D
100
AcDbEntity
  8
部品1
100
AcDbLine
 10
6788.611119403649
 20
4134.977532997413
 30
0.0
 11
6747.612849512634
 21
4134.977532997413
 31
0.0
  0
LINE
  5
15BF5
330
747D
100
AcDbEntity
  8
細線
100
AcDbLine
 10
6787.611119403649
 20
4133.477532997413
 30
0.0
 11
6748.444500934404
 21
4133.477532997413
 31
0.0
  0
LINE
  5
15BF6
330
747D
100
AcDbEntity
  8
細線
100
AcDbLine
 10
6760.61111940365
 20
4118.977025098851
 30
0.0
 11
6747.847792187681
 21
4118.977025098851
 31
0.0
  0
LINE
  5
15BF7
330
747D
100
AcDbEntity
  8
細線
100
AcDbLine
 10
7728.818658582395
 20
4033.977532997413
 30
0.0
 11
7728.818658582395
 21
4115.977532997413
 31
0.0
  0
LINE
  5
15BF8
330
747D
100
AcDbEntity
  8
細線
100
AcDbLine
 10
7710.61111940365
 20
4124.977532997412
 30
0.0
 11
7710.61111940365
 21
4024.977532997413
 31
0.0
  0
ARC
  5
15BF9
330
747D
100
AcDbEntity
  8
部品1
100
AcDbCircle
 10
7986.611119403649
 20
4074.977532997412
 30
0.0
 40
300.0
100
AcDbArc
 50
169.4161974034894
 51
190.5838025965105
  0
ARC
  5
15BFA
330
747D
100
AcDbEntity
  8
細線
100
AcDbCircle
 10
7986.611119403649
 20
4074.977532997412
 30
0.0
 40
298.5
100
AcDbArc
 50
169.578549027269
 51
190.4214509727309
  0
ARC
  5
15BFB
330
747D
100
AcDbEntity
  8
細線
100
AcDbCircle
 10
7986.611119403649
 20
4074.977532997412
 30
0.0
 40
294.0
100
AcDbArc
 50
171.212062677364
 51
188.7879373226359
  0
ARC
  5
15BFC
330
747D
100
AcDbEntity
  8
細線
100
AcDbCircle
 10
7424.008337495725
 20
4074.977532997412
 30
0.0
 40
294.0
100
AcDbArc
 50
351.900449161722
 51
8.099550838278029
  0
LINE
  5
15BFD
330
747D
100
AcDbEntity
  8
細線
100
AcDbLine
 10
7738.61111940365
 20
4030.977532997413
 30
0.0
 11
7738.61111940365
 21
4118.977532997412
 31
0.0
  0
LINE
  5
15BFE
330
747D
100
AcDbEntity
  8
細線
100
AcDbLine
 10
7743.111119403649
 20
4021.977532997413
 30
0.0
 11
7743.111119403649
 21
4127.977532997412
 31
0.0
  0
LINE
  5
15BFF
330
747D
100
AcDbEntity
  8
部品1
100
AcDbLine
 10
7744.611119403649
 20
4020.977532997412
 30
0.0
 11
7744.611119403649
 21
4128.977532997413
 31
0.0
  0
LINE
  5
15C00
330
747D
100
AcDbEntity
  8
細線
100
AcDbLine
 10
7698.444500934404
 20
4016.477532997412
 30
0.0
 11
7737.611119403649
 21
4016.477532997412
 31
0.0
  0
LINE
  5
15C01
330
747D
100
AcDbEntity
  8
部品1
100
AcDbLine
 10
7697.612849512634
 20
4014.977532997412
 30
0.0
 11
7738.61111940365
 21
4014.977532997412
 31
0.0
  0
LINE
  5
15C02
330
747D
100
AcDbEntity
  8
細線
100
AcDbLine
 10
7701.992075768126
 20
4024.977532997413
 30
0.0
 11
7732.611119403649
 21
4024.977532997413
 31
0.0
  0
LINE
  5
15C03
330
747D
100
AcDbEntity
  8
細線
100
AcDbLine
 10
7710.61111940365
 20
4030.978040895976
 30
0.0
 11
7697.132414904827
 21
4030.978040895976
 31
0.0
  0
LINE
  5
15C04
330
747D
100
AcDbEntity
  8
細線
100
AcDbLine
 10
7710.61111940365
 20
4030.977532997413
 30
0.0
 11
7712.105543313484
 21
4030.977532997413
 31
0.0
  0
ARC
  5
15C05
330
747D
100
AcDbEntity
  8
細線
100
AcDbCircle
 10
7712.105543313484
 20
4033.977532997413
 30
0.0
 40
3.0
100
AcDbArc
 50
270.0
 51
351.9004491617184
  0
LINE
  5
15C06
330
747D
100
AcDbEntity
  8
細線
100
AcDbLine
 10
7710.61111940365
 20
4027.977532997413
 30
0.0
 11
7722.818658582395
 21
4027.977532997413
 31
0.0
  0
ARC
  5
15C07
330
747D
100
AcDbEntity
  8
細線
100
AcDbCircle
 10
7722.818658582395
 20
4033.977532997413
 30
0.0
 40
6.0
100
AcDbArc
 50
270.0
 51
360.0
  0
ARC
  5
15C08
330
747D
100
AcDbEntity
  8
細線
100
AcDbCircle
 10
7701.992075768126
 20
4030.977532997413
 30
0.0
 40
6.0
100
AcDbArc
 50
188.7879373226349
 51
270.0
  0
ARC
  5
15C09
330
747D
100
AcDbEntity
  8
部品1
100
AcDbCircle
 10
7697.612849512634
 20
4020.977532997412
 30
0.0
 40
6.0
100
AcDbArc
 50
190.5838025965097
 51
270.0
  0
ARC
  5
15C0A
330
747D
100
AcDbEntity
  8
細線
100
AcDbCircle
 10
7698.444500934404
 20
4021.977532997413
 30
0.0
 40
5.5
100
AcDbArc
 50
190.4214509727298
 51
269.9999999999997
  0
ARC
  5
15C0B
330
747D
100
AcDbEntity
  8
細線
100
AcDbCircle
 10
7737.611119403649
 20
4021.977532997413
 30
0.0
 40
5.5
100
AcDbArc
 50
270.0
 51
0.0
  0
ARC
  5
15C0C
330
747D
100
AcDbEntity
  8
部品1
100
AcDbCircle
 10
7738.61111940365
 20
4020.977532997412
 30
0.0
 40
6.0
100
AcDbArc
 50
270.0
 51
0.0
  0
ARC
  5
15C0D
330
747D
100
AcDbEntity
  8
細線
100
AcDbCircle
 10
7732.611119403649
 20
4030.977532997413
 30
0.0
 40
6.0
100
AcDbArc
 50
270.0
 51
0.0
  0
LINE
  5
15C0E
330
747D
100
AcDbEntity
  8
細線
100
AcDbLine
 10
7737.611119403649
 20
4133.477532997413
 30
0.0
 11
7698.444500934404
 21
4133.477532997413
 31
0.0
  0
LINE
  5
15C0F
330
747D
100
AcDbEntity
  8
部品1
100
AcDbLine
 10
7738.61111940365
 20
4134.977532997413
 30
0.0
 11
7697.612849512634
 21
4134.977532997413
 31
0.0
  0
LINE
  5
15C10
330
747D
100
AcDbEntity
  8
細線
100
AcDbLine
 10
7732.611119403649
 20
4124.977532997412
 30
0.0
 11
7701.992075768126
 21
4124.977532997412
 31
0.0
  0
CIRCLE
  5
15C11
330
747D
100
AcDbEntity
  8
細線
 48
50.0
100
AcDbCircle
 10
7718.111984458143
 20
4175.477532997413
 30
0.0
 40
20.0
  0
LINE
  5
15C12
330
747D
100
AcDbEntity
  8
細線
100
AcDbLine
 10
7710.61111940365
 20
4118.977025098851
 30
0.0
 11
7697.847792187682
 21
4118.977025098851
 31
0.0
  0
LINE
  5
15C13
330
747D
100
AcDbEntity
  8
細線
100
AcDbLine
 10
7712.105543313483
 20
4118.977532997412
 30
0.0
 11
7710.61111940365
 21
4118.977532997412
 31
0.0
  0
ARC
  5
15C14
330
747D
100
AcDbEntity
  8
細線
100
AcDbCircle
 10
7712.105543313483
 20
4115.977532997413
 30
0.0
 40
3.0
100
AcDbArc
 50
8.099550838277986
 51
90.0
  0
LINE
  5
15C15
330
747D
100
AcDbEntity
  8
細線
100
AcDbLine
 10
7722.818658582395
 20
4121.977532997412
 30
0.0
 11
7710.61111940365
 21
4121.977532997412
 31
0.0
  0
ARC
  5
15C16
330
747D
100
AcDbEntity
  8
細線
100
AcDbCircle
 10
7722.818658582395
 20
4115.977532997413
 30
0.0
 40
6.0
100
AcDbArc
 50
0.0
 51
90.0
  0
CIRCLE
  5
15C17
330
747D
100
AcDbEntity
  8
細線
 48
50.0
100
AcDbCircle
 10
7718.111984458143
 20
4175.477532997413
 30
0.0
 40
10.0
  0
ARC
  5
15C18
330
747D
100
AcDbEntity
  8
細線
100
AcDbCircle
 10
7701.992075768126
 20
4118.977532997412
 30
0.0
 40
6.0
100
AcDbArc
 50
90.0
 51
171.2120626773636
  0
ARC
  5
15C19
330
747D
100
AcDbEntity
  8
部品1
100
AcDbCircle
 10
7697.612849512634
 20
4128.977532997413
 30
0.0
 40
6.0
100
AcDbArc
 50
90.0
 51
169.4161974034886
  0
ARC
  5
15C1A
330
747D
100
AcDbEntity
  8
細線
100
AcDbCircle
 10
7698.444500934404
 20
4127.977532997412
 30
0.0
 40
5.5
100
AcDbArc
 50
89.99999999999969
 51
169.5785490272683
  0
ARC
  5
15C1B
330
747D
100
AcDbEntity
  8
細線
100
AcDbCircle
 10
7737.611119403649
 20
4127.977532997412
 30
0.0
 40
5.5
100
AcDbArc
 50
0.0
 51
90.0
  0
ARC
  5
15C1C
330
747D
100
AcDbEntity
  8
部品1
100
AcDbCircle
 10
7738.61111940365
 20
4128.977532997413
 30
0.0
 40
6.0
100
AcDbArc
 50
0.0
 51
90.0
  0
ARC
  5
15C1D
330
747D
100
AcDbEntity
  8
細線
100
AcDbCircle
 10
7732.611119403649
 20
4118.977532997412
 30
0.0
 40
6.0
100
AcDbArc
 50
0.0
 51
90.0
  0
DIMENSION
  5
15C33
330
747D
100
AcDbEntity
  8
寸法
 48
50.0
100
AcDbDimension
  2
*D16
 10
7417.611119403648
 20
7479.942503416907
 30
0.0
 11
7075.11111940365
 21
7479.942503416907
 31
0.0
 70
   160
 71
     5
 42
684.9999999999945
  3
INABA_S40G
100
AcDbAlignedDimension
 13
6732.611119403653
 23
7919.766171211984
 33
0.0
 14
7417.611119403648
 24
7919.766171211948
 34
0.0
100
AcDbRotatedDimension
  0
DIMENSION
  5
15C4B
330
747D
100
AcDbEntity
  8
寸法
 48
50.0
100
AcDbDimension
  2
*D17
 10
6467.611119403648
 20
7479.942503416907
 30
0.0
 11
6125.11111940365
 21
7479.942503416907
 31
0.0
 70
   160
 71
     5
 42
684.9999999999945
  3
INABA_S40G
100
AcDbAlignedDimension
 13
5782.611119403653
 23
7919.766171211984
 33
0.0
 14
6467.611119403648
 24
7919.766171211948
 34
0.0
100
AcDbRotatedDimension
  0
LINE
  5
15C83
330
747D
100
AcDbEntity
  8
部品1
100
AcDbLine
 10
5770.61111940365
 20
4972.977532997413
 30
0.0
 11
5770.61111940365
 21
3175.977532997433
 31
0.0
  0
LINE
  5
15C84
330
747D
100
AcDbEntity
  8
部品1
100
AcDbLine
 10
5772.611119403649
 20
4970.477532997413
 30
0.0
 11
5772.611119403649
 21
3179.477532997428
 31
0.0
  0
LINE
  5
15C85
330
747D
100
AcDbEntity
  8
部品1
100
AcDbLine
 10
5552.611119403647
 20
4970.477532997413
 30
0.0
 11
5552.61111940365
 21
3179.477532997433
 31
0.0
  0
LINE
  5
15C86
330
747D
100
AcDbEntity
  8
部品1
100
AcDbLine
 10
5684.611119403649
 20
4972.977532997413
 30
0.0
 11
5684.611119403649
 21
3175.977532997433
 31
0.0
  0
LINE
  5
15C87
330
747D
100
AcDbEntity
  8
部品1
100
AcDbLine
 10
5554.611119403649
 20
4972.977532997413
 30
0.0
 11
5554.611119403649
 21
3175.977532997433
 31
0.0
  0
LINE
  5
15C88
330
747D
100
AcDbEntity
  8
部品1
100
AcDbLine
 10
4822.611119403649
 20
3179.477532997418
 30
0.0
 11
5532.548671574968
 21
3179.477532997433
 31
0.0
  0
LINE
  5
15C89
330
747D
100
AcDbEntity
  8
細線
 48
50.0
100
AcDbLine
 10
5548.536324426628
 20
3181.727532997433
 30
0.0
 11
5548.536324426628
 21
3183.727532997431
 31
0.0
  0
LINE
  5
15C8A
330
747D
100
AcDbEntity
  8
細線
 48
0.1
100
AcDbLine
 10
5552.548671574968
 20
3179.227532997431
 30
0.0
 11
5552.548671574968
 21
3186.227532997431
 31
0.0
  0
LINE
  5
15C8B
330
747D
100
AcDbEntity
  8
部品1
 48
50.0
100
AcDbLine
 10
5532.548671574968
 20
3186.227532997431
 30
0.0
 11
5532.548671574968
 21
3179.477532997433
 31
0.0
  0
LINE
  5
15C8C
330
747D
100
AcDbEntity
  8
細線
 48
50.0
100
AcDbLine
 10
5540.685914380665
 20
3181.727532997433
 30
0.0
 11
5540.685914380665
 21
3183.727532997431
 31
0.0
  0
LINE
  5
15C8D
330
747D
100
AcDbEntity
  8
部品1
100
AcDbLine
 10
5552.548671574968
 20
3179.477532997424
 30
0.0
 11
5552.61111940365
 21
3179.477532997424
 31
0.0
  0
LINE
  5
15C8E
330
747D
100
AcDbEntity
  8
部品1
100
AcDbLine
 10
5552.548671574968
 20
3179.477532997433
 30
0.0
 11
5552.61111940365
 21
3179.477532997433
 31
0.0
  0
ARC
  5
15C8F
330
747D
100
AcDbEntity
  8
細線
 48
0.2
100
AcDbCircle
 10
5549.548671574968
 20
3179.257023166183
 30
0.0
 40
1.0
100
AcDbArc
 50
286.6015495990217
 51
0.0
  0
LINE
  5
15C90
330
747D
100
AcDbEntity
  8
細線
 48
50.0
100
AcDbLine
 10
5532.548671574968
 20
3179.477532997433
 30
0.0
 11
5532.548671574968
 21
3179.227532997431
 31
0.0
  0
ARC
  5
15C91
330
747D
100
AcDbEntity
  8
細線
 48
0.2
100
AcDbCircle
 10
5539.548671574968
 20
3179.257023166183
 30
0.0
 40
1.0
100
AcDbArc
 50
179.9999999999984
 51
253.3984504009775
  0
LINE
  5
15C92
330
747D
100
AcDbEntity
  8
細線
 48
0.2
100
AcDbLine
 10
5550.232662871476
 20
3178.52753299743
 30
0.0
 11
5538.864680278464
 21
3178.52753299743
 31
0.0
  0
ARC
  5
15C93
330
747D
100
AcDbEntity
  8
細線
 48
0.2
100
AcDbCircle
 10
5544.548671574968
 20
3196.027532997428
 30
0.0
 40
18.49999999999796
100
AcDbArc
 50
253.3984504009772
 51
286.6015495990217
  0
LINE
  5
15C94
330
747D
100
AcDbEntity
  8
細線
 48
0.2
100
AcDbLine
 10
5552.548671574968
 20
3181.727532997431
 30
0.0
 11
5532.548671574968
 21
3181.727532997433
 31
0.0
  0
LINE
  5
15C95
330
747D
100
AcDbEntity
  8
細線
 48
0.2
100
AcDbLine
 10
5552.548671574968
 20
3179.227532997431
 30
0.0
 11
5532.548671574968
 21
3179.227532997431
 31
0.0
  0
LINE
  5
15C96
330
747D
100
AcDbEntity
  8
部品1
 48
0.2
100
AcDbLine
 10
5552.548671574968
 20
3186.227532997431
 30
0.0
 11
5532.548671574968
 21
3186.227532997431
 31
0.0
  0
LINE
  5
15C97
330
747D
100
AcDbEntity
  8
細線
 48
0.2
100
AcDbLine
 10
5552.548671574968
 20
3183.727532997431
 30
0.0
 11
5532.548671574968
 21
3183.727532997431
 31
0.0
  0
LINE
  5
15C98
330
747D
100
AcDbEntity
  8
部品1
100
AcDbLine
 10
5844.61111940365
 20
4020.977532997412
 30
0.0
 11
5844.61111940365
 21
4128.977532997413
 31
0.0
  0
LINE
  5
15C99
330
747D
100
AcDbEntity
  8
細線
100
AcDbLine
 10
5843.11111940365
 20
4021.977532997413
 30
0.0
 11
5843.11111940365
 21
4127.977532997412
 31
0.0
  0
LINE
  5
15C9A
330
747D
100
AcDbEntity
  8
細線
100
AcDbLine
 10
5838.611119403649
 20
4030.977532997413
 30
0.0
 11
5838.611119403649
 21
4118.977532997412
 31
0.0
  0
ARC
  5
15C9B
330
747D
100
AcDbEntity
  8
細線
100
AcDbCircle
 10
5524.008337495725
 20
4074.977532997412
 30
0.0
 40
294.0
100
AcDbArc
 50
351.900449161722
 51
8.099550838278029
  0
ARC
  5
15C9C
330
747D
100
AcDbEntity
  8
細線
100
AcDbCircle
 10
6086.611119403649
 20
4074.977532997412
 30
0.0
 40
294.0
100
AcDbArc
 50
171.212062677364
 51
188.7879373226359
  0
ARC
  5
15C9D
330
747D
100
AcDbEntity
  8
細線
100
AcDbCircle
 10
6086.611119403649
 20
4074.977532997412
 30
0.0
 40
298.5
100
AcDbArc
 50
169.578549027269
 51
190.4214509727309
  0
ARC
  5
15C9E
330
747D
100
AcDbEntity
  8
部品1
100
AcDbCircle
 10
6086.611119403649
 20
4074.977532997412
 30
0.0
 40
300.0
100
AcDbArc
 50
169.4161974034894
 51
190.5838025965105
  0
LINE
  5
15C9F
330
747D
100
AcDbEntity
  8
細線
100
AcDbLine
 10
5810.611119403649
 20
4124.977532997412
 30
0.0
 11
5810.611119403649
 21
4024.977532997413
 31
0.0
  0
LINE
  5
15CA0
330
747D
100
AcDbEntity
  8
細線
100
AcDbLine
 10
5828.818658582395
 20
4033.977532997413
 30
0.0
 11
5828.818658582395
 21
4115.977532997413
 31
0.0
  0
ARC
  5
15CA1
330
747D
100
AcDbEntity
  8
細線
100
AcDbCircle
 10
5801.992075768127
 20
4030.977532997413
 30
0.0
 40
6.0
100
AcDbArc
 50
188.7879373226349
 51
270.0
  0
LINE
  5
15CA2
330
747D
100
AcDbEntity
  8
細線
100
AcDbLine
 10
5810.611119403649
 20
4030.978040895976
 30
0.0
 11
5797.132414904827
 21
4030.978040895976
 31
0.0
  0
LINE
  5
15CA3
330
747D
100
AcDbEntity
  8
部品1
100
AcDbLine
 10
5797.612849512634
 20
4014.977532997412
 30
0.0
 11
5838.611119403649
 21
4014.977532997412
 31
0.0
  0
LINE
  5
15CA4
330
747D
100
AcDbEntity
  8
細線
100
AcDbLine
 10
5798.444500934404
 20
4016.477532997412
 30
0.0
 11
5837.61111940365
 21
4016.477532997412
 31
0.0
  0
ARC
  5
15CA5
330
747D
100
AcDbEntity
  8
細線
100
AcDbCircle
 10
5798.444500934404
 20
4021.977532997413
 30
0.0
 40
5.5
100
AcDbArc
 50
190.4214509727298
 51
269.9999999999997
  0
ARC
  5
15CA6
330
747D
100
AcDbEntity
  8
部品1
100
AcDbCircle
 10
5797.612849512634
 20
4020.977532997412
 30
0.0
 40
6.0
100
AcDbArc
 50
190.5838025965097
 51
270.0
  0
ARC
  5
15CA7
330
747D
100
AcDbEntity
  8
細線
100
AcDbCircle
 10
5832.611119403649
 20
4030.977532997413
 30
0.0
 40
6.0
100
AcDbArc
 50
270.0
 51
0.0
  0
ARC
  5
15CA8
330
747D
100
AcDbEntity
  8
部品1
100
AcDbCircle
 10
5838.611119403649
 20
4020.977532997412
 30
0.0
 40
6.0
100
AcDbArc
 50
270.0
 51
0.0
  0
ARC
  5
15CA9
330
747D
100
AcDbEntity
  8
細線
100
AcDbCircle
 10
5837.61111940365
 20
4021.977532997413
 30
0.0
 40
5.5
100
AcDbArc
 50
270.0
 51
0.0
  0
ARC
  5
15CAA
330
747D
100
AcDbEntity
  8
細線
100
AcDbCircle
 10
5822.818658582395
 20
4033.977532997413
 30
0.0
 40
6.0
100
AcDbArc
 50
270.0
 51
360.0
  0
LINE
  5
15CAB
330
747D
100
AcDbEntity
  8
細線
100
AcDbLine
 10
5810.611119403649
 20
4027.977532997413
 30
0.0
 11
5822.818658582395
 21
4027.977532997413
 31
0.0
  0
ARC
  5
15CAC
330
747D
100
AcDbEntity
  8
細線
100
AcDbCircle
 10
5812.105543313484
 20
4033.977532997413
 30
0.0
 40
3.0
100
AcDbArc
 50
270.0
 51
351.9004491617184
  0
LINE
  5
15CAD
330
747D
100
AcDbEntity
  8
細線
100
AcDbLine
 10
5810.611119403649
 20
4030.977532997413
 30
0.0
 11
5812.105543313484
 21
4030.977532997413
 31
0.0
  0
LINE
  5
15CAE
330
747D
100
AcDbEntity
  8
細線
100
AcDbLine
 10
5801.992075768127
 20
4024.977532997413
 30
0.0
 11
5832.611119403649
 21
4024.977532997413
 31
0.0
  0
ARC
  5
15CAF
330
747D
100
AcDbEntity
  8
細線
100
AcDbCircle
 10
5801.992075768127
 20
4118.977532997412
 30
0.0
 40
6.0
100
AcDbArc
 50
90.0
 51
171.2120626773636
  0
LINE
  5
15CB0
330
747D
100
AcDbEntity
  8
細線
100
AcDbLine
 10
5810.611119403649
 20
4118.977025098851
 30
0.0
 11
5797.847792187682
 21
4118.977025098851
 31
0.0
  0
CIRCLE
  5
15CB1
330
747D
100
AcDbEntity
  8
細線
 48
50.0
100
AcDbCircle
 10
5818.111984458142
 20
4175.477532997413
 30
0.0
 40
20.0
  0
LINE
  5
15CB2
330
747D
100
AcDbEntity
  8
部品1
100
AcDbLine
 10
5838.611119403649
 20
4134.977532997413
 30
0.0
 11
5797.612849512634
 21
4134.977532997413
 31
0.0
  0
LINE
  5
15CB3
330
747D
100
AcDbEntity
  8
細線
100
AcDbLine
 10
5837.61111940365
 20
4133.477532997413
 30
0.0
 11
5798.444500934404
 21
4133.477532997413
 31
0.0
  0
ARC
  5
15CB4
330
747D
100
AcDbEntity
  8
細線
100
AcDbCircle
 10
5798.444500934404
 20
4127.977532997412
 30
0.0
 40
5.5
100
AcDbArc
 50
89.99999999999969
 51
169.5785490272683
  0
ARC
  5
15CB5
330
747D
100
AcDbEntity
  8
部品1
100
AcDbCircle
 10
5797.612849512634
 20
4128.977532997413
 30
0.0
 40
6.0
100
AcDbArc
 50
90.0
 51
169.4161974034886
  0
ARC
  5
15CB6
330
747D
100
AcDbEntity
  8
細線
100
AcDbCircle
 10
5832.611119403649
 20
4118.977532997412
 30
0.0
 40
6.0
100
AcDbArc
 50
0.0
 51
90.0
  0
ARC
  5
15CB7
330
747D
100
AcDbEntity
  8
部品1
100
AcDbCircle
 10
5838.611119403649
 20
4128.977532997413
 30
0.0
 40
6.0
100
AcDbArc
 50
0.0
 51
90.0
  0
ARC
  5
15CB8
330
747D
100
AcDbEntity
  8
細線
100
AcDbCircle
 10
5837.61111940365
 20
4127.977532997412
 30
0.0
 40
5.5
100
AcDbArc
 50
0.0
 51
90.0
  0
CIRCLE
  5
15CB9
330
747D
100
AcDbEntity
  8
細線
 48
50.0
100
AcDbCircle
 10
5818.111984458142
 20
4175.477532997413
 30
0.0
 40
10.0
  0
ARC
  5
15CBA
330
747D
100
AcDbEntity
  8
細線
100
AcDbCircle
 10
5822.818658582395
 20
4115.977532997413
 30
0.0
 40
6.0
100
AcDbArc
 50
0.0
 51
90.0
  0
LINE
  5
15CBB
330
747D
100
AcDbEntity
  8
細線
100
AcDbLine
 10
5822.818658582395
 20
4121.977532997412
 30
0.0
 11
5810.611119403649
 21
4121.977532997412
 31
0.0
  0
ARC
  5
15CBC
330
747D
100
AcDbEntity
  8
細線
100
AcDbCircle
 10
5812.105543313482
 20
4115.977532997413
 30
0.0
 40
3.0
100
AcDbArc
 50
8.099550838277986
 51
90.0
  0
LINE
  5
15CBD
330
747D
100
AcDbEntity
  8
細線
100
AcDbLine
 10
5812.105543313482
 20
4118.977532997412
 30
0.0
 11
5810.611119403649
 21
4118.977532997412
 31
0.0
  0
LINE
  5
15CBE
330
747D
100
AcDbEntity
  8
細線
100
AcDbLine
 10
5832.611119403649
 20
4124.977532997412
 30
0.0
 11
5801.992075768127
 21
4124.977532997412
 31
0.0
  0
LINE
  5
15CC5
330
747D
100
AcDbEntity
  8
部品1
100
AcDbLine
 10
4822.611119403649
 20
4970.477532997414
 30
0.0
 11
5532.548671574968
 21
4970.477532997414
 31
0.0
  0
LINE
  5
15CCD
330
747D
100
AcDbEntity
  8
部品1
100
AcDbLine
 10
5552.548671574968
 20
4970.477532997414
 30
0.0
 11
5552.61111940365
 21
4970.477532997413
 31
0.0
  0
ARC
  5
15CCE
330
747D
100
AcDbEntity
  8
細線
 48
0.2
100
AcDbCircle
 10
5549.548671574968
 20
4970.698042828662
 30
0.0
 40
1.0
100
AcDbArc
 50
0.0
 51
73.39845040097829
  0
LINE
  5
15CCF
330
747D
100
AcDbEntity
  8
細線
 48
50.0
100
AcDbLine
 10
5532.548671574968
 20
4970.477532997414
 30
0.0
 11
5532.548671574968
 21
4970.727532997415
 31
0.0
  0
ARC
  5
15CD0
330
747D
100
AcDbEntity
  8
細線
 48
0.2
100
AcDbCircle
 10
5539.548671574968
 20
4970.698042828662
 30
0.0
 40
1.0
100
AcDbArc
 50
106.6015495990225
 51
180.0000000000016
  0
LINE
  5
15CD1
330
747D
100
AcDbEntity
  8
細線
 48
0.2
100
AcDbLine
 10
5552.548671574968
 20
4970.727532997415
 30
0.0
 11
5532.548671574968
 21
4970.727532997415
 31
0.0
  0
LINE
  5
15CD2
330
747D
100
AcDbEntity
  8
細線
 48
0.2
100
AcDbLine
 10
5552.548671574968
 20
4968.227532997414
 30
0.0
 11
5532.548671574968
 21
4968.227532997414
 31
0.0
  0
ARC
  5
15CD3
330
747D
100
AcDbEntity
  8
細線
 48
0.2
100
AcDbCircle
 10
5544.548671574968
 20
4953.927532997417
 30
0.0
 40
18.49999999999796
100
AcDbArc
 50
73.39845040097829
 51
106.6015495990228
  0
LINE
  5
15CD4
330
747D
100
AcDbEntity
  8
細線
 48
0.2
100
AcDbLine
 10
5550.232662871476
 20
4971.427532997416
 30
0.0
 11
5538.864680278464
 21
4971.427532997416
 31
0.0
  0
LINE
  5
15CD5
330
747D
100
AcDbEntity
  8
細線
 48
0.2
100
AcDbLine
 10
5552.548671574968
 20
4966.227532997415
 30
0.0
 11
5532.548671574968
 21
4966.227532997415
 31
0.0
  0
LINE
  5
15CD6
330
747D
100
AcDbEntity
  8
部品1
 48
0.2
100
AcDbLine
 10
5552.548671574968
 20
4963.727532997414
 30
0.0
 11
5532.548671574968
 21
4963.727532997414
 31
0.0
  0
LINE
  5
15CD7
330
747D
100
AcDbEntity
  8
部品1
 48
50.0
100
AcDbLine
 10
5532.548671574968
 20
4963.727532997414
 30
0.0
 11
5532.548671574968
 21
4970.477532997414
 31
0.0
  0
LINE
  5
15CD8
330
747D
100
AcDbEntity
  8
細線
 48
50.0
100
AcDbLine
 10
5540.685914380665
 20
4968.227532997414
 30
0.0
 11
5540.685914380665
 21
4966.227532997415
 31
0.0
  0
LINE
  5
15CD9
330
747D
100
AcDbEntity
  8
細線
 48
0.1
100
AcDbLine
 10
5552.548671574968
 20
4970.727532997415
 30
0.0
 11
5552.548671574968
 21
4963.727532997414
 31
0.0
  0
LINE
  5
15CDA
330
747D
100
AcDbEntity
  8
細線
 48
50.0
100
AcDbLine
 10
5548.536324426628
 20
4968.227532997414
 30
0.0
 11
5548.536324426628
 21
4966.227532997415
 31
0.0
  0
LINE
  5
15CF2
330
747D
100
AcDbEntity
  8
細線
 48
50.0
100
AcDbLine
 10
4748.61112608125
 20
8810.266171212065
 30
0.0
 11
3856.611126081251
 21
9260.266171211963
 31
0.0
  0
LINE
  5
15CF3
330
747D
100
AcDbEntity
  8
細線
 48
50.0
100
AcDbLine
 10
4748.61112608125
 20
9260.266171212064
 30
0.0
 11
3856.611126081251
 21
8810.266171211962
 31
0.0
  0
LINE
  5
15CF4
330
747D
100
AcDbEntity
  8
部品1
 48
50.0
100
AcDbLine
 10
4777.611119403634
 20
7974.766171212028
 30
0.0
 11
4777.611119403634
 21
9234.766171212035
 31
0.0
  0
LINE
  5
15CF5
330
747D
100
AcDbEntity
  8
部品1
 48
50.0
100
AcDbLine
 10
4749.611119403635
 20
7974.766171212028
 30
0.0
 11
4749.611119403581
 21
9261.766171212036
 31
0.0
  0
LINE
  5
15CF6
330
747D
100
AcDbEntity
  8
部品1
 48
50.0
100
AcDbLine
 10
4805.611119403635
 20
7974.766171212028
 30
0.0
 11
4805.61111940358
 21
9289.766171212034
 31
0.0
  0
LINE
  5
15CF7
330
747D
100
AcDbEntity
  8
部品1
 48
50.0
100
AcDbLine
 10
4806.61112608125
 20
9260.266171211956
 30
0.0
 11
4806.61112608125
 21
8810.266171211962
 31
0.0
  0
LINE
  5
15CF8
330
747D
100
AcDbEntity
  8
部品1
 48
50.0
100
AcDbLine
 10
4748.61112608125
 20
9260.266171212064
 30
0.0
 11
4748.61112608125
 21
8810.266171212065
 31
0.0
  0
ARC
  5
15CF9
330
747D
100
AcDbEntity
  8
想像線
 48
10.0
100
AcDbCircle
 10
4595.259068726489
 20
7921.461064587596
 30
0.0
 40
722.6499369155575
100
AcDbArc
 50
180.1343808685506
 51
270.5829222700354
  0
LINE
  5
15CFA
330
747D
100
AcDbEntity
  8
想像線
 48
10.0
100
AcDbLine
 10
4602.611119403647
 20
7919.766171212028
 30
0.0
 11
4602.611119403647
 21
7198.848527556238
 31
0.0
  0
LINE
  5
15CFB
330
747D
100
AcDbEntity
  8
部品1
 48
50.0
100
AcDbLine
 10
4302.111119403642
 20
8810.266171212013
 30
0.0
 11
4302.110956531538
 21
8051.265339048816
 31
0.0
  0
LINE
  5
15CFC
330
747D
100
AcDbEntity
  8
部品1
 48
50.0
100
AcDbLine
 10
4833.111113059347
 20
8051.266171236694
 30
0.0
 11
4833.111116032211
 21
8810.266171212035
 31
0.0
  0
LINE
  5
15CFD
330
747D
100
AcDbEntity
  8
破線
 48
10.0
100
AcDbLine
 10
4856.611119403642
 20
8074.766171212043
 30
0.0
 11
4856.611110234535
 21
8617.266160294118
 31
0.0
  0
LINE
  5
15CFE
330
747D
100
AcDbEntity
  8
部品1
 48
50.0
100
AcDbLine
 10
4722.111119403633
 20
8051.266171212034
 30
0.0
 11
4722.111119403609
 21
8810.266171212093
 31
0.0
  0
LINE
  5
15CFF
330
747D
100
AcDbEntity
  8
破線
 48
10.0
100
AcDbLine
 10
4698.611119403642
 20
8074.766171212035
 30
0.0
 11
4698.611113241379
 21
8617.266166815962
 31
0.0
  0
LINE
  5
15D00
330
747D
100
AcDbEntity
  8
部品1
 48
5.0
100
AcDbLine
 10
3870.61111940365
 20
7949.266171211911
 30
0.0
 11
4753.611119403649
 21
7949.26617121197
 31
0.0
  0
LINE
  5
15D02
330
747D
100
AcDbEntity
  8
部品1
100
AcDbLine
 10
4602.611119403647
 20
7945.766171212042
 30
0.0
 11
3872.611119403649
 21
7945.766171212014
 31
0.0
  0
LINE
  5
15D03
330
747D
100
AcDbEntity
  8
部品1
100
AcDbLine
 10
4722.111689851812
 20
8051.265590392072
 30
0.0
 11
3884.112090830044
 21
8051.265088903546
 31
0.0
  0
LINE
  5
15D04
330
747D
100
AcDbEntity
  8
破線
 48
10.0
100
AcDbLine
 10
4698.611119403642
 20
8074.766171212013
 30
0.0
 11
3907.611119403642
 21
8074.766171211999
 31
0.0
  0
DIMENSION
  5
15D05
330
747D
100
AcDbEntity
  8
寸法
 48
50.0
100
AcDbDimension
  2
*D20
 10
4567.611119403647
 20
7479.942503416907
 30
0.0
 11
4225.111119403649
 21
7479.942503416907
 31
0.0
 70
   160
 71
     5
 42
684.9999999999945
  3
INABA_S40G
100
AcDbAlignedDimension
 13
3882.611119403653
 23
7919.766171211984
 33
0.0
 14
4567.611119403647
 24
7919.766171211948
 34
0.0
100
AcDbRotatedDimension
  0
LINE
  5
15D06
330
747D
100
AcDbEntity
  8
細線
 48
50.0
100
AcDbLine
 10
4182.611119403648
 20
7945.766171212049
 30
0.0
 11
4182.611119403648
 21
7919.766171212014
 31
0.0
  0
LINE
  5
15D07
330
747D
100
AcDbEntity
  8
細線
 48
50.0
100
AcDbLine
 10
4222.611119403647
 20
7945.766171212049
 30
0.0
 11
4222.611119403647
 21
7919.766171212014
 31
0.0
  0
LINE
  5
15D08
330
747D
100
AcDbEntity
  8
細線
 48
50.0
100
AcDbLine
 10
4449.611119403647
 20
7945.766171212264
 30
0.0
 11
4449.611119403647
 21
7919.766171212228
 31
0.0
  0
LINE
  5
15D09
330
747D
100
AcDbEntity
  8
細線
 48
50.0
100
AcDbLine
 10
4409.611119403647
 20
7945.766171212264
 30
0.0
 11
4409.611119403647
 21
7919.766171212228
 31
0.0
  0
LINE
  5
15D0A
330
747D
100
AcDbEntity
  8
部品1
 48
5.0
100
AcDbLine
 10
4604.611119403648
 20
7949.266171212028
 30
0.0
 11
4604.611119403648
 21
7919.766171212028
 31
0.0
  0
LINE
  5
15D0B
330
747D
100
AcDbEntity
  8
部品1
 48
0.2
100
AcDbLine
 10
4589.673567232327
 20
7912.76380116725
 30
0.0
 11
4594.673567232326
 21
7912.76380116725
 31
0.0
  0
ARC
  5
15D0C
330
747D
100
AcDbEntity
  8
細線
 48
0.2
100
AcDbCircle
 10
4594.673567232326
 20
7920.76380116725
 30
0.0
 40
4.049999999999999
100
AcDbArc
 50
194.2603506853988
 51
345.7396493146012
  0
ARC
  5
15D0D
330
747D
100
AcDbEntity
  8
部品1
 48
0.2
100
AcDbCircle
 10
4589.673567232327
 20
7920.76380116725
 30
0.0
 40
8.0
100
AcDbArc
 50
187.1636477221926
 51
269.9999999999992
  0
ARC
  5
15D0E
330
747D
100
AcDbEntity
  8
部品1
 48
0.2
100
AcDbCircle
 10
4594.673567232326
 20
7920.76380116725
 30
0.0
 40
8.0
100
AcDbArc
 50
270.0
 51
352.8363522778074
  0
LINE
  5
15D0F
330
747D
100
AcDbEntity
  8
部品1
100
AcDbLine
 10
4602.611119403647
 20
7945.766171212079
 30
0.0
 11
4602.611119403647
 21
7919.766171212021
 31
0.0
  0
LINE
  5
15D10
330
747D
100
AcDbEntity
  8
部品1
 48
5.0
100
AcDbLine
 10
4832.611119403649
 20
7974.766171212028
 30
0.0
 11
4832.611119403651
 21
7949.266171212028
 31
0.0
  0
LINE
  5
15D11
330
747D
100
AcDbEntity
  8
部品1
 48
5.0
100
AcDbLine
 10
4722.611119403649
 20
7974.766171212028
 30
0.0
 11
4722.611119403651
 21
7949.266171212028
 31
0.0
  0
LINE
  5
15D12
330
747D
100
AcDbEntity
  8
部品1
 48
5.0
100
AcDbLine
 10
4753.611119403649
 20
7974.766171212028
 30
0.0
 11
4753.611119403649
 21
7949.266171212028
 31
0.0
  0
LINE
  5
15D13
330
747D
100
AcDbEntity
  8
部品1
 48
5.0
100
AcDbLine
 10
4801.611119403651
 20
7974.766171212028
 30
0.0
 11
4801.611119403649
 21
7949.266171212028
 31
0.0
  0
LINE
  5
15D14
330
747D
100
AcDbEntity
  8
部品1
 48
5.0
100
AcDbLine
 10
4820.61111940365
 20
7949.266171212028
 30
0.0
 11
4820.61111940365
 21
7919.766171212028
 31
0.0
  0
LINE
  5
15D15
330
747D
100
AcDbEntity
  8
部品1
100
AcDbLine
 10
4820.61111940365
 20
7949.266171211977
 30
0.0
 11
4820.61111940365
 21
7919.766171212028
 31
0.0
  0
LINE
  5
15D16
330
747D
100
AcDbEntity
  8
部品1
100
AcDbLine
 10
4822.611119403649
 20
7945.766171212049
 30
0.0
 11
4822.611119403649
 21
7919.766171212014
 31
0.0
  0
LINE
  5
15D17
330
747D
100
AcDbEntity
  8
部品1
 48
5.0
100
AcDbLine
 10
4734.611119403649
 20
7949.266171212028
 30
0.0
 11
4734.611119403649
 21
7919.766171212028
 31
0.0
  0
LINE
  5
15D18
330
747D
100
AcDbEntity
  8
部品1
100
AcDbLine
 10
4734.611119403647
 20
7949.26617121197
 30
0.0
 11
4734.611119403646
 21
7919.766171212021
 31
0.0
  0
LINE
  5
15D19
330
747D
100
AcDbEntity
  8
部品1
 48
5.0
100
AcDbLine
 10
4734.611119403649
 20
7919.766171212028
 30
0.0
 11
4820.61111940365
 21
7919.766171212028
 31
0.0
  0
LINE
  5
15D1A
330
747D
100
AcDbEntity
  8
部品1
 48
5.0
100
AcDbLine
 10
4749.611119403635
 20
7974.766171212028
 30
0.0
 11
4805.611119403635
 21
7974.766171212028
 31
0.0
  0
LINE
  5
15D1B
330
747D
100
AcDbEntity
  8
部品1
 48
50.0
100
AcDbLine
 10
4833.111119403631
 20
8051.266171236701
 30
0.0
 11
4805.611119403635
 21
8023.266171212027
 31
0.0
  0
LINE
  5
15D1C
330
747D
100
AcDbEntity
  8
部品1
 48
5.0
100
AcDbLine
 10
4809.611119403649
 20
7974.766171212028
 30
0.0
 11
4832.611119403649
 21
7974.766171212028
 31
0.0
  0
LINE
  5
15D1D
330
747D
100
AcDbEntity
  8
部品1
 48
5.0
100
AcDbLine
 10
4745.611119403649
 20
7974.766171212028
 30
0.0
 11
4722.611119403649
 21
7974.766171212028
 31
0.0
  0
LINE
  5
15D1E
330
747D
100
AcDbEntity
  8
部品1
 48
50.0
100
AcDbLine
 10
4749.611119403635
 20
8023.266171212027
 30
0.0
 11
4722.111119403633
 21
8051.266171212034
 31
0.0
  0
LINE
  5
15D1F
330
747D
100
AcDbEntity
  8
細線
 48
50.0
100
AcDbLine
 10
5896.611119403647
 20
7945.766171212061
 30
0.0
 11
5896.611119403647
 21
7919.766171212014
 31
0.0
  0
LINE
  5
15D20
330
747D
100
AcDbEntity
  8
部品1
100
AcDbLine
 10
3856.611126081251
 20
8810.266171211962
 30
0.0
 11
4748.61112608125
 21
8810.266171212065
 31
0.0
  0
LINE
  5
15D21
330
747D
100
AcDbEntity
  8
部品1
 48
5.0
100
AcDbLine
 10
4777.611119403634
 20
8394.766171212028
 30
0.0
 11
4749.611119403581
 21
8394.766171212035
 31
0.0
  0
LINE
  5
15D22
330
747D
100
AcDbEntity
  8
部品1
 48
50.0
100
AcDbLine
 10
4777.611119403625
 20
8852.766171212035
 30
0.0
 11
4805.611119403609
 21
8852.766171212035
 31
0.0
  0
LINE
  5
15D23
330
747D
100
AcDbEntity
  8
部品1
 48
50.0
100
AcDbLine
 10
4777.611119403625
 20
8814.766171212035
 30
0.0
 11
4805.611119403609
 21
8814.766171212035
 31
0.0
  0
LINE
  5
15D24
330
747D
100
AcDbEntity
  8
部品1
 48
5.0
100
AcDbLine
 10
4777.611119403634
 20
8814.766171212028
 30
0.0
 11
4749.611119403581
 21
8814.766171212035
 31
0.0
  0
DIMENSION
  5
15D25
330
747D
100
AcDbEntity
  8
寸法
100
AcDbDimension
  2
*D19
 10
4722.611119403653
 20
9505.574390837089
 30
0.0
 11
4302.611119403653
 21
9505.574390837089
 31
0.0
 70
   160
  1
2X420=<>
 71
     5
 42
839.9999999999982
  3
INABA_S40G
100
AcDbAlignedDimension
 13
3882.611119403655
 23
9289.76617121202
 33
0.0
 14
4722.611119403653
 24
9289.766171212107
 34
0.0
100
AcDbRotatedDimension
1001
ACAD
1000
DSTYLE
1002
{
1002
}
  0
LINE
  5
15D26
330
747D
100
AcDbEntity
  8
部品1
100
AcDbLine
 10
3856.611126081251
 20
9260.266171211963
 30
0.0
 11
4748.61112608125
 21
9260.266171212071
 31
0.0
  0
LINE
  5
15D27
330
747D
100
AcDbEntity
  8
部品1
100
AcDbLine
 10
3855.611119403654
 20
9261.766171211991
 30
0.0
 11
4774.991822422278
 21
9261.766171212014
 31
0.0
  0
LINE
  5
15D28
330
747D
100
AcDbEntity
  8
部品1
100
AcDbLine
 10
4302.111119403586
 20
9289.766171211949
 30
0.0
 11
4302.111119403587
 21
9261.766171211949
 31
0.0
  0
LINE
  5
15D29
330
747D
100
AcDbEntity
  8
部品1
100
AcDbLine
 10
4302.11111940362
 20
9289.766171211985
 30
0.0
 11
4302.11111940362
 21
9261.766171211984
 31
0.0
  0
DIMENSION
  5
15D2A
330
747D
100
AcDbEntity
  8
寸法
 48
50.0
100
AcDbDimension
  2
*D18
 10
4832.611119403657
 20
9505.574390837089
 30
0.0
 11
4777.611119403655
 21
9759.852712208237
 31
0.0
 70
   160
 71
     5
 42
110.0000000000036
  3
INABA_S40G
100
AcDbAlignedDimension
 13
4722.611119403653
 23
9289.766171212107
 33
0.0
 14
4832.611119403657
 24
9289.766171212086
 34
0.0
100
AcDbRotatedDimension
1001
ACAD
1000
DSTYLE
1002
{
1070
   279
1070
     2
1002
}
  0
LINE
  5
15D2B
330
747D
100
AcDbEntity
  8
部品1
 48
50.0
100
AcDbLine
 10
4807.111126081243
 20
9260.266171211963
 30
0.0
 11
4805.611119403621
 21
9261.766171211956
 31
0.0
  0
LINE
  5
15D2C
330
747D
100
AcDbEntity
  8
部品1
 48
50.0
100
AcDbLine
 10
4748.163726891671
 20
9260.266171212071
 30
0.0
 11
4749.611119403548
 21
9261.766171212
 31
0.0
  0
LINE
  5
15D2D
330
747D
100
AcDbEntity
  8
部品1
 48
5.0
100
AcDbLine
 10
4832.611119403657
 20
9289.766171212034
 30
0.0
 11
4832.611119403653
 21
9261.766171212043
 31
0.0
  0
LINE
  5
15D2E
330
747D
100
AcDbEntity
  8
部品1
 48
5.0
100
AcDbLine
 10
4805.611119403584
 20
9234.766171212035
 30
0.0
 11
4749.611119403581
 21
9234.766171212035
 31
0.0
  0
LINE
  5
15D2F
330
747D
100
AcDbEntity
  8
部品1
 48
5.0
100
AcDbLine
 10
4752.320393850829
 20
9289.766171212034
 30
0.0
 11
4774.991822422257
 21
9261.766171212036
 31
0.0
  0
LINE
  5
15D30
330
747D
100
AcDbEntity
  8
部品1
 48
5.0
100
AcDbLine
 10
4722.611119403653
 20
9261.766171212036
 30
0.0
 11
4722.611119403653
 21
9289.766171212034
 31
0.0
  0
LINE
  5
15D83
330
747D
100
AcDbEntity
  8
細線
 48
50.0
100
AcDbLine
 10
5727.61111940365
 20
5066.977532997416
 30
0.0
 11
5727.61111940365
 21
4972.977532997413
 31
0.0
  0
LINE
  5
15D93
330
747D
100
AcDbEntity
  8
細線
 48
50.0
100
AcDbLine
 10
5717.611119403649
 20
5066.977532997416
 30
0.0
 11
5717.611119403649
 21
5207.977532997418
 31
0.0
  0
LINE
  5
15D96
330
747D
100
AcDbEntity
  8
部品1
 48
50.0
100
AcDbLine
 10
5727.61111940365
 20
3175.977532997416
 30
0.0
 11
5727.61111940365
 21
3132.977532997414
 31
0.0
  0
LINE
  5
15DCC
330
747D
100
AcDbEntity
  8
部品1
100
AcDbLine
 10
4604.611119403648
 20
4972.977532997413
 30
0.0
 11
4604.611119403648
 21
3175.977532997433
 31
0.0
  0
LINE
  5
15DCD
330
747D
100
AcDbEntity
  8
部品1
100
AcDbLine
 10
4734.611119403649
 20
4972.977532997413
 30
0.0
 11
4734.611119403649
 21
3175.977532997433
 31
0.0
  0
LINE
  5
15DCE
330
747D
100
AcDbEntity
  8
部品1
100
AcDbLine
 10
4602.611119403647
 20
4970.477532997413
 30
0.0
 11
4602.61111940365
 21
3179.477532997433
 31
0.0
  0
LINE
  5
15DCF
330
747D
100
AcDbEntity
  8
部品1
100
AcDbLine
 10
4822.611119403649
 20
4970.477532997413
 30
0.0
 11
4822.611119403649
 21
3179.477532997428
 31
0.0
  0
LINE
  5
15DD0
330
747D
100
AcDbEntity
  8
部品1
100
AcDbLine
 10
4820.61111940365
 20
4972.977532997413
 30
0.0
 11
4820.61111940365
 21
3175.977532997433
 31
0.0
  0
LINE
  5
15DD1
330
747D
100
AcDbEntity
  8
部品1
100
AcDbLine
 10
3872.611119403649
 20
3179.477532997418
 30
0.0
 11
4582.548671574968
 21
3179.477532997433
 31
0.0
  0
LINE
  5
15DD2
330
747D
100
AcDbEntity
  8
細線
 48
50.0
100
AcDbLine
 10
4590.685914380665
 20
3181.727532997433
 30
0.0
 11
4590.685914380665
 21
3183.727532997431
 31
0.0
  0
LINE
  5
15DD3
330
747D
100
AcDbEntity
  8
部品1
 48
50.0
100
AcDbLine
 10
4582.548671574968
 20
3186.227532997431
 30
0.0
 11
4582.548671574968
 21
3179.477532997433
 31
0.0
  0
LINE
  5
15DD4
330
747D
100
AcDbEntity
  8
細線
 48
0.1
100
AcDbLine
 10
4602.548671574968
 20
3179.227532997431
 30
0.0
 11
4602.548671574968
 21
3186.227532997431
 31
0.0
  0
LINE
  5
15DD5
330
747D
100
AcDbEntity
  8
細線
 48
50.0
100
AcDbLine
 10
4598.536324426627
 20
3181.727532997433
 30
0.0
 11
4598.536324426627
 21
3183.727532997431
 31
0.0
  0
LINE
  5
15DD6
330
747D
100
AcDbEntity
  8
細線
 48
0.2
100
AcDbLine
 10
4602.548671574968
 20
3179.227532997431
 30
0.0
 11
4582.548671574968
 21
3179.227532997431
 31
0.0
  0
LINE
  5
15DD7
330
747D
100
AcDbEntity
  8
細線
 48
0.2
100
AcDbLine
 10
4602.548671574968
 20
3181.727532997431
 30
0.0
 11
4582.548671574968
 21
3181.727532997433
 31
0.0
  0
ARC
  5
15DD8
330
747D
100
AcDbEntity
  8
細線
 48
0.2
100
AcDbCircle
 10
4594.548671574968
 20
3196.027532997428
 30
0.0
 40
18.49999999999796
100
AcDbArc
 50
253.3984504009772
 51
286.6015495990217
  0
LINE
  5
15DD9
330
747D
100
AcDbEntity
  8
細線
 48
0.2
100
AcDbLine
 10
4600.232662871476
 20
3178.52753299743
 30
0.0
 11
4588.864680278464
 21
3178.52753299743
 31
0.0
  0
ARC
  5
15DDA
330
747D
100
AcDbEntity
  8
細線
 48
0.2
100
AcDbCircle
 10
4589.548671574968
 20
3179.257023166183
 30
0.0
 40
1.0
100
AcDbArc
 50
179.9999999999984
 51
253.3984504009775
  0
LINE
  5
15DDB
330
747D
100
AcDbEntity
  8
細線
 48
50.0
100
AcDbLine
 10
4582.548671574968
 20
3179.477532997433
 30
0.0
 11
4582.548671574968
 21
3179.227532997431
 31
0.0
  0
ARC
  5
15DDC
330
747D
100
AcDbEntity
  8
細線
 48
0.2
100
AcDbCircle
 10
4599.548671574968
 20
3179.257023166183
 30
0.0
 40
1.0
100
AcDbArc
 50
286.6015495990217
 51
0.0
  0
LINE
  5
15DDD
330
747D
100
AcDbEntity
  8
部品1
100
AcDbLine
 10
4602.548671574968
 20
3179.477532997433
 30
0.0
 11
4602.61111940365
 21
3179.477532997433
 31
0.0
  0
LINE
  5
15DDE
330
747D
100
AcDbEntity
  8
部品1
100
AcDbLine
 10
4602.548671574968
 20
3179.477532997424
 30
0.0
 11
4602.61111940365
 21
3179.477532997424
 31
0.0
  0
LINE
  5
15DDF
330
747D
100
AcDbEntity
  8
細線
 48
0.2
100
AcDbLine
 10
4602.548671574968
 20
3183.727532997431
 30
0.0
 11
4582.548671574968
 21
3183.727532997431
 31
0.0
  0
LINE
  5
15DE0
330
747D
100
AcDbEntity
  8
部品1
 48
0.2
100
AcDbLine
 10
4602.548671574968
 20
3186.227532997431
 30
0.0
 11
4582.548671574968
 21
3186.227532997431
 31
0.0
  0
LINE
  5
15DE1
330
747D
100
AcDbEntity
  8
部品1
100
AcDbLine
 10
3872.611119403649
 20
4970.477532997414
 30
0.0
 11
4582.548671574968
 21
4970.477532997414
 31
0.0
  0
ARC
  5
15DE2
330
747D
100
AcDbEntity
  8
細線
100
AcDbCircle
 10
4848.444500934403
 20
4127.977532997412
 30
0.0
 40
5.5
100
AcDbArc
 50
89.99999999999969
 51
169.5785490272683
  0
LINE
  5
15DE3
330
747D
100
AcDbEntity
  8
部品1
100
AcDbLine
 10
4888.611119403649
 20
4134.977532997413
 30
0.0
 11
4847.612849512634
 21
4134.977532997413
 31
0.0
  0
ARC
  5
15DE4
330
747D
100
AcDbEntity
  8
細線
100
AcDbCircle
 10
4851.992075768126
 20
4118.977532997412
 30
0.0
 40
6.0
100
AcDbArc
 50
90.0
 51
171.2120626773636
  0
ARC
  5
15DE5
330
747D
100
AcDbEntity
  8
細線
100
AcDbCircle
 10
4848.444500934403
 20
4021.977532997413
 30
0.0
 40
5.5
100
AcDbArc
 50
190.4214509727298
 51
269.9999999999997
  0
LINE
  5
15DE6
330
747D
100
AcDbEntity
  8
部品1
100
AcDbLine
 10
4847.612849512634
 20
4014.977532997412
 30
0.0
 11
4888.611119403649
 21
4014.977532997412
 31
0.0
  0
LINE
  5
15DE7
330
747D
100
AcDbEntity
  8
細線
100
AcDbLine
 10
4860.61111940365
 20
4030.978040895976
 30
0.0
 11
4847.132414904827
 21
4030.978040895976
 31
0.0
  0
ARC
  5
15DE8
330
747D
100
AcDbEntity
  8
細線
100
AcDbCircle
 10
4851.992075768126
 20
4030.977532997413
 30
0.0
 40
6.0
100
AcDbArc
 50
188.7879373226349
 51
270.0
  0
ARC
  5
15DE9
330
747D
100
AcDbEntity
  8
部品1
100
AcDbCircle
 10
5136.611119403649
 20
4074.977532997412
 30
0.0
 40
300.0
100
AcDbArc
 50
169.4161974034894
 51
190.5838025965105
  0
ARC
  5
15DEA
330
747D
100
AcDbEntity
  8
細線
100
AcDbCircle
 10
5136.611119403649
 20
4074.977532997412
 30
0.0
 40
298.5
100
AcDbArc
 50
169.578549027269
 51
190.4214509727309
  0
ARC
  5
15DEB
330
747D
100
AcDbEntity
  8
細線
100
AcDbCircle
 10
5136.611119403649
 20
4074.977532997412
 30
0.0
 40
294.0
100
AcDbArc
 50
171.212062677364
 51
188.7879373226359
  0
ARC
  5
15DEC
330
747D
100
AcDbEntity
  8
部品1
100
AcDbCircle
 10
4847.612849512634
 20
4020.977532997412
 30
0.0
 40
6.0
100
AcDbArc
 50
190.5838025965097
 51
270.0
  0
ARC
  5
15DED
330
747D
100
AcDbEntity
  8
部品1
100
AcDbCircle
 10
4847.612849512634
 20
4128.977532997413
 30
0.0
 40
6.0
100
AcDbArc
 50
90.0
 51
169.4161974034886
  0
LINE
  5
15DEE
330
747D
100
AcDbEntity
  8
細線
100
AcDbLine
 10
4878.818658582395
 20
4033.977532997413
 30
0.0
 11
4878.818658582395
 21
4115.977532997413
 31
0.0
  0
LINE
  5
15DEF
330
747D
100
AcDbEntity
  8
細線
100
AcDbLine
 10
4860.61111940365
 20
4124.977532997412
 30
0.0
 11
4860.61111940365
 21
4024.977532997413
 31
0.0
  0
ARC
  5
15DF0
330
747D
100
AcDbEntity
  8
細線
100
AcDbCircle
 10
4574.008337495725
 20
4074.977532997412
 30
0.0
 40
294.0
100
AcDbArc
 50
351.900449161722
 51
8.099550838278029
  0
LINE
  5
15DF1
330
747D
100
AcDbEntity
  8
細線
100
AcDbLine
 10
4888.611119403649
 20
4030.977532997413
 30
0.0
 11
4888.611119403649
 21
4118.977532997412
 31
0.0
  0
LINE
  5
15DF2
330
747D
100
AcDbEntity
  8
細線
100
AcDbLine
 10
4893.111119403649
 20
4021.977532997413
 30
0.0
 11
4893.111119403649
 21
4127.977532997412
 31
0.0
  0
LINE
  5
15DF3
330
747D
100
AcDbEntity
  8
部品1
100
AcDbLine
 10
4894.611119403649
 20
4020.977532997412
 30
0.0
 11
4894.611119403649
 21
4128.977532997413
 31
0.0
  0
LINE
  5
15DF4
330
747D
100
AcDbEntity
  8
細線
100
AcDbLine
 10
4851.992075768126
 20
4024.977532997413
 30
0.0
 11
4882.611119403649
 21
4024.977532997413
 31
0.0
  0
LINE
  5
15DF5
330
747D
100
AcDbEntity
  8
細線
100
AcDbLine
 10
4860.61111940365
 20
4030.977532997413
 30
0.0
 11
4862.105543313484
 21
4030.977532997413
 31
0.0
  0
ARC
  5
15DF6
330
747D
100
AcDbEntity
  8
細線
100
AcDbCircle
 10
4862.105543313484
 20
4033.977532997413
 30
0.0
 40
3.0
100
AcDbArc
 50
270.0
 51
351.9004491617184
  0
LINE
  5
15DF7
330
747D
100
AcDbEntity
  8
細線
100
AcDbLine
 10
4860.61111940365
 20
4027.977532997413
 30
0.0
 11
4872.818658582395
 21
4027.977532997413
 31
0.0
  0
ARC
  5
15DF8
330
747D
100
AcDbEntity
  8
細線
100
AcDbCircle
 10
4872.818658582395
 20
4033.977532997413
 30
0.0
 40
6.0
100
AcDbArc
 50
270.0
 51
360.0
  0
ARC
  5
15DF9
330
747D
100
AcDbEntity
  8
細線
100
AcDbCircle
 10
4887.61111940365
 20
4021.977532997413
 30
0.0
 40
5.5
100
AcDbArc
 50
270.0
 51
0.0
  0
ARC
  5
15DFA
330
747D
100
AcDbEntity
  8
部品1
100
AcDbCircle
 10
4888.611119403649
 20
4020.977532997412
 30
0.0
 40
6.0
100
AcDbArc
 50
270.0
 51
0.0
  0
ARC
  5
15DFB
330
747D
100
AcDbEntity
  8
細線
100
AcDbCircle
 10
4882.611119403649
 20
4030.977532997413
 30
0.0
 40
6.0
100
AcDbArc
 50
270.0
 51
0.0
  0
LINE
  5
15DFC
330
747D
100
AcDbEntity
  8
細線
100
AcDbLine
 10
4848.444500934403
 20
4016.477532997412
 30
0.0
 11
4887.61111940365
 21
4016.477532997412
 31
0.0
  0
LINE
  5
15DFD
330
747D
100
AcDbEntity
  8
細線
100
AcDbLine
 10
4882.611119403649
 20
4124.977532997412
 30
0.0
 11
4851.992075768126
 21
4124.977532997412
 31
0.0
  0
LINE
  5
15DFE
330
747D
100
AcDbEntity
  8
細線
100
AcDbLine
 10
4862.105543313482
 20
4118.977532997412
 30
0.0
 11
4860.61111940365
 21
4118.977532997412
 31
0.0
  0
ARC
  5
15DFF
330
747D
100
AcDbEntity
  8
細線
100
AcDbCircle
 10
4862.105543313482
 20
4115.977532997413
 30
0.0
 40
3.0
100
AcDbArc
 50
8.099550838277986
 51
90.0
  0
LINE
  5
15E00
330
747D
100
AcDbEntity
  8
細線
100
AcDbLine
 10
4872.818658582395
 20
4121.977532997412
 30
0.0
 11
4860.61111940365
 21
4121.977532997412
 31
0.0
  0
ARC
  5
15E01
330
747D
100
AcDbEntity
  8
細線
100
AcDbCircle
 10
4872.818658582395
 20
4115.977532997413
 30
0.0
 40
6.0
100
AcDbArc
 50
0.0
 51
90.0
  0
CIRCLE
  5
15E02
330
747D
100
AcDbEntity
  8
細線
 48
50.0
100
AcDbCircle
 10
4868.111984458142
 20
4175.477532997413
 30
0.0
 40
10.0
  0
ARC
  5
15E03
330
747D
100
AcDbEntity
  8
細線
100
AcDbCircle
 10
4887.61111940365
 20
4127.977532997412
 30
0.0
 40
5.5
100
AcDbArc
 50
0.0
 51
90.0
  0
ARC
  5
15E04
330
747D
100
AcDbEntity
  8
部品1
100
AcDbCircle
 10
4888.611119403649
 20
4128.977532997413
 30
0.0
 40
6.0
100
AcDbArc
 50
0.0
 51
90.0
  0
ARC
  5
15E05
330
747D
100
AcDbEntity
  8
細線
100
AcDbCircle
 10
4882.611119403649
 20
4118.977532997412
 30
0.0
 40
6.0
100
AcDbArc
 50
0.0
 51
90.0
  0
LINE
  5
15E06
330
747D
100
AcDbEntity
  8
細線
100
AcDbLine
 10
4887.61111940365
 20
4133.477532997413
 30
0.0
 11
4848.444500934403
 21
4133.477532997413
 31
0.0
  0
CIRCLE
  5
15E07
330
747D
100
AcDbEntity
  8
細線
 48
50.0
100
AcDbCircle
 10
4868.111984458142
 20
4175.477532997413
 30
0.0
 40
20.0
  0
LINE
  5
15E08
330
747D
100
AcDbEntity
  8
細線
100
AcDbLine
 10
4860.61111940365
 20
4118.977025098851
 30
0.0
 11
4847.847792187682
 21
4118.977025098851
 31
0.0
  0
LINE
  5
15E13
330
747D
100
AcDbEntity
  8
細線
 48
50.0
100
AcDbLine
 10
4598.536324426627
 20
4968.227532997414
 30
0.0
 11
4598.536324426627
 21
4966.227532997415
 31
0.0
  0
LINE
  5
15E14
330
747D
100
AcDbEntity
  8
細線
 48
0.1
100
AcDbLine
 10
4602.548671574968
 20
4970.727532997415
 30
0.0
 11
4602.548671574968
 21
4963.727532997414
 31
0.0
  0
LINE
  5
15E15
330
747D
100
AcDbEntity
  8
細線
 48
50.0
100
AcDbLine
 10
4590.685914380665
 20
4968.227532997414
 30
0.0
 11
4590.685914380665
 21
4966.227532997415
 31
0.0
  0
LINE
  5
15E16
330
747D
100
AcDbEntity
  8
部品1
 48
50.0
100
AcDbLine
 10
4582.548671574968
 20
4963.727532997414
 30
0.0
 11
4582.548671574968
 21
4970.477532997414
 31
0.0
  0
LINE
  5
15E17
330
747D
100
AcDbEntity
  8
部品1
 48
0.2
100
AcDbLine
 10
4602.548671574968
 20
4963.727532997414
 30
0.0
 11
4582.548671574968
 21
4963.727532997414
 31
0.0
  0
LINE
  5
15E18
330
747D
100
AcDbEntity
  8
細線
 48
0.2
100
AcDbLine
 10
4602.548671574968
 20
4966.227532997415
 30
0.0
 11
4582.548671574968
 21
4966.227532997415
 31
0.0
  0
LINE
  5
15E19
330
747D
100
AcDbEntity
  8
細線
 48
0.2
100
AcDbLine
 10
4600.232662871476
 20
4971.427532997416
 30
0.0
 11
4588.864680278464
 21
4971.427532997416
 31
0.0
  0
ARC
  5
15E1A
330
747D
100
AcDbEntity
  8
細線
 48
0.2
100
AcDbCircle
 10
4594.548671574968
 20
4953.927532997417
 30
0.0
 40
18.49999999999796
100
AcDbArc
 50
73.39845040097829
 51
106.6015495990228
  0
LINE
  5
15E1B
330
747D
100
AcDbEntity
  8
細線
 48
0.2
100
AcDbLine
 10
4602.548671574968
 20
4968.227532997414
 30
0.0
 11
4582.548671574968
 21
4968.227532997414
 31
0.0
  0
LINE
  5
15E1C
330
747D
100
AcDbEntity
  8
細線
 48
0.2
100
AcDbLine
 10
4602.548671574968
 20
4970.727532997415
 30
0.0
 11
4582.548671574968
 21
4970.727532997415
 31
0.0
  0
ARC
  5
15E1D
330
747D
100
AcDbEntity
  8
細線
 48
0.2
100
AcDbCircle
 10
4589.548671574968
 20
4970.698042828662
 30
0.0
 40
1.0
100
AcDbArc
 50
106.6015495990225
 51
180.0000000000016
  0
LINE
  5
15E1E
330
747D
100
AcDbEntity
  8
細線
 48
50.0
100
AcDbLine
 10
4582.548671574968
 20
4970.477532997414
 30
0.0
 11
4582.548671574968
 21
4970.727532997415
 31
0.0
  0
ARC
  5
15E1F
330
747D
100
AcDbEntity
  8
細線
 48
0.2
100
AcDbCircle
 10
4599.548671574968
 20
4970.698042828662
 30
0.0
 40
1.0
100
AcDbArc
 50
0.0
 51
73.39845040097829
  0
LINE
  5
15E20
330
747D
100
AcDbEntity
  8
部品1
100
AcDbLine
 10
4602.548671574968
 20
4970.477532997414
 30
0.0
 11
4602.61111940365
 21
4970.477532997413
 31
0.0
  0
LINE
  5
15E46
330
747D
100
AcDbEntity
  8
部品1
 48
50.0
100
AcDbLine
 10
5698.61112608125
 20
9260.266171212064
 30
0.0
 11
5698.61112608125
 21
8810.266171212065
 31
0.0
  0
LINE
  5
15E47
330
747D
100
AcDbEntity
  8
部品1
 48
50.0
100
AcDbLine
 10
5756.61112608125
 20
9260.266171211956
 30
0.0
 11
5756.61112608125
 21
8810.266171211962
 31
0.0
  0
LINE
  5
15E48
330
747D
100
AcDbEntity
  8
部品1
 48
50.0
100
AcDbLine
 10
5755.611119403635
 20
7974.766171212028
 30
0.0
 11
5755.61111940358
 21
9289.766171212034
 31
0.0
  0
LINE
  5
15E49
330
747D
100
AcDbEntity
  8
部品1
 48
50.0
100
AcDbLine
 10
5699.611119403635
 20
7974.766171212028
 30
0.0
 11
5699.611119403581
 21
9261.766171212036
 31
0.0
  0
LINE
  5
15E4A
330
747D
100
AcDbEntity
  8
部品1
 48
50.0
100
AcDbLine
 10
5727.611119403634
 20
7974.766171212028
 30
0.0
 11
5727.611119403634
 21
9234.766171212035
 31
0.0
  0
LINE
  5
15E4B
330
747D
100
AcDbEntity
  8
細線
 48
50.0
100
AcDbLine
 10
5698.61112608125
 20
9260.266171212064
 30
0.0
 11
4806.61112608125
 21
8810.266171211962
 31
0.0
  0
LINE
  5
15E4C
330
747D
100
AcDbEntity
  8
細線
 48
50.0
100
AcDbLine
 10
5698.61112608125
 20
8810.266171212065
 30
0.0
 11
4806.61112608125
 21
9260.266171211963
 31
0.0
  0
DIMENSION
  5
15E4D
330
747D
100
AcDbEntity
  8
寸法
 48
50.0
100
AcDbDimension
  2
*D23
 10
5517.611119403648
 20
7479.942503416907
 30
0.0
 11
5175.111119403649
 21
7479.942503416907
 31
0.0
 70
   160
 71
     5
 42
684.9999999999945
  3
INABA_S40G
100
AcDbAlignedDimension
 13
4832.611119403653
 23
7919.766171211984
 33
0.0
 14
5517.611119403648
 24
7919.766171211948
 34
0.0
100
AcDbRotatedDimension
  0
LINE
  5
15E4E
330
747D
100
AcDbEntity
  8
破線
 48
10.0
100
AcDbLine
 10
5648.611119403643
 20
8074.766171212013
 30
0.0
 11
4857.611119403642
 21
8074.766171211999
 31
0.0
  0
LINE
  5
15E4F
330
747D
100
AcDbEntity
  8
部品1
100
AcDbLine
 10
5672.111689851812
 20
8051.265590392072
 30
0.0
 11
4834.112090830044
 21
8051.265088903546
 31
0.0
  0
LINE
  5
15E50
330
747D
100
AcDbEntity
  8
部品1
100
AcDbLine
 10
4806.61112608125
 20
8810.266171211962
 30
0.0
 11
5698.61112608125
 21
8810.266171212065
 31
0.0
  0
LINE
  5
15E51
330
747D
100
AcDbEntity
  8
部品1
100
AcDbLine
 10
5552.611119403647
 20
7945.766171212042
 30
0.0
 11
4822.611119403649
 21
7945.766171212014
 31
0.0
  0
ARC
  5
15E52
330
747D
100
AcDbEntity
  8
想像線
 48
10.0
100
AcDbCircle
 10
5545.259068726489
 20
7921.461064587596
 30
0.0
 40
722.6499369155575
100
AcDbArc
 50
180.1343808685506
 51
270.5829222700354
  0
LINE
  5
15E53
330
747D
100
AcDbEntity
  8
部品1
 48
5.0
100
AcDbLine
 10
4801.611119403649
 20
7949.26617121191
 30
0.0
 11
5703.61111940365
 21
7949.26617121197
 31
0.0
  0
LINE
  5
15E54
330
747D
100
AcDbEntity
  8
部品1
 48
50.0
100
AcDbLine
 10
5252.111119403642
 20
8810.266171212013
 30
0.0
 11
5252.110956531538
 21
8051.265339048816
 31
0.0
  0
LINE
  5
15E55
330
747D
100
AcDbEntity
  8
細線
 48
50.0
100
AcDbLine
 10
4946.611119403648
 20
7945.766171212061
 30
0.0
 11
4946.611119403648
 21
7919.766171212014
 31
0.0
  0
LINE
  5
15E56
330
747D
100
AcDbEntity
  8
細線
 48
50.0
100
AcDbLine
 10
5172.611119403647
 20
7945.766171212049
 30
0.0
 11
5172.611119403647
 21
7919.766171212014
 31
0.0
  0
LINE
  5
15E57
330
747D
100
AcDbEntity
  8
細線
 48
50.0
100
AcDbLine
 10
5132.611119403648
 20
7945.766171212049
 30
0.0
 11
5132.611119403648
 21
7919.766171212014
 31
0.0
  0
LINE
  5
15E58
330
747D
100
AcDbEntity
  8
細線
 48
50.0
100
AcDbLine
 10
5359.611119403647
 20
7945.766171212264
 30
0.0
 11
5359.611119403647
 21
7919.766171212228
 31
0.0
  0
LINE
  5
15E59
330
747D
100
AcDbEntity
  8
細線
 48
50.0
100
AcDbLine
 10
5399.611119403648
 20
7945.766171212264
 30
0.0
 11
5399.611119403648
 21
7919.766171212228
 31
0.0
  0
LINE
  5
15E5A
330
747D
100
AcDbEntity
  8
想像線
 48
10.0
100
AcDbLine
 10
5552.611119403647
 20
7919.766171212028
 30
0.0
 11
5552.611119403647
 21
7198.848527556238
 31
0.0
  0
LINE
  5
15E5B
330
747D
100
AcDbEntity
  8
破線
 48
10.0
100
AcDbLine
 10
5648.611119403643
 20
8074.766171212035
 30
0.0
 11
5648.611113241379
 21
8617.266127602331
 31
0.0
  0
LINE
  5
15E5C
330
747D
100
AcDbEntity
  8
部品1
 48
50.0
100
AcDbLine
 10
5672.111119403633
 20
8051.266171212034
 30
0.0
 11
5672.111119403609
 21
8810.266171212093
 31
0.0
  0
LINE
  5
15E5D
330
747D
100
AcDbEntity
  8
破線
 48
10.0
100
AcDbLine
 10
5806.611119403642
 20
8074.766171212043
 30
0.0
 11
5806.611110234536
 21
8617.266121080486
 31
0.0
  0
LINE
  5
15E5E
330
747D
100
AcDbEntity
  8
部品1
 48
50.0
100
AcDbLine
 10
5783.111113059347
 20
8051.266171236694
 30
0.0
 11
5783.111116032211
 21
8810.266171212035
 31
0.0
  0
LINE
  5
15E5F
330
747D
100
AcDbEntity
  8
部品1
100
AcDbLine
 10
5552.611119403647
 20
7945.766171212079
 30
0.0
 11
5552.611119403647
 21
7919.766171212021
 31
0.0
  0
ARC
  5
15E60
330
747D
100
AcDbEntity
  8
部品1
 48
0.2
100
AcDbCircle
 10
5544.673567232326
 20
7920.76380116725
 30
0.0
 40
8.0
100
AcDbArc
 50
270.0
 51
352.8363522778074
  0
ARC
  5
15E61
330
747D
100
AcDbEntity
  8
部品1
 48
0.2
100
AcDbCircle
 10
5539.673567232327
 20
7920.76380116725
 30
0.0
 40
8.0
100
AcDbArc
 50
187.1636477221926
 51
269.9999999999992
  0
ARC
  5
15E62
330
747D
100
AcDbEntity
  8
細線
 48
0.2
100
AcDbCircle
 10
5544.673567232326
 20
7920.76380116725
 30
0.0
 40
4.049999999999999
100
AcDbArc
 50
194.2603506853988
 51
345.7396493146012
  0
LINE
  5
15E63
330
747D
100
AcDbEntity
  8
部品1
 48
0.2
100
AcDbLine
 10
5539.673567232327
 20
7912.76380116725
 30
0.0
 11
5544.673567232326
 21
7912.76380116725
 31
0.0
  0
LINE
  5
15E64
330
747D
100
AcDbEntity
  8
部品1
 48
5.0
100
AcDbLine
 10
5554.611119403649
 20
7949.266171212028
 30
0.0
 11
5554.611119403649
 21
7919.766171212028
 31
0.0
  0
LINE
  5
15E65
330
747D
100
AcDbEntity
  8
部品1
 48
50.0
100
AcDbLine
 10
5699.611119403635
 20
8023.266171212027
 30
0.0
 11
5672.111119403633
 21
8051.266171212034
 31
0.0
  0
LINE
  5
15E66
330
747D
100
AcDbEntity
  8
部品1
 48
5.0
100
AcDbLine
 10
5695.61111940365
 20
7974.766171212028
 30
0.0
 11
5672.611119403649
 21
7974.766171212028
 31
0.0
  0
LINE
  5
15E67
330
747D
100
AcDbEntity
  8
部品1
 48
5.0
100
AcDbLine
 10
5759.61111940365
 20
7974.766171212028
 30
0.0
 11
5782.611119403649
 21
7974.766171212028
 31
0.0
  0
LINE
  5
15E68
330
747D
100
AcDbEntity
  8
部品1
 48
50.0
100
AcDbLine
 10
5783.111119403631
 20
8051.266171236701
 30
0.0
 11
5755.611119403635
 21
8023.266171212027
 31
0.0
  0
LINE
  5
15E69
330
747D
100
AcDbEntity
  8
部品1
 48
5.0
100
AcDbLine
 10
5699.611119403635
 20
7974.766171212028
 30
0.0
 11
5755.611119403635
 21
7974.766171212028
 31
0.0
  0
LINE
  5
15E6A
330
747D
100
AcDbEntity
  8
部品1
 48
5.0
100
AcDbLine
 10
5684.611119403649
 20
7919.766171212028
 30
0.0
 11
5770.61111940365
 21
7919.766171212028
 31
0.0
  0
LINE
  5
15E6B
330
747D
100
AcDbEntity
  8
部品1
100
AcDbLine
 10
5684.611119403648
 20
7949.26617121197
 30
0.0
 11
5684.611119403646
 21
7919.766171212021
 31
0.0
  0
LINE
  5
15E6C
330
747D
100
AcDbEntity
  8
部品1
 48
5.0
100
AcDbLine
 10
5684.611119403649
 20
7949.266171212028
 30
0.0
 11
5684.611119403649
 21
7919.766171212028
 31
0.0
  0
LINE
  5
15E6D
330
747D
100
AcDbEntity
  8
部品1
100
AcDbLine
 10
5772.611119403649
 20
7945.766171212049
 30
0.0
 11
5772.611119403649
 21
7919.766171212014
 31
0.0
  0
LINE
  5
15E6E
330
747D
100
AcDbEntity
  8
部品1
100
AcDbLine
 10
5770.61111940365
 20
7949.266171211977
 30
0.0
 11
5770.61111940365
 21
7919.766171212028
 31
0.0
  0
LINE
  5
15E6F
330
747D
100
AcDbEntity
  8
部品1
 48
5.0
100
AcDbLine
 10
5770.61111940365
 20
7949.266171212028
 30
0.0
 11
5770.61111940365
 21
7919.766171212028
 31
0.0
  0
LINE
  5
15E70
330
747D
100
AcDbEntity
  8
部品1
 48
5.0
100
AcDbLine
 10
5751.611119403651
 20
7974.766171212028
 30
0.0
 11
5751.61111940365
 21
7949.266171212028
 31
0.0
  0
LINE
  5
15E71
330
747D
100
AcDbEntity
  8
部品1
 48
5.0
100
AcDbLine
 10
5703.61111940365
 20
7974.766171212028
 30
0.0
 11
5703.61111940365
 21
7949.266171212028
 31
0.0
  0
LINE
  5
15E72
330
747D
100
AcDbEntity
  8
部品1
 48
5.0
100
AcDbLine
 10
5672.611119403649
 20
7974.766171212028
 30
0.0
 11
5672.611119403651
 21
7949.266171212028
 31
0.0
  0
LINE
  5
15E73
330
747D
100
AcDbEntity
  8
部品1
 48
5.0
100
AcDbLine
 10
5782.611119403649
 20
7974.766171212028
 30
0.0
 11
5782.611119403651
 21
7949.266171212028
 31
0.0
  0
LINE
  5
15E74
330
747D
100
AcDbEntity
  8
部品1
 48
5.0
100
AcDbLine
 10
5727.611119403634
 20
8394.766171212028
 30
0.0
 11
5699.611119403582
 21
8394.766171212035
 31
0.0
  0
LINE
  5
15E75
330
747D
100
AcDbEntity
  8
部品1
 48
5.0
100
AcDbLine
 10
5727.611119403634
 20
8814.766171212028
 30
0.0
 11
5699.611119403582
 21
8814.766171212035
 31
0.0
  0
LINE
  5
15E76
330
747D
100
AcDbEntity
  8
部品1
 48
50.0
100
AcDbLine
 10
5727.611119403626
 20
8814.766171212035
 30
0.0
 11
5755.611119403609
 21
8814.766171212035
 31
0.0
  0
LINE
  5
15E77
330
747D
100
AcDbEntity
  8
部品1
 48
50.0
100
AcDbLine
 10
5727.611119403626
 20
8852.766171212035
 30
0.0
 11
5755.611119403609
 21
8852.766171212035
 31
0.0
  0
LINE
  5
15E78
330
747D
100
AcDbEntity
  8
部品1
100
AcDbLine
 10
4805.611119403654
 20
9261.766171211991
 30
0.0
 11
5724.991822422278
 21
9261.766171212014
 31
0.0
  0
LINE
  5
15E79
330
747D
100
AcDbEntity
  8
部品1
100
AcDbLine
 10
4806.61112608125
 20
9260.266171211963
 30
0.0
 11
5698.61112608125
 21
9260.266171212071
 31
0.0
  0
DIMENSION
  5
15E7A
330
747D
100
AcDbEntity
  8
寸法
100
AcDbDimension
  2
*D22
 10
5672.611119403653
 20
9505.574390837089
 30
0.0
 11
5252.611119403653
 21
9505.574390837089
 31
0.0
 70
   160
  1
2X420=<>
 71
     5
 42
839.9999999999982
  3
INABA_S40G
100
AcDbAlignedDimension
 13
4832.611119403654
 23
9289.76617121202
 33
0.0
 14
5672.611119403653
 24
9289.766171212107
 34
0.0
100
AcDbRotatedDimension
1001
ACAD
1000
DSTYLE
1002
{
1002
}
  0
LINE
  5
15E7B
330
747D
100
AcDbEntity
  8
部品1
100
AcDbLine
 10
5252.11111940362
 20
9289.766171211985
 30
0.0
 11
5252.11111940362
 21
9261.766171211984
 31
0.0
  0
LINE
  5
15E7C
330
747D
100
AcDbEntity
  8
部品1
100
AcDbLine
 10
5252.111119403586
 20
9289.766171211949
 30
0.0
 11
5252.111119403587
 21
9261.766171211949
 31
0.0
  0
DIMENSION
  5
15E7D
330
747D
100
AcDbEntity
  8
寸法
 48
50.0
100
AcDbDimension
  2
*D21
 10
5782.611119403657
 20
9505.574390837089
 30
0.0
 11
5727.611119403655
 21
9759.852712208237
 31
0.0
 70
   160
 71
     5
 42
110.0000000000036
  3
INABA_S40G
100
AcDbAlignedDimension
 13
5672.611119403653
 23
9289.766171212107
 33
0.0
 14
5782.611119403657
 24
9289.766171212086
 34
0.0
100
AcDbRotatedDimension
1001
ACAD
1000
DSTYLE
1002
{
1070
   279
1070
     2
1002
}
  0
LINE
  5
15E7E
330
747D
100
AcDbEntity
  8
部品1
 48
5.0
100
AcDbLine
 10
5672.611119403653
 20
9261.766171212036
 30
0.0
 11
5672.611119403653
 21
9289.766171212034
 31
0.0
  0
LINE
  5
15E7F
330
747D
100
AcDbEntity
  8
部品1
 48
5.0
100
AcDbLine
 10
5702.320393850829
 20
9289.766171212034
 30
0.0
 11
5724.991822422257
 21
9261.766171212036
 31
0.0
  0
LINE
  5
15E80
330
747D
100
AcDbEntity
  8
部品1
 48
5.0
100
AcDbLine
 10
5755.611119403584
 20
9234.766171212035
 30
0.0
 11
5699.611119403582
 21
9234.766171212035
 31
0.0
  0
LINE
  5
15E81
330
747D
100
AcDbEntity
  8
部品1
 48
5.0
100
AcDbLine
 10
5782.611119403657
 20
9289.766171212034
 30
0.0
 11
5782.611119403653
 21
9261.766171212043
 31
0.0
  0
LINE
  5
15E82
330
747D
100
AcDbEntity
  8
部品1
 48
50.0
100
AcDbLine
 10
5698.163726891671
 20
9260.266171212071
 30
0.0
 11
5699.611119403548
 21
9261.766171212
 31
0.0
  0
LINE
  5
15E83
330
747D
100
AcDbEntity
  8
部品1
 48
50.0
100
AcDbLine
 10
5757.111126081243
 20
9260.266171211963
 30
0.0
 11
5755.611119403621
 21
9261.766171211956
 31
0.0
  0
LWPOLYLINE
  5
163E8
330
747D
100
AcDbEntity
  8
部品1
100
AcDbPolyline
 90
        4
 70
     1
 43
0.0
 10
5820.87578628942
 20
2241.928246640973
 10
5820.87578628942
 20
2002.03592509544
 10
6584.34645251786
 20
2002.03592509544
 10
6584.34645251786
 20
2241.928246640973
  0
TEXT
  5
163E9
330
747D
100
AcDbEntity
  8
部品1
100
AcDbText
 10
5911.401190027376
 20
2049.034717422448
 30
0.0
 40
135.0
  1
正面図
  7
STYLE2
100
AcDbText
  0
LINE
  5
16418
330
747D
100
AcDbEntity
  8
仕様書枠
 48
50.0
100
AcDbLine
 10
16307.19999999999
 20
11409.6
 30
0.0
 11
13127.2
 21
11409.6
 31
0.0
  0
TEXT
  5
16453
330
747D
100
AcDbEntity
  8
文字
 62
     7
 48
50.0
100
AcDbText
 10
14271.39351435261
 20
483.8967129911411
 30
0.0
 40
160.0
  1
ＮＸＮ－１３ＤＬ－５
  7
STYLE2
100
AcDbText
  0
TEXT
  5
16458
330
747D
100
AcDbEntity
  8
部品1
100
AcDbText
 10
10916.11926952052
 20
2049.034717422448
 30
0.0
 40
135.0
  1
側面図
  7
STYLE2
100
AcDbText
  0
LWPOLYLINE
  5
16459
330
747D
100
AcDbEntity
  8
部品1
100
AcDbPolyline
 90
        4
 70
     1
 43
0.0
 10
10826.67316809691
 20
2241.928246640973
 10
10826.67316809691
 20
2002.03592509544
 10
11590.14383432535
 20
2002.03592509544
 10
11590.14383432535
 20
2241.928246640973
  0
LINE
  5
1645A
330
747D
100
AcDbEntity
  8
部品1
 48
50.0
100
AcDbLine
 10
11058.40850121113
 20
5338.845672098692
 30
0.0
 11
11358.40850121113
 21
5317.245672098693
 31
0.0
  0
LINE
  5
1645B
330
747D
100
AcDbEntity
  8
細線
 48
50.0
100
AcDbLine
 10
11485.90850121113
 20
4972.977532997413
 30
0.0
 11
11485.90850121113
 21
3182.977532997413
 31
0.0
  0
LINE
  5
1645C
330
747D
100
AcDbEntity
  8
細線
 48
50.0
100
AcDbLine
 10
11470.90850121113
 20
4972.977532997413
 30
0.0
 11
11470.90850121113
 21
3182.977532997413
 31
0.0
  0
LINE
  5
1645D
330
747D
100
AcDbEntity
  8
細線
 48
50.0
100
AcDbLine
 10
11610.90850121113
 20
4972.977532997413
 30
0.0
 11
11610.90850121113
 21
3182.977532997413
 31
0.0
  0
LINE
  5
1645E
330
747D
100
AcDbEntity
  8
細線
 48
50.0
100
AcDbLine
 10
11625.90850121113
 20
4972.977532997413
 30
0.0
 11
11625.90850121113
 21
3182.977532997413
 31
0.0
  0
LINE
  5
1645F
330
747D
100
AcDbEntity
  8
細線
 48
50.0
100
AcDbLine
 10
11765.90850121113
 20
4972.977532997413
 30
0.0
 11
11765.90850121113
 21
3182.977532997413
 31
0.0
  0
LINE
  5
16460
330
747D
100
AcDbEntity
  8
細線
 48
50.0
100
AcDbLine
 10
11750.90850121113
 20
4972.977532997413
 30
0.0
 11
11750.90850121113
 21
3182.977532997413
 31
0.0
  0
LINE
  5
16461
330
747D
100
AcDbEntity
  8
部品1
100
AcDbLine
 10
11408.40850121113
 20
4972.977532997413
 30
0.0
 11
11408.40850121113
 21
3182.977532997413
 31
0.0
  0
TEXT
  5
16462
330
747D
100
AcDbEntity
  8
部品1
 48
50.0
100
AcDbText
 10
11535.50134849899
 20
5237.228436032843
 30
0.0
 40
120.0
  1
71
 50
90.0
  7
STYLE1
100
AcDbText
  0
TEXT
  5
16463
330
747D
100
AcDbEntity
  8
部品1
 48
50.0
100
AcDbText
 10
11046.67633643486
 20
5374.729694251126
 30
0.0
 40
120.0
  1
1000
  7
STYLE1
100
AcDbText
  0
LINE
  5
16464
330
747D
100
AcDbEntity
  8
部品1
 48
50.0
100
AcDbLine
 10
11358.40850121113
 20
5338.845672098692
 30
0.0
 11
11358.40850121113
 21
5317.245672098693
 31
0.0
  0
LINE
  5
16465
330
747D
100
AcDbEntity
  8
部品1
 48
50.0
100
AcDbLine
 10
11058.40850121113
 20
5338.845672098692
 30
0.0
 11
11358.40850121113
 21
5338.845672098692
 31
0.0
  0
DIMENSION
  5
16466
330
747D
100
AcDbEntity
  8
寸法
 48
50.0
100
AcDbDimension
  2
*D24
 10
9861.142249499762
 20
5229.800023894227
 30
0.0
 11
9869.819993151649
 21
5459.636262911121
 31
0.0
 70
   160
 71
     5
 42
141.0
  3
INABA_S40G
100
AcDbAlignedDimension
 13
10468.75106581308
 23
5065.75855806638
 33
0.0
 14
10474.07089996504
 24
5206.658165463263
 34
0.0
 50
87.83775598715743
100
AcDbRotatedDimension
1001
ACAD
1000
DSTYLE
1002
{
1070
   174
1070
     0
1070
   272
1070
     1
1070
   288
1070
     0
1070
   341
1005
0
1002
}
  0
DIMENSION
  5
16467
330
747D
100
AcDbEntity
  8
寸法
 48
50.0
100
AcDbDimension
  2
*D25
 10
11963.40850121113
 20
5606.634986576717
 30
0.0
 11
12169.45574530562
 21
5606.634986576717
 31
0.0
 70
   160
 71
     5
 42
80.0
  3
INABA_S40G
100
AcDbAlignedDimension
 13
11883.40850121113
 23
5154.788212609066
 33
0.0
 14
11963.40850121113
 24
5152.977532997415
 34
0.0
100
AcDbRotatedDimension
1001
ACAD
1000
DSTYLE
1002
{
1070
   174
1070
     0
1070
   272
1070
     1
1070
   288
1070
     0
1070
   341
1005
0
1002
}
  0
ARC
  5
16468
330
747D
100
AcDbEntity
  8
部品1
100
AcDbCircle
 10
11949.03603702507
 20
5046.411333881632
 30
0.0
 40
0.7
100
AcDbArc
 50
275.0921697642102
 51
354.1866997666828
  0
ARC
  5
16469
330
747D
100
AcDbEntity
  8
部品1
100
AcDbCircle
 10
11959.89538277439
 20
5123.454588699555
 30
0.0
 40
0.7
100
AcDbArc
 50
275.0921697642102
 51
354.1866997665273
  0
ARC
  5
1646A
330
747D
100
AcDbEntity
  8
部品1
100
AcDbCircle
 10
11960.22378801699
 20
5119.769191842465
 30
0.0
 40
3.0
100
AcDbArc
 50
95.0921697642102
 51
174.1866997665272
  0
ARC
  5
1646B
330
747D
100
AcDbEntity
  8
部品1
100
AcDbCircle
 10
11949.36444226766
 20
5042.725937024541
 30
0.0
 40
3.0
100
AcDbArc
 50
95.0921697642102
 51
174.1866997665272
  0
ARC
  5
1646C
330
747D
100
AcDbEntity
  8
部品1
 48
50.0
100
AcDbCircle
 10
11938.33630699256
 20
5033.135192420659
 30
0.0
 40
7.0
100
AcDbArc
 50
267.8377559869492
 51
354.1866997665273
  0
ARC
  5
1646D
330
747D
100
AcDbEntity
  8
部品1
 48
50.0
100
AcDbCircle
 10
11955.65840345708
 20
5144.037739562831
 30
0.0
 40
7.0
100
AcDbArc
 50
354.1866997665273
 51
87.03587545283093
  0
LINE
  5
1646E
330
747D
100
AcDbEntity
  8
部品1
 48
50.0
100
AcDbLine
 10
11946.37987059706
 20
5043.029798741443
 30
0.0
 11
11945.30030755732
 21
5032.426181747886
 31
0.0
  0
LINE
  5
1646F
330
747D
100
AcDbEntity
  8
部品1
 48
50.0
100
AcDbLine
 10
11957.23921634638
 20
5120.073053559369
 30
0.0
 11
11949.73243708154
 21
5046.340432814355
 31
0.0
  0
LINE
  5
16470
330
747D
100
AcDbEntity
  8
部品1
 48
50.0
100
AcDbLine
 10
11962.62240402183
 20
5143.328728890057
 30
0.0
 11
11960.59178283086
 21
5123.383687632276
 31
0.0
  0
ARC
  5
16471
330
747D
100
AcDbEntity
  8
部品1
100
AcDbCircle
 10
10459.44559308249
 20
5086.791691956317
 30
0.0
 40
0.7
100
AcDbArc
 50
181.0932240292375
 51
260.1877540314845
  0
ARC
  5
16472
330
747D
100
AcDbEntity
  8
部品1
100
AcDbCircle
 10
10454.67291948489
 20
5179.657470156437
 30
0.0
 40
0.7
100
AcDbArc
 50
181.0932240292114
 51
260.1877540314845
  0
ARC
  5
16473
330
747D
100
AcDbEntity
  8
部品1
100
AcDbCircle
 10
10454.04236508187
 20
5176.011595619038
 30
0.0
 40
3.0
100
AcDbArc
 50
1.093224029289586
 51
80.18775403169875
  0
ARC
  5
16474
330
747D
100
AcDbEntity
  8
部品1
100
AcDbCircle
 10
10458.81503867947
 20
5083.14581741892
 30
0.0
 40
3.0
100
AcDbArc
 50
1.093224029289586
 51
80.18775403169875
  0
ARC
  5
16475
330
747D
100
AcDbEntity
  8
部品1
 48
50.0
100
AcDbCircle
 10
10469.01517105467
 20
5072.753574036438
 30
0.0
 40
7.0
100
AcDbArc
 50
181.0932240292895
 51
267.8377559869492
  0
ARC
  5
16476
330
747D
100
AcDbEntity
  8
部品1
 48
50.0
100
AcDbCircle
 10
10460.59151295258
 20
5199.704633569535
 30
0.0
 40
7.0
100
AcDbArc
 50
87.03587545283093
 51
181.0932240292895
  0
LINE
  5
16477
330
747D
100
AcDbEntity
  8
部品1
 48
50.0
100
AcDbLine
 10
10461.8144926059
 20
5083.203055022103
 30
0.0
 11
10462.01644522633
 21
5072.62001962901
 31
0.0
  0
LINE
  5
16478
330
747D
100
AcDbEntity
  8
細線
 48
50.0
100
AcDbLine
 10
10459.20839954923
 20
5086.133103140912
 30
0.0
 11
11949.21206397987
 21
5045.733827784843
 31
0.0
  0
LINE
  5
16479
330
747D
100
AcDbEntity
  8
細線
 48
50.0
100
AcDbLine
 10
10454.44792431194
 20
5178.994614838775
 30
0.0
 11
11960.08390905711
 21
5122.780453816373
 31
0.0
  0
LINE
  5
1647A
330
747D
100
AcDbEntity
  8
部品1
 48
50.0
100
AcDbLine
 10
10457.04181900829
 20
5176.068833222221
 30
0.0
 11
10458.74572049966
 21
5086.778336515576
 31
0.0
  0
LINE
  5
1647B
330
747D
100
AcDbEntity
  8
部品1
 48
50.0
100
AcDbLine
 10
10453.59278712424
 20
5199.571079162105
 30
0.0
 11
10453.97304690205
 21
5179.644114715695
 31
0.0
  0
LINE
  5
1647C
330
747D
100
AcDbEntity
  8
細線
 48
50.0
100
AcDbLine
 10
11930.40850121113
 20
5152.354555651134
 30
0.0
 11
11925.66081832313
 21
5026.608783160391
 31
0.0
  0
LINE
  5
1647D
330
747D
100
AcDbEntity
  8
細線
 48
50.0
100
AcDbLine
 10
10486.40850121113
 20
5205.377209372819
 30
0.0
 11
10481.11939965562
 21
5065.291576745464
 31
0.0
  0
LINE
  5
1647E
330
747D
100
AcDbEntity
  8
部品1
100
AcDbLine
 10
10468.75106581308
 20
5065.75855806638
 30
0.0
 11
11938.07220175098
 21
5026.140176450601
 31
0.0
  0
LINE
  5
1647F
330
747D
100
AcDbEntity
  8
部品1
100
AcDbLine
 10
10460.95348756809
 20
5206.69526833168
 30
0.0
 11
11956.02037807259
 21
5151.028374324979
 31
0.0
  0
LINE
  5
16480
330
747D
100
AcDbEntity
  8
細線
 48
50.0
100
AcDbLine
 10
10645.90850121113
 20
4972.977532997413
 30
0.0
 11
10645.90850121113
 21
3182.977532997413
 31
0.0
  0
LINE
  5
16481
330
747D
100
AcDbEntity
  8
細線
 48
50.0
100
AcDbLine
 10
10630.90850121113
 20
4972.977532997413
 30
0.0
 11
10630.90850121113
 21
3182.977532997413
 31
0.0
  0
LINE
  5
16482
330
747D
100
AcDbEntity
  8
細線
 48
50.0
100
AcDbLine
 10
10770.90850121113
 20
4972.977532997413
 30
0.0
 11
10770.90850121113
 21
3182.977532997413
 31
0.0
  0
LINE
  5
16483
330
747D
100
AcDbEntity
  8
細線
 48
50.0
100
AcDbLine
 10
10785.90850121113
 20
4972.977532997413
 30
0.0
 11
10785.90850121113
 21
3182.977532997413
 31
0.0
  0
LINE
  5
16484
330
747D
100
AcDbEntity
  8
細線
 48
50.0
100
AcDbLine
 10
10925.90850121113
 20
4972.977532997413
 30
0.0
 11
10925.90850121113
 21
3182.977532997413
 31
0.0
  0
LINE
  5
16485
330
747D
100
AcDbEntity
  8
細線
 48
50.0
100
AcDbLine
 10
10910.90850121113
 20
4972.977532997413
 30
0.0
 11
10910.90850121113
 21
3182.977532997413
 31
0.0
  0
LINE
  5
16486
330
747D
100
AcDbEntity
  8
細線
 48
50.0
100
AcDbLine
 10
11330.90850121113
 20
4972.977532997413
 30
0.0
 11
11330.90850121113
 21
3182.977532997413
 31
0.0
  0
LINE
  5
16487
330
747D
100
AcDbEntity
  8
細線
 48
50.0
100
AcDbLine
 10
11345.90850121113
 20
4972.977532997413
 30
0.0
 11
11345.90850121113
 21
3182.977532997413
 31
0.0
  0
LINE
  5
16488
330
747D
100
AcDbEntity
  8
細線
 48
50.0
100
AcDbLine
 10
11205.90850121113
 20
4972.977532997413
 30
0.0
 11
11205.90850121113
 21
3182.977532997413
 31
0.0
  0
LINE
  5
16489
330
747D
100
AcDbEntity
  8
細線
 48
50.0
100
AcDbLine
 10
11190.90850121113
 20
4972.977532997413
 30
0.0
 11
11190.90850121113
 21
3182.977532997413
 31
0.0
  0
LINE
  5
1648A
330
747D
100
AcDbEntity
  8
細線
 48
50.0
100
AcDbLine
 10
11050.90850121113
 20
4972.977532997413
 30
0.0
 11
11050.90850121113
 21
3182.977532997413
 31
0.0
  0
LINE
  5
1648B
330
747D
100
AcDbEntity
  8
細線
 48
50.0
100
AcDbLine
 10
11065.90850121113
 20
4972.977532997413
 30
0.0
 11
11065.90850121113
 21
3182.977532997413
 31
0.0
  0
LINE
  5
1648C
330
747D
100
AcDbEntity
  8
部品1
100
AcDbLine
 10
10513.40850121113
 20
3132.977532997413
 30
0.0
 11
11883.40850121113
 21
3132.977532997413
 31
0.0
  0
DIMENSION
  5
1648D
330
747D
100
AcDbEntity
  8
寸法
 48
50.0
100
AcDbDimension
  2
*D26
 10
10453.40850121113
 20
5814.809307768681
 30
0.0
 11
11180.53333091295
 21
5814.809307768681
 31
0.0
 70
   160
 71
     5
 42
1510.0
  3
INABA_S40G
100
AcDbAlignedDimension
 13
11963.40850121113
 23
5152.977532997415
 33
0.0
 14
10453.40850121113
 24
5207.977532997418
 34
0.0
100
AcDbRotatedDimension
1001
ACAD
1000
DSTYLE
1002
{
1070
   174
1070
     0
1070
   272
1070
     1
1070
   288
1070
     0
1070
   341
1005
0
1002
}
  0
DIMENSION
  5
1648E
330
747D
100
AcDbEntity
  8
寸法
 48
50.0
100
AcDbDimension
  2
*D27
 10
10453.40850121113
 20
5606.634986576717
 30
0.0
 11
10143.77070593554
 21
5606.634986576717
 31
0.0
 70
   160
 71
     5
 42
60.0
  3
INABA_S40G
100
AcDbAlignedDimension
 13
10513.40850121113
 23
5203.979151120389
 33
0.0
 14
10453.40850121113
 24
5207.977532997418
 34
0.0
100
AcDbRotatedDimension
1001
ACAD
1000
DSTYLE
1002
{
1070
   174
1070
     0
1070
   272
1070
     1
1070
   288
1070
     0
1070
   341
1005
0
1002
}
  0
DIMENSION
  5
1648F
330
747D
100
AcDbEntity
  8
寸法
 48
50.0
100
AcDbDimension
  2
*D28
 10
10513.40850121113
 20
5606.634986576717
 30
0.0
 11
11163.22753410168
 21
5606.634986576717
 31
0.0
 70
   160
  1
柱外寸法<>
 71
     5
 42
1370.0
  3
INABA_S40G
100
AcDbAlignedDimension
 13
11883.40850121113
 23
5154.788212609066
 33
0.0
 14
10513.40850121113
 24
5203.979151120389
 34
0.0
100
AcDbRotatedDimension
1001
ACAD
1000
DSTYLE
1002
{
1070
   174
1070
     0
1070
   272
1070
     1
1070
   288
1070
     0
1070
   341
1005
0
1002
}
  0
DIMENSION
  5
16490
330
747D
100
AcDbEntity
  8
寸法
100
AcDbDimension
  2
*D29
 10
12588.33565918326
 20
5152.977532997415
 30
0.0
 11
12488.32384815964
 21
4142.977532997416
 31
0.0
 70
    32
 71
     5
 42
2020.0
  3
INABA_S40G
100
AcDbAlignedDimension
 13
11883.40850121113
 23
3132.977532997415
 33
0.0
 14
11963.40850121113
 24
5152.977532997415
 34
0.0
 50
90.0
100
AcDbRotatedDimension
1001
ACAD
1000
DSTYLE
1002
{
1070
   174
1070
     0
1070
   272
1070
     1
1070
   288
1070
     0
1070
   341
1005
0
1002
}
  0
LINE
  5
16491
330
747D
100
AcDbEntity
  8
部品1
100
AcDbLine
 10
11828.40850121113
 20
4972.977532997413
 30
0.0
 11
11828.40850121113
 21
3182.977532997413
 31
0.0
  0
LINE
  5
16492
330
747D
100
AcDbEntity
  8
部品1
100
AcDbLine
 10
11883.40850121113
 20
5027.614113832665
 30
0.0
 11
11883.40850121113
 21
3032.977532997413
 31
0.0
  0
LINE
  5
16493
330
747D
100
AcDbEntity
  8
部品1
100
AcDbLine
 10
10988.40850121113
 20
4972.977532997413
 30
0.0
 11
10988.40850121113
 21
3182.977532997413
 31
0.0
  0
DIMENSION
  5
16494
330
747D
100
AcDbEntity
  8
寸法
100
AcDbDimension
  2
*D30
 10
9669.658372027873
 20
3132.977532997415
 30
0.0
 11
9669.658372027873
 21
2826.930288902925
 31
0.0
 70
   160
 71
     5
 42
50.0
  3
INABA_S40G
100
AcDbAlignedDimension
 13
10513.40850121113
 23
3182.977532997415
 33
0.0
 14
10458.40850121113
 24
3132.977532997415
 34
0.0
 50
90.0
100
AcDbRotatedDimension
1001
ACAD
1000
DSTYLE
1002
{
1070
   174
1070
     0
1070
   272
1070
     1
1070
   288
1070
     0
1070
   341
1005
0
1002
}
  0
DIMENSION
  5
16495
330
747D
100
AcDbEntity
  8
寸法
100
AcDbDimension
  2
*D31
 10
9669.658372027873
 20
3182.977532997415
 30
0.0
 11
9569.658372027872
 21
4077.977532997415
 31
0.0
 70
    32
 71
     5
 42
1789.999999999999
  3
INABA_S40G
100
AcDbAlignedDimension
 13
10513.40850121113
 23
4972.977532997413
 33
0.0
 14
10513.40850121113
 24
3182.977532997415
 34
0.0
 50
90.0
100
AcDbRotatedDimension
1001
ACAD
1000
DSTYLE
1002
{
1070
   174
1070
     0
1070
   272
1070
     1
1070
   288
1070
     0
1070
   341
1005
0
1002
}
  0
LINE
  5
16496
330
747D
100
AcDbEntity
  8
部品1
100
AcDbLine
 10
10513.40850121113
 20
5064.554426937855
 30
0.0
 11
10513.40850121113
 21
3032.977532997413
 31
0.0
  0
LINE
  5
16497
330
747D
100
AcDbEntity
  8
部品1
100
AcDbLine
 10
10568.40850121113
 20
4972.977532997413
 30
0.0
 11
10568.40850121113
 21
3182.977532997413
 31
0.0
  0
LINE
  5
16498
330
747D
100
AcDbEntity
  8
部品1
100
AcDbLine
 10
10513.40850121113
 20
3182.977532997413
 30
0.0
 11
11883.40850121113
 21
3182.977532997415
 31
0.0
  0
LINE
  5
16499
330
747D
100
AcDbEntity
  8
部品1
100
AcDbLine
 10
10506.40613116635
 20
4972.977532997413
 30
0.0
 11
11883.40850121113
 21
4972.977532997413
 31
0.0
  0
LINE
  5
1649A
330
747D
100
AcDbEntity
  8
部品1
 48
50.0
100
AcDbLine
 10
10506.40613116635
 20
3182.977532997415
 30
0.0
 11
10513.40850121113
 21
3182.977532997415
 31
0.0
  0
LINE
  5
1649B
330
747D
100
AcDbEntity
  8
部品1
 48
0.2
100
AcDbLine
 10
10506.40613116635
 20
3193.727532997415
 30
0.0
 11
10506.40613116635
 21
3182.977532997415
 31
0.0
  0
LINE
  5
1649C
330
747D
100
AcDbEntity
  8
部品1
 48
50.0
100
AcDbLine
 10
10506.40613116635
 20
3193.727532997415
 30
0.0
 11
10513.40850121113
 21
3193.727532997415
 31
0.0
  0
LINE
  5
1649D
330
747D
100
AcDbEntity
  8
部品1
 48
50.0
100
AcDbLine
 10
10506.40613116635
 20
4962.227532997411
 30
0.0
 11
10513.40850121113
 21
4962.227532997411
 31
0.0
  0
LINE
  5
1649E
330
747D
100
AcDbEntity
  8
部品1
 48
0.2
100
AcDbLine
 10
10506.40613116635
 20
4972.977532997411
 30
0.0
 11
10506.40613116635
 21
4962.227532997413
 31
0.0
  0
DIMENSION
  5
1649F
330
747D
100
AcDbEntity
  8
寸法
100
AcDbDimension
  2
*D32
 10
9369.658372027872
 20
5207.977532997419
 30
0.0
 11
9269.646561004249
 21
4170.477532997418
 31
0.0
 70
    32
 71
     5
 42
2075.000000000004
  3
INABA_S40G
100
AcDbAlignedDimension
 13
10513.40850121113
 23
3132.977532997415
 33
0.0
 14
10453.40850121113
 24
5207.977532997418
 34
0.0
 50
90.0
100
AcDbRotatedDimension
1001
ACAD
1000
DSTYLE
1002
{
1070
   174
1070
     0
1070
   272
1070
     1
1070
   288
1070
     0
1070
   341
1005
0
1002
}
  0
MTEXT
  5
16B81
330
747D
100
AcDbEntity
  8
寸法
 62
     7
 48
50.0
100
AcDbMText
 10
7167.890923691896
 20
8879.879918749246
 30
0.0
 40
96.0
 41
0.0
 71
     5
 72
     1
  1
棚 2段
  7
STYLE1
 73
     1
 44
1.0
1001
ACAD
1000
MTEXTBEGIN
1070
    73
1070
     1
1070
    44
1040
1.0
1070
    74
1070
     0
1000
MTEXTEND
  0
MTEXT
  5
16B83
330
747D
100
AcDbEntity
  8
寸法
 62
     7
 48
50.0
100
AcDbMText
 10
6217.890923691895
 20
8879.879918749246
 30
0.0
 40
96.0
 41
0.0
 71
     5
 72
     1
  1
棚 2段
  7
STYLE1
 73
     1
 44
1.0
1001
ACAD
1000
MTEXTBEGIN
1070
    73
1070
     1
1070
    44
1040
1.0
1070
    74
1070
     0
1000
MTEXTEND
  0
MTEXT
  5
16B85
330
747D
100
AcDbEntity
  8
寸法
 62
     7
 48
50.0
100
AcDbMText
 10
5267.159322246887
 20
8879.879918749258
 30
0.0
 40
96.0
 41
0.0
 71
     5
 72
     1
  1
棚 2段
  7
STYLE1
 73
     1
 44
1.0
1001
ACAD
1000
MTEXTBEGIN
1070
    73
1070
     1
1070
    44
1040
1.0
1070
    74
1070
     0
1000
MTEXTEND
  0
MTEXT
  5
16B87
330
747D
100
AcDbEntity
  8
寸法
 62
     7
 48
50.0
100
AcDbMText
 10
4317.159322246887
 20
8879.879918749258
 30
0.0
 40
96.0
 41
0.0
 71
     5
 72
     1
  1
棚 2段
  7
STYLE1
 73
     1
 44
1.0
1001
ACAD
1000
MTEXTBEGIN
1070
    73
1070
     1
1070
    44
1040
1.0
1070
    74
1070
     0
1000
MTEXTEND
  0
MTEXT
  5
16BDD
330
747D
100
AcDbEntity
  8
寸法
 62
     7
 48
50.0
100
AcDbMText
 10
8117.890923691895
 20
8879.879918749246
 30
0.0
 40
96.0
 41
0.0
 71
     5
 72
     1
  1
棚 2段
  7
STYLE1
 73
     1
 44
1.0
1001
ACAD
1000
MTEXTBEGIN
1070
    73
1070
     1
1070
    44
1040
1.0
1070
    74
1070
     0
1000
MTEXTEND
  0
DIMENSION
  5
16BF4
330
747D
100
AcDbEntity
  8
寸法
 48
50.0
100
AcDbDimension
  2
*D35
 10
3827.61111940365
 20
5420.519118255659
 30
0.0
 11
6202.61111940364
 21
5420.519118255659
 31
0.0
 70
   160
  1
柱外寸法<>
 71
     5
 42
4750.000000000003
  3
INABA_S40G
100
AcDbAlignedDimension
 13
8577.611119403654
 23
5207.977532997416
 33
0.0
 14
3827.61111940365
 24
5207.977532997421
 34
0.0
100
AcDbRotatedDimension
  0
DIMENSION
  5
16BF5
330
747D
100
AcDbEntity
  8
寸法
 48
50.0
100
AcDbDimension
  2
*D34
 10
8627.611119403653
 20
5643.476096693507
 30
0.0
 11
6202.61111940364
 21
5643.476096693507
 31
0.0
 70
   160
 71
     5
 42
4850.000000000004
  3
INABA_S40G
100
AcDbAlignedDimension
 13
3777.61111940365
 23
5207.97753299742
 33
0.0
 14
8627.611119403653
 24
5207.977532997414
 34
0.0
100
AcDbRotatedDimension
  0
DIMENSION
  5
16BF6
330
747D
100
AcDbEntity
  8
寸法
 48
50.0
100
AcDbDimension
  2
*D33
 10
3777.61111940365
 20
5420.519118255659
 30
0.0
 11
3464.125838029402
 21
5420.519118255659
 31
0.0
 70
   160
 71
     5
 42
50.0
  3
INABA_S40G
100
AcDbAlignedDimension
 13
3827.61111940365
 23
5207.977532997421
 33
0.0
 14
3777.61111940365
 24
5207.97753299742
 34
0.0
100
AcDbRotatedDimension
1001
ACAD
1000
DSTYLE
1002
{
1002
}
  0
LINE
  5
16BF7
330
747D
100
AcDbEntity
  8
部品1
100
AcDbLine
 10
3778.03078041898
 20
5200.581007602179
 30
0.0
 11
3779.164177751328
 21
5180.604879619579
 31
0.0
  0
LINE
  5
16BF8
330
747D
100
AcDbEntity
  8
部品1
100
AcDbLine
 10
3790.601198072906
 20
5084.947472452521
 30
0.0
 11
3791.246103880014
 21
5073.581007602179
 31
0.0
  0
LINE
  5
16BF9
330
747D
100
AcDbEntity
  8
部品1
100
AcDbLine
 10
3782.365167548058
 20
5177.147472452521
 30
0.0
 11
3787.400208276169
 21
5088.404879619578
 31
0.0
  0
ARC
  5
16BFA
330
747D
100
AcDbEntity
  8
部品1
 48
50.0
100
AcDbCircle
 10
3779.369984651872
 20
5176.97753299742
 30
0.0
 40
3.0
100
AcDbArc
 50
3.247342790337682
 51
82.3418727926348
  0
ARC
  5
16BFB
330
747D
100
AcDbEntity
  8
部品1
 48
50.0
100
AcDbCircle
 10
3787.606015176717
 20
5084.777532997417
 30
0.0
 40
3.0
100
AcDbArc
 50
3.247342790337682
 51
82.3418727926348
  0
ARC
  5
16BFC
330
747D
100
AcDbEntity
  8
部品1
 48
50.0
100
AcDbCircle
 10
3788.099084285278
 20
5088.444532159101
 30
0.0
 40
0.7
100
AcDbArc
 50
183.2473427902856
 51
262.3418727926349
  0
ARC
  5
16BFD
330
747D
100
AcDbEntity
  8
部品1
 48
50.0
100
AcDbCircle
 10
3779.863053760437
 20
5180.644532159106
 30
0.0
 40
0.7
100
AcDbArc
 50
183.2473427903897
 51
262.3418727926349
  0
ARC
  5
16BFE
330
747D
100
AcDbEntity
  8
部品1
100
AcDbCircle
 10
3798.234863971113
 20
5073.97753299742
 30
0.0
 40
7.0
100
AcDbArc
 50
183.2473427903377
 51
270.0
  0
ARC
  5
16BFF
330
747D
100
AcDbEntity
  8
部品1
100
AcDbCircle
 10
3785.019540510079
 20
5200.977532997418
 30
0.0
 40
7.0
100
AcDbArc
 50
90.0
 51
183.2473427903377
  0
LINE
  5
16C00
330
747D
100
AcDbEntity
  8
細線
 48
50.0
100
AcDbLine
 10
3810.611119403649
 20
5207.977532997418
 30
0.0
 11
3810.611119403649
 21
5066.977532997416
 31
0.0
  0
LINE
  5
16C01
330
747D
100
AcDbEntity
  8
部品1
 48
50.0
100
AcDbLine
 10
8606.987374836185
 20
5066.977532997414
 30
0.0
 11
3798.234863971113
 21
5066.977532997416
 31
0.0
  0
LINE
  5
16C02
330
747D
100
AcDbEntity
  8
細線
 48
50.0
100
AcDbLine
 10
8617.216437866586
 20
5087.75077556084
 30
0.0
 11
3788.005800938896
 21
5087.750775561413
 31
0.0
  0
LINE
  5
16C03
330
747D
100
AcDbEntity
  8
細線
 48
50.0
100
AcDbLine
 10
8625.452468391349
 20
5179.950775560833
 30
0.0
 11
3779.769770414063
 21
5179.950775561414
 31
0.0
  0
LINE
  5
16C04
330
747D
100
AcDbEntity
  8
部品1
 48
50.0
100
AcDbLine
 10
8620.202698297219
 20
5207.97753299742
 30
0.0
 11
3785.019540510079
 21
5207.977532997414
 31
0.0
  0
DIMENSION
  5
16C48
330
747D
100
AcDbEntity
  8
寸法
 48
50.0
100
AcDbDimension
  2
*D36
 10
8577.611119403654
 20
5420.519118255655
 30
0.0
 11
8941.09640077789
 21
5420.519118255655
 31
0.0
 70
   160
 71
     5
 42
50.0
  3
INABA_S40G
100
AcDbAlignedDimension
 13
8627.611119403653
 23
5207.977532997414
 33
0.0
 14
8577.611119403654
 24
5207.977532997416
 34
0.0
100
AcDbRotatedDimension
  0
ARC
  5
16C49
330
747D
100
AcDbEntity
  8
部品1
100
AcDbCircle
 10
8620.202698297219
 20
5200.977532997415
 30
0.0
 40
7.0
100
AcDbArc
 50
356.7526572096623
 51
90.0
  0
ARC
  5
16C4A
330
747D
100
AcDbEntity
  8
部品1
100
AcDbCircle
 10
8606.987374836185
 20
5073.977532997417
 30
0.0
 40
7.0
100
AcDbArc
 50
270.0
 51
356.7526572096623
  0
ARC
  5
16C4B
330
747D
100
AcDbEntity
  8
部品1
 48
50.0
100
AcDbCircle
 10
8625.359185046866
 20
5180.644532159102
 30
0.0
 40
0.7
100
AcDbArc
 50
277.6581272073652
 51
356.7526572096103
  0
ARC
  5
16C4C
330
747D
100
AcDbEntity
  8
部品1
 48
50.0
100
AcDbCircle
 10
8617.123154522023
 20
5088.444532159098
 30
0.0
 40
0.7
100
AcDbArc
 50
277.6581272073652
 51
356.7526572097143
  0
ARC
  5
16C4D
330
747D
100
AcDbEntity
  8
部品1
 48
50.0
100
AcDbCircle
 10
8617.616223630582
 20
5084.777532997414
 30
0.0
 40
3.0
100
AcDbArc
 50
97.65812720736519
 51
176.7526572096623
  0
ARC
  5
16C4E
330
747D
100
AcDbEntity
  8
部品1
 48
50.0
100
AcDbCircle
 10
8625.852254155427
 20
5176.977532997416
 30
0.0
 40
3.0
100
AcDbArc
 50
97.65812720736519
 51
176.7526572096623
  0
LINE
  5
16C4F
330
747D
100
AcDbEntity
  8
部品1
100
AcDbLine
 10
8622.857071259241
 20
5177.147472452517
 30
0.0
 11
8617.822030531129
 21
5088.404879619575
 31
0.0
  0
LINE
  5
16C50
330
747D
100
AcDbEntity
  8
部品1
100
AcDbLine
 10
8614.621040734396
 20
5084.947472452517
 30
0.0
 11
8613.976134927284
 21
5073.581007602177
 31
0.0
  0
LINE
  5
16C51
330
747D
100
AcDbEntity
  8
細線
 48
50.0
100
AcDbLine
 10
8594.611119403653
 20
5207.977532997414
 30
0.0
 11
8594.611119403653
 21
5066.977532997414
 31
0.0
  0
LINE
  5
16C52
330
747D
100
AcDbEntity
  8
部品1
100
AcDbLine
 10
8627.191458388319
 20
5200.581007602175
 30
0.0
 11
8626.058061055974
 21
5180.604879619576
 31
0.0
  0
ARC
  5
17003
330
747D
100
AcDbEntity
  8
部品1
 48
0.01
100
AcDbCircle
 10
6290.611119403646
 20
5005.477532997409
 30
0.0
 40
2.0
100
AcDbArc
 50
270.0
 51
0.0
  0
ARC
  5
17004
330
747D
100
AcDbEntity
  8
部品1
 48
0.01
100
AcDbCircle
 10
6290.611119403649
 20
5036.977532997409
 30
0.0
 40
2.0
100
AcDbArc
 50
0.0
 51
90.0
  0
ARC
  5
17005
330
747D
100
AcDbEntity
  8
部品1
 48
0.01
100
AcDbCircle
 10
6114.611119403649
 20
5005.477532997409
 30
0.0
 40
2.0
100
AcDbArc
 50
180.0
 51
270.0
  0
ARC
  5
17006
330
747D
100
AcDbEntity
  8
部品1
 48
0.01
100
AcDbCircle
 10
6114.611119403649
 20
5036.977532997409
 30
0.0
 40
2.0
100
AcDbArc
 50
90.0
 51
180.0
  0
LINE
  5
17007
330
747D
100
AcDbEntity
  8
細線
100
AcDbLine
 10
6202.611119403646
 20
5009.477532997409
 30
0.0
 11
6276.61111940365
 21
5009.477532997409
 31
0.0
  0
LINE
  5
17008
330
747D
100
AcDbEntity
  8
細線
100
AcDbLine
 10
6202.611119403649
 20
5032.477532997409
 30
0.0
 11
6128.611119403649
 21
5032.477532997409
 31
0.0
  0
LINE
  5
17009
330
747D
100
AcDbEntity
  8
細線
100
AcDbLine
 10
6128.611119403649
 20
5009.477532997409
 30
0.0
 11
6202.611119403649
 21
5009.477532997409
 31
0.0
  0
LINE
  5
1700A
330
747D
100
AcDbEntity
  8
細線
100
AcDbLine
 10
6276.61111940365
 20
5032.477532997409
 30
0.0
 11
6202.611119403649
 21
5032.477532997409
 31
0.0
  0
LINE
  5
1700B
330
747D
100
AcDbEntity
  8
細線
100
AcDbLine
 10
6276.61111940365
 20
5009.477532997409
 30
0.0
 11
6276.61111940365
 21
5032.477532997409
 31
0.0
  0
LINE
  5
1700C
330
747D
100
AcDbEntity
  8
細線
100
AcDbLine
 10
6128.611119403649
 20
5032.477532997409
 30
0.0
 11
6128.611119403649
 21
5009.477532997409
 31
0.0
  0
LINE
  5
1700D
330
747D
100
AcDbEntity
  8
部品1
 48
0.01
100
AcDbLine
 10
6292.611119403646
 20
5005.477532997409
 30
0.0
 11
6292.611119403649
 21
5036.977532997409
 31
0.0
  0
LINE
  5
1700E
330
747D
100
AcDbEntity
  8
部品1
 48
0.01
100
AcDbLine
 10
6114.611119403649
 20
5003.477532997409
 30
0.0
 11
6290.611119403646
 21
5003.477532997409
 31
0.0
  0
LINE
  5
1700F
330
747D
100
AcDbEntity
  8
部品1
 48
0.01
100
AcDbLine
 10
6112.611119403649
 20
5036.977532997409
 30
0.0
 11
6112.611119403649
 21
5005.477532997409
 31
0.0
  0
LINE
  5
17010
330
747D
100
AcDbEntity
  8
部品1
 48
0.01
100
AcDbLine
 10
6290.611119403649
 20
5038.977532997409
 30
0.0
 11
6114.611119403649
 21
5038.977532997409
 31
0.0
  0
LINE
  5
17011
330
747D
100
AcDbEntity
  8
細線
100
AcDbLine
 10
6128.611119403649
 20
5026.477532997409
 30
0.0
 11
6202.611119403649
 21
5026.477532997409
 31
0.0
  0
LINE
  5
17012
330
747D
100
AcDbEntity
  8
細線
100
AcDbLine
 10
6128.611119403649
 20
5020.477532997409
 30
0.0
 11
6202.611119403649
 21
5020.477532997409
 31
0.0
  0
LINE
  5
17013
330
747D
100
AcDbEntity
  8
細線
100
AcDbLine
 10
6128.611119403646
 20
5014.47753299741
 30
0.0
 11
6202.611119403649
 21
5014.47753299741
 31
0.0
  0
LINE
  5
17014
330
747D
100
AcDbEntity
  8
細線
100
AcDbLine
 10
6128.611119403649
 20
5026.477532997409
 30
0.0
 11
6197.611119403649
 21
5026.477532997409
 31
0.0
  0
LINE
  5
17015
330
747D
100
AcDbEntity
  8
細線
100
AcDbLine
 10
6276.611119403646
 20
5026.477532997409
 30
0.0
 11
6202.611119403649
 21
5026.477532997409
 31
0.0
  0
LINE
  5
17016
330
747D
100
AcDbEntity
  8
細線
100
AcDbLine
 10
6276.611119403646
 20
5014.47753299741
 30
0.0
 11
6202.611119403649
 21
5014.47753299741
 31
0.0
  0
LINE
  5
17017
330
747D
100
AcDbEntity
  8
細線
100
AcDbLine
 10
6276.611119403646
 20
5020.477532997409
 30
0.0
 11
6202.611119403649
 21
5020.477532997409
 31
0.0
  0
LINE
  5
17018
330
747D
100
AcDbEntity
  8
細線
100
AcDbLine
 10
6202.611119403649
 20
5032.477532997409
 30
0.0
 11
6202.611119403646
 21
5009.477532997409
 31
0.0
  0
LINE
  5
17024
330
747D
100
AcDbEntity
  8
細線
100
AcDbLine
 10
5252.611119403649
 20
5032.477532997409
 30
0.0
 11
5252.611119403646
 21
5009.477532997409
 31
0.0
  0
LINE
  5
17025
330
747D
100
AcDbEntity
  8
細線
100
AcDbLine
 10
5326.611119403645
 20
5020.477532997409
 30
0.0
 11
5252.611119403649
 21
5020.477532997409
 31
0.0
  0
LINE
  5
17026
330
747D
100
AcDbEntity
  8
細線
100
AcDbLine
 10
5326.611119403645
 20
5014.47753299741
 30
0.0
 11
5252.611119403649
 21
5014.47753299741
 31
0.0
  0
LINE
  5
17027
330
747D
100
AcDbEntity
  8
細線
100
AcDbLine
 10
5326.611119403645
 20
5026.477532997409
 30
0.0
 11
5252.611119403649
 21
5026.477532997409
 31
0.0
  0
LINE
  5
17028
330
747D
100
AcDbEntity
  8
細線
100
AcDbLine
 10
5178.611119403649
 20
5026.477532997409
 30
0.0
 11
5247.611119403649
 21
5026.477532997409
 31
0.0
  0
LINE
  5
17029
330
747D
100
AcDbEntity
  8
細線
100
AcDbLine
 10
5178.611119403646
 20
5014.47753299741
 30
0.0
 11
5252.611119403649
 21
5014.47753299741
 31
0.0
  0
LINE
  5
1702A
330
747D
100
AcDbEntity
  8
細線
100
AcDbLine
 10
5178.611119403649
 20
5020.477532997409
 30
0.0
 11
5252.611119403649
 21
5020.477532997409
 31
0.0
  0
LINE
  5
1702B
330
747D
100
AcDbEntity
  8
細線
100
AcDbLine
 10
5178.611119403649
 20
5026.477532997409
 30
0.0
 11
5252.611119403649
 21
5026.477532997409
 31
0.0
  0
LINE
  5
1702C
330
747D
100
AcDbEntity
  8
部品1
 48
0.01
100
AcDbLine
 10
5340.61111940365
 20
5038.977532997409
 30
0.0
 11
5164.611119403649
 21
5038.977532997409
 31
0.0
  0
LINE
  5
1702D
330
747D
100
AcDbEntity
  8
部品1
 48
0.01
100
AcDbLine
 10
5162.611119403649
 20
5036.977532997409
 30
0.0
 11
5162.611119403649
 21
5005.477532997409
 31
0.0
  0
LINE
  5
1702E
330
747D
100
AcDbEntity
  8
部品1
 48
0.01
100
AcDbLine
 10
5164.611119403649
 20
5003.477532997409
 30
0.0
 11
5340.611119403646
 21
5003.477532997409
 31
0.0
  0
LINE
  5
1702F
330
747D
100
AcDbEntity
  8
部品1
 48
0.01
100
AcDbLine
 10
5342.611119403645
 20
5005.477532997409
 30
0.0
 11
5342.611119403649
 21
5036.977532997409
 31
0.0
  0
LINE
  5
17030
330
747D
100
AcDbEntity
  8
細線
100
AcDbLine
 10
5178.611119403649
 20
5032.477532997409
 30
0.0
 11
5178.611119403649
 21
5009.477532997409
 31
0.0
  0
LINE
  5
17031
330
747D
100
AcDbEntity
  8
細線
100
AcDbLine
 10
5326.61111940365
 20
5009.477532997409
 30
0.0
 11
5326.61111940365
 21
5032.477532997409
 31
0.0
  0
LINE
  5
17032
330
747D
100
AcDbEntity
  8
細線
100
AcDbLine
 10
5326.61111940365
 20
5032.477532997409
 30
0.0
 11
5252.611119403649
 21
5032.477532997409
 31
0.0
  0
LINE
  5
17033
330
747D
100
AcDbEntity
  8
細線
100
AcDbLine
 10
5178.611119403649
 20
5009.477532997409
 30
0.0
 11
5252.611119403649
 21
5009.477532997409
 31
0.0
  0
LINE
  5
17034
330
747D
100
AcDbEntity
  8
細線
100
AcDbLine
 10
5252.611119403649
 20
5032.477532997409
 30
0.0
 11
5178.611119403649
 21
5032.477532997409
 31
0.0
  0
LINE
  5
17035
330
747D
100
AcDbEntity
  8
細線
100
AcDbLine
 10
5252.611119403646
 20
5009.477532997409
 30
0.0
 11
5326.61111940365
 21
5009.477532997409
 31
0.0
  0
ARC
  5
17036
330
747D
100
AcDbEntity
  8
部品1
 48
0.01
100
AcDbCircle
 10
5164.611119403649
 20
5036.977532997409
 30
0.0
 40
2.0
100
AcDbArc
 50
90.0
 51
180.0
  0
ARC
  5
17037
330
747D
100
AcDbEntity
  8
部品1
 48
0.01
100
AcDbCircle
 10
5164.611119403649
 20
5005.477532997409
 30
0.0
 40
2.0
100
AcDbArc
 50
180.0
 51
270.0
  0
ARC
  5
17038
330
747D
100
AcDbEntity
  8
部品1
 48
0.01
100
AcDbCircle
 10
5340.61111940365
 20
5036.977532997409
 30
0.0
 40
2.0
100
AcDbArc
 50
0.0
 51
90.0
  0
ARC
  5
17039
330
747D
100
AcDbEntity
  8
部品1
 48
0.01
100
AcDbCircle
 10
5340.611119403646
 20
5005.477532997409
 30
0.0
 40
2.0
100
AcDbArc
 50
270.0
 51
0.0
  0
ARC
  5
1703A
330
747D
100
AcDbEntity
  8
部品1
 48
0.01
100
AcDbCircle
 10
4390.611119403645
 20
5005.477532997411
 30
0.0
 40
2.0
100
AcDbArc
 50
270.0
 51
0.0
  0
ARC
  5
1703B
330
747D
100
AcDbEntity
  8
部品1
 48
0.01
100
AcDbCircle
 10
4390.611119403649
 20
5036.977532997411
 30
0.0
 40
2.0
100
AcDbArc
 50
0.0
 51
90.0
  0
ARC
  5
1703C
330
747D
100
AcDbEntity
  8
部品1
 48
0.01
100
AcDbCircle
 10
4214.611119403649
 20
5005.477532997411
 30
0.0
 40
2.0
100
AcDbArc
 50
180.0
 51
270.0
  0
ARC
  5
1703D
330
747D
100
AcDbEntity
  8
部品1
 48
0.01
100
AcDbCircle
 10
4214.611119403649
 20
5036.977532997411
 30
0.0
 40
2.0
100
AcDbArc
 50
90.0
 51
180.0
  0
LINE
  5
1703E
330
747D
100
AcDbEntity
  8
細線
100
AcDbLine
 10
4302.611119403645
 20
5009.477532997411
 30
0.0
 11
4376.61111940365
 21
5009.477532997411
 31
0.0
  0
LINE
  5
1703F
330
747D
100
AcDbEntity
  8
細線
100
AcDbLine
 10
4302.611119403649
 20
5032.477532997411
 30
0.0
 11
4228.611119403649
 21
5032.477532997411
 31
0.0
  0
LINE
  5
17040
330
747D
100
AcDbEntity
  8
細線
100
AcDbLine
 10
4228.611119403649
 20
5009.477532997411
 30
0.0
 11
4302.611119403649
 21
5009.477532997411
 31
0.0
  0
LINE
  5
17041
330
747D
100
AcDbEntity
  8
細線
100
AcDbLine
 10
4376.61111940365
 20
5032.477532997411
 30
0.0
 11
4302.611119403649
 21
5032.477532997411
 31
0.0
  0
LINE
  5
17042
330
747D
100
AcDbEntity
  8
細線
100
AcDbLine
 10
4376.61111940365
 20
5009.477532997411
 30
0.0
 11
4376.61111940365
 21
5032.477532997411
 31
0.0
  0
LINE
  5
17043
330
747D
100
AcDbEntity
  8
細線
100
AcDbLine
 10
4228.611119403649
 20
5032.477532997411
 30
0.0
 11
4228.611119403649
 21
5009.477532997411
 31
0.0
  0
LINE
  5
17044
330
747D
100
AcDbEntity
  8
部品1
 48
0.01
100
AcDbLine
 10
4392.611119403645
 20
5005.477532997411
 30
0.0
 11
4392.611119403649
 21
5036.977532997411
 31
0.0
  0
LINE
  5
17045
330
747D
100
AcDbEntity
  8
部品1
 48
0.01
100
AcDbLine
 10
4214.611119403649
 20
5003.477532997411
 30
0.0
 11
4390.611119403645
 21
5003.477532997411
 31
0.0
  0
LINE
  5
17046
330
747D
100
AcDbEntity
  8
部品1
 48
0.01
100
AcDbLine
 10
4212.611119403649
 20
5036.977532997411
 30
0.0
 11
4212.611119403649
 21
5005.477532997411
 31
0.0
  0
LINE
  5
17047
330
747D
100
AcDbEntity
  8
部品1
 48
0.01
100
AcDbLine
 10
4390.611119403649
 20
5038.97753299741
 30
0.0
 11
4214.611119403649
 21
5038.97753299741
 31
0.0
  0
LINE
  5
17048
330
747D
100
AcDbEntity
  8
細線
100
AcDbLine
 10
4228.611119403649
 20
5026.477532997411
 30
0.0
 11
4302.611119403649
 21
5026.477532997411
 31
0.0
  0
LINE
  5
17049
330
747D
100
AcDbEntity
  8
細線
100
AcDbLine
 10
4228.611119403649
 20
5020.477532997411
 30
0.0
 11
4302.611119403649
 21
5020.477532997411
 31
0.0
  0
LINE
  5
1704A
330
747D
100
AcDbEntity
  8
細線
100
AcDbLine
 10
4228.611119403645
 20
5014.47753299741
 30
0.0
 11
4302.611119403649
 21
5014.47753299741
 31
0.0
  0
LINE
  5
1704B
330
747D
100
AcDbEntity
  8
細線
100
AcDbLine
 10
4228.611119403649
 20
5026.477532997411
 30
0.0
 11
4297.611119403649
 21
5026.477532997411
 31
0.0
  0
LINE
  5
1704C
330
747D
100
AcDbEntity
  8
細線
100
AcDbLine
 10
4376.611119403645
 20
5026.477532997411
 30
0.0
 11
4302.611119403649
 21
5026.477532997411
 31
0.0
  0
LINE
  5
1704D
330
747D
100
AcDbEntity
  8
細線
100
AcDbLine
 10
4376.611119403645
 20
5014.47753299741
 30
0.0
 11
4302.611119403649
 21
5014.47753299741
 31
0.0
  0
LINE
  5
1704E
330
747D
100
AcDbEntity
  8
細線
100
AcDbLine
 10
4376.611119403645
 20
5020.477532997411
 30
0.0
 11
4302.611119403649
 21
5020.477532997411
 31
0.0
  0
LINE
  5
1704F
330
747D
100
AcDbEntity
  8
細線
100
AcDbLine
 10
4302.611119403649
 20
5032.477532997411
 30
0.0
 11
4302.611119403645
 21
5009.477532997411
 31
0.0
  0
LINE
  5
171BE
330
747D
100
AcDbEntity
  8
細線
100
AcDbLine
 10
8102.611119403649
 20
5032.477532997409
 30
0.0
 11
8102.611119403645
 21
5009.477532997409
 31
0.0
  0
LINE
  5
171BF
330
747D
100
AcDbEntity
  8
細線
100
AcDbLine
 10
8176.611119403645
 20
5020.477532997409
 30
0.0
 11
8102.611119403649
 21
5020.477532997409
 31
0.0
  0
LINE
  5
171C0
330
747D
100
AcDbEntity
  8
細線
100
AcDbLine
 10
8176.611119403645
 20
5014.47753299741
 30
0.0
 11
8102.611119403649
 21
5014.47753299741
 31
0.0
  0
LINE
  5
171C1
330
747D
100
AcDbEntity
  8
細線
100
AcDbLine
 10
8176.611119403645
 20
5026.477532997409
 30
0.0
 11
8102.611119403649
 21
5026.477532997409
 31
0.0
  0
LINE
  5
171C2
330
747D
100
AcDbEntity
  8
細線
100
AcDbLine
 10
8028.611119403649
 20
5026.477532997409
 30
0.0
 11
8097.61111940365
 21
5026.477532997409
 31
0.0
  0
LINE
  5
171C3
330
747D
100
AcDbEntity
  8
細線
100
AcDbLine
 10
8028.611119403647
 20
5014.47753299741
 30
0.0
 11
8102.611119403649
 21
5014.47753299741
 31
0.0
  0
LINE
  5
171C4
330
747D
100
AcDbEntity
  8
細線
100
AcDbLine
 10
8028.611119403649
 20
5020.477532997409
 30
0.0
 11
8102.611119403649
 21
5020.477532997409
 31
0.0
  0
LINE
  5
171C5
330
747D
100
AcDbEntity
  8
細線
100
AcDbLine
 10
8028.611119403649
 20
5026.477532997409
 30
0.0
 11
8102.611119403649
 21
5026.477532997409
 31
0.0
  0
LINE
  5
171C6
330
747D
100
AcDbEntity
  8
部品1
 48
0.01
100
AcDbLine
 10
8190.61111940365
 20
5038.977532997409
 30
0.0
 11
8014.61111940365
 21
5038.977532997409
 31
0.0
  0
LINE
  5
171C7
330
747D
100
AcDbEntity
  8
部品1
 48
0.01
100
AcDbLine
 10
8012.611119403649
 20
5036.977532997409
 30
0.0
 11
8012.611119403649
 21
5005.477532997409
 31
0.0
  0
LINE
  5
171C8
330
747D
100
AcDbEntity
  8
部品1
 48
0.01
100
AcDbLine
 10
8014.61111940365
 20
5003.477532997409
 30
0.0
 11
8190.611119403646
 21
5003.477532997409
 31
0.0
  0
LINE
  5
171C9
330
747D
100
AcDbEntity
  8
部品1
 48
0.01
100
AcDbLine
 10
8192.611119403647
 20
5005.477532997409
 30
0.0
 11
8192.611119403649
 21
5036.977532997409
 31
0.0
  0
LINE
  5
171CA
330
747D
100
AcDbEntity
  8
細線
100
AcDbLine
 10
8028.611119403649
 20
5032.477532997409
 30
0.0
 11
8028.611119403649
 21
5009.477532997409
 31
0.0
  0
LINE
  5
171CB
330
747D
100
AcDbEntity
  8
細線
100
AcDbLine
 10
8176.61111940365
 20
5009.477532997409
 30
0.0
 11
8176.61111940365
 21
5032.477532997409
 31
0.0
  0
LINE
  5
171CC
330
747D
100
AcDbEntity
  8
細線
100
AcDbLine
 10
8176.61111940365
 20
5032.477532997409
 30
0.0
 11
8102.611119403649
 21
5032.477532997409
 31
0.0
  0
LINE
  5
171CD
330
747D
100
AcDbEntity
  8
細線
100
AcDbLine
 10
8028.611119403649
 20
5009.477532997409
 30
0.0
 11
8102.611119403649
 21
5009.477532997409
 31
0.0
  0
LINE
  5
171CE
330
747D
100
AcDbEntity
  8
細線
100
AcDbLine
 10
8102.611119403649
 20
5032.477532997409
 30
0.0
 11
8028.611119403649
 21
5032.477532997409
 31
0.0
  0
LINE
  5
171CF
330
747D
100
AcDbEntity
  8
細線
100
AcDbLine
 10
8102.611119403645
 20
5009.477532997409
 30
0.0
 11
8176.61111940365
 21
5009.477532997409
 31
0.0
  0
ARC
  5
171D0
330
747D
100
AcDbEntity
  8
部品1
 48
0.01
100
AcDbCircle
 10
8014.61111940365
 20
5036.977532997409
 30
0.0
 40
2.0
100
AcDbArc
 50
90.0
 51
180.0
  0
ARC
  5
171D1
330
747D
100
AcDbEntity
  8
部品1
 48
0.01
100
AcDbCircle
 10
8014.61111940365
 20
5005.477532997409
 30
0.0
 40
2.0
100
AcDbArc
 50
180.0
 51
270.0
  0
ARC
  5
171D2
330
747D
100
AcDbEntity
  8
部品1
 48
0.01
100
AcDbCircle
 10
8190.61111940365
 20
5036.977532997409
 30
0.0
 40
2.0
100
AcDbArc
 50
0.0
 51
90.0
  0
ARC
  5
171D3
330
747D
100
AcDbEntity
  8
部品1
 48
0.01
100
AcDbCircle
 10
8190.611119403646
 20
5005.477532997409
 30
0.0
 40
2.0
100
AcDbArc
 50
270.0
 51
0.0
  0
ARC
  5
171D4
330
747D
100
AcDbEntity
  8
部品1
 48
0.01
100
AcDbCircle
 10
7240.611119403645
 20
5005.477532997409
 30
0.0
 40
2.0
100
AcDbArc
 50
270.0
 51
0.0
  0
ARC
  5
171D5
330
747D
100
AcDbEntity
  8
部品1
 48
0.01
100
AcDbCircle
 10
7240.611119403649
 20
5036.977532997409
 30
0.0
 40
2.0
100
AcDbArc
 50
0.0
 51
90.0
  0
ARC
  5
171D6
330
747D
100
AcDbEntity
  8
部品1
 48
0.01
100
AcDbCircle
 10
7064.611119403649
 20
5005.477532997409
 30
0.0
 40
2.0
100
AcDbArc
 50
180.0
 51
270.0
  0
ARC
  5
171D7
330
747D
100
AcDbEntity
  8
部品1
 48
0.01
100
AcDbCircle
 10
7064.611119403649
 20
5036.977532997409
 30
0.0
 40
2.0
100
AcDbArc
 50
90.0
 51
180.0
  0
LINE
  5
171D8
330
747D
100
AcDbEntity
  8
細線
100
AcDbLine
 10
7152.611119403646
 20
5009.477532997409
 30
0.0
 11
7226.611119403649
 21
5009.477532997409
 31
0.0
  0
LINE
  5
171D9
330
747D
100
AcDbEntity
  8
細線
100
AcDbLine
 10
7152.611119403649
 20
5032.477532997409
 30
0.0
 11
7078.61111940365
 21
5032.477532997409
 31
0.0
  0
LINE
  5
171DA
330
747D
100
AcDbEntity
  8
細線
100
AcDbLine
 10
7078.61111940365
 20
5009.477532997409
 30
0.0
 11
7152.611119403649
 21
5009.477532997409
 31
0.0
  0
LINE
  5
171DB
330
747D
100
AcDbEntity
  8
細線
100
AcDbLine
 10
7226.611119403649
 20
5032.477532997409
 30
0.0
 11
7152.611119403649
 21
5032.477532997409
 31
0.0
  0
LINE
  5
171DC
330
747D
100
AcDbEntity
  8
細線
100
AcDbLine
 10
7226.611119403649
 20
5009.477532997409
 30
0.0
 11
7226.611119403649
 21
5032.477532997409
 31
0.0
  0
LINE
  5
171DD
330
747D
100
AcDbEntity
  8
細線
100
AcDbLine
 10
7078.61111940365
 20
5032.477532997409
 30
0.0
 11
7078.61111940365
 21
5009.477532997409
 31
0.0
  0
LINE
  5
171DE
330
747D
100
AcDbEntity
  8
部品1
 48
0.01
100
AcDbLine
 10
7242.611119403647
 20
5005.477532997409
 30
0.0
 11
7242.611119403649
 21
5036.977532997409
 31
0.0
  0
LINE
  5
171DF
330
747D
100
AcDbEntity
  8
部品1
 48
0.01
100
AcDbLine
 10
7064.611119403649
 20
5003.477532997409
 30
0.0
 11
7240.611119403645
 21
5003.477532997409
 31
0.0
  0
LINE
  5
171E0
330
747D
100
AcDbEntity
  8
部品1
 48
0.01
100
AcDbLine
 10
7062.61111940365
 20
5036.977532997409
 30
0.0
 11
7062.61111940365
 21
5005.477532997409
 31
0.0
  0
LINE
  5
171E1
330
747D
100
AcDbEntity
  8
部品1
 48
0.01
100
AcDbLine
 10
7240.611119403649
 20
5038.977532997409
 30
0.0
 11
7064.611119403649
 21
5038.977532997409
 31
0.0
  0
LINE
  5
171E2
330
747D
100
AcDbEntity
  8
細線
100
AcDbLine
 10
7078.61111940365
 20
5026.477532997409
 30
0.0
 11
7152.611119403649
 21
5026.477532997409
 31
0.0
  0
LINE
  5
171E3
330
747D
100
AcDbEntity
  8
細線
100
AcDbLine
 10
7078.61111940365
 20
5020.477532997409
 30
0.0
 11
7152.611119403649
 21
5020.477532997409
 31
0.0
  0
LINE
  5
171E4
330
747D
100
AcDbEntity
  8
細線
100
AcDbLine
 10
7078.611119403646
 20
5014.47753299741
 30
0.0
 11
7152.611119403649
 21
5014.47753299741
 31
0.0
  0
LINE
  5
171E5
330
747D
100
AcDbEntity
  8
細線
100
AcDbLine
 10
7078.61111940365
 20
5026.477532997409
 30
0.0
 11
7147.611119403649
 21
5026.477532997409
 31
0.0
  0
LINE
  5
171E6
330
747D
100
AcDbEntity
  8
細線
100
AcDbLine
 10
7226.611119403646
 20
5026.477532997409
 30
0.0
 11
7152.611119403649
 21
5026.477532997409
 31
0.0
  0
LINE
  5
171E7
330
747D
100
AcDbEntity
  8
細線
100
AcDbLine
 10
7226.611119403646
 20
5014.47753299741
 30
0.0
 11
7152.611119403649
 21
5014.47753299741
 31
0.0
  0
LINE
  5
171E8
330
747D
100
AcDbEntity
  8
細線
100
AcDbLine
 10
7226.611119403646
 20
5020.477532997409
 30
0.0
 11
7152.611119403649
 21
5020.477532997409
 31
0.0
  0
LINE
  5
171E9
330
747D
100
AcDbEntity
  8
細線
100
AcDbLine
 10
7152.611119403649
 20
5032.477532997409
 30
0.0
 11
7152.611119403646
 21
5009.477532997409
 31
0.0
  0
TEXT
  5
17213
330
747D
100
AcDbEntity
  8
文字
 62
     7
 48
50.0
100
AcDbText
 10
14260.68475616112
 20
855.469579666289
 30
0.0
 40
100.0
  1
～一般型・多雪地型・豪雪地型～
  7
STYLE2
100
AcDbText
  0
DIMENSION
  5
1723F
330
747D
100
AcDbEntity
  8
寸法
100
AcDbDimension
  2
*D37
 10
4650.675696247668
 20
8444.766171211959
 30
0.0
 11
4204.675696247671
 21
8444.766171211959
 31
0.0
 70
   160
 71
     5
 42
892.0
  3
INABA_S40G
100
AcDbAlignedDimension
 13
3856.611126081253
 23
8810.266171211962
 33
0.0
 14
4748.611126081252
 24
8810.266171211988
 34
0.0
100
AcDbRotatedDimension
1001
ACAD
1000
DSTYLE
1002
{
1002
}
  0
LINE
  5
17240
330
747D
100
AcDbEntity
  8
破線
 48
10.0
100
AcDbLine
 10
3884.111732591465
 20
8667.266200436468
 30
0.0
 11
4722.111119403614
 21
8667.266165845941
 31
0.0
  0
LINE
  5
17241
330
747D
100
AcDbEntity
  8
破線
 48
10.0
100
AcDbLine
 10
3884.111732591465
 20
8617.266200436468
 30
0.0
 11
4722.111119403615
 21
8617.266165845942
 31
0.0
  0
DIMENSION
  5
17242
330
747D
100
AcDbEntity
  8
寸法
100
AcDbDimension
  2
*D38
 10
5600.675696247644
 20
8444.766171211959
 30
0.0
 11
5154.675696247659
 21
8444.766171211959
 31
0.0
 70
   160
 71
     5
 42
891.9999999999964
  3
INABA_S40G
100
AcDbAlignedDimension
 13
4806.611126081253
 23
8810.266171211962
 33
0.0
 14
5698.611126081249
 24
8810.266171212068
 34
0.0
100
AcDbRotatedDimension
1001
ACAD
1000
DSTYLE
1002
{
1002
}
  0
LINE
  5
17243
330
747D
100
AcDbEntity
  8
破線
 48
10.0
100
AcDbLine
 10
4833.111115472103
 20
8667.266199301339
 30
0.0
 11
5672.111119403616
 21
8667.266164669509
 31
0.0
  0
LINE
  5
17244
330
747D
100
AcDbEntity
  8
破線
 48
10.0
100
AcDbLine
 10
4833.111115276264
 20
8617.26619930134
 30
0.0
 11
5672.111119403617
 21
8617.26616466951
 31
0.0
  0
DIMENSION
  5
17291
330
747D
100
AcDbEntity
  8
寸法
100
AcDbDimension
  2
*D39
 10
6550.675696247669
 20
8444.766171211959
 30
0.0
 11
6104.675696247672
 21
8444.766171211959
 31
0.0
 70
   160
 71
     5
 42
892.0
  3
INABA_S40G
100
AcDbAlignedDimension
 13
5756.611126081253
 23
8810.266171211962
 33
0.0
 14
6648.611126081252
 24
8810.266171211988
 34
0.0
100
AcDbRotatedDimension
1001
ACAD
1000
DSTYLE
1002
{
1002
}
  0
LINE
  5
17292
330
747D
100
AcDbEntity
  8
破線
 48
10.0
100
AcDbLine
 10
5784.111732591465
 20
8667.266200436468
 30
0.0
 11
6622.111119403616
 21
8667.266165845941
 31
0.0
  0
LINE
  5
17293
330
747D
100
AcDbEntity
  8
破線
 48
10.0
100
AcDbLine
 10
5784.111732591465
 20
8617.266200436468
 30
0.0
 11
6622.111119403616
 21
8617.266165845942
 31
0.0
  0
DIMENSION
  5
17294
330
747D
100
AcDbEntity
  8
寸法
100
AcDbDimension
  2
*D40
 10
7500.675696247644
 20
8444.766171211959
 30
0.0
 11
7054.675696247659
 21
8444.766171211959
 31
0.0
 70
   160
 71
     5
 42
891.9999999999964
  3
INABA_S40G
100
AcDbAlignedDimension
 13
6706.611126081252
 23
8810.266171211962
 33
0.0
 14
7598.611126081249
 24
8810.266171212068
 34
0.0
100
AcDbRotatedDimension
1001
ACAD
1000
DSTYLE
1002
{
1002
}
  0
LINE
  5
17295
330
747D
100
AcDbEntity
  8
破線
 48
10.0
100
AcDbLine
 10
6733.111115472103
 20
8667.266199301339
 30
0.0
 11
7572.111119403615
 21
8667.266164669509
 31
0.0
  0
LINE
  5
17296
330
747D
100
AcDbEntity
  8
破線
 48
10.0
100
AcDbLine
 10
6733.111115276265
 20
8617.26619930134
 30
0.0
 11
7572.111119403619
 21
8617.26616466951
 31
0.0
  0
LINE
  5
172C1
330
747D
100
AcDbEntity
  8
破線
 48
10.0
100
AcDbLine
 10
7683.111115276265
 20
8617.266215357842
 30
0.0
 11
8522.111119403616
 21
8617.266180726012
 31
0.0
  0
LINE
  5
172C2
330
747D
100
AcDbEntity
  8
破線
 48
10.0
100
AcDbLine
 10
7683.111115472103
 20
8667.266215357839
 30
0.0
 11
8522.111119403616
 21
8667.266180726009
 31
0.0
  0
DIMENSION
  5
172C3
330
747D
100
AcDbEntity
  8
寸法
100
AcDbDimension
  2
*D41
 10
8450.675696247643
 20
8444.766187268461
 30
0.0
 11
8004.675696247659
 21
8444.766187268461
 31
0.0
 70
   160
 71
     5
 42
891.9999999999964
  3
INABA_S40G
100
AcDbAlignedDimension
 13
7656.611126081251
 23
8810.266187268464
 33
0.0
 14
8548.611126081249
 24
8810.26618726857
 34
0.0
100
AcDbRotatedDimension
1001
ACAD
1000
DSTYLE
1002
{
1002
}
  0
LINE
  5
172D9
330
747D
100
AcDbEntity
  8
破線
 48
10.0
100
AcDbLine
 10
3907.61116729169
 20
8617.266199466472
 30
0.0
 11
3907.611119403642
 21
8074.766171211999
 31
0.0
  0
LINE
  5
172DA
330
747D
100
AcDbEntity
  8
破線
 48
10.0
100
AcDbLine
 10
4698.611112673426
 20
8667.266166815961
 30
0.0
 11
4698.611111049089
 21
8810.266171212093
 31
0.0
  0
LINE
  5
172DB
330
747D
100
AcDbEntity
  8
破線
 48
10.0
100
AcDbLine
 10
4856.611109389457
 20
8667.266160294115
 30
0.0
 11
4856.61110697253
 21
8810.266171212035
 31
0.0
  0
LINE
  5
172DC
330
747D
100
AcDbEntity
  8
破線
 48
10.0
100
AcDbLine
 10
5648.611112673427
 20
8667.266127602326
 30
0.0
 11
5648.611111049089
 21
8810.266171212093
 31
0.0
  0
LINE
  5
172DD
330
747D
100
AcDbEntity
  8
破線
 48
10.0
100
AcDbLine
 10
5806.611109389457
 20
8667.26612108048
 30
0.0
 11
5806.61110697253
 21
8810.266171212035
 31
0.0
  0
LINE
  5
172DE
330
747D
100
AcDbEntity
  8
破線
 48
10.0
100
AcDbLine
 10
6598.611112673427
 20
8667.266088388691
 30
0.0
 11
6598.611111049089
 21
8810.266171212093
 31
0.0
  0
LINE
  5
172DF
330
747D
100
AcDbEntity
  8
破線
 48
10.0
100
AcDbLine
 10
6756.611109389457
 20
8667.266081866847
 30
0.0
 11
6756.611106972531
 21
8810.266171212035
 31
0.0
  0
LINE
  5
172E0
330
747D
100
AcDbEntity
  8
破線
 48
10.0
100
AcDbLine
 10
7548.611112673427
 20
8667.266049175056
 30
0.0
 11
7548.61111104909
 21
8810.266171212093
 31
0.0
  0
LINE
  5
172E1
330
747D
100
AcDbEntity
  8
破線
 48
10.0
100
AcDbLine
 10
7706.611109389458
 20
8667.266042653212
 30
0.0
 11
7706.61110697253
 21
8810.266171212035
 31
0.0
  0
LINE
  5
172E2
330
747D
100
AcDbEntity
  8
破線
 48
10.0
100
AcDbLine
 10
8497.611167291649
 20
8617.266010002706
 30
0.0
 11
8497.611119403639
 21
8074.766171212079
 31
0.0
  0
TEXT
  5
1733C
330
747D
100
AcDbEntity
  8
文字
 62
     7
 48
50.0
100
AcDbText
 10
13583.11819016568
 20
9060.013745883729
 30
0.0
 40
100.0
  1
脇パネル
  7
STYLE1
100
AcDbText
  0
TEXT
  5
1733D
330
747D
100
AcDbEntity
  8
文字
 62
     7
 48
50.0
100
AcDbText
 10
15022.63965474515
 20
9060.013745883725
 30
0.0
 40
100.0
  1
F12            0.6
  7
STYLE1
100
AcDbText
  0
TEXT
  5
1733E
330
747D
100
AcDbEntity
  8
文字
 62
     7
 48
50.0
100
AcDbText
 10
13248.77747366447
 20
8550.013745883735
 30
0.0
 40
100.0
  1
16
  7
STYLE1
100
AcDbText
  0
LINE
  5
1733F
330
747D
100
AcDbEntity
  8
仕様書枠
 48
50.0
100
AcDbLine
 10
16307.19999999997
 20
8179.600000000007
 30
0.0
 11
13127.19999999997
 21
8179.600000000007
 31
0.0
  0
TEXT
  5
17340
330
747D
100
AcDbEntity
  8
文字
 62
     7
 48
50.0
100
AcDbText
 10
13583.1181901657
 20
9570.013745883729
 30
0.0
 40
100.0
  1
母屋中
  7
STYLE1
100
AcDbText
  0
TEXT
  5
17341
330
747D
100
AcDbEntity
  8
文字
 62
     7
 48
50.0
100
AcDbText
 10
15022.63965474518
 20
9570.013745883725
 30
0.0
 40
100.0
  1
F12            1.0
  7
STYLE1
100
AcDbText
  0
TEXT
  5
17342
330
747D
100
AcDbEntity
  8
文字
 62
     7
 48
50.0
100
AcDbText
 10
13248.77747366447
 20
8890.013745883731
 30
0.0
 40
100.0
  1
14
  7
STYLE1
100
AcDbText
  0
LINE
  5
17343
330
747D
100
AcDbEntity
  8
仕様書枠
 48
50.0
100
AcDbLine
 10
16307.2
 20
9539.6
 30
0.0
 11
13127.2
 21
9539.6
 31
0.0
  0
TEXT
  5
17344
330
747D
100
AcDbEntity
  8
文字
 62
     7
 48
50.0
100
AcDbText
 10
13583.11819016567
 20
8720.013745883733
 30
0.0
 40
100.0
  1
棚板
  7
STYLE1
100
AcDbText
  0
TEXT
  5
17345
330
747D
100
AcDbEntity
  8
文字
 62
     7
 48
50.0
100
AcDbText
 10
15022.63965474513
 20
8720.013745883729
 30
0.0
 40
100.0
  1
F12            0.6
  7
STYLE1
100
AcDbText
  0
TEXT
  5
17346
330
747D
100
AcDbEntity
  8
文字
 62
     7
 48
50.0
100
AcDbText
 10
13583.11819016567
 20
8890.013745883729
 30
0.0
 40
100.0
  1
扉
  7
STYLE1
100
AcDbText
  0
TEXT
  5
17347
330
747D
100
AcDbEntity
  8
文字
 62
     7
 48
50.0
100
AcDbText
 10
15022.63965474513
 20
8890.013745883726
 30
0.0
 40
100.0
  1
F12            0.8
  7
STYLE1
100
AcDbText
  0
TEXT
  5
17348
330
747D
100
AcDbEntity
  8
文字
 62
     7
 48
50.0
100
AcDbText
 10
15022.63965474517
 20
10590.01374588372
 30
0.0
 40
100.0
  1
F12            1.0
  7
STYLE1
100
AcDbText
  0
TEXT
  5
17349
330
747D
100
AcDbEntity
  8
文字
 62
     7
 48
50.0
100
AcDbText
 10
13583.1181901657
 20
10590.01374588373
 30
0.0
 40
100.0
  1
床パネル
 41
0.9
  7
STYLE1
100
AcDbText
  0
LINE
  5
1734A
330
747D
100
AcDbEntity
  8
仕様書枠
 48
50.0
100
AcDbLine
 10
16307.19999999998
 20
8689.6
 30
0.0
 11
13127.19999999999
 21
8689.600000000003
 31
0.0
  0
LINE
  5
1734B
330
747D
100
AcDbEntity
  8
仕様書枠
 48
50.0
100
AcDbLine
 10
13127.2
 20
11409.6
 30
0.0
 11
13127.19999999999
 21
8179.600000000007
 31
0.0
  0
TEXT
  5
1734C
330
747D
100
AcDbEntity
  8
文字
 62
     7
 48
50.0
100
AcDbText
 10
13229.83081656552
 20
8210.013745883729
 30
0.0
 40
100.0
  1
Y10→溶融亜鉛-5％アルミニウム合金めっき鋼板(JIS G 3317)
 41
0.9
  7
STYLE1
100
AcDbText
  0
TEXT
  5
1734D
330
747D
100
AcDbEntity
  8
文字
 62
     7
 48
50.0
100
AcDbText
 10
13229.83081656552
 20
8380.013745883728
 30
0.0
 40
100.0
  1
F12→溶融亜鉛めっき鋼板(JIS G 3302)
  7
STYLE1
100
AcDbText
  0
LINE
  5
1734E
330
747D
100
AcDbEntity
  8
仕様書枠
 48
50.0
100
AcDbLine
 10
16307.19999999998
 20
8349.600000000004
 30
0.0
 11
13127.19999999999
 21
8349.600000000004
 31
0.0
  0
TEXT
  5
1734F
330
747D
100
AcDbEntity
  8
文字
 62
     7
 48
50.0
100
AcDbText
 10
15022.63965474515
 20
9230.013745883725
 30
0.0
 40
100.0
  1
F12            0.6
  7
STYLE1
100
AcDbText
  0
TEXT
  5
17350
330
747D
100
AcDbEntity
  8
文字
 62
     7
 48
50.0
100
AcDbText
 10
15022.63965474516
 20
9400.013745883725
 30
0.0
 40
100.0
  1
Y10            0.5
  7
STYLE1
100
AcDbText
  0
TEXT
  5
17351
330
747D
100
AcDbEntity
  8
文字
 62
     7
 48
50.0
100
AcDbText
 10
15022.63965474517
 20
9910.013745883725
 30
0.0
 40
100.0
  1
Y10            0.7
  7
STYLE1
100
AcDbText
  0
TEXT
  5
17352
330
747D
100
AcDbEntity
  8
文字
 62
     7
 48
50.0
100
AcDbText
 10
15022.63965474517
 20
10080.01374588372
 30
0.0
 40
100.0
  1
Y10            0.7
  7
STYLE1
100
AcDbText
  0
TEXT
  5
17353
330
747D
100
AcDbEntity
  8
文字
 62
     7
 48
50.0
100
AcDbText
 10
15022.63965474517
 20
10250.01374588372
 30
0.0
 40
100.0
  1
Y10            1.0
  7
STYLE1
100
AcDbText
  0
TEXT
  5
17354
330
747D
100
AcDbEntity
  8
文字
 62
     7
 48
50.0
100
AcDbText
 10
15022.63965474517
 20
10420.01374588372
 30
0.0
 40
100.0
  1
Y10            1.0
  7
STYLE1
100
AcDbText
  0
TEXT
  5
17355
330
747D
100
AcDbEntity
  8
文字
 62
     7
 48
50.0
100
AcDbText
 10
15022.63965474518
 20
10760.01374588372
 30
0.0
 40
100.0
  1
F12            1.0
  7
STYLE1
100
AcDbText
  0
TEXT
  5
17356
330
747D
100
AcDbEntity
  8
文字
 62
     7
 48
50.0
100
AcDbText
 10
15022.63965474517
 20
11100.01374588372
 30
0.0
 40
100.0
  1
F12            1.2
  7
STYLE1
100
AcDbText
  0
TEXT
  5
17357
330
747D
100
AcDbEntity
  8
文字
 62
     7
 48
50.0
100
AcDbText
 10
13248.77747366447
 20
9230.013745883729
 30
0.0
 40
100.0
  1
12
  7
STYLE1
100
AcDbText
  0
TEXT
  5
17358
330
747D
100
AcDbEntity
  8
文字
 62
     7
 48
50.0
100
AcDbText
 10
13248.77747366447
 20
9060.013745883729
 30
0.0
 40
100.0
  1
13
  7
STYLE1
100
AcDbText
  0
LINE
  5
17359
330
747D
100
AcDbEntity
  8
仕様書枠
 48
50.0
100
AcDbLine
 10
16307.19999999998
 20
8519.600000000002
 30
0.0
 11
13127.19999999999
 21
8519.600000000004
 31
0.0
  0
LINE
  5
1735A
330
747D
100
AcDbEntity
  8
仕様書枠
 48
50.0
100
AcDbLine
 10
16307.19999999998
 20
8859.6
 30
0.0
 11
13127.19999999999
 21
8859.6
 31
0.0
  0
TEXT
  5
1735B
330
747D
100
AcDbEntity
  8
文字
 62
     7
 48
50.0
100
AcDbText
 10
13248.77747366447
 20
9400.013745883729
 30
0.0
 40
100.0
  1
11
  7
STYLE1
100
AcDbText
  0
LINE
  5
1735C
330
747D
100
AcDbEntity
  8
仕様書枠
 48
50.0
100
AcDbLine
 10
16307.2
 20
9709.600000000001
 30
0.0
 11
13127.2
 21
9709.600000000001
 31
0.0
  0
LINE
  5
1735D
330
747D
100
AcDbEntity
  8
仕様書枠
 48
50.0
100
AcDbLine
 10
16307.2
 20
10049.6
 30
0.0
 11
13127.2
 21
10049.6
 31
0.0
  0
LINE
  5
1735E
330
747D
100
AcDbEntity
  8
仕様書枠
 48
50.0
100
AcDbLine
 10
16307.19999999998
 20
9199.600000000001
 30
0.0
 11
13127.19999999999
 21
9199.600000000001
 31
0.0
  0
LINE
  5
1735F
330
747D
100
AcDbEntity
  8
仕様書枠
 48
50.0
100
AcDbLine
 10
16307.19999999998
 20
9029.6
 30
0.0
 11
13127.19999999999
 21
9029.6
 31
0.0
  0
LINE
  5
17360
330
747D
100
AcDbEntity
  8
仕様書枠
 48
50.0
100
AcDbLine
 10
16307.19999999998
 20
9369.600000000001
 30
0.0
 11
13127.19999999999
 21
9369.600000000001
 31
0.0
  0
TEXT
  5
17361
330
747D
100
AcDbEntity
  8
文字
 62
     7
 48
50.0
100
AcDbText
 10
13271.19032244793
 20
10250.01374588373
 30
0.0
 40
100.0
  1
6
  7
STYLE1
100
AcDbText
  0
TEXT
  5
17362
330
747D
100
AcDbEntity
  8
文字
 62
     7
 48
50.0
100
AcDbText
 10
13271.19032244792
 20
10080.01374588373
 30
0.0
 40
100.0
  1
7
  7
STYLE1
100
AcDbText
  0
TEXT
  5
17363
330
747D
100
AcDbEntity
  8
文字
 62
     7
 48
50.0
100
AcDbText
 10
13271.19032244792
 20
9740.013745883729
 30
0.0
 40
100.0
  1
9
  7
STYLE1
100
AcDbText
  0
TEXT
  5
17364
330
747D
100
AcDbEntity
  8
文字
 62
     7
 48
50.0
100
AcDbText
 10
13271.19032244792
 20
9910.01374588373
 30
0.0
 40
100.0
  1
8
  7
STYLE1
100
AcDbText
  0
TEXT
  5
17365
330
747D
100
AcDbEntity
  8
文字
 62
     7
 48
50.0
100
AcDbText
 10
13583.1181901657
 20
9910.01374588373
 30
0.0
 40
100.0
  1
鼻隠シ前後
  7
STYLE1
100
AcDbText
  0
TEXT
  5
17366
330
747D
100
AcDbEntity
  8
文字
 62
     7
 48
50.0
100
AcDbText
 10
13583.11819016569
 20
9400.013745883729
 30
0.0
 40
100.0
  1
屋根パネル
  7
STYLE1
100
AcDbText
  0
TEXT
  5
17367
330
747D
100
AcDbEntity
  8
文字
 62
     7
 48
50.0
100
AcDbText
 10
13583.11819016568
 20
9230.013745883729
 30
0.0
 40
100.0
  1
壁パネル
  7
STYLE1
100
AcDbText
  0
TEXT
  5
17368
330
747D
100
AcDbEntity
  8
文字
 62
     7
 48
50.0
100
AcDbText
 10
13248.77747366447
 20
9570.013745883729
 30
0.0
 40
100.0
  1
10
  7
STYLE1
100
AcDbText
  0
TEXT
  5
17369
330
747D
100
AcDbEntity
  8
文字
 62
     7
 48
50.0
100
AcDbText
 10
13583.1181901657
 20
10080.01374588373
 30
0.0
 40
100.0
  1
妻板左右
  7
STYLE1
100
AcDbText
  0
TEXT
  5
1736A
330
747D
100
AcDbEntity
  8
文字
 62
     7
 48
50.0
100
AcDbText
 10
13271.19032244793
 20
10420.01374588373
 30
0.0
 40
100.0
  1
5
  7
STYLE1
100
AcDbText
  0
TEXT
  5
1736B
330
747D
100
AcDbEntity
  8
文字
 62
     7
 48
50.0
100
AcDbText
 10
13583.1181901657
 20
10250.01374588373
 30
0.0
 40
100.0
  1
桁後
  7
STYLE1
100
AcDbText
  0
TEXT
  5
1736C
330
747D
100
AcDbEntity
  8
文字
 62
     7
 48
50.0
100
AcDbText
 10
13583.1181901657
 20
10420.01374588373
 30
0.0
 40
100.0
  1
鴨居
  7
STYLE1
100
AcDbText
  0
TEXT
  5
1736D
330
747D
100
AcDbEntity
  8
文字
 62
     7
 48
50.0
100
AcDbText
 10
13583.1181901657
 20
10760.01374588373
 30
0.0
 40
100.0
  1
柱
  7
STYLE1
100
AcDbText
  0
TEXT
  5
1736E
330
747D
100
AcDbEntity
  8
文字
 62
     7
 48
50.0
100
AcDbText
 10
13583.11819016569
 20
11100.01374588373
 30
0.0
 40
100.0
  1
土台枠
  7
STYLE1
100
AcDbText
  0
TEXT
  5
1736F
330
747D
100
AcDbEntity
  8
文字
 62
     7
 48
50.0
100
AcDbText
 10
14859.79774614482
 20
11270.01374588373
 30
0.0
 40
100.0
  1
材料（材質）　　単位mm
  7
STYLE1
100
AcDbText
  0
TEXT
  5
17370
330
747D
100
AcDbEntity
  8
文字
 62
     7
 48
50.0
100
AcDbText
 10
13732.03840939434
 20
11270.01374588373
 30
0.0
 40
100.0
  1
部　　品　　名
  7
STYLE1
100
AcDbText
  0
TEXT
  5
17371
330
747D
100
AcDbEntity
  8
文字
 62
     7
 48
50.0
100
AcDbText
 10
13271.19032244793
 20
10760.01374588373
 30
0.0
 40
100.0
  1
3
  7
STYLE1
100
AcDbText
  0
TEXT
  5
17372
330
747D
100
AcDbEntity
  8
文字
 62
     7
 48
50.0
100
AcDbText
 10
13271.19032244793
 20
10590.01374588373
 30
0.0
 40
100.0
  1
4
  7
STYLE1
100
AcDbText
  0
TEXT
  5
17373
330
747D
100
AcDbEntity
  8
文字
 62
     7
 48
50.0
100
AcDbText
 10
13271.19032244792
 20
10930.01374588373
 30
0.0
 40
100.0
  1
2
  7
STYLE1
100
AcDbText
  0
TEXT
  5
17374
330
747D
100
AcDbEntity
  8
文字
 62
     7
 48
50.0
100
AcDbText
 10
13271.19032244792
 20
11100.01374588373
 30
0.0
 40
100.0
  1
1
  7
STYLE1
100
AcDbText
  0
TEXT
  5
17375
330
747D
100
AcDbEntity
  8
文字
 62
     7
 48
50.0
100
AcDbText
 10
13197.42518560407
 20
11270.01374588373
 30
0.0
 40
100.0
  1
品番
  7
STYLE1
100
AcDbText
  0
LINE
  5
17376
330
747D
100
AcDbEntity
  8
仕様書枠
 48
50.0
100
AcDbLine
 10
16307.19999999999
 20
10559.6
 30
0.0
 11
13127.2
 21
10559.6
 31
0.0
  0
LINE
  5
17377
330
747D
100
AcDbEntity
  8
仕様書枠
 48
50.0
100
AcDbLine
 10
16307.19999999999
 20
10219.6
 30
0.0
 11
13127.2
 21
10219.6
 31
0.0
  0
LINE
  5
17378
330
747D
100
AcDbEntity
  8
仕様書枠
 48
50.0
100
AcDbLine
 10
16307.19999999999
 20
10389.6
 30
0.0
 11
13127.2
 21
10389.6
 31
0.0
  0
LINE
  5
17379
330
747D
100
AcDbEntity
  8
仕様書枠
 48
50.0
100
AcDbLine
 10
16307.19999999999
 20
11069.6
 30
0.0
 11
13127.2
 21
11069.6
 31
0.0
  0
LINE
  5
1737A
330
747D
100
AcDbEntity
  8
仕様書枠
 48
50.0
100
AcDbLine
 10
16307.2
 20
10729.6
 30
0.0
 11
13127.2
 21
10729.6
 31
0.0
  0
LINE
  5
1737B
330
747D
100
AcDbEntity
  8
仕様書枠
 48
50.0
100
AcDbLine
 10
16307.19999999999
 20
11239.6
 30
0.0
 11
13127.2
 21
11239.6
 31
0.0
  0
LINE
  5
1737C
330
747D
100
AcDbEntity
  8
仕様書枠
 48
50.0
100
AcDbLine
 10
13490.2
 20
11409.6
 30
0.0
 11
13490.2
 21
8519.600000000004
 31
0.0
  0
LINE
  5
1737D
330
747D
100
AcDbEntity
  8
仕様書枠
 48
50.0
100
AcDbLine
 10
14785.2
 20
11409.59999999999
 30
0.0
 11
14785.19999999999
 21
8519.600000000002
 31
0.0
  0
LINE
  5
1737E
330
747D
100
AcDbEntity
  8
仕様書枠
 48
50.0
100
AcDbLine
 10
16307.19999999999
 20
8179.600000000007
 30
0.0
 11
16307.2
 21
11409.6
 31
0.0
  0
LINE
  5
1737F
330
747D
100
AcDbEntity
  8
仕様書枠
 48
50.0
100
AcDbLine
 10
16307.2
 20
9879.600000000001
 30
0.0
 11
13127.2
 21
9879.600000000001
 31
0.0
  0
TEXT
  5
17380
330
747D
100
AcDbEntity
  8
文字
 62
     7
 48
50.0
100
AcDbText
 10
15022.63965474512
 20
8550.013745883722
 30
0.0
 40
100.0
  1
F12            2.3
  7
STYLE1
100
AcDbText
  0
TEXT
  5
17381
330
747D
100
AcDbEntity
  8
文字
 62
     7
 48
50.0
100
AcDbText
 10
13583.11819016566
 20
8550.013745883729
 30
0.0
 40
100.0
  1
アンカープレート
  7
STYLE1
100
AcDbText
  0
TEXT
  5
17382
330
747D
100
AcDbEntity
  8
文字
 62
     7
 48
50.0
100
AcDbText
 10
15022.63965474517
 20
9740.013745883729
 30
0.0
 40
100.0
  1
F12,Y10       0.7+1.0
  7
STYLE1
100
AcDbText
  0
TEXT
  5
17383
330
747D
100
AcDbEntity
  8
文字
 62
     7
 48
50.0
100
AcDbText
 10
13583.1181901657
 20
9740.013745883729
 30
0.0
 40
100.0
  1
梁中・梁中央
 41
0.9
  7
STYLE1
100
AcDbText
  0
LINE
  5
17384
330
747D
100
AcDbEntity
  8
仕様書枠
 48
50.0
100
AcDbLine
 10
16307.2
 20
10899.6
 30
0.0
 11
13127.2
 21
10899.6
 31
0.0
  0
TEXT
  5
17385
330
747D
100
AcDbEntity
  8
文字
 62
     7
 48
50.0
100
AcDbText
 10
13248.77747366447
 20
8720.013745883735
 30
0.0
 40
100.0
  1
15
  7
STYLE1
100
AcDbText
  0
TEXT
  5
17386
330
747D
100
AcDbEntity
  8
文字
 62
     7
 48
50.0
100
AcDbText
 10
13583.11819016569
 20
10930.01374588373
 30
0.0
 40
100.0
  1
根太
  7
STYLE1
100
AcDbText
  0
TEXT
  5
17387
330
747D
100
AcDbEntity
  8
文字
 62
     7
 48
50.0
100
AcDbText
 10
15022.63965474517
 20
10930.01374588372
 30
0.0
 40
100.0
  1
F12            1.2
  7
STYLE1
100
AcDbText
  0
ENDSEC
  0
SECTION
  2
OBJECTS
  0
DICTIONARY
  5
7471
330
0
100
AcDbDictionary
281
     1
  3
ACAD_COLOR
350
15EFC
  3
ACAD_GROUP
350
7472
  3
ACAD_LAYOUT
350
15EFD
  3
ACAD_MATERIAL
350
15EFB
  3
ACAD_MLINESTYLE
350
7473
  3
ACAD_PLOTSETTINGS
350
15EFE
  3
ACAD_PLOTSTYLENAME
350
15EF9
  3
ACDBHEADERROUNDTRIPXREC
350
1739F
  3
AcDbVariableDictionary
350
1739B
  3
CONTENTDICTIONARY
350
E71C
  3
DRAWINGVARIABLESDICT
350
F3B9
  0
DICTIONARY
  5
160D6
330
7467
100
AcDbDictionary
280
     1
281
     1
  3
ACAD_LAYERSTATES
360
160D7
  0
DICTIONARY
  5
15EFC
102
{ACAD_REACTORS
330
7471
102
}
330
7471
100
AcDbDictionary
281
     1
  0
DICTIONARY
  5
7472
102
{ACAD_REACTORS
330
7471
102
}
330
7471
100
AcDbDictionary
281
     1
  0
DICTIONARY
  5
15EFD
102
{ACAD_REACTORS
330
7471
102
}
330
7471
100
AcDbDictionary
281
     1
  3
Model
350
15EFF
  3
レイアウト1
350
15F00
  0
DICTIONARY
  5
15EFB
102
{ACAD_REACTORS
330
7471
102
}
330
7471
100
AcDbDictionary
281
     1
  0
DICTIONARY
  5
7473
102
{ACAD_REACTORS
330
7471
102
}
330
7471
100
AcDbDictionary
281
     1
  3
STANDARD
350
7480
  0
DICTIONARY
  5
15EFE
102
{ACAD_REACTORS
330
7471
102
}
330
7471
100
AcDbDictionary
281
     1
  0
ACDBDICTIONARYWDFLT
  5
15EF9
102
{ACAD_REACTORS
330
7471
102
}
330
7471
100
AcDbDictionary
281
     1
  3
Normal
350
15EFA
100
AcDbDictionaryWithDefault
340
15EFA
  0
DICTIONARY
  5
1739F
102
{ACAD_REACTORS
330
7471
102
}
330
7471
100
AcDbDictionary
281
     1
  3
COLORDICT
350
173A1
  3
MATERIALDICT
350
173A0
  0
DICTIONARY
  5
1739B
102
{ACAD_REACTORS
330
7471
102
}
330
7471
100
AcDbDictionary
281
     1
  3
DIMASSOC
350
1739C
  3
PROJECTNAME
350
1739D
  0
DICTIONARY
  5
E71C
102
{ACAD_REACTORS
330
7471
102
}
330
7471
100
AcDbDictionary
281
     1
  0
DICTIONARY
  5
F3B9
102
{ACAD_REACTORS
330
7471
102
}
330
7471
100
AcDbDictionary
281
     1
1001
DRAWINGVARIABLESXDATA
1000
POLARMODE
1000
1
  0
DICTIONARY
  5
160D7
102
{ACAD_REACTORS
330
160D6
102
}
330
160D6
100
AcDbDictionary
281
     1
  0
LAYOUT
  5
15EFF
102
{ACAD_XDICTIONARY
360
173A2
102
}
102
{ACAD_REACTORS
330
15EFD
102
}
330
15EFD
100
AcDbPlotSettings
  1

  2
Microsoft Office Document Image Writer
  4

  6

 40
0.0
 41
0.0
 42
0.0
 43
0.0
 44
0.0
 45
0.0
 46
0.0
 47
0.0
 48
0.0
 49
0.0
140
0.0
141
0.0
142
1.0
143
1.0
 70
  1712
 72
     0
 73
     0
 74
     0
  7

 75
     0
147
1.0
148
0.0
149
0.0
100
AcDbLayout
  1
Model
 70
     1
 71
     0
 10
0.0
 20
0.0
 11
12.0
 21
9.0
 12
0.0
 22
0.0
 32
0.0
 14
0.0
 24
0.0
 34
0.0
 15
0.0
 25
0.0
 35
0.0
146
0.0
 13
0.0
 23
0.0
 33
0.0
 16
1.0
 26
0.0
 36
0.0
 17
0.0
 27
1.0
 37
0.0
 76
     0
330
747D
  0
LAYOUT
  5
15F00
102
{ACAD_XDICTIONARY
360
173A4
102
}
102
{ACAD_REACTORS
330
15EFD
102
}
330
15EFD
100
AcDbPlotSettings
  1

  2
Microsoft Office Document Image Writer
  4

  6

 40
0.0
 41
0.0
 42
0.0
 43
0.0
 44
0.0
 45
0.0
 46
0.0
 47
0.0
 48
0.0
 49
0.0
140
0.0
141
0.0
142
1.0
143
1.0
 70
   688
 72
     0
 73
     0
 74
     5
  7

 75
    16
147
1.0
148
0.0
149
0.0
100
AcDbLayout
  1
レイアウト1
 70
     0
 71
     1
 10
0.0
 20
0.0
 11
420.0
 21
297.0
 12
0.0
 22
0.0
 32
0.0
 14
1.000000000000000E+20
 24
1.000000000000000E+20
 34
1.000000000000000E+20
 15
-1.000000000000000E+20
 25
-1.000000000000000E+20
 35
-1.000000000000000E+20
146
0.0
 13
0.0
 23
0.0
 33
0.0
 16
1.0
 26
0.0
 36
0.0
 17
0.0
 27
1.0
 37
0.0
 76
     0
330
747A
  0
MLINESTYLE
  5
7480
102
{ACAD_REACTORS
330
7473
102
}
330
7473
100
AcDbMlineStyle
  2
STANDARD
 70
     0
  3

 62
     0
 51
90.0
 52
90.0
 71
     2
 49
0.5
 62
   256
  6
BYLAYER
 49
-0.5
 62
   256
  6
BYLAYER
  0
ACDBPLACEHOLDER
  5
15EFA
102
{ACAD_REACTORS
330
15EF9
102
}
330
15EF9
  0
XRECORD
  5
173A1
102
{ACAD_REACTORS
330
1739F
102
}
330
1739F
100
AcDbXrecord
280
     1
340
15EFC
  0
XRECORD
  5
173A0
102
{ACAD_REACTORS
330
1739F
102
}
330
1739F
100
AcDbXrecord
280
     1
340
15EFB
  0
DICTIONARYVAR
  5
1739C
102
{ACAD_REACTORS
330
1739B
102
}
330
1739B
100
DictionaryVariables
280
     0
  1
1
  0
DICTIONARYVAR
  5
1739D
102
{ACAD_REACTORS
330
1739B
102
}
330
1739B
100
DictionaryVariables
280
     0
  1

  0
DICTIONARY
  5
173A2
330
15EFF
100
AcDbDictionary
280
     1
281
     1
  3
ACAD_XREC_ROUNDTRIP
360
173A3
  0
DICTIONARY
  5
173A4
330
15F00
100
AcDbDictionary
280
     1
281
     1
  3
ACAD_XREC_ROUNDTRIP
360
173A5
  0
XRECORD
  5
173A3
102
{ACAD_REACTORS
330
173A2
102
}
330
173A2
100
AcDbXrecord
280
     1
102
SHADEPLOT
 70
     0
102
SHADEPLOTRESLEVEL
 70
     2
102
SHADEPLOTCUSTOMDPI
 70
   300
  0
XRECORD
  5
173A5
102
{ACAD_REACTORS
330
173A4
102
}
330
173A4
100
AcDbXrecord
280
     1
102
SHADEPLOT
 70
     0
102
SHADEPLOTRESLEVEL
 70
     2
102
SHADEPLOTCUSTOMDPI
 70
   300
  0
ENDSEC
  0
EOF
