  0
SECTION
  2
HEADER
  9
$ACADVER
  1
AC1015
  9
$ACADMAINTVER
 70
    20
  9
$DWGCODEPAGE
  3
ANSI_932
  9
$INSBASE
 10
0.0
 20
0.0
 30
0.0
  9
$EXTMIN
 10
139.9999999999995
 20
-0.0000000000000909
 30
0.0
  9
$EXTMAX
 10
16307.2
 20
11409.6
 30
0.0
  9
$LIMMIN
 10
0.0
 20
0.0
  9
$LIMMAX
 10
16800.0
 20
11880.0
  9
$ORTHOMODE
 70
     0
  9
$REGENMODE
 70
     1
  9
$FILLMODE
 70
     1
  9
$QTEXTMODE
 70
     0
  9
$MIRRTEXT
 70
     1
  9
$LTSCALE
 40
20.0
  9
$ATTMODE
 70
     1
  9
$TEXTSIZE
 40
100.0
  9
$TRACEWID
 40
1.0
  9
$TEXTSTYLE
  7
STYLE3
  9
$CLAYER
  8
寸法
  9
$CELTYPE
  6
BYLAYER
  9
$CECOLOR
 62
   256
  9
$CELTSCALE
 40
50.0
  9
$DISPSILH
 70
     0
  9
$DIMSCALE
 40
40.0
  9
$DIMASZ
 40
2.5
  9
$DIMEXO
 40
0.5
  9
$DIMDLI
 40
7.0
  9
$DIMRND
 40
0.0
  9
$DIMDLE
 40
0.0
  9
$DIMEXE
 40
1.5
  9
$DIMTP
 40
0.0
  9
$DIMTM
 40
0.0
  9
$DIMTXT
 40
3.0
  9
$DIMCEN
 40
0.0
  9
$DIMTSZ
 40
0.0
  9
$DIMTOL
 70
     0
  9
$DIMLIM
 70
     0
  9
$DIMTIH
 70
     0
  9
$DIMTOH
 70
     0
  9
$DIMSE1
 70
     0
  9
$DIMSE2
 70
     0
  9
$DIMTAD
 70
     3
  9
$DIMZIN
 70
     8
  9
$DIMBLK
  1

  9
$DIMASO
 70
     1
  9
$DIMSHO
 70
     1
  9
$DIMPOST
  1

  9
$DIMAPOST
  1

  9
$DIMALT
 70
     0
  9
$DIMALTD
 70
     2
  9
$DIMALTF
 40
0.0394
  9
$DIMLFAC
 40
1.0
  9
$DIMTOFL
 70
     1
  9
$DIMTVP
 40
0.0
  9
$DIMTIX
 70
     1
  9
$DIMSOXD
 70
     0
  9
$DIMSAH
 70
     1
  9
$DIMBLK1
  1
DOTSMALL
  9
$DIMBLK2
  1
DOTSMALL
  9
$DIMSTYLE
  2
INABA_S40G
  9
$DIMCLRD
 70
     0
  9
$DIMCLRE
 70
     0
  9
$DIMCLRT
 70
     7
  9
$DIMTFAC
 40
1.0
  9
$DIMGAP
 40
1.0
  9
$DIMJUST
 70
     0
  9
$DIMSD1
 70
     0
  9
$DIMSD2
 70
     0
  9
$DIMTOLJ
 70
     1
  9
$DIMTZIN
 70
     0
  9
$DIMALTZ
 70
     0
  9
$DIMALTTZ
 70
     0
  9
$DIMUPT
 70
     0
  9
$DIMDEC
 70
     1
  9
$DIMTDEC
 70
     4
  9
$DIMALTU
 70
     2
  9
$DIMALTTD
 70
     2
  9
$DIMTXSTY
  7
STYLE1
  9
$DIMAUNIT
 70
     0
  9
$DIMADEC
 70
     0
  9
$DIMALTRND
 40
0.0
  9
$DIMAZIN
 70
     0
  9
$DIMDSEP
 70
    46
  9
$DIMATFIT
 70
     3
  9
$DIMFRAC
 70
     0
  9
$DIMLDRBLK
  1

  9
$DIMLUNIT
 70
     2
  9
$DIMLWD
 70
    -2
  9
$DIMLWE
 70
    -2
  9
$DIMTMOVE
 70
     0
  9
$LUNITS
 70
     2
  9
$LUPREC
 70
     1
  9
$SKETCHINC
 40
1.0
  9
$FILLETRAD
 40
5.0
  9
$AUNITS
 70
     0
  9
$AUPREC
 70
     0
  9
$MENU
  1
acad
  9
$ELEVATION
 40
0.0
  9
$PELEVATION
 40
0.0
  9
$THICKNESS
 40
0.0
  9
$LIMCHECK
 70
     0
  9
$CHAMFERA
 40
0.0
  9
$CHAMFERB
 40
0.0
  9
$CHAMFERC
 40
0.0
  9
$CHAMFERD
 40
0.0
  9
$SKPOLY
 70
     0
  9
$TDCREATE
 40
2452116.684896065
  9
$TDUCREATE
 40
2452116.309896065
  9
$TDUPDATE
 40
2455575.693721597
  9
$TDUUPDATE
 40
2455575.318721597
  9
$TDINDWG
 40
0.5145119792
  9
$TDUSRTIMER
 40
0.5145119792
  9
$USRTIMER
 70
     1
  9
$ANGBASE
 50
0.0
  9
$ANGDIR
 70
     0
  9
$PDMODE
 70
     3
  9
$PDSIZE
 40
2.0
  9
$PLINEWID
 40
0.0
  9
$SPLFRAME
 70
     0
  9
$SPLINETYPE
 70
     6
  9
$SPLINESEGS
 70
     8
  9
$HANDSEED
  5
172BA
  9
$SURFTAB1
 70
     6
  9
$SURFTAB2
 70
     6
  9
$SURFTYPE
 70
     6
  9
$SURFU
 70
     6
  9
$SURFV
 70
     6
  9
$UCSBASE
  2

  9
$UCSNAME
  2

  9
$UCSORG
 10
0.0
 20
0.0
 30
0.0
  9
$UCSXDIR
 10
1.0
 20
0.0
 30
0.0
  9
$UCSYDIR
 10
0.0
 20
1.0
 30
0.0
  9
$UCSORTHOREF
  2

  9
$UCSORTHOVIEW
 70
     0
  9
$UCSORGTOP
 10
0.0
 20
0.0
 30
0.0
  9
$UCSORGBOTTOM
 10
0.0
 20
0.0
 30
0.0
  9
$UCSORGLEFT
 10
0.0
 20
0.0
 30
0.0
  9
$UCSORGRIGHT
 10
0.0
 20
0.0
 30
0.0
  9
$UCSORGFRONT
 10
0.0
 20
0.0
 30
0.0
  9
$UCSORGBACK
 10
0.0
 20
0.0
 30
0.0
  9
$PUCSBASE
  2

  9
$PUCSNAME
  2

  9
$PUCSORG
 10
0.0
 20
0.0
 30
0.0
  9
$PUCSXDIR
 10
1.0
 20
0.0
 30
0.0
  9
$PUCSYDIR
 10
0.0
 20
1.0
 30
0.0
  9
$PUCSORTHOREF
  2

  9
$PUCSORTHOVIEW
 70
     0
  9
$PUCSORGTOP
 10
0.0
 20
0.0
 30
0.0
  9
$PUCSORGBOTTOM
 10
0.0
 20
0.0
 30
0.0
  9
$PUCSORGLEFT
 10
0.0
 20
0.0
 30
0.0
  9
$PUCSORGRIGHT
 10
0.0
 20
0.0
 30
0.0
  9
$PUCSORGFRONT
 10
0.0
 20
0.0
 30
0.0
  9
$PUCSORGBACK
 10
0.0
 20
0.0
 30
0.0
  9
$USERI1
 70
     0
  9
$USERI2
 70
     0
  9
$USERI3
 70
     0
  9
$USERI4
 70
     0
  9
$USERI5
 70
     0
  9
$USERR1
 40
0.0
  9
$USERR2
 40
0.0
  9
$USERR3
 40
0.0
  9
$USERR4
 40
0.0
  9
$USERR5
 40
0.0
  9
$WORLDVIEW
 70
     1
  9
$SHADEDGE
 70
     3
  9
$SHADEDIF
 70
    70
  9
$TILEMODE
 70
     1
  9
$MAXACTVP
 70
    16
  9
$PINSBASE
 10
0.0
 20
0.0
 30
0.0
  9
$PLIMCHECK
 70
     0
  9
$PEXTMIN
 10
1.000000000000000E+20
 20
1.000000000000000E+20
 30
1.000000000000000E+20
  9
$PEXTMAX
 10
-1.000000000000000E+20
 20
-1.000000000000000E+20
 30
-1.000000000000000E+20
  9
$PLIMMIN
 10
0.0
 20
0.0
  9
$PLIMMAX
 10
420.0
 20
297.0
  9
$UNITMODE
 70
     0
  9
$VISRETAIN
 70
     0
  9
$PLINEGEN
 70
     0
  9
$PSLTSCALE
 70
     0
  9
$TREEDEPTH
 70
  3020
  9
$CMLSTYLE
  2
STANDARD
  9
$CMLJUST
 70
     0
  9
$CMLSCALE
 40
1.0
  9
$PROXYGRAPHICS
 70
     1
  9
$MEASUREMENT
 70
     1
  9
$CELWEIGHT
370
    -1
  9
$ENDCAPS
280
     0
  9
$JOINSTYLE
280
     0
  9
$LWDISPLAY
290
     0
  9
$INSUNITS
 70
     0
  9
$HYPERLINKBASE
  1

  9
$STYLESHEET
  1

  9
$XEDIT
290
     1
  9
$CEPSNTYPE
380
     0
  9
$PSTYLEMODE
290
     1
  9
$FINGERPRINTGUID
  2
{2D2C1D20-C61B-4648-8952-B4A3239B91E6}
  9
$VERSIONGUID
  2
{3E27EDD7-FF5B-4CE6-BE86-3C0C9FF792A6}
  9
$EXTNAMES
290
     1
  9
$PSVPSCALE
 40
0.0
  9
$OLESTARTUP
290
     0
  0
ENDSEC
  0
SECTION
  2
CLASSES
  0
CLASS
  1
ACDBDICTIONARYWDFLT
  2
AcDbDictionaryWithDefault
  3
ObjectDBX Classes
 90
        0
280
     0
281
     0
  0
CLASS
  1
DICTIONARYVAR
  2
AcDbDictionaryVar
  3
ObjectDBX Classes
 90
        0
280
     0
281
     0
  0
CLASS
  1
ACDBPLACEHOLDER
  2
AcDbPlaceHolder
  3
ObjectDBX Classes
 90
        0
280
     0
281
     0
  0
CLASS
  1
LAYOUT
  2
AcDbLayout
  3
ObjectDBX Classes
 90
        0
280
     0
281
     0
  0
ENDSEC
  0
SECTION
  2
TABLES
  0
TABLE
  2
VPORT
  5
746D
330
0
100
AcDbSymbolTable
 70
     2
  0
VPORT
  5
172B2
330
746D
100
AcDbSymbolTableRecord
100
AcDbViewportTableRecord
  2
*Active
 70
     0
 10
0.0
 20
0.0
 11
1.0
 21
1.0
 12
8223.761025238502
 22
6348.683291179126
 13
0.0
 23
0.0
 14
10.0
 24
10.0
 15
10.0
 25
10.0
 16
0.0
 26
0.0
 36
1.0
 17
0.0
 27
0.0
 37
0.0
 40
12805.56644836532
 41
1.525925925925925
 42
50.0
 43
0.0
 44
0.0
 50
0.0
 51
0.0
 71
     0
 72
     0
 73
     1
 74
     0
 75
     0
 76
     0
 77
     0
 78
     0
281
     0
 65
     1
110
0.0
120
0.0
130
0.0
111
1.0
121
0.0
131
0.0
112
0.0
122
1.0
132
0.0
 79
     0
146
0.0
  0
ENDTAB
  0
TABLE
  2
LTYPE
  5
746A
330
0
100
AcDbSymbolTable
 70
     4
  0
LTYPE
  5
7477
330
746A
100
AcDbSymbolTableRecord
100
AcDbLinetypeTableRecord
  2
BYBLOCK
 70
     0
  3

 72
    65
 73
     0
 40
0.0
  0
LTYPE
  5
7478
330
746A
100
AcDbSymbolTableRecord
100
AcDbLinetypeTableRecord
  2
BYLAYER
 70
     0
  3

 72
    65
 73
     0
 40
0.0
  0
LTYPE
  5
7479
330
746A
100
AcDbSymbolTableRecord
100
AcDbLinetypeTableRecord
  2
CONTINUOUS
 70
     0
  3
Solid line
 72
    65
 73
     0
 40
0.0
  0
LTYPE
  5
7816
330
746A
100
AcDbSymbolTableRecord
100
AcDbLinetypeTableRecord
  2
CENTER
 70
     0
  3
____ _ ____ _ ____ _ ____ _ ____ _ ____ _ ____ 
 72
    65
 73
     4
 40
2.0
 49
1.25
 74
     0
 49
-0.25
 74
     0
 49
0.25
 74
     0
 49
-0.25
 74
     0
  0
LTYPE
  5
781A
330
746A
100
AcDbSymbolTableRecord
100
AcDbLinetypeTableRecord
  2
HIDDEN
 70
     0
  3
__ __ __ __ __ __ __ __ __ __ __ __ __ __ __ __
 72
    65
 73
     2
 40
0.375
 49
0.25
 74
     0
 49
-0.125
 74
     0
  0
LTYPE
  5
781B
330
746A
100
AcDbSymbolTableRecord
100
AcDbLinetypeTableRecord
  2
PHANTOM
 70
     0
  3
______  __  __  ______  __  __  ______  __  __ 
 72
    65
 73
     6
 40
2.5
 49
1.25
 74
     0
 49
-0.25
 74
     0
 49
0.25
 74
     0
 49
-0.25
 74
     0
 49
0.25
 74
     0
 49
-0.25
 74
     0
  0
ENDTAB
  0
TABLE
  2
LAYER
  5
7467
102
{ACAD_XDICTIONARY
360
15F9A
102
}
330
0
100
AcDbSymbolTable
 70
    12
  0
LAYER
  5
7474
330
7467
100
AcDbSymbolTableRecord
100
AcDbLayerTableRecord
  2
0
 70
     0
 62
     7
  6
CONTINUOUS
370
    -3
390
15DEE
  0
LAYER
  5
DEB2
330
7467
100
AcDbSymbolTableRecord
100
AcDbLayerTableRecord
  2
センター
 70
     0
 62
     3
  6
CENTER
370
    -3
390
15DEE
  0
LAYER
  5
DEB3
330
7467
100
AcDbSymbolTableRecord
100
AcDbLayerTableRecord
  2
寸法
 70
     0
 62
     4
  6
CONTINUOUS
370
    -3
390
15DEE
  0
LAYER
  5
DEB4
330
7467
100
AcDbSymbolTableRecord
100
AcDbLayerTableRecord
  2
部品1
 70
     0
 62
     7
  6
CONTINUOUS
370
    -3
390
15DEE
  0
LAYER
  5
DEB5
330
7467
100
AcDbSymbolTableRecord
100
AcDbLayerTableRecord
  2
補助
 70
     0
 62
    -1
  6
CONTINUOUS
370
    -3
390
15DEE
  0
LAYER
  5
DEB6
330
7467
100
AcDbSymbolTableRecord
100
AcDbLayerTableRecord
  2
文字
 70
     0
 62
     7
  6
CONTINUOUS
370
    -3
390
15DEE
  0
LAYER
  5
F255
330
7467
100
AcDbSymbolTableRecord
100
AcDbLayerTableRecord
  2
DEFPOINTS
 70
     0
 62
     7
  6
CONTINUOUS
290
     0
370
    -3
390
15DEE
  0
LAYER
  5
10B54
330
7467
100
AcDbSymbolTableRecord
100
AcDbLayerTableRecord
  2
仕様書枠
 70
     0
 62
   230
  6
CONTINUOUS
370
    -3
390
15DEE
  0
LAYER
  5
11729
330
7467
100
AcDbSymbolTableRecord
100
AcDbLayerTableRecord
  2
Ｇ．Ｌ
 70
     0
 62
    30
  6
CONTINUOUS
370
    -3
390
15DEE
  0
LAYER
  5
1173F
330
7467
100
AcDbSymbolTableRecord
100
AcDbLayerTableRecord
  2
細線
 70
     0
 62
     5
  6
CONTINUOUS
370
    -3
390
15DEE
  0
LAYER
  5
118A1
330
7467
100
AcDbSymbolTableRecord
100
AcDbLayerTableRecord
  2
想像線
 70
     0
 62
     6
  6
PHANTOM
370
    -3
390
15DEE
  0
LAYER
  5
123C1
330
7467
100
AcDbSymbolTableRecord
100
AcDbLayerTableRecord
  2
破線
 70
     0
 62
     2
  6
HIDDEN
370
    -3
390
15DEE
  0
ENDTAB
  0
TABLE
  2
STYLE
  5
7468
330
0
100
AcDbSymbolTable
 70
     4
  0
STYLE
  5
7475
330
7468
100
AcDbSymbolTableRecord
100
AcDbTextStyleTableRecord
  2
STANDARD
 70
     0
 40
0.0
 41
1.0
 50
0.0
 71
     0
 42
4.0
  3
txt
  4
C:\AutoCAD LT\bigfont.shx
  0
STYLE
  5
F706
330
7468
100
AcDbSymbolTableRecord
100
AcDbTextStyleTableRecord
  2
STYLE1
 70
     0
 40
0.0
 41
1.0
 50
0.0
 71
     0
 42
4.0
  3
isocp.shx
  4
bigfont.shx
  0
STYLE
  5
103BF
330
7468
100
AcDbSymbolTableRecord
100
AcDbTextStyleTableRecord
  2
STYLE2
 70
     0
 40
0.0
 41
1.0
 50
0.0
 71
     0
 42
100.0
  3
MS PGothic.ttf
  4

1001
ACAD
1000
MS PGothic
1071
    32818
  0
STYLE
  5
10BAA
330
7468
100
AcDbSymbolTableRecord
100
AcDbTextStyleTableRecord
  2
STYLE3
 70
     0
 40
0.0
 41
1.0
 50
0.0
 71
     0
 42
100.0
  3

  4

1001
ACAD
1000
DFPGothic-EB
1071
    32818
  0
ENDTAB
  0
TABLE
  2
VIEW
  5
746B
330
0
100
AcDbSymbolTable
 70
     0
  0
ENDTAB
  0
TABLE
  2
UCS
  5
746C
330
0
100
AcDbSymbolTable
 70
     0
  0
ENDTAB
  0
TABLE
  2
APPID
  5
746E
330
0
100
AcDbSymbolTable
 70
     6
  0
APPID
  5
7476
330
746E
100
AcDbSymbolTableRecord
100
AcDbRegAppTableRecord
  2
ACAD
 70
     0
  0
APPID
  5
DEA9
330
746E
100
AcDbSymbolTableRecord
100
AcDbRegAppTableRecord
  2
CONTENTBLOCKICON
 70
     0
  0
APPID
  5
DEAA
330
746E
100
AcDbSymbolTableRecord
100
AcDbRegAppTableRecord
  2
CONTENTBLOCKDESCRIPTION
 70
     0
  0
APPID
  5
E71D
330
746E
100
AcDbSymbolTableRecord
100
AcDbRegAppTableRecord
  2
CONTENTTABDATA
 70
     0
  0
APPID
  5
E71E
330
746E
100
AcDbSymbolTableRecord
100
AcDbRegAppTableRecord
  2
CONTENTCURRENTTAB
 70
     0
  0
APPID
  5
F3BA
330
746E
100
AcDbSymbolTableRecord
100
AcDbRegAppTableRecord
  2
DRAWINGVARIABLESXDATA
 70
     0
  0
ENDTAB
  0
TABLE
  2
DIMSTYLE
  5
746F
330
0
100
AcDbSymbolTable
 70
     2
100
AcDbDimStyleTable
 71
     0
  0
DIMSTYLE
105
7484
330
746F
100
AcDbSymbolTableRecord
100
AcDbDimStyleTableRecord
  2
JIS
 70
     0
 41
2.5
 42
1.0
 43
7.0
 44
1.0
 73
     0
 74
     0
 77
     1
 78
     8
140
2.5
141
0.0
143
0.0394
147
0.0
172
     1
174
     1
175
     1
340
7475
  0
DIMSTYLE
105
F71F
102
{ACAD_REACTORS
330
156F4
330
156F5
330
156F6
330
156F7
330
156F8
330
156F9
330
156FA
330
156FB
330
156FC
330
15717
330
15794
330
15795
330
1579F
330
157A3
330
157C5
330
15C33
330
15C4B
330
15D2A
330
15D25
330
15D05
330
16261
330
1626B
330
1626C
330
16270
330
16271
330
16272
330
16273
330
16299
330
1629A
330
16992
330
16990
330
1698F
330
169FD
330
1716D
330
17170
330
171BF
330
171C2
102
}
330
746F
100
AcDbSymbolTableRecord
100
AcDbDimStyleTableRecord
  2
INABA_S40G
 70
     0
 40
40.0
 41
2.5
 42
0.5
 43
7.0
 44
1.5
 73
     0
 74
     0
 77
     3
 78
     8
140
3.0
141
0.0
143
0.0394
147
1.0
172
     1
173
     1
174
     1
178
     7
271
     1
340
F706
341
F770
343
F770
344
F770
  0
ENDTAB
  0
TABLE
  2
BLOCK_RECORD
  5
7466
330
0
100
AcDbSymbolTable
 70
    38
  0
BLOCK_RECORD
  5
747D
330
7466
100
AcDbSymbolTableRecord
100
AcDbBlockTableRecord
  2
*MODEL_SPACE
340
15DF3
  0
BLOCK_RECORD
  5
747A
330
7466
100
AcDbSymbolTableRecord
100
AcDbBlockTableRecord
  2
*PAPER_SPACE
340
15DF4
  0
BLOCK_RECORD
  5
F770
330
7466
100
AcDbSymbolTableRecord
100
AcDbBlockTableRecord
  2
_DOTSMALL
340
0
102
{BLKREFS
331
16C04
331
16C05
331
16C0F
331
16C10
331
16C18
331
16C19
331
16C21
331
16C22
331
16C4F
331
16C50
331
16C59
331
16C5A
331
16C62
331
16C63
331
16C6D
331
16C6E
331
16C76
331
16C77
331
16C7F
331
16C80
331
16C8A
331
16C8B
331
16C93
331
16C94
331
16C9C
331
16C9D
331
16CA6
331
16CA7
331
16CAE
331
16CAF
331
16CB7
331
16CB8
331
16CC0
331
16CC1
331
16CC9
331
16CCA
331
16CD2
331
16CD3
331
16CDB
331
16CDC
331
16CE4
331
16CE5
331
16CED
331
16CEE
331
16CF8
331
16CF9
331
16D01
331
16D02
331
16D0A
331
16D0B
331
16D13
331
16D14
331
16D1C
331
16D1D
331
16D27
331
16D28
331
16D30
331
16D31
331
16D3A
331
16D3B
331
16D43
331
16D44
331
16D4D
331
16D4E
331
16D58
331
16D59
331
1718E
331
1718F
331
17197
331
17198
331
171E0
331
171E1
331
171E9
331
171EA
102
}
  0
BLOCK_RECORD
  5
158EC
330
7466
100
AcDbSymbolTableRecord
100
AcDbBlockTableRecord
  2
*D1
340
0
  0
BLOCK_RECORD
  5
158FA
330
7466
100
AcDbSymbolTableRecord
100
AcDbBlockTableRecord
  2
*D2
340
0
  0
BLOCK_RECORD
  5
15908
330
7466
100
AcDbSymbolTableRecord
100
AcDbBlockTableRecord
  2
*D3
340
0
  0
BLOCK_RECORD
  5
15914
330
7466
100
AcDbSymbolTableRecord
100
AcDbBlockTableRecord
  2
*D4
340
0
  0
BLOCK_RECORD
  5
15920
330
7466
100
AcDbSymbolTableRecord
100
AcDbBlockTableRecord
  2
*D5
340
0
  0
BLOCK_RECORD
  5
1592C
330
7466
100
AcDbSymbolTableRecord
100
AcDbBlockTableRecord
  2
*D6
340
0
  0
BLOCK_RECORD
  5
1593A
330
7466
100
AcDbSymbolTableRecord
100
AcDbBlockTableRecord
  2
*D7
340
0
  0
BLOCK_RECORD
  5
15946
330
7466
100
AcDbSymbolTableRecord
100
AcDbBlockTableRecord
  2
*D8
340
0
  0
BLOCK_RECORD
  5
15952
330
7466
100
AcDbSymbolTableRecord
100
AcDbBlockTableRecord
  2
*D9
340
0
  0
BLOCK_RECORD
  5
15976
330
7466
100
AcDbSymbolTableRecord
100
AcDbBlockTableRecord
  2
*D10
340
0
  0
BLOCK_RECORD
  5
159A6
330
7466
100
AcDbSymbolTableRecord
100
AcDbBlockTableRecord
  2
*D11
340
0
  0
BLOCK_RECORD
  5
159B4
330
7466
100
AcDbSymbolTableRecord
100
AcDbBlockTableRecord
  2
*D12
340
0
  0
BLOCK_RECORD
  5
159C0
330
7466
100
AcDbSymbolTableRecord
100
AcDbBlockTableRecord
  2
*D13
340
0
  0
BLOCK_RECORD
  5
159CC
330
7466
100
AcDbSymbolTableRecord
100
AcDbBlockTableRecord
  2
*D14
340
0
  0
BLOCK_RECORD
  5
159F0
330
7466
100
AcDbSymbolTableRecord
100
AcDbBlockTableRecord
  2
*D15
340
0
  0
BLOCK_RECORD
  5
15C34
330
7466
100
AcDbSymbolTableRecord
100
AcDbBlockTableRecord
  2
*D16
340
0
  0
BLOCK_RECORD
  5
15C4C
330
7466
100
AcDbSymbolTableRecord
100
AcDbBlockTableRecord
  2
*D17
340
0
  0
BLOCK_RECORD
  5
15D31
330
7466
100
AcDbSymbolTableRecord
100
AcDbBlockTableRecord
  2
*D18
340
0
  0
BLOCK_RECORD
  5
15D3D
330
7466
100
AcDbSymbolTableRecord
100
AcDbBlockTableRecord
  2
*D19
340
0
  0
BLOCK_RECORD
  5
15D49
330
7466
100
AcDbSymbolTableRecord
100
AcDbBlockTableRecord
  2
*D20
340
0
  0
BLOCK_RECORD
  5
1651E
330
7466
100
AcDbSymbolTableRecord
100
AcDbBlockTableRecord
  2
*D21
340
0
  0
BLOCK_RECORD
  5
1652A
330
7466
100
AcDbSymbolTableRecord
100
AcDbBlockTableRecord
  2
*D22
340
0
  0
BLOCK_RECORD
  5
16536
330
7466
100
AcDbSymbolTableRecord
100
AcDbBlockTableRecord
  2
*D23
340
0
  0
BLOCK_RECORD
  5
16544
330
7466
100
AcDbSymbolTableRecord
100
AcDbBlockTableRecord
  2
*D24
340
0
  0
BLOCK_RECORD
  5
16550
330
7466
100
AcDbSymbolTableRecord
100
AcDbBlockTableRecord
  2
*D25
340
0
  0
BLOCK_RECORD
  5
1655C
330
7466
100
AcDbSymbolTableRecord
100
AcDbBlockTableRecord
  2
*D26
340
0
  0
BLOCK_RECORD
  5
1656A
330
7466
100
AcDbSymbolTableRecord
100
AcDbBlockTableRecord
  2
*D27
340
0
  0
BLOCK_RECORD
  5
16576
330
7466
100
AcDbSymbolTableRecord
100
AcDbBlockTableRecord
  2
*D28
340
0
  0
BLOCK_RECORD
  5
16583
330
7466
100
AcDbSymbolTableRecord
100
AcDbBlockTableRecord
  2
*D29
340
0
  0
BLOCK_RECORD
  5
169AF
330
7466
100
AcDbSymbolTableRecord
100
AcDbBlockTableRecord
  2
*D30
340
0
  0
BLOCK_RECORD
  5
169BD
330
7466
100
AcDbSymbolTableRecord
100
AcDbBlockTableRecord
  2
*D31
340
0
  0
BLOCK_RECORD
  5
169C9
330
7466
100
AcDbSymbolTableRecord
100
AcDbBlockTableRecord
  2
*D32
340
0
  0
BLOCK_RECORD
  5
16A08
330
7466
100
AcDbSymbolTableRecord
100
AcDbBlockTableRecord
  2
*D33
340
0
  0
BLOCK_RECORD
  5
17173
330
7466
100
AcDbSymbolTableRecord
100
AcDbBlockTableRecord
  2
*D34
340
0
  0
BLOCK_RECORD
  5
1717F
330
7466
100
AcDbSymbolTableRecord
100
AcDbBlockTableRecord
  2
*D35
340
0
  0
BLOCK_RECORD
  5
171C5
330
7466
100
AcDbSymbolTableRecord
100
AcDbBlockTableRecord
  2
*D36
340
0
  0
BLOCK_RECORD
  5
171D1
330
7466
100
AcDbSymbolTableRecord
100
AcDbBlockTableRecord
  2
*D37
340
0
  0
ENDTAB
  0
ENDSEC
  0
SECTION
  2
BLOCKS
  0
BLOCK
  5
7489
330
747D
100
AcDbEntity
  8
0
100
AcDbBlockBegin
  2
*MODEL_SPACE
 70
     0
 10
0.0
 20
0.0
 30
0.0
  3
*MODEL_SPACE
  1

  0
ENDBLK
  5
748A
330
747D
100
AcDbEntity
  8
0
100
AcDbBlockEnd
  0
BLOCK
  5
7487
330
747A
100
AcDbEntity
 67
     1
  8
0
100
AcDbBlockBegin
  2
*PAPER_SPACE
 70
     0
 10
0.0
 20
0.0
 30
0.0
  3
*PAPER_SPACE
  1

  0
ENDBLK
  5
7488
330
747A
100
AcDbEntity
 67
     1
  8
0
100
AcDbBlockEnd
  0
BLOCK
  5
F771
330
F770
100
AcDbEntity
  8
0
 48
50.0
100
AcDbBlockBegin
  2
_DOTSMALL
 70
     0
 10
0.0
 20
0.0
 30
0.0
  3
_DOTSMALL
  1

  0
LWPOLYLINE
  5
F772
330
F770
100
AcDbEntity
  8
0
  6
ByBlock
 62
     0
 48
50.0
100
AcDbPolyline
 90
        2
 70
     1
 43
0.5
 10
-0.0625
 20
0.0
 42
1.0
 10
0.0625
 20
0.0
 42
1.0
  0
ENDBLK
  5
F776
330
F770
100
AcDbEntity
  8
0
 48
50.0
100
AcDbBlockEnd
  0
BLOCK
  5
15A18
330
158EC
100
AcDbEntity
  8
0
 48
50.0
100
AcDbBlockBegin
  2
*D1
 70
     1
 10
0.0
 20
0.0
 30
0.0
  3
*D1
  1

  0
LINE
  5
16D53
330
158EC
100
AcDbEntity
  8
寸法
 62
     0
 48
50.0
370
    -2
100
AcDbLine
 10
8333.025516872098
 20
9371.517864338606
 30
0.0
 11
9020.45186260651
 21
9371.517864338606
 31
0.0
  0
LINE
  5
16D54
330
158EC
100
AcDbEntity
  8
寸法
 62
     0
 48
50.0
370
    -2
100
AcDbLine
 10
8333.025516872098
 20
9316.517864338605
 30
0.0
 11
9020.45186260651
 21
9316.517864338605
 31
0.0
  0
LINE
  5
16D55
330
158EC
100
AcDbEntity
  8
寸法
 62
     0
 48
50.0
370
    -2
100
AcDbLine
 10
8960.451862606509
 20
9316.517864338605
 30
0.0
 11
8960.451862606509
 21
9216.517864338605
 31
0.0
  0
LINE
  5
16D56
330
158EC
100
AcDbEntity
  8
寸法
 62
     0
 48
50.0
370
    -2
100
AcDbLine
 10
8960.451862606509
 20
9371.517864338606
 30
0.0
 11
8960.451862606509
 21
9788.488427087083
 31
0.0
  0
LINE
  5
16D57
330
158EC
100
AcDbEntity
  8
寸法
 62
     0
 48
50.0
370
    -2
100
AcDbLine
 10
8960.451862606509
 20
9316.517864338605
 30
0.0
 11
8960.451862606509
 21
9371.517864338606
 31
0.0
  0
INSERT
  5
16D58
330
158EC
100
AcDbEntity
  8
寸法
 62
     0
 48
50.0
370
    -2
100
AcDbBlockReference
  2
_DOTSMALL
 10
8960.451862606509
 20
9316.517864338605
 30
0.0
 41
100.0
 42
100.0
 43
100.0
 50
90.0
  0
INSERT
  5
16D59
330
158EC
100
AcDbEntity
  8
寸法
 62
     0
 48
50.0
370
    -2
100
AcDbBlockReference
  2
_DOTSMALL
 10
8960.451862606509
 20
9371.517864338606
 30
0.0
 41
100.0
 42
100.0
 43
100.0
 50
270.0
  0
MTEXT
  5
16D5A
330
158EC
100
AcDbEntity
  8
寸法
 62
     7
 48
50.0
100
AcDbMText
 10
8860.451862606508
 20
9680.003145712847
 30
0.0
 40
120.0
 41
0.0
 71
     5
 72
     1
  1
\A1;55
  7
STYLE1
 11
0.0000000000000001
 21
1.0
 31
0.0
 73
     1
 44
1.0
1001
ACAD
1000
MTEXTBEGIN
1070
    73
1070
     1
1070
    44
1040
1.0
1070
    74
1070
     0
1000
MTEXTEND
  0
POINT
  5
16D5B
330
158EC
100
AcDbEntity
  8
DEFPOINTS
 62
     0
 48
50.0
100
AcDbPoint
 10
8313.025516872098
 20
9371.517864338606
 30
0.0
  0
POINT
  5
16D5C
330
158EC
100
AcDbEntity
  8
DEFPOINTS
 62
     0
 48
50.0
100
AcDbPoint
 10
8313.025516872098
 20
9316.517864338605
 30
0.0
  0
POINT
  5
16D5D
330
158EC
100
AcDbEntity
  8
DEFPOINTS
 62
     0
 48
50.0
100
AcDbPoint
 10
8960.451862606509
 20
9316.517864338605
 30
0.0
  0
ENDBLK
  5
15A24
330
158EC
100
AcDbEntity
  8
0
 48
50.0
100
AcDbBlockEnd
  0
BLOCK
  5
15A25
330
158FA
100
AcDbEntity
  8
0
 48
50.0
100
AcDbBlockBegin
  2
*D2
 70
     1
 10
0.0
 20
0.0
 30
0.0
  3
*D2
  1

  0
LINE
  5
16D48
330
158FA
100
AcDbEntity
  8
寸法
 62
     0
 48
50.0
370
    -2
100
AcDbLine
 10
8258.025516872098
 20
9391.517864338606
 30
0.0
 11
8258.025516872098
 21
9647.326083963589
 31
0.0
  0
LINE
  5
16D49
330
158FA
100
AcDbEntity
  8
寸法
 62
     0
 48
50.0
370
    -2
100
AcDbLine
 10
8313.025516872098
 20
9391.517864338606
 30
0.0
 11
8313.025516872098
 21
9647.326083963589
 31
0.0
  0
LINE
  5
16D4A
330
158FA
100
AcDbEntity
  8
寸法
 62
     0
 48
50.0
370
    -2
100
AcDbLine
 10
8258.025516872098
 20
9587.326083963587
 30
0.0
 11
8158.025516872099
 21
9587.326083963587
 31
0.0
  0
LINE
  5
16D4B
330
158FA
100
AcDbEntity
  8
寸法
 62
     0
 48
50.0
370
    -2
100
AcDbLine
 10
8313.025516872098
 20
9587.326083963587
 30
0.0
 11
8729.996079620574
 21
9587.326083963587
 31
0.0
  0
LINE
  5
16D4C
330
158FA
100
AcDbEntity
  8
寸法
 62
     0
 48
50.0
370
    -2
100
AcDbLine
 10
8258.025516872098
 20
9587.326083963587
 30
0.0
 11
8313.025516872098
 21
9587.326083963587
 31
0.0
  0
INSERT
  5
16D4D
330
158FA
100
AcDbEntity
  8
寸法
 62
     0
 48
50.0
370
    -2
100
AcDbBlockReference
  2
_DOTSMALL
 10
8258.025516872098
 20
9587.326083963587
 30
0.0
 41
100.0
 42
100.0
 43
100.0
  0
INSERT
  5
16D4E
330
158FA
100
AcDbEntity
  8
寸法
 62
     0
 48
50.0
370
    -2
100
AcDbBlockReference
  2
_DOTSMALL
 10
8313.025516872098
 20
9587.326083963587
 30
0.0
 41
100.0
 42
100.0
 43
100.0
 50
180.0
  0
MTEXT
  5
16D4F
330
158FA
100
AcDbEntity
  8
寸法
 62
     7
 48
50.0
100
AcDbMText
 10
8621.510798246337
 20
9687.326083963588
 30
0.0
 40
120.0
 41
0.0
 71
     5
 72
     1
  1
\A1;55
  7
STYLE1
 73
     1
 44
1.0
1001
ACAD
1000
MTEXTBEGIN
1070
    73
1070
     1
1070
    44
1040
1.0
1070
    74
1070
     0
1000
MTEXTEND
  0
POINT
  5
16D50
330
158FA
100
AcDbEntity
  8
DEFPOINTS
 62
     0
 48
50.0
100
AcDbPoint
 10
8258.025516872098
 20
9371.517864338606
 30
0.0
  0
POINT
  5
16D51
330
158FA
100
AcDbEntity
  8
DEFPOINTS
 62
     0
 48
50.0
100
AcDbPoint
 10
8313.025516872098
 20
9371.517864338606
 30
0.0
  0
POINT
  5
16D52
330
158FA
100
AcDbEntity
  8
DEFPOINTS
 62
     0
 48
50.0
100
AcDbPoint
 10
8313.025516872098
 20
9587.326083963587
 30
0.0
  0
ENDBLK
  5
15A31
330
158FA
100
AcDbEntity
  8
0
 48
50.0
100
AcDbBlockEnd
  0
BLOCK
  5
15A32
330
15908
100
AcDbEntity
  8
0
 48
50.0
100
AcDbBlockBegin
  2
*D3
 70
     1
 10
0.0
 20
0.0
 30
0.0
  3
*D3
  1

  0
LINE
  5
16D3F
330
15908
100
AcDbEntity
  8
寸法
 62
     0
 48
50.0
370
    -2
100
AcDbLine
 10
7308.025516872094
 20
9391.517864338629
 30
0.0
 11
7308.025516872094
 21
9647.32608396361
 31
0.0
  0
LINE
  5
16D40
330
15908
100
AcDbEntity
  8
寸法
 62
     0
 48
50.0
370
    -2
100
AcDbLine
 10
7418.025516872098
 20
9391.517864338606
 30
0.0
 11
7418.025516872098
 21
9647.32608396361
 31
0.0
  0
LINE
  5
16D41
330
15908
100
AcDbEntity
  8
寸法
 62
     0
 48
50.0
370
    -2
100
AcDbLine
 10
7308.025516872094
 20
9587.32608396361
 30
0.0
 11
7418.025516872098
 21
9587.32608396361
 31
0.0
  0
MTEXT
  5
16D42
330
15908
100
AcDbEntity
  8
寸法
 62
     7
 48
50.0
100
AcDbMText
 10
7363.025516872098
 20
9845.539582433062
 30
0.0
 40
120.0
 41
0.0
 71
     5
 72
     1
  1
\A1;110
  7
STYLE1
 73
     1
 44
1.0
1001
ACAD
1000
MTEXTBEGIN
1070
    73
1070
     1
1070
    44
1040
1.0
1070
    74
1070
     0
1000
MTEXTEND
  0
INSERT
  5
16D43
330
15908
100
AcDbEntity
  8
寸法
 62
     0
 48
50.0
370
    -2
100
AcDbBlockReference
  2
_DOTSMALL
 10
7308.025516872094
 20
9587.32608396361
 30
0.0
 41
100.0
 42
100.0
 43
100.0
 50
180.0
  0
INSERT
  5
16D44
330
15908
100
AcDbEntity
  8
寸法
 62
     0
 48
50.0
370
    -2
100
AcDbBlockReference
  2
_DOTSMALL
 10
7418.025516872098
 20
9587.32608396361
 30
0.0
 41
100.0
 42
100.0
 43
100.0
  0
POINT
  5
16D45
330
15908
100
AcDbEntity
  8
DEFPOINTS
 62
     0
 48
50.0
100
AcDbPoint
 10
7308.025516872094
 20
9371.517864338628
 30
0.0
  0
POINT
  5
16D46
330
15908
100
AcDbEntity
  8
DEFPOINTS
 62
     0
 48
50.0
100
AcDbPoint
 10
7418.025516872098
 20
9371.517864338606
 30
0.0
  0
POINT
  5
16D47
330
15908
100
AcDbEntity
  8
DEFPOINTS
 62
     0
 48
50.0
100
AcDbPoint
 10
7418.025516872098
 20
9587.32608396361
 30
0.0
  0
ENDBLK
  5
15A3C
330
15908
100
AcDbEntity
  8
0
 48
50.0
100
AcDbBlockEnd
  0
BLOCK
  5
15A3D
330
15914
100
AcDbEntity
  8
0
 48
50.0
100
AcDbBlockBegin
  2
*D4
 70
     1
 10
0.0
 20
0.0
 30
0.0
  3
*D4
  1

  0
LINE
  5
16D36
330
15914
100
AcDbEntity
  8
寸法
 62
     0
 48
50.0
370
    -2
100
AcDbLine
 10
6358.025516872094
 20
9391.517864338629
 30
0.0
 11
6358.025516872094
 21
9647.32608396361
 31
0.0
  0
LINE
  5
16D37
330
15914
100
AcDbEntity
  8
寸法
 62
     0
 48
50.0
370
    -2
100
AcDbLine
 10
6468.025516872097
 20
9391.517864338606
 30
0.0
 11
6468.025516872097
 21
9647.32608396361
 31
0.0
  0
LINE
  5
16D38
330
15914
100
AcDbEntity
  8
寸法
 62
     0
 48
50.0
370
    -2
100
AcDbLine
 10
6358.025516872094
 20
9587.32608396361
 30
0.0
 11
6468.025516872097
 21
9587.32608396361
 31
0.0
  0
MTEXT
  5
16D39
330
15914
100
AcDbEntity
  8
寸法
 62
     7
 48
50.0
100
AcDbMText
 10
6413.025516872096
 20
9841.604405334757
 30
0.0
 40
120.0
 41
0.0
 71
     5
 72
     1
  1
\A1;110
  7
STYLE1
 73
     1
 44
1.0
1001
ACAD
1000
MTEXTBEGIN
1070
    73
1070
     1
1070
    44
1040
1.0
1070
    74
1070
     0
1000
MTEXTEND
  0
INSERT
  5
16D3A
330
15914
100
AcDbEntity
  8
寸法
 62
     0
 48
50.0
370
    -2
100
AcDbBlockReference
  2
_DOTSMALL
 10
6358.025516872094
 20
9587.32608396361
 30
0.0
 41
100.0
 42
100.0
 43
100.0
 50
180.0
  0
INSERT
  5
16D3B
330
15914
100
AcDbEntity
  8
寸法
 62
     0
 48
50.0
370
    -2
100
AcDbBlockReference
  2
_DOTSMALL
 10
6468.025516872097
 20
9587.32608396361
 30
0.0
 41
100.0
 42
100.0
 43
100.0
  0
POINT
  5
16D3C
330
15914
100
AcDbEntity
  8
DEFPOINTS
 62
     0
 48
50.0
100
AcDbPoint
 10
6358.025516872094
 20
9371.517864338628
 30
0.0
  0
POINT
  5
16D3D
330
15914
100
AcDbEntity
  8
DEFPOINTS
 62
     0
 48
50.0
100
AcDbPoint
 10
6468.025516872097
 20
9371.517864338606
 30
0.0
  0
POINT
  5
16D3E
330
15914
100
AcDbEntity
  8
DEFPOINTS
 62
     0
 48
50.0
100
AcDbPoint
 10
6468.025516872097
 20
9587.32608396361
 30
0.0
  0
ENDBLK
  5
15A47
330
15914
100
AcDbEntity
  8
0
 48
50.0
100
AcDbBlockEnd
  0
BLOCK
  5
15A48
330
15920
100
AcDbEntity
  8
0
 48
50.0
100
AcDbBlockBegin
  2
*D5
 70
     1
 10
0.0
 20
0.0
 30
0.0
  3
*D5
  1

  0
LINE
  5
16D2D
330
15920
100
AcDbEntity
  8
寸法
 62
     0
 48
50.0
370
    -2
100
AcDbLine
 10
6468.025516872096
 20
9391.51786433854
 30
0.0
 11
6468.025516872096
 21
9647.32608396361
 31
0.0
  0
LINE
  5
16D2E
330
15920
100
AcDbEntity
  8
寸法
 62
     0
 48
50.0
370
    -2
100
AcDbLine
 10
7308.025516872094
 20
9391.517864338629
 30
0.0
 11
7308.025516872094
 21
9647.32608396361
 31
0.0
  0
LINE
  5
16D2F
330
15920
100
AcDbEntity
  8
寸法
 62
     0
 48
50.0
370
    -2
100
AcDbLine
 10
6468.025516872096
 20
9587.32608396361
 30
0.0
 11
7308.025516872094
 21
9587.32608396361
 31
0.0
  0
INSERT
  5
16D30
330
15920
100
AcDbEntity
  8
寸法
 62
     0
 48
50.0
370
    -2
100
AcDbBlockReference
  2
_DOTSMALL
 10
6468.025516872096
 20
9587.32608396361
 30
0.0
 41
100.0
 42
100.0
 43
100.0
 50
180.0
  0
INSERT
  5
16D31
330
15920
100
AcDbEntity
  8
寸法
 62
     0
 48
50.0
370
    -2
100
AcDbBlockReference
  2
_DOTSMALL
 10
7308.025516872094
 20
9587.32608396361
 30
0.0
 41
100.0
 42
100.0
 43
100.0
  0
MTEXT
  5
16D32
330
15920
100
AcDbEntity
  8
寸法
 62
     7
 48
50.0
100
AcDbMText
 10
6888.025516872095
 20
9687.337894987232
 30
0.0
 40
120.0
 41
0.0
 71
     5
 72
     1
  1
\A1;2X420=840
  7
STYLE1
 73
     1
 44
1.0
1001
ACAD
1000
MTEXTBEGIN
1070
    73
1070
     1
1070
    44
1040
1.0
1070
    74
1070
     0
1000
MTEXTEND
  0
POINT
  5
16D33
330
15920
100
AcDbEntity
  8
DEFPOINTS
 62
     0
 48
50.0
100
AcDbPoint
 10
6468.025516872096
 20
9371.517864338541
 30
0.0
  0
POINT
  5
16D34
330
15920
100
AcDbEntity
  8
DEFPOINTS
 62
     0
 48
50.0
100
AcDbPoint
 10
7308.025516872094
 20
9371.517864338628
 30
0.0
  0
POINT
  5
16D35
330
15920
100
AcDbEntity
  8
DEFPOINTS
 62
     0
 48
50.0
100
AcDbPoint
 10
7308.025516872094
 20
9587.32608396361
 30
0.0
  0
ENDBLK
  5
15A52
330
15920
100
AcDbEntity
  8
0
 48
50.0
100
AcDbBlockEnd
  0
BLOCK
  5
15A53
330
1592C
100
AcDbEntity
  8
0
 48
50.0
100
AcDbBlockBegin
  2
*D6
 70
     1
 10
0.0
 20
0.0
 30
0.0
  3
*D6
  1

  0
LINE
  5
16D22
330
1592C
100
AcDbEntity
  8
寸法
 62
     0
 48
50.0
370
    -2
100
AcDbLine
 10
4513.025516872061
 20
9391.517864338512
 30
0.0
 11
4513.025516872061
 21
9647.326083963493
 31
0.0
  0
LINE
  5
16D23
330
1592C
100
AcDbEntity
  8
寸法
 62
     0
 48
50.0
370
    -2
100
AcDbLine
 10
4568.025516872096
 20
9391.517864338512
 30
0.0
 11
4568.025516872096
 21
9647.326083963493
 31
0.0
  0
LINE
  5
16D24
330
1592C
100
AcDbEntity
  8
寸法
 62
     0
 48
50.0
370
    -2
100
AcDbLine
 10
4568.025516872096
 20
9587.326083963494
 30
0.0
 11
4668.025516872096
 21
9587.326083963494
 31
0.0
  0
LINE
  5
16D25
330
1592C
100
AcDbEntity
  8
寸法
 62
     0
 48
50.0
370
    -2
100
AcDbLine
 10
4513.025516872061
 20
9587.326083963494
 30
0.0
 11
4096.054954123582
 21
9587.326083963494
 31
0.0
  0
LINE
  5
16D26
330
1592C
100
AcDbEntity
  8
寸法
 62
     0
 48
50.0
370
    -2
100
AcDbLine
 10
4568.025516872096
 20
9587.326083963494
 30
0.0
 11
4513.025516872061
 21
9587.326083963494
 31
0.0
  0
INSERT
  5
16D27
330
1592C
100
AcDbEntity
  8
寸法
 62
     0
 48
50.0
370
    -2
100
AcDbBlockReference
  2
_DOTSMALL
 10
4568.025516872096
 20
9587.326083963494
 30
0.0
 41
100.0
 42
100.0
 43
100.0
 50
180.0
  0
INSERT
  5
16D28
330
1592C
100
AcDbEntity
  8
寸法
 62
     0
 48
50.0
370
    -2
100
AcDbBlockReference
  2
_DOTSMALL
 10
4513.025516872061
 20
9587.326083963494
 30
0.0
 41
100.0
 42
100.0
 43
100.0
  0
MTEXT
  5
16D29
330
1592C
100
AcDbEntity
  8
寸法
 62
     7
 48
50.0
100
AcDbMText
 10
4204.540235497821
 20
9687.326083963494
 30
0.0
 40
120.0
 41
0.0
 71
     5
 72
     1
  1
\A1;55
  7
STYLE1
 73
     1
 44
1.0
1001
ACAD
1000
MTEXTBEGIN
1070
    73
1070
     1
1070
    44
1040
1.0
1070
    74
1070
     0
1000
MTEXTEND
  0
POINT
  5
16D2A
330
1592C
100
AcDbEntity
  8
DEFPOINTS
 62
     0
 48
50.0
100
AcDbPoint
 10
4513.025516872061
 20
9371.517864338512
 30
0.0
  0
POINT
  5
16D2B
330
1592C
100
AcDbEntity
  8
DEFPOINTS
 62
     0
 48
50.0
100
AcDbPoint
 10
4568.025516872096
 20
9371.517864338512
 30
0.0
  0
POINT
  5
16D2C
330
1592C
100
AcDbEntity
  8
DEFPOINTS
 62
     0
 48
50.0
100
AcDbPoint
 10
4568.025516872096
 20
9587.326083963494
 30
0.0
  0
ENDBLK
  5
15A5F
330
1592C
100
AcDbEntity
  8
0
 48
50.0
100
AcDbBlockEnd
  0
BLOCK
  5
15A60
330
1593A
100
AcDbEntity
  8
0
 48
50.0
100
AcDbBlockBegin
  2
*D7
 70
     1
 10
0.0
 20
0.0
 30
0.0
  3
*D7
  1

  0
LINE
  5
16D19
330
1593A
100
AcDbEntity
  8
寸法
 62
     0
 48
50.0
370
    -2
100
AcDbLine
 10
5518.025516872096
 20
9391.51786433854
 30
0.0
 11
5518.025516872096
 21
9647.32608396361
 31
0.0
  0
LINE
  5
16D1A
330
1593A
100
AcDbEntity
  8
寸法
 62
     0
 48
50.0
370
    -2
100
AcDbLine
 10
6358.025516872094
 20
9391.517864338629
 30
0.0
 11
6358.025516872094
 21
9647.32608396361
 31
0.0
  0
LINE
  5
16D1B
330
1593A
100
AcDbEntity
  8
寸法
 62
     0
 48
50.0
370
    -2
100
AcDbLine
 10
5518.025516872096
 20
9587.32608396361
 30
0.0
 11
6358.025516872094
 21
9587.32608396361
 31
0.0
  0
INSERT
  5
16D1C
330
1593A
100
AcDbEntity
  8
寸法
 62
     0
 48
50.0
370
    -2
100
AcDbBlockReference
  2
_DOTSMALL
 10
5518.025516872096
 20
9587.32608396361
 30
0.0
 41
100.0
 42
100.0
 43
100.0
 50
180.0
  0
INSERT
  5
16D1D
330
1593A
100
AcDbEntity
  8
寸法
 62
     0
 48
50.0
370
    -2
100
AcDbBlockReference
  2
_DOTSMALL
 10
6358.025516872094
 20
9587.32608396361
 30
0.0
 41
100.0
 42
100.0
 43
100.0
  0
MTEXT
  5
16D1E
330
1593A
100
AcDbEntity
  8
寸法
 62
     7
 48
50.0
100
AcDbMText
 10
5938.025516872095
 20
9687.337894987232
 30
0.0
 40
120.0
 41
0.0
 71
     5
 72
     1
  1
\A1;2X420=840
  7
STYLE1
 73
     1
 44
1.0
1001
ACAD
1000
MTEXTBEGIN
1070
    73
1070
     1
1070
    44
1040
1.0
1070
    74
1070
     0
1000
MTEXTEND
  0
POINT
  5
16D1F
330
1593A
100
AcDbEntity
  8
DEFPOINTS
 62
     0
 48
50.0
100
AcDbPoint
 10
5518.025516872096
 20
9371.517864338541
 30
0.0
  0
POINT
  5
16D20
330
1593A
100
AcDbEntity
  8
DEFPOINTS
 62
     0
 48
50.0
100
AcDbPoint
 10
6358.025516872094
 20
9371.517864338628
 30
0.0
  0
POINT
  5
16D21
330
1593A
100
AcDbEntity
  8
DEFPOINTS
 62
     0
 48
50.0
100
AcDbPoint
 10
6358.025516872094
 20
9587.32608396361
 30
0.0
  0
ENDBLK
  5
15A6A
330
1593A
100
AcDbEntity
  8
0
 48
50.0
100
AcDbBlockEnd
  0
BLOCK
  5
15A6B
330
15946
100
AcDbEntity
  8
0
 48
50.0
100
AcDbBlockBegin
  2
*D8
 70
     1
 10
0.0
 20
0.0
 30
0.0
  3
*D8
  1

  0
LINE
  5
16D10
330
15946
100
AcDbEntity
  8
寸法
 62
     0
 48
50.0
370
    -2
100
AcDbLine
 10
7418.025516872096
 20
9391.51786433854
 30
0.0
 11
7418.025516872096
 21
9647.32608396361
 31
0.0
  0
LINE
  5
16D11
330
15946
100
AcDbEntity
  8
寸法
 62
     0
 48
50.0
370
    -2
100
AcDbLine
 10
8258.025516872093
 20
9391.517864338629
 30
0.0
 11
8258.025516872093
 21
9647.32608396361
 31
0.0
  0
LINE
  5
16D12
330
15946
100
AcDbEntity
  8
寸法
 62
     0
 48
50.0
370
    -2
100
AcDbLine
 10
7418.025516872096
 20
9587.32608396361
 30
0.0
 11
8258.025516872093
 21
9587.32608396361
 31
0.0
  0
INSERT
  5
16D13
330
15946
100
AcDbEntity
  8
寸法
 62
     0
 48
50.0
370
    -2
100
AcDbBlockReference
  2
_DOTSMALL
 10
7418.025516872096
 20
9587.32608396361
 30
0.0
 41
100.0
 42
100.0
 43
100.0
 50
180.0
  0
INSERT
  5
16D14
330
15946
100
AcDbEntity
  8
寸法
 62
     0
 48
50.0
370
    -2
100
AcDbBlockReference
  2
_DOTSMALL
 10
8258.025516872093
 20
9587.32608396361
 30
0.0
 41
100.0
 42
100.0
 43
100.0
  0
MTEXT
  5
16D15
330
15946
100
AcDbEntity
  8
寸法
 62
     7
 48
50.0
100
AcDbMText
 10
7838.025516872095
 20
9687.337894987232
 30
0.0
 40
120.0
 41
0.0
 71
     5
 72
     1
  1
\A1;2X420=840
  7
STYLE1
 73
     1
 44
1.0
1001
ACAD
1000
MTEXTBEGIN
1070
    73
1070
     1
1070
    44
1040
1.0
1070
    74
1070
     0
1000
MTEXTEND
  0
POINT
  5
16D16
330
15946
100
AcDbEntity
  8
DEFPOINTS
 62
     0
 48
50.0
100
AcDbPoint
 10
7418.025516872096
 20
9371.517864338541
 30
0.0
  0
POINT
  5
16D17
330
15946
100
AcDbEntity
  8
DEFPOINTS
 62
     0
 48
50.0
100
AcDbPoint
 10
8258.025516872093
 20
9371.517864338628
 30
0.0
  0
POINT
  5
16D18
330
15946
100
AcDbEntity
  8
DEFPOINTS
 62
     0
 48
50.0
100
AcDbPoint
 10
8258.025516872093
 20
9587.32608396361
 30
0.0
  0
ENDBLK
  5
15A75
330
15946
100
AcDbEntity
  8
0
 48
50.0
100
AcDbBlockEnd
  0
BLOCK
  5
15D60
330
15952
100
AcDbEntity
  8
0
 48
50.0
100
AcDbBlockBegin
  2
*D9
 70
     1
 10
0.0
 20
0.0
 30
0.0
  3
*D9
  1

  0
LINE
  5
16D07
330
15952
100
AcDbEntity
  8
寸法
 62
     0
 48
50.0
370
    -2
100
AcDbLine
 10
4513.02551687209
 20
7981.517864338368
 30
0.0
 11
4513.02551687209
 21
6954.415989478355
 31
0.0
  0
LINE
  5
16D08
330
15952
100
AcDbEntity
  8
寸法
 62
     0
 48
50.0
370
    -2
100
AcDbLine
 10
8313.025516872071
 20
7981.517864338562
 30
0.0
 11
8313.025516872071
 21
6954.415989478355
 31
0.0
  0
LINE
  5
16D09
330
15952
100
AcDbEntity
  8
寸法
 62
     0
 48
50.0
370
    -2
100
AcDbLine
 10
4513.02551687209
 20
7014.415989478355
 30
0.0
 11
8313.025516872071
 21
7014.415989478355
 31
0.0
  0
INSERT
  5
16D0A
330
15952
100
AcDbEntity
  8
寸法
 62
     0
 48
50.0
370
    -2
100
AcDbBlockReference
  2
_DOTSMALL
 10
4513.02551687209
 20
7014.415989478355
 30
0.0
 41
100.0
 42
100.0
 43
100.0
 50
180.0
  0
INSERT
  5
16D0B
330
15952
100
AcDbEntity
  8
寸法
 62
     0
 48
50.0
370
    -2
100
AcDbBlockReference
  2
_DOTSMALL
 10
8313.025516872071
 20
7014.415989478355
 30
0.0
 41
100.0
 42
100.0
 43
100.0
  0
MTEXT
  5
16D0C
330
15952
100
AcDbEntity
  8
寸法
 62
     7
 48
50.0
100
AcDbMText
 10
6413.025516872082
 20
7114.415989478356
 30
0.0
 40
120.0
 41
0.0
 71
     5
 72
     1
  1
\A1;3800
  7
STYLE1
 73
     1
 44
1.0
1001
ACAD
1000
MTEXTBEGIN
1070
    73
1070
     1
1070
    44
1040
1.0
1070
    74
1070
     0
1000
MTEXTEND
  0
POINT
  5
16D0D
330
15952
100
AcDbEntity
  8
DEFPOINTS
 62
     0
 48
50.0
100
AcDbPoint
 10
4513.02551687209
 20
8001.517864338367
 30
0.0
  0
POINT
  5
16D0E
330
15952
100
AcDbEntity
  8
DEFPOINTS
 62
     0
 48
50.0
100
AcDbPoint
 10
8313.025516872071
 20
8001.517864338563
 30
0.0
  0
POINT
  5
16D0F
330
15952
100
AcDbEntity
  8
DEFPOINTS
 62
     0
 48
50.0
100
AcDbPoint
 10
8313.025516872071
 20
7014.415989478355
 30
0.0
  0
ENDBLK
  5
15D6A
330
15952
100
AcDbEntity
  8
0
 48
50.0
100
AcDbBlockEnd
  0
BLOCK
  5
15A97
330
15976
100
AcDbEntity
  8
0
 48
50.0
100
AcDbBlockBegin
  2
*D10
 70
     1
 10
0.0
 20
0.0
 30
0.0
  3
*D10
  1

  0
LINE
  5
16CFE
330
15976
100
AcDbEntity
  8
寸法
 62
     0
 48
50.0
370
    -2
100
AcDbLine
 10
7418.025516872095
 20
7981.517864338504
 30
0.0
 11
7418.025516872095
 21
7501.694196543427
 31
0.0
  0
LINE
  5
16CFF
330
15976
100
AcDbEntity
  8
寸法
 62
     0
 48
50.0
370
    -2
100
AcDbLine
 10
8103.025516872088
 20
7981.517864338468
 30
0.0
 11
8103.025516872088
 21
7501.694196543427
 31
0.0
  0
LINE
  5
16D00
330
15976
100
AcDbEntity
  8
寸法
 62
     0
 48
50.0
370
    -2
100
AcDbLine
 10
7418.025516872095
 20
7561.694196543427
 30
0.0
 11
8103.025516872088
 21
7561.694196543427
 31
0.0
  0
INSERT
  5
16D01
330
15976
100
AcDbEntity
  8
寸法
 62
     0
 48
50.0
370
    -2
100
AcDbBlockReference
  2
_DOTSMALL
 10
7418.025516872095
 20
7561.694196543427
 30
0.0
 41
100.0
 42
100.0
 43
100.0
 50
180.0
  0
INSERT
  5
16D02
330
15976
100
AcDbEntity
  8
寸法
 62
     0
 48
50.0
370
    -2
100
AcDbBlockReference
  2
_DOTSMALL
 10
8103.025516872088
 20
7561.694196543427
 30
0.0
 41
100.0
 42
100.0
 43
100.0
  0
MTEXT
  5
16D03
330
15976
100
AcDbEntity
  8
寸法
 62
     7
 48
50.0
100
AcDbMText
 10
7760.525516872092
 20
7761.694196543428
 30
0.0
 40
120.0
 41
0.0
 71
     5
 72
     1
  1
\A1;有効開口部間口\P685
  7
STYLE1
 73
     1
 44
1.0
1001
ACAD
1000
MTEXTBEGIN
1070
    73
1070
     1
1070
    44
1040
1.0
1070
    74
1070
     0
1000
MTEXTEND
  0
POINT
  5
16D04
330
15976
100
AcDbEntity
  8
DEFPOINTS
 62
     0
 48
50.0
100
AcDbPoint
 10
7418.025516872095
 20
8001.517864338504
 30
0.0
  0
POINT
  5
16D05
330
15976
100
AcDbEntity
  8
DEFPOINTS
 62
     0
 48
50.0
100
AcDbPoint
 10
8103.025516872088
 20
8001.517864338469
 30
0.0
  0
POINT
  5
16D06
330
15976
100
AcDbEntity
  8
DEFPOINTS
 62
     0
 48
50.0
100
AcDbPoint
 10
8103.025516872088
 20
7561.694196543427
 30
0.0
  0
ENDBLK
  5
15AA1
330
15976
100
AcDbEntity
  8
0
 48
50.0
100
AcDbBlockEnd
  0
BLOCK
  5
15AC3
330
159A6
100
AcDbEntity
  8
0
 48
50.0
100
AcDbBlockBegin
  2
*D11
 70
     1
 10
0.0
 20
0.0
 30
0.0
  3
*D11
  1

  0
LINE
  5
16CF3
330
159A6
100
AcDbEntity
  8
寸法
 62
     0
 48
50.0
370
    -2
100
AcDbLine
 10
8333.025516872073
 20
8056.517864338593
 30
0.0
 11
9020.451862606483
 21
8056.517864338593
 31
0.0
  0
LINE
  5
16CF4
330
159A6
100
AcDbEntity
  8
寸法
 62
     0
 48
50.0
370
    -2
100
AcDbLine
 10
8333.025516872073
 20
8001.517864338593
 30
0.0
 11
9020.451862606483
 21
8001.517864338593
 31
0.0
  0
LINE
  5
16CF5
330
159A6
100
AcDbEntity
  8
寸法
 62
     0
 48
50.0
370
    -2
100
AcDbLine
 10
8960.451862606484
 20
8056.517864338593
 30
0.0
 11
8960.451862606484
 21
8156.517864338592
 31
0.0
  0
LINE
  5
16CF6
330
159A6
100
AcDbEntity
  8
寸法
 62
     0
 48
50.0
370
    -2
100
AcDbLine
 10
8960.451862606484
 20
8001.517864338593
 30
0.0
 11
8960.451862606484
 21
7515.17111605949
 31
0.0
  0
LINE
  5
16CF7
330
159A6
100
AcDbEntity
  8
寸法
 62
     0
 48
50.0
370
    -2
100
AcDbLine
 10
8960.451862606484
 20
8056.517864338593
 30
0.0
 11
8960.451862606484
 21
8001.517864338593
 31
0.0
  0
INSERT
  5
16CF8
330
159A6
100
AcDbEntity
  8
寸法
 62
     0
 48
50.0
370
    -2
100
AcDbBlockReference
  2
_DOTSMALL
 10
8960.451862606484
 20
8056.517864338593
 30
0.0
 41
100.0
 42
100.0
 43
100.0
 50
270.0
  0
INSERT
  5
16CF9
330
159A6
100
AcDbEntity
  8
寸法
 62
     0
 48
50.0
370
    -2
100
AcDbBlockReference
  2
_DOTSMALL
 10
8960.451862606484
 20
8001.517864338593
 30
0.0
 41
100.0
 42
100.0
 43
100.0
 50
90.0
  0
MTEXT
  5
16CFA
330
159A6
100
AcDbEntity
  8
寸法
 62
     7
 48
50.0
100
AcDbMText
 10
8860.451862606481
 20
7623.65639743373
 30
0.0
 40
120.0
 41
0.0
 71
     5
 72
     1
  1
\A1;55
  7
STYLE1
 11
0.0000000000000001
 21
1.0
 31
0.0
 73
     1
 44
1.0
1001
ACAD
1000
MTEXTBEGIN
1070
    73
1070
     1
1070
    44
1040
1.0
1070
    74
1070
     0
1000
MTEXTEND
  0
POINT
  5
16CFB
330
159A6
100
AcDbEntity
  8
DEFPOINTS
 62
     0
 48
50.0
100
AcDbPoint
 10
8313.025516872071
 20
8056.517864338593
 30
0.0
  0
POINT
  5
16CFC
330
159A6
100
AcDbEntity
  8
DEFPOINTS
 62
     0
 48
50.0
100
AcDbPoint
 10
8313.025516872071
 20
8001.517864338593
 30
0.0
  0
POINT
  5
16CFD
330
159A6
100
AcDbEntity
  8
DEFPOINTS
 62
     0
 48
50.0
100
AcDbPoint
 10
8960.451862606484
 20
8001.517864338593
 30
0.0
  0
ENDBLK
  5
15ACF
330
159A6
100
AcDbEntity
  8
0
 48
50.0
100
AcDbBlockEnd
  0
BLOCK
  5
15AD0
330
159B4
100
AcDbEntity
  8
0
 48
50.0
100
AcDbBlockBegin
  2
*D12
 70
     1
 10
0.0
 20
0.0
 30
0.0
  3
*D12
  1

  0
LINE
  5
16CEA
330
159B4
100
AcDbEntity
  8
寸法
 62
     0
 48
50.0
370
    -2
100
AcDbLine
 10
8333.025516872098
 20
9371.517864338606
 30
0.0
 11
9329.563393422187
 21
9371.517864338606
 31
0.0
  0
LINE
  5
16CEB
330
159B4
100
AcDbEntity
  8
寸法
 62
     0
 48
50.0
370
    -2
100
AcDbLine
 10
8333.025516872073
 20
8001.517864338593
 30
0.0
 11
9329.563393422187
 21
8001.517864338593
 31
0.0
  0
LINE
  5
16CEC
330
159B4
100
AcDbEntity
  8
寸法
 62
     0
 48
50.0
370
    -2
100
AcDbLine
 10
9269.563393422187
 20
9371.517864338606
 30
0.0
 11
9269.563393422187
 21
8001.517864338593
 31
0.0
  0
INSERT
  5
16CED
330
159B4
100
AcDbEntity
  8
寸法
 62
     0
 48
50.0
370
    -2
100
AcDbBlockReference
  2
_DOTSMALL
 10
9269.563393422187
 20
9371.517864338606
 30
0.0
 41
100.0
 42
100.0
 43
100.0
 50
90.0
  0
INSERT
  5
16CEE
330
159B4
100
AcDbEntity
  8
寸法
 62
     0
 48
50.0
370
    -2
100
AcDbBlockReference
  2
_DOTSMALL
 10
9269.563393422187
 20
8001.517864338593
 30
0.0
 41
100.0
 42
100.0
 43
100.0
 50
270.0
  0
MTEXT
  5
16CEF
330
159B4
100
AcDbEntity
  8
寸法
 62
     7
 48
50.0
100
AcDbMText
 10
9169.563393422185
 20
8686.517864338599
 30
0.0
 40
120.0
 41
0.0
 71
     5
 72
     1
  1
\A1;1370
  7
STYLE1
 11
0.0000000000000001
 21
1.0
 31
0.0
 73
     1
 44
1.0
1001
ACAD
1000
MTEXTBEGIN
1070
    73
1070
     1
1070
    44
1040
1.0
1070
    74
1070
     0
1000
MTEXTEND
  0
POINT
  5
16CF0
330
159B4
100
AcDbEntity
  8
DEFPOINTS
 62
     0
 48
50.0
100
AcDbPoint
 10
8313.025516872098
 20
9371.517864338606
 30
0.0
  0
POINT
  5
16CF1
330
159B4
100
AcDbEntity
  8
DEFPOINTS
 62
     0
 48
50.0
100
AcDbPoint
 10
8313.025516872071
 20
8001.517864338593
 30
0.0
  0
POINT
  5
16CF2
330
159B4
100
AcDbEntity
  8
DEFPOINTS
 62
     0
 48
50.0
100
AcDbPoint
 10
9269.563393422187
 20
8001.517864338593
 30
0.0
  0
ENDBLK
  5
15ADA
330
159B4
100
AcDbEntity
  8
0
 48
50.0
100
AcDbBlockEnd
  0
BLOCK
  5
15ADB
330
159C0
100
AcDbEntity
  8
0
 48
50.0
100
AcDbBlockBegin
  2
*D13
 70
     1
 10
0.0
 20
0.0
 30
0.0
  3
*D13
  1

  0
LINE
  5
16CE1
330
159C0
100
AcDbEntity
  8
寸法
 62
     0
 48
50.0
370
    -2
100
AcDbLine
 10
8333.025516872098
 20
9316.517864338605
 30
0.0
 11
9020.45186260651
 21
9316.517864338605
 31
0.0
  0
LINE
  5
16CE2
330
159C0
100
AcDbEntity
  8
寸法
 62
     0
 48
50.0
370
    -2
100
AcDbLine
 10
8333.025516872073
 20
8056.517864338593
 30
0.0
 11
9020.45186260651
 21
8056.517864338593
 31
0.0
  0
LINE
  5
16CE3
330
159C0
100
AcDbEntity
  8
寸法
 62
     0
 48
50.0
370
    -2
100
AcDbLine
 10
8960.451862606509
 20
9316.517864338605
 30
0.0
 11
8960.451862606509
 21
8056.517864338593
 31
0.0
  0
INSERT
  5
16CE4
330
159C0
100
AcDbEntity
  8
寸法
 62
     0
 48
50.0
370
    -2
100
AcDbBlockReference
  2
_DOTSMALL
 10
8960.451862606509
 20
9316.517864338605
 30
0.0
 41
100.0
 42
100.0
 43
100.0
 50
90.0
  0
INSERT
  5
16CE5
330
159C0
100
AcDbEntity
  8
寸法
 62
     0
 48
50.0
370
    -2
100
AcDbBlockReference
  2
_DOTSMALL
 10
8960.451862606509
 20
8056.517864338593
 30
0.0
 41
100.0
 42
100.0
 43
100.0
 50
270.0
  0
MTEXT
  5
16CE6
330
159C0
100
AcDbEntity
  8
寸法
 62
     7
 48
50.0
100
AcDbMText
 10
8860.440051582886
 20
8686.517864338599
 30
0.0
 40
120.0
 41
0.0
 71
     5
 72
     1
  1
\A1;3X420=1260
  7
STYLE1
 11
0.0000000000000001
 21
1.0
 31
0.0
 73
     1
 44
1.0
1001
ACAD
1000
MTEXTBEGIN
1070
    73
1070
     1
1070
    44
1040
1.0
1070
    74
1070
     0
1000
MTEXTEND
  0
POINT
  5
16CE7
330
159C0
100
AcDbEntity
  8
DEFPOINTS
 62
     0
 48
50.0
100
AcDbPoint
 10
8313.025516872098
 20
9316.517864338605
 30
0.0
  0
POINT
  5
16CE8
330
159C0
100
AcDbEntity
  8
DEFPOINTS
 62
     0
 48
50.0
100
AcDbPoint
 10
8313.025516872071
 20
8056.517864338593
 30
0.0
  0
POINT
  5
16CE9
330
159C0
100
AcDbEntity
  8
DEFPOINTS
 62
     0
 48
50.0
100
AcDbPoint
 10
8960.451862606509
 20
8056.517864338593
 30
0.0
  0
ENDBLK
  5
15AE5
330
159C0
100
AcDbEntity
  8
0
 48
50.0
100
AcDbBlockEnd
  0
BLOCK
  5
15AE6
330
159CC
100
AcDbEntity
  8
0
 48
50.0
100
AcDbBlockBegin
  2
*D14
 70
     1
 10
0.0
 20
0.0
 30
0.0
  3
*D14
  1

  0
LINE
  5
16CD8
330
159CC
100
AcDbEntity
  8
寸法
 62
     0
 48
50.0
370
    -2
100
AcDbLine
 10
8304.025523549704
 20
9336.658880489853
 30
0.0
 11
8699.383249411733
 21
9230.723097123718
 31
0.0
  0
LINE
  5
16CD9
330
159CC
100
AcDbEntity
  8
寸法
 62
     0
 48
50.0
370
    -2
100
AcDbLine
 10
8304.025523549716
 20
8886.658880489859
 30
0.0
 11
8699.383249411733
 21
8780.723097123727
 31
0.0
  0
LINE
  5
16CDA
330
159CC
100
AcDbEntity
  8
寸法
 62
     0
 48
50.0
370
    -2
100
AcDbLine
 10
8639.383249411732
 20
9246.800048669584
 30
0.0
 11
8639.383249411732
 21
8796.800048669593
 31
0.0
  0
INSERT
  5
16CDB
330
159CC
100
AcDbEntity
  8
寸法
 62
     0
 48
50.0
370
    -2
100
AcDbBlockReference
  2
_DOTSMALL
 10
8639.383249411732
 20
9246.800048669584
 30
0.0
 41
100.0
 42
100.0
 43
100.0
 50
90.0
  0
INSERT
  5
16CDC
330
159CC
100
AcDbEntity
  8
寸法
 62
     0
 48
50.0
370
    -2
100
AcDbBlockReference
  2
_DOTSMALL
 10
8639.383249411732
 20
8796.800048669593
 30
0.0
 41
100.0
 42
100.0
 43
100.0
 50
270.0
  0
MTEXT
  5
16CDD
330
159CC
100
AcDbEntity
  8
寸法
 62
     7
 48
50.0
100
AcDbMText
 10
8539.383249411731
 20
9021.800048669586
 30
0.0
 40
120.0
 41
0.0
 71
     5
 72
     1
  1
\A1;450
  7
STYLE1
 11
0.0000000000000001
 21
1.0
 31
0.0
 73
     1
 44
1.0
1001
ACAD
1000
MTEXTBEGIN
1070
    73
1070
     1
1070
    44
1040
1.0
1070
    74
1070
     0
1000
MTEXTEND
  0
POINT
  5
16CDE
330
159CC
100
AcDbEntity
  8
DEFPOINTS
 62
     0
 48
50.0
100
AcDbPoint
 10
8284.025523549704
 20
9342.017864338476
 30
0.0
  0
POINT
  5
16CDF
330
159CC
100
AcDbEntity
  8
DEFPOINTS
 62
     0
 48
50.0
100
AcDbPoint
 10
8284.025523549715
 20
8892.017864338482
 30
0.0
  0
POINT
  5
16CE0
330
159CC
100
AcDbEntity
  8
DEFPOINTS
 62
     0
 48
50.0
100
AcDbPoint
 10
8639.383249411732
 20
8796.800048669593
 30
0.0
  0
ENDBLK
  5
15AF0
330
159CC
100
AcDbEntity
  8
0
 48
50.0
100
AcDbBlockEnd
  0
BLOCK
  5
15B07
330
159F0
100
AcDbEntity
  8
0
 48
50.0
100
AcDbBlockBegin
  2
*D15
 70
     1
 10
0.0
 20
0.0
 30
0.0
  3
*D15
  1

  0
LINE
  5
16CCF
330
159F0
100
AcDbEntity
  8
寸法
 62
     0
 48
50.0
370
    -2
100
AcDbLine
 10
4493.02551687209
 20
5036.229226123932
 30
0.0
 11
4134.920989264488
 21
5036.229226123932
 31
0.0
  0
LINE
  5
16CD0
330
159F0
100
AcDbEntity
  8
寸法
 62
     0
 48
50.0
370
    -2
100
AcDbLine
 10
4493.02551687209
 20
3276.229226123937
 30
0.0
 11
4134.920989264488
 21
3276.229226123937
 31
0.0
  0
LINE
  5
16CD1
330
159F0
100
AcDbEntity
  8
寸法
 62
     0
 48
50.0
370
    -2
100
AcDbLine
 10
4194.920989264487
 20
5036.229226123932
 30
0.0
 11
4194.920989264487
 21
3276.229226123937
 31
0.0
  0
INSERT
  5
16CD2
330
159F0
100
AcDbEntity
  8
寸法
 62
     0
 48
50.0
370
    -2
100
AcDbBlockReference
  2
_DOTSMALL
 10
4194.920989264487
 20
5036.229226123932
 30
0.0
 41
100.0
 42
100.0
 43
100.0
 50
90.0
  0
INSERT
  5
16CD3
330
159F0
100
AcDbEntity
  8
寸法
 62
     0
 48
50.0
370
    -2
100
AcDbBlockReference
  2
_DOTSMALL
 10
4194.920989264487
 20
3276.229226123937
 30
0.0
 41
100.0
 42
100.0
 43
100.0
 50
270.0
  0
MTEXT
  5
16CD4
330
159F0
100
AcDbEntity
  8
寸法
 62
     7
 48
50.0
100
AcDbMText
 10
4094.920989264487
 20
4155.229226123934
 30
0.0
 40
120.0
 41
0.0
 71
     5
 72
     1
  1
\A1;有効開口部高サ1760
  7
STYLE1
 11
0.0000000000000001
 21
1.0
 31
0.0
 73
     1
 44
1.0
1001
ACAD
1000
MTEXTBEGIN
1070
    73
1070
     1
1070
    44
1040
1.0
1070
    74
1070
     0
1000
MTEXTEND
  0
POINT
  5
16CD5
330
159F0
100
AcDbEntity
  8
DEFPOINTS
 62
     0
 48
50.0
100
AcDbPoint
 10
4513.02551687209
 20
5036.229226123932
 30
0.0
  0
POINT
  5
16CD6
330
159F0
100
AcDbEntity
  8
DEFPOINTS
 62
     0
 48
50.0
100
AcDbPoint
 10
4513.02551687209
 20
3276.229226123937
 30
0.0
  0
POINT
  5
16CD7
330
159F0
100
AcDbEntity
  8
DEFPOINTS
 62
     0
 48
50.0
100
AcDbPoint
 10
4194.920989264487
 20
3276.229226123937
 30
0.0
  0
ENDBLK
  5
15B11
330
159F0
100
AcDbEntity
  8
0
 48
50.0
100
AcDbBlockEnd
  0
BLOCK
  5
15C40
330
15C34
100
AcDbEntity
  8
0
 48
50.0
100
AcDbBlockBegin
  2
*D16
 70
     1
 10
0.0
 20
0.0
 30
0.0
  3
*D16
  1

  0
LINE
  5
16CC6
330
15C34
100
AcDbEntity
  8
寸法
 62
     0
 48
50.0
370
    -2
100
AcDbLine
 10
6468.025516872095
 20
7981.517864338504
 30
0.0
 11
6468.025516872095
 21
7501.694196543427
 31
0.0
  0
LINE
  5
16CC7
330
15C34
100
AcDbEntity
  8
寸法
 62
     0
 48
50.0
370
    -2
100
AcDbLine
 10
7153.025516872088
 20
7981.517864338468
 30
0.0
 11
7153.025516872088
 21
7501.694196543427
 31
0.0
  0
LINE
  5
16CC8
330
15C34
100
AcDbEntity
  8
寸法
 62
     0
 48
50.0
370
    -2
100
AcDbLine
 10
6468.025516872095
 20
7561.694196543427
 30
0.0
 11
7153.025516872088
 21
7561.694196543427
 31
0.0
  0
INSERT
  5
16CC9
330
15C34
100
AcDbEntity
  8
寸法
 62
     0
 48
50.0
370
    -2
100
AcDbBlockReference
  2
_DOTSMALL
 10
6468.025516872095
 20
7561.694196543427
 30
0.0
 41
100.0
 42
100.0
 43
100.0
 50
180.0
  0
INSERT
  5
16CCA
330
15C34
100
AcDbEntity
  8
寸法
 62
     0
 48
50.0
370
    -2
100
AcDbBlockReference
  2
_DOTSMALL
 10
7153.025516872088
 20
7561.694196543427
 30
0.0
 41
100.0
 42
100.0
 43
100.0
  0
MTEXT
  5
16CCB
330
15C34
100
AcDbEntity
  8
寸法
 62
     7
 48
50.0
100
AcDbMText
 10
6810.52551687209
 20
7661.694196543428
 30
0.0
 40
120.0
 41
0.0
 71
     5
 72
     1
  1
\A1;685
  7
STYLE1
 73
     1
 44
1.0
1001
ACAD
1000
MTEXTBEGIN
1070
    73
1070
     1
1070
    44
1040
1.0
1070
    74
1070
     0
1000
MTEXTEND
  0
POINT
  5
16CCC
330
15C34
100
AcDbEntity
  8
DEFPOINTS
 62
     0
 48
50.0
100
AcDbPoint
 10
6468.025516872095
 20
8001.517864338504
 30
0.0
  0
POINT
  5
16CCD
330
15C34
100
AcDbEntity
  8
DEFPOINTS
 62
     0
 48
50.0
100
AcDbPoint
 10
7153.025516872088
 20
8001.517864338469
 30
0.0
  0
POINT
  5
16CCE
330
15C34
100
AcDbEntity
  8
DEFPOINTS
 62
     0
 48
50.0
100
AcDbPoint
 10
7153.025516872088
 20
7561.694196543427
 30
0.0
  0
ENDBLK
  5
15C4A
330
15C34
100
AcDbEntity
  8
0
 48
50.0
100
AcDbBlockEnd
  0
BLOCK
  5
15C4D
330
15C4C
100
AcDbEntity
  8
0
 48
50.0
100
AcDbBlockBegin
  2
*D17
 70
     1
 10
0.0
 20
0.0
 30
0.0
  3
*D17
  1

  0
LINE
  5
16CBD
330
15C4C
100
AcDbEntity
  8
寸法
 62
     0
 48
50.0
370
    -2
100
AcDbLine
 10
5518.025516872094
 20
7981.517864338504
 30
0.0
 11
5518.025516872094
 21
7501.694196543427
 31
0.0
  0
LINE
  5
16CBE
330
15C4C
100
AcDbEntity
  8
寸法
 62
     0
 48
50.0
370
    -2
100
AcDbLine
 10
6203.025516872089
 20
7981.517864338468
 30
0.0
 11
6203.025516872089
 21
7501.694196543427
 31
0.0
  0
LINE
  5
16CBF
330
15C4C
100
AcDbEntity
  8
寸法
 62
     0
 48
50.0
370
    -2
100
AcDbLine
 10
5518.025516872094
 20
7561.694196543427
 30
0.0
 11
6203.025516872089
 21
7561.694196543427
 31
0.0
  0
INSERT
  5
16CC0
330
15C4C
100
AcDbEntity
  8
寸法
 62
     0
 48
50.0
370
    -2
100
AcDbBlockReference
  2
_DOTSMALL
 10
5518.025516872094
 20
7561.694196543427
 30
0.0
 41
100.0
 42
100.0
 43
100.0
 50
180.0
  0
INSERT
  5
16CC1
330
15C4C
100
AcDbEntity
  8
寸法
 62
     0
 48
50.0
370
    -2
100
AcDbBlockReference
  2
_DOTSMALL
 10
6203.025516872089
 20
7561.694196543427
 30
0.0
 41
100.0
 42
100.0
 43
100.0
  0
MTEXT
  5
16CC2
330
15C4C
100
AcDbEntity
  8
寸法
 62
     7
 48
50.0
100
AcDbMText
 10
5860.52551687209
 20
7661.694196543428
 30
0.0
 40
120.0
 41
0.0
 71
     5
 72
     1
  1
\A1;685
  7
STYLE1
 73
     1
 44
1.0
1001
ACAD
1000
MTEXTBEGIN
1070
    73
1070
     1
1070
    44
1040
1.0
1070
    74
1070
     0
1000
MTEXTEND
  0
POINT
  5
16CC3
330
15C4C
100
AcDbEntity
  8
DEFPOINTS
 62
     0
 48
50.0
100
AcDbPoint
 10
5518.025516872094
 20
8001.517864338504
 30
0.0
  0
POINT
  5
16CC4
330
15C4C
100
AcDbEntity
  8
DEFPOINTS
 62
     0
 48
50.0
100
AcDbPoint
 10
6203.025516872089
 20
8001.517864338469
 30
0.0
  0
POINT
  5
16CC5
330
15C4C
100
AcDbEntity
  8
DEFPOINTS
 62
     0
 48
50.0
100
AcDbPoint
 10
6203.025516872089
 20
7561.694196543427
 30
0.0
  0
ENDBLK
  5
15C57
330
15C4C
100
AcDbEntity
  8
0
 48
50.0
100
AcDbBlockEnd
  0
BLOCK
  5
15D32
330
15D31
100
AcDbEntity
  8
0
 48
50.0
100
AcDbBlockBegin
  2
*D18
 70
     1
 10
0.0
 20
0.0
 30
0.0
  3
*D18
  1

  0
LINE
  5
16CA2
330
15D31
100
AcDbEntity
  8
寸法
 62
     0
 48
50.0
370
    -2
100
AcDbLine
 10
5408.025516872094
 20
9391.517864338629
 30
0.0
 11
5408.025516872094
 21
9647.32608396361
 31
0.0
  0
LINE
  5
16CA3
330
15D31
100
AcDbEntity
  8
寸法
 62
     0
 48
50.0
370
    -2
100
AcDbLine
 10
5518.025516872097
 20
9391.517864338606
 30
0.0
 11
5518.025516872097
 21
9647.32608396361
 31
0.0
  0
LINE
  5
16CA4
330
15D31
100
AcDbEntity
  8
寸法
 62
     0
 48
50.0
370
    -2
100
AcDbLine
 10
5408.025516872094
 20
9587.32608396361
 30
0.0
 11
5518.025516872097
 21
9587.32608396361
 31
0.0
  0
MTEXT
  5
16CA5
330
15D31
100
AcDbEntity
  8
寸法
 62
     7
 48
50.0
100
AcDbMText
 10
5463.025516872097
 20
9841.604405334757
 30
0.0
 40
120.0
 41
0.0
 71
     5
 72
     1
  1
\A1;110
  7
STYLE1
 73
     1
 44
1.0
1001
ACAD
1000
MTEXTBEGIN
1070
    73
1070
     1
1070
    44
1040
1.0
1070
    74
1070
     0
1000
MTEXTEND
  0
INSERT
  5
16CA6
330
15D31
100
AcDbEntity
  8
寸法
 62
     0
 48
50.0
370
    -2
100
AcDbBlockReference
  2
_DOTSMALL
 10
5408.025516872094
 20
9587.32608396361
 30
0.0
 41
100.0
 42
100.0
 43
100.0
 50
180.0
  0
INSERT
  5
16CA7
330
15D31
100
AcDbEntity
  8
寸法
 62
     0
 48
50.0
370
    -2
100
AcDbBlockReference
  2
_DOTSMALL
 10
5518.025516872097
 20
9587.32608396361
 30
0.0
 41
100.0
 42
100.0
 43
100.0
  0
POINT
  5
16CA8
330
15D31
100
AcDbEntity
  8
DEFPOINTS
 62
     0
 48
50.0
100
AcDbPoint
 10
5408.025516872094
 20
9371.517864338628
 30
0.0
  0
POINT
  5
16CA9
330
15D31
100
AcDbEntity
  8
DEFPOINTS
 62
     0
 48
50.0
100
AcDbPoint
 10
5518.025516872097
 20
9371.517864338606
 30
0.0
  0
POINT
  5
16CAA
330
15D31
100
AcDbEntity
  8
DEFPOINTS
 62
     0
 48
50.0
100
AcDbPoint
 10
5518.025516872097
 20
9587.32608396361
 30
0.0
  0
ENDBLK
  5
15D3C
330
15D31
100
AcDbEntity
  8
0
 48
50.0
100
AcDbBlockEnd
  0
BLOCK
  5
15D3E
330
15D3D
100
AcDbEntity
  8
0
 48
50.0
100
AcDbBlockBegin
  2
*D19
 70
     1
 10
0.0
 20
0.0
 30
0.0
  3
*D19
  1

  0
LINE
  5
16CAB
330
15D3D
100
AcDbEntity
  8
寸法
 62
     0
 48
50.0
370
    -2
100
AcDbLine
 10
4568.025516872096
 20
9391.51786433854
 30
0.0
 11
4568.025516872096
 21
9647.32608396361
 31
0.0
  0
LINE
  5
16CAC
330
15D3D
100
AcDbEntity
  8
寸法
 62
     0
 48
50.0
370
    -2
100
AcDbLine
 10
5408.025516872094
 20
9391.517864338629
 30
0.0
 11
5408.025516872094
 21
9647.32608396361
 31
0.0
  0
LINE
  5
16CAD
330
15D3D
100
AcDbEntity
  8
寸法
 62
     0
 48
50.0
370
    -2
100
AcDbLine
 10
4568.025516872096
 20
9587.32608396361
 30
0.0
 11
5408.025516872094
 21
9587.32608396361
 31
0.0
  0
INSERT
  5
16CAE
330
15D3D
100
AcDbEntity
  8
寸法
 62
     0
 48
50.0
370
    -2
100
AcDbBlockReference
  2
_DOTSMALL
 10
4568.025516872096
 20
9587.32608396361
 30
0.0
 41
100.0
 42
100.0
 43
100.0
 50
180.0
  0
INSERT
  5
16CAF
330
15D3D
100
AcDbEntity
  8
寸法
 62
     0
 48
50.0
370
    -2
100
AcDbBlockReference
  2
_DOTSMALL
 10
5408.025516872094
 20
9587.32608396361
 30
0.0
 41
100.0
 42
100.0
 43
100.0
  0
MTEXT
  5
16CB0
330
15D3D
100
AcDbEntity
  8
寸法
 62
     7
 48
50.0
100
AcDbMText
 10
4988.025516872095
 20
9687.337894987232
 30
0.0
 40
120.0
 41
0.0
 71
     5
 72
     1
  1
\A1;2X420=840
  7
STYLE1
 73
     1
 44
1.0
1001
ACAD
1000
MTEXTBEGIN
1070
    73
1070
     1
1070
    44
1040
1.0
1070
    74
1070
     0
1000
MTEXTEND
  0
POINT
  5
16CB1
330
15D3D
100
AcDbEntity
  8
DEFPOINTS
 62
     0
 48
50.0
100
AcDbPoint
 10
4568.025516872096
 20
9371.517864338541
 30
0.0
  0
POINT
  5
16CB2
330
15D3D
100
AcDbEntity
  8
DEFPOINTS
 62
     0
 48
50.0
100
AcDbPoint
 10
5408.025516872094
 20
9371.517864338628
 30
0.0
  0
POINT
  5
16CB3
330
15D3D
100
AcDbEntity
  8
DEFPOINTS
 62
     0
 48
50.0
100
AcDbPoint
 10
5408.025516872094
 20
9587.32608396361
 30
0.0
  0
ENDBLK
  5
15D48
330
15D3D
100
AcDbEntity
  8
0
 48
50.0
100
AcDbBlockEnd
  0
BLOCK
  5
15D4A
330
15D49
100
AcDbEntity
  8
0
 48
50.0
100
AcDbBlockBegin
  2
*D20
 70
     1
 10
0.0
 20
0.0
 30
0.0
  3
*D20
  1

  0
LINE
  5
16CB4
330
15D49
100
AcDbEntity
  8
寸法
 62
     0
 48
50.0
370
    -2
100
AcDbLine
 10
4568.025516872094
 20
7981.517864338504
 30
0.0
 11
4568.025516872094
 21
7501.694196543427
 31
0.0
  0
LINE
  5
16CB5
330
15D49
100
AcDbEntity
  8
寸法
 62
     0
 48
50.0
370
    -2
100
AcDbLine
 10
5253.025516872089
 20
7981.517864338468
 30
0.0
 11
5253.025516872089
 21
7501.694196543427
 31
0.0
  0
LINE
  5
16CB6
330
15D49
100
AcDbEntity
  8
寸法
 62
     0
 48
50.0
370
    -2
100
AcDbLine
 10
4568.025516872094
 20
7561.694196543427
 30
0.0
 11
5253.025516872089
 21
7561.694196543427
 31
0.0
  0
INSERT
  5
16CB7
330
15D49
100
AcDbEntity
  8
寸法
 62
     0
 48
50.0
370
    -2
100
AcDbBlockReference
  2
_DOTSMALL
 10
4568.025516872094
 20
7561.694196543427
 30
0.0
 41
100.0
 42
100.0
 43
100.0
 50
180.0
  0
INSERT
  5
16CB8
330
15D49
100
AcDbEntity
  8
寸法
 62
     0
 48
50.0
370
    -2
100
AcDbBlockReference
  2
_DOTSMALL
 10
5253.025516872089
 20
7561.694196543427
 30
0.0
 41
100.0
 42
100.0
 43
100.0
  0
MTEXT
  5
16CB9
330
15D49
100
AcDbEntity
  8
寸法
 62
     7
 48
50.0
100
AcDbMText
 10
4910.525516872091
 20
7661.694196543428
 30
0.0
 40
120.0
 41
0.0
 71
     5
 72
     1
  1
\A1;685
  7
STYLE1
 73
     1
 44
1.0
1001
ACAD
1000
MTEXTBEGIN
1070
    73
1070
     1
1070
    44
1040
1.0
1070
    74
1070
     0
1000
MTEXTEND
  0
POINT
  5
16CBA
330
15D49
100
AcDbEntity
  8
DEFPOINTS
 62
     0
 48
50.0
100
AcDbPoint
 10
4568.025516872094
 20
8001.517864338504
 30
0.0
  0
POINT
  5
16CBB
330
15D49
100
AcDbEntity
  8
DEFPOINTS
 62
     0
 48
50.0
100
AcDbPoint
 10
5253.025516872089
 20
8001.517864338469
 30
0.0
  0
POINT
  5
16CBC
330
15D49
100
AcDbEntity
  8
DEFPOINTS
 62
     0
 48
50.0
100
AcDbPoint
 10
5253.025516872089
 20
7561.694196543427
 30
0.0
  0
ENDBLK
  5
15D54
330
15D49
100
AcDbEntity
  8
0
 48
50.0
100
AcDbBlockEnd
  0
BLOCK
  5
16528
330
1651E
100
AcDbEntity
  8
0
 48
50.0
100
AcDbBlockBegin
  2
*D21
 70
     1
 10
0.0
 20
0.0
 30
0.0
  3
*D21
  1

  0
LINE
  5
16C99
330
1651E
100
AcDbEntity
  8
寸法
 62
     0
 48
50.0
370
    -2
100
AcDbLine
 10
10228.82289867957
 20
3214.729226123934
 30
0.0
 11
9045.072769496313
 21
3214.729226123934
 31
0.0
  0
LINE
  5
16C9A
330
1651E
100
AcDbEntity
  8
寸法
 62
     0
 48
50.0
370
    -2
100
AcDbLine
 10
10168.82289867957
 20
5289.729226123938
 30
0.0
 11
9045.072769496313
 21
5289.729226123938
 31
0.0
  0
LINE
  5
16C9B
330
1651E
100
AcDbEntity
  8
寸法
 62
     0
 48
50.0
370
    -2
100
AcDbLine
 10
9105.072769496311
 20
3214.729226123934
 30
0.0
 11
9105.072769496313
 21
5289.729226123938
 31
0.0
  0
INSERT
  5
16C9C
330
1651E
100
AcDbEntity
  8
寸法
 62
     0
 48
50.0
370
    -2
100
AcDbBlockReference
  2
_DOTSMALL
 10
9105.072769496311
 20
3214.729226123934
 30
0.0
 41
100.0
 42
100.0
 43
100.0
 50
270.0
  0
INSERT
  5
16C9D
330
1651E
100
AcDbEntity
  8
寸法
 62
     0
 48
50.0
370
    -2
100
AcDbBlockReference
  2
_DOTSMALL
 10
9105.072769496313
 20
5289.729226123938
 30
0.0
 41
100.0
 42
100.0
 43
100.0
 50
90.0
  0
MTEXT
  5
16C9E
330
1651E
100
AcDbEntity
  8
寸法
 62
     7
 48
50.0
100
AcDbMText
 10
9005.060958472689
 20
4252.229226123937
 30
0.0
 40
120.0
 41
0.0
 71
     5
 72
     1
  1
\A1;2075
  7
STYLE1
 11
0.0000000000000001
 21
1.0
 31
0.0
 73
     1
 44
1.0
1001
ACAD
1000
MTEXTBEGIN
1070
    73
1070
     1
1070
    44
1040
1.0
1070
    74
1070
     0
1000
MTEXTEND
  0
POINT
  5
16C9F
330
1651E
100
AcDbEntity
  8
DEFPOINTS
 62
     0
 48
50.0
100
AcDbPoint
 10
10248.82289867957
 20
3214.729226123934
 30
0.0
  0
POINT
  5
16CA0
330
1651E
100
AcDbEntity
  8
DEFPOINTS
 62
     0
 48
50.0
100
AcDbPoint
 10
10188.82289867957
 20
5289.729226123938
 30
0.0
  0
POINT
  5
16CA1
330
1651E
100
AcDbEntity
  8
DEFPOINTS
 62
     0
 48
50.0
100
AcDbPoint
 10
9105.072769496313
 20
5289.729226123938
 30
0.0
  0
ENDBLK
  5
16529
330
1651E
100
AcDbEntity
  8
0
 48
50.0
100
AcDbBlockEnd
  0
BLOCK
  5
16534
330
1652A
100
AcDbEntity
  8
0
 48
50.0
100
AcDbBlockBegin
  2
*D22
 70
     1
 10
0.0
 20
0.0
 30
0.0
  3
*D22
  1

  0
LINE
  5
16C90
330
1652A
100
AcDbEntity
  8
寸法
 62
     0
 48
50.0
370
    -2
100
AcDbLine
 10
10228.82289867957
 20
5054.729226123933
 30
0.0
 11
9345.072769496315
 21
5054.729226123933
 31
0.0
  0
LINE
  5
16C91
330
1652A
100
AcDbEntity
  8
寸法
 62
     0
 48
50.0
370
    -2
100
AcDbLine
 10
10228.82289867957
 20
3264.729226123935
 30
0.0
 11
9345.072769496313
 21
3264.729226123935
 31
0.0
  0
LINE
  5
16C92
330
1652A
100
AcDbEntity
  8
寸法
 62
     0
 48
50.0
370
    -2
100
AcDbLine
 10
9405.072769496316
 20
5054.729226123933
 30
0.0
 11
9405.072769496312
 21
3264.729226123935
 31
0.0
  0
INSERT
  5
16C93
330
1652A
100
AcDbEntity
  8
寸法
 62
     0
 48
50.0
370
    -2
100
AcDbBlockReference
  2
_DOTSMALL
 10
9405.072769496316
 20
5054.729226123933
 30
0.0
 41
100.0
 42
100.0
 43
100.0
 50
90.0
  0
INSERT
  5
16C94
330
1652A
100
AcDbEntity
  8
寸法
 62
     0
 48
50.0
370
    -2
100
AcDbBlockReference
  2
_DOTSMALL
 10
9405.072769496312
 20
3264.729226123935
 30
0.0
 41
100.0
 42
100.0
 43
100.0
 50
270.0
  0
MTEXT
  5
16C95
330
1652A
100
AcDbEntity
  8
寸法
 62
     7
 48
50.0
100
AcDbMText
 10
9305.072769496312
 20
4159.729226123935
 30
0.0
 40
120.0
 41
0.0
 71
     5
 72
     1
  1
\A1;1790
  7
STYLE1
 11
0.0000000000000001
 21
1.0
 31
0.0
 73
     1
 44
1.0
1001
ACAD
1000
MTEXTBEGIN
1070
    73
1070
     1
1070
    44
1040
1.0
1070
    74
1070
     0
1000
MTEXTEND
  0
POINT
  5
16C96
330
1652A
100
AcDbEntity
  8
DEFPOINTS
 62
     0
 48
50.0
100
AcDbPoint
 10
10248.82289867957
 20
5054.729226123932
 30
0.0
  0
POINT
  5
16C97
330
1652A
100
AcDbEntity
  8
DEFPOINTS
 62
     0
 48
50.0
100
AcDbPoint
 10
10248.82289867957
 20
3264.729226123935
 30
0.0
  0
POINT
  5
16C98
330
1652A
100
AcDbEntity
  8
DEFPOINTS
 62
     0
 48
50.0
100
AcDbPoint
 10
9405.072769496312
 20
3264.729226123935
 30
0.0
  0
ENDBLK
  5
16535
330
1652A
100
AcDbEntity
  8
0
 48
50.0
100
AcDbBlockEnd
  0
BLOCK
  5
16542
330
16536
100
AcDbEntity
  8
0
 48
50.0
100
AcDbBlockBegin
  2
*D23
 70
     1
 10
0.0
 20
0.0
 30
0.0
  3
*D23
  1

  0
LINE
  5
16C85
330
16536
100
AcDbEntity
  8
寸法
 62
     0
 48
50.0
370
    -2
100
AcDbLine
 10
10228.82289867957
 20
3264.729226123935
 30
0.0
 11
9345.072769496313
 21
3264.729226123935
 31
0.0
  0
LINE
  5
16C86
330
16536
100
AcDbEntity
  8
寸法
 62
     0
 48
50.0
370
    -2
100
AcDbLine
 10
10173.82289867957
 20
3214.729226123934
 30
0.0
 11
9345.072769496313
 21
3214.729226123934
 31
0.0
  0
LINE
  5
16C87
330
16536
100
AcDbEntity
  8
寸法
 62
     0
 48
50.0
370
    -2
100
AcDbLine
 10
9405.072769496312
 20
3264.729226123935
 30
0.0
 11
9405.072769496312
 21
3364.729226123934
 31
0.0
  0
LINE
  5
16C88
330
16536
100
AcDbEntity
  8
寸法
 62
     0
 48
50.0
370
    -2
100
AcDbLine
 10
9405.072769496312
 20
3214.729226123934
 30
0.0
 11
9405.072769496312
 21
2802.634737934954
 31
0.0
  0
LINE
  5
16C89
330
16536
100
AcDbEntity
  8
寸法
 62
     0
 48
50.0
370
    -2
100
AcDbLine
 10
9405.072769496312
 20
3264.729226123935
 30
0.0
 11
9405.072769496312
 21
3214.729226123934
 31
0.0
  0
INSERT
  5
16C8A
330
16536
100
AcDbEntity
  8
寸法
 62
     0
 48
50.0
370
    -2
100
AcDbBlockReference
  2
_DOTSMALL
 10
9405.072769496312
 20
3264.729226123935
 30
0.0
 41
100.0
 42
100.0
 43
100.0
 50
270.0
  0
INSERT
  5
16C8B
330
16536
100
AcDbEntity
  8
寸法
 62
     0
 48
50.0
370
    -2
100
AcDbBlockReference
  2
_DOTSMALL
 10
9405.072769496312
 20
3214.729226123934
 30
0.0
 41
100.0
 42
100.0
 43
100.0
 50
90.0
  0
MTEXT
  5
16C8C
330
16536
100
AcDbEntity
  8
寸法
 62
     7
 48
50.0
100
AcDbMText
 10
9305.072769496312
 20
2908.681982029444
 30
0.0
 40
120.0
 41
0.0
 71
     5
 72
     1
  1
\A1;50
  7
STYLE1
 11
0.0000000000000001
 21
1.0
 31
0.0
 73
     1
 44
1.0
1001
ACAD
1000
MTEXTBEGIN
1070
    73
1070
     1
1070
    44
1040
1.0
1070
    74
1070
     0
1000
MTEXTEND
  0
POINT
  5
16C8D
330
16536
100
AcDbEntity
  8
DEFPOINTS
 62
     0
 48
50.0
100
AcDbPoint
 10
10248.82289867957
 20
3264.729226123935
 30
0.0
  0
POINT
  5
16C8E
330
16536
100
AcDbEntity
  8
DEFPOINTS
 62
     0
 48
50.0
100
AcDbPoint
 10
10193.82289867957
 20
3214.729226123934
 30
0.0
  0
POINT
  5
16C8F
330
16536
100
AcDbEntity
  8
DEFPOINTS
 62
     0
 48
50.0
100
AcDbPoint
 10
9405.072769496312
 20
3214.729226123934
 30
0.0
  0
ENDBLK
  5
16543
330
16536
100
AcDbEntity
  8
0
 48
50.0
100
AcDbBlockEnd
  0
BLOCK
  5
1654E
330
16544
100
AcDbEntity
  8
0
 48
50.0
100
AcDbBlockBegin
  2
*D24
 70
     1
 10
0.0
 20
0.0
 30
0.0
  3
*D24
  1

  0
LINE
  5
16C7C
330
16544
100
AcDbEntity
  8
寸法
 62
     0
 48
50.0
370
    -2
100
AcDbLine
 10
11638.82289867957
 20
3214.729226123934
 30
0.0
 11
12383.7500566517
 21
3214.729226123934
 31
0.0
  0
LINE
  5
16C7D
330
16544
100
AcDbEntity
  8
寸法
 62
     0
 48
50.0
370
    -2
100
AcDbLine
 10
11718.82289867957
 20
5234.729226123935
 30
0.0
 11
12383.7500566517
 21
5234.729226123935
 31
0.0
  0
LINE
  5
16C7E
330
16544
100
AcDbEntity
  8
寸法
 62
     0
 48
50.0
370
    -2
100
AcDbLine
 10
12323.7500566517
 20
3214.729226123934
 30
0.0
 11
12323.7500566517
 21
5234.729226123935
 31
0.0
  0
INSERT
  5
16C7F
330
16544
100
AcDbEntity
  8
寸法
 62
     0
 48
50.0
370
    -2
100
AcDbBlockReference
  2
_DOTSMALL
 10
12323.7500566517
 20
3214.729226123934
 30
0.0
 41
100.0
 42
100.0
 43
100.0
 50
270.0
  0
INSERT
  5
16C80
330
16544
100
AcDbEntity
  8
寸法
 62
     0
 48
50.0
370
    -2
100
AcDbBlockReference
  2
_DOTSMALL
 10
12323.7500566517
 20
5234.729226123935
 30
0.0
 41
100.0
 42
100.0
 43
100.0
 50
90.0
  0
MTEXT
  5
16C81
330
16544
100
AcDbEntity
  8
寸法
 62
     7
 48
50.0
100
AcDbMText
 10
12223.73824562808
 20
4224.729226123936
 30
0.0
 40
120.0
 41
0.0
 71
     5
 72
     1
  1
\A1;2020
  7
STYLE1
 11
0.0000000000000001
 21
1.0
 31
0.0
 73
     1
 44
1.0
1001
ACAD
1000
MTEXTBEGIN
1070
    73
1070
     1
1070
    44
1040
1.0
1070
    74
1070
     0
1000
MTEXTEND
  0
POINT
  5
16C82
330
16544
100
AcDbEntity
  8
DEFPOINTS
 62
     0
 48
50.0
100
AcDbPoint
 10
11618.82289867957
 20
3214.729226123934
 30
0.0
  0
POINT
  5
16C83
330
16544
100
AcDbEntity
  8
DEFPOINTS
 62
     0
 48
50.0
100
AcDbPoint
 10
11698.82289867957
 20
5234.729226123935
 30
0.0
  0
POINT
  5
16C84
330
16544
100
AcDbEntity
  8
DEFPOINTS
 62
     0
 48
50.0
100
AcDbPoint
 10
12323.7500566517
 20
5234.729226123935
 30
0.0
  0
ENDBLK
  5
1654F
330
16544
100
AcDbEntity
  8
0
 48
50.0
100
AcDbBlockEnd
  0
BLOCK
  5
1655A
330
16550
100
AcDbEntity
  8
0
 48
50.0
100
AcDbBlockBegin
  2
*D25
 70
     1
 10
0.0
 20
0.0
 30
0.0
  3
*D25
  1

  0
LINE
  5
16C73
330
16550
100
AcDbEntity
  8
寸法
 62
     0
 48
50.0
370
    -2
100
AcDbLine
 10
11618.82289867957
 20
5256.539905735586
 30
0.0
 11
11618.82289867957
 21
5748.386679703237
 31
0.0
  0
LINE
  5
16C74
330
16550
100
AcDbEntity
  8
寸法
 62
     0
 48
50.0
370
    -2
100
AcDbLine
 10
10248.82289867957
 20
5305.730844246909
 30
0.0
 11
10248.82289867957
 21
5748.386679703237
 31
0.0
  0
LINE
  5
16C75
330
16550
100
AcDbEntity
  8
寸法
 62
     0
 48
50.0
370
    -2
100
AcDbLine
 10
11618.82289867957
 20
5688.386679703237
 30
0.0
 11
10248.82289867957
 21
5688.386679703237
 31
0.0
  0
INSERT
  5
16C76
330
16550
100
AcDbEntity
  8
寸法
 62
     0
 48
50.0
370
    -2
100
AcDbBlockReference
  2
_DOTSMALL
 10
11618.82289867957
 20
5688.386679703237
 30
0.0
 41
100.0
 42
100.0
 43
100.0
  0
INSERT
  5
16C77
330
16550
100
AcDbEntity
  8
寸法
 62
     0
 48
50.0
370
    -2
100
AcDbBlockReference
  2
_DOTSMALL
 10
10248.82289867957
 20
5688.386679703237
 30
0.0
 41
100.0
 42
100.0
 43
100.0
 50
180.0
  0
MTEXT
  5
16C78
330
16550
100
AcDbEntity
  8
寸法
 62
     7
 48
50.0
100
AcDbMText
 10
10898.64193157012
 20
5788.386679703236
 30
0.0
 40
120.0
 41
0.0
 71
     5
 72
     1
  1
\A1;柱外寸法1370
  7
STYLE1
 73
     1
 44
1.0
1001
ACAD
1000
MTEXTBEGIN
1070
    73
1070
     1
1070
    44
1040
1.0
1070
    74
1070
     0
1000
MTEXTEND
  0
POINT
  5
16C79
330
16550
100
AcDbEntity
  8
DEFPOINTS
 62
     0
 48
50.0
100
AcDbPoint
 10
11618.82289867957
 20
5236.539905735586
 30
0.0
  0
POINT
  5
16C7A
330
16550
100
AcDbEntity
  8
DEFPOINTS
 62
     0
 48
50.0
100
AcDbPoint
 10
10248.82289867957
 20
5285.730844246909
 30
0.0
  0
POINT
  5
16C7B
330
16550
100
AcDbEntity
  8
DEFPOINTS
 62
     0
 48
50.0
100
AcDbPoint
 10
10248.82289867957
 20
5688.386679703237
 30
0.0
  0
ENDBLK
  5
1655B
330
16550
100
AcDbEntity
  8
0
 48
50.0
100
AcDbBlockEnd
  0
BLOCK
  5
16568
330
1655C
100
AcDbEntity
  8
0
 48
50.0
100
AcDbBlockBegin
  2
*D26
 70
     1
 10
0.0
 20
0.0
 30
0.0
  3
*D26
  1

  0
LINE
  5
16C68
330
1655C
100
AcDbEntity
  8
寸法
 62
     0
 48
50.0
370
    -2
100
AcDbLine
 10
10248.82289867957
 20
5305.730844246909
 30
0.0
 11
10248.82289867957
 21
5748.386679703237
 31
0.0
  0
LINE
  5
16C69
330
1655C
100
AcDbEntity
  8
寸法
 62
     0
 48
50.0
370
    -2
100
AcDbLine
 10
10188.82289867957
 20
5309.729226123938
 30
0.0
 11
10188.82289867957
 21
5748.386679703237
 31
0.0
  0
LINE
  5
16C6A
330
1655C
100
AcDbEntity
  8
寸法
 62
     0
 48
50.0
370
    -2
100
AcDbLine
 10
10248.82289867957
 20
5688.386679703237
 30
0.0
 11
10348.82289867957
 21
5688.386679703237
 31
0.0
  0
LINE
  5
16C6B
330
1655C
100
AcDbEntity
  8
寸法
 62
     0
 48
50.0
370
    -2
100
AcDbLine
 10
10188.82289867957
 20
5688.386679703237
 30
0.0
 11
9769.547308128395
 21
5688.386679703237
 31
0.0
  0
LINE
  5
16C6C
330
1655C
100
AcDbEntity
  8
寸法
 62
     0
 48
50.0
370
    -2
100
AcDbLine
 10
10248.82289867957
 20
5688.386679703237
 30
0.0
 11
10188.82289867957
 21
5688.386679703237
 31
0.0
  0
INSERT
  5
16C6D
330
1655C
100
AcDbEntity
  8
寸法
 62
     0
 48
50.0
370
    -2
100
AcDbBlockReference
  2
_DOTSMALL
 10
10248.82289867957
 20
5688.386679703237
 30
0.0
 41
100.0
 42
100.0
 43
100.0
 50
180.0
  0
INSERT
  5
16C6E
330
1655C
100
AcDbEntity
  8
寸法
 62
     0
 48
50.0
370
    -2
100
AcDbBlockReference
  2
_DOTSMALL
 10
10188.82289867957
 20
5688.386679703237
 30
0.0
 41
100.0
 42
100.0
 43
100.0
  0
MTEXT
  5
16C6F
330
1655C
100
AcDbEntity
  8
寸法
 62
     7
 48
50.0
100
AcDbMText
 10
9879.185103403985
 20
5788.386679703236
 30
0.0
 40
120.0
 41
0.0
 71
     5
 72
     1
  1
\A1;60
  7
STYLE1
 73
     1
 44
1.0
1001
ACAD
1000
MTEXTBEGIN
1070
    73
1070
     1
1070
    44
1040
1.0
1070
    74
1070
     0
1000
MTEXTEND
  0
POINT
  5
16C70
330
1655C
100
AcDbEntity
  8
DEFPOINTS
 62
     0
 48
50.0
100
AcDbPoint
 10
10248.82289867957
 20
5285.730844246909
 30
0.0
  0
POINT
  5
16C71
330
1655C
100
AcDbEntity
  8
DEFPOINTS
 62
     0
 48
50.0
100
AcDbPoint
 10
10188.82289867957
 20
5289.729226123938
 30
0.0
  0
POINT
  5
16C72
330
1655C
100
AcDbEntity
  8
DEFPOINTS
 62
     0
 48
50.0
100
AcDbPoint
 10
10188.82289867957
 20
5688.386679703237
 30
0.0
  0
ENDBLK
  5
16569
330
1655C
100
AcDbEntity
  8
0
 48
50.0
100
AcDbBlockEnd
  0
BLOCK
  5
16574
330
1656A
100
AcDbEntity
  8
0
 48
50.0
100
AcDbBlockBegin
  2
*D27
 70
     1
 10
0.0
 20
0.0
 30
0.0
  3
*D27
  1

  0
LINE
  5
16C5F
330
1656A
100
AcDbEntity
  8
寸法
 62
     0
 48
50.0
370
    -2
100
AcDbLine
 10
11698.82289867957
 20
5254.729226123934
 30
0.0
 11
11698.82289867957
 21
5956.561000895201
 31
0.0
  0
LINE
  5
16C60
330
1656A
100
AcDbEntity
  8
寸法
 62
     0
 48
50.0
370
    -2
100
AcDbLine
 10
10188.82289867957
 20
5309.729226123938
 30
0.0
 11
10188.82289867957
 21
5956.561000895201
 31
0.0
  0
LINE
  5
16C61
330
1656A
100
AcDbEntity
  8
寸法
 62
     0
 48
50.0
370
    -2
100
AcDbLine
 10
11698.82289867957
 20
5896.561000895201
 30
0.0
 11
10188.82289867957
 21
5896.561000895201
 31
0.0
  0
INSERT
  5
16C62
330
1656A
100
AcDbEntity
  8
寸法
 62
     0
 48
50.0
370
    -2
100
AcDbBlockReference
  2
_DOTSMALL
 10
11698.82289867957
 20
5896.561000895201
 30
0.0
 41
100.0
 42
100.0
 43
100.0
  0
INSERT
  5
16C63
330
1656A
100
AcDbEntity
  8
寸法
 62
     0
 48
50.0
370
    -2
100
AcDbBlockReference
  2
_DOTSMALL
 10
10188.82289867957
 20
5896.561000895201
 30
0.0
 41
100.0
 42
100.0
 43
100.0
 50
180.0
  0
MTEXT
  5
16C64
330
1656A
100
AcDbEntity
  8
寸法
 62
     7
 48
50.0
100
AcDbMText
 10
10915.9477283814
 20
5996.561000895201
 30
0.0
 40
120.0
 41
0.0
 71
     5
 72
     1
  1
\A1;1510
  7
STYLE1
 73
     1
 44
1.0
1001
ACAD
1000
MTEXTBEGIN
1070
    73
1070
     1
1070
    44
1040
1.0
1070
    74
1070
     0
1000
MTEXTEND
  0
POINT
  5
16C65
330
1656A
100
AcDbEntity
  8
DEFPOINTS
 62
     0
 48
50.0
100
AcDbPoint
 10
11698.82289867957
 20
5234.729226123935
 30
0.0
  0
POINT
  5
16C66
330
1656A
100
AcDbEntity
  8
DEFPOINTS
 62
     0
 48
50.0
100
AcDbPoint
 10
10188.82289867957
 20
5289.729226123938
 30
0.0
  0
POINT
  5
16C67
330
1656A
100
AcDbEntity
  8
DEFPOINTS
 62
     0
 48
50.0
100
AcDbPoint
 10
10188.82289867957
 20
5896.561000895201
 30
0.0
  0
ENDBLK
  5
16575
330
1656A
100
AcDbEntity
  8
0
 48
50.0
100
AcDbBlockEnd
  0
BLOCK
  5
16581
330
16576
100
AcDbEntity
  8
0
 48
50.0
100
AcDbBlockBegin
  2
*D28
 70
     1
 10
0.0
 20
0.0
 30
0.0
  3
*D28
  1

  0
LINE
  5
16C55
330
16576
100
AcDbEntity
  8
寸法
 62
     0
 48
50.0
370
    -2
100
AcDbLine
 10
11618.82289867957
 20
5256.539905735586
 30
0.0
 11
11618.82289867957
 21
5748.386679703237
 31
0.0
  0
LINE
  5
16C56
330
16576
100
AcDbEntity
  8
寸法
 62
     0
 48
50.0
370
    -2
100
AcDbLine
 10
11698.82289867957
 20
5254.729226123934
 30
0.0
 11
11698.82289867957
 21
5748.386679703237
 31
0.0
  0
LINE
  5
16C57
330
16576
100
AcDbEntity
  8
寸法
 62
     0
 48
50.0
370
    -2
100
AcDbLine
 10
11618.82289867957
 20
5688.386679703237
 30
0.0
 11
11698.82289867957
 21
5688.386679703237
 31
0.0
  0
LINE
  5
16C58
330
16576
100
AcDbEntity
  8
寸法
 62
     0
 48
50.0
370
    -2
100
AcDbLine
 10
11698.82289867957
 20
5688.386679703237
 30
0.0
 11
12010.91738686855
 21
5688.386679703237
 31
0.0
  0
INSERT
  5
16C59
330
16576
100
AcDbEntity
  8
寸法
 62
     0
 48
50.0
370
    -2
100
AcDbBlockReference
  2
_DOTSMALL
 10
11618.82289867957
 20
5688.386679703237
 30
0.0
 41
100.0
 42
100.0
 43
100.0
 50
180.0
  0
INSERT
  5
16C5A
330
16576
100
AcDbEntity
  8
寸法
 62
     0
 48
50.0
370
    -2
100
AcDbBlockReference
  2
_DOTSMALL
 10
11698.82289867957
 20
5688.386679703237
 30
0.0
 41
100.0
 42
100.0
 43
100.0
  0
MTEXT
  5
16C5B
330
16576
100
AcDbEntity
  8
寸法
 62
     7
 48
50.0
100
AcDbMText
 10
11904.87014277406
 20
5788.386679703236
 30
0.0
 40
120.0
 41
0.0
 71
     5
 72
     1
  1
\A1;80
  7
STYLE1
 73
     1
 44
1.0
1001
ACAD
1000
MTEXTBEGIN
1070
    73
1070
     1
1070
    44
1040
1.0
1070
    74
1070
     0
1000
MTEXTEND
  0
POINT
  5
16C5C
330
16576
100
AcDbEntity
  8
DEFPOINTS
 62
     0
 48
50.0
100
AcDbPoint
 10
11618.82289867957
 20
5236.539905735586
 30
0.0
  0
POINT
  5
16C5D
330
16576
100
AcDbEntity
  8
DEFPOINTS
 62
     0
 48
50.0
100
AcDbPoint
 10
11698.82289867957
 20
5234.729226123935
 30
0.0
  0
POINT
  5
16C5E
330
16576
100
AcDbEntity
  8
DEFPOINTS
 62
     0
 48
50.0
100
AcDbPoint
 10
11698.82289867957
 20
5688.386679703237
 30
0.0
  0
ENDBLK
  5
16582
330
16576
100
AcDbEntity
  8
0
 48
50.0
100
AcDbBlockEnd
  0
BLOCK
  5
1658E
330
16583
100
AcDbEntity
  8
0
 48
50.0
100
AcDbBlockBegin
  2
*D29
 70
     1
 10
0.0
 20
0.0
 30
0.0
  3
*D29
  1

  0
LINE
  5
16C4B
330
16583
100
AcDbEntity
  8
寸法
 62
     0
 48
50.0
370
    -2
100
AcDbLine
 10
10184.17970336707
 20
5148.264837597409
 30
0.0
 11
9531.279533073053
 21
5172.915868837387
 31
0.0
  0
LINE
  5
16C4C
330
16583
100
AcDbEntity
  8
寸法
 62
     0
 48
50.0
370
    -2
100
AcDbLine
 10
10189.49953751903
 20
5289.164444994293
 30
0.0
 11
9536.599367224846
 21
5313.815476234277
 31
0.0
  0
LINE
  5
16C4D
330
16583
100
AcDbEntity
  8
寸法
 62
     0
 48
50.0
370
    -2
100
AcDbLine
 10
9591.23681281641
 20
5170.652109623858
 30
0.0
 11
9596.556646968203
 21
5311.551717020749
 31
0.0
  0
LINE
  5
16C4E
330
16583
100
AcDbEntity
  8
寸法
 62
     0
 48
50.0
370
    -2
100
AcDbLine
 10
9596.556646968203
 20
5311.551717020749
 30
0.0
 11
9610.139202249403
 21
5671.295395481582
 31
0.0
  0
INSERT
  5
16C4F
330
16583
100
AcDbEntity
  8
寸法
 62
     0
 48
50.0
370
    -2
100
AcDbBlockReference
  2
_DOTSMALL
 10
9591.23681281641
 20
5170.652109623858
 30
0.0
 41
100.0
 42
100.0
 43
100.0
 50
267.8377559871574
  0
INSERT
  5
16C50
330
16583
100
AcDbEntity
  8
寸法
 62
     0
 48
50.0
370
    -2
100
AcDbBlockReference
  2
_DOTSMALL
 10
9596.556646968203
 20
5311.551717020749
 30
0.0
 41
100.0
 42
100.0
 43
100.0
 50
87.83775598715742
  0
MTEXT
  5
16C51
330
16583
100
AcDbEntity
  8
寸法
 62
     7
 48
50.0
100
AcDbMText
 10
9505.305591047827
 20
5545.160888060189
 30
0.0
 40
120.0
 41
0.0
 71
     5
 72
     1
  1
\A1;141
  7
STYLE1
 11
0.0377293202254805
 21
0.9992879957226159
 31
0.0
 73
     1
 44
1.0
1001
ACAD
1000
MTEXTBEGIN
1070
    73
1070
     1
1070
    44
1040
1.0
1070
    74
1070
     0
1000
MTEXTEND
  0
POINT
  5
16C52
330
16583
100
AcDbEntity
  8
DEFPOINTS
 62
     0
 48
50.0
100
AcDbPoint
 10
10204.16546328153
 20
5147.510251192898
 30
0.0
  0
POINT
  5
16C53
330
16583
100
AcDbEntity
  8
DEFPOINTS
 62
     0
 48
50.0
100
AcDbPoint
 10
10209.48529743348
 20
5288.409858589783
 30
0.0
  0
POINT
  5
16C54
330
16583
100
AcDbEntity
  8
DEFPOINTS
 62
     0
 48
50.0
100
AcDbPoint
 10
9596.556646968203
 20
5311.551717020749
 30
0.0
  0
ENDBLK
  5
1658F
330
16583
100
AcDbEntity
  8
0
 48
50.0
100
AcDbBlockEnd
  0
BLOCK
  5
169BB
330
169AF
100
AcDbEntity
  8
0
 48
50.0
100
AcDbBlockBegin
  2
*D30
 70
     1
 10
0.0
 20
0.0
 30
0.0
  3
*D30
  1

  0
LINE
  5
16C0A
330
169AF
100
AcDbEntity
  8
寸法
 62
     0
 48
50.0
370
    -2
100
AcDbLine
 10
4513.02551687209
 20
5309.729226123941
 30
0.0
 11
4513.02551687209
 21
5562.270811382179
 31
0.0
  0
LINE
  5
16C0B
330
169AF
100
AcDbEntity
  8
寸法
 62
     0
 48
50.0
370
    -2
100
AcDbLine
 10
4463.02551687209
 20
5309.72922612394
 30
0.0
 11
4463.02551687209
 21
5562.270811382179
 31
0.0
  0
LINE
  5
16C0C
330
169AF
100
AcDbEntity
  8
寸法
 62
     0
 48
50.0
370
    -2
100
AcDbLine
 10
4513.02551687209
 20
5502.270811382179
 30
0.0
 11
4613.025516872091
 21
5502.270811382179
 31
0.0
  0
LINE
  5
16C0D
330
169AF
100
AcDbEntity
  8
寸法
 62
     0
 48
50.0
370
    -2
100
AcDbLine
 10
4463.02551687209
 20
5502.270811382179
 30
0.0
 11
4043.492991403355
 21
5502.270811382179
 31
0.0
  0
LINE
  5
16C0E
330
169AF
100
AcDbEntity
  8
寸法
 62
     0
 48
50.0
370
    -2
100
AcDbLine
 10
4513.02551687209
 20
5502.270811382179
 30
0.0
 11
4463.02551687209
 21
5502.270811382179
 31
0.0
  0
INSERT
  5
16C0F
330
169AF
100
AcDbEntity
  8
寸法
 62
     0
 48
50.0
370
    -2
100
AcDbBlockReference
  2
_DOTSMALL
 10
4513.02551687209
 20
5502.270811382179
 30
0.0
 41
100.0
 42
100.0
 43
100.0
 50
180.0
  0
INSERT
  5
16C10
330
169AF
100
AcDbEntity
  8
寸法
 62
     0
 48
50.0
370
    -2
100
AcDbBlockReference
  2
_DOTSMALL
 10
4463.02551687209
 20
5502.270811382179
 30
0.0
 41
100.0
 42
100.0
 43
100.0
  0
MTEXT
  5
16C11
330
169AF
100
AcDbEntity
  8
寸法
 62
     7
 48
50.0
100
AcDbMText
 10
4149.540235497843
 20
5602.270811382179
 30
0.0
 40
120.0
 41
0.0
 71
     5
 72
     1
  1
\A1;50
  7
STYLE1
 73
     1
 44
1.0
1001
ACAD
1000
MTEXTBEGIN
1070
    73
1070
     1
1070
    44
1040
1.0
1070
    74
1070
     0
1000
MTEXTEND
  0
POINT
  5
16C12
330
169AF
100
AcDbEntity
  8
DEFPOINTS
 62
     0
 48
50.0
100
AcDbPoint
 10
4513.02551687209
 20
5289.729226123942
 30
0.0
  0
POINT
  5
16C13
330
169AF
100
AcDbEntity
  8
DEFPOINTS
 62
     0
 48
50.0
100
AcDbPoint
 10
4463.02551687209
 20
5289.72922612394
 30
0.0
  0
POINT
  5
16C14
330
169AF
100
AcDbEntity
  8
DEFPOINTS
 62
     0
 48
50.0
100
AcDbPoint
 10
4463.02551687209
 20
5502.270811382179
 30
0.0
  0
ENDBLK
  5
169BC
330
169AF
100
AcDbEntity
  8
0
 48
50.0
100
AcDbBlockEnd
  0
BLOCK
  5
169C7
330
169BD
100
AcDbEntity
  8
0
 48
50.0
100
AcDbBlockBegin
  2
*D31
 70
     1
 10
0.0
 20
0.0
 30
0.0
  3
*D31
  1

  0
LINE
  5
16C15
330
169BD
100
AcDbEntity
  8
寸法
 62
     0
 48
50.0
370
    -2
100
AcDbLine
 10
4463.02551687209
 20
5309.72922612394
 30
0.0
 11
4463.02551687209
 21
5785.227789820027
 31
0.0
  0
LINE
  5
16C16
330
169BD
100
AcDbEntity
  8
寸法
 62
     0
 48
50.0
370
    -2
100
AcDbLine
 10
8363.025516872095
 20
5309.729226123934
 30
0.0
 11
8363.025516872095
 21
5785.227789820027
 31
0.0
  0
LINE
  5
16C17
330
169BD
100
AcDbEntity
  8
寸法
 62
     0
 48
50.0
370
    -2
100
AcDbLine
 10
4463.02551687209
 20
5725.227789820026
 30
0.0
 11
8363.025516872095
 21
5725.227789820026
 31
0.0
  0
INSERT
  5
16C18
330
169BD
100
AcDbEntity
  8
寸法
 62
     0
 48
50.0
370
    -2
100
AcDbBlockReference
  2
_DOTSMALL
 10
4463.02551687209
 20
5725.227789820026
 30
0.0
 41
100.0
 42
100.0
 43
100.0
 50
180.0
  0
INSERT
  5
16C19
330
169BD
100
AcDbEntity
  8
寸法
 62
     0
 48
50.0
370
    -2
100
AcDbBlockReference
  2
_DOTSMALL
 10
8363.025516872095
 20
5725.227789820026
 30
0.0
 41
100.0
 42
100.0
 43
100.0
  0
MTEXT
  5
16C1A
330
169BD
100
AcDbEntity
  8
寸法
 62
     7
 48
50.0
100
AcDbMText
 10
6413.025516872082
 20
5825.227789820026
 30
0.0
 40
120.0
 41
0.0
 71
     5
 72
     1
  1
\A1;3900
  7
STYLE1
 73
     1
 44
1.0
1001
ACAD
1000
MTEXTBEGIN
1070
    73
1070
     1
1070
    44
1040
1.0
1070
    74
1070
     0
1000
MTEXTEND
  0
POINT
  5
16C1B
330
169BD
100
AcDbEntity
  8
DEFPOINTS
 62
     0
 48
50.0
100
AcDbPoint
 10
4463.02551687209
 20
5289.72922612394
 30
0.0
  0
POINT
  5
16C1C
330
169BD
100
AcDbEntity
  8
DEFPOINTS
 62
     0
 48
50.0
100
AcDbPoint
 10
8363.025516872095
 20
5289.729226123935
 30
0.0
  0
POINT
  5
16C1D
330
169BD
100
AcDbEntity
  8
DEFPOINTS
 62
     0
 48
50.0
100
AcDbPoint
 10
8363.025516872095
 20
5725.227789820026
 30
0.0
  0
ENDBLK
  5
169C8
330
169BD
100
AcDbEntity
  8
0
 48
50.0
100
AcDbBlockEnd
  0
BLOCK
  5
169D3
330
169C9
100
AcDbEntity
  8
0
 48
50.0
100
AcDbBlockBegin
  2
*D32
 70
     1
 10
0.0
 20
0.0
 30
0.0
  3
*D32
  1

  0
LINE
  5
16C1E
330
169C9
100
AcDbEntity
  8
寸法
 62
     0
 48
50.0
370
    -2
100
AcDbLine
 10
8313.025516872095
 20
5309.729226123937
 30
0.0
 11
8313.025516872095
 21
5562.270811382179
 31
0.0
  0
LINE
  5
16C1F
330
169C9
100
AcDbEntity
  8
寸法
 62
     0
 48
50.0
370
    -2
100
AcDbLine
 10
4513.02551687209
 20
5309.729226123941
 30
0.0
 11
4513.02551687209
 21
5562.270811382179
 31
0.0
  0
LINE
  5
16C20
330
169C9
100
AcDbEntity
  8
寸法
 62
     0
 48
50.0
370
    -2
100
AcDbLine
 10
8313.025516872095
 20
5502.270811382179
 30
0.0
 11
4513.02551687209
 21
5502.270811382179
 31
0.0
  0
INSERT
  5
16C21
330
169C9
100
AcDbEntity
  8
寸法
 62
     0
 48
50.0
370
    -2
100
AcDbBlockReference
  2
_DOTSMALL
 10
8313.025516872095
 20
5502.270811382179
 30
0.0
 41
100.0
 42
100.0
 43
100.0
  0
INSERT
  5
16C22
330
169C9
100
AcDbEntity
  8
寸法
 62
     0
 48
50.0
370
    -2
100
AcDbBlockReference
  2
_DOTSMALL
 10
4513.02551687209
 20
5502.270811382179
 30
0.0
 41
100.0
 42
100.0
 43
100.0
 50
180.0
  0
MTEXT
  5
16C23
330
169C9
100
AcDbEntity
  8
寸法
 62
     7
 48
50.0
100
AcDbMText
 10
6413.025516872082
 20
5602.270811382179
 30
0.0
 40
120.0
 41
0.0
 71
     5
 72
     1
  1
\A1;柱外寸法3800
  7
STYLE1
 73
     1
 44
1.0
1001
ACAD
1000
MTEXTBEGIN
1070
    73
1070
     1
1070
    44
1040
1.0
1070
    74
1070
     0
1000
MTEXTEND
  0
POINT
  5
16C24
330
169C9
100
AcDbEntity
  8
DEFPOINTS
 62
     0
 48
50.0
100
AcDbPoint
 10
8313.025516872095
 20
5289.729226123936
 30
0.0
  0
POINT
  5
16C25
330
169C9
100
AcDbEntity
  8
DEFPOINTS
 62
     0
 48
50.0
100
AcDbPoint
 10
4513.02551687209
 20
5289.729226123942
 30
0.0
  0
POINT
  5
16C26
330
169C9
100
AcDbEntity
  8
DEFPOINTS
 62
     0
 48
50.0
100
AcDbPoint
 10
4513.02551687209
 20
5502.270811382179
 30
0.0
  0
ENDBLK
  5
169D4
330
169C9
100
AcDbEntity
  8
0
 48
50.0
100
AcDbBlockEnd
  0
BLOCK
  5
16A14
330
16A08
100
AcDbEntity
  8
0
 48
50.0
100
AcDbBlockBegin
  2
*D33
 70
     1
 10
0.0
 20
0.0
 30
0.0
  3
*D33
  1

  0
LINE
  5
16BFF
330
16A08
100
AcDbEntity
  8
寸法
 62
     0
 48
50.0
370
    -2
100
AcDbLine
 10
8363.025516872095
 20
5309.729226123934
 30
0.0
 11
8363.025516872095
 21
5562.270811382176
 31
0.0
  0
LINE
  5
16C00
330
16A08
100
AcDbEntity
  8
寸法
 62
     0
 48
50.0
370
    -2
100
AcDbLine
 10
8313.025516872095
 20
5309.729226123937
 30
0.0
 11
8313.025516872095
 21
5562.270811382176
 31
0.0
  0
LINE
  5
16C01
330
16A08
100
AcDbEntity
  8
寸法
 62
     0
 48
50.0
370
    -2
100
AcDbLine
 10
8313.025516872095
 20
5502.270811382175
 30
0.0
 11
8213.025516872095
 21
5502.270811382175
 31
0.0
  0
LINE
  5
16C02
330
16A08
100
AcDbEntity
  8
寸法
 62
     0
 48
50.0
370
    -2
100
AcDbLine
 10
8363.025516872095
 20
5502.270811382175
 30
0.0
 11
8782.558042340816
 21
5502.270811382175
 31
0.0
  0
LINE
  5
16C03
330
16A08
100
AcDbEntity
  8
寸法
 62
     0
 48
50.0
370
    -2
100
AcDbLine
 10
8313.025516872095
 20
5502.270811382175
 30
0.0
 11
8363.025516872095
 21
5502.270811382175
 31
0.0
  0
INSERT
  5
16C04
330
16A08
100
AcDbEntity
  8
寸法
 62
     0
 48
50.0
370
    -2
100
AcDbBlockReference
  2
_DOTSMALL
 10
8313.025516872095
 20
5502.270811382175
 30
0.0
 41
100.0
 42
100.0
 43
100.0
  0
INSERT
  5
16C05
330
16A08
100
AcDbEntity
  8
寸法
 62
     0
 48
50.0
370
    -2
100
AcDbBlockReference
  2
_DOTSMALL
 10
8363.025516872095
 20
5502.270811382175
 30
0.0
 41
100.0
 42
100.0
 43
100.0
 50
180.0
  0
MTEXT
  5
16C06
330
16A08
100
AcDbEntity
  8
寸法
 62
     7
 48
50.0
100
AcDbMText
 10
8676.510798246331
 20
5602.270811382176
 30
0.0
 40
120.0
 41
0.0
 71
     5
 72
     1
  1
\A1;50
  7
STYLE1
 73
     1
 44
1.0
1001
ACAD
1000
MTEXTBEGIN
1070
    73
1070
     1
1070
    44
1040
1.0
1070
    74
1070
     0
1000
MTEXTEND
  0
POINT
  5
16C07
330
16A08
100
AcDbEntity
  8
DEFPOINTS
 62
     0
 48
50.0
100
AcDbPoint
 10
8363.025516872095
 20
5289.729226123935
 30
0.0
  0
POINT
  5
16C08
330
16A08
100
AcDbEntity
  8
DEFPOINTS
 62
     0
 48
50.0
100
AcDbPoint
 10
8313.025516872095
 20
5289.729226123936
 30
0.0
  0
POINT
  5
16C09
330
16A08
100
AcDbEntity
  8
DEFPOINTS
 62
     0
 48
50.0
100
AcDbPoint
 10
8313.025516872095
 20
5502.270811382175
 30
0.0
  0
ENDBLK
  5
16A15
330
16A08
100
AcDbEntity
  8
0
 48
50.0
100
AcDbBlockEnd
  0
BLOCK
  5
1717D
330
17173
100
AcDbEntity
  8
0
 48
50.0
100
AcDbBlockBegin
  2
*D34
 70
     1
 10
0.0
 20
0.0
 30
0.0
  3
*D34
  1

  0
LINE
  5
1718B
330
17173
100
AcDbEntity
  8
寸法
 62
     0
 48
50.0
370
    -2
100
AcDbLine
 10
4536.666539701071
 20
8872.017864338483
 30
0.0
 11
4428.013142170249
 21
8466.517864338479
 31
0.0
  0
LINE
  5
1718C
330
17173
100
AcDbEntity
  8
寸法
 62
     0
 48
50.0
370
    -2
100
AcDbLine
 10
5428.666539701072
 20
8872.017864338507
 30
0.0
 11
5320.013142170242
 21
8466.517864338479
 31
0.0
  0
LINE
  5
1718D
330
17173
100
AcDbEntity
  8
寸法
 62
     0
 48
50.0
370
    -2
100
AcDbLine
 10
4444.090093716116
 20
8526.517864338478
 30
0.0
 11
5336.090093716109
 21
8526.517864338478
 31
0.0
  0
INSERT
  5
1718E
330
17173
100
AcDbEntity
  8
寸法
 62
     0
 48
50.0
370
    -2
100
AcDbBlockReference
  2
_DOTSMALL
 10
4444.090093716116
 20
8526.517864338478
 30
0.0
 41
100.0
 42
100.0
 43
100.0
 50
180.0
  0
INSERT
  5
1718F
330
17173
100
AcDbEntity
  8
寸法
 62
     0
 48
50.0
370
    -2
100
AcDbBlockReference
  2
_DOTSMALL
 10
5336.090093716109
 20
8526.517864338478
 30
0.0
 41
100.0
 42
100.0
 43
100.0
  0
MTEXT
  5
17190
330
17173
100
AcDbEntity
  8
寸法
 62
     7
 48
50.0
100
AcDbMText
 10
4890.090093716113
 20
8626.558676903282
 30
0.0
 40
120.0
 41
0.0
 71
     5
 72
     1
  1
\A1;892
  7
STYLE1
 73
     1
 44
1.0
1001
ACAD
1000
MTEXTBEGIN
1070
    73
1070
     1
1070
    44
1040
1.0
1070
    74
1070
     0
1000
MTEXTEND
  0
POINT
  5
17191
330
17173
100
AcDbEntity
  8
DEFPOINTS
 62
     0
 48
50.0
100
AcDbPoint
 10
4542.025523549693
 20
8892.017864338482
 30
0.0
  0
POINT
  5
17192
330
17173
100
AcDbEntity
  8
DEFPOINTS
 62
     0
 48
50.0
100
AcDbPoint
 10
5434.025523549693
 20
8892.017864338509
 30
0.0
  0
POINT
  5
17193
330
17173
100
AcDbEntity
  8
DEFPOINTS
 62
     0
 48
50.0
100
AcDbPoint
 10
5336.090093716109
 20
8526.517864338478
 30
0.0
  0
ENDBLK
  5
1717E
330
17173
100
AcDbEntity
  8
0
 48
50.0
100
AcDbBlockEnd
  0
BLOCK
  5
17189
330
1717F
100
AcDbEntity
  8
0
 48
50.0
100
AcDbBlockBegin
  2
*D35
 70
     1
 10
0.0
 20
0.0
 30
0.0
  3
*D35
  1

  0
LINE
  5
17194
330
1717F
100
AcDbEntity
  8
寸法
 62
     0
 48
50.0
370
    -2
100
AcDbLine
 10
5486.666539701071
 20
8872.017864338483
 30
0.0
 11
5378.013142170249
 21
8466.517864338479
 31
0.0
  0
LINE
  5
17195
330
1717F
100
AcDbEntity
  8
寸法
 62
     0
 48
50.0
370
    -2
100
AcDbLine
 10
6378.666539701067
 20
8872.017864338587
 30
0.0
 11
6270.013142170217
 21
8466.517864338479
 31
0.0
  0
LINE
  5
17196
330
1717F
100
AcDbEntity
  8
寸法
 62
     0
 48
50.0
370
    -2
100
AcDbLine
 10
5394.090093716116
 20
8526.517864338478
 30
0.0
 11
6286.090093716085
 21
8526.517864338478
 31
0.0
  0
INSERT
  5
17197
330
1717F
100
AcDbEntity
  8
寸法
 62
     0
 48
50.0
370
    -2
100
AcDbBlockReference
  2
_DOTSMALL
 10
5394.090093716116
 20
8526.517864338478
 30
0.0
 41
100.0
 42
100.0
 43
100.0
 50
180.0
  0
INSERT
  5
17198
330
1717F
100
AcDbEntity
  8
寸法
 62
     0
 48
50.0
370
    -2
100
AcDbBlockReference
  2
_DOTSMALL
 10
6286.090093716085
 20
8526.517864338478
 30
0.0
 41
100.0
 42
100.0
 43
100.0
  0
MTEXT
  5
17199
330
1717F
100
AcDbEntity
  8
寸法
 62
     7
 48
50.0
100
AcDbMText
 10
5840.0900937161
 20
8626.558676903282
 30
0.0
 40
120.0
 41
0.0
 71
     5
 72
     1
  1
\A1;892
  7
STYLE1
 73
     1
 44
1.0
1001
ACAD
1000
MTEXTBEGIN
1070
    73
1070
     1
1070
    44
1040
1.0
1070
    74
1070
     0
1000
MTEXTEND
  0
POINT
  5
1719A
330
1717F
100
AcDbEntity
  8
DEFPOINTS
 62
     0
 48
50.0
100
AcDbPoint
 10
5492.025523549694
 20
8892.017864338482
 30
0.0
  0
POINT
  5
1719B
330
1717F
100
AcDbEntity
  8
DEFPOINTS
 62
     0
 48
50.0
100
AcDbPoint
 10
6384.02552354969
 20
8892.017864338589
 30
0.0
  0
POINT
  5
1719C
330
1717F
100
AcDbEntity
  8
DEFPOINTS
 62
     0
 48
50.0
100
AcDbPoint
 10
6286.090093716085
 20
8526.517864338478
 30
0.0
  0
ENDBLK
  5
1718A
330
1717F
100
AcDbEntity
  8
0
 48
50.0
100
AcDbBlockEnd
  0
BLOCK
  5
171CF
330
171C5
100
AcDbEntity
  8
0
 48
50.0
100
AcDbBlockBegin
  2
*D36
 70
     1
 10
0.0
 20
0.0
 30
0.0
  3
*D36
  1

  0
LINE
  5
171DD
330
171C5
100
AcDbEntity
  8
寸法
 62
     0
 48
50.0
370
    -2
100
AcDbLine
 10
6435.666539701071
 20
8872.017864338527
 30
0.0
 11
6327.013142170249
 21
8466.517864338523
 31
0.0
  0
LINE
  5
171DE
330
171C5
100
AcDbEntity
  8
寸法
 62
     0
 48
50.0
370
    -2
100
AcDbLine
 10
7327.666539701072
 20
8872.017864338552
 30
0.0
 11
7219.013142170242
 21
8466.517864338523
 31
0.0
  0
LINE
  5
171DF
330
171C5
100
AcDbEntity
  8
寸法
 62
     0
 48
50.0
370
    -2
100
AcDbLine
 10
6343.090093716117
 20
8526.517864338522
 30
0.0
 11
7235.09009371611
 21
8526.517864338522
 31
0.0
  0
INSERT
  5
171E0
330
171C5
100
AcDbEntity
  8
寸法
 62
     0
 48
50.0
370
    -2
100
AcDbBlockReference
  2
_DOTSMALL
 10
6343.090093716117
 20
8526.517864338522
 30
0.0
 41
100.0
 42
100.0
 43
100.0
 50
180.0
  0
INSERT
  5
171E1
330
171C5
100
AcDbEntity
  8
寸法
 62
     0
 48
50.0
370
    -2
100
AcDbBlockReference
  2
_DOTSMALL
 10
7235.09009371611
 20
8526.517864338522
 30
0.0
 41
100.0
 42
100.0
 43
100.0
  0
MTEXT
  5
171E2
330
171C5
100
AcDbEntity
  8
寸法
 62
     7
 48
50.0
100
AcDbMText
 10
6789.090093716113
 20
8626.558676903325
 30
0.0
 40
120.0
 41
0.0
 71
     5
 72
     1
  1
\A1;892
  7
STYLE1
 73
     1
 44
1.0
1001
ACAD
1000
MTEXTBEGIN
1070
    73
1070
     1
1070
    44
1040
1.0
1070
    74
1070
     0
1000
MTEXTEND
  0
POINT
  5
171E3
330
171C5
100
AcDbEntity
  8
DEFPOINTS
 62
     0
 48
50.0
100
AcDbPoint
 10
6441.025523549694
 20
8892.017864338525
 30
0.0
  0
POINT
  5
171E4
330
171C5
100
AcDbEntity
  8
DEFPOINTS
 62
     0
 48
50.0
100
AcDbPoint
 10
7333.025523549693
 20
8892.017864338551
 30
0.0
  0
POINT
  5
171E5
330
171C5
100
AcDbEntity
  8
DEFPOINTS
 62
     0
 48
50.0
100
AcDbPoint
 10
7235.09009371611
 20
8526.517864338522
 30
0.0
  0
ENDBLK
  5
171D0
330
171C5
100
AcDbEntity
  8
0
 48
50.0
100
AcDbBlockEnd
  0
BLOCK
  5
171DB
330
171D1
100
AcDbEntity
  8
0
 48
50.0
100
AcDbBlockBegin
  2
*D37
 70
     1
 10
0.0
 20
0.0
 30
0.0
  3
*D37
  1

  0
LINE
  5
171E6
330
171D1
100
AcDbEntity
  8
寸法
 62
     0
 48
50.0
370
    -2
100
AcDbLine
 10
7385.666539701071
 20
8872.017864338527
 30
0.0
 11
7277.013142170249
 21
8466.517864338523
 31
0.0
  0
LINE
  5
171E7
330
171D1
100
AcDbEntity
  8
寸法
 62
     0
 48
50.0
370
    -2
100
AcDbLine
 10
8277.666539701067
 20
8872.017864338632
 30
0.0
 11
8169.013142170218
 21
8466.517864338523
 31
0.0
  0
LINE
  5
171E8
330
171D1
100
AcDbEntity
  8
寸法
 62
     0
 48
50.0
370
    -2
100
AcDbLine
 10
7293.090093716116
 20
8526.517864338522
 30
0.0
 11
8185.090093716086
 21
8526.517864338522
 31
0.0
  0
INSERT
  5
171E9
330
171D1
100
AcDbEntity
  8
寸法
 62
     0
 48
50.0
370
    -2
100
AcDbBlockReference
  2
_DOTSMALL
 10
7293.090093716116
 20
8526.517864338522
 30
0.0
 41
100.0
 42
100.0
 43
100.0
 50
180.0
  0
INSERT
  5
171EA
330
171D1
100
AcDbEntity
  8
寸法
 62
     0
 48
50.0
370
    -2
100
AcDbBlockReference
  2
_DOTSMALL
 10
8185.090093716086
 20
8526.517864338522
 30
0.0
 41
100.0
 42
100.0
 43
100.0
  0
MTEXT
  5
171EB
330
171D1
100
AcDbEntity
  8
寸法
 62
     7
 48
50.0
100
AcDbMText
 10
7739.0900937161
 20
8626.558676903325
 30
0.0
 40
120.0
 41
0.0
 71
     5
 72
     1
  1
\A1;892
  7
STYLE1
 73
     1
 44
1.0
1001
ACAD
1000
MTEXTBEGIN
1070
    73
1070
     1
1070
    44
1040
1.0
1070
    74
1070
     0
1000
MTEXTEND
  0
POINT
  5
171EC
330
171D1
100
AcDbEntity
  8
DEFPOINTS
 62
     0
 48
50.0
100
AcDbPoint
 10
7391.025523549693
 20
8892.017864338525
 30
0.0
  0
POINT
  5
171ED
330
171D1
100
AcDbEntity
  8
DEFPOINTS
 62
     0
 48
50.0
100
AcDbPoint
 10
8283.025523549689
 20
8892.017864338631
 30
0.0
  0
POINT
  5
171EE
330
171D1
100
AcDbEntity
  8
DEFPOINTS
 62
     0
 48
50.0
100
AcDbPoint
 10
8185.090093716086
 20
8526.517864338522
 30
0.0
  0
ENDBLK
  5
171DC
330
171D1
100
AcDbEntity
  8
0
 48
50.0
100
AcDbBlockEnd
  0
ENDSEC
  0
SECTION
  2
ENTITIES
  0
LINE
  5
10B56
330
747D
100
AcDbEntity
  8
補助
  6
PHANTOM
 62
   230
 48
50.0
100
AcDbLine
 10
140.0
 20
0.0
 30
0.0
 11
139.9999999999995
 21
11409.6
 31
0.0
  0
LINE
  5
10B57
330
747D
100
AcDbEntity
  8
補助
  6
PHANTOM
 62
   230
 48
50.0
100
AcDbLine
 10
139.9999999999995
 20
11409.6
 30
0.0
 11
16307.2
 21
11409.6
 31
0.0
  0
LINE
  5
10B59
330
747D
100
AcDbEntity
  8
仕様書枠
  6
Continuous
 48
50.0
100
AcDbLine
 10
13107.2
 20
1200.0
 30
0.0
 11
13107.2
 21
-0.0000000000000729
 31
0.0
  0
LINE
  5
10B5C
330
747D
100
AcDbEntity
  8
仕様書枠
 48
50.0
100
AcDbLine
 10
16307.2
 20
1200.0
 30
0.0
 11
16307.2
 21
-0.0000000000000909
 31
0.0
  0
LINE
  5
10B5D
330
747D
100
AcDbEntity
  8
仕様書枠
 48
50.0
100
AcDbLine
 10
140.0
 20
0.0
 30
0.0
 11
16307.2
 21
-0.0000000000000909
 31
0.0
  0
LINE
  5
10B5E
330
747D
100
AcDbEntity
  8
補助
  6
PHANTOM
 62
   230
 48
50.0
100
AcDbLine
 10
16307.2
 20
11409.6
 30
0.0
 11
16307.2
 21
1200.0
 31
0.0
  0
LINE
  5
10B6C
330
747D
100
AcDbEntity
  8
仕様書枠
 48
50.0
100
AcDbLine
 10
13107.2
 20
1200.0
 30
0.0
 11
16307.2
 21
1200.0
 31
0.0
  0
LINE
  5
10B6D
330
747D
100
AcDbEntity
  8
補助
  6
PHANTOM
 62
   230
 48
50.0
100
AcDbLine
 10
13107.2
 20
11409.6
 30
0.0
 11
13107.2
 21
4800.0
 31
0.0
  0
LINE
  5
10B6F
330
747D
100
AcDbEntity
  8
補助
  6
PHANTOM
 62
   230
 48
50.0
100
AcDbLine
 10
13107.2
 20
4800.0
 30
0.0
 11
16307.2
 21
4800.0
 31
0.0
  0
LINE
  5
10B72
330
747D
100
AcDbEntity
  8
文字
 62
     7
 48
50.0
100
AcDbLine
 10
13187.2
 20
400.0
 30
0.0
 11
16227.2
 21
400.0
 31
0.0
  0
TEXT
  5
10B73
330
747D
100
AcDbEntity
  8
文字
 62
     7
 48
50.0
100
AcDbText
 10
13162.9790565769
 20
895.0906074299405
 30
0.0
 40
200.0
  1
外 形 図
  7
STYLE2
100
AcDbText
  0
TEXT
  5
10B74
330
747D
100
AcDbEntity
  8
文字
 62
     7
 48
50.0
100
AcDbText
 10
13201.43669998441
 20
477.2740661031255
 30
0.0
 40
160.0
  1
機種名
  7
STYLE2
100
AcDbText
  0
TEXT
  5
10B75
330
747D
100
AcDbEntity
  8
文字
 62
     7
 48
50.0
100
AcDbText
 10
13209.4053442172
 20
228.5435242569016
 30
0.0
 40
100.0
  1
○有効開口寸法 ： 685×1760(mm)
  7
STYLE2
100
AcDbText
  0
TEXT
  5
10B76
330
747D
100
AcDbEntity
  8
文字
 62
     7
 48
50.0
100
AcDbText
 10
13209.4053442172
 20
76.09434707649343
 30
0.0
 40
100.0
  1
○床面積 ： 5.21㎡(1.58坪) 　
  7
STYLE2
100
AcDbText
  0
TEXT
  5
10B79
330
747D
100
AcDbEntity
  8
文字
 62
     7
 48
50.0
100
AcDbText
 10
14524.131837222
 20
1031.557706291228
 30
0.0
 40
100.0
  1
NO.03     <縮尺> S=1/40
  7
STYLE2
100
AcDbText
  0
LINE
  5
10B7B
330
747D
100
AcDbEntity
  8
仕様書枠
 48
50.0
100
AcDbLine
 10
13107.2
 20
800.0
 30
0.0
 11
14251.2
 21
800.0
 31
0.0
  0
LINE
  5
10B88
330
747D
100
AcDbEntity
  8
仕様書枠
  6
Continuous
 48
50.0
100
AcDbLine
 10
14251.2
 20
1200.0
 30
0.0
 11
14251.2
 21
800.0
 31
0.0
  0
LINE
  5
13A41
330
747D
100
AcDbEntity
  8
Ｇ．Ｌ
100
AcDbLine
 10
3543.692122705877
 20
3114.729226123933
 30
0.0
 11
12571.39918302963
 21
3114.729226123933
 31
0.0
  0
TEXT
  5
13A63
330
747D
100
AcDbEntity
  8
部品1
100
AcDbText
 10
3528.238139980603
 20
3150.836129729834
 30
0.0
 40
125.0
  1
▽G.L
  7
STYLE2
100
AcDbText
  0
TEXT
  5
13B2F
330
747D
100
AcDbEntity
  8
部品1
100
AcDbText
 10
6056.209793586899
 20
6471.045646320195
 30
0.0
 40
135.0
  1
平面図
  7
STYLE2
100
AcDbText
  0
LWPOLYLINE
  5
13B30
330
747D
100
AcDbEntity
  8
部品1
100
AcDbPolyline
 90
        4
 70
     1
 43
0.0
 10
5966.29018375786
 20
6663.939175538719
 10
5966.29018375786
 20
6424.046853993186
 10
6729.760849986298
 20
6424.046853993186
 10
6729.760849986298
 20
6663.939175538719
  0
DIMENSION
  5
156F4
330
747D
100
AcDbEntity
  8
寸法
100
AcDbDimension
  2
*D1
 10
8960.451862606509
 20
9316.517864338605
 30
0.0
 11
8960.451862606507
 21
9680.003145712847
 31
0.0
 70
   160
 71
     5
 42
55.0
  3
INABA_S40G
100
AcDbAlignedDimension
 13
8313.025516872098
 23
9371.517864338606
 33
0.0
 14
8313.025516872098
 24
9316.517864338605
 34
0.0
 50
90.0
100
AcDbRotatedDimension
1001
ACAD
1000
DSTYLE
1002
{
1002
}
  0
DIMENSION
  5
156F5
330
747D
100
AcDbEntity
  8
寸法
100
AcDbDimension
  2
*D2
 10
8313.025516872098
 20
9587.326083963587
 30
0.0
 11
8621.510798246337
 21
9587.326083963587
 31
0.0
 70
   160
 71
     5
 42
55.0
  3
INABA_S40G
100
AcDbAlignedDimension
 13
8258.025516872098
 23
9371.517864338606
 33
0.0
 14
8313.025516872098
 24
9371.517864338606
 34
0.0
100
AcDbRotatedDimension
1001
ACAD
1000
DSTYLE
1002
{
1002
}
  0
DIMENSION
  5
156F6
330
747D
100
AcDbEntity
  8
寸法
 48
50.0
100
AcDbDimension
  2
*D3
 10
7418.025516872098
 20
9587.32608396361
 30
0.0
 11
7363.025516872098
 21
9845.539582433062
 31
0.0
 70
   160
 71
     5
 42
110.0000000000036
  3
INABA_S40G
100
AcDbAlignedDimension
 13
7308.025516872094
 23
9371.517864338628
 33
0.0
 14
7418.025516872098
 24
9371.517864338606
 34
0.0
100
AcDbRotatedDimension
1001
ACAD
1000
DSTYLE
1002
{
1070
   279
1070
     2
1002
}
  0
DIMENSION
  5
156F7
330
747D
100
AcDbEntity
  8
寸法
 48
50.0
100
AcDbDimension
  2
*D4
 10
6468.025516872097
 20
9587.32608396361
 30
0.0
 11
6413.025516872096
 21
9841.604405334757
 31
0.0
 70
   160
 71
     5
 42
110.0000000000036
  3
INABA_S40G
100
AcDbAlignedDimension
 13
6358.025516872094
 23
9371.517864338628
 33
0.0
 14
6468.025516872097
 24
9371.517864338606
 34
0.0
100
AcDbRotatedDimension
1001
ACAD
1000
DSTYLE
1002
{
1070
   279
1070
     2
1002
}
  0
DIMENSION
  5
156F8
330
747D
100
AcDbEntity
  8
寸法
100
AcDbDimension
  2
*D5
 10
7308.025516872094
 20
9587.32608396361
 30
0.0
 11
6888.025516872095
 21
9587.32608396361
 31
0.0
 70
   160
  1
2X420=<>
 71
     5
 42
839.9999999999982
  3
INABA_S40G
100
AcDbAlignedDimension
 13
6468.025516872096
 23
9371.517864338541
 33
0.0
 14
7308.025516872094
 24
9371.517864338628
 34
0.0
100
AcDbRotatedDimension
1001
ACAD
1000
DSTYLE
1002
{
1002
}
  0
DIMENSION
  5
156F9
330
747D
100
AcDbEntity
  8
寸法
100
AcDbDimension
  2
*D6
 10
4568.025516872096
 20
9587.326083963494
 30
0.0
 11
4204.540235497821
 21
9587.326083963494
 31
0.0
 70
   160
 71
     5
 42
55.00000000003456
  3
INABA_S40G
100
AcDbAlignedDimension
 13
4513.025516872061
 23
9371.517864338512
 33
0.0
 14
4568.025516872096
 24
9371.517864338512
 34
0.0
100
AcDbRotatedDimension
1001
ACAD
1000
DSTYLE
1002
{
1002
}
  0
DIMENSION
  5
156FA
330
747D
100
AcDbEntity
  8
寸法
100
AcDbDimension
  2
*D7
 10
6358.025516872094
 20
9587.32608396361
 30
0.0
 11
5938.025516872095
 21
9587.32608396361
 31
0.0
 70
   160
  1
2X420=<>
 71
     5
 42
839.9999999999982
  3
INABA_S40G
100
AcDbAlignedDimension
 13
5518.025516872096
 23
9371.517864338541
 33
0.0
 14
6358.025516872094
 24
9371.517864338628
 34
0.0
100
AcDbRotatedDimension
1001
ACAD
1000
DSTYLE
1002
{
1002
}
  0
DIMENSION
  5
156FB
330
747D
100
AcDbEntity
  8
寸法
100
AcDbDimension
  2
*D8
 10
8258.025516872093
 20
9587.32608396361
 30
0.0
 11
7838.025516872095
 21
9587.32608396361
 31
0.0
 70
   160
  1
2X420=<>
 71
     5
 42
839.9999999999982
  3
INABA_S40G
100
AcDbAlignedDimension
 13
7418.025516872096
 23
9371.517864338541
 33
0.0
 14
8258.025516872093
 24
9371.517864338628
 34
0.0
100
AcDbRotatedDimension
1001
ACAD
1000
DSTYLE
1002
{
1002
}
  0
DIMENSION
  5
156FC
330
747D
100
AcDbEntity
  8
寸法
100
AcDbDimension
  2
*D9
 10
8313.025516872071
 20
7014.415989478355
 30
0.0
 11
6413.025516872082
 21
7014.415989478355
 31
0.0
 70
   160
 71
     5
 42
3799.999999999982
  3
INABA_S40G
100
AcDbAlignedDimension
 13
4513.02551687209
 23
8001.517864338367
 33
0.0
 14
8313.025516872071
 24
8001.517864338563
 34
0.0
100
AcDbRotatedDimension
1001
ACAD
1000
DSTYLE
1002
{
1002
}
  0
LINE
  5
156FD
330
747D
100
AcDbEntity
  8
部品1
100
AcDbLine
 10
8313.025516872071
 20
8001.517864338593
 30
0.0
 11
5463.02551687209
 21
8001.517864338497
 31
0.0
  0
LINE
  5
156FE
330
747D
100
AcDbEntity
  8
部品1
100
AcDbLine
 10
4513.025516872061
 20
9371.517864338512
 30
0.0
 11
8313.025516872098
 21
9371.517864338606
 31
0.0
  0
ARC
  5
156FF
330
747D
100
AcDbEntity
  8
想像線
 48
10.0
100
AcDbCircle
 10
8130.673466194933
 20
8003.212757714136
 30
0.0
 40
722.6499369155646
100
AcDbArc
 50
180.1343808685448
 51
270.5829222700351
  0
LINE
  5
15700
330
747D
100
AcDbEntity
  8
部品1
100
AcDbLine
 10
7392.025523549692
 20
9342.017864338483
 30
0.0
 11
8284.025523549692
 21
9342.017864338592
 31
0.0
  0
LINE
  5
15702
330
747D
100
AcDbEntity
  8
部品1
100
AcDbLine
 10
7392.025523549692
 20
8892.017864338482
 30
0.0
 11
8284.025523549692
 21
8892.017864338583
 31
0.0
  0
LINE
  5
15703
330
747D
100
AcDbEntity
  8
細線
 48
50.0
100
AcDbLine
 10
8284.025523549692
 20
9342.017864338584
 30
0.0
 11
7392.025523549692
 21
8892.017864338482
 31
0.0
  0
LINE
  5
15704
330
747D
100
AcDbEntity
  8
細線
 48
50.0
100
AcDbLine
 10
8284.025523549692
 20
8892.017864338583
 30
0.0
 11
7392.025523549692
 21
9342.017864338483
 31
0.0
  0
LINE
  5
15705
330
747D
100
AcDbEntity
  8
部品1
100
AcDbLine
 10
7391.025516872021
 20
9343.517864338556
 30
0.0
 11
8285.025516872098
 21
9343.517864338606
 31
0.0
  0
LINE
  5
15706
330
747D
100
AcDbEntity
  8
部品1
 48
5.0
100
AcDbLine
 10
8270.02551687207
 20
8031.017864338549
 30
0.0
 11
7387.02551687209
 21
8031.017864338549
 31
0.0
  0
LINE
  5
15707
330
747D
100
AcDbEntity
  8
破線
 48
10.0
100
AcDbLine
 10
8233.025516872073
 20
8156.517864338599
 30
0.0
 11
7442.025516872083
 21
8156.517864338562
 31
0.0
  0
LINE
  5
15708
330
747D
100
AcDbEntity
  8
部品1
100
AcDbLine
 10
8256.52454544728
 20
8133.017970051445
 30
0.0
 11
7418.525516872072
 21
8133.017864363221
 31
0.0
  0
LINE
  5
1570A
330
747D
100
AcDbEntity
  8
部品1
100
AcDbLine
 10
8138.025516872088
 20
8027.517864338598
 30
0.0
 11
7408.025516872088
 21
8027.517864338539
 31
0.0
  0
LINE
  5
1570B
330
747D
100
AcDbEntity
  8
部品1
 48
5.0
100
AcDbLine
 10
7308.025516872091
 20
8056.517864338548
 30
0.0
 11
7308.025516872092
 21
8031.017864338549
 31
0.0
  0
LINE
  5
1570C
330
747D
100
AcDbEntity
  8
部品1
 48
5.0
100
AcDbLine
 10
7339.025516872091
 20
8056.517864338548
 30
0.0
 11
7339.025516872091
 21
8031.017864338549
 31
0.0
  0
LINE
  5
1570D
330
747D
100
AcDbEntity
  8
部品1
 48
5.0
100
AcDbLine
 10
7387.025516872093
 20
8056.517864338548
 30
0.0
 11
7387.02551687209
 21
8031.017864338549
 31
0.0
  0
LINE
  5
1570E
330
747D
100
AcDbEntity
  8
部品1
 48
5.0
100
AcDbLine
 10
7418.02551687209
 20
8056.517864338548
 30
0.0
 11
7418.025516872091
 21
8031.017864338549
 31
0.0
  0
LINE
  5
1570F
330
747D
100
AcDbEntity
  8
部品1
 48
5.0
100
AcDbLine
 10
6468.02551687209
 20
8056.517864338548
 30
0.0
 11
6468.025516872092
 21
8031.017864338549
 31
0.0
  0
LINE
  5
15710
330
747D
100
AcDbEntity
  8
部品1
 48
5.0
100
AcDbLine
 10
6358.02551687209
 20
8056.517864338548
 30
0.0
 11
6358.025516872093
 21
8031.017864338549
 31
0.0
  0
LINE
  5
15711
330
747D
100
AcDbEntity
  8
部品1
 48
5.0
100
AcDbLine
 10
6389.025516872091
 20
8056.517864338548
 30
0.0
 11
6389.025516872091
 21
8031.017864338549
 31
0.0
  0
LINE
  5
15712
330
747D
100
AcDbEntity
  8
部品1
 48
5.0
100
AcDbLine
 10
6437.025516872093
 20
8056.517864338548
 30
0.0
 11
6437.02551687209
 21
8031.017864338549
 31
0.0
  0
LINE
  5
15713
330
747D
100
AcDbEntity
  8
部品1
 48
2.83
100
AcDbLine
 10
4513.02551687209
 20
8001.517864338431
 30
0.0
 11
4513.02551687209
 21
8056.517864338431
 31
0.0
  0
LINE
  5
15714
330
747D
100
AcDbEntity
  8
部品1
 48
2.83
100
AcDbLine
 10
4568.02551687209
 20
8056.517864338431
 30
0.0
 11
4568.025516872093
 21
8031.017864338432
 31
0.0
  0
LINE
  5
15715
330
747D
100
AcDbEntity
  8
部品1
100
AcDbLine
 10
4513.025516872087
 20
8056.517864338431
 30
0.0
 11
4513.02551687209
 21
8001.517864338431
 31
0.0
  0
LINE
  5
15716
330
747D
100
AcDbEntity
  8
部品1
100
AcDbLine
 10
4513.025516872061
 20
9371.517864338477
 30
0.0
 11
4513.02551687209
 21
8001.517864338469
 31
0.0
  0
DIMENSION
  5
15717
330
747D
100
AcDbEntity
  8
寸法
 48
50.0
100
AcDbDimension
  2
*D10
 10
8103.025516872088
 20
7561.694196543427
 30
0.0
 11
7760.525516872092
 21
7561.694196543427
 31
0.0
 70
   160
  1
有効開口部間口\P<>
 71
     5
 42
684.9999999999945
  3
INABA_S40G
100
AcDbAlignedDimension
 13
7418.025516872095
 23
8001.517864338504
 33
0.0
 14
8103.025516872088
 24
8001.517864338469
 34
0.0
100
AcDbRotatedDimension
  0
LINE
  5
15718
330
747D
100
AcDbEntity
  8
部品1
 48
5.0
100
AcDbLine
 10
5487.02551687209
 20
8031.01786433843
 30
0.0
 11
6389.025516872091
 21
8031.01786433849
 31
0.0
  0
LINE
  5
15719
330
747D
100
AcDbEntity
  8
部品1
100
AcDbLine
 10
6464.025516872091
 20
8001.517864338497
 30
0.0
 11
5463.02551687209
 21
8001.517864338469
 31
0.0
  0
ARC
  5
1571A
330
747D
100
AcDbEntity
  8
想像線
 48
10.0
100
AcDbCircle
 10
6230.673466194931
 20
8003.212757714116
 30
0.0
 40
722.6499369155575
100
AcDbArc
 50
180.1343808685506
 51
270.5829222700354
  0
LINE
  5
1571B
330
747D
100
AcDbEntity
  8
部品1
100
AcDbLine
 10
6238.025516872088
 20
8027.517864338562
 30
0.0
 11
5508.02551687209
 21
8027.517864338532
 31
0.0
  0
LINE
  5
1571C
330
747D
100
AcDbEntity
  8
部品1
100
AcDbLine
 10
4558.02551687209
 20
8027.51786433857
 30
0.0
 11
4558.02551687209
 21
8001.517864338534
 31
0.0
  0
LINE
  5
1571D
330
747D
100
AcDbEntity
  8
部品1
 48
2.83
100
AcDbLine
 10
4556.02551687209
 20
8031.017864338432
 30
0.0
 11
4556.02551687209
 21
8001.517864338431
 31
0.0
  0
LINE
  5
1571E
330
747D
100
AcDbEntity
  8
部品1
 48
2.83
100
AcDbLine
 10
4556.02551687209
 20
8001.517864338431
 30
0.0
 11
4513.02551687209
 21
8001.517864338431
 31
0.0
  0
LINE
  5
1571F
330
747D
100
AcDbEntity
  8
想像線
 48
10.0
100
AcDbLine
 10
6238.025516872088
 20
8001.517864338548
 30
0.0
 11
6238.025516872088
 21
7280.600220682758
 31
0.0
  0
LINE
  5
15720
330
747D
100
AcDbEntity
  8
部品1
 48
5.0
100
AcDbLine
 10
6240.025516872091
 20
8031.017864338549
 30
0.0
 11
6240.025516872091
 21
8001.517864338548
 31
0.0
  0
LINE
  5
15721
330
747D
100
AcDbEntity
  8
部品1
 48
0.2
100
AcDbLine
 10
6225.087964700768
 20
7994.515494293771
 30
0.0
 11
6230.087964700768
 21
7994.515494293771
 31
0.0
  0
ARC
  5
15722
330
747D
100
AcDbEntity
  8
細線
 48
0.2
100
AcDbCircle
 10
6230.087964700768
 20
8002.515494293771
 30
0.0
 40
4.049999999999999
100
AcDbArc
 50
194.2603506853988
 51
345.7396493146012
  0
ARC
  5
15723
330
747D
100
AcDbEntity
  8
部品1
 48
0.2
100
AcDbCircle
 10
6225.087964700768
 20
8002.515494293771
 30
0.0
 40
8.0
100
AcDbArc
 50
187.1636477221926
 51
269.9999999999992
  0
ARC
  5
15724
330
747D
100
AcDbEntity
  8
部品1
 48
0.2
100
AcDbCircle
 10
6230.087964700768
 20
8002.515494293771
 30
0.0
 40
8.0
100
AcDbArc
 50
270.0
 51
352.8363522778074
  0
LINE
  5
15725
330
747D
100
AcDbEntity
  8
部品1
100
AcDbLine
 10
6238.025516872088
 20
8027.517864338598
 30
0.0
 11
6238.025516872088
 21
8001.517864338541
 31
0.0
  0
ARC
  5
15726
330
747D
100
AcDbEntity
  8
想像線
 48
10.0
100
AcDbCircle
 10
7180.673466194929
 20
8003.212757714114
 30
0.0
 40
722.6499369155564
100
AcDbArc
 50
180.1343808685454
 51
270.5829222700355
  0
LINE
  5
15727
330
747D
100
AcDbEntity
  8
部品1
 48
5.0
100
AcDbLine
 10
6437.02551687209
 20
8031.01786433849
 30
0.0
 11
7339.025516872091
 21
8031.017864338549
 31
0.0
  0
LINE
  5
15729
330
747D
100
AcDbEntity
  8
部品1
100
AcDbLine
 10
7188.025516872089
 20
8027.517864338591
 30
0.0
 11
6458.025516872091
 21
8027.51786433857
 31
0.0
  0
LINE
  5
1572A
330
747D
100
AcDbEntity
  8
部品1
 48
5.0
100
AcDbLine
 10
6456.02551687209
 20
8031.017864338549
 30
0.0
 11
6456.02551687209
 21
8001.517864338548
 31
0.0
  0
LINE
  5
1572B
330
747D
100
AcDbEntity
  8
部品1
100
AcDbLine
 10
6456.02551687209
 20
8031.017864338497
 30
0.0
 11
6456.02551687209
 21
8001.517864338548
 31
0.0
  0
LINE
  5
1572C
330
747D
100
AcDbEntity
  8
部品1
100
AcDbLine
 10
6458.025516872091
 20
8027.51786433857
 30
0.0
 11
6458.025516872091
 21
8001.517864338534
 31
0.0
  0
LINE
  5
1572D
330
747D
100
AcDbEntity
  8
部品1
 48
5.0
100
AcDbLine
 10
6370.02551687209
 20
8031.017864338549
 30
0.0
 11
6370.02551687209
 21
8001.517864338548
 31
0.0
  0
LINE
  5
1572E
330
747D
100
AcDbEntity
  8
部品1
100
AcDbLine
 10
6370.025516872089
 20
8031.01786433849
 30
0.0
 11
6370.025516872087
 21
8001.517864338541
 31
0.0
  0
LINE
  5
1572F
330
747D
100
AcDbEntity
  8
部品1
 48
5.0
100
AcDbLine
 10
6370.02551687209
 20
8001.517864338548
 30
0.0
 11
6456.02551687209
 21
8001.517864338548
 31
0.0
  0
LINE
  5
15730
330
747D
100
AcDbEntity
  8
想像線
 48
10.0
100
AcDbLine
 10
7188.025516872089
 20
8001.517864338548
 30
0.0
 11
7188.025516872089
 21
7280.600220682758
 31
0.0
  0
ARC
  5
15731
330
747D
100
AcDbEntity
  8
部品1
 48
0.2
100
AcDbCircle
 10
7175.087964700768
 20
8002.515494293771
 30
0.0
 40
8.0
100
AcDbArc
 50
187.1636477221926
 51
269.9999999999992
  0
LINE
  5
15732
330
747D
100
AcDbEntity
  8
部品1
 48
5.0
100
AcDbLine
 10
7190.02551687209
 20
8031.017864338549
 30
0.0
 11
7190.02551687209
 21
8001.517864338548
 31
0.0
  0
LINE
  5
15733
330
747D
100
AcDbEntity
  8
部品1
 48
0.2
100
AcDbLine
 10
7175.087964700768
 20
7994.515494293771
 30
0.0
 11
7180.087964700767
 21
7994.515494293771
 31
0.0
  0
ARC
  5
15734
330
747D
100
AcDbEntity
  8
細線
 48
0.2
100
AcDbCircle
 10
7180.087964700767
 20
8002.515494293771
 30
0.0
 40
4.049999999999999
100
AcDbArc
 50
194.2603506853988
 51
345.7396493146012
  0
ARC
  5
15735
330
747D
100
AcDbEntity
  8
部品1
 48
0.2
100
AcDbCircle
 10
7180.087964700767
 20
8002.515494293771
 30
0.0
 40
8.0
100
AcDbArc
 50
270.0
 51
352.8363522778074
  0
LINE
  5
15736
330
747D
100
AcDbEntity
  8
部品1
100
AcDbLine
 10
7188.025516872089
 20
8027.517864338598
 30
0.0
 11
7188.025516872089
 21
8001.517864338541
 31
0.0
  0
LINE
  5
15737
330
747D
100
AcDbEntity
  8
部品1
 48
5.0
100
AcDbLine
 10
7320.02551687209
 20
8001.517864338548
 30
0.0
 11
7406.02551687209
 21
8001.517864338548
 31
0.0
  0
LINE
  5
15738
330
747D
100
AcDbEntity
  8
部品1
 48
5.0
100
AcDbLine
 10
7320.02551687209
 20
8031.017864338549
 30
0.0
 11
7320.02551687209
 21
8001.517864338548
 31
0.0
  0
LINE
  5
15739
330
747D
100
AcDbEntity
  8
部品1
100
AcDbLine
 10
7320.025516872089
 20
8031.01786433849
 30
0.0
 11
7320.025516872087
 21
8001.517864338541
 31
0.0
  0
LINE
  5
1573A
330
747D
100
AcDbEntity
  8
部品1
 48
5.0
100
AcDbLine
 10
7406.02551687209
 20
8031.017864338549
 30
0.0
 11
7406.02551687209
 21
8001.517864338548
 31
0.0
  0
LINE
  5
1573B
330
747D
100
AcDbEntity
  8
部品1
100
AcDbLine
 10
7408.025516872088
 20
8027.517864338539
 30
0.0
 11
7408.025516872086
 21
8001.517864338548
 31
0.0
  0
LINE
  5
1573C
330
747D
100
AcDbEntity
  8
部品1
100
AcDbLine
 10
7406.02551687209
 20
8031.017864338497
 30
0.0
 11
7406.02551687209
 21
8001.517864338548
 31
0.0
  0
LINE
  5
1573D
330
747D
100
AcDbEntity
  8
部品1
100
AcDbLine
 10
5492.025523549692
 20
9342.017864338483
 30
0.0
 11
6384.025523549691
 21
9342.017864338592
 31
0.0
  0
LINE
  5
1573E
330
747D
100
AcDbEntity
  8
部品1
100
AcDbLine
 10
5491.025516872095
 20
9343.517864338512
 30
0.0
 11
6410.40621989072
 21
9343.517864338535
 31
0.0
  0
LINE
  5
15740
330
747D
100
AcDbEntity
  8
部品1
100
AcDbLine
 10
5492.025523549692
 20
8892.017864338482
 30
0.0
 11
6384.025523549691
 21
8892.017864338583
 31
0.0
  0
LINE
  5
15741
330
747D
100
AcDbEntity
  8
部品1
100
AcDbLine
 10
6357.526087320253
 20
8133.017283518592
 30
0.0
 11
5519.526488298485
 21
8133.016782030066
 31
0.0
  0
LINE
  5
15742
330
747D
100
AcDbEntity
  8
破線
 48
10.0
100
AcDbLine
 10
6334.025516872084
 20
8156.517864338534
 30
0.0
 11
5543.025516872083
 21
8156.517864338519
 31
0.0
  0
LINE
  5
15743
330
747D
100
AcDbEntity
  8
細線
 48
50.0
100
AcDbLine
 10
6384.025523549691
 20
8892.017864338583
 30
0.0
 11
5492.025523549692
 21
9342.017864338483
 31
0.0
  0
LINE
  5
15744
330
747D
100
AcDbEntity
  8
細線
 48
50.0
100
AcDbLine
 10
6384.025523549691
 20
9342.017864338584
 30
0.0
 11
5492.025523549692
 21
8892.017864338482
 31
0.0
  0
LINE
  5
15745
330
747D
100
AcDbEntity
  8
部品1
 48
50.0
100
AcDbLine
 10
5937.525516872083
 20
8892.017864338534
 30
0.0
 11
5937.52535399998
 21
8133.017032175336
 31
0.0
  0
LINE
  5
15746
330
747D
100
AcDbEntity
  8
破線
 48
10.0
100
AcDbLine
 10
4593.025581796797
 20
8892.017864338518
 30
0.0
 11
4593.025569173775
 21
8749.017892592991
 31
0.0
  0
LINE
  5
15747
330
747D
100
AcDbEntity
  8
部品1
 48
5.0
100
AcDbLine
 10
4569.526488297053
 20
8133.017864338606
 30
0.0
 11
4569.525995365743
 21
8892.017864338518
 31
0.0
  0
LINE
  5
15748
330
747D
100
AcDbEntity
  8
部品1
100
AcDbLine
 10
4541.025516872072
 20
8056.517864338461
 30
0.0
 11
4541.025516872095
 21
9343.517864338512
 31
0.0
  0
LINE
  5
15749
330
747D
100
AcDbEntity
  8
部品1
 48
50.0
100
AcDbLine
 10
4569.526488298484
 20
8133.016782030066
 30
0.0
 11
4541.025516872072
 21
8103.997611097602
 31
0.0
  0
LINE
  5
1574A
330
747D
100
AcDbEntity
  8
部品1
 48
2.83
100
AcDbLine
 10
4513.02551687209
 20
8056.517864338431
 30
0.0
 11
4536.02551687209
 21
8056.517864338431
 31
0.0
  0
LINE
  5
1574B
330
747D
100
AcDbEntity
  8
部品1
 48
2.83
100
AcDbLine
 10
4545.02551687209
 20
8056.517864338431
 30
0.0
 11
4568.02551687209
 21
8056.517864338431
 31
0.0
  0
LINE
  5
1574C
330
747D
100
AcDbEntity
  8
部品1
100
AcDbLine
 10
4541.025516872072
 20
8056.517864338431
 30
0.0
 11
4513.025516872087
 21
8056.517864338431
 31
0.0
  0
LINE
  5
1574D
330
747D
100
AcDbEntity
  8
部品1
100
AcDbLine
 10
4541.025516872072
 20
8056.517864338461
 30
0.0
 11
4513.025516872087
 21
8056.517864338461
 31
0.0
  0
LINE
  5
1574E
330
747D
100
AcDbEntity
  8
部品1
100
AcDbLine
 10
4541.025516872087
 20
8056.517864338475
 30
0.0
 11
4513.025516872087
 21
8056.517864338475
 31
0.0
  0
LINE
  5
1574F
330
747D
100
AcDbEntity
  8
部品1
100
AcDbLine
 10
4541.02551687207
 20
8476.517864338475
 30
0.0
 11
4513.025516872071
 21
8476.517864338475
 31
0.0
  0
LINE
  5
15750
330
747D
100
AcDbEntity
  8
部品1
 48
50.0
100
AcDbLine
 10
4542.025523549692
 20
9342.017864338476
 30
0.0
 11
4542.025523549692
 21
8892.017864338482
 31
0.0
  0
LINE
  5
15751
330
747D
100
AcDbEntity
  8
部品1
100
AcDbLine
 10
4541.02551687207
 20
8896.517864338475
 30
0.0
 11
4513.025516872071
 21
8896.517864338475
 31
0.0
  0
LINE
  5
15752
330
747D
100
AcDbEntity
  8
部品1
 48
50.0
100
AcDbLine
 10
4542.525523549683
 20
9342.017864338483
 30
0.0
 11
4541.025516872061
 21
9343.517864338476
 31
0.0
  0
LINE
  5
15753
330
747D
100
AcDbEntity
  8
部品1
100
AcDbLine
 10
4568.025516872061
 20
9371.517864338477
 30
0.0
 11
4568.025516872063
 21
9343.517864338476
 31
0.0
  0
LINE
  5
15754
330
747D
100
AcDbEntity
  8
部品1
100
AcDbLine
 10
4568.025516872096
 20
9371.517864338512
 30
0.0
 11
4568.025516872096
 21
9343.517864338512
 31
0.0
  0
LINE
  5
15755
330
747D
100
AcDbEntity
  8
部品1
100
AcDbLine
 10
4541.025516872063
 20
9316.517864338482
 30
0.0
 11
4513.025516872063
 21
9316.517864338482
 31
0.0
  0
LINE
  5
15756
330
747D
100
AcDbEntity
  8
部品1
100
AcDbLine
 10
5937.525516872027
 20
9371.517864338468
 30
0.0
 11
5937.525516872028
 21
9343.517864338467
 31
0.0
  0
LINE
  5
15757
330
747D
100
AcDbEntity
  8
部品1
100
AcDbLine
 10
5937.525516872061
 20
9371.517864338505
 30
0.0
 11
5937.525516872061
 21
9343.517864338505
 31
0.0
  0
LINE
  5
15758
330
747D
100
AcDbEntity
  8
部品1
 48
50.0
100
AcDbLine
 10
7418.525510527789
 20
8133.017864363214
 30
0.0
 11
7418.525513500651
 21
8892.017864338555
 31
0.0
  0
LINE
  5
15759
330
747D
100
AcDbEntity
  8
部品1
 48
50.0
100
AcDbLine
 10
7307.525516872074
 20
8133.017864338555
 30
0.0
 11
7307.52551687205
 21
8892.017864338614
 31
0.0
  0
LINE
  5
1575A
330
747D
100
AcDbEntity
  8
破線
 48
10.0
100
AcDbLine
 10
7284.025516872083
 20
8156.517864338555
 30
0.0
 11
7284.02551070982
 21
8699.017781515218
 31
0.0
  0
LINE
  5
1575B
330
747D
100
AcDbEntity
  8
破線
 48
10.0
100
AcDbLine
 10
7442.025516872083
 20
8156.517864338562
 30
0.0
 11
7442.025507702979
 21
8699.017774993373
 31
0.0
  0
LINE
  5
1575C
330
747D
100
AcDbEntity
  8
部品1
 48
50.0
100
AcDbLine
 10
6887.525516872084
 20
8892.017864338534
 30
0.0
 11
6887.525353999979
 21
8133.017032175336
 31
0.0
  0
LINE
  5
1575D
330
747D
100
AcDbEntity
  8
部品1
 48
50.0
100
AcDbLine
 10
6468.525510527789
 20
8133.017864363214
 30
0.0
 11
6468.525513500651
 21
8892.017864338555
 31
0.0
  0
LINE
  5
1575E
330
747D
100
AcDbEntity
  8
破線
 48
10.0
100
AcDbLine
 10
6492.025516872082
 20
8156.517864338562
 30
0.0
 11
6492.025507702976
 21
8699.017814207008
 31
0.0
  0
LINE
  5
1575F
330
747D
100
AcDbEntity
  8
部品1
 48
50.0
100
AcDbLine
 10
6357.525516872074
 20
8133.017864338555
 30
0.0
 11
6357.525516872051
 21
8892.017864338614
 31
0.0
  0
LINE
  5
15760
330
747D
100
AcDbEntity
  8
破線
 48
10.0
100
AcDbLine
 10
6334.025516872084
 20
8156.517864338555
 30
0.0
 11
6334.02551070982
 21
8699.017820728851
 31
0.0
  0
LINE
  5
15762
330
747D
100
AcDbEntity
  8
部品1
 48
50.0
100
AcDbLine
 10
6413.025516872076
 20
8056.517864338548
 30
0.0
 11
6413.025516872076
 21
9316.517864338555
 31
0.0
  0
LINE
  5
15763
330
747D
100
AcDbEntity
  8
部品1
 48
50.0
100
AcDbLine
 10
6385.025516872076
 20
8056.517864338548
 30
0.0
 11
6385.025516872022
 21
9343.517864338556
 31
0.0
  0
LINE
  5
15764
330
747D
100
AcDbEntity
  8
部品1
 48
50.0
100
AcDbLine
 10
6441.025516872077
 20
8056.517864338548
 30
0.0
 11
6441.025516872021
 21
9371.517864338555
 31
0.0
  0
LINE
  5
15765
330
747D
100
AcDbEntity
  8
部品1
 48
50.0
100
AcDbLine
 10
7363.025516872077
 20
8056.517864338548
 30
0.0
 11
7363.025516872077
 21
9316.517864338555
 31
0.0
  0
LINE
  5
15766
330
747D
100
AcDbEntity
  8
部品1
 48
50.0
100
AcDbLine
 10
7335.025516872076
 20
8056.517864338548
 30
0.0
 11
7335.025516872021
 21
9343.517864338556
 31
0.0
  0
LINE
  5
15767
330
747D
100
AcDbEntity
  8
部品1
 48
50.0
100
AcDbLine
 10
7391.025516872076
 20
8056.517864338548
 30
0.0
 11
7391.025516872021
 21
9371.517864338555
 31
0.0
  0
LINE
  5
15768
330
747D
100
AcDbEntity
  8
部品1
100
AcDbLine
 10
7307.525516872074
 20
8133.017864338555
 30
0.0
 11
6468.525023618193
 21
8133.017362141083
 31
0.0
  0
LINE
  5
15769
330
747D
100
AcDbEntity
  8
破線
 48
10.0
100
AcDbLine
 10
7284.025516872083
 20
8156.517864338555
 30
0.0
 11
6492.025516872082
 21
8156.517864338541
 31
0.0
  0
LINE
  5
1576A
330
747D
100
AcDbEntity
  8
部品1
 48
5.0
100
AcDbLine
 10
6385.025516872076
 20
8056.517864338548
 30
0.0
 11
6441.025516872077
 21
8056.517864338548
 31
0.0
  0
LINE
  5
1576B
330
747D
100
AcDbEntity
  8
部品1
 48
50.0
100
AcDbLine
 10
6468.525516872073
 20
8133.017864363221
 30
0.0
 11
6441.025516872077
 21
8105.017864338547
 31
0.0
  0
LINE
  5
1576C
330
747D
100
AcDbEntity
  8
部品1
 48
5.0
100
AcDbLine
 10
6445.02551687209
 20
8056.517864338548
 30
0.0
 11
6468.02551687209
 21
8056.517864338548
 31
0.0
  0
LINE
  5
1576D
330
747D
100
AcDbEntity
  8
部品1
 48
5.0
100
AcDbLine
 10
6381.025516872091
 20
8056.517864338548
 30
0.0
 11
6358.02551687209
 21
8056.517864338548
 31
0.0
  0
LINE
  5
1576E
330
747D
100
AcDbEntity
  8
部品1
 48
50.0
100
AcDbLine
 10
6385.025516872076
 20
8105.017864338547
 30
0.0
 11
6357.525516872074
 21
8133.017864338555
 31
0.0
  0
LINE
  5
1576F
330
747D
100
AcDbEntity
  8
部品1
 48
5.0
100
AcDbLine
 10
6413.025516872076
 20
8476.517864338548
 30
0.0
 11
6385.025516872023
 21
8476.517864338555
 31
0.0
  0
LINE
  5
15770
330
747D
100
AcDbEntity
  8
部品1
 48
50.0
100
AcDbLine
 10
7335.025516872076
 20
8105.017864338547
 30
0.0
 11
7307.525516872074
 21
8133.017864338555
 31
0.0
  0
LINE
  5
15771
330
747D
100
AcDbEntity
  8
部品1
 48
5.0
100
AcDbLine
 10
7331.02551687209
 20
8056.517864338548
 30
0.0
 11
7308.025516872091
 21
8056.517864338548
 31
0.0
  0
LINE
  5
15772
330
747D
100
AcDbEntity
  8
部品1
 48
50.0
100
AcDbLine
 10
7418.525516872072
 20
8133.017864363221
 30
0.0
 11
7391.025516872076
 21
8105.017864338547
 31
0.0
  0
LINE
  5
15773
330
747D
100
AcDbEntity
  8
部品1
 48
5.0
100
AcDbLine
 10
7395.02551687209
 20
8056.517864338548
 30
0.0
 11
7418.02551687209
 21
8056.517864338548
 31
0.0
  0
LINE
  5
15774
330
747D
100
AcDbEntity
  8
部品1
 48
5.0
100
AcDbLine
 10
7335.025516872076
 20
8056.517864338548
 30
0.0
 11
7391.025516872076
 21
8056.517864338548
 31
0.0
  0
LINE
  5
15775
330
747D
100
AcDbEntity
  8
部品1
 48
5.0
100
AcDbLine
 10
7363.025516872077
 20
8476.517864338548
 30
0.0
 11
7335.025516872024
 21
8476.517864338555
 31
0.0
  0
LINE
  5
15776
330
747D
100
AcDbEntity
  8
部品1
100
AcDbLine
 10
6442.025523549691
 20
9342.017864338483
 30
0.0
 11
7334.025523549691
 21
9342.017864338592
 31
0.0
  0
LINE
  5
15777
330
747D
100
AcDbEntity
  8
部品1
100
AcDbLine
 10
6441.025516872044
 20
9343.517864338535
 30
0.0
 11
7360.406219890697
 21
9343.517864338556
 31
0.0
  0
LINE
  5
15778
330
747D
100
AcDbEntity
  8
部品1
100
AcDbLine
 10
6442.025523549691
 20
8892.017864338482
 30
0.0
 11
7334.025523549691
 21
8892.017864338583
 31
0.0
  0
LINE
  5
15779
330
747D
100
AcDbEntity
  8
細線
 48
50.0
100
AcDbLine
 10
7334.025523549691
 20
8892.017864338583
 30
0.0
 11
6442.025523549691
 21
9342.017864338483
 31
0.0
  0
LINE
  5
1577A
330
747D
100
AcDbEntity
  8
細線
 48
50.0
100
AcDbLine
 10
7334.025523549691
 20
9342.017864338584
 30
0.0
 11
6442.025523549691
 21
8892.017864338482
 31
0.0
  0
LINE
  5
1577B
330
747D
100
AcDbEntity
  8
部品1
 48
50.0
100
AcDbLine
 10
6442.025523549691
 20
9342.017864338476
 30
0.0
 11
6442.025523549691
 21
8892.017864338482
 31
0.0
  0
LINE
  5
1577C
330
747D
100
AcDbEntity
  8
部品1
 48
50.0
100
AcDbLine
 10
6384.025523549691
 20
9342.017864338584
 30
0.0
 11
6384.025523549691
 21
8892.017864338583
 31
0.0
  0
LINE
  5
1577D
330
747D
100
AcDbEntity
  8
部品1
 48
50.0
100
AcDbLine
 10
6413.025516872067
 20
8934.517864338555
 30
0.0
 11
6441.025516872051
 21
8934.517864338555
 31
0.0
  0
LINE
  5
1577E
330
747D
100
AcDbEntity
  8
部品1
 48
50.0
100
AcDbLine
 10
6413.025516872067
 20
8896.517864338555
 30
0.0
 11
6441.025516872051
 21
8896.517864338555
 31
0.0
  0
LINE
  5
1577F
330
747D
100
AcDbEntity
  8
部品1
 48
5.0
100
AcDbLine
 10
6413.025516872076
 20
8896.517864338548
 30
0.0
 11
6385.025516872023
 21
8896.517864338555
 31
0.0
  0
LINE
  5
15780
330
747D
100
AcDbEntity
  8
部品1
 48
50.0
100
AcDbLine
 10
6442.525523549685
 20
9342.017864338483
 30
0.0
 11
6441.025516872061
 21
9343.517864338476
 31
0.0
  0
LINE
  5
15781
330
747D
100
AcDbEntity
  8
部品1
 48
50.0
100
AcDbLine
 10
6383.578124360113
 20
9342.017864338592
 30
0.0
 11
6385.025516871989
 21
9343.517864338519
 31
0.0
  0
LINE
  5
15782
330
747D
100
AcDbEntity
  8
部品1
 48
5.0
100
AcDbLine
 10
6468.025516872097
 20
9371.517864338555
 30
0.0
 11
6468.025516872095
 21
9343.517864338563
 31
0.0
  0
LINE
  5
15783
330
747D
100
AcDbEntity
  8
部品1
 48
5.0
100
AcDbLine
 10
6441.025516872025
 20
9316.517864338555
 30
0.0
 11
6385.025516872023
 21
9316.517864338555
 31
0.0
  0
LINE
  5
15784
330
747D
100
AcDbEntity
  8
部品1
 48
5.0
100
AcDbLine
 10
6387.73479131927
 20
9371.517864338555
 30
0.0
 11
6410.406219890697
 21
9343.517864338556
 31
0.0
  0
LINE
  5
15785
330
747D
100
AcDbEntity
  8
部品1
 48
5.0
100
AcDbLine
 10
6358.025516872094
 20
9343.517864338556
 30
0.0
 11
6358.025516872094
 21
9371.517864338555
 31
0.0
  0
LINE
  5
15786
330
747D
100
AcDbEntity
  8
部品1
100
AcDbLine
 10
6887.525516872061
 20
9371.51786433859
 30
0.0
 11
6887.525516872061
 21
9343.517864338592
 31
0.0
  0
LINE
  5
15787
330
747D
100
AcDbEntity
  8
部品1
100
AcDbLine
 10
6887.525516872027
 20
9371.517864338555
 30
0.0
 11
6887.525516872028
 21
9343.517864338556
 31
0.0
  0
LINE
  5
15788
330
747D
100
AcDbEntity
  8
部品1
 48
50.0
100
AcDbLine
 10
7392.025523549692
 20
9342.017864338476
 30
0.0
 11
7392.025523549692
 21
8892.017864338482
 31
0.0
  0
LINE
  5
15789
330
747D
100
AcDbEntity
  8
部品1
 48
50.0
100
AcDbLine
 10
7334.025523549691
 20
9342.017864338584
 30
0.0
 11
7334.025523549691
 21
8892.017864338583
 31
0.0
  0
LINE
  5
1578A
330
747D
100
AcDbEntity
  8
部品1
 48
50.0
100
AcDbLine
 10
7363.025516872067
 20
8934.517864338555
 30
0.0
 11
7391.025516872051
 21
8934.517864338555
 31
0.0
  0
LINE
  5
1578B
330
747D
100
AcDbEntity
  8
部品1
 48
50.0
100
AcDbLine
 10
7363.025516872067
 20
8896.517864338555
 30
0.0
 11
7391.025516872051
 21
8896.517864338555
 31
0.0
  0
LINE
  5
1578C
330
747D
100
AcDbEntity
  8
部品1
 48
5.0
100
AcDbLine
 10
7363.025516872077
 20
8896.517864338548
 30
0.0
 11
7335.025516872024
 21
8896.517864338555
 31
0.0
  0
LINE
  5
1578D
330
747D
100
AcDbEntity
  8
部品1
 48
5.0
100
AcDbLine
 10
7308.025516872094
 20
9343.517864338556
 30
0.0
 11
7308.025516872094
 21
9371.517864338555
 31
0.0
  0
LINE
  5
1578E
330
747D
100
AcDbEntity
  8
部品1
 48
50.0
100
AcDbLine
 10
7392.525523549685
 20
9342.017864338483
 30
0.0
 11
7391.025516872061
 21
9343.517864338476
 31
0.0
  0
LINE
  5
1578F
330
747D
100
AcDbEntity
  8
部品1
 48
50.0
100
AcDbLine
 10
7333.578124360112
 20
9342.017864338592
 30
0.0
 11
7335.025516871988
 21
9343.517864338519
 31
0.0
  0
LINE
  5
15790
330
747D
100
AcDbEntity
  8
部品1
 48
5.0
100
AcDbLine
 10
7391.025516872026
 20
9316.517864338555
 30
0.0
 11
7335.025516872024
 21
9316.517864338555
 31
0.0
  0
LINE
  5
15791
330
747D
100
AcDbEntity
  8
部品1
 48
5.0
100
AcDbLine
 10
7337.734791319269
 20
9371.517864338555
 30
0.0
 11
7360.406219890697
 21
9343.517864338556
 31
0.0
  0
LINE
  5
15792
330
747D
100
AcDbEntity
  8
部品1
 48
5.0
100
AcDbLine
 10
7418.025516872098
 20
9371.517864338555
 30
0.0
 11
7418.025516872095
 21
9343.517864338563
 31
0.0
  0
LINE
  5
15793
330
747D
100
AcDbEntity
  8
部品1
 48
2.83
100
AcDbLine
 10
8258.025516872072
 20
8056.517864338562
 30
0.0
 11
8258.025516872072
 21
8031.017864338563
 31
0.0
  0
DIMENSION
  5
15794
330
747D
100
AcDbEntity
  8
寸法
100
AcDbDimension
  2
*D11
 10
8960.451862606484
 20
8001.517864338593
 30
0.0
 11
8960.451862606481
 21
7623.65639743373
 31
0.0
 70
   160
 71
     5
 42
55.0
  3
INABA_S40G
100
AcDbAlignedDimension
 13
8313.025516872071
 23
8056.517864338593
 33
0.0
 14
8313.025516872071
 24
8001.517864338593
 34
0.0
 50
90.0
100
AcDbRotatedDimension
1001
ACAD
1000
DSTYLE
1002
{
1002
}
  0
DIMENSION
  5
15795
330
747D
100
AcDbEntity
  8
寸法
100
AcDbDimension
  2
*D12
 10
9269.563393422187
 20
8001.517864338593
 30
0.0
 11
9269.563393422185
 21
8686.517864338599
 31
0.0
 70
   160
 71
     5
 42
1370.000000000014
  3
INABA_S40G
100
AcDbAlignedDimension
 13
8313.025516872098
 23
9371.517864338606
 33
0.0
 14
8313.025516872071
 24
8001.517864338593
 34
0.0
 50
90.0
100
AcDbRotatedDimension
1001
ACAD
1000
DSTYLE
1002
{
1002
}
  0
LINE
  5
15796
330
747D
100
AcDbEntity
  8
部品1
100
AcDbLine
 10
8313.025516872098
 20
9371.517864338606
 30
0.0
 11
8313.025516872071
 21
8001.517864338593
 31
0.0
  0
LINE
  5
15797
330
747D
100
AcDbEntity
  8
想像線
 48
10.0
100
AcDbLine
 10
8138.025516872088
 20
8001.517864338556
 30
0.0
 11
8138.025516872088
 21
7280.600220682766
 31
0.0
  0
LINE
  5
15798
330
747D
100
AcDbEntity
  8
部品1
 48
2.83
100
AcDbLine
 10
8140.02551687207
 20
8031.017864338563
 30
0.0
 11
8140.02551687207
 21
8001.517864338563
 31
0.0
  0
ARC
  5
15799
330
747D
100
AcDbEntity
  8
細線
 48
0.2
100
AcDbCircle
 10
8130.087964700768
 20
8002.515494293785
 30
0.0
 40
4.049999999999999
100
AcDbArc
 50
194.2603506853988
 51
345.7396493146012
  0
ARC
  5
1579A
330
747D
100
AcDbEntity
  8
部品1
 48
0.2
100
AcDbCircle
 10
8125.087964700767
 20
8002.515494293785
 30
0.0
 40
8.0
100
AcDbArc
 50
187.1636477221926
 51
269.9999999999992
  0
ARC
  5
1579B
330
747D
100
AcDbEntity
  8
部品1
 48
0.2
100
AcDbCircle
 10
8130.087964700768
 20
8002.515494293785
 30
0.0
 40
8.0
100
AcDbArc
 50
270.0
 51
352.8363522778074
  0
LINE
  5
1579C
330
747D
100
AcDbEntity
  8
部品1
 48
0.2
100
AcDbLine
 10
8125.087964700767
 20
7994.515494293785
 30
0.0
 11
8130.087964700768
 21
7994.515494293785
 31
0.0
  0
LINE
  5
1579D
330
747D
100
AcDbEntity
  8
部品1
100
AcDbLine
 10
8138.025516872088
 20
8027.517864338598
 30
0.0
 11
8138.02551687209
 21
8001.517864338593
 31
0.0
  0
LINE
  5
1579E
330
747D
100
AcDbEntity
  8
部品1
 48
2.83
100
AcDbLine
 10
8270.02551687207
 20
8031.017864338563
 30
0.0
 11
8270.02551687207
 21
8001.517864338563
 31
0.0
  0
DIMENSION
  5
1579F
330
747D
100
AcDbEntity
  8
寸法
100
AcDbDimension
  2
*D13
 10
8960.451862606509
 20
8056.517864338593
 30
0.0
 11
8960.451862606507
 21
8686.517864338599
 31
0.0
 70
   160
  1
3X420=<>
 71
     5
 42
1260.000000000014
  3
INABA_S40G
100
AcDbAlignedDimension
 13
8313.025516872098
 23
9316.517864338605
 33
0.0
 14
8313.025516872071
 24
8056.517864338593
 34
0.0
 50
90.0
100
AcDbRotatedDimension
1001
ACAD
1000
DSTYLE
1002
{
1002
}
  0
LINE
  5
157A0
330
747D
100
AcDbEntity
  8
部品1
 48
5.0
100
AcDbLine
 10
8256.52454544714
 20
8133.017864338606
 30
0.0
 11
8256.525038378452
 21
8892.017864338548
 31
0.0
  0
LINE
  5
157A1
330
747D
100
AcDbEntity
  8
破線
 48
10.0
100
AcDbLine
 10
8233.025581796765
 20
8892.017864338555
 30
0.0
 11
8233.025569173737
 21
8749.017742342855
 31
0.0
  0
LINE
  5
157A2
330
747D
100
AcDbEntity
  8
部品1
 48
50.0
100
AcDbLine
 10
7837.525516872084
 20
8892.017864338534
 30
0.0
 11
7837.525353999978
 21
8133.017032175336
 31
0.0
  0
DIMENSION
  5
157A3
330
747D
100
AcDbEntity
  8
寸法
100
AcDbDimension
  2
*D14
 10
8639.383249411732
 20
8796.800048669593
 30
0.0
 11
8639.38324941173
 21
9021.800048669586
 31
0.0
 70
   160
 71
     5
 42
449.9999999999927
  3
INABA_S40G
100
AcDbAlignedDimension
 13
8284.025523549704
 23
9342.017864338476
 33
0.0
 14
8284.025523549715
 24
8892.017864338482
 34
0.0
 50
90.0
100
AcDbRotatedDimension
1001
ACAD
1000
DSTYLE
1002
{
1002
}
  0
LINE
  5
157A4
330
747D
100
AcDbEntity
  8
部品1
100
AcDbLine
 10
8285.025516872098
 20
9343.517864338606
 30
0.0
 11
8285.025516872073
 21
8056.517864338593
 31
0.0
  0
LINE
  5
157A5
330
747D
100
AcDbEntity
  8
部品1
 48
50.0
100
AcDbLine
 10
8285.025516872073
 20
8103.998799146193
 30
0.0
 11
8256.52454544728
 21
8133.017970051445
 31
0.0
  0
LINE
  5
157A6
330
747D
100
AcDbEntity
  8
部品1
 48
2.83
100
AcDbLine
 10
8281.02551687207
 20
8056.517864338562
 30
0.0
 11
8258.025516872072
 21
8056.517864338562
 31
0.0
  0
LINE
  5
157A7
330
747D
100
AcDbEntity
  8
部品1
 48
2.83
100
AcDbLine
 10
8313.025516872071
 20
8056.517864338562
 30
0.0
 11
8290.02551687207
 21
8056.517864338562
 31
0.0
  0
LINE
  5
157A8
330
747D
100
AcDbEntity
  8
部品1
100
AcDbLine
 10
8285.025516872073
 20
8056.517864338593
 30
0.0
 11
8313.025516872071
 21
8056.517864338593
 31
0.0
  0
LINE
  5
157A9
330
747D
100
AcDbEntity
  8
部品1
100
AcDbLine
 10
8285.025516872105
 20
8056.517864338607
 30
0.0
 11
8313.025516872105
 21
8056.517864338607
 31
0.0
  0
LINE
  5
157AA
330
747D
100
AcDbEntity
  8
部品1
100
AcDbLine
 10
8285.025516872098
 20
8476.517864338607
 30
0.0
 11
8313.025516872098
 21
8476.517864338607
 31
0.0
  0
LINE
  5
157AB
330
747D
100
AcDbEntity
  8
部品1
100
AcDbLine
 10
7837.52551687203
 20
9371.51786433862
 30
0.0
 11
7837.525516872033
 21
9343.51786433862
 31
0.0
  0
LINE
  5
157AC
330
747D
100
AcDbEntity
  8
部品1
100
AcDbLine
 10
7837.525516872066
 20
9371.517864338658
 30
0.0
 11
7837.525516872066
 21
9343.517864338657
 31
0.0
  0
LINE
  5
157AD
330
747D
100
AcDbEntity
  8
部品1
 48
50.0
100
AcDbLine
 10
8284.025523549692
 20
9342.017864338584
 30
0.0
 11
8284.025523549692
 21
8892.017864338583
 31
0.0
  0
LINE
  5
157AE
330
747D
100
AcDbEntity
  8
部品1
100
AcDbLine
 10
8285.025516872098
 20
8896.517864338607
 30
0.0
 11
8313.025516872098
 21
8896.517864338607
 31
0.0
  0
LINE
  5
157AF
330
747D
100
AcDbEntity
  8
部品1
 48
50.0
100
AcDbLine
 10
8283.578124360111
 20
9342.017864338592
 30
0.0
 11
8285.025516871987
 21
9343.517864338519
 31
0.0
  0
LINE
  5
157B0
330
747D
100
AcDbEntity
  8
部品1
100
AcDbLine
 10
8258.025516872098
 20
9371.517864338606
 30
0.0
 11
8258.025516872098
 21
9343.517864338606
 31
0.0
  0
LINE
  5
157B1
330
747D
100
AcDbEntity
  8
部品1
100
AcDbLine
 10
8258.025516872098
 20
9371.51786433862
 30
0.0
 11
8258.025516872098
 21
9343.51786433862
 31
0.0
  0
LINE
  5
157B2
330
747D
100
AcDbEntity
  8
部品1
100
AcDbLine
 10
8285.025516872098
 20
9316.517864338605
 30
0.0
 11
8313.025516872098
 21
9316.517864338605
 31
0.0
  0
LINE
  5
157B3
330
747D
100
AcDbEntity
  8
部品1
100
AcDbLine
 10
6458.025516872091
 20
5052.22922612393
 30
0.0
 11
7167.963069043409
 21
5052.229226123933
 31
0.0
  0
LINE
  5
157B4
330
747D
100
AcDbEntity
  8
部品1
100
AcDbLine
 10
6458.025516872091
 20
3261.229226123946
 30
0.0
 11
7167.963069043409
 21
3261.229226123951
 31
0.0
  0
LINE
  5
157B5
330
747D
100
AcDbEntity
  8
部品1
100
AcDbLine
 10
4513.02551687209
 20
5054.729226123932
 30
0.0
 11
8313.025516872091
 21
5054.729226123932
 31
0.0
  0
LINE
  5
157BC
330
747D
100
AcDbEntity
  8
部品1
100
AcDbLine
 10
4513.02551687209
 20
3214.729226123933
 30
0.0
 11
8313.025516872091
 21
3214.729226123933
 31
0.0
  0
LINE
  5
157BD
330
747D
100
AcDbEntity
  8
部品1
100
AcDbLine
 10
4513.02551687209
 20
3257.729226123937
 30
0.0
 11
8313.025516872091
 21
3257.729226123953
 31
0.0
  0
LINE
  5
157BE
330
747D
100
AcDbEntity
  8
部品1
100
AcDbLine
 10
6456.02551687209
 20
5054.729226123932
 30
0.0
 11
6456.02551687209
 21
3257.729226123953
 31
0.0
  0
LINE
  5
157BF
330
747D
100
AcDbEntity
  8
部品1
100
AcDbLine
 10
6458.025516872091
 20
5052.229226123933
 30
0.0
 11
6458.025516872091
 21
3261.229226123948
 31
0.0
  0
LINE
  5
157C0
330
747D
100
AcDbEntity
  8
部品1
100
AcDbLine
 10
4556.02551687209
 20
5054.729226123932
 30
0.0
 11
4556.02551687209
 21
3257.729226123953
 31
0.0
  0
LINE
  5
157C1
330
747D
100
AcDbEntity
  8
部品1
100
AcDbLine
 10
4513.02551687209
 20
5148.729226123935
 30
0.0
 11
4513.02551687209
 21
3114.729226123933
 31
0.0
  0
LINE
  5
157C2
330
747D
100
AcDbEntity
  8
部品1
100
AcDbLine
 10
4558.02551687209
 20
5052.229226123936
 30
0.0
 11
4558.02551687209
 21
3261.229226123938
 31
0.0
  0
LINE
  5
157C3
330
747D
100
AcDbEntity
  8
部品1
100
AcDbLine
 10
6238.025516872088
 20
5052.229226123933
 30
0.0
 11
6238.025516872091
 21
3261.229226123953
 31
0.0
  0
LINE
  5
157C4
330
747D
100
AcDbEntity
  8
部品1
100
AcDbLine
 10
6370.02551687209
 20
5054.729226123932
 30
0.0
 11
6370.02551687209
 21
3257.729226123953
 31
0.0
  0
DIMENSION
  5
157C5
330
747D
100
AcDbEntity
  8
寸法
100
AcDbDimension
  2
*D15
 10
4194.920989264487
 20
3276.229226123937
 30
0.0
 11
4194.920989264486
 21
4155.229226123934
 31
0.0
 70
   160
  1
有効開口部高サ<>
 71
     5
 42
1759.999999999996
  3
INABA_S40G
100
AcDbAlignedDimension
 13
4513.02551687209
 23
5036.229226123932
 33
0.0
 14
4513.02551687209
 24
3276.229226123937
 34
0.0
 50
90.0
100
AcDbRotatedDimension
1001
ACAD
1000
DSTYLE
1002
{
1070
   288
1070
     1
1002
}
  0
LINE
  5
157C6
330
747D
100
AcDbEntity
  8
部品1
100
AcDbLine
 10
6240.025516872091
 20
5054.729226123932
 30
0.0
 11
6240.025516872091
 21
3257.729226123953
 31
0.0
  0
LINE
  5
157C7
330
747D
100
AcDbEntity
  8
部品1
100
AcDbLine
 10
5508.02551687209
 20
3261.229226123938
 30
0.0
 11
6217.96306904341
 21
3261.229226123953
 31
0.0
  0
LINE
  5
157C9
330
747D
100
AcDbEntity
  8
部品1
100
AcDbLine
 10
6237.963069043409
 20
3261.229226123944
 30
0.0
 11
6238.025516872091
 21
3261.229226123944
 31
0.0
  0
LINE
  5
157CA
330
747D
100
AcDbEntity
  8
部品1
100
AcDbLine
 10
6237.963069043409
 20
3261.229226123953
 30
0.0
 11
6238.025516872091
 21
3261.229226123953
 31
0.0
  0
ARC
  5
157CB
330
747D
100
AcDbEntity
  8
細線
 48
0.2
100
AcDbCircle
 10
6234.963069043409
 20
3261.008716292703
 30
0.0
 40
1.0
100
AcDbArc
 50
286.6015495990217
 51
0.0
  0
LINE
  5
157CC
330
747D
100
AcDbEntity
  8
細線
 48
50.0
100
AcDbLine
 10
6233.95072189507
 20
3263.479226123953
 30
0.0
 11
6233.95072189507
 21
3265.479226123951
 31
0.0
  0
LINE
  5
157CD
330
747D
100
AcDbEntity
  8
細線
 48
0.1
100
AcDbLine
 10
6237.963069043409
 20
3260.979226123951
 30
0.0
 11
6237.963069043409
 21
3267.979226123951
 31
0.0
  0
LINE
  5
157CE
330
747D
100
AcDbEntity
  8
細線
 48
50.0
100
AcDbLine
 10
6217.96306904341
 20
3261.229226123953
 30
0.0
 11
6217.96306904341
 21
3260.979226123951
 31
0.0
  0
ARC
  5
157CF
330
747D
100
AcDbEntity
  8
細線
 48
0.2
100
AcDbCircle
 10
6224.963069043409
 20
3261.008716292703
 30
0.0
 40
1.0
100
AcDbArc
 50
179.9999999999984
 51
253.3984504009775
  0
LINE
  5
157D0
330
747D
100
AcDbEntity
  8
部品1
 48
50.0
100
AcDbLine
 10
6217.96306904341
 20
3267.979226123951
 30
0.0
 11
6217.96306904341
 21
3261.229226123953
 31
0.0
  0
LINE
  5
157D1
330
747D
100
AcDbEntity
  8
細線
 48
50.0
100
AcDbLine
 10
6226.100311849106
 20
3263.479226123953
 30
0.0
 11
6226.100311849106
 21
3265.479226123951
 31
0.0
  0
LINE
  5
157D2
330
747D
100
AcDbEntity
  8
部品1
 48
0.2
100
AcDbLine
 10
6237.963069043409
 20
3267.979226123951
 30
0.0
 11
6217.96306904341
 21
3267.979226123951
 31
0.0
  0
LINE
  5
157D3
330
747D
100
AcDbEntity
  8
細線
 48
0.2
100
AcDbLine
 10
6237.963069043409
 20
3265.479226123951
 30
0.0
 11
6217.96306904341
 21
3265.479226123951
 31
0.0
  0
LINE
  5
157D4
330
747D
100
AcDbEntity
  8
細線
 48
0.2
100
AcDbLine
 10
6235.647060339918
 20
3260.27922612395
 30
0.0
 11
6224.279077746905
 21
3260.27922612395
 31
0.0
  0
ARC
  5
157D5
330
747D
100
AcDbEntity
  8
細線
 48
0.2
100
AcDbCircle
 10
6229.96306904341
 20
3277.779226123949
 30
0.0
 40
18.49999999999796
100
AcDbArc
 50
253.3984504009772
 51
286.6015495990217
  0
LINE
  5
157D6
330
747D
100
AcDbEntity
  8
細線
 48
0.2
100
AcDbLine
 10
6237.963069043409
 20
3263.479226123951
 30
0.0
 11
6217.96306904341
 21
3263.479226123953
 31
0.0
  0
LINE
  5
157D7
330
747D
100
AcDbEntity
  8
細線
 48
0.2
100
AcDbLine
 10
6237.963069043409
 20
3260.979226123951
 30
0.0
 11
6217.96306904341
 21
3260.979226123951
 31
0.0
  0
LINE
  5
15828
330
747D
100
AcDbEntity
  8
部品1
100
AcDbLine
 10
5508.02551687209
 20
5052.229226123934
 30
0.0
 11
6217.96306904341
 21
5052.229226123934
 31
0.0
  0
LINE
  5
15829
330
747D
100
AcDbEntity
  8
部品1
100
AcDbLine
 10
6237.963069043409
 20
5052.229226123934
 30
0.0
 11
6238.025516872091
 21
5052.229226123933
 31
0.0
  0
ARC
  5
1582A
330
747D
100
AcDbEntity
  8
細線
 48
0.2
100
AcDbCircle
 10
6234.963069043409
 20
5052.449735955182
 30
0.0
 40
1.0
100
AcDbArc
 50
0.0
 51
73.39845040097829
  0
LINE
  5
1582B
330
747D
100
AcDbEntity
  8
細線
 48
50.0
100
AcDbLine
 10
6217.96306904341
 20
5052.229226123934
 30
0.0
 11
6217.96306904341
 21
5052.479226123935
 31
0.0
  0
ARC
  5
1582C
330
747D
100
AcDbEntity
  8
細線
 48
0.2
100
AcDbCircle
 10
6224.963069043409
 20
5052.449735955182
 30
0.0
 40
1.0
100
AcDbArc
 50
106.6015495990225
 51
180.0000000000016
  0
LINE
  5
1582D
330
747D
100
AcDbEntity
  8
細線
 48
0.2
100
AcDbLine
 10
6237.963069043409
 20
5052.479226123935
 30
0.0
 11
6217.96306904341
 21
5052.479226123935
 31
0.0
  0
LINE
  5
1582E
330
747D
100
AcDbEntity
  8
細線
 48
0.2
100
AcDbLine
 10
6237.963069043409
 20
5049.979226123935
 30
0.0
 11
6217.96306904341
 21
5049.979226123935
 31
0.0
  0
ARC
  5
1582F
330
747D
100
AcDbEntity
  8
細線
 48
0.2
100
AcDbCircle
 10
6229.96306904341
 20
5035.679226123937
 30
0.0
 40
18.49999999999796
100
AcDbArc
 50
73.39845040097829
 51
106.6015495990228
  0
LINE
  5
15830
330
747D
100
AcDbEntity
  8
細線
 48
0.2
100
AcDbLine
 10
6235.647060339918
 20
5053.179226123935
 30
0.0
 11
6224.279077746905
 21
5053.179226123935
 31
0.0
  0
LINE
  5
15831
330
747D
100
AcDbEntity
  8
細線
 48
0.2
100
AcDbLine
 10
6237.963069043409
 20
5047.979226123935
 30
0.0
 11
6217.96306904341
 21
5047.979226123935
 31
0.0
  0
LINE
  5
15832
330
747D
100
AcDbEntity
  8
部品1
 48
0.2
100
AcDbLine
 10
6237.963069043409
 20
5045.479226123934
 30
0.0
 11
6217.96306904341
 21
5045.479226123934
 31
0.0
  0
LINE
  5
15833
330
747D
100
AcDbEntity
  8
部品1
 48
50.0
100
AcDbLine
 10
6217.96306904341
 20
5045.479226123934
 30
0.0
 11
6217.96306904341
 21
5052.229226123934
 31
0.0
  0
LINE
  5
15834
330
747D
100
AcDbEntity
  8
細線
 48
50.0
100
AcDbLine
 10
6226.100311849106
 20
5049.979226123935
 30
0.0
 11
6226.100311849106
 21
5047.979226123935
 31
0.0
  0
LINE
  5
15835
330
747D
100
AcDbEntity
  8
細線
 48
0.1
100
AcDbLine
 10
6237.963069043409
 20
5052.479226123935
 30
0.0
 11
6237.963069043409
 21
5045.479226123934
 31
0.0
  0
LINE
  5
15836
330
747D
100
AcDbEntity
  8
細線
 48
50.0
100
AcDbLine
 10
6233.95072189507
 20
5049.979226123935
 30
0.0
 11
6233.95072189507
 21
5047.979226123935
 31
0.0
  0
LINE
  5
15851
330
747D
100
AcDbEntity
  8
部品1
100
AcDbLine
 10
7320.02551687209
 20
5054.729226123932
 30
0.0
 11
7320.02551687209
 21
3257.729226123953
 31
0.0
  0
LINE
  5
15852
330
747D
100
AcDbEntity
  8
部品1
100
AcDbLine
 10
7188.025516872091
 20
5052.229226123933
 30
0.0
 11
7188.025516872091
 21
3261.229226123955
 31
0.0
  0
LINE
  5
15853
330
747D
100
AcDbEntity
  8
部品1
100
AcDbLine
 10
7190.02551687209
 20
5054.729226123932
 30
0.0
 11
7190.02551687209
 21
3257.729226123953
 31
0.0
  0
LINE
  5
15854
330
747D
100
AcDbEntity
  8
部品1
100
AcDbLine
 10
7406.02551687209
 20
5054.729226123932
 30
0.0
 11
7406.02551687209
 21
3257.729226123953
 31
0.0
  0
LINE
  5
15855
330
747D
100
AcDbEntity
  8
部品1
100
AcDbLine
 10
7408.025516872091
 20
5052.22922612393
 30
0.0
 11
7408.025516872091
 21
3261.229226123948
 31
0.0
  0
LINE
  5
15856
330
747D
100
AcDbEntity
  8
部品1
100
AcDbLine
 10
8138.025516872088
 20
5052.229226123933
 30
0.0
 11
8138.02551687209
 21
3261.229226123955
 31
0.0
  0
LINE
  5
15857
330
747D
100
AcDbEntity
  8
部品1
100
AcDbLine
 10
8313.025516872091
 20
5148.729226123934
 30
0.0
 11
8313.025516872091
 21
3114.729226123933
 31
0.0
  0
LINE
  5
15858
330
747D
100
AcDbEntity
  8
部品1
100
AcDbLine
 10
8270.02551687209
 20
5054.729226123932
 30
0.0
 11
8270.02551687209
 21
3257.729226123953
 31
0.0
  0
LINE
  5
15859
330
747D
100
AcDbEntity
  8
部品1
100
AcDbLine
 10
8140.025516872091
 20
5054.729226123932
 30
0.0
 11
8140.025516872091
 21
3257.729226123953
 31
0.0
  0
LINE
  5
1585A
330
747D
100
AcDbEntity
  8
部品1
100
AcDbLine
 10
7408.025516872091
 20
3261.229226123946
 30
0.0
 11
8117.96306904341
 21
3261.229226123951
 31
0.0
  0
LINE
  5
1585C
330
747D
100
AcDbEntity
  8
細線
 48
0.2
100
AcDbLine
 10
7187.963069043409
 20
3265.479226123951
 30
0.0
 11
7167.963069043409
 21
3265.479226123951
 31
0.0
  0
LINE
  5
1585D
330
747D
100
AcDbEntity
  8
部品1
 48
0.2
100
AcDbLine
 10
7187.963069043409
 20
3267.979226123951
 30
0.0
 11
7167.963069043409
 21
3267.979226123951
 31
0.0
  0
LINE
  5
1585E
330
747D
100
AcDbEntity
  8
部品1
100
AcDbLine
 10
7187.963069043409
 20
3261.229226123953
 30
0.0
 11
7188.025516872091
 21
3261.229226123953
 31
0.0
  0
ARC
  5
1585F
330
747D
100
AcDbEntity
  8
細線
 48
0.2
100
AcDbCircle
 10
7184.963069043409
 20
3261.008716292703
 30
0.0
 40
1.0
100
AcDbArc
 50
286.6015495990217
 51
0.0
  0
LINE
  5
15860
330
747D
100
AcDbEntity
  8
細線
 48
0.2
100
AcDbLine
 10
7187.963069043409
 20
3260.979226123951
 30
0.0
 11
7167.963069043409
 21
3260.979226123951
 31
0.0
  0
LINE
  5
15861
330
747D
100
AcDbEntity
  8
細線
 48
0.2
100
AcDbLine
 10
7187.963069043409
 20
3263.479226123951
 30
0.0
 11
7167.963069043409
 21
3263.479226123953
 31
0.0
  0
ARC
  5
15862
330
747D
100
AcDbEntity
  8
細線
 48
0.2
100
AcDbCircle
 10
7174.96306904341
 20
3261.008716292703
 30
0.0
 40
1.0
100
AcDbArc
 50
179.9999999999984
 51
253.3984504009775
  0
ARC
  5
15863
330
747D
100
AcDbEntity
  8
細線
 48
0.2
100
AcDbCircle
 10
7179.963069043409
 20
3277.779226123949
 30
0.0
 40
18.49999999999796
100
AcDbArc
 50
253.3984504009772
 51
286.6015495990217
  0
LINE
  5
15864
330
747D
100
AcDbEntity
  8
細線
 48
0.2
100
AcDbLine
 10
7185.647060339917
 20
3260.27922612395
 30
0.0
 11
7174.279077746906
 21
3260.27922612395
 31
0.0
  0
LINE
  5
15865
330
747D
100
AcDbEntity
  8
細線
 48
50.0
100
AcDbLine
 10
7167.963069043409
 20
3261.229226123953
 30
0.0
 11
7167.963069043409
 21
3260.979226123951
 31
0.0
  0
LINE
  5
15866
330
747D
100
AcDbEntity
  8
部品1
100
AcDbLine
 10
7187.963069043409
 20
3261.229226123953
 30
0.0
 11
7188.025516872091
 21
3261.229226123953
 31
0.0
  0
LINE
  5
15867
330
747D
100
AcDbEntity
  8
部品1
100
AcDbLine
 10
7187.963069043409
 20
3261.229226123955
 30
0.0
 11
7188.025516872091
 21
3261.229226123955
 31
0.0
  0
LINE
  5
15868
330
747D
100
AcDbEntity
  8
細線
 48
0.1
100
AcDbLine
 10
7187.963069043409
 20
3260.979226123951
 30
0.0
 11
7187.963069043409
 21
3267.979226123951
 31
0.0
  0
LINE
  5
15869
330
747D
100
AcDbEntity
  8
細線
 48
50.0
100
AcDbLine
 10
7176.100311849106
 20
3263.479226123953
 30
0.0
 11
7176.100311849106
 21
3265.479226123951
 31
0.0
  0
LINE
  5
1586A
330
747D
100
AcDbEntity
  8
細線
 48
50.0
100
AcDbLine
 10
7183.95072189507
 20
3263.479226123953
 30
0.0
 11
7183.95072189507
 21
3265.479226123951
 31
0.0
  0
LINE
  5
1586B
330
747D
100
AcDbEntity
  8
部品1
 48
50.0
100
AcDbLine
 10
7167.963069043409
 20
3267.979226123951
 30
0.0
 11
7167.963069043409
 21
3261.229226123953
 31
0.0
  0
LINE
  5
1586F
330
747D
100
AcDbEntity
  8
細線
 48
0.2
100
AcDbLine
 10
8137.96306904341
 20
3265.479226123951
 30
0.0
 11
8117.96306904341
 21
3265.479226123951
 31
0.0
  0
LINE
  5
15870
330
747D
100
AcDbEntity
  8
部品1
 48
0.2
100
AcDbLine
 10
8137.96306904341
 20
3267.979226123951
 30
0.0
 11
8117.96306904341
 21
3267.979226123951
 31
0.0
  0
LINE
  5
15871
330
747D
100
AcDbEntity
  8
部品1
100
AcDbLine
 10
8137.96306904341
 20
3261.229226123953
 30
0.0
 11
8138.02551687209
 21
3261.229226123953
 31
0.0
  0
ARC
  5
15872
330
747D
100
AcDbEntity
  8
細線
 48
0.2
100
AcDbCircle
 10
8134.96306904341
 20
3261.008716292703
 30
0.0
 40
1.0
100
AcDbArc
 50
286.6015495990217
 51
0.0
  0
LINE
  5
15873
330
747D
100
AcDbEntity
  8
細線
 48
0.2
100
AcDbLine
 10
8137.96306904341
 20
3260.979226123951
 30
0.0
 11
8117.96306904341
 21
3260.979226123951
 31
0.0
  0
LINE
  5
15874
330
747D
100
AcDbEntity
  8
細線
 48
0.2
100
AcDbLine
 10
8137.96306904341
 20
3263.479226123951
 30
0.0
 11
8117.96306904341
 21
3263.479226123953
 31
0.0
  0
ARC
  5
15875
330
747D
100
AcDbEntity
  8
細線
 48
0.2
100
AcDbCircle
 10
8124.96306904341
 20
3261.008716292703
 30
0.0
 40
1.0
100
AcDbArc
 50
179.9999999999984
 51
253.3984504009775
  0
ARC
  5
15876
330
747D
100
AcDbEntity
  8
細線
 48
0.2
100
AcDbCircle
 10
8129.963069043411
 20
3277.779226123949
 30
0.0
 40
18.49999999999796
100
AcDbArc
 50
253.3984504009772
 51
286.6015495990217
  0
LINE
  5
15877
330
747D
100
AcDbEntity
  8
細線
 48
0.2
100
AcDbLine
 10
8135.647060339918
 20
3260.27922612395
 30
0.0
 11
8124.279077746905
 21
3260.27922612395
 31
0.0
  0
LINE
  5
15878
330
747D
100
AcDbEntity
  8
細線
 48
50.0
100
AcDbLine
 10
8117.96306904341
 20
3261.229226123953
 30
0.0
 11
8117.96306904341
 21
3260.979226123951
 31
0.0
  0
LINE
  5
15879
330
747D
100
AcDbEntity
  8
部品1
100
AcDbLine
 10
8137.96306904341
 20
3261.229226123953
 30
0.0
 11
8138.02551687209
 21
3261.229226123953
 31
0.0
  0
LINE
  5
1587A
330
747D
100
AcDbEntity
  8
部品1
100
AcDbLine
 10
8137.96306904341
 20
3261.229226123955
 30
0.0
 11
8138.02551687209
 21
3261.229226123955
 31
0.0
  0
LINE
  5
1587B
330
747D
100
AcDbEntity
  8
細線
 48
0.1
100
AcDbLine
 10
8137.96306904341
 20
3260.979226123951
 30
0.0
 11
8137.96306904341
 21
3267.979226123951
 31
0.0
  0
LINE
  5
1587C
330
747D
100
AcDbEntity
  8
細線
 48
50.0
100
AcDbLine
 10
8126.100311849105
 20
3263.479226123953
 30
0.0
 11
8126.100311849105
 21
3265.479226123951
 31
0.0
  0
LINE
  5
1587D
330
747D
100
AcDbEntity
  8
細線
 48
50.0
100
AcDbLine
 10
8133.95072189507
 20
3263.479226123953
 30
0.0
 11
8133.95072189507
 21
3265.479226123951
 31
0.0
  0
LINE
  5
1587E
330
747D
100
AcDbEntity
  8
部品1
 48
50.0
100
AcDbLine
 10
8117.96306904341
 20
3267.979226123951
 30
0.0
 11
8117.96306904341
 21
3261.229226123953
 31
0.0
  0
LINE
  5
1587F
330
747D
100
AcDbEntity
  8
部品1
100
AcDbLine
 10
7408.025516872091
 20
5052.22922612393
 30
0.0
 11
8117.96306904341
 21
5052.229226123933
 31
0.0
  0
LINE
  5
158A7
330
747D
100
AcDbEntity
  8
部品1
100
AcDbLine
 10
7187.963069043409
 20
5052.22922612393
 30
0.0
 11
7188.025516872091
 21
5052.229226123933
 31
0.0
  0
LINE
  5
158A8
330
747D
100
AcDbEntity
  8
部品1
100
AcDbLine
 10
7187.963069043409
 20
5052.229226123934
 30
0.0
 11
7188.025516872091
 21
5052.229226123933
 31
0.0
  0
LINE
  5
158A9
330
747D
100
AcDbEntity
  8
細線
 48
50.0
100
AcDbLine
 10
7167.963069043409
 20
5052.229226123934
 30
0.0
 11
7167.963069043409
 21
5052.479226123935
 31
0.0
  0
LINE
  5
158AA
330
747D
100
AcDbEntity
  8
細線
 48
0.2
100
AcDbLine
 10
7185.647060339917
 20
5053.179226123935
 30
0.0
 11
7174.279077746906
 21
5053.179226123935
 31
0.0
  0
ARC
  5
158AB
330
747D
100
AcDbEntity
  8
細線
 48
0.2
100
AcDbCircle
 10
7179.963069043409
 20
5035.679226123937
 30
0.0
 40
18.49999999999796
100
AcDbArc
 50
73.39845040097829
 51
106.6015495990228
  0
ARC
  5
158AC
330
747D
100
AcDbEntity
  8
細線
 48
0.2
100
AcDbCircle
 10
7174.96306904341
 20
5052.449735955182
 30
0.0
 40
1.0
100
AcDbArc
 50
106.6015495990225
 51
180.0000000000016
  0
LINE
  5
158AD
330
747D
100
AcDbEntity
  8
細線
 48
0.2
100
AcDbLine
 10
7187.963069043409
 20
5049.979226123935
 30
0.0
 11
7167.963069043409
 21
5049.979226123935
 31
0.0
  0
LINE
  5
158AE
330
747D
100
AcDbEntity
  8
細線
 48
0.2
100
AcDbLine
 10
7187.963069043409
 20
5052.479226123935
 30
0.0
 11
7167.963069043409
 21
5052.479226123935
 31
0.0
  0
ARC
  5
158AF
330
747D
100
AcDbEntity
  8
細線
 48
0.2
100
AcDbCircle
 10
7184.963069043409
 20
5052.449735955182
 30
0.0
 40
1.0
100
AcDbArc
 50
0.0
 51
73.39845040097829
  0
LINE
  5
158B0
330
747D
100
AcDbEntity
  8
部品1
 48
0.2
100
AcDbLine
 10
7187.963069043409
 20
5045.479226123934
 30
0.0
 11
7167.963069043409
 21
5045.479226123934
 31
0.0
  0
LINE
  5
158B1
330
747D
100
AcDbEntity
  8
細線
 48
0.2
100
AcDbLine
 10
7187.963069043409
 20
5047.979226123935
 30
0.0
 11
7167.963069043409
 21
5047.979226123935
 31
0.0
  0
LINE
  5
158B2
330
747D
100
AcDbEntity
  8
部品1
 48
50.0
100
AcDbLine
 10
7167.963069043409
 20
5045.479226123934
 30
0.0
 11
7167.963069043409
 21
5052.229226123934
 31
0.0
  0
LINE
  5
158B3
330
747D
100
AcDbEntity
  8
細線
 48
50.0
100
AcDbLine
 10
7183.95072189507
 20
5049.979226123935
 30
0.0
 11
7183.95072189507
 21
5047.979226123935
 31
0.0
  0
LINE
  5
158B4
330
747D
100
AcDbEntity
  8
細線
 48
50.0
100
AcDbLine
 10
7176.100311849106
 20
5049.979226123935
 30
0.0
 11
7176.100311849106
 21
5047.979226123935
 31
0.0
  0
LINE
  5
158B5
330
747D
100
AcDbEntity
  8
細線
 48
0.1
100
AcDbLine
 10
7187.963069043409
 20
5052.479226123935
 30
0.0
 11
7187.963069043409
 21
5045.479226123934
 31
0.0
  0
LINE
  5
158B6
330
747D
100
AcDbEntity
  8
部品1
100
AcDbLine
 10
8137.96306904341
 20
5052.22922612393
 30
0.0
 11
8138.02551687209
 21
5052.229226123933
 31
0.0
  0
LINE
  5
158B7
330
747D
100
AcDbEntity
  8
部品1
100
AcDbLine
 10
8137.96306904341
 20
5052.229226123934
 30
0.0
 11
8138.02551687209
 21
5052.229226123933
 31
0.0
  0
LINE
  5
158B8
330
747D
100
AcDbEntity
  8
細線
 48
50.0
100
AcDbLine
 10
8117.96306904341
 20
5052.229226123934
 30
0.0
 11
8117.96306904341
 21
5052.479226123935
 31
0.0
  0
LINE
  5
158B9
330
747D
100
AcDbEntity
  8
細線
 48
0.2
100
AcDbLine
 10
8135.647060339918
 20
5053.179226123935
 30
0.0
 11
8124.279077746905
 21
5053.179226123935
 31
0.0
  0
ARC
  5
158BA
330
747D
100
AcDbEntity
  8
細線
 48
0.2
100
AcDbCircle
 10
8129.963069043411
 20
5035.679226123937
 30
0.0
 40
18.49999999999796
100
AcDbArc
 50
73.39845040097829
 51
106.6015495990228
  0
ARC
  5
158BB
330
747D
100
AcDbEntity
  8
細線
 48
0.2
100
AcDbCircle
 10
8124.96306904341
 20
5052.449735955182
 30
0.0
 40
1.0
100
AcDbArc
 50
106.6015495990225
 51
180.0000000000016
  0
LINE
  5
158BC
330
747D
100
AcDbEntity
  8
細線
 48
0.2
100
AcDbLine
 10
8137.96306904341
 20
5049.979226123935
 30
0.0
 11
8117.96306904341
 21
5049.979226123935
 31
0.0
  0
LINE
  5
158BD
330
747D
100
AcDbEntity
  8
細線
 48
0.2
100
AcDbLine
 10
8137.96306904341
 20
5052.479226123935
 30
0.0
 11
8117.96306904341
 21
5052.479226123935
 31
0.0
  0
ARC
  5
158BE
330
747D
100
AcDbEntity
  8
細線
 48
0.2
100
AcDbCircle
 10
8134.96306904341
 20
5052.449735955182
 30
0.0
 40
1.0
100
AcDbArc
 50
0.0
 51
73.39845040097829
  0
LINE
  5
158BF
330
747D
100
AcDbEntity
  8
部品1
 48
0.2
100
AcDbLine
 10
8137.96306904341
 20
5045.479226123934
 30
0.0
 11
8117.96306904341
 21
5045.479226123934
 31
0.0
  0
LINE
  5
158C0
330
747D
100
AcDbEntity
  8
細線
 48
0.2
100
AcDbLine
 10
8137.96306904341
 20
5047.979226123935
 30
0.0
 11
8117.96306904341
 21
5047.979226123935
 31
0.0
  0
LINE
  5
158C1
330
747D
100
AcDbEntity
  8
部品1
 48
50.0
100
AcDbLine
 10
8117.96306904341
 20
5045.479226123934
 30
0.0
 11
8117.96306904341
 21
5052.229226123934
 31
0.0
  0
LINE
  5
158C2
330
747D
100
AcDbEntity
  8
細線
 48
50.0
100
AcDbLine
 10
8133.95072189507
 20
5049.979226123935
 30
0.0
 11
8133.95072189507
 21
5047.979226123935
 31
0.0
  0
LINE
  5
158C3
330
747D
100
AcDbEntity
  8
細線
 48
50.0
100
AcDbLine
 10
8126.100311849105
 20
5049.979226123935
 30
0.0
 11
8126.100311849105
 21
5047.979226123935
 31
0.0
  0
LINE
  5
158C4
330
747D
100
AcDbEntity
  8
細線
 48
0.1
100
AcDbLine
 10
8137.96306904341
 20
5052.479226123935
 30
0.0
 11
8137.96306904341
 21
5045.479226123934
 31
0.0
  0
LINE
  5
15B55
330
747D
100
AcDbEntity
  8
細線
 48
50.0
100
AcDbLine
 10
5818.025516872089
 20
8027.51786433857
 30
0.0
 11
5818.025516872089
 21
8001.517864338534
 31
0.0
  0
LINE
  5
15B56
330
747D
100
AcDbEntity
  8
細線
 48
50.0
100
AcDbLine
 10
5858.025516872089
 20
8027.51786433857
 30
0.0
 11
5858.025516872089
 21
8001.517864338534
 31
0.0
  0
LINE
  5
15B57
330
747D
100
AcDbEntity
  8
細線
 48
50.0
100
AcDbLine
 10
4682.025516872089
 20
8027.517864338582
 30
0.0
 11
4682.025516872089
 21
8001.517864338534
 31
0.0
  0
LINE
  5
15B58
330
747D
100
AcDbEntity
  8
細線
 48
50.0
100
AcDbLine
 10
6085.025516872089
 20
8027.517864338785
 30
0.0
 11
6085.025516872089
 21
8001.517864338749
 31
0.0
  0
LINE
  5
15B59
330
747D
100
AcDbEntity
  8
細線
 48
50.0
100
AcDbLine
 10
6045.025516872088
 20
8027.517864338785
 30
0.0
 11
6045.025516872088
 21
8001.517864338749
 31
0.0
  0
LINE
  5
15B5A
330
747D
100
AcDbEntity
  8
細線
 48
50.0
100
AcDbLine
 10
6582.025516872089
 20
8027.517864338582
 30
0.0
 11
6582.025516872089
 21
8001.517864338534
 31
0.0
  0
LINE
  5
15B5B
330
747D
100
AcDbEntity
  8
細線
 48
50.0
100
AcDbLine
 10
6808.025516872088
 20
8027.51786433857
 30
0.0
 11
6808.025516872088
 21
8001.517864338534
 31
0.0
  0
LINE
  5
15B5C
330
747D
100
AcDbEntity
  8
細線
 48
50.0
100
AcDbLine
 10
6768.025516872089
 20
8027.51786433857
 30
0.0
 11
6768.025516872089
 21
8001.517864338534
 31
0.0
  0
LINE
  5
15B5D
330
747D
100
AcDbEntity
  8
細線
 48
50.0
100
AcDbLine
 10
6995.025516872089
 20
8027.517864338785
 30
0.0
 11
6995.025516872089
 21
8001.517864338749
 31
0.0
  0
LINE
  5
15B5E
330
747D
100
AcDbEntity
  8
細線
 48
50.0
100
AcDbLine
 10
7035.025516872089
 20
8027.517864338785
 30
0.0
 11
7035.025516872089
 21
8001.517864338749
 31
0.0
  0
LINE
  5
15B5F
330
747D
100
AcDbEntity
  8
細線
 48
50.0
100
AcDbLine
 10
7532.025516872089
 20
8027.517864338582
 30
0.0
 11
7532.025516872089
 21
8001.517864338534
 31
0.0
  0
LINE
  5
15B60
330
747D
100
AcDbEntity
  8
細線
 48
50.0
100
AcDbLine
 10
7718.025516872089
 20
8027.51786433857
 30
0.0
 11
7718.025516872089
 21
8001.517864338534
 31
0.0
  0
LINE
  5
15B61
330
747D
100
AcDbEntity
  8
細線
 48
50.0
100
AcDbLine
 10
7758.025516872088
 20
8027.51786433857
 30
0.0
 11
7758.025516872088
 21
8001.517864338534
 31
0.0
  0
LINE
  5
15B62
330
747D
100
AcDbEntity
  8
細線
 48
50.0
100
AcDbLine
 10
7985.025516872089
 20
8027.517864338785
 30
0.0
 11
7985.025516872089
 21
8001.517864338749
 31
0.0
  0
LINE
  5
15B63
330
747D
100
AcDbEntity
  8
細線
 48
50.0
100
AcDbLine
 10
7945.025516872089
 20
8027.517864338785
 30
0.0
 11
7945.025516872089
 21
8001.517864338749
 31
0.0
  0
LINE
  5
15BA9
330
747D
100
AcDbEntity
  8
部品1
100
AcDbLine
 10
4630.02551687209
 20
4102.729226123932
 30
0.0
 11
4630.02551687209
 21
4210.729226123933
 31
0.0
  0
LINE
  5
15BAA
330
747D
100
AcDbEntity
  8
細線
100
AcDbLine
 10
4628.52551687209
 20
4103.729226123933
 30
0.0
 11
4628.52551687209
 21
4209.729226123932
 31
0.0
  0
LINE
  5
15BAB
330
747D
100
AcDbEntity
  8
細線
100
AcDbLine
 10
4624.02551687209
 20
4112.729226123932
 30
0.0
 11
4624.02551687209
 21
4200.729226123932
 31
0.0
  0
ARC
  5
15BAC
330
747D
100
AcDbEntity
  8
細線
100
AcDbCircle
 10
4309.422734964166
 20
4156.729226123933
 30
0.0
 40
294.0
100
AcDbArc
 50
351.900449161722
 51
8.099550838278029
  0
ARC
  5
15BAD
330
747D
100
AcDbEntity
  8
細線
100
AcDbCircle
 10
4872.02551687209
 20
4156.729226123933
 30
0.0
 40
294.0
100
AcDbArc
 50
171.212062677364
 51
188.7879373226359
  0
ARC
  5
15BAE
330
747D
100
AcDbEntity
  8
細線
100
AcDbCircle
 10
4872.02551687209
 20
4156.729226123933
 30
0.0
 40
298.5
100
AcDbArc
 50
169.578549027269
 51
190.4214509727309
  0
ARC
  5
15BAF
330
747D
100
AcDbEntity
  8
部品1
100
AcDbCircle
 10
4872.02551687209
 20
4156.729226123933
 30
0.0
 40
300.0
100
AcDbArc
 50
169.4161974034894
 51
190.5838025965105
  0
LINE
  5
15BB0
330
747D
100
AcDbEntity
  8
細線
100
AcDbLine
 10
4596.02551687209
 20
4206.729226123933
 30
0.0
 11
4596.02551687209
 21
4106.729226123933
 31
0.0
  0
LINE
  5
15BB1
330
747D
100
AcDbEntity
  8
細線
100
AcDbLine
 10
4614.233056050836
 20
4115.729226123932
 30
0.0
 11
4614.233056050836
 21
4197.729226123932
 31
0.0
  0
ARC
  5
15BB2
330
747D
100
AcDbEntity
  8
細線
100
AcDbCircle
 10
4618.02551687209
 20
4112.729226123932
 30
0.0
 40
6.0
100
AcDbArc
 50
270.0
 51
0.0
  0
LINE
  5
15BB3
330
747D
100
AcDbEntity
  8
細線
100
AcDbLine
 10
4587.406473236568
 20
4106.729226123933
 30
0.0
 11
4618.02551687209
 21
4106.729226123933
 31
0.0
  0
ARC
  5
15BB4
330
747D
100
AcDbEntity
  8
細線
100
AcDbCircle
 10
4608.233056050836
 20
4115.729226123932
 30
0.0
 40
6.0
100
AcDbArc
 50
270.0
 51
360.0
  0
LINE
  5
15BB5
330
747D
100
AcDbEntity
  8
細線
100
AcDbLine
 10
4596.02551687209
 20
4109.729226123932
 30
0.0
 11
4608.233056050836
 21
4109.729226123932
 31
0.0
  0
ARC
  5
15BB6
330
747D
100
AcDbEntity
  8
細線
100
AcDbCircle
 10
4597.519940781925
 20
4115.729226123932
 30
0.0
 40
3.0
100
AcDbArc
 50
270.0
 51
351.9004491617184
  0
LINE
  5
15BB7
330
747D
100
AcDbEntity
  8
細線
100
AcDbLine
 10
4596.02551687209
 20
4112.729226123932
 30
0.0
 11
4597.519940781925
 21
4112.729226123932
 31
0.0
  0
ARC
  5
15BB8
330
747D
100
AcDbEntity
  8
部品1
100
AcDbCircle
 10
4624.02551687209
 20
4102.729226123932
 30
0.0
 40
6.0
100
AcDbArc
 50
270.0
 51
0.0
  0
ARC
  5
15BB9
330
747D
100
AcDbEntity
  8
細線
100
AcDbCircle
 10
4623.025516872091
 20
4103.729226123933
 30
0.0
 40
5.5
100
AcDbArc
 50
270.0
 51
0.0
  0
ARC
  5
15BBA
330
747D
100
AcDbEntity
  8
細線
100
AcDbCircle
 10
4583.858898402844
 20
4103.729226123933
 30
0.0
 40
5.5
100
AcDbArc
 50
190.4214509727298
 51
269.9999999999997
  0
ARC
  5
15BBB
330
747D
100
AcDbEntity
  8
部品1
100
AcDbCircle
 10
4583.027246981075
 20
4102.729226123932
 30
0.0
 40
6.0
100
AcDbArc
 50
190.5838025965097
 51
270.0
  0
LINE
  5
15BBC
330
747D
100
AcDbEntity
  8
部品1
100
AcDbLine
 10
4583.027246981075
 20
4096.729226123932
 30
0.0
 11
4624.02551687209
 21
4096.729226123932
 31
0.0
  0
LINE
  5
15BBD
330
747D
100
AcDbEntity
  8
細線
100
AcDbLine
 10
4583.858898402844
 20
4098.229226123932
 30
0.0
 11
4623.025516872091
 21
4098.229226123932
 31
0.0
  0
LINE
  5
15BBE
330
747D
100
AcDbEntity
  8
細線
100
AcDbLine
 10
4596.02551687209
 20
4112.729734022496
 30
0.0
 11
4582.546812373268
 21
4112.729734022496
 31
0.0
  0
ARC
  5
15BBF
330
747D
100
AcDbEntity
  8
細線
100
AcDbCircle
 10
4587.406473236568
 20
4112.729226123932
 30
0.0
 40
6.0
100
AcDbArc
 50
188.7879373226349
 51
270.0
  0
CIRCLE
  5
15BC0
330
747D
100
AcDbEntity
  8
細線
 48
50.0
100
AcDbCircle
 10
4603.526381926584
 20
4257.229226123932
 30
0.0
 40
20.0
  0
CIRCLE
  5
15BC1
330
747D
100
AcDbEntity
  8
細線
 48
50.0
100
AcDbCircle
 10
4603.526381926584
 20
4257.229226123932
 30
0.0
 40
10.0
  0
ARC
  5
15BC2
330
747D
100
AcDbEntity
  8
細線
100
AcDbCircle
 10
4618.02551687209
 20
4200.729226123932
 30
0.0
 40
6.0
100
AcDbArc
 50
0.0
 51
90.0
  0
LINE
  5
15BC3
330
747D
100
AcDbEntity
  8
細線
100
AcDbLine
 10
4618.02551687209
 20
4206.729226123933
 30
0.0
 11
4587.406473236568
 21
4206.729226123933
 31
0.0
  0
ARC
  5
15BC4
330
747D
100
AcDbEntity
  8
細線
100
AcDbCircle
 10
4608.233056050836
 20
4197.729226123932
 30
0.0
 40
6.0
100
AcDbArc
 50
0.0
 51
90.0
  0
LINE
  5
15BC5
330
747D
100
AcDbEntity
  8
細線
100
AcDbLine
 10
4608.233056050836
 20
4203.729226123932
 30
0.0
 11
4596.02551687209
 21
4203.729226123932
 31
0.0
  0
ARC
  5
15BC6
330
747D
100
AcDbEntity
  8
細線
100
AcDbCircle
 10
4597.519940781924
 20
4197.729226123932
 30
0.0
 40
3.0
100
AcDbArc
 50
8.099550838277986
 51
90.0
  0
LINE
  5
15BC7
330
747D
100
AcDbEntity
  8
細線
100
AcDbLine
 10
4597.519940781924
 20
4200.729226123932
 30
0.0
 11
4596.02551687209
 21
4200.729226123932
 31
0.0
  0
ARC
  5
15BC8
330
747D
100
AcDbEntity
  8
部品1
100
AcDbCircle
 10
4624.02551687209
 20
4210.729226123933
 30
0.0
 40
6.0
100
AcDbArc
 50
0.0
 51
90.0
  0
ARC
  5
15BC9
330
747D
100
AcDbEntity
  8
細線
100
AcDbCircle
 10
4623.025516872091
 20
4209.729226123932
 30
0.0
 40
5.5
100
AcDbArc
 50
0.0
 51
90.0
  0
ARC
  5
15BCA
330
747D
100
AcDbEntity
  8
細線
100
AcDbCircle
 10
4583.858898402844
 20
4209.729226123932
 30
0.0
 40
5.5
100
AcDbArc
 50
89.99999999999969
 51
169.5785490272683
  0
ARC
  5
15BCB
330
747D
100
AcDbEntity
  8
部品1
100
AcDbCircle
 10
4583.027246981075
 20
4210.729226123933
 30
0.0
 40
6.0
100
AcDbArc
 50
90.0
 51
169.4161974034886
  0
LINE
  5
15BCC
330
747D
100
AcDbEntity
  8
部品1
100
AcDbLine
 10
4624.02551687209
 20
4216.729226123932
 30
0.0
 11
4583.027246981075
 21
4216.729226123932
 31
0.0
  0
LINE
  5
15BCD
330
747D
100
AcDbEntity
  8
細線
100
AcDbLine
 10
4623.025516872091
 20
4215.229226123932
 30
0.0
 11
4583.858898402844
 21
4215.229226123932
 31
0.0
  0
LINE
  5
15BCE
330
747D
100
AcDbEntity
  8
細線
100
AcDbLine
 10
4596.02551687209
 20
4200.728718225371
 30
0.0
 11
4583.262189656124
 21
4200.728718225371
 31
0.0
  0
ARC
  5
15BCF
330
747D
100
AcDbEntity
  8
細線
100
AcDbCircle
 10
4587.406473236568
 20
4200.729226123932
 30
0.0
 40
6.0
100
AcDbArc
 50
90.0
 51
171.2120626773636
  0
LINE
  5
15BD0
330
747D
100
AcDbEntity
  8
部品1
100
AcDbLine
 10
6530.025516872091
 20
4102.729226123932
 30
0.0
 11
6530.025516872091
 21
4210.729226123933
 31
0.0
  0
LINE
  5
15BD1
330
747D
100
AcDbEntity
  8
細線
100
AcDbLine
 10
6528.525516872091
 20
4103.729226123933
 30
0.0
 11
6528.525516872091
 21
4209.729226123932
 31
0.0
  0
LINE
  5
15BD2
330
747D
100
AcDbEntity
  8
細線
100
AcDbLine
 10
6524.02551687209
 20
4112.729226123932
 30
0.0
 11
6524.02551687209
 21
4200.729226123932
 31
0.0
  0
ARC
  5
15BD3
330
747D
100
AcDbEntity
  8
細線
100
AcDbCircle
 10
6209.422734964166
 20
4156.729226123933
 30
0.0
 40
294.0
100
AcDbArc
 50
351.900449161722
 51
8.099550838278029
  0
ARC
  5
15BD4
330
747D
100
AcDbEntity
  8
細線
100
AcDbCircle
 10
6772.025516872091
 20
4156.729226123933
 30
0.0
 40
294.0
100
AcDbArc
 50
171.212062677364
 51
188.7879373226359
  0
ARC
  5
15BD5
330
747D
100
AcDbEntity
  8
細線
100
AcDbCircle
 10
6772.025516872091
 20
4156.729226123933
 30
0.0
 40
298.5
100
AcDbArc
 50
169.578549027269
 51
190.4214509727309
  0
ARC
  5
15BD6
330
747D
100
AcDbEntity
  8
部品1
100
AcDbCircle
 10
6772.025516872091
 20
4156.729226123933
 30
0.0
 40
300.0
100
AcDbArc
 50
169.4161974034894
 51
190.5838025965105
  0
LINE
  5
15BD7
330
747D
100
AcDbEntity
  8
細線
100
AcDbLine
 10
6496.025516872091
 20
4206.729226123933
 30
0.0
 11
6496.025516872091
 21
4106.729226123933
 31
0.0
  0
LINE
  5
15BD8
330
747D
100
AcDbEntity
  8
細線
100
AcDbLine
 10
6514.233056050837
 20
4115.729226123932
 30
0.0
 11
6514.233056050837
 21
4197.729226123932
 31
0.0
  0
ARC
  5
15BD9
330
747D
100
AcDbEntity
  8
細線
100
AcDbCircle
 10
6483.858898402845
 20
4103.729226123933
 30
0.0
 40
5.5
100
AcDbArc
 50
190.4214509727298
 51
269.9999999999997
  0
ARC
  5
15BDA
330
747D
100
AcDbEntity
  8
部品1
100
AcDbCircle
 10
6483.027246981075
 20
4102.729226123932
 30
0.0
 40
6.0
100
AcDbArc
 50
190.5838025965097
 51
270.0
  0
ARC
  5
15BDB
330
747D
100
AcDbEntity
  8
細線
100
AcDbCircle
 10
6487.406473236568
 20
4112.729226123932
 30
0.0
 40
6.0
100
AcDbArc
 50
188.7879373226349
 51
270.0
  0
ARC
  5
15BDC
330
747D
100
AcDbEntity
  8
細線
100
AcDbCircle
 10
6518.02551687209
 20
4112.729226123932
 30
0.0
 40
6.0
100
AcDbArc
 50
270.0
 51
0.0
  0
LINE
  5
15BDD
330
747D
100
AcDbEntity
  8
細線
100
AcDbLine
 10
6487.406473236568
 20
4106.729226123933
 30
0.0
 11
6518.02551687209
 21
4106.729226123933
 31
0.0
  0
ARC
  5
15BDE
330
747D
100
AcDbEntity
  8
細線
100
AcDbCircle
 10
6508.233056050837
 20
4115.729226123932
 30
0.0
 40
6.0
100
AcDbArc
 50
270.0
 51
360.0
  0
LINE
  5
15BDF
330
747D
100
AcDbEntity
  8
細線
100
AcDbLine
 10
6496.025516872091
 20
4109.729226123932
 30
0.0
 11
6508.233056050837
 21
4109.729226123932
 31
0.0
  0
ARC
  5
15BE0
330
747D
100
AcDbEntity
  8
細線
100
AcDbCircle
 10
6497.519940781926
 20
4115.729226123932
 30
0.0
 40
3.0
100
AcDbArc
 50
270.0
 51
351.9004491617184
  0
LINE
  5
15BE1
330
747D
100
AcDbEntity
  8
細線
100
AcDbLine
 10
6496.025516872091
 20
4112.729226123932
 30
0.0
 11
6497.519940781926
 21
4112.729226123932
 31
0.0
  0
ARC
  5
15BE2
330
747D
100
AcDbEntity
  8
部品1
100
AcDbCircle
 10
6524.02551687209
 20
4102.729226123932
 30
0.0
 40
6.0
100
AcDbArc
 50
270.0
 51
0.0
  0
ARC
  5
15BE3
330
747D
100
AcDbEntity
  8
細線
100
AcDbCircle
 10
6523.02551687209
 20
4103.729226123933
 30
0.0
 40
5.5
100
AcDbArc
 50
270.0
 51
0.0
  0
LINE
  5
15BE4
330
747D
100
AcDbEntity
  8
部品1
100
AcDbLine
 10
6483.027246981075
 20
4096.729226123932
 30
0.0
 11
6524.02551687209
 21
4096.729226123932
 31
0.0
  0
LINE
  5
15BE5
330
747D
100
AcDbEntity
  8
細線
100
AcDbLine
 10
6483.858898402845
 20
4098.229226123932
 30
0.0
 11
6523.02551687209
 21
4098.229226123932
 31
0.0
  0
LINE
  5
15BE6
330
747D
100
AcDbEntity
  8
細線
100
AcDbLine
 10
6496.025516872091
 20
4112.729734022496
 30
0.0
 11
6482.546812373268
 21
4112.729734022496
 31
0.0
  0
ARC
  5
15BE7
330
747D
100
AcDbEntity
  8
細線
100
AcDbCircle
 10
6483.858898402845
 20
4209.729226123932
 30
0.0
 40
5.5
100
AcDbArc
 50
89.99999999999969
 51
169.5785490272683
  0
ARC
  5
15BE8
330
747D
100
AcDbEntity
  8
部品1
100
AcDbCircle
 10
6483.027246981075
 20
4210.729226123933
 30
0.0
 40
6.0
100
AcDbArc
 50
90.0
 51
169.4161974034886
  0
ARC
  5
15BE9
330
747D
100
AcDbEntity
  8
細線
100
AcDbCircle
 10
6487.406473236568
 20
4200.729226123932
 30
0.0
 40
6.0
100
AcDbArc
 50
90.0
 51
171.2120626773636
  0
CIRCLE
  5
15BEA
330
747D
100
AcDbEntity
  8
細線
 48
50.0
100
AcDbCircle
 10
6503.526381926583
 20
4257.229226123932
 30
0.0
 40
20.0
  0
CIRCLE
  5
15BEB
330
747D
100
AcDbEntity
  8
細線
 48
50.0
100
AcDbCircle
 10
6503.526381926583
 20
4257.229226123932
 30
0.0
 40
10.0
  0
ARC
  5
15BEC
330
747D
100
AcDbEntity
  8
細線
100
AcDbCircle
 10
6518.02551687209
 20
4200.729226123932
 30
0.0
 40
6.0
100
AcDbArc
 50
0.0
 51
90.0
  0
LINE
  5
15BED
330
747D
100
AcDbEntity
  8
細線
100
AcDbLine
 10
6518.02551687209
 20
4206.729226123933
 30
0.0
 11
6487.406473236568
 21
4206.729226123933
 31
0.0
  0
ARC
  5
15BEE
330
747D
100
AcDbEntity
  8
細線
100
AcDbCircle
 10
6508.233056050837
 20
4197.729226123932
 30
0.0
 40
6.0
100
AcDbArc
 50
0.0
 51
90.0
  0
LINE
  5
15BEF
330
747D
100
AcDbEntity
  8
細線
100
AcDbLine
 10
6508.233056050837
 20
4203.729226123932
 30
0.0
 11
6496.025516872091
 21
4203.729226123932
 31
0.0
  0
ARC
  5
15BF0
330
747D
100
AcDbEntity
  8
細線
100
AcDbCircle
 10
6497.519940781923
 20
4197.729226123932
 30
0.0
 40
3.0
100
AcDbArc
 50
8.099550838277986
 51
90.0
  0
LINE
  5
15BF1
330
747D
100
AcDbEntity
  8
細線
100
AcDbLine
 10
6497.519940781923
 20
4200.729226123932
 30
0.0
 11
6496.025516872091
 21
4200.729226123932
 31
0.0
  0
ARC
  5
15BF2
330
747D
100
AcDbEntity
  8
部品1
100
AcDbCircle
 10
6524.02551687209
 20
4210.729226123933
 30
0.0
 40
6.0
100
AcDbArc
 50
0.0
 51
90.0
  0
ARC
  5
15BF3
330
747D
100
AcDbEntity
  8
細線
100
AcDbCircle
 10
6523.02551687209
 20
4209.729226123932
 30
0.0
 40
5.5
100
AcDbArc
 50
0.0
 51
90.0
  0
LINE
  5
15BF4
330
747D
100
AcDbEntity
  8
部品1
100
AcDbLine
 10
6524.02551687209
 20
4216.729226123932
 30
0.0
 11
6483.027246981075
 21
4216.729226123932
 31
0.0
  0
LINE
  5
15BF5
330
747D
100
AcDbEntity
  8
細線
100
AcDbLine
 10
6523.02551687209
 20
4215.229226123932
 30
0.0
 11
6483.858898402845
 21
4215.229226123932
 31
0.0
  0
LINE
  5
15BF6
330
747D
100
AcDbEntity
  8
細線
100
AcDbLine
 10
6496.025516872091
 20
4200.728718225371
 30
0.0
 11
6483.262189656123
 21
4200.728718225371
 31
0.0
  0
LINE
  5
15BF7
330
747D
100
AcDbEntity
  8
細線
100
AcDbLine
 10
7464.233056050836
 20
4115.729226123932
 30
0.0
 11
7464.233056050836
 21
4197.729226123932
 31
0.0
  0
LINE
  5
15BF8
330
747D
100
AcDbEntity
  8
細線
100
AcDbLine
 10
7446.02551687209
 20
4206.729226123933
 30
0.0
 11
7446.02551687209
 21
4106.729226123933
 31
0.0
  0
ARC
  5
15BF9
330
747D
100
AcDbEntity
  8
部品1
100
AcDbCircle
 10
7722.025516872091
 20
4156.729226123933
 30
0.0
 40
300.0
100
AcDbArc
 50
169.4161974034894
 51
190.5838025965105
  0
ARC
  5
15BFA
330
747D
100
AcDbEntity
  8
細線
100
AcDbCircle
 10
7722.025516872091
 20
4156.729226123933
 30
0.0
 40
298.5
100
AcDbArc
 50
169.578549027269
 51
190.4214509727309
  0
ARC
  5
15BFB
330
747D
100
AcDbEntity
  8
細線
100
AcDbCircle
 10
7722.025516872091
 20
4156.729226123933
 30
0.0
 40
294.0
100
AcDbArc
 50
171.212062677364
 51
188.7879373226359
  0
ARC
  5
15BFC
330
747D
100
AcDbEntity
  8
細線
100
AcDbCircle
 10
7159.422734964166
 20
4156.729226123933
 30
0.0
 40
294.0
100
AcDbArc
 50
351.900449161722
 51
8.099550838278029
  0
LINE
  5
15BFD
330
747D
100
AcDbEntity
  8
細線
100
AcDbLine
 10
7474.025516872091
 20
4112.729226123932
 30
0.0
 11
7474.025516872091
 21
4200.729226123932
 31
0.0
  0
LINE
  5
15BFE
330
747D
100
AcDbEntity
  8
細線
100
AcDbLine
 10
7478.525516872091
 20
4103.729226123933
 30
0.0
 11
7478.525516872091
 21
4209.729226123932
 31
0.0
  0
LINE
  5
15BFF
330
747D
100
AcDbEntity
  8
部品1
100
AcDbLine
 10
7480.025516872091
 20
4102.729226123932
 30
0.0
 11
7480.025516872091
 21
4210.729226123933
 31
0.0
  0
LINE
  5
15C00
330
747D
100
AcDbEntity
  8
細線
100
AcDbLine
 10
7433.858898402845
 20
4098.229226123932
 30
0.0
 11
7473.02551687209
 21
4098.229226123932
 31
0.0
  0
LINE
  5
15C01
330
747D
100
AcDbEntity
  8
部品1
100
AcDbLine
 10
7433.027246981075
 20
4096.729226123932
 30
0.0
 11
7474.025516872091
 21
4096.729226123932
 31
0.0
  0
LINE
  5
15C02
330
747D
100
AcDbEntity
  8
細線
100
AcDbLine
 10
7437.406473236568
 20
4106.729226123933
 30
0.0
 11
7468.02551687209
 21
4106.729226123933
 31
0.0
  0
LINE
  5
15C03
330
747D
100
AcDbEntity
  8
細線
100
AcDbLine
 10
7446.02551687209
 20
4112.729734022496
 30
0.0
 11
7432.546812373267
 21
4112.729734022496
 31
0.0
  0
LINE
  5
15C04
330
747D
100
AcDbEntity
  8
細線
100
AcDbLine
 10
7446.02551687209
 20
4112.729226123932
 30
0.0
 11
7447.519940781926
 21
4112.729226123932
 31
0.0
  0
ARC
  5
15C05
330
747D
100
AcDbEntity
  8
細線
100
AcDbCircle
 10
7447.519940781926
 20
4115.729226123932
 30
0.0
 40
3.0
100
AcDbArc
 50
270.0
 51
351.9004491617184
  0
LINE
  5
15C06
330
747D
100
AcDbEntity
  8
細線
100
AcDbLine
 10
7446.02551687209
 20
4109.729226123932
 30
0.0
 11
7458.233056050836
 21
4109.729226123932
 31
0.0
  0
ARC
  5
15C07
330
747D
100
AcDbEntity
  8
細線
100
AcDbCircle
 10
7458.233056050836
 20
4115.729226123932
 30
0.0
 40
6.0
100
AcDbArc
 50
270.0
 51
360.0
  0
ARC
  5
15C08
330
747D
100
AcDbEntity
  8
細線
100
AcDbCircle
 10
7437.406473236568
 20
4112.729226123932
 30
0.0
 40
6.0
100
AcDbArc
 50
188.7879373226349
 51
270.0
  0
ARC
  5
15C09
330
747D
100
AcDbEntity
  8
部品1
100
AcDbCircle
 10
7433.027246981075
 20
4102.729226123932
 30
0.0
 40
6.0
100
AcDbArc
 50
190.5838025965097
 51
270.0
  0
ARC
  5
15C0A
330
747D
100
AcDbEntity
  8
細線
100
AcDbCircle
 10
7433.858898402845
 20
4103.729226123933
 30
0.0
 40
5.5
100
AcDbArc
 50
190.4214509727298
 51
269.9999999999997
  0
ARC
  5
15C0B
330
747D
100
AcDbEntity
  8
細線
100
AcDbCircle
 10
7473.02551687209
 20
4103.729226123933
 30
0.0
 40
5.5
100
AcDbArc
 50
270.0
 51
0.0
  0
ARC
  5
15C0C
330
747D
100
AcDbEntity
  8
部品1
100
AcDbCircle
 10
7474.025516872091
 20
4102.729226123932
 30
0.0
 40
6.0
100
AcDbArc
 50
270.0
 51
0.0
  0
ARC
  5
15C0D
330
747D
100
AcDbEntity
  8
細線
100
AcDbCircle
 10
7468.02551687209
 20
4112.729226123932
 30
0.0
 40
6.0
100
AcDbArc
 50
270.0
 51
0.0
  0
LINE
  5
15C0E
330
747D
100
AcDbEntity
  8
細線
100
AcDbLine
 10
7473.02551687209
 20
4215.229226123932
 30
0.0
 11
7433.858898402845
 21
4215.229226123932
 31
0.0
  0
LINE
  5
15C0F
330
747D
100
AcDbEntity
  8
部品1
100
AcDbLine
 10
7474.025516872091
 20
4216.729226123932
 30
0.0
 11
7433.027246981075
 21
4216.729226123932
 31
0.0
  0
LINE
  5
15C10
330
747D
100
AcDbEntity
  8
細線
100
AcDbLine
 10
7468.02551687209
 20
4206.729226123933
 30
0.0
 11
7437.406473236568
 21
4206.729226123933
 31
0.0
  0
CIRCLE
  5
15C11
330
747D
100
AcDbEntity
  8
細線
 48
50.0
100
AcDbCircle
 10
7453.526381926583
 20
4257.229226123932
 30
0.0
 40
20.0
  0
LINE
  5
15C12
330
747D
100
AcDbEntity
  8
細線
100
AcDbLine
 10
7446.02551687209
 20
4200.728718225371
 30
0.0
 11
7433.262189656123
 21
4200.728718225371
 31
0.0
  0
LINE
  5
15C13
330
747D
100
AcDbEntity
  8
細線
100
AcDbLine
 10
7447.519940781923
 20
4200.729226123932
 30
0.0
 11
7446.02551687209
 21
4200.729226123932
 31
0.0
  0
ARC
  5
15C14
330
747D
100
AcDbEntity
  8
細線
100
AcDbCircle
 10
7447.519940781923
 20
4197.729226123932
 30
0.0
 40
3.0
100
AcDbArc
 50
8.099550838277986
 51
90.0
  0
LINE
  5
15C15
330
747D
100
AcDbEntity
  8
細線
100
AcDbLine
 10
7458.233056050836
 20
4203.729226123932
 30
0.0
 11
7446.02551687209
 21
4203.729226123932
 31
0.0
  0
ARC
  5
15C16
330
747D
100
AcDbEntity
  8
細線
100
AcDbCircle
 10
7458.233056050836
 20
4197.729226123932
 30
0.0
 40
6.0
100
AcDbArc
 50
0.0
 51
90.0
  0
CIRCLE
  5
15C17
330
747D
100
AcDbEntity
  8
細線
 48
50.0
100
AcDbCircle
 10
7453.526381926583
 20
4257.229226123932
 30
0.0
 40
10.0
  0
ARC
  5
15C18
330
747D
100
AcDbEntity
  8
細線
100
AcDbCircle
 10
7437.406473236568
 20
4200.729226123932
 30
0.0
 40
6.0
100
AcDbArc
 50
90.0
 51
171.2120626773636
  0
ARC
  5
15C19
330
747D
100
AcDbEntity
  8
部品1
100
AcDbCircle
 10
7433.027246981075
 20
4210.729226123933
 30
0.0
 40
6.0
100
AcDbArc
 50
90.0
 51
169.4161974034886
  0
ARC
  5
15C1A
330
747D
100
AcDbEntity
  8
細線
100
AcDbCircle
 10
7433.858898402845
 20
4209.729226123932
 30
0.0
 40
5.5
100
AcDbArc
 50
89.99999999999969
 51
169.5785490272683
  0
ARC
  5
15C1B
330
747D
100
AcDbEntity
  8
細線
100
AcDbCircle
 10
7473.02551687209
 20
4209.729226123932
 30
0.0
 40
5.5
100
AcDbArc
 50
0.0
 51
90.0
  0
ARC
  5
15C1C
330
747D
100
AcDbEntity
  8
部品1
100
AcDbCircle
 10
7474.025516872091
 20
4210.729226123933
 30
0.0
 40
6.0
100
AcDbArc
 50
0.0
 51
90.0
  0
ARC
  5
15C1D
330
747D
100
AcDbEntity
  8
細線
100
AcDbCircle
 10
7468.02551687209
 20
4200.729226123932
 30
0.0
 40
6.0
100
AcDbArc
 50
0.0
 51
90.0
  0
DIMENSION
  5
15C33
330
747D
100
AcDbEntity
  8
寸法
 48
50.0
100
AcDbDimension
  2
*D16
 10
7153.025516872088
 20
7561.694196543427
 30
0.0
 11
6810.52551687209
 21
7561.694196543427
 31
0.0
 70
   160
 71
     5
 42
684.9999999999945
  3
INABA_S40G
100
AcDbAlignedDimension
 13
6468.025516872095
 23
8001.517864338504
 33
0.0
 14
7153.025516872088
 24
8001.517864338469
 34
0.0
100
AcDbRotatedDimension
  0
DIMENSION
  5
15C4B
330
747D
100
AcDbEntity
  8
寸法
 48
50.0
100
AcDbDimension
  2
*D17
 10
6203.025516872089
 20
7561.694196543427
 30
0.0
 11
5860.52551687209
 21
7561.694196543427
 31
0.0
 70
   160
 71
     5
 42
684.9999999999945
  3
INABA_S40G
100
AcDbAlignedDimension
 13
5518.025516872094
 23
8001.517864338504
 33
0.0
 14
6203.025516872089
 24
8001.517864338469
 34
0.0
100
AcDbRotatedDimension
  0
LINE
  5
15C83
330
747D
100
AcDbEntity
  8
部品1
100
AcDbLine
 10
5506.025516872091
 20
5054.729226123932
 30
0.0
 11
5506.025516872091
 21
3257.729226123953
 31
0.0
  0
LINE
  5
15C84
330
747D
100
AcDbEntity
  8
部品1
100
AcDbLine
 10
5508.02551687209
 20
5052.229226123933
 30
0.0
 11
5508.02551687209
 21
3261.229226123948
 31
0.0
  0
LINE
  5
15C85
330
747D
100
AcDbEntity
  8
部品1
100
AcDbLine
 10
5288.025516872089
 20
5052.229226123933
 30
0.0
 11
5288.025516872091
 21
3261.229226123953
 31
0.0
  0
LINE
  5
15C86
330
747D
100
AcDbEntity
  8
部品1
100
AcDbLine
 10
5420.02551687209
 20
5054.729226123932
 30
0.0
 11
5420.02551687209
 21
3257.729226123953
 31
0.0
  0
LINE
  5
15C87
330
747D
100
AcDbEntity
  8
部品1
100
AcDbLine
 10
5290.02551687209
 20
5054.729226123932
 30
0.0
 11
5290.02551687209
 21
3257.729226123953
 31
0.0
  0
LINE
  5
15C88
330
747D
100
AcDbEntity
  8
部品1
100
AcDbLine
 10
4558.02551687209
 20
3261.229226123938
 30
0.0
 11
5267.96306904341
 21
3261.229226123953
 31
0.0
  0
LINE
  5
15C89
330
747D
100
AcDbEntity
  8
細線
 48
50.0
100
AcDbLine
 10
5283.950721895069
 20
3263.479226123953
 30
0.0
 11
5283.950721895069
 21
3265.479226123951
 31
0.0
  0
LINE
  5
15C8A
330
747D
100
AcDbEntity
  8
細線
 48
0.1
100
AcDbLine
 10
5287.96306904341
 20
3260.979226123951
 30
0.0
 11
5287.96306904341
 21
3267.979226123951
 31
0.0
  0
LINE
  5
15C8B
330
747D
100
AcDbEntity
  8
部品1
 48
50.0
100
AcDbLine
 10
5267.96306904341
 20
3267.979226123951
 30
0.0
 11
5267.96306904341
 21
3261.229226123953
 31
0.0
  0
LINE
  5
15C8C
330
747D
100
AcDbEntity
  8
細線
 48
50.0
100
AcDbLine
 10
5276.100311849106
 20
3263.479226123953
 30
0.0
 11
5276.100311849106
 21
3265.479226123951
 31
0.0
  0
LINE
  5
15C8D
330
747D
100
AcDbEntity
  8
部品1
100
AcDbLine
 10
5287.96306904341
 20
3261.229226123944
 30
0.0
 11
5288.025516872091
 21
3261.229226123944
 31
0.0
  0
LINE
  5
15C8E
330
747D
100
AcDbEntity
  8
部品1
100
AcDbLine
 10
5287.96306904341
 20
3261.229226123953
 30
0.0
 11
5288.025516872091
 21
3261.229226123953
 31
0.0
  0
ARC
  5
15C8F
330
747D
100
AcDbEntity
  8
細線
 48
0.2
100
AcDbCircle
 10
5284.96306904341
 20
3261.008716292703
 30
0.0
 40
1.0
100
AcDbArc
 50
286.6015495990217
 51
0.0
  0
LINE
  5
15C90
330
747D
100
AcDbEntity
  8
細線
 48
50.0
100
AcDbLine
 10
5267.96306904341
 20
3261.229226123953
 30
0.0
 11
5267.96306904341
 21
3260.979226123951
 31
0.0
  0
ARC
  5
15C91
330
747D
100
AcDbEntity
  8
細線
 48
0.2
100
AcDbCircle
 10
5274.963069043409
 20
3261.008716292703
 30
0.0
 40
1.0
100
AcDbArc
 50
179.9999999999984
 51
253.3984504009775
  0
LINE
  5
15C92
330
747D
100
AcDbEntity
  8
細線
 48
0.2
100
AcDbLine
 10
5285.647060339917
 20
3260.27922612395
 30
0.0
 11
5274.279077746905
 21
3260.27922612395
 31
0.0
  0
ARC
  5
15C93
330
747D
100
AcDbEntity
  8
細線
 48
0.2
100
AcDbCircle
 10
5279.96306904341
 20
3277.779226123949
 30
0.0
 40
18.49999999999796
100
AcDbArc
 50
253.3984504009772
 51
286.6015495990217
  0
LINE
  5
15C94
330
747D
100
AcDbEntity
  8
細線
 48
0.2
100
AcDbLine
 10
5287.96306904341
 20
3263.479226123951
 30
0.0
 11
5267.96306904341
 21
3263.479226123953
 31
0.0
  0
LINE
  5
15C95
330
747D
100
AcDbEntity
  8
細線
 48
0.2
100
AcDbLine
 10
5287.96306904341
 20
3260.979226123951
 30
0.0
 11
5267.96306904341
 21
3260.979226123951
 31
0.0
  0
LINE
  5
15C96
330
747D
100
AcDbEntity
  8
部品1
 48
0.2
100
AcDbLine
 10
5287.96306904341
 20
3267.979226123951
 30
0.0
 11
5267.96306904341
 21
3267.979226123951
 31
0.0
  0
LINE
  5
15C97
330
747D
100
AcDbEntity
  8
細線
 48
0.2
100
AcDbLine
 10
5287.96306904341
 20
3265.479226123951
 30
0.0
 11
5267.96306904341
 21
3265.479226123951
 31
0.0
  0
LINE
  5
15C98
330
747D
100
AcDbEntity
  8
部品1
100
AcDbLine
 10
5580.02551687209
 20
4102.729226123932
 30
0.0
 11
5580.02551687209
 21
4210.729226123933
 31
0.0
  0
LINE
  5
15C99
330
747D
100
AcDbEntity
  8
細線
100
AcDbLine
 10
5578.52551687209
 20
4103.729226123933
 30
0.0
 11
5578.52551687209
 21
4209.729226123932
 31
0.0
  0
LINE
  5
15C9A
330
747D
100
AcDbEntity
  8
細線
100
AcDbLine
 10
5574.02551687209
 20
4112.729226123932
 30
0.0
 11
5574.02551687209
 21
4200.729226123932
 31
0.0
  0
ARC
  5
15C9B
330
747D
100
AcDbEntity
  8
細線
100
AcDbCircle
 10
5259.422734964166
 20
4156.729226123933
 30
0.0
 40
294.0
100
AcDbArc
 50
351.900449161722
 51
8.099550838278029
  0
ARC
  5
15C9C
330
747D
100
AcDbEntity
  8
細線
100
AcDbCircle
 10
5822.02551687209
 20
4156.729226123933
 30
0.0
 40
294.0
100
AcDbArc
 50
171.212062677364
 51
188.7879373226359
  0
ARC
  5
15C9D
330
747D
100
AcDbEntity
  8
細線
100
AcDbCircle
 10
5822.02551687209
 20
4156.729226123933
 30
0.0
 40
298.5
100
AcDbArc
 50
169.578549027269
 51
190.4214509727309
  0
ARC
  5
15C9E
330
747D
100
AcDbEntity
  8
部品1
100
AcDbCircle
 10
5822.02551687209
 20
4156.729226123933
 30
0.0
 40
300.0
100
AcDbArc
 50
169.4161974034894
 51
190.5838025965105
  0
LINE
  5
15C9F
330
747D
100
AcDbEntity
  8
細線
100
AcDbLine
 10
5546.025516872091
 20
4206.729226123933
 30
0.0
 11
5546.025516872091
 21
4106.729226123933
 31
0.0
  0
LINE
  5
15CA0
330
747D
100
AcDbEntity
  8
細線
100
AcDbLine
 10
5564.233056050836
 20
4115.729226123932
 30
0.0
 11
5564.233056050836
 21
4197.729226123932
 31
0.0
  0
ARC
  5
15CA1
330
747D
100
AcDbEntity
  8
細線
100
AcDbCircle
 10
5537.406473236568
 20
4112.729226123932
 30
0.0
 40
6.0
100
AcDbArc
 50
188.7879373226349
 51
270.0
  0
LINE
  5
15CA2
330
747D
100
AcDbEntity
  8
細線
100
AcDbLine
 10
5546.025516872091
 20
4112.729734022496
 30
0.0
 11
5532.546812373269
 21
4112.729734022496
 31
0.0
  0
LINE
  5
15CA3
330
747D
100
AcDbEntity
  8
部品1
100
AcDbLine
 10
5533.027246981075
 20
4096.729226123932
 30
0.0
 11
5574.02551687209
 21
4096.729226123932
 31
0.0
  0
LINE
  5
15CA4
330
747D
100
AcDbEntity
  8
細線
100
AcDbLine
 10
5533.858898402844
 20
4098.229226123932
 30
0.0
 11
5573.025516872091
 21
4098.229226123932
 31
0.0
  0
ARC
  5
15CA5
330
747D
100
AcDbEntity
  8
細線
100
AcDbCircle
 10
5533.858898402844
 20
4103.729226123933
 30
0.0
 40
5.5
100
AcDbArc
 50
190.4214509727298
 51
269.9999999999997
  0
ARC
  5
15CA6
330
747D
100
AcDbEntity
  8
部品1
100
AcDbCircle
 10
5533.027246981075
 20
4102.729226123932
 30
0.0
 40
6.0
100
AcDbArc
 50
190.5838025965097
 51
270.0
  0
ARC
  5
15CA7
330
747D
100
AcDbEntity
  8
細線
100
AcDbCircle
 10
5568.02551687209
 20
4112.729226123932
 30
0.0
 40
6.0
100
AcDbArc
 50
270.0
 51
0.0
  0
ARC
  5
15CA8
330
747D
100
AcDbEntity
  8
部品1
100
AcDbCircle
 10
5574.02551687209
 20
4102.729226123932
 30
0.0
 40
6.0
100
AcDbArc
 50
270.0
 51
0.0
  0
ARC
  5
15CA9
330
747D
100
AcDbEntity
  8
細線
100
AcDbCircle
 10
5573.025516872091
 20
4103.729226123933
 30
0.0
 40
5.5
100
AcDbArc
 50
270.0
 51
0.0
  0
ARC
  5
15CAA
330
747D
100
AcDbEntity
  8
細線
100
AcDbCircle
 10
5558.233056050836
 20
4115.729226123932
 30
0.0
 40
6.0
100
AcDbArc
 50
270.0
 51
360.0
  0
LINE
  5
15CAB
330
747D
100
AcDbEntity
  8
細線
100
AcDbLine
 10
5546.025516872091
 20
4109.729226123932
 30
0.0
 11
5558.233056050836
 21
4109.729226123932
 31
0.0
  0
ARC
  5
15CAC
330
747D
100
AcDbEntity
  8
細線
100
AcDbCircle
 10
5547.519940781925
 20
4115.729226123932
 30
0.0
 40
3.0
100
AcDbArc
 50
270.0
 51
351.9004491617184
  0
LINE
  5
15CAD
330
747D
100
AcDbEntity
  8
細線
100
AcDbLine
 10
5546.025516872091
 20
4112.729226123932
 30
0.0
 11
5547.519940781925
 21
4112.729226123932
 31
0.0
  0
LINE
  5
15CAE
330
747D
100
AcDbEntity
  8
細線
100
AcDbLine
 10
5537.406473236568
 20
4106.729226123933
 30
0.0
 11
5568.02551687209
 21
4106.729226123933
 31
0.0
  0
ARC
  5
15CAF
330
747D
100
AcDbEntity
  8
細線
100
AcDbCircle
 10
5537.406473236568
 20
4200.729226123932
 30
0.0
 40
6.0
100
AcDbArc
 50
90.0
 51
171.2120626773636
  0
LINE
  5
15CB0
330
747D
100
AcDbEntity
  8
細線
100
AcDbLine
 10
5546.025516872091
 20
4200.728718225371
 30
0.0
 11
5533.262189656124
 21
4200.728718225371
 31
0.0
  0
CIRCLE
  5
15CB1
330
747D
100
AcDbEntity
  8
細線
 48
50.0
100
AcDbCircle
 10
5553.526381926584
 20
4257.229226123932
 30
0.0
 40
20.0
  0
LINE
  5
15CB2
330
747D
100
AcDbEntity
  8
部品1
100
AcDbLine
 10
5574.02551687209
 20
4216.729226123932
 30
0.0
 11
5533.027246981075
 21
4216.729226123932
 31
0.0
  0
LINE
  5
15CB3
330
747D
100
AcDbEntity
  8
細線
100
AcDbLine
 10
5573.025516872091
 20
4215.229226123932
 30
0.0
 11
5533.858898402844
 21
4215.229226123932
 31
0.0
  0
ARC
  5
15CB4
330
747D
100
AcDbEntity
  8
細線
100
AcDbCircle
 10
5533.858898402844
 20
4209.729226123932
 30
0.0
 40
5.5
100
AcDbArc
 50
89.99999999999969
 51
169.5785490272683
  0
ARC
  5
15CB5
330
747D
100
AcDbEntity
  8
部品1
100
AcDbCircle
 10
5533.027246981075
 20
4210.729226123933
 30
0.0
 40
6.0
100
AcDbArc
 50
90.0
 51
169.4161974034886
  0
ARC
  5
15CB6
330
747D
100
AcDbEntity
  8
細線
100
AcDbCircle
 10
5568.02551687209
 20
4200.729226123932
 30
0.0
 40
6.0
100
AcDbArc
 50
0.0
 51
90.0
  0
ARC
  5
15CB7
330
747D
100
AcDbEntity
  8
部品1
100
AcDbCircle
 10
5574.02551687209
 20
4210.729226123933
 30
0.0
 40
6.0
100
AcDbArc
 50
0.0
 51
90.0
  0
ARC
  5
15CB8
330
747D
100
AcDbEntity
  8
細線
100
AcDbCircle
 10
5573.025516872091
 20
4209.729226123932
 30
0.0
 40
5.5
100
AcDbArc
 50
0.0
 51
90.0
  0
CIRCLE
  5
15CB9
330
747D
100
AcDbEntity
  8
細線
 48
50.0
100
AcDbCircle
 10
5553.526381926584
 20
4257.229226123932
 30
0.0
 40
10.0
  0
ARC
  5
15CBA
330
747D
100
AcDbEntity
  8
細線
100
AcDbCircle
 10
5558.233056050836
 20
4197.729226123932
 30
0.0
 40
6.0
100
AcDbArc
 50
0.0
 51
90.0
  0
LINE
  5
15CBB
330
747D
100
AcDbEntity
  8
細線
100
AcDbLine
 10
5558.233056050836
 20
4203.729226123932
 30
0.0
 11
5546.025516872091
 21
4203.729226123932
 31
0.0
  0
ARC
  5
15CBC
330
747D
100
AcDbEntity
  8
細線
100
AcDbCircle
 10
5547.519940781924
 20
4197.729226123932
 30
0.0
 40
3.0
100
AcDbArc
 50
8.099550838277986
 51
90.0
  0
LINE
  5
15CBD
330
747D
100
AcDbEntity
  8
細線
100
AcDbLine
 10
5547.519940781924
 20
4200.729226123932
 30
0.0
 11
5546.025516872091
 21
4200.729226123932
 31
0.0
  0
LINE
  5
15CBE
330
747D
100
AcDbEntity
  8
細線
100
AcDbLine
 10
5568.02551687209
 20
4206.729226123933
 30
0.0
 11
5537.406473236568
 21
4206.729226123933
 31
0.0
  0
LINE
  5
15CC5
330
747D
100
AcDbEntity
  8
部品1
100
AcDbLine
 10
4558.02551687209
 20
5052.229226123934
 30
0.0
 11
5267.96306904341
 21
5052.229226123934
 31
0.0
  0
LINE
  5
15CCD
330
747D
100
AcDbEntity
  8
部品1
100
AcDbLine
 10
5287.96306904341
 20
5052.229226123934
 30
0.0
 11
5288.025516872091
 21
5052.229226123933
 31
0.0
  0
ARC
  5
15CCE
330
747D
100
AcDbEntity
  8
細線
 48
0.2
100
AcDbCircle
 10
5284.96306904341
 20
5052.449735955182
 30
0.0
 40
1.0
100
AcDbArc
 50
0.0
 51
73.39845040097829
  0
LINE
  5
15CCF
330
747D
100
AcDbEntity
  8
細線
 48
50.0
100
AcDbLine
 10
5267.96306904341
 20
5052.229226123934
 30
0.0
 11
5267.96306904341
 21
5052.479226123935
 31
0.0
  0
ARC
  5
15CD0
330
747D
100
AcDbEntity
  8
細線
 48
0.2
100
AcDbCircle
 10
5274.963069043409
 20
5052.449735955182
 30
0.0
 40
1.0
100
AcDbArc
 50
106.6015495990225
 51
180.0000000000016
  0
LINE
  5
15CD1
330
747D
100
AcDbEntity
  8
細線
 48
0.2
100
AcDbLine
 10
5287.96306904341
 20
5052.479226123935
 30
0.0
 11
5267.96306904341
 21
5052.479226123935
 31
0.0
  0
LINE
  5
15CD2
330
747D
100
AcDbEntity
  8
細線
 48
0.2
100
AcDbLine
 10
5287.96306904341
 20
5049.979226123935
 30
0.0
 11
5267.96306904341
 21
5049.979226123935
 31
0.0
  0
ARC
  5
15CD3
330
747D
100
AcDbEntity
  8
細線
 48
0.2
100
AcDbCircle
 10
5279.96306904341
 20
5035.679226123937
 30
0.0
 40
18.49999999999796
100
AcDbArc
 50
73.39845040097829
 51
106.6015495990228
  0
LINE
  5
15CD4
330
747D
100
AcDbEntity
  8
細線
 48
0.2
100
AcDbLine
 10
5285.647060339917
 20
5053.179226123935
 30
0.0
 11
5274.279077746905
 21
5053.179226123935
 31
0.0
  0
LINE
  5
15CD5
330
747D
100
AcDbEntity
  8
細線
 48
0.2
100
AcDbLine
 10
5287.96306904341
 20
5047.979226123935
 30
0.0
 11
5267.96306904341
 21
5047.979226123935
 31
0.0
  0
LINE
  5
15CD6
330
747D
100
AcDbEntity
  8
部品1
 48
0.2
100
AcDbLine
 10
5287.96306904341
 20
5045.479226123934
 30
0.0
 11
5267.96306904341
 21
5045.479226123934
 31
0.0
  0
LINE
  5
15CD7
330
747D
100
AcDbEntity
  8
部品1
 48
50.0
100
AcDbLine
 10
5267.96306904341
 20
5045.479226123934
 30
0.0
 11
5267.96306904341
 21
5052.229226123934
 31
0.0
  0
LINE
  5
15CD8
330
747D
100
AcDbEntity
  8
細線
 48
50.0
100
AcDbLine
 10
5276.100311849106
 20
5049.979226123935
 30
0.0
 11
5276.100311849106
 21
5047.979226123935
 31
0.0
  0
LINE
  5
15CD9
330
747D
100
AcDbEntity
  8
細線
 48
0.1
100
AcDbLine
 10
5287.96306904341
 20
5052.479226123935
 30
0.0
 11
5287.96306904341
 21
5045.479226123934
 31
0.0
  0
LINE
  5
15CDA
330
747D
100
AcDbEntity
  8
細線
 48
50.0
100
AcDbLine
 10
5283.950721895069
 20
5049.979226123935
 30
0.0
 11
5283.950721895069
 21
5047.979226123935
 31
0.0
  0
LINE
  5
15CF2
330
747D
100
AcDbEntity
  8
細線
 48
50.0
100
AcDbLine
 10
5434.025523549692
 20
8892.017864338583
 30
0.0
 11
4542.025523549692
 21
9342.017864338483
 31
0.0
  0
LINE
  5
15CF3
330
747D
100
AcDbEntity
  8
細線
 48
50.0
100
AcDbLine
 10
5434.025523549692
 20
9342.017864338584
 30
0.0
 11
4542.025523549692
 21
8892.017864338482
 31
0.0
  0
LINE
  5
15CF4
330
747D
100
AcDbEntity
  8
部品1
 48
50.0
100
AcDbLine
 10
5463.025516872075
 20
8056.517864338548
 30
0.0
 11
5463.025516872075
 21
9316.517864338555
 31
0.0
  0
LINE
  5
15CF5
330
747D
100
AcDbEntity
  8
部品1
 48
50.0
100
AcDbLine
 10
5435.025516872077
 20
8056.517864338548
 30
0.0
 11
5435.025516872022
 21
9343.517864338556
 31
0.0
  0
LINE
  5
15CF6
330
747D
100
AcDbEntity
  8
部品1
 48
50.0
100
AcDbLine
 10
5491.025516872076
 20
8056.517864338548
 30
0.0
 11
5491.025516872021
 21
9371.517864338555
 31
0.0
  0
LINE
  5
15CF7
330
747D
100
AcDbEntity
  8
部品1
 48
50.0
100
AcDbLine
 10
5492.025523549692
 20
9342.017864338476
 30
0.0
 11
5492.025523549692
 21
8892.017864338482
 31
0.0
  0
LINE
  5
15CF8
330
747D
100
AcDbEntity
  8
部品1
 48
50.0
100
AcDbLine
 10
5434.025523549692
 20
9342.017864338584
 30
0.0
 11
5434.025523549692
 21
8892.017864338583
 31
0.0
  0
ARC
  5
15CF9
330
747D
100
AcDbEntity
  8
想像線
 48
10.0
100
AcDbCircle
 10
5280.67346619493
 20
8003.212757714116
 30
0.0
 40
722.6499369155575
100
AcDbArc
 50
180.1343808685506
 51
270.5829222700354
  0
LINE
  5
15CFA
330
747D
100
AcDbEntity
  8
想像線
 48
10.0
100
AcDbLine
 10
5288.025516872089
 20
8001.517864338548
 30
0.0
 11
5288.025516872089
 21
7280.600220682758
 31
0.0
  0
LINE
  5
15CFB
330
747D
100
AcDbEntity
  8
部品1
 48
50.0
100
AcDbLine
 10
4987.525516872083
 20
8892.017864338534
 30
0.0
 11
4987.52535399998
 21
8133.017032175336
 31
0.0
  0
LINE
  5
15CFC
330
747D
100
AcDbEntity
  8
部品1
 48
50.0
100
AcDbLine
 10
5518.525510527788
 20
8133.017864363214
 30
0.0
 11
5518.525513500652
 21
8892.017864338555
 31
0.0
  0
LINE
  5
15CFD
330
747D
100
AcDbEntity
  8
破線
 48
10.0
100
AcDbLine
 10
5542.025516872083
 20
8156.517864338562
 30
0.0
 11
5542.025507702977
 21
8699.01785342064
 31
0.0
  0
LINE
  5
15CFE
330
747D
100
AcDbEntity
  8
部品1
 48
50.0
100
AcDbLine
 10
5407.525516872074
 20
8133.017864338555
 30
0.0
 11
5407.52551687205
 21
8892.017864338614
 31
0.0
  0
LINE
  5
15CFF
330
747D
100
AcDbEntity
  8
破線
 48
10.0
100
AcDbLine
 10
5384.025516872083
 20
8156.517864338555
 30
0.0
 11
5384.02551070982
 21
8699.017859942484
 31
0.0
  0
LINE
  5
15D00
330
747D
100
AcDbEntity
  8
部品1
 48
5.0
100
AcDbLine
 10
4556.02551687209
 20
8031.017864338432
 30
0.0
 11
5439.02551687209
 21
8031.01786433849
 31
0.0
  0
LINE
  5
15D01
330
747D
100
AcDbEntity
  8
部品1
100
AcDbLine
 10
5514.025516872091
 20
8001.517864338497
 30
0.0
 11
4513.02551687209
 21
8001.517864338469
 31
0.0
  0
LINE
  5
15D02
330
747D
100
AcDbEntity
  8
部品1
100
AcDbLine
 10
5288.025516872089
 20
8027.517864338562
 30
0.0
 11
4558.02551687209
 21
8027.517864338532
 31
0.0
  0
LINE
  5
15D03
330
747D
100
AcDbEntity
  8
部品1
100
AcDbLine
 10
5407.526087320253
 20
8133.017283518592
 30
0.0
 11
4569.526488298484
 21
8133.016782030066
 31
0.0
  0
LINE
  5
15D04
330
747D
100
AcDbEntity
  8
破線
 48
10.0
100
AcDbLine
 10
5384.025516872083
 20
8156.517864338534
 30
0.0
 11
4593.025516872083
 21
8156.517864338519
 31
0.0
  0
DIMENSION
  5
15D05
330
747D
100
AcDbEntity
  8
寸法
 48
50.0
100
AcDbDimension
  2
*D20
 10
5253.025516872089
 20
7561.694196543427
 30
0.0
 11
4910.525516872091
 21
7561.694196543427
 31
0.0
 70
   160
 71
     5
 42
684.9999999999945
  3
INABA_S40G
100
AcDbAlignedDimension
 13
4568.025516872094
 23
8001.517864338504
 33
0.0
 14
5253.025516872089
 24
8001.517864338469
 34
0.0
100
AcDbRotatedDimension
  0
LINE
  5
15D06
330
747D
100
AcDbEntity
  8
細線
 48
50.0
100
AcDbLine
 10
4868.025516872089
 20
8027.51786433857
 30
0.0
 11
4868.025516872089
 21
8001.517864338534
 31
0.0
  0
LINE
  5
15D07
330
747D
100
AcDbEntity
  8
細線
 48
50.0
100
AcDbLine
 10
4908.025516872089
 20
8027.51786433857
 30
0.0
 11
4908.025516872089
 21
8001.517864338534
 31
0.0
  0
LINE
  5
15D08
330
747D
100
AcDbEntity
  8
細線
 48
50.0
100
AcDbLine
 10
5135.025516872088
 20
8027.517864338785
 30
0.0
 11
5135.025516872088
 21
8001.517864338749
 31
0.0
  0
LINE
  5
15D09
330
747D
100
AcDbEntity
  8
細線
 48
50.0
100
AcDbLine
 10
5095.025516872088
 20
8027.517864338785
 30
0.0
 11
5095.025516872088
 21
8001.517864338749
 31
0.0
  0
LINE
  5
15D0A
330
747D
100
AcDbEntity
  8
部品1
 48
5.0
100
AcDbLine
 10
5290.02551687209
 20
8031.017864338549
 30
0.0
 11
5290.02551687209
 21
8001.517864338548
 31
0.0
  0
LINE
  5
15D0B
330
747D
100
AcDbEntity
  8
部品1
 48
0.2
100
AcDbLine
 10
5275.087964700768
 20
7994.515494293771
 30
0.0
 11
5280.087964700768
 21
7994.515494293771
 31
0.0
  0
ARC
  5
15D0C
330
747D
100
AcDbEntity
  8
細線
 48
0.2
100
AcDbCircle
 10
5280.087964700768
 20
8002.515494293771
 30
0.0
 40
4.049999999999999
100
AcDbArc
 50
194.2603506853988
 51
345.7396493146012
  0
ARC
  5
15D0D
330
747D
100
AcDbEntity
  8
部品1
 48
0.2
100
AcDbCircle
 10
5275.087964700768
 20
8002.515494293771
 30
0.0
 40
8.0
100
AcDbArc
 50
187.1636477221926
 51
269.9999999999992
  0
ARC
  5
15D0E
330
747D
100
AcDbEntity
  8
部品1
 48
0.2
100
AcDbCircle
 10
5280.087964700768
 20
8002.515494293771
 30
0.0
 40
8.0
100
AcDbArc
 50
270.0
 51
352.8363522778074
  0
LINE
  5
15D0F
330
747D
100
AcDbEntity
  8
部品1
100
AcDbLine
 10
5288.025516872089
 20
8027.517864338598
 30
0.0
 11
5288.025516872089
 21
8001.517864338541
 31
0.0
  0
LINE
  5
15D10
330
747D
100
AcDbEntity
  8
部品1
 48
5.0
100
AcDbLine
 10
5518.02551687209
 20
8056.517864338548
 30
0.0
 11
5518.025516872093
 21
8031.017864338549
 31
0.0
  0
LINE
  5
15D11
330
747D
100
AcDbEntity
  8
部品1
 48
5.0
100
AcDbLine
 10
5408.02551687209
 20
8056.517864338548
 30
0.0
 11
5408.025516872092
 21
8031.017864338549
 31
0.0
  0
LINE
  5
15D12
330
747D
100
AcDbEntity
  8
部品1
 48
5.0
100
AcDbLine
 10
5439.02551687209
 20
8056.517864338548
 30
0.0
 11
5439.02551687209
 21
8031.017864338549
 31
0.0
  0
LINE
  5
15D13
330
747D
100
AcDbEntity
  8
部品1
 48
5.0
100
AcDbLine
 10
5487.025516872092
 20
8056.517864338548
 30
0.0
 11
5487.02551687209
 21
8031.017864338549
 31
0.0
  0
LINE
  5
15D14
330
747D
100
AcDbEntity
  8
部品1
 48
5.0
100
AcDbLine
 10
5506.025516872091
 20
8031.017864338549
 30
0.0
 11
5506.025516872091
 21
8001.517864338548
 31
0.0
  0
LINE
  5
15D15
330
747D
100
AcDbEntity
  8
部品1
100
AcDbLine
 10
5506.025516872091
 20
8031.017864338497
 30
0.0
 11
5506.025516872091
 21
8001.517864338548
 31
0.0
  0
LINE
  5
15D16
330
747D
100
AcDbEntity
  8
部品1
100
AcDbLine
 10
5508.02551687209
 20
8027.51786433857
 30
0.0
 11
5508.02551687209
 21
8001.517864338534
 31
0.0
  0
LINE
  5
15D17
330
747D
100
AcDbEntity
  8
部品1
 48
5.0
100
AcDbLine
 10
5420.02551687209
 20
8031.017864338549
 30
0.0
 11
5420.02551687209
 21
8001.517864338548
 31
0.0
  0
LINE
  5
15D18
330
747D
100
AcDbEntity
  8
部品1
100
AcDbLine
 10
5420.025516872088
 20
8031.01786433849
 30
0.0
 11
5420.025516872087
 21
8001.517864338541
 31
0.0
  0
LINE
  5
15D19
330
747D
100
AcDbEntity
  8
部品1
 48
5.0
100
AcDbLine
 10
5420.02551687209
 20
8001.517864338548
 30
0.0
 11
5506.025516872091
 21
8001.517864338548
 31
0.0
  0
LINE
  5
15D1A
330
747D
100
AcDbEntity
  8
部品1
 48
5.0
100
AcDbLine
 10
5435.025516872077
 20
8056.517864338548
 30
0.0
 11
5491.025516872076
 21
8056.517864338548
 31
0.0
  0
LINE
  5
15D1B
330
747D
100
AcDbEntity
  8
部品1
 48
50.0
100
AcDbLine
 10
5518.525516872072
 20
8133.017864363221
 30
0.0
 11
5491.025516872076
 21
8105.017864338547
 31
0.0
  0
LINE
  5
15D1C
330
747D
100
AcDbEntity
  8
部品1
 48
5.0
100
AcDbLine
 10
5495.02551687209
 20
8056.517864338548
 30
0.0
 11
5518.02551687209
 21
8056.517864338548
 31
0.0
  0
LINE
  5
15D1D
330
747D
100
AcDbEntity
  8
部品1
 48
5.0
100
AcDbLine
 10
5431.02551687209
 20
8056.517864338548
 30
0.0
 11
5408.02551687209
 21
8056.517864338548
 31
0.0
  0
LINE
  5
15D1E
330
747D
100
AcDbEntity
  8
部品1
 48
50.0
100
AcDbLine
 10
5435.025516872077
 20
8105.017864338547
 30
0.0
 11
5407.525516872074
 21
8133.017864338555
 31
0.0
  0
LINE
  5
15D1F
330
747D
100
AcDbEntity
  8
細線
 48
50.0
100
AcDbLine
 10
5632.025516872089
 20
8027.517864338582
 30
0.0
 11
5632.025516872089
 21
8001.517864338534
 31
0.0
  0
LINE
  5
15D20
330
747D
100
AcDbEntity
  8
部品1
100
AcDbLine
 10
4542.025523549692
 20
8892.017864338482
 30
0.0
 11
5434.025523549692
 21
8892.017864338583
 31
0.0
  0
LINE
  5
15D21
330
747D
100
AcDbEntity
  8
部品1
 48
5.0
100
AcDbLine
 10
5463.025516872075
 20
8476.517864338548
 30
0.0
 11
5435.025516872023
 21
8476.517864338555
 31
0.0
  0
LINE
  5
15D22
330
747D
100
AcDbEntity
  8
部品1
 48
50.0
100
AcDbLine
 10
5463.025516872067
 20
8934.517864338555
 30
0.0
 11
5491.02551687205
 21
8934.517864338555
 31
0.0
  0
LINE
  5
15D23
330
747D
100
AcDbEntity
  8
部品1
 48
50.0
100
AcDbLine
 10
5463.025516872067
 20
8896.517864338555
 30
0.0
 11
5491.02551687205
 21
8896.517864338555
 31
0.0
  0
LINE
  5
15D24
330
747D
100
AcDbEntity
  8
部品1
 48
5.0
100
AcDbLine
 10
5463.025516872075
 20
8896.517864338548
 30
0.0
 11
5435.025516872023
 21
8896.517864338555
 31
0.0
  0
DIMENSION
  5
15D25
330
747D
100
AcDbEntity
  8
寸法
100
AcDbDimension
  2
*D19
 10
5408.025516872094
 20
9587.32608396361
 30
0.0
 11
4988.025516872095
 21
9587.32608396361
 31
0.0
 70
   160
  1
2X420=<>
 71
     5
 42
839.9999999999982
  3
INABA_S40G
100
AcDbAlignedDimension
 13
4568.025516872096
 23
9371.517864338541
 33
0.0
 14
5408.025516872094
 24
9371.517864338628
 34
0.0
100
AcDbRotatedDimension
1001
ACAD
1000
DSTYLE
1002
{
1002
}
  0
LINE
  5
15D26
330
747D
100
AcDbEntity
  8
部品1
100
AcDbLine
 10
4542.025523549692
 20
9342.017864338483
 30
0.0
 11
5434.025523549692
 21
9342.017864338592
 31
0.0
  0
LINE
  5
15D27
330
747D
100
AcDbEntity
  8
部品1
100
AcDbLine
 10
4541.025516872095
 20
9343.517864338512
 30
0.0
 11
5460.406219890719
 21
9343.517864338535
 31
0.0
  0
LINE
  5
15D28
330
747D
100
AcDbEntity
  8
部品1
100
AcDbLine
 10
4987.525516872027
 20
9371.517864338468
 30
0.0
 11
4987.525516872029
 21
9343.517864338467
 31
0.0
  0
LINE
  5
15D29
330
747D
100
AcDbEntity
  8
部品1
100
AcDbLine
 10
4987.525516872061
 20
9371.517864338505
 30
0.0
 11
4987.525516872061
 21
9343.517864338505
 31
0.0
  0
DIMENSION
  5
15D2A
330
747D
100
AcDbEntity
  8
寸法
 48
50.0
100
AcDbDimension
  2
*D18
 10
5518.025516872097
 20
9587.32608396361
 30
0.0
 11
5463.025516872097
 21
9841.604405334757
 31
0.0
 70
   160
 71
     5
 42
110.0000000000036
  3
INABA_S40G
100
AcDbAlignedDimension
 13
5408.025516872094
 23
9371.517864338628
 33
0.0
 14
5518.025516872097
 24
9371.517864338606
 34
0.0
100
AcDbRotatedDimension
1001
ACAD
1000
DSTYLE
1002
{
1070
   279
1070
     2
1002
}
  0
LINE
  5
15D2B
330
747D
100
AcDbEntity
  8
部品1
 48
50.0
100
AcDbLine
 10
5492.525523549684
 20
9342.017864338483
 30
0.0
 11
5491.025516872062
 21
9343.517864338476
 31
0.0
  0
LINE
  5
15D2C
330
747D
100
AcDbEntity
  8
部品1
 48
50.0
100
AcDbLine
 10
5433.578124360113
 20
9342.017864338592
 30
0.0
 11
5435.025516871989
 21
9343.517864338519
 31
0.0
  0
LINE
  5
15D2D
330
747D
100
AcDbEntity
  8
部品1
 48
5.0
100
AcDbLine
 10
5518.025516872097
 20
9371.517864338555
 30
0.0
 11
5518.025516872094
 21
9343.517864338563
 31
0.0
  0
LINE
  5
15D2E
330
747D
100
AcDbEntity
  8
部品1
 48
5.0
100
AcDbLine
 10
5491.025516872025
 20
9316.517864338555
 30
0.0
 11
5435.025516872023
 21
9316.517864338555
 31
0.0
  0
LINE
  5
15D2F
330
747D
100
AcDbEntity
  8
部品1
 48
5.0
100
AcDbLine
 10
5437.73479131927
 20
9371.517864338555
 30
0.0
 11
5460.406219890698
 21
9343.517864338556
 31
0.0
  0
LINE
  5
15D30
330
747D
100
AcDbEntity
  8
部品1
 48
5.0
100
AcDbLine
 10
5408.025516872094
 20
9343.517864338556
 30
0.0
 11
5408.025516872094
 21
9371.517864338555
 31
0.0
  0
LINE
  5
15D83
330
747D
100
AcDbEntity
  8
細線
 48
50.0
100
AcDbLine
 10
6413.025516872092
 20
5148.729226123935
 30
0.0
 11
6413.025516872091
 21
5054.729226123932
 31
0.0
  0
LINE
  5
15D93
330
747D
100
AcDbEntity
  8
細線
 48
50.0
100
AcDbLine
 10
6403.025516872091
 20
5148.729226123935
 30
0.0
 11
6403.025516872091
 21
5289.729226123937
 31
0.0
  0
LINE
  5
15D96
330
747D
100
AcDbEntity
  8
部品1
 48
50.0
100
AcDbLine
 10
6413.025516872091
 20
3257.729226123937
 30
0.0
 11
6413.025516872091
 21
3214.729226123934
 31
0.0
  0
DIMENSION
  5
16261
330
747D
100
AcDbEntity
  8
寸法
100
AcDbDimension
  2
*D21
 10
9105.072769496313
 20
5289.729226123938
 30
0.0
 11
9005.060958472689
 21
4252.229226123937
 31
0.0
 70
    32
 71
     5
 42
2075.000000000004
  3
INABA_S40G
100
AcDbAlignedDimension
 13
10248.82289867957
 23
3214.729226123934
 33
0.0
 14
10188.82289867957
 24
5289.729226123938
 34
0.0
 50
90.0
100
AcDbRotatedDimension
1001
ACAD
1000
DSTYLE
1002
{
1070
   174
1070
     0
1070
   272
1070
     1
1070
   288
1070
     0
1070
   341
1005
0
1002
}
  0
LINE
  5
16262
330
747D
100
AcDbEntity
  8
部品1
 48
0.2
100
AcDbLine
 10
10241.82052863479
 20
5054.729226123931
 30
0.0
 11
10241.82052863479
 21
5043.979226123933
 31
0.0
  0
LINE
  5
16263
330
747D
100
AcDbEntity
  8
部品1
 48
50.0
100
AcDbLine
 10
10241.82052863479
 20
5043.979226123931
 30
0.0
 11
10248.82289867957
 21
5043.979226123931
 31
0.0
  0
LINE
  5
16264
330
747D
100
AcDbEntity
  8
部品1
 48
50.0
100
AcDbLine
 10
10241.82052863479
 20
3275.479226123934
 30
0.0
 11
10248.82289867957
 21
3275.479226123934
 31
0.0
  0
LINE
  5
16265
330
747D
100
AcDbEntity
  8
部品1
 48
0.2
100
AcDbLine
 10
10241.82052863479
 20
3275.479226123934
 30
0.0
 11
10241.82052863479
 21
3264.729226123935
 31
0.0
  0
LINE
  5
16266
330
747D
100
AcDbEntity
  8
部品1
 48
50.0
100
AcDbLine
 10
10241.82052863479
 20
3264.729226123935
 30
0.0
 11
10248.82289867957
 21
3264.729226123935
 31
0.0
  0
LINE
  5
16267
330
747D
100
AcDbEntity
  8
部品1
100
AcDbLine
 10
10241.82052863479
 20
5054.729226123932
 30
0.0
 11
11618.82289867957
 21
5054.729226123932
 31
0.0
  0
LINE
  5
16268
330
747D
100
AcDbEntity
  8
部品1
100
AcDbLine
 10
10248.82289867957
 20
3264.729226123933
 30
0.0
 11
11618.82289867958
 21
3264.729226123935
 31
0.0
  0
LINE
  5
16269
330
747D
100
AcDbEntity
  8
部品1
100
AcDbLine
 10
10303.82289867957
 20
5054.729226123932
 30
0.0
 11
10303.82289867957
 21
3264.729226123933
 31
0.0
  0
LINE
  5
1626A
330
747D
100
AcDbEntity
  8
部品1
100
AcDbLine
 10
10248.82289867958
 20
5146.306120064375
 30
0.0
 11
10248.82289867957
 21
3114.729226123933
 31
0.0
  0
DIMENSION
  5
1626B
330
747D
100
AcDbEntity
  8
寸法
100
AcDbDimension
  2
*D22
 10
9405.072769496312
 20
3264.729226123935
 30
0.0
 11
9305.072769496312
 21
4159.729226123935
 31
0.0
 70
    32
 71
     5
 42
1789.999999999999
  3
INABA_S40G
100
AcDbAlignedDimension
 13
10248.82289867957
 23
5054.729226123932
 33
0.0
 14
10248.82289867957
 24
3264.729226123935
 34
0.0
 50
90.0
100
AcDbRotatedDimension
1001
ACAD
1000
DSTYLE
1002
{
1070
   174
1070
     0
1070
   272
1070
     1
1070
   288
1070
     0
1070
   341
1005
0
1002
}
  0
DIMENSION
  5
1626C
330
747D
100
AcDbEntity
  8
寸法
100
AcDbDimension
  2
*D23
 10
9405.072769496312
 20
3214.729226123934
 30
0.0
 11
9405.072769496312
 21
2908.681982029444
 31
0.0
 70
   160
 71
     5
 42
50.0
  3
INABA_S40G
100
AcDbAlignedDimension
 13
10248.82289867957
 23
3264.729226123935
 33
0.0
 14
10193.82289867957
 24
3214.729226123934
 34
0.0
 50
90.0
100
AcDbRotatedDimension
1001
ACAD
1000
DSTYLE
1002
{
1070
   174
1070
     0
1070
   272
1070
     1
1070
   288
1070
     0
1070
   341
1005
0
1002
}
  0
LINE
  5
1626D
330
747D
100
AcDbEntity
  8
部品1
100
AcDbLine
 10
10723.82289867957
 20
5054.729226123932
 30
0.0
 11
10723.82289867957
 21
3264.729226123933
 31
0.0
  0
LINE
  5
1626E
330
747D
100
AcDbEntity
  8
部品1
100
AcDbLine
 10
11618.82289867957
 20
5109.365806959186
 30
0.0
 11
11618.82289867957
 21
3114.729226123933
 31
0.0
  0
LINE
  5
1626F
330
747D
100
AcDbEntity
  8
部品1
100
AcDbLine
 10
11563.82289867957
 20
5054.729226123932
 30
0.0
 11
11563.82289867957
 21
3264.729226123933
 31
0.0
  0
DIMENSION
  5
16270
330
747D
100
AcDbEntity
  8
寸法
100
AcDbDimension
  2
*D24
 10
12323.7500566517
 20
5234.729226123935
 30
0.0
 11
12223.73824562808
 21
4224.729226123936
 31
0.0
 70
    32
 71
     5
 42
2020.000000000001
  3
INABA_S40G
100
AcDbAlignedDimension
 13
11618.82289867957
 23
3214.729226123934
 33
0.0
 14
11698.82289867957
 24
5234.729226123935
 34
0.0
 50
90.0
100
AcDbRotatedDimension
1001
ACAD
1000
DSTYLE
1002
{
1070
   174
1070
     0
1070
   272
1070
     1
1070
   288
1070
     0
1070
   341
1005
0
1002
}
  0
DIMENSION
  5
16271
330
747D
100
AcDbEntity
  8
寸法
 48
50.0
100
AcDbDimension
  2
*D25
 10
10248.82289867957
 20
5688.386679703237
 30
0.0
 11
10898.64193157012
 21
5688.386679703237
 31
0.0
 70
   160
  1
柱外寸法<>
 71
     5
 42
1370.0
  3
INABA_S40G
100
AcDbAlignedDimension
 13
11618.82289867957
 23
5236.539905735586
 33
0.0
 14
10248.82289867957
 24
5285.730844246909
 34
0.0
100
AcDbRotatedDimension
1001
ACAD
1000
DSTYLE
1002
{
1070
   174
1070
     0
1070
   272
1070
     1
1070
   288
1070
     0
1070
   341
1005
0
1002
}
  0
DIMENSION
  5
16272
330
747D
100
AcDbEntity
  8
寸法
 48
50.0
100
AcDbDimension
  2
*D26
 10
10188.82289867957
 20
5688.386679703237
 30
0.0
 11
9879.185103403985
 21
5688.386679703237
 31
0.0
 70
   160
 71
     5
 42
60.0
  3
INABA_S40G
100
AcDbAlignedDimension
 13
10248.82289867957
 23
5285.730844246909
 33
0.0
 14
10188.82289867957
 24
5289.729226123938
 34
0.0
100
AcDbRotatedDimension
1001
ACAD
1000
DSTYLE
1002
{
1070
   174
1070
     0
1070
   272
1070
     1
1070
   288
1070
     0
1070
   341
1005
0
1002
}
  0
DIMENSION
  5
16273
330
747D
100
AcDbEntity
  8
寸法
 48
50.0
100
AcDbDimension
  2
*D27
 10
10188.82289867957
 20
5896.561000895201
 30
0.0
 11
10915.9477283814
 21
5896.561000895201
 31
0.0
 70
   160
 71
     5
 42
1510.0
  3
INABA_S40G
100
AcDbAlignedDimension
 13
11698.82289867957
 23
5234.729226123935
 33
0.0
 14
10188.82289867957
 24
5289.729226123938
 34
0.0
100
AcDbRotatedDimension
1001
ACAD
1000
DSTYLE
1002
{
1070
   174
1070
     0
1070
   272
1070
     1
1070
   288
1070
     0
1070
   341
1005
0
1002
}
  0
LINE
  5
16274
330
747D
100
AcDbEntity
  8
部品1
100
AcDbLine
 10
10248.82289867957
 20
3214.729226123933
 30
0.0
 11
11618.82289867957
 21
3214.729226123933
 31
0.0
  0
LINE
  5
16275
330
747D
100
AcDbEntity
  8
細線
 48
50.0
100
AcDbLine
 10
10801.32289867957
 20
5054.729226123932
 30
0.0
 11
10801.32289867957
 21
3264.729226123933
 31
0.0
  0
LINE
  5
16276
330
747D
100
AcDbEntity
  8
細線
 48
50.0
100
AcDbLine
 10
10786.32289867957
 20
5054.729226123932
 30
0.0
 11
10786.32289867957
 21
3264.729226123933
 31
0.0
  0
LINE
  5
16277
330
747D
100
AcDbEntity
  8
細線
 48
50.0
100
AcDbLine
 10
10926.32289867957
 20
5054.729226123932
 30
0.0
 11
10926.32289867957
 21
3264.729226123933
 31
0.0
  0
LINE
  5
16278
330
747D
100
AcDbEntity
  8
細線
 48
50.0
100
AcDbLine
 10
10941.32289867957
 20
5054.729226123932
 30
0.0
 11
10941.32289867957
 21
3264.729226123933
 31
0.0
  0
LINE
  5
16279
330
747D
100
AcDbEntity
  8
細線
 48
50.0
100
AcDbLine
 10
11081.32289867957
 20
5054.729226123932
 30
0.0
 11
11081.32289867957
 21
3264.729226123933
 31
0.0
  0
LINE
  5
1627A
330
747D
100
AcDbEntity
  8
細線
 48
50.0
100
AcDbLine
 10
11066.32289867957
 20
5054.729226123932
 30
0.0
 11
11066.32289867957
 21
3264.729226123933
 31
0.0
  0
LINE
  5
1627B
330
747D
100
AcDbEntity
  8
細線
 48
50.0
100
AcDbLine
 10
10646.32289867957
 20
5054.729226123932
 30
0.0
 11
10646.32289867957
 21
3264.729226123933
 31
0.0
  0
LINE
  5
1627C
330
747D
100
AcDbEntity
  8
細線
 48
50.0
100
AcDbLine
 10
10661.32289867957
 20
5054.729226123932
 30
0.0
 11
10661.32289867957
 21
3264.729226123933
 31
0.0
  0
LINE
  5
1627D
330
747D
100
AcDbEntity
  8
細線
 48
50.0
100
AcDbLine
 10
10521.32289867957
 20
5054.729226123932
 30
0.0
 11
10521.32289867957
 21
3264.729226123933
 31
0.0
  0
LINE
  5
1627E
330
747D
100
AcDbEntity
  8
細線
 48
50.0
100
AcDbLine
 10
10506.32289867957
 20
5054.729226123932
 30
0.0
 11
10506.32289867957
 21
3264.729226123933
 31
0.0
  0
LINE
  5
1627F
330
747D
100
AcDbEntity
  8
細線
 48
50.0
100
AcDbLine
 10
10366.32289867957
 20
5054.729226123932
 30
0.0
 11
10366.32289867957
 21
3264.729226123933
 31
0.0
  0
LINE
  5
16280
330
747D
100
AcDbEntity
  8
細線
 48
50.0
100
AcDbLine
 10
10381.32289867957
 20
5054.729226123932
 30
0.0
 11
10381.32289867957
 21
3264.729226123933
 31
0.0
  0
LINE
  5
16281
330
747D
100
AcDbEntity
  8
部品1
100
AcDbLine
 10
10196.36788503653
 20
5288.446961458199
 30
0.0
 11
11691.43477554103
 21
5232.780067451498
 31
0.0
  0
LINE
  5
16282
330
747D
100
AcDbEntity
  8
部品1
100
AcDbLine
 10
10204.16546328153
 20
5147.5102511929
 30
0.0
 11
11673.48659921942
 21
5107.89186957712
 31
0.0
  0
LINE
  5
16283
330
747D
100
AcDbEntity
  8
細線
 48
50.0
100
AcDbLine
 10
10221.82289867957
 20
5287.128902499339
 30
0.0
 11
10216.53379712406
 21
5147.043269871983
 31
0.0
  0
LINE
  5
16284
330
747D
100
AcDbEntity
  8
細線
 48
50.0
100
AcDbLine
 10
11665.82289867957
 20
5234.106248777655
 30
0.0
 11
11661.07521579157
 21
5108.360476286911
 31
0.0
  0
LINE
  5
16285
330
747D
100
AcDbEntity
  8
部品1
 48
50.0
100
AcDbLine
 10
10189.00718459268
 20
5281.322772288626
 30
0.0
 11
10189.38744437049
 21
5261.395807842215
 31
0.0
  0
LINE
  5
16286
330
747D
100
AcDbEntity
  8
部品1
 48
50.0
100
AcDbLine
 10
10192.45621647673
 20
5257.820526348742
 30
0.0
 11
10194.1601179681
 21
5168.530029642095
 31
0.0
  0
LINE
  5
16287
330
747D
100
AcDbEntity
  8
細線
 48
50.0
100
AcDbLine
 10
10189.86232178038
 20
5260.746307965295
 30
0.0
 11
11695.49830652555
 21
5204.532146942892
 31
0.0
  0
LINE
  5
16288
330
747D
100
AcDbEntity
  8
細線
 48
50.0
100
AcDbLine
 10
10194.62279701767
 20
5167.884796267432
 30
0.0
 11
11684.62646144831
 21
5127.485520911363
 31
0.0
  0
LINE
  5
16289
330
747D
100
AcDbEntity
  8
部品1
 48
50.0
100
AcDbLine
 10
10197.22889007434
 20
5164.954748148622
 30
0.0
 11
10197.43084269477
 21
5154.37171275553
 31
0.0
  0
ARC
  5
1628A
330
747D
100
AcDbEntity
  8
部品1
 48
50.0
100
AcDbCircle
 10
10196.00591042102
 20
5281.456326696054
 30
0.0
 40
7.0
100
AcDbArc
 50
87.03587545283093
 51
181.0932240292895
  0
ARC
  5
1628B
330
747D
100
AcDbEntity
  8
部品1
 48
50.0
100
AcDbCircle
 10
10204.42956852311
 20
5154.505267162958
 30
0.0
 40
7.0
100
AcDbArc
 50
181.0932240292895
 51
267.8377559869489
  0
ARC
  5
1628C
330
747D
100
AcDbEntity
  8
部品1
100
AcDbCircle
 10
10194.22943614791
 20
5164.897510545439
 30
0.0
 40
3.0
100
AcDbArc
 50
1.093224029289586
 51
80.18775403169765
  0
ARC
  5
1628D
330
747D
100
AcDbEntity
  8
部品1
100
AcDbCircle
 10
10189.45676255031
 20
5257.763288745558
 30
0.0
 40
3.0
100
AcDbArc
 50
1.093224029289586
 51
80.18775403169765
  0
ARC
  5
1628E
330
747D
100
AcDbEntity
  8
部品1
100
AcDbCircle
 10
10190.08731695333
 20
5261.409163282957
 30
0.0
 40
0.7
100
AcDbArc
 50
181.0932240292114
 51
260.1877540314855
  0
ARC
  5
1628F
330
747D
100
AcDbEntity
  8
部品1
100
AcDbCircle
 10
10194.85999055094
 20
5168.543385082838
 30
0.0
 40
0.7
100
AcDbArc
 50
181.0932240292375
 51
260.1877540314855
  0
LINE
  5
16290
330
747D
100
AcDbEntity
  8
部品1
 48
50.0
100
AcDbLine
 10
11698.03680149027
 20
5225.080422016578
 30
0.0
 11
11696.0061802993
 21
5205.135380758797
 31
0.0
  0
LINE
  5
16291
330
747D
100
AcDbEntity
  8
部品1
 48
50.0
100
AcDbLine
 10
11692.65361381482
 20
5201.824746685889
 30
0.0
 11
11685.14683454998
 21
5128.092125940875
 31
0.0
  0
LINE
  5
16292
330
747D
100
AcDbEntity
  8
部品1
 48
50.0
100
AcDbLine
 10
11681.7942680655
 20
5124.781491867963
 30
0.0
 11
11680.71470502576
 21
5114.177874874406
 31
0.0
  0
ARC
  5
16293
330
747D
100
AcDbEntity
  8
部品1
 48
50.0
100
AcDbCircle
 10
11691.07280092552
 20
5225.789432689351
 30
0.0
 40
7.0
100
AcDbArc
 50
354.1866997665337
 51
87.03587545283093
  0
ARC
  5
16294
330
747D
100
AcDbEntity
  8
部品1
 48
50.0
100
AcDbCircle
 10
11673.750704461
 20
5114.886885547178
 30
0.0
 40
7.0
100
AcDbArc
 50
267.8377559869489
 51
354.1866997665337
  0
ARC
  5
16295
330
747D
100
AcDbEntity
  8
部品1
100
AcDbCircle
 10
11684.7788397361
 20
5124.477630151061
 30
0.0
 40
3.0
100
AcDbArc
 50
95.0921697642102
 51
174.1866997665337
  0
ARC
  5
16296
330
747D
100
AcDbEntity
  8
部品1
100
AcDbCircle
 10
11695.63818548543
 20
5201.520884968984
 30
0.0
 40
3.0
100
AcDbArc
 50
95.0921697642102
 51
174.1866997665337
  0
ARC
  5
16297
330
747D
100
AcDbEntity
  8
部品1
100
AcDbCircle
 10
11695.30978024283
 20
5205.206281826075
 30
0.0
 40
0.7
100
AcDbArc
 50
275.0921697642102
 51
354.1866997665337
  0
ARC
  5
16298
330
747D
100
AcDbEntity
  8
部品1
100
AcDbCircle
 10
11684.45043449351
 20
5128.163027008151
 30
0.0
 40
0.7
100
AcDbArc
 50
275.0921697642102
 51
354.1866997666892
  0
DIMENSION
  5
16299
330
747D
100
AcDbEntity
  8
寸法
 48
50.0
100
AcDbDimension
  2
*D28
 10
11698.82289867957
 20
5688.386679703237
 30
0.0
 11
11904.87014277406
 21
5688.386679703237
 31
0.0
 70
   160
 71
     5
 42
80.0
  3
INABA_S40G
100
AcDbAlignedDimension
 13
11618.82289867957
 23
5236.539905735586
 33
0.0
 14
11698.82289867957
 24
5234.729226123935
 34
0.0
100
AcDbRotatedDimension
1001
ACAD
1000
DSTYLE
1002
{
1070
   174
1070
     0
1070
   272
1070
     1
1070
   288
1070
     0
1070
   341
1005
0
1002
}
  0
DIMENSION
  5
1629A
330
747D
100
AcDbEntity
  8
寸法
 48
50.0
100
AcDbDimension
  2
*D29
 10
9596.556646968203
 20
5311.551717020749
 30
0.0
 11
9605.23439062009
 21
5541.387956037641
 31
0.0
 70
   160
 71
     5
 42
141.0000000000009
  3
INABA_S40G
100
AcDbAlignedDimension
 13
10204.16546328153
 23
5147.5102511929
 33
0.0
 14
10209.48529743348
 24
5288.409858589783
 34
0.0
 50
87.83775598715742
100
AcDbRotatedDimension
1001
ACAD
1000
DSTYLE
1002
{
1070
   174
1070
     0
1070
   272
1070
     1
1070
   288
1070
     0
1070
   341
1005
0
1002
}
  0
LINE
  5
1629B
330
747D
100
AcDbEntity
  8
部品1
 48
50.0
100
AcDbLine
 10
10793.82289867957
 20
5420.597365225212
 30
0.0
 11
11093.82289867957
 21
5420.597365225212
 31
0.0
  0
LINE
  5
1629C
330
747D
100
AcDbEntity
  8
部品1
 48
50.0
100
AcDbLine
 10
11093.82289867957
 20
5420.597365225212
 30
0.0
 11
11093.82289867957
 21
5398.997365225214
 31
0.0
  0
TEXT
  5
1629D
330
747D
100
AcDbEntity
  8
部品1
 48
50.0
100
AcDbText
 10
10782.0907339033
 20
5456.481387377646
 30
0.0
 40
120.0
  1
1000
  7
STYLE1
100
AcDbText
  0
TEXT
  5
1629E
330
747D
100
AcDbEntity
  8
部品1
 48
50.0
100
AcDbText
 10
11270.91574596743
 20
5318.980129159363
 30
0.0
 40
120.0
  1
71
 50
90.0
  7
STYLE1
100
AcDbText
  0
LINE
  5
1629F
330
747D
100
AcDbEntity
  8
部品1
100
AcDbLine
 10
11143.82289867957
 20
5054.729226123932
 30
0.0
 11
11143.82289867957
 21
3264.729226123933
 31
0.0
  0
LINE
  5
162A0
330
747D
100
AcDbEntity
  8
細線
 48
50.0
100
AcDbLine
 10
11486.32289867957
 20
5054.729226123932
 30
0.0
 11
11486.32289867957
 21
3264.729226123933
 31
0.0
  0
LINE
  5
162A1
330
747D
100
AcDbEntity
  8
細線
 48
50.0
100
AcDbLine
 10
11501.32289867958
 20
5054.729226123932
 30
0.0
 11
11501.32289867958
 21
3264.729226123933
 31
0.0
  0
LINE
  5
162A2
330
747D
100
AcDbEntity
  8
細線
 48
50.0
100
AcDbLine
 10
11361.32289867958
 20
5054.729226123932
 30
0.0
 11
11361.32289867958
 21
3264.729226123933
 31
0.0
  0
LINE
  5
162A3
330
747D
100
AcDbEntity
  8
細線
 48
50.0
100
AcDbLine
 10
11346.32289867957
 20
5054.729226123932
 30
0.0
 11
11346.32289867957
 21
3264.729226123933
 31
0.0
  0
LINE
  5
162A4
330
747D
100
AcDbEntity
  8
細線
 48
50.0
100
AcDbLine
 10
11206.32289867957
 20
5054.729226123932
 30
0.0
 11
11206.32289867957
 21
3264.729226123933
 31
0.0
  0
LINE
  5
162A5
330
747D
100
AcDbEntity
  8
細線
 48
50.0
100
AcDbLine
 10
11221.32289867957
 20
5054.729226123932
 30
0.0
 11
11221.32289867957
 21
3264.729226123933
 31
0.0
  0
LINE
  5
162A6
330
747D
100
AcDbEntity
  8
部品1
 48
50.0
100
AcDbLine
 10
10793.82289867957
 20
5420.597365225212
 30
0.0
 11
11093.82289867957
 21
5398.997365225214
 31
0.0
  0
LWPOLYLINE
  5
162A7
330
747D
100
AcDbEntity
  8
部品1
100
AcDbPolyline
 90
        4
 70
     1
 43
0.0
 10
10562.08756556535
 20
2323.679939767492
 10
10562.08756556535
 20
2083.78761822196
 10
11325.55823179379
 20
2083.78761822196
 10
11325.55823179379
 20
2323.679939767492
  0
TEXT
  5
162A8
330
747D
100
AcDbEntity
  8
部品1
100
AcDbText
 10
10651.53366698896
 20
2130.786410548968
 30
0.0
 40
135.0
  1
側面図
  7
STYLE2
100
AcDbText
  0
TEXT
  5
16311
330
747D
100
AcDbEntity
  8
文字
 62
     7
 48
50.0
100
AcDbText
 10
14271.39351435261
 20
483.8967129911411
 30
0.0
 40
160.0
  1
ＮＸＮ－１３ＤＬ－４
  7
STYLE2
100
AcDbText
  0
LINE
  5
1634C
330
747D
100
AcDbEntity
  8
仕様書枠
 48
50.0
100
AcDbLine
 10
16307.19999999999
 20
11409.6
 30
0.0
 11
13127.2
 21
11409.6
 31
0.0
  0
MTEXT
  5
16933
330
747D
100
AcDbEntity
  8
寸法
 62
     7
 48
50.0
100
AcDbMText
 10
5002.573719715329
 20
8961.631611875779
 30
0.0
 40
96.0
 41
0.0
 71
     5
 72
     1
  1
棚 2段
  7
STYLE1
 73
     1
 44
1.0
1001
ACAD
1000
MTEXTBEGIN
1070
    73
1070
     1
1070
    44
1040
1.0
1070
    74
1070
     0
1000
MTEXTEND
  0
MTEXT
  5
16934
330
747D
100
AcDbEntity
  8
寸法
 62
     7
 48
50.0
100
AcDbMText
 10
5952.573719715328
 20
8961.631611875779
 30
0.0
 40
96.0
 41
0.0
 71
     5
 72
     1
  1
棚 2段
  7
STYLE1
 73
     1
 44
1.0
1001
ACAD
1000
MTEXTBEGIN
1070
    73
1070
     1
1070
    44
1040
1.0
1070
    74
1070
     0
1000
MTEXTEND
  0
MTEXT
  5
16935
330
747D
100
AcDbEntity
  8
寸法
 62
     7
 48
50.0
100
AcDbMText
 10
6903.305321160336
 20
8961.631611875766
 30
0.0
 40
96.0
 41
0.0
 71
     5
 72
     1
  1
棚 2段
  7
STYLE1
 73
     1
 44
1.0
1001
ACAD
1000
MTEXTBEGIN
1070
    73
1070
     1
1070
    44
1040
1.0
1070
    74
1070
     0
1000
MTEXTEND
  0
MTEXT
  5
16978
330
747D
100
AcDbEntity
  8
寸法
 62
     7
 48
50.0
100
AcDbMText
 10
7853.305321160336
 20
8961.631611875766
 30
0.0
 40
96.0
 41
0.0
 71
     5
 72
     1
  1
棚 2段
  7
STYLE1
 73
     1
 44
1.0
1001
ACAD
1000
MTEXTBEGIN
1070
    73
1070
     1
1070
    44
1040
1.0
1070
    74
1070
     0
1000
MTEXTEND
  0
DIMENSION
  5
1698F
330
747D
100
AcDbEntity
  8
寸法
 48
50.0
100
AcDbDimension
  2
*D32
 10
4513.02551687209
 20
5502.270811382179
 30
0.0
 11
6413.025516872082
 21
5502.270811382179
 31
0.0
 70
   160
  1
柱外寸法<>
 71
     5
 42
3800.000000000004
  3
INABA_S40G
100
AcDbAlignedDimension
 13
8313.025516872095
 23
5289.729226123936
 33
0.0
 14
4513.02551687209
 24
5289.729226123942
 34
0.0
100
AcDbRotatedDimension
  0
DIMENSION
  5
16990
330
747D
100
AcDbEntity
  8
寸法
 48
50.0
100
AcDbDimension
  2
*D31
 10
8363.025516872095
 20
5725.227789820026
 30
0.0
 11
6413.025516872082
 21
5725.227789820026
 31
0.0
 70
   160
 71
     5
 42
3900.000000000004
  3
INABA_S40G
100
AcDbAlignedDimension
 13
4463.02551687209
 23
5289.72922612394
 33
0.0
 14
8363.025516872095
 24
5289.729226123935
 34
0.0
100
AcDbRotatedDimension
  0
DIMENSION
  5
16992
330
747D
100
AcDbEntity
  8
寸法
 48
50.0
100
AcDbDimension
  2
*D30
 10
4463.02551687209
 20
5502.270811382179
 30
0.0
 11
4149.540235497843
 21
5502.270811382179
 31
0.0
 70
   160
 71
     5
 42
50.0
  3
INABA_S40G
100
AcDbAlignedDimension
 13
4513.02551687209
 23
5289.729226123942
 33
0.0
 14
4463.02551687209
 24
5289.72922612394
 34
0.0
100
AcDbRotatedDimension
1001
ACAD
1000
DSTYLE
1002
{
1002
}
  0
LINE
  5
16993
330
747D
100
AcDbEntity
  8
部品1
100
AcDbLine
 10
4463.445177887421
 20
5282.332700728699
 30
0.0
 11
4464.578575219769
 21
5262.356572746099
 31
0.0
  0
LINE
  5
16994
330
747D
100
AcDbEntity
  8
部品1
100
AcDbLine
 10
4476.015595541347
 20
5166.699165579041
 30
0.0
 11
4476.660501348455
 21
5155.332700728699
 31
0.0
  0
LINE
  5
16995
330
747D
100
AcDbEntity
  8
部品1
100
AcDbLine
 10
4467.779565016498
 20
5258.899165579041
 30
0.0
 11
4472.81460574461
 21
5170.156572746098
 31
0.0
  0
ARC
  5
16996
330
747D
100
AcDbEntity
  8
部品1
 48
50.0
100
AcDbCircle
 10
4464.784382120313
 20
5258.729226123939
 30
0.0
 40
3.0
100
AcDbArc
 50
3.247342790337682
 51
82.34187279263654
  0
ARC
  5
16997
330
747D
100
AcDbEntity
  8
部品1
 48
50.0
100
AcDbCircle
 10
4473.020412645158
 20
5166.529226123937
 30
0.0
 40
3.0
100
AcDbArc
 50
3.247342790337682
 51
82.34187279263654
  0
ARC
  5
16998
330
747D
100
AcDbEntity
  8
部品1
 48
50.0
100
AcDbCircle
 10
4473.513481753718
 20
5170.196225285621
 30
0.0
 40
0.7
100
AcDbArc
 50
183.2473427902922
 51
262.3418727926365
  0
ARC
  5
16999
330
747D
100
AcDbEntity
  8
部品1
 48
50.0
100
AcDbCircle
 10
4465.277451228877
 20
5262.396225285625
 30
0.0
 40
0.7
100
AcDbArc
 50
183.2473427903897
 51
262.3418727926365
  0
ARC
  5
1699A
330
747D
100
AcDbEntity
  8
部品1
100
AcDbCircle
 10
4483.649261439554
 20
5155.72922612394
 30
0.0
 40
7.0
100
AcDbArc
 50
183.2473427903377
 51
270.0
  0
ARC
  5
1699B
330
747D
100
AcDbEntity
  8
部品1
100
AcDbCircle
 10
4470.433937978519
 20
5282.729226123938
 30
0.0
 40
7.0
100
AcDbArc
 50
90.0
 51
183.2473427903377
  0
LINE
  5
1699C
330
747D
100
AcDbEntity
  8
細線
 48
50.0
100
AcDbLine
 10
4496.02551687209
 20
5289.729226123938
 30
0.0
 11
4496.02551687209
 21
5148.729226123936
 31
0.0
  0
LINE
  5
1699D
330
747D
100
AcDbEntity
  8
部品1
 48
50.0
100
AcDbLine
 10
8342.401772304627
 20
5148.729226123935
 30
0.0
 11
4483.649261439554
 21
5148.729226123936
 31
0.0
  0
LINE
  5
1699E
330
747D
100
AcDbEntity
  8
細線
 48
50.0
100
AcDbLine
 10
8352.630835335858
 20
5169.502468687472
 30
0.0
 11
4473.420198407337
 21
5169.502468687934
 31
0.0
  0
LINE
  5
1699F
330
747D
100
AcDbEntity
  8
細線
 48
50.0
100
AcDbLine
 10
8360.866865860645
 20
5261.702468687468
 30
0.0
 11
4465.184167882504
 21
5261.702468687934
 31
0.0
  0
LINE
  5
169A0
330
747D
100
AcDbEntity
  8
部品1
 48
50.0
100
AcDbLine
 10
8355.617095765662
 20
5289.729226123939
 30
0.0
 11
4470.433937978519
 21
5289.729226123935
 31
0.0
  0
DIMENSION
  5
169FD
330
747D
100
AcDbEntity
  8
寸法
 48
50.0
100
AcDbDimension
  2
*D33
 10
8313.025516872095
 20
5502.270811382175
 30
0.0
 11
8676.510798246331
 21
5502.270811382175
 31
0.0
 70
   160
 71
     5
 42
50.0
  3
INABA_S40G
100
AcDbAlignedDimension
 13
8363.025516872095
 23
5289.729226123935
 33
0.0
 14
8313.025516872095
 24
5289.729226123936
 34
0.0
100
AcDbRotatedDimension
  0
ARC
  5
169FE
330
747D
100
AcDbEntity
  8
部品1
100
AcDbCircle
 10
8355.617095765662
 20
5282.729226123934
 30
0.0
 40
7.0
100
AcDbArc
 50
356.7526572096623
 51
90.0
  0
ARC
  5
169FF
330
747D
100
AcDbEntity
  8
部品1
100
AcDbCircle
 10
8342.401772304627
 20
5155.729226123936
 30
0.0
 40
7.0
100
AcDbArc
 50
270.0
 51
356.7526572096623
  0
ARC
  5
16A00
330
747D
100
AcDbEntity
  8
部品1
 48
50.0
100
AcDbCircle
 10
8360.773582515307
 20
5262.396225285622
 30
0.0
 40
0.7
100
AcDbArc
 50
277.6581272073635
 51
356.7526572096103
  0
ARC
  5
16A01
330
747D
100
AcDbEntity
  8
部品1
 48
50.0
100
AcDbCircle
 10
8352.537551990463
 20
5170.196225285618
 30
0.0
 40
0.7
100
AcDbArc
 50
277.6581272073635
 51
356.7526572097079
  0
ARC
  5
16A02
330
747D
100
AcDbEntity
  8
部品1
 48
50.0
100
AcDbCircle
 10
8353.030621099025
 20
5166.529226123934
 30
0.0
 40
3.0
100
AcDbArc
 50
97.65812720736347
 51
176.7526572096623
  0
ARC
  5
16A03
330
747D
100
AcDbEntity
  8
部品1
 48
50.0
100
AcDbCircle
 10
8361.266651623868
 20
5258.729226123936
 30
0.0
 40
3.0
100
AcDbArc
 50
97.65812720736347
 51
176.7526572096623
  0
LINE
  5
16A04
330
747D
100
AcDbEntity
  8
部品1
100
AcDbLine
 10
8358.271468727682
 20
5258.899165579038
 30
0.0
 11
8353.23642799957
 21
5170.156572746094
 31
0.0
  0
LINE
  5
16A05
330
747D
100
AcDbEntity
  8
部品1
100
AcDbLine
 10
8350.035438202837
 20
5166.699165579037
 30
0.0
 11
8349.390532395727
 21
5155.332700728697
 31
0.0
  0
LINE
  5
16A06
330
747D
100
AcDbEntity
  8
細線
 48
50.0
100
AcDbLine
 10
8330.025516872094
 20
5289.729226123935
 30
0.0
 11
8330.025516872094
 21
5148.729226123935
 31
0.0
  0
LINE
  5
16A07
330
747D
100
AcDbEntity
  8
部品1
100
AcDbLine
 10
8362.605855856761
 20
5282.332700728695
 30
0.0
 11
8361.472458524415
 21
5262.356572746096
 31
0.0
  0
TEXT
  5
16A9D
330
747D
100
AcDbEntity
  8
部品1
100
AcDbText
 10
6121.815587495818
 20
2130.786410548968
 30
0.0
 40
135.0
  1
正面図
  7
STYLE2
100
AcDbText
  0
LWPOLYLINE
  5
16A9E
330
747D
100
AcDbEntity
  8
部品1
100
AcDbPolyline
 90
        4
 70
     1
 43
0.0
 10
6031.290183757862
 20
2323.679939767492
 10
6031.290183757862
 20
2083.78761822196
 10
6794.760849986302
 20
2083.78761822196
 10
6794.760849986302
 20
2323.679939767492
  0
LINE
  5
170BC
330
747D
100
AcDbEntity
  8
細線
100
AcDbLine
 10
4988.025516872091
 20
5114.229226123931
 30
0.0
 11
4988.025516872087
 21
5091.229226123931
 31
0.0
  0
LINE
  5
170BD
330
747D
100
AcDbEntity
  8
細線
100
AcDbLine
 10
5062.025516872086
 20
5102.229226123931
 30
0.0
 11
4988.025516872091
 21
5102.229226123931
 31
0.0
  0
LINE
  5
170BE
330
747D
100
AcDbEntity
  8
細線
100
AcDbLine
 10
5062.025516872086
 20
5096.229226123931
 30
0.0
 11
4988.025516872091
 21
5096.229226123931
 31
0.0
  0
LINE
  5
170BF
330
747D
100
AcDbEntity
  8
細線
100
AcDbLine
 10
5062.025516872086
 20
5108.229226123931
 30
0.0
 11
4988.025516872091
 21
5108.229226123931
 31
0.0
  0
LINE
  5
170C0
330
747D
100
AcDbEntity
  8
細線
100
AcDbLine
 10
4914.02551687209
 20
5108.229226123931
 30
0.0
 11
4983.02551687209
 21
5108.229226123931
 31
0.0
  0
LINE
  5
170C1
330
747D
100
AcDbEntity
  8
細線
100
AcDbLine
 10
4914.025516872086
 20
5096.229226123931
 30
0.0
 11
4988.025516872091
 21
5096.229226123931
 31
0.0
  0
LINE
  5
170C2
330
747D
100
AcDbEntity
  8
細線
100
AcDbLine
 10
4914.02551687209
 20
5102.229226123931
 30
0.0
 11
4988.025516872091
 21
5102.229226123931
 31
0.0
  0
LINE
  5
170C3
330
747D
100
AcDbEntity
  8
細線
100
AcDbLine
 10
4914.02551687209
 20
5108.229226123931
 30
0.0
 11
4988.025516872091
 21
5108.229226123931
 31
0.0
  0
LINE
  5
170C4
330
747D
100
AcDbEntity
  8
部品1
 48
0.01
100
AcDbLine
 10
5076.02551687209
 20
5120.72922612393
 30
0.0
 11
4900.025516872091
 21
5120.72922612393
 31
0.0
  0
LINE
  5
170C5
330
747D
100
AcDbEntity
  8
部品1
 48
0.01
100
AcDbLine
 10
4898.025516872091
 20
5118.729226123931
 30
0.0
 11
4898.025516872091
 21
5087.22922612393
 31
0.0
  0
LINE
  5
170C6
330
747D
100
AcDbEntity
  8
部品1
 48
0.01
100
AcDbLine
 10
4900.025516872091
 20
5085.229226123932
 30
0.0
 11
5076.025516872086
 21
5085.229226123932
 31
0.0
  0
LINE
  5
170C7
330
747D
100
AcDbEntity
  8
部品1
 48
0.01
100
AcDbLine
 10
5078.025516872087
 20
5087.22922612393
 30
0.0
 11
5078.025516872091
 21
5118.729226123931
 31
0.0
  0
LINE
  5
170C8
330
747D
100
AcDbEntity
  8
細線
100
AcDbLine
 10
4914.02551687209
 20
5114.229226123931
 30
0.0
 11
4914.02551687209
 21
5091.229226123931
 31
0.0
  0
LINE
  5
170C9
330
747D
100
AcDbEntity
  8
細線
100
AcDbLine
 10
5062.025516872091
 20
5091.229226123931
 30
0.0
 11
5062.025516872091
 21
5114.229226123931
 31
0.0
  0
LINE
  5
170CA
330
747D
100
AcDbEntity
  8
細線
100
AcDbLine
 10
5062.025516872091
 20
5114.229226123931
 30
0.0
 11
4988.025516872091
 21
5114.229226123931
 31
0.0
  0
LINE
  5
170CB
330
747D
100
AcDbEntity
  8
細線
100
AcDbLine
 10
4914.02551687209
 20
5091.229226123931
 30
0.0
 11
4988.025516872091
 21
5091.229226123931
 31
0.0
  0
LINE
  5
170CC
330
747D
100
AcDbEntity
  8
細線
100
AcDbLine
 10
4988.025516872091
 20
5114.229226123931
 30
0.0
 11
4914.02551687209
 21
5114.229226123931
 31
0.0
  0
LINE
  5
170CD
330
747D
100
AcDbEntity
  8
細線
100
AcDbLine
 10
4988.025516872087
 20
5091.229226123931
 30
0.0
 11
5062.025516872091
 21
5091.229226123931
 31
0.0
  0
ARC
  5
170CE
330
747D
100
AcDbEntity
  8
部品1
 48
0.01
100
AcDbCircle
 10
4900.025516872091
 20
5118.729226123931
 30
0.0
 40
2.0
100
AcDbArc
 50
90.0
 51
180.0
  0
ARC
  5
170CF
330
747D
100
AcDbEntity
  8
部品1
 48
0.01
100
AcDbCircle
 10
4900.025516872091
 20
5087.22922612393
 30
0.0
 40
2.0
100
AcDbArc
 50
180.0
 51
270.0
  0
ARC
  5
170D0
330
747D
100
AcDbEntity
  8
部品1
 48
0.01
100
AcDbCircle
 10
5076.02551687209
 20
5118.729226123931
 30
0.0
 40
2.0
100
AcDbArc
 50
0.0
 51
90.0
  0
ARC
  5
170D1
330
747D
100
AcDbEntity
  8
部品1
 48
0.01
100
AcDbCircle
 10
5076.025516872086
 20
5087.22922612393
 30
0.0
 40
2.0
100
AcDbArc
 50
270.0
 51
0.0
  0
ARC
  5
170D2
330
747D
100
AcDbEntity
  8
部品1
 48
0.01
100
AcDbCircle
 10
6026.025516872087
 20
5087.22922612393
 30
0.0
 40
2.0
100
AcDbArc
 50
270.0
 51
0.0
  0
ARC
  5
170D3
330
747D
100
AcDbEntity
  8
部品1
 48
0.01
100
AcDbCircle
 10
6026.02551687209
 20
5118.729226123929
 30
0.0
 40
2.0
100
AcDbArc
 50
0.0
 51
90.0
  0
ARC
  5
170D4
330
747D
100
AcDbEntity
  8
部品1
 48
0.01
100
AcDbCircle
 10
5850.02551687209
 20
5087.22922612393
 30
0.0
 40
2.0
100
AcDbArc
 50
180.0
 51
270.0
  0
ARC
  5
170D5
330
747D
100
AcDbEntity
  8
部品1
 48
0.01
100
AcDbCircle
 10
5850.02551687209
 20
5118.729226123929
 30
0.0
 40
2.0
100
AcDbArc
 50
90.0
 51
180.0
  0
LINE
  5
170D6
330
747D
100
AcDbEntity
  8
細線
100
AcDbLine
 10
5938.025516872087
 20
5091.229226123929
 30
0.0
 11
6012.025516872091
 21
5091.229226123929
 31
0.0
  0
LINE
  5
170D7
330
747D
100
AcDbEntity
  8
細線
100
AcDbLine
 10
5938.025516872091
 20
5114.229226123929
 30
0.0
 11
5864.02551687209
 21
5114.229226123929
 31
0.0
  0
LINE
  5
170D8
330
747D
100
AcDbEntity
  8
細線
100
AcDbLine
 10
5864.02551687209
 20
5091.229226123929
 30
0.0
 11
5938.025516872091
 21
5091.229226123929
 31
0.0
  0
LINE
  5
170D9
330
747D
100
AcDbEntity
  8
細線
100
AcDbLine
 10
6012.025516872091
 20
5114.229226123929
 30
0.0
 11
5938.025516872091
 21
5114.229226123929
 31
0.0
  0
LINE
  5
170DA
330
747D
100
AcDbEntity
  8
細線
100
AcDbLine
 10
6012.025516872091
 20
5091.229226123929
 30
0.0
 11
6012.025516872091
 21
5114.229226123929
 31
0.0
  0
LINE
  5
170DB
330
747D
100
AcDbEntity
  8
細線
100
AcDbLine
 10
5864.02551687209
 20
5114.229226123929
 30
0.0
 11
5864.02551687209
 21
5091.229226123929
 31
0.0
  0
LINE
  5
170DC
330
747D
100
AcDbEntity
  8
部品1
 48
0.01
100
AcDbLine
 10
6028.025516872087
 20
5087.22922612393
 30
0.0
 11
6028.025516872091
 21
5118.729226123929
 31
0.0
  0
LINE
  5
170DD
330
747D
100
AcDbEntity
  8
部品1
 48
0.01
100
AcDbLine
 10
5850.02551687209
 20
5085.229226123929
 30
0.0
 11
6026.025516872087
 21
5085.229226123929
 31
0.0
  0
LINE
  5
170DE
330
747D
100
AcDbEntity
  8
部品1
 48
0.01
100
AcDbLine
 10
5848.025516872091
 20
5118.729226123929
 30
0.0
 11
5848.025516872091
 21
5087.22922612393
 31
0.0
  0
LINE
  5
170DF
330
747D
100
AcDbEntity
  8
部品1
 48
0.01
100
AcDbLine
 10
6026.02551687209
 20
5120.729226123929
 30
0.0
 11
5850.02551687209
 21
5120.729226123929
 31
0.0
  0
LINE
  5
170E0
330
747D
100
AcDbEntity
  8
細線
100
AcDbLine
 10
5864.02551687209
 20
5108.229226123929
 30
0.0
 11
5938.025516872091
 21
5108.229226123929
 31
0.0
  0
LINE
  5
170E1
330
747D
100
AcDbEntity
  8
細線
100
AcDbLine
 10
5864.02551687209
 20
5102.229226123929
 30
0.0
 11
5938.025516872091
 21
5102.229226123929
 31
0.0
  0
LINE
  5
170E2
330
747D
100
AcDbEntity
  8
細線
100
AcDbLine
 10
5864.025516872087
 20
5096.229226123929
 30
0.0
 11
5938.025516872091
 21
5096.229226123929
 31
0.0
  0
LINE
  5
170E3
330
747D
100
AcDbEntity
  8
細線
100
AcDbLine
 10
5864.02551687209
 20
5108.229226123929
 30
0.0
 11
5933.02551687209
 21
5108.229226123929
 31
0.0
  0
LINE
  5
170E4
330
747D
100
AcDbEntity
  8
細線
100
AcDbLine
 10
6012.025516872086
 20
5108.229226123929
 30
0.0
 11
5938.025516872091
 21
5108.229226123929
 31
0.0
  0
LINE
  5
170E5
330
747D
100
AcDbEntity
  8
細線
100
AcDbLine
 10
6012.025516872086
 20
5096.229226123929
 30
0.0
 11
5938.025516872091
 21
5096.229226123929
 31
0.0
  0
LINE
  5
170E6
330
747D
100
AcDbEntity
  8
細線
100
AcDbLine
 10
6012.025516872086
 20
5102.229226123929
 30
0.0
 11
5938.025516872091
 21
5102.229226123929
 31
0.0
  0
LINE
  5
170E7
330
747D
100
AcDbEntity
  8
細線
100
AcDbLine
 10
5938.025516872091
 20
5114.229226123929
 30
0.0
 11
5938.025516872087
 21
5091.229226123929
 31
0.0
  0
LINE
  5
170E8
330
747D
100
AcDbEntity
  8
細線
100
AcDbLine
 10
6888.02551687209
 20
5114.229226123929
 30
0.0
 11
6888.025516872087
 21
5091.229226123929
 31
0.0
  0
LINE
  5
170E9
330
747D
100
AcDbEntity
  8
細線
100
AcDbLine
 10
6962.025516872087
 20
5102.229226123929
 30
0.0
 11
6888.02551687209
 21
5102.229226123929
 31
0.0
  0
LINE
  5
170EA
330
747D
100
AcDbEntity
  8
細線
100
AcDbLine
 10
6962.025516872087
 20
5096.229226123929
 30
0.0
 11
6888.02551687209
 21
5096.229226123929
 31
0.0
  0
LINE
  5
170EB
330
747D
100
AcDbEntity
  8
細線
100
AcDbLine
 10
6962.025516872087
 20
5108.229226123929
 30
0.0
 11
6888.02551687209
 21
5108.229226123929
 31
0.0
  0
LINE
  5
170EC
330
747D
100
AcDbEntity
  8
細線
100
AcDbLine
 10
6814.025516872091
 20
5108.229226123929
 30
0.0
 11
6883.025516872091
 21
5108.229226123929
 31
0.0
  0
LINE
  5
170ED
330
747D
100
AcDbEntity
  8
細線
100
AcDbLine
 10
6814.025516872087
 20
5096.229226123929
 30
0.0
 11
6888.02551687209
 21
5096.229226123929
 31
0.0
  0
LINE
  5
170EE
330
747D
100
AcDbEntity
  8
細線
100
AcDbLine
 10
6814.025516872091
 20
5102.229226123929
 30
0.0
 11
6888.02551687209
 21
5102.229226123929
 31
0.0
  0
LINE
  5
170EF
330
747D
100
AcDbEntity
  8
細線
100
AcDbLine
 10
6814.025516872091
 20
5108.229226123929
 30
0.0
 11
6888.02551687209
 21
5108.229226123929
 31
0.0
  0
LINE
  5
170F0
330
747D
100
AcDbEntity
  8
部品1
 48
0.01
100
AcDbLine
 10
6976.02551687209
 20
5120.729226123929
 30
0.0
 11
6800.025516872091
 21
5120.729226123929
 31
0.0
  0
LINE
  5
170F1
330
747D
100
AcDbEntity
  8
部品1
 48
0.01
100
AcDbLine
 10
6798.02551687209
 20
5118.729226123929
 30
0.0
 11
6798.02551687209
 21
5087.22922612393
 31
0.0
  0
LINE
  5
170F2
330
747D
100
AcDbEntity
  8
部品1
 48
0.01
100
AcDbLine
 10
6800.025516872091
 20
5085.229226123929
 30
0.0
 11
6976.025516872088
 21
5085.229226123929
 31
0.0
  0
LINE
  5
170F3
330
747D
100
AcDbEntity
  8
部品1
 48
0.01
100
AcDbLine
 10
6978.025516872087
 20
5087.22922612393
 30
0.0
 11
6978.025516872091
 21
5118.729226123929
 31
0.0
  0
LINE
  5
170F4
330
747D
100
AcDbEntity
  8
細線
100
AcDbLine
 10
6814.025516872091
 20
5114.229226123929
 30
0.0
 11
6814.025516872091
 21
5091.229226123929
 31
0.0
  0
LINE
  5
170F5
330
747D
100
AcDbEntity
  8
細線
100
AcDbLine
 10
6962.02551687209
 20
5091.229226123929
 30
0.0
 11
6962.02551687209
 21
5114.229226123929
 31
0.0
  0
LINE
  5
170F6
330
747D
100
AcDbEntity
  8
細線
100
AcDbLine
 10
6962.02551687209
 20
5114.229226123929
 30
0.0
 11
6888.02551687209
 21
5114.229226123929
 31
0.0
  0
LINE
  5
170F7
330
747D
100
AcDbEntity
  8
細線
100
AcDbLine
 10
6814.025516872091
 20
5091.229226123929
 30
0.0
 11
6888.02551687209
 21
5091.229226123929
 31
0.0
  0
LINE
  5
170F8
330
747D
100
AcDbEntity
  8
細線
100
AcDbLine
 10
6888.02551687209
 20
5114.229226123929
 30
0.0
 11
6814.025516872091
 21
5114.229226123929
 31
0.0
  0
LINE
  5
170F9
330
747D
100
AcDbEntity
  8
細線
100
AcDbLine
 10
6888.025516872087
 20
5091.229226123929
 30
0.0
 11
6962.02551687209
 21
5091.229226123929
 31
0.0
  0
ARC
  5
170FA
330
747D
100
AcDbEntity
  8
部品1
 48
0.01
100
AcDbCircle
 10
6800.025516872091
 20
5118.729226123929
 30
0.0
 40
2.0
100
AcDbArc
 50
90.0
 51
180.0
  0
ARC
  5
170FB
330
747D
100
AcDbEntity
  8
部品1
 48
0.01
100
AcDbCircle
 10
6800.025516872091
 20
5087.22922612393
 30
0.0
 40
2.0
100
AcDbArc
 50
180.0
 51
270.0
  0
ARC
  5
170FC
330
747D
100
AcDbEntity
  8
部品1
 48
0.01
100
AcDbCircle
 10
6976.02551687209
 20
5118.729226123929
 30
0.0
 40
2.0
100
AcDbArc
 50
0.0
 51
90.0
  0
ARC
  5
170FD
330
747D
100
AcDbEntity
  8
部品1
 48
0.01
100
AcDbCircle
 10
6976.025516872088
 20
5087.22922612393
 30
0.0
 40
2.0
100
AcDbArc
 50
270.0
 51
0.0
  0
ARC
  5
170FE
330
747D
100
AcDbEntity
  8
部品1
 48
0.01
100
AcDbCircle
 10
7926.025516872087
 20
5087.22922612393
 30
0.0
 40
2.0
100
AcDbArc
 50
270.0
 51
0.0
  0
ARC
  5
170FF
330
747D
100
AcDbEntity
  8
部品1
 48
0.01
100
AcDbCircle
 10
7926.025516872091
 20
5118.729226123929
 30
0.0
 40
2.0
100
AcDbArc
 50
0.0
 51
90.0
  0
ARC
  5
17100
330
747D
100
AcDbEntity
  8
部品1
 48
0.01
100
AcDbCircle
 10
7750.025516872091
 20
5087.22922612393
 30
0.0
 40
2.0
100
AcDbArc
 50
180.0
 51
270.0
  0
ARC
  5
17101
330
747D
100
AcDbEntity
  8
部品1
 48
0.01
100
AcDbCircle
 10
7750.025516872091
 20
5118.729226123929
 30
0.0
 40
2.0
100
AcDbArc
 50
90.0
 51
180.0
  0
LINE
  5
17102
330
747D
100
AcDbEntity
  8
細線
100
AcDbLine
 10
7838.025516872086
 20
5091.229226123929
 30
0.0
 11
7912.02551687209
 21
5091.229226123929
 31
0.0
  0
LINE
  5
17103
330
747D
100
AcDbEntity
  8
細線
100
AcDbLine
 10
7838.02551687209
 20
5114.229226123929
 30
0.0
 11
7764.025516872091
 21
5114.229226123929
 31
0.0
  0
LINE
  5
17104
330
747D
100
AcDbEntity
  8
細線
100
AcDbLine
 10
7764.025516872091
 20
5091.229226123929
 30
0.0
 11
7838.02551687209
 21
5091.229226123929
 31
0.0
  0
LINE
  5
17105
330
747D
100
AcDbEntity
  8
細線
100
AcDbLine
 10
7912.02551687209
 20
5114.229226123929
 30
0.0
 11
7838.02551687209
 21
5114.229226123929
 31
0.0
  0
LINE
  5
17106
330
747D
100
AcDbEntity
  8
細線
100
AcDbLine
 10
7912.02551687209
 20
5091.229226123929
 30
0.0
 11
7912.02551687209
 21
5114.229226123929
 31
0.0
  0
LINE
  5
17107
330
747D
100
AcDbEntity
  8
細線
100
AcDbLine
 10
7764.025516872091
 20
5114.229226123929
 30
0.0
 11
7764.025516872091
 21
5091.229226123929
 31
0.0
  0
LINE
  5
17108
330
747D
100
AcDbEntity
  8
部品1
 48
0.01
100
AcDbLine
 10
7928.025516872087
 20
5087.22922612393
 30
0.0
 11
7928.025516872091
 21
5118.729226123929
 31
0.0
  0
LINE
  5
17109
330
747D
100
AcDbEntity
  8
部品1
 48
0.01
100
AcDbLine
 10
7750.025516872091
 20
5085.229226123929
 30
0.0
 11
7926.025516872087
 21
5085.229226123929
 31
0.0
  0
LINE
  5
1710A
330
747D
100
AcDbEntity
  8
部品1
 48
0.01
100
AcDbLine
 10
7748.02551687209
 20
5118.729226123929
 30
0.0
 11
7748.02551687209
 21
5087.22922612393
 31
0.0
  0
LINE
  5
1710B
330
747D
100
AcDbEntity
  8
部品1
 48
0.01
100
AcDbLine
 10
7926.025516872091
 20
5120.729226123929
 30
0.0
 11
7750.025516872091
 21
5120.729226123929
 31
0.0
  0
LINE
  5
1710C
330
747D
100
AcDbEntity
  8
細線
100
AcDbLine
 10
7764.025516872091
 20
5108.229226123929
 30
0.0
 11
7838.02551687209
 21
5108.229226123929
 31
0.0
  0
LINE
  5
1710D
330
747D
100
AcDbEntity
  8
細線
100
AcDbLine
 10
7764.025516872091
 20
5102.229226123929
 30
0.0
 11
7838.02551687209
 21
5102.229226123929
 31
0.0
  0
LINE
  5
1710E
330
747D
100
AcDbEntity
  8
細線
100
AcDbLine
 10
7764.025516872087
 20
5096.229226123929
 30
0.0
 11
7838.02551687209
 21
5096.229226123929
 31
0.0
  0
LINE
  5
1710F
330
747D
100
AcDbEntity
  8
細線
100
AcDbLine
 10
7764.025516872091
 20
5108.229226123929
 30
0.0
 11
7833.025516872091
 21
5108.229226123929
 31
0.0
  0
LINE
  5
17110
330
747D
100
AcDbEntity
  8
細線
100
AcDbLine
 10
7912.025516872088
 20
5108.229226123929
 30
0.0
 11
7838.02551687209
 21
5108.229226123929
 31
0.0
  0
LINE
  5
17111
330
747D
100
AcDbEntity
  8
細線
100
AcDbLine
 10
7912.025516872088
 20
5096.229226123929
 30
0.0
 11
7838.02551687209
 21
5096.229226123929
 31
0.0
  0
LINE
  5
17112
330
747D
100
AcDbEntity
  8
細線
100
AcDbLine
 10
7912.025516872088
 20
5102.229226123929
 30
0.0
 11
7838.02551687209
 21
5102.229226123929
 31
0.0
  0
LINE
  5
17113
330
747D
100
AcDbEntity
  8
細線
100
AcDbLine
 10
7838.02551687209
 20
5114.229226123929
 30
0.0
 11
7838.025516872086
 21
5091.229226123929
 31
0.0
  0
TEXT
  5
17137
330
747D
100
AcDbEntity
  8
文字
 62
     7
 48
50.0
100
AcDbText
 10
14260.68475616112
 20
855.469579666289
 30
0.0
 40
100.0
  1
～一般型・多雪地型・豪雪地型～
  7
STYLE2
100
AcDbText
  0
DIMENSION
  5
1716D
330
747D
100
AcDbEntity
  8
寸法
100
AcDbDimension
  2
*D34
 10
5336.090093716109
 20
8526.517864338478
 30
0.0
 11
4890.090093716113
 21
8526.517864338478
 31
0.0
 70
   160
 71
     5
 42
892.0
  3
INABA_S40G
100
AcDbAlignedDimension
 13
4542.025523549693
 23
8892.017864338482
 33
0.0
 14
5434.025523549693
 24
8892.017864338509
 34
0.0
100
AcDbRotatedDimension
1001
ACAD
1000
DSTYLE
1002
{
1002
}
  0
LINE
  5
1716E
330
747D
100
AcDbEntity
  8
破線
 48
10.0
100
AcDbLine
 10
4569.526130059905
 20
8749.017893562989
 30
0.0
 11
5407.525516872055
 21
8749.017858972461
 31
0.0
  0
LINE
  5
1716F
330
747D
100
AcDbEntity
  8
破線
 48
10.0
100
AcDbLine
 10
4569.526130059905
 20
8699.017893562988
 30
0.0
 11
5407.525516872056
 21
8699.017858972462
 31
0.0
  0
DIMENSION
  5
17170
330
747D
100
AcDbEntity
  8
寸法
100
AcDbDimension
  2
*D35
 10
6286.090093716085
 20
8526.517864338478
 30
0.0
 11
5840.0900937161
 21
8526.517864338478
 31
0.0
 70
   160
 71
     5
 42
891.9999999999964
  3
INABA_S40G
100
AcDbAlignedDimension
 13
5492.025523549694
 23
8892.017864338482
 33
0.0
 14
6384.02552354969
 24
8892.017864338589
 34
0.0
100
AcDbRotatedDimension
1001
ACAD
1000
DSTYLE
1002
{
1002
}
  0
LINE
  5
17171
330
747D
100
AcDbEntity
  8
破線
 48
10.0
100
AcDbLine
 10
5518.525512940544
 20
8749.017892427859
 30
0.0
 11
6357.525516872057
 21
8749.01785779603
 31
0.0
  0
LINE
  5
17172
330
747D
100
AcDbEntity
  8
破線
 48
10.0
100
AcDbLine
 10
5518.525512744705
 20
8699.01789242786
 30
0.0
 11
6357.525516872058
 21
8699.017857796031
 31
0.0
  0
DIMENSION
  5
171BF
330
747D
100
AcDbEntity
  8
寸法
100
AcDbDimension
  2
*D36
 10
7235.09009371611
 20
8526.517864338522
 30
0.0
 11
6789.090093716113
 21
8526.517864338522
 31
0.0
 70
   160
 71
     5
 42
892.0
  3
INABA_S40G
100
AcDbAlignedDimension
 13
6441.025523549694
 23
8892.017864338525
 33
0.0
 14
7333.025523549693
 24
8892.017864338551
 34
0.0
100
AcDbRotatedDimension
1001
ACAD
1000
DSTYLE
1002
{
1002
}
  0
LINE
  5
171C0
330
747D
100
AcDbEntity
  8
破線
 48
10.0
100
AcDbLine
 10
6468.526130059906
 20
8749.017893563033
 30
0.0
 11
7306.525516872055
 21
8749.017858972504
 31
0.0
  0
LINE
  5
171C1
330
747D
100
AcDbEntity
  8
破線
 48
10.0
100
AcDbLine
 10
6468.526130059906
 20
8699.017893563032
 30
0.0
 11
7306.525516872056
 21
8699.017858972506
 31
0.0
  0
DIMENSION
  5
171C2
330
747D
100
AcDbEntity
  8
寸法
100
AcDbDimension
  2
*D37
 10
8185.090093716086
 20
8526.517864338522
 30
0.0
 11
7739.0900937161
 21
8526.517864338522
 31
0.0
 70
   160
 71
     5
 42
891.9999999999964
  3
INABA_S40G
100
AcDbAlignedDimension
 13
7391.025523549693
 23
8892.017864338525
 33
0.0
 14
8283.025523549689
 24
8892.017864338631
 34
0.0
100
AcDbRotatedDimension
1001
ACAD
1000
DSTYLE
1002
{
1002
}
  0
LINE
  5
171C3
330
747D
100
AcDbEntity
  8
破線
 48
10.0
100
AcDbLine
 10
7417.525512940544
 20
8749.017892427902
 30
0.0
 11
8256.525516872057
 21
8749.017857796072
 31
0.0
  0
LINE
  5
171C4
330
747D
100
AcDbEntity
  8
破線
 48
10.0
100
AcDbLine
 10
7417.525512744706
 20
8699.017892427905
 30
0.0
 11
8256.525516872057
 21
8699.017857796075
 31
0.0
  0
LINE
  5
171EF
330
747D
100
AcDbEntity
  8
破線
 48
10.0
100
AcDbLine
 10
4593.025564760131
 20
8699.017892592991
 30
0.0
 11
4593.025516872083
 21
8156.517864338519
 31
0.0
  0
LINE
  5
171F0
330
747D
100
AcDbEntity
  8
破線
 48
10.0
100
AcDbLine
 10
5384.025510141867
 20
8749.01785994248
 30
0.0
 11
5384.025508517531
 21
8892.017864338614
 31
0.0
  0
LINE
  5
171F1
330
747D
100
AcDbEntity
  8
破線
 48
10.0
100
AcDbLine
 10
5542.025506857897
 20
8749.017853420637
 30
0.0
 11
5542.025504440971
 21
8892.017864338555
 31
0.0
  0
LINE
  5
171F2
330
747D
100
AcDbEntity
  8
破線
 48
10.0
100
AcDbLine
 10
6334.025510141869
 20
8749.017820728846
 30
0.0
 11
6334.02550851753
 21
8892.017864338614
 31
0.0
  0
LINE
  5
171F3
330
747D
100
AcDbEntity
  8
破線
 48
10.0
100
AcDbLine
 10
6492.025506857898
 20
8749.017814207002
 30
0.0
 11
6492.025504440971
 21
8892.017864338555
 31
0.0
  0
LINE
  5
171F4
330
747D
100
AcDbEntity
  8
破線
 48
10.0
100
AcDbLine
 10
7284.025510141868
 20
8749.017781515211
 30
0.0
 11
7284.02550851753
 21
8892.017864338614
 31
0.0
  0
LINE
  5
171F5
330
747D
100
AcDbEntity
  8
破線
 48
10.0
100
AcDbLine
 10
7442.025506857899
 20
8749.017774993367
 30
0.0
 11
7442.025504440971
 21
8892.017864338555
 31
0.0
  0
LINE
  5
171F6
330
747D
100
AcDbEntity
  8
破線
 48
10.0
100
AcDbLine
 10
8233.025564760092
 20
8699.017742342858
 30
0.0
 11
8233.02551687208
 21
8156.517864338599
 31
0.0
  0
TEXT
  5
17250
330
747D
100
AcDbEntity
  8
文字
 62
     7
 48
50.0
100
AcDbText
 10
13583.11819016568
 20
9060.013745883729
 30
0.0
 40
100.0
  1
脇パネル
  7
STYLE1
100
AcDbText
  0
TEXT
  5
17251
330
747D
100
AcDbEntity
  8
文字
 62
     7
 48
50.0
100
AcDbText
 10
15022.63965474515
 20
9060.013745883725
 30
0.0
 40
100.0
  1
F12            0.6
  7
STYLE1
100
AcDbText
  0
TEXT
  5
17252
330
747D
100
AcDbEntity
  8
文字
 62
     7
 48
50.0
100
AcDbText
 10
13248.77747366447
 20
8550.013745883735
 30
0.0
 40
100.0
  1
16
  7
STYLE1
100
AcDbText
  0
LINE
  5
17253
330
747D
100
AcDbEntity
  8
仕様書枠
 48
50.0
100
AcDbLine
 10
16307.19999999997
 20
8179.600000000007
 30
0.0
 11
13127.19999999997
 21
8179.600000000007
 31
0.0
  0
TEXT
  5
17254
330
747D
100
AcDbEntity
  8
文字
 62
     7
 48
50.0
100
AcDbText
 10
13583.1181901657
 20
9570.013745883729
 30
0.0
 40
100.0
  1
母屋中
  7
STYLE1
100
AcDbText
  0
TEXT
  5
17255
330
747D
100
AcDbEntity
  8
文字
 62
     7
 48
50.0
100
AcDbText
 10
15022.63965474518
 20
9570.013745883725
 30
0.0
 40
100.0
  1
F12            1.0
  7
STYLE1
100
AcDbText
  0
TEXT
  5
17256
330
747D
100
AcDbEntity
  8
文字
 62
     7
 48
50.0
100
AcDbText
 10
13248.77747366447
 20
8890.013745883731
 30
0.0
 40
100.0
  1
14
  7
STYLE1
100
AcDbText
  0
LINE
  5
17257
330
747D
100
AcDbEntity
  8
仕様書枠
 48
50.0
100
AcDbLine
 10
16307.2
 20
9539.6
 30
0.0
 11
13127.2
 21
9539.6
 31
0.0
  0
TEXT
  5
17258
330
747D
100
AcDbEntity
  8
文字
 62
     7
 48
50.0
100
AcDbText
 10
13583.11819016567
 20
8720.013745883733
 30
0.0
 40
100.0
  1
棚板
  7
STYLE1
100
AcDbText
  0
TEXT
  5
17259
330
747D
100
AcDbEntity
  8
文字
 62
     7
 48
50.0
100
AcDbText
 10
15022.63965474513
 20
8720.013745883729
 30
0.0
 40
100.0
  1
F12            0.6
  7
STYLE1
100
AcDbText
  0
TEXT
  5
1725A
330
747D
100
AcDbEntity
  8
文字
 62
     7
 48
50.0
100
AcDbText
 10
13583.11819016567
 20
8890.013745883729
 30
0.0
 40
100.0
  1
扉
  7
STYLE1
100
AcDbText
  0
TEXT
  5
1725B
330
747D
100
AcDbEntity
  8
文字
 62
     7
 48
50.0
100
AcDbText
 10
15022.63965474513
 20
8890.013745883726
 30
0.0
 40
100.0
  1
F12            0.8
  7
STYLE1
100
AcDbText
  0
TEXT
  5
1725C
330
747D
100
AcDbEntity
  8
文字
 62
     7
 48
50.0
100
AcDbText
 10
15022.63965474517
 20
10590.01374588372
 30
0.0
 40
100.0
  1
F12            1.0
  7
STYLE1
100
AcDbText
  0
TEXT
  5
1725D
330
747D
100
AcDbEntity
  8
文字
 62
     7
 48
50.0
100
AcDbText
 10
13583.1181901657
 20
10590.01374588373
 30
0.0
 40
100.0
  1
床パネル
 41
0.9
  7
STYLE1
100
AcDbText
  0
LINE
  5
1725E
330
747D
100
AcDbEntity
  8
仕様書枠
 48
50.0
100
AcDbLine
 10
16307.19999999998
 20
8689.6
 30
0.0
 11
13127.19999999999
 21
8689.600000000003
 31
0.0
  0
LINE
  5
1725F
330
747D
100
AcDbEntity
  8
仕様書枠
 48
50.0
100
AcDbLine
 10
13127.2
 20
11409.6
 30
0.0
 11
13127.19999999999
 21
8179.600000000007
 31
0.0
  0
TEXT
  5
17260
330
747D
100
AcDbEntity
  8
文字
 62
     7
 48
50.0
100
AcDbText
 10
13229.83081656552
 20
8210.013745883729
 30
0.0
 40
100.0
  1
Y10→溶融亜鉛-5％アルミニウム合金めっき鋼板(JIS G 3317)
 41
0.9
  7
STYLE1
100
AcDbText
  0
TEXT
  5
17261
330
747D
100
AcDbEntity
  8
文字
 62
     7
 48
50.0
100
AcDbText
 10
13229.83081656552
 20
8380.013745883728
 30
0.0
 40
100.0
  1
F12→溶融亜鉛めっき鋼板(JIS G 3302)
  7
STYLE1
100
AcDbText
  0
LINE
  5
17262
330
747D
100
AcDbEntity
  8
仕様書枠
 48
50.0
100
AcDbLine
 10
16307.19999999998
 20
8349.600000000004
 30
0.0
 11
13127.19999999999
 21
8349.600000000004
 31
0.0
  0
TEXT
  5
17263
330
747D
100
AcDbEntity
  8
文字
 62
     7
 48
50.0
100
AcDbText
 10
15022.63965474515
 20
9230.013745883725
 30
0.0
 40
100.0
  1
F12            0.6
  7
STYLE1
100
AcDbText
  0
TEXT
  5
17264
330
747D
100
AcDbEntity
  8
文字
 62
     7
 48
50.0
100
AcDbText
 10
15022.63965474516
 20
9400.013745883725
 30
0.0
 40
100.0
  1
Y10            0.5
  7
STYLE1
100
AcDbText
  0
TEXT
  5
17265
330
747D
100
AcDbEntity
  8
文字
 62
     7
 48
50.0
100
AcDbText
 10
15022.63965474517
 20
9910.013745883725
 30
0.0
 40
100.0
  1
Y10            0.7
  7
STYLE1
100
AcDbText
  0
TEXT
  5
17266
330
747D
100
AcDbEntity
  8
文字
 62
     7
 48
50.0
100
AcDbText
 10
15022.63965474517
 20
10080.01374588372
 30
0.0
 40
100.0
  1
Y10            0.7
  7
STYLE1
100
AcDbText
  0
TEXT
  5
17267
330
747D
100
AcDbEntity
  8
文字
 62
     7
 48
50.0
100
AcDbText
 10
15022.63965474517
 20
10250.01374588372
 30
0.0
 40
100.0
  1
Y10            1.0
  7
STYLE1
100
AcDbText
  0
TEXT
  5
17268
330
747D
100
AcDbEntity
  8
文字
 62
     7
 48
50.0
100
AcDbText
 10
15022.63965474517
 20
10420.01374588372
 30
0.0
 40
100.0
  1
Y10            1.0
  7
STYLE1
100
AcDbText
  0
TEXT
  5
17269
330
747D
100
AcDbEntity
  8
文字
 62
     7
 48
50.0
100
AcDbText
 10
15022.63965474518
 20
10760.01374588372
 30
0.0
 40
100.0
  1
F12            1.0
  7
STYLE1
100
AcDbText
  0
TEXT
  5
1726A
330
747D
100
AcDbEntity
  8
文字
 62
     7
 48
50.0
100
AcDbText
 10
15022.63965474517
 20
11100.01374588372
 30
0.0
 40
100.0
  1
F12            1.2
  7
STYLE1
100
AcDbText
  0
TEXT
  5
1726B
330
747D
100
AcDbEntity
  8
文字
 62
     7
 48
50.0
100
AcDbText
 10
13248.77747366447
 20
9230.013745883729
 30
0.0
 40
100.0
  1
12
  7
STYLE1
100
AcDbText
  0
TEXT
  5
1726C
330
747D
100
AcDbEntity
  8
文字
 62
     7
 48
50.0
100
AcDbText
 10
13248.77747366447
 20
9060.013745883729
 30
0.0
 40
100.0
  1
13
  7
STYLE1
100
AcDbText
  0
LINE
  5
1726D
330
747D
100
AcDbEntity
  8
仕様書枠
 48
50.0
100
AcDbLine
 10
16307.19999999998
 20
8519.600000000002
 30
0.0
 11
13127.19999999999
 21
8519.600000000004
 31
0.0
  0
LINE
  5
1726E
330
747D
100
AcDbEntity
  8
仕様書枠
 48
50.0
100
AcDbLine
 10
16307.19999999998
 20
8859.6
 30
0.0
 11
13127.19999999999
 21
8859.6
 31
0.0
  0
TEXT
  5
1726F
330
747D
100
AcDbEntity
  8
文字
 62
     7
 48
50.0
100
AcDbText
 10
13248.77747366447
 20
9400.013745883729
 30
0.0
 40
100.0
  1
11
  7
STYLE1
100
AcDbText
  0
LINE
  5
17270
330
747D
100
AcDbEntity
  8
仕様書枠
 48
50.0
100
AcDbLine
 10
16307.2
 20
9709.600000000001
 30
0.0
 11
13127.2
 21
9709.600000000001
 31
0.0
  0
LINE
  5
17271
330
747D
100
AcDbEntity
  8
仕様書枠
 48
50.0
100
AcDbLine
 10
16307.2
 20
10049.6
 30
0.0
 11
13127.2
 21
10049.6
 31
0.0
  0
LINE
  5
17272
330
747D
100
AcDbEntity
  8
仕様書枠
 48
50.0
100
AcDbLine
 10
16307.19999999998
 20
9199.600000000001
 30
0.0
 11
13127.19999999999
 21
9199.600000000001
 31
0.0
  0
LINE
  5
17273
330
747D
100
AcDbEntity
  8
仕様書枠
 48
50.0
100
AcDbLine
 10
16307.19999999998
 20
9029.6
 30
0.0
 11
13127.19999999999
 21
9029.6
 31
0.0
  0
LINE
  5
17274
330
747D
100
AcDbEntity
  8
仕様書枠
 48
50.0
100
AcDbLine
 10
16307.19999999998
 20
9369.600000000001
 30
0.0
 11
13127.19999999999
 21
9369.600000000001
 31
0.0
  0
TEXT
  5
17275
330
747D
100
AcDbEntity
  8
文字
 62
     7
 48
50.0
100
AcDbText
 10
13271.19032244793
 20
10250.01374588373
 30
0.0
 40
100.0
  1
6
  7
STYLE1
100
AcDbText
  0
TEXT
  5
17276
330
747D
100
AcDbEntity
  8
文字
 62
     7
 48
50.0
100
AcDbText
 10
13271.19032244792
 20
10080.01374588373
 30
0.0
 40
100.0
  1
7
  7
STYLE1
100
AcDbText
  0
TEXT
  5
17277
330
747D
100
AcDbEntity
  8
文字
 62
     7
 48
50.0
100
AcDbText
 10
13271.19032244792
 20
9740.013745883729
 30
0.0
 40
100.0
  1
9
  7
STYLE1
100
AcDbText
  0
TEXT
  5
17278
330
747D
100
AcDbEntity
  8
文字
 62
     7
 48
50.0
100
AcDbText
 10
13271.19032244792
 20
9910.01374588373
 30
0.0
 40
100.0
  1
8
  7
STYLE1
100
AcDbText
  0
TEXT
  5
17279
330
747D
100
AcDbEntity
  8
文字
 62
     7
 48
50.0
100
AcDbText
 10
13583.1181901657
 20
9910.01374588373
 30
0.0
 40
100.0
  1
鼻隠シ前後
  7
STYLE1
100
AcDbText
  0
TEXT
  5
1727A
330
747D
100
AcDbEntity
  8
文字
 62
     7
 48
50.0
100
AcDbText
 10
13583.11819016569
 20
9400.013745883729
 30
0.0
 40
100.0
  1
屋根パネル
  7
STYLE1
100
AcDbText
  0
TEXT
  5
1727B
330
747D
100
AcDbEntity
  8
文字
 62
     7
 48
50.0
100
AcDbText
 10
13583.11819016568
 20
9230.013745883729
 30
0.0
 40
100.0
  1
壁パネル
  7
STYLE1
100
AcDbText
  0
TEXT
  5
1727C
330
747D
100
AcDbEntity
  8
文字
 62
     7
 48
50.0
100
AcDbText
 10
13248.77747366447
 20
9570.013745883729
 30
0.0
 40
100.0
  1
10
  7
STYLE1
100
AcDbText
  0
TEXT
  5
1727D
330
747D
100
AcDbEntity
  8
文字
 62
     7
 48
50.0
100
AcDbText
 10
13583.1181901657
 20
10080.01374588373
 30
0.0
 40
100.0
  1
妻板左右
  7
STYLE1
100
AcDbText
  0
TEXT
  5
1727E
330
747D
100
AcDbEntity
  8
文字
 62
     7
 48
50.0
100
AcDbText
 10
13271.19032244793
 20
10420.01374588373
 30
0.0
 40
100.0
  1
5
  7
STYLE1
100
AcDbText
  0
TEXT
  5
1727F
330
747D
100
AcDbEntity
  8
文字
 62
     7
 48
50.0
100
AcDbText
 10
13583.1181901657
 20
10250.01374588373
 30
0.0
 40
100.0
  1
桁後
  7
STYLE1
100
AcDbText
  0
TEXT
  5
17280
330
747D
100
AcDbEntity
  8
文字
 62
     7
 48
50.0
100
AcDbText
 10
13583.1181901657
 20
10420.01374588373
 30
0.0
 40
100.0
  1
鴨居
  7
STYLE1
100
AcDbText
  0
TEXT
  5
17281
330
747D
100
AcDbEntity
  8
文字
 62
     7
 48
50.0
100
AcDbText
 10
13583.1181901657
 20
10760.01374588373
 30
0.0
 40
100.0
  1
柱
  7
STYLE1
100
AcDbText
  0
TEXT
  5
17282
330
747D
100
AcDbEntity
  8
文字
 62
     7
 48
50.0
100
AcDbText
 10
13583.11819016569
 20
11100.01374588373
 30
0.0
 40
100.0
  1
土台枠
  7
STYLE1
100
AcDbText
  0
TEXT
  5
17283
330
747D
100
AcDbEntity
  8
文字
 62
     7
 48
50.0
100
AcDbText
 10
14859.79774614482
 20
11270.01374588373
 30
0.0
 40
100.0
  1
材料（材質）　　単位mm
  7
STYLE1
100
AcDbText
  0
TEXT
  5
17284
330
747D
100
AcDbEntity
  8
文字
 62
     7
 48
50.0
100
AcDbText
 10
13732.03840939434
 20
11270.01374588373
 30
0.0
 40
100.0
  1
部　　品　　名
  7
STYLE1
100
AcDbText
  0
TEXT
  5
17285
330
747D
100
AcDbEntity
  8
文字
 62
     7
 48
50.0
100
AcDbText
 10
13271.19032244793
 20
10760.01374588373
 30
0.0
 40
100.0
  1
3
  7
STYLE1
100
AcDbText
  0
TEXT
  5
17286
330
747D
100
AcDbEntity
  8
文字
 62
     7
 48
50.0
100
AcDbText
 10
13271.19032244793
 20
10590.01374588373
 30
0.0
 40
100.0
  1
4
  7
STYLE1
100
AcDbText
  0
TEXT
  5
17287
330
747D
100
AcDbEntity
  8
文字
 62
     7
 48
50.0
100
AcDbText
 10
13271.19032244792
 20
10930.01374588373
 30
0.0
 40
100.0
  1
2
  7
STYLE1
100
AcDbText
  0
TEXT
  5
17288
330
747D
100
AcDbEntity
  8
文字
 62
     7
 48
50.0
100
AcDbText
 10
13271.19032244792
 20
11100.01374588373
 30
0.0
 40
100.0
  1
1
  7
STYLE1
100
AcDbText
  0
TEXT
  5
17289
330
747D
100
AcDbEntity
  8
文字
 62
     7
 48
50.0
100
AcDbText
 10
13197.42518560407
 20
11270.01374588373
 30
0.0
 40
100.0
  1
品番
  7
STYLE1
100
AcDbText
  0
LINE
  5
1728A
330
747D
100
AcDbEntity
  8
仕様書枠
 48
50.0
100
AcDbLine
 10
16307.19999999999
 20
10559.6
 30
0.0
 11
13127.2
 21
10559.6
 31
0.0
  0
LINE
  5
1728B
330
747D
100
AcDbEntity
  8
仕様書枠
 48
50.0
100
AcDbLine
 10
16307.19999999999
 20
10219.6
 30
0.0
 11
13127.2
 21
10219.6
 31
0.0
  0
LINE
  5
1728C
330
747D
100
AcDbEntity
  8
仕様書枠
 48
50.0
100
AcDbLine
 10
16307.19999999999
 20
10389.6
 30
0.0
 11
13127.2
 21
10389.6
 31
0.0
  0
LINE
  5
1728D
330
747D
100
AcDbEntity
  8
仕様書枠
 48
50.0
100
AcDbLine
 10
16307.19999999999
 20
11069.6
 30
0.0
 11
13127.2
 21
11069.6
 31
0.0
  0
LINE
  5
1728E
330
747D
100
AcDbEntity
  8
仕様書枠
 48
50.0
100
AcDbLine
 10
16307.2
 20
10729.6
 30
0.0
 11
13127.2
 21
10729.6
 31
0.0
  0
LINE
  5
1728F
330
747D
100
AcDbEntity
  8
仕様書枠
 48
50.0
100
AcDbLine
 10
16307.19999999999
 20
11239.6
 30
0.0
 11
13127.2
 21
11239.6
 31
0.0
  0
LINE
  5
17290
330
747D
100
AcDbEntity
  8
仕様書枠
 48
50.0
100
AcDbLine
 10
13490.2
 20
11409.6
 30
0.0
 11
13490.2
 21
8519.600000000004
 31
0.0
  0
LINE
  5
17291
330
747D
100
AcDbEntity
  8
仕様書枠
 48
50.0
100
AcDbLine
 10
14785.2
 20
11409.59999999999
 30
0.0
 11
14785.19999999999
 21
8519.600000000002
 31
0.0
  0
LINE
  5
17292
330
747D
100
AcDbEntity
  8
仕様書枠
 48
50.0
100
AcDbLine
 10
16307.19999999999
 20
8179.600000000007
 30
0.0
 11
16307.2
 21
11409.6
 31
0.0
  0
LINE
  5
17293
330
747D
100
AcDbEntity
  8
仕様書枠
 48
50.0
100
AcDbLine
 10
16307.2
 20
9879.600000000001
 30
0.0
 11
13127.2
 21
9879.600000000001
 31
0.0
  0
TEXT
  5
17294
330
747D
100
AcDbEntity
  8
文字
 62
     7
 48
50.0
100
AcDbText
 10
15022.63965474512
 20
8550.013745883722
 30
0.0
 40
100.0
  1
F12            2.3
  7
STYLE1
100
AcDbText
  0
TEXT
  5
17295
330
747D
100
AcDbEntity
  8
文字
 62
     7
 48
50.0
100
AcDbText
 10
13583.11819016566
 20
8550.013745883729
 30
0.0
 40
100.0
  1
アンカープレート
  7
STYLE1
100
AcDbText
  0
TEXT
  5
17296
330
747D
100
AcDbEntity
  8
文字
 62
     7
 48
50.0
100
AcDbText
 10
15022.63965474517
 20
9740.013745883729
 30
0.0
 40
100.0
  1
F12,Y10       0.7+1.0
  7
STYLE1
100
AcDbText
  0
TEXT
  5
17297
330
747D
100
AcDbEntity
  8
文字
 62
     7
 48
50.0
100
AcDbText
 10
13583.1181901657
 20
9740.013745883729
 30
0.0
 40
100.0
  1
梁中・梁中央
 41
0.9
  7
STYLE1
100
AcDbText
  0
LINE
  5
17298
330
747D
100
AcDbEntity
  8
仕様書枠
 48
50.0
100
AcDbLine
 10
16307.2
 20
10899.6
 30
0.0
 11
13127.2
 21
10899.6
 31
0.0
  0
TEXT
  5
17299
330
747D
100
AcDbEntity
  8
文字
 62
     7
 48
50.0
100
AcDbText
 10
13248.77747366447
 20
8720.013745883735
 30
0.0
 40
100.0
  1
15
  7
STYLE1
100
AcDbText
  0
TEXT
  5
1729A
330
747D
100
AcDbEntity
  8
文字
 62
     7
 48
50.0
100
AcDbText
 10
13583.11819016569
 20
10930.01374588373
 30
0.0
 40
100.0
  1
根太
  7
STYLE1
100
AcDbText
  0
TEXT
  5
1729B
330
747D
100
AcDbEntity
  8
文字
 62
     7
 48
50.0
100
AcDbText
 10
15022.63965474517
 20
10930.01374588372
 30
0.0
 40
100.0
  1
F12            1.2
  7
STYLE1
100
AcDbText
  0
ENDSEC
  0
SECTION
  2
OBJECTS
  0
DICTIONARY
  5
7471
330
0
100
AcDbDictionary
281
     1
  3
ACAD_COLOR
350
15DF0
  3
ACAD_GROUP
350
7472
  3
ACAD_LAYOUT
350
15DF1
  3
ACAD_MATERIAL
350
15DEF
  3
ACAD_MLINESTYLE
350
7473
  3
ACAD_PLOTSETTINGS
350
15DF2
  3
ACAD_PLOTSTYLENAME
350
15DED
  3
ACDBHEADERROUNDTRIPXREC
350
172B3
  3
AcDbVariableDictionary
350
172AF
  3
CONTENTDICTIONARY
350
E71C
  3
DRAWINGVARIABLESDICT
350
F3B9
  0
DICTIONARY
  5
15F9A
330
7467
100
AcDbDictionary
280
     1
281
     1
  3
ACAD_LAYERSTATES
360
15F9B
  0
DICTIONARY
  5
15DF0
102
{ACAD_REACTORS
330
7471
102
}
330
7471
100
AcDbDictionary
281
     1
  0
DICTIONARY
  5
7472
102
{ACAD_REACTORS
330
7471
102
}
330
7471
100
AcDbDictionary
281
     1
  0
DICTIONARY
  5
15DF1
102
{ACAD_REACTORS
330
7471
102
}
330
7471
100
AcDbDictionary
281
     1
  3
Model
350
15DF3
  3
レイアウト1
350
15DF4
  0
DICTIONARY
  5
15DEF
102
{ACAD_REACTORS
330
7471
102
}
330
7471
100
AcDbDictionary
281
     1
  0
DICTIONARY
  5
7473
102
{ACAD_REACTORS
330
7471
102
}
330
7471
100
AcDbDictionary
281
     1
  3
STANDARD
350
7480
  0
DICTIONARY
  5
15DF2
102
{ACAD_REACTORS
330
7471
102
}
330
7471
100
AcDbDictionary
281
     1
  0
ACDBDICTIONARYWDFLT
  5
15DED
102
{ACAD_REACTORS
330
7471
102
}
330
7471
100
AcDbDictionary
281
     1
  3
Normal
350
15DEE
100
AcDbDictionaryWithDefault
340
15DEE
  0
DICTIONARY
  5
172B3
102
{ACAD_REACTORS
330
7471
102
}
330
7471
100
AcDbDictionary
281
     1
  3
COLORDICT
350
172B5
  3
MATERIALDICT
350
172B4
  0
DICTIONARY
  5
172AF
102
{ACAD_REACTORS
330
7471
102
}
330
7471
100
AcDbDictionary
281
     1
  3
DIMASSOC
350
172B0
  3
PROJECTNAME
350
172B1
  0
DICTIONARY
  5
E71C
102
{ACAD_REACTORS
330
7471
102
}
330
7471
100
AcDbDictionary
281
     1
  0
DICTIONARY
  5
F3B9
102
{ACAD_REACTORS
330
7471
102
}
330
7471
100
AcDbDictionary
281
     1
1001
DRAWINGVARIABLESXDATA
1000
POLARMODE
1000
1
  0
DICTIONARY
  5
15F9B
102
{ACAD_REACTORS
330
15F9A
102
}
330
15F9A
100
AcDbDictionary
281
     1
  0
LAYOUT
  5
15DF3
102
{ACAD_XDICTIONARY
360
172B6
102
}
102
{ACAD_REACTORS
330
15DF1
102
}
330
15DF1
100
AcDbPlotSettings
  1

  2
Microsoft Office Document Image Writer
  4

  6

 40
0.0
 41
0.0
 42
0.0
 43
0.0
 44
0.0
 45
0.0
 46
0.0
 47
0.0
 48
0.0
 49
0.0
140
0.0
141
0.0
142
1.0
143
1.0
 70
  1712
 72
     0
 73
     0
 74
     0
  7

 75
     0
147
1.0
148
0.0
149
0.0
100
AcDbLayout
  1
Model
 70
     1
 71
     0
 10
0.0
 20
0.0
 11
12.0
 21
9.0
 12
0.0
 22
0.0
 32
0.0
 14
0.0
 24
0.0
 34
0.0
 15
0.0
 25
0.0
 35
0.0
146
0.0
 13
0.0
 23
0.0
 33
0.0
 16
1.0
 26
0.0
 36
0.0
 17
0.0
 27
1.0
 37
0.0
 76
     0
330
747D
  0
LAYOUT
  5
15DF4
102
{ACAD_XDICTIONARY
360
172B8
102
}
102
{ACAD_REACTORS
330
15DF1
102
}
330
15DF1
100
AcDbPlotSettings
  1

  2
Microsoft Office Document Image Writer
  4

  6

 40
0.0
 41
0.0
 42
0.0
 43
0.0
 44
0.0
 45
0.0
 46
0.0
 47
0.0
 48
0.0
 49
0.0
140
0.0
141
0.0
142
1.0
143
1.0
 70
   688
 72
     0
 73
     0
 74
     5
  7

 75
    16
147
1.0
148
0.0
149
0.0
100
AcDbLayout
  1
レイアウト1
 70
     0
 71
     1
 10
0.0
 20
0.0
 11
420.0
 21
297.0
 12
0.0
 22
0.0
 32
0.0
 14
1.000000000000000E+20
 24
1.000000000000000E+20
 34
1.000000000000000E+20
 15
-1.000000000000000E+20
 25
-1.000000000000000E+20
 35
-1.000000000000000E+20
146
0.0
 13
0.0
 23
0.0
 33
0.0
 16
1.0
 26
0.0
 36
0.0
 17
0.0
 27
1.0
 37
0.0
 76
     0
330
747A
  0
MLINESTYLE
  5
7480
102
{ACAD_REACTORS
330
7473
102
}
330
7473
100
AcDbMlineStyle
  2
STANDARD
 70
     0
  3

 62
     0
 51
90.0
 52
90.0
 71
     2
 49
0.5
 62
   256
  6
BYLAYER
 49
-0.5
 62
   256
  6
BYLAYER
  0
ACDBPLACEHOLDER
  5
15DEE
102
{ACAD_REACTORS
330
15DED
102
}
330
15DED
  0
XRECORD
  5
172B5
102
{ACAD_REACTORS
330
172B3
102
}
330
172B3
100
AcDbXrecord
280
     1
340
15DF0
  0
XRECORD
  5
172B4
102
{ACAD_REACTORS
330
172B3
102
}
330
172B3
100
AcDbXrecord
280
     1
340
15DEF
  0
DICTIONARYVAR
  5
172B0
102
{ACAD_REACTORS
330
172AF
102
}
330
172AF
100
DictionaryVariables
280
     0
  1
1
  0
DICTIONARYVAR
  5
172B1
102
{ACAD_REACTORS
330
172AF
102
}
330
172AF
100
DictionaryVariables
280
     0
  1

  0
DICTIONARY
  5
172B6
330
15DF3
100
AcDbDictionary
280
     1
281
     1
  3
ACAD_XREC_ROUNDTRIP
360
172B7
  0
DICTIONARY
  5
172B8
330
15DF4
100
AcDbDictionary
280
     1
281
     1
  3
ACAD_XREC_ROUNDTRIP
360
172B9
  0
XRECORD
  5
172B7
102
{ACAD_REACTORS
330
172B6
102
}
330
172B6
100
AcDbXrecord
280
     1
102
SHADEPLOT
 70
     0
102
SHADEPLOTRESLEVEL
 70
     2
102
SHADEPLOTCUSTOMDPI
 70
   300
  0
XRECORD
  5
172B9
102
{ACAD_REACTORS
330
172B8
102
}
330
172B8
100
AcDbXrecord
280
     1
102
SHADEPLOT
 70
     0
102
SHADEPLOTRESLEVEL
 70
     2
102
SHADEPLOTCUSTOMDPI
 70
   300
  0
ENDSEC
  0
EOF
