  0
SECTION
  2
HEADER
  9
$ACADVER
  1
AC1015
  9
$ACADMAINTVER
 70
    20
  9
$DWGCODEPAGE
  3
ANSI_932
  9
$INSBASE
 10
0.0
 20
0.0
 30
0.0
  9
$EXTMIN
 10
139.9999999999995
 20
-0.0000000000000909
 30
0.0
  9
$EXTMAX
 10
16307.2
 20
11409.6
 30
0.0
  9
$LIMMIN
 10
0.0
 20
0.0
  9
$LIMMAX
 10
16800.0
 20
11880.0
  9
$ORTHOMODE
 70
     0
  9
$REGENMODE
 70
     1
  9
$FILLMODE
 70
     1
  9
$QTEXTMODE
 70
     0
  9
$MIRRTEXT
 70
     1
  9
$LTSCALE
 40
20.0
  9
$ATTMODE
 70
     1
  9
$TEXTSIZE
 40
100.0
  9
$TRACEWID
 40
1.0
  9
$TEXTSTYLE
  7
STYLE3
  9
$CLAYER
  8
寸法
  9
$CELTYPE
  6
BYLAYER
  9
$CECOLOR
 62
   256
  9
$CELTSCALE
 40
50.0
  9
$DISPSILH
 70
     0
  9
$DIMSCALE
 40
40.0
  9
$DIMASZ
 40
2.5
  9
$DIMEXO
 40
0.5
  9
$DIMDLI
 40
7.0
  9
$DIMRND
 40
0.0
  9
$DIMDLE
 40
0.0
  9
$DIMEXE
 40
1.5
  9
$DIMTP
 40
0.0
  9
$DIMTM
 40
0.0
  9
$DIMTXT
 40
3.0
  9
$DIMCEN
 40
0.0
  9
$DIMTSZ
 40
0.0
  9
$DIMTOL
 70
     0
  9
$DIMLIM
 70
     0
  9
$DIMTIH
 70
     0
  9
$DIMTOH
 70
     0
  9
$DIMSE1
 70
     0
  9
$DIMSE2
 70
     0
  9
$DIMTAD
 70
     3
  9
$DIMZIN
 70
     8
  9
$DIMBLK
  1

  9
$DIMASO
 70
     1
  9
$DIMSHO
 70
     1
  9
$DIMPOST
  1

  9
$DIMAPOST
  1

  9
$DIMALT
 70
     0
  9
$DIMALTD
 70
     2
  9
$DIMALTF
 40
0.0394
  9
$DIMLFAC
 40
1.0
  9
$DIMTOFL
 70
     1
  9
$DIMTVP
 40
0.0
  9
$DIMTIX
 70
     1
  9
$DIMSOXD
 70
     0
  9
$DIMSAH
 70
     1
  9
$DIMBLK1
  1
DOTSMALL
  9
$DIMBLK2
  1
DOTSMALL
  9
$DIMSTYLE
  2
INABA_S40G
  9
$DIMCLRD
 70
     0
  9
$DIMCLRE
 70
     0
  9
$DIMCLRT
 70
     7
  9
$DIMTFAC
 40
1.0
  9
$DIMGAP
 40
1.0
  9
$DIMJUST
 70
     0
  9
$DIMSD1
 70
     0
  9
$DIMSD2
 70
     0
  9
$DIMTOLJ
 70
     1
  9
$DIMTZIN
 70
     0
  9
$DIMALTZ
 70
     0
  9
$DIMALTTZ
 70
     0
  9
$DIMUPT
 70
     0
  9
$DIMDEC
 70
     1
  9
$DIMTDEC
 70
     4
  9
$DIMALTU
 70
     2
  9
$DIMALTTD
 70
     2
  9
$DIMTXSTY
  7
STYLE1
  9
$DIMAUNIT
 70
     0
  9
$DIMADEC
 70
     0
  9
$DIMALTRND
 40
0.0
  9
$DIMAZIN
 70
     0
  9
$DIMDSEP
 70
    46
  9
$DIMATFIT
 70
     3
  9
$DIMFRAC
 70
     0
  9
$DIMLDRBLK
  1

  9
$DIMLUNIT
 70
     2
  9
$DIMLWD
 70
    -2
  9
$DIMLWE
 70
    -2
  9
$DIMTMOVE
 70
     0
  9
$LUNITS
 70
     2
  9
$LUPREC
 70
     1
  9
$SKETCHINC
 40
1.0
  9
$FILLETRAD
 40
5.0
  9
$AUNITS
 70
     0
  9
$AUPREC
 70
     0
  9
$MENU
  1
acad
  9
$ELEVATION
 40
0.0
  9
$PELEVATION
 40
0.0
  9
$THICKNESS
 40
0.0
  9
$LIMCHECK
 70
     0
  9
$CHAMFERA
 40
0.0
  9
$CHAMFERB
 40
0.0
  9
$CHAMFERC
 40
0.0
  9
$CHAMFERD
 40
0.0
  9
$SKPOLY
 70
     0
  9
$TDCREATE
 40
2452116.684896065
  9
$TDUCREATE
 40
2452116.309896065
  9
$TDUPDATE
 40
2455575.693690139
  9
$TDUUPDATE
 40
2455575.318690139
  9
$TDINDWG
 40
0.4551536921
  9
$TDUSRTIMER
 40
0.4551536921
  9
$USRTIMER
 70
     1
  9
$ANGBASE
 50
0.0
  9
$ANGDIR
 70
     0
  9
$PDMODE
 70
     3
  9
$PDSIZE
 40
2.0
  9
$PLINEWID
 40
0.0
  9
$SPLFRAME
 70
     0
  9
$SPLINETYPE
 70
     6
  9
$SPLINESEGS
 70
     8
  9
$HANDSEED
  5
16D69
  9
$SURFTAB1
 70
     6
  9
$SURFTAB2
 70
     6
  9
$SURFTYPE
 70
     6
  9
$SURFU
 70
     6
  9
$SURFV
 70
     6
  9
$UCSBASE
  2

  9
$UCSNAME
  2

  9
$UCSORG
 10
0.0
 20
0.0
 30
0.0
  9
$UCSXDIR
 10
1.0
 20
0.0
 30
0.0
  9
$UCSYDIR
 10
0.0
 20
1.0
 30
0.0
  9
$UCSORTHOREF
  2

  9
$UCSORTHOVIEW
 70
     0
  9
$UCSORGTOP
 10
0.0
 20
0.0
 30
0.0
  9
$UCSORGBOTTOM
 10
0.0
 20
0.0
 30
0.0
  9
$UCSORGLEFT
 10
0.0
 20
0.0
 30
0.0
  9
$UCSORGRIGHT
 10
0.0
 20
0.0
 30
0.0
  9
$UCSORGFRONT
 10
0.0
 20
0.0
 30
0.0
  9
$UCSORGBACK
 10
0.0
 20
0.0
 30
0.0
  9
$PUCSBASE
  2

  9
$PUCSNAME
  2

  9
$PUCSORG
 10
0.0
 20
0.0
 30
0.0
  9
$PUCSXDIR
 10
1.0
 20
0.0
 30
0.0
  9
$PUCSYDIR
 10
0.0
 20
1.0
 30
0.0
  9
$PUCSORTHOREF
  2

  9
$PUCSORTHOVIEW
 70
     0
  9
$PUCSORGTOP
 10
0.0
 20
0.0
 30
0.0
  9
$PUCSORGBOTTOM
 10
0.0
 20
0.0
 30
0.0
  9
$PUCSORGLEFT
 10
0.0
 20
0.0
 30
0.0
  9
$PUCSORGRIGHT
 10
0.0
 20
0.0
 30
0.0
  9
$PUCSORGFRONT
 10
0.0
 20
0.0
 30
0.0
  9
$PUCSORGBACK
 10
0.0
 20
0.0
 30
0.0
  9
$USERI1
 70
     0
  9
$USERI2
 70
     0
  9
$USERI3
 70
     0
  9
$USERI4
 70
     0
  9
$USERI5
 70
     0
  9
$USERR1
 40
0.0
  9
$USERR2
 40
0.0
  9
$USERR3
 40
0.0
  9
$USERR4
 40
0.0
  9
$USERR5
 40
0.0
  9
$WORLDVIEW
 70
     1
  9
$SHADEDGE
 70
     3
  9
$SHADEDIF
 70
    70
  9
$TILEMODE
 70
     1
  9
$MAXACTVP
 70
    16
  9
$PINSBASE
 10
0.0
 20
0.0
 30
0.0
  9
$PLIMCHECK
 70
     0
  9
$PEXTMIN
 10
1.000000000000000E+20
 20
1.000000000000000E+20
 30
1.000000000000000E+20
  9
$PEXTMAX
 10
-1.000000000000000E+20
 20
-1.000000000000000E+20
 30
-1.000000000000000E+20
  9
$PLIMMIN
 10
0.0
 20
0.0
  9
$PLIMMAX
 10
420.0
 20
297.0
  9
$UNITMODE
 70
     0
  9
$VISRETAIN
 70
     0
  9
$PLINEGEN
 70
     0
  9
$PSLTSCALE
 70
     0
  9
$TREEDEPTH
 70
  3020
  9
$CMLSTYLE
  2
STANDARD
  9
$CMLJUST
 70
     0
  9
$CMLSCALE
 40
1.0
  9
$PROXYGRAPHICS
 70
     1
  9
$MEASUREMENT
 70
     1
  9
$CELWEIGHT
370
    -1
  9
$ENDCAPS
280
     0
  9
$JOINSTYLE
280
     0
  9
$LWDISPLAY
290
     0
  9
$INSUNITS
 70
     0
  9
$HYPERLINKBASE
  1

  9
$STYLESHEET
  1

  9
$XEDIT
290
     1
  9
$CEPSNTYPE
380
     0
  9
$PSTYLEMODE
290
     1
  9
$FINGERPRINTGUID
  2
{89B775F2-0D1C-4264-85A4-CD72974E211D}
  9
$VERSIONGUID
  2
{59AD3A76-DFA2-4554-9E30-A33AE291E153}
  9
$EXTNAMES
290
     1
  9
$PSVPSCALE
 40
0.0
  9
$OLESTARTUP
290
     0
  0
ENDSEC
  0
SECTION
  2
CLASSES
  0
CLASS
  1
ACDBDICTIONARYWDFLT
  2
AcDbDictionaryWithDefault
  3
ObjectDBX Classes
 90
        0
280
     0
281
     0
  0
CLASS
  1
DICTIONARYVAR
  2
AcDbDictionaryVar
  3
ObjectDBX Classes
 90
        0
280
     0
281
     0
  0
CLASS
  1
ACDBPLACEHOLDER
  2
AcDbPlaceHolder
  3
ObjectDBX Classes
 90
        0
280
     0
281
     0
  0
CLASS
  1
LAYOUT
  2
AcDbLayout
  3
ObjectDBX Classes
 90
        0
280
     0
281
     0
  0
ENDSEC
  0
SECTION
  2
TABLES
  0
TABLE
  2
VPORT
  5
746D
330
0
100
AcDbSymbolTable
 70
     2
  0
VPORT
  5
16D61
330
746D
100
AcDbSymbolTableRecord
100
AcDbViewportTableRecord
  2
*Active
 70
     0
 10
0.0
 20
0.0
 11
1.0
 21
1.0
 12
8223.7610252385
 22
6348.899056759916
 13
0.0
 23
0.0
 14
10.0
 24
10.0
 15
10.0
 25
10.0
 16
0.0
 26
0.0
 36
1.0
 17
0.0
 27
0.0
 37
0.0
 40
12809.85745707933
 41
1.525925925925925
 42
50.0
 43
0.0
 44
0.0
 50
0.0
 51
0.0
 71
     0
 72
     0
 73
     1
 74
     0
 75
     0
 76
     0
 77
     0
 78
     0
281
     0
 65
     1
110
0.0
120
0.0
130
0.0
111
1.0
121
0.0
131
0.0
112
0.0
122
1.0
132
0.0
 79
     0
146
0.0
  0
ENDTAB
  0
TABLE
  2
LTYPE
  5
746A
330
0
100
AcDbSymbolTable
 70
     4
  0
LTYPE
  5
7477
330
746A
100
AcDbSymbolTableRecord
100
AcDbLinetypeTableRecord
  2
BYBLOCK
 70
     0
  3

 72
    65
 73
     0
 40
0.0
  0
LTYPE
  5
7478
330
746A
100
AcDbSymbolTableRecord
100
AcDbLinetypeTableRecord
  2
BYLAYER
 70
     0
  3

 72
    65
 73
     0
 40
0.0
  0
LTYPE
  5
7479
330
746A
100
AcDbSymbolTableRecord
100
AcDbLinetypeTableRecord
  2
CONTINUOUS
 70
     0
  3
Solid line
 72
    65
 73
     0
 40
0.0
  0
LTYPE
  5
7816
330
746A
100
AcDbSymbolTableRecord
100
AcDbLinetypeTableRecord
  2
CENTER
 70
     0
  3
____ _ ____ _ ____ _ ____ _ ____ _ ____ _ ____ 
 72
    65
 73
     4
 40
2.0
 49
1.25
 74
     0
 49
-0.25
 74
     0
 49
0.25
 74
     0
 49
-0.25
 74
     0
  0
LTYPE
  5
781A
330
746A
100
AcDbSymbolTableRecord
100
AcDbLinetypeTableRecord
  2
HIDDEN
 70
     0
  3
__ __ __ __ __ __ __ __ __ __ __ __ __ __ __ __
 72
    65
 73
     2
 40
0.375
 49
0.25
 74
     0
 49
-0.125
 74
     0
  0
LTYPE
  5
781B
330
746A
100
AcDbSymbolTableRecord
100
AcDbLinetypeTableRecord
  2
PHANTOM
 70
     0
  3
______  __  __  ______  __  __  ______  __  __ 
 72
    65
 73
     6
 40
2.5
 49
1.25
 74
     0
 49
-0.25
 74
     0
 49
0.25
 74
     0
 49
-0.25
 74
     0
 49
0.25
 74
     0
 49
-0.25
 74
     0
  0
ENDTAB
  0
TABLE
  2
LAYER
  5
7467
102
{ACAD_XDICTIONARY
360
15E1F
102
}
330
0
100
AcDbSymbolTable
 70
    12
  0
LAYER
  5
7474
330
7467
100
AcDbSymbolTableRecord
100
AcDbLayerTableRecord
  2
0
 70
     0
 62
     7
  6
CONTINUOUS
370
    -3
390
15CA3
  0
LAYER
  5
DEB2
330
7467
100
AcDbSymbolTableRecord
100
AcDbLayerTableRecord
  2
センター
 70
     0
 62
     3
  6
CENTER
370
    -3
390
15CA3
  0
LAYER
  5
DEB3
330
7467
100
AcDbSymbolTableRecord
100
AcDbLayerTableRecord
  2
寸法
 70
     0
 62
     4
  6
CONTINUOUS
370
    -3
390
15CA3
  0
LAYER
  5
DEB4
330
7467
100
AcDbSymbolTableRecord
100
AcDbLayerTableRecord
  2
部品1
 70
     0
 62
     7
  6
CONTINUOUS
370
    -3
390
15CA3
  0
LAYER
  5
DEB5
330
7467
100
AcDbSymbolTableRecord
100
AcDbLayerTableRecord
  2
補助
 70
     0
 62
    -1
  6
CONTINUOUS
370
    -3
390
15CA3
  0
LAYER
  5
DEB6
330
7467
100
AcDbSymbolTableRecord
100
AcDbLayerTableRecord
  2
文字
 70
     0
 62
     7
  6
CONTINUOUS
370
    -3
390
15CA3
  0
LAYER
  5
F255
330
7467
100
AcDbSymbolTableRecord
100
AcDbLayerTableRecord
  2
DEFPOINTS
 70
     0
 62
     7
  6
CONTINUOUS
290
     0
370
    -3
390
15CA3
  0
LAYER
  5
10B54
330
7467
100
AcDbSymbolTableRecord
100
AcDbLayerTableRecord
  2
仕様書枠
 70
     0
 62
   230
  6
CONTINUOUS
370
    -3
390
15CA3
  0
LAYER
  5
11729
330
7467
100
AcDbSymbolTableRecord
100
AcDbLayerTableRecord
  2
Ｇ．Ｌ
 70
     0
 62
    30
  6
CONTINUOUS
370
    -3
390
15CA3
  0
LAYER
  5
1173F
330
7467
100
AcDbSymbolTableRecord
100
AcDbLayerTableRecord
  2
細線
 70
     0
 62
     5
  6
CONTINUOUS
370
    -3
390
15CA3
  0
LAYER
  5
118A1
330
7467
100
AcDbSymbolTableRecord
100
AcDbLayerTableRecord
  2
想像線
 70
     0
 62
     6
  6
PHANTOM
370
    -3
390
15CA3
  0
LAYER
  5
123C1
330
7467
100
AcDbSymbolTableRecord
100
AcDbLayerTableRecord
  2
破線
 70
     0
 62
     2
  6
HIDDEN
370
    -3
390
15CA3
  0
ENDTAB
  0
TABLE
  2
STYLE
  5
7468
330
0
100
AcDbSymbolTable
 70
     4
  0
STYLE
  5
7475
330
7468
100
AcDbSymbolTableRecord
100
AcDbTextStyleTableRecord
  2
STANDARD
 70
     0
 40
0.0
 41
1.0
 50
0.0
 71
     0
 42
4.0
  3
txt
  4
C:\AutoCAD LT\bigfont.shx
  0
STYLE
  5
F706
330
7468
100
AcDbSymbolTableRecord
100
AcDbTextStyleTableRecord
  2
STYLE1
 70
     0
 40
0.0
 41
1.0
 50
0.0
 71
     0
 42
4.0
  3
isocp.shx
  4
bigfont.shx
  0
STYLE
  5
103BF
330
7468
100
AcDbSymbolTableRecord
100
AcDbTextStyleTableRecord
  2
STYLE2
 70
     0
 40
0.0
 41
1.0
 50
0.0
 71
     0
 42
100.0
  3
MS PGothic.ttf
  4

1001
ACAD
1000
MS PGothic
1071
    32818
  0
STYLE
  5
10BAA
330
7468
100
AcDbSymbolTableRecord
100
AcDbTextStyleTableRecord
  2
STYLE3
 70
     0
 40
0.0
 41
1.0
 50
0.0
 71
     0
 42
100.0
  3

  4

1001
ACAD
1000
DFPGothic-EB
1071
    32818
  0
ENDTAB
  0
TABLE
  2
VIEW
  5
746B
330
0
100
AcDbSymbolTable
 70
     0
  0
ENDTAB
  0
TABLE
  2
UCS
  5
746C
330
0
100
AcDbSymbolTable
 70
     0
  0
ENDTAB
  0
TABLE
  2
APPID
  5
746E
330
0
100
AcDbSymbolTable
 70
     6
  0
APPID
  5
7476
330
746E
100
AcDbSymbolTableRecord
100
AcDbRegAppTableRecord
  2
ACAD
 70
     0
  0
APPID
  5
DEA9
330
746E
100
AcDbSymbolTableRecord
100
AcDbRegAppTableRecord
  2
CONTENTBLOCKICON
 70
     0
  0
APPID
  5
DEAA
330
746E
100
AcDbSymbolTableRecord
100
AcDbRegAppTableRecord
  2
CONTENTBLOCKDESCRIPTION
 70
     0
  0
APPID
  5
E71D
330
746E
100
AcDbSymbolTableRecord
100
AcDbRegAppTableRecord
  2
CONTENTTABDATA
 70
     0
  0
APPID
  5
E71E
330
746E
100
AcDbSymbolTableRecord
100
AcDbRegAppTableRecord
  2
CONTENTCURRENTTAB
 70
     0
  0
APPID
  5
F3BA
330
746E
100
AcDbSymbolTableRecord
100
AcDbRegAppTableRecord
  2
DRAWINGVARIABLESXDATA
 70
     0
  0
ENDTAB
  0
TABLE
  2
DIMSTYLE
  5
746F
330
0
100
AcDbSymbolTable
 70
     2
100
AcDbDimStyleTable
 71
     0
  0
DIMSTYLE
105
7484
330
746F
100
AcDbSymbolTableRecord
100
AcDbDimStyleTableRecord
  2
JIS
 70
     0
 41
2.5
 42
1.0
 43
7.0
 44
1.0
 73
     0
 74
     0
 77
     1
 78
     8
140
2.5
141
0.0
143
0.0394
147
0.0
172
     1
174
     1
175
     1
340
7475
  0
DIMSTYLE
105
F71F
102
{ACAD_REACTORS
330
156F4
330
156F5
330
156F6
330
156F7
330
156F8
330
156F9
330
156FA
330
156FB
330
156FC
330
15717
330
15794
330
15795
330
1579F
330
157A3
330
157C5
330
15C33
330
15C4B
330
16651
330
16650
330
16652
330
166D0
330
1676C
330
16776
330
1676B
330
16767
330
16766
330
16765
330
16764
330
1673E
330
1673D
330
16C58
330
16C5B
330
16C8A
102
}
330
746F
100
AcDbSymbolTableRecord
100
AcDbDimStyleTableRecord
  2
INABA_S40G
 70
     0
 40
40.0
 41
2.5
 42
0.5
 43
7.0
 44
1.5
 73
     0
 74
     0
 77
     3
 78
     8
140
3.0
141
0.0
143
0.0394
147
1.0
172
     1
173
     1
174
     1
178
     7
271
     1
340
F706
341
F770
343
F770
344
F770
  0
ENDTAB
  0
TABLE
  2
BLOCK_RECORD
  5
7466
330
0
100
AcDbSymbolTable
 70
    34
  0
BLOCK_RECORD
  5
747D
330
7466
100
AcDbSymbolTableRecord
100
AcDbBlockTableRecord
  2
*MODEL_SPACE
340
15CA8
  0
BLOCK_RECORD
  5
747A
330
7466
100
AcDbSymbolTableRecord
100
AcDbBlockTableRecord
  2
*PAPER_SPACE
340
15CA9
  0
BLOCK_RECORD
  5
F770
330
7466
100
AcDbSymbolTableRecord
100
AcDbBlockTableRecord
  2
_DOTSMALL
340
0
102
{BLKREFS
331
16ABC
331
16ABD
331
16AC5
331
16AC6
331
16AD0
331
16AD1
331
16AD9
331
16ADA
331
16AE2
331
16AE3
331
16AED
331
16AEE
331
16AF6
331
16AF7
331
16B00
331
16B01
331
16B0A
331
16B0B
331
16B15
331
16B16
331
16B20
331
16B21
331
16B29
331
16B2A
331
16B32
331
16B33
331
16B56
331
16B57
331
16B5F
331
16B60
331
16B68
331
16B69
331
16B71
331
16B72
331
16B7A
331
16B7B
331
16B83
331
16B84
331
16B8E
331
16B8F
331
16B97
331
16B98
331
16BA0
331
16BA1
331
16BA9
331
16BAA
331
16BB2
331
16BB3
331
16BBD
331
16BBE
331
16BC6
331
16BC7
331
16BD0
331
16BD1
331
16BD9
331
16BDA
331
16BE3
331
16BE4
331
16BEE
331
16BEF
331
16C79
331
16C7A
331
16C82
331
16C83
331
16C9A
331
16C9B
102
}
  0
BLOCK_RECORD
  5
158EC
330
7466
100
AcDbSymbolTableRecord
100
AcDbBlockTableRecord
  2
*D1
340
0
  0
BLOCK_RECORD
  5
158FA
330
7466
100
AcDbSymbolTableRecord
100
AcDbBlockTableRecord
  2
*D2
340
0
  0
BLOCK_RECORD
  5
15908
330
7466
100
AcDbSymbolTableRecord
100
AcDbBlockTableRecord
  2
*D3
340
0
  0
BLOCK_RECORD
  5
15914
330
7466
100
AcDbSymbolTableRecord
100
AcDbBlockTableRecord
  2
*D4
340
0
  0
BLOCK_RECORD
  5
15920
330
7466
100
AcDbSymbolTableRecord
100
AcDbBlockTableRecord
  2
*D5
340
0
  0
BLOCK_RECORD
  5
1592C
330
7466
100
AcDbSymbolTableRecord
100
AcDbBlockTableRecord
  2
*D6
340
0
  0
BLOCK_RECORD
  5
1593A
330
7466
100
AcDbSymbolTableRecord
100
AcDbBlockTableRecord
  2
*D7
340
0
  0
BLOCK_RECORD
  5
15946
330
7466
100
AcDbSymbolTableRecord
100
AcDbBlockTableRecord
  2
*D8
340
0
  0
BLOCK_RECORD
  5
15952
330
7466
100
AcDbSymbolTableRecord
100
AcDbBlockTableRecord
  2
*D9
340
0
  0
BLOCK_RECORD
  5
15976
330
7466
100
AcDbSymbolTableRecord
100
AcDbBlockTableRecord
  2
*D10
340
0
  0
BLOCK_RECORD
  5
159A6
330
7466
100
AcDbSymbolTableRecord
100
AcDbBlockTableRecord
  2
*D11
340
0
  0
BLOCK_RECORD
  5
159B4
330
7466
100
AcDbSymbolTableRecord
100
AcDbBlockTableRecord
  2
*D12
340
0
  0
BLOCK_RECORD
  5
159C0
330
7466
100
AcDbSymbolTableRecord
100
AcDbBlockTableRecord
  2
*D13
340
0
  0
BLOCK_RECORD
  5
159CC
330
7466
100
AcDbSymbolTableRecord
100
AcDbBlockTableRecord
  2
*D14
340
0
  0
BLOCK_RECORD
  5
159F0
330
7466
100
AcDbSymbolTableRecord
100
AcDbBlockTableRecord
  2
*D15
340
0
  0
BLOCK_RECORD
  5
15C34
330
7466
100
AcDbSymbolTableRecord
100
AcDbBlockTableRecord
  2
*D16
340
0
  0
BLOCK_RECORD
  5
15C4C
330
7466
100
AcDbSymbolTableRecord
100
AcDbBlockTableRecord
  2
*D17
340
0
  0
BLOCK_RECORD
  5
1668D
330
7466
100
AcDbSymbolTableRecord
100
AcDbBlockTableRecord
  2
*D18
340
0
  0
BLOCK_RECORD
  5
16699
330
7466
100
AcDbSymbolTableRecord
100
AcDbBlockTableRecord
  2
*D19
340
0
  0
BLOCK_RECORD
  5
166A5
330
7466
100
AcDbSymbolTableRecord
100
AcDbBlockTableRecord
  2
*D20
340
0
  0
BLOCK_RECORD
  5
166DB
330
7466
100
AcDbSymbolTableRecord
100
AcDbBlockTableRecord
  2
*D21
340
0
  0
BLOCK_RECORD
  5
16779
330
7466
100
AcDbSymbolTableRecord
100
AcDbBlockTableRecord
  2
*D22
340
0
  0
BLOCK_RECORD
  5
16785
330
7466
100
AcDbSymbolTableRecord
100
AcDbBlockTableRecord
  2
*D23
340
0
  0
BLOCK_RECORD
  5
16791
330
7466
100
AcDbSymbolTableRecord
100
AcDbBlockTableRecord
  2
*D24
340
0
  0
BLOCK_RECORD
  5
1679F
330
7466
100
AcDbSymbolTableRecord
100
AcDbBlockTableRecord
  2
*D25
340
0
  0
BLOCK_RECORD
  5
167AB
330
7466
100
AcDbSymbolTableRecord
100
AcDbBlockTableRecord
  2
*D26
340
0
  0
BLOCK_RECORD
  5
167B7
330
7466
100
AcDbSymbolTableRecord
100
AcDbBlockTableRecord
  2
*D27
340
0
  0
BLOCK_RECORD
  5
167C5
330
7466
100
AcDbSymbolTableRecord
100
AcDbBlockTableRecord
  2
*D28
340
0
  0
BLOCK_RECORD
  5
167D1
330
7466
100
AcDbSymbolTableRecord
100
AcDbBlockTableRecord
  2
*D29
340
0
  0
BLOCK_RECORD
  5
167DE
330
7466
100
AcDbSymbolTableRecord
100
AcDbBlockTableRecord
  2
*D30
340
0
  0
BLOCK_RECORD
  5
16C5E
330
7466
100
AcDbSymbolTableRecord
100
AcDbBlockTableRecord
  2
*D31
340
0
  0
BLOCK_RECORD
  5
16C6A
330
7466
100
AcDbSymbolTableRecord
100
AcDbBlockTableRecord
  2
*D32
340
0
  0
BLOCK_RECORD
  5
16C8B
330
7466
100
AcDbSymbolTableRecord
100
AcDbBlockTableRecord
  2
*D33
340
0
  0
ENDTAB
  0
ENDSEC
  0
SECTION
  2
BLOCKS
  0
BLOCK
  5
7489
330
747D
100
AcDbEntity
  8
0
100
AcDbBlockBegin
  2
*MODEL_SPACE
 70
     0
 10
0.0
 20
0.0
 30
0.0
  3
*MODEL_SPACE
  1

  0
ENDBLK
  5
748A
330
747D
100
AcDbEntity
  8
0
100
AcDbBlockEnd
  0
BLOCK
  5
7487
330
747A
100
AcDbEntity
 67
     1
  8
0
100
AcDbBlockBegin
  2
*PAPER_SPACE
 70
     0
 10
0.0
 20
0.0
 30
0.0
  3
*PAPER_SPACE
  1

  0
ENDBLK
  5
7488
330
747A
100
AcDbEntity
 67
     1
  8
0
100
AcDbBlockEnd
  0
BLOCK
  5
F771
330
F770
100
AcDbEntity
  8
0
 48
50.0
100
AcDbBlockBegin
  2
_DOTSMALL
 70
     0
 10
0.0
 20
0.0
 30
0.0
  3
_DOTSMALL
  1

  0
LWPOLYLINE
  5
F772
330
F770
100
AcDbEntity
  8
0
  6
ByBlock
 62
     0
 48
50.0
100
AcDbPolyline
 90
        2
 70
     1
 43
0.5
 10
-0.0625
 20
0.0
 42
1.0
 10
0.0625
 20
0.0
 42
1.0
  0
ENDBLK
  5
F776
330
F770
100
AcDbEntity
  8
0
 48
50.0
100
AcDbBlockEnd
  0
BLOCK
  5
15A18
330
158EC
100
AcDbEntity
  8
0
 48
50.0
100
AcDbBlockBegin
  2
*D1
 70
     1
 10
0.0
 20
0.0
 30
0.0
  3
*D1
  1

  0
LINE
  5
16BE9
330
158EC
100
AcDbEntity
  8
寸法
 62
     0
 48
50.0
370
    -2
100
AcDbLine
 10
7709.72052865535
 20
9497.71419332716
 30
0.0
 11
8397.146874389761
 21
9497.71419332716
 31
0.0
  0
LINE
  5
16BEA
330
158EC
100
AcDbEntity
  8
寸法
 62
     0
 48
50.0
370
    -2
100
AcDbLine
 10
7709.72052865535
 20
9442.71419332716
 30
0.0
 11
8397.146874389761
 21
9442.71419332716
 31
0.0
  0
LINE
  5
16BEB
330
158EC
100
AcDbEntity
  8
寸法
 62
     0
 48
50.0
370
    -2
100
AcDbLine
 10
8337.146874389762
 20
9442.71419332716
 30
0.0
 11
8337.146874389762
 21
9342.714193327159
 31
0.0
  0
LINE
  5
16BEC
330
158EC
100
AcDbEntity
  8
寸法
 62
     0
 48
50.0
370
    -2
100
AcDbLine
 10
8337.146874389762
 20
9497.71419332716
 30
0.0
 11
8337.146874389762
 21
9914.684756075637
 31
0.0
  0
LINE
  5
16BED
330
158EC
100
AcDbEntity
  8
寸法
 62
     0
 48
50.0
370
    -2
100
AcDbLine
 10
8337.146874389762
 20
9442.71419332716
 30
0.0
 11
8337.146874389762
 21
9497.71419332716
 31
0.0
  0
INSERT
  5
16BEE
330
158EC
100
AcDbEntity
  8
寸法
 62
     0
 48
50.0
370
    -2
100
AcDbBlockReference
  2
_DOTSMALL
 10
8337.146874389762
 20
9442.71419332716
 30
0.0
 41
100.0
 42
100.0
 43
100.0
 50
90.0
  0
INSERT
  5
16BEF
330
158EC
100
AcDbEntity
  8
寸法
 62
     0
 48
50.0
370
    -2
100
AcDbBlockReference
  2
_DOTSMALL
 10
8337.146874389762
 20
9497.71419332716
 30
0.0
 41
100.0
 42
100.0
 43
100.0
 50
270.0
  0
MTEXT
  5
16BF0
330
158EC
100
AcDbEntity
  8
寸法
 62
     7
 48
50.0
100
AcDbMText
 10
8237.146874389761
 20
9806.199474701401
 30
0.0
 40
120.0
 41
0.0
 71
     5
 72
     1
  1
\A1;55
  7
STYLE1
 11
0.0000000000000001
 21
1.0
 31
0.0
 73
     1
 44
1.0
1001
ACAD
1000
MTEXTBEGIN
1070
    73
1070
     1
1070
    44
1040
1.0
1070
    74
1070
     0
1000
MTEXTEND
  0
POINT
  5
16BF1
330
158EC
100
AcDbEntity
  8
DEFPOINTS
 62
     0
 48
50.0
100
AcDbPoint
 10
7689.720528655351
 20
9497.71419332716
 30
0.0
  0
POINT
  5
16BF2
330
158EC
100
AcDbEntity
  8
DEFPOINTS
 62
     0
 48
50.0
100
AcDbPoint
 10
7689.720528655351
 20
9442.71419332716
 30
0.0
  0
POINT
  5
16BF3
330
158EC
100
AcDbEntity
  8
DEFPOINTS
 62
     0
 48
50.0
100
AcDbPoint
 10
8337.146874389762
 20
9442.71419332716
 30
0.0
  0
ENDBLK
  5
15A24
330
158EC
100
AcDbEntity
  8
0
 48
50.0
100
AcDbBlockEnd
  0
BLOCK
  5
15A25
330
158FA
100
AcDbEntity
  8
0
 48
50.0
100
AcDbBlockBegin
  2
*D2
 70
     1
 10
0.0
 20
0.0
 30
0.0
  3
*D2
  1

  0
LINE
  5
16BDE
330
158FA
100
AcDbEntity
  8
寸法
 62
     0
 48
50.0
370
    -2
100
AcDbLine
 10
7634.72052865535
 20
9517.71419332716
 30
0.0
 11
7634.72052865535
 21
9773.522412952141
 31
0.0
  0
LINE
  5
16BDF
330
158FA
100
AcDbEntity
  8
寸法
 62
     0
 48
50.0
370
    -2
100
AcDbLine
 10
7689.720528655351
 20
9517.71419332716
 30
0.0
 11
7689.720528655351
 21
9773.522412952141
 31
0.0
  0
LINE
  5
16BE0
330
158FA
100
AcDbEntity
  8
寸法
 62
     0
 48
50.0
370
    -2
100
AcDbLine
 10
7634.72052865535
 20
9713.522412952142
 30
0.0
 11
7534.72052865535
 21
9713.522412952142
 31
0.0
  0
LINE
  5
16BE1
330
158FA
100
AcDbEntity
  8
寸法
 62
     0
 48
50.0
370
    -2
100
AcDbLine
 10
7689.720528655351
 20
9713.522412952142
 30
0.0
 11
8106.691091403829
 21
9713.522412952142
 31
0.0
  0
LINE
  5
16BE2
330
158FA
100
AcDbEntity
  8
寸法
 62
     0
 48
50.0
370
    -2
100
AcDbLine
 10
7634.72052865535
 20
9713.522412952142
 30
0.0
 11
7689.720528655351
 21
9713.522412952142
 31
0.0
  0
INSERT
  5
16BE3
330
158FA
100
AcDbEntity
  8
寸法
 62
     0
 48
50.0
370
    -2
100
AcDbBlockReference
  2
_DOTSMALL
 10
7634.72052865535
 20
9713.522412952142
 30
0.0
 41
100.0
 42
100.0
 43
100.0
  0
INSERT
  5
16BE4
330
158FA
100
AcDbEntity
  8
寸法
 62
     0
 48
50.0
370
    -2
100
AcDbBlockReference
  2
_DOTSMALL
 10
7689.720528655351
 20
9713.522412952142
 30
0.0
 41
100.0
 42
100.0
 43
100.0
 50
180.0
  0
MTEXT
  5
16BE5
330
158FA
100
AcDbEntity
  8
寸法
 62
     7
 48
50.0
100
AcDbMText
 10
7998.205810029588
 20
9813.522412952142
 30
0.0
 40
120.0
 41
0.0
 71
     5
 72
     1
  1
\A1;55
  7
STYLE1
 73
     1
 44
1.0
1001
ACAD
1000
MTEXTBEGIN
1070
    73
1070
     1
1070
    44
1040
1.0
1070
    74
1070
     0
1000
MTEXTEND
  0
POINT
  5
16BE6
330
158FA
100
AcDbEntity
  8
DEFPOINTS
 62
     0
 48
50.0
100
AcDbPoint
 10
7634.72052865535
 20
9497.71419332716
 30
0.0
  0
POINT
  5
16BE7
330
158FA
100
AcDbEntity
  8
DEFPOINTS
 62
     0
 48
50.0
100
AcDbPoint
 10
7689.720528655351
 20
9497.71419332716
 30
0.0
  0
POINT
  5
16BE8
330
158FA
100
AcDbEntity
  8
DEFPOINTS
 62
     0
 48
50.0
100
AcDbPoint
 10
7689.720528655351
 20
9713.522412952142
 30
0.0
  0
ENDBLK
  5
15A31
330
158FA
100
AcDbEntity
  8
0
 48
50.0
100
AcDbBlockEnd
  0
BLOCK
  5
15A32
330
15908
100
AcDbEntity
  8
0
 48
50.0
100
AcDbBlockBegin
  2
*D3
 70
     1
 10
0.0
 20
0.0
 30
0.0
  3
*D3
  1

  0
LINE
  5
16BD5
330
15908
100
AcDbEntity
  8
寸法
 62
     0
 48
50.0
370
    -2
100
AcDbLine
 10
6684.720528655347
 20
9517.714193327181
 30
0.0
 11
6684.720528655347
 21
9773.522412952162
 31
0.0
  0
LINE
  5
16BD6
330
15908
100
AcDbEntity
  8
寸法
 62
     0
 48
50.0
370
    -2
100
AcDbLine
 10
6794.720528655351
 20
9517.71419332716
 30
0.0
 11
6794.720528655351
 21
9773.522412952162
 31
0.0
  0
LINE
  5
16BD7
330
15908
100
AcDbEntity
  8
寸法
 62
     0
 48
50.0
370
    -2
100
AcDbLine
 10
6684.720528655347
 20
9713.522412952164
 30
0.0
 11
6794.720528655351
 21
9713.522412952164
 31
0.0
  0
MTEXT
  5
16BD8
330
15908
100
AcDbEntity
  8
寸法
 62
     7
 48
50.0
100
AcDbMText
 10
6739.720528655351
 20
9971.735911421617
 30
0.0
 40
120.0
 41
0.0
 71
     5
 72
     1
  1
\A1;110
  7
STYLE1
 73
     1
 44
1.0
1001
ACAD
1000
MTEXTBEGIN
1070
    73
1070
     1
1070
    44
1040
1.0
1070
    74
1070
     0
1000
MTEXTEND
  0
INSERT
  5
16BD9
330
15908
100
AcDbEntity
  8
寸法
 62
     0
 48
50.0
370
    -2
100
AcDbBlockReference
  2
_DOTSMALL
 10
6684.720528655347
 20
9713.522412952164
 30
0.0
 41
100.0
 42
100.0
 43
100.0
 50
180.0
  0
INSERT
  5
16BDA
330
15908
100
AcDbEntity
  8
寸法
 62
     0
 48
50.0
370
    -2
100
AcDbBlockReference
  2
_DOTSMALL
 10
6794.720528655351
 20
9713.522412952164
 30
0.0
 41
100.0
 42
100.0
 43
100.0
  0
POINT
  5
16BDB
330
15908
100
AcDbEntity
  8
DEFPOINTS
 62
     0
 48
50.0
100
AcDbPoint
 10
6684.720528655347
 20
9497.714193327182
 30
0.0
  0
POINT
  5
16BDC
330
15908
100
AcDbEntity
  8
DEFPOINTS
 62
     0
 48
50.0
100
AcDbPoint
 10
6794.720528655351
 20
9497.71419332716
 30
0.0
  0
POINT
  5
16BDD
330
15908
100
AcDbEntity
  8
DEFPOINTS
 62
     0
 48
50.0
100
AcDbPoint
 10
6794.720528655351
 20
9713.522412952164
 30
0.0
  0
ENDBLK
  5
15A3C
330
15908
100
AcDbEntity
  8
0
 48
50.0
100
AcDbBlockEnd
  0
BLOCK
  5
15A3D
330
15914
100
AcDbEntity
  8
0
 48
50.0
100
AcDbBlockBegin
  2
*D4
 70
     1
 10
0.0
 20
0.0
 30
0.0
  3
*D4
  1

  0
LINE
  5
16BCC
330
15914
100
AcDbEntity
  8
寸法
 62
     0
 48
50.0
370
    -2
100
AcDbLine
 10
5734.720528655348
 20
9517.714193327181
 30
0.0
 11
5734.720528655348
 21
9773.522412952162
 31
0.0
  0
LINE
  5
16BCD
330
15914
100
AcDbEntity
  8
寸法
 62
     0
 48
50.0
370
    -2
100
AcDbLine
 10
5844.720528655351
 20
9517.71419332716
 30
0.0
 11
5844.720528655351
 21
9773.522412952162
 31
0.0
  0
LINE
  5
16BCE
330
15914
100
AcDbEntity
  8
寸法
 62
     0
 48
50.0
370
    -2
100
AcDbLine
 10
5734.720528655348
 20
9713.522412952164
 30
0.0
 11
5844.720528655351
 21
9713.522412952164
 31
0.0
  0
MTEXT
  5
16BCF
330
15914
100
AcDbEntity
  8
寸法
 62
     7
 48
50.0
100
AcDbMText
 10
5789.720528655349
 20
9967.800734323311
 30
0.0
 40
120.0
 41
0.0
 71
     5
 72
     1
  1
\A1;110
  7
STYLE1
 73
     1
 44
1.0
1001
ACAD
1000
MTEXTBEGIN
1070
    73
1070
     1
1070
    44
1040
1.0
1070
    74
1070
     0
1000
MTEXTEND
  0
INSERT
  5
16BD0
330
15914
100
AcDbEntity
  8
寸法
 62
     0
 48
50.0
370
    -2
100
AcDbBlockReference
  2
_DOTSMALL
 10
5734.720528655348
 20
9713.522412952164
 30
0.0
 41
100.0
 42
100.0
 43
100.0
 50
180.0
  0
INSERT
  5
16BD1
330
15914
100
AcDbEntity
  8
寸法
 62
     0
 48
50.0
370
    -2
100
AcDbBlockReference
  2
_DOTSMALL
 10
5844.720528655351
 20
9713.522412952164
 30
0.0
 41
100.0
 42
100.0
 43
100.0
  0
POINT
  5
16BD2
330
15914
100
AcDbEntity
  8
DEFPOINTS
 62
     0
 48
50.0
100
AcDbPoint
 10
5734.720528655348
 20
9497.714193327182
 30
0.0
  0
POINT
  5
16BD3
330
15914
100
AcDbEntity
  8
DEFPOINTS
 62
     0
 48
50.0
100
AcDbPoint
 10
5844.720528655351
 20
9497.71419332716
 30
0.0
  0
POINT
  5
16BD4
330
15914
100
AcDbEntity
  8
DEFPOINTS
 62
     0
 48
50.0
100
AcDbPoint
 10
5844.720528655351
 20
9713.522412952164
 30
0.0
  0
ENDBLK
  5
15A47
330
15914
100
AcDbEntity
  8
0
 48
50.0
100
AcDbBlockEnd
  0
BLOCK
  5
15A48
330
15920
100
AcDbEntity
  8
0
 48
50.0
100
AcDbBlockBegin
  2
*D5
 70
     1
 10
0.0
 20
0.0
 30
0.0
  3
*D5
  1

  0
LINE
  5
16BC3
330
15920
100
AcDbEntity
  8
寸法
 62
     0
 48
50.0
370
    -2
100
AcDbLine
 10
5844.720528655349
 20
9517.714193327094
 30
0.0
 11
5844.720528655349
 21
9773.522412952162
 31
0.0
  0
LINE
  5
16BC4
330
15920
100
AcDbEntity
  8
寸法
 62
     0
 48
50.0
370
    -2
100
AcDbLine
 10
6684.720528655347
 20
9517.714193327181
 30
0.0
 11
6684.720528655347
 21
9773.522412952162
 31
0.0
  0
LINE
  5
16BC5
330
15920
100
AcDbEntity
  8
寸法
 62
     0
 48
50.0
370
    -2
100
AcDbLine
 10
5844.720528655349
 20
9713.522412952164
 30
0.0
 11
6684.720528655347
 21
9713.522412952164
 31
0.0
  0
INSERT
  5
16BC6
330
15920
100
AcDbEntity
  8
寸法
 62
     0
 48
50.0
370
    -2
100
AcDbBlockReference
  2
_DOTSMALL
 10
5844.720528655349
 20
9713.522412952164
 30
0.0
 41
100.0
 42
100.0
 43
100.0
 50
180.0
  0
INSERT
  5
16BC7
330
15920
100
AcDbEntity
  8
寸法
 62
     0
 48
50.0
370
    -2
100
AcDbBlockReference
  2
_DOTSMALL
 10
6684.720528655347
 20
9713.522412952164
 30
0.0
 41
100.0
 42
100.0
 43
100.0
  0
MTEXT
  5
16BC8
330
15920
100
AcDbEntity
  8
寸法
 62
     7
 48
50.0
100
AcDbMText
 10
6264.720528655348
 20
9813.534223975786
 30
0.0
 40
120.0
 41
0.0
 71
     5
 72
     1
  1
\A1;2X420=840
  7
STYLE1
 73
     1
 44
1.0
1001
ACAD
1000
MTEXTBEGIN
1070
    73
1070
     1
1070
    44
1040
1.0
1070
    74
1070
     0
1000
MTEXTEND
  0
POINT
  5
16BC9
330
15920
100
AcDbEntity
  8
DEFPOINTS
 62
     0
 48
50.0
100
AcDbPoint
 10
5844.720528655349
 20
9497.714193327094
 30
0.0
  0
POINT
  5
16BCA
330
15920
100
AcDbEntity
  8
DEFPOINTS
 62
     0
 48
50.0
100
AcDbPoint
 10
6684.720528655347
 20
9497.714193327182
 30
0.0
  0
POINT
  5
16BCB
330
15920
100
AcDbEntity
  8
DEFPOINTS
 62
     0
 48
50.0
100
AcDbPoint
 10
6684.720528655347
 20
9713.522412952164
 30
0.0
  0
ENDBLK
  5
15A52
330
15920
100
AcDbEntity
  8
0
 48
50.0
100
AcDbBlockEnd
  0
BLOCK
  5
15A53
330
1592C
100
AcDbEntity
  8
0
 48
50.0
100
AcDbBlockBegin
  2
*D6
 70
     1
 10
0.0
 20
0.0
 30
0.0
  3
*D6
  1

  0
LINE
  5
16BB8
330
1592C
100
AcDbEntity
  8
寸法
 62
     0
 48
50.0
370
    -2
100
AcDbLine
 10
4839.720528655314
 20
9517.714193327064
 30
0.0
 11
4839.720528655314
 21
9773.522412952047
 31
0.0
  0
LINE
  5
16BB9
330
1592C
100
AcDbEntity
  8
寸法
 62
     0
 48
50.0
370
    -2
100
AcDbLine
 10
4894.720528655349
 20
9517.714193327064
 30
0.0
 11
4894.720528655349
 21
9773.522412952047
 31
0.0
  0
LINE
  5
16BBA
330
1592C
100
AcDbEntity
  8
寸法
 62
     0
 48
50.0
370
    -2
100
AcDbLine
 10
4894.720528655349
 20
9713.522412952046
 30
0.0
 11
4994.720528655349
 21
9713.522412952046
 31
0.0
  0
LINE
  5
16BBB
330
1592C
100
AcDbEntity
  8
寸法
 62
     0
 48
50.0
370
    -2
100
AcDbLine
 10
4839.720528655314
 20
9713.522412952046
 30
0.0
 11
4422.749965906835
 21
9713.522412952046
 31
0.0
  0
LINE
  5
16BBC
330
1592C
100
AcDbEntity
  8
寸法
 62
     0
 48
50.0
370
    -2
100
AcDbLine
 10
4894.720528655349
 20
9713.522412952046
 30
0.0
 11
4839.720528655314
 21
9713.522412952046
 31
0.0
  0
INSERT
  5
16BBD
330
1592C
100
AcDbEntity
  8
寸法
 62
     0
 48
50.0
370
    -2
100
AcDbBlockReference
  2
_DOTSMALL
 10
4894.720528655349
 20
9713.522412952046
 30
0.0
 41
100.0
 42
100.0
 43
100.0
 50
180.0
  0
INSERT
  5
16BBE
330
1592C
100
AcDbEntity
  8
寸法
 62
     0
 48
50.0
370
    -2
100
AcDbBlockReference
  2
_DOTSMALL
 10
4839.720528655314
 20
9713.522412952046
 30
0.0
 41
100.0
 42
100.0
 43
100.0
  0
MTEXT
  5
16BBF
330
1592C
100
AcDbEntity
  8
寸法
 62
     7
 48
50.0
100
AcDbMText
 10
4531.235247281074
 20
9813.522412952046
 30
0.0
 40
120.0
 41
0.0
 71
     5
 72
     1
  1
\A1;55
  7
STYLE1
 73
     1
 44
1.0
1001
ACAD
1000
MTEXTBEGIN
1070
    73
1070
     1
1070
    44
1040
1.0
1070
    74
1070
     0
1000
MTEXTEND
  0
POINT
  5
16BC0
330
1592C
100
AcDbEntity
  8
DEFPOINTS
 62
     0
 48
50.0
100
AcDbPoint
 10
4839.720528655314
 20
9497.714193327066
 30
0.0
  0
POINT
  5
16BC1
330
1592C
100
AcDbEntity
  8
DEFPOINTS
 62
     0
 48
50.0
100
AcDbPoint
 10
4894.720528655349
 20
9497.714193327066
 30
0.0
  0
POINT
  5
16BC2
330
1592C
100
AcDbEntity
  8
DEFPOINTS
 62
     0
 48
50.0
100
AcDbPoint
 10
4894.720528655349
 20
9713.522412952046
 30
0.0
  0
ENDBLK
  5
15A5F
330
1592C
100
AcDbEntity
  8
0
 48
50.0
100
AcDbBlockEnd
  0
BLOCK
  5
15A60
330
1593A
100
AcDbEntity
  8
0
 48
50.0
100
AcDbBlockBegin
  2
*D7
 70
     1
 10
0.0
 20
0.0
 30
0.0
  3
*D7
  1

  0
LINE
  5
16BAF
330
1593A
100
AcDbEntity
  8
寸法
 62
     0
 48
50.0
370
    -2
100
AcDbLine
 10
4894.720528655349
 20
9517.714193327094
 30
0.0
 11
4894.720528655349
 21
9773.522412952162
 31
0.0
  0
LINE
  5
16BB0
330
1593A
100
AcDbEntity
  8
寸法
 62
     0
 48
50.0
370
    -2
100
AcDbLine
 10
5734.720528655348
 20
9517.714193327181
 30
0.0
 11
5734.720528655348
 21
9773.522412952162
 31
0.0
  0
LINE
  5
16BB1
330
1593A
100
AcDbEntity
  8
寸法
 62
     0
 48
50.0
370
    -2
100
AcDbLine
 10
4894.720528655349
 20
9713.522412952164
 30
0.0
 11
5734.720528655348
 21
9713.522412952164
 31
0.0
  0
INSERT
  5
16BB2
330
1593A
100
AcDbEntity
  8
寸法
 62
     0
 48
50.0
370
    -2
100
AcDbBlockReference
  2
_DOTSMALL
 10
4894.720528655349
 20
9713.522412952164
 30
0.0
 41
100.0
 42
100.0
 43
100.0
 50
180.0
  0
INSERT
  5
16BB3
330
1593A
100
AcDbEntity
  8
寸法
 62
     0
 48
50.0
370
    -2
100
AcDbBlockReference
  2
_DOTSMALL
 10
5734.720528655348
 20
9713.522412952164
 30
0.0
 41
100.0
 42
100.0
 43
100.0
  0
MTEXT
  5
16BB4
330
1593A
100
AcDbEntity
  8
寸法
 62
     7
 48
50.0
100
AcDbMText
 10
5314.720528655348
 20
9813.534223975786
 30
0.0
 40
120.0
 41
0.0
 71
     5
 72
     1
  1
\A1;2X420=840
  7
STYLE1
 73
     1
 44
1.0
1001
ACAD
1000
MTEXTBEGIN
1070
    73
1070
     1
1070
    44
1040
1.0
1070
    74
1070
     0
1000
MTEXTEND
  0
POINT
  5
16BB5
330
1593A
100
AcDbEntity
  8
DEFPOINTS
 62
     0
 48
50.0
100
AcDbPoint
 10
4894.720528655349
 20
9497.714193327094
 30
0.0
  0
POINT
  5
16BB6
330
1593A
100
AcDbEntity
  8
DEFPOINTS
 62
     0
 48
50.0
100
AcDbPoint
 10
5734.720528655348
 20
9497.714193327182
 30
0.0
  0
POINT
  5
16BB7
330
1593A
100
AcDbEntity
  8
DEFPOINTS
 62
     0
 48
50.0
100
AcDbPoint
 10
5734.720528655348
 20
9713.522412952164
 30
0.0
  0
ENDBLK
  5
15A6A
330
1593A
100
AcDbEntity
  8
0
 48
50.0
100
AcDbBlockEnd
  0
BLOCK
  5
15A6B
330
15946
100
AcDbEntity
  8
0
 48
50.0
100
AcDbBlockBegin
  2
*D8
 70
     1
 10
0.0
 20
0.0
 30
0.0
  3
*D8
  1

  0
LINE
  5
16BA6
330
15946
100
AcDbEntity
  8
寸法
 62
     0
 48
50.0
370
    -2
100
AcDbLine
 10
6794.72052865535
 20
9517.714193327094
 30
0.0
 11
6794.72052865535
 21
9773.522412952162
 31
0.0
  0
LINE
  5
16BA7
330
15946
100
AcDbEntity
  8
寸法
 62
     0
 48
50.0
370
    -2
100
AcDbLine
 10
7634.720528655347
 20
9517.714193327181
 30
0.0
 11
7634.720528655347
 21
9773.522412952162
 31
0.0
  0
LINE
  5
16BA8
330
15946
100
AcDbEntity
  8
寸法
 62
     0
 48
50.0
370
    -2
100
AcDbLine
 10
6794.72052865535
 20
9713.522412952164
 30
0.0
 11
7634.720528655347
 21
9713.522412952164
 31
0.0
  0
INSERT
  5
16BA9
330
15946
100
AcDbEntity
  8
寸法
 62
     0
 48
50.0
370
    -2
100
AcDbBlockReference
  2
_DOTSMALL
 10
6794.72052865535
 20
9713.522412952164
 30
0.0
 41
100.0
 42
100.0
 43
100.0
 50
180.0
  0
INSERT
  5
16BAA
330
15946
100
AcDbEntity
  8
寸法
 62
     0
 48
50.0
370
    -2
100
AcDbBlockReference
  2
_DOTSMALL
 10
7634.720528655347
 20
9713.522412952164
 30
0.0
 41
100.0
 42
100.0
 43
100.0
  0
MTEXT
  5
16BAB
330
15946
100
AcDbEntity
  8
寸法
 62
     7
 48
50.0
100
AcDbMText
 10
7214.720528655348
 20
9813.534223975786
 30
0.0
 40
120.0
 41
0.0
 71
     5
 72
     1
  1
\A1;2X420=840
  7
STYLE1
 73
     1
 44
1.0
1001
ACAD
1000
MTEXTBEGIN
1070
    73
1070
     1
1070
    44
1040
1.0
1070
    74
1070
     0
1000
MTEXTEND
  0
POINT
  5
16BAC
330
15946
100
AcDbEntity
  8
DEFPOINTS
 62
     0
 48
50.0
100
AcDbPoint
 10
6794.72052865535
 20
9497.714193327094
 30
0.0
  0
POINT
  5
16BAD
330
15946
100
AcDbEntity
  8
DEFPOINTS
 62
     0
 48
50.0
100
AcDbPoint
 10
7634.720528655347
 20
9497.714193327182
 30
0.0
  0
POINT
  5
16BAE
330
15946
100
AcDbEntity
  8
DEFPOINTS
 62
     0
 48
50.0
100
AcDbPoint
 10
7634.720528655347
 20
9713.522412952164
 30
0.0
  0
ENDBLK
  5
15A75
330
15946
100
AcDbEntity
  8
0
 48
50.0
100
AcDbBlockEnd
  0
BLOCK
  5
15A76
330
15952
100
AcDbEntity
  8
0
 48
50.0
100
AcDbBlockBegin
  2
*D9
 70
     1
 10
0.0
 20
0.0
 30
0.0
  3
*D9
  1

  0
LINE
  5
16B9D
330
15952
100
AcDbEntity
  8
寸法
 62
     0
 48
50.0
370
    -2
100
AcDbLine
 10
4839.720528655344
 20
8107.714193326986
 30
0.0
 11
4839.720528655344
 21
7080.612318466909
 31
0.0
  0
LINE
  5
16B9E
330
15952
100
AcDbEntity
  8
寸法
 62
     0
 48
50.0
370
    -2
100
AcDbLine
 10
7689.720528655326
 20
8107.714193327117
 30
0.0
 11
7689.720528655326
 21
7080.612318466909
 31
0.0
  0
LINE
  5
16B9F
330
15952
100
AcDbEntity
  8
寸法
 62
     0
 48
50.0
370
    -2
100
AcDbLine
 10
4839.720528655344
 20
7140.612318466908
 30
0.0
 11
7689.720528655326
 21
7140.612318466908
 31
0.0
  0
INSERT
  5
16BA0
330
15952
100
AcDbEntity
  8
寸法
 62
     0
 48
50.0
370
    -2
100
AcDbBlockReference
  2
_DOTSMALL
 10
4839.720528655344
 20
7140.612318466908
 30
0.0
 41
100.0
 42
100.0
 43
100.0
 50
180.0
  0
INSERT
  5
16BA1
330
15952
100
AcDbEntity
  8
寸法
 62
     0
 48
50.0
370
    -2
100
AcDbBlockReference
  2
_DOTSMALL
 10
7689.720528655326
 20
7140.612318466908
 30
0.0
 41
100.0
 42
100.0
 43
100.0
  0
MTEXT
  5
16BA2
330
15952
100
AcDbEntity
  8
寸法
 62
     7
 48
50.0
100
AcDbMText
 10
6199.720528655332
 20
7240.62412949053
 30
0.0
 40
120.0
 41
0.0
 71
     5
 72
     1
  1
\A1;2850
  7
STYLE1
 73
     1
 44
1.0
1001
ACAD
1000
MTEXTBEGIN
1070
    73
1070
     1
1070
    44
1040
1.0
1070
    74
1070
     0
1000
MTEXTEND
  0
POINT
  5
16BA3
330
15952
100
AcDbEntity
  8
DEFPOINTS
 62
     0
 48
50.0
100
AcDbPoint
 10
4839.720528655344
 20
8127.714193326985
 30
0.0
  0
POINT
  5
16BA4
330
15952
100
AcDbEntity
  8
DEFPOINTS
 62
     0
 48
50.0
100
AcDbPoint
 10
7689.720528655326
 20
8127.714193327117
 30
0.0
  0
POINT
  5
16BA5
330
15952
100
AcDbEntity
  8
DEFPOINTS
 62
     0
 48
50.0
100
AcDbPoint
 10
7689.720528655326
 20
7140.612318466908
 30
0.0
  0
ENDBLK
  5
15A80
330
15952
100
AcDbEntity
  8
0
 48
50.0
100
AcDbBlockEnd
  0
BLOCK
  5
15A97
330
15976
100
AcDbEntity
  8
0
 48
50.0
100
AcDbBlockBegin
  2
*D10
 70
     1
 10
0.0
 20
0.0
 30
0.0
  3
*D10
  1

  0
LINE
  5
16B94
330
15976
100
AcDbEntity
  8
寸法
 62
     0
 48
50.0
370
    -2
100
AcDbLine
 10
6794.720528655346
 20
8107.714193327058
 30
0.0
 11
6794.720528655346
 21
7627.890525531981
 31
0.0
  0
LINE
  5
16B95
330
15976
100
AcDbEntity
  8
寸法
 62
     0
 48
50.0
370
    -2
100
AcDbLine
 10
7479.720528655342
 20
8107.714193327021
 30
0.0
 11
7479.720528655342
 21
7627.890525531981
 31
0.0
  0
LINE
  5
16B96
330
15976
100
AcDbEntity
  8
寸法
 62
     0
 48
50.0
370
    -2
100
AcDbLine
 10
6794.720528655346
 20
7687.89052553198
 30
0.0
 11
7479.720528655342
 21
7687.89052553198
 31
0.0
  0
INSERT
  5
16B97
330
15976
100
AcDbEntity
  8
寸法
 62
     0
 48
50.0
370
    -2
100
AcDbBlockReference
  2
_DOTSMALL
 10
6794.720528655346
 20
7687.89052553198
 30
0.0
 41
100.0
 42
100.0
 43
100.0
 50
180.0
  0
INSERT
  5
16B98
330
15976
100
AcDbEntity
  8
寸法
 62
     0
 48
50.0
370
    -2
100
AcDbBlockReference
  2
_DOTSMALL
 10
7479.720528655342
 20
7687.89052553198
 30
0.0
 41
100.0
 42
100.0
 43
100.0
  0
MTEXT
  5
16B99
330
15976
100
AcDbEntity
  8
寸法
 62
     7
 48
50.0
100
AcDbMText
 10
7137.220528655345
 20
7887.890525531981
 30
0.0
 40
120.0
 41
0.0
 71
     5
 72
     1
  1
\A1;有効開口部間口\P685
  7
STYLE1
 73
     1
 44
1.0
1001
ACAD
1000
MTEXTBEGIN
1070
    73
1070
     1
1070
    44
1040
1.0
1070
    74
1070
     0
1000
MTEXTEND
  0
POINT
  5
16B9A
330
15976
100
AcDbEntity
  8
DEFPOINTS
 62
     0
 48
50.0
100
AcDbPoint
 10
6794.720528655346
 20
8127.714193327058
 30
0.0
  0
POINT
  5
16B9B
330
15976
100
AcDbEntity
  8
DEFPOINTS
 62
     0
 48
50.0
100
AcDbPoint
 10
7479.720528655342
 20
8127.714193327021
 30
0.0
  0
POINT
  5
16B9C
330
15976
100
AcDbEntity
  8
DEFPOINTS
 62
     0
 48
50.0
100
AcDbPoint
 10
7479.720528655342
 20
7687.89052553198
 30
0.0
  0
ENDBLK
  5
15AA1
330
15976
100
AcDbEntity
  8
0
 48
50.0
100
AcDbBlockEnd
  0
BLOCK
  5
15AC3
330
159A6
100
AcDbEntity
  8
0
 48
50.0
100
AcDbBlockBegin
  2
*D11
 70
     1
 10
0.0
 20
0.0
 30
0.0
  3
*D11
  1

  0
LINE
  5
16B89
330
159A6
100
AcDbEntity
  8
寸法
 62
     0
 48
50.0
370
    -2
100
AcDbLine
 10
7709.720528655326
 20
8182.714193327145
 30
0.0
 11
8397.146874389738
 21
8182.714193327145
 31
0.0
  0
LINE
  5
16B8A
330
159A6
100
AcDbEntity
  8
寸法
 62
     0
 48
50.0
370
    -2
100
AcDbLine
 10
7709.720528655326
 20
8127.714193327145
 30
0.0
 11
8397.146874389738
 21
8127.714193327145
 31
0.0
  0
LINE
  5
16B8B
330
159A6
100
AcDbEntity
  8
寸法
 62
     0
 48
50.0
370
    -2
100
AcDbLine
 10
8337.146874389736
 20
8182.714193327145
 30
0.0
 11
8337.146874389736
 21
8282.714193327144
 31
0.0
  0
LINE
  5
16B8C
330
159A6
100
AcDbEntity
  8
寸法
 62
     0
 48
50.0
370
    -2
100
AcDbLine
 10
8337.146874389736
 20
8127.714193327145
 30
0.0
 11
8337.146874389736
 21
7641.367445048043
 31
0.0
  0
LINE
  5
16B8D
330
159A6
100
AcDbEntity
  8
寸法
 62
     0
 48
50.0
370
    -2
100
AcDbLine
 10
8337.146874389736
 20
8182.714193327145
 30
0.0
 11
8337.146874389736
 21
8127.714193327145
 31
0.0
  0
INSERT
  5
16B8E
330
159A6
100
AcDbEntity
  8
寸法
 62
     0
 48
50.0
370
    -2
100
AcDbBlockReference
  2
_DOTSMALL
 10
8337.146874389736
 20
8182.714193327145
 30
0.0
 41
100.0
 42
100.0
 43
100.0
 50
270.0
  0
INSERT
  5
16B8F
330
159A6
100
AcDbEntity
  8
寸法
 62
     0
 48
50.0
370
    -2
100
AcDbBlockReference
  2
_DOTSMALL
 10
8337.146874389736
 20
8127.714193327145
 30
0.0
 41
100.0
 42
100.0
 43
100.0
 50
90.0
  0
MTEXT
  5
16B90
330
159A6
100
AcDbEntity
  8
寸法
 62
     7
 48
50.0
100
AcDbMText
 10
8237.146874389734
 20
7749.852726422282
 30
0.0
 40
120.0
 41
0.0
 71
     5
 72
     1
  1
\A1;55
  7
STYLE1
 11
0.0000000000000001
 21
1.0
 31
0.0
 73
     1
 44
1.0
1001
ACAD
1000
MTEXTBEGIN
1070
    73
1070
     1
1070
    44
1040
1.0
1070
    74
1070
     0
1000
MTEXTEND
  0
POINT
  5
16B91
330
159A6
100
AcDbEntity
  8
DEFPOINTS
 62
     0
 48
50.0
100
AcDbPoint
 10
7689.720528655326
 20
8182.714193327145
 30
0.0
  0
POINT
  5
16B92
330
159A6
100
AcDbEntity
  8
DEFPOINTS
 62
     0
 48
50.0
100
AcDbPoint
 10
7689.720528655326
 20
8127.714193327145
 30
0.0
  0
POINT
  5
16B93
330
159A6
100
AcDbEntity
  8
DEFPOINTS
 62
     0
 48
50.0
100
AcDbPoint
 10
8337.146874389736
 20
8127.714193327145
 30
0.0
  0
ENDBLK
  5
15ACF
330
159A6
100
AcDbEntity
  8
0
 48
50.0
100
AcDbBlockEnd
  0
BLOCK
  5
15AD0
330
159B4
100
AcDbEntity
  8
0
 48
50.0
100
AcDbBlockBegin
  2
*D12
 70
     1
 10
0.0
 20
0.0
 30
0.0
  3
*D12
  1

  0
LINE
  5
16B80
330
159B4
100
AcDbEntity
  8
寸法
 62
     0
 48
50.0
370
    -2
100
AcDbLine
 10
7709.72052865535
 20
9497.71419332716
 30
0.0
 11
8706.258405205439
 21
9497.71419332716
 31
0.0
  0
LINE
  5
16B81
330
159B4
100
AcDbEntity
  8
寸法
 62
     0
 48
50.0
370
    -2
100
AcDbLine
 10
7709.720528655326
 20
8127.714193327145
 30
0.0
 11
8706.258405205439
 21
8127.714193327145
 31
0.0
  0
LINE
  5
16B82
330
159B4
100
AcDbEntity
  8
寸法
 62
     0
 48
50.0
370
    -2
100
AcDbLine
 10
8646.25840520544
 20
9497.71419332716
 30
0.0
 11
8646.25840520544
 21
8127.714193327145
 31
0.0
  0
INSERT
  5
16B83
330
159B4
100
AcDbEntity
  8
寸法
 62
     0
 48
50.0
370
    -2
100
AcDbBlockReference
  2
_DOTSMALL
 10
8646.25840520544
 20
9497.71419332716
 30
0.0
 41
100.0
 42
100.0
 43
100.0
 50
90.0
  0
INSERT
  5
16B84
330
159B4
100
AcDbEntity
  8
寸法
 62
     0
 48
50.0
370
    -2
100
AcDbBlockReference
  2
_DOTSMALL
 10
8646.25840520544
 20
8127.714193327145
 30
0.0
 41
100.0
 42
100.0
 43
100.0
 50
270.0
  0
MTEXT
  5
16B85
330
159B4
100
AcDbEntity
  8
寸法
 62
     7
 48
50.0
100
AcDbMText
 10
8546.258405205437
 20
8812.714193327153
 30
0.0
 40
120.0
 41
0.0
 71
     5
 72
     1
  1
\A1;1370
  7
STYLE1
 11
0.0000000000000001
 21
1.0
 31
0.0
 73
     1
 44
1.0
1001
ACAD
1000
MTEXTBEGIN
1070
    73
1070
     1
1070
    44
1040
1.0
1070
    74
1070
     0
1000
MTEXTEND
  0
POINT
  5
16B86
330
159B4
100
AcDbEntity
  8
DEFPOINTS
 62
     0
 48
50.0
100
AcDbPoint
 10
7689.720528655351
 20
9497.71419332716
 30
0.0
  0
POINT
  5
16B87
330
159B4
100
AcDbEntity
  8
DEFPOINTS
 62
     0
 48
50.0
100
AcDbPoint
 10
7689.720528655326
 20
8127.714193327145
 30
0.0
  0
POINT
  5
16B88
330
159B4
100
AcDbEntity
  8
DEFPOINTS
 62
     0
 48
50.0
100
AcDbPoint
 10
8646.25840520544
 20
8127.714193327145
 30
0.0
  0
ENDBLK
  5
15ADA
330
159B4
100
AcDbEntity
  8
0
 48
50.0
100
AcDbBlockEnd
  0
BLOCK
  5
15ADB
330
159C0
100
AcDbEntity
  8
0
 48
50.0
100
AcDbBlockBegin
  2
*D13
 70
     1
 10
0.0
 20
0.0
 30
0.0
  3
*D13
  1

  0
LINE
  5
16B77
330
159C0
100
AcDbEntity
  8
寸法
 62
     0
 48
50.0
370
    -2
100
AcDbLine
 10
7709.72052865535
 20
9442.71419332716
 30
0.0
 11
8397.146874389761
 21
9442.71419332716
 31
0.0
  0
LINE
  5
16B78
330
159C0
100
AcDbEntity
  8
寸法
 62
     0
 48
50.0
370
    -2
100
AcDbLine
 10
7709.720528655326
 20
8182.714193327145
 30
0.0
 11
8397.146874389761
 21
8182.714193327145
 31
0.0
  0
LINE
  5
16B79
330
159C0
100
AcDbEntity
  8
寸法
 62
     0
 48
50.0
370
    -2
100
AcDbLine
 10
8337.146874389762
 20
9442.71419332716
 30
0.0
 11
8337.146874389762
 21
8182.714193327145
 31
0.0
  0
INSERT
  5
16B7A
330
159C0
100
AcDbEntity
  8
寸法
 62
     0
 48
50.0
370
    -2
100
AcDbBlockReference
  2
_DOTSMALL
 10
8337.146874389762
 20
9442.71419332716
 30
0.0
 41
100.0
 42
100.0
 43
100.0
 50
90.0
  0
INSERT
  5
16B7B
330
159C0
100
AcDbEntity
  8
寸法
 62
     0
 48
50.0
370
    -2
100
AcDbBlockReference
  2
_DOTSMALL
 10
8337.146874389762
 20
8182.714193327145
 30
0.0
 41
100.0
 42
100.0
 43
100.0
 50
270.0
  0
MTEXT
  5
16B7C
330
159C0
100
AcDbEntity
  8
寸法
 62
     7
 48
50.0
100
AcDbMText
 10
8237.135063366139
 20
8812.714193327153
 30
0.0
 40
120.0
 41
0.0
 71
     5
 72
     1
  1
\A1;3X420=1260
  7
STYLE1
 11
0.0000000000000001
 21
1.0
 31
0.0
 73
     1
 44
1.0
1001
ACAD
1000
MTEXTBEGIN
1070
    73
1070
     1
1070
    44
1040
1.0
1070
    74
1070
     0
1000
MTEXTEND
  0
POINT
  5
16B7D
330
159C0
100
AcDbEntity
  8
DEFPOINTS
 62
     0
 48
50.0
100
AcDbPoint
 10
7689.720528655351
 20
9442.71419332716
 30
0.0
  0
POINT
  5
16B7E
330
159C0
100
AcDbEntity
  8
DEFPOINTS
 62
     0
 48
50.0
100
AcDbPoint
 10
7689.720528655326
 20
8182.714193327145
 30
0.0
  0
POINT
  5
16B7F
330
159C0
100
AcDbEntity
  8
DEFPOINTS
 62
     0
 48
50.0
100
AcDbPoint
 10
8337.146874389762
 20
8182.714193327145
 30
0.0
  0
ENDBLK
  5
15AE5
330
159C0
100
AcDbEntity
  8
0
 48
50.0
100
AcDbBlockEnd
  0
BLOCK
  5
15AE6
330
159CC
100
AcDbEntity
  8
0
 48
50.0
100
AcDbBlockBegin
  2
*D14
 70
     1
 10
0.0
 20
0.0
 30
0.0
  3
*D14
  1

  0
LINE
  5
16B6E
330
159CC
100
AcDbEntity
  8
寸法
 62
     0
 48
50.0
370
    -2
100
AcDbLine
 10
7680.720535332958
 20
9462.855209478407
 30
0.0
 11
8076.078261194984
 21
9356.91942611227
 31
0.0
  0
LINE
  5
16B6F
330
159CC
100
AcDbEntity
  8
寸法
 62
     0
 48
50.0
370
    -2
100
AcDbLine
 10
7680.720535332968
 20
9012.855209478415
 30
0.0
 11
8076.078261194984
 21
8906.919426112281
 31
0.0
  0
LINE
  5
16B70
330
159CC
100
AcDbEntity
  8
寸法
 62
     0
 48
50.0
370
    -2
100
AcDbLine
 10
8016.078261194984
 20
9372.996377658138
 30
0.0
 11
8016.078261194984
 21
8922.996377658149
 31
0.0
  0
INSERT
  5
16B71
330
159CC
100
AcDbEntity
  8
寸法
 62
     0
 48
50.0
370
    -2
100
AcDbBlockReference
  2
_DOTSMALL
 10
8016.078261194984
 20
9372.996377658138
 30
0.0
 41
100.0
 42
100.0
 43
100.0
 50
90.0
  0
INSERT
  5
16B72
330
159CC
100
AcDbEntity
  8
寸法
 62
     0
 48
50.0
370
    -2
100
AcDbBlockReference
  2
_DOTSMALL
 10
8016.078261194984
 20
8922.996377658149
 30
0.0
 41
100.0
 42
100.0
 43
100.0
 50
270.0
  0
MTEXT
  5
16B73
330
159CC
100
AcDbEntity
  8
寸法
 62
     7
 48
50.0
100
AcDbMText
 10
7916.078261194984
 20
9147.996377658138
 30
0.0
 40
120.0
 41
0.0
 71
     5
 72
     1
  1
\A1;450
  7
STYLE1
 11
0.0000000000000001
 21
1.0
 31
0.0
 73
     1
 44
1.0
1001
ACAD
1000
MTEXTBEGIN
1070
    73
1070
     1
1070
    44
1040
1.0
1070
    74
1070
     0
1000
MTEXTEND
  0
POINT
  5
16B74
330
159CC
100
AcDbEntity
  8
DEFPOINTS
 62
     0
 48
50.0
100
AcDbPoint
 10
7660.720535332957
 20
9468.214193327028
 30
0.0
  0
POINT
  5
16B75
330
159CC
100
AcDbEntity
  8
DEFPOINTS
 62
     0
 48
50.0
100
AcDbPoint
 10
7660.720535332969
 20
9018.214193327036
 30
0.0
  0
POINT
  5
16B76
330
159CC
100
AcDbEntity
  8
DEFPOINTS
 62
     0
 48
50.0
100
AcDbPoint
 10
8016.078261194984
 20
8922.996377658149
 30
0.0
  0
ENDBLK
  5
15AF0
330
159CC
100
AcDbEntity
  8
0
 48
50.0
100
AcDbBlockEnd
  0
BLOCK
  5
15B07
330
159F0
100
AcDbEntity
  8
0
 48
50.0
100
AcDbBlockBegin
  2
*D15
 70
     1
 10
0.0
 20
0.0
 30
0.0
  3
*D15
  1

  0
LINE
  5
16B65
330
159F0
100
AcDbEntity
  8
寸法
 62
     0
 48
50.0
370
    -2
100
AcDbLine
 10
4819.720528655343
 20
5162.425555112486
 30
0.0
 11
4461.61600104774
 21
5162.425555112486
 31
0.0
  0
LINE
  5
16B66
330
159F0
100
AcDbEntity
  8
寸法
 62
     0
 48
50.0
370
    -2
100
AcDbLine
 10
4819.720528655343
 20
3402.42555511249
 30
0.0
 11
4461.61600104774
 21
3402.42555511249
 31
0.0
  0
LINE
  5
16B67
330
159F0
100
AcDbEntity
  8
寸法
 62
     0
 48
50.0
370
    -2
100
AcDbLine
 10
4521.616001047741
 20
5162.425555112486
 30
0.0
 11
4521.616001047741
 21
3402.42555511249
 31
0.0
  0
INSERT
  5
16B68
330
159F0
100
AcDbEntity
  8
寸法
 62
     0
 48
50.0
370
    -2
100
AcDbBlockReference
  2
_DOTSMALL
 10
4521.616001047741
 20
5162.425555112486
 30
0.0
 41
100.0
 42
100.0
 43
100.0
 50
90.0
  0
INSERT
  5
16B69
330
159F0
100
AcDbEntity
  8
寸法
 62
     0
 48
50.0
370
    -2
100
AcDbBlockReference
  2
_DOTSMALL
 10
4521.616001047741
 20
3402.42555511249
 30
0.0
 41
100.0
 42
100.0
 43
100.0
 50
270.0
  0
MTEXT
  5
16B6A
330
159F0
100
AcDbEntity
  8
寸法
 62
     7
 48
50.0
100
AcDbMText
 10
4421.616001047739
 20
4281.425555112488
 30
0.0
 40
120.0
 41
0.0
 71
     5
 72
     1
  1
\A1;有効開口部高サ1760
  7
STYLE1
 11
0.0000000000000001
 21
1.0
 31
0.0
 73
     1
 44
1.0
1001
ACAD
1000
MTEXTBEGIN
1070
    73
1070
     1
1070
    44
1040
1.0
1070
    74
1070
     0
1000
MTEXTEND
  0
POINT
  5
16B6B
330
159F0
100
AcDbEntity
  8
DEFPOINTS
 62
     0
 48
50.0
100
AcDbPoint
 10
4839.720528655344
 20
5162.425555112486
 30
0.0
  0
POINT
  5
16B6C
330
159F0
100
AcDbEntity
  8
DEFPOINTS
 62
     0
 48
50.0
100
AcDbPoint
 10
4839.720528655344
 20
3402.42555511249
 30
0.0
  0
POINT
  5
16B6D
330
159F0
100
AcDbEntity
  8
DEFPOINTS
 62
     0
 48
50.0
100
AcDbPoint
 10
4521.616001047741
 20
3402.42555511249
 30
0.0
  0
ENDBLK
  5
15B11
330
159F0
100
AcDbEntity
  8
0
 48
50.0
100
AcDbBlockEnd
  0
BLOCK
  5
15C40
330
15C34
100
AcDbEntity
  8
0
 48
50.0
100
AcDbBlockBegin
  2
*D16
 70
     1
 10
0.0
 20
0.0
 30
0.0
  3
*D16
  1

  0
LINE
  5
16B5C
330
15C34
100
AcDbEntity
  8
寸法
 62
     0
 48
50.0
370
    -2
100
AcDbLine
 10
5844.720528655347
 20
8107.714193327058
 30
0.0
 11
5844.720528655347
 21
7627.890525531981
 31
0.0
  0
LINE
  5
16B5D
330
15C34
100
AcDbEntity
  8
寸法
 62
     0
 48
50.0
370
    -2
100
AcDbLine
 10
6529.720528655342
 20
8107.714193327021
 30
0.0
 11
6529.720528655342
 21
7627.890525531981
 31
0.0
  0
LINE
  5
16B5E
330
15C34
100
AcDbEntity
  8
寸法
 62
     0
 48
50.0
370
    -2
100
AcDbLine
 10
5844.720528655347
 20
7687.89052553198
 30
0.0
 11
6529.720528655342
 21
7687.89052553198
 31
0.0
  0
INSERT
  5
16B5F
330
15C34
100
AcDbEntity
  8
寸法
 62
     0
 48
50.0
370
    -2
100
AcDbBlockReference
  2
_DOTSMALL
 10
5844.720528655347
 20
7687.89052553198
 30
0.0
 41
100.0
 42
100.0
 43
100.0
 50
180.0
  0
INSERT
  5
16B60
330
15C34
100
AcDbEntity
  8
寸法
 62
     0
 48
50.0
370
    -2
100
AcDbBlockReference
  2
_DOTSMALL
 10
6529.720528655342
 20
7687.89052553198
 30
0.0
 41
100.0
 42
100.0
 43
100.0
  0
MTEXT
  5
16B61
330
15C34
100
AcDbEntity
  8
寸法
 62
     7
 48
50.0
100
AcDbMText
 10
6187.220528655345
 20
7787.890525531981
 30
0.0
 40
120.0
 41
0.0
 71
     5
 72
     1
  1
\A1;685
  7
STYLE1
 73
     1
 44
1.0
1001
ACAD
1000
MTEXTBEGIN
1070
    73
1070
     1
1070
    44
1040
1.0
1070
    74
1070
     0
1000
MTEXTEND
  0
POINT
  5
16B62
330
15C34
100
AcDbEntity
  8
DEFPOINTS
 62
     0
 48
50.0
100
AcDbPoint
 10
5844.720528655347
 20
8127.714193327058
 30
0.0
  0
POINT
  5
16B63
330
15C34
100
AcDbEntity
  8
DEFPOINTS
 62
     0
 48
50.0
100
AcDbPoint
 10
6529.720528655342
 20
8127.714193327021
 30
0.0
  0
POINT
  5
16B64
330
15C34
100
AcDbEntity
  8
DEFPOINTS
 62
     0
 48
50.0
100
AcDbPoint
 10
6529.720528655342
 20
7687.89052553198
 30
0.0
  0
ENDBLK
  5
15C4A
330
15C34
100
AcDbEntity
  8
0
 48
50.0
100
AcDbBlockEnd
  0
BLOCK
  5
15C4D
330
15C4C
100
AcDbEntity
  8
0
 48
50.0
100
AcDbBlockBegin
  2
*D17
 70
     1
 10
0.0
 20
0.0
 30
0.0
  3
*D17
  1

  0
LINE
  5
16B53
330
15C4C
100
AcDbEntity
  8
寸法
 62
     0
 48
50.0
370
    -2
100
AcDbLine
 10
4894.720528655347
 20
8107.714193327058
 30
0.0
 11
4894.720528655347
 21
7627.890525531981
 31
0.0
  0
LINE
  5
16B54
330
15C4C
100
AcDbEntity
  8
寸法
 62
     0
 48
50.0
370
    -2
100
AcDbLine
 10
5579.720528655342
 20
8107.714193327021
 30
0.0
 11
5579.720528655342
 21
7627.890525531981
 31
0.0
  0
LINE
  5
16B55
330
15C4C
100
AcDbEntity
  8
寸法
 62
     0
 48
50.0
370
    -2
100
AcDbLine
 10
4894.720528655347
 20
7687.89052553198
 30
0.0
 11
5579.720528655342
 21
7687.89052553198
 31
0.0
  0
INSERT
  5
16B56
330
15C4C
100
AcDbEntity
  8
寸法
 62
     0
 48
50.0
370
    -2
100
AcDbBlockReference
  2
_DOTSMALL
 10
4894.720528655347
 20
7687.89052553198
 30
0.0
 41
100.0
 42
100.0
 43
100.0
 50
180.0
  0
INSERT
  5
16B57
330
15C4C
100
AcDbEntity
  8
寸法
 62
     0
 48
50.0
370
    -2
100
AcDbBlockReference
  2
_DOTSMALL
 10
5579.720528655342
 20
7687.89052553198
 30
0.0
 41
100.0
 42
100.0
 43
100.0
  0
MTEXT
  5
16B58
330
15C4C
100
AcDbEntity
  8
寸法
 62
     7
 48
50.0
100
AcDbMText
 10
5237.220528655345
 20
7787.890525531981
 30
0.0
 40
120.0
 41
0.0
 71
     5
 72
     1
  1
\A1;685
  7
STYLE1
 73
     1
 44
1.0
1001
ACAD
1000
MTEXTBEGIN
1070
    73
1070
     1
1070
    44
1040
1.0
1070
    74
1070
     0
1000
MTEXTEND
  0
POINT
  5
16B59
330
15C4C
100
AcDbEntity
  8
DEFPOINTS
 62
     0
 48
50.0
100
AcDbPoint
 10
4894.720528655347
 20
8127.714193327058
 30
0.0
  0
POINT
  5
16B5A
330
15C4C
100
AcDbEntity
  8
DEFPOINTS
 62
     0
 48
50.0
100
AcDbPoint
 10
5579.720528655342
 20
8127.714193327021
 30
0.0
  0
POINT
  5
16B5B
330
15C4C
100
AcDbEntity
  8
DEFPOINTS
 62
     0
 48
50.0
100
AcDbPoint
 10
5579.720528655342
 20
7687.89052553198
 30
0.0
  0
ENDBLK
  5
15C57
330
15C4C
100
AcDbEntity
  8
0
 48
50.0
100
AcDbBlockEnd
  0
BLOCK
  5
16697
330
1668D
100
AcDbEntity
  8
0
 48
50.0
100
AcDbBlockBegin
  2
*D18
 70
     1
 10
0.0
 20
0.0
 30
0.0
  3
*D18
  1

  0
LINE
  5
16B26
330
1668D
100
AcDbEntity
  8
寸法
 62
     0
 48
50.0
370
    -2
100
AcDbLine
 10
4789.720528655343
 20
5435.925555112493
 30
0.0
 11
4789.720528655343
 21
5911.42411880858
 31
0.0
  0
LINE
  5
16B27
330
1668D
100
AcDbEntity
  8
寸法
 62
     0
 48
50.0
370
    -2
100
AcDbLine
 10
7739.720528655347
 20
5435.925555112488
 30
0.0
 11
7739.720528655347
 21
5911.42411880858
 31
0.0
  0
LINE
  5
16B28
330
1668D
100
AcDbEntity
  8
寸法
 62
     0
 48
50.0
370
    -2
100
AcDbLine
 10
4789.720528655343
 20
5851.42411880858
 30
0.0
 11
7739.720528655347
 21
5851.42411880858
 31
0.0
  0
INSERT
  5
16B29
330
1668D
100
AcDbEntity
  8
寸法
 62
     0
 48
50.0
370
    -2
100
AcDbBlockReference
  2
_DOTSMALL
 10
4789.720528655343
 20
5851.42411880858
 30
0.0
 41
100.0
 42
100.0
 43
100.0
 50
180.0
  0
INSERT
  5
16B2A
330
1668D
100
AcDbEntity
  8
寸法
 62
     0
 48
50.0
370
    -2
100
AcDbBlockReference
  2
_DOTSMALL
 10
7739.720528655347
 20
5851.42411880858
 30
0.0
 41
100.0
 42
100.0
 43
100.0
  0
MTEXT
  5
16B2B
330
1668D
100
AcDbEntity
  8
寸法
 62
     7
 48
50.0
100
AcDbMText
 10
6264.720528655345
 20
5951.435929832201
 30
0.0
 40
120.0
 41
0.0
 71
     5
 72
     1
  1
\A1;2950
  7
STYLE1
 73
     1
 44
1.0
1001
ACAD
1000
MTEXTBEGIN
1070
    73
1070
     1
1070
    44
1040
1.0
1070
    74
1070
     0
1000
MTEXTEND
  0
POINT
  5
16B2C
330
1668D
100
AcDbEntity
  8
DEFPOINTS
 62
     0
 48
50.0
100
AcDbPoint
 10
4789.720528655343
 20
5415.925555112494
 30
0.0
  0
POINT
  5
16B2D
330
1668D
100
AcDbEntity
  8
DEFPOINTS
 62
     0
 48
50.0
100
AcDbPoint
 10
7739.720528655347
 20
5415.925555112488
 30
0.0
  0
POINT
  5
16B2E
330
1668D
100
AcDbEntity
  8
DEFPOINTS
 62
     0
 48
50.0
100
AcDbPoint
 10
7739.720528655347
 20
5851.42411880858
 30
0.0
  0
ENDBLK
  5
16698
330
1668D
100
AcDbEntity
  8
0
 48
50.0
100
AcDbBlockEnd
  0
BLOCK
  5
166A3
330
16699
100
AcDbEntity
  8
0
 48
50.0
100
AcDbBlockBegin
  2
*D19
 70
     1
 10
0.0
 20
0.0
 30
0.0
  3
*D19
  1

  0
LINE
  5
16B2F
330
16699
100
AcDbEntity
  8
寸法
 62
     0
 48
50.0
370
    -2
100
AcDbLine
 10
7689.720528655347
 20
5435.92555511249
 30
0.0
 11
7689.720528655347
 21
5688.467140370732
 31
0.0
  0
LINE
  5
16B30
330
16699
100
AcDbEntity
  8
寸法
 62
     0
 48
50.0
370
    -2
100
AcDbLine
 10
4839.720528655344
 20
5435.925555112495
 30
0.0
 11
4839.720528655344
 21
5688.467140370732
 31
0.0
  0
LINE
  5
16B31
330
16699
100
AcDbEntity
  8
寸法
 62
     0
 48
50.0
370
    -2
100
AcDbLine
 10
7689.720528655347
 20
5628.467140370733
 30
0.0
 11
4839.720528655344
 21
5628.467140370733
 31
0.0
  0
INSERT
  5
16B32
330
16699
100
AcDbEntity
  8
寸法
 62
     0
 48
50.0
370
    -2
100
AcDbBlockReference
  2
_DOTSMALL
 10
7689.720528655347
 20
5628.467140370733
 30
0.0
 41
100.0
 42
100.0
 43
100.0
  0
INSERT
  5
16B33
330
16699
100
AcDbEntity
  8
寸法
 62
     0
 48
50.0
370
    -2
100
AcDbBlockReference
  2
_DOTSMALL
 10
4839.720528655344
 20
5628.467140370733
 30
0.0
 41
100.0
 42
100.0
 43
100.0
 50
180.0
  0
MTEXT
  5
16B34
330
16699
100
AcDbEntity
  8
寸法
 62
     7
 48
50.0
100
AcDbMText
 10
6264.720528655335
 20
5728.478951394354
 30
0.0
 40
120.0
 41
0.0
 71
     5
 72
     1
  1
\A1;柱外寸法2850
  7
STYLE1
 73
     1
 44
1.0
1001
ACAD
1000
MTEXTBEGIN
1070
    73
1070
     1
1070
    44
1040
1.0
1070
    74
1070
     0
1000
MTEXTEND
  0
POINT
  5
16B35
330
16699
100
AcDbEntity
  8
DEFPOINTS
 62
     0
 48
50.0
100
AcDbPoint
 10
7689.720528655347
 20
5415.92555511249
 30
0.0
  0
POINT
  5
16B36
330
16699
100
AcDbEntity
  8
DEFPOINTS
 62
     0
 48
50.0
100
AcDbPoint
 10
4839.720528655344
 20
5415.925555112495
 30
0.0
  0
POINT
  5
16B37
330
16699
100
AcDbEntity
  8
DEFPOINTS
 62
     0
 48
50.0
100
AcDbPoint
 10
4839.720528655344
 20
5628.467140370733
 30
0.0
  0
ENDBLK
  5
166A4
330
16699
100
AcDbEntity
  8
0
 48
50.0
100
AcDbBlockEnd
  0
BLOCK
  5
166B1
330
166A5
100
AcDbEntity
  8
0
 48
50.0
100
AcDbBlockBegin
  2
*D20
 70
     1
 10
0.0
 20
0.0
 30
0.0
  3
*D20
  1

  0
LINE
  5
16B1B
330
166A5
100
AcDbEntity
  8
寸法
 62
     0
 48
50.0
370
    -2
100
AcDbLine
 10
4839.720528655344
 20
5435.925555112495
 30
0.0
 11
4839.720528655344
 21
5688.467140370732
 31
0.0
  0
LINE
  5
16B1C
330
166A5
100
AcDbEntity
  8
寸法
 62
     0
 48
50.0
370
    -2
100
AcDbLine
 10
4789.720528655343
 20
5435.925555112493
 30
0.0
 11
4789.720528655343
 21
5688.467140370732
 31
0.0
  0
LINE
  5
16B1D
330
166A5
100
AcDbEntity
  8
寸法
 62
     0
 48
50.0
370
    -2
100
AcDbLine
 10
4839.720528655344
 20
5628.467140370733
 30
0.0
 11
4939.720528655343
 21
5628.467140370733
 31
0.0
  0
LINE
  5
16B1E
330
166A5
100
AcDbEntity
  8
寸法
 62
     0
 48
50.0
370
    -2
100
AcDbLine
 10
4789.720528655343
 20
5628.467140370733
 30
0.0
 11
4370.188003186608
 21
5628.467140370733
 31
0.0
  0
LINE
  5
16B1F
330
166A5
100
AcDbEntity
  8
寸法
 62
     0
 48
50.0
370
    -2
100
AcDbLine
 10
4839.720528655344
 20
5628.467140370733
 30
0.0
 11
4789.720528655343
 21
5628.467140370733
 31
0.0
  0
INSERT
  5
16B20
330
166A5
100
AcDbEntity
  8
寸法
 62
     0
 48
50.0
370
    -2
100
AcDbBlockReference
  2
_DOTSMALL
 10
4839.720528655344
 20
5628.467140370733
 30
0.0
 41
100.0
 42
100.0
 43
100.0
 50
180.0
  0
INSERT
  5
16B21
330
166A5
100
AcDbEntity
  8
寸法
 62
     0
 48
50.0
370
    -2
100
AcDbBlockReference
  2
_DOTSMALL
 10
4789.720528655343
 20
5628.467140370733
 30
0.0
 41
100.0
 42
100.0
 43
100.0
  0
MTEXT
  5
16B22
330
166A5
100
AcDbEntity
  8
寸法
 62
     7
 48
50.0
100
AcDbMText
 10
4476.235247281096
 20
5728.467140370733
 30
0.0
 40
120.0
 41
0.0
 71
     5
 72
     1
  1
\A1;50
  7
STYLE1
 73
     1
 44
1.0
1001
ACAD
1000
MTEXTBEGIN
1070
    73
1070
     1
1070
    44
1040
1.0
1070
    74
1070
     0
1000
MTEXTEND
  0
POINT
  5
16B23
330
166A5
100
AcDbEntity
  8
DEFPOINTS
 62
     0
 48
50.0
100
AcDbPoint
 10
4839.720528655344
 20
5415.925555112495
 30
0.0
  0
POINT
  5
16B24
330
166A5
100
AcDbEntity
  8
DEFPOINTS
 62
     0
 48
50.0
100
AcDbPoint
 10
4789.720528655343
 20
5415.925555112494
 30
0.0
  0
POINT
  5
16B25
330
166A5
100
AcDbEntity
  8
DEFPOINTS
 62
     0
 48
50.0
100
AcDbPoint
 10
4789.720528655343
 20
5628.467140370733
 30
0.0
  0
ENDBLK
  5
166B2
330
166A5
100
AcDbEntity
  8
0
 48
50.0
100
AcDbBlockEnd
  0
BLOCK
  5
166E7
330
166DB
100
AcDbEntity
  8
0
 48
50.0
100
AcDbBlockBegin
  2
*D21
 70
     1
 10
0.0
 20
0.0
 30
0.0
  3
*D21
  1

  0
LINE
  5
16B10
330
166DB
100
AcDbEntity
  8
寸法
 62
     0
 48
50.0
370
    -2
100
AcDbLine
 10
7739.720528655347
 20
5435.925555112488
 30
0.0
 11
7739.720528655347
 21
5688.467140370729
 31
0.0
  0
LINE
  5
16B11
330
166DB
100
AcDbEntity
  8
寸法
 62
     0
 48
50.0
370
    -2
100
AcDbLine
 10
7689.720528655347
 20
5435.92555511249
 30
0.0
 11
7689.720528655347
 21
5688.467140370729
 31
0.0
  0
LINE
  5
16B12
330
166DB
100
AcDbEntity
  8
寸法
 62
     0
 48
50.0
370
    -2
100
AcDbLine
 10
7689.720528655347
 20
5628.467140370729
 30
0.0
 11
7589.720528655347
 21
5628.467140370729
 31
0.0
  0
LINE
  5
16B13
330
166DB
100
AcDbEntity
  8
寸法
 62
     0
 48
50.0
370
    -2
100
AcDbLine
 10
7739.720528655347
 20
5628.467140370729
 30
0.0
 11
8159.253054124071
 21
5628.467140370729
 31
0.0
  0
LINE
  5
16B14
330
166DB
100
AcDbEntity
  8
寸法
 62
     0
 48
50.0
370
    -2
100
AcDbLine
 10
7689.720528655347
 20
5628.467140370729
 30
0.0
 11
7739.720528655347
 21
5628.467140370729
 31
0.0
  0
INSERT
  5
16B15
330
166DB
100
AcDbEntity
  8
寸法
 62
     0
 48
50.0
370
    -2
100
AcDbBlockReference
  2
_DOTSMALL
 10
7689.720528655347
 20
5628.467140370729
 30
0.0
 41
100.0
 42
100.0
 43
100.0
  0
INSERT
  5
16B16
330
166DB
100
AcDbEntity
  8
寸法
 62
     0
 48
50.0
370
    -2
100
AcDbBlockReference
  2
_DOTSMALL
 10
7739.720528655347
 20
5628.467140370729
 30
0.0
 41
100.0
 42
100.0
 43
100.0
 50
180.0
  0
MTEXT
  5
16B17
330
166DB
100
AcDbEntity
  8
寸法
 62
     7
 48
50.0
100
AcDbMText
 10
8053.205810029584
 20
5728.467140370729
 30
0.0
 40
120.0
 41
0.0
 71
     5
 72
     1
  1
\A1;50
  7
STYLE1
 73
     1
 44
1.0
1001
ACAD
1000
MTEXTBEGIN
1070
    73
1070
     1
1070
    44
1040
1.0
1070
    74
1070
     0
1000
MTEXTEND
  0
POINT
  5
16B18
330
166DB
100
AcDbEntity
  8
DEFPOINTS
 62
     0
 48
50.0
100
AcDbPoint
 10
7739.720528655347
 20
5415.925555112488
 30
0.0
  0
POINT
  5
16B19
330
166DB
100
AcDbEntity
  8
DEFPOINTS
 62
     0
 48
50.0
100
AcDbPoint
 10
7689.720528655347
 20
5415.92555511249
 30
0.0
  0
POINT
  5
16B1A
330
166DB
100
AcDbEntity
  8
DEFPOINTS
 62
     0
 48
50.0
100
AcDbPoint
 10
7689.720528655347
 20
5628.467140370729
 30
0.0
  0
ENDBLK
  5
166E8
330
166DB
100
AcDbEntity
  8
0
 48
50.0
100
AcDbBlockEnd
  0
BLOCK
  5
16783
330
16779
100
AcDbEntity
  8
0
 48
50.0
100
AcDbBlockBegin
  2
*D22
 70
     1
 10
0.0
 20
0.0
 30
0.0
  3
*D22
  1

  0
LINE
  5
16AC2
330
16779
100
AcDbEntity
  8
寸法
 62
     0
 48
50.0
370
    -2
100
AcDbLine
 10
9605.517910462827
 20
5180.925555112486
 30
0.0
 11
8721.767781279568
 21
5180.925555112486
 31
0.0
  0
LINE
  5
16AC3
330
16779
100
AcDbEntity
  8
寸法
 62
     0
 48
50.0
370
    -2
100
AcDbLine
 10
9605.517910462827
 20
3390.925555112487
 30
0.0
 11
8721.767781279567
 21
3390.925555112487
 31
0.0
  0
LINE
  5
16AC4
330
16779
100
AcDbEntity
  8
寸法
 62
     0
 48
50.0
370
    -2
100
AcDbLine
 10
8781.767781279567
 20
5180.925555112486
 30
0.0
 11
8781.767781279567
 21
3390.925555112487
 31
0.0
  0
INSERT
  5
16AC5
330
16779
100
AcDbEntity
  8
寸法
 62
     0
 48
50.0
370
    -2
100
AcDbBlockReference
  2
_DOTSMALL
 10
8781.767781279567
 20
5180.925555112486
 30
0.0
 41
100.0
 42
100.0
 43
100.0
 50
90.0
  0
INSERT
  5
16AC6
330
16779
100
AcDbEntity
  8
寸法
 62
     0
 48
50.0
370
    -2
100
AcDbBlockReference
  2
_DOTSMALL
 10
8781.767781279567
 20
3390.925555112487
 30
0.0
 41
100.0
 42
100.0
 43
100.0
 50
270.0
  0
MTEXT
  5
16AC7
330
16779
100
AcDbEntity
  8
寸法
 62
     7
 48
50.0
100
AcDbMText
 10
8681.767781279566
 20
4285.925555112488
 30
0.0
 40
120.0
 41
0.0
 71
     5
 72
     1
  1
\A1;1790
  7
STYLE1
 11
0.0000000000000001
 21
1.0
 31
0.0
 73
     1
 44
1.0
1001
ACAD
1000
MTEXTBEGIN
1070
    73
1070
     1
1070
    44
1040
1.0
1070
    74
1070
     0
1000
MTEXTEND
  0
POINT
  5
16AC8
330
16779
100
AcDbEntity
  8
DEFPOINTS
 62
     0
 48
50.0
100
AcDbPoint
 10
9625.517910462827
 20
5180.925555112486
 30
0.0
  0
POINT
  5
16AC9
330
16779
100
AcDbEntity
  8
DEFPOINTS
 62
     0
 48
50.0
100
AcDbPoint
 10
9625.517910462827
 20
3390.925555112487
 30
0.0
  0
POINT
  5
16ACA
330
16779
100
AcDbEntity
  8
DEFPOINTS
 62
     0
 48
50.0
100
AcDbPoint
 10
8781.767781279567
 20
3390.925555112487
 30
0.0
  0
ENDBLK
  5
16784
330
16779
100
AcDbEntity
  8
0
 48
50.0
100
AcDbBlockEnd
  0
BLOCK
  5
1678F
330
16785
100
AcDbEntity
  8
0
 48
50.0
100
AcDbBlockBegin
  2
*D23
 70
     1
 10
0.0
 20
0.0
 30
0.0
  3
*D23
  1

  0
LINE
  5
16AB9
330
16785
100
AcDbEntity
  8
寸法
 62
     0
 48
50.0
370
    -2
100
AcDbLine
 10
9605.517910462827
 20
3340.925555112487
 30
0.0
 11
8421.767781279564
 21
3340.925555112487
 31
0.0
  0
LINE
  5
16ABA
330
16785
100
AcDbEntity
  8
寸法
 62
     0
 48
50.0
370
    -2
100
AcDbLine
 10
9545.517910462828
 20
5415.925555112491
 30
0.0
 11
8421.767781279568
 21
5415.925555112491
 31
0.0
  0
LINE
  5
16ABB
330
16785
100
AcDbEntity
  8
寸法
 62
     0
 48
50.0
370
    -2
100
AcDbLine
 10
8481.767781279565
 20
3340.925555112487
 30
0.0
 11
8481.767781279566
 21
5415.925555112491
 31
0.0
  0
INSERT
  5
16ABC
330
16785
100
AcDbEntity
  8
寸法
 62
     0
 48
50.0
370
    -2
100
AcDbBlockReference
  2
_DOTSMALL
 10
8481.767781279565
 20
3340.925555112487
 30
0.0
 41
100.0
 42
100.0
 43
100.0
 50
270.0
  0
INSERT
  5
16ABD
330
16785
100
AcDbEntity
  8
寸法
 62
     0
 48
50.0
370
    -2
100
AcDbBlockReference
  2
_DOTSMALL
 10
8481.767781279566
 20
5415.925555112491
 30
0.0
 41
100.0
 42
100.0
 43
100.0
 50
90.0
  0
MTEXT
  5
16ABE
330
16785
100
AcDbEntity
  8
寸法
 62
     7
 48
50.0
100
AcDbMText
 10
8381.755970255943
 20
4378.425555112491
 30
0.0
 40
120.0
 41
0.0
 71
     5
 72
     1
  1
\A1;2075
  7
STYLE1
 11
0.0000000000000001
 21
1.0
 31
0.0
 73
     1
 44
1.0
1001
ACAD
1000
MTEXTBEGIN
1070
    73
1070
     1
1070
    44
1040
1.0
1070
    74
1070
     0
1000
MTEXTEND
  0
POINT
  5
16ABF
330
16785
100
AcDbEntity
  8
DEFPOINTS
 62
     0
 48
50.0
100
AcDbPoint
 10
9625.517910462827
 20
3340.925555112487
 30
0.0
  0
POINT
  5
16AC0
330
16785
100
AcDbEntity
  8
DEFPOINTS
 62
     0
 48
50.0
100
AcDbPoint
 10
9565.517910462828
 20
5415.925555112491
 30
0.0
  0
POINT
  5
16AC1
330
16785
100
AcDbEntity
  8
DEFPOINTS
 62
     0
 48
50.0
100
AcDbPoint
 10
8481.767781279566
 20
5415.925555112491
 30
0.0
  0
ENDBLK
  5
16790
330
16785
100
AcDbEntity
  8
0
 48
50.0
100
AcDbBlockEnd
  0
BLOCK
  5
1679D
330
16791
100
AcDbEntity
  8
0
 48
50.0
100
AcDbBlockBegin
  2
*D24
 70
     1
 10
0.0
 20
0.0
 30
0.0
  3
*D24
  1

  0
LINE
  5
16ACB
330
16791
100
AcDbEntity
  8
寸法
 62
     0
 48
50.0
370
    -2
100
AcDbLine
 10
9605.517910462827
 20
3390.925555112487
 30
0.0
 11
8721.767781279567
 21
3390.925555112487
 31
0.0
  0
LINE
  5
16ACC
330
16791
100
AcDbEntity
  8
寸法
 62
     0
 48
50.0
370
    -2
100
AcDbLine
 10
9550.517910462826
 20
3340.925555112487
 30
0.0
 11
8721.767781279567
 21
3340.925555112487
 31
0.0
  0
LINE
  5
16ACD
330
16791
100
AcDbEntity
  8
寸法
 62
     0
 48
50.0
370
    -2
100
AcDbLine
 10
8781.767781279567
 20
3390.925555112487
 30
0.0
 11
8781.767781279567
 21
3490.925555112488
 31
0.0
  0
LINE
  5
16ACE
330
16791
100
AcDbEntity
  8
寸法
 62
     0
 48
50.0
370
    -2
100
AcDbLine
 10
8781.767781279567
 20
3340.925555112487
 30
0.0
 11
8781.767781279567
 21
2928.831066923508
 31
0.0
  0
LINE
  5
16ACF
330
16791
100
AcDbEntity
  8
寸法
 62
     0
 48
50.0
370
    -2
100
AcDbLine
 10
8781.767781279567
 20
3390.925555112487
 30
0.0
 11
8781.767781279567
 21
3340.925555112487
 31
0.0
  0
INSERT
  5
16AD0
330
16791
100
AcDbEntity
  8
寸法
 62
     0
 48
50.0
370
    -2
100
AcDbBlockReference
  2
_DOTSMALL
 10
8781.767781279567
 20
3390.925555112487
 30
0.0
 41
100.0
 42
100.0
 43
100.0
 50
270.0
  0
INSERT
  5
16AD1
330
16791
100
AcDbEntity
  8
寸法
 62
     0
 48
50.0
370
    -2
100
AcDbBlockReference
  2
_DOTSMALL
 10
8781.767781279567
 20
3340.925555112487
 30
0.0
 41
100.0
 42
100.0
 43
100.0
 50
90.0
  0
MTEXT
  5
16AD2
330
16791
100
AcDbEntity
  8
寸法
 62
     7
 48
50.0
100
AcDbMText
 10
8681.767781279566
 20
3034.878311017998
 30
0.0
 40
120.0
 41
0.0
 71
     5
 72
     1
  1
\A1;50
  7
STYLE1
 11
0.0000000000000001
 21
1.0
 31
0.0
 73
     1
 44
1.0
1001
ACAD
1000
MTEXTBEGIN
1070
    73
1070
     1
1070
    44
1040
1.0
1070
    74
1070
     0
1000
MTEXTEND
  0
POINT
  5
16AD3
330
16791
100
AcDbEntity
  8
DEFPOINTS
 62
     0
 48
50.0
100
AcDbPoint
 10
9625.517910462827
 20
3390.925555112487
 30
0.0
  0
POINT
  5
16AD4
330
16791
100
AcDbEntity
  8
DEFPOINTS
 62
     0
 48
50.0
100
AcDbPoint
 10
9570.517910462825
 20
3340.925555112487
 30
0.0
  0
POINT
  5
16AD5
330
16791
100
AcDbEntity
  8
DEFPOINTS
 62
     0
 48
50.0
100
AcDbPoint
 10
8781.767781279567
 20
3340.925555112487
 30
0.0
  0
ENDBLK
  5
1679E
330
16791
100
AcDbEntity
  8
0
 48
50.0
100
AcDbBlockEnd
  0
BLOCK
  5
167A9
330
1679F
100
AcDbEntity
  8
0
 48
50.0
100
AcDbBlockBegin
  2
*D25
 70
     1
 10
0.0
 20
0.0
 30
0.0
  3
*D25
  1

  0
LINE
  5
16AD6
330
1679F
100
AcDbEntity
  8
寸法
 62
     0
 48
50.0
370
    -2
100
AcDbLine
 10
11015.51791046283
 20
3340.925555112487
 30
0.0
 11
11760.44506843495
 21
3340.925555112487
 31
0.0
  0
LINE
  5
16AD7
330
1679F
100
AcDbEntity
  8
寸法
 62
     0
 48
50.0
370
    -2
100
AcDbLine
 10
11095.51791046283
 20
5360.925555112488
 30
0.0
 11
11760.44506843495
 21
5360.925555112488
 31
0.0
  0
LINE
  5
16AD8
330
1679F
100
AcDbEntity
  8
寸法
 62
     0
 48
50.0
370
    -2
100
AcDbLine
 10
11700.44506843495
 20
3340.925555112487
 30
0.0
 11
11700.44506843495
 21
5360.925555112488
 31
0.0
  0
INSERT
  5
16AD9
330
1679F
100
AcDbEntity
  8
寸法
 62
     0
 48
50.0
370
    -2
100
AcDbBlockReference
  2
_DOTSMALL
 10
11700.44506843495
 20
3340.925555112487
 30
0.0
 41
100.0
 42
100.0
 43
100.0
 50
270.0
  0
INSERT
  5
16ADA
330
1679F
100
AcDbEntity
  8
寸法
 62
     0
 48
50.0
370
    -2
100
AcDbBlockReference
  2
_DOTSMALL
 10
11700.44506843495
 20
5360.925555112488
 30
0.0
 41
100.0
 42
100.0
 43
100.0
 50
90.0
  0
MTEXT
  5
16ADB
330
1679F
100
AcDbEntity
  8
寸法
 62
     7
 48
50.0
100
AcDbMText
 10
11600.43325741133
 20
4350.925555112488
 30
0.0
 40
120.0
 41
0.0
 71
     5
 72
     1
  1
\A1;2020
  7
STYLE1
 11
0.0000000000000001
 21
1.0
 31
0.0
 73
     1
 44
1.0
1001
ACAD
1000
MTEXTBEGIN
1070
    73
1070
     1
1070
    44
1040
1.0
1070
    74
1070
     0
1000
MTEXTEND
  0
POINT
  5
16ADC
330
1679F
100
AcDbEntity
  8
DEFPOINTS
 62
     0
 48
50.0
100
AcDbPoint
 10
10995.51791046283
 20
3340.925555112487
 30
0.0
  0
POINT
  5
16ADD
330
1679F
100
AcDbEntity
  8
DEFPOINTS
 62
     0
 48
50.0
100
AcDbPoint
 10
11075.51791046283
 20
5360.925555112488
 30
0.0
  0
POINT
  5
16ADE
330
1679F
100
AcDbEntity
  8
DEFPOINTS
 62
     0
 48
50.0
100
AcDbPoint
 10
11700.44506843495
 20
5360.925555112488
 30
0.0
  0
ENDBLK
  5
167AA
330
1679F
100
AcDbEntity
  8
0
 48
50.0
100
AcDbBlockEnd
  0
BLOCK
  5
167B5
330
167AB
100
AcDbEntity
  8
0
 48
50.0
100
AcDbBlockBegin
  2
*D26
 70
     1
 10
0.0
 20
0.0
 30
0.0
  3
*D26
  1

  0
LINE
  5
16ADF
330
167AB
100
AcDbEntity
  8
寸法
 62
     0
 48
50.0
370
    -2
100
AcDbLine
 10
10995.51791046283
 20
5382.73623472414
 30
0.0
 11
10995.51791046283
 21
5874.58300869179
 31
0.0
  0
LINE
  5
16AE0
330
167AB
100
AcDbEntity
  8
寸法
 62
     0
 48
50.0
370
    -2
100
AcDbLine
 10
9625.517910462829
 20
5431.927173235463
 30
0.0
 11
9625.517910462829
 21
5874.58300869179
 31
0.0
  0
LINE
  5
16AE1
330
167AB
100
AcDbEntity
  8
寸法
 62
     0
 48
50.0
370
    -2
100
AcDbLine
 10
10995.51791046283
 20
5814.583008691791
 30
0.0
 11
9625.517910462829
 21
5814.583008691791
 31
0.0
  0
INSERT
  5
16AE2
330
167AB
100
AcDbEntity
  8
寸法
 62
     0
 48
50.0
370
    -2
100
AcDbBlockReference
  2
_DOTSMALL
 10
10995.51791046283
 20
5814.583008691791
 30
0.0
 41
100.0
 42
100.0
 43
100.0
  0
INSERT
  5
16AE3
330
167AB
100
AcDbEntity
  8
寸法
 62
     0
 48
50.0
370
    -2
100
AcDbBlockReference
  2
_DOTSMALL
 10
9625.517910462829
 20
5814.583008691791
 30
0.0
 41
100.0
 42
100.0
 43
100.0
 50
180.0
  0
MTEXT
  5
16AE4
330
167AB
100
AcDbEntity
  8
寸法
 62
     7
 48
50.0
100
AcDbMText
 10
10275.33694335337
 20
5914.58300869179
 30
0.0
 40
120.0
 41
0.0
 71
     5
 72
     1
  1
\A1;柱外寸法1370
  7
STYLE1
 73
     1
 44
1.0
1001
ACAD
1000
MTEXTBEGIN
1070
    73
1070
     1
1070
    44
1040
1.0
1070
    74
1070
     0
1000
MTEXTEND
  0
POINT
  5
16AE5
330
167AB
100
AcDbEntity
  8
DEFPOINTS
 62
     0
 48
50.0
100
AcDbPoint
 10
10995.51791046283
 20
5362.736234724139
 30
0.0
  0
POINT
  5
16AE6
330
167AB
100
AcDbEntity
  8
DEFPOINTS
 62
     0
 48
50.0
100
AcDbPoint
 10
9625.517910462829
 20
5411.927173235462
 30
0.0
  0
POINT
  5
16AE7
330
167AB
100
AcDbEntity
  8
DEFPOINTS
 62
     0
 48
50.0
100
AcDbPoint
 10
9625.517910462829
 20
5814.583008691791
 30
0.0
  0
ENDBLK
  5
167B6
330
167AB
100
AcDbEntity
  8
0
 48
50.0
100
AcDbBlockEnd
  0
BLOCK
  5
167C3
330
167B7
100
AcDbEntity
  8
0
 48
50.0
100
AcDbBlockBegin
  2
*D27
 70
     1
 10
0.0
 20
0.0
 30
0.0
  3
*D27
  1

  0
LINE
  5
16AE8
330
167B7
100
AcDbEntity
  8
寸法
 62
     0
 48
50.0
370
    -2
100
AcDbLine
 10
9625.517910462829
 20
5431.927173235463
 30
0.0
 11
9625.517910462829
 21
5874.58300869179
 31
0.0
  0
LINE
  5
16AE9
330
167B7
100
AcDbEntity
  8
寸法
 62
     0
 48
50.0
370
    -2
100
AcDbLine
 10
9565.517910462828
 20
5435.925555112492
 30
0.0
 11
9565.517910462828
 21
5874.58300869179
 31
0.0
  0
LINE
  5
16AEA
330
167B7
100
AcDbEntity
  8
寸法
 62
     0
 48
50.0
370
    -2
100
AcDbLine
 10
9625.517910462829
 20
5814.583008691791
 30
0.0
 11
9725.517910462828
 21
5814.583008691791
 31
0.0
  0
LINE
  5
16AEB
330
167B7
100
AcDbEntity
  8
寸法
 62
     0
 48
50.0
370
    -2
100
AcDbLine
 10
9565.517910462828
 20
5814.583008691791
 30
0.0
 11
9146.242319911648
 21
5814.583008691791
 31
0.0
  0
LINE
  5
16AEC
330
167B7
100
AcDbEntity
  8
寸法
 62
     0
 48
50.0
370
    -2
100
AcDbLine
 10
9625.517910462829
 20
5814.583008691791
 30
0.0
 11
9565.517910462828
 21
5814.583008691791
 31
0.0
  0
INSERT
  5
16AED
330
167B7
100
AcDbEntity
  8
寸法
 62
     0
 48
50.0
370
    -2
100
AcDbBlockReference
  2
_DOTSMALL
 10
9625.517910462829
 20
5814.583008691791
 30
0.0
 41
100.0
 42
100.0
 43
100.0
 50
180.0
  0
INSERT
  5
16AEE
330
167B7
100
AcDbEntity
  8
寸法
 62
     0
 48
50.0
370
    -2
100
AcDbBlockReference
  2
_DOTSMALL
 10
9565.517910462828
 20
5814.583008691791
 30
0.0
 41
100.0
 42
100.0
 43
100.0
  0
MTEXT
  5
16AEF
330
167B7
100
AcDbEntity
  8
寸法
 62
     7
 48
50.0
100
AcDbMText
 10
9255.880115187236
 20
5914.58300869179
 30
0.0
 40
120.0
 41
0.0
 71
     5
 72
     1
  1
\A1;60
  7
STYLE1
 73
     1
 44
1.0
1001
ACAD
1000
MTEXTBEGIN
1070
    73
1070
     1
1070
    44
1040
1.0
1070
    74
1070
     0
1000
MTEXTEND
  0
POINT
  5
16AF0
330
167B7
100
AcDbEntity
  8
DEFPOINTS
 62
     0
 48
50.0
100
AcDbPoint
 10
9625.517910462829
 20
5411.927173235462
 30
0.0
  0
POINT
  5
16AF1
330
167B7
100
AcDbEntity
  8
DEFPOINTS
 62
     0
 48
50.0
100
AcDbPoint
 10
9565.517910462828
 20
5415.925555112491
 30
0.0
  0
POINT
  5
16AF2
330
167B7
100
AcDbEntity
  8
DEFPOINTS
 62
     0
 48
50.0
100
AcDbPoint
 10
9565.517910462828
 20
5814.583008691791
 30
0.0
  0
ENDBLK
  5
167C4
330
167B7
100
AcDbEntity
  8
0
 48
50.0
100
AcDbBlockEnd
  0
BLOCK
  5
167CF
330
167C5
100
AcDbEntity
  8
0
 48
50.0
100
AcDbBlockBegin
  2
*D28
 70
     1
 10
0.0
 20
0.0
 30
0.0
  3
*D28
  1

  0
LINE
  5
16AF3
330
167C5
100
AcDbEntity
  8
寸法
 62
     0
 48
50.0
370
    -2
100
AcDbLine
 10
11075.51791046283
 20
5380.925555112487
 30
0.0
 11
11075.51791046283
 21
6082.757329883754
 31
0.0
  0
LINE
  5
16AF4
330
167C5
100
AcDbEntity
  8
寸法
 62
     0
 48
50.0
370
    -2
100
AcDbLine
 10
9565.517910462828
 20
5435.925555112492
 30
0.0
 11
9565.517910462828
 21
6082.757329883754
 31
0.0
  0
LINE
  5
16AF5
330
167C5
100
AcDbEntity
  8
寸法
 62
     0
 48
50.0
370
    -2
100
AcDbLine
 10
11075.51791046283
 20
6022.757329883754
 30
0.0
 11
9565.517910462828
 21
6022.757329883754
 31
0.0
  0
INSERT
  5
16AF6
330
167C5
100
AcDbEntity
  8
寸法
 62
     0
 48
50.0
370
    -2
100
AcDbBlockReference
  2
_DOTSMALL
 10
11075.51791046283
 20
6022.757329883754
 30
0.0
 41
100.0
 42
100.0
 43
100.0
  0
INSERT
  5
16AF7
330
167C5
100
AcDbEntity
  8
寸法
 62
     0
 48
50.0
370
    -2
100
AcDbBlockReference
  2
_DOTSMALL
 10
9565.517910462828
 20
6022.757329883754
 30
0.0
 41
100.0
 42
100.0
 43
100.0
 50
180.0
  0
MTEXT
  5
16AF8
330
167C5
100
AcDbEntity
  8
寸法
 62
     7
 48
50.0
100
AcDbMText
 10
10292.64274016465
 20
6122.757329883754
 30
0.0
 40
120.0
 41
0.0
 71
     5
 72
     1
  1
\A1;1510
  7
STYLE1
 73
     1
 44
1.0
1001
ACAD
1000
MTEXTBEGIN
1070
    73
1070
     1
1070
    44
1040
1.0
1070
    74
1070
     0
1000
MTEXTEND
  0
POINT
  5
16AF9
330
167C5
100
AcDbEntity
  8
DEFPOINTS
 62
     0
 48
50.0
100
AcDbPoint
 10
11075.51791046283
 20
5360.925555112488
 30
0.0
  0
POINT
  5
16AFA
330
167C5
100
AcDbEntity
  8
DEFPOINTS
 62
     0
 48
50.0
100
AcDbPoint
 10
9565.517910462828
 20
5415.925555112491
 30
0.0
  0
POINT
  5
16AFB
330
167C5
100
AcDbEntity
  8
DEFPOINTS
 62
     0
 48
50.0
100
AcDbPoint
 10
9565.517910462828
 20
6022.757329883754
 30
0.0
  0
ENDBLK
  5
167D0
330
167C5
100
AcDbEntity
  8
0
 48
50.0
100
AcDbBlockEnd
  0
BLOCK
  5
167DC
330
167D1
100
AcDbEntity
  8
0
 48
50.0
100
AcDbBlockBegin
  2
*D29
 70
     1
 10
0.0
 20
0.0
 30
0.0
  3
*D29
  1

  0
LINE
  5
16AFC
330
167D1
100
AcDbEntity
  8
寸法
 62
     0
 48
50.0
370
    -2
100
AcDbLine
 10
10995.51791046283
 20
5382.73623472414
 30
0.0
 11
10995.51791046283
 21
5874.58300869179
 31
0.0
  0
LINE
  5
16AFD
330
167D1
100
AcDbEntity
  8
寸法
 62
     0
 48
50.0
370
    -2
100
AcDbLine
 10
11075.51791046283
 20
5380.925555112487
 30
0.0
 11
11075.51791046283
 21
5874.58300869179
 31
0.0
  0
LINE
  5
16AFE
330
167D1
100
AcDbEntity
  8
寸法
 62
     0
 48
50.0
370
    -2
100
AcDbLine
 10
10995.51791046283
 20
5814.583008691791
 30
0.0
 11
11075.51791046283
 21
5814.583008691791
 31
0.0
  0
LINE
  5
16AFF
330
167D1
100
AcDbEntity
  8
寸法
 62
     0
 48
50.0
370
    -2
100
AcDbLine
 10
11075.51791046283
 20
5814.583008691791
 30
0.0
 11
11387.6123986518
 21
5814.583008691791
 31
0.0
  0
INSERT
  5
16B00
330
167D1
100
AcDbEntity
  8
寸法
 62
     0
 48
50.0
370
    -2
100
AcDbBlockReference
  2
_DOTSMALL
 10
10995.51791046283
 20
5814.583008691791
 30
0.0
 41
100.0
 42
100.0
 43
100.0
 50
180.0
  0
INSERT
  5
16B01
330
167D1
100
AcDbEntity
  8
寸法
 62
     0
 48
50.0
370
    -2
100
AcDbBlockReference
  2
_DOTSMALL
 10
11075.51791046283
 20
5814.583008691791
 30
0.0
 41
100.0
 42
100.0
 43
100.0
  0
MTEXT
  5
16B02
330
167D1
100
AcDbEntity
  8
寸法
 62
     7
 48
50.0
100
AcDbMText
 10
11281.56515455731
 20
5914.58300869179
 30
0.0
 40
120.0
 41
0.0
 71
     5
 72
     1
  1
\A1;80
  7
STYLE1
 73
     1
 44
1.0
1001
ACAD
1000
MTEXTBEGIN
1070
    73
1070
     1
1070
    44
1040
1.0
1070
    74
1070
     0
1000
MTEXTEND
  0
POINT
  5
16B03
330
167D1
100
AcDbEntity
  8
DEFPOINTS
 62
     0
 48
50.0
100
AcDbPoint
 10
10995.51791046283
 20
5362.736234724139
 30
0.0
  0
POINT
  5
16B04
330
167D1
100
AcDbEntity
  8
DEFPOINTS
 62
     0
 48
50.0
100
AcDbPoint
 10
11075.51791046283
 20
5360.925555112488
 30
0.0
  0
POINT
  5
16B05
330
167D1
100
AcDbEntity
  8
DEFPOINTS
 62
     0
 48
50.0
100
AcDbPoint
 10
11075.51791046283
 20
5814.583008691791
 30
0.0
  0
ENDBLK
  5
167DD
330
167D1
100
AcDbEntity
  8
0
 48
50.0
100
AcDbBlockEnd
  0
BLOCK
  5
167E9
330
167DE
100
AcDbEntity
  8
0
 48
50.0
100
AcDbBlockBegin
  2
*D30
 70
     1
 10
0.0
 20
0.0
 30
0.0
  3
*D30
  1

  0
LINE
  5
16B06
330
167DE
100
AcDbEntity
  8
寸法
 62
     0
 48
50.0
370
    -2
100
AcDbLine
 10
9560.874715150328
 20
5274.461166585963
 30
0.0
 11
8907.974544856307
 21
5299.112197825941
 31
0.0
  0
LINE
  5
16B07
330
167DE
100
AcDbEntity
  8
寸法
 62
     0
 48
50.0
370
    -2
100
AcDbLine
 10
9566.194549302283
 20
5415.360773982845
 30
0.0
 11
8913.294379008098
 21
5440.01180522283
 31
0.0
  0
LINE
  5
16B08
330
167DE
100
AcDbEntity
  8
寸法
 62
     0
 48
50.0
370
    -2
100
AcDbLine
 10
8967.931824599665
 20
5296.848438612413
 30
0.0
 11
8973.251658751456
 21
5437.748046009301
 31
0.0
  0
LINE
  5
16B09
330
167DE
100
AcDbEntity
  8
寸法
 62
     0
 48
50.0
370
    -2
100
AcDbLine
 10
8973.251658751456
 20
5437.748046009301
 30
0.0
 11
8986.834214032654
 21
5797.491724470138
 31
0.0
  0
INSERT
  5
16B0A
330
167DE
100
AcDbEntity
  8
寸法
 62
     0
 48
50.0
370
    -2
100
AcDbBlockReference
  2
_DOTSMALL
 10
8967.931824599665
 20
5296.848438612413
 30
0.0
 41
100.0
 42
100.0
 43
100.0
 50
267.8377559871574
  0
INSERT
  5
16B0B
330
167DE
100
AcDbEntity
  8
寸法
 62
     0
 48
50.0
370
    -2
100
AcDbBlockReference
  2
_DOTSMALL
 10
8973.251658751456
 20
5437.748046009301
 30
0.0
 41
100.0
 42
100.0
 43
100.0
 50
87.83775598715743
  0
MTEXT
  5
16B0C
330
167DE
100
AcDbEntity
  8
寸法
 62
     7
 48
50.0
100
AcDbMText
 10
8882.00060283108
 20
5671.357217048744
 30
0.0
 40
120.0
 41
0.0
 71
     5
 72
     1
  1
\A1;141
  7
STYLE1
 11
0.03772932022548
 21
0.9992879957226159
 31
0.0
 73
     1
 44
1.0
1001
ACAD
1000
MTEXTBEGIN
1070
    73
1070
     1
1070
    44
1040
1.0
1070
    74
1070
     0
1000
MTEXTEND
  0
POINT
  5
16B0D
330
167DE
100
AcDbEntity
  8
DEFPOINTS
 62
     0
 48
50.0
100
AcDbPoint
 10
9580.860475064781
 20
5273.706580181453
 30
0.0
  0
POINT
  5
16B0E
330
167DE
100
AcDbEntity
  8
DEFPOINTS
 62
     0
 48
50.0
100
AcDbPoint
 10
9586.180309216736
 20
5414.606187578336
 30
0.0
  0
POINT
  5
16B0F
330
167DE
100
AcDbEntity
  8
DEFPOINTS
 62
     0
 48
50.0
100
AcDbPoint
 10
8973.251658751456
 20
5437.748046009301
 30
0.0
  0
ENDBLK
  5
167EA
330
167DE
100
AcDbEntity
  8
0
 48
50.0
100
AcDbBlockEnd
  0
BLOCK
  5
16C68
330
16C5E
100
AcDbEntity
  8
0
 48
50.0
100
AcDbBlockBegin
  2
*D31
 70
     1
 10
0.0
 20
0.0
 30
0.0
  3
*D31
  1

  0
LINE
  5
16C76
330
16C5E
100
AcDbEntity
  8
寸法
 62
     0
 48
50.0
370
    -2
100
AcDbLine
 10
4863.361551484324
 20
8998.214193327035
 30
0.0
 11
4754.708153953502
 21
8592.714193327031
 31
0.0
  0
LINE
  5
16C77
330
16C5E
100
AcDbEntity
  8
寸法
 62
     0
 48
50.0
370
    -2
100
AcDbLine
 10
5755.361551484324
 20
8998.214193327061
 30
0.0
 11
5646.708153953494
 21
8592.714193327031
 31
0.0
  0
LINE
  5
16C78
330
16C5E
100
AcDbEntity
  8
寸法
 62
     0
 48
50.0
370
    -2
100
AcDbLine
 10
4770.78510549937
 20
8652.714193327033
 30
0.0
 11
5662.785105499363
 21
8652.714193327033
 31
0.0
  0
INSERT
  5
16C79
330
16C5E
100
AcDbEntity
  8
寸法
 62
     0
 48
50.0
370
    -2
100
AcDbBlockReference
  2
_DOTSMALL
 10
4770.78510549937
 20
8652.714193327033
 30
0.0
 41
100.0
 42
100.0
 43
100.0
 50
180.0
  0
INSERT
  5
16C7A
330
16C5E
100
AcDbEntity
  8
寸法
 62
     0
 48
50.0
370
    -2
100
AcDbBlockReference
  2
_DOTSMALL
 10
5662.785105499363
 20
8652.714193327033
 30
0.0
 41
100.0
 42
100.0
 43
100.0
  0
MTEXT
  5
16C7B
330
16C5E
100
AcDbEntity
  8
寸法
 62
     7
 48
50.0
100
AcDbMText
 10
5216.785105499366
 20
8752.755005891835
 30
0.0
 40
120.0
 41
0.0
 71
     5
 72
     1
  1
\A1;892
  7
STYLE1
 73
     1
 44
1.0
1001
ACAD
1000
MTEXTBEGIN
1070
    73
1070
     1
1070
    44
1040
1.0
1070
    74
1070
     0
1000
MTEXTEND
  0
POINT
  5
16C7C
330
16C5E
100
AcDbEntity
  8
DEFPOINTS
 62
     0
 48
50.0
100
AcDbPoint
 10
4868.720535332947
 20
9018.214193327036
 30
0.0
  0
POINT
  5
16C7D
330
16C5E
100
AcDbEntity
  8
DEFPOINTS
 62
     0
 48
50.0
100
AcDbPoint
 10
5760.720535332946
 20
9018.214193327061
 30
0.0
  0
POINT
  5
16C7E
330
16C5E
100
AcDbEntity
  8
DEFPOINTS
 62
     0
 48
50.0
100
AcDbPoint
 10
5662.785105499363
 20
8652.714193327033
 30
0.0
  0
ENDBLK
  5
16C69
330
16C5E
100
AcDbEntity
  8
0
 48
50.0
100
AcDbBlockEnd
  0
BLOCK
  5
16C74
330
16C6A
100
AcDbEntity
  8
0
 48
50.0
100
AcDbBlockBegin
  2
*D32
 70
     1
 10
0.0
 20
0.0
 30
0.0
  3
*D32
  1

  0
LINE
  5
16C7F
330
16C6A
100
AcDbEntity
  8
寸法
 62
     0
 48
50.0
370
    -2
100
AcDbLine
 10
5813.361551484324
 20
8998.214193327035
 30
0.0
 11
5704.708153953502
 21
8592.714193327031
 31
0.0
  0
LINE
  5
16C80
330
16C6A
100
AcDbEntity
  8
寸法
 62
     0
 48
50.0
370
    -2
100
AcDbLine
 10
6705.36155148432
 20
8998.214193327141
 30
0.0
 11
6596.70815395347
 21
8592.714193327031
 31
0.0
  0
LINE
  5
16C81
330
16C6A
100
AcDbEntity
  8
寸法
 62
     0
 48
50.0
370
    -2
100
AcDbLine
 10
5720.78510549937
 20
8652.714193327033
 30
0.0
 11
6612.785105499338
 21
8652.714193327033
 31
0.0
  0
INSERT
  5
16C82
330
16C6A
100
AcDbEntity
  8
寸法
 62
     0
 48
50.0
370
    -2
100
AcDbBlockReference
  2
_DOTSMALL
 10
5720.78510549937
 20
8652.714193327033
 30
0.0
 41
100.0
 42
100.0
 43
100.0
 50
180.0
  0
INSERT
  5
16C83
330
16C6A
100
AcDbEntity
  8
寸法
 62
     0
 48
50.0
370
    -2
100
AcDbBlockReference
  2
_DOTSMALL
 10
6612.785105499338
 20
8652.714193327033
 30
0.0
 41
100.0
 42
100.0
 43
100.0
  0
MTEXT
  5
16C84
330
16C6A
100
AcDbEntity
  8
寸法
 62
     7
 48
50.0
100
AcDbMText
 10
6166.785105499354
 20
8752.755005891835
 30
0.0
 40
120.0
 41
0.0
 71
     5
 72
     1
  1
\A1;892
  7
STYLE1
 73
     1
 44
1.0
1001
ACAD
1000
MTEXTBEGIN
1070
    73
1070
     1
1070
    44
1040
1.0
1070
    74
1070
     0
1000
MTEXTEND
  0
POINT
  5
16C85
330
16C6A
100
AcDbEntity
  8
DEFPOINTS
 62
     0
 48
50.0
100
AcDbPoint
 10
5818.720535332946
 20
9018.214193327036
 30
0.0
  0
POINT
  5
16C86
330
16C6A
100
AcDbEntity
  8
DEFPOINTS
 62
     0
 48
50.0
100
AcDbPoint
 10
6710.720535332943
 20
9018.214193327141
 30
0.0
  0
POINT
  5
16C87
330
16C6A
100
AcDbEntity
  8
DEFPOINTS
 62
     0
 48
50.0
100
AcDbPoint
 10
6612.785105499338
 20
8652.714193327033
 30
0.0
  0
ENDBLK
  5
16C75
330
16C6A
100
AcDbEntity
  8
0
 48
50.0
100
AcDbBlockEnd
  0
BLOCK
  5
16C95
330
16C8B
100
AcDbEntity
  8
0
 48
50.0
100
AcDbBlockBegin
  2
*D33
 70
     1
 10
0.0
 20
0.0
 30
0.0
  3
*D33
  1

  0
LINE
  5
16C97
330
16C8B
100
AcDbEntity
  8
寸法
 62
     0
 48
50.0
370
    -2
100
AcDbLine
 10
6763.361551484324
 20
8998.214209383538
 30
0.0
 11
6654.708153953501
 21
8592.714209383535
 31
0.0
  0
LINE
  5
16C98
330
16C8B
100
AcDbEntity
  8
寸法
 62
     0
 48
50.0
370
    -2
100
AcDbLine
 10
7655.36155148432
 20
8998.214209383643
 30
0.0
 11
7546.708153953471
 21
8592.714209383535
 31
0.0
  0
LINE
  5
16C99
330
16C8B
100
AcDbEntity
  8
寸法
 62
     0
 48
50.0
370
    -2
100
AcDbLine
 10
6670.785105499369
 20
8652.714209383534
 30
0.0
 11
7562.785105499338
 21
8652.714209383534
 31
0.0
  0
INSERT
  5
16C9A
330
16C8B
100
AcDbEntity
  8
寸法
 62
     0
 48
50.0
370
    -2
100
AcDbBlockReference
  2
_DOTSMALL
 10
6670.785105499369
 20
8652.714209383534
 30
0.0
 41
100.0
 42
100.0
 43
100.0
 50
180.0
  0
INSERT
  5
16C9B
330
16C8B
100
AcDbEntity
  8
寸法
 62
     0
 48
50.0
370
    -2
100
AcDbBlockReference
  2
_DOTSMALL
 10
7562.785105499338
 20
8652.714209383534
 30
0.0
 41
100.0
 42
100.0
 43
100.0
  0
MTEXT
  5
16C9C
330
16C8B
100
AcDbEntity
  8
寸法
 62
     7
 48
50.0
100
AcDbMText
 10
7116.785105499353
 20
8752.755021948336
 30
0.0
 40
120.0
 41
0.0
 71
     5
 72
     1
  1
\A1;892
  7
STYLE1
 73
     1
 44
1.0
1001
ACAD
1000
MTEXTBEGIN
1070
    73
1070
     1
1070
    44
1040
1.0
1070
    74
1070
     0
1000
MTEXTEND
  0
POINT
  5
16C9D
330
16C8B
100
AcDbEntity
  8
DEFPOINTS
 62
     0
 48
50.0
100
AcDbPoint
 10
6768.720535332946
 20
9018.214209383538
 30
0.0
  0
POINT
  5
16C9E
330
16C8B
100
AcDbEntity
  8
DEFPOINTS
 62
     0
 48
50.0
100
AcDbPoint
 10
7660.720535332943
 20
9018.214209383643
 30
0.0
  0
POINT
  5
16C9F
330
16C8B
100
AcDbEntity
  8
DEFPOINTS
 62
     0
 48
50.0
100
AcDbPoint
 10
7562.785105499338
 20
8652.714209383534
 30
0.0
  0
ENDBLK
  5
16C96
330
16C8B
100
AcDbEntity
  8
0
 48
50.0
100
AcDbBlockEnd
  0
ENDSEC
  0
SECTION
  2
ENTITIES
  0
LINE
  5
10B56
330
747D
100
AcDbEntity
  8
補助
  6
PHANTOM
 62
   230
 48
50.0
100
AcDbLine
 10
140.0
 20
0.0
 30
0.0
 11
139.9999999999995
 21
11409.6
 31
0.0
  0
LINE
  5
10B57
330
747D
100
AcDbEntity
  8
補助
  6
PHANTOM
 62
   230
 48
50.0
100
AcDbLine
 10
139.9999999999995
 20
11409.6
 30
0.0
 11
16307.2
 21
11409.6
 31
0.0
  0
LINE
  5
10B59
330
747D
100
AcDbEntity
  8
仕様書枠
  6
Continuous
 48
50.0
100
AcDbLine
 10
13107.2
 20
1200.0
 30
0.0
 11
13107.2
 21
-0.0000000000000729
 31
0.0
  0
LINE
  5
10B5C
330
747D
100
AcDbEntity
  8
仕様書枠
 48
50.0
100
AcDbLine
 10
16307.2
 20
1200.0
 30
0.0
 11
16307.2
 21
-0.0000000000000909
 31
0.0
  0
LINE
  5
10B5D
330
747D
100
AcDbEntity
  8
仕様書枠
 48
50.0
100
AcDbLine
 10
140.0
 20
0.0
 30
0.0
 11
16307.2
 21
-0.0000000000000909
 31
0.0
  0
LINE
  5
10B5E
330
747D
100
AcDbEntity
  8
補助
  6
PHANTOM
 62
   230
 48
50.0
100
AcDbLine
 10
16307.2
 20
11409.6
 30
0.0
 11
16307.2
 21
1200.0
 31
0.0
  0
LINE
  5
10B6C
330
747D
100
AcDbEntity
  8
仕様書枠
 48
50.0
100
AcDbLine
 10
13107.2
 20
1200.0
 30
0.0
 11
16307.2
 21
1200.0
 31
0.0
  0
LINE
  5
10B6D
330
747D
100
AcDbEntity
  8
補助
  6
PHANTOM
 62
   230
 48
50.0
100
AcDbLine
 10
13107.2
 20
11409.6
 30
0.0
 11
13107.2
 21
4800.0
 31
0.0
  0
LINE
  5
10B6F
330
747D
100
AcDbEntity
  8
補助
  6
PHANTOM
 62
   230
 48
50.0
100
AcDbLine
 10
13107.2
 20
4800.0
 30
0.0
 11
16307.2
 21
4800.0
 31
0.0
  0
LINE
  5
10B72
330
747D
100
AcDbEntity
  8
文字
 62
     7
 48
50.0
100
AcDbLine
 10
13187.2
 20
400.0
 30
0.0
 11
16227.2
 21
400.0
 31
0.0
  0
TEXT
  5
10B73
330
747D
100
AcDbEntity
  8
文字
 62
     7
 48
50.0
100
AcDbText
 10
13162.9790565769
 20
895.0906074299405
 30
0.0
 40
200.0
  1
外 形 図
  7
STYLE2
100
AcDbText
  0
TEXT
  5
10B74
330
747D
100
AcDbEntity
  8
文字
 62
     7
 48
50.0
100
AcDbText
 10
13201.43669998441
 20
477.2740661031255
 30
0.0
 40
160.0
  1
機種名
  7
STYLE2
100
AcDbText
  0
TEXT
  5
10B75
330
747D
100
AcDbEntity
  8
文字
 62
     7
 48
50.0
100
AcDbText
 10
13209.4053442172
 20
228.5435242569016
 30
0.0
 40
100.0
  1
○有効開口寸法 ： 685×1760(mm)
  7
STYLE2
100
AcDbText
  0
TEXT
  5
10B76
330
747D
100
AcDbEntity
  8
文字
 62
     7
 48
50.0
100
AcDbText
 10
13209.4053442172
 20
76.09434707649343
 30
0.0
 40
100.0
  1
○床面積 ： 3.90㎡(1.18坪) 　
  7
STYLE2
100
AcDbText
  0
TEXT
  5
10B79
330
747D
100
AcDbEntity
  8
文字
 62
     7
 48
50.0
100
AcDbText
 10
14524.131837222
 20
1031.557706291228
 30
0.0
 40
100.0
  1
NO.02     <縮尺> S=1/40
  7
STYLE2
100
AcDbText
  0
LINE
  5
10B7B
330
747D
100
AcDbEntity
  8
仕様書枠
 48
50.0
100
AcDbLine
 10
13107.2
 20
800.0
 30
0.0
 11
14251.2
 21
800.0
 31
0.0
  0
LINE
  5
10B88
330
747D
100
AcDbEntity
  8
仕様書枠
  6
Continuous
 48
50.0
100
AcDbLine
 10
14251.2
 20
1200.0
 30
0.0
 11
14251.2
 21
800.0
 31
0.0
  0
LINE
  5
13A41
330
747D
100
AcDbEntity
  8
Ｇ．Ｌ
100
AcDbLine
 10
3870.38713448913
 20
3240.925555112486
 30
0.0
 11
11932.33306295403
 21
3240.925555112486
 31
0.0
  0
TEXT
  5
13A63
330
747D
100
AcDbEntity
  8
部品1
100
AcDbText
 10
3854.933151763857
 20
3277.032458718388
 30
0.0
 40
125.0
  1
▽G.L
  7
STYLE2
100
AcDbText
  0
TEXT
  5
13B2F
330
747D
100
AcDbEntity
  8
部品1
100
AcDbText
 10
5907.904805370151
 20
6597.241975308749
 30
0.0
 40
135.0
  1
平面図
  7
STYLE2
100
AcDbText
  0
LWPOLYLINE
  5
13B30
330
747D
100
AcDbEntity
  8
部品1
100
AcDbPolyline
 90
        4
 70
     1
 43
0.0
 10
5817.985195541113
 20
6790.135504527272
 10
5817.985195541113
 20
6550.24318298174
 10
6581.455861769552
 20
6550.24318298174
 10
6581.455861769552
 20
6790.135504527272
  0
DIMENSION
  5
156F4
330
747D
100
AcDbEntity
  8
寸法
100
AcDbDimension
  2
*D1
 10
8337.146874389762
 20
9442.71419332716
 30
0.0
 11
8337.146874389761
 21
9806.199474701401
 31
0.0
 70
   160
 71
     5
 42
55.0
  3
INABA_S40G
100
AcDbAlignedDimension
 13
7689.720528655351
 23
9497.71419332716
 33
0.0
 14
7689.720528655351
 24
9442.71419332716
 34
0.0
 50
90.0
100
AcDbRotatedDimension
1001
ACAD
1000
DSTYLE
1002
{
1002
}
  0
DIMENSION
  5
156F5
330
747D
100
AcDbEntity
  8
寸法
100
AcDbDimension
  2
*D2
 10
7689.720528655351
 20
9713.522412952142
 30
0.0
 11
7998.205810029588
 21
9713.522412952142
 31
0.0
 70
   160
 71
     5
 42
55.0
  3
INABA_S40G
100
AcDbAlignedDimension
 13
7634.72052865535
 23
9497.71419332716
 33
0.0
 14
7689.720528655351
 24
9497.71419332716
 34
0.0
100
AcDbRotatedDimension
1001
ACAD
1000
DSTYLE
1002
{
1002
}
  0
DIMENSION
  5
156F6
330
747D
100
AcDbEntity
  8
寸法
 48
50.0
100
AcDbDimension
  2
*D3
 10
6794.720528655351
 20
9713.522412952164
 30
0.0
 11
6739.720528655351
 21
9971.735911421617
 31
0.0
 70
   160
 71
     5
 42
110.0000000000036
  3
INABA_S40G
100
AcDbAlignedDimension
 13
6684.720528655347
 23
9497.714193327182
 33
0.0
 14
6794.720528655351
 24
9497.71419332716
 34
0.0
100
AcDbRotatedDimension
1001
ACAD
1000
DSTYLE
1002
{
1070
   279
1070
     2
1002
}
  0
DIMENSION
  5
156F7
330
747D
100
AcDbEntity
  8
寸法
 48
50.0
100
AcDbDimension
  2
*D4
 10
5844.720528655351
 20
9713.522412952164
 30
0.0
 11
5789.720528655349
 21
9967.800734323311
 31
0.0
 70
   160
 71
     5
 42
110.0000000000036
  3
INABA_S40G
100
AcDbAlignedDimension
 13
5734.720528655348
 23
9497.714193327182
 33
0.0
 14
5844.720528655351
 24
9497.71419332716
 34
0.0
100
AcDbRotatedDimension
1001
ACAD
1000
DSTYLE
1002
{
1070
   279
1070
     2
1002
}
  0
DIMENSION
  5
156F8
330
747D
100
AcDbEntity
  8
寸法
100
AcDbDimension
  2
*D5
 10
6684.720528655347
 20
9713.522412952164
 30
0.0
 11
6264.720528655348
 21
9713.522412952164
 31
0.0
 70
   160
  1
2X420=<>
 71
     5
 42
839.9999999999982
  3
INABA_S40G
100
AcDbAlignedDimension
 13
5844.720528655349
 23
9497.714193327094
 33
0.0
 14
6684.720528655347
 24
9497.714193327182
 34
0.0
100
AcDbRotatedDimension
1001
ACAD
1000
DSTYLE
1002
{
1002
}
  0
DIMENSION
  5
156F9
330
747D
100
AcDbEntity
  8
寸法
100
AcDbDimension
  2
*D6
 10
4894.720528655349
 20
9713.522412952046
 30
0.0
 11
4531.235247281074
 21
9713.522412952046
 31
0.0
 70
   160
 71
     5
 42
55.00000000003456
  3
INABA_S40G
100
AcDbAlignedDimension
 13
4839.720528655314
 23
9497.714193327066
 33
0.0
 14
4894.720528655349
 24
9497.714193327066
 34
0.0
100
AcDbRotatedDimension
1001
ACAD
1000
DSTYLE
1002
{
1002
}
  0
DIMENSION
  5
156FA
330
747D
100
AcDbEntity
  8
寸法
100
AcDbDimension
  2
*D7
 10
5734.720528655348
 20
9713.522412952164
 30
0.0
 11
5314.720528655348
 21
9713.522412952164
 31
0.0
 70
   160
  1
2X420=<>
 71
     5
 42
839.9999999999982
  3
INABA_S40G
100
AcDbAlignedDimension
 13
4894.720528655349
 23
9497.714193327094
 33
0.0
 14
5734.720528655348
 24
9497.714193327182
 34
0.0
100
AcDbRotatedDimension
1001
ACAD
1000
DSTYLE
1002
{
1002
}
  0
DIMENSION
  5
156FB
330
747D
100
AcDbEntity
  8
寸法
100
AcDbDimension
  2
*D8
 10
7634.720528655347
 20
9713.522412952164
 30
0.0
 11
7214.720528655348
 21
9713.522412952164
 31
0.0
 70
   160
  1
2X420=<>
 71
     5
 42
839.9999999999982
  3
INABA_S40G
100
AcDbAlignedDimension
 13
6794.72052865535
 23
9497.714193327094
 33
0.0
 14
7634.720528655347
 24
9497.714193327182
 34
0.0
100
AcDbRotatedDimension
1001
ACAD
1000
DSTYLE
1002
{
1002
}
  0
DIMENSION
  5
156FC
330
747D
100
AcDbEntity
  8
寸法
100
AcDbDimension
  2
*D9
 10
7689.720528655326
 20
7140.612318466908
 30
0.0
 11
6199.720528655332
 21
7140.612318466908
 31
0.0
 70
   160
 71
     5
 42
2849.999999999982
  3
INABA_S40G
100
AcDbAlignedDimension
 13
4839.720528655344
 23
8127.714193326985
 33
0.0
 14
7689.720528655326
 24
8127.714193327117
 34
0.0
100
AcDbRotatedDimension
1001
ACAD
1000
DSTYLE
1002
{
1002
}
  0
LINE
  5
156FD
330
747D
100
AcDbEntity
  8
部品1
100
AcDbLine
 10
7689.720528655326
 20
8127.714193327145
 30
0.0
 11
4839.720528655344
 21
8127.714193327049
 31
0.0
  0
LINE
  5
156FE
330
747D
100
AcDbEntity
  8
部品1
100
AcDbLine
 10
4839.720528655349
 20
9497.714193327066
 30
0.0
 11
7689.720528655351
 21
9497.71419332716
 31
0.0
  0
ARC
  5
156FF
330
747D
100
AcDbEntity
  8
想像線
 48
10.0
100
AcDbCircle
 10
7507.368477978186
 20
8129.409086702688
 30
0.0
 40
722.6499369155646
100
AcDbArc
 50
180.1343808685448
 51
270.5829222700351
  0
LINE
  5
15700
330
747D
100
AcDbEntity
  8
部品1
100
AcDbLine
 10
6768.720535332945
 20
9468.214193327035
 30
0.0
 11
7660.720535332945
 21
9468.214193327145
 31
0.0
  0
LINE
  5
15702
330
747D
100
AcDbEntity
  8
部品1
100
AcDbLine
 10
6768.720535332945
 20
9018.214193327036
 30
0.0
 11
7660.720535332945
 21
9018.214193327137
 31
0.0
  0
LINE
  5
15703
330
747D
100
AcDbEntity
  8
細線
 48
50.0
100
AcDbLine
 10
7660.720535332945
 20
9468.214193327138
 30
0.0
 11
6768.720535332945
 21
9018.214193327036
 31
0.0
  0
LINE
  5
15704
330
747D
100
AcDbEntity
  8
細線
 48
50.0
100
AcDbLine
 10
7660.720535332945
 20
9018.214193327137
 30
0.0
 11
6768.720535332945
 21
9468.214193327035
 31
0.0
  0
LINE
  5
15705
330
747D
100
AcDbEntity
  8
部品1
100
AcDbLine
 10
6767.720528655274
 20
9469.714193327108
 30
0.0
 11
7661.720528655351
 21
9469.71419332716
 31
0.0
  0
LINE
  5
15706
330
747D
100
AcDbEntity
  8
部品1
 48
5.0
100
AcDbLine
 10
7646.720528655324
 20
8157.214193327101
 30
0.0
 11
6763.720528655344
 21
8157.214193327101
 31
0.0
  0
LINE
  5
15707
330
747D
100
AcDbEntity
  8
破線
 48
10.0
100
AcDbLine
 10
7609.720528655327
 20
8282.714193327151
 30
0.0
 11
6818.720528655337
 21
8282.714193327116
 31
0.0
  0
LINE
  5
15708
330
747D
100
AcDbEntity
  8
部品1
100
AcDbLine
 10
7633.219557230534
 20
8259.214299039999
 30
0.0
 11
6795.220528655325
 21
8259.214193351773
 31
0.0
  0
LINE
  5
1570A
330
747D
100
AcDbEntity
  8
部品1
100
AcDbLine
 10
7514.720528655342
 20
8153.714193327152
 30
0.0
 11
6784.720528655341
 21
8153.714193327095
 31
0.0
  0
LINE
  5
1570B
330
747D
100
AcDbEntity
  8
部品1
 48
5.0
100
AcDbLine
 10
6684.720528655343
 20
8182.714193327102
 30
0.0
 11
6684.720528655346
 21
8157.214193327101
 31
0.0
  0
LINE
  5
1570C
330
747D
100
AcDbEntity
  8
部品1
 48
5.0
100
AcDbLine
 10
6715.720528655343
 20
8182.714193327102
 30
0.0
 11
6715.720528655343
 21
8157.214193327101
 31
0.0
  0
LINE
  5
1570D
330
747D
100
AcDbEntity
  8
部品1
 48
5.0
100
AcDbLine
 10
6763.720528655345
 20
8182.714193327102
 30
0.0
 11
6763.720528655344
 21
8157.214193327101
 31
0.0
  0
LINE
  5
1570E
330
747D
100
AcDbEntity
  8
部品1
 48
5.0
100
AcDbLine
 10
6794.720528655344
 20
8182.714193327102
 30
0.0
 11
6794.720528655346
 21
8157.214193327101
 31
0.0
  0
LINE
  5
1570F
330
747D
100
AcDbEntity
  8
部品1
 48
5.0
100
AcDbLine
 10
5844.720528655344
 20
8182.714193327102
 30
0.0
 11
5844.720528655345
 21
8157.214193327101
 31
0.0
  0
LINE
  5
15710
330
747D
100
AcDbEntity
  8
部品1
 48
5.0
100
AcDbLine
 10
5734.720528655344
 20
8182.714193327102
 30
0.0
 11
5734.720528655345
 21
8157.214193327101
 31
0.0
  0
LINE
  5
15711
330
747D
100
AcDbEntity
  8
部品1
 48
5.0
100
AcDbLine
 10
5765.720528655343
 20
8182.714193327102
 30
0.0
 11
5765.720528655343
 21
8157.214193327101
 31
0.0
  0
LINE
  5
15712
330
747D
100
AcDbEntity
  8
部品1
 48
5.0
100
AcDbLine
 10
5813.720528655345
 20
8182.714193327102
 30
0.0
 11
5813.720528655344
 21
8157.214193327101
 31
0.0
  0
LINE
  5
15713
330
747D
100
AcDbEntity
  8
部品1
 48
2.83
100
AcDbLine
 10
4839.720528655344
 20
8127.714193326985
 30
0.0
 11
4839.720528655344
 21
8182.714193326985
 31
0.0
  0
LINE
  5
15714
330
747D
100
AcDbEntity
  8
部品1
 48
2.83
100
AcDbLine
 10
4894.720528655343
 20
8182.714193326985
 30
0.0
 11
4894.720528655345
 21
8157.214193326984
 31
0.0
  0
LINE
  5
15715
330
747D
100
AcDbEntity
  8
部品1
100
AcDbLine
 10
4839.72052865534
 20
8182.714193326985
 30
0.0
 11
4839.720528655344
 21
8127.714193326985
 31
0.0
  0
LINE
  5
15716
330
747D
100
AcDbEntity
  8
部品1
100
AcDbLine
 10
4839.720528655314
 20
9497.714193327029
 30
0.0
 11
4839.720528655344
 21
8127.714193327021
 31
0.0
  0
DIMENSION
  5
15717
330
747D
100
AcDbEntity
  8
寸法
 48
50.0
100
AcDbDimension
  2
*D10
 10
7479.720528655342
 20
7687.89052553198
 30
0.0
 11
7137.220528655345
 21
7687.89052553198
 31
0.0
 70
   160
  1
有効開口部間口\P<>
 71
     5
 42
684.9999999999945
  3
INABA_S40G
100
AcDbAlignedDimension
 13
6794.720528655346
 23
8127.714193327058
 33
0.0
 14
7479.720528655342
 24
8127.714193327021
 34
0.0
100
AcDbRotatedDimension
  0
LINE
  5
15718
330
747D
100
AcDbEntity
  8
部品1
 48
5.0
100
AcDbLine
 10
4882.720528655344
 20
8157.214193326984
 30
0.0
 11
5765.720528655343
 21
8157.214193327043
 31
0.0
  0
LINE
  5
15719
330
747D
100
AcDbEntity
  8
部品1
100
AcDbLine
 10
5840.720528655343
 20
8127.714193327049
 30
0.0
 11
4839.720528655344
 21
8127.714193327021
 31
0.0
  0
ARC
  5
1571A
330
747D
100
AcDbEntity
  8
想像線
 48
10.0
100
AcDbCircle
 10
5607.368477978183
 20
8129.40908670267
 30
0.0
 40
722.6499369155575
100
AcDbArc
 50
180.1343808685506
 51
270.5829222700354
  0
LINE
  5
1571B
330
747D
100
AcDbEntity
  8
部品1
100
AcDbLine
 10
5614.720528655341
 20
8153.714193327116
 30
0.0
 11
4884.720528655344
 21
8153.714193327088
 31
0.0
  0
LINE
  5
1571C
330
747D
100
AcDbEntity
  8
部品1
100
AcDbLine
 10
4884.720528655344
 20
8153.714193327123
 30
0.0
 11
4884.720528655344
 21
8127.714193327086
 31
0.0
  0
LINE
  5
1571D
330
747D
100
AcDbEntity
  8
部品1
 48
2.83
100
AcDbLine
 10
4882.720528655344
 20
8157.214193326984
 30
0.0
 11
4882.720528655344
 21
8127.714193326985
 31
0.0
  0
LINE
  5
1571E
330
747D
100
AcDbEntity
  8
部品1
 48
2.83
100
AcDbLine
 10
4882.720528655344
 20
8127.714193326985
 30
0.0
 11
4839.720528655344
 21
8127.714193326985
 31
0.0
  0
LINE
  5
1571F
330
747D
100
AcDbEntity
  8
想像線
 48
10.0
100
AcDbLine
 10
5614.720528655341
 20
8127.714193327101
 30
0.0
 11
5614.720528655341
 21
7406.796549671311
 31
0.0
  0
LINE
  5
15720
330
747D
100
AcDbEntity
  8
部品1
 48
5.0
100
AcDbLine
 10
5616.720528655344
 20
8157.214193327101
 30
0.0
 11
5616.720528655344
 21
8127.714193327101
 31
0.0
  0
LINE
  5
15721
330
747D
100
AcDbEntity
  8
部品1
 48
0.2
100
AcDbLine
 10
5601.78297648402
 20
8120.711823282324
 30
0.0
 11
5606.782976484021
 21
8120.711823282324
 31
0.0
  0
ARC
  5
15722
330
747D
100
AcDbEntity
  8
細線
 48
0.2
100
AcDbCircle
 10
5606.782976484021
 20
8128.711823282323
 30
0.0
 40
4.049999999999999
100
AcDbArc
 50
194.2603506853988
 51
345.7396493146012
  0
ARC
  5
15723
330
747D
100
AcDbEntity
  8
部品1
 48
0.2
100
AcDbCircle
 10
5601.78297648402
 20
8128.711823282323
 30
0.0
 40
8.0
100
AcDbArc
 50
187.1636477221926
 51
269.9999999999992
  0
ARC
  5
15724
330
747D
100
AcDbEntity
  8
部品1
 48
0.2
100
AcDbCircle
 10
5606.782976484021
 20
8128.711823282323
 30
0.0
 40
8.0
100
AcDbArc
 50
270.0
 51
352.8363522778074
  0
LINE
  5
15725
330
747D
100
AcDbEntity
  8
部品1
100
AcDbLine
 10
5614.720528655341
 20
8153.714193327152
 30
0.0
 11
5614.720528655341
 21
8127.714193327093
 31
0.0
  0
ARC
  5
15726
330
747D
100
AcDbEntity
  8
想像線
 48
10.0
100
AcDbCircle
 10
6557.368477978181
 20
8129.409086702668
 30
0.0
 40
722.6499369155564
100
AcDbArc
 50
180.1343808685454
 51
270.5829222700355
  0
LINE
  5
15727
330
747D
100
AcDbEntity
  8
部品1
 48
5.0
100
AcDbLine
 10
5813.720528655344
 20
8157.214193327043
 30
0.0
 11
6715.720528655343
 21
8157.214193327101
 31
0.0
  0
LINE
  5
15729
330
747D
100
AcDbEntity
  8
部品1
100
AcDbLine
 10
6564.720528655342
 20
8153.714193327145
 30
0.0
 11
5834.720528655344
 21
8153.714193327123
 31
0.0
  0
LINE
  5
1572A
330
747D
100
AcDbEntity
  8
部品1
 48
5.0
100
AcDbLine
 10
5832.720528655343
 20
8157.214193327101
 30
0.0
 11
5832.720528655343
 21
8127.714193327101
 31
0.0
  0
LINE
  5
1572B
330
747D
100
AcDbEntity
  8
部品1
100
AcDbLine
 10
5832.720528655343
 20
8157.21419332705
 30
0.0
 11
5832.720528655343
 21
8127.714193327101
 31
0.0
  0
LINE
  5
1572C
330
747D
100
AcDbEntity
  8
部品1
100
AcDbLine
 10
5834.720528655344
 20
8153.714193327123
 30
0.0
 11
5834.720528655344
 21
8127.714193327086
 31
0.0
  0
LINE
  5
1572D
330
747D
100
AcDbEntity
  8
部品1
 48
5.0
100
AcDbLine
 10
5746.720528655344
 20
8157.214193327101
 30
0.0
 11
5746.720528655344
 21
8127.714193327101
 31
0.0
  0
LINE
  5
1572E
330
747D
100
AcDbEntity
  8
部品1
100
AcDbLine
 10
5746.720528655341
 20
8157.214193327043
 30
0.0
 11
5746.72052865534
 21
8127.714193327093
 31
0.0
  0
LINE
  5
1572F
330
747D
100
AcDbEntity
  8
部品1
 48
5.0
100
AcDbLine
 10
5746.720528655344
 20
8127.714193327101
 30
0.0
 11
5832.720528655343
 21
8127.714193327101
 31
0.0
  0
LINE
  5
15730
330
747D
100
AcDbEntity
  8
想像線
 48
10.0
100
AcDbLine
 10
6564.720528655342
 20
8127.714193327101
 30
0.0
 11
6564.720528655342
 21
7406.796549671311
 31
0.0
  0
ARC
  5
15731
330
747D
100
AcDbEntity
  8
部品1
 48
0.2
100
AcDbCircle
 10
6551.782976484021
 20
8128.711823282323
 30
0.0
 40
8.0
100
AcDbArc
 50
187.1636477221926
 51
269.9999999999992
  0
LINE
  5
15732
330
747D
100
AcDbEntity
  8
部品1
 48
5.0
100
AcDbLine
 10
6566.720528655344
 20
8157.214193327101
 30
0.0
 11
6566.720528655344
 21
8127.714193327101
 31
0.0
  0
LINE
  5
15733
330
747D
100
AcDbEntity
  8
部品1
 48
0.2
100
AcDbLine
 10
6551.782976484021
 20
8120.711823282324
 30
0.0
 11
6556.782976484021
 21
8120.711823282324
 31
0.0
  0
ARC
  5
15734
330
747D
100
AcDbEntity
  8
細線
 48
0.2
100
AcDbCircle
 10
6556.782976484021
 20
8128.711823282323
 30
0.0
 40
4.049999999999999
100
AcDbArc
 50
194.2603506853988
 51
345.7396493146012
  0
ARC
  5
15735
330
747D
100
AcDbEntity
  8
部品1
 48
0.2
100
AcDbCircle
 10
6556.782976484021
 20
8128.711823282323
 30
0.0
 40
8.0
100
AcDbArc
 50
270.0
 51
352.8363522778074
  0
LINE
  5
15736
330
747D
100
AcDbEntity
  8
部品1
100
AcDbLine
 10
6564.720528655342
 20
8153.714193327152
 30
0.0
 11
6564.720528655342
 21
8127.714193327093
 31
0.0
  0
LINE
  5
15737
330
747D
100
AcDbEntity
  8
部品1
 48
5.0
100
AcDbLine
 10
6696.720528655344
 20
8127.714193327101
 30
0.0
 11
6782.720528655343
 21
8127.714193327101
 31
0.0
  0
LINE
  5
15738
330
747D
100
AcDbEntity
  8
部品1
 48
5.0
100
AcDbLine
 10
6696.720528655344
 20
8157.214193327101
 30
0.0
 11
6696.720528655344
 21
8127.714193327101
 31
0.0
  0
LINE
  5
15739
330
747D
100
AcDbEntity
  8
部品1
100
AcDbLine
 10
6696.720528655342
 20
8157.214193327043
 30
0.0
 11
6696.720528655339
 21
8127.714193327093
 31
0.0
  0
LINE
  5
1573A
330
747D
100
AcDbEntity
  8
部品1
 48
5.0
100
AcDbLine
 10
6782.720528655343
 20
8157.214193327101
 30
0.0
 11
6782.720528655343
 21
8127.714193327101
 31
0.0
  0
LINE
  5
1573B
330
747D
100
AcDbEntity
  8
部品1
100
AcDbLine
 10
6784.720528655341
 20
8153.714193327095
 30
0.0
 11
6784.72052865534
 21
8127.714193327101
 31
0.0
  0
LINE
  5
1573C
330
747D
100
AcDbEntity
  8
部品1
100
AcDbLine
 10
6782.720528655343
 20
8157.21419332705
 30
0.0
 11
6782.720528655343
 21
8127.714193327101
 31
0.0
  0
LINE
  5
1573D
330
747D
100
AcDbEntity
  8
部品1
100
AcDbLine
 10
4868.720535332944
 20
9468.214193327035
 30
0.0
 11
5760.720535332945
 21
9468.214193327145
 31
0.0
  0
LINE
  5
1573E
330
747D
100
AcDbEntity
  8
部品1
100
AcDbLine
 10
4867.720528655349
 20
9469.714193327066
 30
0.0
 11
5787.101231673972
 21
9469.714193327087
 31
0.0
  0
LINE
  5
15740
330
747D
100
AcDbEntity
  8
部品1
100
AcDbLine
 10
4868.720535332944
 20
9018.214193327036
 30
0.0
 11
5760.720535332945
 21
9018.214193327137
 31
0.0
  0
LINE
  5
15741
330
747D
100
AcDbEntity
  8
部品1
100
AcDbLine
 10
5734.221099103507
 20
8259.213612507144
 30
0.0
 11
4896.221500081738
 21
8259.21311101862
 31
0.0
  0
LINE
  5
15742
330
747D
100
AcDbEntity
  8
破線
 48
10.0
100
AcDbLine
 10
5710.720528655336
 20
8282.714193327086
 30
0.0
 11
4919.720528655336
 21
8282.714193327072
 31
0.0
  0
LINE
  5
15743
330
747D
100
AcDbEntity
  8
細線
 48
50.0
100
AcDbLine
 10
5760.720535332945
 20
9018.214193327137
 30
0.0
 11
4868.720535332944
 21
9468.214193327035
 31
0.0
  0
LINE
  5
15744
330
747D
100
AcDbEntity
  8
細線
 48
50.0
100
AcDbLine
 10
5760.720535332945
 20
9468.214193327138
 30
0.0
 11
4868.720535332944
 21
9018.214193327036
 31
0.0
  0
LINE
  5
15745
330
747D
100
AcDbEntity
  8
部品1
 48
50.0
100
AcDbLine
 10
5314.220528655337
 20
9018.214193327088
 30
0.0
 11
5314.220365783232
 21
8259.21336116389
 31
0.0
  0
LINE
  5
15746
330
747D
100
AcDbEntity
  8
破線
 48
10.0
100
AcDbLine
 10
4919.72059358005
 20
9018.214193327073
 30
0.0
 11
4919.720580957028
 21
8875.214221581542
 31
0.0
  0
LINE
  5
15747
330
747D
100
AcDbEntity
  8
部品1
 48
5.0
100
AcDbLine
 10
4896.221500080306
 20
8259.214193327158
 30
0.0
 11
4896.221007148995
 21
9018.214193327073
 31
0.0
  0
LINE
  5
15748
330
747D
100
AcDbEntity
  8
部品1
100
AcDbLine
 10
4867.720528655326
 20
8182.714193327013
 30
0.0
 11
4867.720528655349
 21
9469.714193327066
 31
0.0
  0
LINE
  5
15749
330
747D
100
AcDbEntity
  8
部品1
 48
50.0
100
AcDbLine
 10
4896.221500081738
 20
8259.21311101862
 30
0.0
 11
4867.720528655326
 21
8230.193940086156
 31
0.0
  0
LINE
  5
1574A
330
747D
100
AcDbEntity
  8
部品1
 48
2.83
100
AcDbLine
 10
4839.720528655344
 20
8182.714193326985
 30
0.0
 11
4862.720528655343
 21
8182.714193326985
 31
0.0
  0
LINE
  5
1574B
330
747D
100
AcDbEntity
  8
部品1
 48
2.83
100
AcDbLine
 10
4871.720528655344
 20
8182.714193326985
 30
0.0
 11
4894.720528655343
 21
8182.714193326985
 31
0.0
  0
LINE
  5
1574C
330
747D
100
AcDbEntity
  8
部品1
100
AcDbLine
 10
4867.720528655326
 20
8182.714193326985
 30
0.0
 11
4839.72052865534
 21
8182.714193326985
 31
0.0
  0
LINE
  5
1574D
330
747D
100
AcDbEntity
  8
部品1
100
AcDbLine
 10
4867.720528655326
 20
8182.714193327013
 30
0.0
 11
4839.72052865534
 21
8182.714193327013
 31
0.0
  0
LINE
  5
1574E
330
747D
100
AcDbEntity
  8
部品1
100
AcDbLine
 10
4867.72052865534
 20
8182.714193327027
 30
0.0
 11
4839.72052865534
 21
8182.714193327027
 31
0.0
  0
LINE
  5
1574F
330
747D
100
AcDbEntity
  8
部品1
100
AcDbLine
 10
4867.720528655324
 20
8602.714193327029
 30
0.0
 11
4839.720528655323
 21
8602.714193327029
 31
0.0
  0
LINE
  5
15750
330
747D
100
AcDbEntity
  8
部品1
 48
50.0
100
AcDbLine
 10
4868.720535332944
 20
9468.214193327028
 30
0.0
 11
4868.720535332944
 21
9018.214193327036
 31
0.0
  0
LINE
  5
15751
330
747D
100
AcDbEntity
  8
部品1
100
AcDbLine
 10
4867.720528655324
 20
9022.714193327029
 30
0.0
 11
4839.720528655323
 21
9022.714193327029
 31
0.0
  0
LINE
  5
15752
330
747D
100
AcDbEntity
  8
部品1
 48
50.0
100
AcDbLine
 10
4869.220535332937
 20
9468.214193327035
 30
0.0
 11
4867.720528655315
 21
9469.714193327028
 31
0.0
  0
LINE
  5
15753
330
747D
100
AcDbEntity
  8
部品1
100
AcDbLine
 10
4894.720528655314
 20
9497.714193327029
 30
0.0
 11
4894.720528655316
 21
9469.714193327028
 31
0.0
  0
LINE
  5
15754
330
747D
100
AcDbEntity
  8
部品1
100
AcDbLine
 10
4894.720528655349
 20
9497.714193327066
 30
0.0
 11
4894.720528655349
 21
9469.714193327066
 31
0.0
  0
LINE
  5
15755
330
747D
100
AcDbEntity
  8
部品1
100
AcDbLine
 10
4867.720528655316
 20
9442.714193327036
 30
0.0
 11
4839.720528655316
 21
9442.714193327036
 31
0.0
  0
LINE
  5
15756
330
747D
100
AcDbEntity
  8
部品1
100
AcDbLine
 10
5314.22052865528
 20
9497.714193327022
 30
0.0
 11
5314.220528655281
 21
9469.714193327021
 31
0.0
  0
LINE
  5
15757
330
747D
100
AcDbEntity
  8
部品1
100
AcDbLine
 10
5314.220528655314
 20
9497.714193327057
 30
0.0
 11
5314.220528655314
 21
9469.714193327057
 31
0.0
  0
LINE
  5
15758
330
747D
100
AcDbEntity
  8
部品1
 48
50.0
100
AcDbLine
 10
6795.220522311041
 20
8259.214193351766
 30
0.0
 11
6795.220525283905
 21
9018.214193327109
 31
0.0
  0
LINE
  5
15759
330
747D
100
AcDbEntity
  8
部品1
 48
50.0
100
AcDbLine
 10
6684.220528655327
 20
8259.214193327109
 30
0.0
 11
6684.220528655304
 21
9018.214193327166
 31
0.0
  0
LINE
  5
1575A
330
747D
100
AcDbEntity
  8
破線
 48
10.0
100
AcDbLine
 10
6660.720528655336
 20
8282.714193327109
 30
0.0
 11
6660.720522493074
 21
8825.214149717403
 31
0.0
  0
LINE
  5
1575B
330
747D
100
AcDbEntity
  8
破線
 48
10.0
100
AcDbLine
 10
6818.720528655337
 20
8282.714193327116
 30
0.0
 11
6818.72051948623
 21
8825.214143195559
 31
0.0
  0
LINE
  5
1575C
330
747D
100
AcDbEntity
  8
部品1
 48
50.0
100
AcDbLine
 10
6264.220528655336
 20
9018.214193327088
 30
0.0
 11
6264.220365783232
 21
8259.21336116389
 31
0.0
  0
LINE
  5
1575D
330
747D
100
AcDbEntity
  8
部品1
 48
50.0
100
AcDbLine
 10
5845.220522311041
 20
8259.214193351766
 30
0.0
 11
5845.220525283905
 21
9018.214193327109
 31
0.0
  0
LINE
  5
1575E
330
747D
100
AcDbEntity
  8
破線
 48
10.0
100
AcDbLine
 10
5868.720528655336
 20
8282.714193327116
 30
0.0
 11
5868.72051948623
 21
8825.21418240919
 31
0.0
  0
LINE
  5
1575F
330
747D
100
AcDbEntity
  8
部品1
 48
50.0
100
AcDbLine
 10
5734.220528655328
 20
8259.214193327109
 30
0.0
 11
5734.220528655304
 21
9018.214193327166
 31
0.0
  0
LINE
  5
15760
330
747D
100
AcDbEntity
  8
破線
 48
10.0
100
AcDbLine
 10
5710.720528655336
 20
8282.714193327109
 30
0.0
 11
5710.720522493073
 21
8825.214188931035
 31
0.0
  0
LINE
  5
15762
330
747D
100
AcDbEntity
  8
部品1
 48
50.0
100
AcDbLine
 10
5789.720528655329
 20
8182.714193327102
 30
0.0
 11
5789.720528655329
 21
9442.714193327109
 31
0.0
  0
LINE
  5
15763
330
747D
100
AcDbEntity
  8
部品1
 48
50.0
100
AcDbLine
 10
5761.720528655329
 20
8182.714193327102
 30
0.0
 11
5761.720528655274
 21
9469.714193327108
 31
0.0
  0
LINE
  5
15764
330
747D
100
AcDbEntity
  8
部品1
 48
50.0
100
AcDbLine
 10
5817.720528655328
 20
8182.714193327102
 30
0.0
 11
5817.720528655275
 21
9497.714193327109
 31
0.0
  0
LINE
  5
15765
330
747D
100
AcDbEntity
  8
部品1
 48
50.0
100
AcDbLine
 10
6739.720528655329
 20
8182.714193327102
 30
0.0
 11
6739.720528655329
 21
9442.714193327109
 31
0.0
  0
LINE
  5
15766
330
747D
100
AcDbEntity
  8
部品1
 48
50.0
100
AcDbLine
 10
6711.720528655328
 20
8182.714193327102
 30
0.0
 11
6711.720528655274
 21
9469.714193327108
 31
0.0
  0
LINE
  5
15767
330
747D
100
AcDbEntity
  8
部品1
 48
50.0
100
AcDbLine
 10
6767.720528655329
 20
8182.714193327102
 30
0.0
 11
6767.720528655274
 21
9497.714193327109
 31
0.0
  0
LINE
  5
15768
330
747D
100
AcDbEntity
  8
部品1
100
AcDbLine
 10
6684.220528655327
 20
8259.214193327109
 30
0.0
 11
5845.220035401446
 21
8259.213691129636
 31
0.0
  0
LINE
  5
15769
330
747D
100
AcDbEntity
  8
破線
 48
10.0
100
AcDbLine
 10
6660.720528655336
 20
8282.714193327109
 30
0.0
 11
5868.720528655336
 21
8282.714193327093
 31
0.0
  0
LINE
  5
1576A
330
747D
100
AcDbEntity
  8
部品1
 48
5.0
100
AcDbLine
 10
5761.720528655329
 20
8182.714193327102
 30
0.0
 11
5817.720528655328
 21
8182.714193327102
 31
0.0
  0
LINE
  5
1576B
330
747D
100
AcDbEntity
  8
部品1
 48
50.0
100
AcDbLine
 10
5845.220528655325
 20
8259.214193351773
 30
0.0
 11
5817.720528655328
 21
8231.214193327103
 31
0.0
  0
LINE
  5
1576C
330
747D
100
AcDbEntity
  8
部品1
 48
5.0
100
AcDbLine
 10
5821.720528655344
 20
8182.714193327102
 30
0.0
 11
5844.720528655344
 21
8182.714193327102
 31
0.0
  0
LINE
  5
1576D
330
747D
100
AcDbEntity
  8
部品1
 48
5.0
100
AcDbLine
 10
5757.720528655344
 20
8182.714193327102
 30
0.0
 11
5734.720528655344
 21
8182.714193327102
 31
0.0
  0
LINE
  5
1576E
330
747D
100
AcDbEntity
  8
部品1
 48
50.0
100
AcDbLine
 10
5761.720528655329
 20
8231.214193327103
 30
0.0
 11
5734.220528655328
 21
8259.214193327109
 31
0.0
  0
LINE
  5
1576F
330
747D
100
AcDbEntity
  8
部品1
 48
5.0
100
AcDbLine
 10
5789.720528655329
 20
8602.7141933271
 30
0.0
 11
5761.720528655276
 21
8602.714193327107
 31
0.0
  0
LINE
  5
15770
330
747D
100
AcDbEntity
  8
部品1
 48
50.0
100
AcDbLine
 10
6711.720528655328
 20
8231.214193327103
 30
0.0
 11
6684.220528655327
 21
8259.214193327109
 31
0.0
  0
LINE
  5
15771
330
747D
100
AcDbEntity
  8
部品1
 48
5.0
100
AcDbLine
 10
6707.720528655343
 20
8182.714193327102
 30
0.0
 11
6684.720528655343
 21
8182.714193327102
 31
0.0
  0
LINE
  5
15772
330
747D
100
AcDbEntity
  8
部品1
 48
50.0
100
AcDbLine
 10
6795.220528655325
 20
8259.214193351773
 30
0.0
 11
6767.720528655329
 21
8231.214193327103
 31
0.0
  0
LINE
  5
15773
330
747D
100
AcDbEntity
  8
部品1
 48
5.0
100
AcDbLine
 10
6771.720528655343
 20
8182.714193327102
 30
0.0
 11
6794.720528655344
 21
8182.714193327102
 31
0.0
  0
LINE
  5
15774
330
747D
100
AcDbEntity
  8
部品1
 48
5.0
100
AcDbLine
 10
6711.720528655328
 20
8182.714193327102
 30
0.0
 11
6767.720528655329
 21
8182.714193327102
 31
0.0
  0
LINE
  5
15775
330
747D
100
AcDbEntity
  8
部品1
 48
5.0
100
AcDbLine
 10
6739.720528655329
 20
8602.7141933271
 30
0.0
 11
6711.720528655276
 21
8602.714193327107
 31
0.0
  0
LINE
  5
15776
330
747D
100
AcDbEntity
  8
部品1
100
AcDbLine
 10
5818.720535332944
 20
9468.214193327035
 30
0.0
 11
6710.720535332945
 21
9468.214193327145
 31
0.0
  0
LINE
  5
15777
330
747D
100
AcDbEntity
  8
部品1
100
AcDbLine
 10
5817.720528655296
 20
9469.714193327087
 30
0.0
 11
6737.101231673951
 21
9469.714193327108
 31
0.0
  0
LINE
  5
15778
330
747D
100
AcDbEntity
  8
部品1
100
AcDbLine
 10
5818.720535332944
 20
9018.214193327036
 30
0.0
 11
6710.720535332945
 21
9018.214193327137
 31
0.0
  0
LINE
  5
15779
330
747D
100
AcDbEntity
  8
細線
 48
50.0
100
AcDbLine
 10
6710.720535332945
 20
9018.214193327137
 30
0.0
 11
5818.720535332944
 21
9468.214193327035
 31
0.0
  0
LINE
  5
1577A
330
747D
100
AcDbEntity
  8
細線
 48
50.0
100
AcDbLine
 10
6710.720535332945
 20
9468.214193327138
 30
0.0
 11
5818.720535332944
 21
9018.214193327036
 31
0.0
  0
LINE
  5
1577B
330
747D
100
AcDbEntity
  8
部品1
 48
50.0
100
AcDbLine
 10
5818.720535332944
 20
9468.214193327028
 30
0.0
 11
5818.720535332944
 21
9018.214193327036
 31
0.0
  0
LINE
  5
1577C
330
747D
100
AcDbEntity
  8
部品1
 48
50.0
100
AcDbLine
 10
5760.720535332945
 20
9468.214193327138
 30
0.0
 11
5760.720535332945
 21
9018.214193327137
 31
0.0
  0
LINE
  5
1577D
330
747D
100
AcDbEntity
  8
部品1
 48
50.0
100
AcDbLine
 10
5789.72052865532
 20
9060.714193327109
 30
0.0
 11
5817.720528655303
 21
9060.714193327109
 31
0.0
  0
LINE
  5
1577E
330
747D
100
AcDbEntity
  8
部品1
 48
50.0
100
AcDbLine
 10
5789.72052865532
 20
9022.714193327109
 30
0.0
 11
5817.720528655303
 21
9022.714193327109
 31
0.0
  0
LINE
  5
1577F
330
747D
100
AcDbEntity
  8
部品1
 48
5.0
100
AcDbLine
 10
5789.720528655329
 20
9022.714193327102
 30
0.0
 11
5761.720528655276
 21
9022.714193327109
 31
0.0
  0
LINE
  5
15780
330
747D
100
AcDbEntity
  8
部品1
 48
50.0
100
AcDbLine
 10
5819.220535332937
 20
9468.214193327035
 30
0.0
 11
5817.720528655314
 21
9469.714193327028
 31
0.0
  0
LINE
  5
15781
330
747D
100
AcDbEntity
  8
部品1
 48
50.0
100
AcDbLine
 10
5760.273136143365
 20
9468.214193327145
 30
0.0
 11
5761.720528655242
 21
9469.714193327073
 31
0.0
  0
LINE
  5
15782
330
747D
100
AcDbEntity
  8
部品1
 48
5.0
100
AcDbLine
 10
5844.720528655351
 20
9497.714193327109
 30
0.0
 11
5844.720528655347
 21
9469.714193327115
 31
0.0
  0
LINE
  5
15783
330
747D
100
AcDbEntity
  8
部品1
 48
5.0
100
AcDbLine
 10
5817.720528655279
 20
9442.714193327109
 30
0.0
 11
5761.720528655276
 21
9442.714193327109
 31
0.0
  0
LINE
  5
15784
330
747D
100
AcDbEntity
  8
部品1
 48
5.0
100
AcDbLine
 10
5764.429803102522
 20
9497.714193327109
 30
0.0
 11
5787.10123167395
 21
9469.714193327108
 31
0.0
  0
LINE
  5
15785
330
747D
100
AcDbEntity
  8
部品1
 48
5.0
100
AcDbLine
 10
5734.720528655348
 20
9469.714193327108
 30
0.0
 11
5734.720528655348
 21
9497.714193327109
 31
0.0
  0
LINE
  5
15786
330
747D
100
AcDbEntity
  8
部品1
100
AcDbLine
 10
6264.220528655314
 20
9497.714193327146
 30
0.0
 11
6264.220528655314
 21
9469.714193327146
 31
0.0
  0
LINE
  5
15787
330
747D
100
AcDbEntity
  8
部品1
100
AcDbLine
 10
6264.22052865528
 20
9497.714193327109
 30
0.0
 11
6264.220528655282
 21
9469.714193327108
 31
0.0
  0
LINE
  5
15788
330
747D
100
AcDbEntity
  8
部品1
 48
50.0
100
AcDbLine
 10
6768.720535332945
 20
9468.214193327028
 30
0.0
 11
6768.720535332945
 21
9018.214193327036
 31
0.0
  0
LINE
  5
15789
330
747D
100
AcDbEntity
  8
部品1
 48
50.0
100
AcDbLine
 10
6710.720535332945
 20
9468.214193327138
 30
0.0
 11
6710.720535332945
 21
9018.214193327137
 31
0.0
  0
LINE
  5
1578A
330
747D
100
AcDbEntity
  8
部品1
 48
50.0
100
AcDbLine
 10
6739.72052865532
 20
9060.714193327109
 30
0.0
 11
6767.720528655303
 21
9060.714193327109
 31
0.0
  0
LINE
  5
1578B
330
747D
100
AcDbEntity
  8
部品1
 48
50.0
100
AcDbLine
 10
6739.72052865532
 20
9022.714193327109
 30
0.0
 11
6767.720528655303
 21
9022.714193327109
 31
0.0
  0
LINE
  5
1578C
330
747D
100
AcDbEntity
  8
部品1
 48
5.0
100
AcDbLine
 10
6739.720528655329
 20
9022.714193327102
 30
0.0
 11
6711.720528655276
 21
9022.714193327109
 31
0.0
  0
LINE
  5
1578D
330
747D
100
AcDbEntity
  8
部品1
 48
5.0
100
AcDbLine
 10
6684.720528655347
 20
9469.714193327108
 30
0.0
 11
6684.720528655347
 21
9497.714193327109
 31
0.0
  0
LINE
  5
1578E
330
747D
100
AcDbEntity
  8
部品1
 48
50.0
100
AcDbLine
 10
6769.220535332937
 20
9468.214193327035
 30
0.0
 11
6767.720528655314
 21
9469.714193327028
 31
0.0
  0
LINE
  5
1578F
330
747D
100
AcDbEntity
  8
部品1
 48
50.0
100
AcDbLine
 10
6710.273136143365
 20
9468.214193327145
 30
0.0
 11
6711.720528655241
 21
9469.714193327073
 31
0.0
  0
LINE
  5
15790
330
747D
100
AcDbEntity
  8
部品1
 48
5.0
100
AcDbLine
 10
6767.720528655278
 20
9442.714193327109
 30
0.0
 11
6711.720528655276
 21
9442.714193327109
 31
0.0
  0
LINE
  5
15791
330
747D
100
AcDbEntity
  8
部品1
 48
5.0
100
AcDbLine
 10
6714.429803102523
 20
9497.714193327109
 30
0.0
 11
6737.101231673951
 21
9469.714193327108
 31
0.0
  0
LINE
  5
15792
330
747D
100
AcDbEntity
  8
部品1
 48
5.0
100
AcDbLine
 10
6794.720528655351
 20
9497.714193327109
 30
0.0
 11
6794.720528655346
 21
9469.714193327115
 31
0.0
  0
LINE
  5
15793
330
747D
100
AcDbEntity
  8
部品1
 48
2.83
100
AcDbLine
 10
7634.720528655326
 20
8182.714193327116
 30
0.0
 11
7634.720528655323
 21
8157.214193327115
 31
0.0
  0
DIMENSION
  5
15794
330
747D
100
AcDbEntity
  8
寸法
100
AcDbDimension
  2
*D11
 10
8337.146874389736
 20
8127.714193327145
 30
0.0
 11
8337.146874389736
 21
7749.852726422282
 31
0.0
 70
   160
 71
     5
 42
55.0
  3
INABA_S40G
100
AcDbAlignedDimension
 13
7689.720528655326
 23
8182.714193327145
 33
0.0
 14
7689.720528655326
 24
8127.714193327145
 34
0.0
 50
90.0
100
AcDbRotatedDimension
1001
ACAD
1000
DSTYLE
1002
{
1002
}
  0
DIMENSION
  5
15795
330
747D
100
AcDbEntity
  8
寸法
100
AcDbDimension
  2
*D12
 10
8646.25840520544
 20
8127.714193327145
 30
0.0
 11
8646.258405205436
 21
8812.714193327153
 31
0.0
 70
   160
 71
     5
 42
1370.000000000014
  3
INABA_S40G
100
AcDbAlignedDimension
 13
7689.720528655351
 23
9497.71419332716
 33
0.0
 14
7689.720528655326
 24
8127.714193327145
 34
0.0
 50
90.0
100
AcDbRotatedDimension
1001
ACAD
1000
DSTYLE
1002
{
1002
}
  0
LINE
  5
15796
330
747D
100
AcDbEntity
  8
部品1
100
AcDbLine
 10
7689.720528655351
 20
9497.71419332716
 30
0.0
 11
7689.720528655326
 21
8127.714193327145
 31
0.0
  0
LINE
  5
15797
330
747D
100
AcDbEntity
  8
想像線
 48
10.0
100
AcDbLine
 10
7514.720528655342
 20
8127.714193327108
 30
0.0
 11
7514.720528655342
 21
7406.796549671319
 31
0.0
  0
LINE
  5
15798
330
747D
100
AcDbEntity
  8
部品1
 48
2.83
100
AcDbLine
 10
7516.720528655324
 20
8157.214193327115
 30
0.0
 11
7516.720528655324
 21
8127.714193327117
 31
0.0
  0
ARC
  5
15799
330
747D
100
AcDbEntity
  8
細線
 48
0.2
100
AcDbCircle
 10
7506.782976484021
 20
8128.711823282337
 30
0.0
 40
4.049999999999999
100
AcDbArc
 50
194.2603506853988
 51
345.7396493146012
  0
ARC
  5
1579A
330
747D
100
AcDbEntity
  8
部品1
 48
0.2
100
AcDbCircle
 10
7501.782976484022
 20
8128.711823282337
 30
0.0
 40
8.0
100
AcDbArc
 50
187.1636477221926
 51
269.9999999999992
  0
ARC
  5
1579B
330
747D
100
AcDbEntity
  8
部品1
 48
0.2
100
AcDbCircle
 10
7506.782976484021
 20
8128.711823282337
 30
0.0
 40
8.0
100
AcDbArc
 50
270.0
 51
352.8363522778074
  0
LINE
  5
1579C
330
747D
100
AcDbEntity
  8
部品1
 48
0.2
100
AcDbLine
 10
7501.782976484022
 20
8120.711823282338
 30
0.0
 11
7506.782976484021
 21
8120.711823282338
 31
0.0
  0
LINE
  5
1579D
330
747D
100
AcDbEntity
  8
部品1
100
AcDbLine
 10
7514.720528655342
 20
8153.714193327152
 30
0.0
 11
7514.720528655344
 21
8127.714193327145
 31
0.0
  0
LINE
  5
1579E
330
747D
100
AcDbEntity
  8
部品1
 48
2.83
100
AcDbLine
 10
7646.720528655324
 20
8157.214193327115
 30
0.0
 11
7646.720528655324
 21
8127.714193327117
 31
0.0
  0
DIMENSION
  5
1579F
330
747D
100
AcDbEntity
  8
寸法
100
AcDbDimension
  2
*D13
 10
8337.146874389762
 20
8182.714193327145
 30
0.0
 11
8337.146874389761
 21
8812.714193327153
 31
0.0
 70
   160
  1
3X420=<>
 71
     5
 42
1260.000000000014
  3
INABA_S40G
100
AcDbAlignedDimension
 13
7689.720528655351
 23
9442.71419332716
 33
0.0
 14
7689.720528655326
 24
8182.714193327145
 34
0.0
 50
90.0
100
AcDbRotatedDimension
1001
ACAD
1000
DSTYLE
1002
{
1002
}
  0
LINE
  5
157A0
330
747D
100
AcDbEntity
  8
部品1
 48
5.0
100
AcDbLine
 10
7633.219557230393
 20
8259.214193327158
 30
0.0
 11
7633.220050161705
 21
9018.214193327102
 31
0.0
  0
LINE
  5
157A1
330
747D
100
AcDbEntity
  8
破線
 48
10.0
100
AcDbLine
 10
7609.720593580018
 20
9018.214193327109
 30
0.0
 11
7609.720580956992
 21
8875.214110545041
 31
0.0
  0
LINE
  5
157A2
330
747D
100
AcDbEntity
  8
部品1
 48
50.0
100
AcDbLine
 10
7214.220528655336
 20
9018.214193327088
 30
0.0
 11
7214.220365783233
 21
8259.21336116389
 31
0.0
  0
DIMENSION
  5
157A3
330
747D
100
AcDbEntity
  8
寸法
100
AcDbDimension
  2
*D14
 10
8016.078261194984
 20
8922.996377658149
 30
0.0
 11
8016.078261194984
 21
9147.996377658138
 31
0.0
 70
   160
 71
     5
 42
449.9999999999927
  3
INABA_S40G
100
AcDbAlignedDimension
 13
7660.720535332957
 23
9468.214193327028
 33
0.0
 14
7660.720535332969
 24
9018.214193327036
 34
0.0
 50
90.0
100
AcDbRotatedDimension
1001
ACAD
1000
DSTYLE
1002
{
1002
}
  0
LINE
  5
157A4
330
747D
100
AcDbEntity
  8
部品1
100
AcDbLine
 10
7661.720528655351
 20
9469.71419332716
 30
0.0
 11
7661.720528655326
 21
8182.714193327145
 31
0.0
  0
LINE
  5
157A5
330
747D
100
AcDbEntity
  8
部品1
 48
50.0
100
AcDbLine
 10
7661.720528655326
 20
8230.195128134747
 30
0.0
 11
7633.219557230534
 21
8259.214299039999
 31
0.0
  0
LINE
  5
157A6
330
747D
100
AcDbEntity
  8
部品1
 48
2.83
100
AcDbLine
 10
7657.720528655324
 20
8182.714193327116
 30
0.0
 11
7634.720528655323
 21
8182.714193327116
 31
0.0
  0
LINE
  5
157A7
330
747D
100
AcDbEntity
  8
部品1
 48
2.83
100
AcDbLine
 10
7689.720528655323
 20
8182.714193327116
 30
0.0
 11
7666.720528655324
 21
8182.714193327116
 31
0.0
  0
LINE
  5
157A8
330
747D
100
AcDbEntity
  8
部品1
100
AcDbLine
 10
7661.720528655326
 20
8182.714193327145
 30
0.0
 11
7689.720528655326
 21
8182.714193327145
 31
0.0
  0
LINE
  5
157A9
330
747D
100
AcDbEntity
  8
部品1
100
AcDbLine
 10
7661.720528655358
 20
8182.714193327159
 30
0.0
 11
7689.720528655358
 21
8182.714193327159
 31
0.0
  0
LINE
  5
157AA
330
747D
100
AcDbEntity
  8
部品1
100
AcDbLine
 10
7661.720528655351
 20
8602.714193327159
 30
0.0
 11
7689.720528655351
 21
8602.714193327159
 31
0.0
  0
LINE
  5
157AB
330
747D
100
AcDbEntity
  8
部品1
100
AcDbLine
 10
7214.220528655284
 20
9497.714193327174
 30
0.0
 11
7214.220528655285
 21
9469.714193327174
 31
0.0
  0
LINE
  5
157AC
330
747D
100
AcDbEntity
  8
部品1
100
AcDbLine
 10
7214.220528655317
 20
9497.71419332721
 30
0.0
 11
7214.220528655317
 21
9469.714193327211
 31
0.0
  0
LINE
  5
157AD
330
747D
100
AcDbEntity
  8
部品1
 48
50.0
100
AcDbLine
 10
7660.720535332945
 20
9468.214193327138
 30
0.0
 11
7660.720535332945
 21
9018.214193327137
 31
0.0
  0
LINE
  5
157AE
330
747D
100
AcDbEntity
  8
部品1
100
AcDbLine
 10
7661.720528655351
 20
9022.714193327159
 30
0.0
 11
7689.720528655351
 21
9022.714193327159
 31
0.0
  0
LINE
  5
157AF
330
747D
100
AcDbEntity
  8
部品1
 48
50.0
100
AcDbLine
 10
7660.273136143366
 20
9468.214193327145
 30
0.0
 11
7661.720528655242
 21
9469.714193327073
 31
0.0
  0
LINE
  5
157B0
330
747D
100
AcDbEntity
  8
部品1
100
AcDbLine
 10
7634.72052865535
 20
9497.71419332716
 30
0.0
 11
7634.72052865535
 21
9469.71419332716
 31
0.0
  0
LINE
  5
157B1
330
747D
100
AcDbEntity
  8
部品1
100
AcDbLine
 10
7634.72052865535
 20
9497.714193327174
 30
0.0
 11
7634.72052865535
 21
9469.714193327174
 31
0.0
  0
LINE
  5
157B2
330
747D
100
AcDbEntity
  8
部品1
100
AcDbLine
 10
7661.720528655351
 20
9442.71419332716
 30
0.0
 11
7689.720528655351
 21
9442.71419332716
 31
0.0
  0
LINE
  5
157B3
330
747D
100
AcDbEntity
  8
部品1
100
AcDbLine
 10
5834.720528655342
 20
5178.425555112484
 30
0.0
 11
6544.658080826661
 21
5178.425555112486
 31
0.0
  0
LINE
  5
157B4
330
747D
100
AcDbEntity
  8
部品1
100
AcDbLine
 10
5834.720528655344
 20
3387.4255551125
 30
0.0
 11
6544.658080826661
 21
3387.425555112505
 31
0.0
  0
LINE
  5
157B5
330
747D
100
AcDbEntity
  8
部品1
100
AcDbLine
 10
4839.720528655344
 20
5180.925555112486
 30
0.0
 11
7689.720528655344
 21
5180.925555112486
 31
0.0
  0
LINE
  5
157BC
330
747D
100
AcDbEntity
  8
部品1
100
AcDbLine
 10
4839.720528655344
 20
3340.925555112487
 30
0.0
 11
7689.720528655344
 21
3340.925555112487
 31
0.0
  0
LINE
  5
157BD
330
747D
100
AcDbEntity
  8
部品1
100
AcDbLine
 10
4839.720528655344
 20
3383.92555511249
 30
0.0
 11
7689.720528655344
 21
3383.925555112507
 31
0.0
  0
LINE
  5
157BE
330
747D
100
AcDbEntity
  8
部品1
100
AcDbLine
 10
5832.720528655343
 20
5180.925555112486
 30
0.0
 11
5832.720528655343
 21
3383.925555112507
 31
0.0
  0
LINE
  5
157BF
330
747D
100
AcDbEntity
  8
部品1
100
AcDbLine
 10
5834.720528655342
 20
5178.425555112486
 30
0.0
 11
5834.720528655344
 21
3387.425555112501
 31
0.0
  0
LINE
  5
157C0
330
747D
100
AcDbEntity
  8
部品1
100
AcDbLine
 10
4882.720528655344
 20
5180.925555112486
 30
0.0
 11
4882.720528655344
 21
3383.925555112507
 31
0.0
  0
LINE
  5
157C1
330
747D
100
AcDbEntity
  8
部品1
100
AcDbLine
 10
4839.720528655344
 20
5274.925555112489
 30
0.0
 11
4839.720528655344
 21
3240.925555112486
 31
0.0
  0
LINE
  5
157C2
330
747D
100
AcDbEntity
  8
部品1
100
AcDbLine
 10
4884.720528655344
 20
5178.42555511249
 30
0.0
 11
4884.720528655344
 21
3387.425555112492
 31
0.0
  0
LINE
  5
157C3
330
747D
100
AcDbEntity
  8
部品1
100
AcDbLine
 10
5614.720528655341
 20
5178.425555112486
 30
0.0
 11
5614.720528655344
 21
3387.425555112506
 31
0.0
  0
LINE
  5
157C4
330
747D
100
AcDbEntity
  8
部品1
100
AcDbLine
 10
5746.720528655344
 20
5180.925555112486
 30
0.0
 11
5746.720528655344
 21
3383.925555112507
 31
0.0
  0
DIMENSION
  5
157C5
330
747D
100
AcDbEntity
  8
寸法
100
AcDbDimension
  2
*D15
 10
4521.616001047741
 20
3402.42555511249
 30
0.0
 11
4521.616001047739
 21
4281.425555112488
 31
0.0
 70
   160
  1
有効開口部高サ<>
 71
     5
 42
1759.999999999996
  3
INABA_S40G
100
AcDbAlignedDimension
 13
4839.720528655344
 23
5162.425555112486
 33
0.0
 14
4839.720528655344
 24
3402.42555511249
 34
0.0
 50
90.0
100
AcDbRotatedDimension
1001
ACAD
1000
DSTYLE
1002
{
1070
   288
1070
     1
1002
}
  0
LINE
  5
157C6
330
747D
100
AcDbEntity
  8
部品1
100
AcDbLine
 10
5616.720528655344
 20
5180.925555112486
 30
0.0
 11
5616.720528655344
 21
3383.925555112507
 31
0.0
  0
LINE
  5
157C7
330
747D
100
AcDbEntity
  8
部品1
100
AcDbLine
 10
4884.720528655344
 20
3387.425555112492
 30
0.0
 11
5594.658080826661
 21
3387.425555112506
 31
0.0
  0
LINE
  5
157C9
330
747D
100
AcDbEntity
  8
部品1
100
AcDbLine
 10
5614.658080826663
 20
3387.425555112497
 30
0.0
 11
5614.720528655343
 21
3387.425555112497
 31
0.0
  0
LINE
  5
157CA
330
747D
100
AcDbEntity
  8
部品1
100
AcDbLine
 10
5614.658080826663
 20
3387.425555112506
 30
0.0
 11
5614.720528655343
 21
3387.425555112506
 31
0.0
  0
ARC
  5
157CB
330
747D
100
AcDbEntity
  8
細線
 48
0.2
100
AcDbCircle
 10
5611.658080826662
 20
3387.205045281257
 30
0.0
 40
1.0
100
AcDbArc
 50
286.6015495990217
 51
0.0
  0
LINE
  5
157CC
330
747D
100
AcDbEntity
  8
細線
 48
50.0
100
AcDbLine
 10
5610.645733678322
 20
3389.675555112506
 30
0.0
 11
5610.645733678322
 21
3391.675555112505
 31
0.0
  0
LINE
  5
157CD
330
747D
100
AcDbEntity
  8
細線
 48
0.1
100
AcDbLine
 10
5614.658080826662
 20
3387.175555112504
 30
0.0
 11
5614.658080826662
 21
3394.175555112504
 31
0.0
  0
LINE
  5
157CE
330
747D
100
AcDbEntity
  8
細線
 48
50.0
100
AcDbLine
 10
5594.658080826661
 20
3387.425555112506
 30
0.0
 11
5594.658080826661
 21
3387.175555112504
 31
0.0
  0
ARC
  5
157CF
330
747D
100
AcDbEntity
  8
細線
 48
0.2
100
AcDbCircle
 10
5601.658080826662
 20
3387.205045281257
 30
0.0
 40
1.0
100
AcDbArc
 50
179.9999999999984
 51
253.3984504009775
  0
LINE
  5
157D0
330
747D
100
AcDbEntity
  8
部品1
 48
50.0
100
AcDbLine
 10
5594.658080826661
 20
3394.175555112504
 30
0.0
 11
5594.658080826661
 21
3387.425555112506
 31
0.0
  0
LINE
  5
157D1
330
747D
100
AcDbEntity
  8
細線
 48
50.0
100
AcDbLine
 10
5602.795323632358
 20
3389.675555112506
 30
0.0
 11
5602.795323632359
 21
3391.675555112505
 31
0.0
  0
LINE
  5
157D2
330
747D
100
AcDbEntity
  8
部品1
 48
0.2
100
AcDbLine
 10
5614.658080826662
 20
3394.175555112504
 30
0.0
 11
5594.658080826661
 21
3394.175555112504
 31
0.0
  0
LINE
  5
157D3
330
747D
100
AcDbEntity
  8
細線
 48
0.2
100
AcDbLine
 10
5614.658080826662
 20
3391.675555112505
 30
0.0
 11
5594.658080826662
 21
3391.675555112505
 31
0.0
  0
LINE
  5
157D4
330
747D
100
AcDbEntity
  8
細線
 48
0.2
100
AcDbLine
 10
5612.342072123169
 20
3386.475555112504
 30
0.0
 11
5600.974089530158
 21
3386.475555112504
 31
0.0
  0
ARC
  5
157D5
330
747D
100
AcDbEntity
  8
細線
 48
0.2
100
AcDbCircle
 10
5606.658080826662
 20
3403.975555112502
 30
0.0
 40
18.49999999999796
100
AcDbArc
 50
253.3984504009772
 51
286.6015495990217
  0
LINE
  5
157D6
330
747D
100
AcDbEntity
  8
細線
 48
0.2
100
AcDbLine
 10
5614.658080826662
 20
3389.675555112505
 30
0.0
 11
5594.658080826662
 21
3389.675555112506
 31
0.0
  0
LINE
  5
157D7
330
747D
100
AcDbEntity
  8
細線
 48
0.2
100
AcDbLine
 10
5614.658080826662
 20
3387.175555112504
 30
0.0
 11
5594.658080826662
 21
3387.175555112504
 31
0.0
  0
LINE
  5
15828
330
747D
100
AcDbEntity
  8
部品1
100
AcDbLine
 10
4884.720528655344
 20
5178.425555112488
 30
0.0
 11
5594.658080826661
 21
5178.425555112488
 31
0.0
  0
LINE
  5
15829
330
747D
100
AcDbEntity
  8
部品1
100
AcDbLine
 10
5614.658080826663
 20
5178.425555112488
 30
0.0
 11
5614.720528655343
 21
5178.425555112486
 31
0.0
  0
ARC
  5
1582A
330
747D
100
AcDbEntity
  8
細線
 48
0.2
100
AcDbCircle
 10
5611.658080826662
 20
5178.646064943736
 30
0.0
 40
1.0
100
AcDbArc
 50
0.0
 51
73.39845040097829
  0
LINE
  5
1582B
330
747D
100
AcDbEntity
  8
細線
 48
50.0
100
AcDbLine
 10
5594.658080826661
 20
5178.425555112488
 30
0.0
 11
5594.658080826661
 21
5178.675555112488
 31
0.0
  0
ARC
  5
1582C
330
747D
100
AcDbEntity
  8
細線
 48
0.2
100
AcDbCircle
 10
5601.658080826662
 20
5178.646064943736
 30
0.0
 40
1.0
100
AcDbArc
 50
106.6015495990225
 51
180.0000000000016
  0
LINE
  5
1582D
330
747D
100
AcDbEntity
  8
細線
 48
0.2
100
AcDbLine
 10
5614.658080826662
 20
5178.675555112488
 30
0.0
 11
5594.658080826662
 21
5178.675555112488
 31
0.0
  0
LINE
  5
1582E
330
747D
100
AcDbEntity
  8
細線
 48
0.2
100
AcDbLine
 10
5614.658080826662
 20
5176.175555112488
 30
0.0
 11
5594.658080826662
 21
5176.175555112488
 31
0.0
  0
ARC
  5
1582F
330
747D
100
AcDbEntity
  8
細線
 48
0.2
100
AcDbCircle
 10
5606.658080826662
 20
5161.875555112491
 30
0.0
 40
18.49999999999796
100
AcDbArc
 50
73.39845040097829
 51
106.6015495990228
  0
LINE
  5
15830
330
747D
100
AcDbEntity
  8
細線
 48
0.2
100
AcDbLine
 10
5612.342072123169
 20
5179.375555112489
 30
0.0
 11
5600.974089530158
 21
5179.375555112489
 31
0.0
  0
LINE
  5
15831
330
747D
100
AcDbEntity
  8
細線
 48
0.2
100
AcDbLine
 10
5614.658080826662
 20
5174.175555112488
 30
0.0
 11
5594.658080826662
 21
5174.175555112488
 31
0.0
  0
LINE
  5
15832
330
747D
100
AcDbEntity
  8
部品1
 48
0.2
100
AcDbLine
 10
5614.658080826662
 20
5171.675555112488
 30
0.0
 11
5594.658080826661
 21
5171.675555112488
 31
0.0
  0
LINE
  5
15833
330
747D
100
AcDbEntity
  8
部品1
 48
50.0
100
AcDbLine
 10
5594.658080826661
 20
5171.675555112488
 30
0.0
 11
5594.658080826661
 21
5178.425555112488
 31
0.0
  0
LINE
  5
15834
330
747D
100
AcDbEntity
  8
細線
 48
50.0
100
AcDbLine
 10
5602.795323632358
 20
5176.175555112488
 30
0.0
 11
5602.795323632359
 21
5174.175555112488
 31
0.0
  0
LINE
  5
15835
330
747D
100
AcDbEntity
  8
細線
 48
0.1
100
AcDbLine
 10
5614.658080826662
 20
5178.675555112488
 30
0.0
 11
5614.658080826662
 21
5171.675555112488
 31
0.0
  0
LINE
  5
15836
330
747D
100
AcDbEntity
  8
細線
 48
50.0
100
AcDbLine
 10
5610.645733678322
 20
5176.175555112488
 30
0.0
 11
5610.645733678322
 21
5174.175555112488
 31
0.0
  0
LINE
  5
15851
330
747D
100
AcDbEntity
  8
部品1
100
AcDbLine
 10
6696.720528655344
 20
5180.925555112486
 30
0.0
 11
6696.720528655344
 21
3383.925555112507
 31
0.0
  0
LINE
  5
15852
330
747D
100
AcDbEntity
  8
部品1
100
AcDbLine
 10
6564.720528655342
 20
5178.425555112486
 30
0.0
 11
6564.720528655344
 21
3387.425555112508
 31
0.0
  0
LINE
  5
15853
330
747D
100
AcDbEntity
  8
部品1
100
AcDbLine
 10
6566.720528655344
 20
5180.925555112486
 30
0.0
 11
6566.720528655344
 21
3383.925555112507
 31
0.0
  0
LINE
  5
15854
330
747D
100
AcDbEntity
  8
部品1
100
AcDbLine
 10
6782.720528655343
 20
5180.925555112486
 30
0.0
 11
6782.720528655343
 21
3383.925555112507
 31
0.0
  0
LINE
  5
15855
330
747D
100
AcDbEntity
  8
部品1
100
AcDbLine
 10
6784.720528655343
 20
5178.425555112484
 30
0.0
 11
6784.720528655343
 21
3387.425555112501
 31
0.0
  0
LINE
  5
15856
330
747D
100
AcDbEntity
  8
部品1
100
AcDbLine
 10
7514.720528655342
 20
5178.425555112486
 30
0.0
 11
7514.720528655344
 21
3387.425555112508
 31
0.0
  0
LINE
  5
15857
330
747D
100
AcDbEntity
  8
部品1
100
AcDbLine
 10
7689.720528655342
 20
5274.925555112488
 30
0.0
 11
7689.720528655344
 21
3240.925555112486
 31
0.0
  0
LINE
  5
15858
330
747D
100
AcDbEntity
  8
部品1
100
AcDbLine
 10
7646.720528655343
 20
5180.925555112486
 30
0.0
 11
7646.720528655343
 21
3383.925555112507
 31
0.0
  0
LINE
  5
15859
330
747D
100
AcDbEntity
  8
部品1
100
AcDbLine
 10
7516.720528655344
 20
5180.925555112486
 30
0.0
 11
7516.720528655344
 21
3383.925555112507
 31
0.0
  0
LINE
  5
1585A
330
747D
100
AcDbEntity
  8
部品1
100
AcDbLine
 10
6784.720528655343
 20
3387.4255551125
 30
0.0
 11
7494.658080826662
 21
3387.425555112505
 31
0.0
  0
LINE
  5
1585C
330
747D
100
AcDbEntity
  8
細線
 48
0.2
100
AcDbLine
 10
6564.658080826662
 20
3391.675555112505
 30
0.0
 11
6544.658080826663
 21
3391.675555112505
 31
0.0
  0
LINE
  5
1585D
330
747D
100
AcDbEntity
  8
部品1
 48
0.2
100
AcDbLine
 10
6564.658080826662
 20
3394.175555112504
 30
0.0
 11
6544.658080826661
 21
3394.175555112504
 31
0.0
  0
LINE
  5
1585E
330
747D
100
AcDbEntity
  8
部品1
100
AcDbLine
 10
6564.658080826664
 20
3387.425555112506
 30
0.0
 11
6564.720528655342
 21
3387.425555112506
 31
0.0
  0
ARC
  5
1585F
330
747D
100
AcDbEntity
  8
細線
 48
0.2
100
AcDbCircle
 10
6561.658080826662
 20
3387.205045281257
 30
0.0
 40
1.0
100
AcDbArc
 50
286.6015495990217
 51
0.0
  0
LINE
  5
15860
330
747D
100
AcDbEntity
  8
細線
 48
0.2
100
AcDbLine
 10
6564.658080826662
 20
3387.175555112504
 30
0.0
 11
6544.658080826663
 21
3387.175555112504
 31
0.0
  0
LINE
  5
15861
330
747D
100
AcDbEntity
  8
細線
 48
0.2
100
AcDbLine
 10
6564.658080826662
 20
3389.675555112505
 30
0.0
 11
6544.658080826663
 21
3389.675555112506
 31
0.0
  0
ARC
  5
15862
330
747D
100
AcDbEntity
  8
細線
 48
0.2
100
AcDbCircle
 10
6551.658080826662
 20
3387.205045281257
 30
0.0
 40
1.0
100
AcDbArc
 50
179.9999999999984
 51
253.3984504009775
  0
ARC
  5
15863
330
747D
100
AcDbEntity
  8
細線
 48
0.2
100
AcDbCircle
 10
6556.658080826662
 20
3403.975555112502
 30
0.0
 40
18.49999999999796
100
AcDbArc
 50
253.3984504009772
 51
286.6015495990217
  0
LINE
  5
15864
330
747D
100
AcDbEntity
  8
細線
 48
0.2
100
AcDbLine
 10
6562.342072123169
 20
3386.475555112504
 30
0.0
 11
6550.974089530157
 21
3386.475555112504
 31
0.0
  0
LINE
  5
15865
330
747D
100
AcDbEntity
  8
細線
 48
50.0
100
AcDbLine
 10
6544.658080826661
 20
3387.425555112506
 30
0.0
 11
6544.658080826661
 21
3387.175555112504
 31
0.0
  0
LINE
  5
15866
330
747D
100
AcDbEntity
  8
部品1
100
AcDbLine
 10
6564.658080826664
 20
3387.425555112506
 30
0.0
 11
6564.720528655342
 21
3387.425555112506
 31
0.0
  0
LINE
  5
15867
330
747D
100
AcDbEntity
  8
部品1
100
AcDbLine
 10
6564.658080826664
 20
3387.425555112508
 30
0.0
 11
6564.720528655342
 21
3387.425555112508
 31
0.0
  0
LINE
  5
15868
330
747D
100
AcDbEntity
  8
細線
 48
0.1
100
AcDbLine
 10
6564.658080826662
 20
3387.175555112504
 30
0.0
 11
6564.658080826662
 21
3394.175555112504
 31
0.0
  0
LINE
  5
15869
330
747D
100
AcDbEntity
  8
細線
 48
50.0
100
AcDbLine
 10
6552.795323632358
 20
3389.675555112506
 30
0.0
 11
6552.795323632359
 21
3391.675555112505
 31
0.0
  0
LINE
  5
1586A
330
747D
100
AcDbEntity
  8
細線
 48
50.0
100
AcDbLine
 10
6560.645733678322
 20
3389.675555112506
 30
0.0
 11
6560.645733678322
 21
3391.675555112505
 31
0.0
  0
LINE
  5
1586B
330
747D
100
AcDbEntity
  8
部品1
 48
50.0
100
AcDbLine
 10
6544.658080826661
 20
3394.175555112504
 30
0.0
 11
6544.658080826661
 21
3387.425555112506
 31
0.0
  0
LINE
  5
1586F
330
747D
100
AcDbEntity
  8
細線
 48
0.2
100
AcDbLine
 10
7514.658080826662
 20
3391.675555112505
 30
0.0
 11
7494.658080826663
 21
3391.675555112505
 31
0.0
  0
LINE
  5
15870
330
747D
100
AcDbEntity
  8
部品1
 48
0.2
100
AcDbLine
 10
7514.658080826662
 20
3394.175555112504
 30
0.0
 11
7494.658080826662
 21
3394.175555112504
 31
0.0
  0
LINE
  5
15871
330
747D
100
AcDbEntity
  8
部品1
100
AcDbLine
 10
7514.658080826663
 20
3387.425555112506
 30
0.0
 11
7514.720528655343
 21
3387.425555112506
 31
0.0
  0
ARC
  5
15872
330
747D
100
AcDbEntity
  8
細線
 48
0.2
100
AcDbCircle
 10
7511.658080826662
 20
3387.205045281257
 30
0.0
 40
1.0
100
AcDbArc
 50
286.6015495990217
 51
0.0
  0
LINE
  5
15873
330
747D
100
AcDbEntity
  8
細線
 48
0.2
100
AcDbLine
 10
7514.658080826662
 20
3387.175555112504
 30
0.0
 11
7494.658080826663
 21
3387.175555112504
 31
0.0
  0
LINE
  5
15874
330
747D
100
AcDbEntity
  8
細線
 48
0.2
100
AcDbLine
 10
7514.658080826662
 20
3389.675555112505
 30
0.0
 11
7494.658080826663
 21
3389.675555112506
 31
0.0
  0
ARC
  5
15875
330
747D
100
AcDbEntity
  8
細線
 48
0.2
100
AcDbCircle
 10
7501.658080826662
 20
3387.205045281257
 30
0.0
 40
1.0
100
AcDbArc
 50
179.9999999999984
 51
253.3984504009775
  0
ARC
  5
15876
330
747D
100
AcDbEntity
  8
細線
 48
0.2
100
AcDbCircle
 10
7506.658080826662
 20
3403.975555112502
 30
0.0
 40
18.49999999999796
100
AcDbArc
 50
253.3984504009772
 51
286.6015495990217
  0
LINE
  5
15877
330
747D
100
AcDbEntity
  8
細線
 48
0.2
100
AcDbLine
 10
7512.342072123169
 20
3386.475555112504
 30
0.0
 11
7500.974089530157
 21
3386.475555112504
 31
0.0
  0
LINE
  5
15878
330
747D
100
AcDbEntity
  8
細線
 48
50.0
100
AcDbLine
 10
7494.658080826662
 20
3387.425555112506
 30
0.0
 11
7494.658080826662
 21
3387.175555112504
 31
0.0
  0
LINE
  5
15879
330
747D
100
AcDbEntity
  8
部品1
100
AcDbLine
 10
7514.658080826663
 20
3387.425555112506
 30
0.0
 11
7514.720528655344
 21
3387.425555112506
 31
0.0
  0
LINE
  5
1587A
330
747D
100
AcDbEntity
  8
部品1
100
AcDbLine
 10
7514.658080826663
 20
3387.425555112508
 30
0.0
 11
7514.720528655344
 21
3387.425555112508
 31
0.0
  0
LINE
  5
1587B
330
747D
100
AcDbEntity
  8
細線
 48
0.1
100
AcDbLine
 10
7514.658080826662
 20
3387.175555112504
 30
0.0
 11
7514.658080826662
 21
3394.175555112504
 31
0.0
  0
LINE
  5
1587C
330
747D
100
AcDbEntity
  8
細線
 48
50.0
100
AcDbLine
 10
7502.795323632359
 20
3389.675555112506
 30
0.0
 11
7502.795323632359
 21
3391.675555112505
 31
0.0
  0
LINE
  5
1587D
330
747D
100
AcDbEntity
  8
細線
 48
50.0
100
AcDbLine
 10
7510.645733678322
 20
3389.675555112506
 30
0.0
 11
7510.645733678322
 21
3391.675555112505
 31
0.0
  0
LINE
  5
1587E
330
747D
100
AcDbEntity
  8
部品1
 48
50.0
100
AcDbLine
 10
7494.658080826662
 20
3394.175555112504
 30
0.0
 11
7494.658080826662
 21
3387.425555112506
 31
0.0
  0
LINE
  5
1587F
330
747D
100
AcDbEntity
  8
部品1
100
AcDbLine
 10
6784.720528655343
 20
5178.425555112484
 30
0.0
 11
7494.658080826662
 21
5178.425555112486
 31
0.0
  0
LINE
  5
158A7
330
747D
100
AcDbEntity
  8
部品1
100
AcDbLine
 10
6564.658080826664
 20
5178.425555112484
 30
0.0
 11
6564.720528655342
 21
5178.425555112486
 31
0.0
  0
LINE
  5
158A8
330
747D
100
AcDbEntity
  8
部品1
100
AcDbLine
 10
6564.658080826664
 20
5178.425555112488
 30
0.0
 11
6564.720528655342
 21
5178.425555112486
 31
0.0
  0
LINE
  5
158A9
330
747D
100
AcDbEntity
  8
細線
 48
50.0
100
AcDbLine
 10
6544.658080826661
 20
5178.425555112488
 30
0.0
 11
6544.658080826661
 21
5178.675555112488
 31
0.0
  0
LINE
  5
158AA
330
747D
100
AcDbEntity
  8
細線
 48
0.2
100
AcDbLine
 10
6562.342072123169
 20
5179.375555112489
 30
0.0
 11
6550.974089530157
 21
5179.375555112489
 31
0.0
  0
ARC
  5
158AB
330
747D
100
AcDbEntity
  8
細線
 48
0.2
100
AcDbCircle
 10
6556.658080826662
 20
5161.875555112491
 30
0.0
 40
18.49999999999796
100
AcDbArc
 50
73.39845040097829
 51
106.6015495990228
  0
ARC
  5
158AC
330
747D
100
AcDbEntity
  8
細線
 48
0.2
100
AcDbCircle
 10
6551.658080826662
 20
5178.646064943736
 30
0.0
 40
1.0
100
AcDbArc
 50
106.6015495990225
 51
180.0000000000016
  0
LINE
  5
158AD
330
747D
100
AcDbEntity
  8
細線
 48
0.2
100
AcDbLine
 10
6564.658080826662
 20
5176.175555112488
 30
0.0
 11
6544.658080826663
 21
5176.175555112488
 31
0.0
  0
LINE
  5
158AE
330
747D
100
AcDbEntity
  8
細線
 48
0.2
100
AcDbLine
 10
6564.658080826662
 20
5178.675555112488
 30
0.0
 11
6544.658080826663
 21
5178.675555112488
 31
0.0
  0
ARC
  5
158AF
330
747D
100
AcDbEntity
  8
細線
 48
0.2
100
AcDbCircle
 10
6561.658080826662
 20
5178.646064943736
 30
0.0
 40
1.0
100
AcDbArc
 50
0.0
 51
73.39845040097829
  0
LINE
  5
158B0
330
747D
100
AcDbEntity
  8
部品1
 48
0.2
100
AcDbLine
 10
6564.658080826662
 20
5171.675555112488
 30
0.0
 11
6544.658080826661
 21
5171.675555112488
 31
0.0
  0
LINE
  5
158B1
330
747D
100
AcDbEntity
  8
細線
 48
0.2
100
AcDbLine
 10
6564.658080826662
 20
5174.175555112488
 30
0.0
 11
6544.658080826663
 21
5174.175555112488
 31
0.0
  0
LINE
  5
158B2
330
747D
100
AcDbEntity
  8
部品1
 48
50.0
100
AcDbLine
 10
6544.658080826661
 20
5171.675555112488
 30
0.0
 11
6544.658080826661
 21
5178.425555112488
 31
0.0
  0
LINE
  5
158B3
330
747D
100
AcDbEntity
  8
細線
 48
50.0
100
AcDbLine
 10
6560.645733678322
 20
5176.175555112488
 30
0.0
 11
6560.645733678322
 21
5174.175555112488
 31
0.0
  0
LINE
  5
158B4
330
747D
100
AcDbEntity
  8
細線
 48
50.0
100
AcDbLine
 10
6552.795323632358
 20
5176.175555112488
 30
0.0
 11
6552.795323632359
 21
5174.175555112488
 31
0.0
  0
LINE
  5
158B5
330
747D
100
AcDbEntity
  8
細線
 48
0.1
100
AcDbLine
 10
6564.658080826662
 20
5178.675555112488
 30
0.0
 11
6564.658080826662
 21
5171.675555112488
 31
0.0
  0
LINE
  5
158B6
330
747D
100
AcDbEntity
  8
部品1
100
AcDbLine
 10
7514.658080826663
 20
5178.425555112484
 30
0.0
 11
7514.720528655344
 21
5178.425555112486
 31
0.0
  0
LINE
  5
158B7
330
747D
100
AcDbEntity
  8
部品1
100
AcDbLine
 10
7514.658080826663
 20
5178.425555112488
 30
0.0
 11
7514.720528655344
 21
5178.425555112486
 31
0.0
  0
LINE
  5
158B8
330
747D
100
AcDbEntity
  8
細線
 48
50.0
100
AcDbLine
 10
7494.658080826662
 20
5178.425555112488
 30
0.0
 11
7494.658080826662
 21
5178.675555112488
 31
0.0
  0
LINE
  5
158B9
330
747D
100
AcDbEntity
  8
細線
 48
0.2
100
AcDbLine
 10
7512.342072123169
 20
5179.375555112489
 30
0.0
 11
7500.974089530157
 21
5179.375555112489
 31
0.0
  0
ARC
  5
158BA
330
747D
100
AcDbEntity
  8
細線
 48
0.2
100
AcDbCircle
 10
7506.658080826662
 20
5161.875555112491
 30
0.0
 40
18.49999999999796
100
AcDbArc
 50
73.39845040097829
 51
106.6015495990228
  0
ARC
  5
158BB
330
747D
100
AcDbEntity
  8
細線
 48
0.2
100
AcDbCircle
 10
7501.658080826662
 20
5178.646064943736
 30
0.0
 40
1.0
100
AcDbArc
 50
106.6015495990225
 51
180.0000000000016
  0
LINE
  5
158BC
330
747D
100
AcDbEntity
  8
細線
 48
0.2
100
AcDbLine
 10
7514.658080826662
 20
5176.175555112488
 30
0.0
 11
7494.658080826663
 21
5176.175555112488
 31
0.0
  0
LINE
  5
158BD
330
747D
100
AcDbEntity
  8
細線
 48
0.2
100
AcDbLine
 10
7514.658080826662
 20
5178.675555112488
 30
0.0
 11
7494.658080826663
 21
5178.675555112488
 31
0.0
  0
ARC
  5
158BE
330
747D
100
AcDbEntity
  8
細線
 48
0.2
100
AcDbCircle
 10
7511.658080826662
 20
5178.646064943736
 30
0.0
 40
1.0
100
AcDbArc
 50
0.0
 51
73.39845040097829
  0
LINE
  5
158BF
330
747D
100
AcDbEntity
  8
部品1
 48
0.2
100
AcDbLine
 10
7514.658080826662
 20
5171.675555112488
 30
0.0
 11
7494.658080826662
 21
5171.675555112488
 31
0.0
  0
LINE
  5
158C0
330
747D
100
AcDbEntity
  8
細線
 48
0.2
100
AcDbLine
 10
7514.658080826662
 20
5174.175555112488
 30
0.0
 11
7494.658080826663
 21
5174.175555112488
 31
0.0
  0
LINE
  5
158C1
330
747D
100
AcDbEntity
  8
部品1
 48
50.0
100
AcDbLine
 10
7494.658080826662
 20
5171.675555112488
 30
0.0
 11
7494.658080826662
 21
5178.425555112488
 31
0.0
  0
LINE
  5
158C2
330
747D
100
AcDbEntity
  8
細線
 48
50.0
100
AcDbLine
 10
7510.645733678322
 20
5176.175555112488
 30
0.0
 11
7510.645733678322
 21
5174.175555112488
 31
0.0
  0
LINE
  5
158C3
330
747D
100
AcDbEntity
  8
細線
 48
50.0
100
AcDbLine
 10
7502.795323632359
 20
5176.175555112488
 30
0.0
 11
7502.795323632359
 21
5174.175555112488
 31
0.0
  0
LINE
  5
158C4
330
747D
100
AcDbEntity
  8
細線
 48
0.1
100
AcDbLine
 10
7514.658080826662
 20
5178.675555112488
 30
0.0
 11
7514.658080826662
 21
5171.675555112488
 31
0.0
  0
LINE
  5
15B55
330
747D
100
AcDbEntity
  8
細線
 48
50.0
100
AcDbLine
 10
5194.720528655341
 20
8153.714193327123
 30
0.0
 11
5194.720528655341
 21
8127.714193327086
 31
0.0
  0
LINE
  5
15B56
330
747D
100
AcDbEntity
  8
細線
 48
50.0
100
AcDbLine
 10
5234.720528655341
 20
8153.714193327123
 30
0.0
 11
5234.720528655341
 21
8127.714193327086
 31
0.0
  0
LINE
  5
15B57
330
747D
100
AcDbEntity
  8
細線
 48
50.0
100
AcDbLine
 10
5008.720528655342
 20
8153.714193327134
 30
0.0
 11
5008.720528655342
 21
8127.714193327086
 31
0.0
  0
LINE
  5
15B58
330
747D
100
AcDbEntity
  8
細線
 48
50.0
100
AcDbLine
 10
5461.720528655342
 20
8153.714193327337
 30
0.0
 11
5461.720528655342
 21
8127.714193327301
 31
0.0
  0
LINE
  5
15B59
330
747D
100
AcDbEntity
  8
細線
 48
50.0
100
AcDbLine
 10
5421.720528655342
 20
8153.714193327337
 30
0.0
 11
5421.720528655342
 21
8127.714193327301
 31
0.0
  0
LINE
  5
15B5A
330
747D
100
AcDbEntity
  8
細線
 48
50.0
100
AcDbLine
 10
5958.720528655342
 20
8153.714193327134
 30
0.0
 11
5958.720528655342
 21
8127.714193327086
 31
0.0
  0
LINE
  5
15B5B
330
747D
100
AcDbEntity
  8
細線
 48
50.0
100
AcDbLine
 10
6184.720528655342
 20
8153.714193327123
 30
0.0
 11
6184.720528655342
 21
8127.714193327086
 31
0.0
  0
LINE
  5
15B5C
330
747D
100
AcDbEntity
  8
細線
 48
50.0
100
AcDbLine
 10
6144.720528655342
 20
8153.714193327123
 30
0.0
 11
6144.720528655342
 21
8127.714193327086
 31
0.0
  0
LINE
  5
15B5D
330
747D
100
AcDbEntity
  8
細線
 48
50.0
100
AcDbLine
 10
6371.720528655341
 20
8153.714193327337
 30
0.0
 11
6371.720528655341
 21
8127.714193327301
 31
0.0
  0
LINE
  5
15B5E
330
747D
100
AcDbEntity
  8
細線
 48
50.0
100
AcDbLine
 10
6411.720528655341
 20
8153.714193327337
 30
0.0
 11
6411.720528655341
 21
8127.714193327301
 31
0.0
  0
LINE
  5
15B5F
330
747D
100
AcDbEntity
  8
細線
 48
50.0
100
AcDbLine
 10
6908.720528655341
 20
8153.714193327134
 30
0.0
 11
6908.720528655341
 21
8127.714193327086
 31
0.0
  0
LINE
  5
15B60
330
747D
100
AcDbEntity
  8
細線
 48
50.0
100
AcDbLine
 10
7094.720528655341
 20
8153.714193327123
 30
0.0
 11
7094.720528655341
 21
8127.714193327086
 31
0.0
  0
LINE
  5
15B61
330
747D
100
AcDbEntity
  8
細線
 48
50.0
100
AcDbLine
 10
7134.720528655342
 20
8153.714193327123
 30
0.0
 11
7134.720528655342
 21
8127.714193327086
 31
0.0
  0
LINE
  5
15B62
330
747D
100
AcDbEntity
  8
細線
 48
50.0
100
AcDbLine
 10
7361.720528655341
 20
8153.714193327337
 30
0.0
 11
7361.720528655341
 21
8127.714193327301
 31
0.0
  0
LINE
  5
15B63
330
747D
100
AcDbEntity
  8
細線
 48
50.0
100
AcDbLine
 10
7321.720528655342
 20
8153.714193327337
 30
0.0
 11
7321.720528655342
 21
8127.714193327301
 31
0.0
  0
LINE
  5
15BA9
330
747D
100
AcDbEntity
  8
部品1
100
AcDbLine
 10
4956.720528655344
 20
4228.925555112486
 30
0.0
 11
4956.720528655344
 21
4336.925555112485
 31
0.0
  0
LINE
  5
15BAA
330
747D
100
AcDbEntity
  8
細線
100
AcDbLine
 10
4955.220528655344
 20
4229.925555112486
 30
0.0
 11
4955.220528655344
 21
4335.925555112486
 31
0.0
  0
LINE
  5
15BAB
330
747D
100
AcDbEntity
  8
細線
100
AcDbLine
 10
4950.720528655343
 20
4238.925555112486
 30
0.0
 11
4950.720528655343
 21
4326.925555112486
 31
0.0
  0
ARC
  5
15BAC
330
747D
100
AcDbEntity
  8
細線
100
AcDbCircle
 10
4636.117746747419
 20
4282.925555112486
 30
0.0
 40
294.0
100
AcDbArc
 50
351.900449161722
 51
8.099550838278029
  0
ARC
  5
15BAD
330
747D
100
AcDbEntity
  8
細線
100
AcDbCircle
 10
5198.720528655343
 20
4282.925555112486
 30
0.0
 40
294.0
100
AcDbArc
 50
171.212062677364
 51
188.7879373226359
  0
ARC
  5
15BAE
330
747D
100
AcDbEntity
  8
細線
100
AcDbCircle
 10
5198.720528655343
 20
4282.925555112486
 30
0.0
 40
298.5
100
AcDbArc
 50
169.578549027269
 51
190.4214509727309
  0
ARC
  5
15BAF
330
747D
100
AcDbEntity
  8
部品1
100
AcDbCircle
 10
5198.720528655343
 20
4282.925555112486
 30
0.0
 40
300.0
100
AcDbArc
 50
169.4161974034894
 51
190.5838025965105
  0
LINE
  5
15BB0
330
747D
100
AcDbEntity
  8
細線
100
AcDbLine
 10
4922.720528655343
 20
4332.925555112486
 30
0.0
 11
4922.720528655343
 21
4232.925555112486
 31
0.0
  0
LINE
  5
15BB1
330
747D
100
AcDbEntity
  8
細線
100
AcDbLine
 10
4940.928067834089
 20
4241.925555112486
 30
0.0
 11
4940.928067834089
 21
4323.925555112486
 31
0.0
  0
ARC
  5
15BB2
330
747D
100
AcDbEntity
  8
細線
100
AcDbCircle
 10
4944.720528655343
 20
4238.925555112486
 30
0.0
 40
6.0
100
AcDbArc
 50
270.0
 51
0.0
  0
LINE
  5
15BB3
330
747D
100
AcDbEntity
  8
細線
100
AcDbLine
 10
4914.101485019821
 20
4232.925555112486
 30
0.0
 11
4944.720528655343
 21
4232.925555112486
 31
0.0
  0
ARC
  5
15BB4
330
747D
100
AcDbEntity
  8
細線
100
AcDbCircle
 10
4934.928067834089
 20
4241.925555112486
 30
0.0
 40
6.0
100
AcDbArc
 50
270.0
 51
360.0
  0
LINE
  5
15BB5
330
747D
100
AcDbEntity
  8
細線
100
AcDbLine
 10
4922.720528655343
 20
4235.925555112486
 30
0.0
 11
4934.928067834089
 21
4235.925555112486
 31
0.0
  0
ARC
  5
15BB6
330
747D
100
AcDbEntity
  8
細線
100
AcDbCircle
 10
4924.214952565178
 20
4241.925555112486
 30
0.0
 40
3.0
100
AcDbArc
 50
270.0
 51
351.9004491617184
  0
LINE
  5
15BB7
330
747D
100
AcDbEntity
  8
細線
100
AcDbLine
 10
4922.720528655343
 20
4238.925555112486
 30
0.0
 11
4924.214952565178
 21
4238.925555112486
 31
0.0
  0
ARC
  5
15BB8
330
747D
100
AcDbEntity
  8
部品1
100
AcDbCircle
 10
4950.720528655343
 20
4228.925555112486
 30
0.0
 40
6.0
100
AcDbArc
 50
270.0
 51
0.0
  0
ARC
  5
15BB9
330
747D
100
AcDbEntity
  8
細線
100
AcDbCircle
 10
4949.720528655344
 20
4229.925555112486
 30
0.0
 40
5.5
100
AcDbArc
 50
270.0
 51
0.0
  0
ARC
  5
15BBA
330
747D
100
AcDbEntity
  8
細線
100
AcDbCircle
 10
4910.553910186098
 20
4229.925555112486
 30
0.0
 40
5.5
100
AcDbArc
 50
190.4214509727298
 51
269.9999999999997
  0
ARC
  5
15BBB
330
747D
100
AcDbEntity
  8
部品1
100
AcDbCircle
 10
4909.722258764328
 20
4228.925555112486
 30
0.0
 40
6.0
100
AcDbArc
 50
190.5838025965097
 51
270.0
  0
LINE
  5
15BBC
330
747D
100
AcDbEntity
  8
部品1
100
AcDbLine
 10
4909.722258764328
 20
4222.925555112486
 30
0.0
 11
4950.720528655343
 21
4222.925555112486
 31
0.0
  0
LINE
  5
15BBD
330
747D
100
AcDbEntity
  8
細線
100
AcDbLine
 10
4910.553910186098
 20
4224.425555112485
 30
0.0
 11
4949.720528655344
 21
4224.425555112485
 31
0.0
  0
LINE
  5
15BBE
330
747D
100
AcDbEntity
  8
細線
100
AcDbLine
 10
4922.720528655343
 20
4238.926063011049
 30
0.0
 11
4909.241824156521
 21
4238.926063011049
 31
0.0
  0
ARC
  5
15BBF
330
747D
100
AcDbEntity
  8
細線
100
AcDbCircle
 10
4914.101485019821
 20
4238.925555112486
 30
0.0
 40
6.0
100
AcDbArc
 50
188.7879373226349
 51
270.0
  0
CIRCLE
  5
15BC0
330
747D
100
AcDbEntity
  8
細線
 48
50.0
100
AcDbCircle
 10
4930.221393709837
 20
4383.425555112486
 30
0.0
 40
20.0
  0
CIRCLE
  5
15BC1
330
747D
100
AcDbEntity
  8
細線
 48
50.0
100
AcDbCircle
 10
4930.221393709837
 20
4383.425555112486
 30
0.0
 40
10.0
  0
ARC
  5
15BC2
330
747D
100
AcDbEntity
  8
細線
100
AcDbCircle
 10
4944.720528655343
 20
4326.925555112486
 30
0.0
 40
6.0
100
AcDbArc
 50
0.0
 51
90.0
  0
LINE
  5
15BC3
330
747D
100
AcDbEntity
  8
細線
100
AcDbLine
 10
4944.720528655343
 20
4332.925555112486
 30
0.0
 11
4914.101485019821
 21
4332.925555112486
 31
0.0
  0
ARC
  5
15BC4
330
747D
100
AcDbEntity
  8
細線
100
AcDbCircle
 10
4934.928067834089
 20
4323.925555112486
 30
0.0
 40
6.0
100
AcDbArc
 50
0.0
 51
90.0
  0
LINE
  5
15BC5
330
747D
100
AcDbEntity
  8
細線
100
AcDbLine
 10
4934.928067834089
 20
4329.925555112486
 30
0.0
 11
4922.720528655343
 21
4329.925555112486
 31
0.0
  0
ARC
  5
15BC6
330
747D
100
AcDbEntity
  8
細線
100
AcDbCircle
 10
4924.214952565177
 20
4323.925555112486
 30
0.0
 40
3.0
100
AcDbArc
 50
8.099550838277986
 51
90.0
  0
LINE
  5
15BC7
330
747D
100
AcDbEntity
  8
細線
100
AcDbLine
 10
4924.214952565177
 20
4326.925555112486
 30
0.0
 11
4922.720528655343
 21
4326.925555112486
 31
0.0
  0
ARC
  5
15BC8
330
747D
100
AcDbEntity
  8
部品1
100
AcDbCircle
 10
4950.720528655343
 20
4336.925555112485
 30
0.0
 40
6.0
100
AcDbArc
 50
0.0
 51
90.0
  0
ARC
  5
15BC9
330
747D
100
AcDbEntity
  8
細線
100
AcDbCircle
 10
4949.720528655344
 20
4335.925555112486
 30
0.0
 40
5.5
100
AcDbArc
 50
0.0
 51
90.0
  0
ARC
  5
15BCA
330
747D
100
AcDbEntity
  8
細線
100
AcDbCircle
 10
4910.553910186098
 20
4335.925555112486
 30
0.0
 40
5.5
100
AcDbArc
 50
89.99999999999969
 51
169.5785490272683
  0
ARC
  5
15BCB
330
747D
100
AcDbEntity
  8
部品1
100
AcDbCircle
 10
4909.722258764328
 20
4336.925555112485
 30
0.0
 40
6.0
100
AcDbArc
 50
90.0
 51
169.4161974034886
  0
LINE
  5
15BCC
330
747D
100
AcDbEntity
  8
部品1
100
AcDbLine
 10
4950.720528655343
 20
4342.925555112485
 30
0.0
 11
4909.722258764328
 21
4342.925555112485
 31
0.0
  0
LINE
  5
15BCD
330
747D
100
AcDbEntity
  8
細線
100
AcDbLine
 10
4949.720528655344
 20
4341.425555112485
 30
0.0
 11
4910.553910186098
 21
4341.425555112485
 31
0.0
  0
LINE
  5
15BCE
330
747D
100
AcDbEntity
  8
細線
100
AcDbLine
 10
4922.720528655343
 20
4326.925047213925
 30
0.0
 11
4909.957201439376
 21
4326.925047213925
 31
0.0
  0
ARC
  5
15BCF
330
747D
100
AcDbEntity
  8
細線
100
AcDbCircle
 10
4914.101485019821
 20
4326.925555112486
 30
0.0
 40
6.0
100
AcDbArc
 50
90.0
 51
171.2120626773636
  0
LINE
  5
15BD0
330
747D
100
AcDbEntity
  8
部品1
100
AcDbLine
 10
5906.720528655344
 20
4228.925555112486
 30
0.0
 11
5906.720528655344
 21
4336.925555112485
 31
0.0
  0
LINE
  5
15BD1
330
747D
100
AcDbEntity
  8
細線
100
AcDbLine
 10
5905.220528655344
 20
4229.925555112486
 30
0.0
 11
5905.220528655344
 21
4335.925555112486
 31
0.0
  0
LINE
  5
15BD2
330
747D
100
AcDbEntity
  8
細線
100
AcDbLine
 10
5900.720528655344
 20
4238.925555112486
 30
0.0
 11
5900.720528655344
 21
4326.925555112486
 31
0.0
  0
ARC
  5
15BD3
330
747D
100
AcDbEntity
  8
細線
100
AcDbCircle
 10
5586.117746747419
 20
4282.925555112486
 30
0.0
 40
294.0
100
AcDbArc
 50
351.900449161722
 51
8.099550838278029
  0
ARC
  5
15BD4
330
747D
100
AcDbEntity
  8
細線
100
AcDbCircle
 10
6148.720528655344
 20
4282.925555112486
 30
0.0
 40
294.0
100
AcDbArc
 50
171.212062677364
 51
188.7879373226359
  0
ARC
  5
15BD5
330
747D
100
AcDbEntity
  8
細線
100
AcDbCircle
 10
6148.720528655344
 20
4282.925555112486
 30
0.0
 40
298.5
100
AcDbArc
 50
169.578549027269
 51
190.4214509727309
  0
ARC
  5
15BD6
330
747D
100
AcDbEntity
  8
部品1
100
AcDbCircle
 10
6148.720528655344
 20
4282.925555112486
 30
0.0
 40
300.0
100
AcDbArc
 50
169.4161974034894
 51
190.5838025965105
  0
LINE
  5
15BD7
330
747D
100
AcDbEntity
  8
細線
100
AcDbLine
 10
5872.720528655343
 20
4332.925555112486
 30
0.0
 11
5872.720528655343
 21
4232.925555112486
 31
0.0
  0
LINE
  5
15BD8
330
747D
100
AcDbEntity
  8
細線
100
AcDbLine
 10
5890.928067834089
 20
4241.925555112486
 30
0.0
 11
5890.928067834089
 21
4323.925555112486
 31
0.0
  0
ARC
  5
15BD9
330
747D
100
AcDbEntity
  8
細線
100
AcDbCircle
 10
5860.553910186098
 20
4229.925555112486
 30
0.0
 40
5.5
100
AcDbArc
 50
190.4214509727298
 51
269.9999999999997
  0
ARC
  5
15BDA
330
747D
100
AcDbEntity
  8
部品1
100
AcDbCircle
 10
5859.722258764328
 20
4228.925555112486
 30
0.0
 40
6.0
100
AcDbArc
 50
190.5838025965097
 51
270.0
  0
ARC
  5
15BDB
330
747D
100
AcDbEntity
  8
細線
100
AcDbCircle
 10
5864.101485019821
 20
4238.925555112486
 30
0.0
 40
6.0
100
AcDbArc
 50
188.7879373226349
 51
270.0
  0
ARC
  5
15BDC
330
747D
100
AcDbEntity
  8
細線
100
AcDbCircle
 10
5894.720528655343
 20
4238.925555112486
 30
0.0
 40
6.0
100
AcDbArc
 50
270.0
 51
0.0
  0
LINE
  5
15BDD
330
747D
100
AcDbEntity
  8
細線
100
AcDbLine
 10
5864.101485019821
 20
4232.925555112486
 30
0.0
 11
5894.720528655343
 21
4232.925555112486
 31
0.0
  0
ARC
  5
15BDE
330
747D
100
AcDbEntity
  8
細線
100
AcDbCircle
 10
5884.928067834089
 20
4241.925555112486
 30
0.0
 40
6.0
100
AcDbArc
 50
270.0
 51
360.0
  0
LINE
  5
15BDF
330
747D
100
AcDbEntity
  8
細線
100
AcDbLine
 10
5872.720528655343
 20
4235.925555112486
 30
0.0
 11
5884.928067834089
 21
4235.925555112486
 31
0.0
  0
ARC
  5
15BE0
330
747D
100
AcDbEntity
  8
細線
100
AcDbCircle
 10
5874.214952565179
 20
4241.925555112486
 30
0.0
 40
3.0
100
AcDbArc
 50
270.0
 51
351.9004491617184
  0
LINE
  5
15BE1
330
747D
100
AcDbEntity
  8
細線
100
AcDbLine
 10
5872.720528655343
 20
4238.925555112486
 30
0.0
 11
5874.214952565179
 21
4238.925555112486
 31
0.0
  0
ARC
  5
15BE2
330
747D
100
AcDbEntity
  8
部品1
100
AcDbCircle
 10
5900.720528655344
 20
4228.925555112486
 30
0.0
 40
6.0
100
AcDbArc
 50
270.0
 51
0.0
  0
ARC
  5
15BE3
330
747D
100
AcDbEntity
  8
細線
100
AcDbCircle
 10
5899.720528655343
 20
4229.925555112486
 30
0.0
 40
5.5
100
AcDbArc
 50
270.0
 51
0.0
  0
LINE
  5
15BE4
330
747D
100
AcDbEntity
  8
部品1
100
AcDbLine
 10
5859.722258764328
 20
4222.925555112486
 30
0.0
 11
5900.720528655344
 21
4222.925555112486
 31
0.0
  0
LINE
  5
15BE5
330
747D
100
AcDbEntity
  8
細線
100
AcDbLine
 10
5860.553910186098
 20
4224.425555112485
 30
0.0
 11
5899.720528655343
 21
4224.425555112485
 31
0.0
  0
LINE
  5
15BE6
330
747D
100
AcDbEntity
  8
細線
100
AcDbLine
 10
5872.720528655343
 20
4238.926063011049
 30
0.0
 11
5859.241824156521
 21
4238.926063011049
 31
0.0
  0
ARC
  5
15BE7
330
747D
100
AcDbEntity
  8
細線
100
AcDbCircle
 10
5860.553910186098
 20
4335.925555112486
 30
0.0
 40
5.5
100
AcDbArc
 50
89.99999999999969
 51
169.5785490272683
  0
ARC
  5
15BE8
330
747D
100
AcDbEntity
  8
部品1
100
AcDbCircle
 10
5859.722258764328
 20
4336.925555112485
 30
0.0
 40
6.0
100
AcDbArc
 50
90.0
 51
169.4161974034886
  0
ARC
  5
15BE9
330
747D
100
AcDbEntity
  8
細線
100
AcDbCircle
 10
5864.101485019821
 20
4326.925555112486
 30
0.0
 40
6.0
100
AcDbArc
 50
90.0
 51
171.2120626773636
  0
CIRCLE
  5
15BEA
330
747D
100
AcDbEntity
  8
細線
 48
50.0
100
AcDbCircle
 10
5880.221393709837
 20
4383.425555112486
 30
0.0
 40
20.0
  0
CIRCLE
  5
15BEB
330
747D
100
AcDbEntity
  8
細線
 48
50.0
100
AcDbCircle
 10
5880.221393709837
 20
4383.425555112486
 30
0.0
 40
10.0
  0
ARC
  5
15BEC
330
747D
100
AcDbEntity
  8
細線
100
AcDbCircle
 10
5894.720528655343
 20
4326.925555112486
 30
0.0
 40
6.0
100
AcDbArc
 50
0.0
 51
90.0
  0
LINE
  5
15BED
330
747D
100
AcDbEntity
  8
細線
100
AcDbLine
 10
5894.720528655343
 20
4332.925555112486
 30
0.0
 11
5864.101485019821
 21
4332.925555112486
 31
0.0
  0
ARC
  5
15BEE
330
747D
100
AcDbEntity
  8
細線
100
AcDbCircle
 10
5884.928067834089
 20
4323.925555112486
 30
0.0
 40
6.0
100
AcDbArc
 50
0.0
 51
90.0
  0
LINE
  5
15BEF
330
747D
100
AcDbEntity
  8
細線
100
AcDbLine
 10
5884.928067834089
 20
4329.925555112486
 30
0.0
 11
5872.720528655343
 21
4329.925555112486
 31
0.0
  0
ARC
  5
15BF0
330
747D
100
AcDbEntity
  8
細線
100
AcDbCircle
 10
5874.214952565177
 20
4323.925555112486
 30
0.0
 40
3.0
100
AcDbArc
 50
8.099550838277986
 51
90.0
  0
LINE
  5
15BF1
330
747D
100
AcDbEntity
  8
細線
100
AcDbLine
 10
5874.214952565177
 20
4326.925555112486
 30
0.0
 11
5872.720528655343
 21
4326.925555112486
 31
0.0
  0
ARC
  5
15BF2
330
747D
100
AcDbEntity
  8
部品1
100
AcDbCircle
 10
5900.720528655344
 20
4336.925555112485
 30
0.0
 40
6.0
100
AcDbArc
 50
0.0
 51
90.0
  0
ARC
  5
15BF3
330
747D
100
AcDbEntity
  8
細線
100
AcDbCircle
 10
5899.720528655343
 20
4335.925555112486
 30
0.0
 40
5.5
100
AcDbArc
 50
0.0
 51
90.0
  0
LINE
  5
15BF4
330
747D
100
AcDbEntity
  8
部品1
100
AcDbLine
 10
5900.720528655344
 20
4342.925555112485
 30
0.0
 11
5859.722258764328
 21
4342.925555112485
 31
0.0
  0
LINE
  5
15BF5
330
747D
100
AcDbEntity
  8
細線
100
AcDbLine
 10
5899.720528655343
 20
4341.425555112485
 30
0.0
 11
5860.553910186098
 21
4341.425555112485
 31
0.0
  0
LINE
  5
15BF6
330
747D
100
AcDbEntity
  8
細線
100
AcDbLine
 10
5872.720528655343
 20
4326.925047213925
 30
0.0
 11
5859.957201439376
 21
4326.925047213925
 31
0.0
  0
LINE
  5
15BF7
330
747D
100
AcDbEntity
  8
細線
100
AcDbLine
 10
6840.928067834089
 20
4241.925555112486
 30
0.0
 11
6840.928067834089
 21
4323.925555112486
 31
0.0
  0
LINE
  5
15BF8
330
747D
100
AcDbEntity
  8
細線
100
AcDbLine
 10
6822.720528655344
 20
4332.925555112486
 30
0.0
 11
6822.720528655344
 21
4232.925555112486
 31
0.0
  0
ARC
  5
15BF9
330
747D
100
AcDbEntity
  8
部品1
100
AcDbCircle
 10
7098.720528655343
 20
4282.925555112486
 30
0.0
 40
300.0
100
AcDbArc
 50
169.4161974034894
 51
190.5838025965105
  0
ARC
  5
15BFA
330
747D
100
AcDbEntity
  8
細線
100
AcDbCircle
 10
7098.720528655343
 20
4282.925555112486
 30
0.0
 40
298.5
100
AcDbArc
 50
169.578549027269
 51
190.4214509727309
  0
ARC
  5
15BFB
330
747D
100
AcDbEntity
  8
細線
100
AcDbCircle
 10
7098.720528655343
 20
4282.925555112486
 30
0.0
 40
294.0
100
AcDbArc
 50
171.212062677364
 51
188.7879373226359
  0
ARC
  5
15BFC
330
747D
100
AcDbEntity
  8
細線
100
AcDbCircle
 10
6536.117746747419
 20
4282.925555112486
 30
0.0
 40
294.0
100
AcDbArc
 50
351.900449161722
 51
8.099550838278029
  0
LINE
  5
15BFD
330
747D
100
AcDbEntity
  8
細線
100
AcDbLine
 10
6850.720528655344
 20
4238.925555112486
 30
0.0
 11
6850.720528655344
 21
4326.925555112486
 31
0.0
  0
LINE
  5
15BFE
330
747D
100
AcDbEntity
  8
細線
100
AcDbLine
 10
6855.220528655343
 20
4229.925555112486
 30
0.0
 11
6855.220528655343
 21
4335.925555112486
 31
0.0
  0
LINE
  5
15BFF
330
747D
100
AcDbEntity
  8
部品1
100
AcDbLine
 10
6856.720528655343
 20
4228.925555112486
 30
0.0
 11
6856.720528655343
 21
4336.925555112485
 31
0.0
  0
LINE
  5
15C00
330
747D
100
AcDbEntity
  8
細線
100
AcDbLine
 10
6810.553910186098
 20
4224.425555112485
 30
0.0
 11
6849.720528655343
 21
4224.425555112485
 31
0.0
  0
LINE
  5
15C01
330
747D
100
AcDbEntity
  8
部品1
100
AcDbLine
 10
6809.722258764328
 20
4222.925555112486
 30
0.0
 11
6850.720528655344
 21
4222.925555112486
 31
0.0
  0
LINE
  5
15C02
330
747D
100
AcDbEntity
  8
細線
100
AcDbLine
 10
6814.10148501982
 20
4232.925555112486
 30
0.0
 11
6844.720528655344
 21
4232.925555112486
 31
0.0
  0
LINE
  5
15C03
330
747D
100
AcDbEntity
  8
細線
100
AcDbLine
 10
6822.720528655344
 20
4238.926063011049
 30
0.0
 11
6809.241824156521
 21
4238.926063011049
 31
0.0
  0
LINE
  5
15C04
330
747D
100
AcDbEntity
  8
細線
100
AcDbLine
 10
6822.720528655344
 20
4238.925555112486
 30
0.0
 11
6824.214952565178
 21
4238.925555112486
 31
0.0
  0
ARC
  5
15C05
330
747D
100
AcDbEntity
  8
細線
100
AcDbCircle
 10
6824.214952565178
 20
4241.925555112486
 30
0.0
 40
3.0
100
AcDbArc
 50
270.0
 51
351.9004491617184
  0
LINE
  5
15C06
330
747D
100
AcDbEntity
  8
細線
100
AcDbLine
 10
6822.720528655344
 20
4235.925555112486
 30
0.0
 11
6834.928067834089
 21
4235.925555112486
 31
0.0
  0
ARC
  5
15C07
330
747D
100
AcDbEntity
  8
細線
100
AcDbCircle
 10
6834.928067834089
 20
4241.925555112486
 30
0.0
 40
6.0
100
AcDbArc
 50
270.0
 51
360.0
  0
ARC
  5
15C08
330
747D
100
AcDbEntity
  8
細線
100
AcDbCircle
 10
6814.10148501982
 20
4238.925555112486
 30
0.0
 40
6.0
100
AcDbArc
 50
188.7879373226349
 51
270.0
  0
ARC
  5
15C09
330
747D
100
AcDbEntity
  8
部品1
100
AcDbCircle
 10
6809.722258764328
 20
4228.925555112486
 30
0.0
 40
6.0
100
AcDbArc
 50
190.5838025965097
 51
270.0
  0
ARC
  5
15C0A
330
747D
100
AcDbEntity
  8
細線
100
AcDbCircle
 10
6810.553910186098
 20
4229.925555112486
 30
0.0
 40
5.5
100
AcDbArc
 50
190.4214509727298
 51
269.9999999999997
  0
ARC
  5
15C0B
330
747D
100
AcDbEntity
  8
細線
100
AcDbCircle
 10
6849.720528655343
 20
4229.925555112486
 30
0.0
 40
5.5
100
AcDbArc
 50
270.0
 51
0.0
  0
ARC
  5
15C0C
330
747D
100
AcDbEntity
  8
部品1
100
AcDbCircle
 10
6850.720528655344
 20
4228.925555112486
 30
0.0
 40
6.0
100
AcDbArc
 50
270.0
 51
0.0
  0
ARC
  5
15C0D
330
747D
100
AcDbEntity
  8
細線
100
AcDbCircle
 10
6844.720528655344
 20
4238.925555112486
 30
0.0
 40
6.0
100
AcDbArc
 50
270.0
 51
0.0
  0
LINE
  5
15C0E
330
747D
100
AcDbEntity
  8
細線
100
AcDbLine
 10
6849.720528655343
 20
4341.425555112485
 30
0.0
 11
6810.553910186098
 21
4341.425555112485
 31
0.0
  0
LINE
  5
15C0F
330
747D
100
AcDbEntity
  8
部品1
100
AcDbLine
 10
6850.720528655344
 20
4342.925555112485
 30
0.0
 11
6809.722258764328
 21
4342.925555112485
 31
0.0
  0
LINE
  5
15C10
330
747D
100
AcDbEntity
  8
細線
100
AcDbLine
 10
6844.720528655344
 20
4332.925555112486
 30
0.0
 11
6814.10148501982
 21
4332.925555112486
 31
0.0
  0
CIRCLE
  5
15C11
330
747D
100
AcDbEntity
  8
細線
 48
50.0
100
AcDbCircle
 10
6830.221393709837
 20
4383.425555112486
 30
0.0
 40
20.0
  0
LINE
  5
15C12
330
747D
100
AcDbEntity
  8
細線
100
AcDbLine
 10
6822.720528655344
 20
4326.925047213925
 30
0.0
 11
6809.957201439376
 21
4326.925047213925
 31
0.0
  0
LINE
  5
15C13
330
747D
100
AcDbEntity
  8
細線
100
AcDbLine
 10
6824.214952565177
 20
4326.925555112486
 30
0.0
 11
6822.720528655344
 21
4326.925555112486
 31
0.0
  0
ARC
  5
15C14
330
747D
100
AcDbEntity
  8
細線
100
AcDbCircle
 10
6824.214952565177
 20
4323.925555112486
 30
0.0
 40
3.0
100
AcDbArc
 50
8.099550838277986
 51
90.0
  0
LINE
  5
15C15
330
747D
100
AcDbEntity
  8
細線
100
AcDbLine
 10
6834.928067834089
 20
4329.925555112486
 30
0.0
 11
6822.720528655344
 21
4329.925555112486
 31
0.0
  0
ARC
  5
15C16
330
747D
100
AcDbEntity
  8
細線
100
AcDbCircle
 10
6834.928067834089
 20
4323.925555112486
 30
0.0
 40
6.0
100
AcDbArc
 50
0.0
 51
90.0
  0
CIRCLE
  5
15C17
330
747D
100
AcDbEntity
  8
細線
 48
50.0
100
AcDbCircle
 10
6830.221393709837
 20
4383.425555112486
 30
0.0
 40
10.0
  0
ARC
  5
15C18
330
747D
100
AcDbEntity
  8
細線
100
AcDbCircle
 10
6814.10148501982
 20
4326.925555112486
 30
0.0
 40
6.0
100
AcDbArc
 50
90.0
 51
171.2120626773636
  0
ARC
  5
15C19
330
747D
100
AcDbEntity
  8
部品1
100
AcDbCircle
 10
6809.722258764328
 20
4336.925555112485
 30
0.0
 40
6.0
100
AcDbArc
 50
90.0
 51
169.4161974034886
  0
ARC
  5
15C1A
330
747D
100
AcDbEntity
  8
細線
100
AcDbCircle
 10
6810.553910186098
 20
4335.925555112486
 30
0.0
 40
5.5
100
AcDbArc
 50
89.99999999999969
 51
169.5785490272683
  0
ARC
  5
15C1B
330
747D
100
AcDbEntity
  8
細線
100
AcDbCircle
 10
6849.720528655343
 20
4335.925555112486
 30
0.0
 40
5.5
100
AcDbArc
 50
0.0
 51
90.0
  0
ARC
  5
15C1C
330
747D
100
AcDbEntity
  8
部品1
100
AcDbCircle
 10
6850.720528655344
 20
4336.925555112485
 30
0.0
 40
6.0
100
AcDbArc
 50
0.0
 51
90.0
  0
ARC
  5
15C1D
330
747D
100
AcDbEntity
  8
細線
100
AcDbCircle
 10
6844.720528655344
 20
4326.925555112486
 30
0.0
 40
6.0
100
AcDbArc
 50
0.0
 51
90.0
  0
DIMENSION
  5
15C33
330
747D
100
AcDbEntity
  8
寸法
 48
50.0
100
AcDbDimension
  2
*D16
 10
6529.720528655342
 20
7687.89052553198
 30
0.0
 11
6187.220528655345
 21
7687.89052553198
 31
0.0
 70
   160
 71
     5
 42
684.9999999999945
  3
INABA_S40G
100
AcDbAlignedDimension
 13
5844.720528655347
 23
8127.714193327058
 33
0.0
 14
6529.720528655342
 24
8127.714193327021
 34
0.0
100
AcDbRotatedDimension
  0
DIMENSION
  5
15C4B
330
747D
100
AcDbEntity
  8
寸法
 48
50.0
100
AcDbDimension
  2
*D17
 10
5579.720528655342
 20
7687.89052553198
 30
0.0
 11
5237.220528655345
 21
7687.89052553198
 31
0.0
 70
   160
 71
     5
 42
684.9999999999945
  3
INABA_S40G
100
AcDbAlignedDimension
 13
4894.720528655347
 23
8127.714193327058
 33
0.0
 14
5579.720528655342
 24
8127.714193327021
 34
0.0
100
AcDbRotatedDimension
  0
LINE
  5
16143
330
747D
100
AcDbEntity
  8
仕様書枠
 48
50.0
100
AcDbLine
 10
16307.19999999999
 20
11409.6
 30
0.0
 11
13127.2
 21
11409.6
 31
0.0
  0
TEXT
  5
1617E
330
747D
100
AcDbEntity
  8
文字
 62
     7
 48
50.0
100
AcDbText
 10
14271.39351435261
 20
483.8967129911411
 30
0.0
 40
160.0
  1
ＮＸＮ－１３ＤＬ－３
  7
STYLE2
100
AcDbText
  0
MTEXT
  5
1660B
330
747D
100
AcDbEntity
  8
寸法
 62
     7
 48
50.0
100
AcDbMText
 10
7230.000332943589
 20
9087.82794086432
 30
0.0
 40
96.0
 41
0.0
 71
     5
 72
     1
  1
棚 2段
  7
STYLE1
 73
     1
 44
1.0
1001
ACAD
1000
MTEXTBEGIN
1070
    73
1070
     1
1070
    44
1040
1.0
1070
    74
1070
     0
1000
MTEXTEND
  0
MTEXT
  5
1660E
330
747D
100
AcDbEntity
  8
寸法
 62
     7
 48
50.0
100
AcDbMText
 10
6279.268731498582
 20
9087.827940864332
 30
0.0
 40
96.0
 41
0.0
 71
     5
 72
     1
  1
棚 2段
  7
STYLE1
 73
     1
 44
1.0
1001
ACAD
1000
MTEXTBEGIN
1070
    73
1070
     1
1070
    44
1040
1.0
1070
    74
1070
     0
1000
MTEXTEND
  0
MTEXT
  5
1663A
330
747D
100
AcDbEntity
  8
寸法
 62
     7
 48
50.0
100
AcDbMText
 10
5329.268731498581
 20
9087.827940864332
 30
0.0
 40
96.0
 41
0.0
 71
     5
 72
     1
  1
棚 2段
  7
STYLE1
 73
     1
 44
1.0
1001
ACAD
1000
MTEXTBEGIN
1070
    73
1070
     1
1070
    44
1040
1.0
1070
    74
1070
     0
1000
MTEXTEND
  0
DIMENSION
  5
16650
330
747D
100
AcDbEntity
  8
寸法
 48
50.0
100
AcDbDimension
  2
*D19
 10
4839.720528655344
 20
5628.467140370733
 30
0.0
 11
6264.720528655335
 21
5628.467140370733
 31
0.0
 70
   160
  1
柱外寸法<>
 71
     5
 42
2850.000000000004
  3
INABA_S40G
100
AcDbAlignedDimension
 13
7689.720528655347
 23
5415.92555511249
 33
0.0
 14
4839.720528655344
 24
5415.925555112495
 34
0.0
100
AcDbRotatedDimension
  0
DIMENSION
  5
16651
330
747D
100
AcDbEntity
  8
寸法
 48
50.0
100
AcDbDimension
  2
*D18
 10
7739.720528655347
 20
5851.42411880858
 30
0.0
 11
6264.720528655345
 21
5851.42411880858
 31
0.0
 70
   160
 71
     5
 42
2950.000000000004
  3
INABA_S40G
100
AcDbAlignedDimension
 13
4789.720528655343
 23
5415.925555112494
 33
0.0
 14
7739.720528655347
 24
5415.925555112488
 34
0.0
100
AcDbRotatedDimension
  0
DIMENSION
  5
16652
330
747D
100
AcDbEntity
  8
寸法
 48
50.0
100
AcDbDimension
  2
*D20
 10
4789.720528655343
 20
5628.467140370733
 30
0.0
 11
4476.235247281096
 21
5628.467140370733
 31
0.0
 70
   160
 71
     5
 42
50.0
  3
INABA_S40G
100
AcDbAlignedDimension
 13
4839.720528655344
 23
5415.925555112495
 33
0.0
 14
4789.720528655343
 24
5415.925555112494
 34
0.0
100
AcDbRotatedDimension
1001
ACAD
1000
DSTYLE
1002
{
1002
}
  0
LINE
  5
16653
330
747D
100
AcDbEntity
  8
部品1
100
AcDbLine
 10
4790.140189670673
 20
5408.529029717253
 30
0.0
 11
4791.273587003023
 21
5388.552901734652
 31
0.0
  0
LINE
  5
16654
330
747D
100
AcDbEntity
  8
部品1
100
AcDbLine
 10
4802.710607324599
 20
5292.895494567594
 30
0.0
 11
4803.355513131708
 21
5281.529029717252
 31
0.0
  0
LINE
  5
16655
330
747D
100
AcDbEntity
  8
部品1
100
AcDbLine
 10
4794.474576799752
 20
5385.095494567595
 30
0.0
 11
4799.509617527863
 21
5296.352901734652
 31
0.0
  0
ARC
  5
16656
330
747D
100
AcDbEntity
  8
部品1
 48
50.0
100
AcDbCircle
 10
4791.479393903566
 20
5384.925555112493
 30
0.0
 40
3.0
100
AcDbArc
 50
3.247342790337682
 51
82.34187279263654
  0
ARC
  5
16657
330
747D
100
AcDbEntity
  8
部品1
 48
50.0
100
AcDbCircle
 10
4799.71542442841
 20
5292.72555511249
 30
0.0
 40
3.0
100
AcDbArc
 50
3.247342790337682
 51
82.34187279263654
  0
ARC
  5
16658
330
747D
100
AcDbEntity
  8
部品1
 48
50.0
100
AcDbCircle
 10
4800.208493536971
 20
5296.392554274174
 30
0.0
 40
0.7
100
AcDbArc
 50
183.2473427902856
 51
262.3418727926365
  0
ARC
  5
16659
330
747D
100
AcDbEntity
  8
部品1
 48
50.0
100
AcDbCircle
 10
4791.972463012131
 20
5388.592554274179
 30
0.0
 40
0.7
100
AcDbArc
 50
183.2473427903897
 51
262.3418727926365
  0
ARC
  5
1665A
330
747D
100
AcDbEntity
  8
部品1
100
AcDbCircle
 10
4810.344273222806
 20
5281.925555112493
 30
0.0
 40
7.0
100
AcDbArc
 50
183.2473427903377
 51
270.0
  0
ARC
  5
1665B
330
747D
100
AcDbEntity
  8
部品1
100
AcDbCircle
 10
4797.128949761773
 20
5408.925555112491
 30
0.0
 40
7.0
100
AcDbArc
 50
90.0
 51
183.2473427903377
  0
LINE
  5
1665C
330
747D
100
AcDbEntity
  8
細線
 48
50.0
100
AcDbLine
 10
4822.720528655343
 20
5415.925555112491
 30
0.0
 11
4822.720528655343
 21
5274.925555112489
 31
0.0
  0
LINE
  5
1665D
330
747D
100
AcDbEntity
  8
部品1
 48
50.0
100
AcDbLine
 10
7719.09678408788
 20
5274.925555112488
 30
0.0
 11
4810.344273222806
 21
5274.925555112489
 31
0.0
  0
LINE
  5
1665E
330
747D
100
AcDbEntity
  8
細線
 48
50.0
100
AcDbLine
 10
7729.325847119963
 20
5295.698797676138
 30
0.0
 11
4800.11521019059
 21
5295.698797676487
 31
0.0
  0
LINE
  5
1665F
330
747D
100
AcDbEntity
  8
細線
 48
50.0
100
AcDbLine
 10
7737.561877644747
 20
5387.898797676134
 30
0.0
 11
4791.879179665757
 21
5387.898797676488
 31
0.0
  0
LINE
  5
16660
330
747D
100
AcDbEntity
  8
部品1
 48
50.0
100
AcDbLine
 10
7732.312107548914
 20
5415.92555511249
 30
0.0
 11
4797.128949761773
 21
5415.925555112488
 31
0.0
  0
LINE
  5
16661
330
747D
100
AcDbEntity
  8
細線
100
AcDbLine
 10
5314.720528655343
 20
5240.425555112484
 30
0.0
 11
5314.72052865534
 21
5217.425555112484
 31
0.0
  0
LINE
  5
16662
330
747D
100
AcDbEntity
  8
細線
100
AcDbLine
 10
5388.720528655341
 20
5228.425555112484
 30
0.0
 11
5314.720528655343
 21
5228.425555112484
 31
0.0
  0
LINE
  5
16663
330
747D
100
AcDbEntity
  8
細線
100
AcDbLine
 10
5388.720528655341
 20
5222.425555112484
 30
0.0
 11
5314.720528655343
 21
5222.425555112484
 31
0.0
  0
LINE
  5
16664
330
747D
100
AcDbEntity
  8
細線
100
AcDbLine
 10
5388.720528655341
 20
5234.425555112484
 30
0.0
 11
5314.720528655343
 21
5234.425555112484
 31
0.0
  0
LINE
  5
16665
330
747D
100
AcDbEntity
  8
細線
100
AcDbLine
 10
5240.720528655343
 20
5234.425555112484
 30
0.0
 11
5309.720528655343
 21
5234.425555112484
 31
0.0
  0
LINE
  5
16666
330
747D
100
AcDbEntity
  8
細線
100
AcDbLine
 10
5240.72052865534
 20
5222.425555112484
 30
0.0
 11
5314.720528655343
 21
5222.425555112484
 31
0.0
  0
LINE
  5
16667
330
747D
100
AcDbEntity
  8
細線
100
AcDbLine
 10
5240.720528655343
 20
5228.425555112484
 30
0.0
 11
5314.720528655343
 21
5228.425555112484
 31
0.0
  0
LINE
  5
16668
330
747D
100
AcDbEntity
  8
細線
100
AcDbLine
 10
5240.720528655343
 20
5234.425555112484
 30
0.0
 11
5314.720528655343
 21
5234.425555112484
 31
0.0
  0
LINE
  5
16669
330
747D
100
AcDbEntity
  8
部品1
 48
0.01
100
AcDbLine
 10
5402.720528655343
 20
5246.925555112484
 30
0.0
 11
5226.720528655343
 21
5246.925555112484
 31
0.0
  0
LINE
  5
1666A
330
747D
100
AcDbEntity
  8
部品1
 48
0.01
100
AcDbLine
 10
5224.720528655343
 20
5244.925555112484
 30
0.0
 11
5224.720528655343
 21
5213.425555112484
 31
0.0
  0
LINE
  5
1666B
330
747D
100
AcDbEntity
  8
部品1
 48
0.01
100
AcDbLine
 10
5226.720528655343
 20
5211.425555112484
 30
0.0
 11
5402.72052865534
 21
5211.425555112484
 31
0.0
  0
LINE
  5
1666C
330
747D
100
AcDbEntity
  8
部品1
 48
0.01
100
AcDbLine
 10
5404.72052865534
 20
5213.425555112484
 30
0.0
 11
5404.720528655343
 21
5244.925555112484
 31
0.0
  0
LINE
  5
1666D
330
747D
100
AcDbEntity
  8
細線
100
AcDbLine
 10
5240.720528655343
 20
5240.425555112484
 30
0.0
 11
5240.720528655343
 21
5217.425555112484
 31
0.0
  0
LINE
  5
1666E
330
747D
100
AcDbEntity
  8
細線
100
AcDbLine
 10
5388.720528655344
 20
5217.425555112484
 30
0.0
 11
5388.720528655344
 21
5240.425555112484
 31
0.0
  0
LINE
  5
1666F
330
747D
100
AcDbEntity
  8
細線
100
AcDbLine
 10
5388.720528655344
 20
5240.425555112484
 30
0.0
 11
5314.720528655343
 21
5240.425555112484
 31
0.0
  0
LINE
  5
16670
330
747D
100
AcDbEntity
  8
細線
100
AcDbLine
 10
5240.720528655343
 20
5217.425555112484
 30
0.0
 11
5314.720528655343
 21
5217.425555112484
 31
0.0
  0
LINE
  5
16671
330
747D
100
AcDbEntity
  8
細線
100
AcDbLine
 10
5314.720528655343
 20
5240.425555112484
 30
0.0
 11
5240.720528655343
 21
5240.425555112484
 31
0.0
  0
LINE
  5
16672
330
747D
100
AcDbEntity
  8
細線
100
AcDbLine
 10
5314.72052865534
 20
5217.425555112484
 30
0.0
 11
5388.720528655344
 21
5217.425555112484
 31
0.0
  0
ARC
  5
16673
330
747D
100
AcDbEntity
  8
部品1
 48
0.01
100
AcDbCircle
 10
5226.720528655343
 20
5244.925555112484
 30
0.0
 40
2.0
100
AcDbArc
 50
90.0
 51
180.0
  0
ARC
  5
16674
330
747D
100
AcDbEntity
  8
部品1
 48
0.01
100
AcDbCircle
 10
5226.720528655343
 20
5213.425555112484
 30
0.0
 40
2.0
100
AcDbArc
 50
180.0
 51
270.0
  0
ARC
  5
16675
330
747D
100
AcDbEntity
  8
部品1
 48
0.01
100
AcDbCircle
 10
5402.720528655343
 20
5244.925555112484
 30
0.0
 40
2.0
100
AcDbArc
 50
0.0
 51
90.0
  0
ARC
  5
16676
330
747D
100
AcDbEntity
  8
部品1
 48
0.01
100
AcDbCircle
 10
5402.72052865534
 20
5213.425555112484
 30
0.0
 40
2.0
100
AcDbArc
 50
270.0
 51
0.0
  0
ARC
  5
16677
330
747D
100
AcDbEntity
  8
部品1
 48
0.01
100
AcDbCircle
 10
6352.72052865534
 20
5213.425555112483
 30
0.0
 40
2.0
100
AcDbArc
 50
270.0
 51
0.0
  0
ARC
  5
16678
330
747D
100
AcDbEntity
  8
部品1
 48
0.01
100
AcDbCircle
 10
6352.720528655344
 20
5244.925555112483
 30
0.0
 40
2.0
100
AcDbArc
 50
0.0
 51
90.0
  0
ARC
  5
16679
330
747D
100
AcDbEntity
  8
部品1
 48
0.01
100
AcDbCircle
 10
6176.720528655343
 20
5213.425555112483
 30
0.0
 40
2.0
100
AcDbArc
 50
180.0
 51
270.0
  0
ARC
  5
1667A
330
747D
100
AcDbEntity
  8
部品1
 48
0.01
100
AcDbCircle
 10
6176.720528655343
 20
5244.925555112483
 30
0.0
 40
2.0
100
AcDbArc
 50
90.0
 51
180.0
  0
LINE
  5
1667B
330
747D
100
AcDbEntity
  8
細線
100
AcDbLine
 10
6264.72052865534
 20
5217.425555112482
 30
0.0
 11
6338.720528655343
 21
5217.425555112482
 31
0.0
  0
LINE
  5
1667C
330
747D
100
AcDbEntity
  8
細線
100
AcDbLine
 10
6264.720528655344
 20
5240.425555112483
 30
0.0
 11
6190.720528655344
 21
5240.425555112483
 31
0.0
  0
LINE
  5
1667D
330
747D
100
AcDbEntity
  8
細線
100
AcDbLine
 10
6190.720528655344
 20
5217.425555112482
 30
0.0
 11
6264.720528655344
 21
5217.425555112482
 31
0.0
  0
LINE
  5
1667E
330
747D
100
AcDbEntity
  8
細線
100
AcDbLine
 10
6338.720528655343
 20
5240.425555112483
 30
0.0
 11
6264.720528655344
 21
5240.425555112483
 31
0.0
  0
LINE
  5
1667F
330
747D
100
AcDbEntity
  8
細線
100
AcDbLine
 10
6338.720528655343
 20
5217.425555112482
 30
0.0
 11
6338.720528655343
 21
5240.425555112483
 31
0.0
  0
LINE
  5
16680
330
747D
100
AcDbEntity
  8
細線
100
AcDbLine
 10
6190.720528655344
 20
5240.425555112483
 30
0.0
 11
6190.720528655344
 21
5217.425555112482
 31
0.0
  0
LINE
  5
16681
330
747D
100
AcDbEntity
  8
部品1
 48
0.01
100
AcDbLine
 10
6354.72052865534
 20
5213.425555112483
 30
0.0
 11
6354.720528655343
 21
5244.925555112483
 31
0.0
  0
LINE
  5
16682
330
747D
100
AcDbEntity
  8
部品1
 48
0.01
100
AcDbLine
 10
6176.720528655343
 20
5211.425555112483
 30
0.0
 11
6352.72052865534
 21
5211.425555112483
 31
0.0
  0
LINE
  5
16683
330
747D
100
AcDbEntity
  8
部品1
 48
0.01
100
AcDbLine
 10
6174.720528655344
 20
5244.925555112483
 30
0.0
 11
6174.720528655344
 21
5213.425555112483
 31
0.0
  0
LINE
  5
16684
330
747D
100
AcDbEntity
  8
部品1
 48
0.01
100
AcDbLine
 10
6352.720528655344
 20
5246.925555112483
 30
0.0
 11
6176.720528655343
 21
5246.925555112483
 31
0.0
  0
LINE
  5
16685
330
747D
100
AcDbEntity
  8
細線
100
AcDbLine
 10
6190.720528655344
 20
5234.425555112482
 30
0.0
 11
6264.720528655344
 21
5234.425555112482
 31
0.0
  0
LINE
  5
16686
330
747D
100
AcDbEntity
  8
細線
100
AcDbLine
 10
6190.720528655344
 20
5228.425555112483
 30
0.0
 11
6264.720528655344
 21
5228.425555112483
 31
0.0
  0
LINE
  5
16687
330
747D
100
AcDbEntity
  8
細線
100
AcDbLine
 10
6190.72052865534
 20
5222.425555112483
 30
0.0
 11
6264.720528655344
 21
5222.425555112483
 31
0.0
  0
LINE
  5
16688
330
747D
100
AcDbEntity
  8
細線
100
AcDbLine
 10
6190.720528655344
 20
5234.425555112482
 30
0.0
 11
6259.720528655344
 21
5234.425555112482
 31
0.0
  0
LINE
  5
16689
330
747D
100
AcDbEntity
  8
細線
100
AcDbLine
 10
6338.72052865534
 20
5234.425555112482
 30
0.0
 11
6264.720528655344
 21
5234.425555112482
 31
0.0
  0
LINE
  5
1668A
330
747D
100
AcDbEntity
  8
細線
100
AcDbLine
 10
6338.72052865534
 20
5222.425555112483
 30
0.0
 11
6264.720528655344
 21
5222.425555112483
 31
0.0
  0
LINE
  5
1668B
330
747D
100
AcDbEntity
  8
細線
100
AcDbLine
 10
6338.72052865534
 20
5228.425555112483
 30
0.0
 11
6264.720528655344
 21
5228.425555112483
 31
0.0
  0
LINE
  5
1668C
330
747D
100
AcDbEntity
  8
細線
100
AcDbLine
 10
6264.720528655344
 20
5240.425555112483
 30
0.0
 11
6264.72052865534
 21
5217.425555112482
 31
0.0
  0
DIMENSION
  5
166D0
330
747D
100
AcDbEntity
  8
寸法
 48
50.0
100
AcDbDimension
  2
*D21
 10
7689.720528655347
 20
5628.467140370729
 30
0.0
 11
8053.205810029584
 21
5628.467140370729
 31
0.0
 70
   160
 71
     5
 42
50.0
  3
INABA_S40G
100
AcDbAlignedDimension
 13
7739.720528655347
 23
5415.925555112488
 33
0.0
 14
7689.720528655347
 24
5415.92555511249
 34
0.0
100
AcDbRotatedDimension
  0
ARC
  5
166D1
330
747D
100
AcDbEntity
  8
部品1
100
AcDbCircle
 10
7732.312107548914
 20
5408.925555112488
 30
0.0
 40
7.0
100
AcDbArc
 50
356.7526572096623
 51
90.0
  0
ARC
  5
166D2
330
747D
100
AcDbEntity
  8
部品1
100
AcDbCircle
 10
7719.09678408788
 20
5281.92555511249
 30
0.0
 40
7.0
100
AcDbArc
 50
270.0
 51
356.7526572096623
  0
ARC
  5
166D3
330
747D
100
AcDbEntity
  8
部品1
 48
50.0
100
AcDbCircle
 10
7737.468594298559
 20
5388.592554274175
 30
0.0
 40
0.7
100
AcDbArc
 50
277.6581272073635
 51
356.7526572096103
  0
ARC
  5
166D4
330
747D
100
AcDbEntity
  8
部品1
 48
50.0
100
AcDbCircle
 10
7729.232563773717
 20
5296.392554274171
 30
0.0
 40
0.7
100
AcDbArc
 50
277.6581272073635
 51
356.7526572097143
  0
ARC
  5
166D5
330
747D
100
AcDbEntity
  8
部品1
 48
50.0
100
AcDbCircle
 10
7729.725632882277
 20
5292.725555112487
 30
0.0
 40
3.0
100
AcDbArc
 50
97.65812720736347
 51
176.7526572096623
  0
ARC
  5
166D6
330
747D
100
AcDbEntity
  8
部品1
 48
50.0
100
AcDbCircle
 10
7737.961663407121
 20
5384.92555511249
 30
0.0
 40
3.0
100
AcDbArc
 50
97.65812720736347
 51
176.7526572096623
  0
LINE
  5
166D7
330
747D
100
AcDbEntity
  8
部品1
100
AcDbLine
 10
7734.966480510935
 20
5385.095494567591
 30
0.0
 11
7729.931439782824
 21
5296.352901734648
 31
0.0
  0
LINE
  5
166D8
330
747D
100
AcDbEntity
  8
部品1
100
AcDbLine
 10
7726.730449986091
 20
5292.895494567591
 30
0.0
 11
7726.085544178978
 21
5281.529029717251
 31
0.0
  0
LINE
  5
166D9
330
747D
100
AcDbEntity
  8
細線
 48
50.0
100
AcDbLine
 10
7706.720528655347
 20
5415.925555112488
 30
0.0
 11
7706.720528655347
 21
5274.925555112488
 31
0.0
  0
LINE
  5
166DA
330
747D
100
AcDbEntity
  8
部品1
100
AcDbLine
 10
7739.300867640013
 20
5408.529029717249
 30
0.0
 11
7738.167470307669
 21
5388.552901734649
 31
0.0
  0
LINE
  5
16706
330
747D
100
AcDbEntity
  8
細線
100
AcDbLine
 10
7214.720528655345
 20
5240.425555112483
 30
0.0
 11
7214.72052865534
 21
5217.425555112482
 31
0.0
  0
LINE
  5
16707
330
747D
100
AcDbEntity
  8
細線
100
AcDbLine
 10
7288.720528655339
 20
5228.425555112483
 30
0.0
 11
7214.720528655345
 21
5228.425555112483
 31
0.0
  0
LINE
  5
16708
330
747D
100
AcDbEntity
  8
細線
100
AcDbLine
 10
7288.720528655339
 20
5222.425555112483
 30
0.0
 11
7214.720528655345
 21
5222.425555112483
 31
0.0
  0
LINE
  5
16709
330
747D
100
AcDbEntity
  8
細線
100
AcDbLine
 10
7288.720528655339
 20
5234.425555112482
 30
0.0
 11
7214.720528655345
 21
5234.425555112482
 31
0.0
  0
LINE
  5
1670A
330
747D
100
AcDbEntity
  8
細線
100
AcDbLine
 10
7140.720528655343
 20
5234.425555112482
 30
0.0
 11
7209.720528655343
 21
5234.425555112482
 31
0.0
  0
LINE
  5
1670B
330
747D
100
AcDbEntity
  8
細線
100
AcDbLine
 10
7140.72052865534
 20
5222.425555112483
 30
0.0
 11
7214.720528655345
 21
5222.425555112483
 31
0.0
  0
LINE
  5
1670C
330
747D
100
AcDbEntity
  8
細線
100
AcDbLine
 10
7140.720528655343
 20
5228.425555112483
 30
0.0
 11
7214.720528655345
 21
5228.425555112483
 31
0.0
  0
LINE
  5
1670D
330
747D
100
AcDbEntity
  8
細線
100
AcDbLine
 10
7140.720528655343
 20
5234.425555112482
 30
0.0
 11
7214.720528655345
 21
5234.425555112482
 31
0.0
  0
LINE
  5
1670E
330
747D
100
AcDbEntity
  8
部品1
 48
0.01
100
AcDbLine
 10
7302.720528655344
 20
5246.925555112483
 30
0.0
 11
7126.720528655344
 21
5246.925555112483
 31
0.0
  0
LINE
  5
1670F
330
747D
100
AcDbEntity
  8
部品1
 48
0.01
100
AcDbLine
 10
7124.720528655344
 20
5244.925555112483
 30
0.0
 11
7124.720528655344
 21
5213.425555112483
 31
0.0
  0
LINE
  5
16710
330
747D
100
AcDbEntity
  8
部品1
 48
0.01
100
AcDbLine
 10
7126.720528655344
 20
5211.425555112483
 30
0.0
 11
7302.720528655339
 21
5211.425555112483
 31
0.0
  0
LINE
  5
16711
330
747D
100
AcDbEntity
  8
部品1
 48
0.01
100
AcDbLine
 10
7304.720528655341
 20
5213.425555112483
 30
0.0
 11
7304.720528655344
 21
5244.925555112483
 31
0.0
  0
LINE
  5
16712
330
747D
100
AcDbEntity
  8
細線
100
AcDbLine
 10
7140.720528655343
 20
5240.425555112483
 30
0.0
 11
7140.720528655343
 21
5217.425555112482
 31
0.0
  0
LINE
  5
16713
330
747D
100
AcDbEntity
  8
細線
100
AcDbLine
 10
7288.720528655344
 20
5217.425555112482
 30
0.0
 11
7288.720528655344
 21
5240.425555112483
 31
0.0
  0
LINE
  5
16714
330
747D
100
AcDbEntity
  8
細線
100
AcDbLine
 10
7288.720528655344
 20
5240.425555112483
 30
0.0
 11
7214.720528655345
 21
5240.425555112483
 31
0.0
  0
LINE
  5
16715
330
747D
100
AcDbEntity
  8
細線
100
AcDbLine
 10
7140.720528655343
 20
5217.425555112482
 30
0.0
 11
7214.720528655345
 21
5217.425555112482
 31
0.0
  0
LINE
  5
16716
330
747D
100
AcDbEntity
  8
細線
100
AcDbLine
 10
7214.720528655345
 20
5240.425555112483
 30
0.0
 11
7140.720528655343
 21
5240.425555112483
 31
0.0
  0
LINE
  5
16717
330
747D
100
AcDbEntity
  8
細線
100
AcDbLine
 10
7214.72052865534
 20
5217.425555112482
 30
0.0
 11
7288.720528655344
 21
5217.425555112482
 31
0.0
  0
ARC
  5
16718
330
747D
100
AcDbEntity
  8
部品1
 48
0.01
100
AcDbCircle
 10
7126.720528655344
 20
5244.925555112483
 30
0.0
 40
2.0
100
AcDbArc
 50
90.0
 51
180.0
  0
ARC
  5
16719
330
747D
100
AcDbEntity
  8
部品1
 48
0.01
100
AcDbCircle
 10
7126.720528655344
 20
5213.425555112483
 30
0.0
 40
2.0
100
AcDbArc
 50
180.0
 51
270.0
  0
ARC
  5
1671A
330
747D
100
AcDbEntity
  8
部品1
 48
0.01
100
AcDbCircle
 10
7302.720528655344
 20
5244.925555112483
 30
0.0
 40
2.0
100
AcDbArc
 50
0.0
 51
90.0
  0
ARC
  5
1671B
330
747D
100
AcDbEntity
  8
部品1
 48
0.01
100
AcDbCircle
 10
7302.720528655339
 20
5213.425555112483
 30
0.0
 40
2.0
100
AcDbArc
 50
270.0
 51
0.0
  0
TEXT
  5
1672F
330
747D
100
AcDbEntity
  8
部品1
100
AcDbText
 10
10028.22867877221
 20
2256.982739537521
 30
0.0
 40
135.0
  1
側面図
  7
STYLE2
100
AcDbText
  0
LWPOLYLINE
  5
16730
330
747D
100
AcDbEntity
  8
部品1
100
AcDbPolyline
 90
        4
 70
     1
 43
0.0
 10
9938.782577348607
 20
2449.876268756046
 10
9938.782577348607
 20
2209.983947210513
 10
10702.25324357705
 20
2209.983947210513
 10
10702.25324357705
 20
2449.876268756046
  0
LINE
  5
16731
330
747D
100
AcDbEntity
  8
部品1
 48
50.0
100
AcDbLine
 10
10170.51791046283
 20
5546.793694213766
 30
0.0
 11
10470.51791046283
 21
5525.193694213768
 31
0.0
  0
LINE
  5
16732
330
747D
100
AcDbEntity
  8
細線
 48
50.0
100
AcDbLine
 10
10598.01791046283
 20
5180.925555112486
 30
0.0
 11
10598.01791046283
 21
3390.925555112487
 31
0.0
  0
LINE
  5
16733
330
747D
100
AcDbEntity
  8
細線
 48
50.0
100
AcDbLine
 10
10583.01791046283
 20
5180.925555112486
 30
0.0
 11
10583.01791046283
 21
3390.925555112487
 31
0.0
  0
LINE
  5
16734
330
747D
100
AcDbEntity
  8
細線
 48
50.0
100
AcDbLine
 10
10723.01791046283
 20
5180.925555112486
 30
0.0
 11
10723.01791046283
 21
3390.925555112487
 31
0.0
  0
LINE
  5
16735
330
747D
100
AcDbEntity
  8
細線
 48
50.0
100
AcDbLine
 10
10738.01791046283
 20
5180.925555112486
 30
0.0
 11
10738.01791046283
 21
3390.925555112487
 31
0.0
  0
LINE
  5
16736
330
747D
100
AcDbEntity
  8
細線
 48
50.0
100
AcDbLine
 10
10878.01791046283
 20
5180.925555112486
 30
0.0
 11
10878.01791046283
 21
3390.925555112487
 31
0.0
  0
LINE
  5
16737
330
747D
100
AcDbEntity
  8
細線
 48
50.0
100
AcDbLine
 10
10863.01791046283
 20
5180.925555112486
 30
0.0
 11
10863.01791046283
 21
3390.925555112487
 31
0.0
  0
LINE
  5
16738
330
747D
100
AcDbEntity
  8
部品1
100
AcDbLine
 10
10520.51791046282
 20
5180.925555112486
 30
0.0
 11
10520.51791046282
 21
3390.925555112487
 31
0.0
  0
TEXT
  5
16739
330
747D
100
AcDbEntity
  8
部品1
 48
50.0
100
AcDbText
 10
10647.61075775069
 20
5445.176458147916
 30
0.0
 40
120.0
  1
71
 50
90.0
  7
STYLE1
100
AcDbText
  0
TEXT
  5
1673A
330
747D
100
AcDbEntity
  8
部品1
 48
50.0
100
AcDbText
 10
10158.78574568655
 20
5582.677716366199
 30
0.0
 40
120.0
  1
1000
  7
STYLE1
100
AcDbText
  0
LINE
  5
1673B
330
747D
100
AcDbEntity
  8
部品1
 48
50.0
100
AcDbLine
 10
10470.51791046283
 20
5546.793694213766
 30
0.0
 11
10470.51791046283
 21
5525.193694213768
 31
0.0
  0
LINE
  5
1673C
330
747D
100
AcDbEntity
  8
部品1
 48
50.0
100
AcDbLine
 10
10170.51791046283
 20
5546.793694213766
 30
0.0
 11
10470.51791046283
 21
5546.793694213766
 31
0.0
  0
DIMENSION
  5
1673D
330
747D
100
AcDbEntity
  8
寸法
 48
50.0
100
AcDbDimension
  2
*D30
 10
8973.251658751456
 20
5437.748046009301
 30
0.0
 11
8981.929402403343
 21
5667.584285026197
 31
0.0
 70
   160
 71
     5
 42
141.0
  3
INABA_S40G
100
AcDbAlignedDimension
 13
9580.860475064781
 23
5273.706580181453
 33
0.0
 14
9586.180309216736
 24
5414.606187578336
 34
0.0
 50
87.83775598715743
100
AcDbRotatedDimension
1001
ACAD
1000
DSTYLE
1002
{
1070
   174
1070
     0
1070
   272
1070
     1
1070
   288
1070
     0
1070
   341
1005
0
1002
}
  0
DIMENSION
  5
1673E
330
747D
100
AcDbEntity
  8
寸法
 48
50.0
100
AcDbDimension
  2
*D29
 10
11075.51791046283
 20
5814.583008691791
 30
0.0
 11
11281.56515455731
 21
5814.583008691791
 31
0.0
 70
   160
 71
     5
 42
80.0
  3
INABA_S40G
100
AcDbAlignedDimension
 13
10995.51791046283
 23
5362.736234724139
 33
0.0
 14
11075.51791046283
 24
5360.925555112488
 34
0.0
100
AcDbRotatedDimension
1001
ACAD
1000
DSTYLE
1002
{
1070
   174
1070
     0
1070
   272
1070
     1
1070
   288
1070
     0
1070
   341
1005
0
1002
}
  0
ARC
  5
1673F
330
747D
100
AcDbEntity
  8
部品1
100
AcDbCircle
 10
11061.14544627676
 20
5254.359355996705
 30
0.0
 40
0.7
100
AcDbArc
 50
275.0921697642102
 51
354.1866997666828
  0
ARC
  5
16740
330
747D
100
AcDbEntity
  8
部品1
100
AcDbCircle
 10
11072.00479202608
 20
5331.402610814627
 30
0.0
 40
0.7
100
AcDbArc
 50
275.0921697642102
 51
354.1866997665273
  0
ARC
  5
16741
330
747D
100
AcDbEntity
  8
部品1
100
AcDbCircle
 10
11072.33319726868
 20
5327.717213957537
 30
0.0
 40
3.0
100
AcDbArc
 50
95.09216976421134
 51
174.1866997665272
  0
ARC
  5
16742
330
747D
100
AcDbEntity
  8
部品1
100
AcDbCircle
 10
11061.47385151936
 20
5250.673959139614
 30
0.0
 40
3.0
100
AcDbArc
 50
95.0921697642102
 51
174.1866997665272
  0
ARC
  5
16743
330
747D
100
AcDbEntity
  8
部品1
 48
50.0
100
AcDbCircle
 10
11050.44571624426
 20
5241.083214535732
 30
0.0
 40
7.0
100
AcDbArc
 50
267.8377559869492
 51
354.1866997665273
  0
ARC
  5
16744
330
747D
100
AcDbEntity
  8
部品1
 48
50.0
100
AcDbCircle
 10
11067.76781270877
 20
5351.985761677905
 30
0.0
 40
7.0
100
AcDbArc
 50
354.1866997665273
 51
87.03587545283093
  0
LINE
  5
16745
330
747D
100
AcDbEntity
  8
部品1
 48
50.0
100
AcDbLine
 10
11058.48927984875
 20
5250.977820856516
 30
0.0
 11
11057.40971680901
 21
5240.374203862959
 31
0.0
  0
LINE
  5
16746
330
747D
100
AcDbEntity
  8
部品1
 48
50.0
100
AcDbLine
 10
11069.34862559807
 20
5328.021075674442
 30
0.0
 11
11061.84184633324
 21
5254.288454929429
 31
0.0
  0
LINE
  5
16747
330
747D
100
AcDbEntity
  8
部品1
 48
50.0
100
AcDbLine
 10
11074.73181327353
 20
5351.276751005131
 30
0.0
 11
11072.70119208255
 21
5331.33170974735
 31
0.0
  0
ARC
  5
16748
330
747D
100
AcDbEntity
  8
部品1
100
AcDbCircle
 10
9571.555002334191
 20
5294.739714071391
 30
0.0
 40
0.7
100
AcDbArc
 50
181.0932240292375
 51
260.187754031489
  0
ARC
  5
16749
330
747D
100
AcDbEntity
  8
部品1
100
AcDbCircle
 10
9566.782328736584
 20
5387.605492271511
 30
0.0
 40
0.7
100
AcDbArc
 50
181.0932240292114
 51
260.187754031489
  0
ARC
  5
1674A
330
747D
100
AcDbEntity
  8
部品1
100
AcDbCircle
 10
9566.15177433356
 20
5383.959617734112
 30
0.0
 40
3.0
100
AcDbArc
 50
1.093224029289586
 51
80.18775403169431
  0
ARC
  5
1674B
330
747D
100
AcDbEntity
  8
部品1
100
AcDbCircle
 10
9570.924447931167
 20
5291.093839533992
 30
0.0
 40
3.0
100
AcDbArc
 50
1.093224029289586
 51
80.18775403169431
  0
ARC
  5
1674C
330
747D
100
AcDbEntity
  8
部品1
 48
50.0
100
AcDbCircle
 10
9581.124580306369
 20
5280.701596151512
 30
0.0
 40
7.0
100
AcDbArc
 50
181.0932240292895
 51
267.8377559869492
  0
ARC
  5
1674D
330
747D
100
AcDbEntity
  8
部品1
 48
50.0
100
AcDbCircle
 10
9572.700922204273
 20
5407.652655684607
 30
0.0
 40
7.0
100
AcDbArc
 50
87.03587545283093
 51
181.0932240292895
  0
LINE
  5
1674E
330
747D
100
AcDbEntity
  8
部品1
 48
50.0
100
AcDbLine
 10
9573.923901857597
 20
5291.151077137175
 30
0.0
 11
9574.125854478031
 21
5280.568041744084
 31
0.0
  0
LINE
  5
1674F
330
747D
100
AcDbEntity
  8
細線
 48
50.0
100
AcDbLine
 10
9571.317808800927
 20
5294.081125255985
 30
0.0
 11
11061.32147323156
 21
5253.681849899916
 31
0.0
  0
LINE
  5
16750
330
747D
100
AcDbEntity
  8
細線
 48
50.0
100
AcDbLine
 10
9566.55733356364
 20
5386.942636953849
 30
0.0
 11
11072.1933183088
 21
5330.728475931446
 31
0.0
  0
LINE
  5
16751
330
747D
100
AcDbEntity
  8
部品1
 48
50.0
100
AcDbLine
 10
9569.15122825999
 20
5384.016855337296
 30
0.0
 11
9570.855129751356
 21
5294.726358630649
 31
0.0
  0
LINE
  5
16752
330
747D
100
AcDbEntity
  8
部品1
 48
50.0
100
AcDbLine
 10
9565.702196375935
 20
5407.51910127718
 30
0.0
 11
9566.082456153747
 21
5387.592136830768
 31
0.0
  0
LINE
  5
16753
330
747D
100
AcDbEntity
  8
細線
 48
50.0
100
AcDbLine
 10
11042.51791046283
 20
5360.302577766208
 30
0.0
 11
11037.77022757483
 21
5234.556805275464
 31
0.0
  0
LINE
  5
16754
330
747D
100
AcDbEntity
  8
細線
 48
50.0
100
AcDbLine
 10
9598.517910462829
 20
5413.325231487892
 30
0.0
 11
9593.228808907317
 21
5273.239598860537
 31
0.0
  0
LINE
  5
16755
330
747D
100
AcDbEntity
  8
部品1
100
AcDbLine
 10
9580.860475064781
 20
5273.706580181453
 30
0.0
 11
11050.18161100267
 21
5234.088198565674
 31
0.0
  0
LINE
  5
16756
330
747D
100
AcDbEntity
  8
部品1
100
AcDbLine
 10
9573.06289681979
 20
5414.643290446753
 30
0.0
 11
11068.12978732429
 21
5358.976396440052
 31
0.0
  0
LINE
  5
16757
330
747D
100
AcDbEntity
  8
細線
 48
50.0
100
AcDbLine
 10
9758.017910462825
 20
5180.925555112486
 30
0.0
 11
9758.017910462825
 21
3390.925555112487
 31
0.0
  0
LINE
  5
16758
330
747D
100
AcDbEntity
  8
細線
 48
50.0
100
AcDbLine
 10
9743.017910462826
 20
5180.925555112486
 30
0.0
 11
9743.017910462826
 21
3390.925555112487
 31
0.0
  0
LINE
  5
16759
330
747D
100
AcDbEntity
  8
細線
 48
50.0
100
AcDbLine
 10
9883.017910462825
 20
5180.925555112486
 30
0.0
 11
9883.017910462825
 21
3390.925555112487
 31
0.0
  0
LINE
  5
1675A
330
747D
100
AcDbEntity
  8
細線
 48
50.0
100
AcDbLine
 10
9898.017910462826
 20
5180.925555112486
 30
0.0
 11
9898.017910462826
 21
3390.925555112487
 31
0.0
  0
LINE
  5
1675B
330
747D
100
AcDbEntity
  8
細線
 48
50.0
100
AcDbLine
 10
10038.01791046282
 20
5180.925555112486
 30
0.0
 11
10038.01791046282
 21
3390.925555112487
 31
0.0
  0
LINE
  5
1675C
330
747D
100
AcDbEntity
  8
細線
 48
50.0
100
AcDbLine
 10
10023.01791046282
 20
5180.925555112486
 30
0.0
 11
10023.01791046282
 21
3390.925555112487
 31
0.0
  0
LINE
  5
1675D
330
747D
100
AcDbEntity
  8
細線
 48
50.0
100
AcDbLine
 10
10443.01791046282
 20
5180.925555112486
 30
0.0
 11
10443.01791046282
 21
3390.925555112487
 31
0.0
  0
LINE
  5
1675E
330
747D
100
AcDbEntity
  8
細線
 48
50.0
100
AcDbLine
 10
10458.01791046282
 20
5180.925555112486
 30
0.0
 11
10458.01791046282
 21
3390.925555112487
 31
0.0
  0
LINE
  5
1675F
330
747D
100
AcDbEntity
  8
細線
 48
50.0
100
AcDbLine
 10
10318.01791046282
 20
5180.925555112486
 30
0.0
 11
10318.01791046282
 21
3390.925555112487
 31
0.0
  0
LINE
  5
16760
330
747D
100
AcDbEntity
  8
細線
 48
50.0
100
AcDbLine
 10
10303.01791046282
 20
5180.925555112486
 30
0.0
 11
10303.01791046282
 21
3390.925555112487
 31
0.0
  0
LINE
  5
16761
330
747D
100
AcDbEntity
  8
細線
 48
50.0
100
AcDbLine
 10
10163.01791046282
 20
5180.925555112486
 30
0.0
 11
10163.01791046282
 21
3390.925555112487
 31
0.0
  0
LINE
  5
16762
330
747D
100
AcDbEntity
  8
細線
 48
50.0
100
AcDbLine
 10
10178.01791046282
 20
5180.925555112486
 30
0.0
 11
10178.01791046282
 21
3390.925555112487
 31
0.0
  0
LINE
  5
16763
330
747D
100
AcDbEntity
  8
部品1
100
AcDbLine
 10
9625.517910462827
 20
3340.925555112487
 30
0.0
 11
10995.51791046283
 21
3340.925555112487
 31
0.0
  0
DIMENSION
  5
16764
330
747D
100
AcDbEntity
  8
寸法
 48
50.0
100
AcDbDimension
  2
*D28
 10
9565.517910462828
 20
6022.757329883754
 30
0.0
 11
10292.64274016465
 21
6022.757329883754
 31
0.0
 70
   160
 71
     5
 42
1510.0
  3
INABA_S40G
100
AcDbAlignedDimension
 13
11075.51791046283
 23
5360.925555112488
 33
0.0
 14
9565.517910462828
 24
5415.925555112491
 34
0.0
100
AcDbRotatedDimension
1001
ACAD
1000
DSTYLE
1002
{
1070
   174
1070
     0
1070
   272
1070
     1
1070
   288
1070
     0
1070
   341
1005
0
1002
}
  0
DIMENSION
  5
16765
330
747D
100
AcDbEntity
  8
寸法
 48
50.0
100
AcDbDimension
  2
*D27
 10
9565.517910462828
 20
5814.583008691791
 30
0.0
 11
9255.880115187236
 21
5814.583008691791
 31
0.0
 70
   160
 71
     5
 42
60.0
  3
INABA_S40G
100
AcDbAlignedDimension
 13
9625.517910462829
 23
5411.927173235462
 33
0.0
 14
9565.517910462828
 24
5415.925555112491
 34
0.0
100
AcDbRotatedDimension
1001
ACAD
1000
DSTYLE
1002
{
1070
   174
1070
     0
1070
   272
1070
     1
1070
   288
1070
     0
1070
   341
1005
0
1002
}
  0
DIMENSION
  5
16766
330
747D
100
AcDbEntity
  8
寸法
 48
50.0
100
AcDbDimension
  2
*D26
 10
9625.517910462829
 20
5814.583008691791
 30
0.0
 11
10275.33694335337
 21
5814.583008691791
 31
0.0
 70
   160
  1
柱外寸法<>
 71
     5
 42
1370.0
  3
INABA_S40G
100
AcDbAlignedDimension
 13
10995.51791046283
 23
5362.736234724139
 33
0.0
 14
9625.517910462829
 24
5411.927173235462
 34
0.0
100
AcDbRotatedDimension
1001
ACAD
1000
DSTYLE
1002
{
1070
   174
1070
     0
1070
   272
1070
     1
1070
   288
1070
     0
1070
   341
1005
0
1002
}
  0
DIMENSION
  5
16767
330
747D
100
AcDbEntity
  8
寸法
100
AcDbDimension
  2
*D25
 10
11700.44506843495
 20
5360.925555112488
 30
0.0
 11
11600.43325741133
 21
4350.925555112488
 31
0.0
 70
    32
 71
     5
 42
2020.000000000001
  3
INABA_S40G
100
AcDbAlignedDimension
 13
10995.51791046283
 23
3340.925555112487
 33
0.0
 14
11075.51791046283
 24
5360.925555112488
 34
0.0
 50
90.0
100
AcDbRotatedDimension
1001
ACAD
1000
DSTYLE
1002
{
1070
   174
1070
     0
1070
   272
1070
     1
1070
   288
1070
     0
1070
   341
1005
0
1002
}
  0
LINE
  5
16768
330
747D
100
AcDbEntity
  8
部品1
100
AcDbLine
 10
10940.51791046283
 20
5180.925555112486
 30
0.0
 11
10940.51791046283
 21
3390.925555112487
 31
0.0
  0
LINE
  5
16769
330
747D
100
AcDbEntity
  8
部品1
100
AcDbLine
 10
10995.51791046282
 20
5235.562135947739
 30
0.0
 11
10995.51791046283
 21
3240.925555112486
 31
0.0
  0
LINE
  5
1676A
330
747D
100
AcDbEntity
  8
部品1
100
AcDbLine
 10
10100.51791046282
 20
5180.925555112486
 30
0.0
 11
10100.51791046282
 21
3390.925555112487
 31
0.0
  0
DIMENSION
  5
1676B
330
747D
100
AcDbEntity
  8
寸法
100
AcDbDimension
  2
*D24
 10
8781.767781279567
 20
3340.925555112487
 30
0.0
 11
8781.767781279567
 21
3034.878311017998
 31
0.0
 70
   160
 71
     5
 42
50.0
  3
INABA_S40G
100
AcDbAlignedDimension
 13
9625.517910462827
 23
3390.925555112487
 33
0.0
 14
9570.517910462825
 24
3340.925555112487
 34
0.0
 50
90.0
100
AcDbRotatedDimension
1001
ACAD
1000
DSTYLE
1002
{
1070
   174
1070
     0
1070
   272
1070
     1
1070
   288
1070
     0
1070
   341
1005
0
1002
}
  0
DIMENSION
  5
1676C
330
747D
100
AcDbEntity
  8
寸法
100
AcDbDimension
  2
*D22
 10
8781.767781279567
 20
3390.925555112487
 30
0.0
 11
8681.767781279566
 21
4285.925555112488
 31
0.0
 70
    32
 71
     5
 42
1789.999999999999
  3
INABA_S40G
100
AcDbAlignedDimension
 13
9625.517910462827
 23
5180.925555112486
 33
0.0
 14
9625.517910462827
 24
3390.925555112487
 34
0.0
 50
90.0
100
AcDbRotatedDimension
1001
ACAD
1000
DSTYLE
1002
{
1070
   174
1070
     0
1070
   272
1070
     1
1070
   288
1070
     0
1070
   341
1005
0
1002
}
  0
LINE
  5
1676D
330
747D
100
AcDbEntity
  8
部品1
100
AcDbLine
 10
9625.517910462832
 20
5272.502449052929
 30
0.0
 11
9625.517910462827
 21
3240.925555112486
 31
0.0
  0
LINE
  5
1676E
330
747D
100
AcDbEntity
  8
部品1
100
AcDbLine
 10
9680.517910462826
 20
5180.925555112486
 30
0.0
 11
9680.517910462826
 21
3390.925555112487
 31
0.0
  0
LINE
  5
1676F
330
747D
100
AcDbEntity
  8
部品1
100
AcDbLine
 10
9625.517910462827
 20
3390.925555112487
 30
0.0
 11
10995.51791046283
 21
3390.925555112488
 31
0.0
  0
LINE
  5
16770
330
747D
100
AcDbEntity
  8
部品1
100
AcDbLine
 10
9618.51554041805
 20
5180.925555112486
 30
0.0
 11
10995.51791046283
 21
5180.925555112486
 31
0.0
  0
LINE
  5
16771
330
747D
100
AcDbEntity
  8
部品1
 48
50.0
100
AcDbLine
 10
9618.51554041805
 20
3390.925555112488
 30
0.0
 11
9625.517910462827
 21
3390.925555112488
 31
0.0
  0
LINE
  5
16772
330
747D
100
AcDbEntity
  8
部品1
 48
0.2
100
AcDbLine
 10
9618.51554041805
 20
3401.675555112488
 30
0.0
 11
9618.51554041805
 21
3390.925555112488
 31
0.0
  0
LINE
  5
16773
330
747D
100
AcDbEntity
  8
部品1
 48
50.0
100
AcDbLine
 10
9618.51554041805
 20
3401.675555112488
 30
0.0
 11
9625.517910462827
 21
3401.675555112488
 31
0.0
  0
LINE
  5
16774
330
747D
100
AcDbEntity
  8
部品1
 48
50.0
100
AcDbLine
 10
9618.51554041805
 20
5170.175555112485
 30
0.0
 11
9625.517910462827
 21
5170.175555112485
 31
0.0
  0
LINE
  5
16775
330
747D
100
AcDbEntity
  8
部品1
 48
0.2
100
AcDbLine
 10
9618.51554041805
 20
5180.925555112484
 30
0.0
 11
9618.51554041805
 21
5170.175555112486
 31
0.0
  0
DIMENSION
  5
16776
330
747D
100
AcDbEntity
  8
寸法
100
AcDbDimension
  2
*D23
 10
8481.767781279566
 20
5415.925555112491
 30
0.0
 11
8381.755970255943
 21
4378.425555112491
 31
0.0
 70
    32
 71
     5
 42
2075.000000000004
  3
INABA_S40G
100
AcDbAlignedDimension
 13
9625.517910462827
 23
3340.925555112487
 33
0.0
 14
9565.517910462828
 24
5415.925555112491
 34
0.0
 50
90.0
100
AcDbRotatedDimension
1001
ACAD
1000
DSTYLE
1002
{
1070
   174
1070
     0
1070
   272
1070
     1
1070
   288
1070
     0
1070
   341
1005
0
1002
}
  0
TEXT
  5
16777
330
747D
100
AcDbEntity
  8
部品1
100
AcDbText
 10
5973.510599279071
 20
2256.982739537521
 30
0.0
 40
135.0
  1
正面図
  7
STYLE2
100
AcDbText
  0
LWPOLYLINE
  5
16778
330
747D
100
AcDbEntity
  8
部品1
100
AcDbPolyline
 90
        4
 70
     1
 43
0.0
 10
5882.985195541115
 20
2449.876268756045
 10
5882.985195541115
 20
2209.983947210512
 10
6646.455861769554
 20
2209.983947210512
 10
6646.455861769554
 20
2449.876268756045
  0
TEXT
  5
16C22
330
747D
100
AcDbEntity
  8
文字
 62
     7
 48
50.0
100
AcDbText
 10
14260.68475616112
 20
855.469579666289
 30
0.0
 40
100.0
  1
～一般型・多雪地型・豪雪地型～
  7
STYLE2
100
AcDbText
  0
DIMENSION
  5
16C58
330
747D
100
AcDbEntity
  8
寸法
100
AcDbDimension
  2
*D31
 10
5662.785105499363
 20
8652.714193327033
 30
0.0
 11
5216.785105499366
 21
8652.714193327033
 31
0.0
 70
   160
 71
     5
 42
892.0
  3
INABA_S40G
100
AcDbAlignedDimension
 13
4868.720535332947
 23
9018.214193327036
 33
0.0
 14
5760.720535332946
 24
9018.214193327061
 34
0.0
100
AcDbRotatedDimension
1001
ACAD
1000
DSTYLE
1002
{
1002
}
  0
LINE
  5
16C59
330
747D
100
AcDbEntity
  8
破線
 48
10.0
100
AcDbLine
 10
4896.22114184316
 20
8875.214222551541
 30
0.0
 11
5734.220528655309
 21
8875.214187961013
 31
0.0
  0
LINE
  5
16C5A
330
747D
100
AcDbEntity
  8
破線
 48
10.0
100
AcDbLine
 10
4896.22114184316
 20
8825.214222551542
 30
0.0
 11
5734.22052865531
 21
8825.214187961014
 31
0.0
  0
DIMENSION
  5
16C5B
330
747D
100
AcDbEntity
  8
寸法
100
AcDbDimension
  2
*D32
 10
6612.785105499338
 20
8652.714193327033
 30
0.0
 11
6166.785105499354
 21
8652.714193327033
 31
0.0
 70
   160
 71
     5
 42
891.9999999999964
  3
INABA_S40G
100
AcDbAlignedDimension
 13
5818.720535332946
 23
9018.214193327036
 33
0.0
 14
6710.720535332943
 24
9018.214193327141
 34
0.0
100
AcDbRotatedDimension
1001
ACAD
1000
DSTYLE
1002
{
1002
}
  0
LINE
  5
16C5C
330
747D
100
AcDbEntity
  8
破線
 48
10.0
100
AcDbLine
 10
5845.220524723797
 20
8875.214221416412
 30
0.0
 11
6684.220528655309
 21
8875.214186784582
 31
0.0
  0
LINE
  5
16C5D
330
747D
100
AcDbEntity
  8
破線
 48
10.0
100
AcDbLine
 10
5845.220524527959
 20
8825.214221416414
 30
0.0
 11
6684.220528655313
 21
8825.214186784583
 31
0.0
  0
LINE
  5
16C88
330
747D
100
AcDbEntity
  8
破線
 48
10.0
100
AcDbLine
 10
6795.220524527959
 20
8825.214237472916
 30
0.0
 11
7634.220528655312
 21
8825.214202841086
 31
0.0
  0
LINE
  5
16C89
330
747D
100
AcDbEntity
  8
破線
 48
10.0
100
AcDbLine
 10
6795.220524723797
 20
8875.214237472913
 30
0.0
 11
7634.220528655309
 21
8875.214202841084
 31
0.0
  0
DIMENSION
  5
16C8A
330
747D
100
AcDbEntity
  8
寸法
100
AcDbDimension
  2
*D33
 10
7562.785105499338
 20
8652.714209383534
 30
0.0
 11
7116.785105499353
 21
8652.714209383534
 31
0.0
 70
   160
 71
     5
 42
891.9999999999964
  3
INABA_S40G
100
AcDbAlignedDimension
 13
6768.720535332946
 23
9018.214209383538
 33
0.0
 14
7660.720535332943
 24
9018.214209383643
 34
0.0
100
AcDbRotatedDimension
1001
ACAD
1000
DSTYLE
1002
{
1002
}
  0
LINE
  5
16CA0
330
747D
100
AcDbEntity
  8
破線
 48
10.0
100
AcDbLine
 10
4919.720576543385
 20
8825.214221581545
 30
0.0
 11
4919.720528655336
 21
8282.714193327072
 31
0.0
  0
LINE
  5
16CA1
330
747D
100
AcDbEntity
  8
破線
 48
10.0
100
AcDbLine
 10
5710.720521925122
 20
8875.214188931034
 30
0.0
 11
5710.720520300784
 21
9018.214193327166
 31
0.0
  0
LINE
  5
16CA2
330
747D
100
AcDbEntity
  8
破線
 48
10.0
100
AcDbLine
 10
5868.720518641151
 20
8875.214182409189
 30
0.0
 11
5868.720516224224
 21
9018.214193327109
 31
0.0
  0
LINE
  5
16CA3
330
747D
100
AcDbEntity
  8
破線
 48
10.0
100
AcDbLine
 10
6660.720521925121
 20
8875.214149717399
 30
0.0
 11
6660.720520300784
 21
9018.214193327166
 31
0.0
  0
LINE
  5
16CA4
330
747D
100
AcDbEntity
  8
破線
 48
10.0
100
AcDbLine
 10
6818.72051864115
 20
8875.214143195554
 30
0.0
 11
6818.720516224225
 21
9018.214193327109
 31
0.0
  0
LINE
  5
16CA5
330
747D
100
AcDbEntity
  8
破線
 48
10.0
100
AcDbLine
 10
7609.720576543349
 20
8825.214110545045
 30
0.0
 11
7609.720528655333
 21
8282.714193327151
 31
0.0
  0
TEXT
  5
16CFF
330
747D
100
AcDbEntity
  8
文字
 62
     7
 48
50.0
100
AcDbText
 10
13583.11819016568
 20
9060.013745883729
 30
0.0
 40
100.0
  1
脇パネル
  7
STYLE1
100
AcDbText
  0
TEXT
  5
16D00
330
747D
100
AcDbEntity
  8
文字
 62
     7
 48
50.0
100
AcDbText
 10
15022.63965474515
 20
9060.013745883725
 30
0.0
 40
100.0
  1
F12            0.6
  7
STYLE1
100
AcDbText
  0
TEXT
  5
16D01
330
747D
100
AcDbEntity
  8
文字
 62
     7
 48
50.0
100
AcDbText
 10
13248.77747366447
 20
8550.013745883735
 30
0.0
 40
100.0
  1
16
  7
STYLE1
100
AcDbText
  0
LINE
  5
16D02
330
747D
100
AcDbEntity
  8
仕様書枠
 48
50.0
100
AcDbLine
 10
16307.19999999997
 20
8179.600000000007
 30
0.0
 11
13127.19999999997
 21
8179.600000000007
 31
0.0
  0
TEXT
  5
16D03
330
747D
100
AcDbEntity
  8
文字
 62
     7
 48
50.0
100
AcDbText
 10
13583.1181901657
 20
9570.013745883729
 30
0.0
 40
100.0
  1
母屋中
  7
STYLE1
100
AcDbText
  0
TEXT
  5
16D04
330
747D
100
AcDbEntity
  8
文字
 62
     7
 48
50.0
100
AcDbText
 10
15022.63965474518
 20
9570.013745883725
 30
0.0
 40
100.0
  1
F12            1.0
  7
STYLE1
100
AcDbText
  0
TEXT
  5
16D05
330
747D
100
AcDbEntity
  8
文字
 62
     7
 48
50.0
100
AcDbText
 10
13248.77747366447
 20
8890.013745883731
 30
0.0
 40
100.0
  1
14
  7
STYLE1
100
AcDbText
  0
LINE
  5
16D06
330
747D
100
AcDbEntity
  8
仕様書枠
 48
50.0
100
AcDbLine
 10
16307.2
 20
9539.6
 30
0.0
 11
13127.2
 21
9539.6
 31
0.0
  0
TEXT
  5
16D07
330
747D
100
AcDbEntity
  8
文字
 62
     7
 48
50.0
100
AcDbText
 10
13583.11819016567
 20
8720.013745883733
 30
0.0
 40
100.0
  1
棚板
  7
STYLE1
100
AcDbText
  0
TEXT
  5
16D08
330
747D
100
AcDbEntity
  8
文字
 62
     7
 48
50.0
100
AcDbText
 10
15022.63965474513
 20
8720.013745883729
 30
0.0
 40
100.0
  1
F12            0.6
  7
STYLE1
100
AcDbText
  0
TEXT
  5
16D09
330
747D
100
AcDbEntity
  8
文字
 62
     7
 48
50.0
100
AcDbText
 10
13583.11819016567
 20
8890.013745883729
 30
0.0
 40
100.0
  1
扉
  7
STYLE1
100
AcDbText
  0
TEXT
  5
16D0A
330
747D
100
AcDbEntity
  8
文字
 62
     7
 48
50.0
100
AcDbText
 10
15022.63965474513
 20
8890.013745883726
 30
0.0
 40
100.0
  1
F12            0.8
  7
STYLE1
100
AcDbText
  0
TEXT
  5
16D0B
330
747D
100
AcDbEntity
  8
文字
 62
     7
 48
50.0
100
AcDbText
 10
15022.63965474517
 20
10590.01374588372
 30
0.0
 40
100.0
  1
F12            1.0
  7
STYLE1
100
AcDbText
  0
TEXT
  5
16D0C
330
747D
100
AcDbEntity
  8
文字
 62
     7
 48
50.0
100
AcDbText
 10
13583.1181901657
 20
10590.01374588373
 30
0.0
 40
100.0
  1
床パネル
 41
0.9
  7
STYLE1
100
AcDbText
  0
LINE
  5
16D0D
330
747D
100
AcDbEntity
  8
仕様書枠
 48
50.0
100
AcDbLine
 10
16307.19999999998
 20
8689.6
 30
0.0
 11
13127.19999999999
 21
8689.600000000003
 31
0.0
  0
LINE
  5
16D0E
330
747D
100
AcDbEntity
  8
仕様書枠
 48
50.0
100
AcDbLine
 10
13127.2
 20
11409.6
 30
0.0
 11
13127.19999999999
 21
8179.600000000007
 31
0.0
  0
TEXT
  5
16D0F
330
747D
100
AcDbEntity
  8
文字
 62
     7
 48
50.0
100
AcDbText
 10
13229.83081656552
 20
8210.013745883729
 30
0.0
 40
100.0
  1
Y10→溶融亜鉛-5％アルミニウム合金めっき鋼板(JIS G 3317)
 41
0.9
  7
STYLE1
100
AcDbText
  0
TEXT
  5
16D10
330
747D
100
AcDbEntity
  8
文字
 62
     7
 48
50.0
100
AcDbText
 10
13229.83081656552
 20
8380.013745883728
 30
0.0
 40
100.0
  1
F12→溶融亜鉛めっき鋼板(JIS G 3302)
  7
STYLE1
100
AcDbText
  0
LINE
  5
16D11
330
747D
100
AcDbEntity
  8
仕様書枠
 48
50.0
100
AcDbLine
 10
16307.19999999998
 20
8349.600000000004
 30
0.0
 11
13127.19999999999
 21
8349.600000000004
 31
0.0
  0
TEXT
  5
16D12
330
747D
100
AcDbEntity
  8
文字
 62
     7
 48
50.0
100
AcDbText
 10
15022.63965474515
 20
9230.013745883725
 30
0.0
 40
100.0
  1
F12            0.6
  7
STYLE1
100
AcDbText
  0
TEXT
  5
16D13
330
747D
100
AcDbEntity
  8
文字
 62
     7
 48
50.0
100
AcDbText
 10
15022.63965474516
 20
9400.013745883725
 30
0.0
 40
100.0
  1
Y10            0.5
  7
STYLE1
100
AcDbText
  0
TEXT
  5
16D14
330
747D
100
AcDbEntity
  8
文字
 62
     7
 48
50.0
100
AcDbText
 10
15022.63965474517
 20
9910.013745883725
 30
0.0
 40
100.0
  1
Y10            0.7
  7
STYLE1
100
AcDbText
  0
TEXT
  5
16D15
330
747D
100
AcDbEntity
  8
文字
 62
     7
 48
50.0
100
AcDbText
 10
15022.63965474517
 20
10080.01374588372
 30
0.0
 40
100.0
  1
Y10            0.7
  7
STYLE1
100
AcDbText
  0
TEXT
  5
16D16
330
747D
100
AcDbEntity
  8
文字
 62
     7
 48
50.0
100
AcDbText
 10
15022.63965474517
 20
10250.01374588372
 30
0.0
 40
100.0
  1
Y10            1.0
  7
STYLE1
100
AcDbText
  0
TEXT
  5
16D17
330
747D
100
AcDbEntity
  8
文字
 62
     7
 48
50.0
100
AcDbText
 10
15022.63965474517
 20
10420.01374588372
 30
0.0
 40
100.0
  1
Y10            1.0
  7
STYLE1
100
AcDbText
  0
TEXT
  5
16D18
330
747D
100
AcDbEntity
  8
文字
 62
     7
 48
50.0
100
AcDbText
 10
15022.63965474518
 20
10760.01374588372
 30
0.0
 40
100.0
  1
F12            1.0
  7
STYLE1
100
AcDbText
  0
TEXT
  5
16D19
330
747D
100
AcDbEntity
  8
文字
 62
     7
 48
50.0
100
AcDbText
 10
15022.63965474517
 20
11100.01374588372
 30
0.0
 40
100.0
  1
F12            1.2
  7
STYLE1
100
AcDbText
  0
TEXT
  5
16D1A
330
747D
100
AcDbEntity
  8
文字
 62
     7
 48
50.0
100
AcDbText
 10
13248.77747366447
 20
9230.013745883729
 30
0.0
 40
100.0
  1
12
  7
STYLE1
100
AcDbText
  0
TEXT
  5
16D1B
330
747D
100
AcDbEntity
  8
文字
 62
     7
 48
50.0
100
AcDbText
 10
13248.77747366447
 20
9060.013745883729
 30
0.0
 40
100.0
  1
13
  7
STYLE1
100
AcDbText
  0
LINE
  5
16D1C
330
747D
100
AcDbEntity
  8
仕様書枠
 48
50.0
100
AcDbLine
 10
16307.19999999998
 20
8519.600000000002
 30
0.0
 11
13127.19999999999
 21
8519.600000000004
 31
0.0
  0
LINE
  5
16D1D
330
747D
100
AcDbEntity
  8
仕様書枠
 48
50.0
100
AcDbLine
 10
16307.19999999998
 20
8859.6
 30
0.0
 11
13127.19999999999
 21
8859.6
 31
0.0
  0
TEXT
  5
16D1E
330
747D
100
AcDbEntity
  8
文字
 62
     7
 48
50.0
100
AcDbText
 10
13248.77747366447
 20
9400.013745883729
 30
0.0
 40
100.0
  1
11
  7
STYLE1
100
AcDbText
  0
LINE
  5
16D1F
330
747D
100
AcDbEntity
  8
仕様書枠
 48
50.0
100
AcDbLine
 10
16307.2
 20
9709.600000000001
 30
0.0
 11
13127.2
 21
9709.600000000001
 31
0.0
  0
LINE
  5
16D20
330
747D
100
AcDbEntity
  8
仕様書枠
 48
50.0
100
AcDbLine
 10
16307.2
 20
10049.6
 30
0.0
 11
13127.2
 21
10049.6
 31
0.0
  0
LINE
  5
16D21
330
747D
100
AcDbEntity
  8
仕様書枠
 48
50.0
100
AcDbLine
 10
16307.19999999998
 20
9199.600000000001
 30
0.0
 11
13127.19999999999
 21
9199.600000000001
 31
0.0
  0
LINE
  5
16D22
330
747D
100
AcDbEntity
  8
仕様書枠
 48
50.0
100
AcDbLine
 10
16307.19999999998
 20
9029.6
 30
0.0
 11
13127.19999999999
 21
9029.6
 31
0.0
  0
LINE
  5
16D23
330
747D
100
AcDbEntity
  8
仕様書枠
 48
50.0
100
AcDbLine
 10
16307.19999999998
 20
9369.600000000001
 30
0.0
 11
13127.19999999999
 21
9369.600000000001
 31
0.0
  0
TEXT
  5
16D24
330
747D
100
AcDbEntity
  8
文字
 62
     7
 48
50.0
100
AcDbText
 10
13271.19032244793
 20
10250.01374588373
 30
0.0
 40
100.0
  1
6
  7
STYLE1
100
AcDbText
  0
TEXT
  5
16D25
330
747D
100
AcDbEntity
  8
文字
 62
     7
 48
50.0
100
AcDbText
 10
13271.19032244792
 20
10080.01374588373
 30
0.0
 40
100.0
  1
7
  7
STYLE1
100
AcDbText
  0
TEXT
  5
16D26
330
747D
100
AcDbEntity
  8
文字
 62
     7
 48
50.0
100
AcDbText
 10
13271.19032244792
 20
9740.013745883729
 30
0.0
 40
100.0
  1
9
  7
STYLE1
100
AcDbText
  0
TEXT
  5
16D27
330
747D
100
AcDbEntity
  8
文字
 62
     7
 48
50.0
100
AcDbText
 10
13271.19032244792
 20
9910.01374588373
 30
0.0
 40
100.0
  1
8
  7
STYLE1
100
AcDbText
  0
TEXT
  5
16D28
330
747D
100
AcDbEntity
  8
文字
 62
     7
 48
50.0
100
AcDbText
 10
13583.1181901657
 20
9910.01374588373
 30
0.0
 40
100.0
  1
鼻隠シ前後
  7
STYLE1
100
AcDbText
  0
TEXT
  5
16D29
330
747D
100
AcDbEntity
  8
文字
 62
     7
 48
50.0
100
AcDbText
 10
13583.11819016569
 20
9400.013745883729
 30
0.0
 40
100.0
  1
屋根パネル
  7
STYLE1
100
AcDbText
  0
TEXT
  5
16D2A
330
747D
100
AcDbEntity
  8
文字
 62
     7
 48
50.0
100
AcDbText
 10
13583.11819016568
 20
9230.013745883729
 30
0.0
 40
100.0
  1
壁パネル
  7
STYLE1
100
AcDbText
  0
TEXT
  5
16D2B
330
747D
100
AcDbEntity
  8
文字
 62
     7
 48
50.0
100
AcDbText
 10
13248.77747366447
 20
9570.013745883729
 30
0.0
 40
100.0
  1
10
  7
STYLE1
100
AcDbText
  0
TEXT
  5
16D2C
330
747D
100
AcDbEntity
  8
文字
 62
     7
 48
50.0
100
AcDbText
 10
13583.1181901657
 20
10080.01374588373
 30
0.0
 40
100.0
  1
妻板左右
  7
STYLE1
100
AcDbText
  0
TEXT
  5
16D2D
330
747D
100
AcDbEntity
  8
文字
 62
     7
 48
50.0
100
AcDbText
 10
13271.19032244793
 20
10420.01374588373
 30
0.0
 40
100.0
  1
5
  7
STYLE1
100
AcDbText
  0
TEXT
  5
16D2E
330
747D
100
AcDbEntity
  8
文字
 62
     7
 48
50.0
100
AcDbText
 10
13583.1181901657
 20
10250.01374588373
 30
0.0
 40
100.0
  1
桁後
  7
STYLE1
100
AcDbText
  0
TEXT
  5
16D2F
330
747D
100
AcDbEntity
  8
文字
 62
     7
 48
50.0
100
AcDbText
 10
13583.1181901657
 20
10420.01374588373
 30
0.0
 40
100.0
  1
鴨居
  7
STYLE1
100
AcDbText
  0
TEXT
  5
16D30
330
747D
100
AcDbEntity
  8
文字
 62
     7
 48
50.0
100
AcDbText
 10
13583.1181901657
 20
10760.01374588373
 30
0.0
 40
100.0
  1
柱
  7
STYLE1
100
AcDbText
  0
TEXT
  5
16D31
330
747D
100
AcDbEntity
  8
文字
 62
     7
 48
50.0
100
AcDbText
 10
13583.11819016569
 20
11100.01374588373
 30
0.0
 40
100.0
  1
土台枠
  7
STYLE1
100
AcDbText
  0
TEXT
  5
16D32
330
747D
100
AcDbEntity
  8
文字
 62
     7
 48
50.0
100
AcDbText
 10
14859.79774614482
 20
11270.01374588373
 30
0.0
 40
100.0
  1
材料（材質）　　単位mm
  7
STYLE1
100
AcDbText
  0
TEXT
  5
16D33
330
747D
100
AcDbEntity
  8
文字
 62
     7
 48
50.0
100
AcDbText
 10
13732.03840939434
 20
11270.01374588373
 30
0.0
 40
100.0
  1
部　　品　　名
  7
STYLE1
100
AcDbText
  0
TEXT
  5
16D34
330
747D
100
AcDbEntity
  8
文字
 62
     7
 48
50.0
100
AcDbText
 10
13271.19032244793
 20
10760.01374588373
 30
0.0
 40
100.0
  1
3
  7
STYLE1
100
AcDbText
  0
TEXT
  5
16D35
330
747D
100
AcDbEntity
  8
文字
 62
     7
 48
50.0
100
AcDbText
 10
13271.19032244793
 20
10590.01374588373
 30
0.0
 40
100.0
  1
4
  7
STYLE1
100
AcDbText
  0
TEXT
  5
16D36
330
747D
100
AcDbEntity
  8
文字
 62
     7
 48
50.0
100
AcDbText
 10
13271.19032244792
 20
10930.01374588373
 30
0.0
 40
100.0
  1
2
  7
STYLE1
100
AcDbText
  0
TEXT
  5
16D37
330
747D
100
AcDbEntity
  8
文字
 62
     7
 48
50.0
100
AcDbText
 10
13271.19032244792
 20
11100.01374588373
 30
0.0
 40
100.0
  1
1
  7
STYLE1
100
AcDbText
  0
TEXT
  5
16D38
330
747D
100
AcDbEntity
  8
文字
 62
     7
 48
50.0
100
AcDbText
 10
13197.42518560407
 20
11270.01374588373
 30
0.0
 40
100.0
  1
品番
  7
STYLE1
100
AcDbText
  0
LINE
  5
16D39
330
747D
100
AcDbEntity
  8
仕様書枠
 48
50.0
100
AcDbLine
 10
16307.19999999999
 20
10559.6
 30
0.0
 11
13127.2
 21
10559.6
 31
0.0
  0
LINE
  5
16D3A
330
747D
100
AcDbEntity
  8
仕様書枠
 48
50.0
100
AcDbLine
 10
16307.19999999999
 20
10219.6
 30
0.0
 11
13127.2
 21
10219.6
 31
0.0
  0
LINE
  5
16D3B
330
747D
100
AcDbEntity
  8
仕様書枠
 48
50.0
100
AcDbLine
 10
16307.19999999999
 20
10389.6
 30
0.0
 11
13127.2
 21
10389.6
 31
0.0
  0
LINE
  5
16D3C
330
747D
100
AcDbEntity
  8
仕様書枠
 48
50.0
100
AcDbLine
 10
16307.19999999999
 20
11069.6
 30
0.0
 11
13127.2
 21
11069.6
 31
0.0
  0
LINE
  5
16D3D
330
747D
100
AcDbEntity
  8
仕様書枠
 48
50.0
100
AcDbLine
 10
16307.2
 20
10729.6
 30
0.0
 11
13127.2
 21
10729.6
 31
0.0
  0
LINE
  5
16D3E
330
747D
100
AcDbEntity
  8
仕様書枠
 48
50.0
100
AcDbLine
 10
16307.19999999999
 20
11239.6
 30
0.0
 11
13127.2
 21
11239.6
 31
0.0
  0
LINE
  5
16D3F
330
747D
100
AcDbEntity
  8
仕様書枠
 48
50.0
100
AcDbLine
 10
13490.2
 20
11409.6
 30
0.0
 11
13490.2
 21
8519.600000000004
 31
0.0
  0
LINE
  5
16D40
330
747D
100
AcDbEntity
  8
仕様書枠
 48
50.0
100
AcDbLine
 10
14785.2
 20
11409.59999999999
 30
0.0
 11
14785.19999999999
 21
8519.600000000002
 31
0.0
  0
LINE
  5
16D41
330
747D
100
AcDbEntity
  8
仕様書枠
 48
50.0
100
AcDbLine
 10
16307.19999999999
 20
8179.600000000007
 30
0.0
 11
16307.2
 21
11409.6
 31
0.0
  0
LINE
  5
16D42
330
747D
100
AcDbEntity
  8
仕様書枠
 48
50.0
100
AcDbLine
 10
16307.2
 20
9879.600000000001
 30
0.0
 11
13127.2
 21
9879.600000000001
 31
0.0
  0
TEXT
  5
16D43
330
747D
100
AcDbEntity
  8
文字
 62
     7
 48
50.0
100
AcDbText
 10
15022.63965474512
 20
8550.013745883722
 30
0.0
 40
100.0
  1
F12            2.3
  7
STYLE1
100
AcDbText
  0
TEXT
  5
16D44
330
747D
100
AcDbEntity
  8
文字
 62
     7
 48
50.0
100
AcDbText
 10
13583.11819016566
 20
8550.013745883729
 30
0.0
 40
100.0
  1
アンカープレート
  7
STYLE1
100
AcDbText
  0
TEXT
  5
16D45
330
747D
100
AcDbEntity
  8
文字
 62
     7
 48
50.0
100
AcDbText
 10
15022.63965474517
 20
9740.013745883729
 30
0.0
 40
100.0
  1
F12,Y10       0.7+1.0
  7
STYLE1
100
AcDbText
  0
TEXT
  5
16D46
330
747D
100
AcDbEntity
  8
文字
 62
     7
 48
50.0
100
AcDbText
 10
13583.1181901657
 20
9740.013745883729
 30
0.0
 40
100.0
  1
梁中央
 41
0.9
  7
STYLE1
100
AcDbText
  0
LINE
  5
16D47
330
747D
100
AcDbEntity
  8
仕様書枠
 48
50.0
100
AcDbLine
 10
16307.2
 20
10899.6
 30
0.0
 11
13127.2
 21
10899.6
 31
0.0
  0
TEXT
  5
16D48
330
747D
100
AcDbEntity
  8
文字
 62
     7
 48
50.0
100
AcDbText
 10
13248.77747366447
 20
8720.013745883735
 30
0.0
 40
100.0
  1
15
  7
STYLE1
100
AcDbText
  0
TEXT
  5
16D49
330
747D
100
AcDbEntity
  8
文字
 62
     7
 48
50.0
100
AcDbText
 10
13583.11819016569
 20
10930.01374588373
 30
0.0
 40
100.0
  1
根太
  7
STYLE1
100
AcDbText
  0
TEXT
  5
16D4A
330
747D
100
AcDbEntity
  8
文字
 62
     7
 48
50.0
100
AcDbText
 10
15022.63965474517
 20
10930.01374588372
 30
0.0
 40
100.0
  1
F12            1.2
  7
STYLE1
100
AcDbText
  0
ENDSEC
  0
SECTION
  2
OBJECTS
  0
DICTIONARY
  5
7471
330
0
100
AcDbDictionary
281
     1
  3
ACAD_COLOR
350
15CA5
  3
ACAD_GROUP
350
7472
  3
ACAD_LAYOUT
350
15CA6
  3
ACAD_MATERIAL
350
15CA4
  3
ACAD_MLINESTYLE
350
7473
  3
ACAD_PLOTSETTINGS
350
15CA7
  3
ACAD_PLOTSTYLENAME
350
15CA2
  3
ACDBHEADERROUNDTRIPXREC
350
16D62
  3
AcDbVariableDictionary
350
16D5E
  3
CONTENTDICTIONARY
350
E71C
  3
DRAWINGVARIABLESDICT
350
F3B9
  0
DICTIONARY
  5
15E1F
330
7467
100
AcDbDictionary
280
     1
281
     1
  3
ACAD_LAYERSTATES
360
15E20
  0
DICTIONARY
  5
15CA5
102
{ACAD_REACTORS
330
7471
102
}
330
7471
100
AcDbDictionary
281
     1
  0
DICTIONARY
  5
7472
102
{ACAD_REACTORS
330
7471
102
}
330
7471
100
AcDbDictionary
281
     1
  0
DICTIONARY
  5
15CA6
102
{ACAD_REACTORS
330
7471
102
}
330
7471
100
AcDbDictionary
281
     1
  3
Model
350
15CA8
  3
レイアウト1
350
15CA9
  0
DICTIONARY
  5
15CA4
102
{ACAD_REACTORS
330
7471
102
}
330
7471
100
AcDbDictionary
281
     1
  0
DICTIONARY
  5
7473
102
{ACAD_REACTORS
330
7471
102
}
330
7471
100
AcDbDictionary
281
     1
  3
STANDARD
350
7480
  0
DICTIONARY
  5
15CA7
102
{ACAD_REACTORS
330
7471
102
}
330
7471
100
AcDbDictionary
281
     1
  0
ACDBDICTIONARYWDFLT
  5
15CA2
102
{ACAD_REACTORS
330
7471
102
}
330
7471
100
AcDbDictionary
281
     1
  3
Normal
350
15CA3
100
AcDbDictionaryWithDefault
340
15CA3
  0
DICTIONARY
  5
16D62
102
{ACAD_REACTORS
330
7471
102
}
330
7471
100
AcDbDictionary
281
     1
  3
COLORDICT
350
16D64
  3
MATERIALDICT
350
16D63
  0
DICTIONARY
  5
16D5E
102
{ACAD_REACTORS
330
7471
102
}
330
7471
100
AcDbDictionary
281
     1
  3
DIMASSOC
350
16D5F
  3
PROJECTNAME
350
16D60
  0
DICTIONARY
  5
E71C
102
{ACAD_REACTORS
330
7471
102
}
330
7471
100
AcDbDictionary
281
     1
  0
DICTIONARY
  5
F3B9
102
{ACAD_REACTORS
330
7471
102
}
330
7471
100
AcDbDictionary
281
     1
1001
DRAWINGVARIABLESXDATA
1000
POLARMODE
1000
1
  0
DICTIONARY
  5
15E20
102
{ACAD_REACTORS
330
15E1F
102
}
330
15E1F
100
AcDbDictionary
281
     1
  0
LAYOUT
  5
15CA8
102
{ACAD_XDICTIONARY
360
16D65
102
}
102
{ACAD_REACTORS
330
15CA6
102
}
330
15CA6
100
AcDbPlotSettings
  1

  2
Microsoft Office Document Image Writer
  4

  6

 40
0.0
 41
0.0
 42
0.0
 43
0.0
 44
0.0
 45
0.0
 46
0.0
 47
0.0
 48
0.0
 49
0.0
140
0.0
141
0.0
142
1.0
143
1.0
 70
  1712
 72
     0
 73
     0
 74
     0
  7

 75
     0
147
1.0
148
0.0
149
0.0
100
AcDbLayout
  1
Model
 70
     1
 71
     0
 10
0.0
 20
0.0
 11
12.0
 21
9.0
 12
0.0
 22
0.0
 32
0.0
 14
0.0
 24
0.0
 34
0.0
 15
0.0
 25
0.0
 35
0.0
146
0.0
 13
0.0
 23
0.0
 33
0.0
 16
1.0
 26
0.0
 36
0.0
 17
0.0
 27
1.0
 37
0.0
 76
     0
330
747D
  0
LAYOUT
  5
15CA9
102
{ACAD_XDICTIONARY
360
16D67
102
}
102
{ACAD_REACTORS
330
15CA6
102
}
330
15CA6
100
AcDbPlotSettings
  1

  2
Microsoft Office Document Image Writer
  4

  6

 40
0.0
 41
0.0
 42
0.0
 43
0.0
 44
0.0
 45
0.0
 46
0.0
 47
0.0
 48
0.0
 49
0.0
140
0.0
141
0.0
142
1.0
143
1.0
 70
   688
 72
     0
 73
     0
 74
     5
  7

 75
    16
147
1.0
148
0.0
149
0.0
100
AcDbLayout
  1
レイアウト1
 70
     0
 71
     1
 10
0.0
 20
0.0
 11
420.0
 21
297.0
 12
0.0
 22
0.0
 32
0.0
 14
1.000000000000000E+20
 24
1.000000000000000E+20
 34
1.000000000000000E+20
 15
-1.000000000000000E+20
 25
-1.000000000000000E+20
 35
-1.000000000000000E+20
146
0.0
 13
0.0
 23
0.0
 33
0.0
 16
1.0
 26
0.0
 36
0.0
 17
0.0
 27
1.0
 37
0.0
 76
     0
330
747A
  0
MLINESTYLE
  5
7480
102
{ACAD_REACTORS
330
7473
102
}
330
7473
100
AcDbMlineStyle
  2
STANDARD
 70
     0
  3

 62
     0
 51
90.0
 52
90.0
 71
     2
 49
0.5
 62
   256
  6
BYLAYER
 49
-0.5
 62
   256
  6
BYLAYER
  0
ACDBPLACEHOLDER
  5
15CA3
102
{ACAD_REACTORS
330
15CA2
102
}
330
15CA2
  0
XRECORD
  5
16D64
102
{ACAD_REACTORS
330
16D62
102
}
330
16D62
100
AcDbXrecord
280
     1
340
15CA5
  0
XRECORD
  5
16D63
102
{ACAD_REACTORS
330
16D62
102
}
330
16D62
100
AcDbXrecord
280
     1
340
15CA4
  0
DICTIONARYVAR
  5
16D5F
102
{ACAD_REACTORS
330
16D5E
102
}
330
16D5E
100
DictionaryVariables
280
     0
  1
1
  0
DICTIONARYVAR
  5
16D60
102
{ACAD_REACTORS
330
16D5E
102
}
330
16D5E
100
DictionaryVariables
280
     0
  1

  0
DICTIONARY
  5
16D65
330
15CA8
100
AcDbDictionary
280
     1
281
     1
  3
ACAD_XREC_ROUNDTRIP
360
16D66
  0
DICTIONARY
  5
16D67
330
15CA9
100
AcDbDictionary
280
     1
281
     1
  3
ACAD_XREC_ROUNDTRIP
360
16D68
  0
XRECORD
  5
16D66
102
{ACAD_REACTORS
330
16D65
102
}
330
16D65
100
AcDbXrecord
280
     1
102
SHADEPLOT
 70
     0
102
SHADEPLOTRESLEVEL
 70
     2
102
SHADEPLOTCUSTOMDPI
 70
   300
  0
XRECORD
  5
16D68
102
{ACAD_REACTORS
330
16D67
102
}
330
16D67
100
AcDbXrecord
280
     1
102
SHADEPLOT
 70
     0
102
SHADEPLOTRESLEVEL
 70
     2
102
SHADEPLOTCUSTOMDPI
 70
   300
  0
ENDSEC
  0
EOF
