  0
SECTION
  2
HEADER
  9
$ACADVER
  1
AC1015
  9
$ACADMAINTVER
 70
    20
  9
$DWGCODEPAGE
  3
ANSI_932
  9
$INSBASE
 10
0.0
 20
0.0
 30
0.0
  9
$EXTMIN
 10
139.9999999999995
 20
-0.0000000000000909
 30
0.0
  9
$EXTMAX
 10
16307.2
 20
11409.6
 30
0.0
  9
$LIMMIN
 10
0.0
 20
0.0
  9
$LIMMAX
 10
16800.0
 20
11880.0
  9
$ORTHOMODE
 70
     0
  9
$REGENMODE
 70
     1
  9
$FILLMODE
 70
     1
  9
$QTEXTMODE
 70
     0
  9
$MIRRTEXT
 70
     1
  9
$LTSCALE
 40
20.0
  9
$ATTMODE
 70
     1
  9
$TEXTSIZE
 40
100.0
  9
$TRACEWID
 40
1.0
  9
$TEXTSTYLE
  7
STYLE3
  9
$CLAYER
  8
寸法
  9
$CELTYPE
  6
BYLAYER
  9
$CECOLOR
 62
   256
  9
$CELTSCALE
 40
50.0
  9
$DISPSILH
 70
     0
  9
$DIMSCALE
 40
40.0
  9
$DIMASZ
 40
2.5
  9
$DIMEXO
 40
0.5
  9
$DIMDLI
 40
7.0
  9
$DIMRND
 40
0.0
  9
$DIMDLE
 40
0.0
  9
$DIMEXE
 40
1.5
  9
$DIMTP
 40
0.0
  9
$DIMTM
 40
0.0
  9
$DIMTXT
 40
3.0
  9
$DIMCEN
 40
0.0
  9
$DIMTSZ
 40
0.0
  9
$DIMTOL
 70
     0
  9
$DIMLIM
 70
     0
  9
$DIMTIH
 70
     0
  9
$DIMTOH
 70
     0
  9
$DIMSE1
 70
     0
  9
$DIMSE2
 70
     0
  9
$DIMTAD
 70
     3
  9
$DIMZIN
 70
     8
  9
$DIMBLK
  1

  9
$DIMASO
 70
     1
  9
$DIMSHO
 70
     1
  9
$DIMPOST
  1

  9
$DIMAPOST
  1

  9
$DIMALT
 70
     0
  9
$DIMALTD
 70
     2
  9
$DIMALTF
 40
0.0394
  9
$DIMLFAC
 40
1.0
  9
$DIMTOFL
 70
     1
  9
$DIMTVP
 40
0.0
  9
$DIMTIX
 70
     1
  9
$DIMSOXD
 70
     0
  9
$DIMSAH
 70
     1
  9
$DIMBLK1
  1
DOTSMALL
  9
$DIMBLK2
  1
DOTSMALL
  9
$DIMSTYLE
  2
INABA_S40G
  9
$DIMCLRD
 70
     0
  9
$DIMCLRE
 70
     0
  9
$DIMCLRT
 70
     7
  9
$DIMTFAC
 40
1.0
  9
$DIMGAP
 40
1.0
  9
$DIMJUST
 70
     0
  9
$DIMSD1
 70
     0
  9
$DIMSD2
 70
     0
  9
$DIMTOLJ
 70
     1
  9
$DIMTZIN
 70
     0
  9
$DIMALTZ
 70
     0
  9
$DIMALTTZ
 70
     0
  9
$DIMUPT
 70
     0
  9
$DIMDEC
 70
     1
  9
$DIMTDEC
 70
     4
  9
$DIMALTU
 70
     2
  9
$DIMALTTD
 70
     2
  9
$DIMTXSTY
  7
STYLE1
  9
$DIMAUNIT
 70
     0
  9
$DIMADEC
 70
     0
  9
$DIMALTRND
 40
0.0
  9
$DIMAZIN
 70
     0
  9
$DIMDSEP
 70
    46
  9
$DIMATFIT
 70
     3
  9
$DIMFRAC
 70
     0
  9
$DIMLDRBLK
  1

  9
$DIMLUNIT
 70
     2
  9
$DIMLWD
 70
    -2
  9
$DIMLWE
 70
    -2
  9
$DIMTMOVE
 70
     0
  9
$LUNITS
 70
     2
  9
$LUPREC
 70
     1
  9
$SKETCHINC
 40
1.0
  9
$FILLETRAD
 40
5.0
  9
$AUNITS
 70
     0
  9
$AUPREC
 70
     0
  9
$MENU
  1
acad
  9
$ELEVATION
 40
0.0
  9
$PELEVATION
 40
0.0
  9
$THICKNESS
 40
0.0
  9
$LIMCHECK
 70
     0
  9
$CHAMFERA
 40
0.0
  9
$CHAMFERB
 40
0.0
  9
$CHAMFERC
 40
0.0
  9
$CHAMFERD
 40
0.0
  9
$SKPOLY
 70
     0
  9
$TDCREATE
 40
2452116.684896065
  9
$TDUCREATE
 40
2452116.309896065
  9
$TDUPDATE
 40
2455575.691198090
  9
$TDUUPDATE
 40
2455575.316198090
  9
$TDINDWG
 40
0.5366756597
  9
$TDUSRTIMER
 40
0.5366756597
  9
$USRTIMER
 70
     1
  9
$ANGBASE
 50
0.0
  9
$ANGDIR
 70
     0
  9
$PDMODE
 70
     3
  9
$PDSIZE
 40
2.0
  9
$PLINEWID
 40
0.0
  9
$SPLFRAME
 70
     0
  9
$SPLINETYPE
 70
     6
  9
$SPLINESEGS
 70
     8
  9
$HANDSEED
  5
17B5C
  9
$SURFTAB1
 70
     6
  9
$SURFTAB2
 70
     6
  9
$SURFTYPE
 70
     6
  9
$SURFU
 70
     6
  9
$SURFV
 70
     6
  9
$UCSBASE
  2

  9
$UCSNAME
  2

  9
$UCSORG
 10
0.0
 20
0.0
 30
0.0
  9
$UCSXDIR
 10
1.0
 20
0.0
 30
0.0
  9
$UCSYDIR
 10
0.0
 20
1.0
 30
0.0
  9
$UCSORTHOREF
  2

  9
$UCSORTHOVIEW
 70
     0
  9
$UCSORGTOP
 10
0.0
 20
0.0
 30
0.0
  9
$UCSORGBOTTOM
 10
0.0
 20
0.0
 30
0.0
  9
$UCSORGLEFT
 10
0.0
 20
0.0
 30
0.0
  9
$UCSORGRIGHT
 10
0.0
 20
0.0
 30
0.0
  9
$UCSORGFRONT
 10
0.0
 20
0.0
 30
0.0
  9
$UCSORGBACK
 10
0.0
 20
0.0
 30
0.0
  9
$PUCSBASE
  2

  9
$PUCSNAME
  2

  9
$PUCSORG
 10
0.0
 20
0.0
 30
0.0
  9
$PUCSXDIR
 10
1.0
 20
0.0
 30
0.0
  9
$PUCSYDIR
 10
0.0
 20
1.0
 30
0.0
  9
$PUCSORTHOREF
  2

  9
$PUCSORTHOVIEW
 70
     0
  9
$PUCSORGTOP
 10
0.0
 20
0.0
 30
0.0
  9
$PUCSORGBOTTOM
 10
0.0
 20
0.0
 30
0.0
  9
$PUCSORGLEFT
 10
0.0
 20
0.0
 30
0.0
  9
$PUCSORGRIGHT
 10
0.0
 20
0.0
 30
0.0
  9
$PUCSORGFRONT
 10
0.0
 20
0.0
 30
0.0
  9
$PUCSORGBACK
 10
0.0
 20
0.0
 30
0.0
  9
$USERI1
 70
     0
  9
$USERI2
 70
     0
  9
$USERI3
 70
     0
  9
$USERI4
 70
     0
  9
$USERI5
 70
     0
  9
$USERR1
 40
0.0
  9
$USERR2
 40
0.0
  9
$USERR3
 40
0.0
  9
$USERR4
 40
0.0
  9
$USERR5
 40
0.0
  9
$WORLDVIEW
 70
     1
  9
$SHADEDGE
 70
     3
  9
$SHADEDIF
 70
    70
  9
$TILEMODE
 70
     1
  9
$MAXACTVP
 70
    16
  9
$PINSBASE
 10
0.0
 20
0.0
 30
0.0
  9
$PLIMCHECK
 70
     0
  9
$PEXTMIN
 10
1.000000000000000E+20
 20
1.000000000000000E+20
 30
1.000000000000000E+20
  9
$PEXTMAX
 10
-1.000000000000000E+20
 20
-1.000000000000000E+20
 30
-1.000000000000000E+20
  9
$PLIMMIN
 10
0.0
 20
0.0
  9
$PLIMMAX
 10
420.0
 20
297.0
  9
$UNITMODE
 70
     0
  9
$VISRETAIN
 70
     0
  9
$PLINEGEN
 70
     0
  9
$PSLTSCALE
 70
     0
  9
$TREEDEPTH
 70
  3020
  9
$CMLSTYLE
  2
STANDARD
  9
$CMLJUST
 70
     0
  9
$CMLSCALE
 40
1.0
  9
$PROXYGRAPHICS
 70
     1
  9
$MEASUREMENT
 70
     1
  9
$CELWEIGHT
370
    -1
  9
$ENDCAPS
280
     0
  9
$JOINSTYLE
280
     0
  9
$LWDISPLAY
290
     0
  9
$INSUNITS
 70
     0
  9
$HYPERLINKBASE
  1

  9
$STYLESHEET
  1

  9
$XEDIT
290
     1
  9
$CEPSNTYPE
380
     0
  9
$PSTYLEMODE
290
     1
  9
$FINGERPRINTGUID
  2
{4D5099BC-B539-4002-9B6F-12BE9B3C780B}
  9
$VERSIONGUID
  2
{DF0FF1A4-D5AF-4EAA-804B-312CB0FA546C}
  9
$EXTNAMES
290
     1
  9
$PSVPSCALE
 40
0.0
  9
$OLESTARTUP
290
     0
  0
ENDSEC
  0
SECTION
  2
CLASSES
  0
CLASS
  1
ACDBDICTIONARYWDFLT
  2
AcDbDictionaryWithDefault
  3
ObjectDBX Classes
 90
        0
280
     0
281
     0
  0
CLASS
  1
DICTIONARYVAR
  2
AcDbDictionaryVar
  3
ObjectDBX Classes
 90
        0
280
     0
281
     0
  0
CLASS
  1
ACDBPLACEHOLDER
  2
AcDbPlaceHolder
  3
ObjectDBX Classes
 90
        0
280
     0
281
     0
  0
CLASS
  1
LAYOUT
  2
AcDbLayout
  3
ObjectDBX Classes
 90
        0
280
     0
281
     0
  0
ENDSEC
  0
SECTION
  2
TABLES
  0
TABLE
  2
VPORT
  5
746D
330
0
100
AcDbSymbolTable
 70
     2
  0
VPORT
  5
17B54
330
746D
100
AcDbSymbolTableRecord
100
AcDbViewportTableRecord
  2
*Active
 70
     0
 10
0.0
 20
0.0
 11
1.0
 21
1.0
 12
9076.91645855874
 22
6347.66611132684
 13
0.0
 23
0.0
 14
10.0
 24
10.0
 15
10.0
 25
10.0
 16
0.0
 26
0.0
 36
1.0
 17
0.0
 27
0.0
 37
0.0
 40
12783.46462244035
 41
1.525925925925925
 42
50.0
 43
0.0
 44
0.0
 50
0.0
 51
0.0
 71
     0
 72
     0
 73
     1
 74
     0
 75
     0
 76
     0
 77
     0
 78
     0
281
     0
 65
     1
110
0.0
120
0.0
130
0.0
111
1.0
121
0.0
131
0.0
112
0.0
122
1.0
132
0.0
 79
     0
146
0.0
  0
ENDTAB
  0
TABLE
  2
LTYPE
  5
746A
330
0
100
AcDbSymbolTable
 70
     4
  0
LTYPE
  5
7477
330
746A
100
AcDbSymbolTableRecord
100
AcDbLinetypeTableRecord
  2
BYBLOCK
 70
     0
  3

 72
    65
 73
     0
 40
0.0
  0
LTYPE
  5
7478
330
746A
100
AcDbSymbolTableRecord
100
AcDbLinetypeTableRecord
  2
BYLAYER
 70
     0
  3

 72
    65
 73
     0
 40
0.0
  0
LTYPE
  5
7479
330
746A
100
AcDbSymbolTableRecord
100
AcDbLinetypeTableRecord
  2
CONTINUOUS
 70
     0
  3
Solid line
 72
    65
 73
     0
 40
0.0
  0
LTYPE
  5
7816
330
746A
100
AcDbSymbolTableRecord
100
AcDbLinetypeTableRecord
  2
CENTER
 70
     0
  3
____ _ ____ _ ____ _ ____ _ ____ _ ____ _ ____ 
 72
    65
 73
     4
 40
2.0
 49
1.25
 74
     0
 49
-0.25
 74
     0
 49
0.25
 74
     0
 49
-0.25
 74
     0
  0
LTYPE
  5
781A
330
746A
100
AcDbSymbolTableRecord
100
AcDbLinetypeTableRecord
  2
HIDDEN
 70
     0
  3
__ __ __ __ __ __ __ __ __ __ __ __ __ __ __ __
 72
    65
 73
     2
 40
0.375
 49
0.25
 74
     0
 49
-0.125
 74
     0
  0
LTYPE
  5
781B
330
746A
100
AcDbSymbolTableRecord
100
AcDbLinetypeTableRecord
  2
PHANTOM
 70
     0
  3
______  __  __  ______  __  __  ______  __  __ 
 72
    65
 73
     6
 40
2.5
 49
1.25
 74
     0
 49
-0.25
 74
     0
 49
0.25
 74
     0
 49
-0.25
 74
     0
 49
0.25
 74
     0
 49
-0.25
 74
     0
  0
ENDTAB
  0
TABLE
  2
LAYER
  5
7467
102
{ACAD_XDICTIONARY
360
1634E
102
}
330
0
100
AcDbSymbolTable
 70
    12
  0
LAYER
  5
7474
330
7467
100
AcDbSymbolTableRecord
100
AcDbLayerTableRecord
  2
0
 70
     0
 62
     7
  6
CONTINUOUS
370
    -3
390
16122
  0
LAYER
  5
DEB2
330
7467
100
AcDbSymbolTableRecord
100
AcDbLayerTableRecord
  2
センター
 70
     0
 62
     3
  6
CENTER
370
    -3
390
16122
  0
LAYER
  5
DEB3
330
7467
100
AcDbSymbolTableRecord
100
AcDbLayerTableRecord
  2
寸法
 70
     0
 62
     4
  6
CONTINUOUS
370
    -3
390
16122
  0
LAYER
  5
DEB4
330
7467
100
AcDbSymbolTableRecord
100
AcDbLayerTableRecord
  2
部品1
 70
     0
 62
     7
  6
CONTINUOUS
370
    -3
390
16122
  0
LAYER
  5
DEB5
330
7467
100
AcDbSymbolTableRecord
100
AcDbLayerTableRecord
  2
補助
 70
     0
 62
    -1
  6
CONTINUOUS
370
    -3
390
16122
  0
LAYER
  5
DEB6
330
7467
100
AcDbSymbolTableRecord
100
AcDbLayerTableRecord
  2
文字
 70
     0
 62
     7
  6
CONTINUOUS
370
    -3
390
16122
  0
LAYER
  5
F255
330
7467
100
AcDbSymbolTableRecord
100
AcDbLayerTableRecord
  2
DEFPOINTS
 70
     0
 62
     7
  6
CONTINUOUS
290
     0
370
    -3
390
16122
  0
LAYER
  5
10B54
330
7467
100
AcDbSymbolTableRecord
100
AcDbLayerTableRecord
  2
仕様書枠
 70
     0
 62
   230
  6
CONTINUOUS
370
    -3
390
16122
  0
LAYER
  5
11729
330
7467
100
AcDbSymbolTableRecord
100
AcDbLayerTableRecord
  2
Ｇ．Ｌ
 70
     0
 62
    30
  6
CONTINUOUS
370
    -3
390
16122
  0
LAYER
  5
1173F
330
7467
100
AcDbSymbolTableRecord
100
AcDbLayerTableRecord
  2
細線
 70
     0
 62
     5
  6
CONTINUOUS
370
    -3
390
16122
  0
LAYER
  5
118A1
330
7467
100
AcDbSymbolTableRecord
100
AcDbLayerTableRecord
  2
想像線
 70
     0
 62
     6
  6
PHANTOM
370
    -3
390
16122
  0
LAYER
  5
123C1
330
7467
100
AcDbSymbolTableRecord
100
AcDbLayerTableRecord
  2
破線
 70
     0
 62
     2
  6
HIDDEN
370
    -3
390
16122
  0
ENDTAB
  0
TABLE
  2
STYLE
  5
7468
330
0
100
AcDbSymbolTable
 70
     4
  0
STYLE
  5
7475
330
7468
100
AcDbSymbolTableRecord
100
AcDbTextStyleTableRecord
  2
STANDARD
 70
     0
 40
0.0
 41
1.0
 50
0.0
 71
     0
 42
4.0
  3
txt
  4
C:\AutoCAD LT\bigfont.shx
  0
STYLE
  5
F706
330
7468
100
AcDbSymbolTableRecord
100
AcDbTextStyleTableRecord
  2
STYLE1
 70
     0
 40
0.0
 41
1.0
 50
0.0
 71
     0
 42
4.0
  3
isocp.shx
  4
bigfont.shx
  0
STYLE
  5
103BF
330
7468
100
AcDbSymbolTableRecord
100
AcDbTextStyleTableRecord
  2
STYLE2
 70
     0
 40
0.0
 41
1.0
 50
0.0
 71
     0
 42
100.0
  3
MS PGothic.ttf
  4

1001
ACAD
1000
MS PGothic
1071
    32818
  0
STYLE
  5
10BAA
330
7468
100
AcDbSymbolTableRecord
100
AcDbTextStyleTableRecord
  2
STYLE3
 70
     0
 40
0.0
 41
1.0
 50
0.0
 71
     0
 42
100.0
  3

  4

1001
ACAD
1000
DFPGothic-EB
1071
    32818
  0
ENDTAB
  0
TABLE
  2
VIEW
  5
746B
330
0
100
AcDbSymbolTable
 70
     0
  0
ENDTAB
  0
TABLE
  2
UCS
  5
746C
330
0
100
AcDbSymbolTable
 70
     0
  0
ENDTAB
  0
TABLE
  2
APPID
  5
746E
330
0
100
AcDbSymbolTable
 70
     6
  0
APPID
  5
7476
330
746E
100
AcDbSymbolTableRecord
100
AcDbRegAppTableRecord
  2
ACAD
 70
     0
  0
APPID
  5
DEA9
330
746E
100
AcDbSymbolTableRecord
100
AcDbRegAppTableRecord
  2
CONTENTBLOCKICON
 70
     0
  0
APPID
  5
DEAA
330
746E
100
AcDbSymbolTableRecord
100
AcDbRegAppTableRecord
  2
CONTENTBLOCKDESCRIPTION
 70
     0
  0
APPID
  5
E71D
330
746E
100
AcDbSymbolTableRecord
100
AcDbRegAppTableRecord
  2
CONTENTTABDATA
 70
     0
  0
APPID
  5
E71E
330
746E
100
AcDbSymbolTableRecord
100
AcDbRegAppTableRecord
  2
CONTENTCURRENTTAB
 70
     0
  0
APPID
  5
F3BA
330
746E
100
AcDbSymbolTableRecord
100
AcDbRegAppTableRecord
  2
DRAWINGVARIABLESXDATA
 70
     0
  0
ENDTAB
  0
TABLE
  2
DIMSTYLE
  5
746F
330
0
100
AcDbSymbolTable
 70
     2
100
AcDbDimStyleTable
 71
     0
  0
DIMSTYLE
105
7484
330
746F
100
AcDbSymbolTableRecord
100
AcDbDimStyleTableRecord
  2
JIS
 70
     0
 41
2.5
 42
1.0
 43
7.0
 44
1.0
 73
     0
 74
     0
 77
     1
 78
     8
140
2.5
141
0.0
143
0.0394
147
0.0
172
     1
174
     1
175
     1
340
7475
  0
DIMSTYLE
105
F71F
102
{ACAD_REACTORS
330
15808
330
1580F
330
15812
330
1588A
330
1588B
330
15892
330
15893
330
1589A
330
158A1
330
158A3
330
158A6
330
158A7
330
158A8
330
158AA
330
158AD
330
158BD
330
15D27
330
15E46
330
15E53
330
15E61
330
15E60
330
15E7A
330
15E92
330
15EAA
330
16067
330
1606E
330
1606A
330
1603C
330
16011
330
15FFF
330
15FFE
330
160D4
330
16112
330
1697C
330
1698E
330
1698F
330
169B3
330
169B4
330
169B5
330
169B6
330
169BA
330
169BB
330
17518
330
17527
330
17528
330
17529
330
176E9
102
}
330
746F
100
AcDbSymbolTableRecord
100
AcDbDimStyleTableRecord
  2
INABA_S40G
 70
     0
 40
40.0
 41
2.5
 42
0.5
 43
7.0
 44
1.5
 73
     0
 74
     0
 77
     3
 78
     8
140
3.0
141
0.0
143
0.0394
147
1.0
172
     1
173
     1
174
     1
178
     7
271
     1
340
F706
341
F770
343
F770
344
F770
  0
ENDTAB
  0
TABLE
  2
BLOCK_RECORD
  5
7466
330
0
100
AcDbSymbolTable
 70
    48
  0
BLOCK_RECORD
  5
747D
330
7466
100
AcDbSymbolTableRecord
100
AcDbBlockTableRecord
  2
*MODEL_SPACE
340
16127
  0
BLOCK_RECORD
  5
747A
330
7466
100
AcDbSymbolTableRecord
100
AcDbBlockTableRecord
  2
*PAPER_SPACE
340
16128
  0
BLOCK_RECORD
  5
F770
330
7466
100
AcDbSymbolTableRecord
100
AcDbBlockTableRecord
  2
_DOTSMALL
340
0
102
{BLKREFS
331
17916
331
17917
331
1791F
331
17920
331
17928
331
17929
331
17933
331
17934
331
1793E
331
1793F
331
17947
331
17948
331
17952
331
17953
331
1795B
331
1795C
331
17964
331
17965
331
1796F
331
17970
331
17978
331
17979
331
17982
331
17983
331
1798C
331
1798D
331
17995
331
17996
331
1799E
331
1799F
331
179A9
331
179AA
331
179B4
331
179B5
331
179BD
331
179BE
331
179C6
331
179C7
331
179E1
331
179E2
331
179EA
331
179EB
331
179F3
331
179F4
331
179FC
331
179FD
331
17A05
331
17A06
331
17A29
331
17A2A
331
17A34
331
17A35
331
17A3F
331
17A40
331
17A48
331
17A49
331
17A51
331
17A52
331
17A5C
331
17A5D
331
17A65
331
17A66
331
17A6E
331
17A6F
331
17A79
331
17A7A
331
17A82
331
17A83
331
17A8D
331
17A8E
331
17A98
331
17A99
331
17AA1
331
17AA2
331
17AAC
331
17AAD
331
17AB5
331
17AB6
331
17AC7
331
17AC8
331
17AD0
331
17AD1
331
17AE7
331
17AE8
331
17AF0
331
17AF1
331
17AF9
331
17AFA
331
17B02
331
17B03
331
17B0B
331
17B0C
331
17B14
331
17B15
102
}
  0
BLOCK_RECORD
  5
15902
330
7466
100
AcDbSymbolTableRecord
100
AcDbBlockTableRecord
  2
*D1
340
0
  0
BLOCK_RECORD
  5
1591A
330
7466
100
AcDbSymbolTableRecord
100
AcDbBlockTableRecord
  2
*D2
340
0
  0
BLOCK_RECORD
  5
15926
330
7466
100
AcDbSymbolTableRecord
100
AcDbBlockTableRecord
  2
*D3
340
0
  0
BLOCK_RECORD
  5
15962
330
7466
100
AcDbSymbolTableRecord
100
AcDbBlockTableRecord
  2
*D4
340
0
  0
BLOCK_RECORD
  5
1596E
330
7466
100
AcDbSymbolTableRecord
100
AcDbBlockTableRecord
  2
*D5
340
0
  0
BLOCK_RECORD
  5
1597C
330
7466
100
AcDbSymbolTableRecord
100
AcDbBlockTableRecord
  2
*D6
340
0
  0
BLOCK_RECORD
  5
15988
330
7466
100
AcDbSymbolTableRecord
100
AcDbBlockTableRecord
  2
*D7
340
0
  0
BLOCK_RECORD
  5
15996
330
7466
100
AcDbSymbolTableRecord
100
AcDbBlockTableRecord
  2
*D8
340
0
  0
BLOCK_RECORD
  5
159A4
330
7466
100
AcDbSymbolTableRecord
100
AcDbBlockTableRecord
  2
*D9
340
0
  0
BLOCK_RECORD
  5
159B0
330
7466
100
AcDbSymbolTableRecord
100
AcDbBlockTableRecord
  2
*D10
340
0
  0
BLOCK_RECORD
  5
159BE
330
7466
100
AcDbSymbolTableRecord
100
AcDbBlockTableRecord
  2
*D11
340
0
  0
BLOCK_RECORD
  5
159CA
330
7466
100
AcDbSymbolTableRecord
100
AcDbBlockTableRecord
  2
*D12
340
0
  0
BLOCK_RECORD
  5
159D6
330
7466
100
AcDbSymbolTableRecord
100
AcDbBlockTableRecord
  2
*D13
340
0
  0
BLOCK_RECORD
  5
159E4
330
7466
100
AcDbSymbolTableRecord
100
AcDbBlockTableRecord
  2
*D14
340
0
  0
BLOCK_RECORD
  5
159F0
330
7466
100
AcDbSymbolTableRecord
100
AcDbBlockTableRecord
  2
*D15
340
0
  0
BLOCK_RECORD
  5
159FC
330
7466
100
AcDbSymbolTableRecord
100
AcDbBlockTableRecord
  2
*D16
340
0
  0
BLOCK_RECORD
  5
15D3C
330
7466
100
AcDbSymbolTableRecord
100
AcDbBlockTableRecord
  2
*D17
340
0
  0
BLOCK_RECORD
  5
15E47
330
7466
100
AcDbSymbolTableRecord
100
AcDbBlockTableRecord
  2
*D18
340
0
  0
BLOCK_RECORD
  5
15E54
330
7466
100
AcDbSymbolTableRecord
100
AcDbBlockTableRecord
  2
*D19
340
0
  0
BLOCK_RECORD
  5
15E62
330
7466
100
AcDbSymbolTableRecord
100
AcDbBlockTableRecord
  2
*D20
340
0
  0
BLOCK_RECORD
  5
15E6E
330
7466
100
AcDbSymbolTableRecord
100
AcDbBlockTableRecord
  2
*D21
340
0
  0
BLOCK_RECORD
  5
15E7B
330
7466
100
AcDbSymbolTableRecord
100
AcDbBlockTableRecord
  2
*D22
340
0
  0
BLOCK_RECORD
  5
15E93
330
7466
100
AcDbSymbolTableRecord
100
AcDbBlockTableRecord
  2
*D23
340
0
  0
BLOCK_RECORD
  5
15EAB
330
7466
100
AcDbSymbolTableRecord
100
AcDbBlockTableRecord
  2
*D24
340
0
  0
BLOCK_RECORD
  5
1607E
330
7466
100
AcDbSymbolTableRecord
100
AcDbBlockTableRecord
  2
*D25
340
0
  0
BLOCK_RECORD
  5
1608A
330
7466
100
AcDbSymbolTableRecord
100
AcDbBlockTableRecord
  2
*D26
340
0
  0
BLOCK_RECORD
  5
16098
330
7466
100
AcDbSymbolTableRecord
100
AcDbBlockTableRecord
  2
*D27
340
0
  0
BLOCK_RECORD
  5
160A4
330
7466
100
AcDbSymbolTableRecord
100
AcDbBlockTableRecord
  2
*D28
340
0
  0
BLOCK_RECORD
  5
160B0
330
7466
100
AcDbSymbolTableRecord
100
AcDbBlockTableRecord
  2
*D29
340
0
  0
BLOCK_RECORD
  5
160BC
330
7466
100
AcDbSymbolTableRecord
100
AcDbBlockTableRecord
  2
*D30
340
0
  0
BLOCK_RECORD
  5
160C8
330
7466
100
AcDbSymbolTableRecord
100
AcDbBlockTableRecord
  2
*D31
340
0
  0
BLOCK_RECORD
  5
160D5
330
7466
100
AcDbSymbolTableRecord
100
AcDbBlockTableRecord
  2
*D32
340
0
  0
BLOCK_RECORD
  5
16113
330
7466
100
AcDbSymbolTableRecord
100
AcDbBlockTableRecord
  2
*D33
340
0
  0
BLOCK_RECORD
  5
16BBC
330
7466
100
AcDbSymbolTableRecord
100
AcDbBlockTableRecord
  2
*D34
340
0
  0
BLOCK_RECORD
  5
16BC8
330
7466
100
AcDbSymbolTableRecord
100
AcDbBlockTableRecord
  2
*D35
340
0
  0
BLOCK_RECORD
  5
16BD5
330
7466
100
AcDbSymbolTableRecord
100
AcDbBlockTableRecord
  2
*D36
340
0
  0
BLOCK_RECORD
  5
16BE2
330
7466
100
AcDbSymbolTableRecord
100
AcDbBlockTableRecord
  2
*D37
340
0
  0
BLOCK_RECORD
  5
16BEE
330
7466
100
AcDbSymbolTableRecord
100
AcDbBlockTableRecord
  2
*D38
340
0
  0
BLOCK_RECORD
  5
16BFC
330
7466
100
AcDbSymbolTableRecord
100
AcDbBlockTableRecord
  2
*D39
340
0
  0
BLOCK_RECORD
  5
16C08
330
7466
100
AcDbSymbolTableRecord
100
AcDbBlockTableRecord
  2
*D40
340
0
  0
BLOCK_RECORD
  5
16C14
330
7466
100
AcDbSymbolTableRecord
100
AcDbBlockTableRecord
  2
*D41
340
0
  0
BLOCK_RECORD
  5
16C22
330
7466
100
AcDbSymbolTableRecord
100
AcDbBlockTableRecord
  2
*D42
340
0
  0
BLOCK_RECORD
  5
1776B
330
7466
100
AcDbSymbolTableRecord
100
AcDbBlockTableRecord
  2
*D43
340
0
  0
BLOCK_RECORD
  5
17779
330
7466
100
AcDbSymbolTableRecord
100
AcDbBlockTableRecord
  2
*D44
340
0
  0
BLOCK_RECORD
  5
17787
330
7466
100
AcDbSymbolTableRecord
100
AcDbBlockTableRecord
  2
*D45
340
0
  0
BLOCK_RECORD
  5
17793
330
7466
100
AcDbSymbolTableRecord
100
AcDbBlockTableRecord
  2
*D46
340
0
  0
BLOCK_RECORD
  5
1779F
330
7466
100
AcDbSymbolTableRecord
100
AcDbBlockTableRecord
  2
*D47
340
0
  0
ENDTAB
  0
ENDSEC
  0
SECTION
  2
BLOCKS
  0
BLOCK
  5
7489
330
747D
100
AcDbEntity
  8
0
100
AcDbBlockBegin
  2
*MODEL_SPACE
 70
     0
 10
0.0
 20
0.0
 30
0.0
  3
*MODEL_SPACE
  1

  0
ENDBLK
  5
748A
330
747D
100
AcDbEntity
  8
0
100
AcDbBlockEnd
  0
BLOCK
  5
7487
330
747A
100
AcDbEntity
 67
     1
  8
0
100
AcDbBlockBegin
  2
*PAPER_SPACE
 70
     0
 10
0.0
 20
0.0
 30
0.0
  3
*PAPER_SPACE
  1

  0
ENDBLK
  5
7488
330
747A
100
AcDbEntity
 67
     1
  8
0
100
AcDbBlockEnd
  0
BLOCK
  5
F771
330
F770
100
AcDbEntity
  8
0
 48
50.0
100
AcDbBlockBegin
  2
_DOTSMALL
 70
     0
 10
0.0
 20
0.0
 30
0.0
  3
_DOTSMALL
  1

  0
LWPOLYLINE
  5
F772
330
F770
100
AcDbEntity
  8
0
  6
ByBlock
 62
     0
 48
50.0
100
AcDbPolyline
 90
        2
 70
     1
 43
0.5
 10
-0.0625
 20
0.0
 42
1.0
 10
0.0625
 20
0.0
 42
1.0
  0
ENDBLK
  5
F776
330
F770
100
AcDbEntity
  8
0
 48
50.0
100
AcDbBlockEnd
  0
BLOCK
  5
15A45
330
15902
100
AcDbEntity
  8
0
 48
50.0
100
AcDbBlockBegin
  2
*D1
 70
     1
 10
0.0
 20
0.0
 30
0.0
  3
*D1
  1

  0
LINE
  5
17ACD
330
15902
100
AcDbEntity
  8
寸法
 62
     0
 48
50.0
370
    -2
100
AcDbLine
 10
8831.352747049001
 20
9577.678224390098
 30
0.0
 11
8831.352747049001
 21
9833.486444015086
 31
0.0
  0
LINE
  5
17ACE
330
15902
100
AcDbEntity
  8
寸法
 62
     0
 48
50.0
370
    -2
100
AcDbLine
 10
8121.352747049
 20
9577.678224390083
 30
0.0
 11
8121.352747049
 21
9833.486444015086
 31
0.0
  0
LINE
  5
17ACF
330
15902
100
AcDbEntity
  8
寸法
 62
     0
 48
50.0
370
    -2
100
AcDbLine
 10
8831.352747049001
 20
9773.486444015087
 30
0.0
 11
8121.352747049
 21
9773.486444015087
 31
0.0
  0
INSERT
  5
17AD0
330
15902
100
AcDbEntity
  8
寸法
 62
     0
 48
50.0
370
    -2
100
AcDbBlockReference
  2
_DOTSMALL
 10
8831.352747049001
 20
9773.486444015087
 30
0.0
 41
100.0
 42
100.0
 43
100.0
  0
INSERT
  5
17AD1
330
15902
100
AcDbEntity
  8
寸法
 62
     0
 48
50.0
370
    -2
100
AcDbBlockReference
  2
_DOTSMALL
 10
8121.352747049
 20
9773.486444015087
 30
0.0
 41
100.0
 42
100.0
 43
100.0
 50
180.0
  0
MTEXT
  5
17AD2
330
15902
100
AcDbEntity
  8
寸法
 62
     7
 48
50.0
100
AcDbMText
 10
8476.352747049
 20
9873.486444015087
 30
0.0
 40
120.0
 41
0.0
 71
     5
 72
     1
  1
\A1;710
  7
STYLE1
 73
     1
 44
1.0
1001
ACAD
1000
MTEXTBEGIN
1070
    73
1070
     1
1070
    44
1040
1.0
1070
    74
1070
     0
1000
MTEXTEND
  0
POINT
  5
17AD3
330
15902
100
AcDbEntity
  8
DEFPOINTS
 62
     0
 48
50.0
100
AcDbPoint
 10
8831.352747049001
 20
9557.678224390098
 30
0.0
  0
POINT
  5
17AD4
330
15902
100
AcDbEntity
  8
DEFPOINTS
 62
     0
 48
50.0
100
AcDbPoint
 10
8121.352747049
 20
9557.678224390084
 30
0.0
  0
POINT
  5
17AD5
330
15902
100
AcDbEntity
  8
DEFPOINTS
 62
     0
 48
50.0
100
AcDbPoint
 10
8121.352747049
 20
9773.486444015087
 30
0.0
  0
ENDBLK
  5
15A4F
330
15902
100
AcDbEntity
  8
0
 48
50.0
100
AcDbBlockEnd
  0
BLOCK
  5
160E3
330
1591A
100
AcDbEntity
  8
0
 48
50.0
100
AcDbBlockBegin
  2
*D2
 70
     1
 10
0.0
 20
0.0
 30
0.0
  3
*D2
  1

  0
LINE
  5
17AC4
330
1591A
100
AcDbEntity
  8
寸法
 62
     0
 48
50.0
370
    -2
100
AcDbLine
 10
3966.352747048994
 20
8007.678224389893
 30
0.0
 11
3966.352747048994
 21
6980.576349529832
 31
0.0
  0
LINE
  5
17AC5
330
1591A
100
AcDbEntity
  8
寸法
 62
     0
 48
50.0
370
    -2
100
AcDbLine
 10
8886.352747048976
 20
8007.678224390039
 30
0.0
 11
8886.352747048976
 21
6980.576349529832
 31
0.0
  0
LINE
  5
17AC6
330
1591A
100
AcDbEntity
  8
寸法
 62
     0
 48
50.0
370
    -2
100
AcDbLine
 10
3966.352747048994
 20
7040.576349529833
 30
0.0
 11
8886.352747048976
 21
7040.576349529833
 31
0.0
  0
INSERT
  5
17AC7
330
1591A
100
AcDbEntity
  8
寸法
 62
     0
 48
50.0
370
    -2
100
AcDbBlockReference
  2
_DOTSMALL
 10
3966.352747048994
 20
7040.576349529833
 30
0.0
 41
100.0
 42
100.0
 43
100.0
 50
180.0
  0
INSERT
  5
17AC8
330
1591A
100
AcDbEntity
  8
寸法
 62
     0
 48
50.0
370
    -2
100
AcDbBlockReference
  2
_DOTSMALL
 10
8886.352747048976
 20
7040.576349529833
 30
0.0
 41
100.0
 42
100.0
 43
100.0
  0
MTEXT
  5
17AC9
330
1591A
100
AcDbEntity
  8
寸法
 62
     7
 48
50.0
100
AcDbMText
 10
6426.352747048984
 20
7140.617162094637
 30
0.0
 40
120.0
 41
0.0
 71
     5
 72
     1
  1
\A1;4920
  7
STYLE1
 73
     1
 44
1.0
1001
ACAD
1000
MTEXTBEGIN
1070
    73
1070
     1
1070
    44
1040
1.0
1070
    74
1070
     0
1000
MTEXTEND
  0
POINT
  5
17ACA
330
1591A
100
AcDbEntity
  8
DEFPOINTS
 62
     0
 48
50.0
100
AcDbPoint
 10
3966.352747048994
 20
8027.678224389893
 30
0.0
  0
POINT
  5
17ACB
330
1591A
100
AcDbEntity
  8
DEFPOINTS
 62
     0
 48
50.0
100
AcDbPoint
 10
8886.352747048976
 20
8027.67822439004
 30
0.0
  0
POINT
  5
17ACC
330
1591A
100
AcDbEntity
  8
DEFPOINTS
 62
     0
 48
50.0
100
AcDbPoint
 10
8886.352747048976
 20
7040.576349529833
 30
0.0
  0
ENDBLK
  5
160ED
330
1591A
100
AcDbEntity
  8
0
 48
50.0
100
AcDbBlockEnd
  0
BLOCK
  5
15A66
330
15926
100
AcDbEntity
  8
0
 48
50.0
100
AcDbBlockBegin
  2
*D3
 70
     1
 10
0.0
 20
0.0
 30
0.0
  3
*D3
  1

  0
LINE
  5
17B11
330
15926
100
AcDbEntity
  8
寸法
 62
     0
 48
50.0
370
    -2
100
AcDbLine
 10
8090.49376320031
 20
9058.178224390031
 30
0.0
 11
8025.637435480415
 21
8816.131114147053
 31
0.0
  0
LINE
  5
17B12
330
15926
100
AcDbEntity
  8
寸法
 62
     0
 48
50.0
370
    -2
100
AcDbLine
 10
8851.493763200322
 20
9058.178224390031
 30
0.0
 11
8786.637435480427
 21
8816.131114147053
 31
0.0
  0
LINE
  5
17B13
330
15926
100
AcDbEntity
  8
寸法
 62
     0
 48
50.0
370
    -2
100
AcDbLine
 10
8041.714387026283
 20
8876.131114147053
 30
0.0
 11
8802.714387026293
 21
8876.131114147053
 31
0.0
  0
INSERT
  5
17B14
330
15926
100
AcDbEntity
  8
寸法
 62
     0
 48
50.0
370
    -2
100
AcDbBlockReference
  2
_DOTSMALL
 10
8041.714387026283
 20
8876.131114147053
 30
0.0
 41
100.0
 42
100.0
 43
100.0
 50
180.0
  0
INSERT
  5
17B15
330
15926
100
AcDbEntity
  8
寸法
 62
     0
 48
50.0
370
    -2
100
AcDbBlockReference
  2
_DOTSMALL
 10
8802.714387026293
 20
8876.131114147053
 30
0.0
 41
100.0
 42
100.0
 43
100.0
  0
MTEXT
  5
17B16
330
15926
100
AcDbEntity
  8
寸法
 62
     7
 48
50.0
100
AcDbMText
 10
8475.199809167198
 20
8976.131114147053
 30
0.0
 40
120.0
 41
0.0
 71
     5
 72
     1
  1
\A1;761
  7
STYLE1
 73
     1
 44
1.0
1001
ACAD
1000
MTEXTBEGIN
1070
    73
1070
     1
1070
    44
1040
1.0
1070
    74
1070
     0
1000
MTEXTEND
  0
POINT
  5
17B17
330
15926
100
AcDbEntity
  8
DEFPOINTS
 62
     0
 48
50.0
100
AcDbPoint
 10
8095.852747048931
 20
9078.178224390033
 30
0.0
  0
POINT
  5
17B18
330
15926
100
AcDbEntity
  8
DEFPOINTS
 62
     0
 48
50.0
100
AcDbPoint
 10
8856.852747048943
 20
9078.178224390033
 30
0.0
  0
POINT
  5
17B19
330
15926
100
AcDbEntity
  8
DEFPOINTS
 62
     0
 48
50.0
100
AcDbPoint
 10
8802.714387026293
 20
8876.131114147053
 30
0.0
  0
ENDBLK
  5
15A70
330
15926
100
AcDbEntity
  8
0
 48
50.0
100
AcDbBlockEnd
  0
BLOCK
  5
15A9D
330
15962
100
AcDbEntity
  8
0
 48
50.0
100
AcDbBlockBegin
  2
*D4
 70
     1
 10
0.0
 20
0.0
 30
0.0
  3
*D4
  1

  0
LINE
  5
17AB2
330
15962
100
AcDbEntity
  8
寸法
 62
     0
 48
50.0
370
    -2
100
AcDbLine
 10
6481.352747049001
 20
9577.678224390018
 30
0.0
 11
6481.352747049001
 21
9833.486444015086
 31
0.0
  0
LINE
  5
17AB3
330
15962
100
AcDbEntity
  8
寸法
 62
     0
 48
50.0
370
    -2
100
AcDbLine
 10
7191.352747049001
 20
9577.678224390105
 30
0.0
 11
7191.352747049001
 21
9833.486444015086
 31
0.0
  0
LINE
  5
17AB4
330
15962
100
AcDbEntity
  8
寸法
 62
     0
 48
50.0
370
    -2
100
AcDbLine
 10
6481.352747049001
 20
9773.486444015087
 30
0.0
 11
7191.352747049001
 21
9773.486444015087
 31
0.0
  0
INSERT
  5
17AB5
330
15962
100
AcDbEntity
  8
寸法
 62
     0
 48
50.0
370
    -2
100
AcDbBlockReference
  2
_DOTSMALL
 10
6481.352747049001
 20
9773.486444015087
 30
0.0
 41
100.0
 42
100.0
 43
100.0
 50
180.0
  0
INSERT
  5
17AB6
330
15962
100
AcDbEntity
  8
寸法
 62
     0
 48
50.0
370
    -2
100
AcDbBlockReference
  2
_DOTSMALL
 10
7191.352747049001
 20
9773.486444015087
 30
0.0
 41
100.0
 42
100.0
 43
100.0
  0
MTEXT
  5
17AB7
330
15962
100
AcDbEntity
  8
寸法
 62
     7
 48
50.0
100
AcDbMText
 10
6836.602747049001
 20
9873.486444015087
 30
0.0
 40
120.0
 41
0.0
 71
     5
 72
     1
  1
\A1;710
  7
STYLE1
 73
     1
 44
1.0
1001
ACAD
1000
MTEXTBEGIN
1070
    73
1070
     1
1070
    44
1040
1.0
1070
    74
1070
     0
1000
MTEXTEND
  0
POINT
  5
17AB8
330
15962
100
AcDbEntity
  8
DEFPOINTS
 62
     0
 48
50.0
100
AcDbPoint
 10
6481.352747049001
 20
9557.678224390018
 30
0.0
  0
POINT
  5
17AB9
330
15962
100
AcDbEntity
  8
DEFPOINTS
 62
     0
 48
50.0
100
AcDbPoint
 10
7191.352747049001
 20
9557.678224390105
 30
0.0
  0
POINT
  5
17ABA
330
15962
100
AcDbEntity
  8
DEFPOINTS
 62
     0
 48
50.0
100
AcDbPoint
 10
7191.352747049001
 20
9773.486444015087
 30
0.0
  0
ENDBLK
  5
15AA7
330
15962
100
AcDbEntity
  8
0
 48
50.0
100
AcDbBlockEnd
  0
BLOCK
  5
15AA8
330
1596E
100
AcDbEntity
  8
0
 48
50.0
100
AcDbBlockBegin
  2
*D5
 70
     1
 10
0.0
 20
0.0
 30
0.0
  3
*D5
  1

  0
LINE
  5
17AA7
330
1596E
100
AcDbEntity
  8
寸法
 62
     0
 48
50.0
370
    -2
100
AcDbLine
 10
3966.352747048965
 20
9577.678224389989
 30
0.0
 11
3966.352747048965
 21
9833.486444014971
 31
0.0
  0
LINE
  5
17AA8
330
1596E
100
AcDbEntity
  8
寸法
 62
     0
 48
50.0
370
    -2
100
AcDbLine
 10
4021.352747049
 20
9577.678224389989
 30
0.0
 11
4021.352747049
 21
9833.486444014971
 31
0.0
  0
LINE
  5
17AA9
330
1596E
100
AcDbEntity
  8
寸法
 62
     0
 48
50.0
370
    -2
100
AcDbLine
 10
4021.352747049
 20
9773.48644401497
 30
0.0
 11
4121.352747049001
 21
9773.48644401497
 31
0.0
  0
LINE
  5
17AAA
330
1596E
100
AcDbEntity
  8
寸法
 62
     0
 48
50.0
370
    -2
100
AcDbLine
 10
3966.352747048965
 20
9773.48644401497
 30
0.0
 11
3549.382184300486
 21
9773.48644401497
 31
0.0
  0
LINE
  5
17AAB
330
1596E
100
AcDbEntity
  8
寸法
 62
     0
 48
50.0
370
    -2
100
AcDbLine
 10
4021.352747049
 20
9773.48644401497
 30
0.0
 11
3966.352747048965
 21
9773.48644401497
 31
0.0
  0
INSERT
  5
17AAC
330
1596E
100
AcDbEntity
  8
寸法
 62
     0
 48
50.0
370
    -2
100
AcDbBlockReference
  2
_DOTSMALL
 10
4021.352747049
 20
9773.48644401497
 30
0.0
 41
100.0
 42
100.0
 43
100.0
 50
180.0
  0
INSERT
  5
17AAD
330
1596E
100
AcDbEntity
  8
寸法
 62
     0
 48
50.0
370
    -2
100
AcDbBlockReference
  2
_DOTSMALL
 10
3966.352747048965
 20
9773.48644401497
 30
0.0
 41
100.0
 42
100.0
 43
100.0
  0
MTEXT
  5
17AAE
330
1596E
100
AcDbEntity
  8
寸法
 62
     7
 48
50.0
100
AcDbMText
 10
3657.867465674725
 20
9873.486444014972
 30
0.0
 40
120.0
 41
0.0
 71
     5
 72
     1
  1
\A1;55
  7
STYLE1
 73
     1
 44
1.0
1001
ACAD
1000
MTEXTBEGIN
1070
    73
1070
     1
1070
    44
1040
1.0
1070
    74
1070
     0
1000
MTEXTEND
  0
POINT
  5
17AAF
330
1596E
100
AcDbEntity
  8
DEFPOINTS
 62
     0
 48
50.0
100
AcDbPoint
 10
3966.352747048965
 20
9557.678224389988
 30
0.0
  0
POINT
  5
17AB0
330
1596E
100
AcDbEntity
  8
DEFPOINTS
 62
     0
 48
50.0
100
AcDbPoint
 10
4021.352747049
 20
9557.678224389988
 30
0.0
  0
POINT
  5
17AB1
330
1596E
100
AcDbEntity
  8
DEFPOINTS
 62
     0
 48
50.0
100
AcDbPoint
 10
4021.352747049
 20
9773.48644401497
 30
0.0
  0
ENDBLK
  5
15AB4
330
1596E
100
AcDbEntity
  8
0
 48
50.0
100
AcDbBlockEnd
  0
BLOCK
  5
15AB5
330
1597C
100
AcDbEntity
  8
0
 48
50.0
100
AcDbBlockBegin
  2
*D6
 70
     1
 10
0.0
 20
0.0
 30
0.0
  3
*D6
  1

  0
LINE
  5
17A9E
330
1597C
100
AcDbEntity
  8
寸法
 62
     0
 48
50.0
370
    -2
100
AcDbLine
 10
7301.352747049
 20
9577.678224390018
 30
0.0
 11
7301.352747049
 21
9833.486444015086
 31
0.0
  0
LINE
  5
17A9F
330
1597C
100
AcDbEntity
  8
寸法
 62
     0
 48
50.0
370
    -2
100
AcDbLine
 10
8011.352747049
 20
9577.678224390105
 30
0.0
 11
8011.352747049
 21
9833.486444015086
 31
0.0
  0
LINE
  5
17AA0
330
1597C
100
AcDbEntity
  8
寸法
 62
     0
 48
50.0
370
    -2
100
AcDbLine
 10
7301.352747049
 20
9773.486444015087
 30
0.0
 11
8011.352747049
 21
9773.486444015087
 31
0.0
  0
INSERT
  5
17AA1
330
1597C
100
AcDbEntity
  8
寸法
 62
     0
 48
50.0
370
    -2
100
AcDbBlockReference
  2
_DOTSMALL
 10
7301.352747049
 20
9773.486444015087
 30
0.0
 41
100.0
 42
100.0
 43
100.0
 50
180.0
  0
INSERT
  5
17AA2
330
1597C
100
AcDbEntity
  8
寸法
 62
     0
 48
50.0
370
    -2
100
AcDbBlockReference
  2
_DOTSMALL
 10
8011.352747049
 20
9773.486444015087
 30
0.0
 41
100.0
 42
100.0
 43
100.0
  0
MTEXT
  5
17AA3
330
1597C
100
AcDbEntity
  8
寸法
 62
     7
 48
50.0
100
AcDbMText
 10
7656.602747049001
 20
9873.486444015087
 30
0.0
 40
120.0
 41
0.0
 71
     5
 72
     1
  1
\A1;710
  7
STYLE1
 73
     1
 44
1.0
1001
ACAD
1000
MTEXTBEGIN
1070
    73
1070
     1
1070
    44
1040
1.0
1070
    74
1070
     0
1000
MTEXTEND
  0
POINT
  5
17AA4
330
1597C
100
AcDbEntity
  8
DEFPOINTS
 62
     0
 48
50.0
100
AcDbPoint
 10
7301.352747049
 20
9557.678224390018
 30
0.0
  0
POINT
  5
17AA5
330
1597C
100
AcDbEntity
  8
DEFPOINTS
 62
     0
 48
50.0
100
AcDbPoint
 10
8011.352747049
 20
9557.678224390105
 30
0.0
  0
POINT
  5
17AA6
330
1597C
100
AcDbEntity
  8
DEFPOINTS
 62
     0
 48
50.0
100
AcDbPoint
 10
8011.352747049
 20
9773.486444015087
 30
0.0
  0
ENDBLK
  5
15ABF
330
1597C
100
AcDbEntity
  8
0
 48
50.0
100
AcDbBlockEnd
  0
BLOCK
  5
15AC0
330
15988
100
AcDbEntity
  8
0
 48
50.0
100
AcDbBlockBegin
  2
*D7
 70
     1
 10
0.0
 20
0.0
 30
0.0
  3
*D7
  1

  0
LINE
  5
17A93
330
15988
100
AcDbEntity
  8
寸法
 62
     0
 48
50.0
370
    -2
100
AcDbLine
 10
7191.352747049001
 20
9577.678224390105
 30
0.0
 11
7191.352747049001
 21
9833.486444015086
 31
0.0
  0
LINE
  5
17A94
330
15988
100
AcDbEntity
  8
寸法
 62
     0
 48
50.0
370
    -2
100
AcDbLine
 10
7301.352747049
 20
9577.678224390083
 30
0.0
 11
7301.352747049
 21
9833.486444015086
 31
0.0
  0
LINE
  5
17A95
330
15988
100
AcDbEntity
  8
寸法
 62
     0
 48
50.0
370
    -2
100
AcDbLine
 10
7191.352747049001
 20
9773.486444015087
 30
0.0
 11
7091.352747049
 21
9773.486444015087
 31
0.0
  0
LINE
  5
17A96
330
15988
100
AcDbEntity
  8
寸法
 62
     0
 48
50.0
370
    -2
100
AcDbLine
 10
7301.352747049
 20
9773.486444015087
 30
0.0
 11
7401.352747049
 21
9773.486444015087
 31
0.0
  0
LINE
  5
17A97
330
15988
100
AcDbEntity
  8
寸法
 62
     0
 48
50.0
370
    -2
100
AcDbLine
 10
7191.352747049001
 20
9773.486444015087
 30
0.0
 11
7301.352747049
 21
9773.486444015087
 31
0.0
  0
INSERT
  5
17A98
330
15988
100
AcDbEntity
  8
寸法
 62
     0
 48
50.0
370
    -2
100
AcDbBlockReference
  2
_DOTSMALL
 10
7191.352747049001
 20
9773.486444015087
 30
0.0
 41
100.0
 42
100.0
 43
100.0
  0
INSERT
  5
17A99
330
15988
100
AcDbEntity
  8
寸法
 62
     0
 48
50.0
370
    -2
100
AcDbBlockReference
  2
_DOTSMALL
 10
7301.352747049
 20
9773.486444015087
 30
0.0
 41
100.0
 42
100.0
 43
100.0
 50
180.0
  0
MTEXT
  5
17A9A
330
15988
100
AcDbEntity
  8
寸法
 62
     7
 48
50.0
100
AcDbMText
 10
7246.352747049001
 20
9873.486444015087
 30
0.0
 40
120.0
 41
0.0
 71
     5
 72
     1
  1
\A1;110
  7
STYLE1
 73
     1
 44
1.0
1001
ACAD
1000
MTEXTBEGIN
1070
    73
1070
     1
1070
    44
1040
1.0
1070
    74
1070
     0
1000
MTEXTEND
  0
POINT
  5
17A9B
330
15988
100
AcDbEntity
  8
DEFPOINTS
 62
     0
 48
50.0
100
AcDbPoint
 10
7191.352747049001
 20
9557.678224390105
 30
0.0
  0
POINT
  5
17A9C
330
15988
100
AcDbEntity
  8
DEFPOINTS
 62
     0
 48
50.0
100
AcDbPoint
 10
7301.352747049
 20
9557.678224390084
 30
0.0
  0
POINT
  5
17A9D
330
15988
100
AcDbEntity
  8
DEFPOINTS
 62
     0
 48
50.0
100
AcDbPoint
 10
7301.352747049
 20
9773.486444015087
 30
0.0
  0
ENDBLK
  5
15ACC
330
15988
100
AcDbEntity
  8
0
 48
50.0
100
AcDbBlockEnd
  0
BLOCK
  5
15ACD
330
15996
100
AcDbEntity
  8
0
 48
50.0
100
AcDbBlockBegin
  2
*D8
 70
     1
 10
0.0
 20
0.0
 30
0.0
  3
*D8
  1

  0
LINE
  5
17A88
330
15996
100
AcDbEntity
  8
寸法
 62
     0
 48
50.0
370
    -2
100
AcDbLine
 10
8011.352747049
 20
9577.678224390105
 30
0.0
 11
8011.352747049
 21
9833.486444015086
 31
0.0
  0
LINE
  5
17A89
330
15996
100
AcDbEntity
  8
寸法
 62
     0
 48
50.0
370
    -2
100
AcDbLine
 10
8121.352747049
 20
9577.678224390083
 30
0.0
 11
8121.352747049
 21
9833.486444015086
 31
0.0
  0
LINE
  5
17A8A
330
15996
100
AcDbEntity
  8
寸法
 62
     0
 48
50.0
370
    -2
100
AcDbLine
 10
8011.352747049
 20
9773.486444015087
 30
0.0
 11
7911.352747049001
 21
9773.486444015087
 31
0.0
  0
LINE
  5
17A8B
330
15996
100
AcDbEntity
  8
寸法
 62
     0
 48
50.0
370
    -2
100
AcDbLine
 10
8121.352747049
 20
9773.486444015087
 30
0.0
 11
8221.352747049001
 21
9773.486444015087
 31
0.0
  0
LINE
  5
17A8C
330
15996
100
AcDbEntity
  8
寸法
 62
     0
 48
50.0
370
    -2
100
AcDbLine
 10
8011.352747049
 20
9773.486444015087
 30
0.0
 11
8121.352747049
 21
9773.486444015087
 31
0.0
  0
INSERT
  5
17A8D
330
15996
100
AcDbEntity
  8
寸法
 62
     0
 48
50.0
370
    -2
100
AcDbBlockReference
  2
_DOTSMALL
 10
8011.352747049
 20
9773.486444015087
 30
0.0
 41
100.0
 42
100.0
 43
100.0
  0
INSERT
  5
17A8E
330
15996
100
AcDbEntity
  8
寸法
 62
     0
 48
50.0
370
    -2
100
AcDbBlockReference
  2
_DOTSMALL
 10
8121.352747049
 20
9773.486444015087
 30
0.0
 41
100.0
 42
100.0
 43
100.0
 50
180.0
  0
MTEXT
  5
17A8F
330
15996
100
AcDbEntity
  8
寸法
 62
     7
 48
50.0
100
AcDbMText
 10
8066.352747049
 20
9873.486444015087
 30
0.0
 40
120.0
 41
0.0
 71
     5
 72
     1
  1
\A1;110
  7
STYLE1
 73
     1
 44
1.0
1001
ACAD
1000
MTEXTBEGIN
1070
    73
1070
     1
1070
    44
1040
1.0
1070
    74
1070
     0
1000
MTEXTEND
  0
POINT
  5
17A90
330
15996
100
AcDbEntity
  8
DEFPOINTS
 62
     0
 48
50.0
100
AcDbPoint
 10
8011.352747049
 20
9557.678224390105
 30
0.0
  0
POINT
  5
17A91
330
15996
100
AcDbEntity
  8
DEFPOINTS
 62
     0
 48
50.0
100
AcDbPoint
 10
8121.352747049
 20
9557.678224390084
 30
0.0
  0
POINT
  5
17A92
330
15996
100
AcDbEntity
  8
DEFPOINTS
 62
     0
 48
50.0
100
AcDbPoint
 10
8121.352747049
 20
9773.486444015087
 30
0.0
  0
ENDBLK
  5
15AD9
330
15996
100
AcDbEntity
  8
0
 48
50.0
100
AcDbBlockEnd
  0
BLOCK
  5
15ADA
330
159A4
100
AcDbEntity
  8
0
 48
50.0
100
AcDbBlockBegin
  2
*D9
 70
     1
 10
0.0
 20
0.0
 30
0.0
  3
*D9
  1

  0
LINE
  5
17A7F
330
159A4
100
AcDbEntity
  8
寸法
 62
     0
 48
50.0
370
    -2
100
AcDbLine
 10
8906.352747049002
 20
9502.678224390084
 30
0.0
 11
9593.77909278341
 21
9502.678224390084
 31
0.0
  0
LINE
  5
17A80
330
159A4
100
AcDbEntity
  8
寸法
 62
     0
 48
50.0
370
    -2
100
AcDbLine
 10
8906.352747049002
 20
9082.678224390084
 30
0.0
 11
9593.77909278341
 21
9082.678224390084
 31
0.0
  0
LINE
  5
17A81
330
159A4
100
AcDbEntity
  8
寸法
 62
     0
 48
50.0
370
    -2
100
AcDbLine
 10
9533.77909278341
 20
9502.678224390084
 30
0.0
 11
9533.77909278341
 21
9082.678224390084
 31
0.0
  0
INSERT
  5
17A82
330
159A4
100
AcDbEntity
  8
寸法
 62
     0
 48
50.0
370
    -2
100
AcDbBlockReference
  2
_DOTSMALL
 10
9533.77909278341
 20
9502.678224390084
 30
0.0
 41
100.0
 42
100.0
 43
100.0
 50
90.0
  0
INSERT
  5
17A83
330
159A4
100
AcDbEntity
  8
寸法
 62
     0
 48
50.0
370
    -2
100
AcDbBlockReference
  2
_DOTSMALL
 10
9533.77909278341
 20
9082.678224390084
 30
0.0
 41
100.0
 42
100.0
 43
100.0
 50
270.0
  0
MTEXT
  5
17A84
330
159A4
100
AcDbEntity
  8
寸法
 62
     7
 48
50.0
100
AcDbMText
 10
9433.767281759786
 20
9292.678224390085
 30
0.0
 40
120.0
 41
0.0
 71
     5
 72
     1
  1
\A1;420
  7
STYLE1
 11
0.0000000000000001
 21
1.0
 31
0.0
 73
     1
 44
1.0
1001
ACAD
1000
MTEXTBEGIN
1070
    73
1070
     1
1070
    44
1040
1.0
1070
    74
1070
     0
1000
MTEXTEND
  0
POINT
  5
17A85
330
159A4
100
AcDbEntity
  8
DEFPOINTS
 62
     0
 48
50.0
100
AcDbPoint
 10
8886.352747049
 20
9502.678224390084
 30
0.0
  0
POINT
  5
17A86
330
159A4
100
AcDbEntity
  8
DEFPOINTS
 62
     0
 48
50.0
100
AcDbPoint
 10
8886.352747049
 20
9082.678224390084
 30
0.0
  0
POINT
  5
17A87
330
159A4
100
AcDbEntity
  8
DEFPOINTS
 62
     0
 48
50.0
100
AcDbPoint
 10
9533.77909278341
 20
9082.678224390084
 30
0.0
  0
ENDBLK
  5
15AE4
330
159A4
100
AcDbEntity
  8
0
 48
50.0
100
AcDbBlockEnd
  0
BLOCK
  5
15AE5
330
159B0
100
AcDbEntity
  8
0
 48
50.0
100
AcDbBlockBegin
  2
*D10
 70
     1
 10
0.0
 20
0.0
 30
0.0
  3
*D10
  1

  0
LINE
  5
17A74
330
159B0
100
AcDbEntity
  8
寸法
 62
     0
 48
50.0
370
    -2
100
AcDbLine
 10
8906.352747049002
 20
9557.678224390084
 30
0.0
 11
9593.779092783412
 21
9557.678224390084
 31
0.0
  0
LINE
  5
17A75
330
159B0
100
AcDbEntity
  8
寸法
 62
     0
 48
50.0
370
    -2
100
AcDbLine
 10
8906.352747049002
 20
9502.678224390084
 30
0.0
 11
9593.779092783412
 21
9502.678224390084
 31
0.0
  0
LINE
  5
17A76
330
159B0
100
AcDbEntity
  8
寸法
 62
     0
 48
50.0
370
    -2
100
AcDbLine
 10
9533.779092783412
 20
9502.678224390084
 30
0.0
 11
9533.779092783412
 21
9402.678224390085
 31
0.0
  0
LINE
  5
17A77
330
159B0
100
AcDbEntity
  8
寸法
 62
     0
 48
50.0
370
    -2
100
AcDbLine
 10
9533.779092783412
 20
9557.678224390084
 30
0.0
 11
9533.779092783412
 21
9974.64878713856
 31
0.0
  0
LINE
  5
17A78
330
159B0
100
AcDbEntity
  8
寸法
 62
     0
 48
50.0
370
    -2
100
AcDbLine
 10
9533.779092783412
 20
9502.678224390084
 30
0.0
 11
9533.779092783412
 21
9557.678224390084
 31
0.0
  0
INSERT
  5
17A79
330
159B0
100
AcDbEntity
  8
寸法
 62
     0
 48
50.0
370
    -2
100
AcDbBlockReference
  2
_DOTSMALL
 10
9533.779092783412
 20
9502.678224390084
 30
0.0
 41
100.0
 42
100.0
 43
100.0
 50
90.0
  0
INSERT
  5
17A7A
330
159B0
100
AcDbEntity
  8
寸法
 62
     0
 48
50.0
370
    -2
100
AcDbBlockReference
  2
_DOTSMALL
 10
9533.779092783412
 20
9557.678224390084
 30
0.0
 41
100.0
 42
100.0
 43
100.0
 50
270.0
  0
MTEXT
  5
17A7B
330
159B0
100
AcDbEntity
  8
寸法
 62
     7
 48
50.0
100
AcDbMText
 10
9433.77909278341
 20
9866.163505764324
 30
0.0
 40
120.0
 41
0.0
 71
     5
 72
     1
  1
\A1;55
  7
STYLE1
 11
0.0000000000000001
 21
1.0
 31
0.0
 73
     1
 44
1.0
1001
ACAD
1000
MTEXTBEGIN
1070
    73
1070
     1
1070
    44
1040
1.0
1070
    74
1070
     0
1000
MTEXTEND
  0
POINT
  5
17A7C
330
159B0
100
AcDbEntity
  8
DEFPOINTS
 62
     0
 48
50.0
100
AcDbPoint
 10
8886.352747049
 20
9557.678224390084
 30
0.0
  0
POINT
  5
17A7D
330
159B0
100
AcDbEntity
  8
DEFPOINTS
 62
     0
 48
50.0
100
AcDbPoint
 10
8886.352747049
 20
9502.678224390084
 30
0.0
  0
POINT
  5
17A7E
330
159B0
100
AcDbEntity
  8
DEFPOINTS
 62
     0
 48
50.0
100
AcDbPoint
 10
9533.779092783412
 20
9502.678224390084
 30
0.0
  0
ENDBLK
  5
15AF1
330
159B0
100
AcDbEntity
  8
0
 48
50.0
100
AcDbBlockEnd
  0
BLOCK
  5
15AF2
330
159BE
100
AcDbEntity
  8
0
 48
50.0
100
AcDbBlockBegin
  2
*D11
 70
     1
 10
0.0
 20
0.0
 30
0.0
  3
*D11
  1

  0
LINE
  5
17A6B
330
159BE
100
AcDbEntity
  8
寸法
 62
     0
 48
50.0
370
    -2
100
AcDbLine
 10
8876.852747048936
 20
9522.819240541403
 30
0.0
 11
9272.210472910956
 21
9416.883457175268
 31
0.0
  0
LINE
  5
17A6C
330
159BE
100
AcDbEntity
  8
寸法
 62
     0
 48
50.0
370
    -2
100
AcDbLine
 10
8876.852747048936
 20
9072.819240541404
 30
0.0
 11
9272.210472910956
 21
8966.883457175269
 31
0.0
  0
LINE
  5
17A6D
330
159BE
100
AcDbEntity
  8
寸法
 62
     0
 48
50.0
370
    -2
100
AcDbLine
 10
9212.210472910957
 20
9432.960408721138
 30
0.0
 11
9212.210472910957
 21
8982.960408721138
 31
0.0
  0
INSERT
  5
17A6E
330
159BE
100
AcDbEntity
  8
寸法
 62
     0
 48
50.0
370
    -2
100
AcDbBlockReference
  2
_DOTSMALL
 10
9212.210472910957
 20
9432.960408721138
 30
0.0
 41
100.0
 42
100.0
 43
100.0
 50
90.0
  0
INSERT
  5
17A6F
330
159BE
100
AcDbEntity
  8
寸法
 62
     0
 48
50.0
370
    -2
100
AcDbBlockReference
  2
_DOTSMALL
 10
9212.210472910957
 20
8982.960408721138
 30
0.0
 41
100.0
 42
100.0
 43
100.0
 50
270.0
  0
MTEXT
  5
17A70
330
159BE
100
AcDbEntity
  8
寸法
 62
     7
 48
50.0
100
AcDbMText
 10
9112.210472910954
 20
9207.96040872114
 30
0.0
 40
120.0
 41
0.0
 71
     5
 72
     1
  1
\A1;450
  7
STYLE1
 11
0.0000000000000001
 21
1.0
 31
0.0
 73
     1
 44
1.0
1001
ACAD
1000
MTEXTBEGIN
1070
    73
1070
     1
1070
    44
1040
1.0
1070
    74
1070
     0
1000
MTEXTEND
  0
POINT
  5
17A71
330
159BE
100
AcDbEntity
  8
DEFPOINTS
 62
     0
 48
50.0
100
AcDbPoint
 10
8856.852747048936
 20
9528.178224390025
 30
0.0
  0
POINT
  5
17A72
330
159BE
100
AcDbEntity
  8
DEFPOINTS
 62
     0
 48
50.0
100
AcDbPoint
 10
8856.852747048936
 20
9078.178224390025
 30
0.0
  0
POINT
  5
17A73
330
159BE
100
AcDbEntity
  8
DEFPOINTS
 62
     0
 48
50.0
100
AcDbPoint
 10
9212.210472910957
 20
8982.960408721138
 30
0.0
  0
ENDBLK
  5
15AFC
330
159BE
100
AcDbEntity
  8
0
 48
50.0
100
AcDbBlockEnd
  0
BLOCK
  5
15AFD
330
159CA
100
AcDbEntity
  8
0
 48
50.0
100
AcDbBlockBegin
  2
*D12
 70
     1
 10
0.0
 20
0.0
 30
0.0
  3
*D12
  1

  0
LINE
  5
17A62
330
159CA
100
AcDbEntity
  8
寸法
 62
     0
 48
50.0
370
    -2
100
AcDbLine
 10
8906.352747049002
 20
9557.678224390084
 30
0.0
 11
9902.890623599089
 21
9557.678224390084
 31
0.0
  0
LINE
  5
17A63
330
159CA
100
AcDbEntity
  8
寸法
 62
     0
 48
50.0
370
    -2
100
AcDbLine
 10
8906.352747048975
 20
8027.678224390069
 30
0.0
 11
9902.890623599089
 21
8027.678224390069
 31
0.0
  0
LINE
  5
17A64
330
159CA
100
AcDbEntity
  8
寸法
 62
     0
 48
50.0
370
    -2
100
AcDbLine
 10
9842.890623599089
 20
9557.678224390084
 30
0.0
 11
9842.890623599089
 21
8027.678224390069
 31
0.0
  0
INSERT
  5
17A65
330
159CA
100
AcDbEntity
  8
寸法
 62
     0
 48
50.0
370
    -2
100
AcDbBlockReference
  2
_DOTSMALL
 10
9842.890623599089
 20
9557.678224390084
 30
0.0
 41
100.0
 42
100.0
 43
100.0
 50
90.0
  0
INSERT
  5
17A66
330
159CA
100
AcDbEntity
  8
寸法
 62
     0
 48
50.0
370
    -2
100
AcDbBlockReference
  2
_DOTSMALL
 10
9842.890623599089
 20
8027.678224390069
 30
0.0
 41
100.0
 42
100.0
 43
100.0
 50
270.0
  0
MTEXT
  5
17A67
330
159CA
100
AcDbEntity
  8
寸法
 62
     7
 48
50.0
100
AcDbMText
 10
9742.890623599087
 20
8792.678224390076
 30
0.0
 40
120.0
 41
0.0
 71
     5
 72
     1
  1
\A1;1530
  7
STYLE1
 11
0.0000000000000001
 21
1.0
 31
0.0
 73
     1
 44
1.0
1001
ACAD
1000
MTEXTBEGIN
1070
    73
1070
     1
1070
    44
1040
1.0
1070
    74
1070
     0
1000
MTEXTEND
  0
POINT
  5
17A68
330
159CA
100
AcDbEntity
  8
DEFPOINTS
 62
     0
 48
50.0
100
AcDbPoint
 10
8886.352747049
 20
9557.678224390084
 30
0.0
  0
POINT
  5
17A69
330
159CA
100
AcDbEntity
  8
DEFPOINTS
 62
     0
 48
50.0
100
AcDbPoint
 10
8886.352747048976
 20
8027.678224390069
 30
0.0
  0
POINT
  5
17A6A
330
159CA
100
AcDbEntity
  8
DEFPOINTS
 62
     0
 48
50.0
100
AcDbPoint
 10
9842.890623599089
 20
8027.678224390069
 30
0.0
  0
ENDBLK
  5
15B07
330
159CA
100
AcDbEntity
  8
0
 48
50.0
100
AcDbBlockEnd
  0
BLOCK
  5
15B08
330
159D6
100
AcDbEntity
  8
0
 48
50.0
100
AcDbBlockBegin
  2
*D13
 70
     1
 10
0.0
 20
0.0
 30
0.0
  3
*D13
  1

  0
LINE
  5
17A57
330
159D6
100
AcDbEntity
  8
寸法
 62
     0
 48
50.0
370
    -2
100
AcDbLine
 10
8906.352747048975
 20
8082.67822439007
 30
0.0
 11
9593.779092783387
 21
8082.67822439007
 31
0.0
  0
LINE
  5
17A58
330
159D6
100
AcDbEntity
  8
寸法
 62
     0
 48
50.0
370
    -2
100
AcDbLine
 10
8906.352747048975
 20
8027.678224390069
 30
0.0
 11
9593.779092783387
 21
8027.678224390069
 31
0.0
  0
LINE
  5
17A59
330
159D6
100
AcDbEntity
  8
寸法
 62
     0
 48
50.0
370
    -2
100
AcDbLine
 10
9533.779092783387
 20
8082.67822439007
 30
0.0
 11
9533.779092783387
 21
8182.67822439007
 31
0.0
  0
LINE
  5
17A5A
330
159D6
100
AcDbEntity
  8
寸法
 62
     0
 48
50.0
370
    -2
100
AcDbLine
 10
9533.779092783387
 20
8027.678224390069
 30
0.0
 11
9533.779092783387
 21
7541.331476110967
 31
0.0
  0
LINE
  5
17A5B
330
159D6
100
AcDbEntity
  8
寸法
 62
     0
 48
50.0
370
    -2
100
AcDbLine
 10
9533.779092783387
 20
8082.67822439007
 30
0.0
 11
9533.779092783387
 21
8027.678224390069
 31
0.0
  0
INSERT
  5
17A5C
330
159D6
100
AcDbEntity
  8
寸法
 62
     0
 48
50.0
370
    -2
100
AcDbBlockReference
  2
_DOTSMALL
 10
9533.779092783387
 20
8082.67822439007
 30
0.0
 41
100.0
 42
100.0
 43
100.0
 50
270.0
  0
INSERT
  5
17A5D
330
159D6
100
AcDbEntity
  8
寸法
 62
     0
 48
50.0
370
    -2
100
AcDbBlockReference
  2
_DOTSMALL
 10
9533.779092783387
 20
8027.678224390069
 30
0.0
 41
100.0
 42
100.0
 43
100.0
 50
90.0
  0
MTEXT
  5
17A5E
330
159D6
100
AcDbEntity
  8
寸法
 62
     7
 48
50.0
100
AcDbMText
 10
9433.779092783385
 20
7649.816757485208
 30
0.0
 40
120.0
 41
0.0
 71
     5
 72
     1
  1
\A1;55
  7
STYLE1
 11
0.0000000000000001
 21
1.0
 31
0.0
 73
     1
 44
1.0
1001
ACAD
1000
MTEXTBEGIN
1070
    73
1070
     1
1070
    44
1040
1.0
1070
    74
1070
     0
1000
MTEXTEND
  0
POINT
  5
17A5F
330
159D6
100
AcDbEntity
  8
DEFPOINTS
 62
     0
 48
50.0
100
AcDbPoint
 10
8886.352747048976
 20
8082.67822439007
 30
0.0
  0
POINT
  5
17A60
330
159D6
100
AcDbEntity
  8
DEFPOINTS
 62
     0
 48
50.0
100
AcDbPoint
 10
8886.352747048976
 20
8027.678224390069
 30
0.0
  0
POINT
  5
17A61
330
159D6
100
AcDbEntity
  8
DEFPOINTS
 62
     0
 48
50.0
100
AcDbPoint
 10
9533.779092783387
 20
8027.678224390069
 30
0.0
  0
ENDBLK
  5
15B14
330
159D6
100
AcDbEntity
  8
0
 48
50.0
100
AcDbBlockEnd
  0
BLOCK
  5
15B15
330
159E4
100
AcDbEntity
  8
0
 48
50.0
100
AcDbBlockBegin
  2
*D14
 70
     1
 10
0.0
 20
0.0
 30
0.0
  3
*D14
  1

  0
LINE
  5
17A4E
330
159E4
100
AcDbEntity
  8
寸法
 62
     0
 48
50.0
370
    -2
100
AcDbLine
 10
8906.352747049002
 20
9082.678224390084
 30
0.0
 11
9593.77909278341
 21
9082.678224390084
 31
0.0
  0
LINE
  5
17A4F
330
159E4
100
AcDbEntity
  8
寸法
 62
     0
 48
50.0
370
    -2
100
AcDbLine
 10
8906.352747049002
 20
8502.678224390084
 30
0.0
 11
9593.77909278341
 21
8502.678224390084
 31
0.0
  0
LINE
  5
17A50
330
159E4
100
AcDbEntity
  8
寸法
 62
     0
 48
50.0
370
    -2
100
AcDbLine
 10
9533.77909278341
 20
9082.678224390084
 30
0.0
 11
9533.77909278341
 21
8502.678224390084
 31
0.0
  0
INSERT
  5
17A51
330
159E4
100
AcDbEntity
  8
寸法
 62
     0
 48
50.0
370
    -2
100
AcDbBlockReference
  2
_DOTSMALL
 10
9533.77909278341
 20
9082.678224390084
 30
0.0
 41
100.0
 42
100.0
 43
100.0
 50
90.0
  0
INSERT
  5
17A52
330
159E4
100
AcDbEntity
  8
寸法
 62
     0
 48
50.0
370
    -2
100
AcDbBlockReference
  2
_DOTSMALL
 10
9533.77909278341
 20
8502.678224390084
 30
0.0
 41
100.0
 42
100.0
 43
100.0
 50
270.0
  0
MTEXT
  5
17A53
330
159E4
100
AcDbEntity
  8
寸法
 62
     7
 48
50.0
100
AcDbMText
 10
9433.779092783408
 20
8792.678224390085
 30
0.0
 40
120.0
 41
0.0
 71
     5
 72
     1
  1
\A1;580
  7
STYLE1
 11
0.0000000000000001
 21
1.0
 31
0.0
 73
     1
 44
1.0
1001
ACAD
1000
MTEXTBEGIN
1070
    73
1070
     1
1070
    44
1040
1.0
1070
    74
1070
     0
1000
MTEXTEND
  0
POINT
  5
17A54
330
159E4
100
AcDbEntity
  8
DEFPOINTS
 62
     0
 48
50.0
100
AcDbPoint
 10
8886.352747049
 20
9082.678224390084
 30
0.0
  0
POINT
  5
17A55
330
159E4
100
AcDbEntity
  8
DEFPOINTS
 62
     0
 48
50.0
100
AcDbPoint
 10
8886.352747049
 20
8502.678224390084
 30
0.0
  0
POINT
  5
17A56
330
159E4
100
AcDbEntity
  8
DEFPOINTS
 62
     0
 48
50.0
100
AcDbPoint
 10
9533.77909278341
 20
8502.678224390084
 30
0.0
  0
ENDBLK
  5
15B1F
330
159E4
100
AcDbEntity
  8
0
 48
50.0
100
AcDbBlockEnd
  0
BLOCK
  5
15B20
330
159F0
100
AcDbEntity
  8
0
 48
50.0
100
AcDbBlockBegin
  2
*D15
 70
     1
 10
0.0
 20
0.0
 30
0.0
  3
*D15
  1

  0
LINE
  5
17A45
330
159F0
100
AcDbEntity
  8
寸法
 62
     0
 48
50.0
370
    -2
100
AcDbLine
 10
8906.352747049002
 20
8502.678224390084
 30
0.0
 11
9593.779092783384
 21
8502.678224390084
 31
0.0
  0
LINE
  5
17A46
330
159F0
100
AcDbEntity
  8
寸法
 62
     0
 48
50.0
370
    -2
100
AcDbLine
 10
8906.352747049009
 20
8082.678224390084
 30
0.0
 11
9593.779092783384
 21
8082.678224390084
 31
0.0
  0
LINE
  5
17A47
330
159F0
100
AcDbEntity
  8
寸法
 62
     0
 48
50.0
370
    -2
100
AcDbLine
 10
9533.779092783385
 20
8502.678224390084
 30
0.0
 11
9533.779092783385
 21
8082.678224390084
 31
0.0
  0
INSERT
  5
17A48
330
159F0
100
AcDbEntity
  8
寸法
 62
     0
 48
50.0
370
    -2
100
AcDbBlockReference
  2
_DOTSMALL
 10
9533.779092783385
 20
8502.678224390084
 30
0.0
 41
100.0
 42
100.0
 43
100.0
 50
90.0
  0
INSERT
  5
17A49
330
159F0
100
AcDbEntity
  8
寸法
 62
     0
 48
50.0
370
    -2
100
AcDbBlockReference
  2
_DOTSMALL
 10
9533.779092783385
 20
8082.678224390084
 30
0.0
 41
100.0
 42
100.0
 43
100.0
 50
270.0
  0
MTEXT
  5
17A4A
330
159F0
100
AcDbEntity
  8
寸法
 62
     7
 48
50.0
100
AcDbMText
 10
9433.767281759761
 20
8292.678224390085
 30
0.0
 40
120.0
 41
0.0
 71
     5
 72
     1
  1
\A1;420
  7
STYLE1
 11
0.0000000000000001
 21
1.0
 31
0.0
 73
     1
 44
1.0
1001
ACAD
1000
MTEXTBEGIN
1070
    73
1070
     1
1070
    44
1040
1.0
1070
    74
1070
     0
1000
MTEXTEND
  0
POINT
  5
17A4B
330
159F0
100
AcDbEntity
  8
DEFPOINTS
 62
     0
 48
50.0
100
AcDbPoint
 10
8886.352747049
 20
8502.678224390084
 30
0.0
  0
POINT
  5
17A4C
330
159F0
100
AcDbEntity
  8
DEFPOINTS
 62
     0
 48
50.0
100
AcDbPoint
 10
8886.352747049008
 20
8082.678224390084
 30
0.0
  0
POINT
  5
17A4D
330
159F0
100
AcDbEntity
  8
DEFPOINTS
 62
     0
 48
50.0
100
AcDbPoint
 10
9533.779092783385
 20
8082.678224390084
 30
0.0
  0
ENDBLK
  5
15B2A
330
159F0
100
AcDbEntity
  8
0
 48
50.0
100
AcDbBlockEnd
  0
BLOCK
  5
15B2B
330
159FC
100
AcDbEntity
  8
0
 48
50.0
100
AcDbBlockBegin
  2
*D16
 70
     1
 10
0.0
 20
0.0
 30
0.0
  3
*D16
  1

  0
LINE
  5
17A3A
330
159FC
100
AcDbEntity
  8
寸法
 62
     0
 48
50.0
370
    -2
100
AcDbLine
 10
8831.352747049001
 20
9577.678224390083
 30
0.0
 11
8831.352747049001
 21
9833.486444015065
 31
0.0
  0
LINE
  5
17A3B
330
159FC
100
AcDbEntity
  8
寸法
 62
     0
 48
50.0
370
    -2
100
AcDbLine
 10
8886.352747049
 20
9577.678224390083
 30
0.0
 11
8886.352747049
 21
9833.486444015065
 31
0.0
  0
LINE
  5
17A3C
330
159FC
100
AcDbEntity
  8
寸法
 62
     0
 48
50.0
370
    -2
100
AcDbLine
 10
8831.352747049001
 20
9773.486444015066
 30
0.0
 11
8731.352747049001
 21
9773.486444015066
 31
0.0
  0
LINE
  5
17A3D
330
159FC
100
AcDbEntity
  8
寸法
 62
     0
 48
50.0
370
    -2
100
AcDbLine
 10
8886.352747049
 20
9773.486444015066
 30
0.0
 11
9303.323309797479
 21
9773.486444015066
 31
0.0
  0
LINE
  5
17A3E
330
159FC
100
AcDbEntity
  8
寸法
 62
     0
 48
50.0
370
    -2
100
AcDbLine
 10
8831.352747049001
 20
9773.486444015066
 30
0.0
 11
8886.352747049
 21
9773.486444015066
 31
0.0
  0
INSERT
  5
17A3F
330
159FC
100
AcDbEntity
  8
寸法
 62
     0
 48
50.0
370
    -2
100
AcDbBlockReference
  2
_DOTSMALL
 10
8831.352747049001
 20
9773.486444015066
 30
0.0
 41
100.0
 42
100.0
 43
100.0
  0
INSERT
  5
17A40
330
159FC
100
AcDbEntity
  8
寸法
 62
     0
 48
50.0
370
    -2
100
AcDbBlockReference
  2
_DOTSMALL
 10
8886.352747049
 20
9773.486444015066
 30
0.0
 41
100.0
 42
100.0
 43
100.0
 50
180.0
  0
MTEXT
  5
17A41
330
159FC
100
AcDbEntity
  8
寸法
 62
     7
 48
50.0
100
AcDbMText
 10
9194.838028423241
 20
9873.486444015066
 30
0.0
 40
120.0
 41
0.0
 71
     5
 72
     1
  1
\A1;55
  7
STYLE1
 73
     1
 44
1.0
1001
ACAD
1000
MTEXTBEGIN
1070
    73
1070
     1
1070
    44
1040
1.0
1070
    74
1070
     0
1000
MTEXTEND
  0
POINT
  5
17A42
330
159FC
100
AcDbEntity
  8
DEFPOINTS
 62
     0
 48
50.0
100
AcDbPoint
 10
8831.352747049001
 20
9557.678224390084
 30
0.0
  0
POINT
  5
17A43
330
159FC
100
AcDbEntity
  8
DEFPOINTS
 62
     0
 48
50.0
100
AcDbPoint
 10
8886.352747049
 20
9557.678224390084
 30
0.0
  0
POINT
  5
17A44
330
159FC
100
AcDbEntity
  8
DEFPOINTS
 62
     0
 48
50.0
100
AcDbPoint
 10
8886.352747049
 20
9773.486444015066
 30
0.0
  0
ENDBLK
  5
15B37
330
159FC
100
AcDbEntity
  8
0
 48
50.0
100
AcDbBlockEnd
  0
BLOCK
  5
15D3D
330
15D3C
100
AcDbEntity
  8
0
 48
50.0
100
AcDbBlockBegin
  2
*D17
 70
     1
 10
0.0
 20
0.0
 30
0.0
  3
*D17
  1

  0
LINE
  5
17A2F
330
15D3C
100
AcDbEntity
  8
寸法
 62
     0
 48
50.0
370
    -2
100
AcDbLine
 10
6371.352747049001
 20
9577.678224390105
 30
0.0
 11
6371.352747049001
 21
9833.486444015086
 31
0.0
  0
LINE
  5
17A30
330
15D3C
100
AcDbEntity
  8
寸法
 62
     0
 48
50.0
370
    -2
100
AcDbLine
 10
6481.352747049001
 20
9577.678224390083
 30
0.0
 11
6481.352747049001
 21
9833.486444015086
 31
0.0
  0
LINE
  5
17A31
330
15D3C
100
AcDbEntity
  8
寸法
 62
     0
 48
50.0
370
    -2
100
AcDbLine
 10
6371.352747049001
 20
9773.486444015087
 30
0.0
 11
6271.352747049
 21
9773.486444015087
 31
0.0
  0
LINE
  5
17A32
330
15D3C
100
AcDbEntity
  8
寸法
 62
     0
 48
50.0
370
    -2
100
AcDbLine
 10
6481.352747049001
 20
9773.486444015087
 30
0.0
 11
6581.352747049002
 21
9773.486444015087
 31
0.0
  0
LINE
  5
17A33
330
15D3C
100
AcDbEntity
  8
寸法
 62
     0
 48
50.0
370
    -2
100
AcDbLine
 10
6371.352747049001
 20
9773.486444015087
 30
0.0
 11
6481.352747049001
 21
9773.486444015087
 31
0.0
  0
INSERT
  5
17A34
330
15D3C
100
AcDbEntity
  8
寸法
 62
     0
 48
50.0
370
    -2
100
AcDbBlockReference
  2
_DOTSMALL
 10
6371.352747049001
 20
9773.486444015087
 30
0.0
 41
100.0
 42
100.0
 43
100.0
  0
INSERT
  5
17A35
330
15D3C
100
AcDbEntity
  8
寸法
 62
     0
 48
50.0
370
    -2
100
AcDbBlockReference
  2
_DOTSMALL
 10
6481.352747049001
 20
9773.486444015087
 30
0.0
 41
100.0
 42
100.0
 43
100.0
 50
180.0
  0
MTEXT
  5
17A36
330
15D3C
100
AcDbEntity
  8
寸法
 62
     7
 48
50.0
100
AcDbMText
 10
6426.352747049
 20
9873.486444015087
 30
0.0
 40
120.0
 41
0.0
 71
     5
 72
     1
  1
\A1;110
  7
STYLE1
 73
     1
 44
1.0
1001
ACAD
1000
MTEXTBEGIN
1070
    73
1070
     1
1070
    44
1040
1.0
1070
    74
1070
     0
1000
MTEXTEND
  0
POINT
  5
17A37
330
15D3C
100
AcDbEntity
  8
DEFPOINTS
 62
     0
 48
50.0
100
AcDbPoint
 10
6371.352747049001
 20
9557.678224390105
 30
0.0
  0
POINT
  5
17A38
330
15D3C
100
AcDbEntity
  8
DEFPOINTS
 62
     0
 48
50.0
100
AcDbPoint
 10
6481.352747049001
 20
9557.678224390084
 30
0.0
  0
POINT
  5
17A39
330
15D3C
100
AcDbEntity
  8
DEFPOINTS
 62
     0
 48
50.0
100
AcDbPoint
 10
6481.352747049001
 20
9773.486444015087
 30
0.0
  0
ENDBLK
  5
15D49
330
15D3C
100
AcDbEntity
  8
0
 48
50.0
100
AcDbBlockEnd
  0
BLOCK
  5
15E48
330
15E47
100
AcDbEntity
  8
0
 48
50.0
100
AcDbBlockBegin
  2
*D18
 70
     1
 10
0.0
 20
0.0
 30
0.0
  3
*D18
  1

  0
LINE
  5
17A26
330
15E47
100
AcDbEntity
  8
寸法
 62
     0
 48
50.0
370
    -2
100
AcDbLine
 10
5661.352747049001
 20
9577.678224390018
 30
0.0
 11
5661.352747049001
 21
9833.486444015086
 31
0.0
  0
LINE
  5
17A27
330
15E47
100
AcDbEntity
  8
寸法
 62
     0
 48
50.0
370
    -2
100
AcDbLine
 10
6371.352747049001
 20
9577.678224390105
 30
0.0
 11
6371.352747049001
 21
9833.486444015086
 31
0.0
  0
LINE
  5
17A28
330
15E47
100
AcDbEntity
  8
寸法
 62
     0
 48
50.0
370
    -2
100
AcDbLine
 10
5661.352747049001
 20
9773.486444015087
 30
0.0
 11
6371.352747049001
 21
9773.486444015087
 31
0.0
  0
INSERT
  5
17A29
330
15E47
100
AcDbEntity
  8
寸法
 62
     0
 48
50.0
370
    -2
100
AcDbBlockReference
  2
_DOTSMALL
 10
5661.352747049001
 20
9773.486444015087
 30
0.0
 41
100.0
 42
100.0
 43
100.0
 50
180.0
  0
INSERT
  5
17A2A
330
15E47
100
AcDbEntity
  8
寸法
 62
     0
 48
50.0
370
    -2
100
AcDbBlockReference
  2
_DOTSMALL
 10
6371.352747049001
 20
9773.486444015087
 30
0.0
 41
100.0
 42
100.0
 43
100.0
  0
MTEXT
  5
17A2B
330
15E47
100
AcDbEntity
  8
寸法
 62
     7
 48
50.0
100
AcDbMText
 10
6016.602747049001
 20
9873.486444015087
 30
0.0
 40
120.0
 41
0.0
 71
     5
 72
     1
  1
\A1;710
  7
STYLE1
 73
     1
 44
1.0
1001
ACAD
1000
MTEXTBEGIN
1070
    73
1070
     1
1070
    44
1040
1.0
1070
    74
1070
     0
1000
MTEXTEND
  0
POINT
  5
17A2C
330
15E47
100
AcDbEntity
  8
DEFPOINTS
 62
     0
 48
50.0
100
AcDbPoint
 10
5661.352747049001
 20
9557.678224390018
 30
0.0
  0
POINT
  5
17A2D
330
15E47
100
AcDbEntity
  8
DEFPOINTS
 62
     0
 48
50.0
100
AcDbPoint
 10
6371.352747049001
 20
9557.678224390105
 30
0.0
  0
POINT
  5
17A2E
330
15E47
100
AcDbEntity
  8
DEFPOINTS
 62
     0
 48
50.0
100
AcDbPoint
 10
6371.352747049001
 20
9773.486444015087
 30
0.0
  0
ENDBLK
  5
15E52
330
15E47
100
AcDbEntity
  8
0
 48
50.0
100
AcDbBlockEnd
  0
BLOCK
  5
15E55
330
15E54
100
AcDbEntity
  8
0
 48
50.0
100
AcDbBlockBegin
  2
*D19
 70
     1
 10
0.0
 20
0.0
 30
0.0
  3
*D19
  1

  0
LINE
  5
17B08
330
15E54
100
AcDbEntity
  8
寸法
 62
     0
 48
50.0
370
    -2
100
AcDbLine
 10
7270.49376320031
 20
9058.178224390031
 30
0.0
 11
7205.637435480416
 21
8816.131114147053
 31
0.0
  0
LINE
  5
17B09
330
15E54
100
AcDbEntity
  8
寸法
 62
     0
 48
50.0
370
    -2
100
AcDbLine
 10
8031.493763200321
 20
9058.178224390031
 30
0.0
 11
7966.637435480426
 21
8816.131114147053
 31
0.0
  0
LINE
  5
17B0A
330
15E54
100
AcDbEntity
  8
寸法
 62
     0
 48
50.0
370
    -2
100
AcDbLine
 10
7221.714387026283
 20
8876.131114147053
 30
0.0
 11
7982.714387026293
 21
8876.131114147053
 31
0.0
  0
INSERT
  5
17B0B
330
15E54
100
AcDbEntity
  8
寸法
 62
     0
 48
50.0
370
    -2
100
AcDbBlockReference
  2
_DOTSMALL
 10
7221.714387026283
 20
8876.131114147053
 30
0.0
 41
100.0
 42
100.0
 43
100.0
 50
180.0
  0
INSERT
  5
17B0C
330
15E54
100
AcDbEntity
  8
寸法
 62
     0
 48
50.0
370
    -2
100
AcDbBlockReference
  2
_DOTSMALL
 10
7982.714387026293
 20
8876.131114147053
 30
0.0
 41
100.0
 42
100.0
 43
100.0
  0
MTEXT
  5
17B0D
330
15E54
100
AcDbEntity
  8
寸法
 62
     7
 48
50.0
100
AcDbMText
 10
7655.199809167199
 20
8976.131114147053
 30
0.0
 40
120.0
 41
0.0
 71
     5
 72
     1
  1
\A1;761
  7
STYLE1
 73
     1
 44
1.0
1001
ACAD
1000
MTEXTBEGIN
1070
    73
1070
     1
1070
    44
1040
1.0
1070
    74
1070
     0
1000
MTEXTEND
  0
POINT
  5
17B0E
330
15E54
100
AcDbEntity
  8
DEFPOINTS
 62
     0
 48
50.0
100
AcDbPoint
 10
7275.852747048931
 20
9078.178224390033
 30
0.0
  0
POINT
  5
17B0F
330
15E54
100
AcDbEntity
  8
DEFPOINTS
 62
     0
 48
50.0
100
AcDbPoint
 10
8036.852747048943
 20
9078.178224390033
 30
0.0
  0
POINT
  5
17B10
330
15E54
100
AcDbEntity
  8
DEFPOINTS
 62
     0
 48
50.0
100
AcDbPoint
 10
7982.714387026293
 20
8876.131114147053
 30
0.0
  0
ENDBLK
  5
15E5F
330
15E54
100
AcDbEntity
  8
0
 48
50.0
100
AcDbBlockEnd
  0
BLOCK
  5
15E63
330
15E62
100
AcDbEntity
  8
0
 48
50.0
100
AcDbBlockBegin
  2
*D20
 70
     1
 10
0.0
 20
0.0
 30
0.0
  3
*D20
  1

  0
LINE
  5
17AF6
330
15E62
100
AcDbEntity
  8
寸法
 62
     0
 48
50.0
370
    -2
100
AcDbLine
 10
6450.493763200309
 20
9058.178224390031
 30
0.0
 11
6385.637435480416
 21
8816.131114147053
 31
0.0
  0
LINE
  5
17AF7
330
15E62
100
AcDbEntity
  8
寸法
 62
     0
 48
50.0
370
    -2
100
AcDbLine
 10
7211.49376320032
 20
9058.178224390031
 30
0.0
 11
7146.637435480427
 21
8816.131114147053
 31
0.0
  0
LINE
  5
17AF8
330
15E62
100
AcDbEntity
  8
寸法
 62
     0
 48
50.0
370
    -2
100
AcDbLine
 10
6401.714387026283
 20
8876.131114147053
 30
0.0
 11
7162.714387026294
 21
8876.131114147053
 31
0.0
  0
INSERT
  5
17AF9
330
15E62
100
AcDbEntity
  8
寸法
 62
     0
 48
50.0
370
    -2
100
AcDbBlockReference
  2
_DOTSMALL
 10
6401.714387026283
 20
8876.131114147053
 30
0.0
 41
100.0
 42
100.0
 43
100.0
 50
180.0
  0
INSERT
  5
17AFA
330
15E62
100
AcDbEntity
  8
寸法
 62
     0
 48
50.0
370
    -2
100
AcDbBlockReference
  2
_DOTSMALL
 10
7162.714387026294
 20
8876.131114147053
 30
0.0
 41
100.0
 42
100.0
 43
100.0
  0
MTEXT
  5
17AFB
330
15E62
100
AcDbEntity
  8
寸法
 62
     7
 48
50.0
100
AcDbMText
 10
6835.1998091672
 20
8976.131114147053
 30
0.0
 40
120.0
 41
0.0
 71
     5
 72
     1
  1
\A1;761
  7
STYLE1
 73
     1
 44
1.0
1001
ACAD
1000
MTEXTBEGIN
1070
    73
1070
     1
1070
    44
1040
1.0
1070
    74
1070
     0
1000
MTEXTEND
  0
POINT
  5
17AFC
330
15E62
100
AcDbEntity
  8
DEFPOINTS
 62
     0
 48
50.0
100
AcDbPoint
 10
6455.852747048933
 20
9078.178224390033
 30
0.0
  0
POINT
  5
17AFD
330
15E62
100
AcDbEntity
  8
DEFPOINTS
 62
     0
 48
50.0
100
AcDbPoint
 10
7216.852747048942
 20
9078.178224390033
 30
0.0
  0
POINT
  5
17AFE
330
15E62
100
AcDbEntity
  8
DEFPOINTS
 62
     0
 48
50.0
100
AcDbPoint
 10
7162.714387026294
 20
8876.131114147053
 30
0.0
  0
ENDBLK
  5
15E6D
330
15E62
100
AcDbEntity
  8
0
 48
50.0
100
AcDbBlockEnd
  0
BLOCK
  5
15E6F
330
15E6E
100
AcDbEntity
  8
0
 48
50.0
100
AcDbBlockBegin
  2
*D21
 70
     1
 10
0.0
 20
0.0
 30
0.0
  3
*D21
  1

  0
LINE
  5
17AFF
330
15E6E
100
AcDbEntity
  8
寸法
 62
     0
 48
50.0
370
    -2
100
AcDbLine
 10
5630.493763200309
 20
9058.178224390031
 30
0.0
 11
5565.637435480415
 21
8816.131114147053
 31
0.0
  0
LINE
  5
17B00
330
15E6E
100
AcDbEntity
  8
寸法
 62
     0
 48
50.0
370
    -2
100
AcDbLine
 10
6391.49376320032
 20
9058.178224390031
 30
0.0
 11
6326.637435480427
 21
8816.131114147053
 31
0.0
  0
LINE
  5
17B01
330
15E6E
100
AcDbEntity
  8
寸法
 62
     0
 48
50.0
370
    -2
100
AcDbLine
 10
5581.714387026282
 20
8876.131114147053
 30
0.0
 11
6342.714387026294
 21
8876.131114147053
 31
0.0
  0
INSERT
  5
17B02
330
15E6E
100
AcDbEntity
  8
寸法
 62
     0
 48
50.0
370
    -2
100
AcDbBlockReference
  2
_DOTSMALL
 10
5581.714387026282
 20
8876.131114147053
 30
0.0
 41
100.0
 42
100.0
 43
100.0
 50
180.0
  0
INSERT
  5
17B03
330
15E6E
100
AcDbEntity
  8
寸法
 62
     0
 48
50.0
370
    -2
100
AcDbBlockReference
  2
_DOTSMALL
 10
6342.714387026294
 20
8876.131114147053
 30
0.0
 41
100.0
 42
100.0
 43
100.0
  0
MTEXT
  5
17B04
330
15E6E
100
AcDbEntity
  8
寸法
 62
     7
 48
50.0
100
AcDbMText
 10
6015.199809167199
 20
8976.131114147053
 30
0.0
 40
120.0
 41
0.0
 71
     5
 72
     1
  1
\A1;761
  7
STYLE1
 73
     1
 44
1.0
1001
ACAD
1000
MTEXTBEGIN
1070
    73
1070
     1
1070
    44
1040
1.0
1070
    74
1070
     0
1000
MTEXTEND
  0
POINT
  5
17B05
330
15E6E
100
AcDbEntity
  8
DEFPOINTS
 62
     0
 48
50.0
100
AcDbPoint
 10
5635.852747048932
 20
9078.178224390033
 30
0.0
  0
POINT
  5
17B06
330
15E6E
100
AcDbEntity
  8
DEFPOINTS
 62
     0
 48
50.0
100
AcDbPoint
 10
6396.852747048942
 20
9078.178224390033
 30
0.0
  0
POINT
  5
17B07
330
15E6E
100
AcDbEntity
  8
DEFPOINTS
 62
     0
 48
50.0
100
AcDbPoint
 10
6342.714387026294
 20
8876.131114147053
 30
0.0
  0
ENDBLK
  5
15E79
330
15E6E
100
AcDbEntity
  8
0
 48
50.0
100
AcDbBlockEnd
  0
BLOCK
  5
15ECD
330
15E7B
100
AcDbEntity
  8
0
 48
50.0
100
AcDbBlockBegin
  2
*D22
 70
     1
 10
0.0
 20
0.0
 30
0.0
  3
*D22
  1

  0
LINE
  5
17A02
330
15E7B
100
AcDbEntity
  8
寸法
 62
     0
 48
50.0
370
    -2
100
AcDbLine
 10
7301.352747048998
 20
8007.678224389982
 30
0.0
 11
7301.352747048998
 21
7527.854556594904
 31
0.0
  0
LINE
  5
17A03
330
15E7B
100
AcDbEntity
  8
寸法
 62
     0
 48
50.0
370
    -2
100
AcDbLine
 10
7986.352747048994
 20
8007.678224389946
 30
0.0
 11
7986.352747048994
 21
7527.854556594904
 31
0.0
  0
LINE
  5
17A04
330
15E7B
100
AcDbEntity
  8
寸法
 62
     0
 48
50.0
370
    -2
100
AcDbLine
 10
7301.352747048998
 20
7587.854556594904
 30
0.0
 11
7986.352747048994
 21
7587.854556594904
 31
0.0
  0
INSERT
  5
17A05
330
15E7B
100
AcDbEntity
  8
寸法
 62
     0
 48
50.0
370
    -2
100
AcDbBlockReference
  2
_DOTSMALL
 10
7301.352747048998
 20
7587.854556594904
 30
0.0
 41
100.0
 42
100.0
 43
100.0
 50
180.0
  0
INSERT
  5
17A06
330
15E7B
100
AcDbEntity
  8
寸法
 62
     0
 48
50.0
370
    -2
100
AcDbBlockReference
  2
_DOTSMALL
 10
7986.352747048994
 20
7587.854556594904
 30
0.0
 41
100.0
 42
100.0
 43
100.0
  0
MTEXT
  5
17A07
330
15E7B
100
AcDbEntity
  8
寸法
 62
     7
 48
50.0
100
AcDbMText
 10
7643.852747048995
 20
7687.854556594904
 30
0.0
 40
120.0
 41
0.0
 71
     5
 72
     1
  1
\A1;685
  7
STYLE1
 73
     1
 44
1.0
1001
ACAD
1000
MTEXTBEGIN
1070
    73
1070
     1
1070
    44
1040
1.0
1070
    74
1070
     0
1000
MTEXTEND
  0
POINT
  5
17A08
330
15E7B
100
AcDbEntity
  8
DEFPOINTS
 62
     0
 48
50.0
100
AcDbPoint
 10
7301.352747048998
 20
8027.678224389982
 30
0.0
  0
POINT
  5
17A09
330
15E7B
100
AcDbEntity
  8
DEFPOINTS
 62
     0
 48
50.0
100
AcDbPoint
 10
7986.352747048994
 20
8027.678224389944
 30
0.0
  0
POINT
  5
17A0A
330
15E7B
100
AcDbEntity
  8
DEFPOINTS
 62
     0
 48
50.0
100
AcDbPoint
 10
7986.352747048994
 20
7587.854556594904
 30
0.0
  0
ENDBLK
  5
15ED7
330
15E7B
100
AcDbEntity
  8
0
 48
50.0
100
AcDbBlockEnd
  0
BLOCK
  5
15EC2
330
15E93
100
AcDbEntity
  8
0
 48
50.0
100
AcDbBlockBegin
  2
*D23
 70
     1
 10
0.0
 20
0.0
 30
0.0
  3
*D23
  1

  0
LINE
  5
179F9
330
15E93
100
AcDbEntity
  8
寸法
 62
     0
 48
50.0
370
    -2
100
AcDbLine
 10
6481.352747048997
 20
8007.678224389982
 30
0.0
 11
6481.352747048997
 21
7527.854556594904
 31
0.0
  0
LINE
  5
179FA
330
15E93
100
AcDbEntity
  8
寸法
 62
     0
 48
50.0
370
    -2
100
AcDbLine
 10
7166.352747048994
 20
8007.678224389946
 30
0.0
 11
7166.352747048994
 21
7527.854556594904
 31
0.0
  0
LINE
  5
179FB
330
15E93
100
AcDbEntity
  8
寸法
 62
     0
 48
50.0
370
    -2
100
AcDbLine
 10
6481.352747048997
 20
7587.854556594904
 30
0.0
 11
7166.352747048994
 21
7587.854556594904
 31
0.0
  0
INSERT
  5
179FC
330
15E93
100
AcDbEntity
  8
寸法
 62
     0
 48
50.0
370
    -2
100
AcDbBlockReference
  2
_DOTSMALL
 10
6481.352747048997
 20
7587.854556594904
 30
0.0
 41
100.0
 42
100.0
 43
100.0
 50
180.0
  0
INSERT
  5
179FD
330
15E93
100
AcDbEntity
  8
寸法
 62
     0
 48
50.0
370
    -2
100
AcDbBlockReference
  2
_DOTSMALL
 10
7166.352747048994
 20
7587.854556594904
 30
0.0
 41
100.0
 42
100.0
 43
100.0
  0
MTEXT
  5
179FE
330
15E93
100
AcDbEntity
  8
寸法
 62
     7
 48
50.0
100
AcDbMText
 10
6823.852747048995
 20
7687.854556594904
 30
0.0
 40
120.0
 41
0.0
 71
     5
 72
     1
  1
\A1;685
  7
STYLE1
 73
     1
 44
1.0
1001
ACAD
1000
MTEXTBEGIN
1070
    73
1070
     1
1070
    44
1040
1.0
1070
    74
1070
     0
1000
MTEXTEND
  0
POINT
  5
179FF
330
15E93
100
AcDbEntity
  8
DEFPOINTS
 62
     0
 48
50.0
100
AcDbPoint
 10
6481.352747048997
 20
8027.678224389982
 30
0.0
  0
POINT
  5
17A00
330
15E93
100
AcDbEntity
  8
DEFPOINTS
 62
     0
 48
50.0
100
AcDbPoint
 10
7166.352747048994
 20
8027.678224389944
 30
0.0
  0
POINT
  5
17A01
330
15E93
100
AcDbEntity
  8
DEFPOINTS
 62
     0
 48
50.0
100
AcDbPoint
 10
7166.352747048994
 20
7587.854556594904
 30
0.0
  0
ENDBLK
  5
15ECC
330
15E93
100
AcDbEntity
  8
0
 48
50.0
100
AcDbBlockEnd
  0
BLOCK
  5
15EB7
330
15EAB
100
AcDbEntity
  8
0
 48
50.0
100
AcDbBlockBegin
  2
*D24
 70
     1
 10
0.0
 20
0.0
 30
0.0
  3
*D24
  1

  0
LINE
  5
179F0
330
15EAB
100
AcDbEntity
  8
寸法
 62
     0
 48
50.0
370
    -2
100
AcDbLine
 10
8121.352747048998
 20
8007.678224389982
 30
0.0
 11
8121.352747048998
 21
7527.854556594904
 31
0.0
  0
LINE
  5
179F1
330
15EAB
100
AcDbEntity
  8
寸法
 62
     0
 48
50.0
370
    -2
100
AcDbLine
 10
8806.352747048993
 20
8007.678224389946
 30
0.0
 11
8806.352747048993
 21
7527.854556594904
 31
0.0
  0
LINE
  5
179F2
330
15EAB
100
AcDbEntity
  8
寸法
 62
     0
 48
50.0
370
    -2
100
AcDbLine
 10
8121.352747048998
 20
7587.854556594904
 30
0.0
 11
8806.352747048993
 21
7587.854556594904
 31
0.0
  0
INSERT
  5
179F3
330
15EAB
100
AcDbEntity
  8
寸法
 62
     0
 48
50.0
370
    -2
100
AcDbBlockReference
  2
_DOTSMALL
 10
8121.352747048998
 20
7587.854556594904
 30
0.0
 41
100.0
 42
100.0
 43
100.0
 50
180.0
  0
INSERT
  5
179F4
330
15EAB
100
AcDbEntity
  8
寸法
 62
     0
 48
50.0
370
    -2
100
AcDbBlockReference
  2
_DOTSMALL
 10
8806.352747048993
 20
7587.854556594904
 30
0.0
 41
100.0
 42
100.0
 43
100.0
  0
MTEXT
  5
179F5
330
15EAB
100
AcDbEntity
  8
寸法
 62
     7
 48
50.0
100
AcDbMText
 10
8463.852747048996
 20
7787.854556594904
 30
0.0
 40
120.0
 41
0.0
 71
     5
 72
     1
  1
\A1;有効開口部間口\P685
  7
STYLE1
 73
     1
 44
1.0
1001
ACAD
1000
MTEXTBEGIN
1070
    73
1070
     1
1070
    44
1040
1.0
1070
    74
1070
     0
1000
MTEXTEND
  0
POINT
  5
179F6
330
15EAB
100
AcDbEntity
  8
DEFPOINTS
 62
     0
 48
50.0
100
AcDbPoint
 10
8121.352747048998
 20
8027.678224389982
 30
0.0
  0
POINT
  5
179F7
330
15EAB
100
AcDbEntity
  8
DEFPOINTS
 62
     0
 48
50.0
100
AcDbPoint
 10
8806.352747048993
 20
8027.678224389944
 30
0.0
  0
POINT
  5
179F8
330
15EAB
100
AcDbEntity
  8
DEFPOINTS
 62
     0
 48
50.0
100
AcDbPoint
 10
8806.352747048993
 20
7587.854556594904
 30
0.0
  0
ENDBLK
  5
15EC1
330
15EAB
100
AcDbEntity
  8
0
 48
50.0
100
AcDbBlockEnd
  0
BLOCK
  5
1607F
330
1607E
100
AcDbEntity
  8
0
 48
50.0
100
AcDbBlockBegin
  2
*D25
 70
     1
 10
0.0
 20
0.0
 30
0.0
  3
*D25
  1

  0
LINE
  5
179C3
330
1607E
100
AcDbEntity
  8
寸法
 62
     0
 48
50.0
370
    -2
100
AcDbLine
 10
4841.352747049
 20
9577.678224390018
 30
0.0
 11
4841.352747049
 21
9833.486444015086
 31
0.0
  0
LINE
  5
179C4
330
1607E
100
AcDbEntity
  8
寸法
 62
     0
 48
50.0
370
    -2
100
AcDbLine
 10
5551.352747049001
 20
9577.678224390105
 30
0.0
 11
5551.352747049001
 21
9833.486444015086
 31
0.0
  0
LINE
  5
179C5
330
1607E
100
AcDbEntity
  8
寸法
 62
     0
 48
50.0
370
    -2
100
AcDbLine
 10
4841.352747049
 20
9773.486444015087
 30
0.0
 11
5551.352747049001
 21
9773.486444015087
 31
0.0
  0
INSERT
  5
179C6
330
1607E
100
AcDbEntity
  8
寸法
 62
     0
 48
50.0
370
    -2
100
AcDbBlockReference
  2
_DOTSMALL
 10
4841.352747049
 20
9773.486444015087
 30
0.0
 41
100.0
 42
100.0
 43
100.0
 50
180.0
  0
INSERT
  5
179C7
330
1607E
100
AcDbEntity
  8
寸法
 62
     0
 48
50.0
370
    -2
100
AcDbBlockReference
  2
_DOTSMALL
 10
5551.352747049001
 20
9773.486444015087
 30
0.0
 41
100.0
 42
100.0
 43
100.0
  0
MTEXT
  5
179C8
330
1607E
100
AcDbEntity
  8
寸法
 62
     7
 48
50.0
100
AcDbMText
 10
5196.602747049001
 20
9873.486444015087
 30
0.0
 40
120.0
 41
0.0
 71
     5
 72
     1
  1
\A1;710
  7
STYLE1
 73
     1
 44
1.0
1001
ACAD
1000
MTEXTBEGIN
1070
    73
1070
     1
1070
    44
1040
1.0
1070
    74
1070
     0
1000
MTEXTEND
  0
POINT
  5
179C9
330
1607E
100
AcDbEntity
  8
DEFPOINTS
 62
     0
 48
50.0
100
AcDbPoint
 10
4841.352747049
 20
9557.678224390018
 30
0.0
  0
POINT
  5
179CA
330
1607E
100
AcDbEntity
  8
DEFPOINTS
 62
     0
 48
50.0
100
AcDbPoint
 10
5551.352747049001
 20
9557.678224390105
 30
0.0
  0
POINT
  5
179CB
330
1607E
100
AcDbEntity
  8
DEFPOINTS
 62
     0
 48
50.0
100
AcDbPoint
 10
5551.352747049001
 20
9773.486444015087
 30
0.0
  0
ENDBLK
  5
16089
330
1607E
100
AcDbEntity
  8
0
 48
50.0
100
AcDbBlockEnd
  0
BLOCK
  5
1608B
330
1608A
100
AcDbEntity
  8
0
 48
50.0
100
AcDbBlockBegin
  2
*D26
 70
     1
 10
0.0
 20
0.0
 30
0.0
  3
*D26
  1

  0
LINE
  5
179AF
330
1608A
100
AcDbEntity
  8
寸法
 62
     0
 48
50.0
370
    -2
100
AcDbLine
 10
4731.352747049
 20
9577.678224390105
 30
0.0
 11
4731.352747049
 21
9833.486444015086
 31
0.0
  0
LINE
  5
179B0
330
1608A
100
AcDbEntity
  8
寸法
 62
     0
 48
50.0
370
    -2
100
AcDbLine
 10
4841.352747049
 20
9577.678224390083
 30
0.0
 11
4841.352747049
 21
9833.486444015086
 31
0.0
  0
LINE
  5
179B1
330
1608A
100
AcDbEntity
  8
寸法
 62
     0
 48
50.0
370
    -2
100
AcDbLine
 10
4731.352747049
 20
9773.486444015087
 30
0.0
 11
4631.352747049001
 21
9773.486444015087
 31
0.0
  0
LINE
  5
179B2
330
1608A
100
AcDbEntity
  8
寸法
 62
     0
 48
50.0
370
    -2
100
AcDbLine
 10
4841.352747049
 20
9773.486444015087
 30
0.0
 11
4941.352747049001
 21
9773.486444015087
 31
0.0
  0
LINE
  5
179B3
330
1608A
100
AcDbEntity
  8
寸法
 62
     0
 48
50.0
370
    -2
100
AcDbLine
 10
4731.352747049
 20
9773.486444015087
 30
0.0
 11
4841.352747049
 21
9773.486444015087
 31
0.0
  0
INSERT
  5
179B4
330
1608A
100
AcDbEntity
  8
寸法
 62
     0
 48
50.0
370
    -2
100
AcDbBlockReference
  2
_DOTSMALL
 10
4731.352747049
 20
9773.486444015087
 30
0.0
 41
100.0
 42
100.0
 43
100.0
  0
INSERT
  5
179B5
330
1608A
100
AcDbEntity
  8
寸法
 62
     0
 48
50.0
370
    -2
100
AcDbBlockReference
  2
_DOTSMALL
 10
4841.352747049
 20
9773.486444015087
 30
0.0
 41
100.0
 42
100.0
 43
100.0
 50
180.0
  0
MTEXT
  5
179B6
330
1608A
100
AcDbEntity
  8
寸法
 62
     7
 48
50.0
100
AcDbMText
 10
4786.352747049
 20
9873.486444015087
 30
0.0
 40
120.0
 41
0.0
 71
     5
 72
     1
  1
\A1;110
  7
STYLE1
 73
     1
 44
1.0
1001
ACAD
1000
MTEXTBEGIN
1070
    73
1070
     1
1070
    44
1040
1.0
1070
    74
1070
     0
1000
MTEXTEND
  0
POINT
  5
179B7
330
1608A
100
AcDbEntity
  8
DEFPOINTS
 62
     0
 48
50.0
100
AcDbPoint
 10
4731.352747049
 20
9557.678224390105
 30
0.0
  0
POINT
  5
179B8
330
1608A
100
AcDbEntity
  8
DEFPOINTS
 62
     0
 48
50.0
100
AcDbPoint
 10
4841.352747049
 20
9557.678224390084
 30
0.0
  0
POINT
  5
179B9
330
1608A
100
AcDbEntity
  8
DEFPOINTS
 62
     0
 48
50.0
100
AcDbPoint
 10
4841.352747049
 20
9773.486444015087
 30
0.0
  0
ENDBLK
  5
16097
330
1608A
100
AcDbEntity
  8
0
 48
50.0
100
AcDbBlockEnd
  0
BLOCK
  5
16099
330
16098
100
AcDbEntity
  8
0
 48
50.0
100
AcDbBlockBegin
  2
*D27
 70
     1
 10
0.0
 20
0.0
 30
0.0
  3
*D27
  1

  0
LINE
  5
179BA
330
16098
100
AcDbEntity
  8
寸法
 62
     0
 48
50.0
370
    -2
100
AcDbLine
 10
4021.352747049
 20
9577.678224390018
 30
0.0
 11
4021.352747049
 21
9833.486444015086
 31
0.0
  0
LINE
  5
179BB
330
16098
100
AcDbEntity
  8
寸法
 62
     0
 48
50.0
370
    -2
100
AcDbLine
 10
4731.352747049
 20
9577.678224390105
 30
0.0
 11
4731.352747049
 21
9833.486444015086
 31
0.0
  0
LINE
  5
179BC
330
16098
100
AcDbEntity
  8
寸法
 62
     0
 48
50.0
370
    -2
100
AcDbLine
 10
4021.352747049
 20
9773.486444015087
 30
0.0
 11
4731.352747049
 21
9773.486444015087
 31
0.0
  0
INSERT
  5
179BD
330
16098
100
AcDbEntity
  8
寸法
 62
     0
 48
50.0
370
    -2
100
AcDbBlockReference
  2
_DOTSMALL
 10
4021.352747049
 20
9773.486444015087
 30
0.0
 41
100.0
 42
100.0
 43
100.0
 50
180.0
  0
INSERT
  5
179BE
330
16098
100
AcDbEntity
  8
寸法
 62
     0
 48
50.0
370
    -2
100
AcDbBlockReference
  2
_DOTSMALL
 10
4731.352747049
 20
9773.486444015087
 30
0.0
 41
100.0
 42
100.0
 43
100.0
  0
MTEXT
  5
179BF
330
16098
100
AcDbEntity
  8
寸法
 62
     7
 48
50.0
100
AcDbMText
 10
4376.602747049001
 20
9873.486444015087
 30
0.0
 40
120.0
 41
0.0
 71
     5
 72
     1
  1
\A1;710
  7
STYLE1
 73
     1
 44
1.0
1001
ACAD
1000
MTEXTBEGIN
1070
    73
1070
     1
1070
    44
1040
1.0
1070
    74
1070
     0
1000
MTEXTEND
  0
POINT
  5
179C0
330
16098
100
AcDbEntity
  8
DEFPOINTS
 62
     0
 48
50.0
100
AcDbPoint
 10
4021.352747049
 20
9557.678224390018
 30
0.0
  0
POINT
  5
179C1
330
16098
100
AcDbEntity
  8
DEFPOINTS
 62
     0
 48
50.0
100
AcDbPoint
 10
4731.352747049
 20
9557.678224390105
 30
0.0
  0
POINT
  5
179C2
330
16098
100
AcDbEntity
  8
DEFPOINTS
 62
     0
 48
50.0
100
AcDbPoint
 10
4731.352747049
 20
9773.486444015087
 30
0.0
  0
ENDBLK
  5
160A3
330
16098
100
AcDbEntity
  8
0
 48
50.0
100
AcDbBlockEnd
  0
BLOCK
  5
160A5
330
160A4
100
AcDbEntity
  8
0
 48
50.0
100
AcDbBlockBegin
  2
*D28
 70
     1
 10
0.0
 20
0.0
 30
0.0
  3
*D28
  1

  0
LINE
  5
17AE4
330
160A4
100
AcDbEntity
  8
寸法
 62
     0
 48
50.0
370
    -2
100
AcDbLine
 10
3990.49376320031
 20
9058.178224390031
 30
0.0
 11
3925.637435480415
 21
8816.131114147053
 31
0.0
  0
LINE
  5
17AE5
330
160A4
100
AcDbEntity
  8
寸法
 62
     0
 48
50.0
370
    -2
100
AcDbLine
 10
4751.49376320032
 20
9058.178224390031
 30
0.0
 11
4686.637435480426
 21
8816.131114147053
 31
0.0
  0
LINE
  5
17AE6
330
160A4
100
AcDbEntity
  8
寸法
 62
     0
 48
50.0
370
    -2
100
AcDbLine
 10
3941.714387026283
 20
8876.131114147053
 30
0.0
 11
4702.714387026293
 21
8876.131114147053
 31
0.0
  0
INSERT
  5
17AE7
330
160A4
100
AcDbEntity
  8
寸法
 62
     0
 48
50.0
370
    -2
100
AcDbBlockReference
  2
_DOTSMALL
 10
3941.714387026283
 20
8876.131114147053
 30
0.0
 41
100.0
 42
100.0
 43
100.0
 50
180.0
  0
INSERT
  5
17AE8
330
160A4
100
AcDbEntity
  8
寸法
 62
     0
 48
50.0
370
    -2
100
AcDbBlockReference
  2
_DOTSMALL
 10
4702.714387026293
 20
8876.131114147053
 30
0.0
 41
100.0
 42
100.0
 43
100.0
  0
MTEXT
  5
17AE9
330
160A4
100
AcDbEntity
  8
寸法
 62
     7
 48
50.0
100
AcDbMText
 10
4375.199809167199
 20
8976.131114147053
 30
0.0
 40
120.0
 41
0.0
 71
     5
 72
     1
  1
\A1;761
  7
STYLE1
 73
     1
 44
1.0
1001
ACAD
1000
MTEXTBEGIN
1070
    73
1070
     1
1070
    44
1040
1.0
1070
    74
1070
     0
1000
MTEXTEND
  0
POINT
  5
17AEA
330
160A4
100
AcDbEntity
  8
DEFPOINTS
 62
     0
 48
50.0
100
AcDbPoint
 10
3995.852747048932
 20
9078.178224390033
 30
0.0
  0
POINT
  5
17AEB
330
160A4
100
AcDbEntity
  8
DEFPOINTS
 62
     0
 48
50.0
100
AcDbPoint
 10
4756.852747048943
 20
9078.178224390033
 30
0.0
  0
POINT
  5
17AEC
330
160A4
100
AcDbEntity
  8
DEFPOINTS
 62
     0
 48
50.0
100
AcDbPoint
 10
4702.714387026293
 20
8876.131114147053
 30
0.0
  0
ENDBLK
  5
160AF
330
160A4
100
AcDbEntity
  8
0
 48
50.0
100
AcDbBlockEnd
  0
BLOCK
  5
160B1
330
160B0
100
AcDbEntity
  8
0
 48
50.0
100
AcDbBlockBegin
  2
*D29
 70
     1
 10
0.0
 20
0.0
 30
0.0
  3
*D29
  1

  0
LINE
  5
17AED
330
160B0
100
AcDbEntity
  8
寸法
 62
     0
 48
50.0
370
    -2
100
AcDbLine
 10
4810.493763200309
 20
9058.178224390031
 30
0.0
 11
4745.637435480415
 21
8816.131114147053
 31
0.0
  0
LINE
  5
17AEE
330
160B0
100
AcDbEntity
  8
寸法
 62
     0
 48
50.0
370
    -2
100
AcDbLine
 10
5571.49376320032
 20
9058.178224390031
 30
0.0
 11
5506.637435480427
 21
8816.131114147053
 31
0.0
  0
LINE
  5
17AEF
330
160B0
100
AcDbEntity
  8
寸法
 62
     0
 48
50.0
370
    -2
100
AcDbLine
 10
4761.714387026283
 20
8876.131114147053
 30
0.0
 11
5522.714387026294
 21
8876.131114147053
 31
0.0
  0
INSERT
  5
17AF0
330
160B0
100
AcDbEntity
  8
寸法
 62
     0
 48
50.0
370
    -2
100
AcDbBlockReference
  2
_DOTSMALL
 10
4761.714387026283
 20
8876.131114147053
 30
0.0
 41
100.0
 42
100.0
 43
100.0
 50
180.0
  0
INSERT
  5
17AF1
330
160B0
100
AcDbEntity
  8
寸法
 62
     0
 48
50.0
370
    -2
100
AcDbBlockReference
  2
_DOTSMALL
 10
5522.714387026294
 20
8876.131114147053
 30
0.0
 41
100.0
 42
100.0
 43
100.0
  0
MTEXT
  5
17AF2
330
160B0
100
AcDbEntity
  8
寸法
 62
     7
 48
50.0
100
AcDbMText
 10
5195.199809167199
 20
8976.131114147053
 30
0.0
 40
120.0
 41
0.0
 71
     5
 72
     1
  1
\A1;761
  7
STYLE1
 73
     1
 44
1.0
1001
ACAD
1000
MTEXTBEGIN
1070
    73
1070
     1
1070
    44
1040
1.0
1070
    74
1070
     0
1000
MTEXTEND
  0
POINT
  5
17AF3
330
160B0
100
AcDbEntity
  8
DEFPOINTS
 62
     0
 48
50.0
100
AcDbPoint
 10
4815.852747048932
 20
9078.178224390033
 30
0.0
  0
POINT
  5
17AF4
330
160B0
100
AcDbEntity
  8
DEFPOINTS
 62
     0
 48
50.0
100
AcDbPoint
 10
5576.852747048942
 20
9078.178224390033
 30
0.0
  0
POINT
  5
17AF5
330
160B0
100
AcDbEntity
  8
DEFPOINTS
 62
     0
 48
50.0
100
AcDbPoint
 10
5522.714387026294
 20
8876.131114147053
 30
0.0
  0
ENDBLK
  5
160BB
330
160B0
100
AcDbEntity
  8
0
 48
50.0
100
AcDbBlockEnd
  0
BLOCK
  5
160BD
330
160BC
100
AcDbEntity
  8
0
 48
50.0
100
AcDbBlockBegin
  2
*D30
 70
     1
 10
0.0
 20
0.0
 30
0.0
  3
*D30
  1

  0
LINE
  5
179DE
330
160BC
100
AcDbEntity
  8
寸法
 62
     0
 48
50.0
370
    -2
100
AcDbLine
 10
5661.352747048997
 20
8007.678224389982
 30
0.0
 11
5661.352747048997
 21
7527.854556594904
 31
0.0
  0
LINE
  5
179DF
330
160BC
100
AcDbEntity
  8
寸法
 62
     0
 48
50.0
370
    -2
100
AcDbLine
 10
6346.352747048993
 20
8007.678224389946
 30
0.0
 11
6346.352747048993
 21
7527.854556594904
 31
0.0
  0
LINE
  5
179E0
330
160BC
100
AcDbEntity
  8
寸法
 62
     0
 48
50.0
370
    -2
100
AcDbLine
 10
5661.352747048997
 20
7587.854556594904
 30
0.0
 11
6346.352747048993
 21
7587.854556594904
 31
0.0
  0
INSERT
  5
179E1
330
160BC
100
AcDbEntity
  8
寸法
 62
     0
 48
50.0
370
    -2
100
AcDbBlockReference
  2
_DOTSMALL
 10
5661.352747048997
 20
7587.854556594904
 30
0.0
 41
100.0
 42
100.0
 43
100.0
 50
180.0
  0
INSERT
  5
179E2
330
160BC
100
AcDbEntity
  8
寸法
 62
     0
 48
50.0
370
    -2
100
AcDbBlockReference
  2
_DOTSMALL
 10
6346.352747048993
 20
7587.854556594904
 30
0.0
 41
100.0
 42
100.0
 43
100.0
  0
MTEXT
  5
179E3
330
160BC
100
AcDbEntity
  8
寸法
 62
     7
 48
50.0
100
AcDbMText
 10
6003.852747048995
 20
7687.854556594904
 30
0.0
 40
120.0
 41
0.0
 71
     5
 72
     1
  1
\A1;685
  7
STYLE1
 73
     1
 44
1.0
1001
ACAD
1000
MTEXTBEGIN
1070
    73
1070
     1
1070
    44
1040
1.0
1070
    74
1070
     0
1000
MTEXTEND
  0
POINT
  5
179E4
330
160BC
100
AcDbEntity
  8
DEFPOINTS
 62
     0
 48
50.0
100
AcDbPoint
 10
5661.352747048997
 20
8027.678224389982
 30
0.0
  0
POINT
  5
179E5
330
160BC
100
AcDbEntity
  8
DEFPOINTS
 62
     0
 48
50.0
100
AcDbPoint
 10
6346.352747048993
 20
8027.678224389944
 30
0.0
  0
POINT
  5
179E6
330
160BC
100
AcDbEntity
  8
DEFPOINTS
 62
     0
 48
50.0
100
AcDbPoint
 10
6346.352747048993
 20
7587.854556594904
 30
0.0
  0
ENDBLK
  5
160C7
330
160BC
100
AcDbEntity
  8
0
 48
50.0
100
AcDbBlockEnd
  0
BLOCK
  5
160C9
330
160C8
100
AcDbEntity
  8
0
 48
50.0
100
AcDbBlockBegin
  2
*D31
 70
     1
 10
0.0
 20
0.0
 30
0.0
  3
*D31
  1

  0
LINE
  5
179E7
330
160C8
100
AcDbEntity
  8
寸法
 62
     0
 48
50.0
370
    -2
100
AcDbLine
 10
4841.352747048997
 20
8007.678224389982
 30
0.0
 11
4841.352747048997
 21
7527.854556594904
 31
0.0
  0
LINE
  5
179E8
330
160C8
100
AcDbEntity
  8
寸法
 62
     0
 48
50.0
370
    -2
100
AcDbLine
 10
5526.352747048993
 20
8007.678224389946
 30
0.0
 11
5526.352747048993
 21
7527.854556594904
 31
0.0
  0
LINE
  5
179E9
330
160C8
100
AcDbEntity
  8
寸法
 62
     0
 48
50.0
370
    -2
100
AcDbLine
 10
4841.352747048997
 20
7587.854556594904
 30
0.0
 11
5526.352747048993
 21
7587.854556594904
 31
0.0
  0
INSERT
  5
179EA
330
160C8
100
AcDbEntity
  8
寸法
 62
     0
 48
50.0
370
    -2
100
AcDbBlockReference
  2
_DOTSMALL
 10
4841.352747048997
 20
7587.854556594904
 30
0.0
 41
100.0
 42
100.0
 43
100.0
 50
180.0
  0
INSERT
  5
179EB
330
160C8
100
AcDbEntity
  8
寸法
 62
     0
 48
50.0
370
    -2
100
AcDbBlockReference
  2
_DOTSMALL
 10
5526.352747048993
 20
7587.854556594904
 30
0.0
 41
100.0
 42
100.0
 43
100.0
  0
MTEXT
  5
179EC
330
160C8
100
AcDbEntity
  8
寸法
 62
     7
 48
50.0
100
AcDbMText
 10
5183.852747048995
 20
7687.854556594904
 30
0.0
 40
120.0
 41
0.0
 71
     5
 72
     1
  1
\A1;685
  7
STYLE1
 73
     1
 44
1.0
1001
ACAD
1000
MTEXTBEGIN
1070
    73
1070
     1
1070
    44
1040
1.0
1070
    74
1070
     0
1000
MTEXTEND
  0
POINT
  5
179ED
330
160C8
100
AcDbEntity
  8
DEFPOINTS
 62
     0
 48
50.0
100
AcDbPoint
 10
4841.352747048997
 20
8027.678224389982
 30
0.0
  0
POINT
  5
179EE
330
160C8
100
AcDbEntity
  8
DEFPOINTS
 62
     0
 48
50.0
100
AcDbPoint
 10
5526.352747048993
 20
8027.678224389944
 30
0.0
  0
POINT
  5
179EF
330
160C8
100
AcDbEntity
  8
DEFPOINTS
 62
     0
 48
50.0
100
AcDbPoint
 10
5526.352747048993
 20
7587.854556594904
 30
0.0
  0
ENDBLK
  5
160D3
330
160C8
100
AcDbEntity
  8
0
 48
50.0
100
AcDbBlockEnd
  0
BLOCK
  5
160D6
330
160D5
100
AcDbEntity
  8
0
 48
50.0
100
AcDbBlockBegin
  2
*D32
 70
     1
 10
0.0
 20
0.0
 30
0.0
  3
*D32
  1

  0
LINE
  5
179A4
330
160D5
100
AcDbEntity
  8
寸法
 62
     0
 48
50.0
370
    -2
100
AcDbLine
 10
5551.352747049001
 20
9577.678224390105
 30
0.0
 11
5551.352747049001
 21
9833.486444015086
 31
0.0
  0
LINE
  5
179A5
330
160D5
100
AcDbEntity
  8
寸法
 62
     0
 48
50.0
370
    -2
100
AcDbLine
 10
5661.352747049001
 20
9577.678224390083
 30
0.0
 11
5661.352747049001
 21
9833.486444015086
 31
0.0
  0
LINE
  5
179A6
330
160D5
100
AcDbEntity
  8
寸法
 62
     0
 48
50.0
370
    -2
100
AcDbLine
 10
5551.352747049001
 20
9773.486444015087
 30
0.0
 11
5451.352747049001
 21
9773.486444015087
 31
0.0
  0
LINE
  5
179A7
330
160D5
100
AcDbEntity
  8
寸法
 62
     0
 48
50.0
370
    -2
100
AcDbLine
 10
5661.352747049001
 20
9773.486444015087
 30
0.0
 11
5761.352747049
 21
9773.486444015087
 31
0.0
  0
LINE
  5
179A8
330
160D5
100
AcDbEntity
  8
寸法
 62
     0
 48
50.0
370
    -2
100
AcDbLine
 10
5551.352747049001
 20
9773.486444015087
 30
0.0
 11
5661.352747049001
 21
9773.486444015087
 31
0.0
  0
INSERT
  5
179A9
330
160D5
100
AcDbEntity
  8
寸法
 62
     0
 48
50.0
370
    -2
100
AcDbBlockReference
  2
_DOTSMALL
 10
5551.352747049001
 20
9773.486444015087
 30
0.0
 41
100.0
 42
100.0
 43
100.0
  0
INSERT
  5
179AA
330
160D5
100
AcDbEntity
  8
寸法
 62
     0
 48
50.0
370
    -2
100
AcDbBlockReference
  2
_DOTSMALL
 10
5661.352747049001
 20
9773.486444015087
 30
0.0
 41
100.0
 42
100.0
 43
100.0
 50
180.0
  0
MTEXT
  5
179AB
330
160D5
100
AcDbEntity
  8
寸法
 62
     7
 48
50.0
100
AcDbMText
 10
5606.352747049001
 20
9873.486444015087
 30
0.0
 40
120.0
 41
0.0
 71
     5
 72
     1
  1
\A1;110
  7
STYLE1
 73
     1
 44
1.0
1001
ACAD
1000
MTEXTBEGIN
1070
    73
1070
     1
1070
    44
1040
1.0
1070
    74
1070
     0
1000
MTEXTEND
  0
POINT
  5
179AC
330
160D5
100
AcDbEntity
  8
DEFPOINTS
 62
     0
 48
50.0
100
AcDbPoint
 10
5551.352747049001
 20
9557.678224390105
 30
0.0
  0
POINT
  5
179AD
330
160D5
100
AcDbEntity
  8
DEFPOINTS
 62
     0
 48
50.0
100
AcDbPoint
 10
5661.352747049001
 20
9557.678224390084
 30
0.0
  0
POINT
  5
179AE
330
160D5
100
AcDbEntity
  8
DEFPOINTS
 62
     0
 48
50.0
100
AcDbPoint
 10
5661.352747049001
 20
9773.486444015087
 30
0.0
  0
ENDBLK
  5
160E2
330
160D5
100
AcDbEntity
  8
0
 48
50.0
100
AcDbBlockEnd
  0
BLOCK
  5
16114
330
16113
100
AcDbEntity
  8
0
 48
50.0
100
AcDbBlockBegin
  2
*D33
 70
     1
 10
0.0
 20
0.0
 30
0.0
  3
*D33
  1

  0
LINE
  5
1799B
330
16113
100
AcDbEntity
  8
寸法
 62
     0
 48
50.0
370
    -2
100
AcDbLine
 10
4021.352747048997
 20
8007.678224389982
 30
0.0
 11
4021.352747048997
 21
7527.854556594904
 31
0.0
  0
LINE
  5
1799C
330
16113
100
AcDbEntity
  8
寸法
 62
     0
 48
50.0
370
    -2
100
AcDbLine
 10
4706.352747048994
 20
8007.678224389946
 30
0.0
 11
4706.352747048994
 21
7527.854556594904
 31
0.0
  0
LINE
  5
1799D
330
16113
100
AcDbEntity
  8
寸法
 62
     0
 48
50.0
370
    -2
100
AcDbLine
 10
4021.352747048997
 20
7587.854556594904
 30
0.0
 11
4706.352747048994
 21
7587.854556594904
 31
0.0
  0
INSERT
  5
1799E
330
16113
100
AcDbEntity
  8
寸法
 62
     0
 48
50.0
370
    -2
100
AcDbBlockReference
  2
_DOTSMALL
 10
4021.352747048997
 20
7587.854556594904
 30
0.0
 41
100.0
 42
100.0
 43
100.0
 50
180.0
  0
INSERT
  5
1799F
330
16113
100
AcDbEntity
  8
寸法
 62
     0
 48
50.0
370
    -2
100
AcDbBlockReference
  2
_DOTSMALL
 10
4706.352747048994
 20
7587.854556594904
 30
0.0
 41
100.0
 42
100.0
 43
100.0
  0
MTEXT
  5
179A0
330
16113
100
AcDbEntity
  8
寸法
 62
     7
 48
50.0
100
AcDbMText
 10
4363.852747048995
 20
7687.854556594904
 30
0.0
 40
120.0
 41
0.0
 71
     5
 72
     1
  1
\A1;685
  7
STYLE1
 73
     1
 44
1.0
1001
ACAD
1000
MTEXTBEGIN
1070
    73
1070
     1
1070
    44
1040
1.0
1070
    74
1070
     0
1000
MTEXTEND
  0
POINT
  5
179A1
330
16113
100
AcDbEntity
  8
DEFPOINTS
 62
     0
 48
50.0
100
AcDbPoint
 10
4021.352747048997
 20
8027.678224389982
 30
0.0
  0
POINT
  5
179A2
330
16113
100
AcDbEntity
  8
DEFPOINTS
 62
     0
 48
50.0
100
AcDbPoint
 10
4706.352747048994
 20
8027.678224389944
 30
0.0
  0
POINT
  5
179A3
330
16113
100
AcDbEntity
  8
DEFPOINTS
 62
     0
 48
50.0
100
AcDbPoint
 10
4706.352747048994
 20
7587.854556594904
 30
0.0
  0
ENDBLK
  5
1611E
330
16113
100
AcDbEntity
  8
0
 48
50.0
100
AcDbBlockEnd
  0
BLOCK
  5
16BC6
330
16BBC
100
AcDbEntity
  8
0
 48
50.0
100
AcDbBlockBegin
  2
*D34
 70
     1
 10
0.0
 20
0.0
 30
0.0
  3
*D34
  1

  0
LINE
  5
17992
330
16BBC
100
AcDbEntity
  8
寸法
 62
     0
 48
50.0
370
    -2
100
AcDbLine
 10
11246.2222895646
 20
5080.889586175446
 30
0.0
 11
10611.26156891717
 21
5080.889586175446
 31
0.0
  0
LINE
  5
17993
330
16BBC
100
AcDbEntity
  8
寸法
 62
     0
 48
50.0
370
    -2
100
AcDbLine
 10
11246.2222895646
 20
3290.889586175449
 30
0.0
 11
10611.26156891717
 21
3290.889586175449
 31
0.0
  0
LINE
  5
17994
330
16BBC
100
AcDbEntity
  8
寸法
 62
     0
 48
50.0
370
    -2
100
AcDbLine
 10
10671.26156891717
 20
5080.889586175446
 30
0.0
 11
10671.26156891717
 21
3290.889586175449
 31
0.0
  0
INSERT
  5
17995
330
16BBC
100
AcDbEntity
  8
寸法
 62
     0
 48
50.0
370
    -2
100
AcDbBlockReference
  2
_DOTSMALL
 10
10671.26156891717
 20
5080.889586175446
 30
0.0
 41
100.0
 42
100.0
 43
100.0
 50
90.0
  0
INSERT
  5
17996
330
16BBC
100
AcDbEntity
  8
寸法
 62
     0
 48
50.0
370
    -2
100
AcDbBlockReference
  2
_DOTSMALL
 10
10671.26156891717
 20
3290.889586175449
 30
0.0
 41
100.0
 42
100.0
 43
100.0
 50
270.0
  0
MTEXT
  5
17997
330
16BBC
100
AcDbEntity
  8
寸法
 62
     7
 48
50.0
100
AcDbMText
 10
10571.26156891717
 20
4195.924598051834
 30
0.0
 40
120.0
 41
0.0
 71
     5
 72
     1
  1
\A1;1790
  7
STYLE1
 11
0.0000000000000001
 21
1.0
 31
0.0
 73
     1
 44
1.0
1001
ACAD
1000
MTEXTBEGIN
1070
    73
1070
     1
1070
    44
1040
1.0
1070
    74
1070
     0
1000
MTEXTEND
  0
POINT
  5
17998
330
16BBC
100
AcDbEntity
  8
DEFPOINTS
 62
     0
 48
50.0
100
AcDbPoint
 10
11266.2222895646
 20
5080.889586175446
 30
0.0
  0
POINT
  5
17999
330
16BBC
100
AcDbEntity
  8
DEFPOINTS
 62
     0
 48
50.0
100
AcDbPoint
 10
11266.2222895646
 20
3290.889586175448
 30
0.0
  0
POINT
  5
1799A
330
16BBC
100
AcDbEntity
  8
DEFPOINTS
 62
     0
 48
50.0
100
AcDbPoint
 10
10671.26156891717
 20
3290.889586175449
 30
0.0
  0
ENDBLK
  5
16BC7
330
16BBC
100
AcDbEntity
  8
0
 48
50.0
100
AcDbBlockEnd
  0
BLOCK
  5
16BD3
330
16BC8
100
AcDbEntity
  8
0
 48
50.0
100
AcDbBlockBegin
  2
*D35
 70
     1
 10
0.0
 20
0.0
 30
0.0
  3
*D35
  1

  0
LINE
  5
17988
330
16BC8
100
AcDbEntity
  8
寸法
 62
     0
 48
50.0
370
    -2
100
AcDbLine
 10
11208.58146429687
 20
5174.425197648922
 30
0.0
 11
10555.68129400284
 21
5199.0762288889
 31
0.0
  0
LINE
  5
17989
330
16BC8
100
AcDbEntity
  8
寸法
 62
     0
 48
50.0
370
    -2
100
AcDbLine
 10
11213.90129844883
 20
5315.324805045803
 30
0.0
 11
10561.00112815464
 21
5339.975836285788
 31
0.0
  0
LINE
  5
1798A
330
16BC8
100
AcDbEntity
  8
寸法
 62
     0
 48
50.0
370
    -2
100
AcDbLine
 10
10615.6385737462
 20
5196.812469675371
 30
0.0
 11
10620.95840789799
 21
5337.71207707226
 31
0.0
  0
LINE
  5
1798B
330
16BC8
100
AcDbEntity
  8
寸法
 62
     0
 48
50.0
370
    -2
100
AcDbLine
 10
10620.95840789799
 20
5337.71207707226
 30
0.0
 11
10634.54096317919
 21
5697.45575553309
 31
0.0
  0
INSERT
  5
1798C
330
16BC8
100
AcDbEntity
  8
寸法
 62
     0
 48
50.0
370
    -2
100
AcDbBlockReference
  2
_DOTSMALL
 10
10615.6385737462
 20
5196.812469675371
 30
0.0
 41
100.0
 42
100.0
 43
100.0
 50
267.8377559871574
  0
INSERT
  5
1798D
330
16BC8
100
AcDbEntity
  8
寸法
 62
     0
 48
50.0
370
    -2
100
AcDbBlockReference
  2
_DOTSMALL
 10
10620.95840789799
 20
5337.71207707226
 30
0.0
 41
100.0
 42
100.0
 43
100.0
 50
87.83775598715743
  0
MTEXT
  5
1798E
330
16BC8
100
AcDbEntity
  8
寸法
 62
     7
 48
50.0
100
AcDbMText
 10
10529.70735197762
 20
5571.321248111696
 30
0.0
 40
120.0
 41
0.0
 71
     5
 72
     1
  1
\A1;141
  7
STYLE1
 11
0.03772932022548
 21
0.9992879957226159
 31
0.0
 73
     1
 44
1.0
1001
ACAD
1000
MTEXTBEGIN
1070
    73
1070
     1
1070
    44
1040
1.0
1070
    74
1070
     0
1000
MTEXTEND
  0
POINT
  5
1798F
330
16BC8
100
AcDbEntity
  8
DEFPOINTS
 62
     0
 48
50.0
100
AcDbPoint
 10
11228.56722421133
 20
5173.670611244411
 30
0.0
  0
POINT
  5
17990
330
16BC8
100
AcDbEntity
  8
DEFPOINTS
 62
     0
 48
50.0
100
AcDbPoint
 10
11233.88705836328
 20
5314.570218641295
 30
0.0
  0
POINT
  5
17991
330
16BC8
100
AcDbEntity
  8
DEFPOINTS
 62
     0
 48
50.0
100
AcDbPoint
 10
10620.95840789799
 20
5337.71207707226
 30
0.0
  0
ENDBLK
  5
16BD4
330
16BC8
100
AcDbEntity
  8
0
 48
50.0
100
AcDbBlockEnd
  0
BLOCK
  5
16BE0
330
16BD5
100
AcDbEntity
  8
0
 48
50.0
100
AcDbBlockBegin
  2
*D36
 70
     1
 10
0.0
 20
0.0
 30
0.0
  3
*D36
  1

  0
LINE
  5
1797E
330
16BD5
100
AcDbEntity
  8
寸法
 62
     0
 48
50.0
370
    -2
100
AcDbLine
 10
12803.22465960938
 20
5282.700265787099
 30
0.0
 11
12803.22465960938
 21
5774.547039754748
 31
0.0
  0
LINE
  5
1797F
330
16BD5
100
AcDbEntity
  8
寸法
 62
     0
 48
50.0
370
    -2
100
AcDbLine
 10
12883.22465960938
 20
5280.889586175447
 30
0.0
 11
12883.22465960938
 21
5774.547039754748
 31
0.0
  0
LINE
  5
17980
330
16BD5
100
AcDbEntity
  8
寸法
 62
     0
 48
50.0
370
    -2
100
AcDbLine
 10
12803.22465960938
 20
5714.547039754749
 30
0.0
 11
12883.22465960938
 21
5714.547039754749
 31
0.0
  0
LINE
  5
17981
330
16BD5
100
AcDbEntity
  8
寸法
 62
     0
 48
50.0
370
    -2
100
AcDbLine
 10
12883.22465960938
 20
5714.547039754749
 30
0.0
 11
13195.31914779835
 21
5714.547039754749
 31
0.0
  0
INSERT
  5
17982
330
16BD5
100
AcDbEntity
  8
寸法
 62
     0
 48
50.0
370
    -2
100
AcDbBlockReference
  2
_DOTSMALL
 10
12803.22465960938
 20
5714.547039754749
 30
0.0
 41
100.0
 42
100.0
 43
100.0
 50
180.0
  0
INSERT
  5
17983
330
16BD5
100
AcDbEntity
  8
寸法
 62
     0
 48
50.0
370
    -2
100
AcDbBlockReference
  2
_DOTSMALL
 10
12883.22465960938
 20
5714.547039754749
 30
0.0
 41
100.0
 42
100.0
 43
100.0
  0
MTEXT
  5
17984
330
16BD5
100
AcDbEntity
  8
寸法
 62
     7
 48
50.0
100
AcDbMText
 10
13089.27190370386
 20
5814.547039754749
 30
0.0
 40
120.0
 41
0.0
 71
     5
 72
     1
  1
\A1;80
  7
STYLE1
 73
     1
 44
1.0
1001
ACAD
1000
MTEXTBEGIN
1070
    73
1070
     1
1070
    44
1040
1.0
1070
    74
1070
     0
1000
MTEXTEND
  0
POINT
  5
17985
330
16BD5
100
AcDbEntity
  8
DEFPOINTS
 62
     0
 48
50.0
100
AcDbPoint
 10
12803.22465960938
 20
5262.700265787098
 30
0.0
  0
POINT
  5
17986
330
16BD5
100
AcDbEntity
  8
DEFPOINTS
 62
     0
 48
50.0
100
AcDbPoint
 10
12883.22465960938
 20
5260.889586175446
 30
0.0
  0
POINT
  5
17987
330
16BD5
100
AcDbEntity
  8
DEFPOINTS
 62
     0
 48
50.0
100
AcDbPoint
 10
12883.22465960938
 20
5714.547039754749
 30
0.0
  0
ENDBLK
  5
16BE1
330
16BD5
100
AcDbEntity
  8
0
 48
50.0
100
AcDbBlockEnd
  0
BLOCK
  5
16BEC
330
16BE2
100
AcDbEntity
  8
0
 48
50.0
100
AcDbBlockBegin
  2
*D37
 70
     1
 10
0.0
 20
0.0
 30
0.0
  3
*D37
  1

  0
LINE
  5
17975
330
16BE2
100
AcDbEntity
  8
寸法
 62
     0
 48
50.0
370
    -2
100
AcDbLine
 10
12883.22465960938
 20
5280.889586175447
 30
0.0
 11
12883.22465960938
 21
5982.721360946713
 31
0.0
  0
LINE
  5
17976
330
16BE2
100
AcDbEntity
  8
寸法
 62
     0
 48
50.0
370
    -2
100
AcDbLine
 10
11213.22465960937
 20
5335.88958617545
 30
0.0
 11
11213.22465960937
 21
5982.721360946713
 31
0.0
  0
LINE
  5
17977
330
16BE2
100
AcDbEntity
  8
寸法
 62
     0
 48
50.0
370
    -2
100
AcDbLine
 10
12883.22465960938
 20
5922.721360946713
 30
0.0
 11
11213.22465960937
 21
5922.721360946713
 31
0.0
  0
INSERT
  5
17978
330
16BE2
100
AcDbEntity
  8
寸法
 62
     0
 48
50.0
370
    -2
100
AcDbBlockReference
  2
_DOTSMALL
 10
12883.22465960938
 20
5922.721360946713
 30
0.0
 41
100.0
 42
100.0
 43
100.0
  0
INSERT
  5
17979
330
16BE2
100
AcDbEntity
  8
寸法
 62
     0
 48
50.0
370
    -2
100
AcDbBlockReference
  2
_DOTSMALL
 10
11213.22465960937
 20
5922.721360946713
 30
0.0
 41
100.0
 42
100.0
 43
100.0
 50
180.0
  0
MTEXT
  5
1797A
330
16BE2
100
AcDbEntity
  8
寸法
 62
     7
 48
50.0
100
AcDbMText
 10
12100.3494893112
 20
6022.721360946713
 30
0.0
 40
120.0
 41
0.0
 71
     5
 72
     1
  1
\A1;1670
  7
STYLE1
 73
     1
 44
1.0
1001
ACAD
1000
MTEXTBEGIN
1070
    73
1070
     1
1070
    44
1040
1.0
1070
    74
1070
     0
1000
MTEXTEND
  0
POINT
  5
1797B
330
16BE2
100
AcDbEntity
  8
DEFPOINTS
 62
     0
 48
50.0
100
AcDbPoint
 10
12883.22465960938
 20
5260.889586175446
 30
0.0
  0
POINT
  5
1797C
330
16BE2
100
AcDbEntity
  8
DEFPOINTS
 62
     0
 48
50.0
100
AcDbPoint
 10
11213.22465960937
 20
5315.88958617545
 30
0.0
  0
POINT
  5
1797D
330
16BE2
100
AcDbEntity
  8
DEFPOINTS
 62
     0
 48
50.0
100
AcDbPoint
 10
11213.22465960937
 20
5922.721360946713
 30
0.0
  0
ENDBLK
  5
16BED
330
16BE2
100
AcDbEntity
  8
0
 48
50.0
100
AcDbBlockEnd
  0
BLOCK
  5
16BFA
330
16BEE
100
AcDbEntity
  8
0
 48
50.0
100
AcDbBlockBegin
  2
*D38
 70
     1
 10
0.0
 20
0.0
 30
0.0
  3
*D38
  1

  0
LINE
  5
1796A
330
16BEE
100
AcDbEntity
  8
寸法
 62
     0
 48
50.0
370
    -2
100
AcDbLine
 10
11273.22465960937
 20
5331.891204298421
 30
0.0
 11
11273.22465960937
 21
5774.547039754748
 31
0.0
  0
LINE
  5
1796B
330
16BEE
100
AcDbEntity
  8
寸法
 62
     0
 48
50.0
370
    -2
100
AcDbLine
 10
11213.22465960937
 20
5335.88958617545
 30
0.0
 11
11213.22465960937
 21
5774.547039754748
 31
0.0
  0
LINE
  5
1796C
330
16BEE
100
AcDbEntity
  8
寸法
 62
     0
 48
50.0
370
    -2
100
AcDbLine
 10
11273.22465960937
 20
5714.547039754749
 30
0.0
 11
11373.22465960938
 21
5714.547039754749
 31
0.0
  0
LINE
  5
1796D
330
16BEE
100
AcDbEntity
  8
寸法
 62
     0
 48
50.0
370
    -2
100
AcDbLine
 10
11213.22465960937
 20
5714.547039754749
 30
0.0
 11
10793.94906905819
 21
5714.547039754749
 31
0.0
  0
LINE
  5
1796E
330
16BEE
100
AcDbEntity
  8
寸法
 62
     0
 48
50.0
370
    -2
100
AcDbLine
 10
11273.22465960937
 20
5714.547039754749
 30
0.0
 11
11213.22465960937
 21
5714.547039754749
 31
0.0
  0
INSERT
  5
1796F
330
16BEE
100
AcDbEntity
  8
寸法
 62
     0
 48
50.0
370
    -2
100
AcDbBlockReference
  2
_DOTSMALL
 10
11273.22465960937
 20
5714.547039754749
 30
0.0
 41
100.0
 42
100.0
 43
100.0
 50
180.0
  0
INSERT
  5
17970
330
16BEE
100
AcDbEntity
  8
寸法
 62
     0
 48
50.0
370
    -2
100
AcDbBlockReference
  2
_DOTSMALL
 10
11213.22465960937
 20
5714.547039754749
 30
0.0
 41
100.0
 42
100.0
 43
100.0
  0
MTEXT
  5
17971
330
16BEE
100
AcDbEntity
  8
寸法
 62
     7
 48
50.0
100
AcDbMText
 10
10903.58686433378
 20
5814.547039754749
 30
0.0
 40
120.0
 41
0.0
 71
     5
 72
     1
  1
\A1;60
  7
STYLE1
 73
     1
 44
1.0
1001
ACAD
1000
MTEXTBEGIN
1070
    73
1070
     1
1070
    44
1040
1.0
1070
    74
1070
     0
1000
MTEXTEND
  0
POINT
  5
17972
330
16BEE
100
AcDbEntity
  8
DEFPOINTS
 62
     0
 48
50.0
100
AcDbPoint
 10
11273.22465960937
 20
5311.891204298421
 30
0.0
  0
POINT
  5
17973
330
16BEE
100
AcDbEntity
  8
DEFPOINTS
 62
     0
 48
50.0
100
AcDbPoint
 10
11213.22465960937
 20
5315.88958617545
 30
0.0
  0
POINT
  5
17974
330
16BEE
100
AcDbEntity
  8
DEFPOINTS
 62
     0
 48
50.0
100
AcDbPoint
 10
11213.22465960937
 20
5714.547039754749
 30
0.0
  0
ENDBLK
  5
16BFB
330
16BEE
100
AcDbEntity
  8
0
 48
50.0
100
AcDbBlockEnd
  0
BLOCK
  5
16C06
330
16BFC
100
AcDbEntity
  8
0
 48
50.0
100
AcDbBlockBegin
  2
*D39
 70
     1
 10
0.0
 20
0.0
 30
0.0
  3
*D39
  1

  0
LINE
  5
17961
330
16BFC
100
AcDbEntity
  8
寸法
 62
     0
 48
50.0
370
    -2
100
AcDbLine
 10
12803.22465960938
 20
5282.700265787099
 30
0.0
 11
12803.22465960938
 21
5774.547039754748
 31
0.0
  0
LINE
  5
17962
330
16BFC
100
AcDbEntity
  8
寸法
 62
     0
 48
50.0
370
    -2
100
AcDbLine
 10
11273.22465960937
 20
5331.891204298421
 30
0.0
 11
11273.22465960937
 21
5774.547039754748
 31
0.0
  0
LINE
  5
17963
330
16BFC
100
AcDbEntity
  8
寸法
 62
     0
 48
50.0
370
    -2
100
AcDbLine
 10
12803.22465960938
 20
5714.547039754749
 30
0.0
 11
11273.22465960937
 21
5714.547039754749
 31
0.0
  0
INSERT
  5
17964
330
16BFC
100
AcDbEntity
  8
寸法
 62
     0
 48
50.0
370
    -2
100
AcDbBlockReference
  2
_DOTSMALL
 10
12803.22465960938
 20
5714.547039754749
 30
0.0
 41
100.0
 42
100.0
 43
100.0
  0
INSERT
  5
17965
330
16BFC
100
AcDbEntity
  8
寸法
 62
     0
 48
50.0
370
    -2
100
AcDbBlockReference
  2
_DOTSMALL
 10
11273.22465960937
 20
5714.547039754749
 30
0.0
 41
100.0
 42
100.0
 43
100.0
 50
180.0
  0
MTEXT
  5
17966
330
16BFC
100
AcDbEntity
  8
寸法
 62
     7
 48
50.0
100
AcDbMText
 10
12083.04369249992
 20
5814.547039754749
 30
0.0
 40
120.0
 41
0.0
 71
     5
 72
     1
  1
\A1;柱外寸法1530
  7
STYLE1
 73
     1
 44
1.0
1001
ACAD
1000
MTEXTBEGIN
1070
    73
1070
     1
1070
    44
1040
1.0
1070
    74
1070
     0
1000
MTEXTEND
  0
POINT
  5
17967
330
16BFC
100
AcDbEntity
  8
DEFPOINTS
 62
     0
 48
50.0
100
AcDbPoint
 10
12803.22465960938
 20
5262.700265787098
 30
0.0
  0
POINT
  5
17968
330
16BFC
100
AcDbEntity
  8
DEFPOINTS
 62
     0
 48
50.0
100
AcDbPoint
 10
11273.22465960937
 20
5311.891204298421
 30
0.0
  0
POINT
  5
17969
330
16BFC
100
AcDbEntity
  8
DEFPOINTS
 62
     0
 48
50.0
100
AcDbPoint
 10
11273.22465960937
 20
5714.547039754749
 30
0.0
  0
ENDBLK
  5
16C07
330
16BFC
100
AcDbEntity
  8
0
 48
50.0
100
AcDbBlockEnd
  0
BLOCK
  5
16C12
330
16C08
100
AcDbEntity
  8
0
 48
50.0
100
AcDbBlockBegin
  2
*D40
 70
     1
 10
0.0
 20
0.0
 30
0.0
  3
*D40
  1

  0
LINE
  5
17958
330
16C08
100
AcDbEntity
  8
寸法
 62
     0
 48
50.0
370
    -2
100
AcDbLine
 10
12823.22465960938
 20
3240.889586175447
 30
0.0
 11
13568.1518175815
 21
3240.889586175446
 31
0.0
  0
LINE
  5
17959
330
16C08
100
AcDbEntity
  8
寸法
 62
     0
 48
50.0
370
    -2
100
AcDbLine
 10
12903.22465960938
 20
5260.889586175446
 30
0.0
 11
13568.1518175815
 21
5260.889586175446
 31
0.0
  0
LINE
  5
1795A
330
16C08
100
AcDbEntity
  8
寸法
 62
     0
 48
50.0
370
    -2
100
AcDbLine
 10
13508.1518175815
 20
3240.889586175446
 30
0.0
 11
13508.1518175815
 21
5260.889586175446
 31
0.0
  0
INSERT
  5
1795B
330
16C08
100
AcDbEntity
  8
寸法
 62
     0
 48
50.0
370
    -2
100
AcDbBlockReference
  2
_DOTSMALL
 10
13508.1518175815
 20
3240.889586175446
 30
0.0
 41
100.0
 42
100.0
 43
100.0
 50
270.0
  0
INSERT
  5
1795C
330
16C08
100
AcDbEntity
  8
寸法
 62
     0
 48
50.0
370
    -2
100
AcDbBlockReference
  2
_DOTSMALL
 10
13508.1518175815
 20
5260.889586175446
 30
0.0
 41
100.0
 42
100.0
 43
100.0
 50
90.0
  0
MTEXT
  5
1795D
330
16C08
100
AcDbEntity
  8
寸法
 62
     7
 48
50.0
100
AcDbMText
 10
13408.14000655788
 20
4250.889586175448
 30
0.0
 40
120.0
 41
0.0
 71
     5
 72
     1
  1
\A1;2020
  7
STYLE1
 11
0.0000000000000001
 21
1.0
 31
0.0
 73
     1
 44
1.0
1001
ACAD
1000
MTEXTBEGIN
1070
    73
1070
     1
1070
    44
1040
1.0
1070
    74
1070
     0
1000
MTEXTEND
  0
POINT
  5
1795E
330
16C08
100
AcDbEntity
  8
DEFPOINTS
 62
     0
 48
50.0
100
AcDbPoint
 10
12803.22465960938
 20
3240.889586175447
 30
0.0
  0
POINT
  5
1795F
330
16C08
100
AcDbEntity
  8
DEFPOINTS
 62
     0
 48
50.0
100
AcDbPoint
 10
12883.22465960938
 20
5260.889586175446
 30
0.0
  0
POINT
  5
17960
330
16C08
100
AcDbEntity
  8
DEFPOINTS
 62
     0
 48
50.0
100
AcDbPoint
 10
13508.1518175815
 20
5260.889586175446
 30
0.0
  0
ENDBLK
  5
16C13
330
16C08
100
AcDbEntity
  8
0
 48
50.0
100
AcDbBlockEnd
  0
BLOCK
  5
16C20
330
16C14
100
AcDbEntity
  8
0
 48
50.0
100
AcDbBlockBegin
  2
*D41
 70
     1
 10
0.0
 20
0.0
 30
0.0
  3
*D41
  1

  0
LINE
  5
1794D
330
16C14
100
AcDbEntity
  8
寸法
 62
     0
 48
50.0
370
    -2
100
AcDbLine
 10
11246.2222895646
 20
3290.889586175449
 30
0.0
 11
10611.26156891717
 21
3290.889586175449
 31
0.0
  0
LINE
  5
1794E
330
16C14
100
AcDbEntity
  8
寸法
 62
     0
 48
50.0
370
    -2
100
AcDbLine
 10
11198.22465960937
 20
3240.889586175447
 30
0.0
 11
10611.26156891717
 21
3240.889586175447
 31
0.0
  0
LINE
  5
1794F
330
16C14
100
AcDbEntity
  8
寸法
 62
     0
 48
50.0
370
    -2
100
AcDbLine
 10
10671.26156891717
 20
3290.889586175449
 30
0.0
 11
10671.26156891717
 21
3390.889586175449
 31
0.0
  0
LINE
  5
17950
330
16C14
100
AcDbEntity
  8
寸法
 62
     0
 48
50.0
370
    -2
100
AcDbLine
 10
10671.26156891717
 20
3240.889586175447
 30
0.0
 11
10671.26156891717
 21
2828.795097986466
 31
0.0
  0
LINE
  5
17951
330
16C14
100
AcDbEntity
  8
寸法
 62
     0
 48
50.0
370
    -2
100
AcDbLine
 10
10671.26156891717
 20
3290.889586175449
 30
0.0
 11
10671.26156891717
 21
3240.889586175447
 31
0.0
  0
INSERT
  5
17952
330
16C14
100
AcDbEntity
  8
寸法
 62
     0
 48
50.0
370
    -2
100
AcDbBlockReference
  2
_DOTSMALL
 10
10671.26156891717
 20
3290.889586175449
 30
0.0
 41
100.0
 42
100.0
 43
100.0
 50
270.0
  0
INSERT
  5
17953
330
16C14
100
AcDbEntity
  8
寸法
 62
     0
 48
50.0
370
    -2
100
AcDbBlockReference
  2
_DOTSMALL
 10
10671.26156891717
 20
3240.889586175447
 30
0.0
 41
100.0
 42
100.0
 43
100.0
 50
90.0
  0
MTEXT
  5
17954
330
16C14
100
AcDbEntity
  8
寸法
 62
     7
 48
50.0
100
AcDbMText
 10
10571.26156891717
 20
2934.842342080956
 30
0.0
 40
120.0
 41
0.0
 71
     5
 72
     1
  1
\A1;50
  7
STYLE1
 11
0.0000000000000001
 21
1.0
 31
0.0
 73
     1
 44
1.0
1001
ACAD
1000
MTEXTBEGIN
1070
    73
1070
     1
1070
    44
1040
1.0
1070
    74
1070
     0
1000
MTEXTEND
  0
POINT
  5
17955
330
16C14
100
AcDbEntity
  8
DEFPOINTS
 62
     0
 48
50.0
100
AcDbPoint
 10
11266.2222895646
 20
3290.889586175448
 30
0.0
  0
POINT
  5
17956
330
16C14
100
AcDbEntity
  8
DEFPOINTS
 62
     0
 48
50.0
100
AcDbPoint
 10
11218.22465960937
 20
3240.889586175447
 30
0.0
  0
POINT
  5
17957
330
16C14
100
AcDbEntity
  8
DEFPOINTS
 62
     0
 48
50.0
100
AcDbPoint
 10
10671.26156891717
 20
3240.889586175447
 30
0.0
  0
ENDBLK
  5
16C21
330
16C14
100
AcDbEntity
  8
0
 48
50.0
100
AcDbBlockEnd
  0
BLOCK
  5
16C2C
330
16C22
100
AcDbEntity
  8
0
 48
50.0
100
AcDbBlockBegin
  2
*D42
 70
     1
 10
0.0
 20
0.0
 30
0.0
  3
*D42
  1

  0
LINE
  5
17944
330
16C22
100
AcDbEntity
  8
寸法
 62
     0
 48
50.0
370
    -2
100
AcDbLine
 10
11253.22465960937
 20
3240.889586175447
 30
0.0
 11
10308.95284796889
 21
3240.889586175447
 31
0.0
  0
LINE
  5
17945
330
16C22
100
AcDbEntity
  8
寸法
 62
     0
 48
50.0
370
    -2
100
AcDbLine
 10
11193.22465960937
 20
5315.88958617545
 30
0.0
 11
10308.95284796889
 21
5315.88958617545
 31
0.0
  0
LINE
  5
17946
330
16C22
100
AcDbEntity
  8
寸法
 62
     0
 48
50.0
370
    -2
100
AcDbLine
 10
10368.95284796889
 20
3240.889586175447
 30
0.0
 11
10368.95284796889
 21
5315.88958617545
 31
0.0
  0
INSERT
  5
17947
330
16C22
100
AcDbEntity
  8
寸法
 62
     0
 48
50.0
370
    -2
100
AcDbBlockReference
  2
_DOTSMALL
 10
10368.95284796889
 20
3240.889586175447
 30
0.0
 41
100.0
 42
100.0
 43
100.0
 50
270.0
  0
INSERT
  5
17948
330
16C22
100
AcDbEntity
  8
寸法
 62
     0
 48
50.0
370
    -2
100
AcDbBlockReference
  2
_DOTSMALL
 10
10368.95284796889
 20
5315.88958617545
 30
0.0
 41
100.0
 42
100.0
 43
100.0
 50
90.0
  0
MTEXT
  5
17949
330
16C22
100
AcDbEntity
  8
寸法
 62
     7
 48
50.0
100
AcDbMText
 10
10268.94103694527
 20
4216.096576595247
 30
0.0
 40
120.0
 41
0.0
 71
     5
 72
     1
  1
\A1;2075
  7
STYLE1
 11
0.0000000000000001
 21
1.0
 31
0.0
 73
     1
 44
1.0
1001
ACAD
1000
MTEXTBEGIN
1070
    73
1070
     1
1070
    44
1040
1.0
1070
    74
1070
     0
1000
MTEXTEND
  0
POINT
  5
1794A
330
16C22
100
AcDbEntity
  8
DEFPOINTS
 62
     0
 48
50.0
100
AcDbPoint
 10
11273.22465960937
 20
3240.889586175447
 30
0.0
  0
POINT
  5
1794B
330
16C22
100
AcDbEntity
  8
DEFPOINTS
 62
     0
 48
50.0
100
AcDbPoint
 10
11213.22465960937
 20
5315.88958617545
 30
0.0
  0
POINT
  5
1794C
330
16C22
100
AcDbEntity
  8
DEFPOINTS
 62
     0
 48
50.0
100
AcDbPoint
 10
10368.95284796889
 20
5315.88958617545
 30
0.0
  0
ENDBLK
  5
16C2D
330
16C22
100
AcDbEntity
  8
0
 48
50.0
100
AcDbBlockEnd
  0
BLOCK
  5
17777
330
1776B
100
AcDbEntity
  8
0
 48
50.0
100
AcDbBlockBegin
  2
*D43
 70
     1
 10
0.0
 20
0.0
 30
0.0
  3
*D43
  1

  0
LINE
  5
17939
330
1776B
100
AcDbEntity
  8
寸法
 62
     0
 48
50.0
370
    -2
100
AcDbLine
 10
8936.352747048998
 20
5335.889586175446
 30
0.0
 11
8936.352747048998
 21
5588.431171433687
 31
0.0
  0
LINE
  5
1793A
330
1776B
100
AcDbEntity
  8
寸法
 62
     0
 48
50.0
370
    -2
100
AcDbLine
 10
8886.352747048997
 20
5335.889586175448
 30
0.0
 11
8886.352747048997
 21
5588.431171433687
 31
0.0
  0
LINE
  5
1793B
330
1776B
100
AcDbEntity
  8
寸法
 62
     0
 48
50.0
370
    -2
100
AcDbLine
 10
8886.352747048997
 20
5528.431171433688
 30
0.0
 11
8786.352747048997
 21
5528.431171433688
 31
0.0
  0
LINE
  5
1793C
330
1776B
100
AcDbEntity
  8
寸法
 62
     0
 48
50.0
370
    -2
100
AcDbLine
 10
8936.352747048998
 20
5528.431171433688
 30
0.0
 11
9355.885272517721
 21
5528.431171433688
 31
0.0
  0
LINE
  5
1793D
330
1776B
100
AcDbEntity
  8
寸法
 62
     0
 48
50.0
370
    -2
100
AcDbLine
 10
8886.352747048997
 20
5528.431171433688
 30
0.0
 11
8936.352747048998
 21
5528.431171433688
 31
0.0
  0
INSERT
  5
1793E
330
1776B
100
AcDbEntity
  8
寸法
 62
     0
 48
50.0
370
    -2
100
AcDbBlockReference
  2
_DOTSMALL
 10
8886.352747048997
 20
5528.431171433688
 30
0.0
 41
100.0
 42
100.0
 43
100.0
  0
INSERT
  5
1793F
330
1776B
100
AcDbEntity
  8
寸法
 62
     0
 48
50.0
370
    -2
100
AcDbBlockReference
  2
_DOTSMALL
 10
8936.352747048998
 20
5528.431171433688
 30
0.0
 41
100.0
 42
100.0
 43
100.0
 50
180.0
  0
MTEXT
  5
17940
330
1776B
100
AcDbEntity
  8
寸法
 62
     7
 48
50.0
100
AcDbMText
 10
9249.838028423233
 20
5628.431171433687
 30
0.0
 40
120.0
 41
0.0
 71
     5
 72
     1
  1
\A1;50
  7
STYLE1
 73
     1
 44
1.0
1001
ACAD
1000
MTEXTBEGIN
1070
    73
1070
     1
1070
    44
1040
1.0
1070
    74
1070
     0
1000
MTEXTEND
  0
POINT
  5
17941
330
1776B
100
AcDbEntity
  8
DEFPOINTS
 62
     0
 48
50.0
100
AcDbPoint
 10
8936.352747048998
 20
5315.889586175447
 30
0.0
  0
POINT
  5
17942
330
1776B
100
AcDbEntity
  8
DEFPOINTS
 62
     0
 48
50.0
100
AcDbPoint
 10
8886.352747048997
 20
5315.889586175448
 30
0.0
  0
POINT
  5
17943
330
1776B
100
AcDbEntity
  8
DEFPOINTS
 62
     0
 48
50.0
100
AcDbPoint
 10
8886.352747048997
 20
5528.431171433688
 30
0.0
  0
ENDBLK
  5
17778
330
1776B
100
AcDbEntity
  8
0
 48
50.0
100
AcDbBlockEnd
  0
BLOCK
  5
17785
330
17779
100
AcDbEntity
  8
0
 48
50.0
100
AcDbBlockBegin
  2
*D44
 70
     1
 10
0.0
 20
0.0
 30
0.0
  3
*D44
  1

  0
LINE
  5
1792E
330
17779
100
AcDbEntity
  8
寸法
 62
     0
 48
50.0
370
    -2
100
AcDbLine
 10
3966.352747048994
 20
5335.88958617545
 30
0.0
 11
3966.352747048994
 21
5588.431171433687
 31
0.0
  0
LINE
  5
1792F
330
17779
100
AcDbEntity
  8
寸法
 62
     0
 48
50.0
370
    -2
100
AcDbLine
 10
3916.352747048994
 20
5335.889586175448
 30
0.0
 11
3916.352747048994
 21
5588.431171433687
 31
0.0
  0
LINE
  5
17930
330
17779
100
AcDbEntity
  8
寸法
 62
     0
 48
50.0
370
    -2
100
AcDbLine
 10
3966.352747048994
 20
5528.431171433688
 30
0.0
 11
4066.352747048994
 21
5528.431171433688
 31
0.0
  0
LINE
  5
17931
330
17779
100
AcDbEntity
  8
寸法
 62
     0
 48
50.0
370
    -2
100
AcDbLine
 10
3916.352747048994
 20
5528.431171433688
 30
0.0
 11
3496.820221580259
 21
5528.431171433688
 31
0.0
  0
LINE
  5
17932
330
17779
100
AcDbEntity
  8
寸法
 62
     0
 48
50.0
370
    -2
100
AcDbLine
 10
3966.352747048994
 20
5528.431171433688
 30
0.0
 11
3916.352747048994
 21
5528.431171433688
 31
0.0
  0
INSERT
  5
17933
330
17779
100
AcDbEntity
  8
寸法
 62
     0
 48
50.0
370
    -2
100
AcDbBlockReference
  2
_DOTSMALL
 10
3966.352747048994
 20
5528.431171433688
 30
0.0
 41
100.0
 42
100.0
 43
100.0
 50
180.0
  0
INSERT
  5
17934
330
17779
100
AcDbEntity
  8
寸法
 62
     0
 48
50.0
370
    -2
100
AcDbBlockReference
  2
_DOTSMALL
 10
3916.352747048994
 20
5528.431171433688
 30
0.0
 41
100.0
 42
100.0
 43
100.0
  0
MTEXT
  5
17935
330
17779
100
AcDbEntity
  8
寸法
 62
     7
 48
50.0
100
AcDbMText
 10
3602.867465674747
 20
5628.431171433687
 30
0.0
 40
120.0
 41
0.0
 71
     5
 72
     1
  1
\A1;50
  7
STYLE1
 73
     1
 44
1.0
1001
ACAD
1000
MTEXTBEGIN
1070
    73
1070
     1
1070
    44
1040
1.0
1070
    74
1070
     0
1000
MTEXTEND
  0
POINT
  5
17936
330
17779
100
AcDbEntity
  8
DEFPOINTS
 62
     0
 48
50.0
100
AcDbPoint
 10
3966.352747048994
 20
5315.88958617545
 30
0.0
  0
POINT
  5
17937
330
17779
100
AcDbEntity
  8
DEFPOINTS
 62
     0
 48
50.0
100
AcDbPoint
 10
3916.352747048994
 20
5315.889586175448
 30
0.0
  0
POINT
  5
17938
330
17779
100
AcDbEntity
  8
DEFPOINTS
 62
     0
 48
50.0
100
AcDbPoint
 10
3916.352747048994
 20
5528.431171433688
 30
0.0
  0
ENDBLK
  5
17786
330
17779
100
AcDbEntity
  8
0
 48
50.0
100
AcDbBlockEnd
  0
BLOCK
  5
17791
330
17787
100
AcDbEntity
  8
0
 48
50.0
100
AcDbBlockBegin
  2
*D45
 70
     1
 10
0.0
 20
0.0
 30
0.0
  3
*D45
  1

  0
LINE
  5
17925
330
17787
100
AcDbEntity
  8
寸法
 62
     0
 48
50.0
370
    -2
100
AcDbLine
 10
3916.352747048994
 20
5335.889586175448
 30
0.0
 11
3916.352747048994
 21
5811.388149871534
 31
0.0
  0
LINE
  5
17926
330
17787
100
AcDbEntity
  8
寸法
 62
     0
 48
50.0
370
    -2
100
AcDbLine
 10
8936.352747048998
 20
5335.889586175446
 30
0.0
 11
8936.352747048998
 21
5811.388149871534
 31
0.0
  0
LINE
  5
17927
330
17787
100
AcDbEntity
  8
寸法
 62
     0
 48
50.0
370
    -2
100
AcDbLine
 10
3916.352747048994
 20
5751.388149871535
 30
0.0
 11
8936.352747048998
 21
5751.388149871535
 31
0.0
  0
INSERT
  5
17928
330
17787
100
AcDbEntity
  8
寸法
 62
     0
 48
50.0
370
    -2
100
AcDbBlockReference
  2
_DOTSMALL
 10
3916.352747048994
 20
5751.388149871535
 30
0.0
 41
100.0
 42
100.0
 43
100.0
 50
180.0
  0
INSERT
  5
17929
330
17787
100
AcDbEntity
  8
寸法
 62
     0
 48
50.0
370
    -2
100
AcDbBlockReference
  2
_DOTSMALL
 10
8936.352747048998
 20
5751.388149871535
 30
0.0
 41
100.0
 42
100.0
 43
100.0
  0
MTEXT
  5
1792A
330
17787
100
AcDbEntity
  8
寸法
 62
     7
 48
50.0
100
AcDbMText
 10
6426.352747048984
 20
5851.399960895157
 30
0.0
 40
120.0
 41
0.0
 71
     5
 72
     1
  1
\A1;5020
  7
STYLE1
 73
     1
 44
1.0
1001
ACAD
1000
MTEXTBEGIN
1070
    73
1070
     1
1070
    44
1040
1.0
1070
    74
1070
     0
1000
MTEXTEND
  0
POINT
  5
1792B
330
17787
100
AcDbEntity
  8
DEFPOINTS
 62
     0
 48
50.0
100
AcDbPoint
 10
3916.352747048994
 20
5315.889586175448
 30
0.0
  0
POINT
  5
1792C
330
17787
100
AcDbEntity
  8
DEFPOINTS
 62
     0
 48
50.0
100
AcDbPoint
 10
8936.352747048998
 20
5315.889586175447
 30
0.0
  0
POINT
  5
1792D
330
17787
100
AcDbEntity
  8
DEFPOINTS
 62
     0
 48
50.0
100
AcDbPoint
 10
8936.352747048998
 20
5751.388149871535
 30
0.0
  0
ENDBLK
  5
17792
330
17787
100
AcDbEntity
  8
0
 48
50.0
100
AcDbBlockEnd
  0
BLOCK
  5
1779D
330
17793
100
AcDbEntity
  8
0
 48
50.0
100
AcDbBlockBegin
  2
*D46
 70
     1
 10
0.0
 20
0.0
 30
0.0
  3
*D46
  1

  0
LINE
  5
1791C
330
17793
100
AcDbEntity
  8
寸法
 62
     0
 48
50.0
370
    -2
100
AcDbLine
 10
8886.352747048997
 20
5335.889586175448
 30
0.0
 11
8886.352747048997
 21
5588.431171433687
 31
0.0
  0
LINE
  5
1791D
330
17793
100
AcDbEntity
  8
寸法
 62
     0
 48
50.0
370
    -2
100
AcDbLine
 10
3966.352747048994
 20
5335.88958617545
 30
0.0
 11
3966.352747048994
 21
5588.431171433687
 31
0.0
  0
LINE
  5
1791E
330
17793
100
AcDbEntity
  8
寸法
 62
     0
 48
50.0
370
    -2
100
AcDbLine
 10
8886.352747048997
 20
5528.431171433688
 30
0.0
 11
3966.352747048994
 21
5528.431171433688
 31
0.0
  0
INSERT
  5
1791F
330
17793
100
AcDbEntity
  8
寸法
 62
     0
 48
50.0
370
    -2
100
AcDbBlockReference
  2
_DOTSMALL
 10
8886.352747048997
 20
5528.431171433688
 30
0.0
 41
100.0
 42
100.0
 43
100.0
  0
INSERT
  5
17920
330
17793
100
AcDbEntity
  8
寸法
 62
     0
 48
50.0
370
    -2
100
AcDbBlockReference
  2
_DOTSMALL
 10
3966.352747048994
 20
5528.431171433688
 30
0.0
 41
100.0
 42
100.0
 43
100.0
 50
180.0
  0
MTEXT
  5
17921
330
17793
100
AcDbEntity
  8
寸法
 62
     7
 48
50.0
100
AcDbMText
 10
6426.352747048984
 20
5628.47198399849
 30
0.0
 40
120.0
 41
0.0
 71
     5
 72
     1
  1
\A1;柱外寸法4920
  7
STYLE1
 73
     1
 44
1.0
1001
ACAD
1000
MTEXTBEGIN
1070
    73
1070
     1
1070
    44
1040
1.0
1070
    74
1070
     0
1000
MTEXTEND
  0
POINT
  5
17922
330
17793
100
AcDbEntity
  8
DEFPOINTS
 62
     0
 48
50.0
100
AcDbPoint
 10
8886.352747048997
 20
5315.889586175448
 30
0.0
  0
POINT
  5
17923
330
17793
100
AcDbEntity
  8
DEFPOINTS
 62
     0
 48
50.0
100
AcDbPoint
 10
3966.352747048994
 20
5315.88958617545
 30
0.0
  0
POINT
  5
17924
330
17793
100
AcDbEntity
  8
DEFPOINTS
 62
     0
 48
50.0
100
AcDbPoint
 10
3966.352747048994
 20
5528.431171433688
 30
0.0
  0
ENDBLK
  5
1779E
330
17793
100
AcDbEntity
  8
0
 48
50.0
100
AcDbBlockEnd
  0
BLOCK
  5
177A9
330
1779F
100
AcDbEntity
  8
0
 48
50.0
100
AcDbBlockBegin
  2
*D47
 70
     1
 10
0.0
 20
0.0
 30
0.0
  3
*D47
  1

  0
LINE
  5
17913
330
1779F
100
AcDbEntity
  8
寸法
 62
     0
 48
50.0
370
    -2
100
AcDbLine
 10
3946.352747048994
 20
5062.389586175445
 30
0.0
 11
3588.24821944139
 21
5062.389586175445
 31
0.0
  0
LINE
  5
17914
330
1779F
100
AcDbEntity
  8
寸法
 62
     0
 48
50.0
370
    -2
100
AcDbLine
 10
3946.352747048994
 20
3302.389586175448
 30
0.0
 11
3588.24821944139
 21
3302.389586175448
 31
0.0
  0
LINE
  5
17915
330
1779F
100
AcDbEntity
  8
寸法
 62
     0
 48
50.0
370
    -2
100
AcDbLine
 10
3648.24821944139
 20
5062.389586175445
 30
0.0
 11
3648.24821944139
 21
3302.389586175448
 31
0.0
  0
INSERT
  5
17916
330
1779F
100
AcDbEntity
  8
寸法
 62
     0
 48
50.0
370
    -2
100
AcDbBlockReference
  2
_DOTSMALL
 10
3648.24821944139
 20
5062.389586175445
 30
0.0
 41
100.0
 42
100.0
 43
100.0
 50
90.0
  0
INSERT
  5
17917
330
1779F
100
AcDbEntity
  8
寸法
 62
     0
 48
50.0
370
    -2
100
AcDbBlockReference
  2
_DOTSMALL
 10
3648.24821944139
 20
3302.389586175448
 30
0.0
 41
100.0
 42
100.0
 43
100.0
 50
270.0
  0
MTEXT
  5
17918
330
1779F
100
AcDbEntity
  8
寸法
 62
     7
 48
50.0
100
AcDbMText
 10
3548.24821944139
 20
4181.389586175447
 30
0.0
 40
120.0
 41
0.0
 71
     5
 72
     1
  1
\A1;有効開口部高サ1760
  7
STYLE1
 11
0.0000000000000001
 21
1.0
 31
0.0
 73
     1
 44
1.0
1001
ACAD
1000
MTEXTBEGIN
1070
    73
1070
     1
1070
    44
1040
1.0
1070
    74
1070
     0
1000
MTEXTEND
  0
POINT
  5
17919
330
1779F
100
AcDbEntity
  8
DEFPOINTS
 62
     0
 48
50.0
100
AcDbPoint
 10
3966.352747048994
 20
5062.389586175445
 30
0.0
  0
POINT
  5
1791A
330
1779F
100
AcDbEntity
  8
DEFPOINTS
 62
     0
 48
50.0
100
AcDbPoint
 10
3966.352747048994
 20
3302.389586175448
 30
0.0
  0
POINT
  5
1791B
330
1779F
100
AcDbEntity
  8
DEFPOINTS
 62
     0
 48
50.0
100
AcDbPoint
 10
3648.24821944139
 20
3302.389586175448
 30
0.0
  0
ENDBLK
  5
177AA
330
1779F
100
AcDbEntity
  8
0
 48
50.0
100
AcDbBlockEnd
  0
ENDSEC
  0
SECTION
  2
ENTITIES
  0
LINE
  5
10B56
330
747D
100
AcDbEntity
  8
補助
  6
PHANTOM
 62
   230
 48
50.0
100
AcDbLine
 10
140.0
 20
0.0
 30
0.0
 11
139.9999999999995
 21
11409.6
 31
0.0
  0
LINE
  5
10B57
330
747D
100
AcDbEntity
  8
補助
  6
PHANTOM
 62
   230
 48
50.0
100
AcDbLine
 10
139.9999999999995
 20
11409.6
 30
0.0
 11
16307.2
 21
11409.6
 31
0.0
  0
LINE
  5
10B59
330
747D
100
AcDbEntity
  8
仕様書枠
  6
Continuous
 48
50.0
100
AcDbLine
 10
13107.2
 20
1200.0
 30
0.0
 11
13107.2
 21
-0.0000000000000729
 31
0.0
  0
LINE
  5
10B5C
330
747D
100
AcDbEntity
  8
仕様書枠
 48
50.0
100
AcDbLine
 10
16307.2
 20
1200.0
 30
0.0
 11
16307.2
 21
-0.0000000000000909
 31
0.0
  0
LINE
  5
10B5D
330
747D
100
AcDbEntity
  8
仕様書枠
 48
50.0
100
AcDbLine
 10
140.0
 20
0.0
 30
0.0
 11
16307.2
 21
-0.0000000000000909
 31
0.0
  0
LINE
  5
10B5E
330
747D
100
AcDbEntity
  8
補助
  6
PHANTOM
 62
   230
 48
50.0
100
AcDbLine
 10
16307.2
 20
11409.6
 30
0.0
 11
16307.2
 21
1200.0
 31
0.0
  0
LINE
  5
10B6C
330
747D
100
AcDbEntity
  8
仕様書枠
 48
50.0
100
AcDbLine
 10
13107.2
 20
1200.0
 30
0.0
 11
16307.2
 21
1200.0
 31
0.0
  0
LINE
  5
10B6D
330
747D
100
AcDbEntity
  8
補助
  6
PHANTOM
 62
   230
 48
50.0
100
AcDbLine
 10
13107.2
 20
11409.6
 30
0.0
 11
13107.2
 21
4800.0
 31
0.0
  0
LINE
  5
10B6F
330
747D
100
AcDbEntity
  8
補助
  6
PHANTOM
 62
   230
 48
50.0
100
AcDbLine
 10
13107.2
 20
4800.0
 30
0.0
 11
16307.2
 21
4800.0
 31
0.0
  0
LINE
  5
10B72
330
747D
100
AcDbEntity
  8
文字
 62
     7
 48
50.0
100
AcDbLine
 10
13187.2
 20
400.0
 30
0.0
 11
16227.2
 21
400.0
 31
0.0
  0
TEXT
  5
10B73
330
747D
100
AcDbEntity
  8
文字
 62
     7
 48
50.0
100
AcDbText
 10
13162.9790565769
 20
895.0906074299405
 30
0.0
 40
200.0
  1
外 形 図
  7
STYLE2
100
AcDbText
  0
TEXT
  5
10B74
330
747D
100
AcDbEntity
  8
文字
 62
     7
 48
50.0
100
AcDbText
 10
13201.43669998441
 20
477.2740661031255
 30
0.0
 40
160.0
  1
機種名
  7
STYLE2
100
AcDbText
  0
TEXT
  5
10B75
330
747D
100
AcDbEntity
  8
文字
 62
     7
 48
50.0
100
AcDbText
 10
13209.4053442172
 20
228.5435242569016
 30
0.0
 40
100.0
  1
○有効開口寸法 ： 685×1760(mm)
  7
STYLE2
100
AcDbText
  0
TEXT
  5
10B76
330
747D
100
AcDbEntity
  8
文字
 62
     7
 48
50.0
100
AcDbText
 10
13209.4053442172
 20
76.09434707649343
 30
0.0
 40
100.0
  1
○床面積 ： 7.53㎡(2.28坪) 　
  7
STYLE2
100
AcDbText
  0
TEXT
  5
10B79
330
747D
100
AcDbEntity
  8
文字
 62
     7
 48
50.0
100
AcDbText
 10
14524.131837222
 20
1031.557706291228
 30
0.0
 40
100.0
  1
NO.05    <縮尺> S=1/40
  7
STYLE2
100
AcDbText
  0
LINE
  5
10B7B
330
747D
100
AcDbEntity
  8
仕様書枠
 48
50.0
100
AcDbLine
 10
13107.2
 20
800.0
 30
0.0
 11
14251.2
 21
800.0
 31
0.0
  0
LINE
  5
10B88
330
747D
100
AcDbEntity
  8
仕様書枠
  6
Continuous
 48
50.0
100
AcDbLine
 10
14251.2
 20
1200.0
 30
0.0
 11
14251.2
 21
800.0
 31
0.0
  0
TEXT
  5
13B2F
330
747D
100
AcDbEntity
  8
部品1
100
AcDbText
 10
6134.537023763803
 20
6497.206006371706
 30
0.0
 40
135.0
  1
平面図
  7
STYLE2
100
AcDbText
  0
LWPOLYLINE
  5
13B30
330
747D
100
AcDbEntity
  8
部品1
100
AcDbPolyline
 90
        4
 70
     1
 43
0.0
 10
6044.617413934765
 20
6690.099535590231
 10
6044.617413934765
 20
6450.207214044699
 10
6808.088080163203
 20
6450.207214044699
 10
6808.088080163203
 20
6690.099535590231
  0
LINE
  5
15801
330
747D
100
AcDbEntity
  8
破線
 48
10.0
100
AcDbLine
 10
8122.853362611676
 20
8805.178253614462
 30
0.0
 11
8830.852747048961
 21
8805.17822439001
 31
0.0
  0
LINE
  5
15802
330
747D
100
AcDbEntity
  8
破線
 48
10.0
100
AcDbLine
 10
8122.853362611676
 20
8855.178253614461
 30
0.0
 11
8830.852747048961
 21
8855.178224390011
 31
0.0
  0
LINE
  5
15803
330
747D
100
AcDbEntity
  8
細線
 48
50.0
100
AcDbLine
 10
8856.852747048936
 20
9078.178224390025
 30
0.0
 11
8095.852747048931
 21
9528.178224390032
 31
0.0
  0
LINE
  5
15804
330
747D
100
AcDbEntity
  8
細線
 48
50.0
100
AcDbLine
 10
8856.852747048936
 20
9528.178224390025
 30
0.0
 11
8095.852747048931
 21
9078.178224390033
 31
0.0
  0
LINE
  5
15805
330
747D
100
AcDbEntity
  8
部品1
100
AcDbLine
 10
8095.852747048931
 20
9078.178224390033
 30
0.0
 11
8856.852747048936
 21
9078.178224390025
 31
0.0
  0
LINE
  5
15806
330
747D
100
AcDbEntity
  8
部品1
100
AcDbLine
 10
8095.852747048931
 20
9528.178224390032
 30
0.0
 11
8856.852747048936
 21
9528.178224390025
 31
0.0
  0
LINE
  5
15807
330
747D
100
AcDbEntity
  8
部品1
100
AcDbLine
 10
8094.352747048924
 20
9529.678224390032
 30
0.0
 11
8858.352747049002
 21
9529.678224390083
 31
0.0
  0
DIMENSION
  5
15808
330
747D
100
AcDbEntity
  8
寸法
 48
50.0
100
AcDbDimension
  2
*D1
 10
8121.352747049
 20
9773.486444015087
 30
0.0
 11
8476.352747049
 21
9873.486444015087
 31
0.0
 70
    32
 71
     5
 42
710.0
  3
INABA_S40G
100
AcDbAlignedDimension
 13
8831.352747049001
 23
9557.678224390098
 33
0.0
 14
8121.352747049
 24
9557.678224390084
 34
0.0
100
AcDbRotatedDimension
  0
LINE
  5
1580A
330
747D
100
AcDbEntity
  8
破線
 48
10.0
100
AcDbLine
 10
8806.352747048979
 20
8182.678224390077
 30
0.0
 11
8145.352747048987
 21
8182.67822439004
 31
0.0
  0
LINE
  5
1580B
330
747D
100
AcDbEntity
  8
部品1
100
AcDbLine
 10
8829.851775624184
 20
8159.178330102923
 30
0.0
 11
8121.852747048979
 21
8159.178224414699
 31
0.0
  0
LINE
  5
1580D
330
747D
100
AcDbEntity
  8
部品1
100
AcDbLine
 10
8841.352747048993
 20
8053.678224390075
 30
0.0
 11
8111.352747048995
 21
8053.678224390017
 31
0.0
  0
LINE
  5
1580E
330
747D
100
AcDbEntity
  8
部品1
 48
5.0
100
AcDbLine
 10
8843.352747048975
 20
8057.178224390026
 30
0.0
 11
8090.352747048994
 21
8057.178224390026
 31
0.0
  0
DIMENSION
  5
1580F
330
747D
100
AcDbEntity
  8
寸法
100
AcDbDimension
  2
*D2
 10
8886.352747048976
 20
7040.576349529833
 30
0.0
 11
6426.352747048984
 21
7140.617162094637
 31
0.0
 70
    32
 71
     5
 42
4919.999999999982
  3
INABA_S40G
100
AcDbAlignedDimension
 13
3966.352747048994
 23
8027.678224389893
 33
0.0
 14
8886.352747048976
 24
8027.67822439004
 34
0.0
100
AcDbRotatedDimension
1001
ACAD
1000
DSTYLE
1002
{
1002
}
  0
LINE
  5
15810
330
747D
100
AcDbEntity
  8
部品1
100
AcDbLine
 10
8886.352747048976
 20
8027.678224390069
 30
0.0
 11
6426.352747048993
 21
8027.678224389974
 31
0.0
  0
ARC
  5
15811
330
747D
100
AcDbEntity
  8
想像線
 48
10.0
100
AcDbCircle
 10
8834.000696371836
 20
8029.37311776561
 30
0.0
 40
722.649936915561
100
AcDbArc
 50
180.1343808685485
 51
270.5829222700353
  0
DIMENSION
  5
15812
330
747D
100
AcDbEntity
  8
寸法
100
AcDbDimension
  2
*D3
 10
8802.714387026293
 20
8876.131114147053
 30
0.0
 11
8475.199809167198
 21
8876.131114147053
 31
0.0
 70
   160
 71
     5
 42
761.0000000000109
  3
INABA_S40G
100
AcDbAlignedDimension
 13
8095.852747048931
 23
9078.178224390033
 33
0.0
 14
8856.852747048943
 24
9078.178224390033
 34
0.0
100
AcDbRotatedDimension
1001
ACAD
1000
DSTYLE
1002
{
1002
}
  0
LINE
  5
15813
330
747D
100
AcDbEntity
  8
部品1
 48
50.0
100
AcDbLine
 10
8036.852753726632
 20
9528.178224390098
 30
0.0
 11
8036.852753726632
 21
9078.178224390098
 31
0.0
  0
LINE
  5
15814
330
747D
100
AcDbEntity
  8
部品1
 48
50.0
100
AcDbLine
 10
8095.852747048931
 20
9528.178224390032
 30
0.0
 11
8095.852747048931
 21
9078.178224390033
 31
0.0
  0
LINE
  5
15815
330
747D
100
AcDbEntity
  8
部品1
 48
50.0
100
AcDbLine
 10
7275.852753726628
 20
9528.178224390046
 30
0.0
 11
7275.852753726631
 21
9078.178224390047
 31
0.0
  0
LINE
  5
15816
330
747D
100
AcDbEntity
  8
部品1
 48
50.0
100
AcDbLine
 10
7216.852753726631
 20
9528.178224390098
 30
0.0
 11
7216.852753726631
 21
9078.178224390098
 31
0.0
  0
LINE
  5
15817
330
747D
100
AcDbEntity
  8
部品1
 48
50.0
100
AcDbLine
 10
3995.852753726627
 20
9528.178224390046
 30
0.0
 11
3995.852753726632
 21
9078.178224390047
 31
0.0
  0
LINE
  5
15818
330
747D
100
AcDbEntity
  8
細線
 48
50.0
100
AcDbLine
 10
7216.852753726627
 20
9078.178224390098
 30
0.0
 11
6455.852753726627
 21
9528.178224390046
 31
0.0
  0
LINE
  5
15819
330
747D
100
AcDbEntity
  8
細線
 48
50.0
100
AcDbLine
 10
7216.852753726631
 20
9528.178224390098
 30
0.0
 11
6455.852753726631
 21
9078.178224390047
 31
0.0
  0
LINE
  5
1581A
330
747D
100
AcDbEntity
  8
細線
 48
50.0
100
AcDbLine
 10
8036.852753726627
 20
9078.178224390098
 30
0.0
 11
7275.852753726628
 21
9528.178224390046
 31
0.0
  0
LINE
  5
1581B
330
747D
100
AcDbEntity
  8
細線
 48
50.0
100
AcDbLine
 10
8036.852753726632
 20
9528.178224390098
 30
0.0
 11
7275.852753726631
 21
9078.178224390047
 31
0.0
  0
LINE
  5
1581C
330
747D
100
AcDbEntity
  8
部品1
 48
50.0
100
AcDbLine
 10
8094.352747048979
 20
8082.678224390026
 30
0.0
 11
8094.352747048924
 21
9557.678224390032
 31
0.0
  0
LINE
  5
1581D
330
747D
100
AcDbEntity
  8
部品1
 48
50.0
100
AcDbLine
 10
8038.35274704898
 20
8082.678224390026
 30
0.0
 11
8038.352747048929
 21
9529.678224390032
 31
0.0
  0
LINE
  5
1581E
330
747D
100
AcDbEntity
  8
部品1
 48
50.0
100
AcDbLine
 10
8066.352747048979
 20
8082.678224390026
 30
0.0
 11
8066.352747048979
 21
9502.678224390033
 31
0.0
  0
LINE
  5
1581F
330
747D
100
AcDbEntity
  8
部品1
 48
50.0
100
AcDbLine
 10
7274.352747048979
 20
8082.678224390026
 30
0.0
 11
7274.352747048924
 21
9557.678224390032
 31
0.0
  0
LINE
  5
15820
330
747D
100
AcDbEntity
  8
部品1
 48
50.0
100
AcDbLine
 10
7218.352747048979
 20
8082.678224390026
 30
0.0
 11
7218.352747048928
 21
9529.678224390032
 31
0.0
  0
LINE
  5
15821
330
747D
100
AcDbEntity
  8
部品1
 48
50.0
100
AcDbLine
 10
7246.352747048979
 20
8082.678224390026
 30
0.0
 11
7246.352747048979
 21
9502.678224390033
 31
0.0
  0
LINE
  5
15822
330
747D
100
AcDbEntity
  8
部品1
100
AcDbLine
 10
3994.352747048976
 20
8082.678224389939
 30
0.0
 11
3994.352747049001
 21
9529.678224389988
 31
0.0
  0
LINE
  5
15823
330
747D
100
AcDbEntity
  8
部品1
100
AcDbLine
 10
3966.352747048965
 20
9557.678224389952
 30
0.0
 11
3966.352747048994
 21
8027.678224389944
 31
0.0
  0
LINE
  5
15824
330
747D
100
AcDbEntity
  8
想像線
 48
10.0
100
AcDbLine
 10
8021.352747048993
 20
8027.678224390026
 30
0.0
 11
8021.352747048993
 21
7306.760580734236
 31
0.0
  0
LINE
  5
15826
330
747D
100
AcDbEntity
  8
想像線
 48
10.0
100
AcDbLine
 10
7201.352747048993
 20
8027.678224390026
 30
0.0
 11
7201.352747048993
 21
7306.760580734236
 31
0.0
  0
ARC
  5
15827
330
747D
100
AcDbEntity
  8
想像線
 48
10.0
100
AcDbCircle
 10
7194.000696371834
 20
8029.373117765594
 30
0.0
 40
722.6499369155601
100
AcDbArc
 50
180.1343808685482
 51
270.5829222700353
  0
ARC
  5
15828
330
747D
100
AcDbEntity
  8
想像線
 48
10.0
100
AcDbCircle
 10
8014.000696371835
 20
8029.373117765594
 30
0.0
 40
722.649936915561
100
AcDbArc
 50
180.1343808685484
 51
270.5829222700353
  0
LINE
  5
1582A
330
747D
100
AcDbEntity
  8
破線
 48
10.0
100
AcDbLine
 10
6482.853362611677
 20
8855.178253614461
 30
0.0
 11
7190.85274704896
 21
8855.178224390011
 31
0.0
  0
LINE
  5
1582B
330
747D
100
AcDbEntity
  8
破線
 48
10.0
100
AcDbLine
 10
6482.853362611677
 20
8805.178253614462
 30
0.0
 11
7190.85274704896
 21
8805.17822439001
 31
0.0
  0
LINE
  5
1582C
330
747D
100
AcDbEntity
  8
部品1
100
AcDbLine
 10
6455.852753726631
 20
9078.178224390047
 30
0.0
 11
7216.852753726627
 21
9078.178224390098
 31
0.0
  0
LINE
  5
1582D
330
747D
100
AcDbEntity
  8
部品1
100
AcDbLine
 10
7190.853317497159
 20
8159.177643570068
 30
0.0
 11
6482.853718475388
 21
8159.177142081544
 31
0.0
  0
LINE
  5
1582E
330
747D
100
AcDbEntity
  8
破線
 48
10.0
100
AcDbLine
 10
7167.352747048986
 20
8182.678224390011
 30
0.0
 11
6506.352747048985
 21
8182.678224389995
 31
0.0
  0
LINE
  5
1582F
330
747D
100
AcDbEntity
  8
部品1
100
AcDbLine
 10
7201.352747048993
 20
8053.67822439004
 30
0.0
 11
6471.352747048993
 21
8053.67822439001
 31
0.0
  0
LINE
  5
15830
330
747D
100
AcDbEntity
  8
部品1
 48
5.0
100
AcDbLine
 10
6450.352747048994
 20
8057.178224389911
 30
0.0
 11
7222.352747048994
 21
8057.178224389968
 31
0.0
  0
LINE
  5
15831
330
747D
100
AcDbEntity
  8
部品1
100
AcDbLine
 10
7297.352747048994
 20
8027.678224389974
 30
0.0
 11
6426.352747048993
 21
8027.678224389944
 31
0.0
  0
LINE
  5
15833
330
747D
100
AcDbEntity
  8
破線
 48
10.0
100
AcDbLine
 10
4046.352791717472
 20
8805.178252644465
 30
0.0
 11
4046.352747048986
 21
8182.678224389995
 31
0.0
  0
LINE
  5
15834
330
747D
100
AcDbEntity
  8
部品1
 48
5.0
100
AcDbLine
 10
4022.853718473958
 20
8159.178224390084
 30
0.0
 11
4022.853225542647
 21
9078.178224389997
 31
0.0
  0
LINE
  5
15835
330
747D
100
AcDbEntity
  8
部品1
 48
2.83
100
AcDbLine
 10
3998.352747048994
 20
8082.678224389908
 30
0.0
 11
4021.352747048993
 21
8082.678224389908
 31
0.0
  0
LINE
  5
15836
330
747D
100
AcDbEntity
  8
部品1
 48
2.83
100
AcDbLine
 10
3966.352747048994
 20
8082.678224389908
 30
0.0
 11
3989.352747048993
 21
8082.678224389908
 31
0.0
  0
LINE
  5
15837
330
747D
100
AcDbEntity
  8
部品1
100
AcDbLine
 10
3994.352747048976
 20
8082.678224389908
 30
0.0
 11
3966.352747048994
 21
8082.678224389908
 31
0.0
  0
LINE
  5
15838
330
747D
100
AcDbEntity
  8
部品1
100
AcDbLine
 10
3994.352747048976
 20
8082.678224389939
 30
0.0
 11
3966.352747048994
 21
8082.678224389939
 31
0.0
  0
LINE
  5
15839
330
747D
100
AcDbEntity
  8
部品1
100
AcDbLine
 10
3994.352747048993
 20
8082.678224389953
 30
0.0
 11
3966.352747048994
 21
8082.678224389953
 31
0.0
  0
LINE
  5
1583A
330
747D
100
AcDbEntity
  8
部品1
 48
50.0
100
AcDbLine
 10
4022.853718475388
 20
8159.177142081544
 30
0.0
 11
3994.352747048976
 21
8130.157971149079
 31
0.0
  0
LINE
  5
1583B
330
747D
100
AcDbEntity
  8
部品1
 48
2.83
100
AcDbLine
 10
4009.352747048994
 20
8027.678224389909
 30
0.0
 11
3966.352747048994
 21
8027.678224389909
 31
0.0
  0
LINE
  5
1583C
330
747D
100
AcDbEntity
  8
部品1
100
AcDbLine
 10
4011.352747048993
 20
8053.67822439001
 30
0.0
 11
4011.352747048993
 21
8027.678224389974
 31
0.0
  0
LINE
  5
1583D
330
747D
100
AcDbEntity
  8
部品1
 48
2.83
100
AcDbLine
 10
4009.352747048994
 20
8057.178224389909
 30
0.0
 11
4009.352747048994
 21
8027.678224389909
 31
0.0
  0
LINE
  5
1583E
330
747D
100
AcDbEntity
  8
部品1
 48
2.83
100
AcDbLine
 10
3966.352747048994
 20
8027.678224389909
 30
0.0
 11
3966.352747048994
 21
8082.678224389908
 31
0.0
  0
LINE
  5
1583F
330
747D
100
AcDbEntity
  8
部品1
100
AcDbLine
 10
3966.352747048994
 20
8082.678224389908
 30
0.0
 11
3966.352747048994
 21
8027.678224389909
 31
0.0
  0
LINE
  5
15840
330
747D
100
AcDbEntity
  8
部品1
 48
2.83
100
AcDbLine
 10
4021.352747048993
 20
8082.678224389908
 30
0.0
 11
4021.352747048997
 21
8057.178224389909
 31
0.0
  0
LINE
  5
15841
330
747D
100
AcDbEntity
  8
部品1
100
AcDbLine
 10
3994.352747048976
 20
8502.678224389953
 30
0.0
 11
3966.352747048976
 21
8502.678224389953
 31
0.0
  0
LINE
  5
15842
330
747D
100
AcDbEntity
  8
部品1
100
AcDbLine
 10
3994.352747048976
 20
9082.678224389953
 30
0.0
 11
3966.352747048976
 21
9082.678224389953
 31
0.0
  0
LINE
  5
15843
330
747D
100
AcDbEntity
  8
破線
 48
10.0
100
AcDbLine
 10
4046.352811973702
 20
9078.178224389997
 30
0.0
 11
4046.352795209925
 21
8855.178252644462
 31
0.0
  0
LINE
  5
15844
330
747D
100
AcDbEntity
  8
破線
 48
10.0
100
AcDbLine
 10
7325.352747048985
 20
8182.67822439004
 30
0.0
 11
7325.352738496331
 21
8805.178252685747
 31
0.0
  0
LINE
  5
15845
330
747D
100
AcDbEntity
  8
破線
 48
10.0
100
AcDbLine
 10
7167.352747048986
 20
8182.678224390032
 30
0.0
 11
7167.352741301016
 21
8805.17822536003
 31
0.0
  0
LINE
  5
15846
330
747D
100
AcDbEntity
  8
部品1
 48
50.0
100
AcDbLine
 10
7190.852747048978
 20
8159.178224390032
 30
0.0
 11
7190.852747048953
 21
9078.178224390091
 31
0.0
  0
LINE
  5
15847
330
747D
100
AcDbEntity
  8
部品1
 48
50.0
100
AcDbLine
 10
7301.852740704693
 20
8159.178224414691
 30
0.0
 11
7301.852743677556
 21
9078.178224390033
 31
0.0
  0
LINE
  5
15848
330
747D
100
AcDbEntity
  8
破線
 48
10.0
100
AcDbLine
 10
7987.352747048986
 20
8182.678224390032
 30
0.0
 11
7987.35274130102
 21
8805.17822536003
 31
0.0
  0
LINE
  5
15849
330
747D
100
AcDbEntity
  8
破線
 48
10.0
100
AcDbLine
 10
8145.352747048987
 20
8182.67822439004
 30
0.0
 11
8145.352738496331
 21
8805.178252685747
 31
0.0
  0
LINE
  5
1584A
330
747D
100
AcDbEntity
  8
部品1
 48
50.0
100
AcDbLine
 10
8010.852747048978
 20
8159.178224390032
 30
0.0
 11
8010.852747048954
 21
9078.178224390091
 31
0.0
  0
LINE
  5
1584B
330
747D
100
AcDbEntity
  8
部品1
 48
50.0
100
AcDbLine
 10
8121.852740704694
 20
8159.178224414691
 30
0.0
 11
8121.852743677555
 21
9078.178224390033
 31
0.0
  0
LINE
  5
1584C
330
747D
100
AcDbEntity
  8
破線
 48
10.0
100
AcDbLine
 10
7987.352747048986
 20
8182.678224390032
 30
0.0
 11
7325.352747048985
 21
8182.678224390018
 31
0.0
  0
LINE
  5
1584D
330
747D
100
AcDbEntity
  8
部品1
 48
5.0
100
AcDbLine
 10
7270.352747048993
 20
8057.178224389968
 30
0.0
 11
8042.352747048992
 21
8057.178224390026
 31
0.0
  0
LINE
  5
1584E
330
747D
100
AcDbEntity
  8
部品1
100
AcDbLine
 10
8010.852747048978
 20
8159.178224390032
 30
0.0
 11
7301.852253795096
 21
8159.177722192561
 31
0.0
  0
LINE
  5
1584F
330
747D
100
AcDbEntity
  8
部品1
100
AcDbLine
 10
8021.352747048993
 20
8053.678224390075
 30
0.0
 11
7291.352747048994
 21
8053.678224390047
 31
0.0
  0
LINE
  5
15850
330
747D
100
AcDbEntity
  8
部品1
 48
5.0
100
AcDbLine
 10
7278.352747048995
 20
8082.678224390026
 30
0.0
 11
7301.352747048993
 21
8082.678224390026
 31
0.0
  0
LINE
  5
15851
330
747D
100
AcDbEntity
  8
部品1
 48
5.0
100
AcDbLine
 10
7218.352747048979
 20
8082.678224390026
 30
0.0
 11
7274.352747048979
 21
8082.678224390026
 31
0.0
  0
LINE
  5
15852
330
747D
100
AcDbEntity
  8
部品1
 48
5.0
100
AcDbLine
 10
7214.352747048994
 20
8082.678224390026
 30
0.0
 11
7191.352747048994
 21
8082.678224390026
 31
0.0
  0
LINE
  5
15853
330
747D
100
AcDbEntity
  8
部品1
 48
50.0
100
AcDbLine
 10
7301.852747048979
 20
8159.178224414699
 30
0.0
 11
7274.352747048979
 21
8131.178224390025
 31
0.0
  0
LINE
  5
15854
330
747D
100
AcDbEntity
  8
部品1
 48
50.0
100
AcDbLine
 10
7218.352747048979
 20
8131.178224390025
 30
0.0
 11
7190.852747048978
 21
8159.178224390032
 31
0.0
  0
LINE
  5
15855
330
747D
100
AcDbEntity
  8
部品1
 48
5.0
100
AcDbLine
 10
7203.352747048994
 20
8027.678224390026
 30
0.0
 11
7289.352747048994
 21
8027.678224390026
 31
0.0
  0
LINE
  5
15856
330
747D
100
AcDbEntity
  8
部品1
 48
0.2
100
AcDbLine
 10
7188.41519487767
 20
8020.675854345247
 30
0.0
 11
7193.415194877672
 21
8020.675854345247
 31
0.0
  0
ARC
  5
15857
330
747D
100
AcDbEntity
  8
細線
 48
0.2
100
AcDbCircle
 10
7193.415194877672
 20
8028.675854345248
 30
0.0
 40
4.049999999999999
100
AcDbArc
 50
194.2603506853988
 51
345.7396493146012
  0
ARC
  5
15858
330
747D
100
AcDbEntity
  8
部品1
 48
0.2
100
AcDbCircle
 10
7188.41519487767
 20
8028.675854345248
 30
0.0
 40
8.0
100
AcDbArc
 50
187.1636477221926
 51
269.9999999999992
  0
ARC
  5
15859
330
747D
100
AcDbEntity
  8
部品1
 48
0.2
100
AcDbCircle
 10
7193.415194877672
 20
8028.675854345248
 30
0.0
 40
8.0
100
AcDbArc
 50
270.0
 51
352.8363522778074
  0
LINE
  5
1585A
330
747D
100
AcDbEntity
  8
部品1
 48
5.0
100
AcDbLine
 10
7203.352747048994
 20
8057.178224390026
 30
0.0
 11
7203.352747048994
 21
8027.678224390026
 31
0.0
  0
LINE
  5
1585B
330
747D
100
AcDbEntity
  8
部品1
100
AcDbLine
 10
7203.352747048994
 20
8057.178224389968
 30
0.0
 11
7203.35274704899
 21
8027.678224390019
 31
0.0
  0
LINE
  5
1585C
330
747D
100
AcDbEntity
  8
部品1
100
AcDbLine
 10
7201.352747048993
 20
8053.678224390075
 30
0.0
 11
7201.352747048993
 21
8027.678224390019
 31
0.0
  0
LINE
  5
1585D
330
747D
100
AcDbEntity
  8
部品1
 48
5.0
100
AcDbLine
 10
7289.352747048994
 20
8057.178224390026
 30
0.0
 11
7289.352747048994
 21
8027.678224390026
 31
0.0
  0
LINE
  5
1585E
330
747D
100
AcDbEntity
  8
部品1
100
AcDbLine
 10
7289.352747048994
 20
8057.178224389975
 30
0.0
 11
7289.352747048994
 21
8027.678224390026
 31
0.0
  0
LINE
  5
1585F
330
747D
100
AcDbEntity
  8
部品1
100
AcDbLine
 10
7291.352747048994
 20
8053.678224390047
 30
0.0
 11
7291.352747048994
 21
8027.678224390012
 31
0.0
  0
LINE
  5
15860
330
747D
100
AcDbEntity
  8
部品1
 48
5.0
100
AcDbLine
 10
7191.352747048994
 20
8082.678224390026
 30
0.0
 11
7191.352747048997
 21
8057.178224390026
 31
0.0
  0
LINE
  5
15861
330
747D
100
AcDbEntity
  8
部品1
 48
5.0
100
AcDbLine
 10
7222.352747048994
 20
8082.678224390026
 30
0.0
 11
7222.352747048994
 21
8057.178224390026
 31
0.0
  0
LINE
  5
15862
330
747D
100
AcDbEntity
  8
部品1
 48
5.0
100
AcDbLine
 10
7270.352747048997
 20
8082.678224390026
 30
0.0
 11
7270.352747048993
 21
8057.178224390026
 31
0.0
  0
LINE
  5
15863
330
747D
100
AcDbEntity
  8
部品1
 48
5.0
100
AcDbLine
 10
7301.352747048993
 20
8082.678224390026
 30
0.0
 11
7301.352747048998
 21
8057.178224390026
 31
0.0
  0
LINE
  5
15864
330
747D
100
AcDbEntity
  8
部品1
 48
5.0
100
AcDbLine
 10
7246.352747048979
 20
8502.678224390026
 30
0.0
 11
7218.352747048928
 21
8502.678224390033
 31
0.0
  0
LINE
  5
15865
330
747D
100
AcDbEntity
  8
部品1
 48
5.0
100
AcDbLine
 10
8034.352747048993
 20
8082.678224390026
 30
0.0
 11
8011.352747048993
 21
8082.678224390026
 31
0.0
  0
LINE
  5
15866
330
747D
100
AcDbEntity
  8
部品1
 48
50.0
100
AcDbLine
 10
8038.35274704898
 20
8131.178224390025
 30
0.0
 11
8010.852747048978
 21
8159.178224390032
 31
0.0
  0
ARC
  5
15867
330
747D
100
AcDbEntity
  8
部品1
 48
0.2
100
AcDbCircle
 10
8013.415194877671
 20
8028.675854345248
 30
0.0
 40
8.0
100
AcDbArc
 50
270.0
 51
352.8363522778074
  0
LINE
  5
15868
330
747D
100
AcDbEntity
  8
部品1
 48
0.2
100
AcDbLine
 10
8008.41519487767
 20
8020.675854345247
 30
0.0
 11
8013.415194877671
 21
8020.675854345247
 31
0.0
  0
ARC
  5
15869
330
747D
100
AcDbEntity
  8
細線
 48
0.2
100
AcDbCircle
 10
8013.415194877671
 20
8028.675854345248
 30
0.0
 40
4.049999999999999
100
AcDbArc
 50
194.2603506853988
 51
345.7396493146012
  0
ARC
  5
1586A
330
747D
100
AcDbEntity
  8
部品1
 48
0.2
100
AcDbCircle
 10
8008.41519487767
 20
8028.675854345248
 30
0.0
 40
8.0
100
AcDbArc
 50
187.1636477221926
 51
269.9999999999992
  0
LINE
  5
1586B
330
747D
100
AcDbEntity
  8
部品1
 48
5.0
100
AcDbLine
 10
8011.352747048993
 20
8082.678224390026
 30
0.0
 11
8011.352747048997
 21
8057.178224390026
 31
0.0
  0
LINE
  5
1586C
330
747D
100
AcDbEntity
  8
部品1
 48
5.0
100
AcDbLine
 10
8098.352747048993
 20
8082.678224390026
 30
0.0
 11
8121.352747048993
 21
8082.678224390026
 31
0.0
  0
LINE
  5
1586D
330
747D
100
AcDbEntity
  8
部品1
 48
5.0
100
AcDbLine
 10
8038.35274704898
 20
8082.678224390026
 30
0.0
 11
8094.352747048979
 21
8082.678224390026
 31
0.0
  0
LINE
  5
1586E
330
747D
100
AcDbEntity
  8
部品1
 48
50.0
100
AcDbLine
 10
8121.852747048979
 20
8159.178224414699
 30
0.0
 11
8094.352747048979
 21
8131.178224390025
 31
0.0
  0
LINE
  5
1586F
330
747D
100
AcDbEntity
  8
部品1
 48
5.0
100
AcDbLine
 10
8023.352747048994
 20
8027.678224390026
 30
0.0
 11
8109.352747048992
 21
8027.678224390026
 31
0.0
  0
LINE
  5
15870
330
747D
100
AcDbEntity
  8
部品1
 48
5.0
100
AcDbLine
 10
8023.352747048994
 20
8057.178224390026
 30
0.0
 11
8023.352747048994
 21
8027.678224390026
 31
0.0
  0
LINE
  5
15871
330
747D
100
AcDbEntity
  8
部品1
100
AcDbLine
 10
8023.352747048994
 20
8057.178224389968
 30
0.0
 11
8023.35274704899
 21
8027.678224390019
 31
0.0
  0
LINE
  5
15872
330
747D
100
AcDbEntity
  8
部品1
100
AcDbLine
 10
8021.352747048993
 20
8053.678224390075
 30
0.0
 11
8021.352747048993
 21
8027.678224390019
 31
0.0
  0
LINE
  5
15873
330
747D
100
AcDbEntity
  8
部品1
 48
5.0
100
AcDbLine
 10
8109.352747048992
 20
8057.178224390026
 30
0.0
 11
8109.352747048992
 21
8027.678224390026
 31
0.0
  0
LINE
  5
15874
330
747D
100
AcDbEntity
  8
部品1
100
AcDbLine
 10
8111.352747048995
 20
8053.678224390017
 30
0.0
 11
8111.352747048995
 21
8027.678224390026
 31
0.0
  0
LINE
  5
15875
330
747D
100
AcDbEntity
  8
部品1
100
AcDbLine
 10
8109.352747048992
 20
8057.178224389975
 30
0.0
 11
8109.352747048992
 21
8027.678224390026
 31
0.0
  0
LINE
  5
15876
330
747D
100
AcDbEntity
  8
部品1
 48
5.0
100
AcDbLine
 10
8042.352747048992
 20
8082.678224390026
 30
0.0
 11
8042.352747048992
 21
8057.178224390026
 31
0.0
  0
LINE
  5
15877
330
747D
100
AcDbEntity
  8
部品1
 48
5.0
100
AcDbLine
 10
8090.352747048997
 20
8082.678224390026
 30
0.0
 11
8090.352747048994
 21
8057.178224390026
 31
0.0
  0
LINE
  5
15878
330
747D
100
AcDbEntity
  8
部品1
 48
5.0
100
AcDbLine
 10
8121.352747048993
 20
8082.678224390026
 30
0.0
 11
8121.352747048998
 21
8057.178224390026
 31
0.0
  0
LINE
  5
15879
330
747D
100
AcDbEntity
  8
部品1
 48
5.0
100
AcDbLine
 10
8066.352747048979
 20
8502.678224390026
 30
0.0
 11
8038.352747048929
 21
8502.678224390033
 31
0.0
  0
LINE
  5
1587A
330
747D
100
AcDbEntity
  8
破線
 48
10.0
100
AcDbLine
 10
7302.853362611677
 20
8855.178253614461
 30
0.0
 11
8010.852747048961
 21
8855.178224390011
 31
0.0
  0
LINE
  5
1587B
330
747D
100
AcDbEntity
  8
破線
 48
10.0
100
AcDbLine
 10
7302.853362611677
 20
8805.178253614462
 30
0.0
 11
8010.852747048961
 21
8805.17822439001
 31
0.0
  0
LINE
  5
1587C
330
747D
100
AcDbEntity
  8
部品1
100
AcDbLine
 10
7275.852753726631
 20
9078.178224390047
 30
0.0
 11
8036.852753726627
 21
9078.178224390098
 31
0.0
  0
LINE
  5
1587E
330
747D
100
AcDbEntity
  8
破線
 48
10.0
100
AcDbLine
 10
7325.352737827627
 20
8855.178252685744
 30
0.0
 11
7325.352734617874
 21
9078.178224390033
 31
0.0
  0
LINE
  5
1587F
330
747D
100
AcDbEntity
  8
破線
 48
10.0
100
AcDbLine
 10
7167.352740851609
 20
8855.178225360033
 30
0.0
 11
7167.352738694432
 21
9078.178224390091
 31
0.0
  0
LINE
  5
15880
330
747D
100
AcDbEntity
  8
部品1
 48
5.0
100
AcDbLine
 10
7246.352747048979
 20
9082.678224390026
 30
0.0
 11
7218.352747048928
 21
9082.678224390033
 31
0.0
  0
LINE
  5
15881
330
747D
100
AcDbEntity
  8
部品1
 48
50.0
100
AcDbLine
 10
7246.352747048972
 20
9082.678224390033
 30
0.0
 11
7274.352747048954
 21
9082.678224390033
 31
0.0
  0
LINE
  5
15882
330
747D
100
AcDbEntity
  8
部品1
 48
50.0
100
AcDbLine
 10
7246.352747048972
 20
9120.678224390031
 30
0.0
 11
7274.352747048954
 21
9120.678224390031
 31
0.0
  0
LINE
  5
15883
330
747D
100
AcDbEntity
  8
破線
 48
10.0
100
AcDbLine
 10
7987.352740851609
 20
8855.178225360033
 30
0.0
 11
7987.352738694433
 21
9078.178224390091
 31
0.0
  0
LINE
  5
15884
330
747D
100
AcDbEntity
  8
破線
 48
10.0
100
AcDbLine
 10
8145.35273782763
 20
8855.178252685744
 30
0.0
 11
8145.352734617874
 21
9078.178224390033
 31
0.0
  0
LINE
  5
15885
330
747D
100
AcDbEntity
  8
部品1
 48
5.0
100
AcDbLine
 10
8066.352747048979
 20
9082.678224390026
 30
0.0
 11
8038.352747048929
 21
9082.678224390033
 31
0.0
  0
LINE
  5
15886
330
747D
100
AcDbEntity
  8
部品1
 48
50.0
100
AcDbLine
 10
8066.352747048972
 20
9082.678224390033
 30
0.0
 11
8094.352747048954
 21
9082.678224390033
 31
0.0
  0
LINE
  5
15887
330
747D
100
AcDbEntity
  8
部品1
 48
50.0
100
AcDbLine
 10
8066.352747048972
 20
9120.678224390031
 30
0.0
 11
8094.352747048954
 21
9120.678224390031
 31
0.0
  0
LINE
  5
15888
330
747D
100
AcDbEntity
  8
部品1
100
AcDbLine
 10
6454.352747049
 20
9529.678224389988
 30
0.0
 11
7243.733450067622
 21
9529.678224390011
 31
0.0
  0
LINE
  5
15889
330
747D
100
AcDbEntity
  8
部品1
100
AcDbLine
 10
6455.852753726627
 20
9528.178224390046
 30
0.0
 11
7216.852753726631
 21
9528.178224390098
 31
0.0
  0
DIMENSION
  5
1588A
330
747D
100
AcDbEntity
  8
寸法
100
AcDbDimension
  2
*D4
 10
7191.352747049001
 20
9773.486444015087
 30
0.0
 11
6836.602747049001
 21
9773.486444015087
 31
0.0
 70
   160
 71
     5
 42
710.0
  3
INABA_S40G
100
AcDbAlignedDimension
 13
6481.352747049001
 23
9557.678224390018
 33
0.0
 14
7191.352747049001
 24
9557.678224390105
 34
0.0
100
AcDbRotatedDimension
1001
ACAD
1000
DSTYLE
1002
{
1002
}
  0
DIMENSION
  5
1588B
330
747D
100
AcDbEntity
  8
寸法
100
AcDbDimension
  2
*D5
 10
4021.352747049
 20
9773.48644401497
 30
0.0
 11
3657.867465674725
 21
9773.48644401497
 31
0.0
 70
   160
 71
     5
 42
55.00000000003637
  3
INABA_S40G
100
AcDbAlignedDimension
 13
3966.352747048965
 23
9557.678224389988
 33
0.0
 14
4021.352747049
 24
9557.678224389988
 34
0.0
100
AcDbRotatedDimension
1001
ACAD
1000
DSTYLE
1002
{
1002
}
  0
LINE
  5
1588C
330
747D
100
AcDbEntity
  8
部品1
100
AcDbLine
 10
4021.352747049
 20
9557.678224389988
 30
0.0
 11
4021.352747049
 21
9529.678224389988
 31
0.0
  0
LINE
  5
1588D
330
747D
100
AcDbEntity
  8
部品1
100
AcDbLine
 10
4021.352747048964
 20
9557.678224389952
 30
0.0
 11
4021.352747048967
 21
9529.678224389952
 31
0.0
  0
LINE
  5
1588E
330
747D
100
AcDbEntity
  8
部品1
100
AcDbLine
 10
3994.352747048969
 20
9502.67822438996
 30
0.0
 11
3966.352747048969
 21
9502.67822438996
 31
0.0
  0
LINE
  5
1588F
330
747D
100
AcDbEntity
  8
部品1
 48
50.0
100
AcDbLine
 10
3995.852753726623
 20
9528.178224389996
 30
0.0
 11
3994.352747049001
 21
9529.678224389988
 31
0.0
  0
LINE
  5
15890
330
747D
100
AcDbEntity
  8
部品1
100
AcDbLine
 10
7275.852753726628
 20
9528.178224390046
 30
0.0
 11
8036.852753726632
 21
9528.178224390098
 31
0.0
  0
LINE
  5
15891
330
747D
100
AcDbEntity
  8
部品1
100
AcDbLine
 10
7274.35274704895
 20
9529.678224390011
 30
0.0
 11
8063.7334500676
 21
9529.678224390032
 31
0.0
  0
DIMENSION
  5
15892
330
747D
100
AcDbEntity
  8
寸法
100
AcDbDimension
  2
*D6
 10
8011.352747049
 20
9773.486444015087
 30
0.0
 11
7656.602747049001
 21
9773.486444015087
 31
0.0
 70
   160
 71
     5
 42
710.0
  3
INABA_S40G
100
AcDbAlignedDimension
 13
7301.352747049
 23
9557.678224390018
 33
0.0
 14
8011.352747049
 24
9557.678224390105
 34
0.0
100
AcDbRotatedDimension
1001
ACAD
1000
DSTYLE
1002
{
1002
}
  0
DIMENSION
  5
15893
330
747D
100
AcDbEntity
  8
寸法
 48
50.0
100
AcDbDimension
  2
*D7
 10
7301.352747049
 20
9773.486444015087
 30
0.0
 11
7246.352747049001
 21
9873.486444015087
 31
0.0
 70
    32
 71
     5
 42
110.0
  3
INABA_S40G
100
AcDbAlignedDimension
 13
7191.352747049001
 23
9557.678224390105
 33
0.0
 14
7301.352747049
 24
9557.678224390084
 34
0.0
100
AcDbRotatedDimension
  0
LINE
  5
15894
330
747D
100
AcDbEntity
  8
部品1
 48
5.0
100
AcDbLine
 10
7301.352747049
 20
9557.678224390032
 30
0.0
 11
7301.352747048998
 21
9529.678224390039
 31
0.0
  0
LINE
  5
15895
330
747D
100
AcDbEntity
  8
部品1
 48
50.0
100
AcDbLine
 10
7275.852747048931
 20
9528.123702869775
 30
0.0
 11
7274.352747048928
 21
9529.678224390032
 31
0.0
  0
LINE
  5
15896
330
747D
100
AcDbEntity
  8
部品1
 48
50.0
100
AcDbLine
 10
7216.852753726631
 20
9528.123711730275
 30
0.0
 11
7218.352747048928
 21
9529.678224390032
 31
0.0
  0
LINE
  5
15897
330
747D
100
AcDbEntity
  8
部品1
 48
5.0
100
AcDbLine
 10
7191.352747048997
 20
9529.678224390032
 30
0.0
 11
7191.352747049001
 21
9557.678224390032
 31
0.0
  0
LINE
  5
15898
330
747D
100
AcDbEntity
  8
部品1
 48
5.0
100
AcDbLine
 10
7221.062021496175
 20
9557.678224390032
 30
0.0
 11
7243.7334500676
 21
9529.678224390032
 31
0.0
  0
LINE
  5
15899
330
747D
100
AcDbEntity
  8
部品1
 48
5.0
100
AcDbLine
 10
7274.352747048928
 20
9502.678224390033
 30
0.0
 11
7218.352747048928
 21
9502.678224390033
 31
0.0
  0
DIMENSION
  5
1589A
330
747D
100
AcDbEntity
  8
寸法
 48
50.0
100
AcDbDimension
  2
*D8
 10
8121.352747049
 20
9773.486444015087
 30
0.0
 11
8066.352747049
 21
9873.486444015087
 31
0.0
 70
    32
 71
     5
 42
110.0
  3
INABA_S40G
100
AcDbAlignedDimension
 13
8011.352747049
 23
9557.678224390105
 33
0.0
 14
8121.352747049
 24
9557.678224390084
 34
0.0
100
AcDbRotatedDimension
  0
LINE
  5
1589B
330
747D
100
AcDbEntity
  8
部品1
 48
5.0
100
AcDbLine
 10
8011.352747048997
 20
9529.678224390032
 30
0.0
 11
8011.352747049
 21
9557.678224390032
 31
0.0
  0
LINE
  5
1589C
330
747D
100
AcDbEntity
  8
部品1
 48
5.0
100
AcDbLine
 10
8121.352747049
 20
9557.678224390032
 30
0.0
 11
8121.352747048998
 21
9529.678224390039
 31
0.0
  0
LINE
  5
1589D
330
747D
100
AcDbEntity
  8
部品1
 48
50.0
100
AcDbLine
 10
8095.852747048931
 20
9528.123702869775
 30
0.0
 11
8094.352747048928
 21
9529.678224390032
 31
0.0
  0
LINE
  5
1589E
330
747D
100
AcDbEntity
  8
部品1
 48
50.0
100
AcDbLine
 10
8036.852753726632
 20
9528.123711730275
 30
0.0
 11
8038.352747048929
 21
9529.678224390032
 31
0.0
  0
LINE
  5
1589F
330
747D
100
AcDbEntity
  8
部品1
 48
5.0
100
AcDbLine
 10
8041.062021496175
 20
9557.678224390032
 30
0.0
 11
8063.7334500676
 21
9529.678224390032
 31
0.0
  0
LINE
  5
158A0
330
747D
100
AcDbEntity
  8
部品1
 48
5.0
100
AcDbLine
 10
8094.352747048928
 20
9502.678224390033
 30
0.0
 11
8038.352747048929
 21
9502.678224390033
 31
0.0
  0
DIMENSION
  5
158A1
330
747D
100
AcDbEntity
  8
寸法
 48
50.0
100
AcDbDimension
  2
*D9
 10
9533.77909278341
 20
9082.678224390084
 30
0.0
 11
9433.767281759786
 21
9292.678224390085
 31
0.0
 70
    32
 71
     5
 42
420.0
  3
INABA_S40G
100
AcDbAlignedDimension
 13
8886.352747049
 23
9502.678224390084
 33
0.0
 14
8886.352747049
 24
9082.678224390084
 34
0.0
 50
90.0
100
AcDbRotatedDimension
  0
LINE
  5
158A2
330
747D
100
AcDbEntity
  8
部品1
100
AcDbLine
 10
8856.852747048936
 20
9528.178224390025
 30
0.0
 11
8856.852747048936
 21
9078.178224390025
 31
0.0
  0
DIMENSION
  5
158A3
330
747D
100
AcDbEntity
  8
寸法
100
AcDbDimension
  2
*D10
 10
9533.779092783412
 20
9502.678224390084
 30
0.0
 11
9533.77909278341
 21
9866.163505764324
 31
0.0
 70
   160
 71
     5
 42
55.0
  3
INABA_S40G
100
AcDbAlignedDimension
 13
8886.352747049
 23
9557.678224390084
 33
0.0
 14
8886.352747049
 24
9502.678224390084
 34
0.0
 50
90.0
100
AcDbRotatedDimension
1001
ACAD
1000
DSTYLE
1002
{
1002
}
  0
LINE
  5
158A4
330
747D
100
AcDbEntity
  8
部品1
100
AcDbLine
 10
8858.352747049002
 20
9529.678224390083
 30
0.0
 11
8858.352747048979
 21
8082.67822439007
 31
0.0
  0
LINE
  5
158A5
330
747D
100
AcDbEntity
  8
部品1
100
AcDbLine
 10
8886.352747049
 20
9557.678224390084
 30
0.0
 11
8886.352747048976
 21
8027.678224390069
 31
0.0
  0
DIMENSION
  5
158A6
330
747D
100
AcDbEntity
  8
寸法
100
AcDbDimension
  2
*D11
 10
9212.210472910957
 20
8982.960408721138
 30
0.0
 11
9112.210472910954
 21
9207.96040872114
 31
0.0
 70
    32
 71
     5
 42
450.0
  3
INABA_S40G
100
AcDbAlignedDimension
 13
8856.852747048936
 23
9528.178224390025
 33
0.0
 14
8856.852747048936
 24
9078.178224390025
 34
0.0
 50
90.0
100
AcDbRotatedDimension
1001
ACAD
1000
DSTYLE
1002
{
1002
}
  0
DIMENSION
  5
158A7
330
747D
100
AcDbEntity
  8
寸法
100
AcDbDimension
  2
*D12
 10
9842.890623599089
 20
8027.678224390069
 30
0.0
 11
9842.890623599089
 21
8792.678224390076
 31
0.0
 70
   160
 71
     5
 42
1530.000000000014
  3
INABA_S40G
100
AcDbAlignedDimension
 13
8886.352747049
 23
9557.678224390084
 33
0.0
 14
8886.352747048976
 24
8027.678224390069
 34
0.0
 50
90.0
100
AcDbRotatedDimension
1001
ACAD
1000
DSTYLE
1002
{
1002
}
  0
DIMENSION
  5
158A8
330
747D
100
AcDbEntity
  8
寸法
100
AcDbDimension
  2
*D13
 10
9533.779092783387
 20
8027.678224390069
 30
0.0
 11
9533.779092783385
 21
7649.816757485208
 31
0.0
 70
   160
 71
     5
 42
55.0
  3
INABA_S40G
100
AcDbAlignedDimension
 13
8886.352747048976
 23
8082.67822439007
 33
0.0
 14
8886.352747048976
 24
8027.678224390069
 34
0.0
 50
90.0
100
AcDbRotatedDimension
1001
ACAD
1000
DSTYLE
1002
{
1002
}
  0
LINE
  5
158A9
330
747D
100
AcDbEntity
  8
想像線
 48
10.0
100
AcDbLine
 10
8841.352747048993
 20
8027.678224390033
 30
0.0
 11
8841.352747048993
 21
7306.760580734243
 31
0.0
  0
DIMENSION
  5
158AA
330
747D
100
AcDbEntity
  8
寸法
 48
50.0
100
AcDbDimension
  2
*D14
 10
9533.77909278341
 20
8502.678224390084
 30
0.0
 11
9433.779092783408
 21
8792.678224390085
 31
0.0
 70
    32
 71
     5
 42
580.0
  3
INABA_S40G
100
AcDbAlignedDimension
 13
8886.352747049
 23
9082.678224390084
 33
0.0
 14
8886.352747049
 24
8502.678224390084
 34
0.0
 50
90.0
100
AcDbRotatedDimension
  0
LINE
  5
158AB
330
747D
100
AcDbEntity
  8
破線
 48
10.0
100
AcDbLine
 10
8806.352791717444
 20
8805.178225401315
 30
0.0
 11
8806.352747048983
 21
8182.678224390077
 31
0.0
  0
LINE
  5
158AC
330
747D
100
AcDbEntity
  8
部品1
 48
5.0
100
AcDbLine
 10
8829.851775624044
 20
8159.178224390084
 30
0.0
 11
8829.852268555354
 21
9078.178224390025
 31
0.0
  0
DIMENSION
  5
158AD
330
747D
100
AcDbEntity
  8
寸法
 48
50.0
100
AcDbDimension
  2
*D15
 10
9533.779092783385
 20
8082.678224390084
 30
0.0
 11
9433.767281759761
 21
8292.678224390085
 31
0.0
 70
    32
 71
     5
 42
420.0
  3
INABA_S40G
100
AcDbAlignedDimension
 13
8886.352747049
 23
8502.678224390084
 33
0.0
 14
8886.352747049008
 24
8082.678224390084
 34
0.0
 50
90.0
100
AcDbRotatedDimension
  0
LINE
  5
158AE
330
747D
100
AcDbEntity
  8
部品1
 48
2.83
100
AcDbLine
 10
8886.352747048976
 20
8082.67822439004
 30
0.0
 11
8863.352747048976
 21
8082.67822439004
 31
0.0
  0
LINE
  5
158AF
330
747D
100
AcDbEntity
  8
部品1
100
AcDbLine
 10
8858.352747048979
 20
8082.67822439007
 30
0.0
 11
8886.352747048976
 21
8082.67822439007
 31
0.0
  0
LINE
  5
158B0
330
747D
100
AcDbEntity
  8
部品1
100
AcDbLine
 10
8858.352747049009
 20
8082.678224390084
 30
0.0
 11
8886.352747049008
 21
8082.678224390084
 31
0.0
  0
LINE
  5
158B1
330
747D
100
AcDbEntity
  8
部品1
 48
2.83
100
AcDbLine
 10
8843.352747048975
 20
8057.178224390041
 30
0.0
 11
8843.352747048975
 21
8027.67822439004
 31
0.0
  0
ARC
  5
158B2
330
747D
100
AcDbEntity
  8
細線
 48
0.2
100
AcDbCircle
 10
8833.415194877671
 20
8028.675854345262
 30
0.0
 40
4.049999999999999
100
AcDbArc
 50
194.2603506853988
 51
345.7396493146012
  0
ARC
  5
158B3
330
747D
100
AcDbEntity
  8
部品1
 48
0.2
100
AcDbCircle
 10
8828.415194877671
 20
8028.675854345262
 30
0.0
 40
8.0
100
AcDbArc
 50
187.1636477221926
 51
269.9999999999992
  0
ARC
  5
158B4
330
747D
100
AcDbEntity
  8
部品1
 48
0.2
100
AcDbCircle
 10
8833.415194877671
 20
8028.675854345262
 30
0.0
 40
8.0
100
AcDbArc
 50
270.0
 51
352.8363522778074
  0
LINE
  5
158B5
330
747D
100
AcDbEntity
  8
部品1
 48
0.2
100
AcDbLine
 10
8828.415194877671
 20
8020.675854345261
 30
0.0
 11
8833.415194877671
 21
8020.675854345261
 31
0.0
  0
LINE
  5
158B6
330
747D
100
AcDbEntity
  8
部品1
100
AcDbLine
 10
8841.352747048993
 20
8053.678224390075
 30
0.0
 11
8841.352747048993
 21
8027.678224390069
 31
0.0
  0
LINE
  5
158B7
330
747D
100
AcDbEntity
  8
部品1
 48
2.83
100
AcDbLine
 10
8831.352747048976
 20
8082.67822439004
 30
0.0
 11
8831.352747048976
 21
8057.178224390041
 31
0.0
  0
LINE
  5
158B8
330
747D
100
AcDbEntity
  8
部品1
 48
50.0
100
AcDbLine
 10
8858.352747048979
 20
8130.15915919767
 30
0.0
 11
8829.851775624184
 21
8159.178330102923
 31
0.0
  0
LINE
  5
158B9
330
747D
100
AcDbEntity
  8
部品1
 48
2.83
100
AcDbLine
 10
8854.352747048976
 20
8082.67822439004
 30
0.0
 11
8831.352747048976
 21
8082.67822439004
 31
0.0
  0
LINE
  5
158BA
330
747D
100
AcDbEntity
  8
部品1
100
AcDbLine
 10
8858.352747049002
 20
8502.678224390084
 30
0.0
 11
8886.352747049
 21
8502.678224390084
 31
0.0
  0
LINE
  5
158BB
330
747D
100
AcDbEntity
  8
部品1
100
AcDbLine
 10
8858.352747049002
 20
9082.678224390084
 30
0.0
 11
8886.352747049
 21
9082.678224390084
 31
0.0
  0
LINE
  5
158BC
330
747D
100
AcDbEntity
  8
破線
 48
10.0
100
AcDbLine
 10
8806.352811973669
 20
9078.178224390033
 30
0.0
 11
8806.3527952099
 21
8855.17822540131
 31
0.0
  0
DIMENSION
  5
158BD
330
747D
100
AcDbEntity
  8
寸法
100
AcDbDimension
  2
*D16
 10
8886.352747049
 20
9773.486444015066
 30
0.0
 11
9194.838028423241
 21
9773.486444015066
 31
0.0
 70
   160
 71
     5
 42
55.0
  3
INABA_S40G
100
AcDbAlignedDimension
 13
8831.352747049001
 23
9557.678224390084
 33
0.0
 14
8886.352747049
 24
9557.678224390084
 34
0.0
100
AcDbRotatedDimension
1001
ACAD
1000
DSTYLE
1002
{
1002
}
  0
LINE
  5
158BE
330
747D
100
AcDbEntity
  8
部品1
100
AcDbLine
 10
8858.352747049002
 20
9502.678224390084
 30
0.0
 11
8886.352747049
 21
9502.678224390084
 31
0.0
  0
LINE
  5
158BF
330
747D
100
AcDbEntity
  8
部品1
 48
50.0
100
AcDbLine
 10
8856.852740371323
 20
9528.178224390032
 30
0.0
 11
8858.352747049002
 21
9529.678224390083
 31
0.0
  0
LINE
  5
158C0
330
747D
100
AcDbEntity
  8
部品1
100
AcDbLine
 10
8831.352747049001
 20
9557.678224390098
 30
0.0
 11
8831.352747049001
 21
9529.678224390098
 31
0.0
  0
LINE
  5
158C1
330
747D
100
AcDbEntity
  8
部品1
100
AcDbLine
 10
8831.352747049001
 20
9557.678224390084
 30
0.0
 11
8831.352747049001
 21
9529.678224390083
 31
0.0
  0
LINE
  5
15B6B
330
747D
100
AcDbEntity
  8
細線
 48
50.0
100
AcDbLine
 10
5775.352747048994
 20
8053.678224390123
 30
0.0
 11
5775.352747048994
 21
8027.678224390077
 31
0.0
  0
LINE
  5
15B6C
330
747D
100
AcDbEntity
  8
細線
 48
50.0
100
AcDbLine
 10
7008.352747048994
 20
8053.678224390328
 30
0.0
 11
7008.352747048994
 21
8027.678224390291
 31
0.0
  0
LINE
  5
15B6D
330
747D
100
AcDbEntity
  8
細線
 48
50.0
100
AcDbLine
 10
6821.352747048994
 20
8053.678224390113
 30
0.0
 11
6821.352747048994
 21
8027.678224390077
 31
0.0
  0
LINE
  5
15B6E
330
747D
100
AcDbEntity
  8
細線
 48
50.0
100
AcDbLine
 10
6781.352747048993
 20
8053.678224390113
 30
0.0
 11
6781.352747048993
 21
8027.678224390077
 31
0.0
  0
LINE
  5
15B6F
330
747D
100
AcDbEntity
  8
細線
 48
50.0
100
AcDbLine
 10
7048.352747048993
 20
8053.678224390328
 30
0.0
 11
7048.352747048993
 21
8027.678224390291
 31
0.0
  0
LINE
  5
15B70
330
747D
100
AcDbEntity
  8
細線
 48
50.0
100
AcDbLine
 10
7641.352747048994
 20
8053.678224390113
 30
0.0
 11
7641.352747048994
 21
8027.678224390077
 31
0.0
  0
LINE
  5
15B71
330
747D
100
AcDbEntity
  8
細線
 48
50.0
100
AcDbLine
 10
7415.352747048993
 20
8053.678224390123
 30
0.0
 11
7415.352747048993
 21
8027.678224390077
 31
0.0
  0
LINE
  5
15B72
330
747D
100
AcDbEntity
  8
細線
 48
50.0
100
AcDbLine
 10
7601.352747048993
 20
8053.678224390113
 30
0.0
 11
7601.352747048993
 21
8027.678224390077
 31
0.0
  0
LINE
  5
15B73
330
747D
100
AcDbEntity
  8
細線
 48
50.0
100
AcDbLine
 10
7868.352747048994
 20
8053.678224390328
 30
0.0
 11
7868.352747048994
 21
8027.678224390291
 31
0.0
  0
LINE
  5
15B74
330
747D
100
AcDbEntity
  8
細線
 48
50.0
100
AcDbLine
 10
7828.352747048994
 20
8053.678224390328
 30
0.0
 11
7828.352747048994
 21
8027.678224390291
 31
0.0
  0
LINE
  5
15B75
330
747D
100
AcDbEntity
  8
細線
 48
50.0
100
AcDbLine
 10
8235.352747048994
 20
8053.678224390123
 30
0.0
 11
8235.352747048994
 21
8027.678224390077
 31
0.0
  0
LINE
  5
15B76
330
747D
100
AcDbEntity
  8
細線
 48
50.0
100
AcDbLine
 10
8648.352747048994
 20
8053.678224390328
 30
0.0
 11
8648.352747048994
 21
8027.678224390291
 31
0.0
  0
LINE
  5
15B77
330
747D
100
AcDbEntity
  8
細線
 48
50.0
100
AcDbLine
 10
8688.352747048993
 20
8053.678224390328
 30
0.0
 11
8688.352747048993
 21
8027.678224390291
 31
0.0
  0
LINE
  5
15B78
330
747D
100
AcDbEntity
  8
細線
 48
50.0
100
AcDbLine
 10
8461.352747048994
 20
8053.678224390113
 30
0.0
 11
8461.352747048994
 21
8027.678224390077
 31
0.0
  0
LINE
  5
15B79
330
747D
100
AcDbEntity
  8
細線
 48
50.0
100
AcDbLine
 10
8421.352747048993
 20
8053.678224390113
 30
0.0
 11
8421.352747048993
 21
8027.678224390077
 31
0.0
  0
LINE
  5
15B7A
330
747D
100
AcDbEntity
  8
細線
 48
50.0
100
AcDbLine
 10
6866.352747048964
 20
9536.178224389933
 30
0.0
 11
6806.352747048965
 21
9536.178224389932
 31
0.0
  0
LINE
  5
15B7B
330
747D
100
AcDbEntity
  8
細線
 48
50.0
100
AcDbLine
 10
6866.352747048964
 20
9536.178224389933
 30
0.0
 11
6866.352747048964
 21
9557.678224389938
 31
0.0
  0
LINE
  5
15B7C
330
747D
100
AcDbEntity
  8
細線
 48
50.0
100
AcDbLine
 10
6806.352747048965
 20
9536.178224389933
 30
0.0
 11
6806.352747048965
 21
9557.678224389929
 31
0.0
  0
LINE
  5
15B7D
330
747D
100
AcDbEntity
  8
細線
 48
50.0
100
AcDbLine
 10
7686.352747048964
 20
9536.178224390043
 30
0.0
 11
7626.352747048965
 21
9536.17822439004
 31
0.0
  0
LINE
  5
15B7E
330
747D
100
AcDbEntity
  8
細線
 48
50.0
100
AcDbLine
 10
7626.352747048965
 20
9536.178224390043
 30
0.0
 11
7626.352747048965
 21
9557.67822439004
 31
0.0
  0
LINE
  5
15B7F
330
747D
100
AcDbEntity
  8
細線
 48
50.0
100
AcDbLine
 10
7686.352747048964
 20
9536.178224390043
 30
0.0
 11
7686.352747048964
 21
9557.678224390047
 31
0.0
  0
LINE
  5
15B80
330
747D
100
AcDbEntity
  8
細線
 48
50.0
100
AcDbLine
 10
8506.352740371266
 20
9536.178224390193
 30
0.0
 11
8446.352740371265
 21
9536.178224390189
 31
0.0
  0
LINE
  5
15B81
330
747D
100
AcDbEntity
  8
細線
 48
50.0
100
AcDbLine
 10
8446.352740371265
 20
9536.178224390193
 30
0.0
 11
8446.352740371265
 21
9557.678224390189
 31
0.0
  0
LINE
  5
15B82
330
747D
100
AcDbEntity
  8
細線
 48
50.0
100
AcDbLine
 10
8506.352740371266
 20
9536.178224390193
 30
0.0
 11
8506.352740371266
 21
9557.678224390196
 31
0.0
  0
LINE
  5
15CEF
330
747D
100
AcDbEntity
  8
部品1
 48
50.0
100
AcDbLine
 10
6426.352747048979
 20
8082.678224390026
 30
0.0
 11
6426.352747048979
 21
9502.678224390033
 31
0.0
  0
LINE
  5
15CF0
330
747D
100
AcDbEntity
  8
部品1
 48
50.0
100
AcDbLine
 10
6398.352747048979
 20
8082.678224390026
 30
0.0
 11
6398.352747048928
 21
9529.678224390032
 31
0.0
  0
LINE
  5
15CF1
330
747D
100
AcDbEntity
  8
部品1
 48
50.0
100
AcDbLine
 10
6454.352747048979
 20
8082.678224390026
 30
0.0
 11
6454.352747048924
 21
9557.678224390032
 31
0.0
  0
LINE
  5
15CF2
330
747D
100
AcDbEntity
  8
細線
 48
50.0
100
AcDbLine
 10
6396.852753726631
 20
9528.178224390098
 30
0.0
 11
5635.852753726616
 21
9078.178224390043
 31
0.0
  0
LINE
  5
15CF3
330
747D
100
AcDbEntity
  8
細線
 48
50.0
100
AcDbLine
 10
6396.852753726627
 20
9078.178224390098
 30
0.0
 11
5635.852753726513
 21
9528.178224390101
 31
0.0
  0
LINE
  5
15CF4
330
747D
100
AcDbEntity
  8
部品1
 48
50.0
100
AcDbLine
 10
6396.852753726631
 20
9528.178224390098
 30
0.0
 11
6396.852753726631
 21
9078.178224390098
 31
0.0
  0
LINE
  5
15CF5
330
747D
100
AcDbEntity
  8
部品1
 48
50.0
100
AcDbLine
 10
6455.852753726627
 20
9528.178224390046
 30
0.0
 11
6455.852753726631
 21
9078.178224390047
 31
0.0
  0
LINE
  5
15CF6
330
747D
100
AcDbEntity
  8
部品1
 48
50.0
100
AcDbLine
 10
6481.852740704693
 20
8159.178224414691
 30
0.0
 11
6481.852743677555
 21
9078.178224390033
 31
0.0
  0
LINE
  5
15CF7
330
747D
100
AcDbEntity
  8
部品1
 48
50.0
100
AcDbLine
 10
6370.852747048979
 20
8159.178224390032
 30
0.0
 11
6370.852747048953
 21
9078.178224390091
 31
0.0
  0
LINE
  5
15CF8
330
747D
100
AcDbEntity
  8
破線
 48
10.0
100
AcDbLine
 10
6347.352747048986
 20
8182.678224390032
 30
0.0
 11
6347.352741301016
 21
8805.17822536003
 31
0.0
  0
LINE
  5
15CF9
330
747D
100
AcDbEntity
  8
破線
 48
10.0
100
AcDbLine
 10
6505.352747048987
 20
8182.67822439004
 30
0.0
 11
6505.35273849633
 21
8805.178252685747
 31
0.0
  0
LINE
  5
15CFA
330
747D
100
AcDbEntity
  8
部品1
100
AcDbLine
 10
6477.352747048993
 20
8027.678224389974
 30
0.0
 11
3966.352747048994
 21
8027.678224389942
 31
0.0
  0
LINE
  5
15CFC
330
747D
100
AcDbEntity
  8
部品1
100
AcDbLine
 10
6381.352747048993
 20
8053.67822439004
 30
0.0
 11
5651.352747048993
 21
8053.678224390008
 31
0.0
  0
LINE
  5
15CFD
330
747D
100
AcDbEntity
  8
破線
 48
10.0
100
AcDbLine
 10
6347.352747048986
 20
8182.678224390011
 30
0.0
 11
5686.352747048986
 21
8182.678224389999
 31
0.0
  0
LINE
  5
15CFE
330
747D
100
AcDbEntity
  8
部品1
100
AcDbLine
 10
6370.85331749716
 20
8159.177643570068
 30
0.0
 11
5662.853718475388
 21
8159.177142081542
 31
0.0
  0
LINE
  5
15CFF
330
747D
100
AcDbEntity
  8
細線
 48
50.0
100
AcDbLine
 10
5961.352747048993
 20
8053.678224390113
 30
0.0
 11
5961.352747048993
 21
8027.678224390077
 31
0.0
  0
LINE
  5
15D00
330
747D
100
AcDbEntity
  8
細線
 48
50.0
100
AcDbLine
 10
6001.352747048994
 20
8053.678224390113
 30
0.0
 11
6001.352747048994
 21
8027.678224390077
 31
0.0
  0
LINE
  5
15D01
330
747D
100
AcDbEntity
  8
部品1
 48
5.0
100
AcDbLine
 10
6383.352747048993
 20
8027.678224390026
 30
0.0
 11
6469.352747048993
 21
8027.678224390026
 31
0.0
  0
LINE
  5
15D02
330
747D
100
AcDbEntity
  8
部品1
 48
5.0
100
AcDbLine
 10
6398.352747048979
 20
8082.678224390026
 30
0.0
 11
6454.352747048979
 21
8082.678224390026
 31
0.0
  0
LINE
  5
15D03
330
747D
100
AcDbEntity
  8
細線
 48
50.0
100
AcDbLine
 10
6228.352747048994
 20
8053.678224390328
 30
0.0
 11
6228.352747048994
 21
8027.678224390291
 31
0.0
  0
LINE
  5
15D04
330
747D
100
AcDbEntity
  8
細線
 48
50.0
100
AcDbLine
 10
6188.352747048994
 20
8053.678224390328
 30
0.0
 11
6188.352747048994
 21
8027.678224390291
 31
0.0
  0
LINE
  5
15D05
330
747D
100
AcDbEntity
  8
部品1
 48
5.0
100
AcDbLine
 10
6402.352747048993
 20
8082.678224390026
 30
0.0
 11
6402.352747048993
 21
8057.178224390026
 31
0.0
  0
LINE
  5
15D06
330
747D
100
AcDbEntity
  8
部品1
 48
5.0
100
AcDbLine
 10
6371.352747048994
 20
8082.678224390026
 30
0.0
 11
6371.352747048997
 21
8057.178224390026
 31
0.0
  0
LINE
  5
15D07
330
747D
100
AcDbEntity
  8
部品1
100
AcDbLine
 10
6381.352747048993
 20
8053.678224390075
 30
0.0
 11
6381.352747048993
 21
8027.678224390019
 31
0.0
  0
LINE
  5
15D08
330
747D
100
AcDbEntity
  8
部品1
100
AcDbLine
 10
6383.352747048993
 20
8057.178224389968
 30
0.0
 11
6383.35274704899
 21
8027.678224390019
 31
0.0
  0
LINE
  5
15D09
330
747D
100
AcDbEntity
  8
部品1
 48
5.0
100
AcDbLine
 10
6383.352747048993
 20
8057.178224390026
 30
0.0
 11
6383.352747048993
 21
8027.678224390026
 31
0.0
  0
ARC
  5
15D0A
330
747D
100
AcDbEntity
  8
部品1
 48
0.2
100
AcDbCircle
 10
6373.41519487767
 20
8028.675854345248
 30
0.0
 40
8.0
100
AcDbArc
 50
270.0
 51
352.8363522778074
  0
ARC
  5
15D0B
330
747D
100
AcDbEntity
  8
部品1
 48
0.2
100
AcDbCircle
 10
6368.415194877671
 20
8028.675854345248
 30
0.0
 40
8.0
100
AcDbArc
 50
187.1636477221926
 51
269.9999999999992
  0
ARC
  5
15D0C
330
747D
100
AcDbEntity
  8
細線
 48
0.2
100
AcDbCircle
 10
6373.41519487767
 20
8028.675854345248
 30
0.0
 40
4.049999999999999
100
AcDbArc
 50
194.2603506853988
 51
345.7396493146012
  0
LINE
  5
15D0D
330
747D
100
AcDbEntity
  8
部品1
 48
0.2
100
AcDbLine
 10
6368.415194877671
 20
8020.675854345247
 30
0.0
 11
6373.41519487767
 21
8020.675854345247
 31
0.0
  0
LINE
  5
15D0E
330
747D
100
AcDbEntity
  8
部品1
 48
50.0
100
AcDbLine
 10
6398.352747048979
 20
8131.178224390025
 30
0.0
 11
6370.852747048979
 21
8159.178224390032
 31
0.0
  0
LINE
  5
15D0F
330
747D
100
AcDbEntity
  8
部品1
 48
5.0
100
AcDbLine
 10
6394.352747048993
 20
8082.678224390026
 30
0.0
 11
6371.352747048994
 21
8082.678224390026
 31
0.0
  0
LINE
  5
15D10
330
747D
100
AcDbEntity
  8
細線
 48
50.0
100
AcDbLine
 10
6595.352747048993
 20
8053.678224390123
 30
0.0
 11
6595.352747048993
 21
8027.678224390077
 31
0.0
  0
LINE
  5
15D11
330
747D
100
AcDbEntity
  8
部品1
 48
5.0
100
AcDbLine
 10
6481.352747048993
 20
8082.678224390026
 30
0.0
 11
6481.352747048997
 21
8057.178224390026
 31
0.0
  0
LINE
  5
15D12
330
747D
100
AcDbEntity
  8
部品1
 48
5.0
100
AcDbLine
 10
6450.352747048997
 20
8082.678224390026
 30
0.0
 11
6450.352747048994
 21
8057.178224390026
 31
0.0
  0
LINE
  5
15D13
330
747D
100
AcDbEntity
  8
部品1
100
AcDbLine
 10
6471.352747048993
 20
8053.678224390047
 30
0.0
 11
6471.352747048993
 21
8027.678224390012
 31
0.0
  0
LINE
  5
15D14
330
747D
100
AcDbEntity
  8
部品1
100
AcDbLine
 10
6469.352747048993
 20
8057.178224389975
 30
0.0
 11
6469.352747048993
 21
8027.678224390026
 31
0.0
  0
LINE
  5
15D15
330
747D
100
AcDbEntity
  8
部品1
 48
5.0
100
AcDbLine
 10
6469.352747048993
 20
8057.178224390026
 30
0.0
 11
6469.352747048993
 21
8027.678224390026
 31
0.0
  0
LINE
  5
15D16
330
747D
100
AcDbEntity
  8
部品1
 48
50.0
100
AcDbLine
 10
6481.852747048979
 20
8159.178224414699
 30
0.0
 11
6454.352747048979
 21
8131.178224390025
 31
0.0
  0
LINE
  5
15D17
330
747D
100
AcDbEntity
  8
部品1
 48
5.0
100
AcDbLine
 10
6458.352747048994
 20
8082.678224390026
 30
0.0
 11
6481.352747048993
 21
8082.678224390026
 31
0.0
  0
LINE
  5
15D1B
330
747D
100
AcDbEntity
  8
破線
 48
10.0
100
AcDbLine
 10
6347.352740851609
 20
8855.178225360033
 30
0.0
 11
6347.352738694433
 21
9078.178224390091
 31
0.0
  0
LINE
  5
15D1C
330
747D
100
AcDbEntity
  8
破線
 48
10.0
100
AcDbLine
 10
6505.352737827627
 20
8855.178252685744
 30
0.0
 11
6505.352734617874
 21
9078.178224390033
 31
0.0
  0
LINE
  5
15D1D
330
747D
100
AcDbEntity
  8
部品1
 48
5.0
100
AcDbLine
 10
6426.352747048979
 20
8502.678224390026
 30
0.0
 11
6398.352747048928
 21
8502.678224390033
 31
0.0
  0
LINE
  5
15D1E
330
747D
100
AcDbEntity
  8
部品1
 48
50.0
100
AcDbLine
 10
6426.352747048972
 20
9120.678224390031
 30
0.0
 11
6454.352747048954
 21
9120.678224390031
 31
0.0
  0
LINE
  5
15D1F
330
747D
100
AcDbEntity
  8
部品1
 48
50.0
100
AcDbLine
 10
6426.352747048972
 20
9082.678224390033
 30
0.0
 11
6454.352747048954
 21
9082.678224390033
 31
0.0
  0
LINE
  5
15D20
330
747D
100
AcDbEntity
  8
部品1
 48
5.0
100
AcDbLine
 10
6426.352747048979
 20
9082.678224390026
 30
0.0
 11
6398.352747048928
 21
9082.678224390033
 31
0.0
  0
LINE
  5
15D24
330
747D
100
AcDbEntity
  8
細線
 48
50.0
100
AcDbLine
 10
5986.352747048965
 20
9536.178224389933
 30
0.0
 11
5986.352747048965
 21
9557.678224389929
 31
0.0
  0
LINE
  5
15D25
330
747D
100
AcDbEntity
  8
細線
 48
50.0
100
AcDbLine
 10
6046.352747048964
 20
9536.178224389933
 30
0.0
 11
6046.352747048964
 21
9557.678224389938
 31
0.0
  0
LINE
  5
15D26
330
747D
100
AcDbEntity
  8
細線
 48
50.0
100
AcDbLine
 10
6046.352747048964
 20
9536.178224389933
 30
0.0
 11
5986.352747048965
 21
9536.178224389932
 31
0.0
  0
DIMENSION
  5
15D27
330
747D
100
AcDbEntity
  8
寸法
 48
50.0
100
AcDbDimension
  2
*D17
 10
6481.352747049001
 20
9773.486444015087
 30
0.0
 11
6426.352747049
 21
9873.486444015087
 31
0.0
 70
    32
 71
     5
 42
110.0
  3
INABA_S40G
100
AcDbAlignedDimension
 13
6371.352747049001
 23
9557.678224390105
 33
0.0
 14
6481.352747049001
 24
9557.678224390084
 34
0.0
100
AcDbRotatedDimension
  0
LINE
  5
15D28
330
747D
100
AcDbEntity
  8
部品1
 48
5.0
100
AcDbLine
 10
6454.352747048928
 20
9502.678224390033
 30
0.0
 11
6398.352747048928
 21
9502.678224390033
 31
0.0
  0
LINE
  5
15D29
330
747D
100
AcDbEntity
  8
部品1
 48
5.0
100
AcDbLine
 10
6401.062021496175
 20
9557.678224390032
 30
0.0
 11
6423.733450067601
 21
9529.678224390032
 31
0.0
  0
LINE
  5
15D2A
330
747D
100
AcDbEntity
  8
部品1
 48
5.0
100
AcDbLine
 10
6371.352747048997
 20
9529.678224390032
 30
0.0
 11
6371.352747049001
 21
9557.678224390032
 31
0.0
  0
LINE
  5
15D2B
330
747D
100
AcDbEntity
  8
部品1
 48
50.0
100
AcDbLine
 10
6396.852753726631
 20
9528.123711730275
 30
0.0
 11
6398.352747048928
 21
9529.678224390032
 31
0.0
  0
LINE
  5
15D2C
330
747D
100
AcDbEntity
  8
部品1
 48
5.0
100
AcDbLine
 10
6481.352747049001
 20
9557.678224390032
 30
0.0
 11
6481.352747048997
 21
9529.678224390039
 31
0.0
  0
LINE
  5
15D2D
330
747D
100
AcDbEntity
  8
部品1
 48
50.0
100
AcDbLine
 10
6455.852747048933
 20
9528.123702869775
 30
0.0
 11
6454.352747048928
 21
9529.678224390032
 31
0.0
  0
LINE
  5
15D2E
330
747D
100
AcDbEntity
  8
想像線
 48
10.0
100
AcDbLine
 10
6381.352747048993
 20
8027.678224390026
 30
0.0
 11
6381.352747048993
 21
7306.760580734236
 31
0.0
  0
ARC
  5
15D2F
330
747D
100
AcDbEntity
  8
想像線
 48
10.0
100
AcDbCircle
 10
6374.000696371835
 20
8029.373117765594
 30
0.0
 40
722.6499369155601
100
AcDbArc
 50
180.1343808685482
 51
270.5829222700353
  0
LINE
  5
15D88
330
747D
100
AcDbEntity
  8
部品1
100
AcDbLine
 10
3966.352747048965
 20
9557.678224389951
 30
0.0
 11
8886.352747049
 21
9557.678224390084
 31
0.0
  0
LINE
  5
15D89
330
747D
100
AcDbEntity
  8
部品1
100
AcDbLine
 10
5634.352747049002
 20
9529.678224389988
 30
0.0
 11
6423.733450067622
 21
9529.678224390011
 31
0.0
  0
LINE
  5
15D8A
330
747D
100
AcDbEntity
  8
部品1
100
AcDbLine
 10
5635.852753726574
 20
9528.178224390046
 30
0.0
 11
6396.852753726631
 21
9528.178224390098
 31
0.0
  0
LINE
  5
15D8D
330
747D
100
AcDbEntity
  8
部品1
100
AcDbLine
 10
5635.852753726631
 20
9078.178224390043
 30
0.0
 11
6396.852753726627
 21
9078.178224390098
 31
0.0
  0
LINE
  5
15D8E
330
747D
100
AcDbEntity
  8
破線
 48
10.0
100
AcDbLine
 10
5662.853349680632
 20
8855.178253614464
 30
0.0
 11
6370.85274704896
 21
8855.178224390011
 31
0.0
  0
LINE
  5
15D8F
330
747D
100
AcDbEntity
  8
破線
 48
10.0
100
AcDbLine
 10
5662.853375542717
 20
8805.178253614462
 30
0.0
 11
6370.85274704896
 21
8805.17822439001
 31
0.0
  0
LINE
  5
15D92
330
747D
100
AcDbEntity
  8
部品1
 48
5.0
100
AcDbLine
 10
5630.352747048994
 20
8057.178224389913
 30
0.0
 11
6402.352747048993
 21
8057.178224389968
 31
0.0
  0
DIMENSION
  5
15E46
330
747D
100
AcDbEntity
  8
寸法
100
AcDbDimension
  2
*D18
 10
6371.352747049001
 20
9773.486444015087
 30
0.0
 11
6016.602747049001
 21
9773.486444015087
 31
0.0
 70
   160
 71
     5
 42
710.0
  3
INABA_S40G
100
AcDbAlignedDimension
 13
5661.352747049001
 23
9557.678224390018
 33
0.0
 14
6371.352747049001
 24
9557.678224390105
 34
0.0
100
AcDbRotatedDimension
1001
ACAD
1000
DSTYLE
1002
{
1002
}
  0
DIMENSION
  5
15E53
330
747D
100
AcDbEntity
  8
寸法
100
AcDbDimension
  2
*D19
 10
7982.714387026293
 20
8876.131114147053
 30
0.0
 11
7655.199809167199
 21
8876.131114147053
 31
0.0
 70
   160
 71
     5
 42
761.0000000000109
  3
INABA_S40G
100
AcDbAlignedDimension
 13
7275.852747048931
 23
9078.178224390033
 33
0.0
 14
8036.852747048943
 24
9078.178224390033
 34
0.0
100
AcDbRotatedDimension
1001
ACAD
1000
DSTYLE
1002
{
1002
}
  0
DIMENSION
  5
15E60
330
747D
100
AcDbEntity
  8
寸法
100
AcDbDimension
  2
*D21
 10
6342.714387026294
 20
8876.131114147053
 30
0.0
 11
6015.199809167199
 21
8876.131114147053
 31
0.0
 70
   160
 71
     5
 42
761.0000000000109
  3
INABA_S40G
100
AcDbAlignedDimension
 13
5635.852747048932
 23
9078.178224390033
 33
0.0
 14
6396.852747048942
 24
9078.178224390033
 34
0.0
100
AcDbRotatedDimension
1001
ACAD
1000
DSTYLE
1002
{
1002
}
  0
DIMENSION
  5
15E61
330
747D
100
AcDbEntity
  8
寸法
100
AcDbDimension
  2
*D20
 10
7162.714387026294
 20
8876.131114147053
 30
0.0
 11
6835.1998091672
 21
8876.131114147053
 31
0.0
 70
   160
 71
     5
 42
761.0000000000109
  3
INABA_S40G
100
AcDbAlignedDimension
 13
6455.852747048933
 23
9078.178224390033
 33
0.0
 14
7216.852747048942
 24
9078.178224390033
 34
0.0
100
AcDbRotatedDimension
1001
ACAD
1000
DSTYLE
1002
{
1002
}
  0
DIMENSION
  5
15E7A
330
747D
100
AcDbEntity
  8
寸法
 48
50.0
100
AcDbDimension
  2
*D22
 10
7986.352747048994
 20
7587.854556594904
 30
0.0
 11
7643.852747048995
 21
7587.854556594904
 31
0.0
 70
   160
 71
     5
 42
684.9999999999964
  3
INABA_S40G
100
AcDbAlignedDimension
 13
7301.352747048998
 23
8027.678224389982
 33
0.0
 14
7986.352747048994
 24
8027.678224389944
 34
0.0
100
AcDbRotatedDimension
  0
DIMENSION
  5
15E92
330
747D
100
AcDbEntity
  8
寸法
 48
50.0
100
AcDbDimension
  2
*D23
 10
7166.352747048994
 20
7587.854556594904
 30
0.0
 11
6823.852747048995
 21
7587.854556594904
 31
0.0
 70
   160
 71
     5
 42
684.9999999999964
  3
INABA_S40G
100
AcDbAlignedDimension
 13
6481.352747048997
 23
8027.678224389982
 33
0.0
 14
7166.352747048994
 24
8027.678224389944
 34
0.0
100
AcDbRotatedDimension
  0
DIMENSION
  5
15EAA
330
747D
100
AcDbEntity
  8
寸法
 48
50.0
100
AcDbDimension
  2
*D24
 10
8806.352747048993
 20
7587.854556594904
 30
0.0
 11
8463.852747048996
 21
7587.854556594904
 31
0.0
 70
   160
  1
有効開口部間口\P<>
 71
     5
 42
684.9999999999964
  3
INABA_S40G
100
AcDbAlignedDimension
 13
8121.352747048998
 23
8027.678224389982
 33
0.0
 14
8806.352747048993
 24
8027.678224389944
 34
0.0
100
AcDbRotatedDimension
  0
LINE
  5
15FFA
330
747D
100
AcDbEntity
  8
想像線
 48
10.0
100
AcDbLine
 10
4741.352747048994
 20
8027.678224390026
 30
0.0
 11
4741.352747048994
 21
7306.760580734236
 31
0.0
  0
ARC
  5
15FFB
330
747D
100
AcDbEntity
  8
想像線
 48
10.0
100
AcDbCircle
 10
4734.000696371835
 20
8029.373117765594
 30
0.0
 40
722.6499369155601
100
AcDbArc
 50
180.1343808685482
 51
270.5829222700353
  0
ARC
  5
15FFC
330
747D
100
AcDbEntity
  8
想像線
 48
10.0
100
AcDbCircle
 10
5554.000696371836
 20
8029.373117765594
 30
0.0
 40
722.6499369155601
100
AcDbArc
 50
180.1343808685482
 51
270.5829222700353
  0
LINE
  5
15FFD
330
747D
100
AcDbEntity
  8
想像線
 48
10.0
100
AcDbLine
 10
5561.352747048993
 20
8027.678224390026
 30
0.0
 11
5561.352747048993
 21
7306.760580734236
 31
0.0
  0
DIMENSION
  5
15FFE
330
747D
100
AcDbEntity
  8
寸法
 48
50.0
100
AcDbDimension
  2
*D31
 10
5526.352747048993
 20
7587.854556594904
 30
0.0
 11
5183.852747048995
 21
7587.854556594904
 31
0.0
 70
   160
 71
     5
 42
684.9999999999964
  3
INABA_S40G
100
AcDbAlignedDimension
 13
4841.352747048997
 23
8027.678224389982
 33
0.0
 14
5526.352747048993
 24
8027.678224389944
 34
0.0
100
AcDbRotatedDimension
  0
DIMENSION
  5
15FFF
330
747D
100
AcDbEntity
  8
寸法
 48
50.0
100
AcDbDimension
  2
*D30
 10
6346.352747048993
 20
7587.854556594904
 30
0.0
 11
6003.852747048995
 21
7587.854556594904
 31
0.0
 70
   160
 71
     5
 42
684.9999999999964
  3
INABA_S40G
100
AcDbAlignedDimension
 13
5661.352747048997
 23
8027.678224389982
 33
0.0
 14
6346.352747048993
 24
8027.678224389944
 34
0.0
100
AcDbRotatedDimension
  0
LINE
  5
16000
330
747D
100
AcDbEntity
  8
部品1
 48
50.0
100
AcDbLine
 10
5635.852753726627
 20
9528.178224390046
 30
0.0
 11
5635.852753726631
 21
9078.178224390047
 31
0.0
  0
LINE
  5
16001
330
747D
100
AcDbEntity
  8
部品1
 48
50.0
100
AcDbLine
 10
5576.852753726631
 20
9528.178224390098
 30
0.0
 11
5576.852753726631
 21
9078.178224390098
 31
0.0
  0
LINE
  5
16002
330
747D
100
AcDbEntity
  8
細線
 48
50.0
100
AcDbLine
 10
5576.852753726627
 20
9078.178224390098
 30
0.0
 11
4815.852753726627
 21
9528.178224390046
 31
0.0
  0
LINE
  5
16003
330
747D
100
AcDbEntity
  8
細線
 48
50.0
100
AcDbLine
 10
5576.852753726631
 20
9528.178224390098
 30
0.0
 11
4815.85275372663
 21
9078.178224390047
 31
0.0
  0
LINE
  5
16004
330
747D
100
AcDbEntity
  8
部品1
 48
50.0
100
AcDbLine
 10
5634.352747048978
 20
8082.678224390026
 30
0.0
 11
5634.352747048924
 21
9557.678224390032
 31
0.0
  0
LINE
  5
16005
330
747D
100
AcDbEntity
  8
部品1
 48
50.0
100
AcDbLine
 10
5578.352747048978
 20
8082.678224390026
 30
0.0
 11
5578.352747048928
 21
9529.678224390032
 31
0.0
  0
LINE
  5
16006
330
747D
100
AcDbEntity
  8
部品1
 48
50.0
100
AcDbLine
 10
5606.352747048979
 20
8082.678224390026
 30
0.0
 11
5606.352747048979
 21
9502.678224390033
 31
0.0
  0
LINE
  5
16007
330
747D
100
AcDbEntity
  8
部品1
 48
50.0
100
AcDbLine
 10
4786.352747048979
 20
8082.678224390026
 30
0.0
 11
4786.352747048979
 21
9502.678224390033
 31
0.0
  0
LINE
  5
16008
330
747D
100
AcDbEntity
  8
部品1
 48
50.0
100
AcDbLine
 10
4758.352747048979
 20
8082.678224390026
 30
0.0
 11
4758.352747048927
 21
9529.678224390032
 31
0.0
  0
LINE
  5
16009
330
747D
100
AcDbEntity
  8
部品1
 48
50.0
100
AcDbLine
 10
4814.352747048979
 20
8082.678224390026
 30
0.0
 11
4814.352747048925
 21
9557.678224390032
 31
0.0
  0
LINE
  5
1600A
330
747D
100
AcDbEntity
  8
部品1
 48
50.0
100
AcDbLine
 10
4756.852753726631
 20
9528.178224390098
 30
0.0
 11
4756.852753726631
 21
9078.178224390098
 31
0.0
  0
LINE
  5
1600B
330
747D
100
AcDbEntity
  8
部品1
 48
50.0
100
AcDbLine
 10
4815.852753726627
 20
9528.178224390046
 30
0.0
 11
4815.85275372663
 21
9078.178224390047
 31
0.0
  0
LINE
  5
1600C
330
747D
100
AcDbEntity
  8
細線
 48
50.0
100
AcDbLine
 10
4756.852753726627
 20
9078.178224390098
 30
0.0
 11
3995.852753726513
 21
9528.178224390101
 31
0.0
  0
LINE
  5
1600D
330
747D
100
AcDbEntity
  8
細線
 48
50.0
100
AcDbLine
 10
4756.852753726631
 20
9528.178224390098
 30
0.0
 11
3995.852753726616
 21
9078.178224390043
 31
0.0
  0
LINE
  5
1600E
330
747D
100
AcDbEntity
  8
破線
 48
10.0
100
AcDbLine
 10
4842.853362611677
 20
8855.178253614461
 30
0.0
 11
5550.852747048961
 21
8855.178224390011
 31
0.0
  0
LINE
  5
1600F
330
747D
100
AcDbEntity
  8
破線
 48
10.0
100
AcDbLine
 10
4842.853362611677
 20
8805.178253614462
 30
0.0
 11
5550.852747048961
 21
8805.17822439001
 31
0.0
  0
LINE
  5
16010
330
747D
100
AcDbEntity
  8
部品1
100
AcDbLine
 10
4815.85275372663
 20
9078.178224390047
 30
0.0
 11
5576.852753726627
 21
9078.178224390098
 31
0.0
  0
DIMENSION
  5
16011
330
747D
100
AcDbEntity
  8
寸法
100
AcDbDimension
  2
*D29
 10
5522.714387026294
 20
8876.131114147053
 30
0.0
 11
5195.199809167199
 21
8876.131114147053
 31
0.0
 70
   160
 71
     5
 42
761.0000000000109
  3
INABA_S40G
100
AcDbAlignedDimension
 13
4815.852747048932
 23
9078.178224390033
 33
0.0
 14
5576.852747048942
 24
9078.178224390033
 34
0.0
100
AcDbRotatedDimension
1001
ACAD
1000
DSTYLE
1002
{
1002
}
  0
LINE
  5
16012
330
747D
100
AcDbEntity
  8
部品1
100
AcDbLine
 10
5550.853317497161
 20
8159.177643570068
 30
0.0
 11
4842.853718475388
 21
8159.177142081544
 31
0.0
  0
LINE
  5
16013
330
747D
100
AcDbEntity
  8
破線
 48
10.0
100
AcDbLine
 10
5527.352747048986
 20
8182.678224390011
 30
0.0
 11
4866.352747048986
 21
8182.678224389995
 31
0.0
  0
LINE
  5
16014
330
747D
100
AcDbEntity
  8
部品1
100
AcDbLine
 10
5561.352747048993
 20
8053.67822439004
 30
0.0
 11
4831.352747048994
 21
8053.67822439001
 31
0.0
  0
LINE
  5
16015
330
747D
100
AcDbEntity
  8
部品1
 48
5.0
100
AcDbLine
 10
4810.352747048994
 20
8057.178224389911
 30
0.0
 11
5582.352747048993
 21
8057.178224389968
 31
0.0
  0
LINE
  5
16016
330
747D
100
AcDbEntity
  8
部品1
100
AcDbLine
 10
5657.352747048993
 20
8027.678224389974
 30
0.0
 11
4786.352747048993
 21
8027.678224389944
 31
0.0
  0
LINE
  5
16017
330
747D
100
AcDbEntity
  8
部品1
 48
50.0
100
AcDbLine
 10
4841.852740704693
 20
8159.178224414691
 30
0.0
 11
4841.852743677555
 21
9078.178224390033
 31
0.0
  0
LINE
  5
16018
330
747D
100
AcDbEntity
  8
部品1
 48
50.0
100
AcDbLine
 10
4730.852747048979
 20
8159.178224390032
 30
0.0
 11
4730.852747048953
 21
9078.178224390091
 31
0.0
  0
LINE
  5
16019
330
747D
100
AcDbEntity
  8
破線
 48
10.0
100
AcDbLine
 10
4707.352747048986
 20
8182.678224390032
 30
0.0
 11
4707.352741301016
 21
8805.17822536003
 31
0.0
  0
LINE
  5
1601A
330
747D
100
AcDbEntity
  8
破線
 48
10.0
100
AcDbLine
 10
4865.352747048986
 20
8182.67822439004
 30
0.0
 11
4865.352738496331
 21
8805.178252685747
 31
0.0
  0
LINE
  5
1601B
330
747D
100
AcDbEntity
  8
部品1
100
AcDbLine
 10
4741.352747048994
 20
8053.67822439004
 30
0.0
 11
4011.352747048993
 21
8053.678224390008
 31
0.0
  0
LINE
  5
1601C
330
747D
100
AcDbEntity
  8
部品1
 48
5.0
100
AcDbLine
 10
4009.352747048994
 20
8057.178224389911
 30
0.0
 11
4762.352747048993
 21
8057.178224389968
 31
0.0
  0
LINE
  5
1601D
330
747D
100
AcDbEntity
  8
部品1
100
AcDbLine
 10
4730.853317497159
 20
8159.177643570068
 30
0.0
 11
4022.853718475388
 21
8159.177142081542
 31
0.0
  0
LINE
  5
1601E
330
747D
100
AcDbEntity
  8
破線
 48
10.0
100
AcDbLine
 10
4707.352747048986
 20
8182.678224390011
 30
0.0
 11
4046.352747048986
 21
8182.678224389999
 31
0.0
  0
LINE
  5
1601F
330
747D
100
AcDbEntity
  8
細線
 48
50.0
100
AcDbLine
 10
4135.352747048993
 20
8053.678224390123
 30
0.0
 11
4135.352747048993
 21
8027.678224390077
 31
0.0
  0
LINE
  5
16020
330
747D
100
AcDbEntity
  8
細線
 48
50.0
100
AcDbLine
 10
4321.352747048993
 20
8053.678224390113
 30
0.0
 11
4321.352747048993
 21
8027.678224390077
 31
0.0
  0
LINE
  5
16021
330
747D
100
AcDbEntity
  8
細線
 48
50.0
100
AcDbLine
 10
4361.352747048993
 20
8053.678224390113
 30
0.0
 11
4361.352747048993
 21
8027.678224390077
 31
0.0
  0
LINE
  5
16022
330
747D
100
AcDbEntity
  8
部品1
 48
5.0
100
AcDbLine
 10
4743.352747048994
 20
8027.678224390026
 30
0.0
 11
4829.352747048993
 21
8027.678224390026
 31
0.0
  0
LINE
  5
16023
330
747D
100
AcDbEntity
  8
部品1
 48
5.0
100
AcDbLine
 10
4758.352747048979
 20
8082.678224390026
 30
0.0
 11
4814.352747048979
 21
8082.678224390026
 31
0.0
  0
LINE
  5
16024
330
747D
100
AcDbEntity
  8
細線
 48
50.0
100
AcDbLine
 10
4588.352747048993
 20
8053.678224390328
 30
0.0
 11
4588.352747048993
 21
8027.678224390291
 31
0.0
  0
LINE
  5
16025
330
747D
100
AcDbEntity
  8
細線
 48
50.0
100
AcDbLine
 10
4548.352747048993
 20
8053.678224390328
 30
0.0
 11
4548.352747048993
 21
8027.678224390291
 31
0.0
  0
LINE
  5
16026
330
747D
100
AcDbEntity
  8
部品1
 48
5.0
100
AcDbLine
 10
4762.352747048993
 20
8082.678224390026
 30
0.0
 11
4762.352747048993
 21
8057.178224390026
 31
0.0
  0
LINE
  5
16027
330
747D
100
AcDbEntity
  8
部品1
 48
5.0
100
AcDbLine
 10
4731.352747048993
 20
8082.678224390026
 30
0.0
 11
4731.352747048997
 21
8057.178224390026
 31
0.0
  0
LINE
  5
16028
330
747D
100
AcDbEntity
  8
部品1
100
AcDbLine
 10
4741.352747048994
 20
8053.678224390075
 30
0.0
 11
4741.352747048994
 21
8027.678224390019
 31
0.0
  0
LINE
  5
16029
330
747D
100
AcDbEntity
  8
部品1
100
AcDbLine
 10
4743.352747048994
 20
8057.178224389968
 30
0.0
 11
4743.35274704899
 21
8027.678224390019
 31
0.0
  0
LINE
  5
1602A
330
747D
100
AcDbEntity
  8
部品1
 48
5.0
100
AcDbLine
 10
4743.352747048994
 20
8057.178224390026
 30
0.0
 11
4743.352747048994
 21
8027.678224390026
 31
0.0
  0
ARC
  5
1602B
330
747D
100
AcDbEntity
  8
部品1
 48
0.2
100
AcDbCircle
 10
4733.415194877671
 20
8028.675854345248
 30
0.0
 40
8.0
100
AcDbArc
 50
270.0
 51
352.8363522778074
  0
ARC
  5
1602C
330
747D
100
AcDbEntity
  8
部品1
 48
0.2
100
AcDbCircle
 10
4728.415194877671
 20
8028.675854345248
 30
0.0
 40
8.0
100
AcDbArc
 50
187.1636477221926
 51
269.9999999999992
  0
ARC
  5
1602D
330
747D
100
AcDbEntity
  8
細線
 48
0.2
100
AcDbCircle
 10
4733.415194877671
 20
8028.675854345248
 30
0.0
 40
4.049999999999999
100
AcDbArc
 50
194.2603506853988
 51
345.7396493146012
  0
LINE
  5
1602E
330
747D
100
AcDbEntity
  8
部品1
 48
0.2
100
AcDbLine
 10
4728.415194877671
 20
8020.675854345247
 30
0.0
 11
4733.415194877671
 21
8020.675854345247
 31
0.0
  0
LINE
  5
1602F
330
747D
100
AcDbEntity
  8
部品1
 48
50.0
100
AcDbLine
 10
4758.352747048979
 20
8131.178224390025
 30
0.0
 11
4730.852747048979
 21
8159.178224390032
 31
0.0
  0
LINE
  5
16030
330
747D
100
AcDbEntity
  8
部品1
 48
5.0
100
AcDbLine
 10
4754.352747048993
 20
8082.678224390026
 30
0.0
 11
4731.352747048993
 21
8082.678224390026
 31
0.0
  0
LINE
  5
16031
330
747D
100
AcDbEntity
  8
細線
 48
50.0
100
AcDbLine
 10
4955.352747048994
 20
8053.678224390123
 30
0.0
 11
4955.352747048994
 21
8027.678224390077
 31
0.0
  0
LINE
  5
16032
330
747D
100
AcDbEntity
  8
部品1
 48
5.0
100
AcDbLine
 10
4841.352747048993
 20
8082.678224390026
 30
0.0
 11
4841.352747048997
 21
8057.178224390026
 31
0.0
  0
LINE
  5
16033
330
747D
100
AcDbEntity
  8
部品1
 48
5.0
100
AcDbLine
 10
4810.352747048997
 20
8082.678224390026
 30
0.0
 11
4810.352747048994
 21
8057.178224390026
 31
0.0
  0
LINE
  5
16034
330
747D
100
AcDbEntity
  8
部品1
100
AcDbLine
 10
4831.352747048994
 20
8053.678224390047
 30
0.0
 11
4831.352747048994
 21
8027.678224390012
 31
0.0
  0
LINE
  5
16035
330
747D
100
AcDbEntity
  8
部品1
100
AcDbLine
 10
4829.352747048993
 20
8057.178224389975
 30
0.0
 11
4829.352747048993
 21
8027.678224390026
 31
0.0
  0
LINE
  5
16036
330
747D
100
AcDbEntity
  8
部品1
 48
5.0
100
AcDbLine
 10
4829.352747048993
 20
8057.178224390026
 30
0.0
 11
4829.352747048993
 21
8027.678224390026
 31
0.0
  0
LINE
  5
16037
330
747D
100
AcDbEntity
  8
部品1
 48
50.0
100
AcDbLine
 10
4841.852747048979
 20
8159.178224414699
 30
0.0
 11
4814.352747048979
 21
8131.178224390025
 31
0.0
  0
LINE
  5
16038
330
747D
100
AcDbEntity
  8
部品1
 48
5.0
100
AcDbLine
 10
4818.352747048994
 20
8082.678224390026
 30
0.0
 11
4841.352747048993
 21
8082.678224390026
 31
0.0
  0
LINE
  5
16039
330
747D
100
AcDbEntity
  8
破線
 48
10.0
100
AcDbLine
 10
4022.853375542716
 20
8805.178253614462
 30
0.0
 11
4730.85274704896
 21
8805.17822439001
 31
0.0
  0
LINE
  5
1603A
330
747D
100
AcDbEntity
  8
破線
 48
10.0
100
AcDbLine
 10
4022.853349680632
 20
8855.178253614464
 30
0.0
 11
4730.85274704896
 21
8855.178224390011
 31
0.0
  0
LINE
  5
1603B
330
747D
100
AcDbEntity
  8
部品1
100
AcDbLine
 10
3995.852753726632
 20
9078.178224390043
 30
0.0
 11
4756.852753726627
 21
9078.178224390098
 31
0.0
  0
DIMENSION
  5
1603C
330
747D
100
AcDbEntity
  8
寸法
100
AcDbDimension
  2
*D28
 10
4702.714387026293
 20
8876.131114147053
 30
0.0
 11
4375.199809167199
 21
8876.131114147053
 31
0.0
 70
   160
 71
     5
 42
761.0000000000109
  3
INABA_S40G
100
AcDbAlignedDimension
 13
3995.852747048932
 23
9078.178224390033
 33
0.0
 14
4756.852747048943
 24
9078.178224390033
 34
0.0
100
AcDbRotatedDimension
1001
ACAD
1000
DSTYLE
1002
{
1002
}
  0
LINE
  5
1603D
330
747D
100
AcDbEntity
  8
破線
 48
10.0
100
AcDbLine
 10
4707.352740851609
 20
8855.178225360033
 30
0.0
 11
4707.352738694433
 21
9078.178224390091
 31
0.0
  0
LINE
  5
1603E
330
747D
100
AcDbEntity
  8
破線
 48
10.0
100
AcDbLine
 10
4865.352737827627
 20
8855.178252685744
 30
0.0
 11
4865.352734617875
 21
9078.178224390033
 31
0.0
  0
LINE
  5
1603F
330
747D
100
AcDbEntity
  8
部品1
 48
5.0
100
AcDbLine
 10
4786.352747048979
 20
8502.678224390026
 30
0.0
 11
4758.352747048927
 21
8502.678224390033
 31
0.0
  0
LINE
  5
16040
330
747D
100
AcDbEntity
  8
部品1
 48
50.0
100
AcDbLine
 10
4786.352747048971
 20
9120.678224390031
 30
0.0
 11
4814.352747048953
 21
9120.678224390031
 31
0.0
  0
LINE
  5
16041
330
747D
100
AcDbEntity
  8
部品1
 48
50.0
100
AcDbLine
 10
4786.352747048971
 20
9082.678224390033
 30
0.0
 11
4814.352747048953
 21
9082.678224390033
 31
0.0
  0
LINE
  5
16042
330
747D
100
AcDbEntity
  8
部品1
 48
5.0
100
AcDbLine
 10
4786.352747048979
 20
9082.678224390026
 30
0.0
 11
4758.352747048927
 21
9082.678224390033
 31
0.0
  0
LINE
  5
16043
330
747D
100
AcDbEntity
  8
破線
 48
10.0
100
AcDbLine
 10
5685.352747048987
 20
8182.67822439004
 30
0.0
 11
5685.35273849633
 21
8805.178252685747
 31
0.0
  0
LINE
  5
16044
330
747D
100
AcDbEntity
  8
破線
 48
10.0
100
AcDbLine
 10
5527.352747048986
 20
8182.678224390032
 30
0.0
 11
5527.352741301016
 21
8805.17822536003
 31
0.0
  0
LINE
  5
16045
330
747D
100
AcDbEntity
  8
部品1
 48
50.0
100
AcDbLine
 10
5550.852747048979
 20
8159.178224390032
 30
0.0
 11
5550.852747048953
 21
9078.178224390091
 31
0.0
  0
LINE
  5
16046
330
747D
100
AcDbEntity
  8
部品1
 48
50.0
100
AcDbLine
 10
5661.852740704693
 20
8159.178224414691
 30
0.0
 11
5661.852743677555
 21
9078.178224390033
 31
0.0
  0
LINE
  5
16047
330
747D
100
AcDbEntity
  8
細線
 48
50.0
100
AcDbLine
 10
5181.352747048993
 20
8053.678224390113
 30
0.0
 11
5181.352747048993
 21
8027.678224390077
 31
0.0
  0
LINE
  5
16048
330
747D
100
AcDbEntity
  8
細線
 48
50.0
100
AcDbLine
 10
5141.352747048994
 20
8053.678224390113
 30
0.0
 11
5141.352747048994
 21
8027.678224390077
 31
0.0
  0
LINE
  5
16049
330
747D
100
AcDbEntity
  8
細線
 48
50.0
100
AcDbLine
 10
5368.352747048994
 20
8053.678224390328
 30
0.0
 11
5368.352747048994
 21
8027.678224390291
 31
0.0
  0
LINE
  5
1604A
330
747D
100
AcDbEntity
  8
細線
 48
50.0
100
AcDbLine
 10
5408.352747048994
 20
8053.678224390328
 30
0.0
 11
5408.352747048994
 21
8027.678224390291
 31
0.0
  0
LINE
  5
1604B
330
747D
100
AcDbEntity
  8
部品1
 48
5.0
100
AcDbLine
 10
5578.352747048978
 20
8082.678224390026
 30
0.0
 11
5634.352747048978
 21
8082.678224390026
 31
0.0
  0
LINE
  5
1604C
330
747D
100
AcDbEntity
  8
部品1
 48
5.0
100
AcDbLine
 10
5563.352747048994
 20
8027.678224390026
 30
0.0
 11
5649.352747048993
 21
8027.678224390026
 31
0.0
  0
LINE
  5
1604D
330
747D
100
AcDbEntity
  8
部品1
 48
5.0
100
AcDbLine
 10
5574.352747048994
 20
8082.678224390026
 30
0.0
 11
5551.352747048993
 21
8082.678224390026
 31
0.0
  0
LINE
  5
1604E
330
747D
100
AcDbEntity
  8
部品1
 48
50.0
100
AcDbLine
 10
5578.352747048978
 20
8131.178224390025
 30
0.0
 11
5550.852747048979
 21
8159.178224390032
 31
0.0
  0
LINE
  5
1604F
330
747D
100
AcDbEntity
  8
部品1
 48
0.2
100
AcDbLine
 10
5548.41519487767
 20
8020.675854345247
 30
0.0
 11
5553.415194877671
 21
8020.675854345247
 31
0.0
  0
ARC
  5
16050
330
747D
100
AcDbEntity
  8
細線
 48
0.2
100
AcDbCircle
 10
5553.415194877671
 20
8028.675854345248
 30
0.0
 40
4.049999999999999
100
AcDbArc
 50
194.2603506853988
 51
345.7396493146012
  0
ARC
  5
16051
330
747D
100
AcDbEntity
  8
部品1
 48
0.2
100
AcDbCircle
 10
5548.41519487767
 20
8028.675854345248
 30
0.0
 40
8.0
100
AcDbArc
 50
187.1636477221926
 51
269.9999999999992
  0
ARC
  5
16052
330
747D
100
AcDbEntity
  8
部品1
 48
0.2
100
AcDbCircle
 10
5553.415194877671
 20
8028.675854345248
 30
0.0
 40
8.0
100
AcDbArc
 50
270.0
 51
352.8363522778074
  0
LINE
  5
16053
330
747D
100
AcDbEntity
  8
部品1
 48
5.0
100
AcDbLine
 10
5563.352747048994
 20
8057.178224390026
 30
0.0
 11
5563.352747048994
 21
8027.678224390026
 31
0.0
  0
LINE
  5
16054
330
747D
100
AcDbEntity
  8
部品1
100
AcDbLine
 10
5563.352747048994
 20
8057.178224389968
 30
0.0
 11
5563.35274704899
 21
8027.678224390019
 31
0.0
  0
LINE
  5
16055
330
747D
100
AcDbEntity
  8
部品1
100
AcDbLine
 10
5561.352747048993
 20
8053.678224390075
 30
0.0
 11
5561.352747048993
 21
8027.678224390019
 31
0.0
  0
LINE
  5
16056
330
747D
100
AcDbEntity
  8
部品1
 48
5.0
100
AcDbLine
 10
5551.352747048993
 20
8082.678224390026
 30
0.0
 11
5551.352747048998
 21
8057.178224390026
 31
0.0
  0
LINE
  5
16057
330
747D
100
AcDbEntity
  8
部品1
 48
5.0
100
AcDbLine
 10
5582.352747048993
 20
8082.678224390026
 30
0.0
 11
5582.352747048993
 21
8057.178224390026
 31
0.0
  0
LINE
  5
16058
330
747D
100
AcDbEntity
  8
部品1
 48
5.0
100
AcDbLine
 10
5638.352747048994
 20
8082.678224390026
 30
0.0
 11
5661.352747048994
 21
8082.678224390026
 31
0.0
  0
LINE
  5
16059
330
747D
100
AcDbEntity
  8
部品1
 48
50.0
100
AcDbLine
 10
5661.852747048978
 20
8159.178224414699
 30
0.0
 11
5634.352747048978
 21
8131.178224390025
 31
0.0
  0
LINE
  5
1605A
330
747D
100
AcDbEntity
  8
部品1
 48
5.0
100
AcDbLine
 10
5649.352747048993
 20
8057.178224390026
 30
0.0
 11
5649.352747048993
 21
8027.678224390026
 31
0.0
  0
LINE
  5
1605B
330
747D
100
AcDbEntity
  8
部品1
100
AcDbLine
 10
5649.352747048993
 20
8057.178224389975
 30
0.0
 11
5649.352747048993
 21
8027.678224390026
 31
0.0
  0
LINE
  5
1605C
330
747D
100
AcDbEntity
  8
部品1
100
AcDbLine
 10
5651.352747048993
 20
8053.678224390047
 30
0.0
 11
5651.352747048993
 21
8027.678224390012
 31
0.0
  0
LINE
  5
1605D
330
747D
100
AcDbEntity
  8
部品1
 48
5.0
100
AcDbLine
 10
5630.352747048998
 20
8082.678224390026
 30
0.0
 11
5630.352747048994
 21
8057.178224390026
 31
0.0
  0
LINE
  5
1605E
330
747D
100
AcDbEntity
  8
部品1
 48
5.0
100
AcDbLine
 10
5661.352747048994
 20
8082.678224390026
 30
0.0
 11
5661.352747048997
 21
8057.178224390026
 31
0.0
  0
LINE
  5
1605F
330
747D
100
AcDbEntity
  8
破線
 48
10.0
100
AcDbLine
 10
5685.352737827627
 20
8855.178252685744
 30
0.0
 11
5685.352734617874
 21
9078.178224390033
 31
0.0
  0
LINE
  5
16060
330
747D
100
AcDbEntity
  8
破線
 48
10.0
100
AcDbLine
 10
5527.352740851609
 20
8855.178225360033
 30
0.0
 11
5527.352738694434
 21
9078.178224390091
 31
0.0
  0
LINE
  5
16061
330
747D
100
AcDbEntity
  8
部品1
 48
5.0
100
AcDbLine
 10
5606.352747048979
 20
8502.678224390026
 30
0.0
 11
5578.352747048928
 21
8502.678224390033
 31
0.0
  0
LINE
  5
16062
330
747D
100
AcDbEntity
  8
部品1
 48
50.0
100
AcDbLine
 10
5606.352747048972
 20
9082.678224390033
 30
0.0
 11
5634.352747048954
 21
9082.678224390033
 31
0.0
  0
LINE
  5
16063
330
747D
100
AcDbEntity
  8
部品1
 48
5.0
100
AcDbLine
 10
5606.352747048979
 20
9082.678224390026
 30
0.0
 11
5578.352747048928
 21
9082.678224390033
 31
0.0
  0
LINE
  5
16064
330
747D
100
AcDbEntity
  8
部品1
 48
50.0
100
AcDbLine
 10
5606.352747048972
 20
9120.678224390031
 30
0.0
 11
5634.352747048954
 21
9120.678224390031
 31
0.0
  0
LINE
  5
16065
330
747D
100
AcDbEntity
  8
部品1
100
AcDbLine
 10
4814.352747049
 20
9529.678224389988
 30
0.0
 11
5603.733450067622
 21
9529.678224390011
 31
0.0
  0
LINE
  5
16066
330
747D
100
AcDbEntity
  8
部品1
100
AcDbLine
 10
4815.852753726627
 20
9528.178224390046
 30
0.0
 11
5576.852753726631
 21
9528.178224390098
 31
0.0
  0
DIMENSION
  5
16067
330
747D
100
AcDbEntity
  8
寸法
100
AcDbDimension
  2
*D25
 10
5551.352747049001
 20
9773.486444015087
 30
0.0
 11
5196.602747049001
 21
9773.486444015087
 31
0.0
 70
   160
 71
     5
 42
710.0
  3
INABA_S40G
100
AcDbAlignedDimension
 13
4841.352747049
 23
9557.678224390018
 33
0.0
 14
5551.352747049001
 24
9557.678224390105
 34
0.0
100
AcDbRotatedDimension
1001
ACAD
1000
DSTYLE
1002
{
1002
}
  0
LINE
  5
16068
330
747D
100
AcDbEntity
  8
部品1
100
AcDbLine
 10
3994.352747049003
 20
9529.678224389988
 30
0.0
 11
4783.733450067622
 21
9529.678224390011
 31
0.0
  0
LINE
  5
16069
330
747D
100
AcDbEntity
  8
部品1
100
AcDbLine
 10
3995.852753726574
 20
9528.178224390046
 30
0.0
 11
4756.852753726631
 21
9528.178224390098
 31
0.0
  0
DIMENSION
  5
1606A
330
747D
100
AcDbEntity
  8
寸法
100
AcDbDimension
  2
*D27
 10
4731.352747049
 20
9773.486444015087
 30
0.0
 11
4376.602747049001
 21
9773.486444015087
 31
0.0
 70
   160
 71
     5
 42
710.0
  3
INABA_S40G
100
AcDbAlignedDimension
 13
4021.352747049
 23
9557.678224390018
 33
0.0
 14
4731.352747049
 24
9557.678224390105
 34
0.0
100
AcDbRotatedDimension
1001
ACAD
1000
DSTYLE
1002
{
1002
}
  0
LINE
  5
1606B
330
747D
100
AcDbEntity
  8
細線
 48
50.0
100
AcDbLine
 10
4346.352747048964
 20
9536.178224389933
 30
0.0
 11
4346.352747048964
 21
9557.678224389929
 31
0.0
  0
LINE
  5
1606C
330
747D
100
AcDbEntity
  8
細線
 48
50.0
100
AcDbLine
 10
4406.352747048964
 20
9536.178224389933
 30
0.0
 11
4406.352747048964
 21
9557.678224389938
 31
0.0
  0
LINE
  5
1606D
330
747D
100
AcDbEntity
  8
細線
 48
50.0
100
AcDbLine
 10
4406.352747048964
 20
9536.178224389933
 30
0.0
 11
4346.352747048964
 21
9536.178224389932
 31
0.0
  0
DIMENSION
  5
1606E
330
747D
100
AcDbEntity
  8
寸法
 48
50.0
100
AcDbDimension
  2
*D26
 10
4841.352747049
 20
9773.486444015087
 30
0.0
 11
4786.352747049
 21
9873.486444015087
 31
0.0
 70
    32
 71
     5
 42
110.0
  3
INABA_S40G
100
AcDbAlignedDimension
 13
4731.352747049
 23
9557.678224390105
 33
0.0
 14
4841.352747049
 24
9557.678224390084
 34
0.0
100
AcDbRotatedDimension
  0
LINE
  5
1606F
330
747D
100
AcDbEntity
  8
部品1
 48
5.0
100
AcDbLine
 10
4814.352747048928
 20
9502.678224390033
 30
0.0
 11
4758.352747048927
 21
9502.678224390033
 31
0.0
  0
LINE
  5
16070
330
747D
100
AcDbEntity
  8
部品1
 48
5.0
100
AcDbLine
 10
4761.062021496175
 20
9557.678224390032
 30
0.0
 11
4783.7334500676
 21
9529.678224390032
 31
0.0
  0
LINE
  5
16071
330
747D
100
AcDbEntity
  8
部品1
 48
5.0
100
AcDbLine
 10
4731.352747048997
 20
9529.678224390032
 30
0.0
 11
4731.352747049
 21
9557.678224390032
 31
0.0
  0
LINE
  5
16072
330
747D
100
AcDbEntity
  8
部品1
 48
50.0
100
AcDbLine
 10
4756.852753726631
 20
9528.123711730275
 30
0.0
 11
4758.352747048927
 21
9529.678224390032
 31
0.0
  0
LINE
  5
16073
330
747D
100
AcDbEntity
  8
部品1
 48
5.0
100
AcDbLine
 10
4841.352747049
 20
9557.678224390032
 30
0.0
 11
4841.352747048997
 21
9529.678224390039
 31
0.0
  0
LINE
  5
16074
330
747D
100
AcDbEntity
  8
部品1
 48
50.0
100
AcDbLine
 10
4815.852747048932
 20
9528.123702869775
 30
0.0
 11
4814.352747048928
 21
9529.678224390032
 31
0.0
  0
LINE
  5
16075
330
747D
100
AcDbEntity
  8
細線
 48
50.0
100
AcDbLine
 10
5226.352747048964
 20
9536.178224389933
 30
0.0
 11
5226.352747048964
 21
9557.678224389938
 31
0.0
  0
LINE
  5
16076
330
747D
100
AcDbEntity
  8
細線
 48
50.0
100
AcDbLine
 10
5166.352747048964
 20
9536.178224389933
 30
0.0
 11
5166.352747048964
 21
9557.678224389929
 31
0.0
  0
LINE
  5
16077
330
747D
100
AcDbEntity
  8
細線
 48
50.0
100
AcDbLine
 10
5226.352747048964
 20
9536.178224389933
 30
0.0
 11
5166.352747048964
 21
9536.178224389932
 31
0.0
  0
LINE
  5
16078
330
747D
100
AcDbEntity
  8
部品1
 48
5.0
100
AcDbLine
 10
5661.352747049001
 20
9557.678224390032
 30
0.0
 11
5661.352747048997
 21
9529.678224390039
 31
0.0
  0
LINE
  5
16079
330
747D
100
AcDbEntity
  8
部品1
 48
5.0
100
AcDbLine
 10
5551.352747048998
 20
9529.678224390032
 30
0.0
 11
5551.352747049001
 21
9557.678224390032
 31
0.0
  0
LINE
  5
1607A
330
747D
100
AcDbEntity
  8
部品1
 48
5.0
100
AcDbLine
 10
5581.062021496174
 20
9557.678224390032
 30
0.0
 11
5603.733450067601
 21
9529.678224390032
 31
0.0
  0
LINE
  5
1607B
330
747D
100
AcDbEntity
  8
部品1
 48
5.0
100
AcDbLine
 10
5634.352747048928
 20
9502.678224390033
 30
0.0
 11
5578.352747048928
 21
9502.678224390033
 31
0.0
  0
LINE
  5
1607C
330
747D
100
AcDbEntity
  8
部品1
 48
50.0
100
AcDbLine
 10
5576.852753726631
 20
9528.123711730275
 30
0.0
 11
5578.352747048928
 21
9529.678224390032
 31
0.0
  0
LINE
  5
1607D
330
747D
100
AcDbEntity
  8
部品1
 48
50.0
100
AcDbLine
 10
5635.852747048932
 20
9528.123702869775
 30
0.0
 11
5634.352747048928
 21
9529.678224390032
 31
0.0
  0
DIMENSION
  5
160D4
330
747D
100
AcDbEntity
  8
寸法
 48
50.0
100
AcDbDimension
  2
*D32
 10
5661.352747049001
 20
9773.486444015087
 30
0.0
 11
5606.352747049001
 21
9873.486444015087
 31
0.0
 70
    32
 71
     5
 42
110.0
  3
INABA_S40G
100
AcDbAlignedDimension
 13
5551.352747049001
 23
9557.678224390105
 33
0.0
 14
5661.352747049001
 24
9557.678224390084
 34
0.0
100
AcDbRotatedDimension
  0
DIMENSION
  5
16112
330
747D
100
AcDbEntity
  8
寸法
 48
50.0
100
AcDbDimension
  2
*D33
 10
4706.352747048994
 20
7587.854556594904
 30
0.0
 11
4363.852747048995
 21
7587.854556594904
 31
0.0
 70
   160
 71
     5
 42
684.9999999999964
  3
INABA_S40G
100
AcDbAlignedDimension
 13
4021.352747048997
 23
8027.678224389982
 33
0.0
 14
4706.352747048994
 24
8027.678224389944
 34
0.0
100
AcDbRotatedDimension
  0
MTEXT
  5
16768
330
747D
100
AcDbEntity
  8
寸法
 62
     7
 48
50.0
100
AcDbMText
 10
5211.632558014961
 20
9147.791971927317
 30
0.0
 40
96.0
 41
0.0
 71
     5
 72
     1
  1
棚 2段
  7
STYLE1
 73
     1
 44
1.0
1001
ACAD
1000
MTEXTBEGIN
1070
    73
1070
     1
1070
    44
1040
1.0
1070
    74
1070
     0
1000
MTEXTEND
  0
MTEXT
  5
16769
330
747D
100
AcDbEntity
  8
寸法
 62
     7
 48
50.0
100
AcDbMText
 10
6031.632558014969
 20
9147.79197192732
 30
0.0
 40
96.0
 41
0.0
 71
     5
 72
     1
  1
棚 2段
  7
STYLE1
 73
     1
 44
1.0
1001
ACAD
1000
MTEXTBEGIN
1070
    73
1070
     1
1070
    44
1040
1.0
1070
    74
1070
     0
1000
MTEXTEND
  0
MTEXT
  5
1676A
330
747D
100
AcDbEntity
  8
寸法
 62
     7
 48
50.0
100
AcDbMText
 10
7671.632551337272
 20
9147.791971927308
 30
0.0
 40
96.0
 41
0.0
 71
     5
 72
     1
  1
棚 2段
  7
STYLE1
 73
     1
 44
1.0
1001
ACAD
1000
MTEXTBEGIN
1070
    73
1070
     1
1070
    44
1040
1.0
1070
    74
1070
     0
1000
MTEXTEND
  0
MTEXT
  5
1676B
330
747D
100
AcDbEntity
  8
寸法
 62
     7
 48
50.0
100
AcDbMText
 10
6851.632558014968
 20
9147.79197192732
 30
0.0
 40
96.0
 41
0.0
 71
     5
 72
     1
  1
棚 2段
  7
STYLE1
 73
     1
 44
1.0
1001
ACAD
1000
MTEXTBEGIN
1070
    73
1070
     1
1070
    44
1040
1.0
1070
    74
1070
     0
1000
MTEXTEND
  0
MTEXT
  5
1676C
330
747D
100
AcDbEntity
  8
寸法
 62
     7
 48
50.0
100
AcDbMText
 10
8491.632544659573
 20
9147.791971927263
 30
0.0
 40
96.0
 41
0.0
 71
     5
 72
     1
  1
棚 2段
  7
STYLE1
 73
     1
 44
1.0
1001
ACAD
1000
MTEXTBEGIN
1070
    73
1070
     1
1070
    44
1040
1.0
1070
    74
1070
     0
1000
MTEXTEND
  0
DIMENSION
  5
1697C
330
747D
100
AcDbEntity
  8
寸法
100
AcDbDimension
  2
*D34
 10
10671.26156891717
 20
3290.889586175449
 30
0.0
 11
10671.26156891717
 21
4195.924598051834
 31
0.0
 70
   160
 71
     5
 42
1789.999999999998
  3
INABA_S40G
100
AcDbAlignedDimension
 13
11266.2222895646
 23
5080.889586175446
 33
0.0
 14
11266.2222895646
 24
3290.889586175448
 34
0.0
 50
90.0
100
AcDbRotatedDimension
1001
ACAD
1000
DSTYLE
1002
{
1070
   288
1070
     1
1002
}
  0
LINE
  5
1697D
330
747D
100
AcDbEntity
  8
部品1
 48
50.0
100
AcDbLine
 10
11266.2222895646
 20
3290.889586175448
 30
0.0
 11
11273.22465960937
 21
3290.889586175448
 31
0.0
  0
LINE
  5
1697E
330
747D
100
AcDbEntity
  8
部品1
 48
0.2
100
AcDbLine
 10
11266.2222895646
 20
3301.639586175448
 30
0.0
 11
11266.2222895646
 21
3290.889586175448
 31
0.0
  0
LINE
  5
1697F
330
747D
100
AcDbEntity
  8
部品1
 48
50.0
100
AcDbLine
 10
11266.2222895646
 20
3301.639586175448
 30
0.0
 11
11273.22465960937
 21
3301.639586175448
 31
0.0
  0
LINE
  5
16980
330
747D
100
AcDbEntity
  8
部品1
 48
50.0
100
AcDbLine
 10
11266.2222895646
 20
5070.139586175445
 30
0.0
 11
11273.22465960937
 21
5070.139586175445
 31
0.0
  0
LINE
  5
16981
330
747D
100
AcDbEntity
  8
部品1
 48
0.2
100
AcDbLine
 10
11266.2222895646
 20
5080.889586175445
 30
0.0
 11
11266.2222895646
 21
5070.139586175447
 31
0.0
  0
LINE
  5
16982
330
747D
100
AcDbEntity
  8
部品1
 48
50.0
100
AcDbLine
 10
11888.22465960938
 20
5446.757725276724
 30
0.0
 11
12188.22465960937
 21
5425.157725276726
 31
0.0
  0
LINE
  5
16983
330
747D
100
AcDbEntity
  8
細線
 48
50.0
100
AcDbLine
 10
12405.72465960938
 20
5080.889586175445
 30
0.0
 11
12405.72465960938
 21
3290.889586175445
 31
0.0
  0
LINE
  5
16984
330
747D
100
AcDbEntity
  8
細線
 48
50.0
100
AcDbLine
 10
12390.72465960938
 20
5080.889586175445
 30
0.0
 11
12390.72465960938
 21
3290.889586175445
 31
0.0
  0
LINE
  5
16985
330
747D
100
AcDbEntity
  8
細線
 48
50.0
100
AcDbLine
 10
12530.72465960938
 20
5080.889586175445
 30
0.0
 11
12530.72465960938
 21
3290.889586175445
 31
0.0
  0
LINE
  5
16986
330
747D
100
AcDbEntity
  8
細線
 48
50.0
100
AcDbLine
 10
12545.72465960938
 20
5080.889586175445
 30
0.0
 11
12545.72465960938
 21
3290.889586175445
 31
0.0
  0
LINE
  5
16987
330
747D
100
AcDbEntity
  8
細線
 48
50.0
100
AcDbLine
 10
12685.72465960938
 20
5080.889586175445
 30
0.0
 11
12685.72465960938
 21
3290.889586175445
 31
0.0
  0
LINE
  5
16988
330
747D
100
AcDbEntity
  8
細線
 48
50.0
100
AcDbLine
 10
12670.72465960938
 20
5080.889586175445
 30
0.0
 11
12670.72465960938
 21
3290.889586175445
 31
0.0
  0
LINE
  5
16989
330
747D
100
AcDbEntity
  8
部品1
100
AcDbLine
 10
12328.22465960937
 20
5080.889586175445
 30
0.0
 11
12328.22465960937
 21
3290.889586175445
 31
0.0
  0
TEXT
  5
1698A
330
747D
100
AcDbEntity
  8
部品1
 48
50.0
100
AcDbText
 10
12365.31750689723
 20
5345.140489210875
 30
0.0
 40
120.0
  1
64
 50
90.0
  7
STYLE1
100
AcDbText
  0
TEXT
  5
1698B
330
747D
100
AcDbEntity
  8
部品1
 48
50.0
100
AcDbText
 10
11876.4924948331
 20
5482.641747429157
 30
0.0
 40
120.0
  1
1000
  7
STYLE1
100
AcDbText
  0
LINE
  5
1698C
330
747D
100
AcDbEntity
  8
部品1
 48
50.0
100
AcDbLine
 10
12188.22465960937
 20
5446.757725276724
 30
0.0
 11
12188.22465960937
 21
5425.157725276726
 31
0.0
  0
LINE
  5
1698D
330
747D
100
AcDbEntity
  8
部品1
 48
50.0
100
AcDbLine
 10
11888.22465960938
 20
5446.757725276724
 30
0.0
 11
12188.22465960937
 21
5446.757725276724
 31
0.0
  0
DIMENSION
  5
1698E
330
747D
100
AcDbEntity
  8
寸法
 48
50.0
100
AcDbDimension
  2
*D35
 10
10620.95840789799
 20
5337.71207707226
 30
0.0
 11
10629.63615154988
 21
5567.548316089148
 31
0.0
 70
   160
 71
     5
 42
141.0
  3
INABA_S40G
100
AcDbAlignedDimension
 13
11228.56722421133
 23
5173.670611244411
 33
0.0
 14
11233.88705836328
 24
5314.570218641295
 34
0.0
 50
87.83775598715743
100
AcDbRotatedDimension
1001
ACAD
1000
DSTYLE
1002
{
1070
   174
1070
     0
1070
   272
1070
     1
1070
   288
1070
     0
1070
   341
1005
0
1002
}
  0
DIMENSION
  5
1698F
330
747D
100
AcDbEntity
  8
寸法
 48
50.0
100
AcDbDimension
  2
*D36
 10
12883.22465960938
 20
5714.547039754749
 30
0.0
 11
13089.27190370386
 21
5714.547039754749
 31
0.0
 70
   160
 71
     5
 42
80.0
  3
INABA_S40G
100
AcDbAlignedDimension
 13
12803.22465960938
 23
5262.700265787098
 33
0.0
 14
12883.22465960938
 24
5260.889586175446
 34
0.0
100
AcDbRotatedDimension
1001
ACAD
1000
DSTYLE
1002
{
1070
   174
1070
     0
1070
   272
1070
     1
1070
   288
1070
     0
1070
   341
1005
0
1002
}
  0
ARC
  5
16990
330
747D
100
AcDbEntity
  8
部品1
100
AcDbCircle
 10
12868.85219542331
 20
5154.323387059663
 30
0.0
 40
0.7
100
AcDbArc
 50
275.0921697642102
 51
354.1866997667606
  0
ARC
  5
16991
330
747D
100
AcDbEntity
  8
部品1
100
AcDbCircle
 10
12879.71154117263
 20
5231.366641877587
 30
0.0
 40
0.7
100
AcDbArc
 50
275.0921697642102
 51
354.1866997665532
  0
ARC
  5
16992
330
747D
100
AcDbEntity
  8
部品1
100
AcDbCircle
 10
12880.03994641523
 20
5227.681245020496
 30
0.0
 40
3.0
100
AcDbArc
 50
95.0921697642102
 51
174.1866997665532
  0
ARC
  5
16993
330
747D
100
AcDbEntity
  8
部品1
100
AcDbCircle
 10
12869.18060066591
 20
5150.637990202572
 30
0.0
 40
3.0
100
AcDbArc
 50
95.0921697642102
 51
174.1866997665532
  0
ARC
  5
16994
330
747D
100
AcDbEntity
  8
部品1
 48
50.0
100
AcDbCircle
 10
12858.15246539081
 20
5141.047245598691
 30
0.0
 40
7.0
100
AcDbArc
 50
267.8377559869487
 51
354.1866997665532
  0
ARC
  5
16995
330
747D
100
AcDbEntity
  8
部品1
 48
50.0
100
AcDbCircle
 10
12875.47456185532
 20
5251.949792740862
 30
0.0
 40
7.0
100
AcDbArc
 50
354.1866997665532
 51
87.03587545283093
  0
LINE
  5
16996
330
747D
100
AcDbEntity
  8
部品1
 48
50.0
100
AcDbLine
 10
12866.1960289953
 20
5150.941851919475
 30
0.0
 11
12865.11646595556
 21
5140.338234925917
 31
0.0
  0
LINE
  5
16997
330
747D
100
AcDbEntity
  8
部品1
 48
50.0
100
AcDbLine
 10
12877.05537474462
 20
5227.9851067374
 30
0.0
 11
12869.54859547979
 21
5154.252485992387
 31
0.0
  0
LINE
  5
16998
330
747D
100
AcDbEntity
  8
部品1
 48
50.0
100
AcDbLine
 10
12882.43856242007
 20
5251.240782068089
 30
0.0
 11
12880.40794122911
 21
5231.295740810309
 31
0.0
  0
ARC
  5
16999
330
747D
100
AcDbEntity
  8
部品1
100
AcDbCircle
 10
11219.26175148074
 20
5194.70374513435
 30
0.0
 40
0.7
100
AcDbArc
 50
181.0932240292114
 51
260.1877540314867
  0
ARC
  5
1699A
330
747D
100
AcDbEntity
  8
部品1
100
AcDbCircle
 10
11214.48907788313
 20
5287.569523334468
 30
0.0
 40
0.7
100
AcDbArc
 50
181.0932240292114
 51
260.1877540314867
  0
ARC
  5
1699B
330
747D
100
AcDbEntity
  8
部品1
100
AcDbCircle
 10
11213.85852348011
 20
5283.92364879707
 30
0.0
 40
3.0
100
AcDbArc
 50
1.093224029315636
 51
80.18775403169653
  0
ARC
  5
1699C
330
747D
100
AcDbEntity
  8
部品1
100
AcDbCircle
 10
11218.63119707771
 20
5191.057870596951
 30
0.0
 40
3.0
100
AcDbArc
 50
1.093224029315636
 51
80.18775403148671
  0
ARC
  5
1699D
330
747D
100
AcDbEntity
  8
部品1
 48
50.0
100
AcDbCircle
 10
11228.83132945292
 20
5180.665627214469
 30
0.0
 40
7.0
100
AcDbArc
 50
181.0932240293156
 51
267.8377559869487
  0
ARC
  5
1699E
330
747D
100
AcDbEntity
  8
部品1
 48
50.0
100
AcDbCircle
 10
11220.40767135082
 20
5307.616686747565
 30
0.0
 40
7.0
100
AcDbArc
 50
87.03587545283093
 51
181.0932240293156
  0
LINE
  5
1699F
330
747D
100
AcDbEntity
  8
部品1
 48
50.0
100
AcDbLine
 10
11221.63065100414
 20
5191.115108200134
 30
0.0
 11
11221.83260362458
 21
5180.532072807042
 31
0.0
  0
LINE
  5
169A0
330
747D
100
AcDbEntity
  8
細線
 48
50.0
100
AcDbLine
 10
11219.02455794747
 20
5194.045156318943
 30
0.0
 11
12869.02822237811
 21
5153.645880962875
 31
0.0
  0
LINE
  5
169A1
330
747D
100
AcDbEntity
  8
細線
 48
50.0
100
AcDbLine
 10
11214.26408271019
 20
5286.906668016808
 30
0.0
 11
12879.90006745536
 21
5230.692506994405
 31
0.0
  0
LINE
  5
169A2
330
747D
100
AcDbEntity
  8
部品1
 48
50.0
100
AcDbLine
 10
11216.85797740654
 20
5283.980886400254
 30
0.0
 11
11218.5618788979
 21
5194.690389693608
 31
0.0
  0
LINE
  5
169A3
330
747D
100
AcDbEntity
  8
部品1
 48
50.0
100
AcDbLine
 10
11213.40894552248
 20
5307.483132340138
 30
0.0
 11
11213.78920530029
 21
5287.556167893726
 31
0.0
  0
LINE
  5
169A4
330
747D
100
AcDbEntity
  8
細線
 48
50.0
100
AcDbLine
 10
12850.22465960937
 20
5260.266608829166
 30
0.0
 11
12845.47697672137
 21
5134.520836338423
 31
0.0
  0
LINE
  5
169A5
330
747D
100
AcDbEntity
  8
細線
 48
50.0
100
AcDbLine
 10
11246.22465960938
 20
5313.28926255085
 30
0.0
 11
11240.93555805387
 21
5173.203629923495
 31
0.0
  0
LINE
  5
169A6
330
747D
100
AcDbEntity
  8
部品1
100
AcDbLine
 10
11228.56722421133
 20
5173.670611244411
 30
0.0
 11
12857.88836014922
 21
5134.052229628633
 31
0.0
  0
LINE
  5
169A7
330
747D
100
AcDbEntity
  8
部品1
100
AcDbLine
 10
11220.76964596634
 20
5314.607321509711
 30
0.0
 11
12875.83653647084
 21
5258.94042750301
 31
0.0
  0
LINE
  5
169A8
330
747D
100
AcDbEntity
  8
細線
 48
50.0
100
AcDbLine
 10
11405.72465960937
 20
5080.889586175445
 30
0.0
 11
11405.72465960937
 21
3290.889586175445
 31
0.0
  0
LINE
  5
169A9
330
747D
100
AcDbEntity
  8
細線
 48
50.0
100
AcDbLine
 10
11390.72465960937
 20
5080.889586175445
 30
0.0
 11
11390.72465960937
 21
3290.889586175445
 31
0.0
  0
LINE
  5
169AA
330
747D
100
AcDbEntity
  8
細線
 48
50.0
100
AcDbLine
 10
11530.72465960937
 20
5080.889586175445
 30
0.0
 11
11530.72465960937
 21
3290.889586175445
 31
0.0
  0
LINE
  5
169AB
330
747D
100
AcDbEntity
  8
細線
 48
50.0
100
AcDbLine
 10
11545.72465960937
 20
5080.889586175445
 30
0.0
 11
11545.72465960937
 21
3290.889586175445
 31
0.0
  0
LINE
  5
169AC
330
747D
100
AcDbEntity
  8
細線
 48
50.0
100
AcDbLine
 10
11685.72465960937
 20
5080.889586175445
 30
0.0
 11
11685.72465960937
 21
3290.889586175445
 31
0.0
  0
LINE
  5
169AD
330
747D
100
AcDbEntity
  8
細線
 48
50.0
100
AcDbLine
 10
11670.72465960937
 20
5080.889586175445
 30
0.0
 11
11670.72465960937
 21
3290.889586175445
 31
0.0
  0
LINE
  5
169AE
330
747D
100
AcDbEntity
  8
細線
 48
50.0
100
AcDbLine
 10
12248.22465960937
 20
5080.889586175445
 30
0.0
 11
12248.22465960937
 21
3290.889586175445
 31
0.0
  0
LINE
  5
169AF
330
747D
100
AcDbEntity
  8
細線
 48
50.0
100
AcDbLine
 10
12263.22465960937
 20
5080.889586175445
 30
0.0
 11
12263.22465960937
 21
3290.889586175445
 31
0.0
  0
LWPOLYLINE
  5
169B0
330
747D
100
AcDbEntity
  8
部品1
100
AcDbPolyline
 90
        4
 70
     1
 43
0.0
 10
11586.48932649515
 20
2537.813005358728
 10
11586.48932649515
 20
2297.920683813196
 10
12349.95999272359
 20
2297.920683813196
 10
12349.95999272359
 20
2537.813005358728
  0
TEXT
  5
169B1
330
747D
100
AcDbEntity
  8
部品1
100
AcDbText
 10
11675.93542791876
 20
2344.919476140203
 30
0.0
 40
135.0
  1
側面図
  7
STYLE2
100
AcDbText
  0
LINE
  5
169B2
330
747D
100
AcDbEntity
  8
部品1
100
AcDbLine
 10
11273.22465960937
 20
3240.889586175447
 30
0.0
 11
12803.22465960938
 21
3240.889586175445
 31
0.0
  0
DIMENSION
  5
169B3
330
747D
100
AcDbEntity
  8
寸法
 48
50.0
100
AcDbDimension
  2
*D37
 10
11213.22465960937
 20
5922.721360946713
 30
0.0
 11
12100.3494893112
 21
5922.721360946713
 31
0.0
 70
   160
 71
     5
 42
1670.0
  3
INABA_S40G
100
AcDbAlignedDimension
 13
12883.22465960938
 23
5260.889586175446
 33
0.0
 14
11213.22465960937
 24
5315.88958617545
 34
0.0
100
AcDbRotatedDimension
1001
ACAD
1000
DSTYLE
1002
{
1070
   174
1070
     0
1070
   272
1070
     1
1070
   288
1070
     0
1070
   341
1005
0
1002
}
  0
DIMENSION
  5
169B4
330
747D
100
AcDbEntity
  8
寸法
 48
50.0
100
AcDbDimension
  2
*D38
 10
11213.22465960937
 20
5714.547039754749
 30
0.0
 11
10903.58686433378
 21
5714.547039754749
 31
0.0
 70
   160
 71
     5
 42
60.0
  3
INABA_S40G
100
AcDbAlignedDimension
 13
11273.22465960937
 23
5311.891204298421
 33
0.0
 14
11213.22465960937
 24
5315.88958617545
 34
0.0
100
AcDbRotatedDimension
1001
ACAD
1000
DSTYLE
1002
{
1070
   174
1070
     0
1070
   272
1070
     1
1070
   288
1070
     0
1070
   341
1005
0
1002
}
  0
DIMENSION
  5
169B5
330
747D
100
AcDbEntity
  8
寸法
 48
50.0
100
AcDbDimension
  2
*D39
 10
11273.22465960937
 20
5714.547039754749
 30
0.0
 11
12083.04369249992
 21
5714.547039754749
 31
0.0
 70
   160
  1
柱外寸法<>
 71
     5
 42
1530.0
  3
INABA_S40G
100
AcDbAlignedDimension
 13
12803.22465960938
 23
5262.700265787098
 33
0.0
 14
11273.22465960937
 24
5311.891204298421
 34
0.0
100
AcDbRotatedDimension
1001
ACAD
1000
DSTYLE
1002
{
1070
   174
1070
     0
1070
   272
1070
     1
1070
   288
1070
     0
1070
   341
1005
0
1002
}
  0
DIMENSION
  5
169B6
330
747D
100
AcDbEntity
  8
寸法
100
AcDbDimension
  2
*D40
 10
13508.1518175815
 20
5260.889586175446
 30
0.0
 11
13408.14000655788
 21
4250.889586175448
 31
0.0
 70
    32
 71
     5
 42
2020.0
  3
INABA_S40G
100
AcDbAlignedDimension
 13
12803.22465960938
 23
3240.889586175447
 33
0.0
 14
12883.22465960938
 24
5260.889586175446
 34
0.0
 50
90.0
100
AcDbRotatedDimension
1001
ACAD
1000
DSTYLE
1002
{
1070
   174
1070
     0
1070
   272
1070
     1
1070
   288
1070
     0
1070
   341
1005
0
1002
}
  0
LINE
  5
169B7
330
747D
100
AcDbEntity
  8
部品1
100
AcDbLine
 10
12748.22465960938
 20
5080.889586175445
 30
0.0
 11
12748.22465960938
 21
3290.889586175445
 31
0.0
  0
LINE
  5
169B8
330
747D
100
AcDbEntity
  8
部品1
100
AcDbLine
 10
12803.22465960937
 20
5135.526167010698
 30
0.0
 11
12803.22465960938
 21
3140.889586175445
 31
0.0
  0
LINE
  5
169B9
330
747D
100
AcDbEntity
  8
部品1
100
AcDbLine
 10
11748.22465960937
 20
5080.889586175445
 30
0.0
 11
11748.22465960937
 21
3290.889586175445
 31
0.0
  0
DIMENSION
  5
169BA
330
747D
100
AcDbEntity
  8
寸法
100
AcDbDimension
  2
*D41
 10
10671.26156891717
 20
3240.889586175447
 30
0.0
 11
10671.26156891717
 21
2934.842342080956
 31
0.0
 70
   160
 71
     5
 42
50.00000000000227
  3
INABA_S40G
100
AcDbAlignedDimension
 13
11266.2222895646
 23
3290.889586175448
 33
0.0
 14
11218.22465960937
 24
3240.889586175447
 34
0.0
 50
90.0
100
AcDbRotatedDimension
1001
ACAD
1000
DSTYLE
1002
{
1070
   174
1070
     0
1070
   272
1070
     1
1070
   288
1070
     0
1070
   341
1005
0
1002
}
  0
DIMENSION
  5
169BB
330
747D
100
AcDbEntity
  8
寸法
100
AcDbDimension
  2
*D42
 10
10368.95284796889
 20
5315.88958617545
 30
0.0
 11
10368.95284796889
 21
4216.096576595247
 31
0.0
 70
   160
 71
     5
 42
2075.000000000004
  3
INABA_S40G
100
AcDbAlignedDimension
 13
11273.22465960937
 23
3240.889586175447
 33
0.0
 14
11213.22465960937
 24
5315.88958617545
 34
0.0
 50
90.0
100
AcDbRotatedDimension
1001
ACAD
1000
DSTYLE
1002
{
1070
   174
1070
     0
1070
   272
1070
     1
1070
   288
1070
     0
1070
   341
1005
0
1002
}
  0
LINE
  5
169BC
330
747D
100
AcDbEntity
  8
部品1
100
AcDbLine
 10
11273.22465960938
 20
5172.466480115887
 30
0.0
 11
11273.22465960937
 21
3140.889586175445
 31
0.0
  0
LINE
  5
169BD
330
747D
100
AcDbEntity
  8
部品1
100
AcDbLine
 10
11328.22465960937
 20
5080.889586175445
 30
0.0
 11
11328.22465960937
 21
3290.889586175445
 31
0.0
  0
LINE
  5
169BE
330
747D
100
AcDbEntity
  8
部品1
100
AcDbLine
 10
11273.22465960937
 20
3290.889586175445
 30
0.0
 11
12803.22465960938
 21
3290.889586175447
 31
0.0
  0
LINE
  5
169BF
330
747D
100
AcDbEntity
  8
部品1
100
AcDbLine
 10
11266.2222895646
 20
5080.889586175446
 30
0.0
 11
12803.22465960938
 21
5080.889586175445
 31
0.0
  0
TEXT
  5
169C0
330
747D
100
AcDbEntity
  8
文字
 62
     7
 48
50.0
100
AcDbText
 10
13583.1181901657
 20
9570.013745883729
 30
0.0
 40
100.0
  1
母屋中
  7
STYLE1
100
AcDbText
  0
TEXT
  5
169C1
330
747D
100
AcDbEntity
  8
文字
 62
     7
 48
50.0
100
AcDbText
 10
15022.63965474518
 20
9570.013745883725
 30
0.0
 40
100.0
  1
F12            1.0
  7
STYLE1
100
AcDbText
  0
TEXT
  5
169C2
330
747D
100
AcDbEntity
  8
文字
 62
     7
 48
50.0
100
AcDbText
 10
13248.77747366447
 20
8890.013745883731
 30
0.0
 40
100.0
  1
14
  7
STYLE1
100
AcDbText
  0
LINE
  5
169C3
330
747D
100
AcDbEntity
  8
仕様書枠
 48
50.0
100
AcDbLine
 10
16307.2
 20
9539.6
 30
0.0
 11
13127.2
 21
9539.6
 31
0.0
  0
TEXT
  5
169C4
330
747D
100
AcDbEntity
  8
文字
 62
     7
 48
50.0
100
AcDbText
 10
14271.39351435261
 20
483.8967129911416
 30
0.0
 40
160.0
  1
ＮＸＮ－１２ＤＬ－６
  7
STYLE2
100
AcDbText
  0
TEXT
  5
169C5
330
747D
100
AcDbEntity
  8
文字
 62
     7
 48
50.0
100
AcDbText
 10
13583.11819016568
 20
8890.013745883733
 30
0.0
 40
100.0
  1
棚板
  7
STYLE1
100
AcDbText
  0
TEXT
  5
169C6
330
747D
100
AcDbEntity
  8
文字
 62
     7
 48
50.0
100
AcDbText
 10
15022.63965474515
 20
8890.013745883729
 30
0.0
 40
100.0
  1
F12            0.6
  7
STYLE1
100
AcDbText
  0
TEXT
  5
169C7
330
747D
100
AcDbEntity
  8
文字
 62
     7
 48
50.0
100
AcDbText
 10
13583.11819016568
 20
9060.013745883729
 30
0.0
 40
100.0
  1
扉
  7
STYLE1
100
AcDbText
  0
TEXT
  5
169C8
330
747D
100
AcDbEntity
  8
文字
 62
     7
 48
50.0
100
AcDbText
 10
15022.63965474515
 20
9060.013745883725
 30
0.0
 40
100.0
  1
F12            0.8
  7
STYLE1
100
AcDbText
  0
TEXT
  5
169C9
330
747D
100
AcDbEntity
  8
文字
 62
     7
 48
50.0
100
AcDbText
 10
15022.63965474517
 20
10590.01374588372
 30
0.0
 40
100.0
  1
F12            1.0
  7
STYLE1
100
AcDbText
  0
TEXT
  5
169CA
330
747D
100
AcDbEntity
  8
文字
 62
     7
 48
50.0
100
AcDbText
 10
13583.1181901657
 20
10590.01374588373
 30
0.0
 40
100.0
  1
床パネル
 41
0.9
  7
STYLE1
100
AcDbText
  0
LINE
  5
169CB
330
747D
100
AcDbEntity
  8
仕様書枠
 48
50.0
100
AcDbLine
 10
16307.19999999998
 20
8689.6
 30
0.0
 11
13127.19999999999
 21
8689.600000000003
 31
0.0
  0
LINE
  5
169CC
330
747D
100
AcDbEntity
  8
仕様書枠
 48
50.0
100
AcDbLine
 10
13127.2
 20
11409.6
 30
0.0
 11
13127.19999999999
 21
8349.600000000004
 31
0.0
  0
TEXT
  5
169CD
330
747D
100
AcDbEntity
  8
文字
 62
     7
 48
50.0
100
AcDbText
 10
13229.83081656553
 20
8380.013745883728
 30
0.0
 40
100.0
  1
Y10→溶融亜鉛-5％アルミニウム合金めっき鋼板(JIS G 3317)
 41
0.9
  7
STYLE1
100
AcDbText
  0
TEXT
  5
169CE
330
747D
100
AcDbEntity
  8
文字
 62
     7
 48
50.0
100
AcDbText
 10
13229.83081656553
 20
8550.013745883729
 30
0.0
 40
100.0
  1
F12→溶融亜鉛めっき鋼板(JIS G 3302)
  7
STYLE1
100
AcDbText
  0
LINE
  5
169CF
330
747D
100
AcDbEntity
  8
仕様書枠
 48
50.0
100
AcDbLine
 10
16307.19999999998
 20
8349.600000000004
 30
0.0
 11
13127.19999999999
 21
8349.600000000004
 31
0.0
  0
TEXT
  5
169D0
330
747D
100
AcDbEntity
  8
文字
 62
     7
 48
50.0
100
AcDbText
 10
15022.63965474515
 20
9230.013745883725
 30
0.0
 40
100.0
  1
F12            0.6
  7
STYLE1
100
AcDbText
  0
TEXT
  5
169D1
330
747D
100
AcDbEntity
  8
文字
 62
     7
 48
50.0
100
AcDbText
 10
15022.63965474516
 20
9400.013745883725
 30
0.0
 40
100.0
  1
Y10            0.5
  7
STYLE1
100
AcDbText
  0
TEXT
  5
169D2
330
747D
100
AcDbEntity
  8
文字
 62
     7
 48
50.0
100
AcDbText
 10
15022.63965474517
 20
9910.013745883725
 30
0.0
 40
100.0
  1
Y10            0.7
  7
STYLE1
100
AcDbText
  0
TEXT
  5
169D3
330
747D
100
AcDbEntity
  8
文字
 62
     7
 48
50.0
100
AcDbText
 10
15022.63965474517
 20
10080.01374588372
 30
0.0
 40
100.0
  1
Y10            0.7
  7
STYLE1
100
AcDbText
  0
TEXT
  5
169D4
330
747D
100
AcDbEntity
  8
文字
 62
     7
 48
50.0
100
AcDbText
 10
15022.63965474517
 20
10250.01374588372
 30
0.0
 40
100.0
  1
Y10            1.0
  7
STYLE1
100
AcDbText
  0
TEXT
  5
169D5
330
747D
100
AcDbEntity
  8
文字
 62
     7
 48
50.0
100
AcDbText
 10
15022.63965474517
 20
10420.01374588372
 30
0.0
 40
100.0
  1
Y10            1.0
  7
STYLE1
100
AcDbText
  0
TEXT
  5
169D6
330
747D
100
AcDbEntity
  8
文字
 62
     7
 48
50.0
100
AcDbText
 10
15022.63965474518
 20
10760.01374588372
 30
0.0
 40
100.0
  1
F12            1.0
  7
STYLE1
100
AcDbText
  0
TEXT
  5
169D7
330
747D
100
AcDbEntity
  8
文字
 62
     7
 48
50.0
100
AcDbText
 10
15022.63965474517
 20
11100.01374588372
 30
0.0
 40
100.0
  1
F12            1.2
  7
STYLE1
100
AcDbText
  0
TEXT
  5
169D8
330
747D
100
AcDbEntity
  8
文字
 62
     7
 48
50.0
100
AcDbText
 10
13248.77747366447
 20
9230.013745883729
 30
0.0
 40
100.0
  1
12
  7
STYLE1
100
AcDbText
  0
TEXT
  5
169D9
330
747D
100
AcDbEntity
  8
文字
 62
     7
 48
50.0
100
AcDbText
 10
13248.77747366447
 20
9060.013745883729
 30
0.0
 40
100.0
  1
13
  7
STYLE1
100
AcDbText
  0
LINE
  5
169DA
330
747D
100
AcDbEntity
  8
仕様書枠
 48
50.0
100
AcDbLine
 10
16307.19999999998
 20
8519.600000000002
 30
0.0
 11
13127.19999999999
 21
8519.600000000004
 31
0.0
  0
LINE
  5
169DB
330
747D
100
AcDbEntity
  8
仕様書枠
 48
50.0
100
AcDbLine
 10
16307.19999999998
 20
8859.6
 30
0.0
 11
13127.19999999999
 21
8859.6
 31
0.0
  0
TEXT
  5
169DC
330
747D
100
AcDbEntity
  8
文字
 62
     7
 48
50.0
100
AcDbText
 10
13248.77747366447
 20
9400.013745883729
 30
0.0
 40
100.0
  1
11
  7
STYLE1
100
AcDbText
  0
LINE
  5
169DD
330
747D
100
AcDbEntity
  8
仕様書枠
 48
50.0
100
AcDbLine
 10
16307.2
 20
9709.600000000001
 30
0.0
 11
13127.2
 21
9709.600000000001
 31
0.0
  0
LINE
  5
169DE
330
747D
100
AcDbEntity
  8
仕様書枠
 48
50.0
100
AcDbLine
 10
16307.2
 20
10049.6
 30
0.0
 11
13127.2
 21
10049.6
 31
0.0
  0
LINE
  5
169DF
330
747D
100
AcDbEntity
  8
仕様書枠
 48
50.0
100
AcDbLine
 10
16307.19999999998
 20
9199.600000000001
 30
0.0
 11
13127.19999999999
 21
9199.600000000001
 31
0.0
  0
LINE
  5
169E0
330
747D
100
AcDbEntity
  8
仕様書枠
 48
50.0
100
AcDbLine
 10
16307.19999999998
 20
9029.6
 30
0.0
 11
13127.19999999999
 21
9029.6
 31
0.0
  0
LINE
  5
169E1
330
747D
100
AcDbEntity
  8
仕様書枠
 48
50.0
100
AcDbLine
 10
16307.19999999998
 20
9369.600000000001
 30
0.0
 11
13127.19999999999
 21
9369.600000000001
 31
0.0
  0
TEXT
  5
169E2
330
747D
100
AcDbEntity
  8
文字
 62
     7
 48
50.0
100
AcDbText
 10
13271.19032244793
 20
10250.01374588373
 30
0.0
 40
100.0
  1
6
  7
STYLE1
100
AcDbText
  0
TEXT
  5
169E3
330
747D
100
AcDbEntity
  8
文字
 62
     7
 48
50.0
100
AcDbText
 10
13271.19032244792
 20
10080.01374588373
 30
0.0
 40
100.0
  1
7
  7
STYLE1
100
AcDbText
  0
TEXT
  5
169E4
330
747D
100
AcDbEntity
  8
文字
 62
     7
 48
50.0
100
AcDbText
 10
13271.19032244792
 20
9740.013745883729
 30
0.0
 40
100.0
  1
9
  7
STYLE1
100
AcDbText
  0
TEXT
  5
169E5
330
747D
100
AcDbEntity
  8
文字
 62
     7
 48
50.0
100
AcDbText
 10
13271.19032244792
 20
9910.01374588373
 30
0.0
 40
100.0
  1
8
  7
STYLE1
100
AcDbText
  0
TEXT
  5
169E6
330
747D
100
AcDbEntity
  8
文字
 62
     7
 48
50.0
100
AcDbText
 10
13583.1181901657
 20
9910.01374588373
 30
0.0
 40
100.0
  1
鼻隠シ前後
  7
STYLE1
100
AcDbText
  0
TEXT
  5
169E7
330
747D
100
AcDbEntity
  8
文字
 62
     7
 48
50.0
100
AcDbText
 10
13583.11819016569
 20
9400.013745883729
 30
0.0
 40
100.0
  1
屋根パネル
  7
STYLE1
100
AcDbText
  0
TEXT
  5
169E8
330
747D
100
AcDbEntity
  8
文字
 62
     7
 48
50.0
100
AcDbText
 10
13583.11819016568
 20
9230.013745883729
 30
0.0
 40
100.0
  1
壁パネル
  7
STYLE1
100
AcDbText
  0
TEXT
  5
169E9
330
747D
100
AcDbEntity
  8
文字
 62
     7
 48
50.0
100
AcDbText
 10
13248.77747366447
 20
9570.013745883729
 30
0.0
 40
100.0
  1
10
  7
STYLE1
100
AcDbText
  0
TEXT
  5
169EA
330
747D
100
AcDbEntity
  8
文字
 62
     7
 48
50.0
100
AcDbText
 10
13583.1181901657
 20
10080.01374588373
 30
0.0
 40
100.0
  1
妻板左右
  7
STYLE1
100
AcDbText
  0
TEXT
  5
169EB
330
747D
100
AcDbEntity
  8
文字
 62
     7
 48
50.0
100
AcDbText
 10
13271.19032244793
 20
10420.01374588373
 30
0.0
 40
100.0
  1
5
  7
STYLE1
100
AcDbText
  0
TEXT
  5
169EC
330
747D
100
AcDbEntity
  8
文字
 62
     7
 48
50.0
100
AcDbText
 10
13583.1181901657
 20
10250.01374588373
 30
0.0
 40
100.0
  1
桁後
  7
STYLE1
100
AcDbText
  0
TEXT
  5
169ED
330
747D
100
AcDbEntity
  8
文字
 62
     7
 48
50.0
100
AcDbText
 10
13583.1181901657
 20
10420.01374588373
 30
0.0
 40
100.0
  1
鴨居
  7
STYLE1
100
AcDbText
  0
TEXT
  5
169EE
330
747D
100
AcDbEntity
  8
文字
 62
     7
 48
50.0
100
AcDbText
 10
13583.1181901657
 20
10760.01374588373
 30
0.0
 40
100.0
  1
柱
  7
STYLE1
100
AcDbText
  0
TEXT
  5
169EF
330
747D
100
AcDbEntity
  8
文字
 62
     7
 48
50.0
100
AcDbText
 10
13583.11819016569
 20
11100.01374588373
 30
0.0
 40
100.0
  1
土台枠
  7
STYLE1
100
AcDbText
  0
TEXT
  5
169F0
330
747D
100
AcDbEntity
  8
文字
 62
     7
 48
50.0
100
AcDbText
 10
14859.79774614482
 20
11270.01374588373
 30
0.0
 40
100.0
  1
材料（材質）　　単位mm
  7
STYLE1
100
AcDbText
  0
TEXT
  5
169F1
330
747D
100
AcDbEntity
  8
文字
 62
     7
 48
50.0
100
AcDbText
 10
13732.03840939434
 20
11270.01374588373
 30
0.0
 40
100.0
  1
部　　品　　名
  7
STYLE1
100
AcDbText
  0
TEXT
  5
169F2
330
747D
100
AcDbEntity
  8
文字
 62
     7
 48
50.0
100
AcDbText
 10
13271.19032244793
 20
10760.01374588373
 30
0.0
 40
100.0
  1
3
  7
STYLE1
100
AcDbText
  0
TEXT
  5
169F3
330
747D
100
AcDbEntity
  8
文字
 62
     7
 48
50.0
100
AcDbText
 10
13271.19032244793
 20
10590.01374588373
 30
0.0
 40
100.0
  1
4
  7
STYLE1
100
AcDbText
  0
TEXT
  5
169F4
330
747D
100
AcDbEntity
  8
文字
 62
     7
 48
50.0
100
AcDbText
 10
13271.19032244792
 20
10930.01374588373
 30
0.0
 40
100.0
  1
2
  7
STYLE1
100
AcDbText
  0
TEXT
  5
169F5
330
747D
100
AcDbEntity
  8
文字
 62
     7
 48
50.0
100
AcDbText
 10
13271.19032244792
 20
11100.01374588373
 30
0.0
 40
100.0
  1
1
  7
STYLE1
100
AcDbText
  0
TEXT
  5
169F6
330
747D
100
AcDbEntity
  8
文字
 62
     7
 48
50.0
100
AcDbText
 10
13197.42518560407
 20
11270.01374588373
 30
0.0
 40
100.0
  1
品番
  7
STYLE1
100
AcDbText
  0
LINE
  5
169F7
330
747D
100
AcDbEntity
  8
仕様書枠
 48
50.0
100
AcDbLine
 10
16307.19999999999
 20
10559.6
 30
0.0
 11
13127.2
 21
10559.6
 31
0.0
  0
LINE
  5
169F8
330
747D
100
AcDbEntity
  8
仕様書枠
 48
50.0
100
AcDbLine
 10
16307.19999999999
 20
10219.6
 30
0.0
 11
13127.2
 21
10219.6
 31
0.0
  0
LINE
  5
169F9
330
747D
100
AcDbEntity
  8
仕様書枠
 48
50.0
100
AcDbLine
 10
16307.19999999999
 20
10389.6
 30
0.0
 11
13127.2
 21
10389.6
 31
0.0
  0
LINE
  5
169FA
330
747D
100
AcDbEntity
  8
仕様書枠
 48
50.0
100
AcDbLine
 10
16307.19999999999
 20
11069.6
 30
0.0
 11
13127.2
 21
11069.6
 31
0.0
  0
LINE
  5
169FB
330
747D
100
AcDbEntity
  8
仕様書枠
 48
50.0
100
AcDbLine
 10
16307.2
 20
10729.6
 30
0.0
 11
13127.2
 21
10729.6
 31
0.0
  0
LINE
  5
169FC
330
747D
100
AcDbEntity
  8
仕様書枠
 48
50.0
100
AcDbLine
 10
16307.19999999999
 20
11239.6
 30
0.0
 11
13127.2
 21
11239.6
 31
0.0
  0
LINE
  5
169FD
330
747D
100
AcDbEntity
  8
仕様書枠
 48
50.0
100
AcDbLine
 10
13490.2
 20
11409.6
 30
0.0
 11
13490.2
 21
8689.600000000003
 31
0.0
  0
LINE
  5
169FE
330
747D
100
AcDbEntity
  8
仕様書枠
 48
50.0
100
AcDbLine
 10
14785.2
 20
11409.59999999999
 30
0.0
 11
14785.19999999999
 21
8689.6
 31
0.0
  0
LINE
  5
169FF
330
747D
100
AcDbEntity
  8
仕様書枠
 48
50.0
100
AcDbLine
 10
16307.19999999999
 20
8349.600000000007
 30
0.0
 11
16307.2
 21
11409.6
 31
0.0
  0
LINE
  5
16A00
330
747D
100
AcDbEntity
  8
仕様書枠
 48
50.0
100
AcDbLine
 10
16307.19999999999
 20
11409.6
 30
0.0
 11
13127.2
 21
11409.6
 31
0.0
  0
LINE
  5
16A01
330
747D
100
AcDbEntity
  8
仕様書枠
 48
50.0
100
AcDbLine
 10
16307.2
 20
9879.600000000001
 30
0.0
 11
13127.2
 21
9879.600000000001
 31
0.0
  0
TEXT
  5
16A02
330
747D
100
AcDbEntity
  8
文字
 62
     7
 48
50.0
100
AcDbText
 10
15022.63965474513
 20
8720.013745883722
 30
0.0
 40
100.0
  1
F12            2.3
  7
STYLE1
100
AcDbText
  0
TEXT
  5
16A03
330
747D
100
AcDbEntity
  8
文字
 62
     7
 48
50.0
100
AcDbText
 10
13583.11819016567
 20
8720.013745883729
 30
0.0
 40
100.0
  1
アンカープレート
  7
STYLE1
100
AcDbText
  0
TEXT
  5
16A04
330
747D
100
AcDbEntity
  8
文字
 62
     7
 48
50.0
100
AcDbText
 10
15022.63965474517
 20
9740.013745883729
 30
0.0
 40
100.0
  1
F12,Y10       0.7+1.0
  7
STYLE1
100
AcDbText
  0
TEXT
  5
16A05
330
747D
100
AcDbEntity
  8
文字
 62
     7
 48
50.0
100
AcDbText
 10
13583.1181901657
 20
9740.013745883729
 30
0.0
 40
100.0
  1
梁中・梁中央
 41
0.9
  7
STYLE1
100
AcDbText
  0
LINE
  5
16A06
330
747D
100
AcDbEntity
  8
仕様書枠
 48
50.0
100
AcDbLine
 10
16307.2
 20
10899.6
 30
0.0
 11
13127.2
 21
10899.6
 31
0.0
  0
TEXT
  5
16A07
330
747D
100
AcDbEntity
  8
文字
 62
     7
 48
50.0
100
AcDbText
 10
13248.77747366447
 20
8720.013745883735
 30
0.0
 40
100.0
  1
15
  7
STYLE1
100
AcDbText
  0
TEXT
  5
16A08
330
747D
100
AcDbEntity
  8
文字
 62
     7
 48
50.0
100
AcDbText
 10
13583.11819016569
 20
10930.01374588373
 30
0.0
 40
100.0
  1
根太
  7
STYLE1
100
AcDbText
  0
TEXT
  5
16A09
330
747D
100
AcDbEntity
  8
文字
 62
     7
 48
50.0
100
AcDbText
 10
15022.63965474517
 20
10930.01374588372
 30
0.0
 40
100.0
  1
F12            1.2
  7
STYLE1
100
AcDbText
  0
LINE
  5
16A0A
330
747D
100
AcDbEntity
  8
細線
 48
50.0
100
AcDbLine
 10
12118.22465960937
 20
5080.889586175445
 30
0.0
 11
12118.22465960937
 21
3290.889586175445
 31
0.0
  0
LINE
  5
16A0B
330
747D
100
AcDbEntity
  8
細線
 48
50.0
100
AcDbLine
 10
12103.22465960937
 20
5080.889586175445
 30
0.0
 11
12103.22465960937
 21
3290.889586175445
 31
0.0
  0
LINE
  5
16A0C
330
747D
100
AcDbEntity
  8
細線
 48
50.0
100
AcDbLine
 10
11973.22465960937
 20
5080.889586175445
 30
0.0
 11
11973.22465960937
 21
3290.889586175445
 31
0.0
  0
LINE
  5
16A0D
330
747D
100
AcDbEntity
  8
細線
 48
50.0
100
AcDbLine
 10
11958.22465960937
 20
5080.889586175445
 30
0.0
 11
11958.22465960937
 21
3290.889586175445
 31
0.0
  0
LINE
  5
16A0E
330
747D
100
AcDbEntity
  8
細線
 48
50.0
100
AcDbLine
 10
11828.22465960937
 20
5080.889586175445
 30
0.0
 11
11828.22465960937
 21
3290.889586175445
 31
0.0
  0
LINE
  5
16A0F
330
747D
100
AcDbEntity
  8
細線
 48
50.0
100
AcDbLine
 10
11813.22465960937
 20
5080.889586175445
 30
0.0
 11
11813.22465960937
 21
3290.889586175445
 31
0.0
  0
MTEXT
  5
170D4
330
747D
100
AcDbEntity
  8
寸法
 62
     7
 48
50.0
100
AcDbMText
 10
4391.632558014957
 20
9147.791971927315
 30
0.0
 40
96.0
 41
0.0
 71
     5
 72
     1
  1
棚 2段
  7
STYLE1
 73
     1
 44
1.0
1001
ACAD
1000
MTEXTBEGIN
1070
    73
1070
     1
1070
    44
1040
1.0
1070
    74
1070
     0
1000
MTEXTEND
  0
LINE
  5
17442
330
747D
100
AcDbEntity
  8
細線
100
AcDbLine
 10
8476.352747049004
 20
5140.389586175437
 30
0.0
 11
8476.352747049004
 21
5117.389586175438
 31
0.0
  0
LINE
  5
17443
330
747D
100
AcDbEntity
  8
細線
100
AcDbLine
 10
8550.352747049002
 20
5128.389586175437
 30
0.0
 11
8476.352747049004
 21
5128.389586175437
 31
0.0
  0
LINE
  5
17444
330
747D
100
AcDbEntity
  8
細線
100
AcDbLine
 10
8550.352747049002
 20
5122.389586175437
 30
0.0
 11
8476.352747049004
 21
5122.389586175437
 31
0.0
  0
LINE
  5
17445
330
747D
100
AcDbEntity
  8
細線
100
AcDbLine
 10
8550.352747049002
 20
5134.389586175437
 30
0.0
 11
8476.352747049004
 21
5134.389586175437
 31
0.0
  0
LINE
  5
17446
330
747D
100
AcDbEntity
  8
細線
100
AcDbLine
 10
8402.352747049002
 20
5134.389586175437
 30
0.0
 11
8471.352747049001
 21
5134.389586175437
 31
0.0
  0
LINE
  5
17447
330
747D
100
AcDbEntity
  8
細線
100
AcDbLine
 10
8402.352747049002
 20
5122.389586175437
 30
0.0
 11
8476.352747049004
 21
5122.389586175437
 31
0.0
  0
LINE
  5
17448
330
747D
100
AcDbEntity
  8
細線
100
AcDbLine
 10
8402.352747049002
 20
5128.389586175437
 30
0.0
 11
8476.352747049004
 21
5128.389586175437
 31
0.0
  0
LINE
  5
17449
330
747D
100
AcDbEntity
  8
細線
100
AcDbLine
 10
8402.352747049002
 20
5134.389586175437
 30
0.0
 11
8476.352747049004
 21
5134.389586175437
 31
0.0
  0
LINE
  5
1744A
330
747D
100
AcDbEntity
  8
部品1
 48
0.01
100
AcDbLine
 10
8564.352747049003
 20
5146.889586175437
 30
0.0
 11
8388.352747049003
 21
5146.889586175437
 31
0.0
  0
LINE
  5
1744B
330
747D
100
AcDbEntity
  8
部品1
 48
0.01
100
AcDbLine
 10
8386.352747049002
 20
5144.889586175438
 30
0.0
 11
8386.352747049002
 21
5113.389586175437
 31
0.0
  0
LINE
  5
1744C
330
747D
100
AcDbEntity
  8
部品1
 48
0.01
100
AcDbLine
 10
8388.352747049003
 20
5111.389586175437
 30
0.0
 11
8564.352747049003
 21
5111.389586175437
 31
0.0
  0
LINE
  5
1744D
330
747D
100
AcDbEntity
  8
部品1
 48
0.01
100
AcDbLine
 10
8566.352747049002
 20
5113.389586175437
 30
0.0
 11
8566.352747049002
 21
5144.889586175438
 31
0.0
  0
LINE
  5
1744E
330
747D
100
AcDbEntity
  8
細線
100
AcDbLine
 10
8402.352747049002
 20
5140.389586175437
 30
0.0
 11
8402.352747049002
 21
5117.389586175438
 31
0.0
  0
LINE
  5
1744F
330
747D
100
AcDbEntity
  8
細線
100
AcDbLine
 10
8550.352747049002
 20
5117.389586175438
 30
0.0
 11
8550.352747049002
 21
5140.389586175437
 31
0.0
  0
LINE
  5
17450
330
747D
100
AcDbEntity
  8
細線
100
AcDbLine
 10
8550.352747049002
 20
5140.389586175437
 30
0.0
 11
8476.352747049004
 21
5140.389586175437
 31
0.0
  0
LINE
  5
17451
330
747D
100
AcDbEntity
  8
細線
100
AcDbLine
 10
8402.352747049002
 20
5117.389586175438
 30
0.0
 11
8476.352747049004
 21
5117.389586175438
 31
0.0
  0
LINE
  5
17452
330
747D
100
AcDbEntity
  8
細線
100
AcDbLine
 10
8476.352747049004
 20
5140.389586175437
 30
0.0
 11
8402.352747049002
 21
5140.389586175437
 31
0.0
  0
LINE
  5
17453
330
747D
100
AcDbEntity
  8
細線
100
AcDbLine
 10
8476.352747049004
 20
5117.389586175438
 30
0.0
 11
8550.352747049002
 21
5117.389586175438
 31
0.0
  0
ARC
  5
17454
330
747D
100
AcDbEntity
  8
部品1
 48
0.01
100
AcDbCircle
 10
8388.352747049003
 20
5144.889586175438
 30
0.0
 40
2.0
100
AcDbArc
 50
90.0
 51
180.0
  0
ARC
  5
17455
330
747D
100
AcDbEntity
  8
部品1
 48
0.01
100
AcDbCircle
 10
8388.352747049003
 20
5113.389586175437
 30
0.0
 40
2.0
100
AcDbArc
 50
180.0
 51
270.0
  0
ARC
  5
17456
330
747D
100
AcDbEntity
  8
部品1
 48
0.01
100
AcDbCircle
 10
8564.352747049003
 20
5144.889586175438
 30
0.0
 40
2.0
100
AcDbArc
 50
0.0
 51
90.0
  0
ARC
  5
17457
330
747D
100
AcDbEntity
  8
部品1
 48
0.01
100
AcDbCircle
 10
8564.352747049003
 20
5113.389586175437
 30
0.0
 40
2.0
100
AcDbArc
 50
270.0
 51
0.0
  0
ARC
  5
17458
330
747D
100
AcDbEntity
  8
部品1
 48
0.01
100
AcDbCircle
 10
7744.352747049003
 20
5113.389586175437
 30
0.0
 40
2.0
100
AcDbArc
 50
270.0
 51
0.0
  0
ARC
  5
17459
330
747D
100
AcDbEntity
  8
部品1
 48
0.01
100
AcDbCircle
 10
7744.352747049003
 20
5144.889586175438
 30
0.0
 40
2.0
100
AcDbArc
 50
0.0
 51
90.0
  0
ARC
  5
1745A
330
747D
100
AcDbEntity
  8
部品1
 48
0.01
100
AcDbCircle
 10
7568.352747049003
 20
5113.389586175437
 30
0.0
 40
2.0
100
AcDbArc
 50
180.0
 51
270.0
  0
ARC
  5
1745B
330
747D
100
AcDbEntity
  8
部品1
 48
0.01
100
AcDbCircle
 10
7568.352747049003
 20
5144.889586175438
 30
0.0
 40
2.0
100
AcDbArc
 50
90.0
 51
180.0
  0
LINE
  5
1745C
330
747D
100
AcDbEntity
  8
細線
100
AcDbLine
 10
7656.352747049003
 20
5117.389586175438
 30
0.0
 11
7730.352747049002
 21
5117.389586175438
 31
0.0
  0
LINE
  5
1745D
330
747D
100
AcDbEntity
  8
細線
100
AcDbLine
 10
7656.352747049003
 20
5140.389586175437
 30
0.0
 11
7582.352747049002
 21
5140.389586175437
 31
0.0
  0
LINE
  5
1745E
330
747D
100
AcDbEntity
  8
細線
100
AcDbLine
 10
7582.352747049002
 20
5117.389586175438
 30
0.0
 11
7656.352747049003
 21
5117.389586175438
 31
0.0
  0
LINE
  5
1745F
330
747D
100
AcDbEntity
  8
細線
100
AcDbLine
 10
7730.352747049002
 20
5140.389586175437
 30
0.0
 11
7656.352747049003
 21
5140.389586175437
 31
0.0
  0
LINE
  5
17460
330
747D
100
AcDbEntity
  8
細線
100
AcDbLine
 10
7730.352747049002
 20
5117.389586175438
 30
0.0
 11
7730.352747049002
 21
5140.389586175437
 31
0.0
  0
LINE
  5
17461
330
747D
100
AcDbEntity
  8
細線
100
AcDbLine
 10
7582.352747049002
 20
5140.389586175437
 30
0.0
 11
7582.352747049002
 21
5117.389586175438
 31
0.0
  0
LINE
  5
17462
330
747D
100
AcDbEntity
  8
部品1
 48
0.01
100
AcDbLine
 10
7746.352747049002
 20
5113.389586175437
 30
0.0
 11
7746.352747049002
 21
5144.889586175438
 31
0.0
  0
LINE
  5
17463
330
747D
100
AcDbEntity
  8
部品1
 48
0.01
100
AcDbLine
 10
7568.352747049003
 20
5111.389586175437
 30
0.0
 11
7744.352747049003
 21
5111.389586175437
 31
0.0
  0
LINE
  5
17464
330
747D
100
AcDbEntity
  8
部品1
 48
0.01
100
AcDbLine
 10
7566.352747049002
 20
5144.889586175438
 30
0.0
 11
7566.352747049002
 21
5113.389586175437
 31
0.0
  0
LINE
  5
17465
330
747D
100
AcDbEntity
  8
部品1
 48
0.01
100
AcDbLine
 10
7744.352747049003
 20
5146.889586175437
 30
0.0
 11
7568.352747049003
 21
5146.889586175437
 31
0.0
  0
LINE
  5
17466
330
747D
100
AcDbEntity
  8
細線
100
AcDbLine
 10
7582.352747049002
 20
5134.389586175437
 30
0.0
 11
7656.352747049003
 21
5134.389586175437
 31
0.0
  0
LINE
  5
17467
330
747D
100
AcDbEntity
  8
細線
100
AcDbLine
 10
7582.352747049002
 20
5128.389586175437
 30
0.0
 11
7656.352747049003
 21
5128.389586175437
 31
0.0
  0
LINE
  5
17468
330
747D
100
AcDbEntity
  8
細線
100
AcDbLine
 10
7582.352747049002
 20
5122.389586175437
 30
0.0
 11
7656.352747049003
 21
5122.389586175437
 31
0.0
  0
LINE
  5
17469
330
747D
100
AcDbEntity
  8
細線
100
AcDbLine
 10
7582.352747049002
 20
5134.389586175437
 30
0.0
 11
7651.352747049003
 21
5134.389586175437
 31
0.0
  0
LINE
  5
1746A
330
747D
100
AcDbEntity
  8
細線
100
AcDbLine
 10
7730.352747049002
 20
5134.389586175437
 30
0.0
 11
7656.352747049003
 21
5134.389586175437
 31
0.0
  0
LINE
  5
1746B
330
747D
100
AcDbEntity
  8
細線
100
AcDbLine
 10
7730.352747049002
 20
5122.389586175437
 30
0.0
 11
7656.352747049003
 21
5122.389586175437
 31
0.0
  0
LINE
  5
1746C
330
747D
100
AcDbEntity
  8
細線
100
AcDbLine
 10
7730.352747049002
 20
5128.389586175437
 30
0.0
 11
7656.352747049003
 21
5128.389586175437
 31
0.0
  0
LINE
  5
1746D
330
747D
100
AcDbEntity
  8
細線
100
AcDbLine
 10
7656.352747049003
 20
5140.389586175437
 30
0.0
 11
7656.352747049003
 21
5117.389586175438
 31
0.0
  0
LINE
  5
1746E
330
747D
100
AcDbEntity
  8
細線
100
AcDbLine
 10
6836.352747049002
 20
5140.389586175438
 30
0.0
 11
6836.352747049002
 21
5117.389586175438
 31
0.0
  0
LINE
  5
1746F
330
747D
100
AcDbEntity
  8
細線
100
AcDbLine
 10
6910.352747049002
 20
5128.389586175438
 30
0.0
 11
6836.352747049002
 21
5128.389586175438
 31
0.0
  0
LINE
  5
17470
330
747D
100
AcDbEntity
  8
細線
100
AcDbLine
 10
6910.352747049002
 20
5122.389586175438
 30
0.0
 11
6836.352747049002
 21
5122.389586175438
 31
0.0
  0
LINE
  5
17471
330
747D
100
AcDbEntity
  8
細線
100
AcDbLine
 10
6910.352747049002
 20
5134.389586175438
 30
0.0
 11
6836.352747049002
 21
5134.389586175438
 31
0.0
  0
LINE
  5
17472
330
747D
100
AcDbEntity
  8
細線
100
AcDbLine
 10
6762.352747049003
 20
5134.389586175438
 30
0.0
 11
6831.352747049002
 21
5134.389586175438
 31
0.0
  0
LINE
  5
17473
330
747D
100
AcDbEntity
  8
細線
100
AcDbLine
 10
6762.352747049003
 20
5122.389586175438
 30
0.0
 11
6836.352747049002
 21
5122.389586175438
 31
0.0
  0
LINE
  5
17474
330
747D
100
AcDbEntity
  8
細線
100
AcDbLine
 10
6762.352747049003
 20
5128.389586175438
 30
0.0
 11
6836.352747049002
 21
5128.389586175438
 31
0.0
  0
LINE
  5
17475
330
747D
100
AcDbEntity
  8
細線
100
AcDbLine
 10
6762.352747049003
 20
5134.389586175438
 30
0.0
 11
6836.352747049002
 21
5134.389586175438
 31
0.0
  0
LINE
  5
17476
330
747D
100
AcDbEntity
  8
部品1
 48
0.01
100
AcDbLine
 10
6924.352747049002
 20
5146.889586175438
 30
0.0
 11
6748.352747049003
 21
5146.889586175438
 31
0.0
  0
LINE
  5
17477
330
747D
100
AcDbEntity
  8
部品1
 48
0.01
100
AcDbLine
 10
6746.352747049002
 20
5144.889586175438
 30
0.0
 11
6746.352747049002
 21
5113.389586175438
 31
0.0
  0
LINE
  5
17478
330
747D
100
AcDbEntity
  8
部品1
 48
0.01
100
AcDbLine
 10
6748.352747049003
 20
5111.389586175437
 30
0.0
 11
6924.352747049002
 21
5111.389586175437
 31
0.0
  0
LINE
  5
17479
330
747D
100
AcDbEntity
  8
部品1
 48
0.01
100
AcDbLine
 10
6926.352747049003
 20
5113.389586175438
 30
0.0
 11
6926.352747049003
 21
5144.889586175438
 31
0.0
  0
LINE
  5
1747A
330
747D
100
AcDbEntity
  8
細線
100
AcDbLine
 10
6762.352747049003
 20
5140.389586175438
 30
0.0
 11
6762.352747049003
 21
5117.389586175438
 31
0.0
  0
LINE
  5
1747B
330
747D
100
AcDbEntity
  8
細線
100
AcDbLine
 10
6910.352747049002
 20
5117.389586175438
 30
0.0
 11
6910.352747049002
 21
5140.389586175438
 31
0.0
  0
LINE
  5
1747C
330
747D
100
AcDbEntity
  8
細線
100
AcDbLine
 10
6910.352747049002
 20
5140.389586175438
 30
0.0
 11
6836.352747049002
 21
5140.389586175438
 31
0.0
  0
LINE
  5
1747D
330
747D
100
AcDbEntity
  8
細線
100
AcDbLine
 10
6762.352747049003
 20
5117.389586175438
 30
0.0
 11
6836.352747049002
 21
5117.389586175438
 31
0.0
  0
LINE
  5
1747E
330
747D
100
AcDbEntity
  8
細線
100
AcDbLine
 10
6836.352747049002
 20
5140.389586175438
 30
0.0
 11
6762.352747049003
 21
5140.389586175438
 31
0.0
  0
LINE
  5
1747F
330
747D
100
AcDbEntity
  8
細線
100
AcDbLine
 10
6836.352747049002
 20
5117.389586175438
 30
0.0
 11
6910.352747049002
 21
5117.389586175438
 31
0.0
  0
ARC
  5
17480
330
747D
100
AcDbEntity
  8
部品1
 48
0.01
100
AcDbCircle
 10
6748.352747049003
 20
5144.889586175438
 30
0.0
 40
2.0
100
AcDbArc
 50
90.0
 51
180.0
  0
ARC
  5
17481
330
747D
100
AcDbEntity
  8
部品1
 48
0.01
100
AcDbCircle
 10
6748.352747049003
 20
5113.389586175438
 30
0.0
 40
2.0
100
AcDbArc
 50
180.0
 51
270.0
  0
ARC
  5
17482
330
747D
100
AcDbEntity
  8
部品1
 48
0.01
100
AcDbCircle
 10
6924.352747049002
 20
5144.889586175438
 30
0.0
 40
2.0
100
AcDbArc
 50
0.0
 51
90.0
  0
ARC
  5
17483
330
747D
100
AcDbEntity
  8
部品1
 48
0.01
100
AcDbCircle
 10
6924.352747049002
 20
5113.389586175438
 30
0.0
 40
2.0
100
AcDbArc
 50
270.0
 51
0.0
  0
ARC
  5
17484
330
747D
100
AcDbEntity
  8
部品1
 48
0.01
100
AcDbCircle
 10
6104.352747049002
 20
5113.389586175439
 30
0.0
 40
2.0
100
AcDbArc
 50
270.0
 51
0.0
  0
ARC
  5
17485
330
747D
100
AcDbEntity
  8
部品1
 48
0.01
100
AcDbCircle
 10
6104.352747049002
 20
5144.889586175439
 30
0.0
 40
2.0
100
AcDbArc
 50
0.0
 51
90.0
  0
ARC
  5
17486
330
747D
100
AcDbEntity
  8
部品1
 48
0.01
100
AcDbCircle
 10
5928.352747049003
 20
5113.389586175439
 30
0.0
 40
2.0
100
AcDbArc
 50
180.0
 51
270.0
  0
ARC
  5
17487
330
747D
100
AcDbEntity
  8
部品1
 48
0.01
100
AcDbCircle
 10
5928.352747049003
 20
5144.889586175439
 30
0.0
 40
2.0
100
AcDbArc
 50
90.0
 51
180.0
  0
LINE
  5
17488
330
747D
100
AcDbEntity
  8
細線
100
AcDbLine
 10
6016.352747049002
 20
5117.389586175439
 30
0.0
 11
6090.352747049003
 21
5117.389586175439
 31
0.0
  0
LINE
  5
17489
330
747D
100
AcDbEntity
  8
細線
100
AcDbLine
 10
6016.352747049002
 20
5140.389586175439
 30
0.0
 11
5942.352747049003
 21
5140.389586175439
 31
0.0
  0
LINE
  5
1748A
330
747D
100
AcDbEntity
  8
細線
100
AcDbLine
 10
5942.352747049003
 20
5117.389586175439
 30
0.0
 11
6016.352747049002
 21
5117.389586175439
 31
0.0
  0
LINE
  5
1748B
330
747D
100
AcDbEntity
  8
細線
100
AcDbLine
 10
6090.352747049003
 20
5140.389586175439
 30
0.0
 11
6016.352747049002
 21
5140.389586175439
 31
0.0
  0
LINE
  5
1748C
330
747D
100
AcDbEntity
  8
細線
100
AcDbLine
 10
6090.352747049003
 20
5117.389586175439
 30
0.0
 11
6090.352747049003
 21
5140.389586175439
 31
0.0
  0
LINE
  5
1748D
330
747D
100
AcDbEntity
  8
細線
100
AcDbLine
 10
5942.352747049003
 20
5140.389586175439
 30
0.0
 11
5942.352747049003
 21
5117.389586175439
 31
0.0
  0
LINE
  5
1748E
330
747D
100
AcDbEntity
  8
部品1
 48
0.01
100
AcDbLine
 10
6106.352747049003
 20
5113.389586175439
 30
0.0
 11
6106.352747049003
 21
5144.889586175439
 31
0.0
  0
LINE
  5
1748F
330
747D
100
AcDbEntity
  8
部品1
 48
0.01
100
AcDbLine
 10
5928.352747049003
 20
5111.389586175439
 30
0.0
 11
6104.352747049002
 21
5111.389586175439
 31
0.0
  0
LINE
  5
17490
330
747D
100
AcDbEntity
  8
部品1
 48
0.01
100
AcDbLine
 10
5926.352747049002
 20
5144.889586175439
 30
0.0
 11
5926.352747049002
 21
5113.389586175439
 31
0.0
  0
LINE
  5
17491
330
747D
100
AcDbEntity
  8
部品1
 48
0.01
100
AcDbLine
 10
6104.352747049002
 20
5146.889586175439
 30
0.0
 11
5928.352747049003
 21
5146.889586175439
 31
0.0
  0
LINE
  5
17492
330
747D
100
AcDbEntity
  8
細線
100
AcDbLine
 10
5942.352747049003
 20
5134.389586175439
 30
0.0
 11
6016.352747049002
 21
5134.389586175439
 31
0.0
  0
LINE
  5
17493
330
747D
100
AcDbEntity
  8
細線
100
AcDbLine
 10
5942.352747049003
 20
5128.389586175439
 30
0.0
 11
6016.352747049002
 21
5128.389586175439
 31
0.0
  0
LINE
  5
17494
330
747D
100
AcDbEntity
  8
細線
100
AcDbLine
 10
5942.352747049003
 20
5122.389586175439
 30
0.0
 11
6016.352747049002
 21
5122.389586175439
 31
0.0
  0
LINE
  5
17495
330
747D
100
AcDbEntity
  8
細線
100
AcDbLine
 10
5942.352747049003
 20
5134.389586175439
 30
0.0
 11
6011.352747049002
 21
5134.389586175439
 31
0.0
  0
LINE
  5
17496
330
747D
100
AcDbEntity
  8
細線
100
AcDbLine
 10
6090.352747049003
 20
5134.389586175439
 30
0.0
 11
6016.352747049002
 21
5134.389586175439
 31
0.0
  0
LINE
  5
17497
330
747D
100
AcDbEntity
  8
細線
100
AcDbLine
 10
6090.352747049003
 20
5122.389586175439
 30
0.0
 11
6016.352747049002
 21
5122.389586175439
 31
0.0
  0
LINE
  5
17498
330
747D
100
AcDbEntity
  8
細線
100
AcDbLine
 10
6090.352747049003
 20
5128.389586175439
 30
0.0
 11
6016.352747049002
 21
5128.389586175439
 31
0.0
  0
LINE
  5
17499
330
747D
100
AcDbEntity
  8
細線
100
AcDbLine
 10
6016.352747049002
 20
5140.389586175439
 30
0.0
 11
6016.352747049002
 21
5117.389586175439
 31
0.0
  0
LINE
  5
1749A
330
747D
100
AcDbEntity
  8
細線
100
AcDbLine
 10
5196.352747049001
 20
5140.389586175439
 30
0.0
 11
5196.352747049001
 21
5117.389586175439
 31
0.0
  0
LINE
  5
1749B
330
747D
100
AcDbEntity
  8
細線
100
AcDbLine
 10
5270.352747049001
 20
5128.389586175439
 30
0.0
 11
5196.352747049001
 21
5128.389586175439
 31
0.0
  0
LINE
  5
1749C
330
747D
100
AcDbEntity
  8
細線
100
AcDbLine
 10
5270.352747049001
 20
5122.389586175439
 30
0.0
 11
5196.352747049001
 21
5122.389586175439
 31
0.0
  0
LINE
  5
1749D
330
747D
100
AcDbEntity
  8
細線
100
AcDbLine
 10
5270.352747049001
 20
5134.389586175439
 30
0.0
 11
5196.352747049001
 21
5134.389586175439
 31
0.0
  0
LINE
  5
1749E
330
747D
100
AcDbEntity
  8
細線
100
AcDbLine
 10
5122.352747049001
 20
5134.389586175439
 30
0.0
 11
5191.352747049001
 21
5134.389586175439
 31
0.0
  0
LINE
  5
1749F
330
747D
100
AcDbEntity
  8
細線
100
AcDbLine
 10
5122.352747049001
 20
5122.389586175439
 30
0.0
 11
5196.352747049001
 21
5122.389586175439
 31
0.0
  0
LINE
  5
174A0
330
747D
100
AcDbEntity
  8
細線
100
AcDbLine
 10
5122.352747049001
 20
5128.389586175439
 30
0.0
 11
5196.352747049001
 21
5128.389586175439
 31
0.0
  0
LINE
  5
174A1
330
747D
100
AcDbEntity
  8
細線
100
AcDbLine
 10
5122.352747049001
 20
5134.389586175439
 30
0.0
 11
5196.352747049001
 21
5134.389586175439
 31
0.0
  0
LINE
  5
174A2
330
747D
100
AcDbEntity
  8
部品1
 48
0.01
100
AcDbLine
 10
5284.352747049001
 20
5146.889586175439
 30
0.0
 11
5108.352747049001
 21
5146.889586175439
 31
0.0
  0
LINE
  5
174A3
330
747D
100
AcDbEntity
  8
部品1
 48
0.01
100
AcDbLine
 10
5106.352747049001
 20
5144.889586175439
 30
0.0
 11
5106.352747049001
 21
5113.389586175439
 31
0.0
  0
LINE
  5
174A4
330
747D
100
AcDbEntity
  8
部品1
 48
0.01
100
AcDbLine
 10
5108.352747049001
 20
5111.389586175439
 30
0.0
 11
5284.352747049001
 21
5111.389586175439
 31
0.0
  0
LINE
  5
174A5
330
747D
100
AcDbEntity
  8
部品1
 48
0.01
100
AcDbLine
 10
5286.352747049001
 20
5113.389586175439
 30
0.0
 11
5286.352747049001
 21
5144.889586175439
 31
0.0
  0
LINE
  5
174A6
330
747D
100
AcDbEntity
  8
細線
100
AcDbLine
 10
5122.352747049001
 20
5140.389586175439
 30
0.0
 11
5122.352747049001
 21
5117.389586175439
 31
0.0
  0
LINE
  5
174A7
330
747D
100
AcDbEntity
  8
細線
100
AcDbLine
 10
5270.352747049001
 20
5117.389586175439
 30
0.0
 11
5270.352747049001
 21
5140.389586175439
 31
0.0
  0
LINE
  5
174A8
330
747D
100
AcDbEntity
  8
細線
100
AcDbLine
 10
5270.352747049001
 20
5140.389586175439
 30
0.0
 11
5196.352747049001
 21
5140.389586175439
 31
0.0
  0
LINE
  5
174A9
330
747D
100
AcDbEntity
  8
細線
100
AcDbLine
 10
5122.352747049001
 20
5117.389586175439
 30
0.0
 11
5196.352747049001
 21
5117.389586175439
 31
0.0
  0
LINE
  5
174AA
330
747D
100
AcDbEntity
  8
細線
100
AcDbLine
 10
5196.352747049001
 20
5140.389586175439
 30
0.0
 11
5122.352747049001
 21
5140.389586175439
 31
0.0
  0
LINE
  5
174AB
330
747D
100
AcDbEntity
  8
細線
100
AcDbLine
 10
5196.352747049001
 20
5117.389586175439
 30
0.0
 11
5270.352747049001
 21
5117.389586175439
 31
0.0
  0
ARC
  5
174AC
330
747D
100
AcDbEntity
  8
部品1
 48
0.01
100
AcDbCircle
 10
5108.352747049001
 20
5144.889586175439
 30
0.0
 40
2.0
100
AcDbArc
 50
90.0
 51
180.0
  0
ARC
  5
174AD
330
747D
100
AcDbEntity
  8
部品1
 48
0.01
100
AcDbCircle
 10
5108.352747049001
 20
5113.389586175439
 30
0.0
 40
2.0
100
AcDbArc
 50
180.0
 51
270.0
  0
ARC
  5
174AE
330
747D
100
AcDbEntity
  8
部品1
 48
0.01
100
AcDbCircle
 10
5284.352747049001
 20
5144.889586175439
 30
0.0
 40
2.0
100
AcDbArc
 50
0.0
 51
90.0
  0
ARC
  5
174AF
330
747D
100
AcDbEntity
  8
部品1
 48
0.01
100
AcDbCircle
 10
5284.352747049001
 20
5113.389586175439
 30
0.0
 40
2.0
100
AcDbArc
 50
270.0
 51
0.0
  0
ARC
  5
174B0
330
747D
100
AcDbEntity
  8
部品1
 48
0.01
100
AcDbCircle
 10
4464.352747049001
 20
5113.389586175439
 30
0.0
 40
2.0
100
AcDbArc
 50
270.0
 51
0.0
  0
ARC
  5
174B1
330
747D
100
AcDbEntity
  8
部品1
 48
0.01
100
AcDbCircle
 10
4464.352747049001
 20
5144.889586175439
 30
0.0
 40
2.0
100
AcDbArc
 50
0.0
 51
90.0
  0
ARC
  5
174B2
330
747D
100
AcDbEntity
  8
部品1
 48
0.01
100
AcDbCircle
 10
4288.352747049001
 20
5113.389586175439
 30
0.0
 40
2.0
100
AcDbArc
 50
180.0
 51
270.0
  0
ARC
  5
174B3
330
747D
100
AcDbEntity
  8
部品1
 48
0.01
100
AcDbCircle
 10
4288.352747049001
 20
5144.889586175439
 30
0.0
 40
2.0
100
AcDbArc
 50
90.0
 51
180.0
  0
LINE
  5
174B4
330
747D
100
AcDbEntity
  8
細線
100
AcDbLine
 10
4376.352747049001
 20
5117.389586175439
 30
0.0
 11
4450.352747049
 21
5117.389586175439
 31
0.0
  0
LINE
  5
174B5
330
747D
100
AcDbEntity
  8
細線
100
AcDbLine
 10
4376.352747049001
 20
5140.389586175439
 30
0.0
 11
4302.352747049001
 21
5140.389586175439
 31
0.0
  0
LINE
  5
174B6
330
747D
100
AcDbEntity
  8
細線
100
AcDbLine
 10
4302.352747049001
 20
5117.389586175439
 30
0.0
 11
4376.352747049001
 21
5117.389586175439
 31
0.0
  0
LINE
  5
174B7
330
747D
100
AcDbEntity
  8
細線
100
AcDbLine
 10
4450.352747049
 20
5140.389586175439
 30
0.0
 11
4376.352747049001
 21
5140.389586175439
 31
0.0
  0
LINE
  5
174B8
330
747D
100
AcDbEntity
  8
細線
100
AcDbLine
 10
4450.352747049
 20
5117.389586175439
 30
0.0
 11
4450.352747049
 21
5140.389586175439
 31
0.0
  0
LINE
  5
174B9
330
747D
100
AcDbEntity
  8
細線
100
AcDbLine
 10
4302.352747049001
 20
5140.389586175439
 30
0.0
 11
4302.352747049001
 21
5117.389586175439
 31
0.0
  0
LINE
  5
174BA
330
747D
100
AcDbEntity
  8
部品1
 48
0.01
100
AcDbLine
 10
4466.352747049
 20
5113.389586175439
 30
0.0
 11
4466.352747049
 21
5144.889586175439
 31
0.0
  0
LINE
  5
174BB
330
747D
100
AcDbEntity
  8
部品1
 48
0.01
100
AcDbLine
 10
4288.352747049001
 20
5111.389586175439
 30
0.0
 11
4464.352747049001
 21
5111.389586175439
 31
0.0
  0
LINE
  5
174BC
330
747D
100
AcDbEntity
  8
部品1
 48
0.01
100
AcDbLine
 10
4286.352747049
 20
5144.889586175439
 30
0.0
 11
4286.352747049
 21
5113.389586175439
 31
0.0
  0
LINE
  5
174BD
330
747D
100
AcDbEntity
  8
部品1
 48
0.01
100
AcDbLine
 10
4464.352747049001
 20
5146.889586175439
 30
0.0
 11
4288.352747049001
 21
5146.889586175439
 31
0.0
  0
LINE
  5
174BE
330
747D
100
AcDbEntity
  8
細線
100
AcDbLine
 10
4302.352747049001
 20
5134.389586175439
 30
0.0
 11
4376.352747049001
 21
5134.389586175439
 31
0.0
  0
LINE
  5
174BF
330
747D
100
AcDbEntity
  8
細線
100
AcDbLine
 10
4302.352747049001
 20
5128.389586175439
 30
0.0
 11
4376.352747049001
 21
5128.389586175439
 31
0.0
  0
LINE
  5
174C0
330
747D
100
AcDbEntity
  8
細線
100
AcDbLine
 10
4302.352747049001
 20
5122.389586175439
 30
0.0
 11
4376.352747049001
 21
5122.389586175439
 31
0.0
  0
LINE
  5
174C1
330
747D
100
AcDbEntity
  8
細線
100
AcDbLine
 10
4302.352747049001
 20
5134.389586175439
 30
0.0
 11
4371.352747049001
 21
5134.389586175439
 31
0.0
  0
LINE
  5
174C2
330
747D
100
AcDbEntity
  8
細線
100
AcDbLine
 10
4450.352747049
 20
5134.389586175439
 30
0.0
 11
4376.352747049001
 21
5134.389586175439
 31
0.0
  0
LINE
  5
174C3
330
747D
100
AcDbEntity
  8
細線
100
AcDbLine
 10
4450.352747049
 20
5122.389586175439
 30
0.0
 11
4376.352747049001
 21
5122.389586175439
 31
0.0
  0
LINE
  5
174C4
330
747D
100
AcDbEntity
  8
細線
100
AcDbLine
 10
4450.352747049
 20
5128.389586175439
 30
0.0
 11
4376.352747049001
 21
5128.389586175439
 31
0.0
  0
LINE
  5
174C5
330
747D
100
AcDbEntity
  8
細線
100
AcDbLine
 10
4376.352747049001
 20
5140.389586175439
 30
0.0
 11
4376.352747049001
 21
5117.389586175439
 31
0.0
  0
LINE
  5
1750E
330
747D
100
AcDbEntity
  8
部品1
100
AcDbLine
 10
8935.933086033662
 20
5308.493060780207
 30
0.0
 11
8934.799688701318
 21
5288.516932797607
 31
0.0
  0
LINE
  5
1750F
330
747D
100
AcDbEntity
  8
細線
 48
50.0
100
AcDbLine
 10
8903.352747048996
 20
5315.889586175447
 30
0.0
 11
8903.352747048996
 21
5174.889586175446
 31
0.0
  0
LINE
  5
17510
330
747D
100
AcDbEntity
  8
部品1
100
AcDbLine
 10
8923.362668379741
 20
5192.859525630549
 30
0.0
 11
8922.717762572629
 21
5181.493060780208
 31
0.0
  0
LINE
  5
17511
330
747D
100
AcDbEntity
  8
部品1
100
AcDbLine
 10
8931.598698904585
 20
5285.05952563055
 30
0.0
 11
8926.563658176474
 21
5196.316932797607
 31
0.0
  0
ARC
  5
17512
330
747D
100
AcDbEntity
  8
部品1
 48
50.0
100
AcDbCircle
 10
8934.59388180077
 20
5284.889586175449
 30
0.0
 40
3.0
100
AcDbArc
 50
97.65812720736519
 51
176.7526572096682
  0
ARC
  5
17513
330
747D
100
AcDbEntity
  8
部品1
 48
50.0
100
AcDbCircle
 10
8926.357851275927
 20
5192.689586175446
 30
0.0
 40
3.0
100
AcDbArc
 50
97.65812720736519
 51
176.7526572096682
  0
ARC
  5
17514
330
747D
100
AcDbEntity
  8
部品1
 48
50.0
100
AcDbCircle
 10
8925.864782167366
 20
5196.356585337129
 30
0.0
 40
0.7
100
AcDbArc
 50
277.6581272073652
 51
356.7526572097202
  0
ARC
  5
17515
330
747D
100
AcDbEntity
  8
部品1
 48
50.0
100
AcDbCircle
 10
8934.100812692211
 20
5288.556585337134
 30
0.0
 40
0.7
100
AcDbArc
 50
277.6581272073652
 51
356.7526572096162
  0
ARC
  5
17516
330
747D
100
AcDbEntity
  8
部品1
100
AcDbCircle
 10
8915.729002481532
 20
5181.889586175448
 30
0.0
 40
7.0
100
AcDbArc
 50
270.0
 51
356.7526572096682
  0
ARC
  5
17517
330
747D
100
AcDbEntity
  8
部品1
100
AcDbCircle
 10
8928.944325942564
 20
5308.889586175446
 30
0.0
 40
7.0
100
AcDbArc
 50
356.7526572096682
 51
90.0
  0
DIMENSION
  5
17518
330
747D
100
AcDbEntity
  8
寸法
 48
50.0
100
AcDbDimension
  2
*D43
 10
8886.352747048997
 20
5528.431171433688
 30
0.0
 11
9249.838028423233
 21
5528.431171433688
 31
0.0
 70
   160
 71
     5
 42
50.0
  3
INABA_S40G
100
AcDbAlignedDimension
 13
8936.352747048998
 23
5315.889586175447
 33
0.0
 14
8886.352747048997
 24
5315.889586175448
 34
0.0
100
AcDbRotatedDimension
  0
LINE
  5
17519
330
747D
100
AcDbEntity
  8
部品1
 48
50.0
100
AcDbLine
 10
8928.944325942564
 20
5315.889586175445
 30
0.0
 11
3923.761168155423
 21
5315.889586175443
 31
0.0
  0
LINE
  5
1751A
330
747D
100
AcDbEntity
  8
細線
 48
50.0
100
AcDbLine
 10
8934.194096036579
 20
5287.862828738849
 30
0.0
 11
3918.511398059407
 21
5287.862828739442
 31
0.0
  0
LINE
  5
1751B
330
747D
100
AcDbEntity
  8
細線
 48
50.0
100
AcDbLine
 10
8925.958065511791
 20
5195.662828738853
 30
0.0
 11
3926.747428584241
 21
5195.662828739441
 31
0.0
  0
LINE
  5
1751C
330
747D
100
AcDbEntity
  8
部品1
 48
50.0
100
AcDbLine
 10
8915.729002481532
 20
5174.889586175436
 30
0.0
 11
3936.976491616457
 21
5174.889586175445
 31
0.0
  0
LINE
  5
1751D
330
747D
100
AcDbEntity
  8
細線
 48
50.0
100
AcDbLine
 10
3949.352747048994
 20
5315.889586175447
 30
0.0
 11
3949.352747048994
 21
5174.889586175445
 31
0.0
  0
ARC
  5
1751E
330
747D
100
AcDbEntity
  8
部品1
100
AcDbCircle
 10
3923.761168155423
 20
5308.889586175446
 30
0.0
 40
7.0
100
AcDbArc
 50
90.0
 51
183.2473427903317
  0
ARC
  5
1751F
330
747D
100
AcDbEntity
  8
部品1
100
AcDbCircle
 10
3936.976491616457
 20
5181.889586175448
 30
0.0
 40
7.0
100
AcDbArc
 50
183.2473427903317
 51
270.0
  0
ARC
  5
17520
330
747D
100
AcDbEntity
  8
部品1
 48
50.0
100
AcDbCircle
 10
3918.604681405781
 20
5288.556585337134
 30
0.0
 40
0.7
100
AcDbArc
 50
183.2473427903838
 51
262.3418727926349
  0
ARC
  5
17521
330
747D
100
AcDbEntity
  8
部品1
 48
50.0
100
AcDbCircle
 10
3926.840711930621
 20
5196.356585337129
 30
0.0
 40
0.7
100
AcDbArc
 50
183.2473427902797
 51
262.3418727926349
  0
ARC
  5
17522
330
747D
100
AcDbEntity
  8
部品1
 48
50.0
100
AcDbCircle
 10
3926.34764282206
 20
5192.689586175446
 30
0.0
 40
3.0
100
AcDbArc
 50
3.247342790331777
 51
82.3418727926348
  0
ARC
  5
17523
330
747D
100
AcDbEntity
  8
部品1
 48
50.0
100
AcDbCircle
 10
3918.111612297217
 20
5284.889586175446
 30
0.0
 40
3.0
100
AcDbArc
 50
3.247342790331777
 51
82.3418727926348
  0
LINE
  5
17524
330
747D
100
AcDbEntity
  8
部品1
100
AcDbLine
 10
3921.106795193402
 20
5285.05952563055
 30
0.0
 11
3926.141835921514
 21
5196.316932797607
 31
0.0
  0
LINE
  5
17525
330
747D
100
AcDbEntity
  8
部品1
100
AcDbLine
 10
3929.34282571825
 20
5192.859525630549
 30
0.0
 11
3929.987731525358
 21
5181.493060780207
 31
0.0
  0
LINE
  5
17526
330
747D
100
AcDbEntity
  8
部品1
100
AcDbLine
 10
3916.772408064324
 20
5308.493060780205
 30
0.0
 11
3917.905805396673
 21
5288.516932797607
 31
0.0
  0
DIMENSION
  5
17527
330
747D
100
AcDbEntity
  8
寸法
 48
50.0
100
AcDbDimension
  2
*D44
 10
3916.352747048994
 20
5528.431171433688
 30
0.0
 11
3602.867465674747
 21
5528.431171433688
 31
0.0
 70
   160
 71
     5
 42
50.0
  3
INABA_S40G
100
AcDbAlignedDimension
 13
3966.352747048994
 23
5315.88958617545
 33
0.0
 14
3916.352747048994
 24
5315.889586175448
 34
0.0
100
AcDbRotatedDimension
1001
ACAD
1000
DSTYLE
1002
{
1002
}
  0
DIMENSION
  5
17528
330
747D
100
AcDbEntity
  8
寸法
 48
50.0
100
AcDbDimension
  2
*D45
 10
8936.352747048998
 20
5751.388149871535
 30
0.0
 11
6426.352747048984
 21
5751.388149871535
 31
0.0
 70
   160
 71
     5
 42
5020.000000000004
  3
INABA_S40G
100
AcDbAlignedDimension
 13
3916.352747048994
 23
5315.889586175448
 33
0.0
 14
8936.352747048998
 24
5315.889586175447
 34
0.0
100
AcDbRotatedDimension
  0
DIMENSION
  5
17529
330
747D
100
AcDbEntity
  8
寸法
 48
50.0
100
AcDbDimension
  2
*D46
 10
3966.352747048994
 20
5528.431171433688
 30
0.0
 11
6426.352747048984
 21
5528.431171433688
 31
0.0
 70
   160
  1
柱外寸法<>
 71
     5
 42
4920.000000000004
  3
INABA_S40G
100
AcDbAlignedDimension
 13
8886.352747048997
 23
5315.889586175448
 33
0.0
 14
3966.352747048994
 24
5315.88958617545
 34
0.0
100
AcDbRotatedDimension
  0
LWPOLYLINE
  5
1752A
330
747D
100
AcDbEntity
  8
部品1
100
AcDbPolyline
 90
        4
 70
     1
 43
0.0
 10
6044.617413934776
 20
2537.813005358728
 10
6044.617413934776
 20
2297.920683813196
 10
6808.088080163213
 20
2297.920683813196
 10
6808.088080163213
 20
2537.813005358728
  0
TEXT
  5
1752B
330
747D
100
AcDbEntity
  8
部品1
100
AcDbText
 10
6135.142817672729
 20
2344.919476140203
 30
0.0
 40
135.0
  1
正面図
  7
STYLE2
100
AcDbText
  0
LINE
  5
1752C
330
747D
100
AcDbEntity
  8
部品1
100
AcDbLine
 10
7291.352747048993
 20
5078.389586175444
 30
0.0
 11
8001.290299220313
 21
5078.389586175444
 31
0.0
  0
ARC
  5
1752D
330
747D
100
AcDbEntity
  8
細線
 48
0.2
100
AcDbCircle
 10
8018.290299220312
 20
5078.610096006695
 30
0.0
 40
1.0
100
AcDbArc
 50
0.0
 51
73.39845040101522
  0
LINE
  5
1752E
330
747D
100
AcDbEntity
  8
細線
 48
0.2
100
AcDbLine
 10
8021.290299220311
 20
5078.639586175446
 30
0.0
 11
8001.290299220313
 21
5078.639586175446
 31
0.0
  0
LINE
  5
1752F
330
747D
100
AcDbEntity
  8
細線
 48
0.2
100
AcDbLine
 10
8021.290299220311
 20
5076.139586175447
 30
0.0
 11
8001.290299220313
 21
5076.139586175447
 31
0.0
  0
ARC
  5
17530
330
747D
100
AcDbEntity
  8
細線
 48
0.2
100
AcDbCircle
 10
8008.290299220311
 20
5078.610096006695
 30
0.0
 40
1.0
100
AcDbArc
 50
106.6015495989848
 51
180.0
  0
ARC
  5
17531
330
747D
100
AcDbEntity
  8
細線
 48
0.2
100
AcDbCircle
 10
8013.290299220312
 20
5061.839586175449
 30
0.0
 40
18.49999999999796
100
AcDbArc
 50
73.39845040101522
 51
106.6015495989848
  0
LINE
  5
17532
330
747D
100
AcDbEntity
  8
細線
 48
0.2
100
AcDbLine
 10
8018.974290516821
 20
5079.339586175446
 30
0.0
 11
8007.606307923808
 21
5079.339586175446
 31
0.0
  0
LINE
  5
17533
330
747D
100
AcDbEntity
  8
細線
 48
50.0
100
AcDbLine
 10
8001.290299220313
 20
5078.389586175447
 30
0.0
 11
8001.290299220313
 21
5078.639586175446
 31
0.0
  0
LINE
  5
17534
330
747D
100
AcDbEntity
  8
部品1
100
AcDbLine
 10
8021.290299220313
 20
5078.389586175447
 30
0.0
 11
8021.352747048993
 21
5078.389586175444
 31
0.0
  0
LINE
  5
17535
330
747D
100
AcDbEntity
  8
部品1
100
AcDbLine
 10
8021.290299220313
 20
5078.389586175443
 30
0.0
 11
8021.352747048993
 21
5078.389586175444
 31
0.0
  0
LINE
  5
17536
330
747D
100
AcDbEntity
  8
細線
 48
0.2
100
AcDbLine
 10
8021.290299220311
 20
5074.139586175446
 30
0.0
 11
8001.290299220313
 21
5074.139586175446
 31
0.0
  0
LINE
  5
17537
330
747D
100
AcDbEntity
  8
部品1
 48
0.2
100
AcDbLine
 10
8021.290299220311
 20
5071.639586175447
 30
0.0
 11
8001.290299220313
 21
5071.639586175447
 31
0.0
  0
LINE
  5
17538
330
747D
100
AcDbEntity
  8
細線
 48
0.1
100
AcDbLine
 10
8021.290299220311
 20
5078.639586175446
 30
0.0
 11
8021.290299220311
 21
5071.639586175447
 31
0.0
  0
LINE
  5
17539
330
747D
100
AcDbEntity
  8
細線
 48
50.0
100
AcDbLine
 10
8009.427542026008
 20
5076.139586175447
 30
0.0
 11
8009.427542026008
 21
5074.139586175446
 31
0.0
  0
LINE
  5
1753A
330
747D
100
AcDbEntity
  8
細線
 48
50.0
100
AcDbLine
 10
8017.277952071973
 20
5076.139586175447
 30
0.0
 11
8017.277952071973
 21
5074.139586175446
 31
0.0
  0
LINE
  5
1753B
330
747D
100
AcDbEntity
  8
部品1
 48
50.0
100
AcDbLine
 10
8001.290299220313
 20
5071.639586175447
 30
0.0
 11
8001.290299220313
 21
5078.389586175447
 31
0.0
  0
LINE
  5
1753C
330
747D
100
AcDbEntity
  8
部品1
100
AcDbLine
 10
7291.352747048994
 20
3287.389586175458
 30
0.0
 11
8001.290299220313
 21
3287.389586175465
 31
0.0
  0
LINE
  5
1753D
330
747D
100
AcDbEntity
  8
部品1
100
AcDbLine
 10
8021.352747048991
 20
5078.389586175444
 30
0.0
 11
8021.352747048995
 21
3287.389586175465
 31
0.0
  0
LINE
  5
1753E
330
747D
100
AcDbEntity
  8
部品1
 48
0.2
100
AcDbLine
 10
8021.290299220311
 20
3294.139586175463
 30
0.0
 11
8001.290299220313
 21
3294.139586175463
 31
0.0
  0
LINE
  5
1753F
330
747D
100
AcDbEntity
  8
細線
 48
0.2
100
AcDbLine
 10
8021.290299220311
 20
3291.639586175463
 30
0.0
 11
8001.290299220313
 21
3291.639586175463
 31
0.0
  0
LINE
  5
17540
330
747D
100
AcDbEntity
  8
部品1
100
AcDbLine
 10
8021.290299220313
 20
3287.389586175466
 30
0.0
 11
8021.352747048993
 21
3287.389586175466
 31
0.0
  0
LINE
  5
17541
330
747D
100
AcDbEntity
  8
部品1
100
AcDbLine
 10
8021.290299220313
 20
3287.389586175465
 30
0.0
 11
8021.352747048993
 21
3287.389586175465
 31
0.0
  0
LINE
  5
17542
330
747D
100
AcDbEntity
  8
細線
 48
50.0
100
AcDbLine
 10
8001.290299220313
 20
3287.389586175465
 30
0.0
 11
8001.290299220313
 21
3287.139586175463
 31
0.0
  0
LINE
  5
17543
330
747D
100
AcDbEntity
  8
細線
 48
0.2
100
AcDbLine
 10
8018.974290516821
 20
3286.439586175462
 30
0.0
 11
8007.606307923808
 21
3286.439586175462
 31
0.0
  0
ARC
  5
17544
330
747D
100
AcDbEntity
  8
細線
 48
0.2
100
AcDbCircle
 10
8013.290299220312
 20
3303.93958617546
 30
0.0
 40
18.49999999999796
100
AcDbArc
 50
253.3984504010152
 51
286.6015495989848
  0
ARC
  5
17545
330
747D
100
AcDbEntity
  8
細線
 48
0.2
100
AcDbCircle
 10
8008.290299220311
 20
3287.169076344215
 30
0.0
 40
1.0
100
AcDbArc
 50
180.0
 51
253.3984504010152
  0
LINE
  5
17546
330
747D
100
AcDbEntity
  8
細線
 48
0.2
100
AcDbLine
 10
8021.290299220311
 20
3289.639586175463
 30
0.0
 11
8001.290299220313
 21
3289.639586175465
 31
0.0
  0
LINE
  5
17547
330
747D
100
AcDbEntity
  8
細線
 48
0.2
100
AcDbLine
 10
8021.290299220311
 20
3287.139586175463
 30
0.0
 11
8001.290299220313
 21
3287.139586175463
 31
0.0
  0
ARC
  5
17548
330
747D
100
AcDbEntity
  8
細線
 48
0.2
100
AcDbCircle
 10
8018.290299220312
 20
3287.169076344215
 30
0.0
 40
1.0
100
AcDbArc
 50
286.6015495989848
 51
0.0
  0
LINE
  5
17549
330
747D
100
AcDbEntity
  8
部品1
100
AcDbLine
 10
8021.290299220313
 20
3287.389586175465
 30
0.0
 11
8021.352747048991
 21
3287.389586175465
 31
0.0
  0
LINE
  5
1754A
330
747D
100
AcDbEntity
  8
部品1
 48
50.0
100
AcDbLine
 10
8001.290299220313
 20
3294.139586175463
 30
0.0
 11
8001.290299220313
 21
3287.389586175465
 31
0.0
  0
LINE
  5
1754B
330
747D
100
AcDbEntity
  8
細線
 48
50.0
100
AcDbLine
 10
8017.277952071973
 20
3289.639586175465
 30
0.0
 11
8017.277952071973
 21
3291.639586175463
 31
0.0
  0
LINE
  5
1754C
330
747D
100
AcDbEntity
  8
細線
 48
50.0
100
AcDbLine
 10
8009.427542026008
 20
3289.639586175465
 30
0.0
 11
8009.427542026008
 21
3291.639586175463
 31
0.0
  0
LINE
  5
1754D
330
747D
100
AcDbEntity
  8
細線
 48
0.1
100
AcDbLine
 10
8021.290299220311
 20
3287.139586175463
 30
0.0
 11
8021.290299220311
 21
3294.139586175463
 31
0.0
  0
LINE
  5
1754E
330
747D
100
AcDbEntity
  8
部品1
100
AcDbLine
 10
7353.352747048991
 20
4242.889586175446
 30
0.0
 11
7312.354477157976
 21
4242.889586175446
 31
0.0
  0
LINE
  5
1754F
330
747D
100
AcDbEntity
  8
細線
100
AcDbLine
 10
7347.352747048991
 20
4232.889586175446
 30
0.0
 11
7316.733703413468
 21
4232.889586175446
 31
0.0
  0
LINE
  5
17550
330
747D
100
AcDbEntity
  8
細線
100
AcDbLine
 10
7337.560286227738
 20
4229.889586175446
 30
0.0
 11
7325.352747048992
 21
4229.889586175446
 31
0.0
  0
LINE
  5
17551
330
747D
100
AcDbEntity
  8
細線
100
AcDbLine
 10
7352.352747048993
 20
4241.389586175446
 30
0.0
 11
7313.186128579745
 21
4241.389586175446
 31
0.0
  0
ARC
  5
17552
330
747D
100
AcDbEntity
  8
部品1
100
AcDbCircle
 10
7312.354477157976
 20
4236.889586175446
 30
0.0
 40
6.0
100
AcDbArc
 50
90.0
 51
169.4161974034797
  0
ARC
  5
17553
330
747D
100
AcDbEntity
  8
細線
100
AcDbCircle
 10
7313.186128579745
 20
4235.889586175446
 30
0.0
 40
5.5
100
AcDbArc
 50
90.0
 51
169.5785490272547
  0
LINE
  5
17554
330
747D
100
AcDbEntity
  8
細線
100
AcDbLine
 10
7325.352747048992
 20
4226.889078276882
 30
0.0
 11
7312.589419833024
 21
4226.889078276882
 31
0.0
  0
ARC
  5
17555
330
747D
100
AcDbEntity
  8
細線
100
AcDbCircle
 10
7316.733703413468
 20
4226.889586175446
 30
0.0
 40
6.0
100
AcDbArc
 50
90.0
 51
171.2120626773931
  0
ARC
  5
17556
330
747D
100
AcDbEntity
  8
細線
100
AcDbCircle
 10
7326.847170958825
 20
4223.889586175446
 30
0.0
 40
3.0
100
AcDbArc
 50
8.099550838235547
 51
90.0
  0
LINE
  5
17557
330
747D
100
AcDbEntity
  8
細線
100
AcDbLine
 10
7326.847170958825
 20
4226.889586175446
 30
0.0
 11
7325.352747048992
 21
4226.889586175446
 31
0.0
  0
ARC
  5
17558
330
747D
100
AcDbEntity
  8
部品1
100
AcDbCircle
 10
7353.352747048991
 20
4236.889586175446
 30
0.0
 40
6.0
100
AcDbArc
 50
0.0
 51
90.0
  0
ARC
  5
17559
330
747D
100
AcDbEntity
  8
細線
100
AcDbCircle
 10
7352.352747048993
 20
4235.889586175446
 30
0.0
 40
5.5
100
AcDbArc
 50
0.0
 51
90.0
  0
ARC
  5
1755A
330
747D
100
AcDbEntity
  8
細線
100
AcDbCircle
 10
7337.560286227738
 20
4223.889586175446
 30
0.0
 40
6.0
100
AcDbArc
 50
0.0
 51
90.0
  0
ARC
  5
1755B
330
747D
100
AcDbEntity
  8
細線
100
AcDbCircle
 10
7347.352747048991
 20
4226.889586175446
 30
0.0
 40
6.0
100
AcDbArc
 50
0.0
 51
90.0
  0
CIRCLE
  5
1755C
330
747D
100
AcDbEntity
  8
細線
 48
20.0
100
AcDbCircle
 10
7332.853612103484
 20
4283.389586175446
 30
0.0
 40
10.0
  0
CIRCLE
  5
1755D
330
747D
100
AcDbEntity
  8
細線
 48
20.0
100
AcDbCircle
 10
7332.853612103484
 20
4283.389586175446
 30
0.0
 40
20.0
  0
LINE
  5
1755E
330
747D
100
AcDbEntity
  8
細線
100
AcDbLine
 10
7316.733703413468
 20
4132.889586175446
 30
0.0
 11
7347.352747048991
 21
4132.889586175446
 31
0.0
  0
LINE
  5
1755F
330
747D
100
AcDbEntity
  8
細線
100
AcDbLine
 10
7325.352747048992
 20
4135.889586175446
 30
0.0
 11
7337.560286227738
 21
4135.889586175446
 31
0.0
  0
LINE
  5
17560
330
747D
100
AcDbEntity
  8
細線
100
AcDbLine
 10
7325.352747048992
 20
4138.890094074008
 30
0.0
 11
7311.87404255017
 21
4138.890094074008
 31
0.0
  0
ARC
  5
17561
330
747D
100
AcDbEntity
  8
細線
100
AcDbCircle
 10
7316.733703413468
 20
4138.889586175446
 30
0.0
 40
6.0
100
AcDbArc
 50
188.7879373226068
 51
270.0
  0
ARC
  5
17562
330
747D
100
AcDbEntity
  8
細線
100
AcDbCircle
 10
7326.847170958827
 20
4141.889586175446
 30
0.0
 40
3.0
100
AcDbArc
 50
270.0
 51
351.9004491617129
  0
LINE
  5
17563
330
747D
100
AcDbEntity
  8
細線
100
AcDbLine
 10
7325.352747048992
 20
4138.889586175446
 30
0.0
 11
7326.847170958827
 21
4138.889586175446
 31
0.0
  0
ARC
  5
17564
330
747D
100
AcDbEntity
  8
細線
100
AcDbCircle
 10
7337.560286227738
 20
4141.889586175446
 30
0.0
 40
6.0
100
AcDbArc
 50
270.0
 51
0.0
  0
ARC
  5
17565
330
747D
100
AcDbEntity
  8
細線
100
AcDbCircle
 10
7347.352747048991
 20
4138.889586175446
 30
0.0
 40
6.0
100
AcDbArc
 50
270.0
 51
0.0
  0
LINE
  5
17566
330
747D
100
AcDbEntity
  8
部品1
100
AcDbLine
 10
7312.354477157976
 20
4122.889586175446
 30
0.0
 11
7353.352747048991
 21
4122.889586175446
 31
0.0
  0
LINE
  5
17567
330
747D
100
AcDbEntity
  8
細線
100
AcDbLine
 10
7313.186128579745
 20
4124.389586175446
 30
0.0
 11
7352.352747048993
 21
4124.389586175446
 31
0.0
  0
ARC
  5
17568
330
747D
100
AcDbEntity
  8
部品1
100
AcDbCircle
 10
7312.354477157976
 20
4128.889586175445
 30
0.0
 40
6.0
100
AcDbArc
 50
190.5838025965202
 51
270.0
  0
ARC
  5
17569
330
747D
100
AcDbEntity
  8
細線
100
AcDbCircle
 10
7313.186128579745
 20
4129.889586175447
 30
0.0
 40
5.5
100
AcDbArc
 50
190.4214509727453
 51
270.0
  0
ARC
  5
1756A
330
747D
100
AcDbEntity
  8
部品1
100
AcDbCircle
 10
7353.352747048991
 20
4128.889586175445
 30
0.0
 40
6.0
100
AcDbArc
 50
270.0
 51
0.0
  0
ARC
  5
1756B
330
747D
100
AcDbEntity
  8
細線
100
AcDbCircle
 10
7352.352747048993
 20
4129.889586175447
 30
0.0
 40
5.5
100
AcDbArc
 50
270.0
 51
0.0
  0
ARC
  5
1756C
330
747D
100
AcDbEntity
  8
部品1
100
AcDbCircle
 10
7601.352747048991
 20
4182.889586175446
 30
0.0
 40
300.0
100
AcDbArc
 50
169.4161974034797
 51
190.5838025965202
  0
ARC
  5
1756D
330
747D
100
AcDbEntity
  8
細線
100
AcDbCircle
 10
7038.749965141068
 20
4182.889586175446
 30
0.0
 40
294.0
100
AcDbArc
 50
351.9004491617645
 51
8.099550838235547
  0
ARC
  5
1756E
330
747D
100
AcDbEntity
  8
細線
100
AcDbCircle
 10
7601.352747048991
 20
4182.889586175446
 30
0.0
 40
294.0
100
AcDbArc
 50
171.2120626773931
 51
188.7879373226068
  0
ARC
  5
1756F
330
747D
100
AcDbEntity
  8
細線
100
AcDbCircle
 10
7601.352747048991
 20
4182.889586175446
 30
0.0
 40
298.5
100
AcDbArc
 50
169.5785490272547
 51
190.4214509727453
  0
LINE
  5
17570
330
747D
100
AcDbEntity
  8
細線
100
AcDbLine
 10
7325.352747048992
 20
4232.889586175446
 30
0.0
 11
7325.352747048992
 21
4132.889586175446
 31
0.0
  0
LINE
  5
17571
330
747D
100
AcDbEntity
  8
部品1
100
AcDbLine
 10
7359.352747048991
 20
4128.889586175445
 30
0.0
 11
7359.352747048991
 21
4236.889586175446
 31
0.0
  0
LINE
  5
17572
330
747D
100
AcDbEntity
  8
細線
100
AcDbLine
 10
7357.852747048991
 20
4129.889586175447
 30
0.0
 11
7357.852747048991
 21
4235.889586175446
 31
0.0
  0
LINE
  5
17573
330
747D
100
AcDbEntity
  8
細線
100
AcDbLine
 10
7353.352747048991
 20
4138.889586175446
 30
0.0
 11
7353.352747048991
 21
4226.889586175446
 31
0.0
  0
LINE
  5
17574
330
747D
100
AcDbEntity
  8
細線
100
AcDbLine
 10
7343.560286227738
 20
4141.889586175446
 30
0.0
 11
7343.560286227738
 21
4223.889586175446
 31
0.0
  0
LINE
  5
17575
330
747D
100
AcDbEntity
  8
部品1
100
AcDbLine
 10
7203.352747048994
 20
5080.889586175445
 30
0.0
 11
7203.352747048994
 21
3283.889586175464
 31
0.0
  0
LINE
  5
17576
330
747D
100
AcDbEntity
  8
部品1
100
AcDbLine
 10
7291.352747048993
 20
5078.389586175444
 30
0.0
 11
7291.352747048994
 21
3287.389586175458
 31
0.0
  0
LINE
  5
17577
330
747D
100
AcDbEntity
  8
部品1
100
AcDbLine
 10
7289.352747048994
 20
5080.889586175445
 30
0.0
 11
7289.352747048994
 21
3283.889586175464
 31
0.0
  0
LINE
  5
17578
330
747D
100
AcDbEntity
  8
部品1
100
AcDbLine
 10
5563.352747048994
 20
5080.889586175445
 30
0.0
 11
5563.352747048994
 21
3283.889586175464
 31
0.0
  0
LINE
  5
17579
330
747D
100
AcDbEntity
  8
部品1
 48
50.0
100
AcDbLine
 10
6361.290299220311
 20
5071.639586175447
 30
0.0
 11
6361.290299220311
 21
5078.389586175447
 31
0.0
  0
LINE
  5
1757A
330
747D
100
AcDbEntity
  8
細線
 48
0.1
100
AcDbLine
 10
6381.290299220312
 20
5078.639586175446
 30
0.0
 11
6381.290299220312
 21
5071.639586175447
 31
0.0
  0
LINE
  5
1757B
330
747D
100
AcDbEntity
  8
細線
 48
50.0
100
AcDbLine
 10
6369.427542026008
 20
5076.139586175447
 30
0.0
 11
6369.427542026009
 21
5074.139586175446
 31
0.0
  0
LINE
  5
1757C
330
747D
100
AcDbEntity
  8
細線
 48
50.0
100
AcDbLine
 10
6377.277952071972
 20
5076.139586175447
 30
0.0
 11
6377.277952071972
 21
5074.139586175446
 31
0.0
  0
LINE
  5
1757D
330
747D
100
AcDbEntity
  8
細線
 48
0.2
100
AcDbLine
 10
6381.290299220312
 20
5074.139586175446
 30
0.0
 11
6361.290299220312
 21
5074.139586175446
 31
0.0
  0
LINE
  5
1757E
330
747D
100
AcDbEntity
  8
部品1
 48
0.2
100
AcDbLine
 10
6381.290299220312
 20
5071.639586175447
 30
0.0
 11
6361.290299220311
 21
5071.639586175447
 31
0.0
  0
LINE
  5
1757F
330
747D
100
AcDbEntity
  8
細線
 48
50.0
100
AcDbLine
 10
6361.290299220311
 20
5078.389586175447
 30
0.0
 11
6361.290299220311
 21
5078.639586175446
 31
0.0
  0
LINE
  5
17580
330
747D
100
AcDbEntity
  8
部品1
100
AcDbLine
 10
6381.290299220313
 20
5078.389586175447
 30
0.0
 11
6381.352747048993
 21
5078.389586175444
 31
0.0
  0
LINE
  5
17581
330
747D
100
AcDbEntity
  8
細線
 48
0.2
100
AcDbLine
 10
6381.290299220312
 20
5078.639586175446
 30
0.0
 11
6361.290299220312
 21
5078.639586175446
 31
0.0
  0
LINE
  5
17582
330
747D
100
AcDbEntity
  8
細線
 48
0.2
100
AcDbLine
 10
6381.290299220312
 20
5076.139586175447
 30
0.0
 11
6361.290299220312
 21
5076.139586175447
 31
0.0
  0
ARC
  5
17583
330
747D
100
AcDbEntity
  8
細線
 48
0.2
100
AcDbCircle
 10
6368.290299220312
 20
5078.610096006695
 30
0.0
 40
1.0
100
AcDbArc
 50
106.6015495989848
 51
180.0
  0
ARC
  5
17584
330
747D
100
AcDbEntity
  8
細線
 48
0.2
100
AcDbCircle
 10
6378.290299220312
 20
5078.610096006695
 30
0.0
 40
1.0
100
AcDbArc
 50
0.0
 51
73.39845040101522
  0
ARC
  5
17585
330
747D
100
AcDbEntity
  8
細線
 48
0.2
100
AcDbCircle
 10
6373.290299220311
 20
5061.839586175449
 30
0.0
 40
18.49999999999796
100
AcDbArc
 50
73.39845040101522
 51
106.6015495989848
  0
LINE
  5
17586
330
747D
100
AcDbEntity
  8
細線
 48
0.2
100
AcDbLine
 10
6378.974290516819
 20
5079.339586175446
 30
0.0
 11
6367.606307923807
 21
5079.339586175446
 31
0.0
  0
CIRCLE
  5
17587
330
747D
100
AcDbEntity
  8
細線
 48
20.0
100
AcDbCircle
 10
5692.853612103485
 20
4283.389586175446
 30
0.0
 40
20.0
  0
CIRCLE
  5
17588
330
747D
100
AcDbEntity
  8
細線
 48
20.0
100
AcDbCircle
 10
5692.853612103485
 20
4283.389586175446
 30
0.0
 40
10.0
  0
ARC
  5
17589
330
747D
100
AcDbEntity
  8
細線
100
AcDbCircle
 10
5707.352747048992
 20
4226.889586175446
 30
0.0
 40
6.0
100
AcDbArc
 50
0.0
 51
90.0
  0
ARC
  5
1758A
330
747D
100
AcDbEntity
  8
細線
100
AcDbCircle
 10
5697.560286227737
 20
4223.889586175446
 30
0.0
 40
6.0
100
AcDbArc
 50
0.0
 51
90.0
  0
ARC
  5
1758B
330
747D
100
AcDbEntity
  8
細線
100
AcDbCircle
 10
5712.352747048992
 20
4235.889586175446
 30
0.0
 40
5.5
100
AcDbArc
 50
0.0
 51
90.0
  0
ARC
  5
1758C
330
747D
100
AcDbEntity
  8
部品1
100
AcDbCircle
 10
5713.352747048991
 20
4236.889586175446
 30
0.0
 40
6.0
100
AcDbArc
 50
0.0
 51
90.0
  0
LINE
  5
1758D
330
747D
100
AcDbEntity
  8
細線
100
AcDbLine
 10
5686.847170958825
 20
4226.889586175446
 30
0.0
 11
5685.352747048991
 21
4226.889586175446
 31
0.0
  0
ARC
  5
1758E
330
747D
100
AcDbEntity
  8
細線
100
AcDbCircle
 10
5686.847170958825
 20
4223.889586175446
 30
0.0
 40
3.0
100
AcDbArc
 50
8.099550838235547
 51
90.0
  0
ARC
  5
1758F
330
747D
100
AcDbEntity
  8
細線
100
AcDbCircle
 10
5676.733703413469
 20
4226.889586175446
 30
0.0
 40
6.0
100
AcDbArc
 50
90.0
 51
171.2120626773931
  0
LINE
  5
17590
330
747D
100
AcDbEntity
  8
細線
100
AcDbLine
 10
5685.352747048991
 20
4226.889078276882
 30
0.0
 11
5672.589419833024
 21
4226.889078276882
 31
0.0
  0
ARC
  5
17591
330
747D
100
AcDbEntity
  8
細線
100
AcDbCircle
 10
5673.186128579746
 20
4235.889586175446
 30
0.0
 40
5.5
100
AcDbArc
 50
90.0
 51
169.5785490272547
  0
ARC
  5
17592
330
747D
100
AcDbEntity
  8
部品1
100
AcDbCircle
 10
5672.354477157977
 20
4236.889586175446
 30
0.0
 40
6.0
100
AcDbArc
 50
90.0
 51
169.4161974034797
  0
LINE
  5
17593
330
747D
100
AcDbEntity
  8
細線
100
AcDbLine
 10
5712.352747048992
 20
4241.389586175446
 30
0.0
 11
5673.186128579746
 21
4241.389586175446
 31
0.0
  0
LINE
  5
17594
330
747D
100
AcDbEntity
  8
細線
100
AcDbLine
 10
5697.560286227737
 20
4229.889586175446
 30
0.0
 11
5685.352747048991
 21
4229.889586175446
 31
0.0
  0
LINE
  5
17595
330
747D
100
AcDbEntity
  8
細線
100
AcDbLine
 10
5707.352747048992
 20
4232.889586175446
 30
0.0
 11
5676.733703413469
 21
4232.889586175446
 31
0.0
  0
LINE
  5
17596
330
747D
100
AcDbEntity
  8
部品1
100
AcDbLine
 10
5713.352747048991
 20
4242.889586175446
 30
0.0
 11
5672.354477157977
 21
4242.889586175446
 31
0.0
  0
ARC
  5
17597
330
747D
100
AcDbEntity
  8
細線
100
AcDbCircle
 10
5712.352747048992
 20
4129.889586175447
 30
0.0
 40
5.5
100
AcDbArc
 50
270.0
 51
0.0
  0
ARC
  5
17598
330
747D
100
AcDbEntity
  8
部品1
100
AcDbCircle
 10
5713.352747048991
 20
4128.889586175445
 30
0.0
 40
6.0
100
AcDbArc
 50
270.0
 51
0.0
  0
ARC
  5
17599
330
747D
100
AcDbEntity
  8
細線
100
AcDbCircle
 10
5673.186128579746
 20
4129.889586175447
 30
0.0
 40
5.5
100
AcDbArc
 50
190.4214509727453
 51
270.0
  0
ARC
  5
1759A
330
747D
100
AcDbEntity
  8
部品1
100
AcDbCircle
 10
5672.354477157977
 20
4128.889586175445
 30
0.0
 40
6.0
100
AcDbArc
 50
190.5838025965202
 51
270.0
  0
LINE
  5
1759B
330
747D
100
AcDbEntity
  8
細線
100
AcDbLine
 10
5673.186128579746
 20
4124.389586175446
 30
0.0
 11
5712.352747048992
 21
4124.389586175446
 31
0.0
  0
LINE
  5
1759C
330
747D
100
AcDbEntity
  8
部品1
100
AcDbLine
 10
5672.354477157977
 20
4122.889586175446
 30
0.0
 11
5713.352747048991
 21
4122.889586175446
 31
0.0
  0
ARC
  5
1759D
330
747D
100
AcDbEntity
  8
細線
100
AcDbCircle
 10
5707.352747048992
 20
4138.889586175446
 30
0.0
 40
6.0
100
AcDbArc
 50
270.0
 51
0.0
  0
ARC
  5
1759E
330
747D
100
AcDbEntity
  8
細線
100
AcDbCircle
 10
5697.560286227737
 20
4141.889586175446
 30
0.0
 40
6.0
100
AcDbArc
 50
270.0
 51
0.0
  0
LINE
  5
1759F
330
747D
100
AcDbEntity
  8
細線
100
AcDbLine
 10
5685.352747048991
 20
4138.889586175446
 30
0.0
 11
5686.847170958827
 21
4138.889586175446
 31
0.0
  0
ARC
  5
175A0
330
747D
100
AcDbEntity
  8
細線
100
AcDbCircle
 10
5686.847170958827
 20
4141.889586175446
 30
0.0
 40
3.0
100
AcDbArc
 50
270.0
 51
351.9004491617129
  0
ARC
  5
175A1
330
747D
100
AcDbEntity
  8
細線
100
AcDbCircle
 10
5676.733703413469
 20
4138.889586175446
 30
0.0
 40
6.0
100
AcDbArc
 50
188.7879373226068
 51
270.0
  0
LINE
  5
175A2
330
747D
100
AcDbEntity
  8
細線
100
AcDbLine
 10
5685.352747048991
 20
4138.890094074008
 30
0.0
 11
5671.874042550169
 21
4138.890094074008
 31
0.0
  0
LINE
  5
175A3
330
747D
100
AcDbEntity
  8
細線
100
AcDbLine
 10
5685.352747048991
 20
4135.889586175446
 30
0.0
 11
5697.560286227737
 21
4135.889586175446
 31
0.0
  0
LINE
  5
175A4
330
747D
100
AcDbEntity
  8
細線
100
AcDbLine
 10
5676.733703413469
 20
4132.889586175446
 30
0.0
 11
5707.352747048992
 21
4132.889586175446
 31
0.0
  0
LINE
  5
175A5
330
747D
100
AcDbEntity
  8
細線
100
AcDbLine
 10
5703.560286227737
 20
4141.889586175446
 30
0.0
 11
5703.560286227737
 21
4223.889586175446
 31
0.0
  0
LINE
  5
175A6
330
747D
100
AcDbEntity
  8
細線
100
AcDbLine
 10
5713.352747048991
 20
4138.889586175446
 30
0.0
 11
5713.352747048991
 21
4226.889586175446
 31
0.0
  0
LINE
  5
175A7
330
747D
100
AcDbEntity
  8
細線
100
AcDbLine
 10
5717.852747048992
 20
4129.889586175447
 30
0.0
 11
5717.852747048992
 21
4235.889586175446
 31
0.0
  0
LINE
  5
175A8
330
747D
100
AcDbEntity
  8
部品1
100
AcDbLine
 10
5719.352747048992
 20
4128.889586175445
 30
0.0
 11
5719.352747048992
 21
4236.889586175446
 31
0.0
  0
LINE
  5
175A9
330
747D
100
AcDbEntity
  8
細線
100
AcDbLine
 10
5685.352747048991
 20
4232.889586175446
 30
0.0
 11
5685.352747048991
 21
4132.889586175446
 31
0.0
  0
ARC
  5
175AA
330
747D
100
AcDbEntity
  8
細線
100
AcDbCircle
 10
5961.352747048992
 20
4182.889586175446
 30
0.0
 40
298.5
100
AcDbArc
 50
169.5785490272547
 51
190.4214509727453
  0
ARC
  5
175AB
330
747D
100
AcDbEntity
  8
細線
100
AcDbCircle
 10
5961.352747048992
 20
4182.889586175446
 30
0.0
 40
294.0
100
AcDbArc
 50
171.2120626773931
 51
188.7879373226068
  0
ARC
  5
175AC
330
747D
100
AcDbEntity
  8
細線
100
AcDbCircle
 10
5398.749965141067
 20
4182.889586175446
 30
0.0
 40
294.0
100
AcDbArc
 50
351.9004491617645
 51
8.099550838235547
  0
ARC
  5
175AD
330
747D
100
AcDbEntity
  8
部品1
100
AcDbCircle
 10
5961.352747048992
 20
4182.889586175446
 30
0.0
 40
300.0
100
AcDbArc
 50
169.4161974034797
 51
190.5838025965202
  0
LINE
  5
175AE
330
747D
100
AcDbEntity
  8
部品1
100
AcDbLine
 10
5651.352747048993
 20
5078.389586175447
 30
0.0
 11
6361.290299220312
 21
5078.389586175447
 31
0.0
  0
LINE
  5
175AF
330
747D
100
AcDbEntity
  8
部品1
 48
0.2
100
AcDbLine
 10
6381.290299220312
 20
3294.139586175463
 30
0.0
 11
6361.290299220311
 21
3294.139586175463
 31
0.0
  0
LINE
  5
175B0
330
747D
100
AcDbEntity
  8
細線
 48
0.2
100
AcDbLine
 10
6381.290299220312
 20
3291.639586175463
 30
0.0
 11
6361.290299220312
 21
3291.639586175463
 31
0.0
  0
LINE
  5
175B1
330
747D
100
AcDbEntity
  8
部品1
100
AcDbLine
 10
6381.290299220313
 20
3287.389586175456
 30
0.0
 11
6381.352747048993
 21
3287.389586175456
 31
0.0
  0
LINE
  5
175B2
330
747D
100
AcDbEntity
  8
部品1
100
AcDbLine
 10
6381.290299220313
 20
3287.389586175465
 30
0.0
 11
6381.352747048993
 21
3287.389586175465
 31
0.0
  0
LINE
  5
175B3
330
747D
100
AcDbEntity
  8
細線
 48
50.0
100
AcDbLine
 10
6361.290299220311
 20
3287.389586175465
 30
0.0
 11
6361.290299220311
 21
3287.139586175463
 31
0.0
  0
LINE
  5
175B4
330
747D
100
AcDbEntity
  8
細線
 48
0.2
100
AcDbLine
 10
6378.974290516819
 20
3286.439586175462
 30
0.0
 11
6367.606307923807
 21
3286.439586175462
 31
0.0
  0
ARC
  5
175B5
330
747D
100
AcDbEntity
  8
細線
 48
0.2
100
AcDbCircle
 10
6373.290299220311
 20
3303.93958617546
 30
0.0
 40
18.49999999999796
100
AcDbArc
 50
253.3984504010152
 51
286.6015495989848
  0
ARC
  5
175B6
330
747D
100
AcDbEntity
  8
細線
 48
0.2
100
AcDbCircle
 10
6368.290299220312
 20
3287.169076344215
 30
0.0
 40
1.0
100
AcDbArc
 50
180.0
 51
253.3984504010152
  0
LINE
  5
175B7
330
747D
100
AcDbEntity
  8
細線
 48
0.2
100
AcDbLine
 10
6381.290299220312
 20
3289.639586175463
 30
0.0
 11
6361.290299220312
 21
3289.639586175465
 31
0.0
  0
LINE
  5
175B8
330
747D
100
AcDbEntity
  8
細線
 48
0.2
100
AcDbLine
 10
6381.290299220312
 20
3287.139586175463
 30
0.0
 11
6361.290299220312
 21
3287.139586175463
 31
0.0
  0
ARC
  5
175B9
330
747D
100
AcDbEntity
  8
細線
 48
0.2
100
AcDbCircle
 10
6378.290299220312
 20
3287.169076344215
 30
0.0
 40
1.0
100
AcDbArc
 50
286.6015495989848
 51
0.0
  0
LINE
  5
175BA
330
747D
100
AcDbEntity
  8
部品1
 48
50.0
100
AcDbLine
 10
6361.290299220311
 20
3294.139586175463
 30
0.0
 11
6361.290299220311
 21
3287.389586175465
 31
0.0
  0
LINE
  5
175BB
330
747D
100
AcDbEntity
  8
細線
 48
50.0
100
AcDbLine
 10
6377.277952071972
 20
3289.639586175465
 30
0.0
 11
6377.277952071972
 21
3291.639586175463
 31
0.0
  0
LINE
  5
175BC
330
747D
100
AcDbEntity
  8
細線
 48
50.0
100
AcDbLine
 10
6369.427542026008
 20
3289.639586175465
 30
0.0
 11
6369.427542026009
 21
3291.639586175463
 31
0.0
  0
LINE
  5
175BD
330
747D
100
AcDbEntity
  8
細線
 48
0.1
100
AcDbLine
 10
6381.290299220312
 20
3287.139586175463
 30
0.0
 11
6381.290299220312
 21
3294.139586175463
 31
0.0
  0
LINE
  5
175BE
330
747D
100
AcDbEntity
  8
部品1
100
AcDbLine
 10
5651.352747048993
 20
3287.38958617545
 30
0.0
 11
6361.290299220312
 21
3287.389586175456
 31
0.0
  0
LINE
  5
175BF
330
747D
100
AcDbEntity
  8
部品1
100
AcDbLine
 10
5651.352747048992
 20
5078.389586175443
 30
0.0
 11
5651.352747048993
 21
3287.389586175458
 31
0.0
  0
LINE
  5
175C0
330
747D
100
AcDbEntity
  8
部品1
100
AcDbLine
 10
5649.352747048993
 20
5080.889586175445
 30
0.0
 11
5649.352747048993
 21
3283.889586175464
 31
0.0
  0
LINE
  5
175C1
330
747D
100
AcDbEntity
  8
部品1
100
AcDbLine
 10
6381.352747048992
 20
5078.389586175444
 30
0.0
 11
6381.352747048994
 21
3287.389586175456
 31
0.0
  0
LINE
  5
175C2
330
747D
100
AcDbEntity
  8
部品1
 48
50.0
100
AcDbLine
 10
6426.352747048993
 20
3283.889586175454
 30
0.0
 11
6426.352747048993
 21
3240.889586175445
 31
0.0
  0
LINE
  5
175C3
330
747D
100
AcDbEntity
  8
細線
 48
50.0
100
AcDbLine
 10
6416.352747048994
 20
5174.88958617544
 30
0.0
 11
6416.352747048994
 21
5315.889586175444
 31
0.0
  0
LINE
  5
175C4
330
747D
100
AcDbEntity
  8
細線
 48
50.0
100
AcDbLine
 10
6426.352747048993
 20
5174.88958617544
 30
0.0
 11
6426.352747048993
 21
5080.889586175445
 31
0.0
  0
LINE
  5
175C5
330
747D
100
AcDbEntity
  8
Ｇ．Ｌ
100
AcDbLine
 10
2744.584413354424
 20
3140.889586175445
 30
0.0
 11
13782.68899669689
 21
3140.889586175445
 31
0.0
  0
LINE
  5
175C6
330
747D
100
AcDbEntity
  8
部品1
100
AcDbLine
 10
3966.352747048994
 20
3240.889586175447
 30
0.0
 11
8886.352747048993
 21
3240.889586175445
 31
0.0
  0
LINE
  5
175C7
330
747D
100
AcDbEntity
  8
部品1
100
AcDbLine
 10
4011.352747048993
 20
3287.38958617545
 30
0.0
 11
4721.290299220313
 21
3287.389586175456
 31
0.0
  0
LINE
  5
175C8
330
747D
100
AcDbEntity
  8
部品1
100
AcDbLine
 10
3966.352747048994
 20
3283.889586175443
 30
0.0
 11
8886.352747048993
 21
3283.889586175464
 31
0.0
  0
LINE
  5
175C9
330
747D
100
AcDbEntity
  8
部品1
100
AcDbLine
 10
3966.352747048994
 20
5080.889586175441
 30
0.0
 11
8886.352747048993
 21
5080.889586175445
 31
0.0
  0
LINE
  5
175CA
330
747D
100
AcDbEntity
  8
部品1
100
AcDbLine
 10
4011.352747048993
 20
5078.389586175447
 30
0.0
 11
4721.290299220313
 21
5078.389586175447
 31
0.0
  0
LINE
  5
175CB
330
747D
100
AcDbEntity
  8
細線
 48
0.2
100
AcDbLine
 10
4738.974290516821
 20
5079.339586175446
 30
0.0
 11
4727.606307923808
 21
5079.339586175446
 31
0.0
  0
ARC
  5
175CC
330
747D
100
AcDbEntity
  8
細線
 48
0.2
100
AcDbCircle
 10
4733.290299220312
 20
5061.839586175449
 30
0.0
 40
18.49999999999796
100
AcDbArc
 50
73.39845040101522
 51
106.6015495989848
  0
ARC
  5
175CD
330
747D
100
AcDbEntity
  8
細線
 48
0.2
100
AcDbCircle
 10
4738.290299220312
 20
5078.610096006695
 30
0.0
 40
1.0
100
AcDbArc
 50
0.0
 51
73.39845040101522
  0
ARC
  5
175CE
330
747D
100
AcDbEntity
  8
細線
 48
0.2
100
AcDbCircle
 10
4728.290299220312
 20
5078.610096006695
 30
0.0
 40
1.0
100
AcDbArc
 50
106.6015495989848
 51
180.0
  0
LINE
  5
175CF
330
747D
100
AcDbEntity
  8
細線
 48
0.2
100
AcDbLine
 10
4741.290299220312
 20
5076.139586175447
 30
0.0
 11
4721.290299220313
 21
5076.139586175447
 31
0.0
  0
LINE
  5
175D0
330
747D
100
AcDbEntity
  8
細線
 48
0.2
100
AcDbLine
 10
4741.290299220312
 20
5078.639586175446
 30
0.0
 11
4721.290299220313
 21
5078.639586175446
 31
0.0
  0
LINE
  5
175D1
330
747D
100
AcDbEntity
  8
部品1
100
AcDbLine
 10
4741.290299220312
 20
5078.389586175447
 30
0.0
 11
4741.352747048994
 21
5078.389586175444
 31
0.0
  0
LINE
  5
175D2
330
747D
100
AcDbEntity
  8
細線
 48
50.0
100
AcDbLine
 10
4721.290299220313
 20
5078.389586175447
 30
0.0
 11
4721.290299220313
 21
5078.639586175446
 31
0.0
  0
LINE
  5
175D3
330
747D
100
AcDbEntity
  8
部品1
 48
0.2
100
AcDbLine
 10
4741.290299220312
 20
5071.639586175447
 30
0.0
 11
4721.290299220313
 21
5071.639586175447
 31
0.0
  0
LINE
  5
175D4
330
747D
100
AcDbEntity
  8
細線
 48
0.2
100
AcDbLine
 10
4741.290299220312
 20
5074.139586175446
 30
0.0
 11
4721.290299220313
 21
5074.139586175446
 31
0.0
  0
LINE
  5
175D5
330
747D
100
AcDbEntity
  8
細線
 48
50.0
100
AcDbLine
 10
4737.277952071972
 20
5076.139586175447
 30
0.0
 11
4737.277952071972
 21
5074.139586175446
 31
0.0
  0
LINE
  5
175D6
330
747D
100
AcDbEntity
  8
細線
 48
50.0
100
AcDbLine
 10
4729.427542026009
 20
5076.139586175447
 30
0.0
 11
4729.427542026009
 21
5074.139586175446
 31
0.0
  0
LINE
  5
175D7
330
747D
100
AcDbEntity
  8
細線
 48
0.1
100
AcDbLine
 10
4741.290299220312
 20
5078.639586175446
 30
0.0
 11
4741.290299220312
 21
5071.639586175447
 31
0.0
  0
LINE
  5
175D8
330
747D
100
AcDbEntity
  8
部品1
 48
50.0
100
AcDbLine
 10
4721.290299220313
 20
5071.639586175447
 30
0.0
 11
4721.290299220313
 21
5078.389586175447
 31
0.0
  0
CIRCLE
  5
175D9
330
747D
100
AcDbEntity
  8
細線
 48
20.0
100
AcDbCircle
 10
4872.853612103485
 20
4283.389586175446
 30
0.0
 40
20.0
  0
CIRCLE
  5
175DA
330
747D
100
AcDbEntity
  8
細線
 48
20.0
100
AcDbCircle
 10
4872.853612103485
 20
4283.389586175446
 30
0.0
 40
10.0
  0
ARC
  5
175DB
330
747D
100
AcDbEntity
  8
細線
100
AcDbCircle
 10
4887.352747048992
 20
4226.889586175446
 30
0.0
 40
6.0
100
AcDbArc
 50
0.0
 51
90.0
  0
ARC
  5
175DC
330
747D
100
AcDbEntity
  8
細線
100
AcDbCircle
 10
4877.560286227737
 20
4223.889586175446
 30
0.0
 40
6.0
100
AcDbArc
 50
0.0
 51
90.0
  0
ARC
  5
175DD
330
747D
100
AcDbEntity
  8
細線
100
AcDbCircle
 10
4892.352747048992
 20
4235.889586175446
 30
0.0
 40
5.5
100
AcDbArc
 50
0.0
 51
90.0
  0
ARC
  5
175DE
330
747D
100
AcDbEntity
  8
部品1
100
AcDbCircle
 10
4893.352747048992
 20
4236.889586175446
 30
0.0
 40
6.0
100
AcDbArc
 50
0.0
 51
90.0
  0
LINE
  5
175DF
330
747D
100
AcDbEntity
  8
細線
100
AcDbLine
 10
4866.847170958824
 20
4226.889586175446
 30
0.0
 11
4865.352747048992
 21
4226.889586175446
 31
0.0
  0
ARC
  5
175E0
330
747D
100
AcDbEntity
  8
細線
100
AcDbCircle
 10
4866.847170958824
 20
4223.889586175446
 30
0.0
 40
3.0
100
AcDbArc
 50
8.099550838235547
 51
90.0
  0
ARC
  5
175E1
330
747D
100
AcDbEntity
  8
細線
100
AcDbCircle
 10
4856.733703413468
 20
4226.889586175446
 30
0.0
 40
6.0
100
AcDbArc
 50
90.0
 51
171.2120626773931
  0
LINE
  5
175E2
330
747D
100
AcDbEntity
  8
細線
100
AcDbLine
 10
4865.352747048992
 20
4226.889078276882
 30
0.0
 11
4852.589419833024
 21
4226.889078276882
 31
0.0
  0
ARC
  5
175E3
330
747D
100
AcDbEntity
  8
細線
100
AcDbCircle
 10
4853.186128579746
 20
4235.889586175446
 30
0.0
 40
5.5
100
AcDbArc
 50
90.0
 51
169.5785490272547
  0
ARC
  5
175E4
330
747D
100
AcDbEntity
  8
部品1
100
AcDbCircle
 10
4852.354477157977
 20
4236.889586175446
 30
0.0
 40
6.0
100
AcDbArc
 50
90.0
 51
169.4161974034797
  0
LINE
  5
175E5
330
747D
100
AcDbEntity
  8
細線
100
AcDbLine
 10
4892.352747048992
 20
4241.389586175446
 30
0.0
 11
4853.186128579746
 21
4241.389586175446
 31
0.0
  0
LINE
  5
175E6
330
747D
100
AcDbEntity
  8
細線
100
AcDbLine
 10
4877.560286227737
 20
4229.889586175446
 30
0.0
 11
4865.352747048992
 21
4229.889586175446
 31
0.0
  0
LINE
  5
175E7
330
747D
100
AcDbEntity
  8
細線
100
AcDbLine
 10
4887.352747048992
 20
4232.889586175446
 30
0.0
 11
4856.733703413468
 21
4232.889586175446
 31
0.0
  0
LINE
  5
175E8
330
747D
100
AcDbEntity
  8
部品1
100
AcDbLine
 10
4893.352747048992
 20
4242.889586175446
 30
0.0
 11
4852.354477157977
 21
4242.889586175446
 31
0.0
  0
ARC
  5
175E9
330
747D
100
AcDbEntity
  8
細線
100
AcDbCircle
 10
4892.352747048992
 20
4129.889586175447
 30
0.0
 40
5.5
100
AcDbArc
 50
270.0
 51
0.0
  0
ARC
  5
175EA
330
747D
100
AcDbEntity
  8
部品1
100
AcDbCircle
 10
4893.352747048992
 20
4128.889586175445
 30
0.0
 40
6.0
100
AcDbArc
 50
270.0
 51
0.0
  0
ARC
  5
175EB
330
747D
100
AcDbEntity
  8
細線
100
AcDbCircle
 10
4853.186128579746
 20
4129.889586175447
 30
0.0
 40
5.5
100
AcDbArc
 50
190.4214509727453
 51
270.0
  0
ARC
  5
175EC
330
747D
100
AcDbEntity
  8
部品1
100
AcDbCircle
 10
4852.354477157977
 20
4128.889586175445
 30
0.0
 40
6.0
100
AcDbArc
 50
190.5838025965202
 51
270.0
  0
LINE
  5
175ED
330
747D
100
AcDbEntity
  8
細線
100
AcDbLine
 10
4853.186128579746
 20
4124.389586175446
 30
0.0
 11
4892.352747048992
 21
4124.389586175446
 31
0.0
  0
LINE
  5
175EE
330
747D
100
AcDbEntity
  8
部品1
100
AcDbLine
 10
4852.354477157977
 20
4122.889586175446
 30
0.0
 11
4893.352747048992
 21
4122.889586175446
 31
0.0
  0
ARC
  5
175EF
330
747D
100
AcDbEntity
  8
細線
100
AcDbCircle
 10
4887.352747048992
 20
4138.889586175446
 30
0.0
 40
6.0
100
AcDbArc
 50
270.0
 51
0.0
  0
ARC
  5
175F0
330
747D
100
AcDbEntity
  8
細線
100
AcDbCircle
 10
4877.560286227737
 20
4141.889586175446
 30
0.0
 40
6.0
100
AcDbArc
 50
270.0
 51
0.0
  0
LINE
  5
175F1
330
747D
100
AcDbEntity
  8
細線
100
AcDbLine
 10
4865.352747048992
 20
4138.889586175446
 30
0.0
 11
4866.847170958827
 21
4138.889586175446
 31
0.0
  0
ARC
  5
175F2
330
747D
100
AcDbEntity
  8
細線
100
AcDbCircle
 10
4866.847170958827
 20
4141.889586175446
 30
0.0
 40
3.0
100
AcDbArc
 50
270.0
 51
351.9004491617129
  0
ARC
  5
175F3
330
747D
100
AcDbEntity
  8
細線
100
AcDbCircle
 10
4856.733703413468
 20
4138.889586175446
 30
0.0
 40
6.0
100
AcDbArc
 50
188.7879373226068
 51
270.0
  0
LINE
  5
175F4
330
747D
100
AcDbEntity
  8
細線
100
AcDbLine
 10
4865.352747048992
 20
4138.890094074008
 30
0.0
 11
4851.874042550169
 21
4138.890094074008
 31
0.0
  0
LINE
  5
175F5
330
747D
100
AcDbEntity
  8
細線
100
AcDbLine
 10
4865.352747048992
 20
4135.889586175446
 30
0.0
 11
4877.560286227737
 21
4135.889586175446
 31
0.0
  0
LINE
  5
175F6
330
747D
100
AcDbEntity
  8
細線
100
AcDbLine
 10
4856.733703413468
 20
4132.889586175446
 30
0.0
 11
4887.352747048992
 21
4132.889586175446
 31
0.0
  0
LINE
  5
175F7
330
747D
100
AcDbEntity
  8
細線
100
AcDbLine
 10
4883.560286227737
 20
4141.889586175446
 30
0.0
 11
4883.560286227737
 21
4223.889586175446
 31
0.0
  0
LINE
  5
175F8
330
747D
100
AcDbEntity
  8
細線
100
AcDbLine
 10
4893.352747048992
 20
4138.889586175446
 30
0.0
 11
4893.352747048992
 21
4226.889586175446
 31
0.0
  0
LINE
  5
175F9
330
747D
100
AcDbEntity
  8
細線
100
AcDbLine
 10
4897.852747048991
 20
4129.889586175447
 30
0.0
 11
4897.852747048991
 21
4235.889586175446
 31
0.0
  0
LINE
  5
175FA
330
747D
100
AcDbEntity
  8
部品1
100
AcDbLine
 10
4899.352747048991
 20
4128.889586175445
 30
0.0
 11
4899.352747048991
 21
4236.889586175446
 31
0.0
  0
LINE
  5
175FB
330
747D
100
AcDbEntity
  8
細線
100
AcDbLine
 10
4865.352747048992
 20
4232.889586175446
 30
0.0
 11
4865.352747048992
 21
4132.889586175446
 31
0.0
  0
ARC
  5
175FC
330
747D
100
AcDbEntity
  8
細線
100
AcDbCircle
 10
5141.352747048991
 20
4182.889586175446
 30
0.0
 40
298.5
100
AcDbArc
 50
169.5785490272547
 51
190.4214509727453
  0
ARC
  5
175FD
330
747D
100
AcDbEntity
  8
細線
100
AcDbCircle
 10
5141.352747048991
 20
4182.889586175446
 30
0.0
 40
294.0
100
AcDbArc
 50
171.2120626773931
 51
188.7879373226068
  0
ARC
  5
175FE
330
747D
100
AcDbEntity
  8
細線
100
AcDbCircle
 10
4578.749965141066
 20
4182.889586175446
 30
0.0
 40
294.0
100
AcDbArc
 50
351.9004491617645
 51
8.099550838235547
  0
ARC
  5
175FF
330
747D
100
AcDbEntity
  8
部品1
100
AcDbCircle
 10
5141.352747048991
 20
4182.889586175446
 30
0.0
 40
300.0
100
AcDbArc
 50
169.4161974034797
 51
190.5838025965202
  0
LINE
  5
17600
330
747D
100
AcDbEntity
  8
細線
 48
0.2
100
AcDbLine
 10
4741.290299220312
 20
3291.639586175463
 30
0.0
 11
4721.290299220313
 21
3291.639586175463
 31
0.0
  0
LINE
  5
17601
330
747D
100
AcDbEntity
  8
部品1
 48
0.2
100
AcDbLine
 10
4741.290299220312
 20
3294.139586175463
 30
0.0
 11
4721.290299220313
 21
3294.139586175463
 31
0.0
  0
ARC
  5
17602
330
747D
100
AcDbEntity
  8
細線
 48
0.2
100
AcDbCircle
 10
4738.290299220312
 20
3287.169076344215
 30
0.0
 40
1.0
100
AcDbArc
 50
286.6015495989848
 51
0.0
  0
LINE
  5
17603
330
747D
100
AcDbEntity
  8
細線
 48
0.2
100
AcDbLine
 10
4741.290299220312
 20
3287.139586175463
 30
0.0
 11
4721.290299220313
 21
3287.139586175463
 31
0.0
  0
LINE
  5
17604
330
747D
100
AcDbEntity
  8
細線
 48
0.2
100
AcDbLine
 10
4741.290299220312
 20
3289.639586175463
 30
0.0
 11
4721.290299220313
 21
3289.639586175465
 31
0.0
  0
ARC
  5
17605
330
747D
100
AcDbEntity
  8
細線
 48
0.2
100
AcDbCircle
 10
4728.290299220312
 20
3287.169076344215
 30
0.0
 40
1.0
100
AcDbArc
 50
180.0
 51
253.3984504010152
  0
ARC
  5
17606
330
747D
100
AcDbEntity
  8
細線
 48
0.2
100
AcDbCircle
 10
4733.290299220312
 20
3303.93958617546
 30
0.0
 40
18.49999999999796
100
AcDbArc
 50
253.3984504010152
 51
286.6015495989848
  0
LINE
  5
17607
330
747D
100
AcDbEntity
  8
細線
 48
0.2
100
AcDbLine
 10
4738.974290516821
 20
3286.439586175462
 30
0.0
 11
4727.606307923808
 21
3286.439586175462
 31
0.0
  0
LINE
  5
17608
330
747D
100
AcDbEntity
  8
細線
 48
50.0
100
AcDbLine
 10
4721.290299220313
 20
3287.389586175465
 30
0.0
 11
4721.290299220313
 21
3287.139586175463
 31
0.0
  0
LINE
  5
17609
330
747D
100
AcDbEntity
  8
部品1
100
AcDbLine
 10
4741.290299220312
 20
3287.389586175465
 30
0.0
 11
4741.352747048994
 21
3287.389586175465
 31
0.0
  0
LINE
  5
1760A
330
747D
100
AcDbEntity
  8
部品1
100
AcDbLine
 10
4741.290299220312
 20
3287.389586175456
 30
0.0
 11
4741.352747048994
 21
3287.389586175456
 31
0.0
  0
LINE
  5
1760B
330
747D
100
AcDbEntity
  8
細線
 48
0.1
100
AcDbLine
 10
4741.290299220312
 20
3287.139586175463
 30
0.0
 11
4741.290299220312
 21
3294.139586175463
 31
0.0
  0
LINE
  5
1760C
330
747D
100
AcDbEntity
  8
細線
 48
50.0
100
AcDbLine
 10
4729.427542026009
 20
3289.639586175465
 30
0.0
 11
4729.427542026009
 21
3291.639586175463
 31
0.0
  0
LINE
  5
1760D
330
747D
100
AcDbEntity
  8
細線
 48
50.0
100
AcDbLine
 10
4737.277952071972
 20
3289.639586175465
 30
0.0
 11
4737.277952071972
 21
3291.639586175463
 31
0.0
  0
LINE
  5
1760E
330
747D
100
AcDbEntity
  8
部品1
 48
50.0
100
AcDbLine
 10
4721.290299220313
 20
3294.139586175463
 30
0.0
 11
4721.290299220313
 21
3287.389586175465
 31
0.0
  0
LINE
  5
1760F
330
747D
100
AcDbEntity
  8
部品1
100
AcDbLine
 10
4831.352747048994
 20
5078.389586175443
 30
0.0
 11
4831.352747048994
 21
3287.389586175458
 31
0.0
  0
LINE
  5
17610
330
747D
100
AcDbEntity
  8
部品1
100
AcDbLine
 10
4829.352747048993
 20
5080.889586175445
 30
0.0
 11
4829.352747048993
 21
3283.889586175464
 31
0.0
  0
LINE
  5
17611
330
747D
100
AcDbEntity
  8
部品1
100
AcDbLine
 10
4743.352747048994
 20
5080.889586175445
 30
0.0
 11
4743.352747048994
 21
3283.889586175464
 31
0.0
  0
LINE
  5
17612
330
747D
100
AcDbEntity
  8
部品1
100
AcDbLine
 10
4741.352747048991
 20
5078.389586175444
 30
0.0
 11
4741.352747048994
 21
3287.389586175456
 31
0.0
  0
CIRCLE
  5
17613
330
747D
100
AcDbEntity
  8
細線
 48
20.0
100
AcDbCircle
 10
8152.853612103484
 20
4283.389586175446
 30
0.0
 40
20.0
  0
CIRCLE
  5
17614
330
747D
100
AcDbEntity
  8
細線
 48
20.0
100
AcDbCircle
 10
8152.853612103484
 20
4283.389586175446
 30
0.0
 40
10.0
  0
ARC
  5
17615
330
747D
100
AcDbEntity
  8
細線
100
AcDbCircle
 10
8167.352747048992
 20
4226.889586175446
 30
0.0
 40
6.0
100
AcDbArc
 50
0.0
 51
90.0
  0
ARC
  5
17616
330
747D
100
AcDbEntity
  8
細線
100
AcDbCircle
 10
8157.560286227738
 20
4223.889586175446
 30
0.0
 40
6.0
100
AcDbArc
 50
0.0
 51
90.0
  0
ARC
  5
17617
330
747D
100
AcDbEntity
  8
細線
100
AcDbCircle
 10
8172.352747048991
 20
4235.889586175446
 30
0.0
 40
5.5
100
AcDbArc
 50
0.0
 51
90.0
  0
ARC
  5
17618
330
747D
100
AcDbEntity
  8
部品1
100
AcDbCircle
 10
8173.352747048992
 20
4236.889586175446
 30
0.0
 40
6.0
100
AcDbArc
 50
0.0
 51
90.0
  0
LINE
  5
17619
330
747D
100
AcDbEntity
  8
細線
100
AcDbLine
 10
8146.847170958825
 20
4226.889586175446
 30
0.0
 11
8145.352747048992
 21
4226.889586175446
 31
0.0
  0
ARC
  5
1761A
330
747D
100
AcDbEntity
  8
細線
100
AcDbCircle
 10
8146.847170958825
 20
4223.889586175446
 30
0.0
 40
3.0
100
AcDbArc
 50
8.099550838235547
 51
90.0
  0
ARC
  5
1761B
330
747D
100
AcDbEntity
  8
細線
100
AcDbCircle
 10
8136.733703413469
 20
4226.889586175446
 30
0.0
 40
6.0
100
AcDbArc
 50
90.0
 51
171.2120626773931
  0
LINE
  5
1761C
330
747D
100
AcDbEntity
  8
細線
100
AcDbLine
 10
8145.352747048992
 20
4226.889078276882
 30
0.0
 11
8132.589419833024
 21
4226.889078276882
 31
0.0
  0
ARC
  5
1761D
330
747D
100
AcDbEntity
  8
細線
100
AcDbCircle
 10
8133.186128579746
 20
4235.889586175446
 30
0.0
 40
5.5
100
AcDbArc
 50
90.0
 51
169.5785490272547
  0
ARC
  5
1761E
330
747D
100
AcDbEntity
  8
部品1
100
AcDbCircle
 10
8132.354477157976
 20
4236.889586175446
 30
0.0
 40
6.0
100
AcDbArc
 50
90.0
 51
169.4161974034797
  0
LINE
  5
1761F
330
747D
100
AcDbEntity
  8
細線
100
AcDbLine
 10
8172.352747048991
 20
4241.389586175446
 30
0.0
 11
8133.186128579746
 21
4241.389586175446
 31
0.0
  0
LINE
  5
17620
330
747D
100
AcDbEntity
  8
細線
100
AcDbLine
 10
8157.560286227738
 20
4229.889586175446
 30
0.0
 11
8145.352747048992
 21
4229.889586175446
 31
0.0
  0
LINE
  5
17621
330
747D
100
AcDbEntity
  8
細線
100
AcDbLine
 10
8167.352747048992
 20
4232.889586175446
 30
0.0
 11
8136.733703413469
 21
4232.889586175446
 31
0.0
  0
LINE
  5
17622
330
747D
100
AcDbEntity
  8
部品1
100
AcDbLine
 10
8173.352747048992
 20
4242.889586175446
 30
0.0
 11
8132.354477157976
 21
4242.889586175446
 31
0.0
  0
ARC
  5
17623
330
747D
100
AcDbEntity
  8
細線
100
AcDbCircle
 10
8172.352747048991
 20
4129.889586175447
 30
0.0
 40
5.5
100
AcDbArc
 50
270.0
 51
0.0
  0
ARC
  5
17624
330
747D
100
AcDbEntity
  8
部品1
100
AcDbCircle
 10
8173.352747048992
 20
4128.889586175445
 30
0.0
 40
6.0
100
AcDbArc
 50
270.0
 51
0.0
  0
ARC
  5
17625
330
747D
100
AcDbEntity
  8
細線
100
AcDbCircle
 10
8133.186128579746
 20
4129.889586175447
 30
0.0
 40
5.5
100
AcDbArc
 50
190.4214509727453
 51
270.0
  0
ARC
  5
17626
330
747D
100
AcDbEntity
  8
部品1
100
AcDbCircle
 10
8132.354477157976
 20
4128.889586175445
 30
0.0
 40
6.0
100
AcDbArc
 50
190.5838025965202
 51
270.0
  0
LINE
  5
17627
330
747D
100
AcDbEntity
  8
細線
100
AcDbLine
 10
8133.186128579746
 20
4124.389586175446
 30
0.0
 11
8172.352747048991
 21
4124.389586175446
 31
0.0
  0
LINE
  5
17628
330
747D
100
AcDbEntity
  8
部品1
100
AcDbLine
 10
8132.354477157976
 20
4122.889586175446
 30
0.0
 11
8173.352747048992
 21
4122.889586175446
 31
0.0
  0
ARC
  5
17629
330
747D
100
AcDbEntity
  8
細線
100
AcDbCircle
 10
8167.352747048992
 20
4138.889586175446
 30
0.0
 40
6.0
100
AcDbArc
 50
270.0
 51
0.0
  0
ARC
  5
1762A
330
747D
100
AcDbEntity
  8
細線
100
AcDbCircle
 10
8157.560286227738
 20
4141.889586175446
 30
0.0
 40
6.0
100
AcDbArc
 50
270.0
 51
0.0
  0
LINE
  5
1762B
330
747D
100
AcDbEntity
  8
細線
100
AcDbLine
 10
8145.352747048992
 20
4138.889586175446
 30
0.0
 11
8146.847170958826
 21
4138.889586175446
 31
0.0
  0
ARC
  5
1762C
330
747D
100
AcDbEntity
  8
細線
100
AcDbCircle
 10
8146.847170958826
 20
4141.889586175446
 30
0.0
 40
3.0
100
AcDbArc
 50
270.0
 51
351.9004491617129
  0
ARC
  5
1762D
330
747D
100
AcDbEntity
  8
細線
100
AcDbCircle
 10
8136.733703413469
 20
4138.889586175446
 30
0.0
 40
6.0
100
AcDbArc
 50
188.7879373226068
 51
270.0
  0
LINE
  5
1762E
330
747D
100
AcDbEntity
  8
細線
100
AcDbLine
 10
8145.352747048992
 20
4138.890094074008
 30
0.0
 11
8131.874042550169
 21
4138.890094074008
 31
0.0
  0
LINE
  5
1762F
330
747D
100
AcDbEntity
  8
細線
100
AcDbLine
 10
8145.352747048992
 20
4135.889586175446
 30
0.0
 11
8157.560286227738
 21
4135.889586175446
 31
0.0
  0
LINE
  5
17630
330
747D
100
AcDbEntity
  8
細線
100
AcDbLine
 10
8136.733703413469
 20
4132.889586175446
 30
0.0
 11
8167.352747048992
 21
4132.889586175446
 31
0.0
  0
LINE
  5
17631
330
747D
100
AcDbEntity
  8
細線
100
AcDbLine
 10
8163.560286227738
 20
4141.889586175446
 30
0.0
 11
8163.560286227738
 21
4223.889586175446
 31
0.0
  0
LINE
  5
17632
330
747D
100
AcDbEntity
  8
細線
100
AcDbLine
 10
8173.352747048992
 20
4138.889586175446
 30
0.0
 11
8173.352747048992
 21
4226.889586175446
 31
0.0
  0
LINE
  5
17633
330
747D
100
AcDbEntity
  8
細線
100
AcDbLine
 10
8177.852747048993
 20
4129.889586175447
 30
0.0
 11
8177.852747048993
 21
4235.889586175446
 31
0.0
  0
LINE
  5
17634
330
747D
100
AcDbEntity
  8
部品1
100
AcDbLine
 10
8179.352747048993
 20
4128.889586175445
 30
0.0
 11
8179.352747048993
 21
4236.889586175446
 31
0.0
  0
LINE
  5
17635
330
747D
100
AcDbEntity
  8
細線
100
AcDbLine
 10
8145.352747048992
 20
4232.889586175446
 30
0.0
 11
8145.352747048992
 21
4132.889586175446
 31
0.0
  0
ARC
  5
17636
330
747D
100
AcDbEntity
  8
細線
100
AcDbCircle
 10
8421.352747048992
 20
4182.889586175446
 30
0.0
 40
298.5
100
AcDbArc
 50
169.5785490272547
 51
190.4214509727453
  0
ARC
  5
17637
330
747D
100
AcDbEntity
  8
細線
100
AcDbCircle
 10
8421.352747048992
 20
4182.889586175446
 30
0.0
 40
294.0
100
AcDbArc
 50
171.2120626773931
 51
188.7879373226068
  0
ARC
  5
17638
330
747D
100
AcDbEntity
  8
細線
100
AcDbCircle
 10
7858.749965141067
 20
4182.889586175446
 30
0.0
 40
294.0
100
AcDbArc
 50
351.9004491617645
 51
8.099550838235547
  0
ARC
  5
17639
330
747D
100
AcDbEntity
  8
部品1
100
AcDbCircle
 10
8421.352747048992
 20
4182.889586175446
 30
0.0
 40
300.0
100
AcDbArc
 50
169.4161974034797
 51
190.5838025965202
  0
LINE
  5
1763A
330
747D
100
AcDbEntity
  8
部品1
100
AcDbLine
 10
6533.352747048991
 20
4242.889586175446
 30
0.0
 11
6492.354477157977
 21
4242.889586175446
 31
0.0
  0
LINE
  5
1763B
330
747D
100
AcDbEntity
  8
細線
100
AcDbLine
 10
6527.352747048992
 20
4232.889586175446
 30
0.0
 11
6496.733703413468
 21
4232.889586175446
 31
0.0
  0
LINE
  5
1763C
330
747D
100
AcDbEntity
  8
細線
100
AcDbLine
 10
6517.560286227737
 20
4229.889586175446
 30
0.0
 11
6505.352747048991
 21
4229.889586175446
 31
0.0
  0
LINE
  5
1763D
330
747D
100
AcDbEntity
  8
細線
100
AcDbLine
 10
6532.352747048992
 20
4241.389586175446
 30
0.0
 11
6493.186128579745
 21
4241.389586175446
 31
0.0
  0
ARC
  5
1763E
330
747D
100
AcDbEntity
  8
部品1
100
AcDbCircle
 10
6492.354477157977
 20
4236.889586175446
 30
0.0
 40
6.0
100
AcDbArc
 50
90.0
 51
169.4161974034797
  0
ARC
  5
1763F
330
747D
100
AcDbEntity
  8
細線
100
AcDbCircle
 10
6493.186128579745
 20
4235.889586175446
 30
0.0
 40
5.5
100
AcDbArc
 50
90.0
 51
169.5785490272547
  0
LINE
  5
17640
330
747D
100
AcDbEntity
  8
細線
100
AcDbLine
 10
6505.352747048991
 20
4226.889078276882
 30
0.0
 11
6492.589419833024
 21
4226.889078276882
 31
0.0
  0
ARC
  5
17641
330
747D
100
AcDbEntity
  8
細線
100
AcDbCircle
 10
6496.733703413468
 20
4226.889586175446
 30
0.0
 40
6.0
100
AcDbArc
 50
90.0
 51
171.2120626773931
  0
ARC
  5
17642
330
747D
100
AcDbEntity
  8
細線
100
AcDbCircle
 10
6506.847170958825
 20
4223.889586175446
 30
0.0
 40
3.0
100
AcDbArc
 50
8.099550838235547
 51
90.0
  0
LINE
  5
17643
330
747D
100
AcDbEntity
  8
細線
100
AcDbLine
 10
6506.847170958825
 20
4226.889586175446
 30
0.0
 11
6505.352747048991
 21
4226.889586175446
 31
0.0
  0
ARC
  5
17644
330
747D
100
AcDbEntity
  8
部品1
100
AcDbCircle
 10
6533.352747048991
 20
4236.889586175446
 30
0.0
 40
6.0
100
AcDbArc
 50
0.0
 51
90.0
  0
ARC
  5
17645
330
747D
100
AcDbEntity
  8
細線
100
AcDbCircle
 10
6532.352747048992
 20
4235.889586175446
 30
0.0
 40
5.5
100
AcDbArc
 50
0.0
 51
90.0
  0
ARC
  5
17646
330
747D
100
AcDbEntity
  8
細線
100
AcDbCircle
 10
6517.560286227737
 20
4223.889586175446
 30
0.0
 40
6.0
100
AcDbArc
 50
0.0
 51
90.0
  0
ARC
  5
17647
330
747D
100
AcDbEntity
  8
細線
100
AcDbCircle
 10
6527.352747048992
 20
4226.889586175446
 30
0.0
 40
6.0
100
AcDbArc
 50
0.0
 51
90.0
  0
CIRCLE
  5
17648
330
747D
100
AcDbEntity
  8
細線
 48
20.0
100
AcDbCircle
 10
6512.853612103485
 20
4283.389586175446
 30
0.0
 40
10.0
  0
CIRCLE
  5
17649
330
747D
100
AcDbEntity
  8
細線
 48
20.0
100
AcDbCircle
 10
6512.853612103485
 20
4283.389586175446
 30
0.0
 40
20.0
  0
LINE
  5
1764A
330
747D
100
AcDbEntity
  8
細線
100
AcDbLine
 10
6496.733703413468
 20
4132.889586175446
 30
0.0
 11
6527.352747048992
 21
4132.889586175446
 31
0.0
  0
LINE
  5
1764B
330
747D
100
AcDbEntity
  8
細線
100
AcDbLine
 10
6505.352747048991
 20
4135.889586175446
 30
0.0
 11
6517.560286227737
 21
4135.889586175446
 31
0.0
  0
LINE
  5
1764C
330
747D
100
AcDbEntity
  8
細線
100
AcDbLine
 10
6505.352747048991
 20
4138.890094074008
 30
0.0
 11
6491.874042550169
 21
4138.890094074008
 31
0.0
  0
ARC
  5
1764D
330
747D
100
AcDbEntity
  8
細線
100
AcDbCircle
 10
6496.733703413468
 20
4138.889586175446
 30
0.0
 40
6.0
100
AcDbArc
 50
188.7879373226068
 51
270.0
  0
ARC
  5
1764E
330
747D
100
AcDbEntity
  8
細線
100
AcDbCircle
 10
6506.847170958827
 20
4141.889586175446
 30
0.0
 40
3.0
100
AcDbArc
 50
270.0
 51
351.9004491617129
  0
LINE
  5
1764F
330
747D
100
AcDbEntity
  8
細線
100
AcDbLine
 10
6505.352747048991
 20
4138.889586175446
 30
0.0
 11
6506.847170958827
 21
4138.889586175446
 31
0.0
  0
ARC
  5
17650
330
747D
100
AcDbEntity
  8
細線
100
AcDbCircle
 10
6517.560286227737
 20
4141.889586175446
 30
0.0
 40
6.0
100
AcDbArc
 50
270.0
 51
0.0
  0
ARC
  5
17651
330
747D
100
AcDbEntity
  8
細線
100
AcDbCircle
 10
6527.352747048992
 20
4138.889586175446
 30
0.0
 40
6.0
100
AcDbArc
 50
270.0
 51
0.0
  0
LINE
  5
17652
330
747D
100
AcDbEntity
  8
部品1
100
AcDbLine
 10
6492.354477157977
 20
4122.889586175446
 30
0.0
 11
6533.352747048991
 21
4122.889586175446
 31
0.0
  0
LINE
  5
17653
330
747D
100
AcDbEntity
  8
細線
100
AcDbLine
 10
6493.186128579745
 20
4124.389586175446
 30
0.0
 11
6532.352747048992
 21
4124.389586175446
 31
0.0
  0
ARC
  5
17654
330
747D
100
AcDbEntity
  8
部品1
100
AcDbCircle
 10
6492.354477157977
 20
4128.889586175445
 30
0.0
 40
6.0
100
AcDbArc
 50
190.5838025965202
 51
270.0
  0
ARC
  5
17655
330
747D
100
AcDbEntity
  8
細線
100
AcDbCircle
 10
6493.186128579745
 20
4129.889586175447
 30
0.0
 40
5.5
100
AcDbArc
 50
190.4214509727453
 51
270.0
  0
ARC
  5
17656
330
747D
100
AcDbEntity
  8
部品1
100
AcDbCircle
 10
6533.352747048991
 20
4128.889586175445
 30
0.0
 40
6.0
100
AcDbArc
 50
270.0
 51
0.0
  0
ARC
  5
17657
330
747D
100
AcDbEntity
  8
細線
100
AcDbCircle
 10
6532.352747048992
 20
4129.889586175447
 30
0.0
 40
5.5
100
AcDbArc
 50
270.0
 51
0.0
  0
ARC
  5
17658
330
747D
100
AcDbEntity
  8
部品1
100
AcDbCircle
 10
6781.352747048991
 20
4182.889586175446
 30
0.0
 40
300.0
100
AcDbArc
 50
169.4161974034797
 51
190.5838025965202
  0
ARC
  5
17659
330
747D
100
AcDbEntity
  8
細線
100
AcDbCircle
 10
6218.749965141068
 20
4182.889586175446
 30
0.0
 40
294.0
100
AcDbArc
 50
351.9004491617645
 51
8.099550838235547
  0
ARC
  5
1765A
330
747D
100
AcDbEntity
  8
細線
100
AcDbCircle
 10
6781.352747048991
 20
4182.889586175446
 30
0.0
 40
294.0
100
AcDbArc
 50
171.2120626773931
 51
188.7879373226068
  0
ARC
  5
1765B
330
747D
100
AcDbEntity
  8
細線
100
AcDbCircle
 10
6781.352747048991
 20
4182.889586175446
 30
0.0
 40
298.5
100
AcDbArc
 50
169.5785490272547
 51
190.4214509727453
  0
LINE
  5
1765C
330
747D
100
AcDbEntity
  8
細線
100
AcDbLine
 10
6505.352747048991
 20
4232.889586175446
 30
0.0
 11
6505.352747048991
 21
4132.889586175446
 31
0.0
  0
LINE
  5
1765D
330
747D
100
AcDbEntity
  8
部品1
100
AcDbLine
 10
6539.352747048991
 20
4128.889586175445
 30
0.0
 11
6539.352747048991
 21
4236.889586175446
 31
0.0
  0
LINE
  5
1765E
330
747D
100
AcDbEntity
  8
細線
100
AcDbLine
 10
6537.852747048991
 20
4129.889586175447
 30
0.0
 11
6537.852747048991
 21
4235.889586175446
 31
0.0
  0
LINE
  5
1765F
330
747D
100
AcDbEntity
  8
細線
100
AcDbLine
 10
6533.352747048991
 20
4138.889586175446
 30
0.0
 11
6533.352747048991
 21
4226.889586175446
 31
0.0
  0
LINE
  5
17660
330
747D
100
AcDbEntity
  8
細線
100
AcDbLine
 10
6523.560286227738
 20
4141.889586175446
 30
0.0
 11
6523.560286227738
 21
4223.889586175446
 31
0.0
  0
ARC
  5
17661
330
747D
100
AcDbEntity
  8
部品1
100
AcDbCircle
 10
4321.352747048991
 20
4182.889586175446
 30
0.0
 40
300.0
100
AcDbArc
 50
169.4161974034797
 51
190.5838025965202
  0
ARC
  5
17662
330
747D
100
AcDbEntity
  8
細線
100
AcDbCircle
 10
3758.749965141067
 20
4182.889586175446
 30
0.0
 40
294.0
100
AcDbArc
 50
351.9004491617645
 51
8.099550838235547
  0
ARC
  5
17663
330
747D
100
AcDbEntity
  8
細線
100
AcDbCircle
 10
4321.352747048991
 20
4182.889586175446
 30
0.0
 40
294.0
100
AcDbArc
 50
171.2120626773931
 51
188.7879373226068
  0
ARC
  5
17664
330
747D
100
AcDbEntity
  8
細線
100
AcDbCircle
 10
4321.352747048991
 20
4182.889586175446
 30
0.0
 40
298.5
100
AcDbArc
 50
169.5785490272547
 51
190.4214509727453
  0
LINE
  5
17665
330
747D
100
AcDbEntity
  8
細線
100
AcDbLine
 10
4045.352747048991
 20
4232.889586175446
 30
0.0
 11
4045.352747048991
 21
4132.889586175446
 31
0.0
  0
LINE
  5
17666
330
747D
100
AcDbEntity
  8
部品1
100
AcDbLine
 10
4079.352747048992
 20
4128.889586175445
 30
0.0
 11
4079.352747048992
 21
4236.889586175446
 31
0.0
  0
LINE
  5
17667
330
747D
100
AcDbEntity
  8
細線
100
AcDbLine
 10
4077.852747048992
 20
4129.889586175447
 30
0.0
 11
4077.852747048992
 21
4235.889586175446
 31
0.0
  0
LINE
  5
17668
330
747D
100
AcDbEntity
  8
細線
100
AcDbLine
 10
4073.352747048992
 20
4138.889586175446
 30
0.0
 11
4073.352747048992
 21
4226.889586175446
 31
0.0
  0
LINE
  5
17669
330
747D
100
AcDbEntity
  8
細線
100
AcDbLine
 10
4063.560286227737
 20
4141.889586175446
 30
0.0
 11
4063.560286227737
 21
4223.889586175446
 31
0.0
  0
LINE
  5
1766A
330
747D
100
AcDbEntity
  8
細線
100
AcDbLine
 10
4036.733703413469
 20
4132.889586175446
 30
0.0
 11
4067.352747048992
 21
4132.889586175446
 31
0.0
  0
LINE
  5
1766B
330
747D
100
AcDbEntity
  8
細線
100
AcDbLine
 10
4045.352747048991
 20
4135.889586175446
 30
0.0
 11
4057.560286227737
 21
4135.889586175446
 31
0.0
  0
LINE
  5
1766C
330
747D
100
AcDbEntity
  8
細線
100
AcDbLine
 10
4045.352747048991
 20
4138.890094074008
 30
0.0
 11
4031.874042550169
 21
4138.890094074008
 31
0.0
  0
ARC
  5
1766D
330
747D
100
AcDbEntity
  8
細線
100
AcDbCircle
 10
4036.733703413469
 20
4138.889586175446
 30
0.0
 40
6.0
100
AcDbArc
 50
188.7879373226068
 51
270.0
  0
ARC
  5
1766E
330
747D
100
AcDbEntity
  8
細線
100
AcDbCircle
 10
4046.847170958826
 20
4141.889586175446
 30
0.0
 40
3.0
100
AcDbArc
 50
270.0
 51
351.9004491617129
  0
LINE
  5
1766F
330
747D
100
AcDbEntity
  8
細線
100
AcDbLine
 10
4045.352747048991
 20
4138.889586175446
 30
0.0
 11
4046.847170958826
 21
4138.889586175446
 31
0.0
  0
ARC
  5
17670
330
747D
100
AcDbEntity
  8
細線
100
AcDbCircle
 10
4057.560286227737
 20
4141.889586175446
 30
0.0
 40
6.0
100
AcDbArc
 50
270.0
 51
0.0
  0
ARC
  5
17671
330
747D
100
AcDbEntity
  8
細線
100
AcDbCircle
 10
4067.352747048992
 20
4138.889586175446
 30
0.0
 40
6.0
100
AcDbArc
 50
270.0
 51
0.0
  0
LINE
  5
17672
330
747D
100
AcDbEntity
  8
部品1
100
AcDbLine
 10
4073.352747048992
 20
4242.889586175446
 30
0.0
 11
4032.354477157976
 21
4242.889586175446
 31
0.0
  0
LINE
  5
17673
330
747D
100
AcDbEntity
  8
細線
100
AcDbLine
 10
4067.352747048992
 20
4232.889586175446
 30
0.0
 11
4036.733703413469
 21
4232.889586175446
 31
0.0
  0
LINE
  5
17674
330
747D
100
AcDbEntity
  8
細線
100
AcDbLine
 10
4057.560286227737
 20
4229.889586175446
 30
0.0
 11
4045.352747048991
 21
4229.889586175446
 31
0.0
  0
LINE
  5
17675
330
747D
100
AcDbEntity
  8
細線
100
AcDbLine
 10
4072.352747048991
 20
4241.389586175446
 30
0.0
 11
4033.186128579745
 21
4241.389586175446
 31
0.0
  0
ARC
  5
17676
330
747D
100
AcDbEntity
  8
部品1
100
AcDbCircle
 10
4032.354477157976
 20
4236.889586175446
 30
0.0
 40
6.0
100
AcDbArc
 50
90.0
 51
169.4161974034797
  0
ARC
  5
17677
330
747D
100
AcDbEntity
  8
細線
100
AcDbCircle
 10
4033.186128579745
 20
4235.889586175446
 30
0.0
 40
5.5
100
AcDbArc
 50
90.0
 51
169.5785490272547
  0
LINE
  5
17678
330
747D
100
AcDbEntity
  8
細線
100
AcDbLine
 10
4045.352747048991
 20
4226.889078276882
 30
0.0
 11
4032.589419833024
 21
4226.889078276882
 31
0.0
  0
ARC
  5
17679
330
747D
100
AcDbEntity
  8
細線
100
AcDbCircle
 10
4036.733703413469
 20
4226.889586175446
 30
0.0
 40
6.0
100
AcDbArc
 50
90.0
 51
171.2120626773931
  0
ARC
  5
1767A
330
747D
100
AcDbEntity
  8
細線
100
AcDbCircle
 10
4046.847170958825
 20
4223.889586175446
 30
0.0
 40
3.0
100
AcDbArc
 50
8.099550838235547
 51
90.0
  0
LINE
  5
1767B
330
747D
100
AcDbEntity
  8
細線
100
AcDbLine
 10
4046.847170958825
 20
4226.889586175446
 30
0.0
 11
4045.352747048991
 21
4226.889586175446
 31
0.0
  0
ARC
  5
1767C
330
747D
100
AcDbEntity
  8
部品1
100
AcDbCircle
 10
4073.352747048992
 20
4236.889586175446
 30
0.0
 40
6.0
100
AcDbArc
 50
0.0
 51
90.0
  0
ARC
  5
1767D
330
747D
100
AcDbEntity
  8
細線
100
AcDbCircle
 10
4072.352747048991
 20
4235.889586175446
 30
0.0
 40
5.5
100
AcDbArc
 50
0.0
 51
90.0
  0
ARC
  5
1767E
330
747D
100
AcDbEntity
  8
細線
100
AcDbCircle
 10
4057.560286227737
 20
4223.889586175446
 30
0.0
 40
6.0
100
AcDbArc
 50
0.0
 51
90.0
  0
ARC
  5
1767F
330
747D
100
AcDbEntity
  8
細線
100
AcDbCircle
 10
4067.352747048992
 20
4226.889586175446
 30
0.0
 40
6.0
100
AcDbArc
 50
0.0
 51
90.0
  0
CIRCLE
  5
17680
330
747D
100
AcDbEntity
  8
細線
 48
20.0
100
AcDbCircle
 10
4052.853612103485
 20
4283.389586175446
 30
0.0
 40
10.0
  0
CIRCLE
  5
17681
330
747D
100
AcDbEntity
  8
細線
 48
20.0
100
AcDbCircle
 10
4052.853612103485
 20
4283.389586175446
 30
0.0
 40
20.0
  0
LINE
  5
17682
330
747D
100
AcDbEntity
  8
部品1
100
AcDbLine
 10
4032.354477157976
 20
4122.889586175446
 30
0.0
 11
4073.352747048992
 21
4122.889586175446
 31
0.0
  0
LINE
  5
17683
330
747D
100
AcDbEntity
  8
細線
100
AcDbLine
 10
4033.186128579745
 20
4124.389586175446
 30
0.0
 11
4072.352747048991
 21
4124.389586175446
 31
0.0
  0
ARC
  5
17684
330
747D
100
AcDbEntity
  8
部品1
100
AcDbCircle
 10
4032.354477157976
 20
4128.889586175445
 30
0.0
 40
6.0
100
AcDbArc
 50
190.5838025965202
 51
270.0
  0
ARC
  5
17685
330
747D
100
AcDbEntity
  8
細線
100
AcDbCircle
 10
4033.186128579745
 20
4129.889586175447
 30
0.0
 40
5.5
100
AcDbArc
 50
190.4214509727453
 51
270.0
  0
ARC
  5
17686
330
747D
100
AcDbEntity
  8
部品1
100
AcDbCircle
 10
4073.352747048992
 20
4128.889586175445
 30
0.0
 40
6.0
100
AcDbArc
 50
270.0
 51
0.0
  0
ARC
  5
17687
330
747D
100
AcDbEntity
  8
細線
100
AcDbCircle
 10
4072.352747048991
 20
4129.889586175447
 30
0.0
 40
5.5
100
AcDbArc
 50
270.0
 51
0.0
  0
LINE
  5
17688
330
747D
100
AcDbEntity
  8
部品1
 48
50.0
100
AcDbLine
 10
8821.290299220313
 20
5071.639586175447
 30
0.0
 11
8821.290299220313
 21
5078.389586175447
 31
0.0
  0
LINE
  5
17689
330
747D
100
AcDbEntity
  8
細線
 48
50.0
100
AcDbLine
 10
8837.277952071973
 20
5076.139586175447
 30
0.0
 11
8837.277952071973
 21
5074.139586175446
 31
0.0
  0
LINE
  5
1768A
330
747D
100
AcDbEntity
  8
細線
 48
50.0
100
AcDbLine
 10
8829.427542026008
 20
5076.139586175447
 30
0.0
 11
8829.427542026008
 21
5074.139586175446
 31
0.0
  0
LINE
  5
1768B
330
747D
100
AcDbEntity
  8
細線
 48
0.1
100
AcDbLine
 10
8841.290299220313
 20
5078.639586175446
 30
0.0
 11
8841.290299220313
 21
5071.639586175447
 31
0.0
  0
LINE
  5
1768C
330
747D
100
AcDbEntity
  8
部品1
 48
0.2
100
AcDbLine
 10
8841.290299220313
 20
5071.639586175447
 30
0.0
 11
8821.290299220313
 21
5071.639586175447
 31
0.0
  0
LINE
  5
1768D
330
747D
100
AcDbEntity
  8
細線
 48
0.2
100
AcDbLine
 10
8841.290299220313
 20
5074.139586175446
 30
0.0
 11
8821.290299220313
 21
5074.139586175446
 31
0.0
  0
LINE
  5
1768E
330
747D
100
AcDbEntity
  8
部品1
100
AcDbLine
 10
8841.290299220313
 20
5078.389586175443
 30
0.0
 11
8841.352747048993
 21
5078.389586175444
 31
0.0
  0
LINE
  5
1768F
330
747D
100
AcDbEntity
  8
部品1
100
AcDbLine
 10
8841.290299220313
 20
5078.389586175447
 30
0.0
 11
8841.352747048993
 21
5078.389586175444
 31
0.0
  0
LINE
  5
17690
330
747D
100
AcDbEntity
  8
細線
 48
50.0
100
AcDbLine
 10
8821.290299220313
 20
5078.389586175447
 30
0.0
 11
8821.290299220313
 21
5078.639586175446
 31
0.0
  0
LINE
  5
17691
330
747D
100
AcDbEntity
  8
細線
 48
0.2
100
AcDbLine
 10
8838.974290516821
 20
5079.339586175446
 30
0.0
 11
8827.606307923808
 21
5079.339586175446
 31
0.0
  0
ARC
  5
17692
330
747D
100
AcDbEntity
  8
細線
 48
0.2
100
AcDbCircle
 10
8833.290299220314
 20
5061.839586175449
 30
0.0
 40
18.49999999999796
100
AcDbArc
 50
73.39845040101522
 51
106.6015495989848
  0
ARC
  5
17693
330
747D
100
AcDbEntity
  8
細線
 48
0.2
100
AcDbCircle
 10
8828.290299220313
 20
5078.610096006695
 30
0.0
 40
1.0
100
AcDbArc
 50
106.6015495989848
 51
180.0
  0
LINE
  5
17694
330
747D
100
AcDbEntity
  8
細線
 48
0.2
100
AcDbLine
 10
8841.290299220313
 20
5076.139586175447
 30
0.0
 11
8821.290299220313
 21
5076.139586175447
 31
0.0
  0
LINE
  5
17695
330
747D
100
AcDbEntity
  8
細線
 48
0.2
100
AcDbLine
 10
8841.290299220313
 20
5078.639586175446
 30
0.0
 11
8821.290299220313
 21
5078.639586175446
 31
0.0
  0
ARC
  5
17696
330
747D
100
AcDbEntity
  8
細線
 48
0.2
100
AcDbCircle
 10
8838.290299220313
 20
5078.610096006695
 30
0.0
 40
1.0
100
AcDbArc
 50
0.0
 51
73.39845040101522
  0
LINE
  5
17697
330
747D
100
AcDbEntity
  8
細線
 48
0.1
100
AcDbLine
 10
7201.290299220312
 20
5078.639586175446
 30
0.0
 11
7201.290299220312
 21
5071.639586175447
 31
0.0
  0
LINE
  5
17698
330
747D
100
AcDbEntity
  8
部品1
100
AcDbLine
 10
7201.290299220312
 20
5078.389586175443
 30
0.0
 11
7201.352747048993
 21
5078.389586175444
 31
0.0
  0
LINE
  5
17699
330
747D
100
AcDbEntity
  8
部品1
100
AcDbLine
 10
7201.290299220312
 20
5078.389586175447
 30
0.0
 11
7201.352747048993
 21
5078.389586175444
 31
0.0
  0
LINE
  5
1769A
330
747D
100
AcDbEntity
  8
部品1
 48
50.0
100
AcDbLine
 10
7181.290299220312
 20
5071.639586175447
 30
0.0
 11
7181.290299220312
 21
5078.389586175447
 31
0.0
  0
LINE
  5
1769B
330
747D
100
AcDbEntity
  8
細線
 48
50.0
100
AcDbLine
 10
7197.277952071972
 20
5076.139586175447
 30
0.0
 11
7197.277952071972
 21
5074.139586175446
 31
0.0
  0
LINE
  5
1769C
330
747D
100
AcDbEntity
  8
細線
 48
50.0
100
AcDbLine
 10
7189.427542026009
 20
5076.139586175447
 30
0.0
 11
7189.427542026009
 21
5074.139586175446
 31
0.0
  0
LINE
  5
1769D
330
747D
100
AcDbEntity
  8
細線
 48
50.0
100
AcDbLine
 10
7181.290299220312
 20
5078.389586175447
 30
0.0
 11
7181.290299220312
 21
5078.639586175446
 31
0.0
  0
LINE
  5
1769E
330
747D
100
AcDbEntity
  8
細線
 48
0.2
100
AcDbLine
 10
7198.97429051682
 20
5079.339586175446
 30
0.0
 11
7187.606307923807
 21
5079.339586175446
 31
0.0
  0
ARC
  5
1769F
330
747D
100
AcDbEntity
  8
細線
 48
0.2
100
AcDbCircle
 10
7193.290299220312
 20
5061.839586175449
 30
0.0
 40
18.49999999999796
100
AcDbArc
 50
73.39845040101522
 51
106.6015495989848
  0
ARC
  5
176A0
330
747D
100
AcDbEntity
  8
細線
 48
0.2
100
AcDbCircle
 10
7188.290299220311
 20
5078.610096006695
 30
0.0
 40
1.0
100
AcDbArc
 50
106.6015495989848
 51
180.0
  0
ARC
  5
176A1
330
747D
100
AcDbEntity
  8
細線
 48
0.2
100
AcDbCircle
 10
7198.290299220312
 20
5078.610096006695
 30
0.0
 40
1.0
100
AcDbArc
 50
0.0
 51
73.39845040101522
  0
LINE
  5
176A2
330
747D
100
AcDbEntity
  8
部品1
 48
0.2
100
AcDbLine
 10
7201.290299220312
 20
5071.639586175447
 30
0.0
 11
7181.290299220312
 21
5071.639586175447
 31
0.0
  0
LINE
  5
176A3
330
747D
100
AcDbEntity
  8
細線
 48
0.2
100
AcDbLine
 10
7201.290299220312
 20
5074.139586175446
 30
0.0
 11
7181.290299220312
 21
5074.139586175446
 31
0.0
  0
LINE
  5
176A4
330
747D
100
AcDbEntity
  8
細線
 48
0.2
100
AcDbLine
 10
7201.290299220312
 20
5076.139586175447
 30
0.0
 11
7181.290299220312
 21
5076.139586175447
 31
0.0
  0
LINE
  5
176A5
330
747D
100
AcDbEntity
  8
細線
 48
0.2
100
AcDbLine
 10
7201.290299220312
 20
5078.639586175446
 30
0.0
 11
7181.290299220312
 21
5078.639586175446
 31
0.0
  0
LINE
  5
176A6
330
747D
100
AcDbEntity
  8
部品1
100
AcDbLine
 10
8111.352747048993
 20
5078.389586175444
 30
0.0
 11
8821.290299220313
 21
5078.389586175444
 31
0.0
  0
LINE
  5
176A7
330
747D
100
AcDbEntity
  8
部品1
 48
50.0
100
AcDbLine
 10
5541.290299220311
 20
5071.639586175447
 30
0.0
 11
5541.290299220311
 21
5078.389586175447
 31
0.0
  0
LINE
  5
176A8
330
747D
100
AcDbEntity
  8
細線
 48
0.1
100
AcDbLine
 10
5561.290299220312
 20
5078.639586175446
 30
0.0
 11
5561.290299220312
 21
5071.639586175447
 31
0.0
  0
LINE
  5
176A9
330
747D
100
AcDbEntity
  8
細線
 48
50.0
100
AcDbLine
 10
5549.427542026008
 20
5076.139586175447
 30
0.0
 11
5549.427542026009
 21
5074.139586175446
 31
0.0
  0
LINE
  5
176AA
330
747D
100
AcDbEntity
  8
細線
 48
50.0
100
AcDbLine
 10
5557.277952071973
 20
5076.139586175447
 30
0.0
 11
5557.277952071973
 21
5074.139586175446
 31
0.0
  0
LINE
  5
176AB
330
747D
100
AcDbEntity
  8
細線
 48
0.2
100
AcDbLine
 10
5561.290299220312
 20
5074.139586175446
 30
0.0
 11
5541.290299220313
 21
5074.139586175446
 31
0.0
  0
LINE
  5
176AC
330
747D
100
AcDbEntity
  8
部品1
 48
0.2
100
AcDbLine
 10
5561.290299220312
 20
5071.639586175447
 30
0.0
 11
5541.290299220311
 21
5071.639586175447
 31
0.0
  0
LINE
  5
176AD
330
747D
100
AcDbEntity
  8
細線
 48
50.0
100
AcDbLine
 10
5541.290299220311
 20
5078.389586175447
 30
0.0
 11
5541.290299220311
 21
5078.639586175446
 31
0.0
  0
LINE
  5
176AE
330
747D
100
AcDbEntity
  8
部品1
100
AcDbLine
 10
5561.290299220313
 20
5078.389586175447
 30
0.0
 11
5561.352747048993
 21
5078.389586175444
 31
0.0
  0
LINE
  5
176AF
330
747D
100
AcDbEntity
  8
細線
 48
0.2
100
AcDbLine
 10
5561.290299220312
 20
5078.639586175446
 30
0.0
 11
5541.290299220313
 21
5078.639586175446
 31
0.0
  0
LINE
  5
176B0
330
747D
100
AcDbEntity
  8
細線
 48
0.2
100
AcDbLine
 10
5561.290299220312
 20
5076.139586175447
 30
0.0
 11
5541.290299220313
 21
5076.139586175447
 31
0.0
  0
ARC
  5
176B1
330
747D
100
AcDbEntity
  8
細線
 48
0.2
100
AcDbCircle
 10
5548.290299220312
 20
5078.610096006695
 30
0.0
 40
1.0
100
AcDbArc
 50
106.6015495989848
 51
180.0
  0
ARC
  5
176B2
330
747D
100
AcDbEntity
  8
細線
 48
0.2
100
AcDbCircle
 10
5558.290299220312
 20
5078.610096006695
 30
0.0
 40
1.0
100
AcDbArc
 50
0.0
 51
73.39845040101522
  0
ARC
  5
176B3
330
747D
100
AcDbEntity
  8
細線
 48
0.2
100
AcDbCircle
 10
5553.290299220312
 20
5061.839586175449
 30
0.0
 40
18.49999999999796
100
AcDbArc
 50
73.39845040101522
 51
106.6015495989848
  0
LINE
  5
176B4
330
747D
100
AcDbEntity
  8
細線
 48
0.2
100
AcDbLine
 10
5558.974290516819
 20
5079.339586175446
 30
0.0
 11
5547.606307923807
 21
5079.339586175446
 31
0.0
  0
LINE
  5
176B5
330
747D
100
AcDbEntity
  8
部品1
100
AcDbLine
 10
4831.352747048994
 20
5078.389586175447
 30
0.0
 11
5541.290299220313
 21
5078.389586175447
 31
0.0
  0
LINE
  5
176B6
330
747D
100
AcDbEntity
  8
部品1
100
AcDbLine
 10
6471.352747048992
 20
5078.389586175443
 30
0.0
 11
7181.290299220312
 21
5078.389586175444
 31
0.0
  0
LINE
  5
176B7
330
747D
100
AcDbEntity
  8
細線
 48
0.1
100
AcDbLine
 10
8841.290299220313
 20
3287.139586175463
 30
0.0
 11
8841.290299220313
 21
3294.139586175463
 31
0.0
  0
LINE
  5
176B8
330
747D
100
AcDbEntity
  8
細線
 48
50.0
100
AcDbLine
 10
8829.427542026008
 20
3289.639586175465
 30
0.0
 11
8829.427542026008
 21
3291.639586175463
 31
0.0
  0
LINE
  5
176B9
330
747D
100
AcDbEntity
  8
細線
 48
50.0
100
AcDbLine
 10
8837.277952071973
 20
3289.639586175465
 30
0.0
 11
8837.277952071973
 21
3291.639586175463
 31
0.0
  0
LINE
  5
176BA
330
747D
100
AcDbEntity
  8
部品1
 48
50.0
100
AcDbLine
 10
8821.290299220313
 20
3294.139586175463
 30
0.0
 11
8821.290299220313
 21
3287.389586175465
 31
0.0
  0
LINE
  5
176BB
330
747D
100
AcDbEntity
  8
部品1
100
AcDbLine
 10
8841.290299220313
 20
3287.389586175465
 30
0.0
 11
8841.352747048993
 21
3287.389586175465
 31
0.0
  0
ARC
  5
176BC
330
747D
100
AcDbEntity
  8
細線
 48
0.2
100
AcDbCircle
 10
8838.290299220313
 20
3287.169076344215
 30
0.0
 40
1.0
100
AcDbArc
 50
286.6015495989848
 51
0.0
  0
LINE
  5
176BD
330
747D
100
AcDbEntity
  8
細線
 48
0.2
100
AcDbLine
 10
8841.290299220313
 20
3287.139586175463
 30
0.0
 11
8821.290299220313
 21
3287.139586175463
 31
0.0
  0
LINE
  5
176BE
330
747D
100
AcDbEntity
  8
細線
 48
0.2
100
AcDbLine
 10
8841.290299220313
 20
3289.639586175463
 30
0.0
 11
8821.290299220313
 21
3289.639586175465
 31
0.0
  0
ARC
  5
176BF
330
747D
100
AcDbEntity
  8
細線
 48
0.2
100
AcDbCircle
 10
8828.290299220313
 20
3287.169076344215
 30
0.0
 40
1.0
100
AcDbArc
 50
180.0
 51
253.3984504010152
  0
ARC
  5
176C0
330
747D
100
AcDbEntity
  8
細線
 48
0.2
100
AcDbCircle
 10
8833.290299220314
 20
3303.93958617546
 30
0.0
 40
18.49999999999796
100
AcDbArc
 50
253.3984504010152
 51
286.6015495989848
  0
LINE
  5
176C1
330
747D
100
AcDbEntity
  8
細線
 48
0.2
100
AcDbLine
 10
8838.974290516821
 20
3286.439586175462
 30
0.0
 11
8827.606307923808
 21
3286.439586175462
 31
0.0
  0
LINE
  5
176C2
330
747D
100
AcDbEntity
  8
細線
 48
50.0
100
AcDbLine
 10
8821.290299220313
 20
3287.389586175465
 30
0.0
 11
8821.290299220313
 21
3287.139586175463
 31
0.0
  0
LINE
  5
176C3
330
747D
100
AcDbEntity
  8
部品1
100
AcDbLine
 10
8841.290299220313
 20
3287.389586175465
 30
0.0
 11
8841.352747048993
 21
3287.389586175465
 31
0.0
  0
LINE
  5
176C4
330
747D
100
AcDbEntity
  8
部品1
100
AcDbLine
 10
8841.290299220313
 20
3287.389586175466
 30
0.0
 11
8841.352747048993
 21
3287.389586175466
 31
0.0
  0
LINE
  5
176C5
330
747D
100
AcDbEntity
  8
細線
 48
0.2
100
AcDbLine
 10
8841.290299220313
 20
3291.639586175463
 30
0.0
 11
8821.290299220313
 21
3291.639586175463
 31
0.0
  0
LINE
  5
176C6
330
747D
100
AcDbEntity
  8
部品1
 48
0.2
100
AcDbLine
 10
8841.290299220313
 20
3294.139586175463
 30
0.0
 11
8821.290299220313
 21
3294.139586175463
 31
0.0
  0
LINE
  5
176C7
330
747D
100
AcDbEntity
  8
細線
 48
0.1
100
AcDbLine
 10
7201.290299220312
 20
3287.139586175463
 30
0.0
 11
7201.290299220312
 21
3294.139586175463
 31
0.0
  0
LINE
  5
176C8
330
747D
100
AcDbEntity
  8
部品1
100
AcDbLine
 10
7201.290299220312
 20
3287.389586175465
 30
0.0
 11
7201.352747048993
 21
3287.389586175465
 31
0.0
  0
LINE
  5
176C9
330
747D
100
AcDbEntity
  8
部品1
100
AcDbLine
 10
7201.290299220312
 20
3287.389586175465
 30
0.0
 11
7201.352747048993
 21
3287.389586175465
 31
0.0
  0
LINE
  5
176CA
330
747D
100
AcDbEntity
  8
部品1
100
AcDbLine
 10
7201.290299220312
 20
3287.389586175466
 30
0.0
 11
7201.352747048993
 21
3287.389586175466
 31
0.0
  0
LINE
  5
176CB
330
747D
100
AcDbEntity
  8
細線
 48
50.0
100
AcDbLine
 10
7189.427542026009
 20
3289.639586175465
 30
0.0
 11
7189.427542026009
 21
3291.639586175463
 31
0.0
  0
LINE
  5
176CC
330
747D
100
AcDbEntity
  8
細線
 48
50.0
100
AcDbLine
 10
7197.277952071972
 20
3289.639586175465
 30
0.0
 11
7197.277952071972
 21
3291.639586175463
 31
0.0
  0
LINE
  5
176CD
330
747D
100
AcDbEntity
  8
部品1
 48
50.0
100
AcDbLine
 10
7181.290299220312
 20
3294.139586175463
 30
0.0
 11
7181.290299220312
 21
3287.389586175465
 31
0.0
  0
ARC
  5
176CE
330
747D
100
AcDbEntity
  8
細線
 48
0.2
100
AcDbCircle
 10
7198.290299220312
 20
3287.169076344215
 30
0.0
 40
1.0
100
AcDbArc
 50
286.6015495989848
 51
0.0
  0
ARC
  5
176CF
330
747D
100
AcDbEntity
  8
細線
 48
0.2
100
AcDbCircle
 10
7188.290299220311
 20
3287.169076344215
 30
0.0
 40
1.0
100
AcDbArc
 50
180.0
 51
253.3984504010152
  0
ARC
  5
176D0
330
747D
100
AcDbEntity
  8
細線
 48
0.2
100
AcDbCircle
 10
7193.290299220312
 20
3303.93958617546
 30
0.0
 40
18.49999999999796
100
AcDbArc
 50
253.3984504010152
 51
286.6015495989848
  0
LINE
  5
176D1
330
747D
100
AcDbEntity
  8
細線
 48
0.2
100
AcDbLine
 10
7198.97429051682
 20
3286.439586175462
 30
0.0
 11
7187.606307923807
 21
3286.439586175462
 31
0.0
  0
LINE
  5
176D2
330
747D
100
AcDbEntity
  8
細線
 48
50.0
100
AcDbLine
 10
7181.290299220312
 20
3287.389586175465
 30
0.0
 11
7181.290299220312
 21
3287.139586175463
 31
0.0
  0
LINE
  5
176D3
330
747D
100
AcDbEntity
  8
細線
 48
0.2
100
AcDbLine
 10
7201.290299220312
 20
3287.139586175463
 30
0.0
 11
7181.290299220312
 21
3287.139586175463
 31
0.0
  0
LINE
  5
176D4
330
747D
100
AcDbEntity
  8
細線
 48
0.2
100
AcDbLine
 10
7201.290299220312
 20
3289.639586175463
 30
0.0
 11
7181.290299220312
 21
3289.639586175465
 31
0.0
  0
LINE
  5
176D5
330
747D
100
AcDbEntity
  8
細線
 48
0.2
100
AcDbLine
 10
7201.290299220312
 20
3291.639586175463
 30
0.0
 11
7181.290299220312
 21
3291.639586175463
 31
0.0
  0
LINE
  5
176D6
330
747D
100
AcDbEntity
  8
部品1
 48
0.2
100
AcDbLine
 10
7201.290299220312
 20
3294.139586175463
 30
0.0
 11
7181.290299220312
 21
3294.139586175463
 31
0.0
  0
LINE
  5
176D7
330
747D
100
AcDbEntity
  8
部品1
100
AcDbLine
 10
8111.352747048995
 20
3287.389586175458
 30
0.0
 11
8821.290299220313
 21
3287.389586175465
 31
0.0
  0
LINE
  5
176D8
330
747D
100
AcDbEntity
  8
部品1
 48
50.0
100
AcDbLine
 10
5541.290299220311
 20
3294.139586175463
 30
0.0
 11
5541.290299220311
 21
3287.389586175465
 31
0.0
  0
LINE
  5
176D9
330
747D
100
AcDbEntity
  8
細線
 48
50.0
100
AcDbLine
 10
5557.277952071973
 20
3289.639586175465
 30
0.0
 11
5557.277952071973
 21
3291.639586175463
 31
0.0
  0
LINE
  5
176DA
330
747D
100
AcDbEntity
  8
細線
 48
50.0
100
AcDbLine
 10
5549.427542026008
 20
3289.639586175465
 30
0.0
 11
5549.427542026009
 21
3291.639586175463
 31
0.0
  0
LINE
  5
176DB
330
747D
100
AcDbEntity
  8
細線
 48
0.1
100
AcDbLine
 10
5561.290299220312
 20
3287.139586175463
 30
0.0
 11
5561.290299220312
 21
3294.139586175463
 31
0.0
  0
LINE
  5
176DC
330
747D
100
AcDbEntity
  8
部品1
100
AcDbLine
 10
5561.290299220313
 20
3287.389586175456
 30
0.0
 11
5561.352747048993
 21
3287.389586175456
 31
0.0
  0
LINE
  5
176DD
330
747D
100
AcDbEntity
  8
部品1
100
AcDbLine
 10
5561.290299220313
 20
3287.389586175465
 30
0.0
 11
5561.352747048993
 21
3287.389586175465
 31
0.0
  0
LINE
  5
176DE
330
747D
100
AcDbEntity
  8
細線
 48
50.0
100
AcDbLine
 10
5541.290299220311
 20
3287.389586175465
 30
0.0
 11
5541.290299220311
 21
3287.139586175463
 31
0.0
  0
LINE
  5
176DF
330
747D
100
AcDbEntity
  8
細線
 48
0.2
100
AcDbLine
 10
5558.974290516819
 20
3286.439586175462
 30
0.0
 11
5547.606307923807
 21
3286.439586175462
 31
0.0
  0
ARC
  5
176E0
330
747D
100
AcDbEntity
  8
細線
 48
0.2
100
AcDbCircle
 10
5553.290299220312
 20
3303.93958617546
 30
0.0
 40
18.49999999999796
100
AcDbArc
 50
253.3984504010152
 51
286.6015495989848
  0
ARC
  5
176E1
330
747D
100
AcDbEntity
  8
細線
 48
0.2
100
AcDbCircle
 10
5548.290299220312
 20
3287.169076344215
 30
0.0
 40
1.0
100
AcDbArc
 50
180.0
 51
253.3984504010152
  0
LINE
  5
176E2
330
747D
100
AcDbEntity
  8
細線
 48
0.2
100
AcDbLine
 10
5561.290299220312
 20
3289.639586175463
 30
0.0
 11
5541.290299220313
 21
3289.639586175465
 31
0.0
  0
LINE
  5
176E3
330
747D
100
AcDbEntity
  8
細線
 48
0.2
100
AcDbLine
 10
5561.290299220312
 20
3287.139586175463
 30
0.0
 11
5541.290299220313
 21
3287.139586175463
 31
0.0
  0
ARC
  5
176E4
330
747D
100
AcDbEntity
  8
細線
 48
0.2
100
AcDbCircle
 10
5558.290299220312
 20
3287.169076344215
 30
0.0
 40
1.0
100
AcDbArc
 50
286.6015495989848
 51
0.0
  0
LINE
  5
176E5
330
747D
100
AcDbEntity
  8
部品1
 48
0.2
100
AcDbLine
 10
5561.290299220312
 20
3294.139586175463
 30
0.0
 11
5541.290299220311
 21
3294.139586175463
 31
0.0
  0
LINE
  5
176E6
330
747D
100
AcDbEntity
  8
細線
 48
0.2
100
AcDbLine
 10
5561.290299220312
 20
3291.639586175463
 30
0.0
 11
5541.290299220313
 21
3291.639586175463
 31
0.0
  0
LINE
  5
176E7
330
747D
100
AcDbEntity
  8
部品1
100
AcDbLine
 10
4831.352747048994
 20
3287.38958617545
 30
0.0
 11
5541.290299220313
 21
3287.389586175456
 31
0.0
  0
LINE
  5
176E8
330
747D
100
AcDbEntity
  8
部品1
100
AcDbLine
 10
6471.352747048993
 20
3287.389586175458
 30
0.0
 11
7181.290299220312
 21
3287.389586175465
 31
0.0
  0
DIMENSION
  5
176E9
330
747D
100
AcDbEntity
  8
寸法
100
AcDbDimension
  2
*D47
 10
3648.24821944139
 20
3302.389586175448
 30
0.0
 11
3648.24821944139
 21
4181.389586175447
 31
0.0
 70
   160
  1
有効開口部高サ<>
 71
     5
 42
1759.999999999996
  3
INABA_S40G
100
AcDbAlignedDimension
 13
3966.352747048994
 23
5062.389586175445
 33
0.0
 14
3966.352747048994
 24
3302.389586175448
 34
0.0
 50
90.0
100
AcDbRotatedDimension
1001
ACAD
1000
DSTYLE
1002
{
1070
   288
1070
     1
1002
}
  0
LINE
  5
176EA
330
747D
100
AcDbEntity
  8
部品1
100
AcDbLine
 10
4009.352747048994
 20
5080.889586175445
 30
0.0
 11
4009.352747048994
 21
3283.889586175464
 31
0.0
  0
LINE
  5
176EB
330
747D
100
AcDbEntity
  8
部品1
100
AcDbLine
 10
5561.352747048992
 20
5078.389586175444
 30
0.0
 11
5561.352747048994
 21
3287.389586175456
 31
0.0
  0
LINE
  5
176EC
330
747D
100
AcDbEntity
  8
部品1
100
AcDbLine
 10
6383.352747048993
 20
5080.889586175445
 30
0.0
 11
6383.352747048993
 21
3283.889586175464
 31
0.0
  0
LINE
  5
176ED
330
747D
100
AcDbEntity
  8
部品1
100
AcDbLine
 10
8109.352747048992
 20
5080.889586175445
 30
0.0
 11
8109.352747048992
 21
3283.889586175464
 31
0.0
  0
LINE
  5
176EE
330
747D
100
AcDbEntity
  8
部品1
100
AcDbLine
 10
8111.352747048993
 20
5078.389586175444
 30
0.0
 11
8111.352747048995
 21
3287.389586175458
 31
0.0
  0
LINE
  5
176EF
330
747D
100
AcDbEntity
  8
部品1
100
AcDbLine
 10
8841.352747048993
 20
5078.389586175444
 30
0.0
 11
8841.352747048993
 21
3287.389586175465
 31
0.0
  0
LINE
  5
176F0
330
747D
100
AcDbEntity
  8
部品1
100
AcDbLine
 10
8886.352747048993
 20
5174.889586175436
 30
0.0
 11
8886.352747048993
 21
3140.889586175445
 31
0.0
  0
LINE
  5
176F1
330
747D
100
AcDbEntity
  8
部品1
100
AcDbLine
 10
3966.352747048994
 20
5174.889586175443
 30
0.0
 11
3966.352747048994
 21
3140.889586175445
 31
0.0
  0
LINE
  5
176F2
330
747D
100
AcDbEntity
  8
部品1
100
AcDbLine
 10
8843.352747048994
 20
5080.889586175445
 30
0.0
 11
8843.352747048994
 21
3283.889586175464
 31
0.0
  0
LINE
  5
176F3
330
747D
100
AcDbEntity
  8
部品1
100
AcDbLine
 10
4011.352747048993
 20
5078.389586175447
 30
0.0
 11
4011.352747048993
 21
3287.38958617545
 31
0.0
  0
LINE
  5
176F4
330
747D
100
AcDbEntity
  8
部品1
100
AcDbLine
 10
6469.352747048993
 20
5080.889586175445
 30
0.0
 11
6469.352747048993
 21
3283.889586175464
 31
0.0
  0
LINE
  5
176F5
330
747D
100
AcDbEntity
  8
部品1
100
AcDbLine
 10
6471.352747048992
 20
5078.389586175443
 30
0.0
 11
6471.352747048993
 21
3287.389586175458
 31
0.0
  0
LINE
  5
176F6
330
747D
100
AcDbEntity
  8
部品1
100
AcDbLine
 10
7201.352747048993
 20
5078.389586175444
 30
0.0
 11
7201.352747048995
 21
3287.389586175465
 31
0.0
  0
LINE
  5
176F7
330
747D
100
AcDbEntity
  8
部品1
100
AcDbLine
 10
8023.352747048994
 20
5080.889586175445
 30
0.0
 11
8023.352747048994
 21
3283.889586175464
 31
0.0
  0
TEXT
  5
176F8
330
747D
100
AcDbEntity
  8
部品1
100
AcDbText
 10
2935.852167059333
 20
3176.996489781346
 30
0.0
 40
125.0
  1
▽G.L
  7
STYLE2
100
AcDbText
  0
TEXT
  5
17B33
330
747D
100
AcDbEntity
  8
文字
 62
     7
 48
50.0
100
AcDbText
 10
14260.68475616112
 20
855.469579666289
 30
0.0
 40
100.0
  1
～一般型・多雪地型・豪雪地型～
  7
STYLE2
100
AcDbText
  0
ENDSEC
  0
SECTION
  2
OBJECTS
  0
DICTIONARY
  5
7471
330
0
100
AcDbDictionary
281
     1
  3
ACAD_COLOR
350
16124
  3
ACAD_GROUP
350
7472
  3
ACAD_LAYOUT
350
16125
  3
ACAD_MATERIAL
350
16123
  3
ACAD_MLINESTYLE
350
7473
  3
ACAD_PLOTSETTINGS
350
16126
  3
ACAD_PLOTSTYLENAME
350
16121
  3
ACDBHEADERROUNDTRIPXREC
350
17B55
  3
AcDbVariableDictionary
350
17B51
  3
CONTENTDICTIONARY
350
E71C
  3
DRAWINGVARIABLESDICT
350
F3B9
  0
DICTIONARY
  5
1634E
330
7467
100
AcDbDictionary
280
     1
281
     1
  3
ACAD_LAYERSTATES
360
1634F
  0
DICTIONARY
  5
16124
102
{ACAD_REACTORS
330
7471
102
}
330
7471
100
AcDbDictionary
281
     1
  0
DICTIONARY
  5
7472
102
{ACAD_REACTORS
330
7471
102
}
330
7471
100
AcDbDictionary
281
     1
  0
DICTIONARY
  5
16125
102
{ACAD_REACTORS
330
7471
102
}
330
7471
100
AcDbDictionary
281
     1
  3
Model
350
16127
  3
レイアウト1
350
16128
  0
DICTIONARY
  5
16123
102
{ACAD_REACTORS
330
7471
102
}
330
7471
100
AcDbDictionary
281
     1
  0
DICTIONARY
  5
7473
102
{ACAD_REACTORS
330
7471
102
}
330
7471
100
AcDbDictionary
281
     1
  3
STANDARD
350
7480
  0
DICTIONARY
  5
16126
102
{ACAD_REACTORS
330
7471
102
}
330
7471
100
AcDbDictionary
281
     1
  0
ACDBDICTIONARYWDFLT
  5
16121
102
{ACAD_REACTORS
330
7471
102
}
330
7471
100
AcDbDictionary
281
     1
  3
Normal
350
16122
100
AcDbDictionaryWithDefault
340
16122
  0
DICTIONARY
  5
17B55
102
{ACAD_REACTORS
330
7471
102
}
330
7471
100
AcDbDictionary
281
     1
  3
COLORDICT
350
17B57
  3
MATERIALDICT
350
17B56
  0
DICTIONARY
  5
17B51
102
{ACAD_REACTORS
330
7471
102
}
330
7471
100
AcDbDictionary
281
     1
  3
DIMASSOC
350
17B52
  3
PROJECTNAME
350
17B53
  0
DICTIONARY
  5
E71C
102
{ACAD_REACTORS
330
7471
102
}
330
7471
100
AcDbDictionary
281
     1
  0
DICTIONARY
  5
F3B9
102
{ACAD_REACTORS
330
7471
102
}
330
7471
100
AcDbDictionary
281
     1
1001
DRAWINGVARIABLESXDATA
1000
POLARMODE
1000
1
  0
DICTIONARY
  5
1634F
102
{ACAD_REACTORS
330
1634E
102
}
330
1634E
100
AcDbDictionary
281
     1
  0
LAYOUT
  5
16127
102
{ACAD_XDICTIONARY
360
17B58
102
}
102
{ACAD_REACTORS
330
16125
102
}
330
16125
100
AcDbPlotSettings
  1

  2
Microsoft Office Document Image Writer
  4

  6

 40
0.0
 41
0.0
 42
0.0
 43
0.0
 44
0.0
 45
0.0
 46
0.0
 47
0.0
 48
0.0
 49
0.0
140
0.0
141
0.0
142
1.0
143
1.0
 70
  1712
 72
     0
 73
     0
 74
     0
  7

 75
     0
147
1.0
148
0.0
149
0.0
100
AcDbLayout
  1
Model
 70
     1
 71
     0
 10
0.0
 20
0.0
 11
12.0
 21
9.0
 12
0.0
 22
0.0
 32
0.0
 14
0.0
 24
0.0
 34
0.0
 15
0.0
 25
0.0
 35
0.0
146
0.0
 13
0.0
 23
0.0
 33
0.0
 16
1.0
 26
0.0
 36
0.0
 17
0.0
 27
1.0
 37
0.0
 76
     0
330
747D
  0
LAYOUT
  5
16128
102
{ACAD_XDICTIONARY
360
17B5A
102
}
102
{ACAD_REACTORS
330
16125
102
}
330
16125
100
AcDbPlotSettings
  1

  2
Microsoft Office Document Image Writer
  4

  6

 40
0.0
 41
0.0
 42
0.0
 43
0.0
 44
0.0
 45
0.0
 46
0.0
 47
0.0
 48
0.0
 49
0.0
140
0.0
141
0.0
142
1.0
143
1.0
 70
   688
 72
     0
 73
     0
 74
     5
  7

 75
    16
147
1.0
148
0.0
149
0.0
100
AcDbLayout
  1
レイアウト1
 70
     0
 71
     1
 10
0.0
 20
0.0
 11
420.0
 21
297.0
 12
0.0
 22
0.0
 32
0.0
 14
1.000000000000000E+20
 24
1.000000000000000E+20
 34
1.000000000000000E+20
 15
-1.000000000000000E+20
 25
-1.000000000000000E+20
 35
-1.000000000000000E+20
146
0.0
 13
0.0
 23
0.0
 33
0.0
 16
1.0
 26
0.0
 36
0.0
 17
0.0
 27
1.0
 37
0.0
 76
     0
330
747A
  0
MLINESTYLE
  5
7480
102
{ACAD_REACTORS
330
7473
102
}
330
7473
100
AcDbMlineStyle
  2
STANDARD
 70
     0
  3

 62
     0
 51
90.0
 52
90.0
 71
     2
 49
0.5
 62
   256
  6
BYLAYER
 49
-0.5
 62
   256
  6
BYLAYER
  0
ACDBPLACEHOLDER
  5
16122
102
{ACAD_REACTORS
330
16121
102
}
330
16121
  0
XRECORD
  5
17B57
102
{ACAD_REACTORS
330
17B55
102
}
330
17B55
100
AcDbXrecord
280
     1
340
16124
  0
XRECORD
  5
17B56
102
{ACAD_REACTORS
330
17B55
102
}
330
17B55
100
AcDbXrecord
280
     1
340
16123
  0
DICTIONARYVAR
  5
17B52
102
{ACAD_REACTORS
330
17B51
102
}
330
17B51
100
DictionaryVariables
280
     0
  1
1
  0
DICTIONARYVAR
  5
17B53
102
{ACAD_REACTORS
330
17B51
102
}
330
17B51
100
DictionaryVariables
280
     0
  1

  0
DICTIONARY
  5
17B58
330
16127
100
AcDbDictionary
280
     1
281
     1
  3
ACAD_XREC_ROUNDTRIP
360
17B59
  0
DICTIONARY
  5
17B5A
330
16128
100
AcDbDictionary
280
     1
281
     1
  3
ACAD_XREC_ROUNDTRIP
360
17B5B
  0
XRECORD
  5
17B59
102
{ACAD_REACTORS
330
17B58
102
}
330
17B58
100
AcDbXrecord
280
     1
102
SHADEPLOT
 70
     0
102
SHADEPLOTRESLEVEL
 70
     2
102
SHADEPLOTCUSTOMDPI
 70
   300
  0
XRECORD
  5
17B5B
102
{ACAD_REACTORS
330
17B5A
102
}
330
17B5A
100
AcDbXrecord
280
     1
102
SHADEPLOT
 70
     0
102
SHADEPLOTRESLEVEL
 70
     2
102
SHADEPLOTCUSTOMDPI
 70
   300
  0
ENDSEC
  0
EOF
