  0
SECTION
  2
HEADER
  9
$ACADVER
  1
AC1015
  9
$ACADMAINTVER
 70
    20
  9
$DWGCODEPAGE
  3
ANSI_932
  9
$INSBASE
 10
0.0
 20
0.0
 30
0.0
  9
$EXTMIN
 10
139.9999999999995
 20
-0.0000000000000909
 30
0.0
  9
$EXTMAX
 10
16307.2
 20
11409.6
 30
0.0
  9
$LIMMIN
 10
0.0
 20
0.0
  9
$LIMMAX
 10
16800.0
 20
11880.0
  9
$ORTHOMODE
 70
     0
  9
$REGENMODE
 70
     1
  9
$FILLMODE
 70
     1
  9
$QTEXTMODE
 70
     0
  9
$MIRRTEXT
 70
     1
  9
$LTSCALE
 40
20.0
  9
$ATTMODE
 70
     1
  9
$TEXTSIZE
 40
100.0
  9
$TRACEWID
 40
1.0
  9
$TEXTSTYLE
  7
STYLE3
  9
$CLAYER
  8
寸法
  9
$CELTYPE
  6
BYLAYER
  9
$CECOLOR
 62
   256
  9
$CELTSCALE
 40
50.0
  9
$DISPSILH
 70
     0
  9
$DIMSCALE
 40
40.0
  9
$DIMASZ
 40
2.5
  9
$DIMEXO
 40
0.5
  9
$DIMDLI
 40
7.0
  9
$DIMRND
 40
0.0
  9
$DIMDLE
 40
0.0
  9
$DIMEXE
 40
1.5
  9
$DIMTP
 40
0.0
  9
$DIMTM
 40
0.0
  9
$DIMTXT
 40
3.0
  9
$DIMCEN
 40
0.0
  9
$DIMTSZ
 40
0.0
  9
$DIMTOL
 70
     0
  9
$DIMLIM
 70
     0
  9
$DIMTIH
 70
     0
  9
$DIMTOH
 70
     0
  9
$DIMSE1
 70
     0
  9
$DIMSE2
 70
     0
  9
$DIMTAD
 70
     3
  9
$DIMZIN
 70
     8
  9
$DIMBLK
  1

  9
$DIMASO
 70
     1
  9
$DIMSHO
 70
     1
  9
$DIMPOST
  1

  9
$DIMAPOST
  1

  9
$DIMALT
 70
     0
  9
$DIMALTD
 70
     2
  9
$DIMALTF
 40
0.0394
  9
$DIMLFAC
 40
1.0
  9
$DIMTOFL
 70
     1
  9
$DIMTVP
 40
0.0
  9
$DIMTIX
 70
     1
  9
$DIMSOXD
 70
     0
  9
$DIMSAH
 70
     1
  9
$DIMBLK1
  1
DOTSMALL
  9
$DIMBLK2
  1
DOTSMALL
  9
$DIMSTYLE
  2
INABA_S40G
  9
$DIMCLRD
 70
     0
  9
$DIMCLRE
 70
     0
  9
$DIMCLRT
 70
     7
  9
$DIMTFAC
 40
1.0
  9
$DIMGAP
 40
1.0
  9
$DIMJUST
 70
     0
  9
$DIMSD1
 70
     0
  9
$DIMSD2
 70
     0
  9
$DIMTOLJ
 70
     1
  9
$DIMTZIN
 70
     0
  9
$DIMALTZ
 70
     0
  9
$DIMALTTZ
 70
     0
  9
$DIMUPT
 70
     0
  9
$DIMDEC
 70
     1
  9
$DIMTDEC
 70
     4
  9
$DIMALTU
 70
     2
  9
$DIMALTTD
 70
     2
  9
$DIMTXSTY
  7
STYLE1
  9
$DIMAUNIT
 70
     0
  9
$DIMADEC
 70
     0
  9
$DIMALTRND
 40
0.0
  9
$DIMAZIN
 70
     0
  9
$DIMDSEP
 70
    46
  9
$DIMATFIT
 70
     3
  9
$DIMFRAC
 70
     0
  9
$DIMLDRBLK
  1

  9
$DIMLUNIT
 70
     2
  9
$DIMLWD
 70
    -2
  9
$DIMLWE
 70
    -2
  9
$DIMTMOVE
 70
     0
  9
$LUNITS
 70
     2
  9
$LUPREC
 70
     1
  9
$SKETCHINC
 40
1.0
  9
$FILLETRAD
 40
5.0
  9
$AUNITS
 70
     0
  9
$AUPREC
 70
     0
  9
$MENU
  1
acad
  9
$ELEVATION
 40
0.0
  9
$PELEVATION
 40
0.0
  9
$THICKNESS
 40
0.0
  9
$LIMCHECK
 70
     0
  9
$CHAMFERA
 40
0.0
  9
$CHAMFERB
 40
0.0
  9
$CHAMFERC
 40
0.0
  9
$CHAMFERD
 40
0.0
  9
$SKPOLY
 70
     0
  9
$TDCREATE
 40
2452116.684896065
  9
$TDUCREATE
 40
2452116.309896065
  9
$TDUPDATE
 40
2455575.691135336
  9
$TDUUPDATE
 40
2455575.316135336
  9
$TDINDWG
 40
0.5175661806
  9
$TDUSRTIMER
 40
0.5175661806
  9
$USRTIMER
 70
     1
  9
$ANGBASE
 50
0.0
  9
$ANGDIR
 70
     0
  9
$PDMODE
 70
     3
  9
$PDSIZE
 40
2.0
  9
$PLINEWID
 40
0.0
  9
$SPLFRAME
 70
     0
  9
$SPLINETYPE
 70
     6
  9
$SPLINESEGS
 70
     8
  9
$HANDSEED
  5
173A1
  9
$SURFTAB1
 70
     6
  9
$SURFTAB2
 70
     6
  9
$SURFTYPE
 70
     6
  9
$SURFU
 70
     6
  9
$SURFV
 70
     6
  9
$UCSBASE
  2

  9
$UCSNAME
  2

  9
$UCSORG
 10
0.0
 20
0.0
 30
0.0
  9
$UCSXDIR
 10
1.0
 20
0.0
 30
0.0
  9
$UCSYDIR
 10
0.0
 20
1.0
 30
0.0
  9
$UCSORTHOREF
  2

  9
$UCSORTHOVIEW
 70
     0
  9
$UCSORGTOP
 10
0.0
 20
0.0
 30
0.0
  9
$UCSORGBOTTOM
 10
0.0
 20
0.0
 30
0.0
  9
$UCSORGLEFT
 10
0.0
 20
0.0
 30
0.0
  9
$UCSORGRIGHT
 10
0.0
 20
0.0
 30
0.0
  9
$UCSORGFRONT
 10
0.0
 20
0.0
 30
0.0
  9
$UCSORGBACK
 10
0.0
 20
0.0
 30
0.0
  9
$PUCSBASE
  2

  9
$PUCSNAME
  2

  9
$PUCSORG
 10
0.0
 20
0.0
 30
0.0
  9
$PUCSXDIR
 10
1.0
 20
0.0
 30
0.0
  9
$PUCSYDIR
 10
0.0
 20
1.0
 30
0.0
  9
$PUCSORTHOREF
  2

  9
$PUCSORTHOVIEW
 70
     0
  9
$PUCSORGTOP
 10
0.0
 20
0.0
 30
0.0
  9
$PUCSORGBOTTOM
 10
0.0
 20
0.0
 30
0.0
  9
$PUCSORGLEFT
 10
0.0
 20
0.0
 30
0.0
  9
$PUCSORGRIGHT
 10
0.0
 20
0.0
 30
0.0
  9
$PUCSORGFRONT
 10
0.0
 20
0.0
 30
0.0
  9
$PUCSORGBACK
 10
0.0
 20
0.0
 30
0.0
  9
$USERI1
 70
     0
  9
$USERI2
 70
     0
  9
$USERI3
 70
     0
  9
$USERI4
 70
     0
  9
$USERI5
 70
     0
  9
$USERR1
 40
0.0
  9
$USERR2
 40
0.0
  9
$USERR3
 40
0.0
  9
$USERR4
 40
0.0
  9
$USERR5
 40
0.0
  9
$WORLDVIEW
 70
     1
  9
$SHADEDGE
 70
     3
  9
$SHADEDIF
 70
    70
  9
$TILEMODE
 70
     1
  9
$MAXACTVP
 70
    16
  9
$PINSBASE
 10
0.0
 20
0.0
 30
0.0
  9
$PLIMCHECK
 70
     0
  9
$PEXTMIN
 10
1.000000000000000E+20
 20
1.000000000000000E+20
 30
1.000000000000000E+20
  9
$PEXTMAX
 10
-1.000000000000000E+20
 20
-1.000000000000000E+20
 30
-1.000000000000000E+20
  9
$PLIMMIN
 10
0.0
 20
0.0
  9
$PLIMMAX
 10
420.0
 20
297.0
  9
$UNITMODE
 70
     0
  9
$VISRETAIN
 70
     0
  9
$PLINEGEN
 70
     0
  9
$PSLTSCALE
 70
     0
  9
$TREEDEPTH
 70
  3020
  9
$CMLSTYLE
  2
STANDARD
  9
$CMLJUST
 70
     0
  9
$CMLSCALE
 40
1.0
  9
$PROXYGRAPHICS
 70
     1
  9
$MEASUREMENT
 70
     1
  9
$CELWEIGHT
370
    -1
  9
$ENDCAPS
280
     0
  9
$JOINSTYLE
280
     0
  9
$LWDISPLAY
290
     0
  9
$INSUNITS
 70
     0
  9
$HYPERLINKBASE
  1

  9
$STYLESHEET
  1

  9
$XEDIT
290
     1
  9
$CEPSNTYPE
380
     0
  9
$PSTYLEMODE
290
     1
  9
$FINGERPRINTGUID
  2
{87F309FE-B947-4389-A06B-4FEEF36D189C}
  9
$VERSIONGUID
  2
{0C5082F8-1054-4341-9D6C-329CC1113EDC}
  9
$EXTNAMES
290
     1
  9
$PSVPSCALE
 40
0.0
  9
$OLESTARTUP
290
     0
  0
ENDSEC
  0
SECTION
  2
CLASSES
  0
CLASS
  1
ACDBDICTIONARYWDFLT
  2
AcDbDictionaryWithDefault
  3
ObjectDBX Classes
 90
        0
280
     0
281
     0
  0
CLASS
  1
DICTIONARYVAR
  2
AcDbDictionaryVar
  3
ObjectDBX Classes
 90
        0
280
     0
281
     0
  0
CLASS
  1
ACDBPLACEHOLDER
  2
AcDbPlaceHolder
  3
ObjectDBX Classes
 90
        0
280
     0
281
     0
  0
CLASS
  1
LAYOUT
  2
AcDbLayout
  3
ObjectDBX Classes
 90
        0
280
     0
281
     0
  0
ENDSEC
  0
SECTION
  2
TABLES
  0
TABLE
  2
VPORT
  5
746D
330
0
100
AcDbSymbolTable
 70
     2
  0
VPORT
  5
17399
330
746D
100
AcDbSymbolTableRecord
100
AcDbViewportTableRecord
  2
*Active
 70
     0
 10
0.0
 20
0.0
 11
1.0
 21
1.0
 12
9076.91645855874
 22
6347.66611132684
 13
0.0
 23
0.0
 14
10.0
 24
10.0
 15
10.0
 25
10.0
 16
0.0
 26
0.0
 36
1.0
 17
0.0
 27
0.0
 37
0.0
 40
12783.46462244035
 41
1.525925925925925
 42
50.0
 43
0.0
 44
0.0
 50
0.0
 51
0.0
 71
     0
 72
     0
 73
     1
 74
     0
 75
     0
 76
     0
 77
     0
 78
     0
281
     0
 65
     1
110
0.0
120
0.0
130
0.0
111
1.0
121
0.0
131
0.0
112
0.0
122
1.0
132
0.0
 79
     0
146
0.0
  0
ENDTAB
  0
TABLE
  2
LTYPE
  5
746A
330
0
100
AcDbSymbolTable
 70
     4
  0
LTYPE
  5
7477
330
746A
100
AcDbSymbolTableRecord
100
AcDbLinetypeTableRecord
  2
BYBLOCK
 70
     0
  3

 72
    65
 73
     0
 40
0.0
  0
LTYPE
  5
7478
330
746A
100
AcDbSymbolTableRecord
100
AcDbLinetypeTableRecord
  2
BYLAYER
 70
     0
  3

 72
    65
 73
     0
 40
0.0
  0
LTYPE
  5
7479
330
746A
100
AcDbSymbolTableRecord
100
AcDbLinetypeTableRecord
  2
CONTINUOUS
 70
     0
  3
Solid line
 72
    65
 73
     0
 40
0.0
  0
LTYPE
  5
7816
330
746A
100
AcDbSymbolTableRecord
100
AcDbLinetypeTableRecord
  2
CENTER
 70
     0
  3
____ _ ____ _ ____ _ ____ _ ____ _ ____ _ ____ 
 72
    65
 73
     4
 40
2.0
 49
1.25
 74
     0
 49
-0.25
 74
     0
 49
0.25
 74
     0
 49
-0.25
 74
     0
  0
LTYPE
  5
781A
330
746A
100
AcDbSymbolTableRecord
100
AcDbLinetypeTableRecord
  2
HIDDEN
 70
     0
  3
__ __ __ __ __ __ __ __ __ __ __ __ __ __ __ __
 72
    65
 73
     2
 40
0.375
 49
0.25
 74
     0
 49
-0.125
 74
     0
  0
LTYPE
  5
781B
330
746A
100
AcDbSymbolTableRecord
100
AcDbLinetypeTableRecord
  2
PHANTOM
 70
     0
  3
______  __  __  ______  __  __  ______  __  __ 
 72
    65
 73
     6
 40
2.5
 49
1.25
 74
     0
 49
-0.25
 74
     0
 49
0.25
 74
     0
 49
-0.25
 74
     0
 49
0.25
 74
     0
 49
-0.25
 74
     0
  0
ENDTAB
  0
TABLE
  2
LAYER
  5
7467
102
{ACAD_XDICTIONARY
360
16107
102
}
330
0
100
AcDbSymbolTable
 70
    12
  0
LAYER
  5
7474
330
7467
100
AcDbSymbolTableRecord
100
AcDbLayerTableRecord
  2
0
 70
     0
 62
     7
  6
CONTINUOUS
370
    -3
390
15F3F
  0
LAYER
  5
DEB2
330
7467
100
AcDbSymbolTableRecord
100
AcDbLayerTableRecord
  2
センター
 70
     0
 62
     3
  6
CENTER
370
    -3
390
15F3F
  0
LAYER
  5
DEB3
330
7467
100
AcDbSymbolTableRecord
100
AcDbLayerTableRecord
  2
寸法
 70
     0
 62
     4
  6
CONTINUOUS
370
    -3
390
15F3F
  0
LAYER
  5
DEB4
330
7467
100
AcDbSymbolTableRecord
100
AcDbLayerTableRecord
  2
部品1
 70
     0
 62
     7
  6
CONTINUOUS
370
    -3
390
15F3F
  0
LAYER
  5
DEB5
330
7467
100
AcDbSymbolTableRecord
100
AcDbLayerTableRecord
  2
補助
 70
     0
 62
    -1
  6
CONTINUOUS
370
    -3
390
15F3F
  0
LAYER
  5
DEB6
330
7467
100
AcDbSymbolTableRecord
100
AcDbLayerTableRecord
  2
文字
 70
     0
 62
     7
  6
CONTINUOUS
370
    -3
390
15F3F
  0
LAYER
  5
F255
330
7467
100
AcDbSymbolTableRecord
100
AcDbLayerTableRecord
  2
DEFPOINTS
 70
     0
 62
     7
  6
CONTINUOUS
290
     0
370
    -3
390
15F3F
  0
LAYER
  5
10B54
330
7467
100
AcDbSymbolTableRecord
100
AcDbLayerTableRecord
  2
仕様書枠
 70
     0
 62
   230
  6
CONTINUOUS
370
    -3
390
15F3F
  0
LAYER
  5
11729
330
7467
100
AcDbSymbolTableRecord
100
AcDbLayerTableRecord
  2
Ｇ．Ｌ
 70
     0
 62
    30
  6
CONTINUOUS
370
    -3
390
15F3F
  0
LAYER
  5
1173F
330
7467
100
AcDbSymbolTableRecord
100
AcDbLayerTableRecord
  2
細線
 70
     0
 62
     5
  6
CONTINUOUS
370
    -3
390
15F3F
  0
LAYER
  5
118A1
330
7467
100
AcDbSymbolTableRecord
100
AcDbLayerTableRecord
  2
想像線
 70
     0
 62
     6
  6
PHANTOM
370
    -3
390
15F3F
  0
LAYER
  5
123C1
330
7467
100
AcDbSymbolTableRecord
100
AcDbLayerTableRecord
  2
破線
 70
     0
 62
     2
  6
HIDDEN
370
    -3
390
15F3F
  0
ENDTAB
  0
TABLE
  2
STYLE
  5
7468
330
0
100
AcDbSymbolTable
 70
     4
  0
STYLE
  5
7475
330
7468
100
AcDbSymbolTableRecord
100
AcDbTextStyleTableRecord
  2
STANDARD
 70
     0
 40
0.0
 41
1.0
 50
0.0
 71
     0
 42
4.0
  3
txt
  4
C:\AutoCAD LT\bigfont.shx
  0
STYLE
  5
F706
330
7468
100
AcDbSymbolTableRecord
100
AcDbTextStyleTableRecord
  2
STYLE1
 70
     0
 40
0.0
 41
1.0
 50
0.0
 71
     0
 42
4.0
  3
isocp.shx
  4
bigfont.shx
  0
STYLE
  5
103BF
330
7468
100
AcDbSymbolTableRecord
100
AcDbTextStyleTableRecord
  2
STYLE2
 70
     0
 40
0.0
 41
1.0
 50
0.0
 71
     0
 42
100.0
  3
MS PGothic.ttf
  4

1001
ACAD
1000
MS PGothic
1071
    32818
  0
STYLE
  5
10BAA
330
7468
100
AcDbSymbolTableRecord
100
AcDbTextStyleTableRecord
  2
STYLE3
 70
     0
 40
0.0
 41
1.0
 50
0.0
 71
     0
 42
100.0
  3

  4

1001
ACAD
1000
DFPGothic-EB
1071
    32818
  0
ENDTAB
  0
TABLE
  2
VIEW
  5
746B
330
0
100
AcDbSymbolTable
 70
     0
  0
ENDTAB
  0
TABLE
  2
UCS
  5
746C
330
0
100
AcDbSymbolTable
 70
     0
  0
ENDTAB
  0
TABLE
  2
APPID
  5
746E
330
0
100
AcDbSymbolTable
 70
     6
  0
APPID
  5
7476
330
746E
100
AcDbSymbolTableRecord
100
AcDbRegAppTableRecord
  2
ACAD
 70
     0
  0
APPID
  5
DEA9
330
746E
100
AcDbSymbolTableRecord
100
AcDbRegAppTableRecord
  2
CONTENTBLOCKICON
 70
     0
  0
APPID
  5
DEAA
330
746E
100
AcDbSymbolTableRecord
100
AcDbRegAppTableRecord
  2
CONTENTBLOCKDESCRIPTION
 70
     0
  0
APPID
  5
E71D
330
746E
100
AcDbSymbolTableRecord
100
AcDbRegAppTableRecord
  2
CONTENTTABDATA
 70
     0
  0
APPID
  5
E71E
330
746E
100
AcDbSymbolTableRecord
100
AcDbRegAppTableRecord
  2
CONTENTCURRENTTAB
 70
     0
  0
APPID
  5
F3BA
330
746E
100
AcDbSymbolTableRecord
100
AcDbRegAppTableRecord
  2
DRAWINGVARIABLESXDATA
 70
     0
  0
ENDTAB
  0
TABLE
  2
DIMSTYLE
  5
746F
330
0
100
AcDbSymbolTable
 70
     2
100
AcDbDimStyleTable
 71
     1
340
F71F
  0
DIMSTYLE
105
7484
330
746F
100
AcDbSymbolTableRecord
100
AcDbDimStyleTableRecord
  2
JIS
 70
     0
 41
2.5
 42
1.0
 43
7.0
 44
1.0
 73
     0
 74
     0
 77
     1
 78
     8
140
2.5
141
0.0
143
0.0394
147
0.0
172
     1
174
     1
175
     1
340
7475
  0
DIMSTYLE
105
F71F
102
{ACAD_REACTORS
330
15808
330
1580F
330
15812
330
1588A
330
1588B
330
15892
330
15893
330
1589A
330
158A1
330
158A3
330
158A6
330
158A7
330
158A8
330
158AA
330
158AD
330
158BD
330
15D27
330
15E46
330
15E53
330
15E61
330
15E60
330
15E7A
330
15E92
330
15EAA
330
15F2F
330
16521
330
16533
330
16534
330
16558
330
16559
330
1655A
330
1655B
330
1655F
330
16560
330
16E50
330
16E5F
330
16E60
330
16E61
330
16F8B
102
}
330
746F
100
AcDbSymbolTableRecord
100
AcDbDimStyleTableRecord
  2
INABA_S40G
 70
     0
 40
40.0
 41
2.5
 42
0.5
 43
7.0
 44
1.5
 73
     0
 74
     0
 77
     3
 78
     8
140
3.0
141
0.0
143
0.0394
147
1.0
172
     1
173
     1
174
     1
178
     7
271
     1
340
F706
341
F770
343
F770
344
F770
  0
ENDTAB
  0
TABLE
  2
BLOCK_RECORD
  5
7466
330
0
100
AcDbSymbolTable
 70
    40
  0
BLOCK_RECORD
  5
747D
330
7466
100
AcDbSymbolTableRecord
100
AcDbBlockTableRecord
  2
*MODEL_SPACE
340
15F44
  0
BLOCK_RECORD
  5
747A
330
7466
100
AcDbSymbolTableRecord
100
AcDbBlockTableRecord
  2
*PAPER_SPACE
340
15F45
  0
BLOCK_RECORD
  5
F770
330
7466
100
AcDbSymbolTableRecord
100
AcDbBlockTableRecord
  2
_DOTSMALL
340
0
102
{BLKREFS
331
171BA
331
171BB
331
171C3
331
171C4
331
171CC
331
171CD
331
171D7
331
171D8
331
171E2
331
171E3
331
171EB
331
171EC
331
171F6
331
171F7
331
171FF
331
17200
331
17208
331
17209
331
17213
331
17214
331
1721C
331
1721D
331
17226
331
17227
331
17230
331
17231
331
17239
331
1723A
331
17242
331
17243
331
1724B
331
1724C
331
17254
331
17255
331
1725D
331
1725E
331
17281
331
17282
331
1728C
331
1728D
331
17297
331
17298
331
172A0
331
172A1
331
172A9
331
172AA
331
172B4
331
172B5
331
172BD
331
172BE
331
172C6
331
172C7
331
172D1
331
172D2
331
172DA
331
172DB
331
172E5
331
172E6
331
172F0
331
172F1
331
172F9
331
172FA
331
17304
331
17305
331
1730D
331
1730E
331
1731F
331
17320
331
17328
331
17329
331
1733D
331
1733E
331
17346
331
17347
331
1734F
331
17350
331
17358
331
17359
102
}
  0
BLOCK_RECORD
  5
15902
330
7466
100
AcDbSymbolTableRecord
100
AcDbBlockTableRecord
  2
*D1
340
0
  0
BLOCK_RECORD
  5
1591A
330
7466
100
AcDbSymbolTableRecord
100
AcDbBlockTableRecord
  2
*D2
340
0
  0
BLOCK_RECORD
  5
15926
330
7466
100
AcDbSymbolTableRecord
100
AcDbBlockTableRecord
  2
*D3
340
0
  0
BLOCK_RECORD
  5
15962
330
7466
100
AcDbSymbolTableRecord
100
AcDbBlockTableRecord
  2
*D4
340
0
  0
BLOCK_RECORD
  5
1596E
330
7466
100
AcDbSymbolTableRecord
100
AcDbBlockTableRecord
  2
*D5
340
0
  0
BLOCK_RECORD
  5
1597C
330
7466
100
AcDbSymbolTableRecord
100
AcDbBlockTableRecord
  2
*D6
340
0
  0
BLOCK_RECORD
  5
15988
330
7466
100
AcDbSymbolTableRecord
100
AcDbBlockTableRecord
  2
*D7
340
0
  0
BLOCK_RECORD
  5
15996
330
7466
100
AcDbSymbolTableRecord
100
AcDbBlockTableRecord
  2
*D8
340
0
  0
BLOCK_RECORD
  5
159A4
330
7466
100
AcDbSymbolTableRecord
100
AcDbBlockTableRecord
  2
*D9
340
0
  0
BLOCK_RECORD
  5
159B0
330
7466
100
AcDbSymbolTableRecord
100
AcDbBlockTableRecord
  2
*D10
340
0
  0
BLOCK_RECORD
  5
159BE
330
7466
100
AcDbSymbolTableRecord
100
AcDbBlockTableRecord
  2
*D11
340
0
  0
BLOCK_RECORD
  5
159CA
330
7466
100
AcDbSymbolTableRecord
100
AcDbBlockTableRecord
  2
*D12
340
0
  0
BLOCK_RECORD
  5
159D6
330
7466
100
AcDbSymbolTableRecord
100
AcDbBlockTableRecord
  2
*D13
340
0
  0
BLOCK_RECORD
  5
159E4
330
7466
100
AcDbSymbolTableRecord
100
AcDbBlockTableRecord
  2
*D14
340
0
  0
BLOCK_RECORD
  5
159F0
330
7466
100
AcDbSymbolTableRecord
100
AcDbBlockTableRecord
  2
*D15
340
0
  0
BLOCK_RECORD
  5
159FC
330
7466
100
AcDbSymbolTableRecord
100
AcDbBlockTableRecord
  2
*D16
340
0
  0
BLOCK_RECORD
  5
15D3C
330
7466
100
AcDbSymbolTableRecord
100
AcDbBlockTableRecord
  2
*D17
340
0
  0
BLOCK_RECORD
  5
15E47
330
7466
100
AcDbSymbolTableRecord
100
AcDbBlockTableRecord
  2
*D18
340
0
  0
BLOCK_RECORD
  5
15E54
330
7466
100
AcDbSymbolTableRecord
100
AcDbBlockTableRecord
  2
*D19
340
0
  0
BLOCK_RECORD
  5
15E62
330
7466
100
AcDbSymbolTableRecord
100
AcDbBlockTableRecord
  2
*D20
340
0
  0
BLOCK_RECORD
  5
15E6E
330
7466
100
AcDbSymbolTableRecord
100
AcDbBlockTableRecord
  2
*D21
340
0
  0
BLOCK_RECORD
  5
15E7B
330
7466
100
AcDbSymbolTableRecord
100
AcDbBlockTableRecord
  2
*D22
340
0
  0
BLOCK_RECORD
  5
15E93
330
7466
100
AcDbSymbolTableRecord
100
AcDbBlockTableRecord
  2
*D23
340
0
  0
BLOCK_RECORD
  5
15EAB
330
7466
100
AcDbSymbolTableRecord
100
AcDbBlockTableRecord
  2
*D24
340
0
  0
BLOCK_RECORD
  5
15F30
330
7466
100
AcDbSymbolTableRecord
100
AcDbBlockTableRecord
  2
*D25
340
0
  0
BLOCK_RECORD
  5
166DF
330
7466
100
AcDbSymbolTableRecord
100
AcDbBlockTableRecord
  2
*D26
340
0
  0
BLOCK_RECORD
  5
166EB
330
7466
100
AcDbSymbolTableRecord
100
AcDbBlockTableRecord
  2
*D27
340
0
  0
BLOCK_RECORD
  5
166F8
330
7466
100
AcDbSymbolTableRecord
100
AcDbBlockTableRecord
  2
*D28
340
0
  0
BLOCK_RECORD
  5
16705
330
7466
100
AcDbSymbolTableRecord
100
AcDbBlockTableRecord
  2
*D29
340
0
  0
BLOCK_RECORD
  5
16711
330
7466
100
AcDbSymbolTableRecord
100
AcDbBlockTableRecord
  2
*D30
340
0
  0
BLOCK_RECORD
  5
1671F
330
7466
100
AcDbSymbolTableRecord
100
AcDbBlockTableRecord
  2
*D31
340
0
  0
BLOCK_RECORD
  5
1672B
330
7466
100
AcDbSymbolTableRecord
100
AcDbBlockTableRecord
  2
*D32
340
0
  0
BLOCK_RECORD
  5
16737
330
7466
100
AcDbSymbolTableRecord
100
AcDbBlockTableRecord
  2
*D33
340
0
  0
BLOCK_RECORD
  5
16745
330
7466
100
AcDbSymbolTableRecord
100
AcDbBlockTableRecord
  2
*D34
340
0
  0
BLOCK_RECORD
  5
1700D
330
7466
100
AcDbSymbolTableRecord
100
AcDbBlockTableRecord
  2
*D35
340
0
  0
BLOCK_RECORD
  5
1701B
330
7466
100
AcDbSymbolTableRecord
100
AcDbBlockTableRecord
  2
*D36
340
0
  0
BLOCK_RECORD
  5
17029
330
7466
100
AcDbSymbolTableRecord
100
AcDbBlockTableRecord
  2
*D37
340
0
  0
BLOCK_RECORD
  5
17035
330
7466
100
AcDbSymbolTableRecord
100
AcDbBlockTableRecord
  2
*D38
340
0
  0
BLOCK_RECORD
  5
17041
330
7466
100
AcDbSymbolTableRecord
100
AcDbBlockTableRecord
  2
*D39
340
0
  0
ENDTAB
  0
ENDSEC
  0
SECTION
  2
BLOCKS
  0
BLOCK
  5
7489
330
747D
100
AcDbEntity
  8
0
100
AcDbBlockBegin
  2
*MODEL_SPACE
 70
     0
 10
0.0
 20
0.0
 30
0.0
  3
*MODEL_SPACE
  1

  0
ENDBLK
  5
748A
330
747D
100
AcDbEntity
  8
0
100
AcDbBlockEnd
  0
BLOCK
  5
7487
330
747A
100
AcDbEntity
 67
     1
  8
0
100
AcDbBlockBegin
  2
*PAPER_SPACE
 70
     0
 10
0.0
 20
0.0
 30
0.0
  3
*PAPER_SPACE
  1

  0
ENDBLK
  5
7488
330
747A
100
AcDbEntity
 67
     1
  8
0
100
AcDbBlockEnd
  0
BLOCK
  5
F771
330
F770
100
AcDbEntity
  8
0
 48
50.0
100
AcDbBlockBegin
  2
_DOTSMALL
 70
     0
 10
0.0
 20
0.0
 30
0.0
  3
_DOTSMALL
  1

  0
LWPOLYLINE
  5
F772
330
F770
100
AcDbEntity
  8
0
  6
ByBlock
 62
     0
 48
50.0
100
AcDbPolyline
 90
        2
 70
     1
 43
0.5
 10
-0.0625
 20
0.0
 42
1.0
 10
0.0625
 20
0.0
 42
1.0
  0
ENDBLK
  5
F776
330
F770
100
AcDbEntity
  8
0
 48
50.0
100
AcDbBlockEnd
  0
BLOCK
  5
15A45
330
15902
100
AcDbEntity
  8
0
 48
50.0
100
AcDbBlockBegin
  2
*D1
 70
     1
 10
0.0
 20
0.0
 30
0.0
  3
*D1
  1

  0
LINE
  5
17325
330
15902
100
AcDbEntity
  8
寸法
 62
     0
 48
50.0
370
    -2
100
AcDbLine
 10
7837.648905187831
 20
9251.123321461845
 30
0.0
 11
7837.648905187831
 21
9506.931541086835
 31
0.0
  0
LINE
  5
17326
330
15902
100
AcDbEntity
  8
寸法
 62
     0
 48
50.0
370
    -2
100
AcDbLine
 10
7127.648905187832
 20
9251.123321461831
 30
0.0
 11
7127.648905187832
 21
9506.931541086835
 31
0.0
  0
LINE
  5
17327
330
15902
100
AcDbEntity
  8
寸法
 62
     0
 48
50.0
370
    -2
100
AcDbLine
 10
7837.648905187831
 20
9446.931541086835
 30
0.0
 11
7127.648905187832
 21
9446.931541086835
 31
0.0
  0
INSERT
  5
17328
330
15902
100
AcDbEntity
  8
寸法
 62
     0
 48
50.0
370
    -2
100
AcDbBlockReference
  2
_DOTSMALL
 10
7837.648905187831
 20
9446.931541086835
 30
0.0
 41
100.0
 42
100.0
 43
100.0
  0
INSERT
  5
17329
330
15902
100
AcDbEntity
  8
寸法
 62
     0
 48
50.0
370
    -2
100
AcDbBlockReference
  2
_DOTSMALL
 10
7127.648905187832
 20
9446.931541086835
 30
0.0
 41
100.0
 42
100.0
 43
100.0
 50
180.0
  0
MTEXT
  5
1732A
330
15902
100
AcDbEntity
  8
寸法
 62
     7
 48
50.0
100
AcDbMText
 10
7482.648905187831
 20
9546.931541086834
 30
0.0
 40
120.0
 41
0.0
 71
     5
 72
     1
  1
\A1;710
  7
STYLE1
 73
     1
 44
1.0
1001
ACAD
1000
MTEXTBEGIN
1070
    73
1070
     1
1070
    44
1040
1.0
1070
    74
1070
     0
1000
MTEXTEND
  0
POINT
  5
1732B
330
15902
100
AcDbEntity
  8
DEFPOINTS
 62
     0
 48
50.0
100
AcDbPoint
 10
7837.648905187831
 20
9231.123321461847
 30
0.0
  0
POINT
  5
1732C
330
15902
100
AcDbEntity
  8
DEFPOINTS
 62
     0
 48
50.0
100
AcDbPoint
 10
7127.648905187832
 20
9231.123321461831
 30
0.0
  0
POINT
  5
1732D
330
15902
100
AcDbEntity
  8
DEFPOINTS
 62
     0
 48
50.0
100
AcDbPoint
 10
7127.648905187832
 20
9446.931541086835
 30
0.0
  0
ENDBLK
  5
15A4F
330
15902
100
AcDbEntity
  8
0
 48
50.0
100
AcDbBlockEnd
  0
BLOCK
  5
15EF9
330
1591A
100
AcDbEntity
  8
0
 48
50.0
100
AcDbBlockBegin
  2
*D2
 70
     1
 10
0.0
 20
0.0
 30
0.0
  3
*D2
  1

  0
LINE
  5
1731C
330
1591A
100
AcDbEntity
  8
寸法
 62
     0
 48
50.0
370
    -2
100
AcDbLine
 10
4612.648905187824
 20
7681.12332146164
 30
0.0
 11
4612.648905187824
 21
6654.021446601581
 31
0.0
  0
LINE
  5
1731D
330
1591A
100
AcDbEntity
  8
寸法
 62
     0
 48
50.0
370
    -2
100
AcDbLine
 10
7892.648905187805
 20
7681.123321461789
 30
0.0
 11
7892.648905187805
 21
6654.021446601581
 31
0.0
  0
LINE
  5
1731E
330
1591A
100
AcDbEntity
  8
寸法
 62
     0
 48
50.0
370
    -2
100
AcDbLine
 10
4612.648905187824
 20
6714.021446601581
 30
0.0
 11
7892.648905187805
 21
6714.021446601581
 31
0.0
  0
INSERT
  5
1731F
330
1591A
100
AcDbEntity
  8
寸法
 62
     0
 48
50.0
370
    -2
100
AcDbBlockReference
  2
_DOTSMALL
 10
4612.648905187824
 20
6714.021446601581
 30
0.0
 41
100.0
 42
100.0
 43
100.0
 50
180.0
  0
INSERT
  5
17320
330
1591A
100
AcDbEntity
  8
寸法
 62
     0
 48
50.0
370
    -2
100
AcDbBlockReference
  2
_DOTSMALL
 10
7892.648905187805
 20
6714.021446601581
 30
0.0
 41
100.0
 42
100.0
 43
100.0
  0
MTEXT
  5
17321
330
1591A
100
AcDbEntity
  8
寸法
 62
     7
 48
50.0
100
AcDbMText
 10
6252.648905187815
 20
6814.033257625202
 30
0.0
 40
120.0
 41
0.0
 71
     5
 72
     1
  1
\A1;3280
  7
STYLE1
 73
     1
 44
1.0
1001
ACAD
1000
MTEXTBEGIN
1070
    73
1070
     1
1070
    44
1040
1.0
1070
    74
1070
     0
1000
MTEXTEND
  0
POINT
  5
17322
330
1591A
100
AcDbEntity
  8
DEFPOINTS
 62
     0
 48
50.0
100
AcDbPoint
 10
4612.648905187824
 20
7701.123321461641
 30
0.0
  0
POINT
  5
17323
330
1591A
100
AcDbEntity
  8
DEFPOINTS
 62
     0
 48
50.0
100
AcDbPoint
 10
7892.648905187805
 20
7701.123321461787
 30
0.0
  0
POINT
  5
17324
330
1591A
100
AcDbEntity
  8
DEFPOINTS
 62
     0
 48
50.0
100
AcDbPoint
 10
7892.648905187805
 20
6714.021446601581
 30
0.0
  0
ENDBLK
  5
15F03
330
1591A
100
AcDbEntity
  8
0
 48
50.0
100
AcDbBlockEnd
  0
BLOCK
  5
15A66
330
15926
100
AcDbEntity
  8
0
 48
50.0
100
AcDbBlockBegin
  2
*D3
 70
     1
 10
0.0
 20
0.0
 30
0.0
  3
*D3
  1

  0
LINE
  5
17355
330
15926
100
AcDbEntity
  8
寸法
 62
     0
 48
50.0
370
    -2
100
AcDbLine
 10
7096.789921339139
 20
8731.62332146178
 30
0.0
 11
7031.933593619246
 21
8489.576211218802
 31
0.0
  0
LINE
  5
17356
330
15926
100
AcDbEntity
  8
寸法
 62
     0
 48
50.0
370
    -2
100
AcDbLine
 10
7857.789921339151
 20
8731.62332146178
 30
0.0
 11
7792.933593619257
 21
8489.576211218802
 31
0.0
  0
LINE
  5
17357
330
15926
100
AcDbEntity
  8
寸法
 62
     0
 48
50.0
370
    -2
100
AcDbLine
 10
7048.010545165112
 20
8549.5762112188
 30
0.0
 11
7809.010545165124
 21
8549.5762112188
 31
0.0
  0
INSERT
  5
17358
330
15926
100
AcDbEntity
  8
寸法
 62
     0
 48
50.0
370
    -2
100
AcDbBlockReference
  2
_DOTSMALL
 10
7048.010545165112
 20
8549.5762112188
 30
0.0
 41
100.0
 42
100.0
 43
100.0
 50
180.0
  0
INSERT
  5
17359
330
15926
100
AcDbEntity
  8
寸法
 62
     0
 48
50.0
370
    -2
100
AcDbBlockReference
  2
_DOTSMALL
 10
7809.010545165124
 20
8549.5762112188
 30
0.0
 41
100.0
 42
100.0
 43
100.0
  0
MTEXT
  5
1735A
330
15926
100
AcDbEntity
  8
寸法
 62
     7
 48
50.0
100
AcDbMText
 10
7481.49596730603
 20
8649.5762112188
 30
0.0
 40
120.0
 41
0.0
 71
     5
 72
     1
  1
\A1;761
  7
STYLE1
 73
     1
 44
1.0
1001
ACAD
1000
MTEXTBEGIN
1070
    73
1070
     1
1070
    44
1040
1.0
1070
    74
1070
     0
1000
MTEXTEND
  0
POINT
  5
1735B
330
15926
100
AcDbEntity
  8
DEFPOINTS
 62
     0
 48
50.0
100
AcDbPoint
 10
7102.148905187762
 20
8751.623321461782
 30
0.0
  0
POINT
  5
1735C
330
15926
100
AcDbEntity
  8
DEFPOINTS
 62
     0
 48
50.0
100
AcDbPoint
 10
7863.148905187772
 20
8751.623321461782
 30
0.0
  0
POINT
  5
1735D
330
15926
100
AcDbEntity
  8
DEFPOINTS
 62
     0
 48
50.0
100
AcDbPoint
 10
7809.010545165124
 20
8549.5762112188
 30
0.0
  0
ENDBLK
  5
15A70
330
15926
100
AcDbEntity
  8
0
 48
50.0
100
AcDbBlockEnd
  0
BLOCK
  5
15A9D
330
15962
100
AcDbEntity
  8
0
 48
50.0
100
AcDbBlockBegin
  2
*D4
 70
     1
 10
0.0
 20
0.0
 30
0.0
  3
*D4
  1

  0
LINE
  5
1730A
330
15962
100
AcDbEntity
  8
寸法
 62
     0
 48
50.0
370
    -2
100
AcDbLine
 10
5487.648905187831
 20
9251.123321461767
 30
0.0
 11
5487.648905187831
 21
9506.931541086835
 31
0.0
  0
LINE
  5
1730B
330
15962
100
AcDbEntity
  8
寸法
 62
     0
 48
50.0
370
    -2
100
AcDbLine
 10
6197.648905187831
 20
9251.123321461852
 30
0.0
 11
6197.648905187831
 21
9506.931541086835
 31
0.0
  0
LINE
  5
1730C
330
15962
100
AcDbEntity
  8
寸法
 62
     0
 48
50.0
370
    -2
100
AcDbLine
 10
5487.648905187831
 20
9446.931541086835
 30
0.0
 11
6197.648905187831
 21
9446.931541086835
 31
0.0
  0
INSERT
  5
1730D
330
15962
100
AcDbEntity
  8
寸法
 62
     0
 48
50.0
370
    -2
100
AcDbBlockReference
  2
_DOTSMALL
 10
5487.648905187831
 20
9446.931541086835
 30
0.0
 41
100.0
 42
100.0
 43
100.0
 50
180.0
  0
INSERT
  5
1730E
330
15962
100
AcDbEntity
  8
寸法
 62
     0
 48
50.0
370
    -2
100
AcDbBlockReference
  2
_DOTSMALL
 10
6197.648905187831
 20
9446.931541086835
 30
0.0
 41
100.0
 42
100.0
 43
100.0
  0
MTEXT
  5
1730F
330
15962
100
AcDbEntity
  8
寸法
 62
     7
 48
50.0
100
AcDbMText
 10
5842.898905187831
 20
9546.931541086834
 30
0.0
 40
120.0
 41
0.0
 71
     5
 72
     1
  1
\A1;710
  7
STYLE1
 73
     1
 44
1.0
1001
ACAD
1000
MTEXTBEGIN
1070
    73
1070
     1
1070
    44
1040
1.0
1070
    74
1070
     0
1000
MTEXTEND
  0
POINT
  5
17310
330
15962
100
AcDbEntity
  8
DEFPOINTS
 62
     0
 48
50.0
100
AcDbPoint
 10
5487.648905187831
 20
9231.123321461765
 30
0.0
  0
POINT
  5
17311
330
15962
100
AcDbEntity
  8
DEFPOINTS
 62
     0
 48
50.0
100
AcDbPoint
 10
6197.648905187831
 20
9231.123321461854
 30
0.0
  0
POINT
  5
17312
330
15962
100
AcDbEntity
  8
DEFPOINTS
 62
     0
 48
50.0
100
AcDbPoint
 10
6197.648905187831
 20
9446.931541086835
 30
0.0
  0
ENDBLK
  5
15AA7
330
15962
100
AcDbEntity
  8
0
 48
50.0
100
AcDbBlockEnd
  0
BLOCK
  5
15AA8
330
1596E
100
AcDbEntity
  8
0
 48
50.0
100
AcDbBlockBegin
  2
*D5
 70
     1
 10
0.0
 20
0.0
 30
0.0
  3
*D5
  1

  0
LINE
  5
172FF
330
1596E
100
AcDbEntity
  8
寸法
 62
     0
 48
50.0
370
    -2
100
AcDbLine
 10
4612.648905187795
 20
9251.123321461738
 30
0.0
 11
4612.648905187795
 21
9506.93154108672
 31
0.0
  0
LINE
  5
17300
330
1596E
100
AcDbEntity
  8
寸法
 62
     0
 48
50.0
370
    -2
100
AcDbLine
 10
4667.648905187831
 20
9251.123321461738
 30
0.0
 11
4667.648905187831
 21
9506.93154108672
 31
0.0
  0
LINE
  5
17301
330
1596E
100
AcDbEntity
  8
寸法
 62
     0
 48
50.0
370
    -2
100
AcDbLine
 10
4667.648905187831
 20
9446.931541086717
 30
0.0
 11
4767.64890518783
 21
9446.931541086717
 31
0.0
  0
LINE
  5
17302
330
1596E
100
AcDbEntity
  8
寸法
 62
     0
 48
50.0
370
    -2
100
AcDbLine
 10
4612.648905187795
 20
9446.931541086717
 30
0.0
 11
4195.678342439315
 21
9446.931541086717
 31
0.0
  0
LINE
  5
17303
330
1596E
100
AcDbEntity
  8
寸法
 62
     0
 48
50.0
370
    -2
100
AcDbLine
 10
4667.648905187831
 20
9446.931541086717
 30
0.0
 11
4612.648905187795
 21
9446.931541086717
 31
0.0
  0
INSERT
  5
17304
330
1596E
100
AcDbEntity
  8
寸法
 62
     0
 48
50.0
370
    -2
100
AcDbBlockReference
  2
_DOTSMALL
 10
4667.648905187831
 20
9446.931541086717
 30
0.0
 41
100.0
 42
100.0
 43
100.0
 50
180.0
  0
INSERT
  5
17305
330
1596E
100
AcDbEntity
  8
寸法
 62
     0
 48
50.0
370
    -2
100
AcDbBlockReference
  2
_DOTSMALL
 10
4612.648905187795
 20
9446.931541086717
 30
0.0
 41
100.0
 42
100.0
 43
100.0
  0
MTEXT
  5
17306
330
1596E
100
AcDbEntity
  8
寸法
 62
     7
 48
50.0
100
AcDbMText
 10
4304.163623813554
 20
9546.931541086719
 30
0.0
 40
120.0
 41
0.0
 71
     5
 72
     1
  1
\A1;55
  7
STYLE1
 73
     1
 44
1.0
1001
ACAD
1000
MTEXTBEGIN
1070
    73
1070
     1
1070
    44
1040
1.0
1070
    74
1070
     0
1000
MTEXTEND
  0
POINT
  5
17307
330
1596E
100
AcDbEntity
  8
DEFPOINTS
 62
     0
 48
50.0
100
AcDbPoint
 10
4612.648905187795
 20
9231.123321461737
 30
0.0
  0
POINT
  5
17308
330
1596E
100
AcDbEntity
  8
DEFPOINTS
 62
     0
 48
50.0
100
AcDbPoint
 10
4667.648905187831
 20
9231.123321461737
 30
0.0
  0
POINT
  5
17309
330
1596E
100
AcDbEntity
  8
DEFPOINTS
 62
     0
 48
50.0
100
AcDbPoint
 10
4667.648905187831
 20
9446.931541086717
 30
0.0
  0
ENDBLK
  5
15AB4
330
1596E
100
AcDbEntity
  8
0
 48
50.0
100
AcDbBlockEnd
  0
BLOCK
  5
15AB5
330
1597C
100
AcDbEntity
  8
0
 48
50.0
100
AcDbBlockBegin
  2
*D6
 70
     1
 10
0.0
 20
0.0
 30
0.0
  3
*D6
  1

  0
LINE
  5
172F6
330
1597C
100
AcDbEntity
  8
寸法
 62
     0
 48
50.0
370
    -2
100
AcDbLine
 10
6307.64890518783
 20
9251.123321461767
 30
0.0
 11
6307.64890518783
 21
9506.931541086835
 31
0.0
  0
LINE
  5
172F7
330
1597C
100
AcDbEntity
  8
寸法
 62
     0
 48
50.0
370
    -2
100
AcDbLine
 10
7017.64890518783
 20
9251.123321461852
 30
0.0
 11
7017.64890518783
 21
9506.931541086835
 31
0.0
  0
LINE
  5
172F8
330
1597C
100
AcDbEntity
  8
寸法
 62
     0
 48
50.0
370
    -2
100
AcDbLine
 10
6307.64890518783
 20
9446.931541086835
 30
0.0
 11
7017.64890518783
 21
9446.931541086835
 31
0.0
  0
INSERT
  5
172F9
330
1597C
100
AcDbEntity
  8
寸法
 62
     0
 48
50.0
370
    -2
100
AcDbBlockReference
  2
_DOTSMALL
 10
6307.64890518783
 20
9446.931541086835
 30
0.0
 41
100.0
 42
100.0
 43
100.0
 50
180.0
  0
INSERT
  5
172FA
330
1597C
100
AcDbEntity
  8
寸法
 62
     0
 48
50.0
370
    -2
100
AcDbBlockReference
  2
_DOTSMALL
 10
7017.64890518783
 20
9446.931541086835
 30
0.0
 41
100.0
 42
100.0
 43
100.0
  0
MTEXT
  5
172FB
330
1597C
100
AcDbEntity
  8
寸法
 62
     7
 48
50.0
100
AcDbMText
 10
6662.89890518783
 20
9546.931541086834
 30
0.0
 40
120.0
 41
0.0
 71
     5
 72
     1
  1
\A1;710
  7
STYLE1
 73
     1
 44
1.0
1001
ACAD
1000
MTEXTBEGIN
1070
    73
1070
     1
1070
    44
1040
1.0
1070
    74
1070
     0
1000
MTEXTEND
  0
POINT
  5
172FC
330
1597C
100
AcDbEntity
  8
DEFPOINTS
 62
     0
 48
50.0
100
AcDbPoint
 10
6307.64890518783
 20
9231.123321461765
 30
0.0
  0
POINT
  5
172FD
330
1597C
100
AcDbEntity
  8
DEFPOINTS
 62
     0
 48
50.0
100
AcDbPoint
 10
7017.64890518783
 20
9231.123321461854
 30
0.0
  0
POINT
  5
172FE
330
1597C
100
AcDbEntity
  8
DEFPOINTS
 62
     0
 48
50.0
100
AcDbPoint
 10
7017.64890518783
 20
9446.931541086835
 30
0.0
  0
ENDBLK
  5
15ABF
330
1597C
100
AcDbEntity
  8
0
 48
50.0
100
AcDbBlockEnd
  0
BLOCK
  5
15AC0
330
15988
100
AcDbEntity
  8
0
 48
50.0
100
AcDbBlockBegin
  2
*D7
 70
     1
 10
0.0
 20
0.0
 30
0.0
  3
*D7
  1

  0
LINE
  5
172EB
330
15988
100
AcDbEntity
  8
寸法
 62
     0
 48
50.0
370
    -2
100
AcDbLine
 10
6197.648905187831
 20
9251.123321461852
 30
0.0
 11
6197.648905187831
 21
9506.931541086835
 31
0.0
  0
LINE
  5
172EC
330
15988
100
AcDbEntity
  8
寸法
 62
     0
 48
50.0
370
    -2
100
AcDbLine
 10
6307.64890518783
 20
9251.123321461831
 30
0.0
 11
6307.64890518783
 21
9506.931541086835
 31
0.0
  0
LINE
  5
172ED
330
15988
100
AcDbEntity
  8
寸法
 62
     0
 48
50.0
370
    -2
100
AcDbLine
 10
6197.648905187831
 20
9446.931541086835
 30
0.0
 11
6097.648905187831
 21
9446.931541086835
 31
0.0
  0
LINE
  5
172EE
330
15988
100
AcDbEntity
  8
寸法
 62
     0
 48
50.0
370
    -2
100
AcDbLine
 10
6307.64890518783
 20
9446.931541086835
 30
0.0
 11
6407.648905187831
 21
9446.931541086835
 31
0.0
  0
LINE
  5
172EF
330
15988
100
AcDbEntity
  8
寸法
 62
     0
 48
50.0
370
    -2
100
AcDbLine
 10
6197.648905187831
 20
9446.931541086835
 30
0.0
 11
6307.64890518783
 21
9446.931541086835
 31
0.0
  0
INSERT
  5
172F0
330
15988
100
AcDbEntity
  8
寸法
 62
     0
 48
50.0
370
    -2
100
AcDbBlockReference
  2
_DOTSMALL
 10
6197.648905187831
 20
9446.931541086835
 30
0.0
 41
100.0
 42
100.0
 43
100.0
  0
INSERT
  5
172F1
330
15988
100
AcDbEntity
  8
寸法
 62
     0
 48
50.0
370
    -2
100
AcDbBlockReference
  2
_DOTSMALL
 10
6307.64890518783
 20
9446.931541086835
 30
0.0
 41
100.0
 42
100.0
 43
100.0
 50
180.0
  0
MTEXT
  5
172F2
330
15988
100
AcDbEntity
  8
寸法
 62
     7
 48
50.0
100
AcDbMText
 10
6252.648905187831
 20
9546.931541086834
 30
0.0
 40
120.0
 41
0.0
 71
     5
 72
     1
  1
\A1;110
  7
STYLE1
 73
     1
 44
1.0
1001
ACAD
1000
MTEXTBEGIN
1070
    73
1070
     1
1070
    44
1040
1.0
1070
    74
1070
     0
1000
MTEXTEND
  0
POINT
  5
172F3
330
15988
100
AcDbEntity
  8
DEFPOINTS
 62
     0
 48
50.0
100
AcDbPoint
 10
6197.648905187831
 20
9231.123321461854
 30
0.0
  0
POINT
  5
172F4
330
15988
100
AcDbEntity
  8
DEFPOINTS
 62
     0
 48
50.0
100
AcDbPoint
 10
6307.64890518783
 20
9231.123321461831
 30
0.0
  0
POINT
  5
172F5
330
15988
100
AcDbEntity
  8
DEFPOINTS
 62
     0
 48
50.0
100
AcDbPoint
 10
6307.64890518783
 20
9446.931541086835
 30
0.0
  0
ENDBLK
  5
15ACC
330
15988
100
AcDbEntity
  8
0
 48
50.0
100
AcDbBlockEnd
  0
BLOCK
  5
15ACD
330
15996
100
AcDbEntity
  8
0
 48
50.0
100
AcDbBlockBegin
  2
*D8
 70
     1
 10
0.0
 20
0.0
 30
0.0
  3
*D8
  1

  0
LINE
  5
172E0
330
15996
100
AcDbEntity
  8
寸法
 62
     0
 48
50.0
370
    -2
100
AcDbLine
 10
7017.64890518783
 20
9251.123321461852
 30
0.0
 11
7017.64890518783
 21
9506.931541086835
 31
0.0
  0
LINE
  5
172E1
330
15996
100
AcDbEntity
  8
寸法
 62
     0
 48
50.0
370
    -2
100
AcDbLine
 10
7127.648905187832
 20
9251.123321461831
 30
0.0
 11
7127.648905187832
 21
9506.931541086835
 31
0.0
  0
LINE
  5
172E2
330
15996
100
AcDbEntity
  8
寸法
 62
     0
 48
50.0
370
    -2
100
AcDbLine
 10
7017.64890518783
 20
9446.931541086835
 30
0.0
 11
6917.648905187831
 21
9446.931541086835
 31
0.0
  0
LINE
  5
172E3
330
15996
100
AcDbEntity
  8
寸法
 62
     0
 48
50.0
370
    -2
100
AcDbLine
 10
7127.648905187832
 20
9446.931541086835
 30
0.0
 11
7227.648905187831
 21
9446.931541086835
 31
0.0
  0
LINE
  5
172E4
330
15996
100
AcDbEntity
  8
寸法
 62
     0
 48
50.0
370
    -2
100
AcDbLine
 10
7017.64890518783
 20
9446.931541086835
 30
0.0
 11
7127.648905187832
 21
9446.931541086835
 31
0.0
  0
INSERT
  5
172E5
330
15996
100
AcDbEntity
  8
寸法
 62
     0
 48
50.0
370
    -2
100
AcDbBlockReference
  2
_DOTSMALL
 10
7017.64890518783
 20
9446.931541086835
 30
0.0
 41
100.0
 42
100.0
 43
100.0
  0
INSERT
  5
172E6
330
15996
100
AcDbEntity
  8
寸法
 62
     0
 48
50.0
370
    -2
100
AcDbBlockReference
  2
_DOTSMALL
 10
7127.648905187832
 20
9446.931541086835
 30
0.0
 41
100.0
 42
100.0
 43
100.0
 50
180.0
  0
MTEXT
  5
172E7
330
15996
100
AcDbEntity
  8
寸法
 62
     7
 48
50.0
100
AcDbMText
 10
7072.64890518783
 20
9546.931541086834
 30
0.0
 40
120.0
 41
0.0
 71
     5
 72
     1
  1
\A1;110
  7
STYLE1
 73
     1
 44
1.0
1001
ACAD
1000
MTEXTBEGIN
1070
    73
1070
     1
1070
    44
1040
1.0
1070
    74
1070
     0
1000
MTEXTEND
  0
POINT
  5
172E8
330
15996
100
AcDbEntity
  8
DEFPOINTS
 62
     0
 48
50.0
100
AcDbPoint
 10
7017.64890518783
 20
9231.123321461854
 30
0.0
  0
POINT
  5
172E9
330
15996
100
AcDbEntity
  8
DEFPOINTS
 62
     0
 48
50.0
100
AcDbPoint
 10
7127.648905187832
 20
9231.123321461831
 30
0.0
  0
POINT
  5
172EA
330
15996
100
AcDbEntity
  8
DEFPOINTS
 62
     0
 48
50.0
100
AcDbPoint
 10
7127.648905187832
 20
9446.931541086835
 30
0.0
  0
ENDBLK
  5
15AD9
330
15996
100
AcDbEntity
  8
0
 48
50.0
100
AcDbBlockEnd
  0
BLOCK
  5
15ADA
330
159A4
100
AcDbEntity
  8
0
 48
50.0
100
AcDbBlockBegin
  2
*D9
 70
     1
 10
0.0
 20
0.0
 30
0.0
  3
*D9
  1

  0
LINE
  5
172D7
330
159A4
100
AcDbEntity
  8
寸法
 62
     0
 48
50.0
370
    -2
100
AcDbLine
 10
7912.648905187831
 20
9176.123321461831
 30
0.0
 11
8600.075250922241
 21
9176.123321461831
 31
0.0
  0
LINE
  5
172D8
330
159A4
100
AcDbEntity
  8
寸法
 62
     0
 48
50.0
370
    -2
100
AcDbLine
 10
7912.648905187831
 20
8756.123321461831
 30
0.0
 11
8600.075250922241
 21
8756.123321461831
 31
0.0
  0
LINE
  5
172D9
330
159A4
100
AcDbEntity
  8
寸法
 62
     0
 48
50.0
370
    -2
100
AcDbLine
 10
8540.075250922241
 20
9176.123321461831
 30
0.0
 11
8540.075250922241
 21
8756.123321461831
 31
0.0
  0
INSERT
  5
172DA
330
159A4
100
AcDbEntity
  8
寸法
 62
     0
 48
50.0
370
    -2
100
AcDbBlockReference
  2
_DOTSMALL
 10
8540.075250922241
 20
9176.123321461831
 30
0.0
 41
100.0
 42
100.0
 43
100.0
 50
90.0
  0
INSERT
  5
172DB
330
159A4
100
AcDbEntity
  8
寸法
 62
     0
 48
50.0
370
    -2
100
AcDbBlockReference
  2
_DOTSMALL
 10
8540.075250922241
 20
8756.123321461831
 30
0.0
 41
100.0
 42
100.0
 43
100.0
 50
270.0
  0
MTEXT
  5
172DC
330
159A4
100
AcDbEntity
  8
寸法
 62
     7
 48
50.0
100
AcDbMText
 10
8440.063439898617
 20
8966.123321461834
 30
0.0
 40
120.0
 41
0.0
 71
     5
 72
     1
  1
\A1;420
  7
STYLE1
 11
0.0000000000000001
 21
1.0
 31
0.0
 73
     1
 44
1.0
1001
ACAD
1000
MTEXTBEGIN
1070
    73
1070
     1
1070
    44
1040
1.0
1070
    74
1070
     0
1000
MTEXTEND
  0
POINT
  5
172DD
330
159A4
100
AcDbEntity
  8
DEFPOINTS
 62
     0
 48
50.0
100
AcDbPoint
 10
7892.64890518783
 20
9176.123321461831
 30
0.0
  0
POINT
  5
172DE
330
159A4
100
AcDbEntity
  8
DEFPOINTS
 62
     0
 48
50.0
100
AcDbPoint
 10
7892.64890518783
 20
8756.123321461831
 30
0.0
  0
POINT
  5
172DF
330
159A4
100
AcDbEntity
  8
DEFPOINTS
 62
     0
 48
50.0
100
AcDbPoint
 10
8540.075250922241
 20
8756.123321461831
 30
0.0
  0
ENDBLK
  5
15AE4
330
159A4
100
AcDbEntity
  8
0
 48
50.0
100
AcDbBlockEnd
  0
BLOCK
  5
15AE5
330
159B0
100
AcDbEntity
  8
0
 48
50.0
100
AcDbBlockBegin
  2
*D10
 70
     1
 10
0.0
 20
0.0
 30
0.0
  3
*D10
  1

  0
LINE
  5
172CC
330
159B0
100
AcDbEntity
  8
寸法
 62
     0
 48
50.0
370
    -2
100
AcDbLine
 10
7912.648905187831
 20
9231.123321461831
 30
0.0
 11
8600.075250922243
 21
9231.123321461831
 31
0.0
  0
LINE
  5
172CD
330
159B0
100
AcDbEntity
  8
寸法
 62
     0
 48
50.0
370
    -2
100
AcDbLine
 10
7912.648905187831
 20
9176.123321461831
 30
0.0
 11
8600.075250922243
 21
9176.123321461831
 31
0.0
  0
LINE
  5
172CE
330
159B0
100
AcDbEntity
  8
寸法
 62
     0
 48
50.0
370
    -2
100
AcDbLine
 10
8540.075250922242
 20
9176.123321461831
 30
0.0
 11
8540.075250922242
 21
9076.123321461832
 31
0.0
  0
LINE
  5
172CF
330
159B0
100
AcDbEntity
  8
寸法
 62
     0
 48
50.0
370
    -2
100
AcDbLine
 10
8540.075250922242
 20
9231.123321461831
 30
0.0
 11
8540.075250922242
 21
9648.093884210309
 31
0.0
  0
LINE
  5
172D0
330
159B0
100
AcDbEntity
  8
寸法
 62
     0
 48
50.0
370
    -2
100
AcDbLine
 10
8540.075250922242
 20
9176.123321461831
 30
0.0
 11
8540.075250922242
 21
9231.123321461831
 31
0.0
  0
INSERT
  5
172D1
330
159B0
100
AcDbEntity
  8
寸法
 62
     0
 48
50.0
370
    -2
100
AcDbBlockReference
  2
_DOTSMALL
 10
8540.075250922242
 20
9176.123321461831
 30
0.0
 41
100.0
 42
100.0
 43
100.0
 50
90.0
  0
INSERT
  5
172D2
330
159B0
100
AcDbEntity
  8
寸法
 62
     0
 48
50.0
370
    -2
100
AcDbBlockReference
  2
_DOTSMALL
 10
8540.075250922242
 20
9231.123321461831
 30
0.0
 41
100.0
 42
100.0
 43
100.0
 50
270.0
  0
MTEXT
  5
172D3
330
159B0
100
AcDbEntity
  8
寸法
 62
     7
 48
50.0
100
AcDbMText
 10
8440.075250922239
 20
9539.608602836072
 30
0.0
 40
120.0
 41
0.0
 71
     5
 72
     1
  1
\A1;55
  7
STYLE1
 11
0.0000000000000001
 21
1.0
 31
0.0
 73
     1
 44
1.0
1001
ACAD
1000
MTEXTBEGIN
1070
    73
1070
     1
1070
    44
1040
1.0
1070
    74
1070
     0
1000
MTEXTEND
  0
POINT
  5
172D4
330
159B0
100
AcDbEntity
  8
DEFPOINTS
 62
     0
 48
50.0
100
AcDbPoint
 10
7892.64890518783
 20
9231.123321461831
 30
0.0
  0
POINT
  5
172D5
330
159B0
100
AcDbEntity
  8
DEFPOINTS
 62
     0
 48
50.0
100
AcDbPoint
 10
7892.64890518783
 20
9176.123321461831
 30
0.0
  0
POINT
  5
172D6
330
159B0
100
AcDbEntity
  8
DEFPOINTS
 62
     0
 48
50.0
100
AcDbPoint
 10
8540.075250922242
 20
9176.123321461831
 30
0.0
  0
ENDBLK
  5
15AF1
330
159B0
100
AcDbEntity
  8
0
 48
50.0
100
AcDbBlockEnd
  0
BLOCK
  5
15AF2
330
159BE
100
AcDbEntity
  8
0
 48
50.0
100
AcDbBlockBegin
  2
*D11
 70
     1
 10
0.0
 20
0.0
 30
0.0
  3
*D11
  1

  0
LINE
  5
172C3
330
159BE
100
AcDbEntity
  8
寸法
 62
     0
 48
50.0
370
    -2
100
AcDbLine
 10
7883.148905187765
 20
9196.26433761315
 30
0.0
 11
8278.506631049786
 21
9090.328554247017
 31
0.0
  0
LINE
  5
172C4
330
159BE
100
AcDbEntity
  8
寸法
 62
     0
 48
50.0
370
    -2
100
AcDbLine
 10
7883.148905187765
 20
8746.264337613151
 30
0.0
 11
8278.506631049786
 21
8640.328554247018
 31
0.0
  0
LINE
  5
172C5
330
159BE
100
AcDbEntity
  8
寸法
 62
     0
 48
50.0
370
    -2
100
AcDbLine
 10
8218.506631049786
 20
9106.405505792885
 30
0.0
 11
8218.506631049786
 21
8656.405505792886
 31
0.0
  0
INSERT
  5
172C6
330
159BE
100
AcDbEntity
  8
寸法
 62
     0
 48
50.0
370
    -2
100
AcDbBlockReference
  2
_DOTSMALL
 10
8218.506631049786
 20
9106.405505792885
 30
0.0
 41
100.0
 42
100.0
 43
100.0
 50
90.0
  0
INSERT
  5
172C7
330
159BE
100
AcDbEntity
  8
寸法
 62
     0
 48
50.0
370
    -2
100
AcDbBlockReference
  2
_DOTSMALL
 10
8218.506631049786
 20
8656.405505792886
 30
0.0
 41
100.0
 42
100.0
 43
100.0
 50
270.0
  0
MTEXT
  5
172C8
330
159BE
100
AcDbEntity
  8
寸法
 62
     7
 48
50.0
100
AcDbMText
 10
8118.506631049784
 20
8881.405505792887
 30
0.0
 40
120.0
 41
0.0
 71
     5
 72
     1
  1
\A1;450
  7
STYLE1
 11
0.0000000000000001
 21
1.0
 31
0.0
 73
     1
 44
1.0
1001
ACAD
1000
MTEXTBEGIN
1070
    73
1070
     1
1070
    44
1040
1.0
1070
    74
1070
     0
1000
MTEXTEND
  0
POINT
  5
172C9
330
159BE
100
AcDbEntity
  8
DEFPOINTS
 62
     0
 48
50.0
100
AcDbPoint
 10
7863.148905187765
 20
9201.623321461772
 30
0.0
  0
POINT
  5
172CA
330
159BE
100
AcDbEntity
  8
DEFPOINTS
 62
     0
 48
50.0
100
AcDbPoint
 10
7863.148905187765
 20
8751.623321461773
 30
0.0
  0
POINT
  5
172CB
330
159BE
100
AcDbEntity
  8
DEFPOINTS
 62
     0
 48
50.0
100
AcDbPoint
 10
8218.506631049786
 20
8656.405505792886
 30
0.0
  0
ENDBLK
  5
15AFC
330
159BE
100
AcDbEntity
  8
0
 48
50.0
100
AcDbBlockEnd
  0
BLOCK
  5
15AFD
330
159CA
100
AcDbEntity
  8
0
 48
50.0
100
AcDbBlockBegin
  2
*D12
 70
     1
 10
0.0
 20
0.0
 30
0.0
  3
*D12
  1

  0
LINE
  5
172BA
330
159CA
100
AcDbEntity
  8
寸法
 62
     0
 48
50.0
370
    -2
100
AcDbLine
 10
7912.648905187831
 20
9231.123321461831
 30
0.0
 11
8909.18678173792
 21
9231.123321461831
 31
0.0
  0
LINE
  5
172BB
330
159CA
100
AcDbEntity
  8
寸法
 62
     0
 48
50.0
370
    -2
100
AcDbLine
 10
7912.648905187805
 20
7701.123321461817
 30
0.0
 11
8909.18678173792
 21
7701.123321461817
 31
0.0
  0
LINE
  5
172BC
330
159CA
100
AcDbEntity
  8
寸法
 62
     0
 48
50.0
370
    -2
100
AcDbLine
 10
8849.186781737918
 20
9231.123321461831
 30
0.0
 11
8849.186781737918
 21
7701.123321461817
 31
0.0
  0
INSERT
  5
172BD
330
159CA
100
AcDbEntity
  8
寸法
 62
     0
 48
50.0
370
    -2
100
AcDbBlockReference
  2
_DOTSMALL
 10
8849.186781737918
 20
9231.123321461831
 30
0.0
 41
100.0
 42
100.0
 43
100.0
 50
90.0
  0
INSERT
  5
172BE
330
159CA
100
AcDbEntity
  8
寸法
 62
     0
 48
50.0
370
    -2
100
AcDbBlockReference
  2
_DOTSMALL
 10
8849.186781737918
 20
7701.123321461817
 30
0.0
 41
100.0
 42
100.0
 43
100.0
 50
270.0
  0
MTEXT
  5
172BF
330
159CA
100
AcDbEntity
  8
寸法
 62
     7
 48
50.0
100
AcDbMText
 10
8749.186781737916
 20
8466.123321461825
 30
0.0
 40
120.0
 41
0.0
 71
     5
 72
     1
  1
\A1;1530
  7
STYLE1
 11
0.0000000000000001
 21
1.0
 31
0.0
 73
     1
 44
1.0
1001
ACAD
1000
MTEXTBEGIN
1070
    73
1070
     1
1070
    44
1040
1.0
1070
    74
1070
     0
1000
MTEXTEND
  0
POINT
  5
172C0
330
159CA
100
AcDbEntity
  8
DEFPOINTS
 62
     0
 48
50.0
100
AcDbPoint
 10
7892.64890518783
 20
9231.123321461831
 30
0.0
  0
POINT
  5
172C1
330
159CA
100
AcDbEntity
  8
DEFPOINTS
 62
     0
 48
50.0
100
AcDbPoint
 10
7892.648905187805
 20
7701.123321461817
 30
0.0
  0
POINT
  5
172C2
330
159CA
100
AcDbEntity
  8
DEFPOINTS
 62
     0
 48
50.0
100
AcDbPoint
 10
8849.186781737918
 20
7701.123321461817
 30
0.0
  0
ENDBLK
  5
15B07
330
159CA
100
AcDbEntity
  8
0
 48
50.0
100
AcDbBlockEnd
  0
BLOCK
  5
15B08
330
159D6
100
AcDbEntity
  8
0
 48
50.0
100
AcDbBlockBegin
  2
*D13
 70
     1
 10
0.0
 20
0.0
 30
0.0
  3
*D13
  1

  0
LINE
  5
172AF
330
159D6
100
AcDbEntity
  8
寸法
 62
     0
 48
50.0
370
    -2
100
AcDbLine
 10
7912.648905187805
 20
7756.123321461817
 30
0.0
 11
8600.075250922216
 21
7756.123321461817
 31
0.0
  0
LINE
  5
172B0
330
159D6
100
AcDbEntity
  8
寸法
 62
     0
 48
50.0
370
    -2
100
AcDbLine
 10
7912.648905187805
 20
7701.123321461817
 30
0.0
 11
8600.075250922216
 21
7701.123321461817
 31
0.0
  0
LINE
  5
172B1
330
159D6
100
AcDbEntity
  8
寸法
 62
     0
 48
50.0
370
    -2
100
AcDbLine
 10
8540.075250922217
 20
7756.123321461817
 30
0.0
 11
8540.075250922217
 21
7856.123321461817
 31
0.0
  0
LINE
  5
172B2
330
159D6
100
AcDbEntity
  8
寸法
 62
     0
 48
50.0
370
    -2
100
AcDbLine
 10
8540.075250922217
 20
7701.123321461817
 30
0.0
 11
8540.075250922217
 21
7214.776573182715
 31
0.0
  0
LINE
  5
172B3
330
159D6
100
AcDbEntity
  8
寸法
 62
     0
 48
50.0
370
    -2
100
AcDbLine
 10
8540.075250922217
 20
7756.123321461817
 30
0.0
 11
8540.075250922217
 21
7701.123321461817
 31
0.0
  0
INSERT
  5
172B4
330
159D6
100
AcDbEntity
  8
寸法
 62
     0
 48
50.0
370
    -2
100
AcDbBlockReference
  2
_DOTSMALL
 10
8540.075250922217
 20
7756.123321461817
 30
0.0
 41
100.0
 42
100.0
 43
100.0
 50
270.0
  0
INSERT
  5
172B5
330
159D6
100
AcDbEntity
  8
寸法
 62
     0
 48
50.0
370
    -2
100
AcDbBlockReference
  2
_DOTSMALL
 10
8540.075250922217
 20
7701.123321461817
 30
0.0
 41
100.0
 42
100.0
 43
100.0
 50
90.0
  0
MTEXT
  5
172B6
330
159D6
100
AcDbEntity
  8
寸法
 62
     7
 48
50.0
100
AcDbMText
 10
8440.075250922214
 20
7323.261854556955
 30
0.0
 40
120.0
 41
0.0
 71
     5
 72
     1
  1
\A1;55
  7
STYLE1
 11
0.0000000000000001
 21
1.0
 31
0.0
 73
     1
 44
1.0
1001
ACAD
1000
MTEXTBEGIN
1070
    73
1070
     1
1070
    44
1040
1.0
1070
    74
1070
     0
1000
MTEXTEND
  0
POINT
  5
172B7
330
159D6
100
AcDbEntity
  8
DEFPOINTS
 62
     0
 48
50.0
100
AcDbPoint
 10
7892.648905187805
 20
7756.123321461817
 30
0.0
  0
POINT
  5
172B8
330
159D6
100
AcDbEntity
  8
DEFPOINTS
 62
     0
 48
50.0
100
AcDbPoint
 10
7892.648905187805
 20
7701.123321461817
 30
0.0
  0
POINT
  5
172B9
330
159D6
100
AcDbEntity
  8
DEFPOINTS
 62
     0
 48
50.0
100
AcDbPoint
 10
8540.075250922217
 20
7701.123321461817
 30
0.0
  0
ENDBLK
  5
15B14
330
159D6
100
AcDbEntity
  8
0
 48
50.0
100
AcDbBlockEnd
  0
BLOCK
  5
15B15
330
159E4
100
AcDbEntity
  8
0
 48
50.0
100
AcDbBlockBegin
  2
*D14
 70
     1
 10
0.0
 20
0.0
 30
0.0
  3
*D14
  1

  0
LINE
  5
172A6
330
159E4
100
AcDbEntity
  8
寸法
 62
     0
 48
50.0
370
    -2
100
AcDbLine
 10
7912.648905187831
 20
8756.123321461831
 30
0.0
 11
8600.075250922241
 21
8756.123321461831
 31
0.0
  0
LINE
  5
172A7
330
159E4
100
AcDbEntity
  8
寸法
 62
     0
 48
50.0
370
    -2
100
AcDbLine
 10
7912.648905187831
 20
8176.123321461831
 30
0.0
 11
8600.075250922241
 21
8176.123321461831
 31
0.0
  0
LINE
  5
172A8
330
159E4
100
AcDbEntity
  8
寸法
 62
     0
 48
50.0
370
    -2
100
AcDbLine
 10
8540.075250922241
 20
8756.123321461831
 30
0.0
 11
8540.075250922241
 21
8176.123321461831
 31
0.0
  0
INSERT
  5
172A9
330
159E4
100
AcDbEntity
  8
寸法
 62
     0
 48
50.0
370
    -2
100
AcDbBlockReference
  2
_DOTSMALL
 10
8540.075250922241
 20
8756.123321461831
 30
0.0
 41
100.0
 42
100.0
 43
100.0
 50
90.0
  0
INSERT
  5
172AA
330
159E4
100
AcDbEntity
  8
寸法
 62
     0
 48
50.0
370
    -2
100
AcDbBlockReference
  2
_DOTSMALL
 10
8540.075250922241
 20
8176.123321461831
 30
0.0
 41
100.0
 42
100.0
 43
100.0
 50
270.0
  0
MTEXT
  5
172AB
330
159E4
100
AcDbEntity
  8
寸法
 62
     7
 48
50.0
100
AcDbMText
 10
8440.075250922239
 20
8466.123321461834
 30
0.0
 40
120.0
 41
0.0
 71
     5
 72
     1
  1
\A1;580
  7
STYLE1
 11
0.0000000000000001
 21
1.0
 31
0.0
 73
     1
 44
1.0
1001
ACAD
1000
MTEXTBEGIN
1070
    73
1070
     1
1070
    44
1040
1.0
1070
    74
1070
     0
1000
MTEXTEND
  0
POINT
  5
172AC
330
159E4
100
AcDbEntity
  8
DEFPOINTS
 62
     0
 48
50.0
100
AcDbPoint
 10
7892.64890518783
 20
8756.123321461831
 30
0.0
  0
POINT
  5
172AD
330
159E4
100
AcDbEntity
  8
DEFPOINTS
 62
     0
 48
50.0
100
AcDbPoint
 10
7892.64890518783
 20
8176.123321461831
 30
0.0
  0
POINT
  5
172AE
330
159E4
100
AcDbEntity
  8
DEFPOINTS
 62
     0
 48
50.0
100
AcDbPoint
 10
8540.075250922241
 20
8176.123321461831
 30
0.0
  0
ENDBLK
  5
15B1F
330
159E4
100
AcDbEntity
  8
0
 48
50.0
100
AcDbBlockEnd
  0
BLOCK
  5
15B20
330
159F0
100
AcDbEntity
  8
0
 48
50.0
100
AcDbBlockBegin
  2
*D15
 70
     1
 10
0.0
 20
0.0
 30
0.0
  3
*D15
  1

  0
LINE
  5
1729D
330
159F0
100
AcDbEntity
  8
寸法
 62
     0
 48
50.0
370
    -2
100
AcDbLine
 10
7912.648905187831
 20
8176.123321461831
 30
0.0
 11
8600.075250922214
 21
8176.123321461831
 31
0.0
  0
LINE
  5
1729E
330
159F0
100
AcDbEntity
  8
寸法
 62
     0
 48
50.0
370
    -2
100
AcDbLine
 10
7912.648905187838
 20
7756.123321461831
 30
0.0
 11
8600.075250922214
 21
7756.123321461831
 31
0.0
  0
LINE
  5
1729F
330
159F0
100
AcDbEntity
  8
寸法
 62
     0
 48
50.0
370
    -2
100
AcDbLine
 10
8540.075250922214
 20
8176.123321461831
 30
0.0
 11
8540.075250922214
 21
7756.123321461831
 31
0.0
  0
INSERT
  5
172A0
330
159F0
100
AcDbEntity
  8
寸法
 62
     0
 48
50.0
370
    -2
100
AcDbBlockReference
  2
_DOTSMALL
 10
8540.075250922214
 20
8176.123321461831
 30
0.0
 41
100.0
 42
100.0
 43
100.0
 50
90.0
  0
INSERT
  5
172A1
330
159F0
100
AcDbEntity
  8
寸法
 62
     0
 48
50.0
370
    -2
100
AcDbBlockReference
  2
_DOTSMALL
 10
8540.075250922214
 20
7756.123321461831
 30
0.0
 41
100.0
 42
100.0
 43
100.0
 50
270.0
  0
MTEXT
  5
172A2
330
159F0
100
AcDbEntity
  8
寸法
 62
     7
 48
50.0
100
AcDbMText
 10
8440.063439898592
 20
7966.123321461832
 30
0.0
 40
120.0
 41
0.0
 71
     5
 72
     1
  1
\A1;420
  7
STYLE1
 11
0.0000000000000001
 21
1.0
 31
0.0
 73
     1
 44
1.0
1001
ACAD
1000
MTEXTBEGIN
1070
    73
1070
     1
1070
    44
1040
1.0
1070
    74
1070
     0
1000
MTEXTEND
  0
POINT
  5
172A3
330
159F0
100
AcDbEntity
  8
DEFPOINTS
 62
     0
 48
50.0
100
AcDbPoint
 10
7892.64890518783
 20
8176.123321461831
 30
0.0
  0
POINT
  5
172A4
330
159F0
100
AcDbEntity
  8
DEFPOINTS
 62
     0
 48
50.0
100
AcDbPoint
 10
7892.648905187837
 20
7756.123321461831
 30
0.0
  0
POINT
  5
172A5
330
159F0
100
AcDbEntity
  8
DEFPOINTS
 62
     0
 48
50.0
100
AcDbPoint
 10
8540.075250922214
 20
7756.123321461831
 30
0.0
  0
ENDBLK
  5
15B2A
330
159F0
100
AcDbEntity
  8
0
 48
50.0
100
AcDbBlockEnd
  0
BLOCK
  5
15B2B
330
159FC
100
AcDbEntity
  8
0
 48
50.0
100
AcDbBlockBegin
  2
*D16
 70
     1
 10
0.0
 20
0.0
 30
0.0
  3
*D16
  1

  0
LINE
  5
17292
330
159FC
100
AcDbEntity
  8
寸法
 62
     0
 48
50.0
370
    -2
100
AcDbLine
 10
7837.648905187831
 20
9251.123321461831
 30
0.0
 11
7837.648905187831
 21
9506.931541086812
 31
0.0
  0
LINE
  5
17293
330
159FC
100
AcDbEntity
  8
寸法
 62
     0
 48
50.0
370
    -2
100
AcDbLine
 10
7892.64890518783
 20
9251.123321461831
 30
0.0
 11
7892.64890518783
 21
9506.931541086812
 31
0.0
  0
LINE
  5
17294
330
159FC
100
AcDbEntity
  8
寸法
 62
     0
 48
50.0
370
    -2
100
AcDbLine
 10
7837.648905187831
 20
9446.931541086813
 30
0.0
 11
7737.648905187831
 21
9446.931541086813
 31
0.0
  0
LINE
  5
17295
330
159FC
100
AcDbEntity
  8
寸法
 62
     0
 48
50.0
370
    -2
100
AcDbLine
 10
7892.64890518783
 20
9446.931541086813
 30
0.0
 11
8309.619467936309
 21
9446.931541086813
 31
0.0
  0
LINE
  5
17296
330
159FC
100
AcDbEntity
  8
寸法
 62
     0
 48
50.0
370
    -2
100
AcDbLine
 10
7837.648905187831
 20
9446.931541086813
 30
0.0
 11
7892.64890518783
 21
9446.931541086813
 31
0.0
  0
INSERT
  5
17297
330
159FC
100
AcDbEntity
  8
寸法
 62
     0
 48
50.0
370
    -2
100
AcDbBlockReference
  2
_DOTSMALL
 10
7837.648905187831
 20
9446.931541086813
 30
0.0
 41
100.0
 42
100.0
 43
100.0
  0
INSERT
  5
17298
330
159FC
100
AcDbEntity
  8
寸法
 62
     0
 48
50.0
370
    -2
100
AcDbBlockReference
  2
_DOTSMALL
 10
7892.64890518783
 20
9446.931541086813
 30
0.0
 41
100.0
 42
100.0
 43
100.0
 50
180.0
  0
MTEXT
  5
17299
330
159FC
100
AcDbEntity
  8
寸法
 62
     7
 48
50.0
100
AcDbMText
 10
8201.13418656207
 20
9546.931541086813
 30
0.0
 40
120.0
 41
0.0
 71
     5
 72
     1
  1
\A1;55
  7
STYLE1
 73
     1
 44
1.0
1001
ACAD
1000
MTEXTBEGIN
1070
    73
1070
     1
1070
    44
1040
1.0
1070
    74
1070
     0
1000
MTEXTEND
  0
POINT
  5
1729A
330
159FC
100
AcDbEntity
  8
DEFPOINTS
 62
     0
 48
50.0
100
AcDbPoint
 10
7837.648905187831
 20
9231.123321461831
 30
0.0
  0
POINT
  5
1729B
330
159FC
100
AcDbEntity
  8
DEFPOINTS
 62
     0
 48
50.0
100
AcDbPoint
 10
7892.64890518783
 20
9231.123321461831
 30
0.0
  0
POINT
  5
1729C
330
159FC
100
AcDbEntity
  8
DEFPOINTS
 62
     0
 48
50.0
100
AcDbPoint
 10
7892.64890518783
 20
9446.931541086813
 30
0.0
  0
ENDBLK
  5
15B37
330
159FC
100
AcDbEntity
  8
0
 48
50.0
100
AcDbBlockEnd
  0
BLOCK
  5
15D3D
330
15D3C
100
AcDbEntity
  8
0
 48
50.0
100
AcDbBlockBegin
  2
*D17
 70
     1
 10
0.0
 20
0.0
 30
0.0
  3
*D17
  1

  0
LINE
  5
17287
330
15D3C
100
AcDbEntity
  8
寸法
 62
     0
 48
50.0
370
    -2
100
AcDbLine
 10
5377.648905187831
 20
9251.123321461852
 30
0.0
 11
5377.648905187831
 21
9506.931541086835
 31
0.0
  0
LINE
  5
17288
330
15D3C
100
AcDbEntity
  8
寸法
 62
     0
 48
50.0
370
    -2
100
AcDbLine
 10
5487.648905187831
 20
9251.123321461831
 30
0.0
 11
5487.648905187831
 21
9506.931541086835
 31
0.0
  0
LINE
  5
17289
330
15D3C
100
AcDbEntity
  8
寸法
 62
     0
 48
50.0
370
    -2
100
AcDbLine
 10
5377.648905187831
 20
9446.931541086835
 30
0.0
 11
5277.648905187831
 21
9446.931541086835
 31
0.0
  0
LINE
  5
1728A
330
15D3C
100
AcDbEntity
  8
寸法
 62
     0
 48
50.0
370
    -2
100
AcDbLine
 10
5487.648905187831
 20
9446.931541086835
 30
0.0
 11
5587.648905187831
 21
9446.931541086835
 31
0.0
  0
LINE
  5
1728B
330
15D3C
100
AcDbEntity
  8
寸法
 62
     0
 48
50.0
370
    -2
100
AcDbLine
 10
5377.648905187831
 20
9446.931541086835
 30
0.0
 11
5487.648905187831
 21
9446.931541086835
 31
0.0
  0
INSERT
  5
1728C
330
15D3C
100
AcDbEntity
  8
寸法
 62
     0
 48
50.0
370
    -2
100
AcDbBlockReference
  2
_DOTSMALL
 10
5377.648905187831
 20
9446.931541086835
 30
0.0
 41
100.0
 42
100.0
 43
100.0
  0
INSERT
  5
1728D
330
15D3C
100
AcDbEntity
  8
寸法
 62
     0
 48
50.0
370
    -2
100
AcDbBlockReference
  2
_DOTSMALL
 10
5487.648905187831
 20
9446.931541086835
 30
0.0
 41
100.0
 42
100.0
 43
100.0
 50
180.0
  0
MTEXT
  5
1728E
330
15D3C
100
AcDbEntity
  8
寸法
 62
     7
 48
50.0
100
AcDbMText
 10
5432.64890518783
 20
9546.931541086834
 30
0.0
 40
120.0
 41
0.0
 71
     5
 72
     1
  1
\A1;110
  7
STYLE1
 73
     1
 44
1.0
1001
ACAD
1000
MTEXTBEGIN
1070
    73
1070
     1
1070
    44
1040
1.0
1070
    74
1070
     0
1000
MTEXTEND
  0
POINT
  5
1728F
330
15D3C
100
AcDbEntity
  8
DEFPOINTS
 62
     0
 48
50.0
100
AcDbPoint
 10
5377.648905187831
 20
9231.123321461854
 30
0.0
  0
POINT
  5
17290
330
15D3C
100
AcDbEntity
  8
DEFPOINTS
 62
     0
 48
50.0
100
AcDbPoint
 10
5487.648905187831
 20
9231.123321461831
 30
0.0
  0
POINT
  5
17291
330
15D3C
100
AcDbEntity
  8
DEFPOINTS
 62
     0
 48
50.0
100
AcDbPoint
 10
5487.648905187831
 20
9446.931541086835
 30
0.0
  0
ENDBLK
  5
15D49
330
15D3C
100
AcDbEntity
  8
0
 48
50.0
100
AcDbBlockEnd
  0
BLOCK
  5
15E48
330
15E47
100
AcDbEntity
  8
0
 48
50.0
100
AcDbBlockBegin
  2
*D18
 70
     1
 10
0.0
 20
0.0
 30
0.0
  3
*D18
  1

  0
LINE
  5
1727E
330
15E47
100
AcDbEntity
  8
寸法
 62
     0
 48
50.0
370
    -2
100
AcDbLine
 10
4667.648905187831
 20
9251.123321461767
 30
0.0
 11
4667.648905187831
 21
9506.931541086835
 31
0.0
  0
LINE
  5
1727F
330
15E47
100
AcDbEntity
  8
寸法
 62
     0
 48
50.0
370
    -2
100
AcDbLine
 10
5377.648905187831
 20
9251.123321461852
 30
0.0
 11
5377.648905187831
 21
9506.931541086835
 31
0.0
  0
LINE
  5
17280
330
15E47
100
AcDbEntity
  8
寸法
 62
     0
 48
50.0
370
    -2
100
AcDbLine
 10
4667.648905187831
 20
9446.931541086835
 30
0.0
 11
5377.648905187831
 21
9446.931541086835
 31
0.0
  0
INSERT
  5
17281
330
15E47
100
AcDbEntity
  8
寸法
 62
     0
 48
50.0
370
    -2
100
AcDbBlockReference
  2
_DOTSMALL
 10
4667.648905187831
 20
9446.931541086835
 30
0.0
 41
100.0
 42
100.0
 43
100.0
 50
180.0
  0
INSERT
  5
17282
330
15E47
100
AcDbEntity
  8
寸法
 62
     0
 48
50.0
370
    -2
100
AcDbBlockReference
  2
_DOTSMALL
 10
5377.648905187831
 20
9446.931541086835
 30
0.0
 41
100.0
 42
100.0
 43
100.0
  0
MTEXT
  5
17283
330
15E47
100
AcDbEntity
  8
寸法
 62
     7
 48
50.0
100
AcDbMText
 10
5022.89890518783
 20
9546.931541086834
 30
0.0
 40
120.0
 41
0.0
 71
     5
 72
     1
  1
\A1;710
  7
STYLE1
 73
     1
 44
1.0
1001
ACAD
1000
MTEXTBEGIN
1070
    73
1070
     1
1070
    44
1040
1.0
1070
    74
1070
     0
1000
MTEXTEND
  0
POINT
  5
17284
330
15E47
100
AcDbEntity
  8
DEFPOINTS
 62
     0
 48
50.0
100
AcDbPoint
 10
4667.648905187831
 20
9231.123321461765
 30
0.0
  0
POINT
  5
17285
330
15E47
100
AcDbEntity
  8
DEFPOINTS
 62
     0
 48
50.0
100
AcDbPoint
 10
5377.648905187831
 20
9231.123321461854
 30
0.0
  0
POINT
  5
17286
330
15E47
100
AcDbEntity
  8
DEFPOINTS
 62
     0
 48
50.0
100
AcDbPoint
 10
5377.648905187831
 20
9446.931541086835
 30
0.0
  0
ENDBLK
  5
15E52
330
15E47
100
AcDbEntity
  8
0
 48
50.0
100
AcDbBlockEnd
  0
BLOCK
  5
15E55
330
15E54
100
AcDbEntity
  8
0
 48
50.0
100
AcDbBlockBegin
  2
*D19
 70
     1
 10
0.0
 20
0.0
 30
0.0
  3
*D19
  1

  0
LINE
  5
1734C
330
15E54
100
AcDbEntity
  8
寸法
 62
     0
 48
50.0
370
    -2
100
AcDbLine
 10
6276.78992133914
 20
8731.62332146178
 30
0.0
 11
6211.933593619246
 21
8489.576211218802
 31
0.0
  0
LINE
  5
1734D
330
15E54
100
AcDbEntity
  8
寸法
 62
     0
 48
50.0
370
    -2
100
AcDbLine
 10
7037.78992133915
 20
8731.62332146178
 30
0.0
 11
6972.933593619257
 21
8489.576211218802
 31
0.0
  0
LINE
  5
1734E
330
15E54
100
AcDbEntity
  8
寸法
 62
     0
 48
50.0
370
    -2
100
AcDbLine
 10
6228.010545165112
 20
8549.5762112188
 30
0.0
 11
6989.010545165124
 21
8549.5762112188
 31
0.0
  0
INSERT
  5
1734F
330
15E54
100
AcDbEntity
  8
寸法
 62
     0
 48
50.0
370
    -2
100
AcDbBlockReference
  2
_DOTSMALL
 10
6228.010545165112
 20
8549.5762112188
 30
0.0
 41
100.0
 42
100.0
 43
100.0
 50
180.0
  0
INSERT
  5
17350
330
15E54
100
AcDbEntity
  8
寸法
 62
     0
 48
50.0
370
    -2
100
AcDbBlockReference
  2
_DOTSMALL
 10
6989.010545165124
 20
8549.5762112188
 30
0.0
 41
100.0
 42
100.0
 43
100.0
  0
MTEXT
  5
17351
330
15E54
100
AcDbEntity
  8
寸法
 62
     7
 48
50.0
100
AcDbMText
 10
6661.49596730603
 20
8649.5762112188
 30
0.0
 40
120.0
 41
0.0
 71
     5
 72
     1
  1
\A1;761
  7
STYLE1
 73
     1
 44
1.0
1001
ACAD
1000
MTEXTBEGIN
1070
    73
1070
     1
1070
    44
1040
1.0
1070
    74
1070
     0
1000
MTEXTEND
  0
POINT
  5
17352
330
15E54
100
AcDbEntity
  8
DEFPOINTS
 62
     0
 48
50.0
100
AcDbPoint
 10
6282.148905187762
 20
8751.623321461782
 30
0.0
  0
POINT
  5
17353
330
15E54
100
AcDbEntity
  8
DEFPOINTS
 62
     0
 48
50.0
100
AcDbPoint
 10
7043.148905187774
 20
8751.623321461782
 30
0.0
  0
POINT
  5
17354
330
15E54
100
AcDbEntity
  8
DEFPOINTS
 62
     0
 48
50.0
100
AcDbPoint
 10
6989.010545165124
 20
8549.5762112188
 30
0.0
  0
ENDBLK
  5
15E5F
330
15E54
100
AcDbEntity
  8
0
 48
50.0
100
AcDbBlockEnd
  0
BLOCK
  5
15E63
330
15E62
100
AcDbEntity
  8
0
 48
50.0
100
AcDbBlockBegin
  2
*D20
 70
     1
 10
0.0
 20
0.0
 30
0.0
  3
*D20
  1

  0
LINE
  5
1733A
330
15E62
100
AcDbEntity
  8
寸法
 62
     0
 48
50.0
370
    -2
100
AcDbLine
 10
5456.789921339139
 20
8731.62332146178
 30
0.0
 11
5391.933593619246
 21
8489.576211218802
 31
0.0
  0
LINE
  5
1733B
330
15E62
100
AcDbEntity
  8
寸法
 62
     0
 48
50.0
370
    -2
100
AcDbLine
 10
6217.78992133915
 20
8731.62332146178
 30
0.0
 11
6152.933593619256
 21
8489.576211218802
 31
0.0
  0
LINE
  5
1733C
330
15E62
100
AcDbEntity
  8
寸法
 62
     0
 48
50.0
370
    -2
100
AcDbLine
 10
5408.010545165113
 20
8549.5762112188
 30
0.0
 11
6169.010545165123
 21
8549.5762112188
 31
0.0
  0
INSERT
  5
1733D
330
15E62
100
AcDbEntity
  8
寸法
 62
     0
 48
50.0
370
    -2
100
AcDbBlockReference
  2
_DOTSMALL
 10
5408.010545165113
 20
8549.5762112188
 30
0.0
 41
100.0
 42
100.0
 43
100.0
 50
180.0
  0
INSERT
  5
1733E
330
15E62
100
AcDbEntity
  8
寸法
 62
     0
 48
50.0
370
    -2
100
AcDbBlockReference
  2
_DOTSMALL
 10
6169.010545165123
 20
8549.5762112188
 30
0.0
 41
100.0
 42
100.0
 43
100.0
  0
MTEXT
  5
1733F
330
15E62
100
AcDbEntity
  8
寸法
 62
     7
 48
50.0
100
AcDbMText
 10
5841.49596730603
 20
8649.5762112188
 30
0.0
 40
120.0
 41
0.0
 71
     5
 72
     1
  1
\A1;761
  7
STYLE1
 73
     1
 44
1.0
1001
ACAD
1000
MTEXTBEGIN
1070
    73
1070
     1
1070
    44
1040
1.0
1070
    74
1070
     0
1000
MTEXTEND
  0
POINT
  5
17340
330
15E62
100
AcDbEntity
  8
DEFPOINTS
 62
     0
 48
50.0
100
AcDbPoint
 10
5462.148905187762
 20
8751.623321461782
 30
0.0
  0
POINT
  5
17341
330
15E62
100
AcDbEntity
  8
DEFPOINTS
 62
     0
 48
50.0
100
AcDbPoint
 10
6223.148905187772
 20
8751.623321461782
 30
0.0
  0
POINT
  5
17342
330
15E62
100
AcDbEntity
  8
DEFPOINTS
 62
     0
 48
50.0
100
AcDbPoint
 10
6169.010545165123
 20
8549.5762112188
 30
0.0
  0
ENDBLK
  5
15E6D
330
15E62
100
AcDbEntity
  8
0
 48
50.0
100
AcDbBlockEnd
  0
BLOCK
  5
15E6F
330
15E6E
100
AcDbEntity
  8
0
 48
50.0
100
AcDbBlockBegin
  2
*D21
 70
     1
 10
0.0
 20
0.0
 30
0.0
  3
*D21
  1

  0
LINE
  5
17343
330
15E6E
100
AcDbEntity
  8
寸法
 62
     0
 48
50.0
370
    -2
100
AcDbLine
 10
4636.789921339139
 20
8731.62332146178
 30
0.0
 11
4571.933593619245
 21
8489.576211218802
 31
0.0
  0
LINE
  5
17344
330
15E6E
100
AcDbEntity
  8
寸法
 62
     0
 48
50.0
370
    -2
100
AcDbLine
 10
5397.78992133915
 20
8731.62332146178
 30
0.0
 11
5332.933593619256
 21
8489.576211218802
 31
0.0
  0
LINE
  5
17345
330
15E6E
100
AcDbEntity
  8
寸法
 62
     0
 48
50.0
370
    -2
100
AcDbLine
 10
4588.010545165112
 20
8549.5762112188
 30
0.0
 11
5349.010545165123
 21
8549.5762112188
 31
0.0
  0
INSERT
  5
17346
330
15E6E
100
AcDbEntity
  8
寸法
 62
     0
 48
50.0
370
    -2
100
AcDbBlockReference
  2
_DOTSMALL
 10
4588.010545165112
 20
8549.5762112188
 30
0.0
 41
100.0
 42
100.0
 43
100.0
 50
180.0
  0
INSERT
  5
17347
330
15E6E
100
AcDbEntity
  8
寸法
 62
     0
 48
50.0
370
    -2
100
AcDbBlockReference
  2
_DOTSMALL
 10
5349.010545165123
 20
8549.5762112188
 30
0.0
 41
100.0
 42
100.0
 43
100.0
  0
MTEXT
  5
17348
330
15E6E
100
AcDbEntity
  8
寸法
 62
     7
 48
50.0
100
AcDbMText
 10
5021.495967306029
 20
8649.5762112188
 30
0.0
 40
120.0
 41
0.0
 71
     5
 72
     1
  1
\A1;761
  7
STYLE1
 73
     1
 44
1.0
1001
ACAD
1000
MTEXTBEGIN
1070
    73
1070
     1
1070
    44
1040
1.0
1070
    74
1070
     0
1000
MTEXTEND
  0
POINT
  5
17349
330
15E6E
100
AcDbEntity
  8
DEFPOINTS
 62
     0
 48
50.0
100
AcDbPoint
 10
4642.148905187761
 20
8751.623321461782
 30
0.0
  0
POINT
  5
1734A
330
15E6E
100
AcDbEntity
  8
DEFPOINTS
 62
     0
 48
50.0
100
AcDbPoint
 10
5403.148905187773
 20
8751.623321461782
 30
0.0
  0
POINT
  5
1734B
330
15E6E
100
AcDbEntity
  8
DEFPOINTS
 62
     0
 48
50.0
100
AcDbPoint
 10
5349.010545165123
 20
8549.5762112188
 30
0.0
  0
ENDBLK
  5
15E79
330
15E6E
100
AcDbEntity
  8
0
 48
50.0
100
AcDbBlockEnd
  0
BLOCK
  5
15ECD
330
15E7B
100
AcDbEntity
  8
0
 48
50.0
100
AcDbBlockBegin
  2
*D22
 70
     1
 10
0.0
 20
0.0
 30
0.0
  3
*D22
  1

  0
LINE
  5
1725A
330
15E7B
100
AcDbEntity
  8
寸法
 62
     0
 48
50.0
370
    -2
100
AcDbLine
 10
6307.648905187827
 20
7681.12332146173
 30
0.0
 11
6307.648905187827
 21
7201.299653666652
 31
0.0
  0
LINE
  5
1725B
330
15E7B
100
AcDbEntity
  8
寸法
 62
     0
 48
50.0
370
    -2
100
AcDbLine
 10
6992.648905187824
 20
7681.123321461694
 30
0.0
 11
6992.648905187824
 21
7201.299653666652
 31
0.0
  0
LINE
  5
1725C
330
15E7B
100
AcDbEntity
  8
寸法
 62
     0
 48
50.0
370
    -2
100
AcDbLine
 10
6307.648905187827
 20
7261.299653666653
 30
0.0
 11
6992.648905187824
 21
7261.299653666653
 31
0.0
  0
INSERT
  5
1725D
330
15E7B
100
AcDbEntity
  8
寸法
 62
     0
 48
50.0
370
    -2
100
AcDbBlockReference
  2
_DOTSMALL
 10
6307.648905187827
 20
7261.299653666653
 30
0.0
 41
100.0
 42
100.0
 43
100.0
 50
180.0
  0
INSERT
  5
1725E
330
15E7B
100
AcDbEntity
  8
寸法
 62
     0
 48
50.0
370
    -2
100
AcDbBlockReference
  2
_DOTSMALL
 10
6992.648905187824
 20
7261.299653666653
 30
0.0
 41
100.0
 42
100.0
 43
100.0
  0
MTEXT
  5
1725F
330
15E7B
100
AcDbEntity
  8
寸法
 62
     7
 48
50.0
100
AcDbMText
 10
6650.148905187825
 20
7361.299653666653
 30
0.0
 40
120.0
 41
0.0
 71
     5
 72
     1
  1
\A1;685
  7
STYLE1
 73
     1
 44
1.0
1001
ACAD
1000
MTEXTBEGIN
1070
    73
1070
     1
1070
    44
1040
1.0
1070
    74
1070
     0
1000
MTEXTEND
  0
POINT
  5
17260
330
15E7B
100
AcDbEntity
  8
DEFPOINTS
 62
     0
 48
50.0
100
AcDbPoint
 10
6307.648905187827
 20
7701.123321461729
 30
0.0
  0
POINT
  5
17261
330
15E7B
100
AcDbEntity
  8
DEFPOINTS
 62
     0
 48
50.0
100
AcDbPoint
 10
6992.648905187824
 20
7701.123321461693
 30
0.0
  0
POINT
  5
17262
330
15E7B
100
AcDbEntity
  8
DEFPOINTS
 62
     0
 48
50.0
100
AcDbPoint
 10
6992.648905187824
 20
7261.299653666653
 30
0.0
  0
ENDBLK
  5
15ED7
330
15E7B
100
AcDbEntity
  8
0
 48
50.0
100
AcDbBlockEnd
  0
BLOCK
  5
15EC2
330
15E93
100
AcDbEntity
  8
0
 48
50.0
100
AcDbBlockBegin
  2
*D23
 70
     1
 10
0.0
 20
0.0
 30
0.0
  3
*D23
  1

  0
LINE
  5
17251
330
15E93
100
AcDbEntity
  8
寸法
 62
     0
 48
50.0
370
    -2
100
AcDbLine
 10
5487.648905187827
 20
7681.12332146173
 30
0.0
 11
5487.648905187827
 21
7201.299653666652
 31
0.0
  0
LINE
  5
17252
330
15E93
100
AcDbEntity
  8
寸法
 62
     0
 48
50.0
370
    -2
100
AcDbLine
 10
6172.648905187823
 20
7681.123321461694
 30
0.0
 11
6172.648905187823
 21
7201.299653666652
 31
0.0
  0
LINE
  5
17253
330
15E93
100
AcDbEntity
  8
寸法
 62
     0
 48
50.0
370
    -2
100
AcDbLine
 10
5487.648905187827
 20
7261.299653666653
 30
0.0
 11
6172.648905187823
 21
7261.299653666653
 31
0.0
  0
INSERT
  5
17254
330
15E93
100
AcDbEntity
  8
寸法
 62
     0
 48
50.0
370
    -2
100
AcDbBlockReference
  2
_DOTSMALL
 10
5487.648905187827
 20
7261.299653666653
 30
0.0
 41
100.0
 42
100.0
 43
100.0
 50
180.0
  0
INSERT
  5
17255
330
15E93
100
AcDbEntity
  8
寸法
 62
     0
 48
50.0
370
    -2
100
AcDbBlockReference
  2
_DOTSMALL
 10
6172.648905187823
 20
7261.299653666653
 30
0.0
 41
100.0
 42
100.0
 43
100.0
  0
MTEXT
  5
17256
330
15E93
100
AcDbEntity
  8
寸法
 62
     7
 48
50.0
100
AcDbMText
 10
5830.148905187826
 20
7361.299653666653
 30
0.0
 40
120.0
 41
0.0
 71
     5
 72
     1
  1
\A1;685
  7
STYLE1
 73
     1
 44
1.0
1001
ACAD
1000
MTEXTBEGIN
1070
    73
1070
     1
1070
    44
1040
1.0
1070
    74
1070
     0
1000
MTEXTEND
  0
POINT
  5
17257
330
15E93
100
AcDbEntity
  8
DEFPOINTS
 62
     0
 48
50.0
100
AcDbPoint
 10
5487.648905187827
 20
7701.123321461729
 30
0.0
  0
POINT
  5
17258
330
15E93
100
AcDbEntity
  8
DEFPOINTS
 62
     0
 48
50.0
100
AcDbPoint
 10
6172.648905187823
 20
7701.123321461693
 30
0.0
  0
POINT
  5
17259
330
15E93
100
AcDbEntity
  8
DEFPOINTS
 62
     0
 48
50.0
100
AcDbPoint
 10
6172.648905187823
 20
7261.299653666653
 30
0.0
  0
ENDBLK
  5
15ECC
330
15E93
100
AcDbEntity
  8
0
 48
50.0
100
AcDbBlockEnd
  0
BLOCK
  5
15EB7
330
15EAB
100
AcDbEntity
  8
0
 48
50.0
100
AcDbBlockBegin
  2
*D24
 70
     1
 10
0.0
 20
0.0
 30
0.0
  3
*D24
  1

  0
LINE
  5
17248
330
15EAB
100
AcDbEntity
  8
寸法
 62
     0
 48
50.0
370
    -2
100
AcDbLine
 10
7127.648905187825
 20
7681.12332146173
 30
0.0
 11
7127.648905187825
 21
7201.299653666652
 31
0.0
  0
LINE
  5
17249
330
15EAB
100
AcDbEntity
  8
寸法
 62
     0
 48
50.0
370
    -2
100
AcDbLine
 10
7812.648905187822
 20
7681.123321461694
 30
0.0
 11
7812.648905187822
 21
7201.299653666652
 31
0.0
  0
LINE
  5
1724A
330
15EAB
100
AcDbEntity
  8
寸法
 62
     0
 48
50.0
370
    -2
100
AcDbLine
 10
7127.648905187825
 20
7261.299653666653
 30
0.0
 11
7812.648905187822
 21
7261.299653666653
 31
0.0
  0
INSERT
  5
1724B
330
15EAB
100
AcDbEntity
  8
寸法
 62
     0
 48
50.0
370
    -2
100
AcDbBlockReference
  2
_DOTSMALL
 10
7127.648905187825
 20
7261.299653666653
 30
0.0
 41
100.0
 42
100.0
 43
100.0
 50
180.0
  0
INSERT
  5
1724C
330
15EAB
100
AcDbEntity
  8
寸法
 62
     0
 48
50.0
370
    -2
100
AcDbBlockReference
  2
_DOTSMALL
 10
7812.648905187822
 20
7261.299653666653
 30
0.0
 41
100.0
 42
100.0
 43
100.0
  0
MTEXT
  5
1724D
330
15EAB
100
AcDbEntity
  8
寸法
 62
     7
 48
50.0
100
AcDbMText
 10
7470.148905187824
 20
7461.299653666653
 30
0.0
 40
120.0
 41
0.0
 71
     5
 72
     1
  1
\A1;有効開口部間口\P685
  7
STYLE1
 73
     1
 44
1.0
1001
ACAD
1000
MTEXTBEGIN
1070
    73
1070
     1
1070
    44
1040
1.0
1070
    74
1070
     0
1000
MTEXTEND
  0
POINT
  5
1724E
330
15EAB
100
AcDbEntity
  8
DEFPOINTS
 62
     0
 48
50.0
100
AcDbPoint
 10
7127.648905187825
 20
7701.123321461729
 30
0.0
  0
POINT
  5
1724F
330
15EAB
100
AcDbEntity
  8
DEFPOINTS
 62
     0
 48
50.0
100
AcDbPoint
 10
7812.648905187822
 20
7701.123321461693
 30
0.0
  0
POINT
  5
17250
330
15EAB
100
AcDbEntity
  8
DEFPOINTS
 62
     0
 48
50.0
100
AcDbPoint
 10
7812.648905187822
 20
7261.299653666653
 30
0.0
  0
ENDBLK
  5
15EC1
330
15EAB
100
AcDbEntity
  8
0
 48
50.0
100
AcDbBlockEnd
  0
BLOCK
  5
15F31
330
15F30
100
AcDbEntity
  8
0
 48
50.0
100
AcDbBlockBegin
  2
*D25
 70
     1
 10
0.0
 20
0.0
 30
0.0
  3
*D25
  1

  0
LINE
  5
1723F
330
15F30
100
AcDbEntity
  8
寸法
 62
     0
 48
50.0
370
    -2
100
AcDbLine
 10
4667.648905187827
 20
7681.12332146173
 30
0.0
 11
4667.648905187827
 21
7201.299653666652
 31
0.0
  0
LINE
  5
17240
330
15F30
100
AcDbEntity
  8
寸法
 62
     0
 48
50.0
370
    -2
100
AcDbLine
 10
5352.648905187823
 20
7681.123321461694
 30
0.0
 11
5352.648905187823
 21
7201.299653666652
 31
0.0
  0
LINE
  5
17241
330
15F30
100
AcDbEntity
  8
寸法
 62
     0
 48
50.0
370
    -2
100
AcDbLine
 10
4667.648905187827
 20
7261.299653666653
 30
0.0
 11
5352.648905187823
 21
7261.299653666653
 31
0.0
  0
INSERT
  5
17242
330
15F30
100
AcDbEntity
  8
寸法
 62
     0
 48
50.0
370
    -2
100
AcDbBlockReference
  2
_DOTSMALL
 10
4667.648905187827
 20
7261.299653666653
 30
0.0
 41
100.0
 42
100.0
 43
100.0
 50
180.0
  0
INSERT
  5
17243
330
15F30
100
AcDbEntity
  8
寸法
 62
     0
 48
50.0
370
    -2
100
AcDbBlockReference
  2
_DOTSMALL
 10
5352.648905187823
 20
7261.299653666653
 30
0.0
 41
100.0
 42
100.0
 43
100.0
  0
MTEXT
  5
17244
330
15F30
100
AcDbEntity
  8
寸法
 62
     7
 48
50.0
100
AcDbMText
 10
5010.148905187826
 20
7361.299653666653
 30
0.0
 40
120.0
 41
0.0
 71
     5
 72
     1
  1
\A1;685
  7
STYLE1
 73
     1
 44
1.0
1001
ACAD
1000
MTEXTBEGIN
1070
    73
1070
     1
1070
    44
1040
1.0
1070
    74
1070
     0
1000
MTEXTEND
  0
POINT
  5
17245
330
15F30
100
AcDbEntity
  8
DEFPOINTS
 62
     0
 48
50.0
100
AcDbPoint
 10
4667.648905187827
 20
7701.123321461729
 30
0.0
  0
POINT
  5
17246
330
15F30
100
AcDbEntity
  8
DEFPOINTS
 62
     0
 48
50.0
100
AcDbPoint
 10
5352.648905187823
 20
7701.123321461693
 30
0.0
  0
POINT
  5
17247
330
15F30
100
AcDbEntity
  8
DEFPOINTS
 62
     0
 48
50.0
100
AcDbPoint
 10
5352.648905187823
 20
7261.299653666653
 30
0.0
  0
ENDBLK
  5
15F3B
330
15F30
100
AcDbEntity
  8
0
 48
50.0
100
AcDbBlockEnd
  0
BLOCK
  5
166E9
330
166DF
100
AcDbEntity
  8
0
 48
50.0
100
AcDbBlockBegin
  2
*D26
 70
     1
 10
0.0
 20
0.0
 30
0.0
  3
*D26
  1

  0
LINE
  5
17236
330
166DF
100
AcDbEntity
  8
寸法
 62
     0
 48
50.0
370
    -2
100
AcDbLine
 10
10252.51844770343
 20
4754.334683247194
 30
0.0
 11
9617.557727056004
 21
4754.334683247195
 31
0.0
  0
LINE
  5
17237
330
166DF
100
AcDbEntity
  8
寸法
 62
     0
 48
50.0
370
    -2
100
AcDbLine
 10
10252.51844770343
 20
2964.334683247196
 30
0.0
 11
9617.557727056002
 21
2964.334683247196
 31
0.0
  0
LINE
  5
17238
330
166DF
100
AcDbEntity
  8
寸法
 62
     0
 48
50.0
370
    -2
100
AcDbLine
 10
9677.557727056004
 20
4754.334683247195
 30
0.0
 11
9677.557727056003
 21
2964.334683247196
 31
0.0
  0
INSERT
  5
17239
330
166DF
100
AcDbEntity
  8
寸法
 62
     0
 48
50.0
370
    -2
100
AcDbBlockReference
  2
_DOTSMALL
 10
9677.557727056004
 20
4754.334683247195
 30
0.0
 41
100.0
 42
100.0
 43
100.0
 50
90.0
  0
INSERT
  5
1723A
330
166DF
100
AcDbEntity
  8
寸法
 62
     0
 48
50.0
370
    -2
100
AcDbBlockReference
  2
_DOTSMALL
 10
9677.557727056003
 20
2964.334683247196
 30
0.0
 41
100.0
 42
100.0
 43
100.0
 50
270.0
  0
MTEXT
  5
1723B
330
166DF
100
AcDbEntity
  8
寸法
 62
     7
 48
50.0
100
AcDbMText
 10
9577.557727056001
 20
3869.369695123582
 30
0.0
 40
120.0
 41
0.0
 71
     5
 72
     1
  1
\A1;1790
  7
STYLE1
 11
0.0000000000000001
 21
1.0
 31
0.0
 73
     1
 44
1.0
1001
ACAD
1000
MTEXTBEGIN
1070
    73
1070
     1
1070
    44
1040
1.0
1070
    74
1070
     0
1000
MTEXTEND
  0
POINT
  5
1723C
330
166DF
100
AcDbEntity
  8
DEFPOINTS
 62
     0
 48
50.0
100
AcDbPoint
 10
10272.51844770343
 20
4754.334683247194
 30
0.0
  0
POINT
  5
1723D
330
166DF
100
AcDbEntity
  8
DEFPOINTS
 62
     0
 48
50.0
100
AcDbPoint
 10
10272.51844770343
 20
2964.334683247196
 30
0.0
  0
POINT
  5
1723E
330
166DF
100
AcDbEntity
  8
DEFPOINTS
 62
     0
 48
50.0
100
AcDbPoint
 10
9677.557727056003
 20
2964.334683247196
 30
0.0
  0
ENDBLK
  5
166EA
330
166DF
100
AcDbEntity
  8
0
 48
50.0
100
AcDbBlockEnd
  0
BLOCK
  5
166F6
330
166EB
100
AcDbEntity
  8
0
 48
50.0
100
AcDbBlockBegin
  2
*D27
 70
     1
 10
0.0
 20
0.0
 30
0.0
  3
*D27
  1

  0
LINE
  5
1722C
330
166EB
100
AcDbEntity
  8
寸法
 62
     0
 48
50.0
370
    -2
100
AcDbLine
 10
10214.8776224357
 20
4847.870294720669
 30
0.0
 11
9561.977452141681
 21
4872.521325960648
 31
0.0
  0
LINE
  5
1722D
330
166EB
100
AcDbEntity
  8
寸法
 62
     0
 48
50.0
370
    -2
100
AcDbLine
 10
10220.19745658766
 20
4988.769902117552
 30
0.0
 11
9567.297286293472
 21
5013.420933357537
 31
0.0
  0
LINE
  5
1722E
330
166EB
100
AcDbEntity
  8
寸法
 62
     0
 48
50.0
370
    -2
100
AcDbLine
 10
9621.934731885037
 20
4870.257566747119
 30
0.0
 11
9627.25456603683
 21
5011.157174144009
 31
0.0
  0
LINE
  5
1722F
330
166EB
100
AcDbEntity
  8
寸法
 62
     0
 48
50.0
370
    -2
100
AcDbLine
 10
9627.25456603683
 20
5011.157174144009
 30
0.0
 11
9640.837121318028
 21
5370.900852604838
 31
0.0
  0
INSERT
  5
17230
330
166EB
100
AcDbEntity
  8
寸法
 62
     0
 48
50.0
370
    -2
100
AcDbBlockReference
  2
_DOTSMALL
 10
9621.934731885037
 20
4870.257566747119
 30
0.0
 41
100.0
 42
100.0
 43
100.0
 50
267.8377559871574
  0
INSERT
  5
17231
330
166EB
100
AcDbEntity
  8
寸法
 62
     0
 48
50.0
370
    -2
100
AcDbBlockReference
  2
_DOTSMALL
 10
9627.25456603683
 20
5011.157174144009
 30
0.0
 41
100.0
 42
100.0
 43
100.0
 50
87.83775598715743
  0
MTEXT
  5
17232
330
166EB
100
AcDbEntity
  8
寸法
 62
     7
 48
50.0
100
AcDbMText
 10
9536.003510116456
 20
5244.766345183444
 30
0.0
 40
120.0
 41
0.0
 71
     5
 72
     1
  1
\A1;141
  7
STYLE1
 11
0.03772932022548
 21
0.9992879957226159
 31
0.0
 73
     1
 44
1.0
1001
ACAD
1000
MTEXTBEGIN
1070
    73
1070
     1
1070
    44
1040
1.0
1070
    74
1070
     0
1000
MTEXTEND
  0
POINT
  5
17233
330
166EB
100
AcDbEntity
  8
DEFPOINTS
 62
     0
 48
50.0
100
AcDbPoint
 10
10234.86338235016
 20
4847.11570831616
 30
0.0
  0
POINT
  5
17234
330
166EB
100
AcDbEntity
  8
DEFPOINTS
 62
     0
 48
50.0
100
AcDbPoint
 10
10240.18321650211
 20
4988.015315713043
 30
0.0
  0
POINT
  5
17235
330
166EB
100
AcDbEntity
  8
DEFPOINTS
 62
     0
 48
50.0
100
AcDbPoint
 10
9627.25456603683
 20
5011.157174144009
 30
0.0
  0
ENDBLK
  5
166F7
330
166EB
100
AcDbEntity
  8
0
 48
50.0
100
AcDbBlockEnd
  0
BLOCK
  5
16703
330
166F8
100
AcDbEntity
  8
0
 48
50.0
100
AcDbBlockBegin
  2
*D28
 70
     1
 10
0.0
 20
0.0
 30
0.0
  3
*D28
  1

  0
LINE
  5
17222
330
166F8
100
AcDbEntity
  8
寸法
 62
     0
 48
50.0
370
    -2
100
AcDbLine
 10
11809.5208177482
 20
4956.145362858846
 30
0.0
 11
11809.5208177482
 21
5447.992136826496
 31
0.0
  0
LINE
  5
17223
330
166F8
100
AcDbEntity
  8
寸法
 62
     0
 48
50.0
370
    -2
100
AcDbLine
 10
11889.5208177482
 20
4954.334683247195
 30
0.0
 11
11889.5208177482
 21
5447.992136826496
 31
0.0
  0
LINE
  5
17224
330
166F8
100
AcDbEntity
  8
寸法
 62
     0
 48
50.0
370
    -2
100
AcDbLine
 10
11809.5208177482
 20
5387.992136826497
 30
0.0
 11
11889.5208177482
 21
5387.992136826497
 31
0.0
  0
LINE
  5
17225
330
166F8
100
AcDbEntity
  8
寸法
 62
     0
 48
50.0
370
    -2
100
AcDbLine
 10
11889.5208177482
 20
5387.992136826497
 30
0.0
 11
12201.61530593718
 21
5387.992136826497
 31
0.0
  0
INSERT
  5
17226
330
166F8
100
AcDbEntity
  8
寸法
 62
     0
 48
50.0
370
    -2
100
AcDbBlockReference
  2
_DOTSMALL
 10
11809.5208177482
 20
5387.992136826497
 30
0.0
 41
100.0
 42
100.0
 43
100.0
 50
180.0
  0
INSERT
  5
17227
330
166F8
100
AcDbEntity
  8
寸法
 62
     0
 48
50.0
370
    -2
100
AcDbBlockReference
  2
_DOTSMALL
 10
11889.5208177482
 20
5387.992136826497
 30
0.0
 41
100.0
 42
100.0
 43
100.0
  0
MTEXT
  5
17228
330
166F8
100
AcDbEntity
  8
寸法
 62
     7
 48
50.0
100
AcDbMText
 10
12095.56806184269
 20
5487.992136826497
 30
0.0
 40
120.0
 41
0.0
 71
     5
 72
     1
  1
\A1;80
  7
STYLE1
 73
     1
 44
1.0
1001
ACAD
1000
MTEXTBEGIN
1070
    73
1070
     1
1070
    44
1040
1.0
1070
    74
1070
     0
1000
MTEXTEND
  0
POINT
  5
17229
330
166F8
100
AcDbEntity
  8
DEFPOINTS
 62
     0
 48
50.0
100
AcDbPoint
 10
11809.5208177482
 20
4936.145362858846
 30
0.0
  0
POINT
  5
1722A
330
166F8
100
AcDbEntity
  8
DEFPOINTS
 62
     0
 48
50.0
100
AcDbPoint
 10
11889.5208177482
 20
4934.334683247194
 30
0.0
  0
POINT
  5
1722B
330
166F8
100
AcDbEntity
  8
DEFPOINTS
 62
     0
 48
50.0
100
AcDbPoint
 10
11889.5208177482
 20
5387.992136826497
 30
0.0
  0
ENDBLK
  5
16704
330
166F8
100
AcDbEntity
  8
0
 48
50.0
100
AcDbBlockEnd
  0
BLOCK
  5
1670F
330
16705
100
AcDbEntity
  8
0
 48
50.0
100
AcDbBlockBegin
  2
*D29
 70
     1
 10
0.0
 20
0.0
 30
0.0
  3
*D29
  1

  0
LINE
  5
17219
330
16705
100
AcDbEntity
  8
寸法
 62
     0
 48
50.0
370
    -2
100
AcDbLine
 10
11889.5208177482
 20
4954.334683247195
 30
0.0
 11
11889.5208177482
 21
5656.166458018461
 31
0.0
  0
LINE
  5
1721A
330
16705
100
AcDbEntity
  8
寸法
 62
     0
 48
50.0
370
    -2
100
AcDbLine
 10
10219.52081774821
 20
5009.334683247198
 30
0.0
 11
10219.52081774821
 21
5656.166458018461
 31
0.0
  0
LINE
  5
1721B
330
16705
100
AcDbEntity
  8
寸法
 62
     0
 48
50.0
370
    -2
100
AcDbLine
 10
11889.5208177482
 20
5596.166458018461
 30
0.0
 11
10219.52081774821
 21
5596.166458018461
 31
0.0
  0
INSERT
  5
1721C
330
16705
100
AcDbEntity
  8
寸法
 62
     0
 48
50.0
370
    -2
100
AcDbBlockReference
  2
_DOTSMALL
 10
11889.5208177482
 20
5596.166458018461
 30
0.0
 41
100.0
 42
100.0
 43
100.0
  0
INSERT
  5
1721D
330
16705
100
AcDbEntity
  8
寸法
 62
     0
 48
50.0
370
    -2
100
AcDbBlockReference
  2
_DOTSMALL
 10
10219.52081774821
 20
5596.166458018461
 30
0.0
 41
100.0
 42
100.0
 43
100.0
 50
180.0
  0
MTEXT
  5
1721E
330
16705
100
AcDbEntity
  8
寸法
 62
     7
 48
50.0
100
AcDbMText
 10
11106.64564745003
 20
5696.166458018461
 30
0.0
 40
120.0
 41
0.0
 71
     5
 72
     1
  1
\A1;1670
  7
STYLE1
 73
     1
 44
1.0
1001
ACAD
1000
MTEXTBEGIN
1070
    73
1070
     1
1070
    44
1040
1.0
1070
    74
1070
     0
1000
MTEXTEND
  0
POINT
  5
1721F
330
16705
100
AcDbEntity
  8
DEFPOINTS
 62
     0
 48
50.0
100
AcDbPoint
 10
11889.5208177482
 20
4934.334683247194
 30
0.0
  0
POINT
  5
17220
330
16705
100
AcDbEntity
  8
DEFPOINTS
 62
     0
 48
50.0
100
AcDbPoint
 10
10219.52081774821
 20
4989.334683247198
 30
0.0
  0
POINT
  5
17221
330
16705
100
AcDbEntity
  8
DEFPOINTS
 62
     0
 48
50.0
100
AcDbPoint
 10
10219.52081774821
 20
5596.166458018461
 30
0.0
  0
ENDBLK
  5
16710
330
16705
100
AcDbEntity
  8
0
 48
50.0
100
AcDbBlockEnd
  0
BLOCK
  5
1671D
330
16711
100
AcDbEntity
  8
0
 48
50.0
100
AcDbBlockBegin
  2
*D30
 70
     1
 10
0.0
 20
0.0
 30
0.0
  3
*D30
  1

  0
LINE
  5
1720E
330
16711
100
AcDbEntity
  8
寸法
 62
     0
 48
50.0
370
    -2
100
AcDbLine
 10
10279.5208177482
 20
5005.336301370169
 30
0.0
 11
10279.5208177482
 21
5447.992136826496
 31
0.0
  0
LINE
  5
1720F
330
16711
100
AcDbEntity
  8
寸法
 62
     0
 48
50.0
370
    -2
100
AcDbLine
 10
10219.52081774821
 20
5009.334683247198
 30
0.0
 11
10219.52081774821
 21
5447.992136826496
 31
0.0
  0
LINE
  5
17210
330
16711
100
AcDbEntity
  8
寸法
 62
     0
 48
50.0
370
    -2
100
AcDbLine
 10
10279.5208177482
 20
5387.992136826497
 30
0.0
 11
10379.5208177482
 21
5387.992136826497
 31
0.0
  0
LINE
  5
17211
330
16711
100
AcDbEntity
  8
寸法
 62
     0
 48
50.0
370
    -2
100
AcDbLine
 10
10219.52081774821
 20
5387.992136826497
 30
0.0
 11
9800.245227197027
 21
5387.992136826497
 31
0.0
  0
LINE
  5
17212
330
16711
100
AcDbEntity
  8
寸法
 62
     0
 48
50.0
370
    -2
100
AcDbLine
 10
10279.5208177482
 20
5387.992136826497
 30
0.0
 11
10219.52081774821
 21
5387.992136826497
 31
0.0
  0
INSERT
  5
17213
330
16711
100
AcDbEntity
  8
寸法
 62
     0
 48
50.0
370
    -2
100
AcDbBlockReference
  2
_DOTSMALL
 10
10279.5208177482
 20
5387.992136826497
 30
0.0
 41
100.0
 42
100.0
 43
100.0
 50
180.0
  0
INSERT
  5
17214
330
16711
100
AcDbEntity
  8
寸法
 62
     0
 48
50.0
370
    -2
100
AcDbBlockReference
  2
_DOTSMALL
 10
10219.52081774821
 20
5387.992136826497
 30
0.0
 41
100.0
 42
100.0
 43
100.0
  0
MTEXT
  5
17215
330
16711
100
AcDbEntity
  8
寸法
 62
     7
 48
50.0
100
AcDbMText
 10
9909.883022472618
 20
5487.992136826497
 30
0.0
 40
120.0
 41
0.0
 71
     5
 72
     1
  1
\A1;60
  7
STYLE1
 73
     1
 44
1.0
1001
ACAD
1000
MTEXTBEGIN
1070
    73
1070
     1
1070
    44
1040
1.0
1070
    74
1070
     0
1000
MTEXTEND
  0
POINT
  5
17216
330
16711
100
AcDbEntity
  8
DEFPOINTS
 62
     0
 48
50.0
100
AcDbPoint
 10
10279.5208177482
 20
4985.336301370169
 30
0.0
  0
POINT
  5
17217
330
16711
100
AcDbEntity
  8
DEFPOINTS
 62
     0
 48
50.0
100
AcDbPoint
 10
10219.52081774821
 20
4989.334683247198
 30
0.0
  0
POINT
  5
17218
330
16711
100
AcDbEntity
  8
DEFPOINTS
 62
     0
 48
50.0
100
AcDbPoint
 10
10219.52081774821
 20
5387.992136826497
 30
0.0
  0
ENDBLK
  5
1671E
330
16711
100
AcDbEntity
  8
0
 48
50.0
100
AcDbBlockEnd
  0
BLOCK
  5
16729
330
1671F
100
AcDbEntity
  8
0
 48
50.0
100
AcDbBlockBegin
  2
*D31
 70
     1
 10
0.0
 20
0.0
 30
0.0
  3
*D31
  1

  0
LINE
  5
17205
330
1671F
100
AcDbEntity
  8
寸法
 62
     0
 48
50.0
370
    -2
100
AcDbLine
 10
11809.5208177482
 20
4956.145362858846
 30
0.0
 11
11809.5208177482
 21
5447.992136826496
 31
0.0
  0
LINE
  5
17206
330
1671F
100
AcDbEntity
  8
寸法
 62
     0
 48
50.0
370
    -2
100
AcDbLine
 10
10279.5208177482
 20
5005.336301370169
 30
0.0
 11
10279.5208177482
 21
5447.992136826496
 31
0.0
  0
LINE
  5
17207
330
1671F
100
AcDbEntity
  8
寸法
 62
     0
 48
50.0
370
    -2
100
AcDbLine
 10
11809.5208177482
 20
5387.992136826497
 30
0.0
 11
10279.5208177482
 21
5387.992136826497
 31
0.0
  0
INSERT
  5
17208
330
1671F
100
AcDbEntity
  8
寸法
 62
     0
 48
50.0
370
    -2
100
AcDbBlockReference
  2
_DOTSMALL
 10
11809.5208177482
 20
5387.992136826497
 30
0.0
 41
100.0
 42
100.0
 43
100.0
  0
INSERT
  5
17209
330
1671F
100
AcDbEntity
  8
寸法
 62
     0
 48
50.0
370
    -2
100
AcDbBlockReference
  2
_DOTSMALL
 10
10279.5208177482
 20
5387.992136826497
 30
0.0
 41
100.0
 42
100.0
 43
100.0
 50
180.0
  0
MTEXT
  5
1720A
330
1671F
100
AcDbEntity
  8
寸法
 62
     7
 48
50.0
100
AcDbMText
 10
11089.33985063875
 20
5487.992136826497
 30
0.0
 40
120.0
 41
0.0
 71
     5
 72
     1
  1
\A1;柱外寸法1530
  7
STYLE1
 73
     1
 44
1.0
1001
ACAD
1000
MTEXTBEGIN
1070
    73
1070
     1
1070
    44
1040
1.0
1070
    74
1070
     0
1000
MTEXTEND
  0
POINT
  5
1720B
330
1671F
100
AcDbEntity
  8
DEFPOINTS
 62
     0
 48
50.0
100
AcDbPoint
 10
11809.5208177482
 20
4936.145362858846
 30
0.0
  0
POINT
  5
1720C
330
1671F
100
AcDbEntity
  8
DEFPOINTS
 62
     0
 48
50.0
100
AcDbPoint
 10
10279.5208177482
 20
4985.336301370169
 30
0.0
  0
POINT
  5
1720D
330
1671F
100
AcDbEntity
  8
DEFPOINTS
 62
     0
 48
50.0
100
AcDbPoint
 10
10279.5208177482
 20
5387.992136826497
 30
0.0
  0
ENDBLK
  5
1672A
330
1671F
100
AcDbEntity
  8
0
 48
50.0
100
AcDbBlockEnd
  0
BLOCK
  5
16735
330
1672B
100
AcDbEntity
  8
0
 48
50.0
100
AcDbBlockBegin
  2
*D32
 70
     1
 10
0.0
 20
0.0
 30
0.0
  3
*D32
  1

  0
LINE
  5
171FC
330
1672B
100
AcDbEntity
  8
寸法
 62
     0
 48
50.0
370
    -2
100
AcDbLine
 10
11829.52081774821
 20
2914.334683247195
 30
0.0
 11
12574.44797572033
 21
2914.334683247195
 31
0.0
  0
LINE
  5
171FD
330
1672B
100
AcDbEntity
  8
寸法
 62
     0
 48
50.0
370
    -2
100
AcDbLine
 10
11909.5208177482
 20
4934.334683247194
 30
0.0
 11
12574.44797572033
 21
4934.334683247194
 31
0.0
  0
LINE
  5
171FE
330
1672B
100
AcDbEntity
  8
寸法
 62
     0
 48
50.0
370
    -2
100
AcDbLine
 10
12514.44797572033
 20
2914.334683247195
 30
0.0
 11
12514.44797572033
 21
4934.334683247194
 31
0.0
  0
INSERT
  5
171FF
330
1672B
100
AcDbEntity
  8
寸法
 62
     0
 48
50.0
370
    -2
100
AcDbBlockReference
  2
_DOTSMALL
 10
12514.44797572033
 20
2914.334683247195
 30
0.0
 41
100.0
 42
100.0
 43
100.0
 50
270.0
  0
INSERT
  5
17200
330
1672B
100
AcDbEntity
  8
寸法
 62
     0
 48
50.0
370
    -2
100
AcDbBlockReference
  2
_DOTSMALL
 10
12514.44797572033
 20
4934.334683247194
 30
0.0
 41
100.0
 42
100.0
 43
100.0
 50
90.0
  0
MTEXT
  5
17201
330
1672B
100
AcDbEntity
  8
寸法
 62
     7
 48
50.0
100
AcDbMText
 10
12414.43616469671
 20
3924.334683247197
 30
0.0
 40
120.0
 41
0.0
 71
     5
 72
     1
  1
\A1;2020
  7
STYLE1
 11
0.0000000000000001
 21
1.0
 31
0.0
 73
     1
 44
1.0
1001
ACAD
1000
MTEXTBEGIN
1070
    73
1070
     1
1070
    44
1040
1.0
1070
    74
1070
     0
1000
MTEXTEND
  0
POINT
  5
17202
330
1672B
100
AcDbEntity
  8
DEFPOINTS
 62
     0
 48
50.0
100
AcDbPoint
 10
11809.52081774821
 20
2914.334683247195
 30
0.0
  0
POINT
  5
17203
330
1672B
100
AcDbEntity
  8
DEFPOINTS
 62
     0
 48
50.0
100
AcDbPoint
 10
11889.5208177482
 20
4934.334683247194
 30
0.0
  0
POINT
  5
17204
330
1672B
100
AcDbEntity
  8
DEFPOINTS
 62
     0
 48
50.0
100
AcDbPoint
 10
12514.44797572033
 20
4934.334683247194
 30
0.0
  0
ENDBLK
  5
16736
330
1672B
100
AcDbEntity
  8
0
 48
50.0
100
AcDbBlockEnd
  0
BLOCK
  5
16743
330
16737
100
AcDbEntity
  8
0
 48
50.0
100
AcDbBlockBegin
  2
*D33
 70
     1
 10
0.0
 20
0.0
 30
0.0
  3
*D33
  1

  0
LINE
  5
171F1
330
16737
100
AcDbEntity
  8
寸法
 62
     0
 48
50.0
370
    -2
100
AcDbLine
 10
10252.51844770343
 20
2964.334683247196
 30
0.0
 11
9617.557727056002
 21
2964.334683247196
 31
0.0
  0
LINE
  5
171F2
330
16737
100
AcDbEntity
  8
寸法
 62
     0
 48
50.0
370
    -2
100
AcDbLine
 10
10204.5208177482
 20
2914.334683247195
 30
0.0
 11
9617.557727056002
 21
2914.334683247195
 31
0.0
  0
LINE
  5
171F3
330
16737
100
AcDbEntity
  8
寸法
 62
     0
 48
50.0
370
    -2
100
AcDbLine
 10
9677.557727056003
 20
2964.334683247196
 30
0.0
 11
9677.557727056003
 21
3064.334683247196
 31
0.0
  0
LINE
  5
171F4
330
16737
100
AcDbEntity
  8
寸法
 62
     0
 48
50.0
370
    -2
100
AcDbLine
 10
9677.557727056003
 20
2914.334683247195
 30
0.0
 11
9677.557727056003
 21
2502.240195058214
 31
0.0
  0
LINE
  5
171F5
330
16737
100
AcDbEntity
  8
寸法
 62
     0
 48
50.0
370
    -2
100
AcDbLine
 10
9677.557727056003
 20
2964.334683247196
 30
0.0
 11
9677.557727056003
 21
2914.334683247195
 31
0.0
  0
INSERT
  5
171F6
330
16737
100
AcDbEntity
  8
寸法
 62
     0
 48
50.0
370
    -2
100
AcDbBlockReference
  2
_DOTSMALL
 10
9677.557727056003
 20
2964.334683247196
 30
0.0
 41
100.0
 42
100.0
 43
100.0
 50
270.0
  0
INSERT
  5
171F7
330
16737
100
AcDbEntity
  8
寸法
 62
     0
 48
50.0
370
    -2
100
AcDbBlockReference
  2
_DOTSMALL
 10
9677.557727056003
 20
2914.334683247195
 30
0.0
 41
100.0
 42
100.0
 43
100.0
 50
90.0
  0
MTEXT
  5
171F8
330
16737
100
AcDbEntity
  8
寸法
 62
     7
 48
50.0
100
AcDbMText
 10
9577.557727056001
 20
2608.287439152704
 30
0.0
 40
120.0
 41
0.0
 71
     5
 72
     1
  1
\A1;50
  7
STYLE1
 11
0.0000000000000001
 21
1.0
 31
0.0
 73
     1
 44
1.0
1001
ACAD
1000
MTEXTBEGIN
1070
    73
1070
     1
1070
    44
1040
1.0
1070
    74
1070
     0
1000
MTEXTEND
  0
POINT
  5
171F9
330
16737
100
AcDbEntity
  8
DEFPOINTS
 62
     0
 48
50.0
100
AcDbPoint
 10
10272.51844770343
 20
2964.334683247196
 30
0.0
  0
POINT
  5
171FA
330
16737
100
AcDbEntity
  8
DEFPOINTS
 62
     0
 48
50.0
100
AcDbPoint
 10
10224.5208177482
 20
2914.334683247195
 30
0.0
  0
POINT
  5
171FB
330
16737
100
AcDbEntity
  8
DEFPOINTS
 62
     0
 48
50.0
100
AcDbPoint
 10
9677.557727056003
 20
2914.334683247195
 30
0.0
  0
ENDBLK
  5
16744
330
16737
100
AcDbEntity
  8
0
 48
50.0
100
AcDbBlockEnd
  0
BLOCK
  5
1674F
330
16745
100
AcDbEntity
  8
0
 48
50.0
100
AcDbBlockBegin
  2
*D34
 70
     1
 10
0.0
 20
0.0
 30
0.0
  3
*D34
  1

  0
LINE
  5
171E8
330
16745
100
AcDbEntity
  8
寸法
 62
     0
 48
50.0
370
    -2
100
AcDbLine
 10
10259.5208177482
 20
2914.334683247195
 30
0.0
 11
9315.249006107725
 21
2914.334683247195
 31
0.0
  0
LINE
  5
171E9
330
16745
100
AcDbEntity
  8
寸法
 62
     0
 48
50.0
370
    -2
100
AcDbLine
 10
10199.52081774821
 20
4989.334683247198
 30
0.0
 11
9315.249006107727
 21
4989.334683247198
 31
0.0
  0
LINE
  5
171EA
330
16745
100
AcDbEntity
  8
寸法
 62
     0
 48
50.0
370
    -2
100
AcDbLine
 10
9375.249006107727
 20
2914.334683247195
 30
0.0
 11
9375.249006107727
 21
4989.334683247198
 31
0.0
  0
INSERT
  5
171EB
330
16745
100
AcDbEntity
  8
寸法
 62
     0
 48
50.0
370
    -2
100
AcDbBlockReference
  2
_DOTSMALL
 10
9375.249006107727
 20
2914.334683247195
 30
0.0
 41
100.0
 42
100.0
 43
100.0
 50
270.0
  0
INSERT
  5
171EC
330
16745
100
AcDbEntity
  8
寸法
 62
     0
 48
50.0
370
    -2
100
AcDbBlockReference
  2
_DOTSMALL
 10
9375.249006107727
 20
4989.334683247198
 30
0.0
 41
100.0
 42
100.0
 43
100.0
 50
90.0
  0
MTEXT
  5
171ED
330
16745
100
AcDbEntity
  8
寸法
 62
     7
 48
50.0
100
AcDbMText
 10
9275.237195084104
 20
3889.541673666996
 30
0.0
 40
120.0
 41
0.0
 71
     5
 72
     1
  1
\A1;2075
  7
STYLE1
 11
0.0000000000000001
 21
1.0
 31
0.0
 73
     1
 44
1.0
1001
ACAD
1000
MTEXTBEGIN
1070
    73
1070
     1
1070
    44
1040
1.0
1070
    74
1070
     0
1000
MTEXTEND
  0
POINT
  5
171EE
330
16745
100
AcDbEntity
  8
DEFPOINTS
 62
     0
 48
50.0
100
AcDbPoint
 10
10279.5208177482
 20
2914.334683247195
 30
0.0
  0
POINT
  5
171EF
330
16745
100
AcDbEntity
  8
DEFPOINTS
 62
     0
 48
50.0
100
AcDbPoint
 10
10219.52081774821
 20
4989.334683247198
 30
0.0
  0
POINT
  5
171F0
330
16745
100
AcDbEntity
  8
DEFPOINTS
 62
     0
 48
50.0
100
AcDbPoint
 10
9375.249006107727
 20
4989.334683247198
 30
0.0
  0
ENDBLK
  5
16750
330
16745
100
AcDbEntity
  8
0
 48
50.0
100
AcDbBlockEnd
  0
BLOCK
  5
17019
330
1700D
100
AcDbEntity
  8
0
 48
50.0
100
AcDbBlockBegin
  2
*D35
 70
     1
 10
0.0
 20
0.0
 30
0.0
  3
*D35
  1

  0
LINE
  5
171DD
330
1700D
100
AcDbEntity
  8
寸法
 62
     0
 48
50.0
370
    -2
100
AcDbLine
 10
7942.648905187827
 20
5009.334683247194
 30
0.0
 11
7942.648905187827
 21
5261.876268505435
 31
0.0
  0
LINE
  5
171DE
330
1700D
100
AcDbEntity
  8
寸法
 62
     0
 48
50.0
370
    -2
100
AcDbLine
 10
7892.648905187828
 20
5009.334683247196
 30
0.0
 11
7892.648905187828
 21
5261.876268505435
 31
0.0
  0
LINE
  5
171DF
330
1700D
100
AcDbEntity
  8
寸法
 62
     0
 48
50.0
370
    -2
100
AcDbLine
 10
7892.648905187828
 20
5201.876268505436
 30
0.0
 11
7792.648905187828
 21
5201.876268505436
 31
0.0
  0
LINE
  5
171E0
330
1700D
100
AcDbEntity
  8
寸法
 62
     0
 48
50.0
370
    -2
100
AcDbLine
 10
7942.648905187827
 20
5201.876268505436
 30
0.0
 11
8362.18143065655
 21
5201.876268505436
 31
0.0
  0
LINE
  5
171E1
330
1700D
100
AcDbEntity
  8
寸法
 62
     0
 48
50.0
370
    -2
100
AcDbLine
 10
7892.648905187828
 20
5201.876268505436
 30
0.0
 11
7942.648905187827
 21
5201.876268505436
 31
0.0
  0
INSERT
  5
171E2
330
1700D
100
AcDbEntity
  8
寸法
 62
     0
 48
50.0
370
    -2
100
AcDbBlockReference
  2
_DOTSMALL
 10
7892.648905187828
 20
5201.876268505436
 30
0.0
 41
100.0
 42
100.0
 43
100.0
  0
INSERT
  5
171E3
330
1700D
100
AcDbEntity
  8
寸法
 62
     0
 48
50.0
370
    -2
100
AcDbBlockReference
  2
_DOTSMALL
 10
7942.648905187827
 20
5201.876268505436
 30
0.0
 41
100.0
 42
100.0
 43
100.0
 50
180.0
  0
MTEXT
  5
171E4
330
1700D
100
AcDbEntity
  8
寸法
 62
     7
 48
50.0
100
AcDbMText
 10
8256.134186562062
 20
5301.876268505435
 30
0.0
 40
120.0
 41
0.0
 71
     5
 72
     1
  1
\A1;50
  7
STYLE1
 73
     1
 44
1.0
1001
ACAD
1000
MTEXTBEGIN
1070
    73
1070
     1
1070
    44
1040
1.0
1070
    74
1070
     0
1000
MTEXTEND
  0
POINT
  5
171E5
330
1700D
100
AcDbEntity
  8
DEFPOINTS
 62
     0
 48
50.0
100
AcDbPoint
 10
7942.648905187827
 20
4989.334683247194
 30
0.0
  0
POINT
  5
171E6
330
1700D
100
AcDbEntity
  8
DEFPOINTS
 62
     0
 48
50.0
100
AcDbPoint
 10
7892.648905187828
 20
4989.334683247196
 30
0.0
  0
POINT
  5
171E7
330
1700D
100
AcDbEntity
  8
DEFPOINTS
 62
     0
 48
50.0
100
AcDbPoint
 10
7892.648905187828
 20
5201.876268505436
 30
0.0
  0
ENDBLK
  5
1701A
330
1700D
100
AcDbEntity
  8
0
 48
50.0
100
AcDbBlockEnd
  0
BLOCK
  5
17027
330
1701B
100
AcDbEntity
  8
0
 48
50.0
100
AcDbBlockBegin
  2
*D36
 70
     1
 10
0.0
 20
0.0
 30
0.0
  3
*D36
  1

  0
LINE
  5
171D2
330
1701B
100
AcDbEntity
  8
寸法
 62
     0
 48
50.0
370
    -2
100
AcDbLine
 10
4612.648905187824
 20
5009.334683247198
 30
0.0
 11
4612.648905187824
 21
5261.876268505435
 31
0.0
  0
LINE
  5
171D3
330
1701B
100
AcDbEntity
  8
寸法
 62
     0
 48
50.0
370
    -2
100
AcDbLine
 10
4562.648905187823
 20
5009.334683247196
 30
0.0
 11
4562.648905187823
 21
5261.876268505435
 31
0.0
  0
LINE
  5
171D4
330
1701B
100
AcDbEntity
  8
寸法
 62
     0
 48
50.0
370
    -2
100
AcDbLine
 10
4612.648905187824
 20
5201.876268505436
 30
0.0
 11
4712.648905187823
 21
5201.876268505436
 31
0.0
  0
LINE
  5
171D5
330
1701B
100
AcDbEntity
  8
寸法
 62
     0
 48
50.0
370
    -2
100
AcDbLine
 10
4562.648905187823
 20
5201.876268505436
 30
0.0
 11
4143.116379719088
 21
5201.876268505436
 31
0.0
  0
LINE
  5
171D6
330
1701B
100
AcDbEntity
  8
寸法
 62
     0
 48
50.0
370
    -2
100
AcDbLine
 10
4612.648905187824
 20
5201.876268505436
 30
0.0
 11
4562.648905187823
 21
5201.876268505436
 31
0.0
  0
INSERT
  5
171D7
330
1701B
100
AcDbEntity
  8
寸法
 62
     0
 48
50.0
370
    -2
100
AcDbBlockReference
  2
_DOTSMALL
 10
4612.648905187824
 20
5201.876268505436
 30
0.0
 41
100.0
 42
100.0
 43
100.0
 50
180.0
  0
INSERT
  5
171D8
330
1701B
100
AcDbEntity
  8
寸法
 62
     0
 48
50.0
370
    -2
100
AcDbBlockReference
  2
_DOTSMALL
 10
4562.648905187823
 20
5201.876268505436
 30
0.0
 41
100.0
 42
100.0
 43
100.0
  0
MTEXT
  5
171D9
330
1701B
100
AcDbEntity
  8
寸法
 62
     7
 48
50.0
100
AcDbMText
 10
4249.163623813576
 20
5301.876268505435
 30
0.0
 40
120.0
 41
0.0
 71
     5
 72
     1
  1
\A1;50
  7
STYLE1
 73
     1
 44
1.0
1001
ACAD
1000
MTEXTBEGIN
1070
    73
1070
     1
1070
    44
1040
1.0
1070
    74
1070
     0
1000
MTEXTEND
  0
POINT
  5
171DA
330
1701B
100
AcDbEntity
  8
DEFPOINTS
 62
     0
 48
50.0
100
AcDbPoint
 10
4612.648905187824
 20
4989.334683247198
 30
0.0
  0
POINT
  5
171DB
330
1701B
100
AcDbEntity
  8
DEFPOINTS
 62
     0
 48
50.0
100
AcDbPoint
 10
4562.648905187823
 20
4989.334683247196
 30
0.0
  0
POINT
  5
171DC
330
1701B
100
AcDbEntity
  8
DEFPOINTS
 62
     0
 48
50.0
100
AcDbPoint
 10
4562.648905187823
 20
5201.876268505436
 30
0.0
  0
ENDBLK
  5
17028
330
1701B
100
AcDbEntity
  8
0
 48
50.0
100
AcDbBlockEnd
  0
BLOCK
  5
17033
330
17029
100
AcDbEntity
  8
0
 48
50.0
100
AcDbBlockBegin
  2
*D37
 70
     1
 10
0.0
 20
0.0
 30
0.0
  3
*D37
  1

  0
LINE
  5
171C9
330
17029
100
AcDbEntity
  8
寸法
 62
     0
 48
50.0
370
    -2
100
AcDbLine
 10
4562.648905187823
 20
5009.334683247196
 30
0.0
 11
4562.648905187823
 21
5484.833246943282
 31
0.0
  0
LINE
  5
171CA
330
17029
100
AcDbEntity
  8
寸法
 62
     0
 48
50.0
370
    -2
100
AcDbLine
 10
7942.648905187827
 20
5009.334683247194
 30
0.0
 11
7942.648905187827
 21
5484.833246943282
 31
0.0
  0
LINE
  5
171CB
330
17029
100
AcDbEntity
  8
寸法
 62
     0
 48
50.0
370
    -2
100
AcDbLine
 10
4562.648905187823
 20
5424.833246943283
 30
0.0
 11
7942.648905187827
 21
5424.833246943283
 31
0.0
  0
INSERT
  5
171CC
330
17029
100
AcDbEntity
  8
寸法
 62
     0
 48
50.0
370
    -2
100
AcDbBlockReference
  2
_DOTSMALL
 10
4562.648905187823
 20
5424.833246943283
 30
0.0
 41
100.0
 42
100.0
 43
100.0
 50
180.0
  0
INSERT
  5
171CD
330
17029
100
AcDbEntity
  8
寸法
 62
     0
 48
50.0
370
    -2
100
AcDbBlockReference
  2
_DOTSMALL
 10
7942.648905187827
 20
5424.833246943283
 30
0.0
 41
100.0
 42
100.0
 43
100.0
  0
MTEXT
  5
171CE
330
17029
100
AcDbEntity
  8
寸法
 62
     7
 48
50.0
100
AcDbMText
 10
6252.648905187815
 20
5524.833246943282
 30
0.0
 40
120.0
 41
0.0
 71
     5
 72
     1
  1
\A1;3380
  7
STYLE1
 73
     1
 44
1.0
1001
ACAD
1000
MTEXTBEGIN
1070
    73
1070
     1
1070
    44
1040
1.0
1070
    74
1070
     0
1000
MTEXTEND
  0
POINT
  5
171CF
330
17029
100
AcDbEntity
  8
DEFPOINTS
 62
     0
 48
50.0
100
AcDbPoint
 10
4562.648905187823
 20
4989.334683247196
 30
0.0
  0
POINT
  5
171D0
330
17029
100
AcDbEntity
  8
DEFPOINTS
 62
     0
 48
50.0
100
AcDbPoint
 10
7942.648905187827
 20
4989.334683247194
 30
0.0
  0
POINT
  5
171D1
330
17029
100
AcDbEntity
  8
DEFPOINTS
 62
     0
 48
50.0
100
AcDbPoint
 10
7942.648905187827
 20
5424.833246943283
 30
0.0
  0
ENDBLK
  5
17034
330
17029
100
AcDbEntity
  8
0
 48
50.0
100
AcDbBlockEnd
  0
BLOCK
  5
1703F
330
17035
100
AcDbEntity
  8
0
 48
50.0
100
AcDbBlockBegin
  2
*D38
 70
     1
 10
0.0
 20
0.0
 30
0.0
  3
*D38
  1

  0
LINE
  5
171C0
330
17035
100
AcDbEntity
  8
寸法
 62
     0
 48
50.0
370
    -2
100
AcDbLine
 10
7892.648905187828
 20
5009.334683247196
 30
0.0
 11
7892.648905187828
 21
5261.876268505435
 31
0.0
  0
LINE
  5
171C1
330
17035
100
AcDbEntity
  8
寸法
 62
     0
 48
50.0
370
    -2
100
AcDbLine
 10
4612.648905187824
 20
5009.334683247198
 30
0.0
 11
4612.648905187824
 21
5261.876268505435
 31
0.0
  0
LINE
  5
171C2
330
17035
100
AcDbEntity
  8
寸法
 62
     0
 48
50.0
370
    -2
100
AcDbLine
 10
7892.648905187828
 20
5201.876268505436
 30
0.0
 11
4612.648905187824
 21
5201.876268505436
 31
0.0
  0
INSERT
  5
171C3
330
17035
100
AcDbEntity
  8
寸法
 62
     0
 48
50.0
370
    -2
100
AcDbBlockReference
  2
_DOTSMALL
 10
7892.648905187828
 20
5201.876268505436
 30
0.0
 41
100.0
 42
100.0
 43
100.0
  0
INSERT
  5
171C4
330
17035
100
AcDbEntity
  8
寸法
 62
     0
 48
50.0
370
    -2
100
AcDbBlockReference
  2
_DOTSMALL
 10
4612.648905187824
 20
5201.876268505436
 30
0.0
 41
100.0
 42
100.0
 43
100.0
 50
180.0
  0
MTEXT
  5
171C5
330
17035
100
AcDbEntity
  8
寸法
 62
     7
 48
50.0
100
AcDbMText
 10
6252.648905187815
 20
5301.888079529057
 30
0.0
 40
120.0
 41
0.0
 71
     5
 72
     1
  1
\A1;柱外寸法3280
  7
STYLE1
 73
     1
 44
1.0
1001
ACAD
1000
MTEXTBEGIN
1070
    73
1070
     1
1070
    44
1040
1.0
1070
    74
1070
     0
1000
MTEXTEND
  0
POINT
  5
171C6
330
17035
100
AcDbEntity
  8
DEFPOINTS
 62
     0
 48
50.0
100
AcDbPoint
 10
7892.648905187828
 20
4989.334683247196
 30
0.0
  0
POINT
  5
171C7
330
17035
100
AcDbEntity
  8
DEFPOINTS
 62
     0
 48
50.0
100
AcDbPoint
 10
4612.648905187824
 20
4989.334683247198
 30
0.0
  0
POINT
  5
171C8
330
17035
100
AcDbEntity
  8
DEFPOINTS
 62
     0
 48
50.0
100
AcDbPoint
 10
4612.648905187824
 20
5201.876268505436
 30
0.0
  0
ENDBLK
  5
17040
330
17035
100
AcDbEntity
  8
0
 48
50.0
100
AcDbBlockEnd
  0
BLOCK
  5
1704B
330
17041
100
AcDbEntity
  8
0
 48
50.0
100
AcDbBlockBegin
  2
*D39
 70
     1
 10
0.0
 20
0.0
 30
0.0
  3
*D39
  1

  0
LINE
  5
171B7
330
17041
100
AcDbEntity
  8
寸法
 62
     0
 48
50.0
370
    -2
100
AcDbLine
 10
4592.648905187823
 20
4735.834683247192
 30
0.0
 11
4234.54437758022
 21
4735.834683247192
 31
0.0
  0
LINE
  5
171B8
330
17041
100
AcDbEntity
  8
寸法
 62
     0
 48
50.0
370
    -2
100
AcDbLine
 10
4592.648905187823
 20
2975.834683247196
 30
0.0
 11
4234.54437758022
 21
2975.834683247196
 31
0.0
  0
LINE
  5
171B9
330
17041
100
AcDbEntity
  8
寸法
 62
     0
 48
50.0
370
    -2
100
AcDbLine
 10
4294.54437758022
 20
4735.834683247192
 30
0.0
 11
4294.54437758022
 21
2975.834683247196
 31
0.0
  0
INSERT
  5
171BA
330
17041
100
AcDbEntity
  8
寸法
 62
     0
 48
50.0
370
    -2
100
AcDbBlockReference
  2
_DOTSMALL
 10
4294.54437758022
 20
4735.834683247192
 30
0.0
 41
100.0
 42
100.0
 43
100.0
 50
90.0
  0
INSERT
  5
171BB
330
17041
100
AcDbEntity
  8
寸法
 62
     0
 48
50.0
370
    -2
100
AcDbBlockReference
  2
_DOTSMALL
 10
4294.54437758022
 20
2975.834683247196
 30
0.0
 41
100.0
 42
100.0
 43
100.0
 50
270.0
  0
MTEXT
  5
171BC
330
17041
100
AcDbEntity
  8
寸法
 62
     7
 48
50.0
100
AcDbMText
 10
4194.54437758022
 20
3854.834683247194
 30
0.0
 40
120.0
 41
0.0
 71
     5
 72
     1
  1
\A1;有効開口部高サ1760
  7
STYLE1
 11
0.0000000000000001
 21
1.0
 31
0.0
 73
     1
 44
1.0
1001
ACAD
1000
MTEXTBEGIN
1070
    73
1070
     1
1070
    44
1040
1.0
1070
    74
1070
     0
1000
MTEXTEND
  0
POINT
  5
171BD
330
17041
100
AcDbEntity
  8
DEFPOINTS
 62
     0
 48
50.0
100
AcDbPoint
 10
4612.648905187824
 20
4735.834683247192
 30
0.0
  0
POINT
  5
171BE
330
17041
100
AcDbEntity
  8
DEFPOINTS
 62
     0
 48
50.0
100
AcDbPoint
 10
4612.648905187824
 20
2975.834683247196
 30
0.0
  0
POINT
  5
171BF
330
17041
100
AcDbEntity
  8
DEFPOINTS
 62
     0
 48
50.0
100
AcDbPoint
 10
4294.54437758022
 20
2975.834683247196
 30
0.0
  0
ENDBLK
  5
1704C
330
17041
100
AcDbEntity
  8
0
 48
50.0
100
AcDbBlockEnd
  0
ENDSEC
  0
SECTION
  2
ENTITIES
  0
LINE
  5
10B56
330
747D
100
AcDbEntity
  8
補助
  6
PHANTOM
 62
   230
 48
50.0
100
AcDbLine
 10
140.0
 20
0.0
 30
0.0
 11
139.9999999999995
 21
11409.6
 31
0.0
  0
LINE
  5
10B57
330
747D
100
AcDbEntity
  8
補助
  6
PHANTOM
 62
   230
 48
50.0
100
AcDbLine
 10
139.9999999999995
 20
11409.6
 30
0.0
 11
16307.2
 21
11409.6
 31
0.0
  0
LINE
  5
10B59
330
747D
100
AcDbEntity
  8
仕様書枠
  6
Continuous
 48
50.0
100
AcDbLine
 10
13107.2
 20
1200.0
 30
0.0
 11
13107.2
 21
-0.0000000000000729
 31
0.0
  0
LINE
  5
10B5C
330
747D
100
AcDbEntity
  8
仕様書枠
 48
50.0
100
AcDbLine
 10
16307.2
 20
1200.0
 30
0.0
 11
16307.2
 21
-0.0000000000000909
 31
0.0
  0
LINE
  5
10B5D
330
747D
100
AcDbEntity
  8
仕様書枠
 48
50.0
100
AcDbLine
 10
140.0
 20
0.0
 30
0.0
 11
16307.2
 21
-0.0000000000000909
 31
0.0
  0
LINE
  5
10B5E
330
747D
100
AcDbEntity
  8
補助
  6
PHANTOM
 62
   230
 48
50.0
100
AcDbLine
 10
16307.2
 20
11409.6
 30
0.0
 11
16307.2
 21
1200.0
 31
0.0
  0
LINE
  5
10B6C
330
747D
100
AcDbEntity
  8
仕様書枠
 48
50.0
100
AcDbLine
 10
13107.2
 20
1200.0
 30
0.0
 11
16307.2
 21
1200.0
 31
0.0
  0
LINE
  5
10B6D
330
747D
100
AcDbEntity
  8
補助
  6
PHANTOM
 62
   230
 48
50.0
100
AcDbLine
 10
13107.2
 20
11409.6
 30
0.0
 11
13107.2
 21
4800.0
 31
0.0
  0
LINE
  5
10B6F
330
747D
100
AcDbEntity
  8
補助
  6
PHANTOM
 62
   230
 48
50.0
100
AcDbLine
 10
13107.2
 20
4800.0
 30
0.0
 11
16307.2
 21
4800.0
 31
0.0
  0
LINE
  5
10B72
330
747D
100
AcDbEntity
  8
文字
 62
     7
 48
50.0
100
AcDbLine
 10
13187.2
 20
400.0
 30
0.0
 11
16227.2
 21
400.0
 31
0.0
  0
TEXT
  5
10B73
330
747D
100
AcDbEntity
  8
文字
 62
     7
 48
50.0
100
AcDbText
 10
13162.9790565769
 20
895.0906074299405
 30
0.0
 40
200.0
  1
外 形 図
  7
STYLE2
100
AcDbText
  0
TEXT
  5
10B74
330
747D
100
AcDbEntity
  8
文字
 62
     7
 48
50.0
100
AcDbText
 10
13201.43669998441
 20
477.2740661031255
 30
0.0
 40
160.0
  1
機種名
  7
STYLE2
100
AcDbText
  0
TEXT
  5
10B75
330
747D
100
AcDbEntity
  8
文字
 62
     7
 48
50.0
100
AcDbText
 10
13209.4053442172
 20
228.5435242569016
 30
0.0
 40
100.0
  1
○有効開口寸法 ： 685×1760(mm)
  7
STYLE2
100
AcDbText
  0
TEXT
  5
10B76
330
747D
100
AcDbEntity
  8
文字
 62
     7
 48
50.0
100
AcDbText
 10
13209.4053442172
 20
76.09434707649343
 30
0.0
 40
100.0
  1
○床面積 ： 5.02㎡(1.52坪) 　
  7
STYLE2
100
AcDbText
  0
TEXT
  5
10B79
330
747D
100
AcDbEntity
  8
文字
 62
     7
 48
50.0
100
AcDbText
 10
14524.131837222
 20
1031.557706291228
 30
0.0
 40
100.0
  1
NO.03    <縮尺> S=1/40
  7
STYLE2
100
AcDbText
  0
LINE
  5
10B7B
330
747D
100
AcDbEntity
  8
仕様書枠
 48
50.0
100
AcDbLine
 10
13107.2
 20
800.0
 30
0.0
 11
14251.2
 21
800.0
 31
0.0
  0
LINE
  5
10B88
330
747D
100
AcDbEntity
  8
仕様書枠
  6
Continuous
 48
50.0
100
AcDbLine
 10
14251.2
 20
1200.0
 30
0.0
 11
14251.2
 21
800.0
 31
0.0
  0
TEXT
  5
13B2F
330
747D
100
AcDbEntity
  8
部品1
100
AcDbText
 10
5960.833181902632
 20
6170.651103443455
 30
0.0
 40
135.0
  1
平面図
  7
STYLE2
100
AcDbText
  0
LWPOLYLINE
  5
13B30
330
747D
100
AcDbEntity
  8
部品1
100
AcDbPolyline
 90
        4
 70
     1
 43
0.0
 10
5870.913572073595
 20
6363.544632661978
 10
5870.913572073595
 20
6123.652311116446
 10
6634.384238302034
 20
6123.652311116446
 10
6634.384238302034
 20
6363.544632661978
  0
LINE
  5
15801
330
747D
100
AcDbEntity
  8
破線
 48
10.0
100
AcDbLine
 10
7128.14890106771
 20
8478.62335068933
 30
0.0
 11
7836.148285504994
 21
8478.62332146488
 31
0.0
  0
LINE
  5
15802
330
747D
100
AcDbEntity
  8
破線
 48
10.0
100
AcDbLine
 10
7128.14890106771
 20
8528.623350689331
 30
0.0
 11
7836.148285504994
 21
8528.623321464881
 31
0.0
  0
LINE
  5
15803
330
747D
100
AcDbEntity
  8
細線
 48
50.0
100
AcDbLine
 10
7863.148905187765
 20
8751.623321461773
 30
0.0
 11
7102.148905187762
 21
9201.623321461781
 31
0.0
  0
LINE
  5
15804
330
747D
100
AcDbEntity
  8
細線
 48
50.0
100
AcDbLine
 10
7863.148905187765
 20
9201.623321461772
 30
0.0
 11
7102.148905187762
 21
8751.623321461782
 31
0.0
  0
LINE
  5
15805
330
747D
100
AcDbEntity
  8
部品1
100
AcDbLine
 10
7102.148905187762
 20
8751.623321461782
 30
0.0
 11
7863.148905187765
 21
8751.623321461773
 31
0.0
  0
LINE
  5
15806
330
747D
100
AcDbEntity
  8
部品1
100
AcDbLine
 10
7102.148905187762
 20
9201.623321461781
 30
0.0
 11
7863.148905187765
 21
9201.623321461772
 31
0.0
  0
LINE
  5
15807
330
747D
100
AcDbEntity
  8
部品1
100
AcDbLine
 10
7100.648905187755
 20
9203.123321461781
 30
0.0
 11
7864.648905187831
 21
9203.123321461831
 31
0.0
  0
DIMENSION
  5
15808
330
747D
100
AcDbEntity
  8
寸法
 48
50.0
100
AcDbDimension
  2
*D1
 10
7127.648905187832
 20
9446.931541086835
 30
0.0
 11
7482.648905187831
 21
9546.931541086834
 31
0.0
 70
    32
 71
     5
 42
710.0
  3
INABA_S40G
100
AcDbAlignedDimension
 13
7837.648905187831
 23
9231.123321461847
 33
0.0
 14
7127.648905187832
 24
9231.123321461831
 34
0.0
100
AcDbRotatedDimension
  0
LINE
  5
1580A
330
747D
100
AcDbEntity
  8
破線
 48
10.0
100
AcDbLine
 10
7812.64890518781
 20
7856.123321461824
 30
0.0
 11
7151.648905187816
 21
7856.123321461788
 31
0.0
  0
LINE
  5
1580B
330
747D
100
AcDbEntity
  8
部品1
100
AcDbLine
 10
7836.147933763015
 20
7832.623427174671
 30
0.0
 11
7128.14890518781
 21
7832.623321486446
 31
0.0
  0
LINE
  5
1580D
330
747D
100
AcDbEntity
  8
部品1
100
AcDbLine
 10
7847.648905187823
 20
7727.123321461824
 30
0.0
 11
7117.648905187824
 21
7727.123321461767
 31
0.0
  0
LINE
  5
1580E
330
747D
100
AcDbEntity
  8
部品1
 48
5.0
100
AcDbLine
 10
7849.648905187805
 20
7730.623321461774
 30
0.0
 11
7096.648905187824
 21
7730.623321461774
 31
0.0
  0
DIMENSION
  5
1580F
330
747D
100
AcDbEntity
  8
寸法
100
AcDbDimension
  2
*D2
 10
7892.648905187805
 20
6714.021446601581
 30
0.0
 11
6252.648905187815
 21
6714.021446601581
 31
0.0
 70
   160
 71
     5
 42
3279.999999999982
  3
INABA_S40G
100
AcDbAlignedDimension
 13
4612.648905187824
 23
7701.123321461641
 33
0.0
 14
7892.648905187805
 24
7701.123321461787
 34
0.0
100
AcDbRotatedDimension
1001
ACAD
1000
DSTYLE
1002
{
1002
}
  0
LINE
  5
15810
330
747D
100
AcDbEntity
  8
部品1
100
AcDbLine
 10
7892.648905187805
 20
7701.123321461817
 30
0.0
 11
5432.648905187823
 21
7701.123321461722
 31
0.0
  0
ARC
  5
15811
330
747D
100
AcDbEntity
  8
想像線
 48
10.0
100
AcDbCircle
 10
7840.296854510665
 20
7702.818214837359
 30
0.0
 40
722.649936915561
100
AcDbArc
 50
180.1343808685485
 51
270.5829222700353
  0
DIMENSION
  5
15812
330
747D
100
AcDbEntity
  8
寸法
100
AcDbDimension
  2
*D3
 10
7809.010545165124
 20
8549.5762112188
 30
0.0
 11
7481.49596730603
 21
8549.5762112188
 31
0.0
 70
   160
 71
     5
 42
761.0000000000109
  3
INABA_S40G
100
AcDbAlignedDimension
 13
7102.148905187762
 23
8751.623321461782
 33
0.0
 14
7863.148905187772
 24
8751.623321461782
 34
0.0
100
AcDbRotatedDimension
1001
ACAD
1000
DSTYLE
1002
{
1002
}
  0
LINE
  5
15813
330
747D
100
AcDbEntity
  8
部品1
 48
50.0
100
AcDbLine
 10
7043.148911865461
 20
9201.623321461847
 30
0.0
 11
7043.148911865461
 21
8751.623321461847
 31
0.0
  0
LINE
  5
15814
330
747D
100
AcDbEntity
  8
部品1
 48
50.0
100
AcDbLine
 10
7102.148905187762
 20
9201.623321461781
 30
0.0
 11
7102.148905187762
 21
8751.623321461782
 31
0.0
  0
LINE
  5
15815
330
747D
100
AcDbEntity
  8
部品1
 48
50.0
100
AcDbLine
 10
6282.148911865458
 20
9201.623321461795
 30
0.0
 11
6282.148911865461
 21
8751.623321461796
 31
0.0
  0
LINE
  5
15816
330
747D
100
AcDbEntity
  8
部品1
 48
50.0
100
AcDbLine
 10
6223.148911865461
 20
9201.623321461847
 30
0.0
 11
6223.148911865461
 21
8751.623321461847
 31
0.0
  0
LINE
  5
15817
330
747D
100
AcDbEntity
  8
部品1
 48
50.0
100
AcDbLine
 10
4642.148911865457
 20
9201.623321461795
 30
0.0
 11
4642.148911865461
 21
8751.623321461796
 31
0.0
  0
LINE
  5
15818
330
747D
100
AcDbEntity
  8
細線
 48
50.0
100
AcDbLine
 10
6223.148911865457
 20
8751.623321461847
 30
0.0
 11
5462.148911865457
 21
9201.623321461795
 31
0.0
  0
LINE
  5
15819
330
747D
100
AcDbEntity
  8
細線
 48
50.0
100
AcDbLine
 10
6223.148911865461
 20
9201.623321461847
 30
0.0
 11
5462.148911865461
 21
8751.623321461796
 31
0.0
  0
LINE
  5
1581A
330
747D
100
AcDbEntity
  8
細線
 48
50.0
100
AcDbLine
 10
7043.148911865457
 20
8751.623321461847
 30
0.0
 11
6282.148911865458
 21
9201.623321461795
 31
0.0
  0
LINE
  5
1581B
330
747D
100
AcDbEntity
  8
細線
 48
50.0
100
AcDbLine
 10
7043.148911865461
 20
9201.623321461847
 30
0.0
 11
6282.148911865461
 21
8751.623321461796
 31
0.0
  0
LINE
  5
1581C
330
747D
100
AcDbEntity
  8
部品1
 48
50.0
100
AcDbLine
 10
7100.648905187809
 20
7756.123321461773
 30
0.0
 11
7100.648905187755
 21
9231.12332146178
 31
0.0
  0
LINE
  5
1581D
330
747D
100
AcDbEntity
  8
部品1
 48
50.0
100
AcDbLine
 10
7044.648905187809
 20
7756.123321461773
 30
0.0
 11
7044.648905187758
 21
9203.123321461781
 31
0.0
  0
LINE
  5
1581E
330
747D
100
AcDbEntity
  8
部品1
 48
50.0
100
AcDbLine
 10
7072.648905187809
 20
7756.123321461773
 30
0.0
 11
7072.648905187809
 21
9176.12332146178
 31
0.0
  0
LINE
  5
1581F
330
747D
100
AcDbEntity
  8
部品1
 48
50.0
100
AcDbLine
 10
6280.648905187809
 20
7756.123321461773
 30
0.0
 11
6280.648905187754
 21
9231.12332146178
 31
0.0
  0
LINE
  5
15820
330
747D
100
AcDbEntity
  8
部品1
 48
50.0
100
AcDbLine
 10
6224.648905187809
 20
7756.123321461773
 30
0.0
 11
6224.648905187758
 21
9203.123321461781
 31
0.0
  0
LINE
  5
15821
330
747D
100
AcDbEntity
  8
部品1
 48
50.0
100
AcDbLine
 10
6252.648905187808
 20
7756.123321461773
 30
0.0
 11
6252.648905187808
 21
9176.12332146178
 31
0.0
  0
LINE
  5
15822
330
747D
100
AcDbEntity
  8
部品1
100
AcDbLine
 10
4640.648905187805
 20
7756.123321461686
 30
0.0
 11
4640.648905187831
 21
9203.123321461736
 31
0.0
  0
LINE
  5
15823
330
747D
100
AcDbEntity
  8
部品1
100
AcDbLine
 10
4612.648905187795
 20
9231.1233214617
 30
0.0
 11
4612.648905187824
 21
7701.123321461693
 31
0.0
  0
LINE
  5
15824
330
747D
100
AcDbEntity
  8
想像線
 48
10.0
100
AcDbLine
 10
7027.648905187823
 20
7701.123321461773
 30
0.0
 11
7027.648905187823
 21
6980.205677805983
 31
0.0
  0
LINE
  5
15826
330
747D
100
AcDbEntity
  8
想像線
 48
10.0
100
AcDbLine
 10
6207.648905187824
 20
7701.123321461773
 30
0.0
 11
6207.648905187824
 21
6980.205677805983
 31
0.0
  0
ARC
  5
15827
330
747D
100
AcDbEntity
  8
想像線
 48
10.0
100
AcDbCircle
 10
6200.296854510665
 20
7702.818214837342
 30
0.0
 40
722.6499369155601
100
AcDbArc
 50
180.1343808685482
 51
270.5829222700353
  0
ARC
  5
15828
330
747D
100
AcDbEntity
  8
想像線
 48
10.0
100
AcDbCircle
 10
7020.296854510665
 20
7702.818214837342
 30
0.0
 40
722.649936915561
100
AcDbArc
 50
180.1343808685484
 51
270.5829222700353
  0
LINE
  5
1582A
330
747D
100
AcDbEntity
  8
破線
 48
10.0
100
AcDbLine
 10
5489.149520750506
 20
8528.62335068621
 30
0.0
 11
6197.148905187791
 21
8528.623321461758
 31
0.0
  0
LINE
  5
1582B
330
747D
100
AcDbEntity
  8
破線
 48
10.0
100
AcDbLine
 10
5489.149520750506
 20
8478.623350686211
 30
0.0
 11
6197.148905187791
 21
8478.623321461759
 31
0.0
  0
LINE
  5
1582C
330
747D
100
AcDbEntity
  8
部品1
100
AcDbLine
 10
5462.148911865461
 20
8751.623321461796
 30
0.0
 11
6223.148911865457
 21
8751.623321461847
 31
0.0
  0
LINE
  5
1582D
330
747D
100
AcDbEntity
  8
部品1
100
AcDbLine
 10
6197.14947563599
 20
7832.622740641816
 30
0.0
 11
5489.149876614217
 21
7832.622239153292
 31
0.0
  0
LINE
  5
1582E
330
747D
100
AcDbEntity
  8
破線
 48
10.0
100
AcDbLine
 10
6173.648905187816
 20
7856.123321461758
 30
0.0
 11
5512.648905187816
 21
7856.123321461744
 31
0.0
  0
LINE
  5
1582F
330
747D
100
AcDbEntity
  8
部品1
100
AcDbLine
 10
6207.648905187824
 20
7727.123321461788
 30
0.0
 11
5477.648905187823
 21
7727.12332146176
 31
0.0
  0
LINE
  5
15830
330
747D
100
AcDbEntity
  8
部品1
 48
5.0
100
AcDbLine
 10
5456.648905187823
 20
7730.623321461658
 30
0.0
 11
6228.648905187823
 21
7730.623321461715
 31
0.0
  0
LINE
  5
15831
330
747D
100
AcDbEntity
  8
部品1
100
AcDbLine
 10
6303.648905187824
 20
7701.123321461722
 30
0.0
 11
5432.648905187823
 21
7701.123321461693
 31
0.0
  0
LINE
  5
15833
330
747D
100
AcDbEntity
  8
破線
 48
10.0
100
AcDbLine
 10
4692.648949856302
 20
8478.623349716212
 30
0.0
 11
4692.648905187816
 21
7856.123321461744
 31
0.0
  0
LINE
  5
15834
330
747D
100
AcDbEntity
  8
部品1
 48
5.0
100
AcDbLine
 10
4669.149876612787
 20
7832.623321461831
 30
0.0
 11
4669.149383681477
 21
8751.623321461744
 31
0.0
  0
LINE
  5
15835
330
747D
100
AcDbEntity
  8
部品1
 48
2.83
100
AcDbLine
 10
4644.648905187824
 20
7756.123321461656
 30
0.0
 11
4667.648905187824
 21
7756.123321461656
 31
0.0
  0
LINE
  5
15836
330
747D
100
AcDbEntity
  8
部品1
 48
2.83
100
AcDbLine
 10
4612.648905187824
 20
7756.123321461656
 30
0.0
 11
4635.648905187824
 21
7756.123321461656
 31
0.0
  0
LINE
  5
15837
330
747D
100
AcDbEntity
  8
部品1
100
AcDbLine
 10
4640.648905187805
 20
7756.123321461656
 30
0.0
 11
4612.648905187824
 21
7756.123321461656
 31
0.0
  0
LINE
  5
15838
330
747D
100
AcDbEntity
  8
部品1
100
AcDbLine
 10
4640.648905187805
 20
7756.123321461686
 30
0.0
 11
4612.648905187824
 21
7756.123321461686
 31
0.0
  0
LINE
  5
15839
330
747D
100
AcDbEntity
  8
部品1
100
AcDbLine
 10
4640.648905187823
 20
7756.1233214617
 30
0.0
 11
4612.648905187824
 21
7756.1233214617
 31
0.0
  0
LINE
  5
1583A
330
747D
100
AcDbEntity
  8
部品1
 48
50.0
100
AcDbLine
 10
4669.149876614217
 20
7832.622239153292
 30
0.0
 11
4640.648905187805
 21
7803.603068220827
 31
0.0
  0
LINE
  5
1583B
330
747D
100
AcDbEntity
  8
部品1
 48
2.83
100
AcDbLine
 10
4655.648905187823
 20
7701.123321461657
 30
0.0
 11
4612.648905187824
 21
7701.123321461657
 31
0.0
  0
LINE
  5
1583C
330
747D
100
AcDbEntity
  8
部品1
100
AcDbLine
 10
4657.648905187823
 20
7727.12332146176
 30
0.0
 11
4657.648905187823
 21
7701.123321461722
 31
0.0
  0
LINE
  5
1583D
330
747D
100
AcDbEntity
  8
部品1
 48
2.83
100
AcDbLine
 10
4655.648905187823
 20
7730.623321461656
 30
0.0
 11
4655.648905187823
 21
7701.123321461657
 31
0.0
  0
LINE
  5
1583E
330
747D
100
AcDbEntity
  8
部品1
 48
2.83
100
AcDbLine
 10
4612.648905187824
 20
7701.123321461657
 30
0.0
 11
4612.648905187824
 21
7756.123321461656
 31
0.0
  0
LINE
  5
1583F
330
747D
100
AcDbEntity
  8
部品1
100
AcDbLine
 10
4612.648905187824
 20
7756.123321461656
 30
0.0
 11
4612.648905187824
 21
7701.123321461657
 31
0.0
  0
LINE
  5
15840
330
747D
100
AcDbEntity
  8
部品1
 48
2.83
100
AcDbLine
 10
4667.648905187824
 20
7756.123321461656
 30
0.0
 11
4667.648905187827
 21
7730.623321461656
 31
0.0
  0
LINE
  5
15841
330
747D
100
AcDbEntity
  8
部品1
100
AcDbLine
 10
4640.648905187805
 20
8176.1233214617
 30
0.0
 11
4612.648905187805
 21
8176.1233214617
 31
0.0
  0
LINE
  5
15842
330
747D
100
AcDbEntity
  8
部品1
100
AcDbLine
 10
4640.648905187805
 20
8756.1233214617
 30
0.0
 11
4612.648905187805
 21
8756.1233214617
 31
0.0
  0
LINE
  5
15843
330
747D
100
AcDbEntity
  8
破線
 48
10.0
100
AcDbLine
 10
4692.648970112531
 20
8751.623321461744
 30
0.0
 11
4692.648953348754
 21
8528.623349716209
 31
0.0
  0
LINE
  5
15844
330
747D
100
AcDbEntity
  8
破線
 48
10.0
100
AcDbLine
 10
6331.648905187816
 20
7856.123321461788
 30
0.0
 11
6331.648896635161
 21
8478.623349757496
 31
0.0
  0
LINE
  5
15845
330
747D
100
AcDbEntity
  8
破線
 48
10.0
100
AcDbLine
 10
6173.648905187816
 20
7856.12332146178
 30
0.0
 11
6173.648899439847
 21
8478.623322431777
 31
0.0
  0
LINE
  5
15846
330
747D
100
AcDbEntity
  8
部品1
 48
50.0
100
AcDbLine
 10
6197.148905187809
 20
7832.62332146178
 30
0.0
 11
6197.148905187783
 21
8751.62332146184
 31
0.0
  0
LINE
  5
15847
330
747D
100
AcDbEntity
  8
部品1
 48
50.0
100
AcDbLine
 10
6308.148898843523
 20
7832.623321486439
 30
0.0
 11
6308.148901816385
 21
8751.623321461782
 31
0.0
  0
LINE
  5
15848
330
747D
100
AcDbEntity
  8
破線
 48
10.0
100
AcDbLine
 10
6993.648905187817
 20
7856.12332146178
 30
0.0
 11
6993.64889943985
 21
8478.623322431777
 31
0.0
  0
LINE
  5
15849
330
747D
100
AcDbEntity
  8
破線
 48
10.0
100
AcDbLine
 10
7151.648905187816
 20
7856.123321461788
 30
0.0
 11
7151.648896635162
 21
8478.623349757496
 31
0.0
  0
LINE
  5
1584A
330
747D
100
AcDbEntity
  8
部品1
 48
50.0
100
AcDbLine
 10
7017.148905187808
 20
7832.62332146178
 30
0.0
 11
7017.148905187784
 21
8751.62332146184
 31
0.0
  0
LINE
  5
1584B
330
747D
100
AcDbEntity
  8
部品1
 48
50.0
100
AcDbLine
 10
7128.148898843523
 20
7832.623321486439
 30
0.0
 11
7128.148901816385
 21
8751.623321461782
 31
0.0
  0
LINE
  5
1584C
330
747D
100
AcDbEntity
  8
破線
 48
10.0
100
AcDbLine
 10
6993.648905187817
 20
7856.12332146178
 30
0.0
 11
6331.648905187816
 21
7856.123321461765
 31
0.0
  0
LINE
  5
1584D
330
747D
100
AcDbEntity
  8
部品1
 48
5.0
100
AcDbLine
 10
6276.648905187824
 20
7730.623321461715
 30
0.0
 11
7048.648905187824
 21
7730.623321461774
 31
0.0
  0
LINE
  5
1584E
330
747D
100
AcDbEntity
  8
部品1
100
AcDbLine
 10
7017.148905187808
 20
7832.62332146178
 30
0.0
 11
6308.148411933926
 21
7832.622819264308
 31
0.0
  0
LINE
  5
1584F
330
747D
100
AcDbEntity
  8
部品1
100
AcDbLine
 10
7027.648905187823
 20
7727.123321461824
 30
0.0
 11
6297.648905187823
 21
7727.123321461795
 31
0.0
  0
LINE
  5
15850
330
747D
100
AcDbEntity
  8
部品1
 48
5.0
100
AcDbLine
 10
6284.648905187824
 20
7756.123321461773
 30
0.0
 11
6307.648905187823
 21
7756.123321461773
 31
0.0
  0
LINE
  5
15851
330
747D
100
AcDbEntity
  8
部品1
 48
5.0
100
AcDbLine
 10
6224.648905187809
 20
7756.123321461773
 30
0.0
 11
6280.648905187809
 21
7756.123321461773
 31
0.0
  0
LINE
  5
15852
330
747D
100
AcDbEntity
  8
部品1
 48
5.0
100
AcDbLine
 10
6220.648905187823
 20
7756.123321461773
 30
0.0
 11
6197.648905187823
 21
7756.123321461773
 31
0.0
  0
LINE
  5
15853
330
747D
100
AcDbEntity
  8
部品1
 48
50.0
100
AcDbLine
 10
6308.148905187809
 20
7832.623321486446
 30
0.0
 11
6280.648905187809
 21
7804.623321461773
 31
0.0
  0
LINE
  5
15854
330
747D
100
AcDbEntity
  8
部品1
 48
50.0
100
AcDbLine
 10
6224.648905187809
 20
7804.623321461773
 30
0.0
 11
6197.148905187809
 21
7832.62332146178
 31
0.0
  0
LINE
  5
15855
330
747D
100
AcDbEntity
  8
部品1
 48
5.0
100
AcDbLine
 10
6209.648905187823
 20
7701.123321461773
 30
0.0
 11
6295.648905187824
 21
7701.123321461773
 31
0.0
  0
LINE
  5
15856
330
747D
100
AcDbEntity
  8
部品1
 48
0.2
100
AcDbLine
 10
6194.711353016501
 20
7694.120951416995
 30
0.0
 11
6199.711353016501
 21
7694.120951416995
 31
0.0
  0
ARC
  5
15857
330
747D
100
AcDbEntity
  8
細線
 48
0.2
100
AcDbCircle
 10
6199.711353016501
 20
7702.120951416995
 30
0.0
 40
4.049999999999999
100
AcDbArc
 50
194.2603506853988
 51
345.7396493146012
  0
ARC
  5
15858
330
747D
100
AcDbEntity
  8
部品1
 48
0.2
100
AcDbCircle
 10
6194.711353016501
 20
7702.120951416995
 30
0.0
 40
8.0
100
AcDbArc
 50
187.1636477221926
 51
269.9999999999992
  0
ARC
  5
15859
330
747D
100
AcDbEntity
  8
部品1
 48
0.2
100
AcDbCircle
 10
6199.711353016501
 20
7702.120951416995
 30
0.0
 40
8.0
100
AcDbArc
 50
270.0
 51
352.8363522778074
  0
LINE
  5
1585A
330
747D
100
AcDbEntity
  8
部品1
 48
5.0
100
AcDbLine
 10
6209.648905187823
 20
7730.623321461774
 30
0.0
 11
6209.648905187823
 21
7701.123321461773
 31
0.0
  0
LINE
  5
1585B
330
747D
100
AcDbEntity
  8
部品1
100
AcDbLine
 10
6209.648905187823
 20
7730.623321461715
 30
0.0
 11
6209.64890518782
 21
7701.123321461766
 31
0.0
  0
LINE
  5
1585C
330
747D
100
AcDbEntity
  8
部品1
100
AcDbLine
 10
6207.648905187824
 20
7727.123321461824
 30
0.0
 11
6207.648905187824
 21
7701.123321461766
 31
0.0
  0
LINE
  5
1585D
330
747D
100
AcDbEntity
  8
部品1
 48
5.0
100
AcDbLine
 10
6295.648905187824
 20
7730.623321461774
 30
0.0
 11
6295.648905187824
 21
7701.123321461773
 31
0.0
  0
LINE
  5
1585E
330
747D
100
AcDbEntity
  8
部品1
100
AcDbLine
 10
6295.648905187824
 20
7730.623321461722
 30
0.0
 11
6295.648905187824
 21
7701.123321461773
 31
0.0
  0
LINE
  5
1585F
330
747D
100
AcDbEntity
  8
部品1
100
AcDbLine
 10
6297.648905187823
 20
7727.123321461795
 30
0.0
 11
6297.648905187823
 21
7701.123321461759
 31
0.0
  0
LINE
  5
15860
330
747D
100
AcDbEntity
  8
部品1
 48
5.0
100
AcDbLine
 10
6197.648905187823
 20
7756.123321461773
 30
0.0
 11
6197.648905187827
 21
7730.623321461774
 31
0.0
  0
LINE
  5
15861
330
747D
100
AcDbEntity
  8
部品1
 48
5.0
100
AcDbLine
 10
6228.648905187823
 20
7756.123321461773
 30
0.0
 11
6228.648905187823
 21
7730.623321461774
 31
0.0
  0
LINE
  5
15862
330
747D
100
AcDbEntity
  8
部品1
 48
5.0
100
AcDbLine
 10
6276.648905187827
 20
7756.123321461773
 30
0.0
 11
6276.648905187824
 21
7730.623321461774
 31
0.0
  0
LINE
  5
15863
330
747D
100
AcDbEntity
  8
部品1
 48
5.0
100
AcDbLine
 10
6307.648905187823
 20
7756.123321461773
 30
0.0
 11
6307.648905187827
 21
7730.623321461774
 31
0.0
  0
LINE
  5
15864
330
747D
100
AcDbEntity
  8
部品1
 48
5.0
100
AcDbLine
 10
6252.648905187808
 20
8176.123321461773
 30
0.0
 11
6224.648905187758
 21
8176.12332146178
 31
0.0
  0
LINE
  5
15865
330
747D
100
AcDbEntity
  8
部品1
 48
5.0
100
AcDbLine
 10
7040.648905187824
 20
7756.123321461773
 30
0.0
 11
7017.648905187823
 21
7756.123321461773
 31
0.0
  0
LINE
  5
15866
330
747D
100
AcDbEntity
  8
部品1
 48
50.0
100
AcDbLine
 10
7044.648905187809
 20
7804.623321461773
 30
0.0
 11
7017.148905187808
 21
7832.62332146178
 31
0.0
  0
ARC
  5
15867
330
747D
100
AcDbEntity
  8
部品1
 48
0.2
100
AcDbCircle
 10
7019.711353016501
 20
7702.120951416995
 30
0.0
 40
8.0
100
AcDbArc
 50
270.0
 51
352.8363522778074
  0
LINE
  5
15868
330
747D
100
AcDbEntity
  8
部品1
 48
0.2
100
AcDbLine
 10
7014.711353016501
 20
7694.120951416995
 30
0.0
 11
7019.711353016501
 21
7694.120951416995
 31
0.0
  0
ARC
  5
15869
330
747D
100
AcDbEntity
  8
細線
 48
0.2
100
AcDbCircle
 10
7019.711353016501
 20
7702.120951416995
 30
0.0
 40
4.049999999999999
100
AcDbArc
 50
194.2603506853988
 51
345.7396493146012
  0
ARC
  5
1586A
330
747D
100
AcDbEntity
  8
部品1
 48
0.2
100
AcDbCircle
 10
7014.711353016501
 20
7702.120951416995
 30
0.0
 40
8.0
100
AcDbArc
 50
187.1636477221926
 51
269.9999999999992
  0
LINE
  5
1586B
330
747D
100
AcDbEntity
  8
部品1
 48
5.0
100
AcDbLine
 10
7017.648905187823
 20
7756.123321461773
 30
0.0
 11
7017.648905187828
 21
7730.623321461774
 31
0.0
  0
LINE
  5
1586C
330
747D
100
AcDbEntity
  8
部品1
 48
5.0
100
AcDbLine
 10
7104.648905187824
 20
7756.123321461773
 30
0.0
 11
7127.648905187823
 21
7756.123321461773
 31
0.0
  0
LINE
  5
1586D
330
747D
100
AcDbEntity
  8
部品1
 48
5.0
100
AcDbLine
 10
7044.648905187809
 20
7756.123321461773
 30
0.0
 11
7100.648905187809
 21
7756.123321461773
 31
0.0
  0
LINE
  5
1586E
330
747D
100
AcDbEntity
  8
部品1
 48
50.0
100
AcDbLine
 10
7128.14890518781
 20
7832.623321486446
 30
0.0
 11
7100.648905187809
 21
7804.623321461773
 31
0.0
  0
LINE
  5
1586F
330
747D
100
AcDbEntity
  8
部品1
 48
5.0
100
AcDbLine
 10
7029.648905187824
 20
7701.123321461773
 30
0.0
 11
7115.648905187824
 21
7701.123321461773
 31
0.0
  0
LINE
  5
15870
330
747D
100
AcDbEntity
  8
部品1
 48
5.0
100
AcDbLine
 10
7029.648905187824
 20
7730.623321461774
 30
0.0
 11
7029.648905187824
 21
7701.123321461773
 31
0.0
  0
LINE
  5
15871
330
747D
100
AcDbEntity
  8
部品1
100
AcDbLine
 10
7029.648905187824
 20
7730.623321461715
 30
0.0
 11
7029.648905187819
 21
7701.123321461766
 31
0.0
  0
LINE
  5
15872
330
747D
100
AcDbEntity
  8
部品1
100
AcDbLine
 10
7027.648905187823
 20
7727.123321461824
 30
0.0
 11
7027.648905187823
 21
7701.123321461766
 31
0.0
  0
LINE
  5
15873
330
747D
100
AcDbEntity
  8
部品1
 48
5.0
100
AcDbLine
 10
7115.648905187824
 20
7730.623321461774
 30
0.0
 11
7115.648905187824
 21
7701.123321461773
 31
0.0
  0
LINE
  5
15874
330
747D
100
AcDbEntity
  8
部品1
100
AcDbLine
 10
7117.648905187824
 20
7727.123321461767
 30
0.0
 11
7117.648905187824
 21
7701.123321461773
 31
0.0
  0
LINE
  5
15875
330
747D
100
AcDbEntity
  8
部品1
100
AcDbLine
 10
7115.648905187824
 20
7730.623321461722
 30
0.0
 11
7115.648905187824
 21
7701.123321461773
 31
0.0
  0
LINE
  5
15876
330
747D
100
AcDbEntity
  8
部品1
 48
5.0
100
AcDbLine
 10
7048.648905187824
 20
7756.123321461773
 30
0.0
 11
7048.648905187824
 21
7730.623321461774
 31
0.0
  0
LINE
  5
15877
330
747D
100
AcDbEntity
  8
部品1
 48
5.0
100
AcDbLine
 10
7096.648905187826
 20
7756.123321461773
 30
0.0
 11
7096.648905187824
 21
7730.623321461774
 31
0.0
  0
LINE
  5
15878
330
747D
100
AcDbEntity
  8
部品1
 48
5.0
100
AcDbLine
 10
7127.648905187823
 20
7756.123321461773
 30
0.0
 11
7127.648905187827
 21
7730.623321461774
 31
0.0
  0
LINE
  5
15879
330
747D
100
AcDbEntity
  8
部品1
 48
5.0
100
AcDbLine
 10
7072.648905187809
 20
8176.123321461773
 30
0.0
 11
7044.648905187758
 21
8176.12332146178
 31
0.0
  0
LINE
  5
1587A
330
747D
100
AcDbEntity
  8
破線
 48
10.0
100
AcDbLine
 10
6309.149520750507
 20
8528.62335068621
 30
0.0
 11
7017.148905187791
 21
8528.623321461758
 31
0.0
  0
LINE
  5
1587B
330
747D
100
AcDbEntity
  8
破線
 48
10.0
100
AcDbLine
 10
6309.149520750507
 20
8478.623350686211
 30
0.0
 11
7017.148905187791
 21
8478.623321461759
 31
0.0
  0
LINE
  5
1587C
330
747D
100
AcDbEntity
  8
部品1
100
AcDbLine
 10
6282.148911865461
 20
8751.623321461796
 30
0.0
 11
7043.148911865457
 21
8751.623321461847
 31
0.0
  0
LINE
  5
1587E
330
747D
100
AcDbEntity
  8
破線
 48
10.0
100
AcDbLine
 10
6331.648895966456
 20
8528.623349757493
 30
0.0
 11
6331.648892756704
 21
8751.623321461782
 31
0.0
  0
LINE
  5
1587F
330
747D
100
AcDbEntity
  8
破線
 48
10.0
100
AcDbLine
 10
6173.648898990439
 20
8528.623322431782
 30
0.0
 11
6173.648896833263
 21
8751.62332146184
 31
0.0
  0
LINE
  5
15880
330
747D
100
AcDbEntity
  8
部品1
 48
5.0
100
AcDbLine
 10
6252.648905187808
 20
8756.123321461773
 30
0.0
 11
6224.648905187758
 21
8756.12332146178
 31
0.0
  0
LINE
  5
15881
330
747D
100
AcDbEntity
  8
部品1
 48
50.0
100
AcDbLine
 10
6252.648905187801
 20
8756.12332146178
 30
0.0
 11
6280.648905187783
 21
8756.12332146178
 31
0.0
  0
LINE
  5
15882
330
747D
100
AcDbEntity
  8
部品1
 48
50.0
100
AcDbLine
 10
6252.648905187801
 20
8794.12332146178
 30
0.0
 11
6280.648905187783
 21
8794.12332146178
 31
0.0
  0
LINE
  5
15883
330
747D
100
AcDbEntity
  8
破線
 48
10.0
100
AcDbLine
 10
6993.648898990439
 20
8528.623322431782
 30
0.0
 11
6993.648896833263
 21
8751.62332146184
 31
0.0
  0
LINE
  5
15884
330
747D
100
AcDbEntity
  8
破線
 48
10.0
100
AcDbLine
 10
7151.648895966459
 20
8528.623349757493
 30
0.0
 11
7151.648892756703
 21
8751.623321461782
 31
0.0
  0
LINE
  5
15885
330
747D
100
AcDbEntity
  8
部品1
 48
5.0
100
AcDbLine
 10
7072.648905187809
 20
8756.123321461773
 30
0.0
 11
7044.648905187758
 21
8756.12332146178
 31
0.0
  0
LINE
  5
15886
330
747D
100
AcDbEntity
  8
部品1
 48
50.0
100
AcDbLine
 10
7072.648905187802
 20
8756.12332146178
 30
0.0
 11
7100.648905187783
 21
8756.12332146178
 31
0.0
  0
LINE
  5
15887
330
747D
100
AcDbEntity
  8
部品1
 48
50.0
100
AcDbLine
 10
7072.648905187802
 20
8794.12332146178
 30
0.0
 11
7100.648905187783
 21
8794.12332146178
 31
0.0
  0
LINE
  5
15888
330
747D
100
AcDbEntity
  8
部品1
100
AcDbLine
 10
5460.648905187831
 20
9203.123321461736
 30
0.0
 11
6250.029608206452
 21
9203.123321461758
 31
0.0
  0
LINE
  5
15889
330
747D
100
AcDbEntity
  8
部品1
100
AcDbLine
 10
5462.148911865457
 20
9201.623321461795
 30
0.0
 11
6223.148911865461
 21
9201.623321461847
 31
0.0
  0
DIMENSION
  5
1588A
330
747D
100
AcDbEntity
  8
寸法
100
AcDbDimension
  2
*D4
 10
6197.648905187831
 20
9446.931541086835
 30
0.0
 11
5842.898905187831
 21
9446.931541086835
 31
0.0
 70
   160
 71
     5
 42
710.0
  3
INABA_S40G
100
AcDbAlignedDimension
 13
5487.648905187831
 23
9231.123321461765
 33
0.0
 14
6197.648905187831
 24
9231.123321461854
 34
0.0
100
AcDbRotatedDimension
1001
ACAD
1000
DSTYLE
1002
{
1002
}
  0
DIMENSION
  5
1588B
330
747D
100
AcDbEntity
  8
寸法
100
AcDbDimension
  2
*D5
 10
4667.648905187831
 20
9446.931541086717
 30
0.0
 11
4304.163623813554
 21
9446.931541086717
 31
0.0
 70
   160
 71
     5
 42
55.00000000003637
  3
INABA_S40G
100
AcDbAlignedDimension
 13
4612.648905187795
 23
9231.123321461737
 33
0.0
 14
4667.648905187831
 24
9231.123321461737
 34
0.0
100
AcDbRotatedDimension
1001
ACAD
1000
DSTYLE
1002
{
1002
}
  0
LINE
  5
1588C
330
747D
100
AcDbEntity
  8
部品1
100
AcDbLine
 10
4667.648905187831
 20
9231.123321461737
 30
0.0
 11
4667.648905187831
 21
9203.123321461736
 31
0.0
  0
LINE
  5
1588D
330
747D
100
AcDbEntity
  8
部品1
100
AcDbLine
 10
4667.648905187794
 20
9231.1233214617
 30
0.0
 11
4667.648905187798
 21
9203.123321461701
 31
0.0
  0
LINE
  5
1588E
330
747D
100
AcDbEntity
  8
部品1
100
AcDbLine
 10
4640.648905187798
 20
9176.123321461707
 30
0.0
 11
4612.648905187798
 21
9176.123321461707
 31
0.0
  0
LINE
  5
1588F
330
747D
100
AcDbEntity
  8
部品1
 48
50.0
100
AcDbLine
 10
4642.148911865453
 20
9201.623321461743
 30
0.0
 11
4640.648905187831
 21
9203.123321461736
 31
0.0
  0
LINE
  5
15890
330
747D
100
AcDbEntity
  8
部品1
100
AcDbLine
 10
6282.148911865458
 20
9201.623321461795
 30
0.0
 11
7043.148911865461
 21
9201.623321461847
 31
0.0
  0
LINE
  5
15891
330
747D
100
AcDbEntity
  8
部品1
100
AcDbLine
 10
6280.64890518778
 20
9203.123321461758
 30
0.0
 11
7070.029608206431
 21
9203.123321461781
 31
0.0
  0
DIMENSION
  5
15892
330
747D
100
AcDbEntity
  8
寸法
100
AcDbDimension
  2
*D6
 10
7017.64890518783
 20
9446.931541086835
 30
0.0
 11
6662.89890518783
 21
9446.931541086835
 31
0.0
 70
   160
 71
     5
 42
710.0
  3
INABA_S40G
100
AcDbAlignedDimension
 13
6307.64890518783
 23
9231.123321461765
 33
0.0
 14
7017.64890518783
 24
9231.123321461854
 34
0.0
100
AcDbRotatedDimension
1001
ACAD
1000
DSTYLE
1002
{
1002
}
  0
DIMENSION
  5
15893
330
747D
100
AcDbEntity
  8
寸法
 48
50.0
100
AcDbDimension
  2
*D7
 10
6307.64890518783
 20
9446.931541086835
 30
0.0
 11
6252.648905187831
 21
9546.931541086834
 31
0.0
 70
    32
 71
     5
 42
110.0
  3
INABA_S40G
100
AcDbAlignedDimension
 13
6197.648905187831
 23
9231.123321461854
 33
0.0
 14
6307.64890518783
 24
9231.123321461831
 34
0.0
100
AcDbRotatedDimension
  0
LINE
  5
15894
330
747D
100
AcDbEntity
  8
部品1
 48
5.0
100
AcDbLine
 10
6307.64890518783
 20
9231.12332146178
 30
0.0
 11
6307.648905187827
 21
9203.123321461788
 31
0.0
  0
LINE
  5
15895
330
747D
100
AcDbEntity
  8
部品1
 48
50.0
100
AcDbLine
 10
6282.148905187762
 20
9201.568799941522
 30
0.0
 11
6280.648905187758
 21
9203.123321461781
 31
0.0
  0
LINE
  5
15896
330
747D
100
AcDbEntity
  8
部品1
 48
50.0
100
AcDbLine
 10
6223.148911865461
 20
9201.568808802024
 30
0.0
 11
6224.648905187758
 21
9203.123321461781
 31
0.0
  0
LINE
  5
15897
330
747D
100
AcDbEntity
  8
部品1
 48
5.0
100
AcDbLine
 10
6197.648905187827
 20
9203.123321461781
 30
0.0
 11
6197.648905187831
 21
9231.12332146178
 31
0.0
  0
LINE
  5
15898
330
747D
100
AcDbEntity
  8
部品1
 48
5.0
100
AcDbLine
 10
6227.358179635004
 20
9231.12332146178
 30
0.0
 11
6250.029608206431
 21
9203.123321461781
 31
0.0
  0
LINE
  5
15899
330
747D
100
AcDbEntity
  8
部品1
 48
5.0
100
AcDbLine
 10
6280.648905187758
 20
9176.12332146178
 30
0.0
 11
6224.648905187758
 21
9176.12332146178
 31
0.0
  0
DIMENSION
  5
1589A
330
747D
100
AcDbEntity
  8
寸法
 48
50.0
100
AcDbDimension
  2
*D8
 10
7127.648905187832
 20
9446.931541086835
 30
0.0
 11
7072.64890518783
 21
9546.931541086834
 31
0.0
 70
    32
 71
     5
 42
110.0
  3
INABA_S40G
100
AcDbAlignedDimension
 13
7017.64890518783
 23
9231.123321461854
 33
0.0
 14
7127.648905187832
 24
9231.123321461831
 34
0.0
100
AcDbRotatedDimension
  0
LINE
  5
1589B
330
747D
100
AcDbEntity
  8
部品1
 48
5.0
100
AcDbLine
 10
7017.648905187828
 20
9203.123321461781
 30
0.0
 11
7017.64890518783
 21
9231.12332146178
 31
0.0
  0
LINE
  5
1589C
330
747D
100
AcDbEntity
  8
部品1
 48
5.0
100
AcDbLine
 10
7127.648905187832
 20
9231.12332146178
 30
0.0
 11
7127.648905187827
 21
9203.123321461788
 31
0.0
  0
LINE
  5
1589D
330
747D
100
AcDbEntity
  8
部品1
 48
50.0
100
AcDbLine
 10
7102.148905187762
 20
9201.568799941522
 30
0.0
 11
7100.648905187758
 21
9203.123321461781
 31
0.0
  0
LINE
  5
1589E
330
747D
100
AcDbEntity
  8
部品1
 48
50.0
100
AcDbLine
 10
7043.148911865461
 20
9201.568808802024
 30
0.0
 11
7044.648905187758
 21
9203.123321461781
 31
0.0
  0
LINE
  5
1589F
330
747D
100
AcDbEntity
  8
部品1
 48
5.0
100
AcDbLine
 10
7047.358179635004
 20
9231.12332146178
 30
0.0
 11
7070.029608206431
 21
9203.123321461781
 31
0.0
  0
LINE
  5
158A0
330
747D
100
AcDbEntity
  8
部品1
 48
5.0
100
AcDbLine
 10
7100.648905187758
 20
9176.12332146178
 30
0.0
 11
7044.648905187758
 21
9176.12332146178
 31
0.0
  0
DIMENSION
  5
158A1
330
747D
100
AcDbEntity
  8
寸法
 48
50.0
100
AcDbDimension
  2
*D9
 10
8540.075250922241
 20
8756.123321461831
 30
0.0
 11
8440.063439898617
 21
8966.123321461834
 31
0.0
 70
    32
 71
     5
 42
420.0
  3
INABA_S40G
100
AcDbAlignedDimension
 13
7892.64890518783
 23
9176.123321461831
 33
0.0
 14
7892.64890518783
 24
8756.123321461831
 34
0.0
 50
90.0
100
AcDbRotatedDimension
  0
LINE
  5
158A2
330
747D
100
AcDbEntity
  8
部品1
100
AcDbLine
 10
7863.148905187765
 20
9201.623321461772
 30
0.0
 11
7863.148905187765
 21
8751.623321461773
 31
0.0
  0
DIMENSION
  5
158A3
330
747D
100
AcDbEntity
  8
寸法
100
AcDbDimension
  2
*D10
 10
8540.075250922242
 20
9176.123321461831
 30
0.0
 11
8540.075250922241
 21
9539.608602836072
 31
0.0
 70
   160
 71
     5
 42
55.0
  3
INABA_S40G
100
AcDbAlignedDimension
 13
7892.64890518783
 23
9231.123321461831
 33
0.0
 14
7892.64890518783
 24
9176.123321461831
 34
0.0
 50
90.0
100
AcDbRotatedDimension
1001
ACAD
1000
DSTYLE
1002
{
1002
}
  0
LINE
  5
158A4
330
747D
100
AcDbEntity
  8
部品1
100
AcDbLine
 10
7864.648905187831
 20
9203.123321461831
 30
0.0
 11
7864.648905187809
 21
7756.123321461817
 31
0.0
  0
LINE
  5
158A5
330
747D
100
AcDbEntity
  8
部品1
100
AcDbLine
 10
7892.64890518783
 20
9231.123321461831
 30
0.0
 11
7892.648905187805
 21
7701.123321461817
 31
0.0
  0
DIMENSION
  5
158A6
330
747D
100
AcDbEntity
  8
寸法
100
AcDbDimension
  2
*D11
 10
8218.506631049786
 20
8656.405505792886
 30
0.0
 11
8118.506631049784
 21
8881.405505792887
 31
0.0
 70
    32
 71
     5
 42
450.0
  3
INABA_S40G
100
AcDbAlignedDimension
 13
7863.148905187765
 23
9201.623321461772
 33
0.0
 14
7863.148905187765
 24
8751.623321461773
 34
0.0
 50
90.0
100
AcDbRotatedDimension
1001
ACAD
1000
DSTYLE
1002
{
1002
}
  0
DIMENSION
  5
158A7
330
747D
100
AcDbEntity
  8
寸法
100
AcDbDimension
  2
*D12
 10
8849.186781737918
 20
7701.123321461817
 30
0.0
 11
8849.186781737918
 21
8466.123321461825
 31
0.0
 70
   160
 71
     5
 42
1530.000000000014
  3
INABA_S40G
100
AcDbAlignedDimension
 13
7892.64890518783
 23
9231.123321461831
 33
0.0
 14
7892.648905187805
 24
7701.123321461817
 34
0.0
 50
90.0
100
AcDbRotatedDimension
1001
ACAD
1000
DSTYLE
1002
{
1002
}
  0
DIMENSION
  5
158A8
330
747D
100
AcDbEntity
  8
寸法
100
AcDbDimension
  2
*D13
 10
8540.075250922217
 20
7701.123321461817
 30
0.0
 11
8540.075250922214
 21
7323.261854556955
 31
0.0
 70
   160
 71
     5
 42
55.0
  3
INABA_S40G
100
AcDbAlignedDimension
 13
7892.648905187805
 23
7756.123321461817
 33
0.0
 14
7892.648905187805
 24
7701.123321461817
 34
0.0
 50
90.0
100
AcDbRotatedDimension
1001
ACAD
1000
DSTYLE
1002
{
1002
}
  0
LINE
  5
158A9
330
747D
100
AcDbEntity
  8
想像線
 48
10.0
100
AcDbLine
 10
7847.648905187823
 20
7701.12332146178
 30
0.0
 11
7847.648905187823
 21
6980.20567780599
 31
0.0
  0
DIMENSION
  5
158AA
330
747D
100
AcDbEntity
  8
寸法
 48
50.0
100
AcDbDimension
  2
*D14
 10
8540.075250922241
 20
8176.123321461831
 30
0.0
 11
8440.075250922239
 21
8466.123321461834
 31
0.0
 70
    32
 71
     5
 42
580.0
  3
INABA_S40G
100
AcDbAlignedDimension
 13
7892.64890518783
 23
8756.123321461831
 33
0.0
 14
7892.64890518783
 24
8176.123321461831
 34
0.0
 50
90.0
100
AcDbRotatedDimension
  0
LINE
  5
158AB
330
747D
100
AcDbEntity
  8
破線
 48
10.0
100
AcDbLine
 10
7812.648949856273
 20
8478.623322473062
 30
0.0
 11
7812.648905187812
 21
7856.123321461824
 31
0.0
  0
LINE
  5
158AC
330
747D
100
AcDbEntity
  8
部品1
 48
5.0
100
AcDbLine
 10
7836.147933762873
 20
7832.623321461831
 30
0.0
 11
7836.148426694184
 21
8751.623321461773
 31
0.0
  0
DIMENSION
  5
158AD
330
747D
100
AcDbEntity
  8
寸法
 48
50.0
100
AcDbDimension
  2
*D15
 10
8540.075250922214
 20
7756.123321461831
 30
0.0
 11
8440.063439898592
 21
7966.123321461832
 31
0.0
 70
    32
 71
     5
 42
420.0
  3
INABA_S40G
100
AcDbAlignedDimension
 13
7892.64890518783
 23
8176.123321461831
 33
0.0
 14
7892.648905187837
 24
7756.123321461831
 34
0.0
 50
90.0
100
AcDbRotatedDimension
  0
LINE
  5
158AE
330
747D
100
AcDbEntity
  8
部品1
 48
2.83
100
AcDbLine
 10
7892.648905187805
 20
7756.123321461789
 30
0.0
 11
7869.648905187806
 21
7756.123321461789
 31
0.0
  0
LINE
  5
158AF
330
747D
100
AcDbEntity
  8
部品1
100
AcDbLine
 10
7864.648905187809
 20
7756.123321461817
 30
0.0
 11
7892.648905187805
 21
7756.123321461817
 31
0.0
  0
LINE
  5
158B0
330
747D
100
AcDbEntity
  8
部品1
100
AcDbLine
 10
7864.648905187838
 20
7756.123321461831
 30
0.0
 11
7892.648905187837
 21
7756.123321461831
 31
0.0
  0
LINE
  5
158B1
330
747D
100
AcDbEntity
  8
部品1
 48
2.83
100
AcDbLine
 10
7849.648905187805
 20
7730.623321461788
 30
0.0
 11
7849.648905187805
 21
7701.123321461787
 31
0.0
  0
ARC
  5
158B2
330
747D
100
AcDbEntity
  8
細線
 48
0.2
100
AcDbCircle
 10
7839.711353016501
 20
7702.120951417009
 30
0.0
 40
4.049999999999999
100
AcDbArc
 50
194.2603506853988
 51
345.7396493146012
  0
ARC
  5
158B3
330
747D
100
AcDbEntity
  8
部品1
 48
0.2
100
AcDbCircle
 10
7834.7113530165
 20
7702.120951417009
 30
0.0
 40
8.0
100
AcDbArc
 50
187.1636477221926
 51
269.9999999999992
  0
ARC
  5
158B4
330
747D
100
AcDbEntity
  8
部品1
 48
0.2
100
AcDbCircle
 10
7839.711353016501
 20
7702.120951417009
 30
0.0
 40
8.0
100
AcDbArc
 50
270.0
 51
352.8363522778074
  0
LINE
  5
158B5
330
747D
100
AcDbEntity
  8
部品1
 48
0.2
100
AcDbLine
 10
7834.7113530165
 20
7694.120951417009
 30
0.0
 11
7839.711353016501
 21
7694.120951417009
 31
0.0
  0
LINE
  5
158B6
330
747D
100
AcDbEntity
  8
部品1
100
AcDbLine
 10
7847.648905187823
 20
7727.123321461824
 30
0.0
 11
7847.648905187823
 21
7701.123321461817
 31
0.0
  0
LINE
  5
158B7
330
747D
100
AcDbEntity
  8
部品1
 48
2.83
100
AcDbLine
 10
7837.648905187805
 20
7756.123321461789
 30
0.0
 11
7837.648905187805
 21
7730.623321461788
 31
0.0
  0
LINE
  5
158B8
330
747D
100
AcDbEntity
  8
部品1
 48
50.0
100
AcDbLine
 10
7864.648905187809
 20
7803.604256269419
 30
0.0
 11
7836.147933763015
 21
7832.623427174671
 31
0.0
  0
LINE
  5
158B9
330
747D
100
AcDbEntity
  8
部品1
 48
2.83
100
AcDbLine
 10
7860.648905187805
 20
7756.123321461789
 30
0.0
 11
7837.648905187805
 21
7756.123321461789
 31
0.0
  0
LINE
  5
158BA
330
747D
100
AcDbEntity
  8
部品1
100
AcDbLine
 10
7864.648905187831
 20
8176.123321461831
 30
0.0
 11
7892.64890518783
 21
8176.123321461831
 31
0.0
  0
LINE
  5
158BB
330
747D
100
AcDbEntity
  8
部品1
100
AcDbLine
 10
7864.648905187831
 20
8756.123321461831
 30
0.0
 11
7892.64890518783
 21
8756.123321461831
 31
0.0
  0
LINE
  5
158BC
330
747D
100
AcDbEntity
  8
破線
 48
10.0
100
AcDbLine
 10
7812.648970112499
 20
8751.623321461782
 30
0.0
 11
7812.648953348729
 21
8528.623322473059
 31
0.0
  0
DIMENSION
  5
158BD
330
747D
100
AcDbEntity
  8
寸法
100
AcDbDimension
  2
*D16
 10
7892.64890518783
 20
9446.931541086813
 30
0.0
 11
8201.13418656207
 21
9446.931541086813
 31
0.0
 70
   160
 71
     5
 42
55.0
  3
INABA_S40G
100
AcDbAlignedDimension
 13
7837.648905187831
 23
9231.123321461831
 33
0.0
 14
7892.64890518783
 24
9231.123321461831
 34
0.0
100
AcDbRotatedDimension
1001
ACAD
1000
DSTYLE
1002
{
1002
}
  0
LINE
  5
158BE
330
747D
100
AcDbEntity
  8
部品1
100
AcDbLine
 10
7864.648905187831
 20
9176.123321461831
 30
0.0
 11
7892.64890518783
 21
9176.123321461831
 31
0.0
  0
LINE
  5
158BF
330
747D
100
AcDbEntity
  8
部品1
 48
50.0
100
AcDbLine
 10
7863.148898510154
 20
9201.623321461781
 30
0.0
 11
7864.648905187831
 21
9203.123321461831
 31
0.0
  0
LINE
  5
158C0
330
747D
100
AcDbEntity
  8
部品1
100
AcDbLine
 10
7837.648905187831
 20
9231.123321461847
 30
0.0
 11
7837.648905187831
 21
9203.123321461847
 31
0.0
  0
LINE
  5
158C1
330
747D
100
AcDbEntity
  8
部品1
100
AcDbLine
 10
7837.648905187831
 20
9231.123321461831
 30
0.0
 11
7837.648905187831
 21
9203.123321461831
 31
0.0
  0
LINE
  5
15B6B
330
747D
100
AcDbEntity
  8
細線
 48
50.0
100
AcDbLine
 10
4781.648905187823
 20
7727.123321461871
 30
0.0
 11
4781.648905187823
 21
7701.123321461825
 31
0.0
  0
LINE
  5
15B6C
330
747D
100
AcDbEntity
  8
細線
 48
50.0
100
AcDbLine
 10
6014.648905187823
 20
7727.123321462075
 30
0.0
 11
6014.648905187823
 21
7701.123321462039
 31
0.0
  0
LINE
  5
15B6D
330
747D
100
AcDbEntity
  8
細線
 48
50.0
100
AcDbLine
 10
5827.648905187824
 20
7727.12332146186
 30
0.0
 11
5827.648905187824
 21
7701.123321461825
 31
0.0
  0
LINE
  5
15B6E
330
747D
100
AcDbEntity
  8
細線
 48
50.0
100
AcDbLine
 10
5787.648905187824
 20
7727.12332146186
 30
0.0
 11
5787.648905187824
 21
7701.123321461825
 31
0.0
  0
LINE
  5
15B6F
330
747D
100
AcDbEntity
  8
細線
 48
50.0
100
AcDbLine
 10
6054.648905187823
 20
7727.123321462075
 30
0.0
 11
6054.648905187823
 21
7701.123321462039
 31
0.0
  0
LINE
  5
15B70
330
747D
100
AcDbEntity
  8
細線
 48
50.0
100
AcDbLine
 10
6647.648905187823
 20
7727.12332146186
 30
0.0
 11
6647.648905187823
 21
7701.123321461825
 31
0.0
  0
LINE
  5
15B71
330
747D
100
AcDbEntity
  8
細線
 48
50.0
100
AcDbLine
 10
6421.648905187824
 20
7727.123321461871
 30
0.0
 11
6421.648905187824
 21
7701.123321461825
 31
0.0
  0
LINE
  5
15B72
330
747D
100
AcDbEntity
  8
細線
 48
50.0
100
AcDbLine
 10
6607.648905187824
 20
7727.12332146186
 30
0.0
 11
6607.648905187824
 21
7701.123321461825
 31
0.0
  0
LINE
  5
15B73
330
747D
100
AcDbEntity
  8
細線
 48
50.0
100
AcDbLine
 10
6874.648905187824
 20
7727.123321462075
 30
0.0
 11
6874.648905187824
 21
7701.123321462039
 31
0.0
  0
LINE
  5
15B74
330
747D
100
AcDbEntity
  8
細線
 48
50.0
100
AcDbLine
 10
6834.648905187823
 20
7727.123321462075
 30
0.0
 11
6834.648905187823
 21
7701.123321462039
 31
0.0
  0
LINE
  5
15B75
330
747D
100
AcDbEntity
  8
細線
 48
50.0
100
AcDbLine
 10
7241.648905187823
 20
7727.123321461871
 30
0.0
 11
7241.648905187823
 21
7701.123321461825
 31
0.0
  0
LINE
  5
15B76
330
747D
100
AcDbEntity
  8
細線
 48
50.0
100
AcDbLine
 10
7654.648905187824
 20
7727.123321462075
 30
0.0
 11
7654.648905187824
 21
7701.123321462039
 31
0.0
  0
LINE
  5
15B77
330
747D
100
AcDbEntity
  8
細線
 48
50.0
100
AcDbLine
 10
7694.648905187823
 20
7727.123321462075
 30
0.0
 11
7694.648905187823
 21
7701.123321462039
 31
0.0
  0
LINE
  5
15B78
330
747D
100
AcDbEntity
  8
細線
 48
50.0
100
AcDbLine
 10
7467.648905187823
 20
7727.12332146186
 30
0.0
 11
7467.648905187823
 21
7701.123321461825
 31
0.0
  0
LINE
  5
15B79
330
747D
100
AcDbEntity
  8
細線
 48
50.0
100
AcDbLine
 10
7427.648905187822
 20
7727.12332146186
 30
0.0
 11
7427.648905187822
 21
7701.123321461825
 31
0.0
  0
LINE
  5
15B7A
330
747D
100
AcDbEntity
  8
細線
 48
50.0
100
AcDbLine
 10
5872.648905187794
 20
9209.623321461682
 30
0.0
 11
5812.648905187795
 21
9209.623321461679
 31
0.0
  0
LINE
  5
15B7B
330
747D
100
AcDbEntity
  8
細線
 48
50.0
100
AcDbLine
 10
5872.648905187794
 20
9209.623321461682
 30
0.0
 11
5872.648905187794
 21
9231.123321461685
 31
0.0
  0
LINE
  5
15B7C
330
747D
100
AcDbEntity
  8
細線
 48
50.0
100
AcDbLine
 10
5812.648905187795
 20
9209.623321461682
 30
0.0
 11
5812.648905187795
 21
9231.123321461678
 31
0.0
  0
LINE
  5
15B7D
330
747D
100
AcDbEntity
  8
細線
 48
50.0
100
AcDbLine
 10
6692.648905187795
 20
9209.623321461791
 30
0.0
 11
6632.648905187794
 21
9209.623321461789
 31
0.0
  0
LINE
  5
15B7E
330
747D
100
AcDbEntity
  8
細線
 48
50.0
100
AcDbLine
 10
6632.648905187794
 20
9209.623321461791
 30
0.0
 11
6632.648905187794
 21
9231.123321461788
 31
0.0
  0
LINE
  5
15B7F
330
747D
100
AcDbEntity
  8
細線
 48
50.0
100
AcDbLine
 10
6692.648905187795
 20
9209.623321461791
 30
0.0
 11
6692.648905187795
 21
9231.123321461796
 31
0.0
  0
LINE
  5
15B80
330
747D
100
AcDbEntity
  8
細線
 48
50.0
100
AcDbLine
 10
7512.648898510095
 20
9209.62332146194
 30
0.0
 11
7452.648898510095
 21
9209.623321461938
 31
0.0
  0
LINE
  5
15B81
330
747D
100
AcDbEntity
  8
細線
 48
50.0
100
AcDbLine
 10
7452.648898510095
 20
9209.62332146194
 30
0.0
 11
7452.648898510095
 21
9231.123321461938
 31
0.0
  0
LINE
  5
15B82
330
747D
100
AcDbEntity
  8
細線
 48
50.0
100
AcDbLine
 10
7512.648898510095
 20
9209.62332146194
 30
0.0
 11
7512.648898510095
 21
9231.123321461945
 31
0.0
  0
LINE
  5
15CEF
330
747D
100
AcDbEntity
  8
部品1
 48
50.0
100
AcDbLine
 10
5432.648905187809
 20
7756.123321461773
 30
0.0
 11
5432.648905187809
 21
9176.12332146178
 31
0.0
  0
LINE
  5
15CF0
330
747D
100
AcDbEntity
  8
部品1
 48
50.0
100
AcDbLine
 10
5404.648905187809
 20
7756.123321461773
 30
0.0
 11
5404.648905187758
 21
9203.123321461781
 31
0.0
  0
LINE
  5
15CF1
330
747D
100
AcDbEntity
  8
部品1
 48
50.0
100
AcDbLine
 10
5460.648905187809
 20
7756.123321461773
 30
0.0
 11
5460.648905187754
 21
9231.12332146178
 31
0.0
  0
LINE
  5
15CF2
330
747D
100
AcDbEntity
  8
細線
 48
50.0
100
AcDbLine
 10
5403.148911865461
 20
9201.623321461847
 30
0.0
 11
4642.148911865446
 21
8751.62332146179
 31
0.0
  0
LINE
  5
15CF3
330
747D
100
AcDbEntity
  8
細線
 48
50.0
100
AcDbLine
 10
5403.148911865457
 20
8751.623321461847
 30
0.0
 11
4642.148911865343
 21
9201.623321461848
 31
0.0
  0
LINE
  5
15CF4
330
747D
100
AcDbEntity
  8
部品1
 48
50.0
100
AcDbLine
 10
5403.148911865461
 20
9201.623321461847
 30
0.0
 11
5403.148911865461
 21
8751.623321461847
 31
0.0
  0
LINE
  5
15CF5
330
747D
100
AcDbEntity
  8
部品1
 48
50.0
100
AcDbLine
 10
5462.148911865457
 20
9201.623321461795
 30
0.0
 11
5462.148911865461
 21
8751.623321461796
 31
0.0
  0
LINE
  5
15CF6
330
747D
100
AcDbEntity
  8
部品1
 48
50.0
100
AcDbLine
 10
5488.148898843522
 20
7832.623321486439
 30
0.0
 11
5488.148901816384
 21
8751.623321461782
 31
0.0
  0
LINE
  5
15CF7
330
747D
100
AcDbEntity
  8
部品1
 48
50.0
100
AcDbLine
 10
5377.148905187809
 20
7832.62332146178
 30
0.0
 11
5377.148905187784
 21
8751.62332146184
 31
0.0
  0
LINE
  5
15CF8
330
747D
100
AcDbEntity
  8
破線
 48
10.0
100
AcDbLine
 10
5353.648905187816
 20
7856.12332146178
 30
0.0
 11
5353.648899439846
 21
8478.623322431777
 31
0.0
  0
LINE
  5
15CF9
330
747D
100
AcDbEntity
  8
破線
 48
10.0
100
AcDbLine
 10
5511.648905187816
 20
7856.123321461788
 30
0.0
 11
5511.648896635161
 21
8478.623349757496
 31
0.0
  0
LINE
  5
15CFA
330
747D
100
AcDbEntity
  8
部品1
100
AcDbLine
 10
5483.648905187823
 20
7701.123321461722
 30
0.0
 11
4612.648905187824
 21
7701.123321461692
 31
0.0
  0
LINE
  5
15CFC
330
747D
100
AcDbEntity
  8
部品1
100
AcDbLine
 10
5387.648905187823
 20
7727.123321461788
 30
0.0
 11
4657.648905187823
 21
7727.123321461755
 31
0.0
  0
LINE
  5
15CFD
330
747D
100
AcDbEntity
  8
破線
 48
10.0
100
AcDbLine
 10
5353.648905187816
 20
7856.123321461758
 30
0.0
 11
4692.648905187816
 21
7856.123321461746
 31
0.0
  0
LINE
  5
15CFE
330
747D
100
AcDbEntity
  8
部品1
100
AcDbLine
 10
5377.14947563599
 20
7832.622740641816
 30
0.0
 11
4669.149876614217
 21
7832.622239153291
 31
0.0
  0
LINE
  5
15CFF
330
747D
100
AcDbEntity
  8
細線
 48
50.0
100
AcDbLine
 10
4967.648905187823
 20
7727.12332146186
 30
0.0
 11
4967.648905187823
 21
7701.123321461825
 31
0.0
  0
LINE
  5
15D00
330
747D
100
AcDbEntity
  8
細線
 48
50.0
100
AcDbLine
 10
5007.648905187823
 20
7727.12332146186
 30
0.0
 11
5007.648905187823
 21
7701.123321461825
 31
0.0
  0
LINE
  5
15D01
330
747D
100
AcDbEntity
  8
部品1
 48
5.0
100
AcDbLine
 10
5389.648905187823
 20
7701.123321461773
 30
0.0
 11
5475.648905187823
 21
7701.123321461773
 31
0.0
  0
LINE
  5
15D02
330
747D
100
AcDbEntity
  8
部品1
 48
5.0
100
AcDbLine
 10
5404.648905187809
 20
7756.123321461773
 30
0.0
 11
5460.648905187809
 21
7756.123321461773
 31
0.0
  0
LINE
  5
15D03
330
747D
100
AcDbEntity
  8
細線
 48
50.0
100
AcDbLine
 10
5234.648905187824
 20
7727.123321462075
 30
0.0
 11
5234.648905187824
 21
7701.123321462039
 31
0.0
  0
LINE
  5
15D04
330
747D
100
AcDbEntity
  8
細線
 48
50.0
100
AcDbLine
 10
5194.648905187824
 20
7727.123321462075
 30
0.0
 11
5194.648905187824
 21
7701.123321462039
 31
0.0
  0
LINE
  5
15D05
330
747D
100
AcDbEntity
  8
部品1
 48
5.0
100
AcDbLine
 10
5408.648905187823
 20
7756.123321461773
 30
0.0
 11
5408.648905187823
 21
7730.623321461774
 31
0.0
  0
LINE
  5
15D06
330
747D
100
AcDbEntity
  8
部品1
 48
5.0
100
AcDbLine
 10
5377.648905187824
 20
7756.123321461773
 30
0.0
 11
5377.648905187827
 21
7730.623321461774
 31
0.0
  0
LINE
  5
15D07
330
747D
100
AcDbEntity
  8
部品1
100
AcDbLine
 10
5387.648905187823
 20
7727.123321461824
 30
0.0
 11
5387.648905187823
 21
7701.123321461766
 31
0.0
  0
LINE
  5
15D08
330
747D
100
AcDbEntity
  8
部品1
100
AcDbLine
 10
5389.648905187823
 20
7730.623321461715
 30
0.0
 11
5389.64890518782
 21
7701.123321461766
 31
0.0
  0
LINE
  5
15D09
330
747D
100
AcDbEntity
  8
部品1
 48
5.0
100
AcDbLine
 10
5389.648905187823
 20
7730.623321461774
 30
0.0
 11
5389.648905187823
 21
7701.123321461773
 31
0.0
  0
ARC
  5
15D0A
330
747D
100
AcDbEntity
  8
部品1
 48
0.2
100
AcDbCircle
 10
5379.7113530165
 20
7702.120951416995
 30
0.0
 40
8.0
100
AcDbArc
 50
270.0
 51
352.8363522778074
  0
ARC
  5
15D0B
330
747D
100
AcDbEntity
  8
部品1
 48
0.2
100
AcDbCircle
 10
5374.7113530165
 20
7702.120951416995
 30
0.0
 40
8.0
100
AcDbArc
 50
187.1636477221926
 51
269.9999999999992
  0
ARC
  5
15D0C
330
747D
100
AcDbEntity
  8
細線
 48
0.2
100
AcDbCircle
 10
5379.7113530165
 20
7702.120951416995
 30
0.0
 40
4.049999999999999
100
AcDbArc
 50
194.2603506853988
 51
345.7396493146012
  0
LINE
  5
15D0D
330
747D
100
AcDbEntity
  8
部品1
 48
0.2
100
AcDbLine
 10
5374.7113530165
 20
7694.120951416995
 30
0.0
 11
5379.7113530165
 21
7694.120951416995
 31
0.0
  0
LINE
  5
15D0E
330
747D
100
AcDbEntity
  8
部品1
 48
50.0
100
AcDbLine
 10
5404.648905187809
 20
7804.623321461773
 30
0.0
 11
5377.148905187809
 21
7832.62332146178
 31
0.0
  0
LINE
  5
15D0F
330
747D
100
AcDbEntity
  8
部品1
 48
5.0
100
AcDbLine
 10
5400.648905187823
 20
7756.123321461773
 30
0.0
 11
5377.648905187824
 21
7756.123321461773
 31
0.0
  0
LINE
  5
15D10
330
747D
100
AcDbEntity
  8
細線
 48
50.0
100
AcDbLine
 10
5601.648905187824
 20
7727.123321461871
 30
0.0
 11
5601.648905187824
 21
7701.123321461825
 31
0.0
  0
LINE
  5
15D11
330
747D
100
AcDbEntity
  8
部品1
 48
5.0
100
AcDbLine
 10
5487.648905187824
 20
7756.123321461773
 30
0.0
 11
5487.648905187827
 21
7730.623321461774
 31
0.0
  0
LINE
  5
15D12
330
747D
100
AcDbEntity
  8
部品1
 48
5.0
100
AcDbLine
 10
5456.648905187827
 20
7756.123321461773
 30
0.0
 11
5456.648905187823
 21
7730.623321461774
 31
0.0
  0
LINE
  5
15D13
330
747D
100
AcDbEntity
  8
部品1
100
AcDbLine
 10
5477.648905187823
 20
7727.123321461795
 30
0.0
 11
5477.648905187823
 21
7701.123321461759
 31
0.0
  0
LINE
  5
15D14
330
747D
100
AcDbEntity
  8
部品1
100
AcDbLine
 10
5475.648905187823
 20
7730.623321461722
 30
0.0
 11
5475.648905187823
 21
7701.123321461773
 31
0.0
  0
LINE
  5
15D15
330
747D
100
AcDbEntity
  8
部品1
 48
5.0
100
AcDbLine
 10
5475.648905187823
 20
7730.623321461774
 30
0.0
 11
5475.648905187823
 21
7701.123321461773
 31
0.0
  0
LINE
  5
15D16
330
747D
100
AcDbEntity
  8
部品1
 48
50.0
100
AcDbLine
 10
5488.148905187809
 20
7832.623321486446
 30
0.0
 11
5460.648905187809
 21
7804.623321461773
 31
0.0
  0
LINE
  5
15D17
330
747D
100
AcDbEntity
  8
部品1
 48
5.0
100
AcDbLine
 10
5464.648905187823
 20
7756.123321461773
 30
0.0
 11
5487.648905187824
 21
7756.123321461773
 31
0.0
  0
LINE
  5
15D1B
330
747D
100
AcDbEntity
  8
破線
 48
10.0
100
AcDbLine
 10
5353.648898990439
 20
8528.623322431782
 30
0.0
 11
5353.648896833263
 21
8751.62332146184
 31
0.0
  0
LINE
  5
15D1C
330
747D
100
AcDbEntity
  8
破線
 48
10.0
100
AcDbLine
 10
5511.648895966456
 20
8528.623349757493
 30
0.0
 11
5511.648892756705
 21
8751.623321461782
 31
0.0
  0
LINE
  5
15D1D
330
747D
100
AcDbEntity
  8
部品1
 48
5.0
100
AcDbLine
 10
5432.648905187809
 20
8176.123321461773
 30
0.0
 11
5404.648905187758
 21
8176.12332146178
 31
0.0
  0
LINE
  5
15D1E
330
747D
100
AcDbEntity
  8
部品1
 48
50.0
100
AcDbLine
 10
5432.648905187801
 20
8794.12332146178
 30
0.0
 11
5460.648905187784
 21
8794.12332146178
 31
0.0
  0
LINE
  5
15D1F
330
747D
100
AcDbEntity
  8
部品1
 48
50.0
100
AcDbLine
 10
5432.648905187801
 20
8756.12332146178
 30
0.0
 11
5460.648905187784
 21
8756.12332146178
 31
0.0
  0
LINE
  5
15D20
330
747D
100
AcDbEntity
  8
部品1
 48
5.0
100
AcDbLine
 10
5432.648905187809
 20
8756.123321461773
 30
0.0
 11
5404.648905187758
 21
8756.12332146178
 31
0.0
  0
LINE
  5
15D24
330
747D
100
AcDbEntity
  8
細線
 48
50.0
100
AcDbLine
 10
4992.648905187794
 20
9209.623321461682
 30
0.0
 11
4992.648905187794
 21
9231.123321461678
 31
0.0
  0
LINE
  5
15D25
330
747D
100
AcDbEntity
  8
細線
 48
50.0
100
AcDbLine
 10
5052.648905187794
 20
9209.623321461682
 30
0.0
 11
5052.648905187794
 21
9231.123321461685
 31
0.0
  0
LINE
  5
15D26
330
747D
100
AcDbEntity
  8
細線
 48
50.0
100
AcDbLine
 10
5052.648905187794
 20
9209.623321461682
 30
0.0
 11
4992.648905187794
 21
9209.623321461679
 31
0.0
  0
DIMENSION
  5
15D27
330
747D
100
AcDbEntity
  8
寸法
 48
50.0
100
AcDbDimension
  2
*D17
 10
5487.648905187831
 20
9446.931541086835
 30
0.0
 11
5432.64890518783
 21
9546.931541086834
 31
0.0
 70
    32
 71
     5
 42
110.0
  3
INABA_S40G
100
AcDbAlignedDimension
 13
5377.648905187831
 23
9231.123321461854
 33
0.0
 14
5487.648905187831
 24
9231.123321461831
 34
0.0
100
AcDbRotatedDimension
  0
LINE
  5
15D28
330
747D
100
AcDbEntity
  8
部品1
 48
5.0
100
AcDbLine
 10
5460.648905187758
 20
9176.12332146178
 30
0.0
 11
5404.648905187758
 21
9176.12332146178
 31
0.0
  0
LINE
  5
15D29
330
747D
100
AcDbEntity
  8
部品1
 48
5.0
100
AcDbLine
 10
5407.358179635004
 20
9231.12332146178
 30
0.0
 11
5430.029608206431
 21
9203.123321461781
 31
0.0
  0
LINE
  5
15D2A
330
747D
100
AcDbEntity
  8
部品1
 48
5.0
100
AcDbLine
 10
5377.648905187827
 20
9203.123321461781
 30
0.0
 11
5377.648905187831
 21
9231.12332146178
 31
0.0
  0
LINE
  5
15D2B
330
747D
100
AcDbEntity
  8
部品1
 48
50.0
100
AcDbLine
 10
5403.148911865461
 20
9201.568808802024
 30
0.0
 11
5404.648905187758
 21
9203.123321461781
 31
0.0
  0
LINE
  5
15D2C
330
747D
100
AcDbEntity
  8
部品1
 48
5.0
100
AcDbLine
 10
5487.648905187831
 20
9231.12332146178
 30
0.0
 11
5487.648905187827
 21
9203.123321461788
 31
0.0
  0
LINE
  5
15D2D
330
747D
100
AcDbEntity
  8
部品1
 48
50.0
100
AcDbLine
 10
5462.148905187762
 20
9201.568799941522
 30
0.0
 11
5460.648905187758
 21
9203.123321461781
 31
0.0
  0
LINE
  5
15D2E
330
747D
100
AcDbEntity
  8
想像線
 48
10.0
100
AcDbLine
 10
5387.648905187823
 20
7701.123321461773
 30
0.0
 11
5387.648905187823
 21
6980.205677805983
 31
0.0
  0
ARC
  5
15D2F
330
747D
100
AcDbEntity
  8
想像線
 48
10.0
100
AcDbCircle
 10
5380.296854510665
 20
7702.818214837342
 30
0.0
 40
722.6499369155601
100
AcDbArc
 50
180.1343808685482
 51
270.5829222700353
  0
LINE
  5
15D88
330
747D
100
AcDbEntity
  8
部品1
100
AcDbLine
 10
4612.648905187795
 20
9231.1233214617
 30
0.0
 11
7892.64890518783
 21
9231.123321461831
 31
0.0
  0
LINE
  5
15D89
330
747D
100
AcDbEntity
  8
部品1
100
AcDbLine
 10
4640.648905187832
 20
9203.123321461736
 30
0.0
 11
5430.029608206453
 21
9203.123321461758
 31
0.0
  0
LINE
  5
15D8A
330
747D
100
AcDbEntity
  8
部品1
100
AcDbLine
 10
4642.148911865404
 20
9201.623321461795
 30
0.0
 11
5403.148911865461
 21
9201.623321461847
 31
0.0
  0
LINE
  5
15D8D
330
747D
100
AcDbEntity
  8
部品1
100
AcDbLine
 10
4642.148911865461
 20
8751.62332146179
 30
0.0
 11
5403.148911865457
 21
8751.623321461847
 31
0.0
  0
LINE
  5
15D8E
330
747D
100
AcDbEntity
  8
破線
 48
10.0
100
AcDbLine
 10
4669.149507819462
 20
8528.623350686212
 30
0.0
 11
5377.148905187791
 21
8528.623321461758
 31
0.0
  0
LINE
  5
15D8F
330
747D
100
AcDbEntity
  8
破線
 48
10.0
100
AcDbLine
 10
4669.149533681546
 20
8478.623350686211
 30
0.0
 11
5377.148905187791
 21
8478.623321461759
 31
0.0
  0
LINE
  5
15D92
330
747D
100
AcDbEntity
  8
部品1
 48
5.0
100
AcDbLine
 10
4655.648905187823
 20
7730.623321461658
 30
0.0
 11
5408.648905187823
 21
7730.623321461715
 31
0.0
  0
DIMENSION
  5
15E46
330
747D
100
AcDbEntity
  8
寸法
100
AcDbDimension
  2
*D18
 10
5377.648905187831
 20
9446.931541086835
 30
0.0
 11
5022.89890518783
 21
9446.931541086835
 31
0.0
 70
   160
 71
     5
 42
710.0
  3
INABA_S40G
100
AcDbAlignedDimension
 13
4667.648905187831
 23
9231.123321461765
 33
0.0
 14
5377.648905187831
 24
9231.123321461854
 34
0.0
100
AcDbRotatedDimension
1001
ACAD
1000
DSTYLE
1002
{
1002
}
  0
DIMENSION
  5
15E53
330
747D
100
AcDbEntity
  8
寸法
100
AcDbDimension
  2
*D19
 10
6989.010545165124
 20
8549.5762112188
 30
0.0
 11
6661.49596730603
 21
8549.5762112188
 31
0.0
 70
   160
 71
     5
 42
761.0000000000109
  3
INABA_S40G
100
AcDbAlignedDimension
 13
6282.148905187762
 23
8751.623321461782
 33
0.0
 14
7043.148905187774
 24
8751.623321461782
 34
0.0
100
AcDbRotatedDimension
1001
ACAD
1000
DSTYLE
1002
{
1002
}
  0
DIMENSION
  5
15E60
330
747D
100
AcDbEntity
  8
寸法
100
AcDbDimension
  2
*D21
 10
5349.010545165123
 20
8549.5762112188
 30
0.0
 11
5021.495967306029
 21
8549.5762112188
 31
0.0
 70
   160
 71
     5
 42
761.0000000000109
  3
INABA_S40G
100
AcDbAlignedDimension
 13
4642.148905187761
 23
8751.623321461782
 33
0.0
 14
5403.148905187773
 24
8751.623321461782
 34
0.0
100
AcDbRotatedDimension
1001
ACAD
1000
DSTYLE
1002
{
1002
}
  0
DIMENSION
  5
15E61
330
747D
100
AcDbEntity
  8
寸法
100
AcDbDimension
  2
*D20
 10
6169.010545165123
 20
8549.5762112188
 30
0.0
 11
5841.49596730603
 21
8549.5762112188
 31
0.0
 70
   160
 71
     5
 42
761.0000000000109
  3
INABA_S40G
100
AcDbAlignedDimension
 13
5462.148905187762
 23
8751.623321461782
 33
0.0
 14
6223.148905187772
 24
8751.623321461782
 34
0.0
100
AcDbRotatedDimension
1001
ACAD
1000
DSTYLE
1002
{
1002
}
  0
DIMENSION
  5
15E7A
330
747D
100
AcDbEntity
  8
寸法
 48
50.0
100
AcDbDimension
  2
*D22
 10
6992.648905187824
 20
7261.299653666653
 30
0.0
 11
6650.148905187825
 21
7261.299653666653
 31
0.0
 70
   160
 71
     5
 42
684.9999999999964
  3
INABA_S40G
100
AcDbAlignedDimension
 13
6307.648905187827
 23
7701.123321461729
 33
0.0
 14
6992.648905187824
 24
7701.123321461693
 34
0.0
100
AcDbRotatedDimension
  0
DIMENSION
  5
15E92
330
747D
100
AcDbEntity
  8
寸法
 48
50.0
100
AcDbDimension
  2
*D23
 10
6172.648905187823
 20
7261.299653666653
 30
0.0
 11
5830.148905187826
 21
7261.299653666653
 31
0.0
 70
   160
 71
     5
 42
684.9999999999964
  3
INABA_S40G
100
AcDbAlignedDimension
 13
5487.648905187827
 23
7701.123321461729
 33
0.0
 14
6172.648905187823
 24
7701.123321461693
 34
0.0
100
AcDbRotatedDimension
  0
DIMENSION
  5
15EAA
330
747D
100
AcDbEntity
  8
寸法
 48
50.0
100
AcDbDimension
  2
*D24
 10
7812.648905187822
 20
7261.299653666653
 30
0.0
 11
7470.148905187824
 21
7261.299653666653
 31
0.0
 70
   160
  1
有効開口部間口\P<>
 71
     5
 42
684.9999999999964
  3
INABA_S40G
100
AcDbAlignedDimension
 13
7127.648905187825
 23
7701.123321461729
 33
0.0
 14
7812.648905187822
 24
7701.123321461693
 34
0.0
100
AcDbRotatedDimension
  0
DIMENSION
  5
15F2F
330
747D
100
AcDbEntity
  8
寸法
 48
50.0
100
AcDbDimension
  2
*D25
 10
5352.648905187823
 20
7261.299653666653
 30
0.0
 11
5010.148905187826
 21
7261.299653666653
 31
0.0
 70
   160
 71
     5
 42
684.9999999999964
  3
INABA_S40G
100
AcDbAlignedDimension
 13
4667.648905187827
 23
7701.123321461729
 33
0.0
 14
5352.648905187823
 24
7701.123321461693
 34
0.0
100
AcDbRotatedDimension
  0
MTEXT
  5
16520
330
747D
100
AcDbEntity
  8
寸法
 62
     7
 48
50.0
100
AcDbMText
 10
6677.928702798348
 20
8821.237068999041
 30
0.0
 40
96.0
 41
0.0
 71
     5
 72
     1
  1
棚 2段
  7
STYLE1
 73
     1
 44
1.0
1001
ACAD
1000
MTEXTBEGIN
1070
    73
1070
     1
1070
    44
1040
1.0
1070
    74
1070
     0
1000
MTEXTEND
  0
DIMENSION
  5
16521
330
747D
100
AcDbEntity
  8
寸法
100
AcDbDimension
  2
*D26
 10
9677.557727056003
 20
2964.334683247196
 30
0.0
 11
9677.557727056003
 21
3869.369695123582
 31
0.0
 70
   160
 71
     5
 42
1789.999999999999
  3
INABA_S40G
100
AcDbAlignedDimension
 13
10272.51844770343
 23
4754.334683247194
 33
0.0
 14
10272.51844770343
 24
2964.334683247196
 34
0.0
 50
90.0
100
AcDbRotatedDimension
1001
ACAD
1000
DSTYLE
1002
{
1070
   288
1070
     1
1002
}
  0
LINE
  5
16522
330
747D
100
AcDbEntity
  8
部品1
 48
50.0
100
AcDbLine
 10
10272.51844770343
 20
2964.334683247196
 30
0.0
 11
10279.5208177482
 21
2964.334683247196
 31
0.0
  0
LINE
  5
16523
330
747D
100
AcDbEntity
  8
部品1
 48
0.2
100
AcDbLine
 10
10272.51844770343
 20
2975.084683247196
 30
0.0
 11
10272.51844770343
 21
2964.334683247196
 31
0.0
  0
LINE
  5
16524
330
747D
100
AcDbEntity
  8
部品1
 48
50.0
100
AcDbLine
 10
10272.51844770343
 20
2975.084683247196
 30
0.0
 11
10279.5208177482
 21
2975.084683247196
 31
0.0
  0
LINE
  5
16525
330
747D
100
AcDbEntity
  8
部品1
 48
50.0
100
AcDbLine
 10
10272.51844770343
 20
4743.584683247192
 30
0.0
 11
10279.5208177482
 21
4743.584683247192
 31
0.0
  0
LINE
  5
16526
330
747D
100
AcDbEntity
  8
部品1
 48
0.2
100
AcDbLine
 10
10272.51844770343
 20
4754.334683247193
 30
0.0
 11
10272.51844770343
 21
4743.584683247195
 31
0.0
  0
LINE
  5
16527
330
747D
100
AcDbEntity
  8
部品1
 48
50.0
100
AcDbLine
 10
10894.52081774821
 20
5120.202822348472
 30
0.0
 11
11194.52081774821
 21
5098.602822348474
 31
0.0
  0
LINE
  5
16528
330
747D
100
AcDbEntity
  8
細線
 48
50.0
100
AcDbLine
 10
11412.02081774821
 20
4754.334683247193
 30
0.0
 11
11412.02081774821
 21
2964.334683247193
 31
0.0
  0
LINE
  5
16529
330
747D
100
AcDbEntity
  8
細線
 48
50.0
100
AcDbLine
 10
11397.02081774821
 20
4754.334683247193
 30
0.0
 11
11397.02081774821
 21
2964.334683247193
 31
0.0
  0
LINE
  5
1652A
330
747D
100
AcDbEntity
  8
細線
 48
50.0
100
AcDbLine
 10
11537.02081774821
 20
4754.334683247193
 30
0.0
 11
11537.02081774821
 21
2964.334683247193
 31
0.0
  0
LINE
  5
1652B
330
747D
100
AcDbEntity
  8
細線
 48
50.0
100
AcDbLine
 10
11552.02081774821
 20
4754.334683247193
 30
0.0
 11
11552.02081774821
 21
2964.334683247193
 31
0.0
  0
LINE
  5
1652C
330
747D
100
AcDbEntity
  8
細線
 48
50.0
100
AcDbLine
 10
11692.02081774821
 20
4754.334683247193
 30
0.0
 11
11692.02081774821
 21
2964.334683247193
 31
0.0
  0
LINE
  5
1652D
330
747D
100
AcDbEntity
  8
細線
 48
50.0
100
AcDbLine
 10
11677.02081774821
 20
4754.334683247193
 30
0.0
 11
11677.02081774821
 21
2964.334683247193
 31
0.0
  0
LINE
  5
1652E
330
747D
100
AcDbEntity
  8
部品1
100
AcDbLine
 10
11334.5208177482
 20
4754.334683247193
 30
0.0
 11
11334.5208177482
 21
2964.334683247193
 31
0.0
  0
TEXT
  5
1652F
330
747D
100
AcDbEntity
  8
部品1
 48
50.0
100
AcDbText
 10
11371.61366503607
 20
5018.585586282623
 30
0.0
 40
120.0
  1
64
 50
90.0
  7
STYLE1
100
AcDbText
  0
TEXT
  5
16530
330
747D
100
AcDbEntity
  8
部品1
 48
50.0
100
AcDbText
 10
10882.78865297193
 20
5156.086844500905
 30
0.0
 40
120.0
  1
1000
  7
STYLE1
100
AcDbText
  0
LINE
  5
16531
330
747D
100
AcDbEntity
  8
部品1
 48
50.0
100
AcDbLine
 10
11194.52081774821
 20
5120.202822348472
 30
0.0
 11
11194.52081774821
 21
5098.602822348474
 31
0.0
  0
LINE
  5
16532
330
747D
100
AcDbEntity
  8
部品1
 48
50.0
100
AcDbLine
 10
10894.52081774821
 20
5120.202822348472
 30
0.0
 11
11194.52081774821
 21
5120.202822348472
 31
0.0
  0
DIMENSION
  5
16533
330
747D
100
AcDbEntity
  8
寸法
 48
50.0
100
AcDbDimension
  2
*D27
 10
9627.25456603683
 20
5011.157174144009
 30
0.0
 11
9635.932309688717
 21
5240.993413160897
 31
0.0
 70
   160
 71
     5
 42
141.0
  3
INABA_S40G
100
AcDbAlignedDimension
 13
10234.86338235016
 23
4847.11570831616
 33
0.0
 14
10240.18321650211
 24
4988.015315713043
 34
0.0
 50
87.83775598715743
100
AcDbRotatedDimension
1001
ACAD
1000
DSTYLE
1002
{
1070
   174
1070
     0
1070
   272
1070
     1
1070
   288
1070
     0
1070
   341
1005
0
1002
}
  0
DIMENSION
  5
16534
330
747D
100
AcDbEntity
  8
寸法
 48
50.0
100
AcDbDimension
  2
*D28
 10
11889.5208177482
 20
5387.992136826497
 30
0.0
 11
12095.56806184269
 21
5387.992136826497
 31
0.0
 70
   160
 71
     5
 42
80.0
  3
INABA_S40G
100
AcDbAlignedDimension
 13
11809.5208177482
 23
4936.145362858846
 33
0.0
 14
11889.5208177482
 24
4934.334683247194
 34
0.0
100
AcDbRotatedDimension
1001
ACAD
1000
DSTYLE
1002
{
1070
   174
1070
     0
1070
   272
1070
     1
1070
   288
1070
     0
1070
   341
1005
0
1002
}
  0
ARC
  5
16535
330
747D
100
AcDbEntity
  8
部品1
100
AcDbCircle
 10
11875.14835356214
 20
4827.768484131411
 30
0.0
 40
0.7
100
AcDbArc
 50
275.0921697642102
 51
354.1866997667606
  0
ARC
  5
16536
330
747D
100
AcDbEntity
  8
部品1
100
AcDbCircle
 10
11886.00769931146
 20
4904.811738949335
 30
0.0
 40
0.7
100
AcDbArc
 50
275.0921697642102
 51
354.1866997665596
  0
ARC
  5
16537
330
747D
100
AcDbEntity
  8
部品1
100
AcDbCircle
 10
11886.33610455406
 20
4901.126342092243
 30
0.0
 40
3.0
100
AcDbArc
 50
95.0921697642102
 51
174.1866997665596
  0
ARC
  5
16538
330
747D
100
AcDbEntity
  8
部品1
100
AcDbCircle
 10
11875.47675880474
 20
4824.083087274321
 30
0.0
 40
3.0
100
AcDbArc
 50
95.0921697642102
 51
174.1866997665596
  0
ARC
  5
16539
330
747D
100
AcDbEntity
  8
部品1
 48
50.0
100
AcDbCircle
 10
11864.44862352963
 20
4814.49234267044
 30
0.0
 40
7.0
100
AcDbArc
 50
267.8377559869489
 51
354.1866997665596
  0
ARC
  5
1653A
330
747D
100
AcDbEntity
  8
部品1
 48
50.0
100
AcDbCircle
 10
11881.77071999415
 20
4925.394889812611
 30
0.0
 40
7.0
100
AcDbArc
 50
354.1866997665596
 51
87.03587545283093
  0
LINE
  5
1653B
330
747D
100
AcDbEntity
  8
部品1
 48
50.0
100
AcDbLine
 10
11872.49218713413
 20
4824.386948991223
 30
0.0
 11
11871.41262409439
 21
4813.783331997665
 31
0.0
  0
LINE
  5
1653C
330
747D
100
AcDbEntity
  8
部品1
 48
50.0
100
AcDbLine
 10
11883.35153288345
 20
4901.430203809148
 30
0.0
 11
11875.84475361862
 21
4827.697583064135
 31
0.0
  0
LINE
  5
1653D
330
747D
100
AcDbEntity
  8
部品1
 48
50.0
100
AcDbLine
 10
11888.7347205589
 20
4924.685879139837
 30
0.0
 11
11886.70409936793
 21
4904.740837882056
 31
0.0
  0
ARC
  5
1653E
330
747D
100
AcDbEntity
  8
部品1
100
AcDbCircle
 10
10225.55790961957
 20
4868.148842206097
 30
0.0
 40
0.7
100
AcDbArc
 50
181.0932240292114
 51
260.1877540314855
  0
ARC
  5
1653F
330
747D
100
AcDbEntity
  8
部品1
100
AcDbCircle
 10
10220.78523602196
 20
4961.014620406217
 30
0.0
 40
0.7
100
AcDbArc
 50
181.0932240292114
 51
260.1877540314855
  0
ARC
  5
16540
330
747D
100
AcDbEntity
  8
部品1
100
AcDbCircle
 10
10220.15468161894
 20
4957.368745868818
 30
0.0
 40
3.0
100
AcDbArc
 50
1.093224029315636
 51
80.18775403169653
  0
ARC
  5
16541
330
747D
100
AcDbEntity
  8
部品1
100
AcDbCircle
 10
10224.92735521654
 20
4864.502967668698
 30
0.0
 40
3.0
100
AcDbArc
 50
1.093224029315636
 51
80.18775403148559
  0
ARC
  5
16542
330
747D
100
AcDbEntity
  8
部品1
 48
50.0
100
AcDbCircle
 10
10235.12748759175
 20
4854.110724286218
 30
0.0
 40
7.0
100
AcDbArc
 50
181.0932240293156
 51
267.8377559869489
  0
ARC
  5
16543
330
747D
100
AcDbEntity
  8
部品1
 48
50.0
100
AcDbCircle
 10
10226.70382948965
 20
4981.061783819313
 30
0.0
 40
7.0
100
AcDbArc
 50
87.03587545283093
 51
181.0932240293156
  0
LINE
  5
16544
330
747D
100
AcDbEntity
  8
部品1
 48
50.0
100
AcDbLine
 10
10227.92680914297
 20
4864.560205271882
 30
0.0
 11
10228.12876176341
 21
4853.97716987879
 31
0.0
  0
LINE
  5
16545
330
747D
100
AcDbEntity
  8
細線
 48
50.0
100
AcDbLine
 10
10225.3207160863
 20
4867.490253390691
 30
0.0
 11
11875.32438051694
 21
4827.090978034623
 31
0.0
  0
LINE
  5
16546
330
747D
100
AcDbEntity
  8
細線
 48
50.0
100
AcDbLine
 10
10220.56024084902
 20
4960.351765088555
 30
0.0
 11
11886.19622559419
 21
4904.137604066153
 31
0.0
  0
LINE
  5
16547
330
747D
100
AcDbEntity
  8
部品1
 48
50.0
100
AcDbLine
 10
10223.15413554537
 20
4957.425983472002
 30
0.0
 11
10224.85803703673
 21
4868.135486765355
 31
0.0
  0
LINE
  5
16548
330
747D
100
AcDbEntity
  8
部品1
 48
50.0
100
AcDbLine
 10
10219.70510366131
 20
4980.928229411886
 30
0.0
 11
10220.08536343912
 21
4961.001264965474
 31
0.0
  0
LINE
  5
16549
330
747D
100
AcDbEntity
  8
細線
 48
50.0
100
AcDbLine
 10
11856.52081774821
 20
4933.711705900915
 30
0.0
 11
11851.7731348602
 21
4807.96593341017
 31
0.0
  0
LINE
  5
1654A
330
747D
100
AcDbEntity
  8
細線
 48
50.0
100
AcDbLine
 10
10252.5208177482
 20
4986.734359622598
 30
0.0
 11
10247.23171619269
 21
4846.648726995243
 31
0.0
  0
LINE
  5
1654B
330
747D
100
AcDbEntity
  8
部品1
100
AcDbLine
 10
10234.86338235016
 20
4847.11570831616
 30
0.0
 11
11864.18451828805
 21
4807.497326700381
 31
0.0
  0
LINE
  5
1654C
330
747D
100
AcDbEntity
  8
部品1
100
AcDbLine
 10
10227.06580410517
 20
4988.052418581459
 30
0.0
 11
11882.13269460967
 21
4932.385524574758
 31
0.0
  0
LINE
  5
1654D
330
747D
100
AcDbEntity
  8
細線
 48
50.0
100
AcDbLine
 10
10412.0208177482
 20
4754.334683247193
 30
0.0
 11
10412.0208177482
 21
2964.334683247193
 31
0.0
  0
LINE
  5
1654E
330
747D
100
AcDbEntity
  8
細線
 48
50.0
100
AcDbLine
 10
10397.0208177482
 20
4754.334683247193
 30
0.0
 11
10397.0208177482
 21
2964.334683247193
 31
0.0
  0
LINE
  5
1654F
330
747D
100
AcDbEntity
  8
細線
 48
50.0
100
AcDbLine
 10
10537.0208177482
 20
4754.334683247193
 30
0.0
 11
10537.0208177482
 21
2964.334683247193
 31
0.0
  0
LINE
  5
16550
330
747D
100
AcDbEntity
  8
細線
 48
50.0
100
AcDbLine
 10
10552.0208177482
 20
4754.334683247193
 30
0.0
 11
10552.0208177482
 21
2964.334683247193
 31
0.0
  0
LINE
  5
16551
330
747D
100
AcDbEntity
  8
細線
 48
50.0
100
AcDbLine
 10
10692.0208177482
 20
4754.334683247193
 30
0.0
 11
10692.0208177482
 21
2964.334683247193
 31
0.0
  0
LINE
  5
16552
330
747D
100
AcDbEntity
  8
細線
 48
50.0
100
AcDbLine
 10
10677.0208177482
 20
4754.334683247193
 30
0.0
 11
10677.0208177482
 21
2964.334683247193
 31
0.0
  0
LINE
  5
16553
330
747D
100
AcDbEntity
  8
細線
 48
50.0
100
AcDbLine
 10
11254.5208177482
 20
4754.334683247193
 30
0.0
 11
11254.5208177482
 21
2964.334683247193
 31
0.0
  0
LINE
  5
16554
330
747D
100
AcDbEntity
  8
細線
 48
50.0
100
AcDbLine
 10
11269.5208177482
 20
4754.334683247193
 30
0.0
 11
11269.5208177482
 21
2964.334683247193
 31
0.0
  0
LWPOLYLINE
  5
16555
330
747D
100
AcDbEntity
  8
部品1
100
AcDbPolyline
 90
        4
 70
     1
 43
0.0
 10
10592.78548463398
 20
2211.258102430476
 10
10592.78548463398
 20
1971.365780884944
 10
11356.25615086242
 20
1971.365780884944
 10
11356.25615086242
 20
2211.258102430476
  0
TEXT
  5
16556
330
747D
100
AcDbEntity
  8
部品1
100
AcDbText
 10
10682.23158605759
 20
2018.364573211951
 30
0.0
 40
135.0
  1
側面図
  7
STYLE2
100
AcDbText
  0
LINE
  5
16557
330
747D
100
AcDbEntity
  8
部品1
100
AcDbLine
 10
10279.5208177482
 20
2914.334683247195
 30
0.0
 11
11809.52081774821
 21
2914.334683247193
 31
0.0
  0
DIMENSION
  5
16558
330
747D
100
AcDbEntity
  8
寸法
 48
50.0
100
AcDbDimension
  2
*D29
 10
10219.52081774821
 20
5596.166458018461
 30
0.0
 11
11106.64564745003
 21
5596.166458018461
 31
0.0
 70
   160
 71
     5
 42
1670.0
  3
INABA_S40G
100
AcDbAlignedDimension
 13
11889.5208177482
 23
4934.334683247194
 33
0.0
 14
10219.52081774821
 24
4989.334683247198
 34
0.0
100
AcDbRotatedDimension
1001
ACAD
1000
DSTYLE
1002
{
1070
   174
1070
     0
1070
   272
1070
     1
1070
   288
1070
     0
1070
   341
1005
0
1002
}
  0
DIMENSION
  5
16559
330
747D
100
AcDbEntity
  8
寸法
 48
50.0
100
AcDbDimension
  2
*D30
 10
10219.52081774821
 20
5387.992136826497
 30
0.0
 11
9909.883022472618
 21
5387.992136826497
 31
0.0
 70
   160
 71
     5
 42
60.0
  3
INABA_S40G
100
AcDbAlignedDimension
 13
10279.5208177482
 23
4985.336301370169
 33
0.0
 14
10219.52081774821
 24
4989.334683247198
 34
0.0
100
AcDbRotatedDimension
1001
ACAD
1000
DSTYLE
1002
{
1070
   174
1070
     0
1070
   272
1070
     1
1070
   288
1070
     0
1070
   341
1005
0
1002
}
  0
DIMENSION
  5
1655A
330
747D
100
AcDbEntity
  8
寸法
 48
50.0
100
AcDbDimension
  2
*D31
 10
10279.5208177482
 20
5387.992136826497
 30
0.0
 11
11089.33985063875
 21
5387.992136826497
 31
0.0
 70
   160
  1
柱外寸法<>
 71
     5
 42
1530.0
  3
INABA_S40G
100
AcDbAlignedDimension
 13
11809.5208177482
 23
4936.145362858846
 33
0.0
 14
10279.5208177482
 24
4985.336301370169
 34
0.0
100
AcDbRotatedDimension
1001
ACAD
1000
DSTYLE
1002
{
1070
   174
1070
     0
1070
   272
1070
     1
1070
   288
1070
     0
1070
   341
1005
0
1002
}
  0
DIMENSION
  5
1655B
330
747D
100
AcDbEntity
  8
寸法
100
AcDbDimension
  2
*D32
 10
12514.44797572033
 20
4934.334683247194
 30
0.0
 11
12414.43616469671
 21
3924.334683247197
 31
0.0
 70
    32
 71
     5
 42
2020.0
  3
INABA_S40G
100
AcDbAlignedDimension
 13
11809.52081774821
 23
2914.334683247195
 33
0.0
 14
11889.5208177482
 24
4934.334683247194
 34
0.0
 50
90.0
100
AcDbRotatedDimension
1001
ACAD
1000
DSTYLE
1002
{
1070
   174
1070
     0
1070
   272
1070
     1
1070
   288
1070
     0
1070
   341
1005
0
1002
}
  0
LINE
  5
1655C
330
747D
100
AcDbEntity
  8
部品1
100
AcDbLine
 10
11754.52081774821
 20
4754.334683247193
 30
0.0
 11
11754.52081774821
 21
2964.334683247193
 31
0.0
  0
LINE
  5
1655D
330
747D
100
AcDbEntity
  8
部品1
100
AcDbLine
 10
11809.5208177482
 20
4808.971264082446
 30
0.0
 11
11809.52081774821
 21
2814.334683247193
 31
0.0
  0
LINE
  5
1655E
330
747D
100
AcDbEntity
  8
部品1
100
AcDbLine
 10
10754.5208177482
 20
4754.334683247193
 30
0.0
 11
10754.5208177482
 21
2964.334683247193
 31
0.0
  0
DIMENSION
  5
1655F
330
747D
100
AcDbEntity
  8
寸法
100
AcDbDimension
  2
*D33
 10
9677.557727056003
 20
2914.334683247195
 30
0.0
 11
9677.557727056003
 21
2608.287439152704
 31
0.0
 70
   160
 71
     5
 42
50.00000000000182
  3
INABA_S40G
100
AcDbAlignedDimension
 13
10272.51844770343
 23
2964.334683247196
 33
0.0
 14
10224.5208177482
 24
2914.334683247195
 34
0.0
 50
90.0
100
AcDbRotatedDimension
1001
ACAD
1000
DSTYLE
1002
{
1070
   174
1070
     0
1070
   272
1070
     1
1070
   288
1070
     0
1070
   341
1005
0
1002
}
  0
DIMENSION
  5
16560
330
747D
100
AcDbEntity
  8
寸法
100
AcDbDimension
  2
*D34
 10
9375.249006107727
 20
4989.334683247198
 30
0.0
 11
9375.249006107727
 21
3889.541673666996
 31
0.0
 70
   160
 71
     5
 42
2075.000000000003
  3
INABA_S40G
100
AcDbAlignedDimension
 13
10279.5208177482
 23
2914.334683247195
 33
0.0
 14
10219.52081774821
 24
4989.334683247198
 34
0.0
 50
90.0
100
AcDbRotatedDimension
1001
ACAD
1000
DSTYLE
1002
{
1070
   174
1070
     0
1070
   272
1070
     1
1070
   288
1070
     0
1070
   341
1005
0
1002
}
  0
LINE
  5
16561
330
747D
100
AcDbEntity
  8
部品1
100
AcDbLine
 10
10279.52081774821
 20
4845.911577187635
 30
0.0
 11
10279.5208177482
 21
2814.334683247193
 31
0.0
  0
LINE
  5
16562
330
747D
100
AcDbEntity
  8
部品1
100
AcDbLine
 10
10334.5208177482
 20
4754.334683247193
 30
0.0
 11
10334.5208177482
 21
2964.334683247193
 31
0.0
  0
LINE
  5
16563
330
747D
100
AcDbEntity
  8
部品1
100
AcDbLine
 10
10279.5208177482
 20
2964.334683247193
 30
0.0
 11
11809.52081774821
 21
2964.334683247195
 31
0.0
  0
LINE
  5
16564
330
747D
100
AcDbEntity
  8
部品1
100
AcDbLine
 10
10272.51844770343
 20
4754.334683247194
 30
0.0
 11
11809.52081774821
 21
4754.334683247193
 31
0.0
  0
TEXT
  5
16565
330
747D
100
AcDbEntity
  8
文字
 62
     7
 48
50.0
100
AcDbText
 10
13583.1181901657
 20
9570.013745883729
 30
0.0
 40
100.0
  1
母屋中
  7
STYLE1
100
AcDbText
  0
TEXT
  5
16566
330
747D
100
AcDbEntity
  8
文字
 62
     7
 48
50.0
100
AcDbText
 10
15022.63965474518
 20
9570.013745883725
 30
0.0
 40
100.0
  1
F12            1.0
  7
STYLE1
100
AcDbText
  0
TEXT
  5
16567
330
747D
100
AcDbEntity
  8
文字
 62
     7
 48
50.0
100
AcDbText
 10
13248.77747366447
 20
8890.013745883731
 30
0.0
 40
100.0
  1
14
  7
STYLE1
100
AcDbText
  0
LINE
  5
16568
330
747D
100
AcDbEntity
  8
仕様書枠
 48
50.0
100
AcDbLine
 10
16307.2
 20
9539.6
 30
0.0
 11
13127.2
 21
9539.6
 31
0.0
  0
TEXT
  5
16569
330
747D
100
AcDbEntity
  8
文字
 62
     7
 48
50.0
100
AcDbText
 10
14271.39351435261
 20
483.8967129911416
 30
0.0
 40
160.0
  1
ＮＸＮ－１２ＤＬ－４
  7
STYLE2
100
AcDbText
  0
TEXT
  5
1656A
330
747D
100
AcDbEntity
  8
文字
 62
     7
 48
50.0
100
AcDbText
 10
13583.11819016568
 20
8890.013745883733
 30
0.0
 40
100.0
  1
棚板
  7
STYLE1
100
AcDbText
  0
TEXT
  5
1656B
330
747D
100
AcDbEntity
  8
文字
 62
     7
 48
50.0
100
AcDbText
 10
15022.63965474515
 20
8890.013745883729
 30
0.0
 40
100.0
  1
F12            0.6
  7
STYLE1
100
AcDbText
  0
TEXT
  5
1656C
330
747D
100
AcDbEntity
  8
文字
 62
     7
 48
50.0
100
AcDbText
 10
13583.11819016568
 20
9060.013745883729
 30
0.0
 40
100.0
  1
扉
  7
STYLE1
100
AcDbText
  0
TEXT
  5
1656D
330
747D
100
AcDbEntity
  8
文字
 62
     7
 48
50.0
100
AcDbText
 10
15022.63965474515
 20
9060.013745883725
 30
0.0
 40
100.0
  1
F12            0.8
  7
STYLE1
100
AcDbText
  0
TEXT
  5
1656E
330
747D
100
AcDbEntity
  8
文字
 62
     7
 48
50.0
100
AcDbText
 10
15022.63965474518
 20
10590.01374588372
 30
0.0
 40
100.0
  1
F12            1.0
  7
STYLE1
100
AcDbText
  0
TEXT
  5
1656F
330
747D
100
AcDbEntity
  8
文字
 62
     7
 48
50.0
100
AcDbText
 10
13583.11819016571
 20
10590.01374588373
 30
0.0
 40
100.0
  1
床パネル
 41
0.9
  7
STYLE1
100
AcDbText
  0
LINE
  5
16570
330
747D
100
AcDbEntity
  8
仕様書枠
 48
50.0
100
AcDbLine
 10
16307.19999999999
 20
8689.6
 30
0.0
 11
13127.19999999999
 21
8689.600000000003
 31
0.0
  0
LINE
  5
16571
330
747D
100
AcDbEntity
  8
仕様書枠
 48
50.0
100
AcDbLine
 10
13127.2
 20
11409.6
 30
0.0
 11
13127.19999999999
 21
8349.600000000004
 31
0.0
  0
TEXT
  5
16572
330
747D
100
AcDbEntity
  8
文字
 62
     7
 48
50.0
100
AcDbText
 10
13229.83081656554
 20
8380.013745883728
 30
0.0
 40
100.0
  1
Y10→溶融亜鉛-5％アルミニウム合金めっき鋼板(JIS G 3317)
 41
0.9
  7
STYLE1
100
AcDbText
  0
TEXT
  5
16573
330
747D
100
AcDbEntity
  8
文字
 62
     7
 48
50.0
100
AcDbText
 10
13229.83081656554
 20
8550.013745883729
 30
0.0
 40
100.0
  1
F12→溶融亜鉛めっき鋼板(JIS G 3302)
  7
STYLE1
100
AcDbText
  0
LINE
  5
16574
330
747D
100
AcDbEntity
  8
仕様書枠
 48
50.0
100
AcDbLine
 10
16307.19999999998
 20
8349.600000000004
 30
0.0
 11
13127.19999999999
 21
8349.600000000004
 31
0.0
  0
TEXT
  5
16575
330
747D
100
AcDbEntity
  8
文字
 62
     7
 48
50.0
100
AcDbText
 10
15022.63965474515
 20
9230.013745883725
 30
0.0
 40
100.0
  1
F12            0.6
  7
STYLE1
100
AcDbText
  0
TEXT
  5
16576
330
747D
100
AcDbEntity
  8
文字
 62
     7
 48
50.0
100
AcDbText
 10
15022.63965474517
 20
9400.013745883725
 30
0.0
 40
100.0
  1
Y10            0.5
  7
STYLE1
100
AcDbText
  0
TEXT
  5
16577
330
747D
100
AcDbEntity
  8
文字
 62
     7
 48
50.0
100
AcDbText
 10
15022.63965474517
 20
9910.013745883725
 30
0.0
 40
100.0
  1
Y10            0.7
  7
STYLE1
100
AcDbText
  0
TEXT
  5
16578
330
747D
100
AcDbEntity
  8
文字
 62
     7
 48
50.0
100
AcDbText
 10
15022.63965474518
 20
10080.01374588372
 30
0.0
 40
100.0
  1
Y10            0.7
  7
STYLE1
100
AcDbText
  0
TEXT
  5
16579
330
747D
100
AcDbEntity
  8
文字
 62
     7
 48
50.0
100
AcDbText
 10
15022.63965474517
 20
10250.01374588372
 30
0.0
 40
100.0
  1
Y10            1.0
  7
STYLE1
100
AcDbText
  0
TEXT
  5
1657A
330
747D
100
AcDbEntity
  8
文字
 62
     7
 48
50.0
100
AcDbText
 10
15022.63965474518
 20
10420.01374588372
 30
0.0
 40
100.0
  1
Y10            1.0
  7
STYLE1
100
AcDbText
  0
TEXT
  5
1657B
330
747D
100
AcDbEntity
  8
文字
 62
     7
 48
50.0
100
AcDbText
 10
15022.63965474518
 20
10760.01374588372
 30
0.0
 40
100.0
  1
F12            1.0
  7
STYLE1
100
AcDbText
  0
TEXT
  5
1657C
330
747D
100
AcDbEntity
  8
文字
 62
     7
 48
50.0
100
AcDbText
 10
15022.63965474517
 20
11100.01374588372
 30
0.0
 40
100.0
  1
F12            1.2
  7
STYLE1
100
AcDbText
  0
TEXT
  5
1657D
330
747D
100
AcDbEntity
  8
文字
 62
     7
 48
50.0
100
AcDbText
 10
13248.77747366447
 20
9230.013745883729
 30
0.0
 40
100.0
  1
12
  7
STYLE1
100
AcDbText
  0
TEXT
  5
1657E
330
747D
100
AcDbEntity
  8
文字
 62
     7
 48
50.0
100
AcDbText
 10
13248.77747366447
 20
9060.013745883729
 30
0.0
 40
100.0
  1
13
  7
STYLE1
100
AcDbText
  0
LINE
  5
1657F
330
747D
100
AcDbEntity
  8
仕様書枠
 48
50.0
100
AcDbLine
 10
16307.19999999999
 20
8519.600000000002
 30
0.0
 11
13127.19999999999
 21
8519.600000000004
 31
0.0
  0
LINE
  5
16580
330
747D
100
AcDbEntity
  8
仕様書枠
 48
50.0
100
AcDbLine
 10
16307.19999999999
 20
8859.6
 30
0.0
 11
13127.19999999999
 21
8859.6
 31
0.0
  0
TEXT
  5
16581
330
747D
100
AcDbEntity
  8
文字
 62
     7
 48
50.0
100
AcDbText
 10
13248.77747366447
 20
9400.013745883729
 30
0.0
 40
100.0
  1
11
  7
STYLE1
100
AcDbText
  0
LINE
  5
16582
330
747D
100
AcDbEntity
  8
仕様書枠
 48
50.0
100
AcDbLine
 10
16307.2
 20
9709.600000000001
 30
0.0
 11
13127.2
 21
9709.600000000001
 31
0.0
  0
LINE
  5
16583
330
747D
100
AcDbEntity
  8
仕様書枠
 48
50.0
100
AcDbLine
 10
16307.2
 20
10049.6
 30
0.0
 11
13127.2
 21
10049.6
 31
0.0
  0
LINE
  5
16584
330
747D
100
AcDbEntity
  8
仕様書枠
 48
50.0
100
AcDbLine
 10
16307.19999999999
 20
9199.600000000001
 30
0.0
 11
13127.19999999999
 21
9199.600000000001
 31
0.0
  0
LINE
  5
16585
330
747D
100
AcDbEntity
  8
仕様書枠
 48
50.0
100
AcDbLine
 10
16307.19999999999
 20
9029.6
 30
0.0
 11
13127.19999999999
 21
9029.6
 31
0.0
  0
LINE
  5
16586
330
747D
100
AcDbEntity
  8
仕様書枠
 48
50.0
100
AcDbLine
 10
16307.19999999999
 20
9369.600000000001
 30
0.0
 11
13127.19999999999
 21
9369.600000000001
 31
0.0
  0
TEXT
  5
16587
330
747D
100
AcDbEntity
  8
文字
 62
     7
 48
50.0
100
AcDbText
 10
13271.19032244793
 20
10250.01374588373
 30
0.0
 40
100.0
  1
6
  7
STYLE1
100
AcDbText
  0
TEXT
  5
16588
330
747D
100
AcDbEntity
  8
文字
 62
     7
 48
50.0
100
AcDbText
 10
13271.19032244793
 20
10080.01374588373
 30
0.0
 40
100.0
  1
7
  7
STYLE1
100
AcDbText
  0
TEXT
  5
16589
330
747D
100
AcDbEntity
  8
文字
 62
     7
 48
50.0
100
AcDbText
 10
13271.19032244792
 20
9740.013745883729
 30
0.0
 40
100.0
  1
9
  7
STYLE1
100
AcDbText
  0
TEXT
  5
1658A
330
747D
100
AcDbEntity
  8
文字
 62
     7
 48
50.0
100
AcDbText
 10
13271.19032244793
 20
9910.01374588373
 30
0.0
 40
100.0
  1
8
  7
STYLE1
100
AcDbText
  0
TEXT
  5
1658B
330
747D
100
AcDbEntity
  8
文字
 62
     7
 48
50.0
100
AcDbText
 10
13583.1181901657
 20
9910.01374588373
 30
0.0
 40
100.0
  1
鼻隠シ前後
  7
STYLE1
100
AcDbText
  0
TEXT
  5
1658C
330
747D
100
AcDbEntity
  8
文字
 62
     7
 48
50.0
100
AcDbText
 10
13583.11819016569
 20
9400.013745883729
 30
0.0
 40
100.0
  1
屋根パネル
  7
STYLE1
100
AcDbText
  0
TEXT
  5
1658D
330
747D
100
AcDbEntity
  8
文字
 62
     7
 48
50.0
100
AcDbText
 10
13583.11819016568
 20
9230.013745883729
 30
0.0
 40
100.0
  1
壁パネル
  7
STYLE1
100
AcDbText
  0
TEXT
  5
1658E
330
747D
100
AcDbEntity
  8
文字
 62
     7
 48
50.0
100
AcDbText
 10
13248.77747366447
 20
9570.013745883729
 30
0.0
 40
100.0
  1
10
  7
STYLE1
100
AcDbText
  0
TEXT
  5
1658F
330
747D
100
AcDbEntity
  8
文字
 62
     7
 48
50.0
100
AcDbText
 10
13583.1181901657
 20
10080.01374588373
 30
0.0
 40
100.0
  1
妻板左右
  7
STYLE1
100
AcDbText
  0
TEXT
  5
16590
330
747D
100
AcDbEntity
  8
文字
 62
     7
 48
50.0
100
AcDbText
 10
13271.19032244793
 20
10420.01374588373
 30
0.0
 40
100.0
  1
5
  7
STYLE1
100
AcDbText
  0
TEXT
  5
16591
330
747D
100
AcDbEntity
  8
文字
 62
     7
 48
50.0
100
AcDbText
 10
13583.1181901657
 20
10250.01374588373
 30
0.0
 40
100.0
  1
桁後
  7
STYLE1
100
AcDbText
  0
TEXT
  5
16592
330
747D
100
AcDbEntity
  8
文字
 62
     7
 48
50.0
100
AcDbText
 10
13583.1181901657
 20
10420.01374588373
 30
0.0
 40
100.0
  1
鴨居
  7
STYLE1
100
AcDbText
  0
TEXT
  5
16593
330
747D
100
AcDbEntity
  8
文字
 62
     7
 48
50.0
100
AcDbText
 10
13583.1181901657
 20
10760.01374588373
 30
0.0
 40
100.0
  1
柱
  7
STYLE1
100
AcDbText
  0
TEXT
  5
16594
330
747D
100
AcDbEntity
  8
文字
 62
     7
 48
50.0
100
AcDbText
 10
13583.11819016569
 20
11100.01374588373
 30
0.0
 40
100.0
  1
土台枠
  7
STYLE1
100
AcDbText
  0
TEXT
  5
16595
330
747D
100
AcDbEntity
  8
文字
 62
     7
 48
50.0
100
AcDbText
 10
14859.79774614482
 20
11270.01374588373
 30
0.0
 40
100.0
  1
材料（材質）　　単位mm
  7
STYLE1
100
AcDbText
  0
TEXT
  5
16596
330
747D
100
AcDbEntity
  8
文字
 62
     7
 48
50.0
100
AcDbText
 10
13732.03840939435
 20
11270.01374588373
 30
0.0
 40
100.0
  1
部　　品　　名
  7
STYLE1
100
AcDbText
  0
TEXT
  5
16597
330
747D
100
AcDbEntity
  8
文字
 62
     7
 48
50.0
100
AcDbText
 10
13271.19032244793
 20
10760.01374588373
 30
0.0
 40
100.0
  1
3
  7
STYLE1
100
AcDbText
  0
TEXT
  5
16598
330
747D
100
AcDbEntity
  8
文字
 62
     7
 48
50.0
100
AcDbText
 10
13271.19032244793
 20
10590.01374588373
 30
0.0
 40
100.0
  1
4
  7
STYLE1
100
AcDbText
  0
TEXT
  5
16599
330
747D
100
AcDbEntity
  8
文字
 62
     7
 48
50.0
100
AcDbText
 10
13271.19032244792
 20
10930.01374588373
 30
0.0
 40
100.0
  1
2
  7
STYLE1
100
AcDbText
  0
TEXT
  5
1659A
330
747D
100
AcDbEntity
  8
文字
 62
     7
 48
50.0
100
AcDbText
 10
13271.19032244792
 20
11100.01374588373
 30
0.0
 40
100.0
  1
1
  7
STYLE1
100
AcDbText
  0
TEXT
  5
1659B
330
747D
100
AcDbEntity
  8
文字
 62
     7
 48
50.0
100
AcDbText
 10
13197.42518560407
 20
11270.01374588373
 30
0.0
 40
100.0
  1
品番
  7
STYLE1
100
AcDbText
  0
LINE
  5
1659C
330
747D
100
AcDbEntity
  8
仕様書枠
 48
50.0
100
AcDbLine
 10
16307.2
 20
10559.6
 30
0.0
 11
13127.2
 21
10559.6
 31
0.0
  0
LINE
  5
1659D
330
747D
100
AcDbEntity
  8
仕様書枠
 48
50.0
100
AcDbLine
 10
16307.2
 20
10219.6
 30
0.0
 11
13127.2
 21
10219.6
 31
0.0
  0
LINE
  5
1659E
330
747D
100
AcDbEntity
  8
仕様書枠
 48
50.0
100
AcDbLine
 10
16307.2
 20
10389.6
 30
0.0
 11
13127.2
 21
10389.6
 31
0.0
  0
LINE
  5
1659F
330
747D
100
AcDbEntity
  8
仕様書枠
 48
50.0
100
AcDbLine
 10
16307.2
 20
11069.6
 30
0.0
 11
13127.2
 21
11069.6
 31
0.0
  0
LINE
  5
165A0
330
747D
100
AcDbEntity
  8
仕様書枠
 48
50.0
100
AcDbLine
 10
16307.2
 20
10729.6
 30
0.0
 11
13127.2
 21
10729.6
 31
0.0
  0
LINE
  5
165A1
330
747D
100
AcDbEntity
  8
仕様書枠
 48
50.0
100
AcDbLine
 10
16307.2
 20
11239.6
 30
0.0
 11
13127.2
 21
11239.6
 31
0.0
  0
LINE
  5
165A2
330
747D
100
AcDbEntity
  8
仕様書枠
 48
50.0
100
AcDbLine
 10
13490.2
 20
11409.6
 30
0.0
 11
13490.20000000001
 21
8689.600000000003
 31
0.0
  0
LINE
  5
165A3
330
747D
100
AcDbEntity
  8
仕様書枠
 48
50.0
100
AcDbLine
 10
14785.2
 20
11409.59999999999
 30
0.0
 11
14785.19999999999
 21
8689.6
 31
0.0
  0
LINE
  5
165A4
330
747D
100
AcDbEntity
  8
仕様書枠
 48
50.0
100
AcDbLine
 10
16307.2
 20
8349.600000000007
 30
0.0
 11
16307.2
 21
11409.6
 31
0.0
  0
LINE
  5
165A5
330
747D
100
AcDbEntity
  8
仕様書枠
 48
50.0
100
AcDbLine
 10
16307.2
 20
11409.6
 30
0.0
 11
13127.2
 21
11409.6
 31
0.0
  0
LINE
  5
165A6
330
747D
100
AcDbEntity
  8
仕様書枠
 48
50.0
100
AcDbLine
 10
16307.2
 20
9879.600000000001
 30
0.0
 11
13127.2
 21
9879.600000000001
 31
0.0
  0
TEXT
  5
165A7
330
747D
100
AcDbEntity
  8
文字
 62
     7
 48
50.0
100
AcDbText
 10
15022.63965474514
 20
8720.013745883722
 30
0.0
 40
100.0
  1
F12            2.3
  7
STYLE1
100
AcDbText
  0
TEXT
  5
165A8
330
747D
100
AcDbEntity
  8
文字
 62
     7
 48
50.0
100
AcDbText
 10
13583.11819016568
 20
8720.013745883729
 30
0.0
 40
100.0
  1
アンカープレート
  7
STYLE1
100
AcDbText
  0
TEXT
  5
165A9
330
747D
100
AcDbEntity
  8
文字
 62
     7
 48
50.0
100
AcDbText
 10
15022.63965474517
 20
9740.013745883729
 30
0.0
 40
100.0
  1
F12,Y10       0.7+1.0
  7
STYLE1
100
AcDbText
  0
TEXT
  5
165AA
330
747D
100
AcDbEntity
  8
文字
 62
     7
 48
50.0
100
AcDbText
 10
13583.1181901657
 20
9740.013745883729
 30
0.0
 40
100.0
  1
梁中・梁中央
 41
0.9
  7
STYLE1
100
AcDbText
  0
MTEXT
  5
165AB
330
747D
100
AcDbEntity
  8
寸法
 62
     7
 48
50.0
100
AcDbMText
 10
5037.928716153738
 20
8821.237068999096
 30
0.0
 40
96.0
 41
0.0
 71
     5
 72
     1
  1
棚 2段
  7
STYLE1
 73
     1
 44
1.0
1001
ACAD
1000
MTEXTBEGIN
1070
    73
1070
     1
1070
    44
1040
1.0
1070
    74
1070
     0
1000
MTEXTEND
  0
MTEXT
  5
165AC
330
747D
100
AcDbEntity
  8
寸法
 62
     7
 48
50.0
100
AcDbMText
 10
5857.928709476042
 20
8821.237068999083
 30
0.0
 40
96.0
 41
0.0
 71
     5
 72
     1
  1
棚 2段
  7
STYLE1
 73
     1
 44
1.0
1001
ACAD
1000
MTEXTBEGIN
1070
    73
1070
     1
1070
    44
1040
1.0
1070
    74
1070
     0
1000
MTEXTEND
  0
LINE
  5
165AD
330
747D
100
AcDbEntity
  8
仕様書枠
 48
50.0
100
AcDbLine
 10
16307.2
 20
10899.6
 30
0.0
 11
13127.2
 21
10899.6
 31
0.0
  0
TEXT
  5
165AE
330
747D
100
AcDbEntity
  8
文字
 62
     7
 48
50.0
100
AcDbText
 10
13248.77747366447
 20
8720.013745883735
 30
0.0
 40
100.0
  1
15
  7
STYLE1
100
AcDbText
  0
TEXT
  5
165AF
330
747D
100
AcDbEntity
  8
文字
 62
     7
 48
50.0
100
AcDbText
 10
13583.11819016569
 20
10930.01374588373
 30
0.0
 40
100.0
  1
根太
  7
STYLE1
100
AcDbText
  0
TEXT
  5
165B0
330
747D
100
AcDbEntity
  8
文字
 62
     7
 48
50.0
100
AcDbText
 10
15022.63965474517
 20
10930.01374588372
 30
0.0
 40
100.0
  1
F12            1.2
  7
STYLE1
100
AcDbText
  0
LINE
  5
165B1
330
747D
100
AcDbEntity
  8
細線
 48
50.0
100
AcDbLine
 10
11124.5208177482
 20
4754.334683247193
 30
0.0
 11
11124.5208177482
 21
2964.334683247193
 31
0.0
  0
LINE
  5
165B2
330
747D
100
AcDbEntity
  8
細線
 48
50.0
100
AcDbLine
 10
11109.5208177482
 20
4754.334683247193
 30
0.0
 11
11109.5208177482
 21
2964.334683247193
 31
0.0
  0
LINE
  5
165B3
330
747D
100
AcDbEntity
  8
細線
 48
50.0
100
AcDbLine
 10
10979.5208177482
 20
4754.334683247193
 30
0.0
 11
10979.5208177482
 21
2964.334683247193
 31
0.0
  0
LINE
  5
165B4
330
747D
100
AcDbEntity
  8
細線
 48
50.0
100
AcDbLine
 10
10964.5208177482
 20
4754.334683247193
 30
0.0
 11
10964.5208177482
 21
2964.334683247193
 31
0.0
  0
LINE
  5
165B5
330
747D
100
AcDbEntity
  8
細線
 48
50.0
100
AcDbLine
 10
10834.5208177482
 20
4754.334683247193
 30
0.0
 11
10834.5208177482
 21
2964.334683247193
 31
0.0
  0
LINE
  5
165B6
330
747D
100
AcDbEntity
  8
細線
 48
50.0
100
AcDbLine
 10
10819.5208177482
 20
4754.334683247193
 30
0.0
 11
10819.5208177482
 21
2964.334683247193
 31
0.0
  0
LINE
  5
16DEE
330
747D
100
AcDbEntity
  8
細線
100
AcDbLine
 10
7482.648905187833
 20
4813.834683247186
 30
0.0
 11
7482.648905187833
 21
4790.834683247186
 31
0.0
  0
LINE
  5
16DEF
330
747D
100
AcDbEntity
  8
細線
100
AcDbLine
 10
7556.648905187832
 20
4801.834683247186
 30
0.0
 11
7482.648905187833
 21
4801.834683247186
 31
0.0
  0
LINE
  5
16DF0
330
747D
100
AcDbEntity
  8
細線
100
AcDbLine
 10
7556.648905187832
 20
4795.834683247186
 30
0.0
 11
7482.648905187833
 21
4795.834683247186
 31
0.0
  0
LINE
  5
16DF1
330
747D
100
AcDbEntity
  8
細線
100
AcDbLine
 10
7556.648905187832
 20
4807.834683247186
 30
0.0
 11
7482.648905187833
 21
4807.834683247186
 31
0.0
  0
LINE
  5
16DF2
330
747D
100
AcDbEntity
  8
細線
100
AcDbLine
 10
7408.648905187833
 20
4807.834683247186
 30
0.0
 11
7477.648905187833
 21
4807.834683247186
 31
0.0
  0
LINE
  5
16DF3
330
747D
100
AcDbEntity
  8
細線
100
AcDbLine
 10
7408.648905187833
 20
4795.834683247186
 30
0.0
 11
7482.648905187833
 21
4795.834683247186
 31
0.0
  0
LINE
  5
16DF4
330
747D
100
AcDbEntity
  8
細線
100
AcDbLine
 10
7408.648905187833
 20
4801.834683247186
 30
0.0
 11
7482.648905187833
 21
4801.834683247186
 31
0.0
  0
LINE
  5
16DF5
330
747D
100
AcDbEntity
  8
細線
100
AcDbLine
 10
7408.648905187833
 20
4807.834683247186
 30
0.0
 11
7482.648905187833
 21
4807.834683247186
 31
0.0
  0
LINE
  5
16DF6
330
747D
100
AcDbEntity
  8
部品1
 48
0.01
100
AcDbLine
 10
7570.648905187832
 20
4820.334683247186
 30
0.0
 11
7394.648905187833
 21
4820.334683247186
 31
0.0
  0
LINE
  5
16DF7
330
747D
100
AcDbEntity
  8
部品1
 48
0.01
100
AcDbLine
 10
7392.648905187832
 20
4818.334683247186
 30
0.0
 11
7392.648905187832
 21
4786.834683247186
 31
0.0
  0
LINE
  5
16DF8
330
747D
100
AcDbEntity
  8
部品1
 48
0.01
100
AcDbLine
 10
7394.648905187833
 20
4784.834683247185
 30
0.0
 11
7570.648905187832
 21
4784.834683247185
 31
0.0
  0
LINE
  5
16DF9
330
747D
100
AcDbEntity
  8
部品1
 48
0.01
100
AcDbLine
 10
7572.648905187833
 20
4786.834683247186
 30
0.0
 11
7572.648905187833
 21
4818.334683247186
 31
0.0
  0
LINE
  5
16DFA
330
747D
100
AcDbEntity
  8
細線
100
AcDbLine
 10
7408.648905187833
 20
4813.834683247186
 30
0.0
 11
7408.648905187833
 21
4790.834683247186
 31
0.0
  0
LINE
  5
16DFB
330
747D
100
AcDbEntity
  8
細線
100
AcDbLine
 10
7556.648905187832
 20
4790.834683247186
 30
0.0
 11
7556.648905187832
 21
4813.834683247186
 31
0.0
  0
LINE
  5
16DFC
330
747D
100
AcDbEntity
  8
細線
100
AcDbLine
 10
7556.648905187832
 20
4813.834683247186
 30
0.0
 11
7482.648905187833
 21
4813.834683247186
 31
0.0
  0
LINE
  5
16DFD
330
747D
100
AcDbEntity
  8
細線
100
AcDbLine
 10
7408.648905187833
 20
4790.834683247186
 30
0.0
 11
7482.648905187833
 21
4790.834683247186
 31
0.0
  0
LINE
  5
16DFE
330
747D
100
AcDbEntity
  8
細線
100
AcDbLine
 10
7482.648905187833
 20
4813.834683247186
 30
0.0
 11
7408.648905187833
 21
4813.834683247186
 31
0.0
  0
LINE
  5
16DFF
330
747D
100
AcDbEntity
  8
細線
100
AcDbLine
 10
7482.648905187833
 20
4790.834683247186
 30
0.0
 11
7556.648905187832
 21
4790.834683247186
 31
0.0
  0
ARC
  5
16E00
330
747D
100
AcDbEntity
  8
部品1
 48
0.01
100
AcDbCircle
 10
7394.648905187833
 20
4818.334683247186
 30
0.0
 40
2.0
100
AcDbArc
 50
90.0
 51
180.0
  0
ARC
  5
16E01
330
747D
100
AcDbEntity
  8
部品1
 48
0.01
100
AcDbCircle
 10
7394.648905187833
 20
4786.834683247186
 30
0.0
 40
2.0
100
AcDbArc
 50
180.0
 51
270.0
  0
ARC
  5
16E02
330
747D
100
AcDbEntity
  8
部品1
 48
0.01
100
AcDbCircle
 10
7570.648905187832
 20
4818.334683247186
 30
0.0
 40
2.0
100
AcDbArc
 50
0.0
 51
90.0
  0
ARC
  5
16E03
330
747D
100
AcDbEntity
  8
部品1
 48
0.01
100
AcDbCircle
 10
7570.648905187832
 20
4786.834683247186
 30
0.0
 40
2.0
100
AcDbArc
 50
270.0
 51
0.0
  0
ARC
  5
16E04
330
747D
100
AcDbEntity
  8
部品1
 48
0.01
100
AcDbCircle
 10
5110.64890518783
 20
4786.834683247187
 30
0.0
 40
2.0
100
AcDbArc
 50
270.0
 51
0.0
  0
ARC
  5
16E05
330
747D
100
AcDbEntity
  8
部品1
 48
0.01
100
AcDbCircle
 10
5110.64890518783
 20
4818.334683247186
 30
0.0
 40
2.0
100
AcDbArc
 50
0.0
 51
90.0
  0
ARC
  5
16E06
330
747D
100
AcDbEntity
  8
部品1
 48
0.01
100
AcDbCircle
 10
4934.648905187831
 20
4786.834683247187
 30
0.0
 40
2.0
100
AcDbArc
 50
180.0
 51
270.0
  0
ARC
  5
16E07
330
747D
100
AcDbEntity
  8
部品1
 48
0.01
100
AcDbCircle
 10
4934.648905187831
 20
4818.334683247186
 30
0.0
 40
2.0
100
AcDbArc
 50
90.0
 51
180.0
  0
LINE
  5
16E08
330
747D
100
AcDbEntity
  8
細線
100
AcDbLine
 10
5022.648905187831
 20
4790.834683247187
 30
0.0
 11
5096.64890518783
 21
4790.834683247187
 31
0.0
  0
LINE
  5
16E09
330
747D
100
AcDbEntity
  8
細線
100
AcDbLine
 10
5022.648905187831
 20
4813.834683247187
 30
0.0
 11
4948.64890518783
 21
4813.834683247187
 31
0.0
  0
LINE
  5
16E0A
330
747D
100
AcDbEntity
  8
細線
100
AcDbLine
 10
4948.64890518783
 20
4790.834683247187
 30
0.0
 11
5022.648905187831
 21
4790.834683247187
 31
0.0
  0
LINE
  5
16E0B
330
747D
100
AcDbEntity
  8
細線
100
AcDbLine
 10
5096.64890518783
 20
4813.834683247187
 30
0.0
 11
5022.648905187831
 21
4813.834683247187
 31
0.0
  0
LINE
  5
16E0C
330
747D
100
AcDbEntity
  8
細線
100
AcDbLine
 10
5096.64890518783
 20
4790.834683247187
 30
0.0
 11
5096.64890518783
 21
4813.834683247187
 31
0.0
  0
LINE
  5
16E0D
330
747D
100
AcDbEntity
  8
細線
100
AcDbLine
 10
4948.64890518783
 20
4813.834683247187
 30
0.0
 11
4948.64890518783
 21
4790.834683247187
 31
0.0
  0
LINE
  5
16E0E
330
747D
100
AcDbEntity
  8
部品1
 48
0.01
100
AcDbLine
 10
5112.648905187831
 20
4786.834683247187
 30
0.0
 11
5112.648905187831
 21
4818.334683247186
 31
0.0
  0
LINE
  5
16E0F
330
747D
100
AcDbEntity
  8
部品1
 48
0.01
100
AcDbLine
 10
4934.648905187831
 20
4784.834683247186
 30
0.0
 11
5110.64890518783
 21
4784.834683247186
 31
0.0
  0
LINE
  5
16E10
330
747D
100
AcDbEntity
  8
部品1
 48
0.01
100
AcDbLine
 10
4932.64890518783
 20
4818.334683247186
 30
0.0
 11
4932.64890518783
 21
4786.834683247187
 31
0.0
  0
LINE
  5
16E11
330
747D
100
AcDbEntity
  8
部品1
 48
0.01
100
AcDbLine
 10
5110.64890518783
 20
4820.334683247187
 30
0.0
 11
4934.648905187831
 21
4820.334683247187
 31
0.0
  0
LINE
  5
16E12
330
747D
100
AcDbEntity
  8
細線
100
AcDbLine
 10
4948.64890518783
 20
4807.834683247187
 30
0.0
 11
5022.648905187831
 21
4807.834683247187
 31
0.0
  0
LINE
  5
16E13
330
747D
100
AcDbEntity
  8
細線
100
AcDbLine
 10
4948.64890518783
 20
4801.834683247187
 30
0.0
 11
5022.648905187831
 21
4801.834683247187
 31
0.0
  0
LINE
  5
16E14
330
747D
100
AcDbEntity
  8
細線
100
AcDbLine
 10
4948.64890518783
 20
4795.834683247187
 30
0.0
 11
5022.648905187831
 21
4795.834683247187
 31
0.0
  0
LINE
  5
16E15
330
747D
100
AcDbEntity
  8
細線
100
AcDbLine
 10
4948.64890518783
 20
4807.834683247187
 30
0.0
 11
5017.64890518783
 21
4807.834683247187
 31
0.0
  0
LINE
  5
16E16
330
747D
100
AcDbEntity
  8
細線
100
AcDbLine
 10
5096.64890518783
 20
4807.834683247187
 30
0.0
 11
5022.648905187831
 21
4807.834683247187
 31
0.0
  0
LINE
  5
16E17
330
747D
100
AcDbEntity
  8
細線
100
AcDbLine
 10
5096.64890518783
 20
4795.834683247187
 30
0.0
 11
5022.648905187831
 21
4795.834683247187
 31
0.0
  0
LINE
  5
16E18
330
747D
100
AcDbEntity
  8
細線
100
AcDbLine
 10
5096.64890518783
 20
4801.834683247187
 30
0.0
 11
5022.648905187831
 21
4801.834683247187
 31
0.0
  0
LINE
  5
16E19
330
747D
100
AcDbEntity
  8
細線
100
AcDbLine
 10
5022.648905187831
 20
4813.834683247187
 30
0.0
 11
5022.648905187831
 21
4790.834683247187
 31
0.0
  0
LINE
  5
16E1A
330
747D
100
AcDbEntity
  8
細線
100
AcDbLine
 10
5842.64890518783
 20
4813.834683247187
 30
0.0
 11
5842.64890518783
 21
4790.834683247187
 31
0.0
  0
LINE
  5
16E1B
330
747D
100
AcDbEntity
  8
細線
100
AcDbLine
 10
5916.64890518783
 20
4801.834683247187
 30
0.0
 11
5842.64890518783
 21
4801.834683247187
 31
0.0
  0
LINE
  5
16E1C
330
747D
100
AcDbEntity
  8
細線
100
AcDbLine
 10
5916.64890518783
 20
4795.834683247187
 30
0.0
 11
5842.64890518783
 21
4795.834683247187
 31
0.0
  0
LINE
  5
16E1D
330
747D
100
AcDbEntity
  8
細線
100
AcDbLine
 10
5916.64890518783
 20
4807.834683247187
 30
0.0
 11
5842.64890518783
 21
4807.834683247187
 31
0.0
  0
LINE
  5
16E1E
330
747D
100
AcDbEntity
  8
細線
100
AcDbLine
 10
5768.648905187831
 20
4807.834683247187
 30
0.0
 11
5837.648905187831
 21
4807.834683247187
 31
0.0
  0
LINE
  5
16E1F
330
747D
100
AcDbEntity
  8
細線
100
AcDbLine
 10
5768.648905187831
 20
4795.834683247187
 30
0.0
 11
5842.64890518783
 21
4795.834683247187
 31
0.0
  0
LINE
  5
16E20
330
747D
100
AcDbEntity
  8
細線
100
AcDbLine
 10
5768.648905187831
 20
4801.834683247187
 30
0.0
 11
5842.64890518783
 21
4801.834683247187
 31
0.0
  0
LINE
  5
16E21
330
747D
100
AcDbEntity
  8
細線
100
AcDbLine
 10
5768.648905187831
 20
4807.834683247187
 30
0.0
 11
5842.64890518783
 21
4807.834683247187
 31
0.0
  0
LINE
  5
16E22
330
747D
100
AcDbEntity
  8
部品1
 48
0.01
100
AcDbLine
 10
5930.648905187831
 20
4820.334683247187
 30
0.0
 11
5754.648905187831
 21
4820.334683247187
 31
0.0
  0
LINE
  5
16E23
330
747D
100
AcDbEntity
  8
部品1
 48
0.01
100
AcDbLine
 10
5752.648905187831
 20
4818.334683247186
 30
0.0
 11
5752.648905187831
 21
4786.834683247187
 31
0.0
  0
LINE
  5
16E24
330
747D
100
AcDbEntity
  8
部品1
 48
0.01
100
AcDbLine
 10
5754.648905187831
 20
4784.834683247186
 30
0.0
 11
5930.648905187831
 21
4784.834683247186
 31
0.0
  0
LINE
  5
16E25
330
747D
100
AcDbEntity
  8
部品1
 48
0.01
100
AcDbLine
 10
5932.64890518783
 20
4786.834683247187
 30
0.0
 11
5932.64890518783
 21
4818.334683247186
 31
0.0
  0
LINE
  5
16E26
330
747D
100
AcDbEntity
  8
細線
100
AcDbLine
 10
5768.648905187831
 20
4813.834683247187
 30
0.0
 11
5768.648905187831
 21
4790.834683247187
 31
0.0
  0
LINE
  5
16E27
330
747D
100
AcDbEntity
  8
細線
100
AcDbLine
 10
5916.64890518783
 20
4790.834683247187
 30
0.0
 11
5916.64890518783
 21
4813.834683247187
 31
0.0
  0
LINE
  5
16E28
330
747D
100
AcDbEntity
  8
細線
100
AcDbLine
 10
5916.64890518783
 20
4813.834683247187
 30
0.0
 11
5842.64890518783
 21
4813.834683247187
 31
0.0
  0
LINE
  5
16E29
330
747D
100
AcDbEntity
  8
細線
100
AcDbLine
 10
5768.648905187831
 20
4790.834683247187
 30
0.0
 11
5842.64890518783
 21
4790.834683247187
 31
0.0
  0
LINE
  5
16E2A
330
747D
100
AcDbEntity
  8
細線
100
AcDbLine
 10
5842.64890518783
 20
4813.834683247187
 30
0.0
 11
5768.648905187831
 21
4813.834683247187
 31
0.0
  0
LINE
  5
16E2B
330
747D
100
AcDbEntity
  8
細線
100
AcDbLine
 10
5842.64890518783
 20
4790.834683247187
 30
0.0
 11
5916.64890518783
 21
4790.834683247187
 31
0.0
  0
ARC
  5
16E2C
330
747D
100
AcDbEntity
  8
部品1
 48
0.01
100
AcDbCircle
 10
5754.648905187831
 20
4818.334683247186
 30
0.0
 40
2.0
100
AcDbArc
 50
90.0
 51
180.0
  0
ARC
  5
16E2D
330
747D
100
AcDbEntity
  8
部品1
 48
0.01
100
AcDbCircle
 10
5754.648905187831
 20
4786.834683247187
 30
0.0
 40
2.0
100
AcDbArc
 50
180.0
 51
270.0
  0
ARC
  5
16E2E
330
747D
100
AcDbEntity
  8
部品1
 48
0.01
100
AcDbCircle
 10
5930.648905187831
 20
4818.334683247186
 30
0.0
 40
2.0
100
AcDbArc
 50
0.0
 51
90.0
  0
ARC
  5
16E2F
330
747D
100
AcDbEntity
  8
部品1
 48
0.01
100
AcDbCircle
 10
5930.648905187831
 20
4786.834683247187
 30
0.0
 40
2.0
100
AcDbArc
 50
270.0
 51
0.0
  0
ARC
  5
16E30
330
747D
100
AcDbEntity
  8
部品1
 48
0.01
100
AcDbCircle
 10
6750.648905187834
 20
4786.834683247187
 30
0.0
 40
2.0
100
AcDbArc
 50
270.0
 51
0.0
  0
ARC
  5
16E31
330
747D
100
AcDbEntity
  8
部品1
 48
0.01
100
AcDbCircle
 10
6750.648905187834
 20
4818.334683247186
 30
0.0
 40
2.0
100
AcDbArc
 50
0.0
 51
90.0
  0
ARC
  5
16E32
330
747D
100
AcDbEntity
  8
部品1
 48
0.01
100
AcDbCircle
 10
6574.648905187832
 20
4786.834683247187
 30
0.0
 40
2.0
100
AcDbArc
 50
180.0
 51
270.0
  0
ARC
  5
16E33
330
747D
100
AcDbEntity
  8
部品1
 48
0.01
100
AcDbCircle
 10
6574.648905187832
 20
4818.334683247186
 30
0.0
 40
2.0
100
AcDbArc
 50
90.0
 51
180.0
  0
LINE
  5
16E34
330
747D
100
AcDbEntity
  8
細線
100
AcDbLine
 10
6662.648905187833
 20
4790.834683247187
 30
0.0
 11
6736.648905187833
 21
4790.834683247187
 31
0.0
  0
LINE
  5
16E35
330
747D
100
AcDbEntity
  8
細線
100
AcDbLine
 10
6662.648905187833
 20
4813.834683247187
 30
0.0
 11
6588.648905187833
 21
4813.834683247187
 31
0.0
  0
LINE
  5
16E36
330
747D
100
AcDbEntity
  8
細線
100
AcDbLine
 10
6588.648905187833
 20
4790.834683247187
 30
0.0
 11
6662.648905187833
 21
4790.834683247187
 31
0.0
  0
LINE
  5
16E37
330
747D
100
AcDbEntity
  8
細線
100
AcDbLine
 10
6736.648905187833
 20
4813.834683247187
 30
0.0
 11
6662.648905187833
 21
4813.834683247187
 31
0.0
  0
LINE
  5
16E38
330
747D
100
AcDbEntity
  8
細線
100
AcDbLine
 10
6736.648905187833
 20
4790.834683247187
 30
0.0
 11
6736.648905187833
 21
4813.834683247187
 31
0.0
  0
LINE
  5
16E39
330
747D
100
AcDbEntity
  8
細線
100
AcDbLine
 10
6588.648905187833
 20
4813.834683247187
 30
0.0
 11
6588.648905187833
 21
4790.834683247187
 31
0.0
  0
LINE
  5
16E3A
330
747D
100
AcDbEntity
  8
部品1
 48
0.01
100
AcDbLine
 10
6752.648905187832
 20
4786.834683247187
 30
0.0
 11
6752.648905187832
 21
4818.334683247186
 31
0.0
  0
LINE
  5
16E3B
330
747D
100
AcDbEntity
  8
部品1
 48
0.01
100
AcDbLine
 10
6574.648905187832
 20
4784.834683247186
 30
0.0
 11
6750.648905187834
 21
4784.834683247186
 31
0.0
  0
LINE
  5
16E3C
330
747D
100
AcDbEntity
  8
部品1
 48
0.01
100
AcDbLine
 10
6572.648905187833
 20
4818.334683247186
 30
0.0
 11
6572.648905187833
 21
4786.834683247187
 31
0.0
  0
LINE
  5
16E3D
330
747D
100
AcDbEntity
  8
部品1
 48
0.01
100
AcDbLine
 10
6750.648905187834
 20
4820.334683247187
 30
0.0
 11
6574.648905187832
 21
4820.334683247187
 31
0.0
  0
LINE
  5
16E3E
330
747D
100
AcDbEntity
  8
細線
100
AcDbLine
 10
6588.648905187833
 20
4807.834683247187
 30
0.0
 11
6662.648905187833
 21
4807.834683247187
 31
0.0
  0
LINE
  5
16E3F
330
747D
100
AcDbEntity
  8
細線
100
AcDbLine
 10
6588.648905187833
 20
4801.834683247187
 30
0.0
 11
6662.648905187833
 21
4801.834683247187
 31
0.0
  0
LINE
  5
16E40
330
747D
100
AcDbEntity
  8
細線
100
AcDbLine
 10
6588.648905187833
 20
4795.834683247187
 30
0.0
 11
6662.648905187833
 21
4795.834683247187
 31
0.0
  0
LINE
  5
16E41
330
747D
100
AcDbEntity
  8
細線
100
AcDbLine
 10
6588.648905187833
 20
4807.834683247187
 30
0.0
 11
6657.648905187833
 21
4807.834683247187
 31
0.0
  0
LINE
  5
16E42
330
747D
100
AcDbEntity
  8
細線
100
AcDbLine
 10
6736.648905187833
 20
4807.834683247187
 30
0.0
 11
6662.648905187833
 21
4807.834683247187
 31
0.0
  0
LINE
  5
16E43
330
747D
100
AcDbEntity
  8
細線
100
AcDbLine
 10
6736.648905187833
 20
4795.834683247187
 30
0.0
 11
6662.648905187833
 21
4795.834683247187
 31
0.0
  0
LINE
  5
16E44
330
747D
100
AcDbEntity
  8
細線
100
AcDbLine
 10
6736.648905187833
 20
4801.834683247187
 30
0.0
 11
6662.648905187833
 21
4801.834683247187
 31
0.0
  0
LINE
  5
16E45
330
747D
100
AcDbEntity
  8
細線
100
AcDbLine
 10
6662.648905187833
 20
4813.834683247187
 30
0.0
 11
6662.648905187833
 21
4790.834683247187
 31
0.0
  0
LINE
  5
16E46
330
747D
100
AcDbEntity
  8
部品1
100
AcDbLine
 10
7942.229244172493
 20
4981.938157851955
 30
0.0
 11
7941.095846840148
 21
4961.962029869355
 31
0.0
  0
LINE
  5
16E47
330
747D
100
AcDbEntity
  8
細線
 48
50.0
100
AcDbLine
 10
7909.648905187826
 20
4989.334683247194
 30
0.0
 11
7909.648905187826
 21
4848.334683247195
 31
0.0
  0
LINE
  5
16E48
330
747D
100
AcDbEntity
  8
部品1
100
AcDbLine
 10
7929.658826518572
 20
4866.304622702297
 30
0.0
 11
7929.013920711459
 21
4854.938157851957
 31
0.0
  0
LINE
  5
16E49
330
747D
100
AcDbEntity
  8
部品1
100
AcDbLine
 10
7937.894857043414
 20
4958.504622702298
 30
0.0
 11
7932.859816315304
 21
4869.762029869355
 31
0.0
  0
ARC
  5
16E4A
330
747D
100
AcDbEntity
  8
部品1
 48
50.0
100
AcDbCircle
 10
7940.8900399396
 20
4958.334683247196
 30
0.0
 40
3.0
100
AcDbArc
 50
97.65812720736519
 51
176.7526572096682
  0
ARC
  5
16E4B
330
747D
100
AcDbEntity
  8
部品1
 48
50.0
100
AcDbCircle
 10
7932.654009414758
 20
4866.134683247193
 30
0.0
 40
3.0
100
AcDbArc
 50
97.65812720736519
 51
176.7526572096682
  0
ARC
  5
16E4C
330
747D
100
AcDbEntity
  8
部品1
 48
50.0
100
AcDbCircle
 10
7932.160940306196
 20
4869.801682408877
 30
0.0
 40
0.7
100
AcDbArc
 50
277.6581272073652
 51
356.7526572097202
  0
ARC
  5
16E4D
330
747D
100
AcDbEntity
  8
部品1
 48
50.0
100
AcDbCircle
 10
7940.39697083104
 20
4962.001682408882
 30
0.0
 40
0.7
100
AcDbArc
 50
277.6581272073652
 51
356.7526572096162
  0
ARC
  5
16E4E
330
747D
100
AcDbEntity
  8
部品1
100
AcDbCircle
 10
7922.025160620361
 20
4855.334683247196
 30
0.0
 40
7.0
100
AcDbArc
 50
270.0
 51
356.7526572096682
  0
ARC
  5
16E4F
330
747D
100
AcDbEntity
  8
部品1
100
AcDbCircle
 10
7935.240484081394
 20
4982.334683247194
 30
0.0
 40
7.0
100
AcDbArc
 50
356.7526572096682
 51
90.0
  0
DIMENSION
  5
16E50
330
747D
100
AcDbEntity
  8
寸法
 48
50.0
100
AcDbDimension
  2
*D35
 10
7892.648905187828
 20
5201.876268505436
 30
0.0
 11
8256.134186562062
 21
5201.876268505436
 31
0.0
 70
   160
 71
     5
 42
50.0
  3
INABA_S40G
100
AcDbAlignedDimension
 13
7942.648905187827
 23
4989.334683247194
 33
0.0
 14
7892.648905187828
 24
4989.334683247196
 34
0.0
100
AcDbRotatedDimension
  0
LINE
  5
16E51
330
747D
100
AcDbEntity
  8
部品1
 48
50.0
100
AcDbLine
 10
7935.240484081394
 20
4989.33468324719
 30
0.0
 11
4570.057326294253
 21
4989.33468324719
 31
0.0
  0
LINE
  5
16E52
330
747D
100
AcDbEntity
  8
細線
 48
50.0
100
AcDbLine
 10
7940.490254176849
 20
4961.307925810791
 30
0.0
 11
4564.807556198236
 21
4961.30792581119
 31
0.0
  0
LINE
  5
16E53
330
747D
100
AcDbEntity
  8
細線
 48
50.0
100
AcDbLine
 10
7932.254223652049
 20
4869.107925810792
 30
0.0
 11
4573.04358672307
 21
4869.10792581119
 31
0.0
  0
LINE
  5
16E54
330
747D
100
AcDbEntity
  8
部品1
 48
50.0
100
AcDbLine
 10
7922.025160620361
 20
4848.334683247188
 30
0.0
 11
4583.272649755286
 21
4848.334683247192
 31
0.0
  0
LINE
  5
16E55
330
747D
100
AcDbEntity
  8
細線
 48
50.0
100
AcDbLine
 10
4595.648905187823
 20
4989.334683247194
 30
0.0
 11
4595.648905187823
 21
4848.334683247192
 31
0.0
  0
ARC
  5
16E56
330
747D
100
AcDbEntity
  8
部品1
100
AcDbCircle
 10
4570.057326294253
 20
4982.334683247194
 30
0.0
 40
7.0
100
AcDbArc
 50
90.0
 51
183.2473427903317
  0
ARC
  5
16E57
330
747D
100
AcDbEntity
  8
部品1
100
AcDbCircle
 10
4583.272649755286
 20
4855.334683247196
 30
0.0
 40
7.0
100
AcDbArc
 50
183.2473427903317
 51
270.0
  0
ARC
  5
16E58
330
747D
100
AcDbEntity
  8
部品1
 48
50.0
100
AcDbCircle
 10
4564.900839544611
 20
4962.001682408882
 30
0.0
 40
0.7
100
AcDbArc
 50
183.2473427903838
 51
262.3418727926349
  0
ARC
  5
16E59
330
747D
100
AcDbEntity
  8
部品1
 48
50.0
100
AcDbCircle
 10
4573.136870069451
 20
4869.801682408877
 30
0.0
 40
0.7
100
AcDbArc
 50
183.2473427902797
 51
262.3418727926349
  0
ARC
  5
16E5A
330
747D
100
AcDbEntity
  8
部品1
 48
50.0
100
AcDbCircle
 10
4572.643800960889
 20
4866.134683247193
 30
0.0
 40
3.0
100
AcDbArc
 50
3.247342790331777
 51
82.3418727926348
  0
ARC
  5
16E5B
330
747D
100
AcDbEntity
  8
部品1
 48
50.0
100
AcDbCircle
 10
4564.407770436046
 20
4958.334683247194
 30
0.0
 40
3.0
100
AcDbArc
 50
3.247342790331777
 51
82.3418727926348
  0
LINE
  5
16E5C
330
747D
100
AcDbEntity
  8
部品1
100
AcDbLine
 10
4567.402953332232
 20
4958.504622702298
 30
0.0
 11
4572.437994060343
 21
4869.762029869355
 31
0.0
  0
LINE
  5
16E5D
330
747D
100
AcDbEntity
  8
部品1
100
AcDbLine
 10
4575.638983857079
 20
4866.304622702297
 30
0.0
 11
4576.283889664188
 21
4854.938157851955
 31
0.0
  0
LINE
  5
16E5E
330
747D
100
AcDbEntity
  8
部品1
100
AcDbLine
 10
4563.068566203154
 20
4981.938157851953
 30
0.0
 11
4564.201963535502
 21
4961.962029869355
 31
0.0
  0
DIMENSION
  5
16E5F
330
747D
100
AcDbEntity
  8
寸法
 48
50.0
100
AcDbDimension
  2
*D36
 10
4562.648905187823
 20
5201.876268505436
 30
0.0
 11
4249.163623813576
 21
5201.876268505436
 31
0.0
 70
   160
 71
     5
 42
50.0
  3
INABA_S40G
100
AcDbAlignedDimension
 13
4612.648905187824
 23
4989.334683247198
 33
0.0
 14
4562.648905187823
 24
4989.334683247196
 34
0.0
100
AcDbRotatedDimension
1001
ACAD
1000
DSTYLE
1002
{
1002
}
  0
DIMENSION
  5
16E60
330
747D
100
AcDbEntity
  8
寸法
 48
50.0
100
AcDbDimension
  2
*D37
 10
7942.648905187827
 20
5424.833246943283
 30
0.0
 11
6252.648905187815
 21
5424.833246943283
 31
0.0
 70
   160
 71
     5
 42
3380.000000000004
  3
INABA_S40G
100
AcDbAlignedDimension
 13
4562.648905187823
 23
4989.334683247196
 33
0.0
 14
7942.648905187827
 24
4989.334683247194
 34
0.0
100
AcDbRotatedDimension
  0
DIMENSION
  5
16E61
330
747D
100
AcDbEntity
  8
寸法
 48
50.0
100
AcDbDimension
  2
*D38
 10
4612.648905187824
 20
5201.876268505436
 30
0.0
 11
6252.648905187815
 21
5201.876268505436
 31
0.0
 70
   160
  1
柱外寸法<>
 71
     5
 42
3280.000000000004
  3
INABA_S40G
100
AcDbAlignedDimension
 13
7892.648905187828
 23
4989.334683247196
 33
0.0
 14
4612.648905187824
 24
4989.334683247198
 34
0.0
100
AcDbRotatedDimension
  0
LWPOLYLINE
  5
16E62
330
747D
100
AcDbEntity
  8
部品1
100
AcDbPolyline
 90
        4
 70
     1
 43
0.0
 10
5870.913572073597
 20
2211.258102430476
 10
5870.913572073597
 20
1971.365780884943
 10
6634.384238302034
 20
1971.365780884943
 10
6634.384238302034
 20
2211.258102430476
  0
TEXT
  5
16E63
330
747D
100
AcDbEntity
  8
部品1
100
AcDbText
 10
5961.43897581155
 20
2018.364573211951
 30
0.0
 40
135.0
  1
正面図
  7
STYLE2
100
AcDbText
  0
LINE
  5
16E64
330
747D
100
AcDbEntity
  8
部品1
 48
50.0
100
AcDbLine
 10
6252.648905187824
 20
2957.334683247202
 30
0.0
 11
6252.648905187824
 21
2914.334683247193
 31
0.0
  0
LINE
  5
16E65
330
747D
100
AcDbEntity
  8
細線
 48
50.0
100
AcDbLine
 10
6242.648905187824
 20
4848.334683247191
 30
0.0
 11
6242.648905187824
 21
4989.33468324719
 31
0.0
  0
LINE
  5
16E66
330
747D
100
AcDbEntity
  8
細線
 48
50.0
100
AcDbLine
 10
6252.648905187824
 20
4848.334683247191
 30
0.0
 11
6252.648905187824
 21
4754.334683247193
 31
0.0
  0
LINE
  5
16E67
330
747D
100
AcDbEntity
  8
Ｇ．Ｌ
100
AcDbLine
 10
3585.428323093584
 20
2814.334683247193
 30
0.0
 11
12732.24586283746
 21
2814.334683247193
 31
0.0
  0
LINE
  5
16E68
330
747D
100
AcDbEntity
  8
部品1
100
AcDbLine
 10
4612.648905187824
 20
2914.334683247194
 30
0.0
 11
7892.648905187823
 21
2914.334683247193
 31
0.0
  0
LINE
  5
16E69
330
747D
100
AcDbEntity
  8
部品1
100
AcDbLine
 10
4657.648905187823
 20
2960.834683247199
 30
0.0
 11
5367.586457359142
 21
2960.834683247203
 31
0.0
  0
LINE
  5
16E6A
330
747D
100
AcDbEntity
  8
部品1
100
AcDbLine
 10
4612.648905187824
 20
2957.334683247191
 30
0.0
 11
7892.648905187823
 21
2957.334683247213
 31
0.0
  0
LINE
  5
16E6B
330
747D
100
AcDbEntity
  8
部品1
100
AcDbLine
 10
4612.648905187824
 20
4754.334683247189
 30
0.0
 11
7892.648905187823
 21
4754.334683247193
 31
0.0
  0
LINE
  5
16E6C
330
747D
100
AcDbEntity
  8
部品1
100
AcDbLine
 10
4657.648905187823
 20
4751.834683247194
 30
0.0
 11
5367.586457359142
 21
4751.834683247194
 31
0.0
  0
LINE
  5
16E6D
330
747D
100
AcDbEntity
  8
細線
 48
0.2
100
AcDbLine
 10
5385.27044865565
 20
4752.784683247194
 30
0.0
 11
5373.902466062638
 21
4752.784683247194
 31
0.0
  0
ARC
  5
16E6E
330
747D
100
AcDbEntity
  8
細線
 48
0.2
100
AcDbCircle
 10
5379.586457359142
 20
4735.284683247196
 30
0.0
 40
18.49999999999796
100
AcDbArc
 50
73.39845040101522
 51
106.6015495989848
  0
ARC
  5
16E6F
330
747D
100
AcDbEntity
  8
細線
 48
0.2
100
AcDbCircle
 10
5384.586457359143
 20
4752.055193078442
 30
0.0
 40
1.0
100
AcDbArc
 50
0.0
 51
73.39845040101522
  0
ARC
  5
16E70
330
747D
100
AcDbEntity
  8
細線
 48
0.2
100
AcDbCircle
 10
5374.586457359143
 20
4752.055193078442
 30
0.0
 40
1.0
100
AcDbArc
 50
106.6015495989848
 51
180.0
  0
LINE
  5
16E71
330
747D
100
AcDbEntity
  8
細線
 48
0.2
100
AcDbLine
 10
5387.586457359143
 20
4749.584683247195
 30
0.0
 11
5367.586457359142
 21
4749.584683247195
 31
0.0
  0
LINE
  5
16E72
330
747D
100
AcDbEntity
  8
細線
 48
0.2
100
AcDbLine
 10
5387.586457359143
 20
4752.084683247194
 30
0.0
 11
5367.586457359142
 21
4752.084683247194
 31
0.0
  0
LINE
  5
16E73
330
747D
100
AcDbEntity
  8
部品1
100
AcDbLine
 10
5387.586457359143
 20
4751.834683247194
 30
0.0
 11
5387.648905187823
 21
4751.834683247192
 31
0.0
  0
LINE
  5
16E74
330
747D
100
AcDbEntity
  8
細線
 48
50.0
100
AcDbLine
 10
5367.586457359142
 20
4751.834683247194
 30
0.0
 11
5367.586457359142
 21
4752.084683247194
 31
0.0
  0
LINE
  5
16E75
330
747D
100
AcDbEntity
  8
部品1
 48
0.2
100
AcDbLine
 10
5387.586457359143
 20
4745.084683247195
 30
0.0
 11
5367.586457359142
 21
4745.084683247195
 31
0.0
  0
LINE
  5
16E76
330
747D
100
AcDbEntity
  8
細線
 48
0.2
100
AcDbLine
 10
5387.586457359143
 20
4747.584683247194
 30
0.0
 11
5367.586457359142
 21
4747.584683247194
 31
0.0
  0
LINE
  5
16E77
330
747D
100
AcDbEntity
  8
細線
 48
50.0
100
AcDbLine
 10
5383.574110210802
 20
4749.584683247195
 30
0.0
 11
5383.574110210802
 21
4747.584683247194
 31
0.0
  0
LINE
  5
16E78
330
747D
100
AcDbEntity
  8
細線
 48
50.0
100
AcDbLine
 10
5375.723700164839
 20
4749.584683247195
 30
0.0
 11
5375.723700164839
 21
4747.584683247194
 31
0.0
  0
LINE
  5
16E79
330
747D
100
AcDbEntity
  8
細線
 48
0.1
100
AcDbLine
 10
5387.586457359143
 20
4752.084683247194
 30
0.0
 11
5387.586457359143
 21
4745.084683247195
 31
0.0
  0
LINE
  5
16E7A
330
747D
100
AcDbEntity
  8
部品1
 48
50.0
100
AcDbLine
 10
5367.586457359142
 20
4745.084683247195
 30
0.0
 11
5367.586457359142
 21
4751.834683247194
 31
0.0
  0
CIRCLE
  5
16E7B
330
747D
100
AcDbEntity
  8
細線
 48
20.0
100
AcDbCircle
 10
5519.149770242314
 20
3956.834683247194
 30
0.0
 40
20.0
  0
CIRCLE
  5
16E7C
330
747D
100
AcDbEntity
  8
細線
 48
20.0
100
AcDbCircle
 10
5519.149770242314
 20
3956.834683247194
 30
0.0
 40
10.0
  0
ARC
  5
16E7D
330
747D
100
AcDbEntity
  8
細線
100
AcDbCircle
 10
5533.648905187821
 20
3900.334683247194
 30
0.0
 40
6.0
100
AcDbArc
 50
0.0
 51
90.0
  0
ARC
  5
16E7E
330
747D
100
AcDbEntity
  8
細線
100
AcDbCircle
 10
5523.856444366567
 20
3897.334683247195
 30
0.0
 40
6.0
100
AcDbArc
 50
0.0
 51
90.0
  0
ARC
  5
16E7F
330
747D
100
AcDbEntity
  8
細線
100
AcDbCircle
 10
5538.648905187821
 20
3909.334683247195
 30
0.0
 40
5.5
100
AcDbArc
 50
0.0
 51
90.0
  0
ARC
  5
16E80
330
747D
100
AcDbEntity
  8
部品1
100
AcDbCircle
 10
5539.648905187822
 20
3910.334683247194
 30
0.0
 40
6.0
100
AcDbArc
 50
0.0
 51
90.0
  0
LINE
  5
16E81
330
747D
100
AcDbEntity
  8
細線
100
AcDbLine
 10
5513.143329097655
 20
3900.334683247194
 30
0.0
 11
5511.648905187822
 21
3900.334683247194
 31
0.0
  0
ARC
  5
16E82
330
747D
100
AcDbEntity
  8
細線
100
AcDbCircle
 10
5513.143329097655
 20
3897.334683247195
 30
0.0
 40
3.0
100
AcDbArc
 50
8.099550838287138
 51
90.0
  0
ARC
  5
16E83
330
747D
100
AcDbEntity
  8
細線
100
AcDbCircle
 10
5503.029861552299
 20
3900.334683247194
 30
0.0
 40
6.0
100
AcDbArc
 50
90.0
 51
171.2120626773417
  0
LINE
  5
16E84
330
747D
100
AcDbEntity
  8
細線
100
AcDbLine
 10
5511.648905187822
 20
3900.334175348631
 30
0.0
 11
5498.885577971854
 21
3900.334175348631
 31
0.0
  0
ARC
  5
16E85
330
747D
100
AcDbEntity
  8
細線
100
AcDbCircle
 10
5499.482286718576
 20
3909.334683247195
 30
0.0
 40
5.5
100
AcDbArc
 50
90.0
 51
169.5785490272547
  0
ARC
  5
16E86
330
747D
100
AcDbEntity
  8
部品1
100
AcDbCircle
 10
5498.650635296806
 20
3910.334683247194
 30
0.0
 40
6.0
100
AcDbArc
 50
90.0
 51
169.4161974034797
  0
LINE
  5
16E87
330
747D
100
AcDbEntity
  8
細線
100
AcDbLine
 10
5538.648905187821
 20
3914.834683247195
 30
0.0
 11
5499.482286718576
 21
3914.834683247195
 31
0.0
  0
LINE
  5
16E88
330
747D
100
AcDbEntity
  8
細線
100
AcDbLine
 10
5523.856444366567
 20
3903.334683247194
 30
0.0
 11
5511.648905187822
 21
3903.334683247194
 31
0.0
  0
LINE
  5
16E89
330
747D
100
AcDbEntity
  8
細線
100
AcDbLine
 10
5533.648905187821
 20
3906.334683247195
 30
0.0
 11
5503.029861552299
 21
3906.334683247195
 31
0.0
  0
LINE
  5
16E8A
330
747D
100
AcDbEntity
  8
部品1
100
AcDbLine
 10
5539.648905187822
 20
3916.334683247195
 30
0.0
 11
5498.650635296806
 21
3916.334683247195
 31
0.0
  0
ARC
  5
16E8B
330
747D
100
AcDbEntity
  8
細線
100
AcDbCircle
 10
5538.648905187821
 20
3803.334683247194
 30
0.0
 40
5.5
100
AcDbArc
 50
270.0
 51
0.0
  0
ARC
  5
16E8C
330
747D
100
AcDbEntity
  8
部品1
100
AcDbCircle
 10
5539.648905187822
 20
3802.334683247194
 30
0.0
 40
6.0
100
AcDbArc
 50
270.0
 51
0.0
  0
ARC
  5
16E8D
330
747D
100
AcDbEntity
  8
細線
100
AcDbCircle
 10
5499.482286718576
 20
3803.334683247194
 30
0.0
 40
5.5
100
AcDbArc
 50
190.4214509727453
 51
270.0
  0
ARC
  5
16E8E
330
747D
100
AcDbEntity
  8
部品1
100
AcDbCircle
 10
5498.650635296806
 20
3802.334683247194
 30
0.0
 40
6.0
100
AcDbArc
 50
190.5838025965202
 51
270.0
  0
LINE
  5
16E8F
330
747D
100
AcDbEntity
  8
細線
100
AcDbLine
 10
5499.482286718576
 20
3797.834683247194
 30
0.0
 11
5538.648905187821
 21
3797.834683247194
 31
0.0
  0
LINE
  5
16E90
330
747D
100
AcDbEntity
  8
部品1
100
AcDbLine
 10
5498.650635296806
 20
3796.334683247194
 30
0.0
 11
5539.648905187822
 21
3796.334683247194
 31
0.0
  0
ARC
  5
16E91
330
747D
100
AcDbEntity
  8
細線
100
AcDbCircle
 10
5533.648905187821
 20
3812.334683247195
 30
0.0
 40
6.0
100
AcDbArc
 50
270.0
 51
0.0
  0
ARC
  5
16E92
330
747D
100
AcDbEntity
  8
細線
100
AcDbCircle
 10
5523.856444366567
 20
3815.334683247195
 30
0.0
 40
6.0
100
AcDbArc
 50
270.0
 51
0.0
  0
LINE
  5
16E93
330
747D
100
AcDbEntity
  8
細線
100
AcDbLine
 10
5511.648905187822
 20
3812.334683247195
 30
0.0
 11
5513.143329097657
 21
3812.334683247195
 31
0.0
  0
ARC
  5
16E94
330
747D
100
AcDbEntity
  8
細線
100
AcDbCircle
 10
5513.143329097657
 20
3815.334683247195
 30
0.0
 40
3.0
100
AcDbArc
 50
270.0
 51
351.9004491617129
  0
ARC
  5
16E95
330
747D
100
AcDbEntity
  8
細線
100
AcDbCircle
 10
5503.029861552299
 20
3812.334683247195
 30
0.0
 40
6.0
100
AcDbArc
 50
188.7879373226583
 51
270.0
  0
LINE
  5
16E96
330
747D
100
AcDbEntity
  8
細線
100
AcDbLine
 10
5511.648905187822
 20
3812.335191145756
 30
0.0
 11
5498.170200688999
 21
3812.335191145756
 31
0.0
  0
LINE
  5
16E97
330
747D
100
AcDbEntity
  8
細線
100
AcDbLine
 10
5511.648905187822
 20
3809.334683247195
 30
0.0
 11
5523.856444366567
 21
3809.334683247195
 31
0.0
  0
LINE
  5
16E98
330
747D
100
AcDbEntity
  8
細線
100
AcDbLine
 10
5503.029861552299
 20
3806.334683247195
 30
0.0
 11
5533.648905187821
 21
3806.334683247195
 31
0.0
  0
LINE
  5
16E99
330
747D
100
AcDbEntity
  8
細線
100
AcDbLine
 10
5529.856444366568
 20
3815.334683247195
 30
0.0
 11
5529.856444366568
 21
3897.334683247195
 31
0.0
  0
LINE
  5
16E9A
330
747D
100
AcDbEntity
  8
細線
100
AcDbLine
 10
5539.648905187822
 20
3812.334683247195
 30
0.0
 11
5539.648905187822
 21
3900.334683247194
 31
0.0
  0
LINE
  5
16E9B
330
747D
100
AcDbEntity
  8
細線
100
AcDbLine
 10
5544.148905187821
 20
3803.334683247194
 30
0.0
 11
5544.148905187821
 21
3909.334683247195
 31
0.0
  0
LINE
  5
16E9C
330
747D
100
AcDbEntity
  8
部品1
100
AcDbLine
 10
5545.648905187821
 20
3802.334683247194
 30
0.0
 11
5545.648905187821
 21
3910.334683247194
 31
0.0
  0
LINE
  5
16E9D
330
747D
100
AcDbEntity
  8
細線
100
AcDbLine
 10
5511.648905187822
 20
3906.334683247195
 30
0.0
 11
5511.648905187822
 21
3806.334683247195
 31
0.0
  0
ARC
  5
16E9E
330
747D
100
AcDbEntity
  8
細線
100
AcDbCircle
 10
5787.648905187822
 20
3856.334683247194
 30
0.0
 40
298.5
100
AcDbArc
 50
169.5785490272547
 51
190.4214509727453
  0
ARC
  5
16E9F
330
747D
100
AcDbEntity
  8
細線
100
AcDbCircle
 10
5787.648905187822
 20
3856.334683247194
 30
0.0
 40
294.0
100
AcDbArc
 50
171.2120626773417
 51
188.7879373226583
  0
ARC
  5
16EA0
330
747D
100
AcDbEntity
  8
細線
100
AcDbCircle
 10
5225.046123279897
 20
3856.334683247194
 30
0.0
 40
294.0
100
AcDbArc
 50
351.9004491617129
 51
8.099550838287138
  0
ARC
  5
16EA1
330
747D
100
AcDbEntity
  8
部品1
100
AcDbCircle
 10
5787.648905187822
 20
3856.334683247194
 30
0.0
 40
300.0
100
AcDbArc
 50
169.4161974034797
 51
190.5838025965202
  0
LINE
  5
16EA2
330
747D
100
AcDbEntity
  8
細線
 48
0.2
100
AcDbLine
 10
5387.586457359143
 20
2965.084683247211
 30
0.0
 11
5367.586457359142
 21
2965.084683247211
 31
0.0
  0
LINE
  5
16EA3
330
747D
100
AcDbEntity
  8
部品1
 48
0.2
100
AcDbLine
 10
5387.586457359143
 20
2967.584683247211
 30
0.0
 11
5367.586457359142
 21
2967.584683247211
 31
0.0
  0
ARC
  5
16EA4
330
747D
100
AcDbEntity
  8
細線
 48
0.2
100
AcDbCircle
 10
5384.586457359143
 20
2960.614173415963
 30
0.0
 40
1.0
100
AcDbArc
 50
286.6015495989848
 51
0.0
  0
LINE
  5
16EA5
330
747D
100
AcDbEntity
  8
細線
 48
0.2
100
AcDbLine
 10
5387.586457359143
 20
2960.584683247211
 30
0.0
 11
5367.586457359142
 21
2960.584683247211
 31
0.0
  0
LINE
  5
16EA6
330
747D
100
AcDbEntity
  8
細線
 48
0.2
100
AcDbLine
 10
5387.586457359143
 20
2963.084683247211
 30
0.0
 11
5367.586457359142
 21
2963.084683247213
 31
0.0
  0
ARC
  5
16EA7
330
747D
100
AcDbEntity
  8
細線
 48
0.2
100
AcDbCircle
 10
5374.586457359143
 20
2960.614173415963
 30
0.0
 40
1.0
100
AcDbArc
 50
180.0
 51
253.3984504010152
  0
ARC
  5
16EA8
330
747D
100
AcDbEntity
  8
細線
 48
0.2
100
AcDbCircle
 10
5379.586457359142
 20
2977.384683247208
 30
0.0
 40
18.49999999999796
100
AcDbArc
 50
253.3984504010152
 51
286.6015495989848
  0
LINE
  5
16EA9
330
747D
100
AcDbEntity
  8
細線
 48
0.2
100
AcDbLine
 10
5385.27044865565
 20
2959.88468324721
 30
0.0
 11
5373.902466062638
 21
2959.88468324721
 31
0.0
  0
LINE
  5
16EAA
330
747D
100
AcDbEntity
  8
細線
 48
50.0
100
AcDbLine
 10
5367.586457359142
 20
2960.834683247213
 30
0.0
 11
5367.586457359142
 21
2960.584683247211
 31
0.0
  0
LINE
  5
16EAB
330
747D
100
AcDbEntity
  8
部品1
100
AcDbLine
 10
5387.586457359143
 20
2960.834683247213
 30
0.0
 11
5387.648905187823
 21
2960.834683247213
 31
0.0
  0
LINE
  5
16EAC
330
747D
100
AcDbEntity
  8
部品1
100
AcDbLine
 10
5387.586457359143
 20
2960.834683247203
 30
0.0
 11
5387.648905187823
 21
2960.834683247203
 31
0.0
  0
LINE
  5
16EAD
330
747D
100
AcDbEntity
  8
細線
 48
0.1
100
AcDbLine
 10
5387.586457359143
 20
2960.584683247211
 30
0.0
 11
5387.586457359143
 21
2967.584683247211
 31
0.0
  0
LINE
  5
16EAE
330
747D
100
AcDbEntity
  8
細線
 48
50.0
100
AcDbLine
 10
5375.723700164839
 20
2963.084683247213
 30
0.0
 11
5375.723700164839
 21
2965.084683247211
 31
0.0
  0
LINE
  5
16EAF
330
747D
100
AcDbEntity
  8
細線
 48
50.0
100
AcDbLine
 10
5383.574110210802
 20
2963.084683247213
 30
0.0
 11
5383.574110210802
 21
2965.084683247211
 31
0.0
  0
LINE
  5
16EB0
330
747D
100
AcDbEntity
  8
部品1
 48
50.0
100
AcDbLine
 10
5367.586457359142
 20
2967.584683247211
 30
0.0
 11
5367.586457359142
 21
2960.834683247213
 31
0.0
  0
LINE
  5
16EB1
330
747D
100
AcDbEntity
  8
部品1
100
AcDbLine
 10
5477.648905187823
 20
4751.83468324719
 30
0.0
 11
5477.648905187823
 21
2960.834683247206
 31
0.0
  0
LINE
  5
16EB2
330
747D
100
AcDbEntity
  8
部品1
100
AcDbLine
 10
5475.648905187823
 20
4754.334683247193
 30
0.0
 11
5475.648905187823
 21
2957.334683247213
 31
0.0
  0
LINE
  5
16EB3
330
747D
100
AcDbEntity
  8
部品1
100
AcDbLine
 10
5389.648905187823
 20
4754.334683247193
 30
0.0
 11
5389.648905187823
 21
2957.334683247213
 31
0.0
  0
LINE
  5
16EB4
330
747D
100
AcDbEntity
  8
部品1
100
AcDbLine
 10
5387.648905187822
 20
4751.834683247192
 30
0.0
 11
5387.648905187823
 21
2960.834683247203
 31
0.0
  0
CIRCLE
  5
16EB5
330
747D
100
AcDbEntity
  8
細線
 48
20.0
100
AcDbCircle
 10
7159.149770242315
 20
3956.834683247194
 30
0.0
 40
20.0
  0
CIRCLE
  5
16EB6
330
747D
100
AcDbEntity
  8
細線
 48
20.0
100
AcDbCircle
 10
7159.149770242315
 20
3956.834683247194
 30
0.0
 40
10.0
  0
ARC
  5
16EB7
330
747D
100
AcDbEntity
  8
細線
100
AcDbCircle
 10
7173.648905187822
 20
3900.334683247194
 30
0.0
 40
6.0
100
AcDbArc
 50
0.0
 51
90.0
  0
ARC
  5
16EB8
330
747D
100
AcDbEntity
  8
細線
100
AcDbCircle
 10
7163.856444366567
 20
3897.334683247195
 30
0.0
 40
6.0
100
AcDbArc
 50
0.0
 51
90.0
  0
ARC
  5
16EB9
330
747D
100
AcDbEntity
  8
細線
100
AcDbCircle
 10
7178.648905187822
 20
3909.334683247195
 30
0.0
 40
5.5
100
AcDbArc
 50
0.0
 51
90.0
  0
ARC
  5
16EBA
330
747D
100
AcDbEntity
  8
部品1
100
AcDbCircle
 10
7179.648905187821
 20
3910.334683247194
 30
0.0
 40
6.0
100
AcDbArc
 50
0.0
 51
90.0
  0
LINE
  5
16EBB
330
747D
100
AcDbEntity
  8
細線
100
AcDbLine
 10
7153.143329097655
 20
3900.334683247194
 30
0.0
 11
7151.648905187823
 21
3900.334683247194
 31
0.0
  0
ARC
  5
16EBC
330
747D
100
AcDbEntity
  8
細線
100
AcDbCircle
 10
7153.143329097655
 20
3897.334683247195
 30
0.0
 40
3.0
100
AcDbArc
 50
8.099550838287138
 51
90.0
  0
ARC
  5
16EBD
330
747D
100
AcDbEntity
  8
細線
100
AcDbCircle
 10
7143.029861552299
 20
3900.334683247194
 30
0.0
 40
6.0
100
AcDbArc
 50
90.0
 51
171.2120626773417
  0
LINE
  5
16EBE
330
747D
100
AcDbEntity
  8
細線
100
AcDbLine
 10
7151.648905187823
 20
3900.334175348631
 30
0.0
 11
7138.885577971854
 21
3900.334175348631
 31
0.0
  0
ARC
  5
16EBF
330
747D
100
AcDbEntity
  8
細線
100
AcDbCircle
 10
7139.482286718576
 20
3909.334683247195
 30
0.0
 40
5.5
100
AcDbArc
 50
90.0
 51
169.5785490272547
  0
ARC
  5
16EC0
330
747D
100
AcDbEntity
  8
部品1
100
AcDbCircle
 10
7138.650635296807
 20
3910.334683247194
 30
0.0
 40
6.0
100
AcDbArc
 50
90.0
 51
169.4161974034797
  0
LINE
  5
16EC1
330
747D
100
AcDbEntity
  8
細線
100
AcDbLine
 10
7178.648905187822
 20
3914.834683247195
 30
0.0
 11
7139.482286718576
 21
3914.834683247195
 31
0.0
  0
LINE
  5
16EC2
330
747D
100
AcDbEntity
  8
細線
100
AcDbLine
 10
7163.856444366567
 20
3903.334683247194
 30
0.0
 11
7151.648905187823
 21
3903.334683247194
 31
0.0
  0
LINE
  5
16EC3
330
747D
100
AcDbEntity
  8
細線
100
AcDbLine
 10
7173.648905187822
 20
3906.334683247195
 30
0.0
 11
7143.029861552299
 21
3906.334683247195
 31
0.0
  0
LINE
  5
16EC4
330
747D
100
AcDbEntity
  8
部品1
100
AcDbLine
 10
7179.648905187821
 20
3916.334683247195
 30
0.0
 11
7138.650635296807
 21
3916.334683247195
 31
0.0
  0
ARC
  5
16EC5
330
747D
100
AcDbEntity
  8
細線
100
AcDbCircle
 10
7178.648905187822
 20
3803.334683247194
 30
0.0
 40
5.5
100
AcDbArc
 50
270.0
 51
0.0
  0
ARC
  5
16EC6
330
747D
100
AcDbEntity
  8
部品1
100
AcDbCircle
 10
7179.648905187821
 20
3802.334683247194
 30
0.0
 40
6.0
100
AcDbArc
 50
270.0
 51
0.0
  0
ARC
  5
16EC7
330
747D
100
AcDbEntity
  8
細線
100
AcDbCircle
 10
7139.482286718576
 20
3803.334683247194
 30
0.0
 40
5.5
100
AcDbArc
 50
190.4214509727453
 51
270.0
  0
ARC
  5
16EC8
330
747D
100
AcDbEntity
  8
部品1
100
AcDbCircle
 10
7138.650635296807
 20
3802.334683247194
 30
0.0
 40
6.0
100
AcDbArc
 50
190.5838025965202
 51
270.0
  0
LINE
  5
16EC9
330
747D
100
AcDbEntity
  8
細線
100
AcDbLine
 10
7139.482286718576
 20
3797.834683247194
 30
0.0
 11
7178.648905187822
 21
3797.834683247194
 31
0.0
  0
LINE
  5
16ECA
330
747D
100
AcDbEntity
  8
部品1
100
AcDbLine
 10
7138.650635296807
 20
3796.334683247194
 30
0.0
 11
7179.648905187821
 21
3796.334683247194
 31
0.0
  0
ARC
  5
16ECB
330
747D
100
AcDbEntity
  8
細線
100
AcDbCircle
 10
7173.648905187822
 20
3812.334683247195
 30
0.0
 40
6.0
100
AcDbArc
 50
270.0
 51
0.0
  0
ARC
  5
16ECC
330
747D
100
AcDbEntity
  8
細線
100
AcDbCircle
 10
7163.856444366567
 20
3815.334683247195
 30
0.0
 40
6.0
100
AcDbArc
 50
270.0
 51
0.0
  0
LINE
  5
16ECD
330
747D
100
AcDbEntity
  8
細線
100
AcDbLine
 10
7151.648905187823
 20
3812.334683247195
 30
0.0
 11
7153.143329097656
 21
3812.334683247195
 31
0.0
  0
ARC
  5
16ECE
330
747D
100
AcDbEntity
  8
細線
100
AcDbCircle
 10
7153.143329097656
 20
3815.334683247195
 30
0.0
 40
3.0
100
AcDbArc
 50
270.0
 51
351.9004491617129
  0
ARC
  5
16ECF
330
747D
100
AcDbEntity
  8
細線
100
AcDbCircle
 10
7143.029861552299
 20
3812.334683247195
 30
0.0
 40
6.0
100
AcDbArc
 50
188.7879373226583
 51
270.0
  0
LINE
  5
16ED0
330
747D
100
AcDbEntity
  8
細線
100
AcDbLine
 10
7151.648905187823
 20
3812.335191145756
 30
0.0
 11
7138.170200689
 21
3812.335191145756
 31
0.0
  0
LINE
  5
16ED1
330
747D
100
AcDbEntity
  8
細線
100
AcDbLine
 10
7151.648905187823
 20
3809.334683247195
 30
0.0
 11
7163.856444366567
 21
3809.334683247195
 31
0.0
  0
LINE
  5
16ED2
330
747D
100
AcDbEntity
  8
細線
100
AcDbLine
 10
7143.029861552299
 20
3806.334683247195
 30
0.0
 11
7173.648905187822
 21
3806.334683247195
 31
0.0
  0
LINE
  5
16ED3
330
747D
100
AcDbEntity
  8
細線
100
AcDbLine
 10
7169.856444366567
 20
3815.334683247195
 30
0.0
 11
7169.856444366567
 21
3897.334683247195
 31
0.0
  0
LINE
  5
16ED4
330
747D
100
AcDbEntity
  8
細線
100
AcDbLine
 10
7179.648905187821
 20
3812.334683247195
 30
0.0
 11
7179.648905187821
 21
3900.334683247194
 31
0.0
  0
LINE
  5
16ED5
330
747D
100
AcDbEntity
  8
細線
100
AcDbLine
 10
7184.148905187822
 20
3803.334683247194
 30
0.0
 11
7184.148905187822
 21
3909.334683247195
 31
0.0
  0
LINE
  5
16ED6
330
747D
100
AcDbEntity
  8
部品1
100
AcDbLine
 10
7185.648905187822
 20
3802.334683247194
 30
0.0
 11
7185.648905187822
 21
3910.334683247194
 31
0.0
  0
LINE
  5
16ED7
330
747D
100
AcDbEntity
  8
細線
100
AcDbLine
 10
7151.648905187823
 20
3906.334683247195
 30
0.0
 11
7151.648905187823
 21
3806.334683247195
 31
0.0
  0
ARC
  5
16ED8
330
747D
100
AcDbEntity
  8
細線
100
AcDbCircle
 10
7427.648905187822
 20
3856.334683247194
 30
0.0
 40
298.5
100
AcDbArc
 50
169.5785490272547
 51
190.4214509727453
  0
ARC
  5
16ED9
330
747D
100
AcDbEntity
  8
細線
100
AcDbCircle
 10
7427.648905187822
 20
3856.334683247194
 30
0.0
 40
294.0
100
AcDbArc
 50
171.2120626773417
 51
188.7879373226583
  0
ARC
  5
16EDA
330
747D
100
AcDbEntity
  8
細線
100
AcDbCircle
 10
6865.046123279897
 20
3856.334683247194
 30
0.0
 40
294.0
100
AcDbArc
 50
351.9004491617129
 51
8.099550838287138
  0
ARC
  5
16EDB
330
747D
100
AcDbEntity
  8
部品1
100
AcDbCircle
 10
7427.648905187822
 20
3856.334683247194
 30
0.0
 40
300.0
100
AcDbArc
 50
169.4161974034797
 51
190.5838025965202
  0
LINE
  5
16EDC
330
747D
100
AcDbEntity
  8
部品1
100
AcDbLine
 10
6359.648905187821
 20
3916.334683247195
 30
0.0
 11
6318.650635296807
 21
3916.334683247195
 31
0.0
  0
LINE
  5
16EDD
330
747D
100
AcDbEntity
  8
細線
100
AcDbLine
 10
6353.648905187822
 20
3906.334683247195
 30
0.0
 11
6323.029861552299
 21
3906.334683247195
 31
0.0
  0
LINE
  5
16EDE
330
747D
100
AcDbEntity
  8
細線
100
AcDbLine
 10
6343.856444366568
 20
3903.334683247194
 30
0.0
 11
6331.648905187821
 21
3903.334683247194
 31
0.0
  0
LINE
  5
16EDF
330
747D
100
AcDbEntity
  8
細線
100
AcDbLine
 10
6358.648905187822
 20
3914.834683247195
 30
0.0
 11
6319.482286718575
 21
3914.834683247195
 31
0.0
  0
ARC
  5
16EE0
330
747D
100
AcDbEntity
  8
部品1
100
AcDbCircle
 10
6318.650635296807
 20
3910.334683247194
 30
0.0
 40
6.0
100
AcDbArc
 50
90.0
 51
169.4161974034797
  0
ARC
  5
16EE1
330
747D
100
AcDbEntity
  8
細線
100
AcDbCircle
 10
6319.482286718575
 20
3909.334683247195
 30
0.0
 40
5.5
100
AcDbArc
 50
90.0
 51
169.5785490272547
  0
LINE
  5
16EE2
330
747D
100
AcDbEntity
  8
細線
100
AcDbLine
 10
6331.648905187821
 20
3900.334175348631
 30
0.0
 11
6318.885577971855
 21
3900.334175348631
 31
0.0
  0
ARC
  5
16EE3
330
747D
100
AcDbEntity
  8
細線
100
AcDbCircle
 10
6323.029861552299
 20
3900.334683247194
 30
0.0
 40
6.0
100
AcDbArc
 50
90.0
 51
171.2120626773417
  0
ARC
  5
16EE4
330
747D
100
AcDbEntity
  8
細線
100
AcDbCircle
 10
6333.143329097655
 20
3897.334683247195
 30
0.0
 40
3.0
100
AcDbArc
 50
8.099550838287138
 51
90.0
  0
LINE
  5
16EE5
330
747D
100
AcDbEntity
  8
細線
100
AcDbLine
 10
6333.143329097655
 20
3900.334683247194
 30
0.0
 11
6331.648905187821
 21
3900.334683247194
 31
0.0
  0
ARC
  5
16EE6
330
747D
100
AcDbEntity
  8
部品1
100
AcDbCircle
 10
6359.648905187821
 20
3910.334683247194
 30
0.0
 40
6.0
100
AcDbArc
 50
0.0
 51
90.0
  0
ARC
  5
16EE7
330
747D
100
AcDbEntity
  8
細線
100
AcDbCircle
 10
6358.648905187822
 20
3909.334683247195
 30
0.0
 40
5.5
100
AcDbArc
 50
0.0
 51
90.0
  0
ARC
  5
16EE8
330
747D
100
AcDbEntity
  8
細線
100
AcDbCircle
 10
6343.856444366568
 20
3897.334683247195
 30
0.0
 40
6.0
100
AcDbArc
 50
0.0
 51
90.0
  0
ARC
  5
16EE9
330
747D
100
AcDbEntity
  8
細線
100
AcDbCircle
 10
6353.648905187822
 20
3900.334683247194
 30
0.0
 40
6.0
100
AcDbArc
 50
0.0
 51
90.0
  0
CIRCLE
  5
16EEA
330
747D
100
AcDbEntity
  8
細線
 48
20.0
100
AcDbCircle
 10
6339.149770242315
 20
3956.834683247194
 30
0.0
 40
10.0
  0
CIRCLE
  5
16EEB
330
747D
100
AcDbEntity
  8
細線
 48
20.0
100
AcDbCircle
 10
6339.149770242315
 20
3956.834683247194
 30
0.0
 40
20.0
  0
LINE
  5
16EEC
330
747D
100
AcDbEntity
  8
細線
100
AcDbLine
 10
6323.029861552299
 20
3806.334683247195
 30
0.0
 11
6353.648905187822
 21
3806.334683247195
 31
0.0
  0
LINE
  5
16EED
330
747D
100
AcDbEntity
  8
細線
100
AcDbLine
 10
6331.648905187821
 20
3809.334683247195
 30
0.0
 11
6343.856444366568
 21
3809.334683247195
 31
0.0
  0
LINE
  5
16EEE
330
747D
100
AcDbEntity
  8
細線
100
AcDbLine
 10
6331.648905187821
 20
3812.335191145756
 30
0.0
 11
6318.170200688999
 21
3812.335191145756
 31
0.0
  0
ARC
  5
16EEF
330
747D
100
AcDbEntity
  8
細線
100
AcDbCircle
 10
6323.029861552299
 20
3812.334683247195
 30
0.0
 40
6.0
100
AcDbArc
 50
188.7879373226583
 51
270.0
  0
ARC
  5
16EF0
330
747D
100
AcDbEntity
  8
細線
100
AcDbCircle
 10
6333.143329097657
 20
3815.334683247195
 30
0.0
 40
3.0
100
AcDbArc
 50
270.0
 51
351.9004491617129
  0
LINE
  5
16EF1
330
747D
100
AcDbEntity
  8
細線
100
AcDbLine
 10
6331.648905187821
 20
3812.334683247195
 30
0.0
 11
6333.143329097657
 21
3812.334683247195
 31
0.0
  0
ARC
  5
16EF2
330
747D
100
AcDbEntity
  8
細線
100
AcDbCircle
 10
6343.856444366568
 20
3815.334683247195
 30
0.0
 40
6.0
100
AcDbArc
 50
270.0
 51
0.0
  0
ARC
  5
16EF3
330
747D
100
AcDbEntity
  8
細線
100
AcDbCircle
 10
6353.648905187822
 20
3812.334683247195
 30
0.0
 40
6.0
100
AcDbArc
 50
270.0
 51
0.0
  0
LINE
  5
16EF4
330
747D
100
AcDbEntity
  8
部品1
100
AcDbLine
 10
6318.650635296807
 20
3796.334683247194
 30
0.0
 11
6359.648905187821
 21
3796.334683247194
 31
0.0
  0
LINE
  5
16EF5
330
747D
100
AcDbEntity
  8
細線
100
AcDbLine
 10
6319.482286718575
 20
3797.834683247194
 30
0.0
 11
6358.648905187822
 21
3797.834683247194
 31
0.0
  0
ARC
  5
16EF6
330
747D
100
AcDbEntity
  8
部品1
100
AcDbCircle
 10
6318.650635296807
 20
3802.334683247194
 30
0.0
 40
6.0
100
AcDbArc
 50
190.5838025965202
 51
270.0
  0
ARC
  5
16EF7
330
747D
100
AcDbEntity
  8
細線
100
AcDbCircle
 10
6319.482286718575
 20
3803.334683247194
 30
0.0
 40
5.5
100
AcDbArc
 50
190.4214509727453
 51
270.0
  0
ARC
  5
16EF8
330
747D
100
AcDbEntity
  8
部品1
100
AcDbCircle
 10
6359.648905187821
 20
3802.334683247194
 30
0.0
 40
6.0
100
AcDbArc
 50
270.0
 51
0.0
  0
ARC
  5
16EF9
330
747D
100
AcDbEntity
  8
細線
100
AcDbCircle
 10
6358.648905187822
 20
3803.334683247194
 30
0.0
 40
5.5
100
AcDbArc
 50
270.0
 51
0.0
  0
ARC
  5
16EFA
330
747D
100
AcDbEntity
  8
部品1
100
AcDbCircle
 10
6607.648905187821
 20
3856.334683247194
 30
0.0
 40
300.0
100
AcDbArc
 50
169.4161974034797
 51
190.5838025965202
  0
ARC
  5
16EFB
330
747D
100
AcDbEntity
  8
細線
100
AcDbCircle
 10
6045.046123279897
 20
3856.334683247194
 30
0.0
 40
294.0
100
AcDbArc
 50
351.9004491617129
 51
8.099550838287138
  0
ARC
  5
16EFC
330
747D
100
AcDbEntity
  8
細線
100
AcDbCircle
 10
6607.648905187821
 20
3856.334683247194
 30
0.0
 40
294.0
100
AcDbArc
 50
171.2120626773417
 51
188.7879373226583
  0
ARC
  5
16EFD
330
747D
100
AcDbEntity
  8
細線
100
AcDbCircle
 10
6607.648905187821
 20
3856.334683247194
 30
0.0
 40
298.5
100
AcDbArc
 50
169.5785490272547
 51
190.4214509727453
  0
LINE
  5
16EFE
330
747D
100
AcDbEntity
  8
細線
100
AcDbLine
 10
6331.648905187821
 20
3906.334683247195
 30
0.0
 11
6331.648905187821
 21
3806.334683247195
 31
0.0
  0
LINE
  5
16EFF
330
747D
100
AcDbEntity
  8
部品1
100
AcDbLine
 10
6365.648905187821
 20
3802.334683247194
 30
0.0
 11
6365.648905187821
 21
3910.334683247194
 31
0.0
  0
LINE
  5
16F00
330
747D
100
AcDbEntity
  8
細線
100
AcDbLine
 10
6364.148905187821
 20
3803.334683247194
 30
0.0
 11
6364.148905187821
 21
3909.334683247195
 31
0.0
  0
LINE
  5
16F01
330
747D
100
AcDbEntity
  8
細線
100
AcDbLine
 10
6359.648905187821
 20
3812.334683247195
 30
0.0
 11
6359.648905187821
 21
3900.334683247194
 31
0.0
  0
LINE
  5
16F02
330
747D
100
AcDbEntity
  8
細線
100
AcDbLine
 10
6349.856444366567
 20
3815.334683247195
 30
0.0
 11
6349.856444366567
 21
3897.334683247195
 31
0.0
  0
ARC
  5
16F03
330
747D
100
AcDbEntity
  8
部品1
100
AcDbCircle
 10
4967.648905187822
 20
3856.334683247194
 30
0.0
 40
300.0
100
AcDbArc
 50
169.4161974034797
 51
190.5838025965202
  0
ARC
  5
16F04
330
747D
100
AcDbEntity
  8
細線
100
AcDbCircle
 10
4405.046123279897
 20
3856.334683247194
 30
0.0
 40
294.0
100
AcDbArc
 50
351.9004491617129
 51
8.099550838287138
  0
ARC
  5
16F05
330
747D
100
AcDbEntity
  8
細線
100
AcDbCircle
 10
4967.648905187822
 20
3856.334683247194
 30
0.0
 40
294.0
100
AcDbArc
 50
171.2120626773417
 51
188.7879373226583
  0
ARC
  5
16F06
330
747D
100
AcDbEntity
  8
細線
100
AcDbCircle
 10
4967.648905187822
 20
3856.334683247194
 30
0.0
 40
298.5
100
AcDbArc
 50
169.5785490272547
 51
190.4214509727453
  0
LINE
  5
16F07
330
747D
100
AcDbEntity
  8
細線
100
AcDbLine
 10
4691.648905187821
 20
3906.334683247195
 30
0.0
 11
4691.648905187821
 21
3806.334683247195
 31
0.0
  0
LINE
  5
16F08
330
747D
100
AcDbEntity
  8
部品1
100
AcDbLine
 10
4725.648905187822
 20
3802.334683247194
 30
0.0
 11
4725.648905187822
 21
3910.334683247194
 31
0.0
  0
LINE
  5
16F09
330
747D
100
AcDbEntity
  8
細線
100
AcDbLine
 10
4724.148905187822
 20
3803.334683247194
 30
0.0
 11
4724.148905187822
 21
3909.334683247195
 31
0.0
  0
LINE
  5
16F0A
330
747D
100
AcDbEntity
  8
細線
100
AcDbLine
 10
4719.648905187821
 20
3812.334683247195
 30
0.0
 11
4719.648905187821
 21
3900.334683247194
 31
0.0
  0
LINE
  5
16F0B
330
747D
100
AcDbEntity
  8
細線
100
AcDbLine
 10
4709.856444366567
 20
3815.334683247195
 30
0.0
 11
4709.856444366567
 21
3897.334683247195
 31
0.0
  0
LINE
  5
16F0C
330
747D
100
AcDbEntity
  8
細線
100
AcDbLine
 10
4683.029861552299
 20
3806.334683247195
 30
0.0
 11
4713.648905187821
 21
3806.334683247195
 31
0.0
  0
LINE
  5
16F0D
330
747D
100
AcDbEntity
  8
細線
100
AcDbLine
 10
4691.648905187821
 20
3809.334683247195
 30
0.0
 11
4703.856444366567
 21
3809.334683247195
 31
0.0
  0
LINE
  5
16F0E
330
747D
100
AcDbEntity
  8
細線
100
AcDbLine
 10
4691.648905187821
 20
3812.335191145756
 30
0.0
 11
4678.170200688999
 21
3812.335191145756
 31
0.0
  0
ARC
  5
16F0F
330
747D
100
AcDbEntity
  8
細線
100
AcDbCircle
 10
4683.029861552299
 20
3812.334683247195
 30
0.0
 40
6.0
100
AcDbArc
 50
188.7879373226583
 51
270.0
  0
ARC
  5
16F10
330
747D
100
AcDbEntity
  8
細線
100
AcDbCircle
 10
4693.143329097656
 20
3815.334683247195
 30
0.0
 40
3.0
100
AcDbArc
 50
270.0
 51
351.9004491617129
  0
LINE
  5
16F11
330
747D
100
AcDbEntity
  8
細線
100
AcDbLine
 10
4691.648905187821
 20
3812.334683247195
 30
0.0
 11
4693.143329097656
 21
3812.334683247195
 31
0.0
  0
ARC
  5
16F12
330
747D
100
AcDbEntity
  8
細線
100
AcDbCircle
 10
4703.856444366567
 20
3815.334683247195
 30
0.0
 40
6.0
100
AcDbArc
 50
270.0
 51
0.0
  0
ARC
  5
16F13
330
747D
100
AcDbEntity
  8
細線
100
AcDbCircle
 10
4713.648905187821
 20
3812.334683247195
 30
0.0
 40
6.0
100
AcDbArc
 50
270.0
 51
0.0
  0
LINE
  5
16F14
330
747D
100
AcDbEntity
  8
部品1
100
AcDbLine
 10
4719.648905187821
 20
3916.334683247195
 30
0.0
 11
4678.650635296806
 21
3916.334683247195
 31
0.0
  0
LINE
  5
16F15
330
747D
100
AcDbEntity
  8
細線
100
AcDbLine
 10
4713.648905187821
 20
3906.334683247195
 30
0.0
 11
4683.029861552299
 21
3906.334683247195
 31
0.0
  0
LINE
  5
16F16
330
747D
100
AcDbEntity
  8
細線
100
AcDbLine
 10
4703.856444366567
 20
3903.334683247194
 30
0.0
 11
4691.648905187821
 21
3903.334683247194
 31
0.0
  0
LINE
  5
16F17
330
747D
100
AcDbEntity
  8
細線
100
AcDbLine
 10
4718.648905187822
 20
3914.834683247195
 30
0.0
 11
4679.482286718576
 21
3914.834683247195
 31
0.0
  0
ARC
  5
16F18
330
747D
100
AcDbEntity
  8
部品1
100
AcDbCircle
 10
4678.650635296806
 20
3910.334683247194
 30
0.0
 40
6.0
100
AcDbArc
 50
90.0
 51
169.4161974034797
  0
ARC
  5
16F19
330
747D
100
AcDbEntity
  8
細線
100
AcDbCircle
 10
4679.482286718576
 20
3909.334683247195
 30
0.0
 40
5.5
100
AcDbArc
 50
90.0
 51
169.5785490272547
  0
LINE
  5
16F1A
330
747D
100
AcDbEntity
  8
細線
100
AcDbLine
 10
4691.648905187821
 20
3900.334175348631
 30
0.0
 11
4678.885577971854
 21
3900.334175348631
 31
0.0
  0
ARC
  5
16F1B
330
747D
100
AcDbEntity
  8
細線
100
AcDbCircle
 10
4683.029861552299
 20
3900.334683247194
 30
0.0
 40
6.0
100
AcDbArc
 50
90.0
 51
171.2120626773417
  0
ARC
  5
16F1C
330
747D
100
AcDbEntity
  8
細線
100
AcDbCircle
 10
4693.143329097654
 20
3897.334683247195
 30
0.0
 40
3.0
100
AcDbArc
 50
8.099550838287138
 51
90.0
  0
LINE
  5
16F1D
330
747D
100
AcDbEntity
  8
細線
100
AcDbLine
 10
4693.143329097654
 20
3900.334683247194
 30
0.0
 11
4691.648905187821
 21
3900.334683247194
 31
0.0
  0
ARC
  5
16F1E
330
747D
100
AcDbEntity
  8
部品1
100
AcDbCircle
 10
4719.648905187821
 20
3910.334683247194
 30
0.0
 40
6.0
100
AcDbArc
 50
0.0
 51
90.0
  0
ARC
  5
16F1F
330
747D
100
AcDbEntity
  8
細線
100
AcDbCircle
 10
4718.648905187822
 20
3909.334683247195
 30
0.0
 40
5.5
100
AcDbArc
 50
0.0
 51
90.0
  0
ARC
  5
16F20
330
747D
100
AcDbEntity
  8
細線
100
AcDbCircle
 10
4703.856444366567
 20
3897.334683247195
 30
0.0
 40
6.0
100
AcDbArc
 50
0.0
 51
90.0
  0
ARC
  5
16F21
330
747D
100
AcDbEntity
  8
細線
100
AcDbCircle
 10
4713.648905187821
 20
3900.334683247194
 30
0.0
 40
6.0
100
AcDbArc
 50
0.0
 51
90.0
  0
CIRCLE
  5
16F22
330
747D
100
AcDbEntity
  8
細線
 48
20.0
100
AcDbCircle
 10
4699.149770242314
 20
3956.834683247194
 30
0.0
 40
10.0
  0
CIRCLE
  5
16F23
330
747D
100
AcDbEntity
  8
細線
 48
20.0
100
AcDbCircle
 10
4699.149770242314
 20
3956.834683247194
 30
0.0
 40
20.0
  0
LINE
  5
16F24
330
747D
100
AcDbEntity
  8
部品1
100
AcDbLine
 10
4678.650635296806
 20
3796.334683247194
 30
0.0
 11
4719.648905187821
 21
3796.334683247194
 31
0.0
  0
LINE
  5
16F25
330
747D
100
AcDbEntity
  8
細線
100
AcDbLine
 10
4679.482286718576
 20
3797.834683247194
 30
0.0
 11
4718.648905187822
 21
3797.834683247194
 31
0.0
  0
ARC
  5
16F26
330
747D
100
AcDbEntity
  8
部品1
100
AcDbCircle
 10
4678.650635296806
 20
3802.334683247194
 30
0.0
 40
6.0
100
AcDbArc
 50
190.5838025965202
 51
270.0
  0
ARC
  5
16F27
330
747D
100
AcDbEntity
  8
細線
100
AcDbCircle
 10
4679.482286718576
 20
3803.334683247194
 30
0.0
 40
5.5
100
AcDbArc
 50
190.4214509727453
 51
270.0
  0
ARC
  5
16F28
330
747D
100
AcDbEntity
  8
部品1
100
AcDbCircle
 10
4719.648905187821
 20
3802.334683247194
 30
0.0
 40
6.0
100
AcDbArc
 50
270.0
 51
0.0
  0
ARC
  5
16F29
330
747D
100
AcDbEntity
  8
細線
100
AcDbCircle
 10
4718.648905187822
 20
3803.334683247194
 30
0.0
 40
5.5
100
AcDbArc
 50
270.0
 51
0.0
  0
LINE
  5
16F2A
330
747D
100
AcDbEntity
  8
部品1
 48
50.0
100
AcDbLine
 10
7827.586457359142
 20
4745.084683247195
 30
0.0
 11
7827.586457359142
 21
4751.834683247194
 31
0.0
  0
LINE
  5
16F2B
330
747D
100
AcDbEntity
  8
細線
 48
50.0
100
AcDbLine
 10
7843.574110210802
 20
4749.584683247195
 30
0.0
 11
7843.574110210802
 21
4747.584683247194
 31
0.0
  0
LINE
  5
16F2C
330
747D
100
AcDbEntity
  8
細線
 48
50.0
100
AcDbLine
 10
7835.723700164838
 20
4749.584683247195
 30
0.0
 11
7835.723700164838
 21
4747.584683247194
 31
0.0
  0
LINE
  5
16F2D
330
747D
100
AcDbEntity
  8
細線
 48
0.1
100
AcDbLine
 10
7847.586457359142
 20
4752.084683247194
 30
0.0
 11
7847.586457359142
 21
4745.084683247195
 31
0.0
  0
LINE
  5
16F2E
330
747D
100
AcDbEntity
  8
部品1
 48
0.2
100
AcDbLine
 10
7847.586457359142
 20
4745.084683247195
 30
0.0
 11
7827.586457359142
 21
4745.084683247195
 31
0.0
  0
LINE
  5
16F2F
330
747D
100
AcDbEntity
  8
細線
 48
0.2
100
AcDbLine
 10
7847.586457359142
 20
4747.584683247194
 30
0.0
 11
7827.586457359142
 21
4747.584683247194
 31
0.0
  0
LINE
  5
16F30
330
747D
100
AcDbEntity
  8
部品1
100
AcDbLine
 10
7847.586457359142
 20
4751.83468324719
 30
0.0
 11
7847.648905187823
 21
4751.834683247192
 31
0.0
  0
LINE
  5
16F31
330
747D
100
AcDbEntity
  8
部品1
100
AcDbLine
 10
7847.586457359142
 20
4751.834683247194
 30
0.0
 11
7847.648905187823
 21
4751.834683247192
 31
0.0
  0
LINE
  5
16F32
330
747D
100
AcDbEntity
  8
細線
 48
50.0
100
AcDbLine
 10
7827.586457359142
 20
4751.834683247194
 30
0.0
 11
7827.586457359142
 21
4752.084683247194
 31
0.0
  0
LINE
  5
16F33
330
747D
100
AcDbEntity
  8
細線
 48
0.2
100
AcDbLine
 10
7845.27044865565
 20
4752.784683247194
 30
0.0
 11
7833.902466062638
 21
4752.784683247194
 31
0.0
  0
ARC
  5
16F34
330
747D
100
AcDbEntity
  8
細線
 48
0.2
100
AcDbCircle
 10
7839.586457359143
 20
4735.284683247196
 30
0.0
 40
18.49999999999796
100
AcDbArc
 50
73.39845040101522
 51
106.6015495989848
  0
ARC
  5
16F35
330
747D
100
AcDbEntity
  8
細線
 48
0.2
100
AcDbCircle
 10
7834.586457359143
 20
4752.055193078442
 30
0.0
 40
1.0
100
AcDbArc
 50
106.6015495989848
 51
180.0
  0
LINE
  5
16F36
330
747D
100
AcDbEntity
  8
細線
 48
0.2
100
AcDbLine
 10
7847.586457359142
 20
4749.584683247195
 30
0.0
 11
7827.586457359142
 21
4749.584683247195
 31
0.0
  0
LINE
  5
16F37
330
747D
100
AcDbEntity
  8
細線
 48
0.2
100
AcDbLine
 10
7847.586457359142
 20
4752.084683247194
 30
0.0
 11
7827.586457359142
 21
4752.084683247194
 31
0.0
  0
ARC
  5
16F38
330
747D
100
AcDbEntity
  8
細線
 48
0.2
100
AcDbCircle
 10
7844.586457359142
 20
4752.055193078442
 30
0.0
 40
1.0
100
AcDbArc
 50
0.0
 51
73.39845040101522
  0
LINE
  5
16F39
330
747D
100
AcDbEntity
  8
細線
 48
0.1
100
AcDbLine
 10
7027.586457359142
 20
4752.084683247194
 30
0.0
 11
7027.586457359142
 21
4745.084683247195
 31
0.0
  0
LINE
  5
16F3A
330
747D
100
AcDbEntity
  8
部品1
100
AcDbLine
 10
7027.586457359142
 20
4751.83468324719
 30
0.0
 11
7027.648905187823
 21
4751.834683247192
 31
0.0
  0
LINE
  5
16F3B
330
747D
100
AcDbEntity
  8
部品1
100
AcDbLine
 10
7027.586457359142
 20
4751.834683247194
 30
0.0
 11
7027.648905187823
 21
4751.834683247192
 31
0.0
  0
LINE
  5
16F3C
330
747D
100
AcDbEntity
  8
部品1
 48
50.0
100
AcDbLine
 10
7007.586457359143
 20
4745.084683247195
 30
0.0
 11
7007.586457359143
 21
4751.834683247194
 31
0.0
  0
LINE
  5
16F3D
330
747D
100
AcDbEntity
  8
細線
 48
50.0
100
AcDbLine
 10
7023.574110210802
 20
4749.584683247195
 30
0.0
 11
7023.574110210802
 21
4747.584683247194
 31
0.0
  0
LINE
  5
16F3E
330
747D
100
AcDbEntity
  8
細線
 48
50.0
100
AcDbLine
 10
7015.72370016484
 20
4749.584683247195
 30
0.0
 11
7015.72370016484
 21
4747.584683247194
 31
0.0
  0
LINE
  5
16F3F
330
747D
100
AcDbEntity
  8
細線
 48
50.0
100
AcDbLine
 10
7007.586457359143
 20
4751.834683247194
 30
0.0
 11
7007.586457359143
 21
4752.084683247194
 31
0.0
  0
LINE
  5
16F40
330
747D
100
AcDbEntity
  8
細線
 48
0.2
100
AcDbLine
 10
7025.270448655651
 20
4752.784683247194
 30
0.0
 11
7013.902466062639
 21
4752.784683247194
 31
0.0
  0
ARC
  5
16F41
330
747D
100
AcDbEntity
  8
細線
 48
0.2
100
AcDbCircle
 10
7019.586457359142
 20
4735.284683247196
 30
0.0
 40
18.49999999999796
100
AcDbArc
 50
73.39845040101522
 51
106.6015495989848
  0
ARC
  5
16F42
330
747D
100
AcDbEntity
  8
細線
 48
0.2
100
AcDbCircle
 10
7014.586457359142
 20
4752.055193078442
 30
0.0
 40
1.0
100
AcDbArc
 50
106.6015495989848
 51
180.0
  0
ARC
  5
16F43
330
747D
100
AcDbEntity
  8
細線
 48
0.2
100
AcDbCircle
 10
7024.586457359143
 20
4752.055193078442
 30
0.0
 40
1.0
100
AcDbArc
 50
0.0
 51
73.39845040101522
  0
LINE
  5
16F44
330
747D
100
AcDbEntity
  8
部品1
 48
0.2
100
AcDbLine
 10
7027.586457359142
 20
4745.084683247195
 30
0.0
 11
7007.586457359143
 21
4745.084683247195
 31
0.0
  0
LINE
  5
16F45
330
747D
100
AcDbEntity
  8
細線
 48
0.2
100
AcDbLine
 10
7027.586457359142
 20
4747.584683247194
 30
0.0
 11
7007.586457359143
 21
4747.584683247194
 31
0.0
  0
LINE
  5
16F46
330
747D
100
AcDbEntity
  8
細線
 48
0.2
100
AcDbLine
 10
7027.586457359142
 20
4749.584683247195
 30
0.0
 11
7007.586457359143
 21
4749.584683247195
 31
0.0
  0
LINE
  5
16F47
330
747D
100
AcDbEntity
  8
細線
 48
0.2
100
AcDbLine
 10
7027.586457359142
 20
4752.084683247194
 30
0.0
 11
7007.586457359143
 21
4752.084683247194
 31
0.0
  0
LINE
  5
16F48
330
747D
100
AcDbEntity
  8
部品1
100
AcDbLine
 10
7117.648905187824
 20
4751.834683247192
 30
0.0
 11
7827.586457359142
 21
4751.834683247192
 31
0.0
  0
LINE
  5
16F49
330
747D
100
AcDbEntity
  8
部品1
 48
50.0
100
AcDbLine
 10
6187.586457359143
 20
4745.084683247195
 30
0.0
 11
6187.586457359143
 21
4751.834683247194
 31
0.0
  0
LINE
  5
16F4A
330
747D
100
AcDbEntity
  8
細線
 48
0.1
100
AcDbLine
 10
6207.586457359142
 20
4752.084683247194
 30
0.0
 11
6207.586457359142
 21
4745.084683247195
 31
0.0
  0
LINE
  5
16F4B
330
747D
100
AcDbEntity
  8
細線
 48
50.0
100
AcDbLine
 10
6195.723700164839
 20
4749.584683247195
 30
0.0
 11
6195.723700164839
 21
4747.584683247194
 31
0.0
  0
LINE
  5
16F4C
330
747D
100
AcDbEntity
  8
細線
 48
50.0
100
AcDbLine
 10
6203.574110210802
 20
4749.584683247195
 30
0.0
 11
6203.574110210802
 21
4747.584683247194
 31
0.0
  0
LINE
  5
16F4D
330
747D
100
AcDbEntity
  8
細線
 48
0.2
100
AcDbLine
 10
6207.586457359142
 20
4747.584683247194
 30
0.0
 11
6187.586457359143
 21
4747.584683247194
 31
0.0
  0
LINE
  5
16F4E
330
747D
100
AcDbEntity
  8
部品1
 48
0.2
100
AcDbLine
 10
6207.586457359142
 20
4745.084683247195
 30
0.0
 11
6187.586457359143
 21
4745.084683247195
 31
0.0
  0
LINE
  5
16F4F
330
747D
100
AcDbEntity
  8
細線
 48
50.0
100
AcDbLine
 10
6187.586457359143
 20
4751.834683247194
 30
0.0
 11
6187.586457359143
 21
4752.084683247194
 31
0.0
  0
LINE
  5
16F50
330
747D
100
AcDbEntity
  8
部品1
100
AcDbLine
 10
6207.586457359142
 20
4751.834683247194
 30
0.0
 11
6207.648905187824
 21
4751.834683247192
 31
0.0
  0
LINE
  5
16F51
330
747D
100
AcDbEntity
  8
細線
 48
0.2
100
AcDbLine
 10
6207.586457359142
 20
4752.084683247194
 30
0.0
 11
6187.586457359143
 21
4752.084683247194
 31
0.0
  0
LINE
  5
16F52
330
747D
100
AcDbEntity
  8
細線
 48
0.2
100
AcDbLine
 10
6207.586457359142
 20
4749.584683247195
 30
0.0
 11
6187.586457359143
 21
4749.584683247195
 31
0.0
  0
ARC
  5
16F53
330
747D
100
AcDbEntity
  8
細線
 48
0.2
100
AcDbCircle
 10
6194.586457359143
 20
4752.055193078442
 30
0.0
 40
1.0
100
AcDbArc
 50
106.6015495989848
 51
180.0
  0
ARC
  5
16F54
330
747D
100
AcDbEntity
  8
細線
 48
0.2
100
AcDbCircle
 10
6204.586457359142
 20
4752.055193078442
 30
0.0
 40
1.0
100
AcDbArc
 50
0.0
 51
73.39845040101522
  0
ARC
  5
16F55
330
747D
100
AcDbEntity
  8
細線
 48
0.2
100
AcDbCircle
 10
6199.586457359142
 20
4735.284683247196
 30
0.0
 40
18.49999999999796
100
AcDbArc
 50
73.39845040101522
 51
106.6015495989848
  0
LINE
  5
16F56
330
747D
100
AcDbEntity
  8
細線
 48
0.2
100
AcDbLine
 10
6205.27044865565
 20
4752.784683247194
 30
0.0
 11
6193.902466062638
 21
4752.784683247194
 31
0.0
  0
LINE
  5
16F57
330
747D
100
AcDbEntity
  8
部品1
100
AcDbLine
 10
5477.648905187823
 20
4751.834683247194
 30
0.0
 11
6187.586457359143
 21
4751.834683247194
 31
0.0
  0
LINE
  5
16F58
330
747D
100
AcDbEntity
  8
部品1
100
AcDbLine
 10
6297.648905187822
 20
4751.83468324719
 30
0.0
 11
7007.586457359143
 21
4751.834683247192
 31
0.0
  0
LINE
  5
16F59
330
747D
100
AcDbEntity
  8
細線
 48
0.1
100
AcDbLine
 10
7847.586457359142
 20
2960.584683247211
 30
0.0
 11
7847.586457359142
 21
2967.584683247211
 31
0.0
  0
LINE
  5
16F5A
330
747D
100
AcDbEntity
  8
細線
 48
50.0
100
AcDbLine
 10
7835.723700164838
 20
2963.084683247213
 30
0.0
 11
7835.723700164838
 21
2965.084683247211
 31
0.0
  0
LINE
  5
16F5B
330
747D
100
AcDbEntity
  8
細線
 48
50.0
100
AcDbLine
 10
7843.574110210802
 20
2963.084683247213
 30
0.0
 11
7843.574110210802
 21
2965.084683247211
 31
0.0
  0
LINE
  5
16F5C
330
747D
100
AcDbEntity
  8
部品1
 48
50.0
100
AcDbLine
 10
7827.586457359142
 20
2967.584683247211
 30
0.0
 11
7827.586457359142
 21
2960.834683247213
 31
0.0
  0
LINE
  5
16F5D
330
747D
100
AcDbEntity
  8
部品1
100
AcDbLine
 10
7847.586457359142
 20
2960.834683247213
 30
0.0
 11
7847.648905187823
 21
2960.834683247213
 31
0.0
  0
ARC
  5
16F5E
330
747D
100
AcDbEntity
  8
細線
 48
0.2
100
AcDbCircle
 10
7844.586457359142
 20
2960.614173415963
 30
0.0
 40
1.0
100
AcDbArc
 50
286.6015495989848
 51
0.0
  0
LINE
  5
16F5F
330
747D
100
AcDbEntity
  8
細線
 48
0.2
100
AcDbLine
 10
7847.586457359142
 20
2960.584683247211
 30
0.0
 11
7827.586457359142
 21
2960.584683247211
 31
0.0
  0
LINE
  5
16F60
330
747D
100
AcDbEntity
  8
細線
 48
0.2
100
AcDbLine
 10
7847.586457359142
 20
2963.084683247211
 30
0.0
 11
7827.586457359142
 21
2963.084683247213
 31
0.0
  0
ARC
  5
16F61
330
747D
100
AcDbEntity
  8
細線
 48
0.2
100
AcDbCircle
 10
7834.586457359143
 20
2960.614173415963
 30
0.0
 40
1.0
100
AcDbArc
 50
180.0
 51
253.3984504010152
  0
ARC
  5
16F62
330
747D
100
AcDbEntity
  8
細線
 48
0.2
100
AcDbCircle
 10
7839.586457359143
 20
2977.384683247208
 30
0.0
 40
18.49999999999796
100
AcDbArc
 50
253.3984504010152
 51
286.6015495989848
  0
LINE
  5
16F63
330
747D
100
AcDbEntity
  8
細線
 48
0.2
100
AcDbLine
 10
7845.27044865565
 20
2959.88468324721
 30
0.0
 11
7833.902466062638
 21
2959.88468324721
 31
0.0
  0
LINE
  5
16F64
330
747D
100
AcDbEntity
  8
細線
 48
50.0
100
AcDbLine
 10
7827.586457359142
 20
2960.834683247213
 30
0.0
 11
7827.586457359142
 21
2960.584683247211
 31
0.0
  0
LINE
  5
16F65
330
747D
100
AcDbEntity
  8
部品1
100
AcDbLine
 10
7847.586457359142
 20
2960.834683247213
 30
0.0
 11
7847.648905187823
 21
2960.834683247213
 31
0.0
  0
LINE
  5
16F66
330
747D
100
AcDbEntity
  8
部品1
100
AcDbLine
 10
7847.586457359142
 20
2960.834683247215
 30
0.0
 11
7847.648905187823
 21
2960.834683247215
 31
0.0
  0
LINE
  5
16F67
330
747D
100
AcDbEntity
  8
細線
 48
0.2
100
AcDbLine
 10
7847.586457359142
 20
2965.084683247211
 30
0.0
 11
7827.586457359142
 21
2965.084683247211
 31
0.0
  0
LINE
  5
16F68
330
747D
100
AcDbEntity
  8
部品1
 48
0.2
100
AcDbLine
 10
7847.586457359142
 20
2967.584683247211
 30
0.0
 11
7827.586457359142
 21
2967.584683247211
 31
0.0
  0
LINE
  5
16F69
330
747D
100
AcDbEntity
  8
細線
 48
0.1
100
AcDbLine
 10
7027.586457359142
 20
2960.584683247211
 30
0.0
 11
7027.586457359142
 21
2967.584683247211
 31
0.0
  0
LINE
  5
16F6A
330
747D
100
AcDbEntity
  8
部品1
100
AcDbLine
 10
7027.586457359142
 20
2960.834683247213
 30
0.0
 11
7027.648905187823
 21
2960.834683247213
 31
0.0
  0
LINE
  5
16F6B
330
747D
100
AcDbEntity
  8
部品1
100
AcDbLine
 10
7027.586457359142
 20
2960.834683247213
 30
0.0
 11
7027.648905187823
 21
2960.834683247213
 31
0.0
  0
LINE
  5
16F6C
330
747D
100
AcDbEntity
  8
部品1
100
AcDbLine
 10
7027.586457359142
 20
2960.834683247215
 30
0.0
 11
7027.648905187823
 21
2960.834683247215
 31
0.0
  0
LINE
  5
16F6D
330
747D
100
AcDbEntity
  8
細線
 48
50.0
100
AcDbLine
 10
7015.72370016484
 20
2963.084683247213
 30
0.0
 11
7015.72370016484
 21
2965.084683247211
 31
0.0
  0
LINE
  5
16F6E
330
747D
100
AcDbEntity
  8
細線
 48
50.0
100
AcDbLine
 10
7023.574110210802
 20
2963.084683247213
 30
0.0
 11
7023.574110210802
 21
2965.084683247211
 31
0.0
  0
LINE
  5
16F6F
330
747D
100
AcDbEntity
  8
部品1
 48
50.0
100
AcDbLine
 10
7007.586457359143
 20
2967.584683247211
 30
0.0
 11
7007.586457359143
 21
2960.834683247213
 31
0.0
  0
ARC
  5
16F70
330
747D
100
AcDbEntity
  8
細線
 48
0.2
100
AcDbCircle
 10
7024.586457359143
 20
2960.614173415963
 30
0.0
 40
1.0
100
AcDbArc
 50
286.6015495989848
 51
0.0
  0
ARC
  5
16F71
330
747D
100
AcDbEntity
  8
細線
 48
0.2
100
AcDbCircle
 10
7014.586457359142
 20
2960.614173415963
 30
0.0
 40
1.0
100
AcDbArc
 50
180.0
 51
253.3984504010152
  0
ARC
  5
16F72
330
747D
100
AcDbEntity
  8
細線
 48
0.2
100
AcDbCircle
 10
7019.586457359142
 20
2977.384683247208
 30
0.0
 40
18.49999999999796
100
AcDbArc
 50
253.3984504010152
 51
286.6015495989848
  0
LINE
  5
16F73
330
747D
100
AcDbEntity
  8
細線
 48
0.2
100
AcDbLine
 10
7025.270448655651
 20
2959.88468324721
 30
0.0
 11
7013.902466062639
 21
2959.88468324721
 31
0.0
  0
LINE
  5
16F74
330
747D
100
AcDbEntity
  8
細線
 48
50.0
100
AcDbLine
 10
7007.586457359143
 20
2960.834683247213
 30
0.0
 11
7007.586457359143
 21
2960.584683247211
 31
0.0
  0
LINE
  5
16F75
330
747D
100
AcDbEntity
  8
細線
 48
0.2
100
AcDbLine
 10
7027.586457359142
 20
2960.584683247211
 30
0.0
 11
7007.586457359143
 21
2960.584683247211
 31
0.0
  0
LINE
  5
16F76
330
747D
100
AcDbEntity
  8
細線
 48
0.2
100
AcDbLine
 10
7027.586457359142
 20
2963.084683247211
 30
0.0
 11
7007.586457359143
 21
2963.084683247213
 31
0.0
  0
LINE
  5
16F77
330
747D
100
AcDbEntity
  8
細線
 48
0.2
100
AcDbLine
 10
7027.586457359142
 20
2965.084683247211
 30
0.0
 11
7007.586457359143
 21
2965.084683247211
 31
0.0
  0
LINE
  5
16F78
330
747D
100
AcDbEntity
  8
部品1
 48
0.2
100
AcDbLine
 10
7027.586457359142
 20
2967.584683247211
 30
0.0
 11
7007.586457359143
 21
2967.584683247211
 31
0.0
  0
LINE
  5
16F79
330
747D
100
AcDbEntity
  8
部品1
100
AcDbLine
 10
7117.648905187824
 20
2960.834683247206
 30
0.0
 11
7827.586457359142
 21
2960.834683247213
 31
0.0
  0
LINE
  5
16F7A
330
747D
100
AcDbEntity
  8
部品1
 48
50.0
100
AcDbLine
 10
6187.586457359143
 20
2967.584683247211
 30
0.0
 11
6187.586457359143
 21
2960.834683247213
 31
0.0
  0
LINE
  5
16F7B
330
747D
100
AcDbEntity
  8
細線
 48
50.0
100
AcDbLine
 10
6203.574110210802
 20
2963.084683247213
 30
0.0
 11
6203.574110210802
 21
2965.084683247211
 31
0.0
  0
LINE
  5
16F7C
330
747D
100
AcDbEntity
  8
細線
 48
50.0
100
AcDbLine
 10
6195.723700164839
 20
2963.084683247213
 30
0.0
 11
6195.723700164839
 21
2965.084683247211
 31
0.0
  0
LINE
  5
16F7D
330
747D
100
AcDbEntity
  8
細線
 48
0.1
100
AcDbLine
 10
6207.586457359142
 20
2960.584683247211
 30
0.0
 11
6207.586457359142
 21
2967.584683247211
 31
0.0
  0
LINE
  5
16F7E
330
747D
100
AcDbEntity
  8
部品1
100
AcDbLine
 10
6207.586457359142
 20
2960.834683247203
 30
0.0
 11
6207.648905187824
 21
2960.834683247203
 31
0.0
  0
LINE
  5
16F7F
330
747D
100
AcDbEntity
  8
部品1
100
AcDbLine
 10
6207.586457359142
 20
2960.834683247213
 30
0.0
 11
6207.648905187824
 21
2960.834683247213
 31
0.0
  0
LINE
  5
16F80
330
747D
100
AcDbEntity
  8
細線
 48
50.0
100
AcDbLine
 10
6187.586457359143
 20
2960.834683247213
 30
0.0
 11
6187.586457359143
 21
2960.584683247211
 31
0.0
  0
LINE
  5
16F81
330
747D
100
AcDbEntity
  8
細線
 48
0.2
100
AcDbLine
 10
6205.27044865565
 20
2959.88468324721
 30
0.0
 11
6193.902466062638
 21
2959.88468324721
 31
0.0
  0
ARC
  5
16F82
330
747D
100
AcDbEntity
  8
細線
 48
0.2
100
AcDbCircle
 10
6199.586457359142
 20
2977.384683247208
 30
0.0
 40
18.49999999999796
100
AcDbArc
 50
253.3984504010152
 51
286.6015495989848
  0
ARC
  5
16F83
330
747D
100
AcDbEntity
  8
細線
 48
0.2
100
AcDbCircle
 10
6194.586457359143
 20
2960.614173415963
 30
0.0
 40
1.0
100
AcDbArc
 50
180.0
 51
253.3984504010152
  0
LINE
  5
16F84
330
747D
100
AcDbEntity
  8
細線
 48
0.2
100
AcDbLine
 10
6207.586457359142
 20
2963.084683247211
 30
0.0
 11
6187.586457359143
 21
2963.084683247213
 31
0.0
  0
LINE
  5
16F85
330
747D
100
AcDbEntity
  8
細線
 48
0.2
100
AcDbLine
 10
6207.586457359142
 20
2960.584683247211
 30
0.0
 11
6187.586457359143
 21
2960.584683247211
 31
0.0
  0
ARC
  5
16F86
330
747D
100
AcDbEntity
  8
細線
 48
0.2
100
AcDbCircle
 10
6204.586457359142
 20
2960.614173415963
 30
0.0
 40
1.0
100
AcDbArc
 50
286.6015495989848
 51
0.0
  0
LINE
  5
16F87
330
747D
100
AcDbEntity
  8
部品1
 48
0.2
100
AcDbLine
 10
6207.586457359142
 20
2967.584683247211
 30
0.0
 11
6187.586457359143
 21
2967.584683247211
 31
0.0
  0
LINE
  5
16F88
330
747D
100
AcDbEntity
  8
細線
 48
0.2
100
AcDbLine
 10
6207.586457359142
 20
2965.084683247211
 30
0.0
 11
6187.586457359143
 21
2965.084683247211
 31
0.0
  0
LINE
  5
16F89
330
747D
100
AcDbEntity
  8
部品1
100
AcDbLine
 10
5477.648905187823
 20
2960.834683247199
 30
0.0
 11
6187.586457359143
 21
2960.834683247203
 31
0.0
  0
LINE
  5
16F8A
330
747D
100
AcDbEntity
  8
部品1
100
AcDbLine
 10
6297.648905187823
 20
2960.834683247206
 30
0.0
 11
7007.586457359143
 21
2960.834683247213
 31
0.0
  0
DIMENSION
  5
16F8B
330
747D
100
AcDbEntity
  8
寸法
100
AcDbDimension
  2
*D39
 10
4294.54437758022
 20
2975.834683247196
 30
0.0
 11
4294.544377580219
 21
3854.834683247194
 31
0.0
 70
   160
  1
有効開口部高サ<>
 71
     5
 42
1759.999999999996
  3
INABA_S40G
100
AcDbAlignedDimension
 13
4612.648905187824
 23
4735.834683247192
 33
0.0
 14
4612.648905187824
 24
2975.834683247196
 34
0.0
 50
90.0
100
AcDbRotatedDimension
1001
ACAD
1000
DSTYLE
1002
{
1070
   288
1070
     1
1002
}
  0
LINE
  5
16F8C
330
747D
100
AcDbEntity
  8
部品1
100
AcDbLine
 10
4655.648905187823
 20
4754.334683247193
 30
0.0
 11
4655.648905187823
 21
2957.334683247213
 31
0.0
  0
LINE
  5
16F8D
330
747D
100
AcDbEntity
  8
部品1
100
AcDbLine
 10
6207.648905187822
 20
4751.834683247192
 30
0.0
 11
6207.648905187824
 21
2960.834683247203
 31
0.0
  0
LINE
  5
16F8E
330
747D
100
AcDbEntity
  8
部品1
100
AcDbLine
 10
6209.648905187823
 20
4754.334683247193
 30
0.0
 11
6209.648905187823
 21
2957.334683247213
 31
0.0
  0
LINE
  5
16F8F
330
747D
100
AcDbEntity
  8
部品1
100
AcDbLine
 10
7115.648905187824
 20
4754.334683247193
 30
0.0
 11
7115.648905187824
 21
2957.334683247213
 31
0.0
  0
LINE
  5
16F90
330
747D
100
AcDbEntity
  8
部品1
100
AcDbLine
 10
7117.648905187824
 20
4751.834683247192
 30
0.0
 11
7117.648905187824
 21
2960.834683247205
 31
0.0
  0
LINE
  5
16F91
330
747D
100
AcDbEntity
  8
部品1
100
AcDbLine
 10
7847.648905187823
 20
4751.834683247192
 30
0.0
 11
7847.648905187823
 21
2960.834683247214
 31
0.0
  0
LINE
  5
16F92
330
747D
100
AcDbEntity
  8
部品1
100
AcDbLine
 10
7892.648905187823
 20
4848.334683247188
 30
0.0
 11
7892.648905187823
 21
2814.334683247193
 31
0.0
  0
LINE
  5
16F93
330
747D
100
AcDbEntity
  8
部品1
100
AcDbLine
 10
4612.648905187824
 20
4848.334683247192
 30
0.0
 11
4612.648905187824
 21
2814.334683247193
 31
0.0
  0
LINE
  5
16F94
330
747D
100
AcDbEntity
  8
部品1
100
AcDbLine
 10
7849.648905187824
 20
4754.334683247193
 30
0.0
 11
7849.648905187824
 21
2957.334683247213
 31
0.0
  0
LINE
  5
16F95
330
747D
100
AcDbEntity
  8
部品1
100
AcDbLine
 10
4657.648905187823
 20
4751.834683247194
 30
0.0
 11
4657.648905187823
 21
2960.834683247199
 31
0.0
  0
LINE
  5
16F96
330
747D
100
AcDbEntity
  8
部品1
100
AcDbLine
 10
6295.648905187824
 20
4754.334683247193
 30
0.0
 11
6295.648905187824
 21
2957.334683247213
 31
0.0
  0
LINE
  5
16F97
330
747D
100
AcDbEntity
  8
部品1
100
AcDbLine
 10
6297.648905187823
 20
4751.83468324719
 30
0.0
 11
6297.648905187823
 21
2960.834683247206
 31
0.0
  0
LINE
  5
16F98
330
747D
100
AcDbEntity
  8
部品1
100
AcDbLine
 10
7027.648905187823
 20
4751.834683247192
 30
0.0
 11
7027.648905187823
 21
2960.834683247214
 31
0.0
  0
LINE
  5
16F99
330
747D
100
AcDbEntity
  8
部品1
100
AcDbLine
 10
7029.648905187824
 20
4754.334683247193
 30
0.0
 11
7029.648905187824
 21
2957.334683247213
 31
0.0
  0
TEXT
  5
16F9A
330
747D
100
AcDbEntity
  8
部品1
100
AcDbText
 10
3582.148325198163
 20
2850.441586853094
 30
0.0
 40
125.0
  1
▽G.L
  7
STYLE2
100
AcDbText
  0
MTEXT
  5
1712D
330
747D
100
AcDbEntity
  8
寸法
 62
     7
 48
50.0
100
AcDbMText
 10
7497.928696120651
 20
8821.237068998996
 30
0.0
 40
96.0
 41
0.0
 71
     5
 72
     1
  1
棚 2段
  7
STYLE1
 73
     1
 44
1.0
1001
ACAD
1000
MTEXTBEGIN
1070
    73
1070
     1
1070
    44
1040
1.0
1070
    74
1070
     0
1000
MTEXTEND
  0
TEXT
  5
17378
330
747D
100
AcDbEntity
  8
文字
 62
     7
 48
50.0
100
AcDbText
 10
14260.68475616112
 20
855.469579666289
 30
0.0
 40
100.0
  1
～一般型・多雪地型・豪雪地型～
  7
STYLE2
100
AcDbText
  0
ENDSEC
  0
SECTION
  2
OBJECTS
  0
DICTIONARY
  5
7471
330
0
100
AcDbDictionary
281
     1
  3
ACAD_COLOR
350
15F41
  3
ACAD_GROUP
350
7472
  3
ACAD_LAYOUT
350
15F42
  3
ACAD_MATERIAL
350
15F40
  3
ACAD_MLINESTYLE
350
7473
  3
ACAD_PLOTSETTINGS
350
15F43
  3
ACAD_PLOTSTYLENAME
350
15F3E
  3
ACDBHEADERROUNDTRIPXREC
350
1739A
  3
AcDbVariableDictionary
350
17396
  3
CONTENTDICTIONARY
350
E71C
  3
DRAWINGVARIABLESDICT
350
F3B9
  0
DICTIONARY
  5
16107
330
7467
100
AcDbDictionary
280
     1
281
     1
  3
ACAD_LAYERSTATES
360
16108
  0
DICTIONARY
  5
15F41
102
{ACAD_REACTORS
330
7471
102
}
330
7471
100
AcDbDictionary
281
     1
  0
DICTIONARY
  5
7472
102
{ACAD_REACTORS
330
7471
102
}
330
7471
100
AcDbDictionary
281
     1
  0
DICTIONARY
  5
15F42
102
{ACAD_REACTORS
330
7471
102
}
330
7471
100
AcDbDictionary
281
     1
  3
Model
350
15F44
  3
レイアウト1
350
15F45
  0
DICTIONARY
  5
15F40
102
{ACAD_REACTORS
330
7471
102
}
330
7471
100
AcDbDictionary
281
     1
  0
DICTIONARY
  5
7473
102
{ACAD_REACTORS
330
7471
102
}
330
7471
100
AcDbDictionary
281
     1
  3
STANDARD
350
7480
  0
DICTIONARY
  5
15F43
102
{ACAD_REACTORS
330
7471
102
}
330
7471
100
AcDbDictionary
281
     1
  0
ACDBDICTIONARYWDFLT
  5
15F3E
102
{ACAD_REACTORS
330
7471
102
}
330
7471
100
AcDbDictionary
281
     1
  3
Normal
350
15F3F
100
AcDbDictionaryWithDefault
340
15F3F
  0
DICTIONARY
  5
1739A
102
{ACAD_REACTORS
330
7471
102
}
330
7471
100
AcDbDictionary
281
     1
  3
COLORDICT
350
1739C
  3
MATERIALDICT
350
1739B
  0
DICTIONARY
  5
17396
102
{ACAD_REACTORS
330
7471
102
}
330
7471
100
AcDbDictionary
281
     1
  3
DIMASSOC
350
17397
  3
PROJECTNAME
350
17398
  0
DICTIONARY
  5
E71C
102
{ACAD_REACTORS
330
7471
102
}
330
7471
100
AcDbDictionary
281
     1
  0
DICTIONARY
  5
F3B9
102
{ACAD_REACTORS
330
7471
102
}
330
7471
100
AcDbDictionary
281
     1
1001
DRAWINGVARIABLESXDATA
1000
POLARMODE
1000
1
  0
DICTIONARY
  5
16108
102
{ACAD_REACTORS
330
16107
102
}
330
16107
100
AcDbDictionary
281
     1
  0
LAYOUT
  5
15F44
102
{ACAD_XDICTIONARY
360
1739D
102
}
102
{ACAD_REACTORS
330
15F42
102
}
330
15F42
100
AcDbPlotSettings
  1

  2
Microsoft Office Document Image Writer
  4

  6

 40
0.0
 41
0.0
 42
0.0
 43
0.0
 44
0.0
 45
0.0
 46
0.0
 47
0.0
 48
0.0
 49
0.0
140
0.0
141
0.0
142
1.0
143
1.0
 70
  1712
 72
     0
 73
     0
 74
     0
  7

 75
     0
147
1.0
148
0.0
149
0.0
100
AcDbLayout
  1
Model
 70
     1
 71
     0
 10
0.0
 20
0.0
 11
12.0
 21
9.0
 12
0.0
 22
0.0
 32
0.0
 14
0.0
 24
0.0
 34
0.0
 15
0.0
 25
0.0
 35
0.0
146
0.0
 13
0.0
 23
0.0
 33
0.0
 16
1.0
 26
0.0
 36
0.0
 17
0.0
 27
1.0
 37
0.0
 76
     0
330
747D
  0
LAYOUT
  5
15F45
102
{ACAD_XDICTIONARY
360
1739F
102
}
102
{ACAD_REACTORS
330
15F42
102
}
330
15F42
100
AcDbPlotSettings
  1

  2
Microsoft Office Document Image Writer
  4

  6

 40
0.0
 41
0.0
 42
0.0
 43
0.0
 44
0.0
 45
0.0
 46
0.0
 47
0.0
 48
0.0
 49
0.0
140
0.0
141
0.0
142
1.0
143
1.0
 70
   688
 72
     0
 73
     0
 74
     5
  7

 75
    16
147
1.0
148
0.0
149
0.0
100
AcDbLayout
  1
レイアウト1
 70
     0
 71
     1
 10
0.0
 20
0.0
 11
420.0
 21
297.0
 12
0.0
 22
0.0
 32
0.0
 14
1.000000000000000E+20
 24
1.000000000000000E+20
 34
1.000000000000000E+20
 15
-1.000000000000000E+20
 25
-1.000000000000000E+20
 35
-1.000000000000000E+20
146
0.0
 13
0.0
 23
0.0
 33
0.0
 16
1.0
 26
0.0
 36
0.0
 17
0.0
 27
1.0
 37
0.0
 76
     0
330
747A
  0
MLINESTYLE
  5
7480
102
{ACAD_REACTORS
330
7473
102
}
330
7473
100
AcDbMlineStyle
  2
STANDARD
 70
     0
  3

 62
     0
 51
90.0
 52
90.0
 71
     2
 49
0.5
 62
   256
  6
BYLAYER
 49
-0.5
 62
   256
  6
BYLAYER
  0
ACDBPLACEHOLDER
  5
15F3F
102
{ACAD_REACTORS
330
15F3E
102
}
330
15F3E
  0
XRECORD
  5
1739C
102
{ACAD_REACTORS
330
1739A
102
}
330
1739A
100
AcDbXrecord
280
     1
340
15F41
  0
XRECORD
  5
1739B
102
{ACAD_REACTORS
330
1739A
102
}
330
1739A
100
AcDbXrecord
280
     1
340
15F40
  0
DICTIONARYVAR
  5
17397
102
{ACAD_REACTORS
330
17396
102
}
330
17396
100
DictionaryVariables
280
     0
  1
1
  0
DICTIONARYVAR
  5
17398
102
{ACAD_REACTORS
330
17396
102
}
330
17396
100
DictionaryVariables
280
     0
  1

  0
DICTIONARY
  5
1739D
330
15F44
100
AcDbDictionary
280
     1
281
     1
  3
ACAD_XREC_ROUNDTRIP
360
1739E
  0
DICTIONARY
  5
1739F
330
15F45
100
AcDbDictionary
280
     1
281
     1
  3
ACAD_XREC_ROUNDTRIP
360
173A0
  0
XRECORD
  5
1739E
102
{ACAD_REACTORS
330
1739D
102
}
330
1739D
100
AcDbXrecord
280
     1
102
SHADEPLOT
 70
     0
102
SHADEPLOTRESLEVEL
 70
     2
102
SHADEPLOTCUSTOMDPI
 70
   300
  0
XRECORD
  5
173A0
102
{ACAD_REACTORS
330
1739F
102
}
330
1739F
100
AcDbXrecord
280
     1
102
SHADEPLOT
 70
     0
102
SHADEPLOTRESLEVEL
 70
     2
102
SHADEPLOTCUSTOMDPI
 70
   300
  0
ENDSEC
  0
EOF
