  0
SECTION
  2
HEADER
  9
$ACADVER
  1
AC1015
  9
$ACADMAINTVER
 70
    20
  9
$DWGCODEPAGE
  3
ANSI_932
  9
$INSBASE
 10
0.0
 20
0.0
 30
0.0
  9
$EXTMIN
 10
139.9999999999995
 20
-0.0000000000000909
 30
0.0
  9
$EXTMAX
 10
16307.2
 20
11409.6
 30
0.0
  9
$LIMMIN
 10
0.0
 20
0.0
  9
$LIMMAX
 10
16800.0
 20
11880.0
  9
$ORTHOMODE
 70
     0
  9
$REGENMODE
 70
     1
  9
$FILLMODE
 70
     1
  9
$QTEXTMODE
 70
     0
  9
$MIRRTEXT
 70
     1
  9
$LTSCALE
 40
20.0
  9
$ATTMODE
 70
     1
  9
$TEXTSIZE
 40
100.0
  9
$TRACEWID
 40
1.0
  9
$TEXTSTYLE
  7
STYLE3
  9
$CLAYER
  8
寸法
  9
$CELTYPE
  6
BYLAYER
  9
$CECOLOR
 62
   256
  9
$CELTSCALE
 40
50.0
  9
$DISPSILH
 70
     0
  9
$DIMSCALE
 40
40.0
  9
$DIMASZ
 40
2.5
  9
$DIMEXO
 40
0.5
  9
$DIMDLI
 40
7.0
  9
$DIMRND
 40
0.0
  9
$DIMDLE
 40
0.0
  9
$DIMEXE
 40
1.5
  9
$DIMTP
 40
0.0
  9
$DIMTM
 40
0.0
  9
$DIMTXT
 40
3.0
  9
$DIMCEN
 40
0.0
  9
$DIMTSZ
 40
0.0
  9
$DIMTOL
 70
     0
  9
$DIMLIM
 70
     0
  9
$DIMTIH
 70
     0
  9
$DIMTOH
 70
     0
  9
$DIMSE1
 70
     0
  9
$DIMSE2
 70
     0
  9
$DIMTAD
 70
     3
  9
$DIMZIN
 70
     8
  9
$DIMBLK
  1

  9
$DIMASO
 70
     1
  9
$DIMSHO
 70
     1
  9
$DIMPOST
  1

  9
$DIMAPOST
  1

  9
$DIMALT
 70
     0
  9
$DIMALTD
 70
     2
  9
$DIMALTF
 40
0.0394
  9
$DIMLFAC
 40
1.0
  9
$DIMTOFL
 70
     1
  9
$DIMTVP
 40
0.0
  9
$DIMTIX
 70
     1
  9
$DIMSOXD
 70
     0
  9
$DIMSAH
 70
     1
  9
$DIMBLK1
  1
DOTSMALL
  9
$DIMBLK2
  1
DOTSMALL
  9
$DIMSTYLE
  2
INABA_S40G
  9
$DIMCLRD
 70
     0
  9
$DIMCLRE
 70
     0
  9
$DIMCLRT
 70
     7
  9
$DIMTFAC
 40
1.0
  9
$DIMGAP
 40
1.0
  9
$DIMJUST
 70
     0
  9
$DIMSD1
 70
     0
  9
$DIMSD2
 70
     0
  9
$DIMTOLJ
 70
     1
  9
$DIMTZIN
 70
     0
  9
$DIMALTZ
 70
     0
  9
$DIMALTTZ
 70
     0
  9
$DIMUPT
 70
     0
  9
$DIMDEC
 70
     1
  9
$DIMTDEC
 70
     4
  9
$DIMALTU
 70
     2
  9
$DIMALTTD
 70
     2
  9
$DIMTXSTY
  7
STYLE1
  9
$DIMAUNIT
 70
     0
  9
$DIMADEC
 70
     0
  9
$DIMALTRND
 40
0.0
  9
$DIMAZIN
 70
     0
  9
$DIMDSEP
 70
    46
  9
$DIMATFIT
 70
     3
  9
$DIMFRAC
 70
     0
  9
$DIMLDRBLK
  1

  9
$DIMLUNIT
 70
     2
  9
$DIMLWD
 70
    -2
  9
$DIMLWE
 70
    -2
  9
$DIMTMOVE
 70
     0
  9
$LUNITS
 70
     2
  9
$LUPREC
 70
     1
  9
$SKETCHINC
 40
1.0
  9
$FILLETRAD
 40
5.0
  9
$AUNITS
 70
     0
  9
$AUPREC
 70
     0
  9
$MENU
  1
acad
  9
$ELEVATION
 40
0.0
  9
$PELEVATION
 40
0.0
  9
$THICKNESS
 40
0.0
  9
$LIMCHECK
 70
     0
  9
$CHAMFERA
 40
0.0
  9
$CHAMFERB
 40
0.0
  9
$CHAMFERC
 40
0.0
  9
$CHAMFERD
 40
0.0
  9
$SKPOLY
 70
     0
  9
$TDCREATE
 40
2452116.684896065
  9
$TDUCREATE
 40
2452116.309896065
  9
$TDUPDATE
 40
2455575.691105324
  9
$TDUUPDATE
 40
2455575.316105324
  9
$TDINDWG
 40
0.4512517477
  9
$TDUSRTIMER
 40
0.4512517477
  9
$USRTIMER
 70
     1
  9
$ANGBASE
 50
0.0
  9
$ANGDIR
 70
     0
  9
$PDMODE
 70
     3
  9
$PDSIZE
 40
2.0
  9
$PLINEWID
 40
0.0
  9
$SPLFRAME
 70
     0
  9
$SPLINETYPE
 70
     6
  9
$SPLINESEGS
 70
     8
  9
$HANDSEED
  5
16ECB
  9
$SURFTAB1
 70
     6
  9
$SURFTAB2
 70
     6
  9
$SURFTYPE
 70
     6
  9
$SURFU
 70
     6
  9
$SURFV
 70
     6
  9
$UCSBASE
  2

  9
$UCSNAME
  2

  9
$UCSORG
 10
0.0
 20
0.0
 30
0.0
  9
$UCSXDIR
 10
1.0
 20
0.0
 30
0.0
  9
$UCSYDIR
 10
0.0
 20
1.0
 30
0.0
  9
$UCSORTHOREF
  2

  9
$UCSORTHOVIEW
 70
     0
  9
$UCSORGTOP
 10
0.0
 20
0.0
 30
0.0
  9
$UCSORGBOTTOM
 10
0.0
 20
0.0
 30
0.0
  9
$UCSORGLEFT
 10
0.0
 20
0.0
 30
0.0
  9
$UCSORGRIGHT
 10
0.0
 20
0.0
 30
0.0
  9
$UCSORGFRONT
 10
0.0
 20
0.0
 30
0.0
  9
$UCSORGBACK
 10
0.0
 20
0.0
 30
0.0
  9
$PUCSBASE
  2

  9
$PUCSNAME
  2

  9
$PUCSORG
 10
0.0
 20
0.0
 30
0.0
  9
$PUCSXDIR
 10
1.0
 20
0.0
 30
0.0
  9
$PUCSYDIR
 10
0.0
 20
1.0
 30
0.0
  9
$PUCSORTHOREF
  2

  9
$PUCSORTHOVIEW
 70
     0
  9
$PUCSORGTOP
 10
0.0
 20
0.0
 30
0.0
  9
$PUCSORGBOTTOM
 10
0.0
 20
0.0
 30
0.0
  9
$PUCSORGLEFT
 10
0.0
 20
0.0
 30
0.0
  9
$PUCSORGRIGHT
 10
0.0
 20
0.0
 30
0.0
  9
$PUCSORGFRONT
 10
0.0
 20
0.0
 30
0.0
  9
$PUCSORGBACK
 10
0.0
 20
0.0
 30
0.0
  9
$USERI1
 70
     0
  9
$USERI2
 70
     0
  9
$USERI3
 70
     0
  9
$USERI4
 70
     0
  9
$USERI5
 70
     0
  9
$USERR1
 40
0.0
  9
$USERR2
 40
0.0
  9
$USERR3
 40
0.0
  9
$USERR4
 40
0.0
  9
$USERR5
 40
0.0
  9
$WORLDVIEW
 70
     1
  9
$SHADEDGE
 70
     3
  9
$SHADEDIF
 70
    70
  9
$TILEMODE
 70
     1
  9
$MAXACTVP
 70
    16
  9
$PINSBASE
 10
0.0
 20
0.0
 30
0.0
  9
$PLIMCHECK
 70
     0
  9
$PEXTMIN
 10
1.000000000000000E+20
 20
1.000000000000000E+20
 30
1.000000000000000E+20
  9
$PEXTMAX
 10
-1.000000000000000E+20
 20
-1.000000000000000E+20
 30
-1.000000000000000E+20
  9
$PLIMMIN
 10
0.0
 20
0.0
  9
$PLIMMAX
 10
420.0
 20
297.0
  9
$UNITMODE
 70
     0
  9
$VISRETAIN
 70
     0
  9
$PLINEGEN
 70
     0
  9
$PSLTSCALE
 70
     0
  9
$TREEDEPTH
 70
  3020
  9
$CMLSTYLE
  2
STANDARD
  9
$CMLJUST
 70
     0
  9
$CMLSCALE
 40
1.0
  9
$PROXYGRAPHICS
 70
     1
  9
$MEASUREMENT
 70
     1
  9
$CELWEIGHT
370
    -1
  9
$ENDCAPS
280
     0
  9
$JOINSTYLE
280
     0
  9
$LWDISPLAY
290
     0
  9
$INSUNITS
 70
     0
  9
$HYPERLINKBASE
  1

  9
$STYLESHEET
  1

  9
$XEDIT
290
     1
  9
$CEPSNTYPE
380
     0
  9
$PSTYLEMODE
290
     1
  9
$FINGERPRINTGUID
  2
{C93931BC-8BDE-4BFD-AADB-E9E23AD5DFFA}
  9
$VERSIONGUID
  2
{9F292752-F5EF-4E9E-A15B-593E1F235A65}
  9
$EXTNAMES
290
     1
  9
$PSVPSCALE
 40
0.0
  9
$OLESTARTUP
290
     0
  0
ENDSEC
  0
SECTION
  2
CLASSES
  0
CLASS
  1
ACDBDICTIONARYWDFLT
  2
AcDbDictionaryWithDefault
  3
ObjectDBX Classes
 90
        0
280
     0
281
     0
  0
CLASS
  1
DICTIONARYVAR
  2
AcDbDictionaryVar
  3
ObjectDBX Classes
 90
        0
280
     0
281
     0
  0
CLASS
  1
ACDBPLACEHOLDER
  2
AcDbPlaceHolder
  3
ObjectDBX Classes
 90
        0
280
     0
281
     0
  0
CLASS
  1
LAYOUT
  2
AcDbLayout
  3
ObjectDBX Classes
 90
        0
280
     0
281
     0
  0
ENDSEC
  0
SECTION
  2
TABLES
  0
TABLE
  2
VPORT
  5
746D
330
0
100
AcDbSymbolTable
 70
     2
  0
VPORT
  5
16EC3
330
746D
100
AcDbSymbolTableRecord
100
AcDbViewportTableRecord
  2
*Active
 70
     0
 10
0.0
 20
0.0
 11
1.0
 21
1.0
 12
9076.91645855874
 22
6347.66611132684
 13
0.0
 23
0.0
 14
10.0
 24
10.0
 15
10.0
 25
10.0
 16
0.0
 26
0.0
 36
1.0
 17
0.0
 27
0.0
 37
0.0
 40
12783.46462244035
 41
1.525925925925925
 42
50.0
 43
0.0
 44
0.0
 50
0.0
 51
0.0
 71
     0
 72
     0
 73
     1
 74
     0
 75
     0
 76
     0
 77
     0
 78
     0
281
     0
 65
     1
110
0.0
120
0.0
130
0.0
111
1.0
121
0.0
131
0.0
112
0.0
122
1.0
132
0.0
 79
     0
146
0.0
  0
ENDTAB
  0
TABLE
  2
LTYPE
  5
746A
330
0
100
AcDbSymbolTable
 70
     4
  0
LTYPE
  5
7477
330
746A
100
AcDbSymbolTableRecord
100
AcDbLinetypeTableRecord
  2
BYBLOCK
 70
     0
  3

 72
    65
 73
     0
 40
0.0
  0
LTYPE
  5
7478
330
746A
100
AcDbSymbolTableRecord
100
AcDbLinetypeTableRecord
  2
BYLAYER
 70
     0
  3

 72
    65
 73
     0
 40
0.0
  0
LTYPE
  5
7479
330
746A
100
AcDbSymbolTableRecord
100
AcDbLinetypeTableRecord
  2
CONTINUOUS
 70
     0
  3
Solid line
 72
    65
 73
     0
 40
0.0
  0
LTYPE
  5
7816
330
746A
100
AcDbSymbolTableRecord
100
AcDbLinetypeTableRecord
  2
CENTER
 70
     0
  3
____ _ ____ _ ____ _ ____ _ ____ _ ____ _ ____ 
 72
    65
 73
     4
 40
2.0
 49
1.25
 74
     0
 49
-0.25
 74
     0
 49
0.25
 74
     0
 49
-0.25
 74
     0
  0
LTYPE
  5
781A
330
746A
100
AcDbSymbolTableRecord
100
AcDbLinetypeTableRecord
  2
HIDDEN
 70
     0
  3
__ __ __ __ __ __ __ __ __ __ __ __ __ __ __ __
 72
    65
 73
     2
 40
0.375
 49
0.25
 74
     0
 49
-0.125
 74
     0
  0
LTYPE
  5
781B
330
746A
100
AcDbSymbolTableRecord
100
AcDbLinetypeTableRecord
  2
PHANTOM
 70
     0
  3
______  __  __  ______  __  __  ______  __  __ 
 72
    65
 73
     6
 40
2.5
 49
1.25
 74
     0
 49
-0.25
 74
     0
 49
0.25
 74
     0
 49
-0.25
 74
     0
 49
0.25
 74
     0
 49
-0.25
 74
     0
  0
ENDTAB
  0
TABLE
  2
LAYER
  5
7467
102
{ACAD_XDICTIONARY
360
15E4B
102
}
330
0
100
AcDbSymbolTable
 70
    12
  0
LAYER
  5
7474
330
7467
100
AcDbSymbolTableRecord
100
AcDbLayerTableRecord
  2
0
 70
     0
 62
     7
  6
CONTINUOUS
370
    -3
390
15CB7
  0
LAYER
  5
DEB2
330
7467
100
AcDbSymbolTableRecord
100
AcDbLayerTableRecord
  2
センター
 70
     0
 62
     3
  6
CENTER
370
    -3
390
15CB7
  0
LAYER
  5
DEB3
330
7467
100
AcDbSymbolTableRecord
100
AcDbLayerTableRecord
  2
寸法
 70
     0
 62
     4
  6
CONTINUOUS
370
    -3
390
15CB7
  0
LAYER
  5
DEB4
330
7467
100
AcDbSymbolTableRecord
100
AcDbLayerTableRecord
  2
部品1
 70
     0
 62
     7
  6
CONTINUOUS
370
    -3
390
15CB7
  0
LAYER
  5
DEB5
330
7467
100
AcDbSymbolTableRecord
100
AcDbLayerTableRecord
  2
補助
 70
     0
 62
    -1
  6
CONTINUOUS
370
    -3
390
15CB7
  0
LAYER
  5
DEB6
330
7467
100
AcDbSymbolTableRecord
100
AcDbLayerTableRecord
  2
文字
 70
     0
 62
     7
  6
CONTINUOUS
370
    -3
390
15CB7
  0
LAYER
  5
F255
330
7467
100
AcDbSymbolTableRecord
100
AcDbLayerTableRecord
  2
DEFPOINTS
 70
     0
 62
     7
  6
CONTINUOUS
290
     0
370
    -3
390
15CB7
  0
LAYER
  5
10B54
330
7467
100
AcDbSymbolTableRecord
100
AcDbLayerTableRecord
  2
仕様書枠
 70
     0
 62
   230
  6
CONTINUOUS
370
    -3
390
15CB7
  0
LAYER
  5
11729
330
7467
100
AcDbSymbolTableRecord
100
AcDbLayerTableRecord
  2
Ｇ．Ｌ
 70
     0
 62
    30
  6
CONTINUOUS
370
    -3
390
15CB7
  0
LAYER
  5
1173F
330
7467
100
AcDbSymbolTableRecord
100
AcDbLayerTableRecord
  2
細線
 70
     0
 62
     5
  6
CONTINUOUS
370
    -3
390
15CB7
  0
LAYER
  5
118A1
330
7467
100
AcDbSymbolTableRecord
100
AcDbLayerTableRecord
  2
想像線
 70
     0
 62
     6
  6
PHANTOM
370
    -3
390
15CB7
  0
LAYER
  5
123C1
330
7467
100
AcDbSymbolTableRecord
100
AcDbLayerTableRecord
  2
破線
 70
     0
 62
     2
  6
HIDDEN
370
    -3
390
15CB7
  0
ENDTAB
  0
TABLE
  2
STYLE
  5
7468
330
0
100
AcDbSymbolTable
 70
     4
  0
STYLE
  5
7475
330
7468
100
AcDbSymbolTableRecord
100
AcDbTextStyleTableRecord
  2
STANDARD
 70
     0
 40
0.0
 41
1.0
 50
0.0
 71
     0
 42
4.0
  3
txt
  4
C:\AutoCAD LT\bigfont.shx
  0
STYLE
  5
F706
330
7468
100
AcDbSymbolTableRecord
100
AcDbTextStyleTableRecord
  2
STYLE1
 70
     0
 40
0.0
 41
1.0
 50
0.0
 71
     0
 42
4.0
  3
isocp.shx
  4
bigfont.shx
  0
STYLE
  5
103BF
330
7468
100
AcDbSymbolTableRecord
100
AcDbTextStyleTableRecord
  2
STYLE2
 70
     0
 40
0.0
 41
1.0
 50
0.0
 71
     0
 42
100.0
  3
MS PGothic.ttf
  4

1001
ACAD
1000
MS PGothic
1071
    32818
  0
STYLE
  5
10BAA
330
7468
100
AcDbSymbolTableRecord
100
AcDbTextStyleTableRecord
  2
STYLE3
 70
     0
 40
0.0
 41
1.0
 50
0.0
 71
     0
 42
100.0
  3

  4

1001
ACAD
1000
DFPGothic-EB
1071
    32818
  0
ENDTAB
  0
TABLE
  2
VIEW
  5
746B
330
0
100
AcDbSymbolTable
 70
     0
  0
ENDTAB
  0
TABLE
  2
UCS
  5
746C
330
0
100
AcDbSymbolTable
 70
     0
  0
ENDTAB
  0
TABLE
  2
APPID
  5
746E
330
0
100
AcDbSymbolTable
 70
     6
  0
APPID
  5
7476
330
746E
100
AcDbSymbolTableRecord
100
AcDbRegAppTableRecord
  2
ACAD
 70
     0
  0
APPID
  5
DEA9
330
746E
100
AcDbSymbolTableRecord
100
AcDbRegAppTableRecord
  2
CONTENTBLOCKICON
 70
     0
  0
APPID
  5
DEAA
330
746E
100
AcDbSymbolTableRecord
100
AcDbRegAppTableRecord
  2
CONTENTBLOCKDESCRIPTION
 70
     0
  0
APPID
  5
E71D
330
746E
100
AcDbSymbolTableRecord
100
AcDbRegAppTableRecord
  2
CONTENTTABDATA
 70
     0
  0
APPID
  5
E71E
330
746E
100
AcDbSymbolTableRecord
100
AcDbRegAppTableRecord
  2
CONTENTCURRENTTAB
 70
     0
  0
APPID
  5
F3BA
330
746E
100
AcDbSymbolTableRecord
100
AcDbRegAppTableRecord
  2
DRAWINGVARIABLESXDATA
 70
     0
  0
ENDTAB
  0
TABLE
  2
DIMSTYLE
  5
746F
330
0
100
AcDbSymbolTable
 70
     2
100
AcDbDimStyleTable
 71
     1
340
F71F
  0
DIMSTYLE
105
7484
330
746F
100
AcDbSymbolTableRecord
100
AcDbDimStyleTableRecord
  2
JIS
 70
     0
 41
2.5
 42
1.0
 43
7.0
 44
1.0
 73
     0
 74
     0
 77
     1
 78
     8
140
2.5
141
0.0
143
0.0394
147
0.0
172
     1
174
     1
175
     1
340
7475
  0
DIMSTYLE
105
F71F
102
{ACAD_REACTORS
330
15808
330
1580F
330
15812
330
15825
330
1588A
330
1588B
330
15892
330
15893
330
1589A
330
158A1
330
158A3
330
158A6
330
158A7
330
158A8
330
158AA
330
158AD
330
158BD
330
15C46
330
15C5E
330
15C9A
330
15CA7
330
161B4
330
161B5
330
161B9
330
161BA
330
161BB
330
161BC
330
161E0
330
161E1
330
161F3
330
16911
330
169ED
330
169EE
330
169EF
330
169FE
102
}
330
746F
100
AcDbSymbolTableRecord
100
AcDbDimStyleTableRecord
  2
INABA_S40G
 70
     0
 40
40.0
 41
2.5
 42
0.5
 43
7.0
 44
1.5
 73
     0
 74
     0
 77
     3
 78
     8
140
3.0
141
0.0
143
0.0394
147
1.0
172
     1
173
     1
174
     1
178
     7
271
     1
340
F706
341
F770
343
F770
344
F770
  0
ENDTAB
  0
TABLE
  2
BLOCK_RECORD
  5
7466
330
0
100
AcDbSymbolTable
 70
    36
  0
BLOCK_RECORD
  5
747D
330
7466
100
AcDbSymbolTableRecord
100
AcDbBlockTableRecord
  2
*MODEL_SPACE
340
15CBC
  0
BLOCK_RECORD
  5
747A
330
7466
100
AcDbSymbolTableRecord
100
AcDbBlockTableRecord
  2
*PAPER_SPACE
340
15CBD
  0
BLOCK_RECORD
  5
F770
330
7466
100
AcDbSymbolTableRecord
100
AcDbBlockTableRecord
  2
_DOTSMALL
340
0
102
{BLKREFS
331
16CF4
331
16CF5
331
16CFF
331
16D00
331
16D08
331
16D09
331
16D11
331
16D12
331
16D1A
331
16D1B
331
16D23
331
16D24
331
16D2D
331
16D2E
331
16D37
331
16D38
331
16D40
331
16D41
331
16D4B
331
16D4C
331
16D54
331
16D55
331
16D5D
331
16D5E
331
16D68
331
16D69
331
16D71
331
16D72
331
16D8C
331
16D8D
331
16D95
331
16D96
331
16DA0
331
16DA1
331
16DA9
331
16DAA
331
16DB2
331
16DB3
331
16DBD
331
16DBE
331
16DC6
331
16DC7
331
16DCF
331
16DD0
331
16DDA
331
16DDB
331
16DE3
331
16DE4
331
16DEE
331
16DEF
331
16DF9
331
16DFA
331
16E02
331
16E03
331
16E0D
331
16E0E
331
16E16
331
16E17
331
16E1F
331
16E20
331
16E31
331
16E32
331
16E3A
331
16E3B
331
16E4E
331
16E4F
331
16E57
331
16E58
331
16E60
331
16E61
102
}
  0
BLOCK_RECORD
  5
15902
330
7466
100
AcDbSymbolTableRecord
100
AcDbBlockTableRecord
  2
*D1
340
0
  0
BLOCK_RECORD
  5
1591A
330
7466
100
AcDbSymbolTableRecord
100
AcDbBlockTableRecord
  2
*D2
340
0
  0
BLOCK_RECORD
  5
15926
330
7466
100
AcDbSymbolTableRecord
100
AcDbBlockTableRecord
  2
*D3
340
0
  0
BLOCK_RECORD
  5
15932
330
7466
100
AcDbSymbolTableRecord
100
AcDbBlockTableRecord
  2
*D4
340
0
  0
BLOCK_RECORD
  5
15962
330
7466
100
AcDbSymbolTableRecord
100
AcDbBlockTableRecord
  2
*D5
340
0
  0
BLOCK_RECORD
  5
1596E
330
7466
100
AcDbSymbolTableRecord
100
AcDbBlockTableRecord
  2
*D6
340
0
  0
BLOCK_RECORD
  5
1597C
330
7466
100
AcDbSymbolTableRecord
100
AcDbBlockTableRecord
  2
*D7
340
0
  0
BLOCK_RECORD
  5
15988
330
7466
100
AcDbSymbolTableRecord
100
AcDbBlockTableRecord
  2
*D8
340
0
  0
BLOCK_RECORD
  5
15996
330
7466
100
AcDbSymbolTableRecord
100
AcDbBlockTableRecord
  2
*D9
340
0
  0
BLOCK_RECORD
  5
159A4
330
7466
100
AcDbSymbolTableRecord
100
AcDbBlockTableRecord
  2
*D10
340
0
  0
BLOCK_RECORD
  5
159B0
330
7466
100
AcDbSymbolTableRecord
100
AcDbBlockTableRecord
  2
*D11
340
0
  0
BLOCK_RECORD
  5
159BE
330
7466
100
AcDbSymbolTableRecord
100
AcDbBlockTableRecord
  2
*D12
340
0
  0
BLOCK_RECORD
  5
159CA
330
7466
100
AcDbSymbolTableRecord
100
AcDbBlockTableRecord
  2
*D13
340
0
  0
BLOCK_RECORD
  5
159D6
330
7466
100
AcDbSymbolTableRecord
100
AcDbBlockTableRecord
  2
*D14
340
0
  0
BLOCK_RECORD
  5
159E4
330
7466
100
AcDbSymbolTableRecord
100
AcDbBlockTableRecord
  2
*D15
340
0
  0
BLOCK_RECORD
  5
159F0
330
7466
100
AcDbSymbolTableRecord
100
AcDbBlockTableRecord
  2
*D16
340
0
  0
BLOCK_RECORD
  5
159FC
330
7466
100
AcDbSymbolTableRecord
100
AcDbBlockTableRecord
  2
*D17
340
0
  0
BLOCK_RECORD
  5
15C47
330
7466
100
AcDbSymbolTableRecord
100
AcDbBlockTableRecord
  2
*D18
340
0
  0
BLOCK_RECORD
  5
15C5F
330
7466
100
AcDbSymbolTableRecord
100
AcDbBlockTableRecord
  2
*D19
340
0
  0
BLOCK_RECORD
  5
15C9B
330
7466
100
AcDbSymbolTableRecord
100
AcDbBlockTableRecord
  2
*D20
340
0
  0
BLOCK_RECORD
  5
15CA8
330
7466
100
AcDbSymbolTableRecord
100
AcDbBlockTableRecord
  2
*D21
340
0
  0
BLOCK_RECORD
  5
162D9
330
7466
100
AcDbSymbolTableRecord
100
AcDbBlockTableRecord
  2
*D22
340
0
  0
BLOCK_RECORD
  5
162E5
330
7466
100
AcDbSymbolTableRecord
100
AcDbBlockTableRecord
  2
*D23
340
0
  0
BLOCK_RECORD
  5
162F3
330
7466
100
AcDbSymbolTableRecord
100
AcDbBlockTableRecord
  2
*D24
340
0
  0
BLOCK_RECORD
  5
162FF
330
7466
100
AcDbSymbolTableRecord
100
AcDbBlockTableRecord
  2
*D25
340
0
  0
BLOCK_RECORD
  5
1630B
330
7466
100
AcDbSymbolTableRecord
100
AcDbBlockTableRecord
  2
*D26
340
0
  0
BLOCK_RECORD
  5
16319
330
7466
100
AcDbSymbolTableRecord
100
AcDbBlockTableRecord
  2
*D27
340
0
  0
BLOCK_RECORD
  5
16325
330
7466
100
AcDbSymbolTableRecord
100
AcDbBlockTableRecord
  2
*D28
340
0
  0
BLOCK_RECORD
  5
16332
330
7466
100
AcDbSymbolTableRecord
100
AcDbBlockTableRecord
  2
*D29
340
0
  0
BLOCK_RECORD
  5
1633F
330
7466
100
AcDbSymbolTableRecord
100
AcDbBlockTableRecord
  2
*D30
340
0
  0
BLOCK_RECORD
  5
16ABE
330
7466
100
AcDbSymbolTableRecord
100
AcDbBlockTableRecord
  2
*D31
340
0
  0
BLOCK_RECORD
  5
16ACA
330
7466
100
AcDbSymbolTableRecord
100
AcDbBlockTableRecord
  2
*D32
340
0
  0
BLOCK_RECORD
  5
16AD6
330
7466
100
AcDbSymbolTableRecord
100
AcDbBlockTableRecord
  2
*D33
340
0
  0
BLOCK_RECORD
  5
16AE2
330
7466
100
AcDbSymbolTableRecord
100
AcDbBlockTableRecord
  2
*D34
340
0
  0
BLOCK_RECORD
  5
16AF0
330
7466
100
AcDbSymbolTableRecord
100
AcDbBlockTableRecord
  2
*D35
340
0
  0
ENDTAB
  0
ENDSEC
  0
SECTION
  2
BLOCKS
  0
BLOCK
  5
7489
330
747D
100
AcDbEntity
  8
0
100
AcDbBlockBegin
  2
*MODEL_SPACE
 70
     0
 10
0.0
 20
0.0
 30
0.0
  3
*MODEL_SPACE
  1

  0
ENDBLK
  5
748A
330
747D
100
AcDbEntity
  8
0
100
AcDbBlockEnd
  0
BLOCK
  5
7487
330
747A
100
AcDbEntity
 67
     1
  8
0
100
AcDbBlockBegin
  2
*PAPER_SPACE
 70
     0
 10
0.0
 20
0.0
 30
0.0
  3
*PAPER_SPACE
  1

  0
ENDBLK
  5
7488
330
747A
100
AcDbEntity
 67
     1
  8
0
100
AcDbBlockEnd
  0
BLOCK
  5
F771
330
F770
100
AcDbEntity
  8
0
 48
50.0
100
AcDbBlockBegin
  2
_DOTSMALL
 70
     0
 10
0.0
 20
0.0
 30
0.0
  3
_DOTSMALL
  1

  0
LWPOLYLINE
  5
F772
330
F770
100
AcDbEntity
  8
0
  6
ByBlock
 62
     0
 48
50.0
100
AcDbPolyline
 90
        2
 70
     1
 43
0.5
 10
-0.0625
 20
0.0
 42
1.0
 10
0.0625
 20
0.0
 42
1.0
  0
ENDBLK
  5
F776
330
F770
100
AcDbEntity
  8
0
 48
50.0
100
AcDbBlockEnd
  0
BLOCK
  5
15A45
330
15902
100
AcDbEntity
  8
0
 48
50.0
100
AcDbBlockBegin
  2
*D1
 70
     1
 10
0.0
 20
0.0
 30
0.0
  3
*D1
  1

  0
LINE
  5
16E37
330
15902
100
AcDbEntity
  8
寸法
 62
     0
 48
50.0
370
    -2
100
AcDbLine
 10
7560.368918339932
 20
9504.780685617411
 30
0.0
 11
7560.368918339932
 21
9760.5889052424
 31
0.0
  0
LINE
  5
16E38
330
15902
100
AcDbEntity
  8
寸法
 62
     0
 48
50.0
370
    -2
100
AcDbLine
 10
6850.368918339933
 20
9504.780685617397
 30
0.0
 11
6850.368918339933
 21
9760.5889052424
 31
0.0
  0
LINE
  5
16E39
330
15902
100
AcDbEntity
  8
寸法
 62
     0
 48
50.0
370
    -2
100
AcDbLine
 10
7560.368918339932
 20
9700.588905242401
 30
0.0
 11
6850.368918339933
 21
9700.588905242401
 31
0.0
  0
INSERT
  5
16E3A
330
15902
100
AcDbEntity
  8
寸法
 62
     0
 48
50.0
370
    -2
100
AcDbBlockReference
  2
_DOTSMALL
 10
7560.368918339932
 20
9700.588905242401
 30
0.0
 41
100.0
 42
100.0
 43
100.0
  0
INSERT
  5
16E3B
330
15902
100
AcDbEntity
  8
寸法
 62
     0
 48
50.0
370
    -2
100
AcDbBlockReference
  2
_DOTSMALL
 10
6850.368918339933
 20
9700.588905242401
 30
0.0
 41
100.0
 42
100.0
 43
100.0
 50
180.0
  0
MTEXT
  5
16E3C
330
15902
100
AcDbEntity
  8
寸法
 62
     7
 48
50.0
100
AcDbMText
 10
7205.368918339932
 20
9800.588905242401
 30
0.0
 40
120.0
 41
0.0
 71
     5
 72
     1
  1
\A1;710
  7
STYLE1
 73
     1
 44
1.0
1001
ACAD
1000
MTEXTBEGIN
1070
    73
1070
     1
1070
    44
1040
1.0
1070
    74
1070
     0
1000
MTEXTEND
  0
POINT
  5
16E3D
330
15902
100
AcDbEntity
  8
DEFPOINTS
 62
     0
 48
50.0
100
AcDbPoint
 10
7560.368918339932
 20
9484.780685617412
 30
0.0
  0
POINT
  5
16E3E
330
15902
100
AcDbEntity
  8
DEFPOINTS
 62
     0
 48
50.0
100
AcDbPoint
 10
6850.368918339933
 20
9484.780685617398
 30
0.0
  0
POINT
  5
16E3F
330
15902
100
AcDbEntity
  8
DEFPOINTS
 62
     0
 48
50.0
100
AcDbPoint
 10
6850.368918339933
 20
9700.588905242401
 30
0.0
  0
ENDBLK
  5
15A4F
330
15902
100
AcDbEntity
  8
0
 48
50.0
100
AcDbBlockEnd
  0
BLOCK
  5
15A5B
330
1591A
100
AcDbEntity
  8
0
 48
50.0
100
AcDbBlockBegin
  2
*D2
 70
     1
 10
0.0
 20
0.0
 30
0.0
  3
*D2
  1

  0
LINE
  5
16E2E
330
1591A
100
AcDbEntity
  8
寸法
 62
     0
 48
50.0
370
    -2
100
AcDbLine
 10
5155.368918339926
 20
7934.780685617223
 30
0.0
 11
5155.368918339926
 21
6907.678810757146
 31
0.0
  0
LINE
  5
16E2F
330
1591A
100
AcDbEntity
  8
寸法
 62
     0
 48
50.0
370
    -2
100
AcDbLine
 10
7615.368918339908
 20
7934.780685617353
 30
0.0
 11
7615.368918339908
 21
6907.678810757146
 31
0.0
  0
LINE
  5
16E30
330
1591A
100
AcDbEntity
  8
寸法
 62
     0
 48
50.0
370
    -2
100
AcDbLine
 10
5155.368918339926
 20
6967.678810757147
 30
0.0
 11
7615.368918339908
 21
6967.678810757147
 31
0.0
  0
INSERT
  5
16E31
330
1591A
100
AcDbEntity
  8
寸法
 62
     0
 48
50.0
370
    -2
100
AcDbBlockReference
  2
_DOTSMALL
 10
5155.368918339926
 20
6967.678810757147
 30
0.0
 41
100.0
 42
100.0
 43
100.0
 50
180.0
  0
INSERT
  5
16E32
330
1591A
100
AcDbEntity
  8
寸法
 62
     0
 48
50.0
370
    -2
100
AcDbBlockReference
  2
_DOTSMALL
 10
7615.368918339908
 20
6967.678810757147
 30
0.0
 41
100.0
 42
100.0
 43
100.0
  0
MTEXT
  5
16E33
330
1591A
100
AcDbEntity
  8
寸法
 62
     7
 48
50.0
100
AcDbMText
 10
6385.368918339918
 20
7067.690621780768
 30
0.0
 40
120.0
 41
0.0
 71
     5
 72
     1
  1
\A1;2460
  7
STYLE1
 73
     1
 44
1.0
1001
ACAD
1000
MTEXTBEGIN
1070
    73
1070
     1
1070
    44
1040
1.0
1070
    74
1070
     0
1000
MTEXTEND
  0
POINT
  5
16E34
330
1591A
100
AcDbEntity
  8
DEFPOINTS
 62
     0
 48
50.0
100
AcDbPoint
 10
5155.368918339926
 20
7954.780685617222
 30
0.0
  0
POINT
  5
16E35
330
1591A
100
AcDbEntity
  8
DEFPOINTS
 62
     0
 48
50.0
100
AcDbPoint
 10
7615.368918339908
 20
7954.780685617354
 30
0.0
  0
POINT
  5
16E36
330
1591A
100
AcDbEntity
  8
DEFPOINTS
 62
     0
 48
50.0
100
AcDbPoint
 10
7615.368918339908
 20
6967.678810757147
 30
0.0
  0
ENDBLK
  5
15A65
330
1591A
100
AcDbEntity
  8
0
 48
50.0
100
AcDbBlockEnd
  0
BLOCK
  5
15A66
330
15926
100
AcDbEntity
  8
0
 48
50.0
100
AcDbBlockBegin
  2
*D3
 70
     1
 10
0.0
 20
0.0
 30
0.0
  3
*D3
  1

  0
LINE
  5
16E5D
330
15926
100
AcDbEntity
  8
寸法
 62
     0
 48
50.0
370
    -2
100
AcDbLine
 10
6819.509934491242
 20
8985.280685617347
 30
0.0
 11
6754.653606771348
 21
8743.233575374366
 31
0.0
  0
LINE
  5
16E5E
330
15926
100
AcDbEntity
  8
寸法
 62
     0
 48
50.0
370
    -2
100
AcDbLine
 10
7580.509934491252
 20
8985.280685617347
 30
0.0
 11
7515.653606771358
 21
8743.233575374366
 31
0.0
  0
LINE
  5
16E5F
330
15926
100
AcDbEntity
  8
寸法
 62
     0
 48
50.0
370
    -2
100
AcDbLine
 10
6770.730558317215
 20
8803.233575374367
 30
0.0
 11
7531.730558317225
 21
8803.233575374367
 31
0.0
  0
INSERT
  5
16E60
330
15926
100
AcDbEntity
  8
寸法
 62
     0
 48
50.0
370
    -2
100
AcDbBlockReference
  2
_DOTSMALL
 10
6770.730558317215
 20
8803.233575374367
 30
0.0
 41
100.0
 42
100.0
 43
100.0
 50
180.0
  0
INSERT
  5
16E61
330
15926
100
AcDbEntity
  8
寸法
 62
     0
 48
50.0
370
    -2
100
AcDbBlockReference
  2
_DOTSMALL
 10
7531.730558317225
 20
8803.233575374367
 30
0.0
 41
100.0
 42
100.0
 43
100.0
  0
MTEXT
  5
16E62
330
15926
100
AcDbEntity
  8
寸法
 62
     7
 48
50.0
100
AcDbMText
 10
7204.215980458132
 20
8903.233575374366
 30
0.0
 40
120.0
 41
0.0
 71
     5
 72
     1
  1
\A1;761
  7
STYLE1
 73
     1
 44
1.0
1001
ACAD
1000
MTEXTBEGIN
1070
    73
1070
     1
1070
    44
1040
1.0
1070
    74
1070
     0
1000
MTEXTEND
  0
POINT
  5
16E63
330
15926
100
AcDbEntity
  8
DEFPOINTS
 62
     0
 48
50.0
100
AcDbPoint
 10
6824.868918339864
 20
9005.280685617346
 30
0.0
  0
POINT
  5
16E64
330
15926
100
AcDbEntity
  8
DEFPOINTS
 62
     0
 48
50.0
100
AcDbPoint
 10
7585.868918339875
 20
9005.280685617346
 30
0.0
  0
POINT
  5
16E65
330
15926
100
AcDbEntity
  8
DEFPOINTS
 62
     0
 48
50.0
100
AcDbPoint
 10
7531.730558317225
 20
8803.233575374367
 30
0.0
  0
ENDBLK
  5
15A70
330
15926
100
AcDbEntity
  8
0
 48
50.0
100
AcDbBlockEnd
  0
BLOCK
  5
15A71
330
15932
100
AcDbEntity
  8
0
 48
50.0
100
AcDbBlockBegin
  2
*D4
 70
     1
 10
0.0
 20
0.0
 30
0.0
  3
*D4
  1

  0
LINE
  5
16E1C
330
15932
100
AcDbEntity
  8
寸法
 62
     0
 48
50.0
370
    -2
100
AcDbLine
 10
6850.368918339929
 20
7934.780685617295
 30
0.0
 11
6850.368918339929
 21
7454.957017822218
 31
0.0
  0
LINE
  5
16E1D
330
15932
100
AcDbEntity
  8
寸法
 62
     0
 48
50.0
370
    -2
100
AcDbLine
 10
7535.368918339925
 20
7934.780685617259
 30
0.0
 11
7535.368918339925
 21
7454.957017822218
 31
0.0
  0
LINE
  5
16E1E
330
15932
100
AcDbEntity
  8
寸法
 62
     0
 48
50.0
370
    -2
100
AcDbLine
 10
6850.368918339929
 20
7514.957017822219
 30
0.0
 11
7535.368918339925
 21
7514.957017822219
 31
0.0
  0
INSERT
  5
16E1F
330
15932
100
AcDbEntity
  8
寸法
 62
     0
 48
50.0
370
    -2
100
AcDbBlockReference
  2
_DOTSMALL
 10
6850.368918339929
 20
7514.957017822219
 30
0.0
 41
100.0
 42
100.0
 43
100.0
 50
180.0
  0
INSERT
  5
16E20
330
15932
100
AcDbEntity
  8
寸法
 62
     0
 48
50.0
370
    -2
100
AcDbBlockReference
  2
_DOTSMALL
 10
7535.368918339925
 20
7514.957017822219
 30
0.0
 41
100.0
 42
100.0
 43
100.0
  0
MTEXT
  5
16E21
330
15932
100
AcDbEntity
  8
寸法
 62
     7
 48
50.0
100
AcDbMText
 10
7192.868918339927
 20
7714.957017822219
 30
0.0
 40
120.0
 41
0.0
 71
     5
 72
     1
  1
\A1;有効開口部間口\P685
  7
STYLE1
 73
     1
 44
1.0
1001
ACAD
1000
MTEXTBEGIN
1070
    73
1070
     1
1070
    44
1040
1.0
1070
    74
1070
     0
1000
MTEXTEND
  0
POINT
  5
16E22
330
15932
100
AcDbEntity
  8
DEFPOINTS
 62
     0
 48
50.0
100
AcDbPoint
 10
6850.368918339929
 20
7954.780685617295
 30
0.0
  0
POINT
  5
16E23
330
15932
100
AcDbEntity
  8
DEFPOINTS
 62
     0
 48
50.0
100
AcDbPoint
 10
7535.368918339925
 20
7954.78068561726
 30
0.0
  0
POINT
  5
16E24
330
15932
100
AcDbEntity
  8
DEFPOINTS
 62
     0
 48
50.0
100
AcDbPoint
 10
7535.368918339925
 20
7514.957017822219
 30
0.0
  0
ENDBLK
  5
15A7B
330
15932
100
AcDbEntity
  8
0
 48
50.0
100
AcDbBlockEnd
  0
BLOCK
  5
15A9D
330
15962
100
AcDbEntity
  8
0
 48
50.0
100
AcDbBlockBegin
  2
*D5
 70
     1
 10
0.0
 20
0.0
 30
0.0
  3
*D5
  1

  0
LINE
  5
16E13
330
15962
100
AcDbEntity
  8
寸法
 62
     0
 48
50.0
370
    -2
100
AcDbLine
 10
5210.368918339933
 20
9504.780685617332
 30
0.0
 11
5210.368918339933
 21
9760.5889052424
 31
0.0
  0
LINE
  5
16E14
330
15962
100
AcDbEntity
  8
寸法
 62
     0
 48
50.0
370
    -2
100
AcDbLine
 10
5920.368918339932
 20
9504.780685617419
 30
0.0
 11
5920.368918339932
 21
9760.5889052424
 31
0.0
  0
LINE
  5
16E15
330
15962
100
AcDbEntity
  8
寸法
 62
     0
 48
50.0
370
    -2
100
AcDbLine
 10
5210.368918339933
 20
9700.588905242401
 30
0.0
 11
5920.368918339932
 21
9700.588905242401
 31
0.0
  0
INSERT
  5
16E16
330
15962
100
AcDbEntity
  8
寸法
 62
     0
 48
50.0
370
    -2
100
AcDbBlockReference
  2
_DOTSMALL
 10
5210.368918339933
 20
9700.588905242401
 30
0.0
 41
100.0
 42
100.0
 43
100.0
 50
180.0
  0
INSERT
  5
16E17
330
15962
100
AcDbEntity
  8
寸法
 62
     0
 48
50.0
370
    -2
100
AcDbBlockReference
  2
_DOTSMALL
 10
5920.368918339932
 20
9700.588905242401
 30
0.0
 41
100.0
 42
100.0
 43
100.0
  0
MTEXT
  5
16E18
330
15962
100
AcDbEntity
  8
寸法
 62
     7
 48
50.0
100
AcDbMText
 10
5565.618918339932
 20
9800.588905242401
 30
0.0
 40
120.0
 41
0.0
 71
     5
 72
     1
  1
\A1;710
  7
STYLE1
 73
     1
 44
1.0
1001
ACAD
1000
MTEXTBEGIN
1070
    73
1070
     1
1070
    44
1040
1.0
1070
    74
1070
     0
1000
MTEXTEND
  0
POINT
  5
16E19
330
15962
100
AcDbEntity
  8
DEFPOINTS
 62
     0
 48
50.0
100
AcDbPoint
 10
5210.368918339933
 20
9484.780685617332
 30
0.0
  0
POINT
  5
16E1A
330
15962
100
AcDbEntity
  8
DEFPOINTS
 62
     0
 48
50.0
100
AcDbPoint
 10
5920.368918339932
 20
9484.780685617419
 30
0.0
  0
POINT
  5
16E1B
330
15962
100
AcDbEntity
  8
DEFPOINTS
 62
     0
 48
50.0
100
AcDbPoint
 10
5920.368918339932
 20
9700.588905242401
 30
0.0
  0
ENDBLK
  5
15AA7
330
15962
100
AcDbEntity
  8
0
 48
50.0
100
AcDbBlockEnd
  0
BLOCK
  5
15AA8
330
1596E
100
AcDbEntity
  8
0
 48
50.0
100
AcDbBlockBegin
  2
*D6
 70
     1
 10
0.0
 20
0.0
 30
0.0
  3
*D6
  1

  0
LINE
  5
16E08
330
1596E
100
AcDbEntity
  8
寸法
 62
     0
 48
50.0
370
    -2
100
AcDbLine
 10
5155.368918339896
 20
9504.780685617303
 30
0.0
 11
5155.368918339896
 21
9760.588905242286
 31
0.0
  0
LINE
  5
16E09
330
1596E
100
AcDbEntity
  8
寸法
 62
     0
 48
50.0
370
    -2
100
AcDbLine
 10
5210.368918339933
 20
9504.780685617303
 30
0.0
 11
5210.368918339933
 21
9760.588905242286
 31
0.0
  0
LINE
  5
16E0A
330
1596E
100
AcDbEntity
  8
寸法
 62
     0
 48
50.0
370
    -2
100
AcDbLine
 10
5210.368918339933
 20
9700.588905242284
 30
0.0
 11
5310.368918339933
 21
9700.588905242284
 31
0.0
  0
LINE
  5
16E0B
330
1596E
100
AcDbEntity
  8
寸法
 62
     0
 48
50.0
370
    -2
100
AcDbLine
 10
5155.368918339896
 20
9700.588905242284
 30
0.0
 11
4738.398355591417
 21
9700.588905242284
 31
0.0
  0
LINE
  5
16E0C
330
1596E
100
AcDbEntity
  8
寸法
 62
     0
 48
50.0
370
    -2
100
AcDbLine
 10
5210.368918339933
 20
9700.588905242284
 30
0.0
 11
5155.368918339896
 21
9700.588905242284
 31
0.0
  0
INSERT
  5
16E0D
330
1596E
100
AcDbEntity
  8
寸法
 62
     0
 48
50.0
370
    -2
100
AcDbBlockReference
  2
_DOTSMALL
 10
5210.368918339933
 20
9700.588905242284
 30
0.0
 41
100.0
 42
100.0
 43
100.0
 50
180.0
  0
INSERT
  5
16E0E
330
1596E
100
AcDbEntity
  8
寸法
 62
     0
 48
50.0
370
    -2
100
AcDbBlockReference
  2
_DOTSMALL
 10
5155.368918339896
 20
9700.588905242284
 30
0.0
 41
100.0
 42
100.0
 43
100.0
  0
MTEXT
  5
16E0F
330
1596E
100
AcDbEntity
  8
寸法
 62
     7
 48
50.0
100
AcDbMText
 10
4846.883636965657
 20
9800.588905242285
 30
0.0
 40
120.0
 41
0.0
 71
     5
 72
     1
  1
\A1;55
  7
STYLE1
 73
     1
 44
1.0
1001
ACAD
1000
MTEXTBEGIN
1070
    73
1070
     1
1070
    44
1040
1.0
1070
    74
1070
     0
1000
MTEXTEND
  0
POINT
  5
16E10
330
1596E
100
AcDbEntity
  8
DEFPOINTS
 62
     0
 48
50.0
100
AcDbPoint
 10
5155.368918339896
 20
9484.780685617304
 30
0.0
  0
POINT
  5
16E11
330
1596E
100
AcDbEntity
  8
DEFPOINTS
 62
     0
 48
50.0
100
AcDbPoint
 10
5210.368918339933
 20
9484.780685617304
 30
0.0
  0
POINT
  5
16E12
330
1596E
100
AcDbEntity
  8
DEFPOINTS
 62
     0
 48
50.0
100
AcDbPoint
 10
5210.368918339933
 20
9700.588905242284
 30
0.0
  0
ENDBLK
  5
15AB4
330
1596E
100
AcDbEntity
  8
0
 48
50.0
100
AcDbBlockEnd
  0
BLOCK
  5
15AB5
330
1597C
100
AcDbEntity
  8
0
 48
50.0
100
AcDbBlockBegin
  2
*D7
 70
     1
 10
0.0
 20
0.0
 30
0.0
  3
*D7
  1

  0
LINE
  5
16DFF
330
1597C
100
AcDbEntity
  8
寸法
 62
     0
 48
50.0
370
    -2
100
AcDbLine
 10
6030.368918339933
 20
9504.780685617332
 30
0.0
 11
6030.368918339933
 21
9760.5889052424
 31
0.0
  0
LINE
  5
16E00
330
1597C
100
AcDbEntity
  8
寸法
 62
     0
 48
50.0
370
    -2
100
AcDbLine
 10
6740.368918339934
 20
9504.780685617419
 30
0.0
 11
6740.368918339934
 21
9760.5889052424
 31
0.0
  0
LINE
  5
16E01
330
1597C
100
AcDbEntity
  8
寸法
 62
     0
 48
50.0
370
    -2
100
AcDbLine
 10
6030.368918339933
 20
9700.588905242401
 30
0.0
 11
6740.368918339934
 21
9700.588905242401
 31
0.0
  0
INSERT
  5
16E02
330
1597C
100
AcDbEntity
  8
寸法
 62
     0
 48
50.0
370
    -2
100
AcDbBlockReference
  2
_DOTSMALL
 10
6030.368918339933
 20
9700.588905242401
 30
0.0
 41
100.0
 42
100.0
 43
100.0
 50
180.0
  0
INSERT
  5
16E03
330
1597C
100
AcDbEntity
  8
寸法
 62
     0
 48
50.0
370
    -2
100
AcDbBlockReference
  2
_DOTSMALL
 10
6740.368918339934
 20
9700.588905242401
 30
0.0
 41
100.0
 42
100.0
 43
100.0
  0
MTEXT
  5
16E04
330
1597C
100
AcDbEntity
  8
寸法
 62
     7
 48
50.0
100
AcDbMText
 10
6385.618918339933
 20
9800.588905242401
 30
0.0
 40
120.0
 41
0.0
 71
     5
 72
     1
  1
\A1;710
  7
STYLE1
 73
     1
 44
1.0
1001
ACAD
1000
MTEXTBEGIN
1070
    73
1070
     1
1070
    44
1040
1.0
1070
    74
1070
     0
1000
MTEXTEND
  0
POINT
  5
16E05
330
1597C
100
AcDbEntity
  8
DEFPOINTS
 62
     0
 48
50.0
100
AcDbPoint
 10
6030.368918339933
 20
9484.780685617332
 30
0.0
  0
POINT
  5
16E06
330
1597C
100
AcDbEntity
  8
DEFPOINTS
 62
     0
 48
50.0
100
AcDbPoint
 10
6740.368918339934
 20
9484.780685617419
 30
0.0
  0
POINT
  5
16E07
330
1597C
100
AcDbEntity
  8
DEFPOINTS
 62
     0
 48
50.0
100
AcDbPoint
 10
6740.368918339934
 20
9700.588905242401
 30
0.0
  0
ENDBLK
  5
15ABF
330
1597C
100
AcDbEntity
  8
0
 48
50.0
100
AcDbBlockEnd
  0
BLOCK
  5
15AC0
330
15988
100
AcDbEntity
  8
0
 48
50.0
100
AcDbBlockBegin
  2
*D8
 70
     1
 10
0.0
 20
0.0
 30
0.0
  3
*D8
  1

  0
LINE
  5
16DF4
330
15988
100
AcDbEntity
  8
寸法
 62
     0
 48
50.0
370
    -2
100
AcDbLine
 10
5920.368918339932
 20
9504.780685617419
 30
0.0
 11
5920.368918339932
 21
9760.5889052424
 31
0.0
  0
LINE
  5
16DF5
330
15988
100
AcDbEntity
  8
寸法
 62
     0
 48
50.0
370
    -2
100
AcDbLine
 10
6030.368918339933
 20
9504.780685617397
 30
0.0
 11
6030.368918339933
 21
9760.5889052424
 31
0.0
  0
LINE
  5
16DF6
330
15988
100
AcDbEntity
  8
寸法
 62
     0
 48
50.0
370
    -2
100
AcDbLine
 10
5920.368918339932
 20
9700.588905242401
 30
0.0
 11
5820.368918339933
 21
9700.588905242401
 31
0.0
  0
LINE
  5
16DF7
330
15988
100
AcDbEntity
  8
寸法
 62
     0
 48
50.0
370
    -2
100
AcDbLine
 10
6030.368918339933
 20
9700.588905242401
 30
0.0
 11
6130.368918339932
 21
9700.588905242401
 31
0.0
  0
LINE
  5
16DF8
330
15988
100
AcDbEntity
  8
寸法
 62
     0
 48
50.0
370
    -2
100
AcDbLine
 10
5920.368918339932
 20
9700.588905242401
 30
0.0
 11
6030.368918339933
 21
9700.588905242401
 31
0.0
  0
INSERT
  5
16DF9
330
15988
100
AcDbEntity
  8
寸法
 62
     0
 48
50.0
370
    -2
100
AcDbBlockReference
  2
_DOTSMALL
 10
5920.368918339932
 20
9700.588905242401
 30
0.0
 41
100.0
 42
100.0
 43
100.0
  0
INSERT
  5
16DFA
330
15988
100
AcDbEntity
  8
寸法
 62
     0
 48
50.0
370
    -2
100
AcDbBlockReference
  2
_DOTSMALL
 10
6030.368918339933
 20
9700.588905242401
 30
0.0
 41
100.0
 42
100.0
 43
100.0
 50
180.0
  0
MTEXT
  5
16DFB
330
15988
100
AcDbEntity
  8
寸法
 62
     7
 48
50.0
100
AcDbMText
 10
5975.368918339933
 20
9800.588905242401
 30
0.0
 40
120.0
 41
0.0
 71
     5
 72
     1
  1
\A1;110
  7
STYLE1
 73
     1
 44
1.0
1001
ACAD
1000
MTEXTBEGIN
1070
    73
1070
     1
1070
    44
1040
1.0
1070
    74
1070
     0
1000
MTEXTEND
  0
POINT
  5
16DFC
330
15988
100
AcDbEntity
  8
DEFPOINTS
 62
     0
 48
50.0
100
AcDbPoint
 10
5920.368918339932
 20
9484.780685617419
 30
0.0
  0
POINT
  5
16DFD
330
15988
100
AcDbEntity
  8
DEFPOINTS
 62
     0
 48
50.0
100
AcDbPoint
 10
6030.368918339933
 20
9484.780685617398
 30
0.0
  0
POINT
  5
16DFE
330
15988
100
AcDbEntity
  8
DEFPOINTS
 62
     0
 48
50.0
100
AcDbPoint
 10
6030.368918339933
 20
9700.588905242401
 30
0.0
  0
ENDBLK
  5
15ACC
330
15988
100
AcDbEntity
  8
0
 48
50.0
100
AcDbBlockEnd
  0
BLOCK
  5
15ACD
330
15996
100
AcDbEntity
  8
0
 48
50.0
100
AcDbBlockBegin
  2
*D9
 70
     1
 10
0.0
 20
0.0
 30
0.0
  3
*D9
  1

  0
LINE
  5
16DE9
330
15996
100
AcDbEntity
  8
寸法
 62
     0
 48
50.0
370
    -2
100
AcDbLine
 10
6740.368918339934
 20
9504.780685617419
 30
0.0
 11
6740.368918339934
 21
9760.5889052424
 31
0.0
  0
LINE
  5
16DEA
330
15996
100
AcDbEntity
  8
寸法
 62
     0
 48
50.0
370
    -2
100
AcDbLine
 10
6850.368918339933
 20
9504.780685617397
 30
0.0
 11
6850.368918339933
 21
9760.5889052424
 31
0.0
  0
LINE
  5
16DEB
330
15996
100
AcDbEntity
  8
寸法
 62
     0
 48
50.0
370
    -2
100
AcDbLine
 10
6740.368918339934
 20
9700.588905242401
 30
0.0
 11
6640.368918339934
 21
9700.588905242401
 31
0.0
  0
LINE
  5
16DEC
330
15996
100
AcDbEntity
  8
寸法
 62
     0
 48
50.0
370
    -2
100
AcDbLine
 10
6850.368918339933
 20
9700.588905242401
 30
0.0
 11
6950.368918339933
 21
9700.588905242401
 31
0.0
  0
LINE
  5
16DED
330
15996
100
AcDbEntity
  8
寸法
 62
     0
 48
50.0
370
    -2
100
AcDbLine
 10
6740.368918339934
 20
9700.588905242401
 30
0.0
 11
6850.368918339933
 21
9700.588905242401
 31
0.0
  0
INSERT
  5
16DEE
330
15996
100
AcDbEntity
  8
寸法
 62
     0
 48
50.0
370
    -2
100
AcDbBlockReference
  2
_DOTSMALL
 10
6740.368918339934
 20
9700.588905242401
 30
0.0
 41
100.0
 42
100.0
 43
100.0
  0
INSERT
  5
16DEF
330
15996
100
AcDbEntity
  8
寸法
 62
     0
 48
50.0
370
    -2
100
AcDbBlockReference
  2
_DOTSMALL
 10
6850.368918339933
 20
9700.588905242401
 30
0.0
 41
100.0
 42
100.0
 43
100.0
 50
180.0
  0
MTEXT
  5
16DF0
330
15996
100
AcDbEntity
  8
寸法
 62
     7
 48
50.0
100
AcDbMText
 10
6795.368918339933
 20
9800.588905242401
 30
0.0
 40
120.0
 41
0.0
 71
     5
 72
     1
  1
\A1;110
  7
STYLE1
 73
     1
 44
1.0
1001
ACAD
1000
MTEXTBEGIN
1070
    73
1070
     1
1070
    44
1040
1.0
1070
    74
1070
     0
1000
MTEXTEND
  0
POINT
  5
16DF1
330
15996
100
AcDbEntity
  8
DEFPOINTS
 62
     0
 48
50.0
100
AcDbPoint
 10
6740.368918339934
 20
9484.780685617419
 30
0.0
  0
POINT
  5
16DF2
330
15996
100
AcDbEntity
  8
DEFPOINTS
 62
     0
 48
50.0
100
AcDbPoint
 10
6850.368918339933
 20
9484.780685617398
 30
0.0
  0
POINT
  5
16DF3
330
15996
100
AcDbEntity
  8
DEFPOINTS
 62
     0
 48
50.0
100
AcDbPoint
 10
6850.368918339933
 20
9700.588905242401
 30
0.0
  0
ENDBLK
  5
15AD9
330
15996
100
AcDbEntity
  8
0
 48
50.0
100
AcDbBlockEnd
  0
BLOCK
  5
15ADA
330
159A4
100
AcDbEntity
  8
0
 48
50.0
100
AcDbBlockBegin
  2
*D10
 70
     1
 10
0.0
 20
0.0
 30
0.0
  3
*D10
  1

  0
LINE
  5
16DE0
330
159A4
100
AcDbEntity
  8
寸法
 62
     0
 48
50.0
370
    -2
100
AcDbLine
 10
7635.368918339932
 20
9429.780685617398
 30
0.0
 11
8322.795264074342
 21
9429.780685617398
 31
0.0
  0
LINE
  5
16DE1
330
159A4
100
AcDbEntity
  8
寸法
 62
     0
 48
50.0
370
    -2
100
AcDbLine
 10
7635.368918339932
 20
9009.780685617398
 30
0.0
 11
8322.795264074342
 21
9009.780685617398
 31
0.0
  0
LINE
  5
16DE2
330
159A4
100
AcDbEntity
  8
寸法
 62
     0
 48
50.0
370
    -2
100
AcDbLine
 10
8262.795264074343
 20
9429.780685617398
 30
0.0
 11
8262.795264074343
 21
9009.780685617398
 31
0.0
  0
INSERT
  5
16DE3
330
159A4
100
AcDbEntity
  8
寸法
 62
     0
 48
50.0
370
    -2
100
AcDbBlockReference
  2
_DOTSMALL
 10
8262.795264074343
 20
9429.780685617398
 30
0.0
 41
100.0
 42
100.0
 43
100.0
 50
90.0
  0
INSERT
  5
16DE4
330
159A4
100
AcDbEntity
  8
寸法
 62
     0
 48
50.0
370
    -2
100
AcDbBlockReference
  2
_DOTSMALL
 10
8262.795264074343
 20
9009.780685617398
 30
0.0
 41
100.0
 42
100.0
 43
100.0
 50
270.0
  0
MTEXT
  5
16DE5
330
159A4
100
AcDbEntity
  8
寸法
 62
     7
 48
50.0
100
AcDbMText
 10
8162.783453050719
 20
9219.780685617399
 30
0.0
 40
120.0
 41
0.0
 71
     5
 72
     1
  1
\A1;420
  7
STYLE1
 11
0.0000000000000001
 21
1.0
 31
0.0
 73
     1
 44
1.0
1001
ACAD
1000
MTEXTBEGIN
1070
    73
1070
     1
1070
    44
1040
1.0
1070
    74
1070
     0
1000
MTEXTEND
  0
POINT
  5
16DE6
330
159A4
100
AcDbEntity
  8
DEFPOINTS
 62
     0
 48
50.0
100
AcDbPoint
 10
7615.368918339934
 20
9429.780685617398
 30
0.0
  0
POINT
  5
16DE7
330
159A4
100
AcDbEntity
  8
DEFPOINTS
 62
     0
 48
50.0
100
AcDbPoint
 10
7615.368918339934
 20
9009.780685617398
 30
0.0
  0
POINT
  5
16DE8
330
159A4
100
AcDbEntity
  8
DEFPOINTS
 62
     0
 48
50.0
100
AcDbPoint
 10
8262.795264074343
 20
9009.780685617398
 30
0.0
  0
ENDBLK
  5
15AE4
330
159A4
100
AcDbEntity
  8
0
 48
50.0
100
AcDbBlockEnd
  0
BLOCK
  5
15AE5
330
159B0
100
AcDbEntity
  8
0
 48
50.0
100
AcDbBlockBegin
  2
*D11
 70
     1
 10
0.0
 20
0.0
 30
0.0
  3
*D11
  1

  0
LINE
  5
16DD5
330
159B0
100
AcDbEntity
  8
寸法
 62
     0
 48
50.0
370
    -2
100
AcDbLine
 10
7635.368918339932
 20
9484.780685617398
 30
0.0
 11
8322.795264074343
 21
9484.780685617398
 31
0.0
  0
LINE
  5
16DD6
330
159B0
100
AcDbEntity
  8
寸法
 62
     0
 48
50.0
370
    -2
100
AcDbLine
 10
7635.368918339932
 20
9429.780685617398
 30
0.0
 11
8322.795264074343
 21
9429.780685617398
 31
0.0
  0
LINE
  5
16DD7
330
159B0
100
AcDbEntity
  8
寸法
 62
     0
 48
50.0
370
    -2
100
AcDbLine
 10
8262.795264074345
 20
9429.780685617398
 30
0.0
 11
8262.795264074345
 21
9329.780685617398
 31
0.0
  0
LINE
  5
16DD8
330
159B0
100
AcDbEntity
  8
寸法
 62
     0
 48
50.0
370
    -2
100
AcDbLine
 10
8262.795264074345
 20
9484.780685617398
 30
0.0
 11
8262.795264074345
 21
9901.751248365874
 31
0.0
  0
LINE
  5
16DD9
330
159B0
100
AcDbEntity
  8
寸法
 62
     0
 48
50.0
370
    -2
100
AcDbLine
 10
8262.795264074345
 20
9429.780685617398
 30
0.0
 11
8262.795264074345
 21
9484.780685617398
 31
0.0
  0
INSERT
  5
16DDA
330
159B0
100
AcDbEntity
  8
寸法
 62
     0
 48
50.0
370
    -2
100
AcDbBlockReference
  2
_DOTSMALL
 10
8262.795264074345
 20
9429.780685617398
 30
0.0
 41
100.0
 42
100.0
 43
100.0
 50
90.0
  0
INSERT
  5
16DDB
330
159B0
100
AcDbEntity
  8
寸法
 62
     0
 48
50.0
370
    -2
100
AcDbBlockReference
  2
_DOTSMALL
 10
8262.795264074345
 20
9484.780685617398
 30
0.0
 41
100.0
 42
100.0
 43
100.0
 50
270.0
  0
MTEXT
  5
16DDC
330
159B0
100
AcDbEntity
  8
寸法
 62
     7
 48
50.0
100
AcDbMText
 10
8162.795264074343
 20
9793.265966991638
 30
0.0
 40
120.0
 41
0.0
 71
     5
 72
     1
  1
\A1;55
  7
STYLE1
 11
0.0000000000000001
 21
1.0
 31
0.0
 73
     1
 44
1.0
1001
ACAD
1000
MTEXTBEGIN
1070
    73
1070
     1
1070
    44
1040
1.0
1070
    74
1070
     0
1000
MTEXTEND
  0
POINT
  5
16DDD
330
159B0
100
AcDbEntity
  8
DEFPOINTS
 62
     0
 48
50.0
100
AcDbPoint
 10
7615.368918339934
 20
9484.780685617398
 30
0.0
  0
POINT
  5
16DDE
330
159B0
100
AcDbEntity
  8
DEFPOINTS
 62
     0
 48
50.0
100
AcDbPoint
 10
7615.368918339934
 20
9429.780685617398
 30
0.0
  0
POINT
  5
16DDF
330
159B0
100
AcDbEntity
  8
DEFPOINTS
 62
     0
 48
50.0
100
AcDbPoint
 10
8262.795264074345
 20
9429.780685617398
 30
0.0
  0
ENDBLK
  5
15AF1
330
159B0
100
AcDbEntity
  8
0
 48
50.0
100
AcDbBlockEnd
  0
BLOCK
  5
15AF2
330
159BE
100
AcDbEntity
  8
0
 48
50.0
100
AcDbBlockBegin
  2
*D12
 70
     1
 10
0.0
 20
0.0
 30
0.0
  3
*D12
  1

  0
LINE
  5
16DCC
330
159BE
100
AcDbEntity
  8
寸法
 62
     0
 48
50.0
370
    -2
100
AcDbLine
 10
7605.868918339867
 20
9449.921701768717
 30
0.0
 11
8001.226644201889
 21
9343.985918402584
 31
0.0
  0
LINE
  5
16DCD
330
159BE
100
AcDbEntity
  8
寸法
 62
     0
 48
50.0
370
    -2
100
AcDbLine
 10
7605.868918339867
 20
8999.921701768718
 30
0.0
 11
8001.226644201889
 21
8893.985918402583
 31
0.0
  0
LINE
  5
16DCE
330
159BE
100
AcDbEntity
  8
寸法
 62
     0
 48
50.0
370
    -2
100
AcDbLine
 10
7941.226644201889
 20
9360.062869948452
 30
0.0
 11
7941.226644201889
 21
8910.062869948452
 31
0.0
  0
INSERT
  5
16DCF
330
159BE
100
AcDbEntity
  8
寸法
 62
     0
 48
50.0
370
    -2
100
AcDbBlockReference
  2
_DOTSMALL
 10
7941.226644201889
 20
9360.062869948452
 30
0.0
 41
100.0
 42
100.0
 43
100.0
 50
90.0
  0
INSERT
  5
16DD0
330
159BE
100
AcDbEntity
  8
寸法
 62
     0
 48
50.0
370
    -2
100
AcDbBlockReference
  2
_DOTSMALL
 10
7941.226644201889
 20
8910.062869948452
 30
0.0
 41
100.0
 42
100.0
 43
100.0
 50
270.0
  0
MTEXT
  5
16DD1
330
159BE
100
AcDbEntity
  8
寸法
 62
     7
 48
50.0
100
AcDbMText
 10
7841.226644201888
 20
9135.062869948454
 30
0.0
 40
120.0
 41
0.0
 71
     5
 72
     1
  1
\A1;450
  7
STYLE1
 11
0.0000000000000001
 21
1.0
 31
0.0
 73
     1
 44
1.0
1001
ACAD
1000
MTEXTBEGIN
1070
    73
1070
     1
1070
    44
1040
1.0
1070
    74
1070
     0
1000
MTEXTEND
  0
POINT
  5
16DD2
330
159BE
100
AcDbEntity
  8
DEFPOINTS
 62
     0
 48
50.0
100
AcDbPoint
 10
7585.868918339868
 20
9455.280685617339
 30
0.0
  0
POINT
  5
16DD3
330
159BE
100
AcDbEntity
  8
DEFPOINTS
 62
     0
 48
50.0
100
AcDbPoint
 10
7585.868918339868
 20
9005.280685617339
 30
0.0
  0
POINT
  5
16DD4
330
159BE
100
AcDbEntity
  8
DEFPOINTS
 62
     0
 48
50.0
100
AcDbPoint
 10
7941.226644201889
 20
8910.062869948452
 30
0.0
  0
ENDBLK
  5
15AFC
330
159BE
100
AcDbEntity
  8
0
 48
50.0
100
AcDbBlockEnd
  0
BLOCK
  5
15AFD
330
159CA
100
AcDbEntity
  8
0
 48
50.0
100
AcDbBlockBegin
  2
*D13
 70
     1
 10
0.0
 20
0.0
 30
0.0
  3
*D13
  1

  0
LINE
  5
16DC3
330
159CA
100
AcDbEntity
  8
寸法
 62
     0
 48
50.0
370
    -2
100
AcDbLine
 10
7635.368918339932
 20
9484.780685617398
 30
0.0
 11
8631.906794890021
 21
9484.780685617398
 31
0.0
  0
LINE
  5
16DC4
330
159CA
100
AcDbEntity
  8
寸法
 62
     0
 48
50.0
370
    -2
100
AcDbLine
 10
7635.368918339906
 20
7954.780685617383
 30
0.0
 11
8631.906794890021
 21
7954.780685617383
 31
0.0
  0
LINE
  5
16DC5
330
159CA
100
AcDbEntity
  8
寸法
 62
     0
 48
50.0
370
    -2
100
AcDbLine
 10
8571.906794890022
 20
9484.780685617398
 30
0.0
 11
8571.906794890022
 21
7954.780685617383
 31
0.0
  0
INSERT
  5
16DC6
330
159CA
100
AcDbEntity
  8
寸法
 62
     0
 48
50.0
370
    -2
100
AcDbBlockReference
  2
_DOTSMALL
 10
8571.906794890022
 20
9484.780685617398
 30
0.0
 41
100.0
 42
100.0
 43
100.0
 50
90.0
  0
INSERT
  5
16DC7
330
159CA
100
AcDbEntity
  8
寸法
 62
     0
 48
50.0
370
    -2
100
AcDbBlockReference
  2
_DOTSMALL
 10
8571.906794890022
 20
7954.780685617383
 30
0.0
 41
100.0
 42
100.0
 43
100.0
 50
270.0
  0
MTEXT
  5
16DC8
330
159CA
100
AcDbEntity
  8
寸法
 62
     7
 48
50.0
100
AcDbMText
 10
8471.906794890019
 20
8719.78068561739
 30
0.0
 40
120.0
 41
0.0
 71
     5
 72
     1
  1
\A1;1530
  7
STYLE1
 11
0.0000000000000001
 21
1.0
 31
0.0
 73
     1
 44
1.0
1001
ACAD
1000
MTEXTBEGIN
1070
    73
1070
     1
1070
    44
1040
1.0
1070
    74
1070
     0
1000
MTEXTEND
  0
POINT
  5
16DC9
330
159CA
100
AcDbEntity
  8
DEFPOINTS
 62
     0
 48
50.0
100
AcDbPoint
 10
7615.368918339934
 20
9484.780685617398
 30
0.0
  0
POINT
  5
16DCA
330
159CA
100
AcDbEntity
  8
DEFPOINTS
 62
     0
 48
50.0
100
AcDbPoint
 10
7615.368918339908
 20
7954.780685617383
 30
0.0
  0
POINT
  5
16DCB
330
159CA
100
AcDbEntity
  8
DEFPOINTS
 62
     0
 48
50.0
100
AcDbPoint
 10
8571.906794890022
 20
7954.780685617383
 30
0.0
  0
ENDBLK
  5
15B07
330
159CA
100
AcDbEntity
  8
0
 48
50.0
100
AcDbBlockEnd
  0
BLOCK
  5
15B08
330
159D6
100
AcDbEntity
  8
0
 48
50.0
100
AcDbBlockBegin
  2
*D14
 70
     1
 10
0.0
 20
0.0
 30
0.0
  3
*D14
  1

  0
LINE
  5
16DB8
330
159D6
100
AcDbEntity
  8
寸法
 62
     0
 48
50.0
370
    -2
100
AcDbLine
 10
7635.368918339906
 20
8009.780685617384
 30
0.0
 11
8322.795264074319
 21
8009.780685617384
 31
0.0
  0
LINE
  5
16DB9
330
159D6
100
AcDbEntity
  8
寸法
 62
     0
 48
50.0
370
    -2
100
AcDbLine
 10
7635.368918339906
 20
7954.780685617383
 30
0.0
 11
8322.795264074319
 21
7954.780685617383
 31
0.0
  0
LINE
  5
16DBA
330
159D6
100
AcDbEntity
  8
寸法
 62
     0
 48
50.0
370
    -2
100
AcDbLine
 10
8262.795264074318
 20
8009.780685617384
 30
0.0
 11
8262.795264074318
 21
8109.780685617383
 31
0.0
  0
LINE
  5
16DBB
330
159D6
100
AcDbEntity
  8
寸法
 62
     0
 48
50.0
370
    -2
100
AcDbLine
 10
8262.795264074318
 20
7954.780685617383
 30
0.0
 11
8262.795264074318
 21
7468.433937338281
 31
0.0
  0
LINE
  5
16DBC
330
159D6
100
AcDbEntity
  8
寸法
 62
     0
 48
50.0
370
    -2
100
AcDbLine
 10
8262.795264074318
 20
8009.780685617384
 30
0.0
 11
8262.795264074318
 21
7954.780685617383
 31
0.0
  0
INSERT
  5
16DBD
330
159D6
100
AcDbEntity
  8
寸法
 62
     0
 48
50.0
370
    -2
100
AcDbBlockReference
  2
_DOTSMALL
 10
8262.795264074318
 20
8009.780685617384
 30
0.0
 41
100.0
 42
100.0
 43
100.0
 50
270.0
  0
INSERT
  5
16DBE
330
159D6
100
AcDbEntity
  8
寸法
 62
     0
 48
50.0
370
    -2
100
AcDbBlockReference
  2
_DOTSMALL
 10
8262.795264074318
 20
7954.780685617383
 30
0.0
 41
100.0
 42
100.0
 43
100.0
 50
90.0
  0
MTEXT
  5
16DBF
330
159D6
100
AcDbEntity
  8
寸法
 62
     7
 48
50.0
100
AcDbMText
 10
8162.795264074317
 20
7576.919218712522
 30
0.0
 40
120.0
 41
0.0
 71
     5
 72
     1
  1
\A1;55
  7
STYLE1
 11
0.0000000000000001
 21
1.0
 31
0.0
 73
     1
 44
1.0
1001
ACAD
1000
MTEXTBEGIN
1070
    73
1070
     1
1070
    44
1040
1.0
1070
    74
1070
     0
1000
MTEXTEND
  0
POINT
  5
16DC0
330
159D6
100
AcDbEntity
  8
DEFPOINTS
 62
     0
 48
50.0
100
AcDbPoint
 10
7615.368918339908
 20
8009.780685617384
 30
0.0
  0
POINT
  5
16DC1
330
159D6
100
AcDbEntity
  8
DEFPOINTS
 62
     0
 48
50.0
100
AcDbPoint
 10
7615.368918339908
 20
7954.780685617383
 30
0.0
  0
POINT
  5
16DC2
330
159D6
100
AcDbEntity
  8
DEFPOINTS
 62
     0
 48
50.0
100
AcDbPoint
 10
8262.795264074318
 20
7954.780685617383
 30
0.0
  0
ENDBLK
  5
15B14
330
159D6
100
AcDbEntity
  8
0
 48
50.0
100
AcDbBlockEnd
  0
BLOCK
  5
15B15
330
159E4
100
AcDbEntity
  8
0
 48
50.0
100
AcDbBlockBegin
  2
*D15
 70
     1
 10
0.0
 20
0.0
 30
0.0
  3
*D15
  1

  0
LINE
  5
16DAF
330
159E4
100
AcDbEntity
  8
寸法
 62
     0
 48
50.0
370
    -2
100
AcDbLine
 10
7635.368918339932
 20
9009.780685617398
 30
0.0
 11
8322.795264074342
 21
9009.780685617398
 31
0.0
  0
LINE
  5
16DB0
330
159E4
100
AcDbEntity
  8
寸法
 62
     0
 48
50.0
370
    -2
100
AcDbLine
 10
7635.368918339932
 20
8429.780685617398
 30
0.0
 11
8322.795264074342
 21
8429.780685617398
 31
0.0
  0
LINE
  5
16DB1
330
159E4
100
AcDbEntity
  8
寸法
 62
     0
 48
50.0
370
    -2
100
AcDbLine
 10
8262.795264074343
 20
9009.780685617398
 30
0.0
 11
8262.795264074343
 21
8429.780685617398
 31
0.0
  0
INSERT
  5
16DB2
330
159E4
100
AcDbEntity
  8
寸法
 62
     0
 48
50.0
370
    -2
100
AcDbBlockReference
  2
_DOTSMALL
 10
8262.795264074343
 20
9009.780685617398
 30
0.0
 41
100.0
 42
100.0
 43
100.0
 50
90.0
  0
INSERT
  5
16DB3
330
159E4
100
AcDbEntity
  8
寸法
 62
     0
 48
50.0
370
    -2
100
AcDbBlockReference
  2
_DOTSMALL
 10
8262.795264074343
 20
8429.780685617398
 30
0.0
 41
100.0
 42
100.0
 43
100.0
 50
270.0
  0
MTEXT
  5
16DB4
330
159E4
100
AcDbEntity
  8
寸法
 62
     7
 48
50.0
100
AcDbMText
 10
8162.795264074341
 20
8719.780685617399
 30
0.0
 40
120.0
 41
0.0
 71
     5
 72
     1
  1
\A1;580
  7
STYLE1
 11
0.0000000000000001
 21
1.0
 31
0.0
 73
     1
 44
1.0
1001
ACAD
1000
MTEXTBEGIN
1070
    73
1070
     1
1070
    44
1040
1.0
1070
    74
1070
     0
1000
MTEXTEND
  0
POINT
  5
16DB5
330
159E4
100
AcDbEntity
  8
DEFPOINTS
 62
     0
 48
50.0
100
AcDbPoint
 10
7615.368918339934
 20
9009.780685617398
 30
0.0
  0
POINT
  5
16DB6
330
159E4
100
AcDbEntity
  8
DEFPOINTS
 62
     0
 48
50.0
100
AcDbPoint
 10
7615.368918339934
 20
8429.780685617398
 30
0.0
  0
POINT
  5
16DB7
330
159E4
100
AcDbEntity
  8
DEFPOINTS
 62
     0
 48
50.0
100
AcDbPoint
 10
8262.795264074343
 20
8429.780685617398
 30
0.0
  0
ENDBLK
  5
15B1F
330
159E4
100
AcDbEntity
  8
0
 48
50.0
100
AcDbBlockEnd
  0
BLOCK
  5
15B20
330
159F0
100
AcDbEntity
  8
0
 48
50.0
100
AcDbBlockBegin
  2
*D16
 70
     1
 10
0.0
 20
0.0
 30
0.0
  3
*D16
  1

  0
LINE
  5
16DA6
330
159F0
100
AcDbEntity
  8
寸法
 62
     0
 48
50.0
370
    -2
100
AcDbLine
 10
7635.368918339932
 20
8429.780685617398
 30
0.0
 11
8322.795264074317
 21
8429.780685617398
 31
0.0
  0
LINE
  5
16DA7
330
159F0
100
AcDbEntity
  8
寸法
 62
     0
 48
50.0
370
    -2
100
AcDbLine
 10
7635.368918339939
 20
8009.780685617398
 30
0.0
 11
8322.795264074317
 21
8009.780685617398
 31
0.0
  0
LINE
  5
16DA8
330
159F0
100
AcDbEntity
  8
寸法
 62
     0
 48
50.0
370
    -2
100
AcDbLine
 10
8262.795264074318
 20
8429.780685617398
 30
0.0
 11
8262.795264074318
 21
8009.780685617398
 31
0.0
  0
INSERT
  5
16DA9
330
159F0
100
AcDbEntity
  8
寸法
 62
     0
 48
50.0
370
    -2
100
AcDbBlockReference
  2
_DOTSMALL
 10
8262.795264074318
 20
8429.780685617398
 30
0.0
 41
100.0
 42
100.0
 43
100.0
 50
90.0
  0
INSERT
  5
16DAA
330
159F0
100
AcDbEntity
  8
寸法
 62
     0
 48
50.0
370
    -2
100
AcDbBlockReference
  2
_DOTSMALL
 10
8262.795264074318
 20
8009.780685617398
 30
0.0
 41
100.0
 42
100.0
 43
100.0
 50
270.0
  0
MTEXT
  5
16DAB
330
159F0
100
AcDbEntity
  8
寸法
 62
     7
 48
50.0
100
AcDbMText
 10
8162.783453050694
 20
8219.780685617399
 30
0.0
 40
120.0
 41
0.0
 71
     5
 72
     1
  1
\A1;420
  7
STYLE1
 11
0.0000000000000001
 21
1.0
 31
0.0
 73
     1
 44
1.0
1001
ACAD
1000
MTEXTBEGIN
1070
    73
1070
     1
1070
    44
1040
1.0
1070
    74
1070
     0
1000
MTEXTEND
  0
POINT
  5
16DAC
330
159F0
100
AcDbEntity
  8
DEFPOINTS
 62
     0
 48
50.0
100
AcDbPoint
 10
7615.368918339934
 20
8429.780685617398
 30
0.0
  0
POINT
  5
16DAD
330
159F0
100
AcDbEntity
  8
DEFPOINTS
 62
     0
 48
50.0
100
AcDbPoint
 10
7615.368918339941
 20
8009.780685617398
 30
0.0
  0
POINT
  5
16DAE
330
159F0
100
AcDbEntity
  8
DEFPOINTS
 62
     0
 48
50.0
100
AcDbPoint
 10
8262.795264074318
 20
8009.780685617398
 30
0.0
  0
ENDBLK
  5
15B2A
330
159F0
100
AcDbEntity
  8
0
 48
50.0
100
AcDbBlockEnd
  0
BLOCK
  5
15B2B
330
159FC
100
AcDbEntity
  8
0
 48
50.0
100
AcDbBlockBegin
  2
*D17
 70
     1
 10
0.0
 20
0.0
 30
0.0
  3
*D17
  1

  0
LINE
  5
16D9B
330
159FC
100
AcDbEntity
  8
寸法
 62
     0
 48
50.0
370
    -2
100
AcDbLine
 10
7560.368918339932
 20
9504.780685617397
 30
0.0
 11
7560.368918339932
 21
9760.588905242379
 31
0.0
  0
LINE
  5
16D9C
330
159FC
100
AcDbEntity
  8
寸法
 62
     0
 48
50.0
370
    -2
100
AcDbLine
 10
7615.368918339934
 20
9504.780685617397
 30
0.0
 11
7615.368918339934
 21
9760.588905242379
 31
0.0
  0
LINE
  5
16D9D
330
159FC
100
AcDbEntity
  8
寸法
 62
     0
 48
50.0
370
    -2
100
AcDbLine
 10
7560.368918339932
 20
9700.58890524238
 30
0.0
 11
7460.368918339932
 21
9700.58890524238
 31
0.0
  0
LINE
  5
16D9E
330
159FC
100
AcDbEntity
  8
寸法
 62
     0
 48
50.0
370
    -2
100
AcDbLine
 10
7615.368918339934
 20
9700.58890524238
 30
0.0
 11
8032.339481088412
 21
9700.58890524238
 31
0.0
  0
LINE
  5
16D9F
330
159FC
100
AcDbEntity
  8
寸法
 62
     0
 48
50.0
370
    -2
100
AcDbLine
 10
7560.368918339932
 20
9700.58890524238
 30
0.0
 11
7615.368918339934
 21
9700.58890524238
 31
0.0
  0
INSERT
  5
16DA0
330
159FC
100
AcDbEntity
  8
寸法
 62
     0
 48
50.0
370
    -2
100
AcDbBlockReference
  2
_DOTSMALL
 10
7560.368918339932
 20
9700.58890524238
 30
0.0
 41
100.0
 42
100.0
 43
100.0
  0
INSERT
  5
16DA1
330
159FC
100
AcDbEntity
  8
寸法
 62
     0
 48
50.0
370
    -2
100
AcDbBlockReference
  2
_DOTSMALL
 10
7615.368918339934
 20
9700.58890524238
 30
0.0
 41
100.0
 42
100.0
 43
100.0
 50
180.0
  0
MTEXT
  5
16DA2
330
159FC
100
AcDbEntity
  8
寸法
 62
     7
 48
50.0
100
AcDbMText
 10
7923.854199714172
 20
9800.58890524238
 30
0.0
 40
120.0
 41
0.0
 71
     5
 72
     1
  1
\A1;55
  7
STYLE1
 73
     1
 44
1.0
1001
ACAD
1000
MTEXTBEGIN
1070
    73
1070
     1
1070
    44
1040
1.0
1070
    74
1070
     0
1000
MTEXTEND
  0
POINT
  5
16DA3
330
159FC
100
AcDbEntity
  8
DEFPOINTS
 62
     0
 48
50.0
100
AcDbPoint
 10
7560.368918339932
 20
9484.780685617398
 30
0.0
  0
POINT
  5
16DA4
330
159FC
100
AcDbEntity
  8
DEFPOINTS
 62
     0
 48
50.0
100
AcDbPoint
 10
7615.368918339934
 20
9484.780685617398
 30
0.0
  0
POINT
  5
16DA5
330
159FC
100
AcDbEntity
  8
DEFPOINTS
 62
     0
 48
50.0
100
AcDbPoint
 10
7615.368918339934
 20
9700.58890524238
 30
0.0
  0
ENDBLK
  5
15B37
330
159FC
100
AcDbEntity
  8
0
 48
50.0
100
AcDbBlockEnd
  0
BLOCK
  5
15C53
330
15C47
100
AcDbEntity
  8
0
 48
50.0
100
AcDbBlockBegin
  2
*D18
 70
     1
 10
0.0
 20
0.0
 30
0.0
  3
*D18
  1

  0
LINE
  5
16D92
330
15C47
100
AcDbEntity
  8
寸法
 62
     0
 48
50.0
370
    -2
100
AcDbLine
 10
6030.368918339929
 20
7934.780685617295
 30
0.0
 11
6030.368918339929
 21
7454.957017822218
 31
0.0
  0
LINE
  5
16D93
330
15C47
100
AcDbEntity
  8
寸法
 62
     0
 48
50.0
370
    -2
100
AcDbLine
 10
6715.368918339925
 20
7934.780685617259
 30
0.0
 11
6715.368918339925
 21
7454.957017822218
 31
0.0
  0
LINE
  5
16D94
330
15C47
100
AcDbEntity
  8
寸法
 62
     0
 48
50.0
370
    -2
100
AcDbLine
 10
6030.368918339929
 20
7514.957017822219
 30
0.0
 11
6715.368918339925
 21
7514.957017822219
 31
0.0
  0
INSERT
  5
16D95
330
15C47
100
AcDbEntity
  8
寸法
 62
     0
 48
50.0
370
    -2
100
AcDbBlockReference
  2
_DOTSMALL
 10
6030.368918339929
 20
7514.957017822219
 30
0.0
 41
100.0
 42
100.0
 43
100.0
 50
180.0
  0
INSERT
  5
16D96
330
15C47
100
AcDbEntity
  8
寸法
 62
     0
 48
50.0
370
    -2
100
AcDbBlockReference
  2
_DOTSMALL
 10
6715.368918339925
 20
7514.957017822219
 30
0.0
 41
100.0
 42
100.0
 43
100.0
  0
MTEXT
  5
16D97
330
15C47
100
AcDbEntity
  8
寸法
 62
     7
 48
50.0
100
AcDbMText
 10
6372.868918339928
 20
7614.957017822219
 30
0.0
 40
120.0
 41
0.0
 71
     5
 72
     1
  1
\A1;685
  7
STYLE1
 73
     1
 44
1.0
1001
ACAD
1000
MTEXTBEGIN
1070
    73
1070
     1
1070
    44
1040
1.0
1070
    74
1070
     0
1000
MTEXTEND
  0
POINT
  5
16D98
330
15C47
100
AcDbEntity
  8
DEFPOINTS
 62
     0
 48
50.0
100
AcDbPoint
 10
6030.368918339929
 20
7954.780685617295
 30
0.0
  0
POINT
  5
16D99
330
15C47
100
AcDbEntity
  8
DEFPOINTS
 62
     0
 48
50.0
100
AcDbPoint
 10
6715.368918339925
 20
7954.78068561726
 30
0.0
  0
POINT
  5
16D9A
330
15C47
100
AcDbEntity
  8
DEFPOINTS
 62
     0
 48
50.0
100
AcDbPoint
 10
6715.368918339925
 20
7514.957017822219
 30
0.0
  0
ENDBLK
  5
15C5D
330
15C47
100
AcDbEntity
  8
0
 48
50.0
100
AcDbBlockEnd
  0
BLOCK
  5
15C60
330
15C5F
100
AcDbEntity
  8
0
 48
50.0
100
AcDbBlockBegin
  2
*D19
 70
     1
 10
0.0
 20
0.0
 30
0.0
  3
*D19
  1

  0
LINE
  5
16D89
330
15C5F
100
AcDbEntity
  8
寸法
 62
     0
 48
50.0
370
    -2
100
AcDbLine
 10
5210.36891833993
 20
7934.780685617295
 30
0.0
 11
5210.36891833993
 21
7454.957017822218
 31
0.0
  0
LINE
  5
16D8A
330
15C5F
100
AcDbEntity
  8
寸法
 62
     0
 48
50.0
370
    -2
100
AcDbLine
 10
5895.368918339926
 20
7934.780685617259
 30
0.0
 11
5895.368918339926
 21
7454.957017822218
 31
0.0
  0
LINE
  5
16D8B
330
15C5F
100
AcDbEntity
  8
寸法
 62
     0
 48
50.0
370
    -2
100
AcDbLine
 10
5210.36891833993
 20
7514.957017822219
 30
0.0
 11
5895.368918339926
 21
7514.957017822219
 31
0.0
  0
INSERT
  5
16D8C
330
15C5F
100
AcDbEntity
  8
寸法
 62
     0
 48
50.0
370
    -2
100
AcDbBlockReference
  2
_DOTSMALL
 10
5210.36891833993
 20
7514.957017822219
 30
0.0
 41
100.0
 42
100.0
 43
100.0
 50
180.0
  0
INSERT
  5
16D8D
330
15C5F
100
AcDbEntity
  8
寸法
 62
     0
 48
50.0
370
    -2
100
AcDbBlockReference
  2
_DOTSMALL
 10
5895.368918339926
 20
7514.957017822219
 30
0.0
 41
100.0
 42
100.0
 43
100.0
  0
MTEXT
  5
16D8E
330
15C5F
100
AcDbEntity
  8
寸法
 62
     7
 48
50.0
100
AcDbMText
 10
5552.868918339927
 20
7614.957017822219
 30
0.0
 40
120.0
 41
0.0
 71
     5
 72
     1
  1
\A1;685
  7
STYLE1
 73
     1
 44
1.0
1001
ACAD
1000
MTEXTBEGIN
1070
    73
1070
     1
1070
    44
1040
1.0
1070
    74
1070
     0
1000
MTEXTEND
  0
POINT
  5
16D8F
330
15C5F
100
AcDbEntity
  8
DEFPOINTS
 62
     0
 48
50.0
100
AcDbPoint
 10
5210.36891833993
 20
7954.780685617295
 30
0.0
  0
POINT
  5
16D90
330
15C5F
100
AcDbEntity
  8
DEFPOINTS
 62
     0
 48
50.0
100
AcDbPoint
 10
5895.368918339926
 20
7954.78068561726
 30
0.0
  0
POINT
  5
16D91
330
15C5F
100
AcDbEntity
  8
DEFPOINTS
 62
     0
 48
50.0
100
AcDbPoint
 10
5895.368918339926
 20
7514.957017822219
 30
0.0
  0
ENDBLK
  5
15C6A
330
15C5F
100
AcDbEntity
  8
0
 48
50.0
100
AcDbBlockEnd
  0
BLOCK
  5
15C9C
330
15C9B
100
AcDbEntity
  8
0
 48
50.0
100
AcDbBlockBegin
  2
*D20
 70
     1
 10
0.0
 20
0.0
 30
0.0
  3
*D20
  1

  0
LINE
  5
16E54
330
15C9B
100
AcDbEntity
  8
寸法
 62
     0
 48
50.0
370
    -2
100
AcDbLine
 10
5999.509934491242
 20
8985.280685617347
 30
0.0
 11
5934.653606771348
 21
8743.233575374366
 31
0.0
  0
LINE
  5
16E55
330
15C9B
100
AcDbEntity
  8
寸法
 62
     0
 48
50.0
370
    -2
100
AcDbLine
 10
6760.509934491253
 20
8985.280685617347
 30
0.0
 11
6695.653606771358
 21
8743.233575374366
 31
0.0
  0
LINE
  5
16E56
330
15C9B
100
AcDbEntity
  8
寸法
 62
     0
 48
50.0
370
    -2
100
AcDbLine
 10
5950.730558317214
 20
8803.233575374367
 30
0.0
 11
6711.730558317225
 21
8803.233575374367
 31
0.0
  0
INSERT
  5
16E57
330
15C9B
100
AcDbEntity
  8
寸法
 62
     0
 48
50.0
370
    -2
100
AcDbBlockReference
  2
_DOTSMALL
 10
5950.730558317214
 20
8803.233575374367
 30
0.0
 41
100.0
 42
100.0
 43
100.0
 50
180.0
  0
INSERT
  5
16E58
330
15C9B
100
AcDbEntity
  8
寸法
 62
     0
 48
50.0
370
    -2
100
AcDbBlockReference
  2
_DOTSMALL
 10
6711.730558317225
 20
8803.233575374367
 30
0.0
 41
100.0
 42
100.0
 43
100.0
  0
MTEXT
  5
16E59
330
15C9B
100
AcDbEntity
  8
寸法
 62
     7
 48
50.0
100
AcDbMText
 10
6384.215980458131
 20
8903.233575374366
 30
0.0
 40
120.0
 41
0.0
 71
     5
 72
     1
  1
\A1;761
  7
STYLE1
 73
     1
 44
1.0
1001
ACAD
1000
MTEXTBEGIN
1070
    73
1070
     1
1070
    44
1040
1.0
1070
    74
1070
     0
1000
MTEXTEND
  0
POINT
  5
16E5A
330
15C9B
100
AcDbEntity
  8
DEFPOINTS
 62
     0
 48
50.0
100
AcDbPoint
 10
6004.868918339863
 20
9005.280685617346
 30
0.0
  0
POINT
  5
16E5B
330
15C9B
100
AcDbEntity
  8
DEFPOINTS
 62
     0
 48
50.0
100
AcDbPoint
 10
6765.868918339875
 20
9005.280685617346
 30
0.0
  0
POINT
  5
16E5C
330
15C9B
100
AcDbEntity
  8
DEFPOINTS
 62
     0
 48
50.0
100
AcDbPoint
 10
6711.730558317225
 20
8803.233575374367
 30
0.0
  0
ENDBLK
  5
15CA6
330
15C9B
100
AcDbEntity
  8
0
 48
50.0
100
AcDbBlockEnd
  0
BLOCK
  5
15CA9
330
15CA8
100
AcDbEntity
  8
0
 48
50.0
100
AcDbBlockBegin
  2
*D21
 70
     1
 10
0.0
 20
0.0
 30
0.0
  3
*D21
  1

  0
LINE
  5
16E4B
330
15CA8
100
AcDbEntity
  8
寸法
 62
     0
 48
50.0
370
    -2
100
AcDbLine
 10
5179.509934491242
 20
8985.280685617347
 30
0.0
 11
5114.653606771348
 21
8743.233575374366
 31
0.0
  0
LINE
  5
16E4C
330
15CA8
100
AcDbEntity
  8
寸法
 62
     0
 48
50.0
370
    -2
100
AcDbLine
 10
5940.509934491252
 20
8985.280685617347
 30
0.0
 11
5875.653606771359
 21
8743.233575374366
 31
0.0
  0
LINE
  5
16E4D
330
15CA8
100
AcDbEntity
  8
寸法
 62
     0
 48
50.0
370
    -2
100
AcDbLine
 10
5130.730558317214
 20
8803.233575374367
 30
0.0
 11
5891.730558317226
 21
8803.233575374367
 31
0.0
  0
INSERT
  5
16E4E
330
15CA8
100
AcDbEntity
  8
寸法
 62
     0
 48
50.0
370
    -2
100
AcDbBlockReference
  2
_DOTSMALL
 10
5130.730558317214
 20
8803.233575374367
 30
0.0
 41
100.0
 42
100.0
 43
100.0
 50
180.0
  0
INSERT
  5
16E4F
330
15CA8
100
AcDbEntity
  8
寸法
 62
     0
 48
50.0
370
    -2
100
AcDbBlockReference
  2
_DOTSMALL
 10
5891.730558317226
 20
8803.233575374367
 30
0.0
 41
100.0
 42
100.0
 43
100.0
  0
MTEXT
  5
16E50
330
15CA8
100
AcDbEntity
  8
寸法
 62
     7
 48
50.0
100
AcDbMText
 10
5564.215980458132
 20
8903.233575374366
 30
0.0
 40
120.0
 41
0.0
 71
     5
 72
     1
  1
\A1;761
  7
STYLE1
 73
     1
 44
1.0
1001
ACAD
1000
MTEXTBEGIN
1070
    73
1070
     1
1070
    44
1040
1.0
1070
    74
1070
     0
1000
MTEXTEND
  0
POINT
  5
16E51
330
15CA8
100
AcDbEntity
  8
DEFPOINTS
 62
     0
 48
50.0
100
AcDbPoint
 10
5184.868918339864
 20
9005.280685617346
 30
0.0
  0
POINT
  5
16E52
330
15CA8
100
AcDbEntity
  8
DEFPOINTS
 62
     0
 48
50.0
100
AcDbPoint
 10
5945.868918339875
 20
9005.280685617346
 30
0.0
  0
POINT
  5
16E53
330
15CA8
100
AcDbEntity
  8
DEFPOINTS
 62
     0
 48
50.0
100
AcDbPoint
 10
5891.730558317226
 20
8803.233575374367
 30
0.0
  0
ENDBLK
  5
15CB3
330
15CA8
100
AcDbEntity
  8
0
 48
50.0
100
AcDbBlockEnd
  0
BLOCK
  5
162E3
330
162D9
100
AcDbEntity
  8
0
 48
50.0
100
AcDbBlockBegin
  2
*D22
 70
     1
 10
0.0
 20
0.0
 30
0.0
  3
*D22
  1

  0
LINE
  5
16D6E
330
162D9
100
AcDbEntity
  8
寸法
 62
     0
 48
50.0
370
    -2
100
AcDbLine
 10
9982.240830900309
 20
3167.992047402761
 30
0.0
 11
9037.969019259829
 21
3167.992047402762
 31
0.0
  0
LINE
  5
16D6F
330
162D9
100
AcDbEntity
  8
寸法
 62
     0
 48
50.0
370
    -2
100
AcDbLine
 10
9922.24083090031
 20
5242.992047402764
 30
0.0
 11
9037.969019259831
 21
5242.992047402764
 31
0.0
  0
LINE
  5
16D70
330
162D9
100
AcDbEntity
  8
寸法
 62
     0
 48
50.0
370
    -2
100
AcDbLine
 10
9097.969019259828
 20
3167.992047402762
 30
0.0
 11
9097.96901925983
 21
5242.992047402764
 31
0.0
  0
INSERT
  5
16D71
330
162D9
100
AcDbEntity
  8
寸法
 62
     0
 48
50.0
370
    -2
100
AcDbBlockReference
  2
_DOTSMALL
 10
9097.969019259828
 20
3167.992047402762
 30
0.0
 41
100.0
 42
100.0
 43
100.0
 50
270.0
  0
INSERT
  5
16D72
330
162D9
100
AcDbEntity
  8
寸法
 62
     0
 48
50.0
370
    -2
100
AcDbBlockReference
  2
_DOTSMALL
 10
9097.96901925983
 20
5242.992047402764
 30
0.0
 41
100.0
 42
100.0
 43
100.0
 50
90.0
  0
MTEXT
  5
16D73
330
162D9
100
AcDbEntity
  8
寸法
 62
     7
 48
50.0
100
AcDbMText
 10
8997.957208236206
 20
4143.199037822562
 30
0.0
 40
120.0
 41
0.0
 71
     5
 72
     1
  1
\A1;2075
  7
STYLE1
 11
0.0000000000000001
 21
1.0
 31
0.0
 73
     1
 44
1.0
1001
ACAD
1000
MTEXTBEGIN
1070
    73
1070
     1
1070
    44
1040
1.0
1070
    74
1070
     0
1000
MTEXTEND
  0
POINT
  5
16D74
330
162D9
100
AcDbEntity
  8
DEFPOINTS
 62
     0
 48
50.0
100
AcDbPoint
 10
10002.24083090031
 20
3167.992047402761
 30
0.0
  0
POINT
  5
16D75
330
162D9
100
AcDbEntity
  8
DEFPOINTS
 62
     0
 48
50.0
100
AcDbPoint
 10
9942.24083090031
 20
5242.992047402764
 30
0.0
  0
POINT
  5
16D76
330
162D9
100
AcDbEntity
  8
DEFPOINTS
 62
     0
 48
50.0
100
AcDbPoint
 10
9097.96901925983
 20
5242.992047402764
 30
0.0
  0
ENDBLK
  5
162E4
330
162D9
100
AcDbEntity
  8
0
 48
50.0
100
AcDbBlockEnd
  0
BLOCK
  5
162F1
330
162E5
100
AcDbEntity
  8
0
 48
50.0
100
AcDbBlockBegin
  2
*D23
 70
     1
 10
0.0
 20
0.0
 30
0.0
  3
*D23
  1

  0
LINE
  5
16D63
330
162E5
100
AcDbEntity
  8
寸法
 62
     0
 48
50.0
370
    -2
100
AcDbLine
 10
9975.238460855532
 20
3217.992047402763
 30
0.0
 11
9340.277740208104
 21
3217.992047402763
 31
0.0
  0
LINE
  5
16D64
330
162E5
100
AcDbEntity
  8
寸法
 62
     0
 48
50.0
370
    -2
100
AcDbLine
 10
9927.240830900309
 20
3167.992047402761
 30
0.0
 11
9340.277740208104
 21
3167.992047402761
 31
0.0
  0
LINE
  5
16D65
330
162E5
100
AcDbEntity
  8
寸法
 62
     0
 48
50.0
370
    -2
100
AcDbLine
 10
9400.277740208105
 20
3217.992047402763
 30
0.0
 11
9400.277740208105
 21
3317.992047402763
 31
0.0
  0
LINE
  5
16D66
330
162E5
100
AcDbEntity
  8
寸法
 62
     0
 48
50.0
370
    -2
100
AcDbLine
 10
9400.277740208105
 20
3167.992047402761
 30
0.0
 11
9400.277740208105
 21
2755.89755921378
 31
0.0
  0
LINE
  5
16D67
330
162E5
100
AcDbEntity
  8
寸法
 62
     0
 48
50.0
370
    -2
100
AcDbLine
 10
9400.277740208105
 20
3217.992047402763
 30
0.0
 11
9400.277740208105
 21
3167.992047402761
 31
0.0
  0
INSERT
  5
16D68
330
162E5
100
AcDbEntity
  8
寸法
 62
     0
 48
50.0
370
    -2
100
AcDbBlockReference
  2
_DOTSMALL
 10
9400.277740208105
 20
3217.992047402763
 30
0.0
 41
100.0
 42
100.0
 43
100.0
 50
270.0
  0
INSERT
  5
16D69
330
162E5
100
AcDbEntity
  8
寸法
 62
     0
 48
50.0
370
    -2
100
AcDbBlockReference
  2
_DOTSMALL
 10
9400.277740208105
 20
3167.992047402761
 30
0.0
 41
100.0
 42
100.0
 43
100.0
 50
90.0
  0
MTEXT
  5
16D6A
330
162E5
100
AcDbEntity
  8
寸法
 62
     7
 48
50.0
100
AcDbMText
 10
9300.277740208105
 20
2861.944803308269
 30
0.0
 40
120.0
 41
0.0
 71
     5
 72
     1
  1
\A1;50
  7
STYLE1
 11
0.0000000000000001
 21
1.0
 31
0.0
 73
     1
 44
1.0
1001
ACAD
1000
MTEXTBEGIN
1070
    73
1070
     1
1070
    44
1040
1.0
1070
    74
1070
     0
1000
MTEXTEND
  0
POINT
  5
16D6B
330
162E5
100
AcDbEntity
  8
DEFPOINTS
 62
     0
 48
50.0
100
AcDbPoint
 10
9995.238460855532
 20
3217.992047402763
 30
0.0
  0
POINT
  5
16D6C
330
162E5
100
AcDbEntity
  8
DEFPOINTS
 62
     0
 48
50.0
100
AcDbPoint
 10
9947.240830900307
 20
3167.992047402761
 30
0.0
  0
POINT
  5
16D6D
330
162E5
100
AcDbEntity
  8
DEFPOINTS
 62
     0
 48
50.0
100
AcDbPoint
 10
9400.277740208105
 20
3167.992047402761
 30
0.0
  0
ENDBLK
  5
162F2
330
162E5
100
AcDbEntity
  8
0
 48
50.0
100
AcDbBlockEnd
  0
BLOCK
  5
162FD
330
162F3
100
AcDbEntity
  8
0
 48
50.0
100
AcDbBlockBegin
  2
*D24
 70
     1
 10
0.0
 20
0.0
 30
0.0
  3
*D24
  1

  0
LINE
  5
16D5A
330
162F3
100
AcDbEntity
  8
寸法
 62
     0
 48
50.0
370
    -2
100
AcDbLine
 10
11552.24083090031
 20
3167.992047402761
 30
0.0
 11
12297.16798887243
 21
3167.992047402761
 31
0.0
  0
LINE
  5
16D5B
330
162F3
100
AcDbEntity
  8
寸法
 62
     0
 48
50.0
370
    -2
100
AcDbLine
 10
11632.24083090031
 20
5187.992047402761
 30
0.0
 11
12297.16798887243
 21
5187.992047402761
 31
0.0
  0
LINE
  5
16D5C
330
162F3
100
AcDbEntity
  8
寸法
 62
     0
 48
50.0
370
    -2
100
AcDbLine
 10
12237.16798887243
 20
3167.992047402761
 30
0.0
 11
12237.16798887243
 21
5187.992047402761
 31
0.0
  0
INSERT
  5
16D5D
330
162F3
100
AcDbEntity
  8
寸法
 62
     0
 48
50.0
370
    -2
100
AcDbBlockReference
  2
_DOTSMALL
 10
12237.16798887243
 20
3167.992047402761
 30
0.0
 41
100.0
 42
100.0
 43
100.0
 50
270.0
  0
INSERT
  5
16D5E
330
162F3
100
AcDbEntity
  8
寸法
 62
     0
 48
50.0
370
    -2
100
AcDbBlockReference
  2
_DOTSMALL
 10
12237.16798887243
 20
5187.992047402761
 30
0.0
 41
100.0
 42
100.0
 43
100.0
 50
90.0
  0
MTEXT
  5
16D5F
330
162F3
100
AcDbEntity
  8
寸法
 62
     7
 48
50.0
100
AcDbMText
 10
12137.15617784881
 20
4177.992047402762
 30
0.0
 40
120.0
 41
0.0
 71
     5
 72
     1
  1
\A1;2020
  7
STYLE1
 11
0.0000000000000001
 21
1.0
 31
0.0
 73
     1
 44
1.0
1001
ACAD
1000
MTEXTBEGIN
1070
    73
1070
     1
1070
    44
1040
1.0
1070
    74
1070
     0
1000
MTEXTEND
  0
POINT
  5
16D60
330
162F3
100
AcDbEntity
  8
DEFPOINTS
 62
     0
 48
50.0
100
AcDbPoint
 10
11532.24083090031
 20
3167.992047402761
 30
0.0
  0
POINT
  5
16D61
330
162F3
100
AcDbEntity
  8
DEFPOINTS
 62
     0
 48
50.0
100
AcDbPoint
 10
11612.24083090031
 20
5187.992047402761
 30
0.0
  0
POINT
  5
16D62
330
162F3
100
AcDbEntity
  8
DEFPOINTS
 62
     0
 48
50.0
100
AcDbPoint
 10
12237.16798887243
 20
5187.992047402761
 30
0.0
  0
ENDBLK
  5
162FE
330
162F3
100
AcDbEntity
  8
0
 48
50.0
100
AcDbBlockEnd
  0
BLOCK
  5
16309
330
162FF
100
AcDbEntity
  8
0
 48
50.0
100
AcDbBlockBegin
  2
*D25
 70
     1
 10
0.0
 20
0.0
 30
0.0
  3
*D25
  1

  0
LINE
  5
16D51
330
162FF
100
AcDbEntity
  8
寸法
 62
     0
 48
50.0
370
    -2
100
AcDbLine
 10
11532.24083090031
 20
5209.802727014412
 30
0.0
 11
11532.24083090031
 21
5701.649500982063
 31
0.0
  0
LINE
  5
16D52
330
162FF
100
AcDbEntity
  8
寸法
 62
     0
 48
50.0
370
    -2
100
AcDbLine
 10
10002.24083090031
 20
5258.993665525736
 30
0.0
 11
10002.24083090031
 21
5701.649500982063
 31
0.0
  0
LINE
  5
16D53
330
162FF
100
AcDbEntity
  8
寸法
 62
     0
 48
50.0
370
    -2
100
AcDbLine
 10
11532.24083090031
 20
5641.649500982063
 30
0.0
 11
10002.24083090031
 21
5641.649500982063
 31
0.0
  0
INSERT
  5
16D54
330
162FF
100
AcDbEntity
  8
寸法
 62
     0
 48
50.0
370
    -2
100
AcDbBlockReference
  2
_DOTSMALL
 10
11532.24083090031
 20
5641.649500982063
 30
0.0
 41
100.0
 42
100.0
 43
100.0
  0
INSERT
  5
16D55
330
162FF
100
AcDbEntity
  8
寸法
 62
     0
 48
50.0
370
    -2
100
AcDbBlockReference
  2
_DOTSMALL
 10
10002.24083090031
 20
5641.649500982063
 30
0.0
 41
100.0
 42
100.0
 43
100.0
 50
180.0
  0
MTEXT
  5
16D56
330
162FF
100
AcDbEntity
  8
寸法
 62
     7
 48
50.0
100
AcDbMText
 10
10812.05986379085
 20
5741.649500982063
 30
0.0
 40
120.0
 41
0.0
 71
     5
 72
     1
  1
\A1;柱外寸法1530
  7
STYLE1
 73
     1
 44
1.0
1001
ACAD
1000
MTEXTBEGIN
1070
    73
1070
     1
1070
    44
1040
1.0
1070
    74
1070
     0
1000
MTEXTEND
  0
POINT
  5
16D57
330
162FF
100
AcDbEntity
  8
DEFPOINTS
 62
     0
 48
50.0
100
AcDbPoint
 10
11532.24083090031
 20
5189.802727014412
 30
0.0
  0
POINT
  5
16D58
330
162FF
100
AcDbEntity
  8
DEFPOINTS
 62
     0
 48
50.0
100
AcDbPoint
 10
10002.24083090031
 20
5238.993665525735
 30
0.0
  0
POINT
  5
16D59
330
162FF
100
AcDbEntity
  8
DEFPOINTS
 62
     0
 48
50.0
100
AcDbPoint
 10
10002.24083090031
 20
5641.649500982063
 30
0.0
  0
ENDBLK
  5
1630A
330
162FF
100
AcDbEntity
  8
0
 48
50.0
100
AcDbBlockEnd
  0
BLOCK
  5
16317
330
1630B
100
AcDbEntity
  8
0
 48
50.0
100
AcDbBlockBegin
  2
*D26
 70
     1
 10
0.0
 20
0.0
 30
0.0
  3
*D26
  1

  0
LINE
  5
16D46
330
1630B
100
AcDbEntity
  8
寸法
 62
     0
 48
50.0
370
    -2
100
AcDbLine
 10
10002.24083090031
 20
5258.993665525736
 30
0.0
 11
10002.24083090031
 21
5701.649500982063
 31
0.0
  0
LINE
  5
16D47
330
1630B
100
AcDbEntity
  8
寸法
 62
     0
 48
50.0
370
    -2
100
AcDbLine
 10
9942.24083090031
 20
5262.992047402764
 30
0.0
 11
9942.24083090031
 21
5701.649500982063
 31
0.0
  0
LINE
  5
16D48
330
1630B
100
AcDbEntity
  8
寸法
 62
     0
 48
50.0
370
    -2
100
AcDbLine
 10
10002.24083090031
 20
5641.649500982063
 30
0.0
 11
10102.24083090031
 21
5641.649500982063
 31
0.0
  0
LINE
  5
16D49
330
1630B
100
AcDbEntity
  8
寸法
 62
     0
 48
50.0
370
    -2
100
AcDbLine
 10
9942.24083090031
 20
5641.649500982063
 30
0.0
 11
9522.965240349128
 21
5641.649500982063
 31
0.0
  0
LINE
  5
16D4A
330
1630B
100
AcDbEntity
  8
寸法
 62
     0
 48
50.0
370
    -2
100
AcDbLine
 10
10002.24083090031
 20
5641.649500982063
 30
0.0
 11
9942.24083090031
 21
5641.649500982063
 31
0.0
  0
INSERT
  5
16D4B
330
1630B
100
AcDbEntity
  8
寸法
 62
     0
 48
50.0
370
    -2
100
AcDbBlockReference
  2
_DOTSMALL
 10
10002.24083090031
 20
5641.649500982063
 30
0.0
 41
100.0
 42
100.0
 43
100.0
 50
180.0
  0
INSERT
  5
16D4C
330
1630B
100
AcDbEntity
  8
寸法
 62
     0
 48
50.0
370
    -2
100
AcDbBlockReference
  2
_DOTSMALL
 10
9942.24083090031
 20
5641.649500982063
 30
0.0
 41
100.0
 42
100.0
 43
100.0
  0
MTEXT
  5
16D4D
330
1630B
100
AcDbEntity
  8
寸法
 62
     7
 48
50.0
100
AcDbMText
 10
9632.60303562472
 20
5741.649500982063
 30
0.0
 40
120.0
 41
0.0
 71
     5
 72
     1
  1
\A1;60
  7
STYLE1
 73
     1
 44
1.0
1001
ACAD
1000
MTEXTBEGIN
1070
    73
1070
     1
1070
    44
1040
1.0
1070
    74
1070
     0
1000
MTEXTEND
  0
POINT
  5
16D4E
330
1630B
100
AcDbEntity
  8
DEFPOINTS
 62
     0
 48
50.0
100
AcDbPoint
 10
10002.24083090031
 20
5238.993665525735
 30
0.0
  0
POINT
  5
16D4F
330
1630B
100
AcDbEntity
  8
DEFPOINTS
 62
     0
 48
50.0
100
AcDbPoint
 10
9942.24083090031
 20
5242.992047402764
 30
0.0
  0
POINT
  5
16D50
330
1630B
100
AcDbEntity
  8
DEFPOINTS
 62
     0
 48
50.0
100
AcDbPoint
 10
9942.24083090031
 20
5641.649500982063
 30
0.0
  0
ENDBLK
  5
16318
330
1630B
100
AcDbEntity
  8
0
 48
50.0
100
AcDbBlockEnd
  0
BLOCK
  5
16323
330
16319
100
AcDbEntity
  8
0
 48
50.0
100
AcDbBlockBegin
  2
*D27
 70
     1
 10
0.0
 20
0.0
 30
0.0
  3
*D27
  1

  0
LINE
  5
16D3D
330
16319
100
AcDbEntity
  8
寸法
 62
     0
 48
50.0
370
    -2
100
AcDbLine
 10
11612.24083090031
 20
5207.99204740276
 30
0.0
 11
11612.24083090031
 21
5909.823822174026
 31
0.0
  0
LINE
  5
16D3E
330
16319
100
AcDbEntity
  8
寸法
 62
     0
 48
50.0
370
    -2
100
AcDbLine
 10
9942.24083090031
 20
5262.992047402764
 30
0.0
 11
9942.24083090031
 21
5909.823822174026
 31
0.0
  0
LINE
  5
16D3F
330
16319
100
AcDbEntity
  8
寸法
 62
     0
 48
50.0
370
    -2
100
AcDbLine
 10
11612.24083090031
 20
5849.823822174027
 30
0.0
 11
9942.24083090031
 21
5849.823822174027
 31
0.0
  0
INSERT
  5
16D40
330
16319
100
AcDbEntity
  8
寸法
 62
     0
 48
50.0
370
    -2
100
AcDbBlockReference
  2
_DOTSMALL
 10
11612.24083090031
 20
5849.823822174027
 30
0.0
 41
100.0
 42
100.0
 43
100.0
  0
INSERT
  5
16D41
330
16319
100
AcDbEntity
  8
寸法
 62
     0
 48
50.0
370
    -2
100
AcDbBlockReference
  2
_DOTSMALL
 10
9942.24083090031
 20
5849.823822174027
 30
0.0
 41
100.0
 42
100.0
 43
100.0
 50
180.0
  0
MTEXT
  5
16D42
330
16319
100
AcDbEntity
  8
寸法
 62
     7
 48
50.0
100
AcDbMText
 10
10829.36566060213
 20
5949.823822174026
 30
0.0
 40
120.0
 41
0.0
 71
     5
 72
     1
  1
\A1;1670
  7
STYLE1
 73
     1
 44
1.0
1001
ACAD
1000
MTEXTBEGIN
1070
    73
1070
     1
1070
    44
1040
1.0
1070
    74
1070
     0
1000
MTEXTEND
  0
POINT
  5
16D43
330
16319
100
AcDbEntity
  8
DEFPOINTS
 62
     0
 48
50.0
100
AcDbPoint
 10
11612.24083090031
 20
5187.992047402761
 30
0.0
  0
POINT
  5
16D44
330
16319
100
AcDbEntity
  8
DEFPOINTS
 62
     0
 48
50.0
100
AcDbPoint
 10
9942.24083090031
 20
5242.992047402764
 30
0.0
  0
POINT
  5
16D45
330
16319
100
AcDbEntity
  8
DEFPOINTS
 62
     0
 48
50.0
100
AcDbPoint
 10
9942.24083090031
 20
5849.823822174027
 30
0.0
  0
ENDBLK
  5
16324
330
16319
100
AcDbEntity
  8
0
 48
50.0
100
AcDbBlockEnd
  0
BLOCK
  5
16330
330
16325
100
AcDbEntity
  8
0
 48
50.0
100
AcDbBlockBegin
  2
*D28
 70
     1
 10
0.0
 20
0.0
 30
0.0
  3
*D28
  1

  0
LINE
  5
16D33
330
16325
100
AcDbEntity
  8
寸法
 62
     0
 48
50.0
370
    -2
100
AcDbLine
 10
11532.24083090031
 20
5209.802727014412
 30
0.0
 11
11532.24083090031
 21
5701.649500982063
 31
0.0
  0
LINE
  5
16D34
330
16325
100
AcDbEntity
  8
寸法
 62
     0
 48
50.0
370
    -2
100
AcDbLine
 10
11612.24083090031
 20
5207.99204740276
 30
0.0
 11
11612.24083090031
 21
5701.649500982063
 31
0.0
  0
LINE
  5
16D35
330
16325
100
AcDbEntity
  8
寸法
 62
     0
 48
50.0
370
    -2
100
AcDbLine
 10
11532.24083090031
 20
5641.649500982063
 30
0.0
 11
11612.24083090031
 21
5641.649500982063
 31
0.0
  0
LINE
  5
16D36
330
16325
100
AcDbEntity
  8
寸法
 62
     0
 48
50.0
370
    -2
100
AcDbLine
 10
11612.24083090031
 20
5641.649500982063
 30
0.0
 11
11924.33531908928
 21
5641.649500982063
 31
0.0
  0
INSERT
  5
16D37
330
16325
100
AcDbEntity
  8
寸法
 62
     0
 48
50.0
370
    -2
100
AcDbBlockReference
  2
_DOTSMALL
 10
11532.24083090031
 20
5641.649500982063
 30
0.0
 41
100.0
 42
100.0
 43
100.0
 50
180.0
  0
INSERT
  5
16D38
330
16325
100
AcDbEntity
  8
寸法
 62
     0
 48
50.0
370
    -2
100
AcDbBlockReference
  2
_DOTSMALL
 10
11612.24083090031
 20
5641.649500982063
 30
0.0
 41
100.0
 42
100.0
 43
100.0
  0
MTEXT
  5
16D39
330
16325
100
AcDbEntity
  8
寸法
 62
     7
 48
50.0
100
AcDbMText
 10
11818.2880749948
 20
5741.649500982063
 30
0.0
 40
120.0
 41
0.0
 71
     5
 72
     1
  1
\A1;80
  7
STYLE1
 73
     1
 44
1.0
1001
ACAD
1000
MTEXTBEGIN
1070
    73
1070
     1
1070
    44
1040
1.0
1070
    74
1070
     0
1000
MTEXTEND
  0
POINT
  5
16D3A
330
16325
100
AcDbEntity
  8
DEFPOINTS
 62
     0
 48
50.0
100
AcDbPoint
 10
11532.24083090031
 20
5189.802727014412
 30
0.0
  0
POINT
  5
16D3B
330
16325
100
AcDbEntity
  8
DEFPOINTS
 62
     0
 48
50.0
100
AcDbPoint
 10
11612.24083090031
 20
5187.992047402761
 30
0.0
  0
POINT
  5
16D3C
330
16325
100
AcDbEntity
  8
DEFPOINTS
 62
     0
 48
50.0
100
AcDbPoint
 10
11612.24083090031
 20
5641.649500982063
 30
0.0
  0
ENDBLK
  5
16331
330
16325
100
AcDbEntity
  8
0
 48
50.0
100
AcDbBlockEnd
  0
BLOCK
  5
1633D
330
16332
100
AcDbEntity
  8
0
 48
50.0
100
AcDbBlockBegin
  2
*D29
 70
     1
 10
0.0
 20
0.0
 30
0.0
  3
*D29
  1

  0
LINE
  5
16D29
330
16332
100
AcDbEntity
  8
寸法
 62
     0
 48
50.0
370
    -2
100
AcDbLine
 10
9937.597635587811
 20
5101.527658876235
 30
0.0
 11
9284.697465293783
 21
5126.178690116213
 31
0.0
  0
LINE
  5
16D2A
330
16332
100
AcDbEntity
  8
寸法
 62
     0
 48
50.0
370
    -2
100
AcDbLine
 10
9942.917469739766
 20
5242.427266273118
 30
0.0
 11
9290.017299445576
 21
5267.078297513102
 31
0.0
  0
LINE
  5
16D2B
330
16332
100
AcDbEntity
  8
寸法
 62
     0
 48
50.0
370
    -2
100
AcDbLine
 10
9344.654745037137
 20
5123.914930902684
 30
0.0
 11
9349.974579188931
 21
5264.814538299574
 31
0.0
  0
LINE
  5
16D2C
330
16332
100
AcDbEntity
  8
寸法
 62
     0
 48
50.0
370
    -2
100
AcDbLine
 10
9349.974579188931
 20
5264.814538299574
 30
0.0
 11
9363.557134470129
 21
5624.558216760404
 31
0.0
  0
INSERT
  5
16D2D
330
16332
100
AcDbEntity
  8
寸法
 62
     0
 48
50.0
370
    -2
100
AcDbBlockReference
  2
_DOTSMALL
 10
9344.654745037137
 20
5123.914930902684
 30
0.0
 41
100.0
 42
100.0
 43
100.0
 50
267.8377559871574
  0
INSERT
  5
16D2E
330
16332
100
AcDbEntity
  8
寸法
 62
     0
 48
50.0
370
    -2
100
AcDbBlockReference
  2
_DOTSMALL
 10
9349.974579188931
 20
5264.814538299574
 30
0.0
 41
100.0
 42
100.0
 43
100.0
 50
87.83775598715743
  0
MTEXT
  5
16D2F
330
16332
100
AcDbEntity
  8
寸法
 62
     7
 48
50.0
100
AcDbMText
 10
9258.723523268555
 20
5498.423709339011
 30
0.0
 40
120.0
 41
0.0
 71
     5
 72
     1
  1
\A1;141
  7
STYLE1
 11
0.03772932022548
 21
0.9992879957226159
 31
0.0
 73
     1
 44
1.0
1001
ACAD
1000
MTEXTBEGIN
1070
    73
1070
     1
1070
    44
1040
1.0
1070
    74
1070
     0
1000
MTEXTEND
  0
POINT
  5
16D30
330
16332
100
AcDbEntity
  8
DEFPOINTS
 62
     0
 48
50.0
100
AcDbPoint
 10
9957.583395502263
 20
5100.773072471724
 30
0.0
  0
POINT
  5
16D31
330
16332
100
AcDbEntity
  8
DEFPOINTS
 62
     0
 48
50.0
100
AcDbPoint
 10
9962.903229654218
 20
5241.672679868608
 30
0.0
  0
POINT
  5
16D32
330
16332
100
AcDbEntity
  8
DEFPOINTS
 62
     0
 48
50.0
100
AcDbPoint
 10
9349.974579188931
 20
5264.814538299574
 30
0.0
  0
ENDBLK
  5
1633E
330
16332
100
AcDbEntity
  8
0
 48
50.0
100
AcDbBlockEnd
  0
BLOCK
  5
16349
330
1633F
100
AcDbEntity
  8
0
 48
50.0
100
AcDbBlockBegin
  2
*D30
 70
     1
 10
0.0
 20
0.0
 30
0.0
  3
*D30
  1

  0
LINE
  5
16D20
330
1633F
100
AcDbEntity
  8
寸法
 62
     0
 48
50.0
370
    -2
100
AcDbLine
 10
9975.238460855532
 20
5007.99204740276
 30
0.0
 11
9340.277740208106
 21
5007.99204740276
 31
0.0
  0
LINE
  5
16D21
330
1633F
100
AcDbEntity
  8
寸法
 62
     0
 48
50.0
370
    -2
100
AcDbLine
 10
9975.238460855532
 20
3217.992047402763
 30
0.0
 11
9340.277740208104
 21
3217.992047402763
 31
0.0
  0
LINE
  5
16D22
330
1633F
100
AcDbEntity
  8
寸法
 62
     0
 48
50.0
370
    -2
100
AcDbLine
 10
9400.277740208107
 20
5007.99204740276
 30
0.0
 11
9400.277740208105
 21
3217.992047402763
 31
0.0
  0
INSERT
  5
16D23
330
1633F
100
AcDbEntity
  8
寸法
 62
     0
 48
50.0
370
    -2
100
AcDbBlockReference
  2
_DOTSMALL
 10
9400.277740208107
 20
5007.99204740276
 30
0.0
 41
100.0
 42
100.0
 43
100.0
 50
90.0
  0
INSERT
  5
16D24
330
1633F
100
AcDbEntity
  8
寸法
 62
     0
 48
50.0
370
    -2
100
AcDbBlockReference
  2
_DOTSMALL
 10
9400.277740208105
 20
3217.992047402763
 30
0.0
 41
100.0
 42
100.0
 43
100.0
 50
270.0
  0
MTEXT
  5
16D25
330
1633F
100
AcDbEntity
  8
寸法
 62
     7
 48
50.0
100
AcDbMText
 10
9300.277740208105
 20
4123.027059279148
 30
0.0
 40
120.0
 41
0.0
 71
     5
 72
     1
  1
\A1;1790
  7
STYLE1
 11
0.0000000000000001
 21
1.0
 31
0.0
 73
     1
 44
1.0
1001
ACAD
1000
MTEXTBEGIN
1070
    73
1070
     1
1070
    44
1040
1.0
1070
    74
1070
     0
1000
MTEXTEND
  0
POINT
  5
16D26
330
1633F
100
AcDbEntity
  8
DEFPOINTS
 62
     0
 48
50.0
100
AcDbPoint
 10
9995.238460855532
 20
5007.99204740276
 30
0.0
  0
POINT
  5
16D27
330
1633F
100
AcDbEntity
  8
DEFPOINTS
 62
     0
 48
50.0
100
AcDbPoint
 10
9995.238460855532
 20
3217.992047402763
 30
0.0
  0
POINT
  5
16D28
330
1633F
100
AcDbEntity
  8
DEFPOINTS
 62
     0
 48
50.0
100
AcDbPoint
 10
9400.277740208105
 20
3217.992047402763
 30
0.0
  0
ENDBLK
  5
1634A
330
1633F
100
AcDbEntity
  8
0
 48
50.0
100
AcDbBlockEnd
  0
BLOCK
  5
16AC8
330
16ABE
100
AcDbEntity
  8
0
 48
50.0
100
AcDbBlockBegin
  2
*D31
 70
     1
 10
0.0
 20
0.0
 30
0.0
  3
*D31
  1

  0
LINE
  5
16D17
330
16ABE
100
AcDbEntity
  8
寸法
 62
     0
 48
50.0
370
    -2
100
AcDbLine
 10
5135.368918339925
 20
4989.492047402759
 30
0.0
 11
4777.264390732322
 21
4989.492047402759
 31
0.0
  0
LINE
  5
16D18
330
16ABE
100
AcDbEntity
  8
寸法
 62
     0
 48
50.0
370
    -2
100
AcDbLine
 10
5135.368918339925
 20
3229.492047402763
 30
0.0
 11
4777.264390732322
 21
3229.492047402764
 31
0.0
  0
LINE
  5
16D19
330
16ABE
100
AcDbEntity
  8
寸法
 62
     0
 48
50.0
370
    -2
100
AcDbLine
 10
4837.264390732323
 20
4989.492047402759
 30
0.0
 11
4837.264390732323
 21
3229.492047402764
 31
0.0
  0
INSERT
  5
16D1A
330
16ABE
100
AcDbEntity
  8
寸法
 62
     0
 48
50.0
370
    -2
100
AcDbBlockReference
  2
_DOTSMALL
 10
4837.264390732323
 20
4989.492047402759
 30
0.0
 41
100.0
 42
100.0
 43
100.0
 50
90.0
  0
INSERT
  5
16D1B
330
16ABE
100
AcDbEntity
  8
寸法
 62
     0
 48
50.0
370
    -2
100
AcDbBlockReference
  2
_DOTSMALL
 10
4837.264390732323
 20
3229.492047402764
 30
0.0
 41
100.0
 42
100.0
 43
100.0
 50
270.0
  0
MTEXT
  5
16D1C
330
16ABE
100
AcDbEntity
  8
寸法
 62
     7
 48
50.0
100
AcDbMText
 10
4737.264390732321
 20
4108.49204740276
 30
0.0
 40
120.0
 41
0.0
 71
     5
 72
     1
  1
\A1;有効開口部高サ1760
  7
STYLE1
 11
0.0000000000000001
 21
1.0
 31
0.0
 73
     1
 44
1.0
1001
ACAD
1000
MTEXTBEGIN
1070
    73
1070
     1
1070
    44
1040
1.0
1070
    74
1070
     0
1000
MTEXTEND
  0
POINT
  5
16D1D
330
16ABE
100
AcDbEntity
  8
DEFPOINTS
 62
     0
 48
50.0
100
AcDbPoint
 10
5155.368918339926
 20
4989.492047402759
 30
0.0
  0
POINT
  5
16D1E
330
16ABE
100
AcDbEntity
  8
DEFPOINTS
 62
     0
 48
50.0
100
AcDbPoint
 10
5155.368918339926
 20
3229.492047402763
 30
0.0
  0
POINT
  5
16D1F
330
16ABE
100
AcDbEntity
  8
DEFPOINTS
 62
     0
 48
50.0
100
AcDbPoint
 10
4837.264390732323
 20
3229.492047402764
 30
0.0
  0
ENDBLK
  5
16AC9
330
16ABE
100
AcDbEntity
  8
0
 48
50.0
100
AcDbBlockEnd
  0
BLOCK
  5
16AD4
330
16ACA
100
AcDbEntity
  8
0
 48
50.0
100
AcDbBlockBegin
  2
*D32
 70
     1
 10
0.0
 20
0.0
 30
0.0
  3
*D32
  1

  0
LINE
  5
16D0E
330
16ACA
100
AcDbEntity
  8
寸法
 62
     0
 48
50.0
370
    -2
100
AcDbLine
 10
5105.368918339926
 20
5262.992047402765
 30
0.0
 11
5105.368918339926
 21
5738.490611098852
 31
0.0
  0
LINE
  5
16D0F
330
16ACA
100
AcDbEntity
  8
寸法
 62
     0
 48
50.0
370
    -2
100
AcDbLine
 10
7665.368918339929
 20
5262.992047402761
 30
0.0
 11
7665.368918339929
 21
5738.490611098852
 31
0.0
  0
LINE
  5
16D10
330
16ACA
100
AcDbEntity
  8
寸法
 62
     0
 48
50.0
370
    -2
100
AcDbLine
 10
5105.368918339926
 20
5678.490611098852
 30
0.0
 11
7665.368918339929
 21
5678.490611098852
 31
0.0
  0
INSERT
  5
16D11
330
16ACA
100
AcDbEntity
  8
寸法
 62
     0
 48
50.0
370
    -2
100
AcDbBlockReference
  2
_DOTSMALL
 10
5105.368918339926
 20
5678.490611098852
 30
0.0
 41
100.0
 42
100.0
 43
100.0
 50
180.0
  0
INSERT
  5
16D12
330
16ACA
100
AcDbEntity
  8
寸法
 62
     0
 48
50.0
370
    -2
100
AcDbBlockReference
  2
_DOTSMALL
 10
7665.368918339929
 20
5678.490611098852
 30
0.0
 41
100.0
 42
100.0
 43
100.0
  0
MTEXT
  5
16D13
330
16ACA
100
AcDbEntity
  8
寸法
 62
     7
 48
50.0
100
AcDbMText
 10
6385.368918339928
 20
5778.502422122474
 30
0.0
 40
120.0
 41
0.0
 71
     5
 72
     1
  1
\A1;2560
  7
STYLE1
 73
     1
 44
1.0
1001
ACAD
1000
MTEXTBEGIN
1070
    73
1070
     1
1070
    44
1040
1.0
1070
    74
1070
     0
1000
MTEXTEND
  0
POINT
  5
16D14
330
16ACA
100
AcDbEntity
  8
DEFPOINTS
 62
     0
 48
50.0
100
AcDbPoint
 10
5105.368918339926
 20
5242.992047402766
 30
0.0
  0
POINT
  5
16D15
330
16ACA
100
AcDbEntity
  8
DEFPOINTS
 62
     0
 48
50.0
100
AcDbPoint
 10
7665.368918339929
 20
5242.99204740276
 30
0.0
  0
POINT
  5
16D16
330
16ACA
100
AcDbEntity
  8
DEFPOINTS
 62
     0
 48
50.0
100
AcDbPoint
 10
7665.368918339929
 20
5678.490611098852
 30
0.0
  0
ENDBLK
  5
16AD5
330
16ACA
100
AcDbEntity
  8
0
 48
50.0
100
AcDbBlockEnd
  0
BLOCK
  5
16AE0
330
16AD6
100
AcDbEntity
  8
0
 48
50.0
100
AcDbBlockBegin
  2
*D33
 70
     1
 10
0.0
 20
0.0
 30
0.0
  3
*D33
  1

  0
LINE
  5
16D05
330
16AD6
100
AcDbEntity
  8
寸法
 62
     0
 48
50.0
370
    -2
100
AcDbLine
 10
7615.368918339929
 20
5262.992047402762
 30
0.0
 11
7615.368918339929
 21
5515.533632661004
 31
0.0
  0
LINE
  5
16D06
330
16AD6
100
AcDbEntity
  8
寸法
 62
     0
 48
50.0
370
    -2
100
AcDbLine
 10
5155.368918339926
 20
5262.992047402768
 30
0.0
 11
5155.368918339926
 21
5515.533632661004
 31
0.0
  0
LINE
  5
16D07
330
16AD6
100
AcDbEntity
  8
寸法
 62
     0
 48
50.0
370
    -2
100
AcDbLine
 10
7615.368918339929
 20
5455.533632661005
 30
0.0
 11
5155.368918339926
 21
5455.533632661005
 31
0.0
  0
INSERT
  5
16D08
330
16AD6
100
AcDbEntity
  8
寸法
 62
     0
 48
50.0
370
    -2
100
AcDbBlockReference
  2
_DOTSMALL
 10
7615.368918339929
 20
5455.533632661005
 30
0.0
 41
100.0
 42
100.0
 43
100.0
  0
INSERT
  5
16D09
330
16AD6
100
AcDbEntity
  8
寸法
 62
     0
 48
50.0
370
    -2
100
AcDbBlockReference
  2
_DOTSMALL
 10
5155.368918339926
 20
5455.533632661005
 30
0.0
 41
100.0
 42
100.0
 43
100.0
 50
180.0
  0
MTEXT
  5
16D0A
330
16AD6
100
AcDbEntity
  8
寸法
 62
     7
 48
50.0
100
AcDbMText
 10
6385.368918339928
 20
5555.545443684627
 30
0.0
 40
120.0
 41
0.0
 71
     5
 72
     1
  1
\A1;柱外寸法2460
  7
STYLE1
 73
     1
 44
1.0
1001
ACAD
1000
MTEXTBEGIN
1070
    73
1070
     1
1070
    44
1040
1.0
1070
    74
1070
     0
1000
MTEXTEND
  0
POINT
  5
16D0B
330
16AD6
100
AcDbEntity
  8
DEFPOINTS
 62
     0
 48
50.0
100
AcDbPoint
 10
7615.368918339929
 20
5242.992047402762
 30
0.0
  0
POINT
  5
16D0C
330
16AD6
100
AcDbEntity
  8
DEFPOINTS
 62
     0
 48
50.0
100
AcDbPoint
 10
5155.368918339926
 20
5242.992047402768
 30
0.0
  0
POINT
  5
16D0D
330
16AD6
100
AcDbEntity
  8
DEFPOINTS
 62
     0
 48
50.0
100
AcDbPoint
 10
5155.368918339926
 20
5455.533632661005
 30
0.0
  0
ENDBLK
  5
16AE1
330
16AD6
100
AcDbEntity
  8
0
 48
50.0
100
AcDbBlockEnd
  0
BLOCK
  5
16AEE
330
16AE2
100
AcDbEntity
  8
0
 48
50.0
100
AcDbBlockBegin
  2
*D34
 70
     1
 10
0.0
 20
0.0
 30
0.0
  3
*D34
  1

  0
LINE
  5
16CFA
330
16AE2
100
AcDbEntity
  8
寸法
 62
     0
 48
50.0
370
    -2
100
AcDbLine
 10
5155.368918339926
 20
5262.992047402768
 30
0.0
 11
5155.368918339926
 21
5515.533632661004
 31
0.0
  0
LINE
  5
16CFB
330
16AE2
100
AcDbEntity
  8
寸法
 62
     0
 48
50.0
370
    -2
100
AcDbLine
 10
5105.368918339926
 20
5262.992047402765
 30
0.0
 11
5105.368918339926
 21
5515.533632661004
 31
0.0
  0
LINE
  5
16CFC
330
16AE2
100
AcDbEntity
  8
寸法
 62
     0
 48
50.0
370
    -2
100
AcDbLine
 10
5155.368918339926
 20
5455.533632661005
 30
0.0
 11
5255.368918339925
 21
5455.533632661005
 31
0.0
  0
LINE
  5
16CFD
330
16AE2
100
AcDbEntity
  8
寸法
 62
     0
 48
50.0
370
    -2
100
AcDbLine
 10
5105.368918339926
 20
5455.533632661005
 30
0.0
 11
4685.83639287119
 21
5455.533632661005
 31
0.0
  0
LINE
  5
16CFE
330
16AE2
100
AcDbEntity
  8
寸法
 62
     0
 48
50.0
370
    -2
100
AcDbLine
 10
5155.368918339926
 20
5455.533632661005
 30
0.0
 11
5105.368918339926
 21
5455.533632661005
 31
0.0
  0
INSERT
  5
16CFF
330
16AE2
100
AcDbEntity
  8
寸法
 62
     0
 48
50.0
370
    -2
100
AcDbBlockReference
  2
_DOTSMALL
 10
5155.368918339926
 20
5455.533632661005
 30
0.0
 41
100.0
 42
100.0
 43
100.0
 50
180.0
  0
INSERT
  5
16D00
330
16AE2
100
AcDbEntity
  8
寸法
 62
     0
 48
50.0
370
    -2
100
AcDbBlockReference
  2
_DOTSMALL
 10
5105.368918339926
 20
5455.533632661005
 30
0.0
 41
100.0
 42
100.0
 43
100.0
  0
MTEXT
  5
16D01
330
16AE2
100
AcDbEntity
  8
寸法
 62
     7
 48
50.0
100
AcDbMText
 10
4791.883636965678
 20
5555.533632661005
 30
0.0
 40
120.0
 41
0.0
 71
     5
 72
     1
  1
\A1;50
  7
STYLE1
 73
     1
 44
1.0
1001
ACAD
1000
MTEXTBEGIN
1070
    73
1070
     1
1070
    44
1040
1.0
1070
    74
1070
     0
1000
MTEXTEND
  0
POINT
  5
16D02
330
16AE2
100
AcDbEntity
  8
DEFPOINTS
 62
     0
 48
50.0
100
AcDbPoint
 10
5155.368918339926
 20
5242.992047402768
 30
0.0
  0
POINT
  5
16D03
330
16AE2
100
AcDbEntity
  8
DEFPOINTS
 62
     0
 48
50.0
100
AcDbPoint
 10
5105.368918339926
 20
5242.992047402766
 30
0.0
  0
POINT
  5
16D04
330
16AE2
100
AcDbEntity
  8
DEFPOINTS
 62
     0
 48
50.0
100
AcDbPoint
 10
5105.368918339926
 20
5455.533632661005
 30
0.0
  0
ENDBLK
  5
16AEF
330
16AE2
100
AcDbEntity
  8
0
 48
50.0
100
AcDbBlockEnd
  0
BLOCK
  5
16AFC
330
16AF0
100
AcDbEntity
  8
0
 48
50.0
100
AcDbBlockBegin
  2
*D35
 70
     1
 10
0.0
 20
0.0
 30
0.0
  3
*D35
  1

  0
LINE
  5
16CEF
330
16AF0
100
AcDbEntity
  8
寸法
 62
     0
 48
50.0
370
    -2
100
AcDbLine
 10
7665.368918339929
 20
5262.992047402761
 30
0.0
 11
7665.368918339929
 21
5515.533632661001
 31
0.0
  0
LINE
  5
16CF0
330
16AF0
100
AcDbEntity
  8
寸法
 62
     0
 48
50.0
370
    -2
100
AcDbLine
 10
7615.368918339929
 20
5262.992047402762
 30
0.0
 11
7615.368918339929
 21
5515.533632661001
 31
0.0
  0
LINE
  5
16CF1
330
16AF0
100
AcDbEntity
  8
寸法
 62
     0
 48
50.0
370
    -2
100
AcDbLine
 10
7615.368918339929
 20
5455.533632661001
 30
0.0
 11
7515.368918339929
 21
5455.533632661001
 31
0.0
  0
LINE
  5
16CF2
330
16AF0
100
AcDbEntity
  8
寸法
 62
     0
 48
50.0
370
    -2
100
AcDbLine
 10
7665.368918339929
 20
5455.533632661001
 30
0.0
 11
8084.901443808654
 21
5455.533632661001
 31
0.0
  0
LINE
  5
16CF3
330
16AF0
100
AcDbEntity
  8
寸法
 62
     0
 48
50.0
370
    -2
100
AcDbLine
 10
7615.368918339929
 20
5455.533632661001
 30
0.0
 11
7665.368918339929
 21
5455.533632661001
 31
0.0
  0
INSERT
  5
16CF4
330
16AF0
100
AcDbEntity
  8
寸法
 62
     0
 48
50.0
370
    -2
100
AcDbBlockReference
  2
_DOTSMALL
 10
7615.368918339929
 20
5455.533632661001
 30
0.0
 41
100.0
 42
100.0
 43
100.0
  0
INSERT
  5
16CF5
330
16AF0
100
AcDbEntity
  8
寸法
 62
     0
 48
50.0
370
    -2
100
AcDbBlockReference
  2
_DOTSMALL
 10
7665.368918339929
 20
5455.533632661001
 30
0.0
 41
100.0
 42
100.0
 43
100.0
 50
180.0
  0
MTEXT
  5
16CF6
330
16AF0
100
AcDbEntity
  8
寸法
 62
     7
 48
50.0
100
AcDbMText
 10
7978.854199714167
 20
5555.533632661002
 30
0.0
 40
120.0
 41
0.0
 71
     5
 72
     1
  1
\A1;50
  7
STYLE1
 73
     1
 44
1.0
1001
ACAD
1000
MTEXTBEGIN
1070
    73
1070
     1
1070
    44
1040
1.0
1070
    74
1070
     0
1000
MTEXTEND
  0
POINT
  5
16CF7
330
16AF0
100
AcDbEntity
  8
DEFPOINTS
 62
     0
 48
50.0
100
AcDbPoint
 10
7665.368918339929
 20
5242.99204740276
 30
0.0
  0
POINT
  5
16CF8
330
16AF0
100
AcDbEntity
  8
DEFPOINTS
 62
     0
 48
50.0
100
AcDbPoint
 10
7615.368918339929
 20
5242.992047402762
 30
0.0
  0
POINT
  5
16CF9
330
16AF0
100
AcDbEntity
  8
DEFPOINTS
 62
     0
 48
50.0
100
AcDbPoint
 10
7615.368918339929
 20
5455.533632661001
 30
0.0
  0
ENDBLK
  5
16AFD
330
16AF0
100
AcDbEntity
  8
0
 48
50.0
100
AcDbBlockEnd
  0
ENDSEC
  0
SECTION
  2
ENTITIES
  0
LINE
  5
10B56
330
747D
100
AcDbEntity
  8
補助
  6
PHANTOM
 62
   230
 48
50.0
100
AcDbLine
 10
140.0
 20
0.0
 30
0.0
 11
139.9999999999995
 21
11409.6
 31
0.0
  0
LINE
  5
10B57
330
747D
100
AcDbEntity
  8
補助
  6
PHANTOM
 62
   230
 48
50.0
100
AcDbLine
 10
139.9999999999995
 20
11409.6
 30
0.0
 11
16307.2
 21
11409.6
 31
0.0
  0
LINE
  5
10B59
330
747D
100
AcDbEntity
  8
仕様書枠
  6
Continuous
 48
50.0
100
AcDbLine
 10
13107.2
 20
1200.0
 30
0.0
 11
13107.2
 21
-0.0000000000000729
 31
0.0
  0
LINE
  5
10B5C
330
747D
100
AcDbEntity
  8
仕様書枠
 48
50.0
100
AcDbLine
 10
16307.2
 20
1200.0
 30
0.0
 11
16307.2
 21
-0.0000000000000909
 31
0.0
  0
LINE
  5
10B5D
330
747D
100
AcDbEntity
  8
仕様書枠
 48
50.0
100
AcDbLine
 10
140.0
 20
0.0
 30
0.0
 11
16307.2
 21
-0.0000000000000909
 31
0.0
  0
LINE
  5
10B5E
330
747D
100
AcDbEntity
  8
補助
  6
PHANTOM
 62
   230
 48
50.0
100
AcDbLine
 10
16307.2
 20
11409.6
 30
0.0
 11
16307.2
 21
1200.0
 31
0.0
  0
LINE
  5
10B6C
330
747D
100
AcDbEntity
  8
仕様書枠
 48
50.0
100
AcDbLine
 10
13107.2
 20
1200.0
 30
0.0
 11
16307.2
 21
1200.0
 31
0.0
  0
LINE
  5
10B6D
330
747D
100
AcDbEntity
  8
補助
  6
PHANTOM
 62
   230
 48
50.0
100
AcDbLine
 10
13107.2
 20
11409.6
 30
0.0
 11
13107.2
 21
4800.0
 31
0.0
  0
LINE
  5
10B6F
330
747D
100
AcDbEntity
  8
補助
  6
PHANTOM
 62
   230
 48
50.0
100
AcDbLine
 10
13107.2
 20
4800.0
 30
0.0
 11
16307.2
 21
4800.0
 31
0.0
  0
LINE
  5
10B72
330
747D
100
AcDbEntity
  8
文字
 62
     7
 48
50.0
100
AcDbLine
 10
13187.2
 20
400.0
 30
0.0
 11
16227.2
 21
400.0
 31
0.0
  0
TEXT
  5
10B73
330
747D
100
AcDbEntity
  8
文字
 62
     7
 48
50.0
100
AcDbText
 10
13162.9790565769
 20
895.0906074299405
 30
0.0
 40
200.0
  1
外 形 図
  7
STYLE2
100
AcDbText
  0
TEXT
  5
10B74
330
747D
100
AcDbEntity
  8
文字
 62
     7
 48
50.0
100
AcDbText
 10
13201.43669998441
 20
477.2740661031255
 30
0.0
 40
160.0
  1
機種名
  7
STYLE2
100
AcDbText
  0
TEXT
  5
10B75
330
747D
100
AcDbEntity
  8
文字
 62
     7
 48
50.0
100
AcDbText
 10
13209.4053442172
 20
228.5435242569016
 30
0.0
 40
100.0
  1
○有効開口寸法 ： 685×1760(mm)
  7
STYLE2
100
AcDbText
  0
TEXT
  5
10B76
330
747D
100
AcDbEntity
  8
文字
 62
     7
 48
50.0
100
AcDbText
 10
13209.4053442172
 20
76.09434707649343
 30
0.0
 40
100.0
  1
○床面積 ： 3.76㎡(1.14坪) 　
  7
STYLE2
100
AcDbText
  0
TEXT
  5
10B79
330
747D
100
AcDbEntity
  8
文字
 62
     7
 48
50.0
100
AcDbText
 10
14524.131837222
 20
1031.557706291228
 30
0.0
 40
100.0
  1
NO.02     <縮尺> S=1/40
  7
STYLE2
100
AcDbText
  0
LINE
  5
10B7B
330
747D
100
AcDbEntity
  8
仕様書枠
 48
50.0
100
AcDbLine
 10
13107.2
 20
800.0
 30
0.0
 11
14251.2
 21
800.0
 31
0.0
  0
LINE
  5
10B88
330
747D
100
AcDbEntity
  8
仕様書枠
  6
Continuous
 48
50.0
100
AcDbLine
 10
14251.2
 20
1200.0
 30
0.0
 11
14251.2
 21
800.0
 31
0.0
  0
TEXT
  5
13B2F
330
747D
100
AcDbEntity
  8
部品1
100
AcDbText
 10
6093.553195054735
 20
6424.308467599022
 30
0.0
 40
135.0
  1
平面図
  7
STYLE2
100
AcDbText
  0
LWPOLYLINE
  5
13B30
330
747D
100
AcDbEntity
  8
部品1
100
AcDbPolyline
 90
        4
 70
     1
 43
0.0
 10
6003.633585225697
 20
6617.201996817545
 10
6003.633585225697
 20
6377.309675272012
 10
6767.104251454135
 20
6377.309675272012
 10
6767.104251454135
 20
6617.201996817545
  0
LINE
  5
15801
330
747D
100
AcDbEntity
  8
破線
 48
10.0
100
AcDbLine
 10
6851.869533902609
 20
8732.280714841776
 30
0.0
 11
7559.868918339893
 21
8732.280685617324
 31
0.0
  0
LINE
  5
15802
330
747D
100
AcDbEntity
  8
破線
 48
10.0
100
AcDbLine
 10
6851.869533902609
 20
8782.280714841776
 30
0.0
 11
7559.868918339893
 21
8782.280685617324
 31
0.0
  0
LINE
  5
15803
330
747D
100
AcDbEntity
  8
細線
 48
50.0
100
AcDbLine
 10
7585.868918339868
 20
9005.280685617339
 30
0.0
 11
6824.868918339864
 21
9455.280685617346
 31
0.0
  0
LINE
  5
15804
330
747D
100
AcDbEntity
  8
細線
 48
50.0
100
AcDbLine
 10
7585.868918339868
 20
9455.280685617339
 30
0.0
 11
6824.868918339864
 21
9005.280685617346
 31
0.0
  0
LINE
  5
15805
330
747D
100
AcDbEntity
  8
部品1
100
AcDbLine
 10
6824.868918339864
 20
9005.280685617346
 30
0.0
 11
7585.868918339868
 21
9005.280685617339
 31
0.0
  0
LINE
  5
15806
330
747D
100
AcDbEntity
  8
部品1
100
AcDbLine
 10
6824.868918339864
 20
9455.280685617346
 30
0.0
 11
7585.868918339868
 21
9455.280685617339
 31
0.0
  0
LINE
  5
15807
330
747D
100
AcDbEntity
  8
部品1
100
AcDbLine
 10
6823.368918339856
 20
9456.780685617346
 30
0.0
 11
7587.368918339933
 21
9456.780685617397
 31
0.0
  0
DIMENSION
  5
15808
330
747D
100
AcDbEntity
  8
寸法
 48
50.0
100
AcDbDimension
  2
*D1
 10
6850.368918339933
 20
9700.588905242401
 30
0.0
 11
7205.368918339932
 21
9800.588905242401
 31
0.0
 70
    32
 71
     5
 42
710.0
  3
INABA_S40G
100
AcDbAlignedDimension
 13
7560.368918339932
 23
9484.780685617412
 33
0.0
 14
6850.368918339933
 24
9484.780685617398
 34
0.0
100
AcDbRotatedDimension
  0
LINE
  5
15809
330
747D
100
AcDbEntity
  8
部品1
100
AcDbLine
 10
5155.368918339933
 20
9484.780685617304
 30
0.0
 11
7615.368918339934
 21
9484.780685617398
 31
0.0
  0
LINE
  5
1580A
330
747D
100
AcDbEntity
  8
破線
 48
10.0
100
AcDbLine
 10
7535.368918339911
 20
8109.780685617391
 30
0.0
 11
6874.368918339918
 21
8109.780685617353
 31
0.0
  0
LINE
  5
1580B
330
747D
100
AcDbEntity
  8
部品1
100
AcDbLine
 10
7558.867946915118
 20
8086.280791330237
 30
0.0
 11
6850.868918339911
 21
8086.280685642012
 31
0.0
  0
LINE
  5
1580D
330
747D
100
AcDbEntity
  8
部品1
100
AcDbLine
 10
7570.368918339926
 20
7980.780685617389
 30
0.0
 11
6840.368918339925
 21
7980.780685617332
 31
0.0
  0
LINE
  5
1580E
330
747D
100
AcDbEntity
  8
部品1
 48
5.0
100
AcDbLine
 10
7572.368918339908
 20
7984.280685617339
 30
0.0
 11
6819.368918339925
 21
7984.280685617339
 31
0.0
  0
DIMENSION
  5
1580F
330
747D
100
AcDbEntity
  8
寸法
100
AcDbDimension
  2
*D2
 10
7615.368918339908
 20
6967.678810757147
 30
0.0
 11
6385.368918339918
 21
6967.678810757147
 31
0.0
 70
   160
 71
     5
 42
2459.999999999982
  3
INABA_S40G
100
AcDbAlignedDimension
 13
5155.368918339926
 23
7954.780685617222
 33
0.0
 14
7615.368918339908
 24
7954.780685617354
 34
0.0
100
AcDbRotatedDimension
1001
ACAD
1000
DSTYLE
1002
{
1002
}
  0
LINE
  5
15810
330
747D
100
AcDbEntity
  8
部品1
100
AcDbLine
 10
7615.368918339908
 20
7954.780685617383
 30
0.0
 11
5155.368918339926
 21
7954.780685617288
 31
0.0
  0
ARC
  5
15811
330
747D
100
AcDbEntity
  8
想像線
 48
10.0
100
AcDbCircle
 10
7563.016867662767
 20
7956.475578992924
 30
0.0
 40
722.649936915561
100
AcDbArc
 50
180.1343808685485
 51
270.5829222700353
  0
DIMENSION
  5
15812
330
747D
100
AcDbEntity
  8
寸法
100
AcDbDimension
  2
*D3
 10
7531.730558317225
 20
8803.233575374367
 30
0.0
 11
7204.215980458132
 21
8803.233575374367
 31
0.0
 70
   160
 71
     5
 42
761.0000000000109
  3
INABA_S40G
100
AcDbAlignedDimension
 13
6824.868918339864
 23
9005.280685617346
 33
0.0
 14
7585.868918339875
 24
9005.280685617346
 34
0.0
100
AcDbRotatedDimension
1001
ACAD
1000
DSTYLE
1002
{
1002
}
  0
LINE
  5
15813
330
747D
100
AcDbEntity
  8
部品1
 48
50.0
100
AcDbLine
 10
6765.868925017563
 20
9455.280685617411
 30
0.0
 11
6765.868925017563
 21
9005.280685617412
 31
0.0
  0
LINE
  5
15814
330
747D
100
AcDbEntity
  8
部品1
 48
50.0
100
AcDbLine
 10
6824.868918339864
 20
9455.280685617346
 30
0.0
 11
6824.868918339864
 21
9005.280685617346
 31
0.0
  0
LINE
  5
15815
330
747D
100
AcDbEntity
  8
部品1
 48
50.0
100
AcDbLine
 10
6004.868925017559
 20
9455.280685617362
 30
0.0
 11
6004.868925017563
 21
9005.280685617362
 31
0.0
  0
LINE
  5
15816
330
747D
100
AcDbEntity
  8
部品1
 48
50.0
100
AcDbLine
 10
5945.868925017563
 20
9455.280685617411
 30
0.0
 11
5945.868925017563
 21
9005.280685617412
 31
0.0
  0
LINE
  5
15817
330
747D
100
AcDbEntity
  8
部品1
 48
50.0
100
AcDbLine
 10
5184.86892501756
 20
9455.280685617362
 30
0.0
 11
5184.868925017563
 21
9005.280685617362
 31
0.0
  0
LINE
  5
15818
330
747D
100
AcDbEntity
  8
細線
 48
50.0
100
AcDbLine
 10
5945.86892501756
 20
9005.280685617412
 30
0.0
 11
5184.86892501756
 21
9455.280685617362
 31
0.0
  0
LINE
  5
15819
330
747D
100
AcDbEntity
  8
細線
 48
50.0
100
AcDbLine
 10
5945.868925017563
 20
9455.280685617411
 30
0.0
 11
5184.868925017563
 21
9005.280685617362
 31
0.0
  0
LINE
  5
1581A
330
747D
100
AcDbEntity
  8
細線
 48
50.0
100
AcDbLine
 10
6765.86892501756
 20
9005.280685617412
 30
0.0
 11
6004.868925017559
 21
9455.280685617362
 31
0.0
  0
LINE
  5
1581B
330
747D
100
AcDbEntity
  8
細線
 48
50.0
100
AcDbLine
 10
6765.868925017563
 20
9455.280685617411
 30
0.0
 11
6004.868925017563
 21
9005.280685617362
 31
0.0
  0
LINE
  5
1581C
330
747D
100
AcDbEntity
  8
部品1
 48
50.0
100
AcDbLine
 10
6823.368918339911
 20
8009.780685617339
 30
0.0
 11
6823.368918339856
 21
9484.780685617346
 31
0.0
  0
LINE
  5
1581D
330
747D
100
AcDbEntity
  8
部品1
 48
50.0
100
AcDbLine
 10
6767.368918339911
 20
8009.780685617339
 30
0.0
 11
6767.368918339861
 21
9456.780685617346
 31
0.0
  0
LINE
  5
1581E
330
747D
100
AcDbEntity
  8
部品1
 48
50.0
100
AcDbLine
 10
6795.36891833991
 20
8009.780685617339
 30
0.0
 11
6795.36891833991
 21
9429.780685617346
 31
0.0
  0
LINE
  5
1581F
330
747D
100
AcDbEntity
  8
部品1
 48
50.0
100
AcDbLine
 10
6003.368918339911
 20
8009.780685617339
 30
0.0
 11
6003.368918339856
 21
9484.780685617346
 31
0.0
  0
LINE
  5
15820
330
747D
100
AcDbEntity
  8
部品1
 48
50.0
100
AcDbLine
 10
5947.368918339911
 20
8009.780685617339
 30
0.0
 11
5947.368918339861
 21
9456.780685617346
 31
0.0
  0
LINE
  5
15821
330
747D
100
AcDbEntity
  8
部品1
 48
50.0
100
AcDbLine
 10
5975.368918339911
 20
8009.780685617339
 30
0.0
 11
5975.368918339911
 21
9429.780685617346
 31
0.0
  0
LINE
  5
15822
330
747D
100
AcDbEntity
  8
部品1
100
AcDbLine
 10
5183.368918339907
 20
8009.780685617252
 30
0.0
 11
5183.368918339933
 21
9456.780685617303
 31
0.0
  0
LINE
  5
15823
330
747D
100
AcDbEntity
  8
部品1
100
AcDbLine
 10
5155.368918339896
 20
9484.780685617266
 30
0.0
 11
5155.368918339926
 21
7954.78068561726
 31
0.0
  0
LINE
  5
15824
330
747D
100
AcDbEntity
  8
想像線
 48
10.0
100
AcDbLine
 10
6750.368918339926
 20
7954.78068561734
 30
0.0
 11
6750.368918339926
 21
7233.86304196155
 31
0.0
  0
DIMENSION
  5
15825
330
747D
100
AcDbEntity
  8
寸法
 48
50.0
100
AcDbDimension
  2
*D4
 10
7535.368918339925
 20
7514.957017822219
 30
0.0
 11
7192.868918339927
 21
7514.957017822219
 31
0.0
 70
   160
  1
有効開口部間口\P<>
 71
     5
 42
684.9999999999964
  3
INABA_S40G
100
AcDbAlignedDimension
 13
6850.368918339929
 23
7954.780685617295
 33
0.0
 14
7535.368918339925
 24
7954.78068561726
 34
0.0
100
AcDbRotatedDimension
  0
LINE
  5
15826
330
747D
100
AcDbEntity
  8
想像線
 48
10.0
100
AcDbLine
 10
5930.368918339926
 20
7954.78068561734
 30
0.0
 11
5930.368918339926
 21
7233.86304196155
 31
0.0
  0
ARC
  5
15827
330
747D
100
AcDbEntity
  8
想像線
 48
10.0
100
AcDbCircle
 10
5923.016867662767
 20
7956.475578992908
 30
0.0
 40
722.6499369155601
100
AcDbArc
 50
180.1343808685482
 51
270.5829222700353
  0
ARC
  5
15828
330
747D
100
AcDbEntity
  8
想像線
 48
10.0
100
AcDbCircle
 10
6743.016867662769
 20
7956.475578992908
 30
0.0
 40
722.649936915561
100
AcDbArc
 50
180.1343808685484
 51
270.5829222700353
  0
LINE
  5
1582A
330
747D
100
AcDbEntity
  8
破線
 48
10.0
100
AcDbLine
 10
5211.869533902609
 20
8782.280714841776
 30
0.0
 11
5919.868918339893
 21
8782.280685617324
 31
0.0
  0
LINE
  5
1582B
330
747D
100
AcDbEntity
  8
破線
 48
10.0
100
AcDbLine
 10
5211.869533902609
 20
8732.280714841776
 30
0.0
 11
5919.868918339893
 21
8732.280685617324
 31
0.0
  0
LINE
  5
1582C
330
747D
100
AcDbEntity
  8
部品1
100
AcDbLine
 10
5184.868925017563
 20
9005.280685617362
 30
0.0
 11
5945.86892501756
 21
9005.280685617412
 31
0.0
  0
LINE
  5
1582D
330
747D
100
AcDbEntity
  8
部品1
100
AcDbLine
 10
5919.869488788092
 20
8086.280104797383
 30
0.0
 11
5211.86988976632
 21
8086.279603308858
 31
0.0
  0
LINE
  5
1582E
330
747D
100
AcDbEntity
  8
破線
 48
10.0
100
AcDbLine
 10
5896.368918339918
 20
8109.780685617325
 30
0.0
 11
5235.368918339919
 21
8109.780685617311
 31
0.0
  0
LINE
  5
1582F
330
747D
100
AcDbEntity
  8
部品1
100
AcDbLine
 10
5930.368918339926
 20
7980.780685617354
 30
0.0
 11
5200.368918339925
 21
7980.780685617324
 31
0.0
  0
LINE
  5
15830
330
747D
100
AcDbEntity
  8
部品1
 48
5.0
100
AcDbLine
 10
5198.368918339926
 20
7984.280685617223
 30
0.0
 11
5951.368918339926
 21
7984.280685617282
 31
0.0
  0
LINE
  5
15831
330
747D
100
AcDbEntity
  8
部品1
100
AcDbLine
 10
6026.368918339926
 20
7954.780685617288
 30
0.0
 11
5155.368918339926
 21
7954.78068561726
 31
0.0
  0
LINE
  5
15833
330
747D
100
AcDbEntity
  8
破線
 48
10.0
100
AcDbLine
 10
5235.368963008404
 20
8732.280713871778
 30
0.0
 11
5235.368918339919
 21
8109.780685617311
 31
0.0
  0
LINE
  5
15834
330
747D
100
AcDbEntity
  8
部品1
 48
5.0
100
AcDbLine
 10
5211.869889764891
 20
8086.280685617397
 30
0.0
 11
5211.869396833579
 21
9005.280685617311
 31
0.0
  0
LINE
  5
15835
330
747D
100
AcDbEntity
  8
部品1
 48
2.83
100
AcDbLine
 10
5187.368918339926
 20
8009.780685617222
 30
0.0
 11
5210.368918339925
 21
8009.780685617222
 31
0.0
  0
LINE
  5
15836
330
747D
100
AcDbEntity
  8
部品1
 48
2.83
100
AcDbLine
 10
5155.368918339926
 20
8009.780685617222
 30
0.0
 11
5178.368918339925
 21
8009.780685617222
 31
0.0
  0
LINE
  5
15837
330
747D
100
AcDbEntity
  8
部品1
100
AcDbLine
 10
5183.368918339907
 20
8009.780685617222
 30
0.0
 11
5155.368918339926
 21
8009.780685617222
 31
0.0
  0
LINE
  5
15838
330
747D
100
AcDbEntity
  8
部品1
100
AcDbLine
 10
5183.368918339907
 20
8009.780685617252
 30
0.0
 11
5155.368918339926
 21
8009.780685617252
 31
0.0
  0
LINE
  5
15839
330
747D
100
AcDbEntity
  8
部品1
100
AcDbLine
 10
5183.368918339926
 20
8009.780685617267
 30
0.0
 11
5155.368918339926
 21
8009.780685617267
 31
0.0
  0
LINE
  5
1583A
330
747D
100
AcDbEntity
  8
部品1
 48
50.0
100
AcDbLine
 10
5211.86988976632
 20
8086.279603308858
 30
0.0
 11
5183.368918339907
 21
8057.260432376393
 31
0.0
  0
LINE
  5
1583B
330
747D
100
AcDbEntity
  8
部品1
 48
2.83
100
AcDbLine
 10
5198.368918339926
 20
7954.780685617222
 30
0.0
 11
5155.368918339926
 21
7954.780685617222
 31
0.0
  0
LINE
  5
1583C
330
747D
100
AcDbEntity
  8
部品1
100
AcDbLine
 10
5200.368918339925
 20
7980.780685617324
 30
0.0
 11
5200.368918339925
 21
7954.780685617288
 31
0.0
  0
LINE
  5
1583D
330
747D
100
AcDbEntity
  8
部品1
 48
2.83
100
AcDbLine
 10
5198.368918339926
 20
7984.280685617223
 30
0.0
 11
5198.368918339926
 21
7954.780685617222
 31
0.0
  0
LINE
  5
1583E
330
747D
100
AcDbEntity
  8
部品1
 48
2.83
100
AcDbLine
 10
5155.368918339926
 20
7954.780685617222
 30
0.0
 11
5155.368918339926
 21
8009.780685617222
 31
0.0
  0
LINE
  5
1583F
330
747D
100
AcDbEntity
  8
部品1
100
AcDbLine
 10
5155.368918339926
 20
8009.780685617222
 30
0.0
 11
5155.368918339926
 21
7954.780685617222
 31
0.0
  0
LINE
  5
15840
330
747D
100
AcDbEntity
  8
部品1
 48
2.83
100
AcDbLine
 10
5210.368918339925
 20
8009.780685617222
 30
0.0
 11
5210.36891833993
 21
7984.280685617223
 31
0.0
  0
LINE
  5
15841
330
747D
100
AcDbEntity
  8
部品1
100
AcDbLine
 10
5183.368918339907
 20
8429.780685617267
 30
0.0
 11
5155.368918339907
 21
8429.780685617267
 31
0.0
  0
LINE
  5
15842
330
747D
100
AcDbEntity
  8
部品1
100
AcDbLine
 10
5183.368918339907
 20
9009.780685617267
 30
0.0
 11
5155.368918339907
 21
9009.780685617267
 31
0.0
  0
LINE
  5
15843
330
747D
100
AcDbEntity
  8
破線
 48
10.0
100
AcDbLine
 10
5235.368983264635
 20
9005.280685617311
 30
0.0
 11
5235.368966500857
 21
8782.280713871776
 31
0.0
  0
LINE
  5
15844
330
747D
100
AcDbEntity
  8
破線
 48
10.0
100
AcDbLine
 10
6054.368918339918
 20
8109.780685617353
 30
0.0
 11
6054.368909787263
 21
8732.280713913061
 31
0.0
  0
LINE
  5
15845
330
747D
100
AcDbEntity
  8
破線
 48
10.0
100
AcDbLine
 10
5896.368918339918
 20
8109.780685617346
 30
0.0
 11
5896.368912591948
 21
8732.280686587344
 31
0.0
  0
LINE
  5
15846
330
747D
100
AcDbEntity
  8
部品1
 48
50.0
100
AcDbLine
 10
5919.868918339911
 20
8086.280685617346
 30
0.0
 11
5919.868918339886
 21
9005.280685617405
 31
0.0
  0
LINE
  5
15847
330
747D
100
AcDbEntity
  8
部品1
 48
50.0
100
AcDbLine
 10
6030.868911995625
 20
8086.280685642005
 30
0.0
 11
6030.868914968487
 21
9005.280685617346
 31
0.0
  0
LINE
  5
15848
330
747D
100
AcDbEntity
  8
破線
 48
10.0
100
AcDbLine
 10
6716.368918339918
 20
8109.780685617346
 30
0.0
 11
6716.368912591952
 21
8732.280686587344
 31
0.0
  0
LINE
  5
15849
330
747D
100
AcDbEntity
  8
破線
 48
10.0
100
AcDbLine
 10
6874.368918339918
 20
8109.780685617353
 30
0.0
 11
6874.368909787263
 21
8732.280713913061
 31
0.0
  0
LINE
  5
1584A
330
747D
100
AcDbEntity
  8
部品1
 48
50.0
100
AcDbLine
 10
6739.868918339912
 20
8086.280685617346
 30
0.0
 11
6739.868918339886
 21
9005.280685617405
 31
0.0
  0
LINE
  5
1584B
330
747D
100
AcDbEntity
  8
部品1
 48
50.0
100
AcDbLine
 10
6850.868911995625
 20
8086.280685642005
 30
0.0
 11
6850.868914968486
 21
9005.280685617346
 31
0.0
  0
LINE
  5
1584C
330
747D
100
AcDbEntity
  8
破線
 48
10.0
100
AcDbLine
 10
6716.368918339918
 20
8109.780685617346
 30
0.0
 11
6054.368918339918
 21
8109.780685617332
 31
0.0
  0
LINE
  5
1584D
330
747D
100
AcDbEntity
  8
部品1
 48
5.0
100
AcDbLine
 10
5999.368918339925
 20
7984.280685617282
 30
0.0
 11
6771.368918339925
 21
7984.280685617339
 31
0.0
  0
LINE
  5
1584E
330
747D
100
AcDbEntity
  8
部品1
100
AcDbLine
 10
6739.868918339912
 20
8086.280685617346
 30
0.0
 11
6030.868425086028
 21
8086.280183419875
 31
0.0
  0
LINE
  5
1584F
330
747D
100
AcDbEntity
  8
部品1
100
AcDbLine
 10
6750.368918339926
 20
7980.780685617389
 30
0.0
 11
6020.368918339926
 21
7980.780685617361
 31
0.0
  0
LINE
  5
15850
330
747D
100
AcDbEntity
  8
部品1
 48
5.0
100
AcDbLine
 10
6007.368918339926
 20
8009.780685617339
 30
0.0
 11
6030.368918339926
 21
8009.780685617339
 31
0.0
  0
LINE
  5
15851
330
747D
100
AcDbEntity
  8
部品1
 48
5.0
100
AcDbLine
 10
5947.368918339911
 20
8009.780685617339
 30
0.0
 11
6003.368918339911
 21
8009.780685617339
 31
0.0
  0
LINE
  5
15852
330
747D
100
AcDbEntity
  8
部品1
 48
5.0
100
AcDbLine
 10
5943.368918339926
 20
8009.780685617339
 30
0.0
 11
5920.368918339925
 21
8009.780685617339
 31
0.0
  0
LINE
  5
15853
330
747D
100
AcDbEntity
  8
部品1
 48
50.0
100
AcDbLine
 10
6030.868918339911
 20
8086.280685642012
 30
0.0
 11
6003.368918339911
 21
8058.280685617338
 31
0.0
  0
LINE
  5
15854
330
747D
100
AcDbEntity
  8
部品1
 48
50.0
100
AcDbLine
 10
5947.368918339911
 20
8058.280685617338
 30
0.0
 11
5919.868918339911
 21
8086.280685617346
 31
0.0
  0
LINE
  5
15855
330
747D
100
AcDbEntity
  8
部品1
 48
5.0
100
AcDbLine
 10
5932.368918339926
 20
7954.78068561734
 30
0.0
 11
6018.368918339926
 21
7954.78068561734
 31
0.0
  0
LINE
  5
15856
330
747D
100
AcDbEntity
  8
部品1
 48
0.2
100
AcDbLine
 10
5917.431366168603
 20
7947.778315572562
 30
0.0
 11
5922.431366168603
 21
7947.778315572562
 31
0.0
  0
ARC
  5
15857
330
747D
100
AcDbEntity
  8
細線
 48
0.2
100
AcDbCircle
 10
5922.431366168603
 20
7955.778315572562
 30
0.0
 40
4.049999999999999
100
AcDbArc
 50
194.2603506853988
 51
345.7396493146012
  0
ARC
  5
15858
330
747D
100
AcDbEntity
  8
部品1
 48
0.2
100
AcDbCircle
 10
5917.431366168603
 20
7955.778315572562
 30
0.0
 40
8.0
100
AcDbArc
 50
187.1636477221926
 51
269.9999999999992
  0
ARC
  5
15859
330
747D
100
AcDbEntity
  8
部品1
 48
0.2
100
AcDbCircle
 10
5922.431366168603
 20
7955.778315572562
 30
0.0
 40
8.0
100
AcDbArc
 50
270.0
 51
352.8363522778074
  0
LINE
  5
1585A
330
747D
100
AcDbEntity
  8
部品1
 48
5.0
100
AcDbLine
 10
5932.368918339926
 20
7984.280685617339
 30
0.0
 11
5932.368918339926
 21
7954.78068561734
 31
0.0
  0
LINE
  5
1585B
330
747D
100
AcDbEntity
  8
部品1
100
AcDbLine
 10
5932.368918339926
 20
7984.280685617282
 30
0.0
 11
5932.368918339921
 21
7954.780685617333
 31
0.0
  0
LINE
  5
1585C
330
747D
100
AcDbEntity
  8
部品1
100
AcDbLine
 10
5930.368918339926
 20
7980.780685617389
 30
0.0
 11
5930.368918339926
 21
7954.780685617333
 31
0.0
  0
LINE
  5
1585D
330
747D
100
AcDbEntity
  8
部品1
 48
5.0
100
AcDbLine
 10
6018.368918339926
 20
7984.280685617339
 30
0.0
 11
6018.368918339926
 21
7954.78068561734
 31
0.0
  0
LINE
  5
1585E
330
747D
100
AcDbEntity
  8
部品1
100
AcDbLine
 10
6018.368918339926
 20
7984.280685617289
 30
0.0
 11
6018.368918339926
 21
7954.78068561734
 31
0.0
  0
LINE
  5
1585F
330
747D
100
AcDbEntity
  8
部品1
100
AcDbLine
 10
6020.368918339926
 20
7980.780685617361
 30
0.0
 11
6020.368918339926
 21
7954.780685617325
 31
0.0
  0
LINE
  5
15860
330
747D
100
AcDbEntity
  8
部品1
 48
5.0
100
AcDbLine
 10
5920.368918339925
 20
8009.780685617339
 30
0.0
 11
5920.368918339929
 21
7984.280685617339
 31
0.0
  0
LINE
  5
15861
330
747D
100
AcDbEntity
  8
部品1
 48
5.0
100
AcDbLine
 10
5951.368918339926
 20
8009.780685617339
 30
0.0
 11
5951.368918339926
 21
7984.280685617339
 31
0.0
  0
LINE
  5
15862
330
747D
100
AcDbEntity
  8
部品1
 48
5.0
100
AcDbLine
 10
5999.368918339929
 20
8009.780685617339
 30
0.0
 11
5999.368918339925
 21
7984.280685617339
 31
0.0
  0
LINE
  5
15863
330
747D
100
AcDbEntity
  8
部品1
 48
5.0
100
AcDbLine
 10
6030.368918339926
 20
8009.780685617339
 30
0.0
 11
6030.368918339929
 21
7984.280685617339
 31
0.0
  0
LINE
  5
15864
330
747D
100
AcDbEntity
  8
部品1
 48
5.0
100
AcDbLine
 10
5975.368918339911
 20
8429.780685617339
 30
0.0
 11
5947.368918339861
 21
8429.780685617346
 31
0.0
  0
LINE
  5
15865
330
747D
100
AcDbEntity
  8
部品1
 48
5.0
100
AcDbLine
 10
6763.368918339925
 20
8009.780685617339
 30
0.0
 11
6740.368918339925
 21
8009.780685617339
 31
0.0
  0
LINE
  5
15866
330
747D
100
AcDbEntity
  8
部品1
 48
50.0
100
AcDbLine
 10
6767.368918339911
 20
8058.280685617338
 30
0.0
 11
6739.868918339912
 21
8086.280685617346
 31
0.0
  0
ARC
  5
15867
330
747D
100
AcDbEntity
  8
部品1
 48
0.2
100
AcDbCircle
 10
6742.431366168602
 20
7955.778315572562
 30
0.0
 40
8.0
100
AcDbArc
 50
270.0
 51
352.8363522778074
  0
LINE
  5
15868
330
747D
100
AcDbEntity
  8
部品1
 48
0.2
100
AcDbLine
 10
6737.431366168603
 20
7947.778315572562
 30
0.0
 11
6742.431366168602
 21
7947.778315572562
 31
0.0
  0
ARC
  5
15869
330
747D
100
AcDbEntity
  8
細線
 48
0.2
100
AcDbCircle
 10
6742.431366168602
 20
7955.778315572562
 30
0.0
 40
4.049999999999999
100
AcDbArc
 50
194.2603506853988
 51
345.7396493146012
  0
ARC
  5
1586A
330
747D
100
AcDbEntity
  8
部品1
 48
0.2
100
AcDbCircle
 10
6737.431366168603
 20
7955.778315572562
 30
0.0
 40
8.0
100
AcDbArc
 50
187.1636477221926
 51
269.9999999999992
  0
LINE
  5
1586B
330
747D
100
AcDbEntity
  8
部品1
 48
5.0
100
AcDbLine
 10
6740.368918339925
 20
8009.780685617339
 30
0.0
 11
6740.368918339929
 21
7984.280685617339
 31
0.0
  0
LINE
  5
1586C
330
747D
100
AcDbEntity
  8
部品1
 48
5.0
100
AcDbLine
 10
6827.368918339925
 20
8009.780685617339
 30
0.0
 11
6850.368918339926
 21
8009.780685617339
 31
0.0
  0
LINE
  5
1586D
330
747D
100
AcDbEntity
  8
部品1
 48
5.0
100
AcDbLine
 10
6767.368918339911
 20
8009.780685617339
 30
0.0
 11
6823.368918339911
 21
8009.780685617339
 31
0.0
  0
LINE
  5
1586E
330
747D
100
AcDbEntity
  8
部品1
 48
50.0
100
AcDbLine
 10
6850.868918339911
 20
8086.280685642012
 30
0.0
 11
6823.368918339911
 21
8058.280685617338
 31
0.0
  0
LINE
  5
1586F
330
747D
100
AcDbEntity
  8
部品1
 48
5.0
100
AcDbLine
 10
6752.368918339925
 20
7954.78068561734
 30
0.0
 11
6838.368918339925
 21
7954.78068561734
 31
0.0
  0
LINE
  5
15870
330
747D
100
AcDbEntity
  8
部品1
 48
5.0
100
AcDbLine
 10
6752.368918339925
 20
7984.280685617339
 30
0.0
 11
6752.368918339925
 21
7954.78068561734
 31
0.0
  0
LINE
  5
15871
330
747D
100
AcDbEntity
  8
部品1
100
AcDbLine
 10
6752.368918339925
 20
7984.280685617282
 30
0.0
 11
6752.368918339922
 21
7954.780685617333
 31
0.0
  0
LINE
  5
15872
330
747D
100
AcDbEntity
  8
部品1
100
AcDbLine
 10
6750.368918339926
 20
7980.780685617389
 30
0.0
 11
6750.368918339926
 21
7954.780685617333
 31
0.0
  0
LINE
  5
15873
330
747D
100
AcDbEntity
  8
部品1
 48
5.0
100
AcDbLine
 10
6838.368918339925
 20
7984.280685617339
 30
0.0
 11
6838.368918339925
 21
7954.78068561734
 31
0.0
  0
LINE
  5
15874
330
747D
100
AcDbEntity
  8
部品1
100
AcDbLine
 10
6840.368918339925
 20
7980.780685617332
 30
0.0
 11
6840.368918339925
 21
7954.78068561734
 31
0.0
  0
LINE
  5
15875
330
747D
100
AcDbEntity
  8
部品1
100
AcDbLine
 10
6838.368918339925
 20
7984.280685617289
 30
0.0
 11
6838.368918339925
 21
7954.78068561734
 31
0.0
  0
LINE
  5
15876
330
747D
100
AcDbEntity
  8
部品1
 48
5.0
100
AcDbLine
 10
6771.368918339925
 20
8009.780685617339
 30
0.0
 11
6771.368918339925
 21
7984.280685617339
 31
0.0
  0
LINE
  5
15877
330
747D
100
AcDbEntity
  8
部品1
 48
5.0
100
AcDbLine
 10
6819.36891833993
 20
8009.780685617339
 30
0.0
 11
6819.368918339925
 21
7984.280685617339
 31
0.0
  0
LINE
  5
15878
330
747D
100
AcDbEntity
  8
部品1
 48
5.0
100
AcDbLine
 10
6850.368918339926
 20
8009.780685617339
 30
0.0
 11
6850.368918339929
 21
7984.280685617339
 31
0.0
  0
LINE
  5
15879
330
747D
100
AcDbEntity
  8
部品1
 48
5.0
100
AcDbLine
 10
6795.36891833991
 20
8429.780685617339
 30
0.0
 11
6767.368918339861
 21
8429.780685617346
 31
0.0
  0
LINE
  5
1587A
330
747D
100
AcDbEntity
  8
破線
 48
10.0
100
AcDbLine
 10
6031.869533902609
 20
8782.280714841776
 30
0.0
 11
6739.868918339893
 21
8782.280685617324
 31
0.0
  0
LINE
  5
1587B
330
747D
100
AcDbEntity
  8
破線
 48
10.0
100
AcDbLine
 10
6031.869533902609
 20
8732.280714841776
 30
0.0
 11
6739.868918339893
 21
8732.280685617324
 31
0.0
  0
LINE
  5
1587C
330
747D
100
AcDbEntity
  8
部品1
100
AcDbLine
 10
6004.868925017563
 20
9005.280685617362
 30
0.0
 11
6765.86892501756
 21
9005.280685617412
 31
0.0
  0
LINE
  5
1587E
330
747D
100
AcDbEntity
  8
破線
 48
10.0
100
AcDbLine
 10
6054.368909118559
 20
8782.280713913058
 30
0.0
 11
6054.368905908806
 21
9005.280685617346
 31
0.0
  0
LINE
  5
1587F
330
747D
100
AcDbEntity
  8
破線
 48
10.0
100
AcDbLine
 10
5896.368912142541
 20
8782.280686587348
 30
0.0
 11
5896.368909985366
 21
9005.280685617405
 31
0.0
  0
LINE
  5
15880
330
747D
100
AcDbEntity
  8
部品1
 48
5.0
100
AcDbLine
 10
5975.368918339911
 20
9009.780685617339
 30
0.0
 11
5947.368918339861
 21
9009.780685617347
 31
0.0
  0
LINE
  5
15881
330
747D
100
AcDbEntity
  8
部品1
 48
50.0
100
AcDbLine
 10
5975.368918339904
 20
9009.780685617347
 30
0.0
 11
6003.368918339885
 21
9009.780685617347
 31
0.0
  0
LINE
  5
15882
330
747D
100
AcDbEntity
  8
部品1
 48
50.0
100
AcDbLine
 10
5975.368918339904
 20
9047.780685617347
 30
0.0
 11
6003.368918339885
 21
9047.780685617347
 31
0.0
  0
LINE
  5
15883
330
747D
100
AcDbEntity
  8
破線
 48
10.0
100
AcDbLine
 10
6716.368912142542
 20
8782.280686587348
 30
0.0
 11
6716.368909985366
 21
9005.280685617405
 31
0.0
  0
LINE
  5
15884
330
747D
100
AcDbEntity
  8
破線
 48
10.0
100
AcDbLine
 10
6874.368909118563
 20
8782.280713913058
 30
0.0
 11
6874.368905908807
 21
9005.280685617346
 31
0.0
  0
LINE
  5
15885
330
747D
100
AcDbEntity
  8
部品1
 48
5.0
100
AcDbLine
 10
6795.36891833991
 20
9009.780685617339
 30
0.0
 11
6767.368918339861
 21
9009.780685617347
 31
0.0
  0
LINE
  5
15886
330
747D
100
AcDbEntity
  8
部品1
 48
50.0
100
AcDbLine
 10
6795.368918339903
 20
9009.780685617347
 30
0.0
 11
6823.368918339885
 21
9009.780685617347
 31
0.0
  0
LINE
  5
15887
330
747D
100
AcDbEntity
  8
部品1
 48
50.0
100
AcDbLine
 10
6795.368918339903
 20
9047.780685617347
 30
0.0
 11
6823.368918339885
 21
9047.780685617347
 31
0.0
  0
LINE
  5
15888
330
747D
100
AcDbEntity
  8
部品1
100
AcDbLine
 10
5183.368918339933
 20
9456.780685617303
 30
0.0
 11
5972.749621358555
 21
9456.780685617324
 31
0.0
  0
LINE
  5
15889
330
747D
100
AcDbEntity
  8
部品1
100
AcDbLine
 10
5184.86892501756
 20
9455.280685617362
 30
0.0
 11
5945.868925017563
 21
9455.280685617411
 31
0.0
  0
DIMENSION
  5
1588A
330
747D
100
AcDbEntity
  8
寸法
100
AcDbDimension
  2
*D5
 10
5920.368918339932
 20
9700.588905242401
 30
0.0
 11
5565.618918339932
 21
9700.588905242401
 31
0.0
 70
   160
 71
     5
 42
710.0
  3
INABA_S40G
100
AcDbAlignedDimension
 13
5210.368918339933
 23
9484.780685617332
 33
0.0
 14
5920.368918339932
 24
9484.780685617419
 34
0.0
100
AcDbRotatedDimension
1001
ACAD
1000
DSTYLE
1002
{
1002
}
  0
DIMENSION
  5
1588B
330
747D
100
AcDbEntity
  8
寸法
100
AcDbDimension
  2
*D6
 10
5210.368918339933
 20
9700.588905242284
 30
0.0
 11
4846.883636965657
 21
9700.588905242284
 31
0.0
 70
   160
 71
     5
 42
55.00000000003637
  3
INABA_S40G
100
AcDbAlignedDimension
 13
5155.368918339896
 23
9484.780685617304
 33
0.0
 14
5210.368918339933
 24
9484.780685617304
 34
0.0
100
AcDbRotatedDimension
1001
ACAD
1000
DSTYLE
1002
{
1002
}
  0
LINE
  5
1588C
330
747D
100
AcDbEntity
  8
部品1
100
AcDbLine
 10
5210.368918339933
 20
9484.780685617304
 30
0.0
 11
5210.368918339933
 21
9456.780685617303
 31
0.0
  0
LINE
  5
1588D
330
747D
100
AcDbEntity
  8
部品1
100
AcDbLine
 10
5210.368918339896
 20
9484.780685617266
 30
0.0
 11
5210.3689183399
 21
9456.780685617266
 31
0.0
  0
LINE
  5
1588E
330
747D
100
AcDbEntity
  8
部品1
100
AcDbLine
 10
5183.3689183399
 20
9429.780685617274
 30
0.0
 11
5155.3689183399
 21
9429.780685617274
 31
0.0
  0
LINE
  5
1588F
330
747D
100
AcDbEntity
  8
部品1
 48
50.0
100
AcDbLine
 10
5184.868925017556
 20
9455.28068561731
 30
0.0
 11
5183.368918339933
 21
9456.780685617303
 31
0.0
  0
LINE
  5
15890
330
747D
100
AcDbEntity
  8
部品1
100
AcDbLine
 10
6004.868925017559
 20
9455.280685617362
 30
0.0
 11
6765.868925017563
 21
9455.280685617411
 31
0.0
  0
LINE
  5
15891
330
747D
100
AcDbEntity
  8
部品1
100
AcDbLine
 10
6003.368918339882
 20
9456.780685617324
 30
0.0
 11
6792.749621358533
 21
9456.780685617346
 31
0.0
  0
DIMENSION
  5
15892
330
747D
100
AcDbEntity
  8
寸法
100
AcDbDimension
  2
*D7
 10
6740.368918339934
 20
9700.588905242401
 30
0.0
 11
6385.618918339933
 21
9700.588905242401
 31
0.0
 70
   160
 71
     5
 42
710.0
  3
INABA_S40G
100
AcDbAlignedDimension
 13
6030.368918339933
 23
9484.780685617332
 33
0.0
 14
6740.368918339934
 24
9484.780685617419
 34
0.0
100
AcDbRotatedDimension
1001
ACAD
1000
DSTYLE
1002
{
1002
}
  0
DIMENSION
  5
15893
330
747D
100
AcDbEntity
  8
寸法
 48
50.0
100
AcDbDimension
  2
*D8
 10
6030.368918339933
 20
9700.588905242401
 30
0.0
 11
5975.368918339933
 21
9800.588905242401
 31
0.0
 70
    32
 71
     5
 42
110.0
  3
INABA_S40G
100
AcDbAlignedDimension
 13
5920.368918339932
 23
9484.780685617419
 33
0.0
 14
6030.368918339933
 24
9484.780685617398
 34
0.0
100
AcDbRotatedDimension
  0
LINE
  5
15894
330
747D
100
AcDbEntity
  8
部品1
 48
5.0
100
AcDbLine
 10
6030.368918339933
 20
9484.780685617346
 30
0.0
 11
6030.368918339929
 21
9456.780685617353
 31
0.0
  0
LINE
  5
15895
330
747D
100
AcDbEntity
  8
部品1
 48
50.0
100
AcDbLine
 10
6004.868918339863
 20
9455.226164097089
 30
0.0
 11
6003.36891833986
 21
9456.780685617346
 31
0.0
  0
LINE
  5
15896
330
747D
100
AcDbEntity
  8
部品1
 48
50.0
100
AcDbLine
 10
5945.868925017563
 20
9455.226172957589
 30
0.0
 11
5947.368918339861
 21
9456.780685617346
 31
0.0
  0
LINE
  5
15897
330
747D
100
AcDbEntity
  8
部品1
 48
5.0
100
AcDbLine
 10
5920.368918339929
 20
9456.780685617346
 30
0.0
 11
5920.368918339932
 21
9484.780685617346
 31
0.0
  0
LINE
  5
15898
330
747D
100
AcDbEntity
  8
部品1
 48
5.0
100
AcDbLine
 10
5950.078192787106
 20
9484.780685617346
 30
0.0
 11
5972.749621358532
 21
9456.780685617346
 31
0.0
  0
LINE
  5
15899
330
747D
100
AcDbEntity
  8
部品1
 48
5.0
100
AcDbLine
 10
6003.36891833986
 20
9429.780685617346
 30
0.0
 11
5947.368918339861
 21
9429.780685617346
 31
0.0
  0
DIMENSION
  5
1589A
330
747D
100
AcDbEntity
  8
寸法
 48
50.0
100
AcDbDimension
  2
*D9
 10
6850.368918339933
 20
9700.588905242401
 30
0.0
 11
6795.368918339933
 21
9800.588905242401
 31
0.0
 70
    32
 71
     5
 42
110.0
  3
INABA_S40G
100
AcDbAlignedDimension
 13
6740.368918339934
 23
9484.780685617419
 33
0.0
 14
6850.368918339933
 24
9484.780685617398
 34
0.0
100
AcDbRotatedDimension
  0
LINE
  5
1589B
330
747D
100
AcDbEntity
  8
部品1
 48
5.0
100
AcDbLine
 10
6740.368918339929
 20
9456.780685617346
 30
0.0
 11
6740.368918339934
 21
9484.780685617346
 31
0.0
  0
LINE
  5
1589C
330
747D
100
AcDbEntity
  8
部品1
 48
5.0
100
AcDbLine
 10
6850.368918339933
 20
9484.780685617346
 30
0.0
 11
6850.368918339929
 21
9456.780685617353
 31
0.0
  0
LINE
  5
1589D
330
747D
100
AcDbEntity
  8
部品1
 48
50.0
100
AcDbLine
 10
6824.868918339864
 20
9455.226164097089
 30
0.0
 11
6823.368918339859
 21
9456.780685617346
 31
0.0
  0
LINE
  5
1589E
330
747D
100
AcDbEntity
  8
部品1
 48
50.0
100
AcDbLine
 10
6765.868925017563
 20
9455.226172957589
 30
0.0
 11
6767.368918339861
 21
9456.780685617346
 31
0.0
  0
LINE
  5
1589F
330
747D
100
AcDbEntity
  8
部品1
 48
5.0
100
AcDbLine
 10
6770.078192787106
 20
9484.780685617346
 30
0.0
 11
6792.749621358533
 21
9456.780685617346
 31
0.0
  0
LINE
  5
158A0
330
747D
100
AcDbEntity
  8
部品1
 48
5.0
100
AcDbLine
 10
6823.368918339859
 20
9429.780685617346
 30
0.0
 11
6767.368918339861
 21
9429.780685617346
 31
0.0
  0
DIMENSION
  5
158A1
330
747D
100
AcDbEntity
  8
寸法
 48
50.0
100
AcDbDimension
  2
*D10
 10
8262.795264074343
 20
9009.780685617398
 30
0.0
 11
8162.783453050719
 21
9219.780685617399
 31
0.0
 70
    32
 71
     5
 42
420.0
  3
INABA_S40G
100
AcDbAlignedDimension
 13
7615.368918339934
 23
9429.780685617398
 33
0.0
 14
7615.368918339934
 24
9009.780685617398
 34
0.0
 50
90.0
100
AcDbRotatedDimension
  0
LINE
  5
158A2
330
747D
100
AcDbEntity
  8
部品1
100
AcDbLine
 10
7585.868918339868
 20
9455.280685617339
 30
0.0
 11
7585.868918339868
 21
9005.280685617339
 31
0.0
  0
DIMENSION
  5
158A3
330
747D
100
AcDbEntity
  8
寸法
100
AcDbDimension
  2
*D11
 10
8262.795264074345
 20
9429.780685617398
 30
0.0
 11
8262.795264074343
 21
9793.265966991638
 31
0.0
 70
   160
 71
     5
 42
55.0
  3
INABA_S40G
100
AcDbAlignedDimension
 13
7615.368918339934
 23
9484.780685617398
 33
0.0
 14
7615.368918339934
 24
9429.780685617398
 34
0.0
 50
90.0
100
AcDbRotatedDimension
1001
ACAD
1000
DSTYLE
1002
{
1002
}
  0
LINE
  5
158A4
330
747D
100
AcDbEntity
  8
部品1
100
AcDbLine
 10
7587.368918339933
 20
9456.780685617397
 30
0.0
 11
7587.368918339911
 21
8009.780685617384
 31
0.0
  0
LINE
  5
158A5
330
747D
100
AcDbEntity
  8
部品1
100
AcDbLine
 10
7615.368918339934
 20
9484.780685617398
 30
0.0
 11
7615.368918339908
 21
7954.780685617383
 31
0.0
  0
DIMENSION
  5
158A6
330
747D
100
AcDbEntity
  8
寸法
100
AcDbDimension
  2
*D12
 10
7941.226644201889
 20
8910.062869948452
 30
0.0
 11
7841.226644201888
 21
9135.062869948454
 31
0.0
 70
    32
 71
     5
 42
450.0
  3
INABA_S40G
100
AcDbAlignedDimension
 13
7585.868918339868
 23
9455.280685617339
 33
0.0
 14
7585.868918339868
 24
9005.280685617339
 34
0.0
 50
90.0
100
AcDbRotatedDimension
1001
ACAD
1000
DSTYLE
1002
{
1002
}
  0
DIMENSION
  5
158A7
330
747D
100
AcDbEntity
  8
寸法
100
AcDbDimension
  2
*D13
 10
8571.906794890022
 20
7954.780685617383
 30
0.0
 11
8571.906794890018
 21
8719.78068561739
 31
0.0
 70
   160
 71
     5
 42
1530.000000000014
  3
INABA_S40G
100
AcDbAlignedDimension
 13
7615.368918339934
 23
9484.780685617398
 33
0.0
 14
7615.368918339908
 24
7954.780685617383
 34
0.0
 50
90.0
100
AcDbRotatedDimension
1001
ACAD
1000
DSTYLE
1002
{
1002
}
  0
DIMENSION
  5
158A8
330
747D
100
AcDbEntity
  8
寸法
100
AcDbDimension
  2
*D14
 10
8262.795264074318
 20
7954.780685617383
 30
0.0
 11
8262.795264074318
 21
7576.919218712522
 31
0.0
 70
   160
 71
     5
 42
55.0
  3
INABA_S40G
100
AcDbAlignedDimension
 13
7615.368918339908
 23
8009.780685617384
 33
0.0
 14
7615.368918339908
 24
7954.780685617383
 34
0.0
 50
90.0
100
AcDbRotatedDimension
1001
ACAD
1000
DSTYLE
1002
{
1002
}
  0
LINE
  5
158A9
330
747D
100
AcDbEntity
  8
想像線
 48
10.0
100
AcDbLine
 10
7570.368918339926
 20
7954.780685617347
 30
0.0
 11
7570.368918339926
 21
7233.863041961557
 31
0.0
  0
DIMENSION
  5
158AA
330
747D
100
AcDbEntity
  8
寸法
 48
50.0
100
AcDbDimension
  2
*D15
 10
8262.795264074343
 20
8429.780685617398
 30
0.0
 11
8162.795264074341
 21
8719.780685617399
 31
0.0
 70
    32
 71
     5
 42
580.0
  3
INABA_S40G
100
AcDbAlignedDimension
 13
7615.368918339934
 23
9009.780685617398
 33
0.0
 14
7615.368918339934
 24
8429.780685617398
 34
0.0
 50
90.0
100
AcDbRotatedDimension
  0
LINE
  5
158AB
330
747D
100
AcDbEntity
  8
破線
 48
10.0
100
AcDbLine
 10
7535.368963008375
 20
8732.280686628628
 30
0.0
 11
7535.368918339916
 21
8109.780685617391
 31
0.0
  0
LINE
  5
158AC
330
747D
100
AcDbEntity
  8
部品1
 48
5.0
100
AcDbLine
 10
7558.867946914975
 20
8086.280685617397
 30
0.0
 11
7558.868439846285
 21
9005.280685617339
 31
0.0
  0
DIMENSION
  5
158AD
330
747D
100
AcDbEntity
  8
寸法
 48
50.0
100
AcDbDimension
  2
*D16
 10
8262.795264074318
 20
8009.780685617398
 30
0.0
 11
8162.783453050694
 21
8219.780685617399
 31
0.0
 70
    32
 71
     5
 42
420.0
  3
INABA_S40G
100
AcDbAlignedDimension
 13
7615.368918339934
 23
8429.780685617398
 33
0.0
 14
7615.368918339941
 24
8009.780685617398
 34
0.0
 50
90.0
100
AcDbRotatedDimension
  0
LINE
  5
158AE
330
747D
100
AcDbEntity
  8
部品1
 48
2.83
100
AcDbLine
 10
7615.368918339908
 20
8009.780685617354
 30
0.0
 11
7592.368918339907
 21
8009.780685617354
 31
0.0
  0
LINE
  5
158AF
330
747D
100
AcDbEntity
  8
部品1
100
AcDbLine
 10
7587.368918339911
 20
8009.780685617384
 30
0.0
 11
7615.368918339908
 21
8009.780685617384
 31
0.0
  0
LINE
  5
158B0
330
747D
100
AcDbEntity
  8
部品1
100
AcDbLine
 10
7587.36891833994
 20
8009.780685617398
 30
0.0
 11
7615.368918339941
 21
8009.780685617398
 31
0.0
  0
LINE
  5
158B1
330
747D
100
AcDbEntity
  8
部品1
 48
2.83
100
AcDbLine
 10
7572.368918339908
 20
7984.280685617354
 30
0.0
 11
7572.368918339908
 21
7954.780685617354
 31
0.0
  0
ARC
  5
158B2
330
747D
100
AcDbEntity
  8
細線
 48
0.2
100
AcDbCircle
 10
7562.431366168603
 20
7955.778315572576
 30
0.0
 40
4.049999999999999
100
AcDbArc
 50
194.2603506853988
 51
345.7396493146012
  0
ARC
  5
158B3
330
747D
100
AcDbEntity
  8
部品1
 48
0.2
100
AcDbCircle
 10
7557.431366168604
 20
7955.778315572576
 30
0.0
 40
8.0
100
AcDbArc
 50
187.1636477221926
 51
269.9999999999992
  0
ARC
  5
158B4
330
747D
100
AcDbEntity
  8
部品1
 48
0.2
100
AcDbCircle
 10
7562.431366168603
 20
7955.778315572576
 30
0.0
 40
8.0
100
AcDbArc
 50
270.0
 51
352.8363522778074
  0
LINE
  5
158B5
330
747D
100
AcDbEntity
  8
部品1
 48
0.2
100
AcDbLine
 10
7557.431366168604
 20
7947.778315572576
 30
0.0
 11
7562.431366168603
 21
7947.778315572576
 31
0.0
  0
LINE
  5
158B6
330
747D
100
AcDbEntity
  8
部品1
100
AcDbLine
 10
7570.368918339926
 20
7980.780685617389
 30
0.0
 11
7570.368918339926
 21
7954.780685617383
 31
0.0
  0
LINE
  5
158B7
330
747D
100
AcDbEntity
  8
部品1
 48
2.83
100
AcDbLine
 10
7560.368918339907
 20
8009.780685617354
 30
0.0
 11
7560.368918339907
 21
7984.280685617354
 31
0.0
  0
LINE
  5
158B8
330
747D
100
AcDbEntity
  8
部品1
 48
50.0
100
AcDbLine
 10
7587.368918339911
 20
8057.261620424984
 30
0.0
 11
7558.867946915118
 21
8086.280791330237
 31
0.0
  0
LINE
  5
158B9
330
747D
100
AcDbEntity
  8
部品1
 48
2.83
100
AcDbLine
 10
7583.368918339907
 20
8009.780685617354
 30
0.0
 11
7560.368918339907
 21
8009.780685617354
 31
0.0
  0
LINE
  5
158BA
330
747D
100
AcDbEntity
  8
部品1
100
AcDbLine
 10
7587.368918339933
 20
8429.780685617398
 30
0.0
 11
7615.368918339934
 21
8429.780685617398
 31
0.0
  0
LINE
  5
158BB
330
747D
100
AcDbEntity
  8
部品1
100
AcDbLine
 10
7587.368918339933
 20
9009.780685617398
 30
0.0
 11
7615.368918339934
 21
9009.780685617398
 31
0.0
  0
LINE
  5
158BC
330
747D
100
AcDbEntity
  8
破線
 48
10.0
100
AcDbLine
 10
7535.368983264601
 20
9005.280685617346
 30
0.0
 11
7535.368966500832
 21
8782.280686628624
 31
0.0
  0
DIMENSION
  5
158BD
330
747D
100
AcDbEntity
  8
寸法
100
AcDbDimension
  2
*D17
 10
7615.368918339934
 20
9700.58890524238
 30
0.0
 11
7923.854199714172
 21
9700.58890524238
 31
0.0
 70
   160
 71
     5
 42
55.0
  3
INABA_S40G
100
AcDbAlignedDimension
 13
7560.368918339932
 23
9484.780685617398
 33
0.0
 14
7615.368918339934
 24
9484.780685617398
 34
0.0
100
AcDbRotatedDimension
1001
ACAD
1000
DSTYLE
1002
{
1002
}
  0
LINE
  5
158BE
330
747D
100
AcDbEntity
  8
部品1
100
AcDbLine
 10
7587.368918339933
 20
9429.780685617398
 30
0.0
 11
7615.368918339934
 21
9429.780685617398
 31
0.0
  0
LINE
  5
158BF
330
747D
100
AcDbEntity
  8
部品1
 48
50.0
100
AcDbLine
 10
7585.868911662256
 20
9455.280685617346
 30
0.0
 11
7587.368918339933
 21
9456.780685617397
 31
0.0
  0
LINE
  5
158C0
330
747D
100
AcDbEntity
  8
部品1
100
AcDbLine
 10
7560.368918339932
 20
9484.780685617412
 30
0.0
 11
7560.368918339932
 21
9456.780685617411
 31
0.0
  0
LINE
  5
158C1
330
747D
100
AcDbEntity
  8
部品1
100
AcDbLine
 10
7560.368918339932
 20
9484.780685617398
 30
0.0
 11
7560.368918339932
 21
9456.780685617397
 31
0.0
  0
LINE
  5
15B6B
330
747D
100
AcDbEntity
  8
細線
 48
50.0
100
AcDbLine
 10
5324.368918339925
 20
7980.780685617438
 30
0.0
 11
5324.368918339925
 21
7954.78068561739
 31
0.0
  0
LINE
  5
15B6C
330
747D
100
AcDbEntity
  8
細線
 48
50.0
100
AcDbLine
 10
5737.368918339925
 20
7980.780685617641
 30
0.0
 11
5737.368918339925
 21
7954.780685617605
 31
0.0
  0
LINE
  5
15B6D
330
747D
100
AcDbEntity
  8
細線
 48
50.0
100
AcDbLine
 10
5550.368918339926
 20
7980.780685617427
 30
0.0
 11
5550.368918339926
 21
7954.78068561739
 31
0.0
  0
LINE
  5
15B6E
330
747D
100
AcDbEntity
  8
細線
 48
50.0
100
AcDbLine
 10
5510.368918339925
 20
7980.780685617427
 30
0.0
 11
5510.368918339925
 21
7954.78068561739
 31
0.0
  0
LINE
  5
15B6F
330
747D
100
AcDbEntity
  8
細線
 48
50.0
100
AcDbLine
 10
5777.368918339925
 20
7980.780685617641
 30
0.0
 11
5777.368918339925
 21
7954.780685617605
 31
0.0
  0
LINE
  5
15B70
330
747D
100
AcDbEntity
  8
細線
 48
50.0
100
AcDbLine
 10
6370.368918339925
 20
7980.780685617427
 30
0.0
 11
6370.368918339925
 21
7954.78068561739
 31
0.0
  0
LINE
  5
15B71
330
747D
100
AcDbEntity
  8
細線
 48
50.0
100
AcDbLine
 10
6144.368918339925
 20
7980.780685617438
 30
0.0
 11
6144.368918339925
 21
7954.78068561739
 31
0.0
  0
LINE
  5
15B72
330
747D
100
AcDbEntity
  8
細線
 48
50.0
100
AcDbLine
 10
6330.368918339925
 20
7980.780685617427
 30
0.0
 11
6330.368918339925
 21
7954.78068561739
 31
0.0
  0
LINE
  5
15B73
330
747D
100
AcDbEntity
  8
細線
 48
50.0
100
AcDbLine
 10
6597.368918339926
 20
7980.780685617641
 30
0.0
 11
6597.368918339926
 21
7954.780685617605
 31
0.0
  0
LINE
  5
15B74
330
747D
100
AcDbEntity
  8
細線
 48
50.0
100
AcDbLine
 10
6557.368918339925
 20
7980.780685617641
 30
0.0
 11
6557.368918339925
 21
7954.780685617605
 31
0.0
  0
LINE
  5
15B75
330
747D
100
AcDbEntity
  8
細線
 48
50.0
100
AcDbLine
 10
6964.368918339926
 20
7980.780685617438
 30
0.0
 11
6964.368918339926
 21
7954.78068561739
 31
0.0
  0
LINE
  5
15B76
330
747D
100
AcDbEntity
  8
細線
 48
50.0
100
AcDbLine
 10
7377.368918339925
 20
7980.780685617641
 30
0.0
 11
7377.368918339925
 21
7954.780685617605
 31
0.0
  0
LINE
  5
15B77
330
747D
100
AcDbEntity
  8
細線
 48
50.0
100
AcDbLine
 10
7417.368918339926
 20
7980.780685617641
 30
0.0
 11
7417.368918339926
 21
7954.780685617605
 31
0.0
  0
LINE
  5
15B78
330
747D
100
AcDbEntity
  8
細線
 48
50.0
100
AcDbLine
 10
7190.368918339925
 20
7980.780685617427
 30
0.0
 11
7190.368918339925
 21
7954.78068561739
 31
0.0
  0
LINE
  5
15B79
330
747D
100
AcDbEntity
  8
細線
 48
50.0
100
AcDbLine
 10
7150.368918339926
 20
7980.780685617427
 30
0.0
 11
7150.368918339926
 21
7954.78068561739
 31
0.0
  0
LINE
  5
15B7A
330
747D
100
AcDbEntity
  8
細線
 48
50.0
100
AcDbLine
 10
5595.368918339897
 20
9463.280685617247
 30
0.0
 11
5535.368918339896
 21
9463.280685617245
 31
0.0
  0
LINE
  5
15B7B
330
747D
100
AcDbEntity
  8
細線
 48
50.0
100
AcDbLine
 10
5595.368918339897
 20
9463.280685617247
 30
0.0
 11
5595.368918339897
 21
9484.780685617252
 31
0.0
  0
LINE
  5
15B7C
330
747D
100
AcDbEntity
  8
細線
 48
50.0
100
AcDbLine
 10
5535.368918339896
 20
9463.280685617247
 30
0.0
 11
5535.368918339896
 21
9484.780685617245
 31
0.0
  0
LINE
  5
15B7D
330
747D
100
AcDbEntity
  8
細線
 48
50.0
100
AcDbLine
 10
6415.368918339897
 20
9463.280685617357
 30
0.0
 11
6355.368918339896
 21
9463.280685617354
 31
0.0
  0
LINE
  5
15B7E
330
747D
100
AcDbEntity
  8
細線
 48
50.0
100
AcDbLine
 10
6355.368918339896
 20
9463.280685617357
 30
0.0
 11
6355.368918339896
 21
9484.780685617353
 31
0.0
  0
LINE
  5
15B7F
330
747D
100
AcDbEntity
  8
細線
 48
50.0
100
AcDbLine
 10
6415.368918339897
 20
9463.280685617357
 30
0.0
 11
6415.368918339897
 21
9484.780685617362
 31
0.0
  0
LINE
  5
15B80
330
747D
100
AcDbEntity
  8
細線
 48
50.0
100
AcDbLine
 10
7235.368911662198
 20
9463.280685617506
 30
0.0
 11
7175.368911662197
 21
9463.280685617503
 31
0.0
  0
LINE
  5
15B81
330
747D
100
AcDbEntity
  8
細線
 48
50.0
100
AcDbLine
 10
7175.368911662197
 20
9463.280685617506
 30
0.0
 11
7175.368911662197
 21
9484.780685617502
 31
0.0
  0
LINE
  5
15B82
330
747D
100
AcDbEntity
  8
細線
 48
50.0
100
AcDbLine
 10
7235.368911662198
 20
9463.280685617506
 30
0.0
 11
7235.368911662198
 21
9484.78068561751
 31
0.0
  0
DIMENSION
  5
15C46
330
747D
100
AcDbEntity
  8
寸法
 48
50.0
100
AcDbDimension
  2
*D18
 10
6715.368918339925
 20
7514.957017822219
 30
0.0
 11
6372.868918339928
 21
7514.957017822219
 31
0.0
 70
   160
 71
     5
 42
684.9999999999964
  3
INABA_S40G
100
AcDbAlignedDimension
 13
6030.368918339929
 23
7954.780685617295
 33
0.0
 14
6715.368918339925
 24
7954.78068561726
 34
0.0
100
AcDbRotatedDimension
  0
DIMENSION
  5
15C5E
330
747D
100
AcDbEntity
  8
寸法
 48
50.0
100
AcDbDimension
  2
*D19
 10
5895.368918339926
 20
7514.957017822219
 30
0.0
 11
5552.868918339927
 21
7514.957017822219
 31
0.0
 70
   160
 71
     5
 42
684.9999999999964
  3
INABA_S40G
100
AcDbAlignedDimension
 13
5210.36891833993
 23
7954.780685617295
 33
0.0
 14
5895.368918339926
 24
7954.78068561726
 34
0.0
100
AcDbRotatedDimension
  0
DIMENSION
  5
15C9A
330
747D
100
AcDbEntity
  8
寸法
100
AcDbDimension
  2
*D20
 10
6711.730558317225
 20
8803.233575374367
 30
0.0
 11
6384.215980458131
 21
8803.233575374367
 31
0.0
 70
   160
 71
     5
 42
761.0000000000109
  3
INABA_S40G
100
AcDbAlignedDimension
 13
6004.868918339863
 23
9005.280685617346
 33
0.0
 14
6765.868918339875
 24
9005.280685617346
 34
0.0
100
AcDbRotatedDimension
1001
ACAD
1000
DSTYLE
1002
{
1002
}
  0
DIMENSION
  5
15CA7
330
747D
100
AcDbEntity
  8
寸法
100
AcDbDimension
  2
*D21
 10
5891.730558317226
 20
8803.233575374367
 30
0.0
 11
5564.215980458132
 21
8803.233575374367
 31
0.0
 70
   160
 71
     5
 42
761.0000000000109
  3
INABA_S40G
100
AcDbAlignedDimension
 13
5184.868918339864
 23
9005.280685617346
 33
0.0
 14
5945.868918339875
 24
9005.280685617346
 34
0.0
100
AcDbRotatedDimension
1001
ACAD
1000
DSTYLE
1002
{
1002
}
  0
LINE
  5
16075
330
747D
100
AcDbEntity
  8
細線
 48
50.0
100
AcDbLine
 10
10542.24083090031
 20
5007.992047402758
 30
0.0
 11
10542.24083090031
 21
3217.992047402759
 31
0.0
  0
LINE
  5
16076
330
747D
100
AcDbEntity
  8
細線
 48
50.0
100
AcDbLine
 10
10557.2408309003
 20
5007.992047402758
 30
0.0
 11
10557.2408309003
 21
3217.992047402759
 31
0.0
  0
LINE
  5
16077
330
747D
100
AcDbEntity
  8
細線
 48
50.0
100
AcDbLine
 10
10687.24083090031
 20
5007.992047402758
 30
0.0
 11
10687.24083090031
 21
3217.992047402759
 31
0.0
  0
LINE
  5
16078
330
747D
100
AcDbEntity
  8
細線
 48
50.0
100
AcDbLine
 10
10702.24083090031
 20
5007.992047402758
 30
0.0
 11
10702.24083090031
 21
3217.992047402759
 31
0.0
  0
LINE
  5
16079
330
747D
100
AcDbEntity
  8
細線
 48
50.0
100
AcDbLine
 10
10832.24083090031
 20
5007.992047402758
 30
0.0
 11
10832.24083090031
 21
3217.992047402759
 31
0.0
  0
LINE
  5
1607A
330
747D
100
AcDbEntity
  8
細線
 48
50.0
100
AcDbLine
 10
10847.24083090031
 20
5007.992047402758
 30
0.0
 11
10847.24083090031
 21
3217.992047402759
 31
0.0
  0
TEXT
  5
1607B
330
747D
100
AcDbEntity
  8
文字
 62
     7
 48
50.0
100
AcDbText
 10
15022.63965474517
 20
10930.01374588372
 30
0.0
 40
100.0
  1
F12            1.2
  7
STYLE1
100
AcDbText
  0
TEXT
  5
1607C
330
747D
100
AcDbEntity
  8
文字
 62
     7
 48
50.0
100
AcDbText
 10
13583.11819016569
 20
10930.01374588373
 30
0.0
 40
100.0
  1
根太
  7
STYLE1
100
AcDbText
  0
TEXT
  5
1607D
330
747D
100
AcDbEntity
  8
文字
 62
     7
 48
50.0
100
AcDbText
 10
13248.77747366447
 20
8720.013745883735
 30
0.0
 40
100.0
  1
15
  7
STYLE1
100
AcDbText
  0
LINE
  5
1607E
330
747D
100
AcDbEntity
  8
仕様書枠
 48
50.0
100
AcDbLine
 10
16307.2
 20
10899.6
 30
0.0
 11
13127.2
 21
10899.6
 31
0.0
  0
MTEXT
  5
160AC
330
747D
100
AcDbEntity
  8
寸法
 62
     7
 48
50.0
100
AcDbMText
 10
6400.648722628201
 20
9074.894433154623
 30
0.0
 40
96.0
 41
0.0
 71
     5
 72
     1
  1
棚 2段
  7
STYLE1
 73
     1
 44
1.0
1001
ACAD
1000
MTEXTBEGIN
1070
    73
1070
     1
1070
    44
1040
1.0
1070
    74
1070
     0
1000
MTEXTEND
  0
MTEXT
  5
160AD
330
747D
100
AcDbEntity
  8
寸法
 62
     7
 48
50.0
100
AcDbMText
 10
5580.648729305896
 20
9074.894433154636
 30
0.0
 40
96.0
 41
0.0
 71
     5
 72
     1
  1
棚 2段
  7
STYLE1
 73
     1
 44
1.0
1001
ACAD
1000
MTEXTBEGIN
1070
    73
1070
     1
1070
    44
1040
1.0
1070
    74
1070
     0
1000
MTEXTEND
  0
TEXT
  5
160CA
330
747D
100
AcDbEntity
  8
文字
 62
     7
 48
50.0
100
AcDbText
 10
13583.1181901657
 20
9740.013745883729
 30
0.0
 40
100.0
  1
梁中央
 41
0.9
  7
STYLE1
100
AcDbText
  0
TEXT
  5
160CB
330
747D
100
AcDbEntity
  8
文字
 62
     7
 48
50.0
100
AcDbText
 10
15022.63965474517
 20
9740.013745883729
 30
0.0
 40
100.0
  1
F12,Y10       0.7+1.0
  7
STYLE1
100
AcDbText
  0
TEXT
  5
160CC
330
747D
100
AcDbEntity
  8
文字
 62
     7
 48
50.0
100
AcDbText
 10
13583.11819016567
 20
8720.013745883729
 30
0.0
 40
100.0
  1
アンカープレート
  7
STYLE1
100
AcDbText
  0
TEXT
  5
160CD
330
747D
100
AcDbEntity
  8
文字
 62
     7
 48
50.0
100
AcDbText
 10
15022.63965474513
 20
8720.013745883722
 30
0.0
 40
100.0
  1
F12            2.3
  7
STYLE1
100
AcDbText
  0
LINE
  5
160CE
330
747D
100
AcDbEntity
  8
仕様書枠
 48
50.0
100
AcDbLine
 10
16307.2
 20
9879.600000000001
 30
0.0
 11
13127.2
 21
9879.600000000001
 31
0.0
  0
LINE
  5
160CF
330
747D
100
AcDbEntity
  8
仕様書枠
 48
50.0
100
AcDbLine
 10
16307.19999999999
 20
11409.6
 30
0.0
 11
13127.2
 21
11409.6
 31
0.0
  0
LINE
  5
160D0
330
747D
100
AcDbEntity
  8
仕様書枠
 48
50.0
100
AcDbLine
 10
16307.19999999999
 20
8349.600000000007
 30
0.0
 11
16307.2
 21
11409.6
 31
0.0
  0
LINE
  5
160D1
330
747D
100
AcDbEntity
  8
仕様書枠
 48
50.0
100
AcDbLine
 10
14785.2
 20
11409.59999999999
 30
0.0
 11
14785.19999999999
 21
8689.6
 31
0.0
  0
LINE
  5
160D2
330
747D
100
AcDbEntity
  8
仕様書枠
 48
50.0
100
AcDbLine
 10
13490.2
 20
11409.6
 30
0.0
 11
13490.2
 21
8689.600000000003
 31
0.0
  0
LINE
  5
160D3
330
747D
100
AcDbEntity
  8
仕様書枠
 48
50.0
100
AcDbLine
 10
16307.19999999999
 20
11239.6
 30
0.0
 11
13127.2
 21
11239.6
 31
0.0
  0
LINE
  5
160D4
330
747D
100
AcDbEntity
  8
仕様書枠
 48
50.0
100
AcDbLine
 10
16307.2
 20
10729.6
 30
0.0
 11
13127.2
 21
10729.6
 31
0.0
  0
LINE
  5
160D5
330
747D
100
AcDbEntity
  8
仕様書枠
 48
50.0
100
AcDbLine
 10
16307.19999999999
 20
11069.6
 30
0.0
 11
13127.2
 21
11069.6
 31
0.0
  0
LINE
  5
160D6
330
747D
100
AcDbEntity
  8
仕様書枠
 48
50.0
100
AcDbLine
 10
16307.19999999999
 20
10389.6
 30
0.0
 11
13127.2
 21
10389.6
 31
0.0
  0
LINE
  5
160D7
330
747D
100
AcDbEntity
  8
仕様書枠
 48
50.0
100
AcDbLine
 10
16307.19999999999
 20
10219.6
 30
0.0
 11
13127.2
 21
10219.6
 31
0.0
  0
LINE
  5
160D8
330
747D
100
AcDbEntity
  8
仕様書枠
 48
50.0
100
AcDbLine
 10
16307.19999999999
 20
10559.6
 30
0.0
 11
13127.2
 21
10559.6
 31
0.0
  0
TEXT
  5
160D9
330
747D
100
AcDbEntity
  8
文字
 62
     7
 48
50.0
100
AcDbText
 10
13197.42518560407
 20
11270.01374588373
 30
0.0
 40
100.0
  1
品番
  7
STYLE1
100
AcDbText
  0
TEXT
  5
160DA
330
747D
100
AcDbEntity
  8
文字
 62
     7
 48
50.0
100
AcDbText
 10
13271.19032244792
 20
11100.01374588373
 30
0.0
 40
100.0
  1
1
  7
STYLE1
100
AcDbText
  0
TEXT
  5
160DB
330
747D
100
AcDbEntity
  8
文字
 62
     7
 48
50.0
100
AcDbText
 10
13271.19032244792
 20
10930.01374588373
 30
0.0
 40
100.0
  1
2
  7
STYLE1
100
AcDbText
  0
TEXT
  5
160DC
330
747D
100
AcDbEntity
  8
文字
 62
     7
 48
50.0
100
AcDbText
 10
13271.19032244793
 20
10590.01374588373
 30
0.0
 40
100.0
  1
4
  7
STYLE1
100
AcDbText
  0
TEXT
  5
160DD
330
747D
100
AcDbEntity
  8
文字
 62
     7
 48
50.0
100
AcDbText
 10
13271.19032244793
 20
10760.01374588373
 30
0.0
 40
100.0
  1
3
  7
STYLE1
100
AcDbText
  0
TEXT
  5
160DE
330
747D
100
AcDbEntity
  8
文字
 62
     7
 48
50.0
100
AcDbText
 10
13732.03840939434
 20
11270.01374588373
 30
0.0
 40
100.0
  1
部　　品　　名
  7
STYLE1
100
AcDbText
  0
TEXT
  5
160DF
330
747D
100
AcDbEntity
  8
文字
 62
     7
 48
50.0
100
AcDbText
 10
14859.79774614482
 20
11270.01374588373
 30
0.0
 40
100.0
  1
材料（材質）　　単位mm
  7
STYLE1
100
AcDbText
  0
TEXT
  5
160E0
330
747D
100
AcDbEntity
  8
文字
 62
     7
 48
50.0
100
AcDbText
 10
13583.11819016569
 20
11100.01374588373
 30
0.0
 40
100.0
  1
土台枠
  7
STYLE1
100
AcDbText
  0
TEXT
  5
160E1
330
747D
100
AcDbEntity
  8
文字
 62
     7
 48
50.0
100
AcDbText
 10
13583.1181901657
 20
10760.01374588373
 30
0.0
 40
100.0
  1
柱
  7
STYLE1
100
AcDbText
  0
TEXT
  5
160E2
330
747D
100
AcDbEntity
  8
文字
 62
     7
 48
50.0
100
AcDbText
 10
13583.1181901657
 20
10420.01374588373
 30
0.0
 40
100.0
  1
鴨居
  7
STYLE1
100
AcDbText
  0
TEXT
  5
160E3
330
747D
100
AcDbEntity
  8
文字
 62
     7
 48
50.0
100
AcDbText
 10
13583.1181901657
 20
10250.01374588373
 30
0.0
 40
100.0
  1
桁後
  7
STYLE1
100
AcDbText
  0
TEXT
  5
160E4
330
747D
100
AcDbEntity
  8
文字
 62
     7
 48
50.0
100
AcDbText
 10
13271.19032244793
 20
10420.01374588373
 30
0.0
 40
100.0
  1
5
  7
STYLE1
100
AcDbText
  0
TEXT
  5
160E5
330
747D
100
AcDbEntity
  8
文字
 62
     7
 48
50.0
100
AcDbText
 10
13583.1181901657
 20
10080.01374588373
 30
0.0
 40
100.0
  1
妻板左右
  7
STYLE1
100
AcDbText
  0
TEXT
  5
160E6
330
747D
100
AcDbEntity
  8
文字
 62
     7
 48
50.0
100
AcDbText
 10
13248.77747366447
 20
9570.013745883729
 30
0.0
 40
100.0
  1
10
  7
STYLE1
100
AcDbText
  0
TEXT
  5
160E7
330
747D
100
AcDbEntity
  8
文字
 62
     7
 48
50.0
100
AcDbText
 10
13583.11819016568
 20
9230.013745883729
 30
0.0
 40
100.0
  1
壁パネル
  7
STYLE1
100
AcDbText
  0
TEXT
  5
160E8
330
747D
100
AcDbEntity
  8
文字
 62
     7
 48
50.0
100
AcDbText
 10
13583.11819016569
 20
9400.013745883729
 30
0.0
 40
100.0
  1
屋根パネル
  7
STYLE1
100
AcDbText
  0
TEXT
  5
160E9
330
747D
100
AcDbEntity
  8
文字
 62
     7
 48
50.0
100
AcDbText
 10
13583.1181901657
 20
9910.01374588373
 30
0.0
 40
100.0
  1
鼻隠シ前後
  7
STYLE1
100
AcDbText
  0
TEXT
  5
160EA
330
747D
100
AcDbEntity
  8
文字
 62
     7
 48
50.0
100
AcDbText
 10
13271.19032244792
 20
9910.01374588373
 30
0.0
 40
100.0
  1
8
  7
STYLE1
100
AcDbText
  0
TEXT
  5
160EB
330
747D
100
AcDbEntity
  8
文字
 62
     7
 48
50.0
100
AcDbText
 10
13271.19032244792
 20
9740.013745883729
 30
0.0
 40
100.0
  1
9
  7
STYLE1
100
AcDbText
  0
TEXT
  5
160EC
330
747D
100
AcDbEntity
  8
文字
 62
     7
 48
50.0
100
AcDbText
 10
13271.19032244792
 20
10080.01374588373
 30
0.0
 40
100.0
  1
7
  7
STYLE1
100
AcDbText
  0
TEXT
  5
160ED
330
747D
100
AcDbEntity
  8
文字
 62
     7
 48
50.0
100
AcDbText
 10
13271.19032244793
 20
10250.01374588373
 30
0.0
 40
100.0
  1
6
  7
STYLE1
100
AcDbText
  0
LINE
  5
160EE
330
747D
100
AcDbEntity
  8
仕様書枠
 48
50.0
100
AcDbLine
 10
16307.19999999998
 20
9369.600000000001
 30
0.0
 11
13127.19999999999
 21
9369.600000000001
 31
0.0
  0
LINE
  5
160EF
330
747D
100
AcDbEntity
  8
仕様書枠
 48
50.0
100
AcDbLine
 10
16307.19999999998
 20
9029.6
 30
0.0
 11
13127.19999999999
 21
9029.6
 31
0.0
  0
LINE
  5
160F0
330
747D
100
AcDbEntity
  8
仕様書枠
 48
50.0
100
AcDbLine
 10
16307.19999999998
 20
9199.600000000001
 30
0.0
 11
13127.19999999999
 21
9199.600000000001
 31
0.0
  0
LINE
  5
160F1
330
747D
100
AcDbEntity
  8
仕様書枠
 48
50.0
100
AcDbLine
 10
16307.2
 20
10049.6
 30
0.0
 11
13127.2
 21
10049.6
 31
0.0
  0
LINE
  5
160F2
330
747D
100
AcDbEntity
  8
仕様書枠
 48
50.0
100
AcDbLine
 10
16307.2
 20
9709.600000000001
 30
0.0
 11
13127.2
 21
9709.600000000001
 31
0.0
  0
TEXT
  5
160F3
330
747D
100
AcDbEntity
  8
文字
 62
     7
 48
50.0
100
AcDbText
 10
13248.77747366447
 20
9400.013745883729
 30
0.0
 40
100.0
  1
11
  7
STYLE1
100
AcDbText
  0
LINE
  5
160F4
330
747D
100
AcDbEntity
  8
仕様書枠
 48
50.0
100
AcDbLine
 10
16307.19999999998
 20
8859.6
 30
0.0
 11
13127.19999999999
 21
8859.6
 31
0.0
  0
LINE
  5
160F5
330
747D
100
AcDbEntity
  8
仕様書枠
 48
50.0
100
AcDbLine
 10
16307.19999999998
 20
8519.600000000002
 30
0.0
 11
13127.19999999999
 21
8519.600000000004
 31
0.0
  0
TEXT
  5
160F6
330
747D
100
AcDbEntity
  8
文字
 62
     7
 48
50.0
100
AcDbText
 10
13248.77747366447
 20
9060.013745883729
 30
0.0
 40
100.0
  1
13
  7
STYLE1
100
AcDbText
  0
TEXT
  5
160F7
330
747D
100
AcDbEntity
  8
文字
 62
     7
 48
50.0
100
AcDbText
 10
13248.77747366447
 20
9230.013745883729
 30
0.0
 40
100.0
  1
12
  7
STYLE1
100
AcDbText
  0
TEXT
  5
160F8
330
747D
100
AcDbEntity
  8
文字
 62
     7
 48
50.0
100
AcDbText
 10
15022.63965474517
 20
11100.01374588372
 30
0.0
 40
100.0
  1
F12            1.2
  7
STYLE1
100
AcDbText
  0
TEXT
  5
160F9
330
747D
100
AcDbEntity
  8
文字
 62
     7
 48
50.0
100
AcDbText
 10
15022.63965474518
 20
10760.01374588372
 30
0.0
 40
100.0
  1
F12            1.0
  7
STYLE1
100
AcDbText
  0
TEXT
  5
160FA
330
747D
100
AcDbEntity
  8
文字
 62
     7
 48
50.0
100
AcDbText
 10
15022.63965474517
 20
10420.01374588372
 30
0.0
 40
100.0
  1
Y10            1.0
  7
STYLE1
100
AcDbText
  0
TEXT
  5
160FB
330
747D
100
AcDbEntity
  8
文字
 62
     7
 48
50.0
100
AcDbText
 10
15022.63965474517
 20
10250.01374588372
 30
0.0
 40
100.0
  1
Y10            1.0
  7
STYLE1
100
AcDbText
  0
TEXT
  5
160FC
330
747D
100
AcDbEntity
  8
文字
 62
     7
 48
50.0
100
AcDbText
 10
15022.63965474517
 20
10080.01374588372
 30
0.0
 40
100.0
  1
Y10            0.7
  7
STYLE1
100
AcDbText
  0
TEXT
  5
160FD
330
747D
100
AcDbEntity
  8
文字
 62
     7
 48
50.0
100
AcDbText
 10
15022.63965474517
 20
9910.013745883725
 30
0.0
 40
100.0
  1
Y10            0.7
  7
STYLE1
100
AcDbText
  0
TEXT
  5
160FE
330
747D
100
AcDbEntity
  8
文字
 62
     7
 48
50.0
100
AcDbText
 10
15022.63965474516
 20
9400.013745883725
 30
0.0
 40
100.0
  1
Y10            0.5
  7
STYLE1
100
AcDbText
  0
TEXT
  5
160FF
330
747D
100
AcDbEntity
  8
文字
 62
     7
 48
50.0
100
AcDbText
 10
15022.63965474515
 20
9230.013745883725
 30
0.0
 40
100.0
  1
F12            0.6
  7
STYLE1
100
AcDbText
  0
LINE
  5
16100
330
747D
100
AcDbEntity
  8
仕様書枠
 48
50.0
100
AcDbLine
 10
16307.19999999998
 20
8349.600000000004
 30
0.0
 11
13127.19999999999
 21
8349.600000000004
 31
0.0
  0
TEXT
  5
16101
330
747D
100
AcDbEntity
  8
文字
 62
     7
 48
50.0
100
AcDbText
 10
13229.83081656553
 20
8550.013745883729
 30
0.0
 40
100.0
  1
F12→溶融亜鉛めっき鋼板(JIS G 3302)
  7
STYLE1
100
AcDbText
  0
TEXT
  5
16102
330
747D
100
AcDbEntity
  8
文字
 62
     7
 48
50.0
100
AcDbText
 10
13229.83081656553
 20
8380.013745883728
 30
0.0
 40
100.0
  1
Y10→溶融亜鉛-5％アルミニウム合金めっき鋼板(JIS G 3317)
 41
0.9
  7
STYLE1
100
AcDbText
  0
LINE
  5
16103
330
747D
100
AcDbEntity
  8
仕様書枠
 48
50.0
100
AcDbLine
 10
13127.2
 20
11409.6
 30
0.0
 11
13127.19999999999
 21
8349.600000000004
 31
0.0
  0
LINE
  5
16104
330
747D
100
AcDbEntity
  8
仕様書枠
 48
50.0
100
AcDbLine
 10
16307.19999999998
 20
8689.6
 30
0.0
 11
13127.19999999999
 21
8689.600000000003
 31
0.0
  0
TEXT
  5
16105
330
747D
100
AcDbEntity
  8
文字
 62
     7
 48
50.0
100
AcDbText
 10
13583.1181901657
 20
10590.01374588373
 30
0.0
 40
100.0
  1
床パネル
 41
0.9
  7
STYLE1
100
AcDbText
  0
TEXT
  5
16106
330
747D
100
AcDbEntity
  8
文字
 62
     7
 48
50.0
100
AcDbText
 10
15022.63965474517
 20
10590.01374588372
 30
0.0
 40
100.0
  1
F12            1.0
  7
STYLE1
100
AcDbText
  0
TEXT
  5
16107
330
747D
100
AcDbEntity
  8
文字
 62
     7
 48
50.0
100
AcDbText
 10
15022.63965474515
 20
9060.013745883725
 30
0.0
 40
100.0
  1
F12            0.8
  7
STYLE1
100
AcDbText
  0
TEXT
  5
16108
330
747D
100
AcDbEntity
  8
文字
 62
     7
 48
50.0
100
AcDbText
 10
13583.11819016568
 20
9060.013745883729
 30
0.0
 40
100.0
  1
扉
  7
STYLE1
100
AcDbText
  0
TEXT
  5
16109
330
747D
100
AcDbEntity
  8
文字
 62
     7
 48
50.0
100
AcDbText
 10
15022.63965474515
 20
8890.013745883729
 30
0.0
 40
100.0
  1
F12            0.6
  7
STYLE1
100
AcDbText
  0
TEXT
  5
1610A
330
747D
100
AcDbEntity
  8
文字
 62
     7
 48
50.0
100
AcDbText
 10
13583.11819016568
 20
8890.013745883733
 30
0.0
 40
100.0
  1
棚板
  7
STYLE1
100
AcDbText
  0
TEXT
  5
1610B
330
747D
100
AcDbEntity
  8
文字
 62
     7
 48
50.0
100
AcDbText
 10
14271.39351435261
 20
483.8967129911416
 30
0.0
 40
160.0
  1
ＮＸＮ－１２ＤＬ－３
  7
STYLE2
100
AcDbText
  0
LINE
  5
161AC
330
747D
100
AcDbEntity
  8
仕様書枠
 48
50.0
100
AcDbLine
 10
16307.2
 20
9539.6
 30
0.0
 11
13127.2
 21
9539.6
 31
0.0
  0
TEXT
  5
161AD
330
747D
100
AcDbEntity
  8
文字
 62
     7
 48
50.0
100
AcDbText
 10
13248.77747366447
 20
8890.013745883731
 30
0.0
 40
100.0
  1
14
  7
STYLE1
100
AcDbText
  0
TEXT
  5
161AE
330
747D
100
AcDbEntity
  8
文字
 62
     7
 48
50.0
100
AcDbText
 10
15022.63965474518
 20
9570.013745883725
 30
0.0
 40
100.0
  1
F12            1.0
  7
STYLE1
100
AcDbText
  0
TEXT
  5
161AF
330
747D
100
AcDbEntity
  8
文字
 62
     7
 48
50.0
100
AcDbText
 10
13583.1181901657
 20
9570.013745883729
 30
0.0
 40
100.0
  1
母屋中
  7
STYLE1
100
AcDbText
  0
LINE
  5
161B0
330
747D
100
AcDbEntity
  8
部品1
100
AcDbLine
 10
9995.238460855532
 20
5007.99204740276
 30
0.0
 11
11532.24083090031
 21
5007.992047402758
 31
0.0
  0
LINE
  5
161B1
330
747D
100
AcDbEntity
  8
部品1
100
AcDbLine
 10
10002.24083090031
 20
3217.992047402759
 30
0.0
 11
11532.24083090031
 21
3217.992047402761
 31
0.0
  0
LINE
  5
161B2
330
747D
100
AcDbEntity
  8
部品1
100
AcDbLine
 10
10057.24083090031
 20
5007.992047402758
 30
0.0
 11
10057.24083090031
 21
3217.992047402759
 31
0.0
  0
LINE
  5
161B3
330
747D
100
AcDbEntity
  8
部品1
100
AcDbLine
 10
10002.24083090031
 20
5099.568941343201
 30
0.0
 11
10002.24083090031
 21
3067.992047402759
 31
0.0
  0
DIMENSION
  5
161B4
330
747D
100
AcDbEntity
  8
寸法
100
AcDbDimension
  2
*D22
 10
9097.96901925983
 20
5242.992047402764
 30
0.0
 11
9097.969019259828
 21
4143.199037822562
 31
0.0
 70
   160
 71
     5
 42
2075.000000000003
  3
INABA_S40G
100
AcDbAlignedDimension
 13
10002.24083090031
 23
3167.992047402761
 33
0.0
 14
9942.24083090031
 24
5242.992047402764
 34
0.0
 50
90.0
100
AcDbRotatedDimension
1001
ACAD
1000
DSTYLE
1002
{
1070
   174
1070
     0
1070
   272
1070
     1
1070
   288
1070
     0
1070
   341
1005
0
1002
}
  0
DIMENSION
  5
161B5
330
747D
100
AcDbEntity
  8
寸法
100
AcDbDimension
  2
*D23
 10
9400.277740208105
 20
3167.992047402761
 30
0.0
 11
9400.277740208105
 21
2861.944803308269
 31
0.0
 70
   160
 71
     5
 42
50.00000000000182
  3
INABA_S40G
100
AcDbAlignedDimension
 13
9995.238460855532
 23
3217.992047402763
 33
0.0
 14
9947.240830900307
 24
3167.992047402761
 34
0.0
 50
90.0
100
AcDbRotatedDimension
1001
ACAD
1000
DSTYLE
1002
{
1070
   174
1070
     0
1070
   272
1070
     1
1070
   288
1070
     0
1070
   341
1005
0
1002
}
  0
LINE
  5
161B6
330
747D
100
AcDbEntity
  8
部品1
100
AcDbLine
 10
10477.2408309003
 20
5007.992047402758
 30
0.0
 11
10477.2408309003
 21
3217.992047402759
 31
0.0
  0
LINE
  5
161B7
330
747D
100
AcDbEntity
  8
部品1
100
AcDbLine
 10
11532.24083090031
 20
5062.628628238011
 30
0.0
 11
11532.24083090031
 21
3067.992047402759
 31
0.0
  0
LINE
  5
161B8
330
747D
100
AcDbEntity
  8
部品1
100
AcDbLine
 10
11477.24083090031
 20
5007.992047402758
 30
0.0
 11
11477.24083090031
 21
3217.992047402759
 31
0.0
  0
DIMENSION
  5
161B9
330
747D
100
AcDbEntity
  8
寸法
100
AcDbDimension
  2
*D24
 10
12237.16798887243
 20
5187.992047402761
 30
0.0
 11
12137.15617784881
 21
4177.992047402762
 31
0.0
 70
    32
 71
     5
 42
2020.0
  3
INABA_S40G
100
AcDbAlignedDimension
 13
11532.24083090031
 23
3167.992047402761
 33
0.0
 14
11612.24083090031
 24
5187.992047402761
 34
0.0
 50
90.0
100
AcDbRotatedDimension
1001
ACAD
1000
DSTYLE
1002
{
1070
   174
1070
     0
1070
   272
1070
     1
1070
   288
1070
     0
1070
   341
1005
0
1002
}
  0
DIMENSION
  5
161BA
330
747D
100
AcDbEntity
  8
寸法
 48
50.0
100
AcDbDimension
  2
*D25
 10
10002.24083090031
 20
5641.649500982063
 30
0.0
 11
10812.05986379085
 21
5641.649500982063
 31
0.0
 70
   160
  1
柱外寸法<>
 71
     5
 42
1530.0
  3
INABA_S40G
100
AcDbAlignedDimension
 13
11532.24083090031
 23
5189.802727014412
 33
0.0
 14
10002.24083090031
 24
5238.993665525735
 34
0.0
100
AcDbRotatedDimension
1001
ACAD
1000
DSTYLE
1002
{
1070
   174
1070
     0
1070
   272
1070
     1
1070
   288
1070
     0
1070
   341
1005
0
1002
}
  0
DIMENSION
  5
161BB
330
747D
100
AcDbEntity
  8
寸法
 48
50.0
100
AcDbDimension
  2
*D26
 10
9942.24083090031
 20
5641.649500982063
 30
0.0
 11
9632.60303562472
 21
5641.649500982063
 31
0.0
 70
   160
 71
     5
 42
60.0
  3
INABA_S40G
100
AcDbAlignedDimension
 13
10002.24083090031
 23
5238.993665525735
 33
0.0
 14
9942.24083090031
 24
5242.992047402764
 34
0.0
100
AcDbRotatedDimension
1001
ACAD
1000
DSTYLE
1002
{
1070
   174
1070
     0
1070
   272
1070
     1
1070
   288
1070
     0
1070
   341
1005
0
1002
}
  0
DIMENSION
  5
161BC
330
747D
100
AcDbEntity
  8
寸法
 48
50.0
100
AcDbDimension
  2
*D27
 10
9942.24083090031
 20
5849.823822174027
 30
0.0
 11
10829.36566060213
 21
5849.823822174027
 31
0.0
 70
   160
 71
     5
 42
1670.0
  3
INABA_S40G
100
AcDbAlignedDimension
 13
11612.24083090031
 23
5187.992047402761
 33
0.0
 14
9942.24083090031
 24
5242.992047402764
 34
0.0
100
AcDbRotatedDimension
1001
ACAD
1000
DSTYLE
1002
{
1070
   174
1070
     0
1070
   272
1070
     1
1070
   288
1070
     0
1070
   341
1005
0
1002
}
  0
LINE
  5
161BD
330
747D
100
AcDbEntity
  8
部品1
100
AcDbLine
 10
10002.24083090031
 20
3167.992047402761
 30
0.0
 11
11532.24083090031
 21
3167.992047402759
 31
0.0
  0
TEXT
  5
161BE
330
747D
100
AcDbEntity
  8
部品1
100
AcDbText
 10
10404.95159920969
 20
2272.021937367518
 30
0.0
 40
135.0
  1
側面図
  7
STYLE2
100
AcDbText
  0
LWPOLYLINE
  5
161BF
330
747D
100
AcDbEntity
  8
部品1
100
AcDbPolyline
 90
        4
 70
     1
 43
0.0
 10
10315.50549778609
 20
2464.915466586043
 10
10315.50549778609
 20
2225.02314504051
 10
11078.97616401453
 20
2225.02314504051
 10
11078.97616401453
 20
2464.915466586043
  0
LINE
  5
161C0
330
747D
100
AcDbEntity
  8
細線
 48
50.0
100
AcDbLine
 10
10992.24083090031
 20
5007.992047402758
 30
0.0
 11
10992.24083090031
 21
3217.992047402759
 31
0.0
  0
LINE
  5
161C1
330
747D
100
AcDbEntity
  8
細線
 48
50.0
100
AcDbLine
 10
10977.24083090031
 20
5007.992047402758
 30
0.0
 11
10977.24083090031
 21
3217.992047402759
 31
0.0
  0
LINE
  5
161C2
330
747D
100
AcDbEntity
  8
細線
 48
50.0
100
AcDbLine
 10
10399.74083090031
 20
5007.992047402758
 30
0.0
 11
10399.74083090031
 21
3217.992047402759
 31
0.0
  0
LINE
  5
161C3
330
747D
100
AcDbEntity
  8
細線
 48
50.0
100
AcDbLine
 10
10414.74083090031
 20
5007.992047402758
 30
0.0
 11
10414.74083090031
 21
3217.992047402759
 31
0.0
  0
LINE
  5
161C4
330
747D
100
AcDbEntity
  8
細線
 48
50.0
100
AcDbLine
 10
10274.74083090031
 20
5007.992047402758
 30
0.0
 11
10274.74083090031
 21
3217.992047402759
 31
0.0
  0
LINE
  5
161C5
330
747D
100
AcDbEntity
  8
細線
 48
50.0
100
AcDbLine
 10
10259.74083090031
 20
5007.992047402758
 30
0.0
 11
10259.74083090031
 21
3217.992047402759
 31
0.0
  0
LINE
  5
161C6
330
747D
100
AcDbEntity
  8
細線
 48
50.0
100
AcDbLine
 10
10119.74083090031
 20
5007.992047402758
 30
0.0
 11
10119.74083090031
 21
3217.992047402759
 31
0.0
  0
LINE
  5
161C7
330
747D
100
AcDbEntity
  8
細線
 48
50.0
100
AcDbLine
 10
10134.74083090031
 20
5007.992047402758
 30
0.0
 11
10134.74083090031
 21
3217.992047402759
 31
0.0
  0
LINE
  5
161C8
330
747D
100
AcDbEntity
  8
部品1
100
AcDbLine
 10
9949.785817257271
 20
5241.709782737025
 30
0.0
 11
11604.85270776177
 21
5186.042888730324
 31
0.0
  0
LINE
  5
161C9
330
747D
100
AcDbEntity
  8
部品1
100
AcDbLine
 10
9957.583395502263
 20
5100.773072471725
 30
0.0
 11
11586.90453144015
 21
5061.154690855946
 31
0.0
  0
LINE
  5
161CA
330
747D
100
AcDbEntity
  8
細線
 48
50.0
100
AcDbLine
 10
9975.240830900311
 20
5240.391723778164
 30
0.0
 11
9969.951729344799
 21
5100.306091150809
 31
0.0
  0
LINE
  5
161CB
330
747D
100
AcDbEntity
  8
細線
 48
50.0
100
AcDbLine
 10
11579.24083090031
 20
5187.36907005648
 30
0.0
 11
11574.49314801231
 21
5061.623297565737
 31
0.0
  0
LINE
  5
161CC
330
747D
100
AcDbEntity
  8
部品1
 48
50.0
100
AcDbLine
 10
9942.425116813417
 20
5234.585593567452
 30
0.0
 11
9942.805376591229
 21
5214.65862912104
 31
0.0
  0
LINE
  5
161CD
330
747D
100
AcDbEntity
  8
部品1
 48
50.0
100
AcDbLine
 10
9945.874148697473
 20
5211.083347627567
 30
0.0
 11
9947.578050188838
 21
5121.792850920922
 31
0.0
  0
LINE
  5
161CE
330
747D
100
AcDbEntity
  8
細線
 48
50.0
100
AcDbLine
 10
9943.280254001123
 20
5214.009129244121
 30
0.0
 11
11608.91623874629
 21
5157.794968221718
 31
0.0
  0
LINE
  5
161CF
330
747D
100
AcDbEntity
  8
細線
 48
50.0
100
AcDbLine
 10
9948.040729238408
 20
5121.147617546258
 30
0.0
 11
11598.04439366904
 21
5080.748342190189
 31
0.0
  0
LINE
  5
161D0
330
747D
100
AcDbEntity
  8
部品1
 48
50.0
100
AcDbLine
 10
9950.646822295079
 20
5118.217569427448
 30
0.0
 11
9950.848774915513
 21
5107.634534034356
 31
0.0
  0
ARC
  5
161D1
330
747D
100
AcDbEntity
  8
部品1
 48
50.0
100
AcDbCircle
 10
9949.423842641754
 20
5234.71914797488
 30
0.0
 40
7.0
100
AcDbArc
 50
87.03587545282958
 51
181.0932240293156
  0
ARC
  5
161D2
330
747D
100
AcDbEntity
  8
部品1
 48
50.0
100
AcDbCircle
 10
9957.84750074385
 20
5107.768088441784
 30
0.0
 40
7.0
100
AcDbArc
 50
181.0932240293156
 51
267.8377559869492
  0
ARC
  5
161D3
330
747D
100
AcDbEntity
  8
部品1
100
AcDbCircle
 10
9947.647368368649
 20
5118.160331824265
 30
0.0
 40
3.0
100
AcDbArc
 50
1.093224029315636
 51
80.18775403148449
  0
ARC
  5
161D4
330
747D
100
AcDbEntity
  8
部品1
100
AcDbCircle
 10
9942.874694771042
 20
5211.026110024384
 30
0.0
 40
3.0
100
AcDbArc
 50
1.093224029315636
 51
80.18775403168987
  0
ARC
  5
161D5
330
747D
100
AcDbEntity
  8
部品1
100
AcDbCircle
 10
9943.505249174066
 20
5214.671984561783
 30
0.0
 40
0.7
100
AcDbArc
 50
181.0932240292114
 51
260.1877540314845
  0
ARC
  5
161D6
330
747D
100
AcDbEntity
  8
部品1
100
AcDbCircle
 10
9948.277922771673
 20
5121.806206361664
 30
0.0
 40
0.7
100
AcDbArc
 50
181.0932240292114
 51
260.1877540314845
  0
LINE
  5
161D7
330
747D
100
AcDbEntity
  8
部品1
 48
50.0
100
AcDbLine
 10
11611.45473371101
 20
5178.343243295404
 30
0.0
 11
11609.42411252004
 21
5158.398202037623
 31
0.0
  0
LINE
  5
161D8
330
747D
100
AcDbEntity
  8
部品1
 48
50.0
100
AcDbLine
 10
11606.07154603555
 20
5155.087567964714
 30
0.0
 11
11598.56476677072
 21
5081.354947219701
 31
0.0
  0
LINE
  5
161D9
330
747D
100
AcDbEntity
  8
部品1
 48
50.0
100
AcDbLine
 10
11595.21220028623
 20
5078.044313146789
 30
0.0
 11
11594.13263724649
 21
5067.440696153231
 31
0.0
  0
ARC
  5
161DA
330
747D
100
AcDbEntity
  8
部品1
 48
50.0
100
AcDbCircle
 10
11604.49073314625
 20
5179.052253968177
 30
0.0
 40
7.0
100
AcDbArc
 50
354.1866997665532
 51
87.03587545282958
  0
ARC
  5
161DB
330
747D
100
AcDbEntity
  8
部品1
 48
50.0
100
AcDbCircle
 10
11587.16863668174
 20
5068.149706826005
 30
0.0
 40
7.0
100
AcDbArc
 50
267.8377559869492
 51
354.1866997665532
  0
ARC
  5
161DC
330
747D
100
AcDbEntity
  8
部品1
100
AcDbCircle
 10
11598.19677195684
 20
5077.740451429887
 30
0.0
 40
3.0
100
AcDbArc
 50
95.09216976420788
 51
174.1866997665532
  0
ARC
  5
161DD
330
747D
100
AcDbEntity
  8
部品1
100
AcDbCircle
 10
11609.05611770617
 20
5154.78370624781
 30
0.0
 40
3.0
100
AcDbArc
 50
95.09216976420788
 51
174.1866997665532
  0
ARC
  5
161DE
330
747D
100
AcDbEntity
  8
部品1
100
AcDbCircle
 10
11608.72771246356
 20
5158.4691031049
 30
0.0
 40
0.7
100
AcDbArc
 50
275.0921697642079
 51
354.1866997665532
  0
ARC
  5
161DF
330
747D
100
AcDbEntity
  8
部品1
100
AcDbCircle
 10
11597.86836671424
 20
5081.425848286977
 30
0.0
 40
0.7
100
AcDbArc
 50
275.0921697642079
 51
354.1866997667606
  0
DIMENSION
  5
161E0
330
747D
100
AcDbEntity
  8
寸法
 48
50.0
100
AcDbDimension
  2
*D28
 10
11612.24083090031
 20
5641.649500982063
 30
0.0
 11
11818.2880749948
 21
5641.649500982063
 31
0.0
 70
   160
 71
     5
 42
80.0
  3
INABA_S40G
100
AcDbAlignedDimension
 13
11532.24083090031
 23
5189.802727014412
 33
0.0
 14
11612.24083090031
 24
5187.992047402761
 34
0.0
100
AcDbRotatedDimension
1001
ACAD
1000
DSTYLE
1002
{
1070
   174
1070
     0
1070
   272
1070
     1
1070
   288
1070
     0
1070
   341
1005
0
1002
}
  0
DIMENSION
  5
161E1
330
747D
100
AcDbEntity
  8
寸法
 48
50.0
100
AcDbDimension
  2
*D29
 10
9349.974579188931
 20
5264.814538299574
 30
0.0
 11
9358.652322840816
 21
5494.650777316463
 31
0.0
 70
   160
 71
     5
 42
141.0
  3
INABA_S40G
100
AcDbAlignedDimension
 13
9957.583395502263
 23
5100.773072471725
 33
0.0
 14
9962.903229654218
 24
5241.672679868608
 34
0.0
 50
87.83775598715743
100
AcDbRotatedDimension
1001
ACAD
1000
DSTYLE
1002
{
1070
   174
1070
     0
1070
   272
1070
     1
1070
   288
1070
     0
1070
   341
1005
0
1002
}
  0
LINE
  5
161E2
330
747D
100
AcDbEntity
  8
部品1
 48
50.0
100
AcDbLine
 10
10617.24083090031
 20
5373.860186504038
 30
0.0
 11
10917.24083090031
 21
5373.860186504038
 31
0.0
  0
LINE
  5
161E3
330
747D
100
AcDbEntity
  8
部品1
 48
50.0
100
AcDbLine
 10
10917.24083090031
 20
5373.860186504038
 30
0.0
 11
10917.24083090031
 21
5352.26018650404
 31
0.0
  0
TEXT
  5
161E4
330
747D
100
AcDbEntity
  8
部品1
 48
50.0
100
AcDbText
 10
10605.50866612403
 20
5409.744208656472
 30
0.0
 40
120.0
  1
1000
  7
STYLE1
100
AcDbText
  0
TEXT
  5
161E5
330
747D
100
AcDbEntity
  8
部品1
 48
50.0
100
AcDbText
 10
11094.33367818817
 20
5272.242950438189
 30
0.0
 40
120.0
  1
64
 50
90.0
  7
STYLE1
100
AcDbText
  0
LINE
  5
161E6
330
747D
100
AcDbEntity
  8
部品1
100
AcDbLine
 10
11057.24083090031
 20
5007.992047402758
 30
0.0
 11
11057.24083090031
 21
3217.992047402759
 31
0.0
  0
LINE
  5
161E7
330
747D
100
AcDbEntity
  8
細線
 48
50.0
100
AcDbLine
 10
11399.74083090031
 20
5007.992047402758
 30
0.0
 11
11399.74083090031
 21
3217.992047402759
 31
0.0
  0
LINE
  5
161E8
330
747D
100
AcDbEntity
  8
細線
 48
50.0
100
AcDbLine
 10
11414.74083090031
 20
5007.992047402758
 30
0.0
 11
11414.74083090031
 21
3217.992047402759
 31
0.0
  0
LINE
  5
161E9
330
747D
100
AcDbEntity
  8
細線
 48
50.0
100
AcDbLine
 10
11274.74083090031
 20
5007.992047402758
 30
0.0
 11
11274.74083090031
 21
3217.992047402759
 31
0.0
  0
LINE
  5
161EA
330
747D
100
AcDbEntity
  8
細線
 48
50.0
100
AcDbLine
 10
11259.74083090031
 20
5007.992047402758
 30
0.0
 11
11259.74083090031
 21
3217.992047402759
 31
0.0
  0
LINE
  5
161EB
330
747D
100
AcDbEntity
  8
細線
 48
50.0
100
AcDbLine
 10
11119.74083090031
 20
5007.992047402758
 30
0.0
 11
11119.74083090031
 21
3217.992047402759
 31
0.0
  0
LINE
  5
161EC
330
747D
100
AcDbEntity
  8
細線
 48
50.0
100
AcDbLine
 10
11134.74083090031
 20
5007.992047402758
 30
0.0
 11
11134.74083090031
 21
3217.992047402759
 31
0.0
  0
LINE
  5
161ED
330
747D
100
AcDbEntity
  8
部品1
 48
50.0
100
AcDbLine
 10
10617.24083090031
 20
5373.860186504038
 30
0.0
 11
10917.24083090031
 21
5352.26018650404
 31
0.0
  0
LINE
  5
161EE
330
747D
100
AcDbEntity
  8
部品1
 48
0.2
100
AcDbLine
 10
9995.238460855532
 20
5007.992047402758
 30
0.0
 11
9995.238460855532
 21
4997.24204740276
 31
0.0
  0
LINE
  5
161EF
330
747D
100
AcDbEntity
  8
部品1
 48
50.0
100
AcDbLine
 10
9995.238460855532
 20
4997.242047402759
 30
0.0
 11
10002.24083090031
 21
4997.242047402759
 31
0.0
  0
LINE
  5
161F0
330
747D
100
AcDbEntity
  8
部品1
 48
50.0
100
AcDbLine
 10
9995.238460855532
 20
3228.742047402763
 30
0.0
 11
10002.24083090031
 21
3228.742047402763
 31
0.0
  0
LINE
  5
161F1
330
747D
100
AcDbEntity
  8
部品1
 48
0.2
100
AcDbLine
 10
9995.238460855532
 20
3228.742047402763
 30
0.0
 11
9995.238460855532
 21
3217.992047402763
 31
0.0
  0
LINE
  5
161F2
330
747D
100
AcDbEntity
  8
部品1
 48
50.0
100
AcDbLine
 10
9995.238460855532
 20
3217.992047402763
 30
0.0
 11
10002.24083090031
 21
3217.992047402763
 31
0.0
  0
DIMENSION
  5
161F3
330
747D
100
AcDbEntity
  8
寸法
100
AcDbDimension
  2
*D30
 10
9400.277740208105
 20
3217.992047402763
 30
0.0
 11
9400.277740208105
 21
4123.027059279148
 31
0.0
 70
   160
 71
     5
 42
1789.999999999997
  3
INABA_S40G
100
AcDbAlignedDimension
 13
9995.238460855532
 23
5007.99204740276
 33
0.0
 14
9995.238460855532
 24
3217.992047402763
 34
0.0
 50
90.0
100
AcDbRotatedDimension
1001
ACAD
1000
DSTYLE
1002
{
1070
   288
1070
     1
1002
}
  0
MTEXT
  5
16671
330
747D
100
AcDbEntity
  8
寸法
 62
     7
 48
50.0
100
AcDbMText
 10
7220.648715950507
 20
9074.894433154579
 30
0.0
 40
96.0
 41
0.0
 71
     5
 72
     1
  1
棚 2段
  7
STYLE1
 73
     1
 44
1.0
1001
ACAD
1000
MTEXTBEGIN
1070
    73
1070
     1
1070
    44
1040
1.0
1070
    74
1070
     0
1000
MTEXTEND
  0
TEXT
  5
16902
330
747D
100
AcDbEntity
  8
部品1
100
AcDbText
 10
4263.474601148526
 20
3104.098951008661
 30
0.0
 40
125.0
  1
▽G.L
  7
STYLE2
100
AcDbText
  0
LINE
  5
16903
330
747D
100
AcDbEntity
  8
部品1
100
AcDbLine
 10
6752.368918339925
 20
5007.992047402758
 30
0.0
 11
6752.368918339925
 21
3210.992047402779
 31
0.0
  0
LINE
  5
16904
330
747D
100
AcDbEntity
  8
部品1
100
AcDbLine
 10
6750.368918339926
 20
5005.492047402759
 30
0.0
 11
6750.368918339927
 21
3214.492047402779
 31
0.0
  0
LINE
  5
16905
330
747D
100
AcDbEntity
  8
部品1
100
AcDbLine
 10
6020.368918339926
 20
5005.492047402757
 30
0.0
 11
6020.368918339926
 21
3214.492047402772
 31
0.0
  0
LINE
  5
16906
330
747D
100
AcDbEntity
  8
部品1
100
AcDbLine
 10
6018.368918339926
 20
5007.992047402758
 30
0.0
 11
6018.368918339926
 21
3210.992047402779
 31
0.0
  0
LINE
  5
16907
330
747D
100
AcDbEntity
  8
部品1
100
AcDbLine
 10
5200.368918339925
 20
5005.492047402761
 30
0.0
 11
5200.368918339925
 21
3214.492047402764
 31
0.0
  0
LINE
  5
16908
330
747D
100
AcDbEntity
  8
部品1
100
AcDbLine
 10
7572.368918339925
 20
5007.992047402758
 30
0.0
 11
7572.368918339925
 21
3210.992047402779
 31
0.0
  0
LINE
  5
16909
330
747D
100
AcDbEntity
  8
部品1
100
AcDbLine
 10
5155.368918339926
 20
5101.992047402762
 30
0.0
 11
5155.368918339926
 21
3067.992047402759
 31
0.0
  0
LINE
  5
1690A
330
747D
100
AcDbEntity
  8
部品1
100
AcDbLine
 10
7615.368918339925
 20
5101.99204740276
 30
0.0
 11
7615.368918339925
 21
3067.992047402759
 31
0.0
  0
LINE
  5
1690B
330
747D
100
AcDbEntity
  8
部品1
100
AcDbLine
 10
7570.368918339926
 20
5005.492047402759
 30
0.0
 11
7570.368918339927
 21
3214.492047402779
 31
0.0
  0
LINE
  5
1690C
330
747D
100
AcDbEntity
  8
部品1
100
AcDbLine
 10
6840.368918339925
 20
5005.492047402759
 30
0.0
 11
6840.368918339928
 21
3214.492047402772
 31
0.0
  0
LINE
  5
1690D
330
747D
100
AcDbEntity
  8
部品1
100
AcDbLine
 10
6838.368918339925
 20
5007.992047402758
 30
0.0
 11
6838.368918339925
 21
3210.992047402779
 31
0.0
  0
LINE
  5
1690E
330
747D
100
AcDbEntity
  8
部品1
100
AcDbLine
 10
5932.368918339926
 20
5007.992047402758
 30
0.0
 11
5932.368918339926
 21
3210.992047402779
 31
0.0
  0
LINE
  5
1690F
330
747D
100
AcDbEntity
  8
部品1
100
AcDbLine
 10
5930.368918339926
 20
5005.492047402759
 30
0.0
 11
5930.368918339928
 21
3214.49204740277
 31
0.0
  0
LINE
  5
16910
330
747D
100
AcDbEntity
  8
部品1
100
AcDbLine
 10
5198.368918339926
 20
5007.992047402758
 30
0.0
 11
5198.368918339926
 21
3210.992047402779
 31
0.0
  0
DIMENSION
  5
16911
330
747D
100
AcDbEntity
  8
寸法
100
AcDbDimension
  2
*D31
 10
4837.264390732323
 20
3229.492047402764
 30
0.0
 11
4837.264390732322
 21
4108.49204740276
 31
0.0
 70
   160
  1
有効開口部高サ<>
 71
     5
 42
1759.999999999994
  3
INABA_S40G
100
AcDbAlignedDimension
 13
5155.368918339926
 23
4989.492047402759
 33
0.0
 14
5155.368918339926
 24
3229.492047402763
 34
0.0
 50
90.0
100
AcDbRotatedDimension
1001
ACAD
1000
DSTYLE
1002
{
1070
   288
1070
     1
1002
}
  0
LINE
  5
16912
330
747D
100
AcDbEntity
  8
部品1
100
AcDbLine
 10
6020.368918339926
 20
3214.492047402772
 30
0.0
 11
6730.306470511244
 21
3214.492047402779
 31
0.0
  0
LINE
  5
16913
330
747D
100
AcDbEntity
  8
部品1
100
AcDbLine
 10
5155.368918339926
 20
3210.992047402763
 30
0.0
 11
7615.368918339925
 21
3210.992047402779
 31
0.0
  0
LINE
  5
16914
330
747D
100
AcDbEntity
  8
部品1
100
AcDbLine
 10
5155.368918339926
 20
3167.992047402759
 30
0.0
 11
7615.368918339925
 21
3167.992047402759
 31
0.0
  0
LINE
  5
16915
330
747D
100
AcDbEntity
  8
部品1
100
AcDbLine
 10
5200.368918339925
 20
3214.492047402764
 30
0.0
 11
5910.306470511244
 21
3214.49204740277
 31
0.0
  0
LINE
  5
16916
330
747D
100
AcDbEntity
  8
細線
 48
0.2
100
AcDbLine
 10
5930.306470511244
 20
3218.742047402777
 30
0.0
 11
5910.306470511244
 21
3218.742047402777
 31
0.0
  0
LINE
  5
16917
330
747D
100
AcDbEntity
  8
部品1
 48
0.2
100
AcDbLine
 10
5930.306470511244
 20
3221.242047402777
 30
0.0
 11
5910.306470511244
 21
3221.242047402777
 31
0.0
  0
ARC
  5
16918
330
747D
100
AcDbEntity
  8
細線
 48
0.2
100
AcDbCircle
 10
5927.306470511244
 20
3214.271537571529
 30
0.0
 40
1.0
100
AcDbArc
 50
286.6015495989848
 51
0.0
  0
LINE
  5
16919
330
747D
100
AcDbEntity
  8
細線
 48
0.2
100
AcDbLine
 10
5930.306470511244
 20
3214.242047402777
 30
0.0
 11
5910.306470511244
 21
3214.242047402777
 31
0.0
  0
LINE
  5
1691A
330
747D
100
AcDbEntity
  8
細線
 48
0.2
100
AcDbLine
 10
5930.306470511244
 20
3216.742047402777
 30
0.0
 11
5910.306470511244
 21
3216.742047402779
 31
0.0
  0
ARC
  5
1691B
330
747D
100
AcDbEntity
  8
細線
 48
0.2
100
AcDbCircle
 10
5917.306470511245
 20
3214.271537571529
 30
0.0
 40
1.0
100
AcDbArc
 50
180.0
 51
253.3984504010152
  0
ARC
  5
1691C
330
747D
100
AcDbEntity
  8
細線
 48
0.2
100
AcDbCircle
 10
5922.306470511244
 20
3231.042047402775
 30
0.0
 40
18.49999999999796
100
AcDbArc
 50
253.3984504010152
 51
286.6015495989848
  0
LINE
  5
1691D
330
747D
100
AcDbEntity
  8
細線
 48
0.2
100
AcDbLine
 10
5927.990461807752
 20
3213.542047402777
 30
0.0
 11
5916.622479214741
 21
3213.542047402777
 31
0.0
  0
LINE
  5
1691E
330
747D
100
AcDbEntity
  8
細線
 48
50.0
100
AcDbLine
 10
5910.306470511244
 20
3214.492047402779
 30
0.0
 11
5910.306470511244
 21
3214.242047402777
 31
0.0
  0
LINE
  5
1691F
330
747D
100
AcDbEntity
  8
部品1
100
AcDbLine
 10
5930.306470511244
 20
3214.492047402779
 30
0.0
 11
5930.368918339926
 21
3214.492047402779
 31
0.0
  0
LINE
  5
16920
330
747D
100
AcDbEntity
  8
部品1
100
AcDbLine
 10
5930.306470511244
 20
3214.49204740277
 30
0.0
 11
5930.368918339926
 21
3214.49204740277
 31
0.0
  0
LINE
  5
16921
330
747D
100
AcDbEntity
  8
細線
 48
0.1
100
AcDbLine
 10
5930.306470511244
 20
3214.242047402777
 30
0.0
 11
5930.306470511244
 21
3221.242047402777
 31
0.0
  0
LINE
  5
16922
330
747D
100
AcDbEntity
  8
細線
 48
50.0
100
AcDbLine
 10
5918.443713316941
 20
3216.742047402779
 30
0.0
 11
5918.443713316941
 21
3218.742047402777
 31
0.0
  0
LINE
  5
16923
330
747D
100
AcDbEntity
  8
細線
 48
50.0
100
AcDbLine
 10
5926.294123362906
 20
3216.742047402779
 30
0.0
 11
5926.294123362906
 21
3218.742047402777
 31
0.0
  0
LINE
  5
16924
330
747D
100
AcDbEntity
  8
部品1
 48
50.0
100
AcDbLine
 10
5910.306470511244
 20
3221.242047402777
 30
0.0
 11
5910.306470511244
 21
3214.492047402779
 31
0.0
  0
LINE
  5
16925
330
747D
100
AcDbEntity
  8
部品1
100
AcDbLine
 10
6840.368918339925
 20
3214.492047402772
 30
0.0
 11
7550.306470511245
 21
3214.492047402779
 31
0.0
  0
LINE
  5
16926
330
747D
100
AcDbEntity
  8
部品1
 48
0.2
100
AcDbLine
 10
6750.306470511245
 20
3221.242047402777
 30
0.0
 11
6730.306470511244
 21
3221.242047402777
 31
0.0
  0
LINE
  5
16927
330
747D
100
AcDbEntity
  8
細線
 48
0.2
100
AcDbLine
 10
6750.306470511245
 20
3218.742047402777
 30
0.0
 11
6730.306470511244
 21
3218.742047402777
 31
0.0
  0
LINE
  5
16928
330
747D
100
AcDbEntity
  8
部品1
100
AcDbLine
 10
6750.306470511245
 20
3214.492047402781
 30
0.0
 11
6750.368918339926
 21
3214.492047402781
 31
0.0
  0
LINE
  5
16929
330
747D
100
AcDbEntity
  8
部品1
100
AcDbLine
 10
6750.306470511245
 20
3214.492047402779
 30
0.0
 11
6750.368918339926
 21
3214.492047402779
 31
0.0
  0
LINE
  5
1692A
330
747D
100
AcDbEntity
  8
細線
 48
50.0
100
AcDbLine
 10
6730.306470511244
 20
3214.492047402779
 30
0.0
 11
6730.306470511244
 21
3214.242047402777
 31
0.0
  0
LINE
  5
1692B
330
747D
100
AcDbEntity
  8
細線
 48
0.2
100
AcDbLine
 10
6747.990461807752
 20
3213.542047402777
 30
0.0
 11
6736.622479214741
 21
3213.542047402777
 31
0.0
  0
ARC
  5
1692C
330
747D
100
AcDbEntity
  8
細線
 48
0.2
100
AcDbCircle
 10
6742.306470511245
 20
3231.042047402775
 30
0.0
 40
18.49999999999796
100
AcDbArc
 50
253.3984504010152
 51
286.6015495989848
  0
ARC
  5
1692D
330
747D
100
AcDbEntity
  8
細線
 48
0.2
100
AcDbCircle
 10
6737.306470511246
 20
3214.271537571529
 30
0.0
 40
1.0
100
AcDbArc
 50
180.0
 51
253.3984504010152
  0
LINE
  5
1692E
330
747D
100
AcDbEntity
  8
細線
 48
0.2
100
AcDbLine
 10
6750.306470511245
 20
3216.742047402777
 30
0.0
 11
6730.306470511244
 21
3216.742047402779
 31
0.0
  0
LINE
  5
1692F
330
747D
100
AcDbEntity
  8
細線
 48
0.2
100
AcDbLine
 10
6750.306470511245
 20
3214.242047402777
 30
0.0
 11
6730.306470511244
 21
3214.242047402777
 31
0.0
  0
ARC
  5
16930
330
747D
100
AcDbEntity
  8
細線
 48
0.2
100
AcDbCircle
 10
6747.306470511245
 20
3214.271537571529
 30
0.0
 40
1.0
100
AcDbArc
 50
286.6015495989848
 51
0.0
  0
LINE
  5
16931
330
747D
100
AcDbEntity
  8
部品1
100
AcDbLine
 10
6750.306470511245
 20
3214.492047402779
 30
0.0
 11
6750.368918339926
 21
3214.492047402779
 31
0.0
  0
LINE
  5
16932
330
747D
100
AcDbEntity
  8
部品1
 48
50.0
100
AcDbLine
 10
6730.306470511244
 20
3221.242047402777
 30
0.0
 11
6730.306470511244
 21
3214.492047402779
 31
0.0
  0
LINE
  5
16933
330
747D
100
AcDbEntity
  8
細線
 48
50.0
100
AcDbLine
 10
6746.294123362907
 20
3216.742047402779
 30
0.0
 11
6746.294123362907
 21
3218.742047402777
 31
0.0
  0
LINE
  5
16934
330
747D
100
AcDbEntity
  8
細線
 48
50.0
100
AcDbLine
 10
6738.443713316941
 20
3216.742047402779
 30
0.0
 11
6738.443713316941
 21
3218.742047402777
 31
0.0
  0
LINE
  5
16935
330
747D
100
AcDbEntity
  8
細線
 48
0.1
100
AcDbLine
 10
6750.306470511245
 20
3214.242047402777
 30
0.0
 11
6750.306470511245
 21
3221.242047402777
 31
0.0
  0
LINE
  5
16936
330
747D
100
AcDbEntity
  8
部品1
 48
0.2
100
AcDbLine
 10
7570.306470511245
 20
3221.242047402777
 30
0.0
 11
7550.306470511245
 21
3221.242047402777
 31
0.0
  0
LINE
  5
16937
330
747D
100
AcDbEntity
  8
細線
 48
0.2
100
AcDbLine
 10
7570.306470511245
 20
3218.742047402777
 30
0.0
 11
7550.306470511245
 21
3218.742047402777
 31
0.0
  0
LINE
  5
16938
330
747D
100
AcDbEntity
  8
部品1
100
AcDbLine
 10
7570.306470511245
 20
3214.492047402781
 30
0.0
 11
7570.368918339926
 21
3214.492047402781
 31
0.0
  0
LINE
  5
16939
330
747D
100
AcDbEntity
  8
部品1
100
AcDbLine
 10
7570.306470511245
 20
3214.492047402779
 30
0.0
 11
7570.368918339926
 21
3214.492047402779
 31
0.0
  0
LINE
  5
1693A
330
747D
100
AcDbEntity
  8
細線
 48
50.0
100
AcDbLine
 10
7550.306470511245
 20
3214.492047402779
 30
0.0
 11
7550.306470511245
 21
3214.242047402777
 31
0.0
  0
LINE
  5
1693B
330
747D
100
AcDbEntity
  8
細線
 48
0.2
100
AcDbLine
 10
7567.990461807752
 20
3213.542047402777
 30
0.0
 11
7556.622479214741
 21
3213.542047402777
 31
0.0
  0
ARC
  5
1693C
330
747D
100
AcDbEntity
  8
細線
 48
0.2
100
AcDbCircle
 10
7562.306470511245
 20
3231.042047402775
 30
0.0
 40
18.49999999999796
100
AcDbArc
 50
253.3984504010152
 51
286.6015495989848
  0
ARC
  5
1693D
330
747D
100
AcDbEntity
  8
細線
 48
0.2
100
AcDbCircle
 10
7557.306470511244
 20
3214.271537571529
 30
0.0
 40
1.0
100
AcDbArc
 50
180.0
 51
253.3984504010152
  0
LINE
  5
1693E
330
747D
100
AcDbEntity
  8
細線
 48
0.2
100
AcDbLine
 10
7570.306470511245
 20
3216.742047402777
 30
0.0
 11
7550.306470511245
 21
3216.742047402779
 31
0.0
  0
LINE
  5
1693F
330
747D
100
AcDbEntity
  8
細線
 48
0.2
100
AcDbLine
 10
7570.306470511245
 20
3214.242047402777
 30
0.0
 11
7550.306470511245
 21
3214.242047402777
 31
0.0
  0
ARC
  5
16940
330
747D
100
AcDbEntity
  8
細線
 48
0.2
100
AcDbCircle
 10
7567.306470511245
 20
3214.271537571529
 30
0.0
 40
1.0
100
AcDbArc
 50
286.6015495989848
 51
0.0
  0
LINE
  5
16941
330
747D
100
AcDbEntity
  8
部品1
100
AcDbLine
 10
7570.306470511245
 20
3214.492047402779
 30
0.0
 11
7570.368918339926
 21
3214.492047402779
 31
0.0
  0
LINE
  5
16942
330
747D
100
AcDbEntity
  8
部品1
 48
50.0
100
AcDbLine
 10
7550.306470511245
 20
3221.242047402777
 30
0.0
 11
7550.306470511245
 21
3214.492047402779
 31
0.0
  0
LINE
  5
16943
330
747D
100
AcDbEntity
  8
細線
 48
50.0
100
AcDbLine
 10
7566.294123362907
 20
3216.742047402779
 30
0.0
 11
7566.294123362907
 21
3218.742047402777
 31
0.0
  0
LINE
  5
16944
330
747D
100
AcDbEntity
  8
細線
 48
50.0
100
AcDbLine
 10
7558.443713316941
 20
3216.742047402779
 30
0.0
 11
7558.443713316941
 21
3218.742047402777
 31
0.0
  0
LINE
  5
16945
330
747D
100
AcDbEntity
  8
細線
 48
0.1
100
AcDbLine
 10
7570.306470511245
 20
3214.242047402777
 30
0.0
 11
7570.306470511245
 21
3221.242047402777
 31
0.0
  0
ARC
  5
16946
330
747D
100
AcDbEntity
  8
細線
100
AcDbCircle
 10
5256.368918339926
 20
4153.99204740276
 30
0.0
 40
6.0
100
AcDbArc
 50
0.0
 51
90.0
  0
LINE
  5
16947
330
747D
100
AcDbEntity
  8
細線
100
AcDbLine
 10
5261.368918339925
 20
4168.49204740276
 30
0.0
 11
5222.202299870682
 21
4168.49204740276
 31
0.0
  0
LINE
  5
16948
330
747D
100
AcDbEntity
  8
細線
100
AcDbLine
 10
5235.863342249759
 20
4153.99204740276
 30
0.0
 11
5234.368918339925
 21
4153.99204740276
 31
0.0
  0
ARC
  5
16949
330
747D
100
AcDbEntity
  8
細線
100
AcDbCircle
 10
5235.863342249759
 20
4150.99204740276
 30
0.0
 40
3.0
100
AcDbArc
 50
8.099550838235547
 51
90.0
  0
LINE
  5
1694A
330
747D
100
AcDbEntity
  8
細線
100
AcDbLine
 10
5246.576457518671
 20
4156.99204740276
 30
0.0
 11
5234.368918339925
 21
4156.99204740276
 31
0.0
  0
ARC
  5
1694B
330
747D
100
AcDbEntity
  8
細線
100
AcDbCircle
 10
5225.749874704401
 20
4153.99204740276
 30
0.0
 40
6.0
100
AcDbArc
 50
90.0
 51
171.2120626773417
  0
LINE
  5
1694C
330
747D
100
AcDbEntity
  8
細線
100
AcDbLine
 10
5234.368918339925
 20
4153.991539504197
 30
0.0
 11
5221.60559112396
 21
4153.991539504197
 31
0.0
  0
ARC
  5
1694D
330
747D
100
AcDbEntity
  8
細線
100
AcDbCircle
 10
5222.202299870682
 20
4162.99204740276
 30
0.0
 40
5.5
100
AcDbArc
 50
90.0
 51
169.5785490272547
  0
ARC
  5
1694E
330
747D
100
AcDbEntity
  8
細線
100
AcDbCircle
 10
5246.576457518671
 20
4150.99204740276
 30
0.0
 40
6.0
100
AcDbArc
 50
0.0
 51
90.0
  0
LINE
  5
1694F
330
747D
100
AcDbEntity
  8
細線
100
AcDbLine
 10
5256.368918339926
 20
4159.99204740276
 30
0.0
 11
5225.749874704401
 21
4159.99204740276
 31
0.0
  0
ARC
  5
16950
330
747D
100
AcDbEntity
  8
細線
100
AcDbCircle
 10
5261.368918339925
 20
4162.99204740276
 30
0.0
 40
5.5
100
AcDbArc
 50
0.0
 51
90.0
  0
ARC
  5
16951
330
747D
100
AcDbEntity
  8
細線
100
AcDbCircle
 10
5256.368918339926
 20
4065.992047402761
 30
0.0
 40
6.0
100
AcDbArc
 50
270.0
 51
0.0
  0
LINE
  5
16952
330
747D
100
AcDbEntity
  8
細線
100
AcDbLine
 10
5222.202299870682
 20
4051.49204740276
 30
0.0
 11
5261.368918339925
 21
4051.49204740276
 31
0.0
  0
LINE
  5
16953
330
747D
100
AcDbEntity
  8
細線
100
AcDbLine
 10
5234.368918339925
 20
4065.992047402761
 30
0.0
 11
5235.863342249761
 21
4065.992047402761
 31
0.0
  0
ARC
  5
16954
330
747D
100
AcDbEntity
  8
細線
100
AcDbCircle
 10
5235.863342249761
 20
4068.99204740276
 30
0.0
 40
3.0
100
AcDbArc
 50
270.0
 51
351.9004491617129
  0
LINE
  5
16955
330
747D
100
AcDbEntity
  8
細線
100
AcDbLine
 10
5234.368918339925
 20
4062.992047402761
 30
0.0
 11
5246.576457518671
 21
4062.992047402761
 31
0.0
  0
ARC
  5
16956
330
747D
100
AcDbEntity
  8
細線
100
AcDbCircle
 10
5225.749874704401
 20
4065.992047402761
 30
0.0
 40
6.0
100
AcDbArc
 50
188.7879373226583
 51
270.0
  0
ARC
  5
16957
330
747D
100
AcDbEntity
  8
細線
100
AcDbCircle
 10
5222.202299870682
 20
4056.99204740276
 30
0.0
 40
5.5
100
AcDbArc
 50
190.4214509727453
 51
270.0
  0
LINE
  5
16958
330
747D
100
AcDbEntity
  8
細線
100
AcDbLine
 10
5234.368918339925
 20
4065.992555301321
 30
0.0
 11
5220.890213841103
 21
4065.992555301321
 31
0.0
  0
ARC
  5
16959
330
747D
100
AcDbEntity
  8
細線
100
AcDbCircle
 10
5246.576457518671
 20
4068.99204740276
 30
0.0
 40
6.0
100
AcDbArc
 50
270.0
 51
0.0
  0
LINE
  5
1695A
330
747D
100
AcDbEntity
  8
細線
100
AcDbLine
 10
5225.749874704401
 20
4059.992047402761
 30
0.0
 11
5256.368918339926
 21
4059.992047402761
 31
0.0
  0
ARC
  5
1695B
330
747D
100
AcDbEntity
  8
細線
100
AcDbCircle
 10
5261.368918339925
 20
4056.99204740276
 30
0.0
 40
5.5
100
AcDbArc
 50
270.0
 51
0.0
  0
LINE
  5
1695C
330
747D
100
AcDbEntity
  8
細線
100
AcDbLine
 10
5252.576457518671
 20
4068.99204740276
 30
0.0
 11
5252.576457518671
 21
4150.99204740276
 31
0.0
  0
LINE
  5
1695D
330
747D
100
AcDbEntity
  8
細線
100
AcDbLine
 10
5234.368918339925
 20
4159.99204740276
 30
0.0
 11
5234.368918339925
 21
4059.992047402761
 31
0.0
  0
ARC
  5
1695E
330
747D
100
AcDbEntity
  8
細線
100
AcDbCircle
 10
5510.368918339925
 20
4109.99204740276
 30
0.0
 40
298.5
100
AcDbArc
 50
169.5785490272547
 51
190.4214509727453
  0
ARC
  5
1695F
330
747D
100
AcDbEntity
  8
細線
100
AcDbCircle
 10
5510.368918339925
 20
4109.99204740276
 30
0.0
 40
294.0
100
AcDbArc
 50
171.2120626773417
 51
188.7879373226583
  0
ARC
  5
16960
330
747D
100
AcDbEntity
  8
細線
100
AcDbCircle
 10
4947.766136432001
 20
4109.99204740276
 30
0.0
 40
294.0
100
AcDbArc
 50
351.9004491617645
 51
8.099550838235547
  0
LINE
  5
16961
330
747D
100
AcDbEntity
  8
細線
100
AcDbLine
 10
5262.368918339926
 20
4065.992047402761
 30
0.0
 11
5262.368918339926
 21
4153.99204740276
 31
0.0
  0
LINE
  5
16962
330
747D
100
AcDbEntity
  8
細線
100
AcDbLine
 10
5266.868918339926
 20
4056.99204740276
 30
0.0
 11
5266.868918339926
 21
4162.99204740276
 31
0.0
  0
LINE
  5
16963
330
747D
100
AcDbEntity
  8
部品1
100
AcDbLine
 10
5262.368918339926
 20
4169.99204740276
 30
0.0
 11
5221.370648448909
 21
4169.99204740276
 31
0.0
  0
ARC
  5
16964
330
747D
100
AcDbEntity
  8
部品1
100
AcDbCircle
 10
5221.370648448909
 20
4163.99204740276
 30
0.0
 40
6.0
100
AcDbArc
 50
90.0
 51
169.4161974034797
  0
ARC
  5
16965
330
747D
100
AcDbEntity
  8
部品1
100
AcDbCircle
 10
5262.368918339926
 20
4163.99204740276
 30
0.0
 40
6.0
100
AcDbArc
 50
0.0
 51
90.0
  0
ARC
  5
16966
330
747D
100
AcDbEntity
  8
部品1
100
AcDbCircle
 10
5221.370648448909
 20
4055.99204740276
 30
0.0
 40
6.0
100
AcDbArc
 50
190.5838025965202
 51
270.0
  0
ARC
  5
16967
330
747D
100
AcDbEntity
  8
部品1
100
AcDbCircle
 10
5262.368918339926
 20
4055.99204740276
 30
0.0
 40
6.0
100
AcDbArc
 50
270.0
 51
0.0
  0
LINE
  5
16968
330
747D
100
AcDbEntity
  8
部品1
100
AcDbLine
 10
5221.370648448909
 20
4049.99204740276
 30
0.0
 11
5262.368918339926
 21
4049.99204740276
 31
0.0
  0
ARC
  5
16969
330
747D
100
AcDbEntity
  8
部品1
100
AcDbCircle
 10
5510.368918339925
 20
4109.99204740276
 30
0.0
 40
300.0
100
AcDbArc
 50
169.4161974034797
 51
190.5838025965202
  0
LINE
  5
1696A
330
747D
100
AcDbEntity
  8
部品1
100
AcDbLine
 10
5268.368918339926
 20
4055.99204740276
 30
0.0
 11
5268.368918339926
 21
4163.99204740276
 31
0.0
  0
CIRCLE
  5
1696B
330
747D
100
AcDbEntity
  8
細線
 48
20.0
100
AcDbCircle
 10
5241.869783394417
 20
4210.49204740276
 30
0.0
 40
20.0
  0
CIRCLE
  5
1696C
330
747D
100
AcDbEntity
  8
細線
 48
20.0
100
AcDbCircle
 10
5241.869783394417
 20
4210.49204740276
 30
0.0
 40
10.0
  0
LINE
  5
1696D
330
747D
100
AcDbEntity
  8
部品1
100
AcDbLine
 10
6020.368918339926
 20
5005.492047402757
 30
0.0
 11
6730.306470511244
 21
5005.492047402759
 31
0.0
  0
LINE
  5
1696E
330
747D
100
AcDbEntity
  8
部品1
100
AcDbLine
 10
5155.368918339926
 20
5007.992047402758
 30
0.0
 11
7615.368918339925
 21
5007.992047402758
 31
0.0
  0
LINE
  5
1696F
330
747D
100
AcDbEntity
  8
部品1
100
AcDbLine
 10
5200.368918339925
 20
5005.492047402761
 30
0.0
 11
5910.306470511244
 21
5005.492047402761
 31
0.0
  0
LINE
  5
16970
330
747D
100
AcDbEntity
  8
細線
 48
0.2
100
AcDbLine
 10
5927.990461807752
 20
5006.442047402761
 30
0.0
 11
5916.622479214741
 21
5006.442047402761
 31
0.0
  0
ARC
  5
16971
330
747D
100
AcDbEntity
  8
細線
 48
0.2
100
AcDbCircle
 10
5922.306470511244
 20
4988.942047402763
 30
0.0
 40
18.49999999999796
100
AcDbArc
 50
73.39845040101522
 51
106.6015495989848
  0
ARC
  5
16972
330
747D
100
AcDbEntity
  8
細線
 48
0.2
100
AcDbCircle
 10
5927.306470511244
 20
5005.712557234009
 30
0.0
 40
1.0
100
AcDbArc
 50
0.0
 51
73.39845040101522
  0
ARC
  5
16973
330
747D
100
AcDbEntity
  8
細線
 48
0.2
100
AcDbCircle
 10
5917.306470511245
 20
5005.712557234009
 30
0.0
 40
1.0
100
AcDbArc
 50
106.6015495989848
 51
180.0
  0
LINE
  5
16974
330
747D
100
AcDbEntity
  8
細線
 48
0.2
100
AcDbLine
 10
5930.306470511244
 20
5003.242047402761
 30
0.0
 11
5910.306470511244
 21
5003.242047402761
 31
0.0
  0
LINE
  5
16975
330
747D
100
AcDbEntity
  8
細線
 48
0.2
100
AcDbLine
 10
5930.306470511244
 20
5005.74204740276
 30
0.0
 11
5910.306470511244
 21
5005.74204740276
 31
0.0
  0
LINE
  5
16976
330
747D
100
AcDbEntity
  8
部品1
100
AcDbLine
 10
5930.306470511244
 20
5005.492047402761
 30
0.0
 11
5930.368918339926
 21
5005.492047402759
 31
0.0
  0
LINE
  5
16977
330
747D
100
AcDbEntity
  8
細線
 48
50.0
100
AcDbLine
 10
5910.306470511244
 20
5005.492047402761
 30
0.0
 11
5910.306470511244
 21
5005.74204740276
 31
0.0
  0
LINE
  5
16978
330
747D
100
AcDbEntity
  8
部品1
 48
0.2
100
AcDbLine
 10
5930.306470511244
 20
4998.74204740276
 30
0.0
 11
5910.306470511244
 21
4998.74204740276
 31
0.0
  0
LINE
  5
16979
330
747D
100
AcDbEntity
  8
細線
 48
0.2
100
AcDbLine
 10
5930.306470511244
 20
5001.242047402761
 30
0.0
 11
5910.306470511244
 21
5001.242047402761
 31
0.0
  0
LINE
  5
1697A
330
747D
100
AcDbEntity
  8
細線
 48
50.0
100
AcDbLine
 10
5926.294123362906
 20
5003.242047402761
 30
0.0
 11
5926.294123362906
 21
5001.242047402761
 31
0.0
  0
LINE
  5
1697B
330
747D
100
AcDbEntity
  8
細線
 48
50.0
100
AcDbLine
 10
5918.443713316941
 20
5003.242047402761
 30
0.0
 11
5918.443713316941
 21
5001.242047402761
 31
0.0
  0
LINE
  5
1697C
330
747D
100
AcDbEntity
  8
細線
 48
0.1
100
AcDbLine
 10
5930.306470511244
 20
5005.74204740276
 30
0.0
 11
5930.306470511244
 21
4998.74204740276
 31
0.0
  0
LINE
  5
1697D
330
747D
100
AcDbEntity
  8
部品1
 48
50.0
100
AcDbLine
 10
5910.306470511244
 20
4998.74204740276
 30
0.0
 11
5910.306470511244
 21
5005.492047402761
 31
0.0
  0
LINE
  5
1697E
330
747D
100
AcDbEntity
  8
部品1
100
AcDbLine
 10
6840.368918339925
 20
5005.492047402759
 30
0.0
 11
7550.306470511245
 21
5005.492047402759
 31
0.0
  0
ARC
  5
1697F
330
747D
100
AcDbEntity
  8
細線
 48
0.2
100
AcDbCircle
 10
6747.306470511245
 20
5005.712557234009
 30
0.0
 40
1.0
100
AcDbArc
 50
0.0
 51
73.39845040101522
  0
LINE
  5
16980
330
747D
100
AcDbEntity
  8
細線
 48
0.2
100
AcDbLine
 10
6750.306470511245
 20
5005.74204740276
 30
0.0
 11
6730.306470511244
 21
5005.74204740276
 31
0.0
  0
LINE
  5
16981
330
747D
100
AcDbEntity
  8
細線
 48
0.2
100
AcDbLine
 10
6750.306470511245
 20
5003.242047402761
 30
0.0
 11
6730.306470511244
 21
5003.242047402761
 31
0.0
  0
ARC
  5
16982
330
747D
100
AcDbEntity
  8
細線
 48
0.2
100
AcDbCircle
 10
6737.306470511246
 20
5005.712557234009
 30
0.0
 40
1.0
100
AcDbArc
 50
106.6015495989848
 51
180.0
  0
ARC
  5
16983
330
747D
100
AcDbEntity
  8
細線
 48
0.2
100
AcDbCircle
 10
6742.306470511245
 20
4988.942047402763
 30
0.0
 40
18.49999999999796
100
AcDbArc
 50
73.39845040101522
 51
106.6015495989848
  0
LINE
  5
16984
330
747D
100
AcDbEntity
  8
細線
 48
0.2
100
AcDbLine
 10
6747.990461807752
 20
5006.442047402761
 30
0.0
 11
6736.622479214741
 21
5006.442047402761
 31
0.0
  0
LINE
  5
16985
330
747D
100
AcDbEntity
  8
細線
 48
50.0
100
AcDbLine
 10
6730.306470511244
 20
5005.492047402761
 30
0.0
 11
6730.306470511244
 21
5005.74204740276
 31
0.0
  0
LINE
  5
16986
330
747D
100
AcDbEntity
  8
部品1
100
AcDbLine
 10
6750.306470511245
 20
5005.492047402761
 30
0.0
 11
6750.368918339926
 21
5005.492047402759
 31
0.0
  0
LINE
  5
16987
330
747D
100
AcDbEntity
  8
部品1
100
AcDbLine
 10
6750.306470511245
 20
5005.492047402757
 30
0.0
 11
6750.368918339926
 21
5005.492047402759
 31
0.0
  0
LINE
  5
16988
330
747D
100
AcDbEntity
  8
細線
 48
0.2
100
AcDbLine
 10
6750.306470511245
 20
5001.242047402761
 30
0.0
 11
6730.306470511244
 21
5001.242047402761
 31
0.0
  0
LINE
  5
16989
330
747D
100
AcDbEntity
  8
部品1
 48
0.2
100
AcDbLine
 10
6750.306470511245
 20
4998.74204740276
 30
0.0
 11
6730.306470511244
 21
4998.74204740276
 31
0.0
  0
LINE
  5
1698A
330
747D
100
AcDbEntity
  8
細線
 48
0.1
100
AcDbLine
 10
6750.306470511245
 20
5005.74204740276
 30
0.0
 11
6750.306470511245
 21
4998.74204740276
 31
0.0
  0
LINE
  5
1698B
330
747D
100
AcDbEntity
  8
細線
 48
50.0
100
AcDbLine
 10
6738.443713316941
 20
5003.242047402761
 30
0.0
 11
6738.443713316941
 21
5001.242047402761
 31
0.0
  0
LINE
  5
1698C
330
747D
100
AcDbEntity
  8
細線
 48
50.0
100
AcDbLine
 10
6746.294123362907
 20
5003.242047402761
 30
0.0
 11
6746.294123362907
 21
5001.242047402761
 31
0.0
  0
LINE
  5
1698D
330
747D
100
AcDbEntity
  8
部品1
 48
50.0
100
AcDbLine
 10
6730.306470511244
 20
4998.74204740276
 30
0.0
 11
6730.306470511244
 21
5005.492047402761
 31
0.0
  0
ARC
  5
1698E
330
747D
100
AcDbEntity
  8
細線
 48
0.2
100
AcDbCircle
 10
7567.306470511245
 20
5005.712557234009
 30
0.0
 40
1.0
100
AcDbArc
 50
0.0
 51
73.39845040101522
  0
LINE
  5
1698F
330
747D
100
AcDbEntity
  8
細線
 48
0.2
100
AcDbLine
 10
7570.306470511245
 20
5005.74204740276
 30
0.0
 11
7550.306470511245
 21
5005.74204740276
 31
0.0
  0
LINE
  5
16990
330
747D
100
AcDbEntity
  8
細線
 48
0.2
100
AcDbLine
 10
7570.306470511245
 20
5003.242047402761
 30
0.0
 11
7550.306470511245
 21
5003.242047402761
 31
0.0
  0
ARC
  5
16991
330
747D
100
AcDbEntity
  8
細線
 48
0.2
100
AcDbCircle
 10
7557.306470511244
 20
5005.712557234009
 30
0.0
 40
1.0
100
AcDbArc
 50
106.6015495989848
 51
180.0
  0
ARC
  5
16992
330
747D
100
AcDbEntity
  8
細線
 48
0.2
100
AcDbCircle
 10
7562.306470511245
 20
4988.942047402763
 30
0.0
 40
18.49999999999796
100
AcDbArc
 50
73.39845040101522
 51
106.6015495989848
  0
LINE
  5
16993
330
747D
100
AcDbEntity
  8
細線
 48
0.2
100
AcDbLine
 10
7567.990461807752
 20
5006.442047402761
 30
0.0
 11
7556.622479214741
 21
5006.442047402761
 31
0.0
  0
LINE
  5
16994
330
747D
100
AcDbEntity
  8
細線
 48
50.0
100
AcDbLine
 10
7550.306470511245
 20
5005.492047402761
 30
0.0
 11
7550.306470511245
 21
5005.74204740276
 31
0.0
  0
LINE
  5
16995
330
747D
100
AcDbEntity
  8
部品1
100
AcDbLine
 10
7570.306470511245
 20
5005.492047402761
 30
0.0
 11
7570.368918339926
 21
5005.492047402759
 31
0.0
  0
LINE
  5
16996
330
747D
100
AcDbEntity
  8
部品1
100
AcDbLine
 10
7570.306470511245
 20
5005.492047402757
 30
0.0
 11
7570.368918339926
 21
5005.492047402759
 31
0.0
  0
LINE
  5
16997
330
747D
100
AcDbEntity
  8
細線
 48
0.2
100
AcDbLine
 10
7570.306470511245
 20
5001.242047402761
 30
0.0
 11
7550.306470511245
 21
5001.242047402761
 31
0.0
  0
LINE
  5
16998
330
747D
100
AcDbEntity
  8
部品1
 48
0.2
100
AcDbLine
 10
7570.306470511245
 20
4998.74204740276
 30
0.0
 11
7550.306470511245
 21
4998.74204740276
 31
0.0
  0
LINE
  5
16999
330
747D
100
AcDbEntity
  8
細線
 48
0.1
100
AcDbLine
 10
7570.306470511245
 20
5005.74204740276
 30
0.0
 11
7570.306470511245
 21
4998.74204740276
 31
0.0
  0
LINE
  5
1699A
330
747D
100
AcDbEntity
  8
細線
 48
50.0
100
AcDbLine
 10
7558.443713316941
 20
5003.242047402761
 30
0.0
 11
7558.443713316941
 21
5001.242047402761
 31
0.0
  0
LINE
  5
1699B
330
747D
100
AcDbEntity
  8
細線
 48
50.0
100
AcDbLine
 10
7566.294123362907
 20
5003.242047402761
 30
0.0
 11
7566.294123362907
 21
5001.242047402761
 31
0.0
  0
LINE
  5
1699C
330
747D
100
AcDbEntity
  8
部品1
 48
50.0
100
AcDbLine
 10
7550.306470511245
 20
4998.74204740276
 30
0.0
 11
7550.306470511245
 21
5005.492047402761
 31
0.0
  0
LINE
  5
1699D
330
747D
100
AcDbEntity
  8
細線
100
AcDbLine
 10
6072.576457518671
 20
4068.99204740276
 30
0.0
 11
6072.576457518671
 21
4150.99204740276
 31
0.0
  0
LINE
  5
1699E
330
747D
100
AcDbEntity
  8
細線
100
AcDbLine
 10
6054.368918339926
 20
4159.99204740276
 30
0.0
 11
6054.368918339926
 21
4059.992047402761
 31
0.0
  0
ARC
  5
1699F
330
747D
100
AcDbEntity
  8
細線
100
AcDbCircle
 10
6330.368918339925
 20
4109.99204740276
 30
0.0
 40
298.5
100
AcDbArc
 50
169.5785490272547
 51
190.4214509727453
  0
ARC
  5
169A0
330
747D
100
AcDbEntity
  8
細線
100
AcDbCircle
 10
6330.368918339925
 20
4109.99204740276
 30
0.0
 40
294.0
100
AcDbArc
 50
171.2120626773417
 51
188.7879373226583
  0
ARC
  5
169A1
330
747D
100
AcDbEntity
  8
細線
100
AcDbCircle
 10
5767.766136432001
 20
4109.99204740276
 30
0.0
 40
294.0
100
AcDbArc
 50
351.9004491617645
 51
8.099550838235547
  0
LINE
  5
169A2
330
747D
100
AcDbEntity
  8
細線
100
AcDbLine
 10
6082.368918339926
 20
4065.992047402761
 30
0.0
 11
6082.368918339926
 21
4153.99204740276
 31
0.0
  0
LINE
  5
169A3
330
747D
100
AcDbEntity
  8
細線
100
AcDbLine
 10
6086.868918339925
 20
4056.99204740276
 30
0.0
 11
6086.868918339925
 21
4162.99204740276
 31
0.0
  0
ARC
  5
169A4
330
747D
100
AcDbEntity
  8
部品1
100
AcDbCircle
 10
6330.368918339925
 20
4109.99204740276
 30
0.0
 40
300.0
100
AcDbArc
 50
169.4161974034797
 51
190.5838025965202
  0
LINE
  5
169A5
330
747D
100
AcDbEntity
  8
部品1
100
AcDbLine
 10
6088.368918339925
 20
4055.99204740276
 30
0.0
 11
6088.368918339925
 21
4163.99204740276
 31
0.0
  0
ARC
  5
169A6
330
747D
100
AcDbEntity
  8
細線
100
AcDbCircle
 10
6076.368918339926
 20
4065.992047402761
 30
0.0
 40
6.0
100
AcDbArc
 50
270.0
 51
0.0
  0
LINE
  5
169A7
330
747D
100
AcDbEntity
  8
細線
100
AcDbLine
 10
6042.20229987068
 20
4051.49204740276
 30
0.0
 11
6081.368918339926
 21
4051.49204740276
 31
0.0
  0
LINE
  5
169A8
330
747D
100
AcDbEntity
  8
細線
100
AcDbLine
 10
6054.368918339926
 20
4065.992047402761
 30
0.0
 11
6055.863342249761
 21
4065.992047402761
 31
0.0
  0
ARC
  5
169A9
330
747D
100
AcDbEntity
  8
細線
100
AcDbCircle
 10
6055.863342249761
 20
4068.99204740276
 30
0.0
 40
3.0
100
AcDbArc
 50
270.0
 51
351.9004491617129
  0
LINE
  5
169AA
330
747D
100
AcDbEntity
  8
細線
100
AcDbLine
 10
6054.368918339926
 20
4062.992047402761
 30
0.0
 11
6066.576457518671
 21
4062.992047402761
 31
0.0
  0
ARC
  5
169AB
330
747D
100
AcDbEntity
  8
細線
100
AcDbCircle
 10
6045.749874704402
 20
4065.992047402761
 30
0.0
 40
6.0
100
AcDbArc
 50
188.7879373226583
 51
270.0
  0
ARC
  5
169AC
330
747D
100
AcDbEntity
  8
細線
100
AcDbCircle
 10
6042.20229987068
 20
4056.99204740276
 30
0.0
 40
5.5
100
AcDbArc
 50
190.4214509727453
 51
270.0
  0
LINE
  5
169AD
330
747D
100
AcDbEntity
  8
細線
100
AcDbLine
 10
6054.368918339926
 20
4065.992555301323
 30
0.0
 11
6040.890213841103
 21
4065.992555301323
 31
0.0
  0
ARC
  5
169AE
330
747D
100
AcDbEntity
  8
細線
100
AcDbCircle
 10
6066.576457518671
 20
4068.99204740276
 30
0.0
 40
6.0
100
AcDbArc
 50
270.0
 51
0.0
  0
LINE
  5
169AF
330
747D
100
AcDbEntity
  8
細線
100
AcDbLine
 10
6045.749874704402
 20
4059.992047402761
 30
0.0
 11
6076.368918339926
 21
4059.992047402761
 31
0.0
  0
ARC
  5
169B0
330
747D
100
AcDbEntity
  8
細線
100
AcDbCircle
 10
6081.368918339926
 20
4056.99204740276
 30
0.0
 40
5.5
100
AcDbArc
 50
270.0
 51
0.0
  0
ARC
  5
169B1
330
747D
100
AcDbEntity
  8
部品1
100
AcDbCircle
 10
6041.370648448911
 20
4055.99204740276
 30
0.0
 40
6.0
100
AcDbArc
 50
190.5838025965202
 51
270.0
  0
ARC
  5
169B2
330
747D
100
AcDbEntity
  8
部品1
100
AcDbCircle
 10
6082.368918339926
 20
4055.99204740276
 30
0.0
 40
6.0
100
AcDbArc
 50
270.0
 51
0.0
  0
LINE
  5
169B3
330
747D
100
AcDbEntity
  8
部品1
100
AcDbLine
 10
6041.370648448911
 20
4049.99204740276
 30
0.0
 11
6082.368918339926
 21
4049.99204740276
 31
0.0
  0
ARC
  5
169B4
330
747D
100
AcDbEntity
  8
細線
100
AcDbCircle
 10
6076.368918339926
 20
4153.99204740276
 30
0.0
 40
6.0
100
AcDbArc
 50
0.0
 51
90.0
  0
LINE
  5
169B5
330
747D
100
AcDbEntity
  8
細線
100
AcDbLine
 10
6081.368918339926
 20
4168.49204740276
 30
0.0
 11
6042.20229987068
 21
4168.49204740276
 31
0.0
  0
LINE
  5
169B6
330
747D
100
AcDbEntity
  8
細線
100
AcDbLine
 10
6055.863342249758
 20
4153.99204740276
 30
0.0
 11
6054.368918339926
 21
4153.99204740276
 31
0.0
  0
ARC
  5
169B7
330
747D
100
AcDbEntity
  8
細線
100
AcDbCircle
 10
6055.863342249758
 20
4150.99204740276
 30
0.0
 40
3.0
100
AcDbArc
 50
8.099550838235547
 51
90.0
  0
LINE
  5
169B8
330
747D
100
AcDbEntity
  8
細線
100
AcDbLine
 10
6066.576457518671
 20
4156.99204740276
 30
0.0
 11
6054.368918339926
 21
4156.99204740276
 31
0.0
  0
ARC
  5
169B9
330
747D
100
AcDbEntity
  8
細線
100
AcDbCircle
 10
6045.749874704402
 20
4153.99204740276
 30
0.0
 40
6.0
100
AcDbArc
 50
90.0
 51
171.2120626773417
  0
LINE
  5
169BA
330
747D
100
AcDbEntity
  8
細線
100
AcDbLine
 10
6054.368918339926
 20
4153.991539504197
 30
0.0
 11
6041.605591123958
 21
4153.991539504197
 31
0.0
  0
ARC
  5
169BB
330
747D
100
AcDbEntity
  8
細線
100
AcDbCircle
 10
6042.20229987068
 20
4162.99204740276
 30
0.0
 40
5.5
100
AcDbArc
 50
90.0
 51
169.5785490272547
  0
ARC
  5
169BC
330
747D
100
AcDbEntity
  8
細線
100
AcDbCircle
 10
6066.576457518671
 20
4150.99204740276
 30
0.0
 40
6.0
100
AcDbArc
 50
0.0
 51
90.0
  0
LINE
  5
169BD
330
747D
100
AcDbEntity
  8
細線
100
AcDbLine
 10
6076.368918339926
 20
4159.99204740276
 30
0.0
 11
6045.749874704402
 21
4159.99204740276
 31
0.0
  0
ARC
  5
169BE
330
747D
100
AcDbEntity
  8
細線
100
AcDbCircle
 10
6081.368918339926
 20
4162.99204740276
 30
0.0
 40
5.5
100
AcDbArc
 50
0.0
 51
90.0
  0
LINE
  5
169BF
330
747D
100
AcDbEntity
  8
部品1
100
AcDbLine
 10
6082.368918339926
 20
4169.99204740276
 30
0.0
 11
6041.370648448911
 21
4169.99204740276
 31
0.0
  0
ARC
  5
169C0
330
747D
100
AcDbEntity
  8
部品1
100
AcDbCircle
 10
6041.370648448911
 20
4163.99204740276
 30
0.0
 40
6.0
100
AcDbArc
 50
90.0
 51
169.4161974034797
  0
ARC
  5
169C1
330
747D
100
AcDbEntity
  8
部品1
100
AcDbCircle
 10
6082.368918339926
 20
4163.99204740276
 30
0.0
 40
6.0
100
AcDbArc
 50
0.0
 51
90.0
  0
CIRCLE
  5
169C2
330
747D
100
AcDbEntity
  8
細線
 48
20.0
100
AcDbCircle
 10
6061.869783394417
 20
4210.49204740276
 30
0.0
 40
20.0
  0
CIRCLE
  5
169C3
330
747D
100
AcDbEntity
  8
細線
 48
20.0
100
AcDbCircle
 10
6061.869783394417
 20
4210.49204740276
 30
0.0
 40
10.0
  0
LINE
  5
169C4
330
747D
100
AcDbEntity
  8
部品1
100
AcDbLine
 10
6908.368918339926
 20
4055.99204740276
 30
0.0
 11
6908.368918339926
 21
4163.99204740276
 31
0.0
  0
ARC
  5
169C5
330
747D
100
AcDbEntity
  8
部品1
100
AcDbCircle
 10
7150.368918339926
 20
4109.99204740276
 30
0.0
 40
300.0
100
AcDbArc
 50
169.4161974034797
 51
190.5838025965202
  0
LINE
  5
169C6
330
747D
100
AcDbEntity
  8
細線
100
AcDbLine
 10
6906.868918339926
 20
4056.99204740276
 30
0.0
 11
6906.868918339926
 21
4162.99204740276
 31
0.0
  0
LINE
  5
169C7
330
747D
100
AcDbEntity
  8
細線
100
AcDbLine
 10
6902.368918339925
 20
4065.992047402761
 30
0.0
 11
6902.368918339925
 21
4153.99204740276
 31
0.0
  0
ARC
  5
169C8
330
747D
100
AcDbEntity
  8
細線
100
AcDbCircle
 10
6587.766136432001
 20
4109.99204740276
 30
0.0
 40
294.0
100
AcDbArc
 50
351.9004491617645
 51
8.099550838235547
  0
ARC
  5
169C9
330
747D
100
AcDbEntity
  8
細線
100
AcDbCircle
 10
7150.368918339926
 20
4109.99204740276
 30
0.0
 40
294.0
100
AcDbArc
 50
171.2120626773417
 51
188.7879373226583
  0
ARC
  5
169CA
330
747D
100
AcDbEntity
  8
細線
100
AcDbCircle
 10
7150.368918339926
 20
4109.99204740276
 30
0.0
 40
298.5
100
AcDbArc
 50
169.5785490272547
 51
190.4214509727453
  0
LINE
  5
169CB
330
747D
100
AcDbEntity
  8
細線
100
AcDbLine
 10
6874.368918339925
 20
4159.99204740276
 30
0.0
 11
6874.368918339925
 21
4059.992047402761
 31
0.0
  0
LINE
  5
169CC
330
747D
100
AcDbEntity
  8
細線
100
AcDbLine
 10
6892.576457518671
 20
4068.99204740276
 30
0.0
 11
6892.576457518671
 21
4150.99204740276
 31
0.0
  0
LINE
  5
169CD
330
747D
100
AcDbEntity
  8
部品1
100
AcDbLine
 10
6861.37064844891
 20
4049.99204740276
 30
0.0
 11
6902.368918339925
 21
4049.99204740276
 31
0.0
  0
ARC
  5
169CE
330
747D
100
AcDbEntity
  8
部品1
100
AcDbCircle
 10
6902.368918339925
 20
4055.99204740276
 30
0.0
 40
6.0
100
AcDbArc
 50
270.0
 51
0.0
  0
ARC
  5
169CF
330
747D
100
AcDbEntity
  8
部品1
100
AcDbCircle
 10
6861.37064844891
 20
4055.99204740276
 30
0.0
 40
6.0
100
AcDbArc
 50
190.5838025965202
 51
270.0
  0
ARC
  5
169D0
330
747D
100
AcDbEntity
  8
細線
100
AcDbCircle
 10
6901.368918339925
 20
4056.99204740276
 30
0.0
 40
5.5
100
AcDbArc
 50
270.0
 51
0.0
  0
LINE
  5
169D1
330
747D
100
AcDbEntity
  8
細線
100
AcDbLine
 10
6865.749874704403
 20
4059.992047402761
 30
0.0
 11
6896.368918339925
 21
4059.992047402761
 31
0.0
  0
ARC
  5
169D2
330
747D
100
AcDbEntity
  8
細線
100
AcDbCircle
 10
6886.576457518671
 20
4068.99204740276
 30
0.0
 40
6.0
100
AcDbArc
 50
270.0
 51
0.0
  0
LINE
  5
169D3
330
747D
100
AcDbEntity
  8
細線
100
AcDbLine
 10
6874.368918339925
 20
4065.992555301323
 30
0.0
 11
6860.890213841104
 21
4065.992555301323
 31
0.0
  0
ARC
  5
169D4
330
747D
100
AcDbEntity
  8
細線
100
AcDbCircle
 10
6862.20229987068
 20
4056.99204740276
 30
0.0
 40
5.5
100
AcDbArc
 50
190.4214509727453
 51
270.0
  0
ARC
  5
169D5
330
747D
100
AcDbEntity
  8
細線
100
AcDbCircle
 10
6865.749874704403
 20
4065.992047402761
 30
0.0
 40
6.0
100
AcDbArc
 50
188.7879373226583
 51
270.0
  0
LINE
  5
169D6
330
747D
100
AcDbEntity
  8
細線
100
AcDbLine
 10
6874.368918339925
 20
4062.992047402761
 30
0.0
 11
6886.576457518671
 21
4062.992047402761
 31
0.0
  0
ARC
  5
169D7
330
747D
100
AcDbEntity
  8
細線
100
AcDbCircle
 10
6875.863342249761
 20
4068.99204740276
 30
0.0
 40
3.0
100
AcDbArc
 50
270.0
 51
351.9004491617129
  0
LINE
  5
169D8
330
747D
100
AcDbEntity
  8
細線
100
AcDbLine
 10
6874.368918339925
 20
4065.992047402761
 30
0.0
 11
6875.863342249761
 21
4065.992047402761
 31
0.0
  0
LINE
  5
169D9
330
747D
100
AcDbEntity
  8
細線
100
AcDbLine
 10
6862.20229987068
 20
4051.49204740276
 30
0.0
 11
6901.368918339925
 21
4051.49204740276
 31
0.0
  0
ARC
  5
169DA
330
747D
100
AcDbEntity
  8
細線
100
AcDbCircle
 10
6896.368918339925
 20
4065.992047402761
 30
0.0
 40
6.0
100
AcDbArc
 50
270.0
 51
0.0
  0
CIRCLE
  5
169DB
330
747D
100
AcDbEntity
  8
細線
 48
20.0
100
AcDbCircle
 10
6881.869783394417
 20
4210.49204740276
 30
0.0
 40
10.0
  0
CIRCLE
  5
169DC
330
747D
100
AcDbEntity
  8
細線
 48
20.0
100
AcDbCircle
 10
6881.869783394417
 20
4210.49204740276
 30
0.0
 40
20.0
  0
ARC
  5
169DD
330
747D
100
AcDbEntity
  8
部品1
100
AcDbCircle
 10
6902.368918339925
 20
4163.99204740276
 30
0.0
 40
6.0
100
AcDbArc
 50
0.0
 51
90.0
  0
ARC
  5
169DE
330
747D
100
AcDbEntity
  8
部品1
100
AcDbCircle
 10
6861.37064844891
 20
4163.99204740276
 30
0.0
 40
6.0
100
AcDbArc
 50
90.0
 51
169.4161974034797
  0
LINE
  5
169DF
330
747D
100
AcDbEntity
  8
部品1
100
AcDbLine
 10
6902.368918339925
 20
4169.99204740276
 30
0.0
 11
6861.37064844891
 21
4169.99204740276
 31
0.0
  0
ARC
  5
169E0
330
747D
100
AcDbEntity
  8
細線
100
AcDbCircle
 10
6901.368918339925
 20
4162.99204740276
 30
0.0
 40
5.5
100
AcDbArc
 50
0.0
 51
90.0
  0
LINE
  5
169E1
330
747D
100
AcDbEntity
  8
細線
100
AcDbLine
 10
6896.368918339925
 20
4159.99204740276
 30
0.0
 11
6865.749874704403
 21
4159.99204740276
 31
0.0
  0
ARC
  5
169E2
330
747D
100
AcDbEntity
  8
細線
100
AcDbCircle
 10
6886.576457518671
 20
4150.99204740276
 30
0.0
 40
6.0
100
AcDbArc
 50
0.0
 51
90.0
  0
ARC
  5
169E3
330
747D
100
AcDbEntity
  8
細線
100
AcDbCircle
 10
6862.20229987068
 20
4162.99204740276
 30
0.0
 40
5.5
100
AcDbArc
 50
90.0
 51
169.5785490272547
  0
LINE
  5
169E4
330
747D
100
AcDbEntity
  8
細線
100
AcDbLine
 10
6874.368918339925
 20
4153.991539504197
 30
0.0
 11
6861.605591123958
 21
4153.991539504197
 31
0.0
  0
ARC
  5
169E5
330
747D
100
AcDbEntity
  8
細線
100
AcDbCircle
 10
6865.749874704403
 20
4153.99204740276
 30
0.0
 40
6.0
100
AcDbArc
 50
90.0
 51
171.2120626773417
  0
LINE
  5
169E6
330
747D
100
AcDbEntity
  8
細線
100
AcDbLine
 10
6886.576457518671
 20
4156.99204740276
 30
0.0
 11
6874.368918339925
 21
4156.99204740276
 31
0.0
  0
ARC
  5
169E7
330
747D
100
AcDbEntity
  8
細線
100
AcDbCircle
 10
6875.863342249759
 20
4150.99204740276
 30
0.0
 40
3.0
100
AcDbArc
 50
8.099550838235547
 51
90.0
  0
LINE
  5
169E8
330
747D
100
AcDbEntity
  8
細線
100
AcDbLine
 10
6875.863342249759
 20
4153.99204740276
 30
0.0
 11
6874.368918339925
 21
4153.99204740276
 31
0.0
  0
LINE
  5
169E9
330
747D
100
AcDbEntity
  8
細線
100
AcDbLine
 10
6901.368918339925
 20
4168.49204740276
 30
0.0
 11
6862.20229987068
 21
4168.49204740276
 31
0.0
  0
ARC
  5
169EA
330
747D
100
AcDbEntity
  8
細線
100
AcDbCircle
 10
6896.368918339925
 20
4153.99204740276
 30
0.0
 40
6.0
100
AcDbArc
 50
0.0
 51
90.0
  0
TEXT
  5
169EB
330
747D
100
AcDbEntity
  8
部品1
100
AcDbText
 10
6094.158988963662
 20
2272.021937367518
 30
0.0
 40
135.0
  1
正面図
  7
STYLE2
100
AcDbText
  0
LWPOLYLINE
  5
169EC
330
747D
100
AcDbEntity
  8
部品1
100
AcDbPolyline
 90
        4
 70
     1
 43
0.0
 10
6003.633585225709
 20
2464.915466586041
 10
6003.633585225709
 20
2225.023145040509
 10
6767.104251454146
 20
2225.023145040509
 10
6767.104251454146
 20
2464.915466586041
  0
DIMENSION
  5
169ED
330
747D
100
AcDbEntity
  8
寸法
 48
50.0
100
AcDbDimension
  2
*D32
 10
7665.368918339929
 20
5678.490611098852
 30
0.0
 11
6385.368918339928
 21
5678.490611098852
 31
0.0
 70
   160
 71
     5
 42
2560.000000000004
  3
INABA_S40G
100
AcDbAlignedDimension
 13
5105.368918339926
 23
5242.992047402766
 33
0.0
 14
7665.368918339929
 24
5242.99204740276
 34
0.0
100
AcDbRotatedDimension
  0
DIMENSION
  5
169EE
330
747D
100
AcDbEntity
  8
寸法
 48
50.0
100
AcDbDimension
  2
*D33
 10
5155.368918339926
 20
5455.533632661005
 30
0.0
 11
6385.368918339928
 21
5455.533632661005
 31
0.0
 70
   160
  1
柱外寸法<>
 71
     5
 42
2460.000000000004
  3
INABA_S40G
100
AcDbAlignedDimension
 13
7615.368918339929
 23
5242.992047402762
 33
0.0
 14
5155.368918339926
 24
5242.992047402768
 34
0.0
100
AcDbRotatedDimension
  0
DIMENSION
  5
169EF
330
747D
100
AcDbEntity
  8
寸法
 48
50.0
100
AcDbDimension
  2
*D34
 10
5105.368918339926
 20
5455.533632661005
 30
0.0
 11
4791.883636965678
 21
5455.533632661005
 31
0.0
 70
   160
 71
     5
 42
50.0
  3
INABA_S40G
100
AcDbAlignedDimension
 13
5155.368918339926
 23
5242.992047402768
 33
0.0
 14
5105.368918339926
 24
5242.992047402766
 34
0.0
100
AcDbRotatedDimension
1001
ACAD
1000
DSTYLE
1002
{
1002
}
  0
LINE
  5
169F0
330
747D
100
AcDbEntity
  8
細線
 48
50.0
100
AcDbLine
 10
5138.368918339925
 20
5242.992047402764
 30
0.0
 11
5138.368918339925
 21
5101.992047402762
 31
0.0
  0
ARC
  5
169F1
330
747D
100
AcDbEntity
  8
部品1
100
AcDbCircle
 10
5112.777339446354
 20
5235.992047402763
 30
0.0
 40
7.0
100
AcDbArc
 50
90.0
 51
183.2473427903317
  0
ARC
  5
169F2
330
747D
100
AcDbEntity
  8
部品1
100
AcDbCircle
 10
5125.992662907389
 20
5108.992047402765
 30
0.0
 40
7.0
100
AcDbArc
 50
183.2473427903317
 51
270.0
  0
ARC
  5
169F3
330
747D
100
AcDbEntity
  8
部品1
 48
50.0
100
AcDbCircle
 10
5107.620852696713
 20
5215.659046564451
 30
0.0
 40
0.7
100
AcDbArc
 50
183.2473427903838
 51
262.3418727926349
  0
ARC
  5
169F4
330
747D
100
AcDbEntity
  8
部品1
 48
50.0
100
AcDbCircle
 10
5115.856883221553
 20
5123.459046564447
 30
0.0
 40
0.7
100
AcDbArc
 50
183.2473427902797
 51
262.3418727926349
  0
ARC
  5
169F5
330
747D
100
AcDbEntity
  8
部品1
 48
50.0
100
AcDbCircle
 10
5115.363814112992
 20
5119.792047402763
 30
0.0
 40
3.0
100
AcDbArc
 50
3.247342790331777
 51
82.3418727926348
  0
ARC
  5
169F6
330
747D
100
AcDbEntity
  8
部品1
 48
50.0
100
AcDbCircle
 10
5107.127783588148
 20
5211.992047402764
 30
0.0
 40
3.0
100
AcDbArc
 50
3.247342790331777
 51
82.3418727926348
  0
LINE
  5
169F7
330
747D
100
AcDbEntity
  8
部品1
100
AcDbLine
 10
5110.122966484334
 20
5212.161986857868
 30
0.0
 11
5115.158007212445
 21
5123.419394024924
 31
0.0
  0
LINE
  5
169F8
330
747D
100
AcDbEntity
  8
部品1
100
AcDbLine
 10
5118.358997009181
 20
5119.961986857866
 30
0.0
 11
5119.00390281629
 21
5108.595522007525
 31
0.0
  0
LINE
  5
169F9
330
747D
100
AcDbEntity
  8
部品1
100
AcDbLine
 10
5105.788579355255
 20
5235.595522007523
 30
0.0
 11
5106.921976687605
 21
5215.619394024925
 31
0.0
  0
LINE
  5
169FA
330
747D
100
AcDbEntity
  8
部品1
 48
50.0
100
AcDbLine
 10
7657.960497233496
 20
5242.99204740276
 30
0.0
 11
5112.777339446354
 21
5242.99204740276
 31
0.0
  0
LINE
  5
169FB
330
747D
100
AcDbEntity
  8
細線
 48
50.0
100
AcDbLine
 10
7663.210267327283
 20
5214.965289966458
 30
0.0
 11
5107.527569350339
 21
5214.96528996676
 31
0.0
  0
LINE
  5
169FC
330
747D
100
AcDbEntity
  8
細線
 48
50.0
100
AcDbLine
 10
7654.974236802471
 20
5122.765289966459
 30
0.0
 11
5115.763599875172
 21
5122.765289966759
 31
0.0
  0
LINE
  5
169FD
330
747D
100
AcDbEntity
  8
部品1
 48
50.0
100
AcDbLine
 10
7644.745173772462
 20
5101.99204740276
 30
0.0
 11
5125.992662907389
 21
5101.992047402762
 31
0.0
  0
DIMENSION
  5
169FE
330
747D
100
AcDbEntity
  8
寸法
 48
50.0
100
AcDbDimension
  2
*D35
 10
7615.368918339929
 20
5455.533632661001
 30
0.0
 11
7978.854199714167
 21
5455.533632661001
 31
0.0
 70
   160
 71
     5
 42
50.0
  3
INABA_S40G
100
AcDbAlignedDimension
 13
7665.368918339929
 23
5242.99204740276
 33
0.0
 14
7615.368918339929
 24
5242.992047402762
 34
0.0
100
AcDbRotatedDimension
  0
LINE
  5
169FF
330
747D
100
AcDbEntity
  8
部品1
100
AcDbLine
 10
7664.949257324595
 20
5235.595522007521
 30
0.0
 11
7663.815859992251
 21
5215.619394024922
 31
0.0
  0
LINE
  5
16A00
330
747D
100
AcDbEntity
  8
細線
 48
50.0
100
AcDbLine
 10
7632.368918339929
 20
5242.99204740276
 30
0.0
 11
7632.368918339929
 21
5101.99204740276
 31
0.0
  0
LINE
  5
16A01
330
747D
100
AcDbEntity
  8
部品1
100
AcDbLine
 10
7652.378839670674
 20
5119.961986857862
 30
0.0
 11
7651.73393386356
 21
5108.595522007522
 31
0.0
  0
LINE
  5
16A02
330
747D
100
AcDbEntity
  8
部品1
100
AcDbLine
 10
7660.614870195518
 20
5212.161986857864
 30
0.0
 11
7655.579829467406
 21
5123.419394024921
 31
0.0
  0
ARC
  5
16A03
330
747D
100
AcDbEntity
  8
部品1
 48
50.0
100
AcDbCircle
 10
7663.610053091703
 20
5211.992047402763
 30
0.0
 40
3.0
100
AcDbArc
 50
97.65812720736519
 51
176.7526572096682
  0
ARC
  5
16A04
330
747D
100
AcDbEntity
  8
部品1
 48
50.0
100
AcDbCircle
 10
7655.374022566859
 20
5119.79204740276
 30
0.0
 40
3.0
100
AcDbArc
 50
97.65812720736519
 51
176.7526572096682
  0
ARC
  5
16A05
330
747D
100
AcDbEntity
  8
部品1
 48
50.0
100
AcDbCircle
 10
7654.880953458299
 20
5123.459046564443
 30
0.0
 40
0.7
100
AcDbArc
 50
277.6581272073652
 51
356.7526572097202
  0
ARC
  5
16A06
330
747D
100
AcDbEntity
  8
部品1
 48
50.0
100
AcDbCircle
 10
7663.116983983141
 20
5215.659046564447
 30
0.0
 40
0.7
100
AcDbArc
 50
277.6581272073652
 51
356.7526572096162
  0
ARC
  5
16A07
330
747D
100
AcDbEntity
  8
部品1
100
AcDbCircle
 10
7644.745173772462
 20
5108.992047402762
 30
0.0
 40
7.0
100
AcDbArc
 50
270.0
 51
356.7526572096682
  0
ARC
  5
16A08
330
747D
100
AcDbEntity
  8
部品1
100
AcDbCircle
 10
7657.960497233496
 20
5235.99204740276
 30
0.0
 40
7.0
100
AcDbArc
 50
356.7526572096682
 51
90.0
  0
ARC
  5
16A09
330
747D
100
AcDbEntity
  8
部品1
 48
0.01
100
AcDbCircle
 10
5653.368918339933
 20
5040.492047402757
 30
0.0
 40
2.0
100
AcDbArc
 50
270.0
 51
0.0
  0
ARC
  5
16A0A
330
747D
100
AcDbEntity
  8
部品1
 48
0.01
100
AcDbCircle
 10
5653.368918339933
 20
5071.992047402757
 30
0.0
 40
2.0
100
AcDbArc
 50
0.0
 51
90.0
  0
ARC
  5
16A0B
330
747D
100
AcDbEntity
  8
部品1
 48
0.01
100
AcDbCircle
 10
5477.368918339933
 20
5040.492047402757
 30
0.0
 40
2.0
100
AcDbArc
 50
180.0
 51
270.0
  0
ARC
  5
16A0C
330
747D
100
AcDbEntity
  8
部品1
 48
0.01
100
AcDbCircle
 10
5477.368918339933
 20
5071.992047402757
 30
0.0
 40
2.0
100
AcDbArc
 50
90.0
 51
180.0
  0
LINE
  5
16A0D
330
747D
100
AcDbEntity
  8
細線
100
AcDbLine
 10
5565.368918339933
 20
5044.492047402757
 30
0.0
 11
5639.368918339933
 21
5044.492047402757
 31
0.0
  0
LINE
  5
16A0E
330
747D
100
AcDbEntity
  8
細線
100
AcDbLine
 10
5565.368918339933
 20
5067.492047402756
 30
0.0
 11
5491.368918339933
 21
5067.492047402756
 31
0.0
  0
LINE
  5
16A0F
330
747D
100
AcDbEntity
  8
細線
100
AcDbLine
 10
5491.368918339933
 20
5044.492047402757
 30
0.0
 11
5565.368918339933
 21
5044.492047402757
 31
0.0
  0
LINE
  5
16A10
330
747D
100
AcDbEntity
  8
細線
100
AcDbLine
 10
5639.368918339933
 20
5067.492047402756
 30
0.0
 11
5565.368918339933
 21
5067.492047402756
 31
0.0
  0
LINE
  5
16A11
330
747D
100
AcDbEntity
  8
細線
100
AcDbLine
 10
5639.368918339933
 20
5044.492047402757
 30
0.0
 11
5639.368918339933
 21
5067.492047402756
 31
0.0
  0
LINE
  5
16A12
330
747D
100
AcDbEntity
  8
細線
100
AcDbLine
 10
5491.368918339933
 20
5067.492047402756
 30
0.0
 11
5491.368918339933
 21
5044.492047402757
 31
0.0
  0
LINE
  5
16A13
330
747D
100
AcDbEntity
  8
部品1
 48
0.01
100
AcDbLine
 10
5655.368918339933
 20
5040.492047402757
 30
0.0
 11
5655.368918339933
 21
5071.992047402757
 31
0.0
  0
LINE
  5
16A14
330
747D
100
AcDbEntity
  8
部品1
 48
0.01
100
AcDbLine
 10
5477.368918339933
 20
5038.492047402757
 30
0.0
 11
5653.368918339933
 21
5038.492047402757
 31
0.0
  0
LINE
  5
16A15
330
747D
100
AcDbEntity
  8
部品1
 48
0.01
100
AcDbLine
 10
5475.368918339933
 20
5071.992047402757
 30
0.0
 11
5475.368918339933
 21
5040.492047402757
 31
0.0
  0
LINE
  5
16A16
330
747D
100
AcDbEntity
  8
部品1
 48
0.01
100
AcDbLine
 10
5653.368918339933
 20
5073.992047402757
 30
0.0
 11
5477.368918339933
 21
5073.992047402757
 31
0.0
  0
LINE
  5
16A17
330
747D
100
AcDbEntity
  8
細線
100
AcDbLine
 10
5491.368918339933
 20
5061.492047402757
 30
0.0
 11
5565.368918339933
 21
5061.492047402757
 31
0.0
  0
LINE
  5
16A18
330
747D
100
AcDbEntity
  8
細線
100
AcDbLine
 10
5491.368918339933
 20
5055.492047402757
 30
0.0
 11
5565.368918339933
 21
5055.492047402757
 31
0.0
  0
LINE
  5
16A19
330
747D
100
AcDbEntity
  8
細線
100
AcDbLine
 10
5491.368918339933
 20
5049.492047402757
 30
0.0
 11
5565.368918339933
 21
5049.492047402757
 31
0.0
  0
LINE
  5
16A1A
330
747D
100
AcDbEntity
  8
細線
100
AcDbLine
 10
5491.368918339933
 20
5061.492047402757
 30
0.0
 11
5560.368918339933
 21
5061.492047402757
 31
0.0
  0
LINE
  5
16A1B
330
747D
100
AcDbEntity
  8
細線
100
AcDbLine
 10
5639.368918339933
 20
5061.492047402757
 30
0.0
 11
5565.368918339933
 21
5061.492047402757
 31
0.0
  0
LINE
  5
16A1C
330
747D
100
AcDbEntity
  8
細線
100
AcDbLine
 10
5639.368918339933
 20
5049.492047402757
 30
0.0
 11
5565.368918339933
 21
5049.492047402757
 31
0.0
  0
LINE
  5
16A1D
330
747D
100
AcDbEntity
  8
細線
100
AcDbLine
 10
5639.368918339933
 20
5055.492047402757
 30
0.0
 11
5565.368918339933
 21
5055.492047402757
 31
0.0
  0
LINE
  5
16A1E
330
747D
100
AcDbEntity
  8
細線
100
AcDbLine
 10
5565.368918339933
 20
5067.492047402756
 30
0.0
 11
5565.368918339933
 21
5044.492047402757
 31
0.0
  0
LINE
  5
16A1F
330
747D
100
AcDbEntity
  8
細線
100
AcDbLine
 10
6385.368918339933
 20
5067.492047402756
 30
0.0
 11
6385.368918339933
 21
5044.492047402757
 31
0.0
  0
LINE
  5
16A20
330
747D
100
AcDbEntity
  8
細線
100
AcDbLine
 10
6459.368918339933
 20
5055.492047402757
 30
0.0
 11
6385.368918339933
 21
5055.492047402757
 31
0.0
  0
LINE
  5
16A21
330
747D
100
AcDbEntity
  8
細線
100
AcDbLine
 10
6459.368918339933
 20
5049.492047402757
 30
0.0
 11
6385.368918339933
 21
5049.492047402757
 31
0.0
  0
LINE
  5
16A22
330
747D
100
AcDbEntity
  8
細線
100
AcDbLine
 10
6459.368918339933
 20
5061.492047402757
 30
0.0
 11
6385.368918339933
 21
5061.492047402757
 31
0.0
  0
LINE
  5
16A23
330
747D
100
AcDbEntity
  8
細線
100
AcDbLine
 10
6311.368918339933
 20
5061.492047402757
 30
0.0
 11
6380.368918339932
 21
5061.492047402757
 31
0.0
  0
LINE
  5
16A24
330
747D
100
AcDbEntity
  8
細線
100
AcDbLine
 10
6311.368918339933
 20
5049.492047402757
 30
0.0
 11
6385.368918339933
 21
5049.492047402757
 31
0.0
  0
LINE
  5
16A25
330
747D
100
AcDbEntity
  8
細線
100
AcDbLine
 10
6311.368918339933
 20
5055.492047402757
 30
0.0
 11
6385.368918339933
 21
5055.492047402757
 31
0.0
  0
LINE
  5
16A26
330
747D
100
AcDbEntity
  8
細線
100
AcDbLine
 10
6311.368918339933
 20
5061.492047402757
 30
0.0
 11
6385.368918339933
 21
5061.492047402757
 31
0.0
  0
LINE
  5
16A27
330
747D
100
AcDbEntity
  8
部品1
 48
0.01
100
AcDbLine
 10
6473.368918339933
 20
5073.992047402757
 30
0.0
 11
6297.368918339933
 21
5073.992047402757
 31
0.0
  0
LINE
  5
16A28
330
747D
100
AcDbEntity
  8
部品1
 48
0.01
100
AcDbLine
 10
6295.368918339932
 20
5071.992047402757
 30
0.0
 11
6295.368918339932
 21
5040.492047402757
 31
0.0
  0
LINE
  5
16A29
330
747D
100
AcDbEntity
  8
部品1
 48
0.01
100
AcDbLine
 10
6297.368918339933
 20
5038.492047402757
 30
0.0
 11
6473.368918339933
 21
5038.492047402757
 31
0.0
  0
LINE
  5
16A2A
330
747D
100
AcDbEntity
  8
部品1
 48
0.01
100
AcDbLine
 10
6475.368918339933
 20
5040.492047402757
 30
0.0
 11
6475.368918339933
 21
5071.992047402757
 31
0.0
  0
LINE
  5
16A2B
330
747D
100
AcDbEntity
  8
細線
100
AcDbLine
 10
6311.368918339933
 20
5067.492047402756
 30
0.0
 11
6311.368918339933
 21
5044.492047402757
 31
0.0
  0
LINE
  5
16A2C
330
747D
100
AcDbEntity
  8
細線
100
AcDbLine
 10
6459.368918339933
 20
5044.492047402757
 30
0.0
 11
6459.368918339933
 21
5067.492047402756
 31
0.0
  0
LINE
  5
16A2D
330
747D
100
AcDbEntity
  8
細線
100
AcDbLine
 10
6459.368918339933
 20
5067.492047402756
 30
0.0
 11
6385.368918339933
 21
5067.492047402756
 31
0.0
  0
LINE
  5
16A2E
330
747D
100
AcDbEntity
  8
細線
100
AcDbLine
 10
6311.368918339933
 20
5044.492047402757
 30
0.0
 11
6385.368918339933
 21
5044.492047402757
 31
0.0
  0
LINE
  5
16A2F
330
747D
100
AcDbEntity
  8
細線
100
AcDbLine
 10
6385.368918339933
 20
5067.492047402756
 30
0.0
 11
6311.368918339933
 21
5067.492047402756
 31
0.0
  0
LINE
  5
16A30
330
747D
100
AcDbEntity
  8
細線
100
AcDbLine
 10
6385.368918339933
 20
5044.492047402757
 30
0.0
 11
6459.368918339933
 21
5044.492047402757
 31
0.0
  0
ARC
  5
16A31
330
747D
100
AcDbEntity
  8
部品1
 48
0.01
100
AcDbCircle
 10
6297.368918339933
 20
5071.992047402757
 30
0.0
 40
2.0
100
AcDbArc
 50
90.0
 51
180.0
  0
ARC
  5
16A32
330
747D
100
AcDbEntity
  8
部品1
 48
0.01
100
AcDbCircle
 10
6297.368918339933
 20
5040.492047402757
 30
0.0
 40
2.0
100
AcDbArc
 50
180.0
 51
270.0
  0
ARC
  5
16A33
330
747D
100
AcDbEntity
  8
部品1
 48
0.01
100
AcDbCircle
 10
6473.368918339933
 20
5071.992047402757
 30
0.0
 40
2.0
100
AcDbArc
 50
0.0
 51
90.0
  0
ARC
  5
16A34
330
747D
100
AcDbEntity
  8
部品1
 48
0.01
100
AcDbCircle
 10
6473.368918339933
 20
5040.492047402757
 30
0.0
 40
2.0
100
AcDbArc
 50
270.0
 51
0.0
  0
ARC
  5
16A35
330
747D
100
AcDbEntity
  8
部品1
 48
0.01
100
AcDbCircle
 10
7293.368918339935
 20
5040.492047402757
 30
0.0
 40
2.0
100
AcDbArc
 50
270.0
 51
0.0
  0
ARC
  5
16A36
330
747D
100
AcDbEntity
  8
部品1
 48
0.01
100
AcDbCircle
 10
7293.368918339935
 20
5071.992047402757
 30
0.0
 40
2.0
100
AcDbArc
 50
0.0
 51
90.0
  0
ARC
  5
16A37
330
747D
100
AcDbEntity
  8
部品1
 48
0.01
100
AcDbCircle
 10
7117.368918339934
 20
5040.492047402757
 30
0.0
 40
2.0
100
AcDbArc
 50
180.0
 51
270.0
  0
ARC
  5
16A38
330
747D
100
AcDbEntity
  8
部品1
 48
0.01
100
AcDbCircle
 10
7117.368918339934
 20
5071.992047402757
 30
0.0
 40
2.0
100
AcDbArc
 50
90.0
 51
180.0
  0
LINE
  5
16A39
330
747D
100
AcDbEntity
  8
細線
100
AcDbLine
 10
7205.368918339934
 20
5044.492047402757
 30
0.0
 11
7279.368918339935
 21
5044.492047402757
 31
0.0
  0
LINE
  5
16A3A
330
747D
100
AcDbEntity
  8
細線
100
AcDbLine
 10
7205.368918339934
 20
5067.492047402756
 30
0.0
 11
7131.368918339934
 21
5067.492047402756
 31
0.0
  0
LINE
  5
16A3B
330
747D
100
AcDbEntity
  8
細線
100
AcDbLine
 10
7131.368918339934
 20
5044.492047402757
 30
0.0
 11
7205.368918339934
 21
5044.492047402757
 31
0.0
  0
LINE
  5
16A3C
330
747D
100
AcDbEntity
  8
細線
100
AcDbLine
 10
7279.368918339935
 20
5067.492047402756
 30
0.0
 11
7205.368918339934
 21
5067.492047402756
 31
0.0
  0
LINE
  5
16A3D
330
747D
100
AcDbEntity
  8
細線
100
AcDbLine
 10
7279.368918339935
 20
5044.492047402757
 30
0.0
 11
7279.368918339935
 21
5067.492047402756
 31
0.0
  0
LINE
  5
16A3E
330
747D
100
AcDbEntity
  8
細線
100
AcDbLine
 10
7131.368918339934
 20
5067.492047402756
 30
0.0
 11
7131.368918339934
 21
5044.492047402757
 31
0.0
  0
LINE
  5
16A3F
330
747D
100
AcDbEntity
  8
部品1
 48
0.01
100
AcDbLine
 10
7295.368918339935
 20
5040.492047402757
 30
0.0
 11
7295.368918339935
 21
5071.992047402757
 31
0.0
  0
LINE
  5
16A40
330
747D
100
AcDbEntity
  8
部品1
 48
0.01
100
AcDbLine
 10
7117.368918339934
 20
5038.492047402757
 30
0.0
 11
7293.368918339935
 21
5038.492047402757
 31
0.0
  0
LINE
  5
16A41
330
747D
100
AcDbEntity
  8
部品1
 48
0.01
100
AcDbLine
 10
7115.368918339935
 20
5071.992047402757
 30
0.0
 11
7115.368918339935
 21
5040.492047402757
 31
0.0
  0
LINE
  5
16A42
330
747D
100
AcDbEntity
  8
部品1
 48
0.01
100
AcDbLine
 10
7293.368918339935
 20
5073.992047402757
 30
0.0
 11
7117.368918339934
 21
5073.992047402757
 31
0.0
  0
LINE
  5
16A43
330
747D
100
AcDbEntity
  8
細線
100
AcDbLine
 10
7131.368918339934
 20
5061.492047402757
 30
0.0
 11
7205.368918339934
 21
5061.492047402757
 31
0.0
  0
LINE
  5
16A44
330
747D
100
AcDbEntity
  8
細線
100
AcDbLine
 10
7131.368918339934
 20
5055.492047402757
 30
0.0
 11
7205.368918339934
 21
5055.492047402757
 31
0.0
  0
LINE
  5
16A45
330
747D
100
AcDbEntity
  8
細線
100
AcDbLine
 10
7131.368918339934
 20
5049.492047402757
 30
0.0
 11
7205.368918339934
 21
5049.492047402757
 31
0.0
  0
LINE
  5
16A46
330
747D
100
AcDbEntity
  8
細線
100
AcDbLine
 10
7131.368918339934
 20
5061.492047402757
 30
0.0
 11
7200.368918339934
 21
5061.492047402757
 31
0.0
  0
LINE
  5
16A47
330
747D
100
AcDbEntity
  8
細線
100
AcDbLine
 10
7279.368918339935
 20
5061.492047402757
 30
0.0
 11
7205.368918339934
 21
5061.492047402757
 31
0.0
  0
LINE
  5
16A48
330
747D
100
AcDbEntity
  8
細線
100
AcDbLine
 10
7279.368918339935
 20
5049.492047402757
 30
0.0
 11
7205.368918339934
 21
5049.492047402757
 31
0.0
  0
LINE
  5
16A49
330
747D
100
AcDbEntity
  8
細線
100
AcDbLine
 10
7279.368918339935
 20
5055.492047402757
 30
0.0
 11
7205.368918339934
 21
5055.492047402757
 31
0.0
  0
LINE
  5
16A4A
330
747D
100
AcDbEntity
  8
細線
100
AcDbLine
 10
7205.368918339934
 20
5067.492047402756
 30
0.0
 11
7205.368918339934
 21
5044.492047402757
 31
0.0
  0
LINE
  5
16A4B
330
747D
100
AcDbEntity
  8
Ｇ．Ｌ
100
AcDbLine
 10
4062.848524913701
 20
3067.992047402759
 30
0.0
 11
12300.13473910513
 21
3067.992047402759
 31
0.0
  0
TEXT
  5
16EA2
330
747D
100
AcDbEntity
  8
文字
 62
     7
 48
50.0
100
AcDbText
 10
14260.68475616112
 20
855.469579666289
 30
0.0
 40
100.0
  1
～一般型・多雪地型・豪雪地型～
  7
STYLE2
100
AcDbText
  0
ENDSEC
  0
SECTION
  2
OBJECTS
  0
DICTIONARY
  5
7471
330
0
100
AcDbDictionary
281
     1
  3
ACAD_COLOR
350
15CB9
  3
ACAD_GROUP
350
7472
  3
ACAD_LAYOUT
350
15CBA
  3
ACAD_MATERIAL
350
15CB8
  3
ACAD_MLINESTYLE
350
7473
  3
ACAD_PLOTSETTINGS
350
15CBB
  3
ACAD_PLOTSTYLENAME
350
15CB6
  3
ACDBHEADERROUNDTRIPXREC
350
16EC4
  3
AcDbVariableDictionary
350
16EC0
  3
CONTENTDICTIONARY
350
E71C
  3
DRAWINGVARIABLESDICT
350
F3B9
  0
DICTIONARY
  5
15E4B
330
7467
100
AcDbDictionary
280
     1
281
     1
  3
ACAD_LAYERSTATES
360
15E4C
  0
DICTIONARY
  5
15CB9
102
{ACAD_REACTORS
330
7471
102
}
330
7471
100
AcDbDictionary
281
     1
  0
DICTIONARY
  5
7472
102
{ACAD_REACTORS
330
7471
102
}
330
7471
100
AcDbDictionary
281
     1
  0
DICTIONARY
  5
15CBA
102
{ACAD_REACTORS
330
7471
102
}
330
7471
100
AcDbDictionary
281
     1
  3
Model
350
15CBC
  3
レイアウト1
350
15CBD
  0
DICTIONARY
  5
15CB8
102
{ACAD_REACTORS
330
7471
102
}
330
7471
100
AcDbDictionary
281
     1
  0
DICTIONARY
  5
7473
102
{ACAD_REACTORS
330
7471
102
}
330
7471
100
AcDbDictionary
281
     1
  3
STANDARD
350
7480
  0
DICTIONARY
  5
15CBB
102
{ACAD_REACTORS
330
7471
102
}
330
7471
100
AcDbDictionary
281
     1
  0
ACDBDICTIONARYWDFLT
  5
15CB6
102
{ACAD_REACTORS
330
7471
102
}
330
7471
100
AcDbDictionary
281
     1
  3
Normal
350
15CB7
100
AcDbDictionaryWithDefault
340
15CB7
  0
DICTIONARY
  5
16EC4
102
{ACAD_REACTORS
330
7471
102
}
330
7471
100
AcDbDictionary
281
     1
  3
COLORDICT
350
16EC6
  3
MATERIALDICT
350
16EC5
  0
DICTIONARY
  5
16EC0
102
{ACAD_REACTORS
330
7471
102
}
330
7471
100
AcDbDictionary
281
     1
  3
DIMASSOC
350
16EC1
  3
PROJECTNAME
350
16EC2
  0
DICTIONARY
  5
E71C
102
{ACAD_REACTORS
330
7471
102
}
330
7471
100
AcDbDictionary
281
     1
  0
DICTIONARY
  5
F3B9
102
{ACAD_REACTORS
330
7471
102
}
330
7471
100
AcDbDictionary
281
     1
1001
DRAWINGVARIABLESXDATA
1000
POLARMODE
1000
1
  0
DICTIONARY
  5
15E4C
102
{ACAD_REACTORS
330
15E4B
102
}
330
15E4B
100
AcDbDictionary
281
     1
  0
LAYOUT
  5
15CBC
102
{ACAD_XDICTIONARY
360
16EC7
102
}
102
{ACAD_REACTORS
330
15CBA
102
}
330
15CBA
100
AcDbPlotSettings
  1

  2
Microsoft Office Document Image Writer
  4

  6

 40
0.0
 41
0.0
 42
0.0
 43
0.0
 44
0.0
 45
0.0
 46
0.0
 47
0.0
 48
0.0
 49
0.0
140
0.0
141
0.0
142
1.0
143
1.0
 70
  1712
 72
     0
 73
     0
 74
     0
  7

 75
     0
147
1.0
148
0.0
149
0.0
100
AcDbLayout
  1
Model
 70
     1
 71
     0
 10
0.0
 20
0.0
 11
12.0
 21
9.0
 12
0.0
 22
0.0
 32
0.0
 14
0.0
 24
0.0
 34
0.0
 15
0.0
 25
0.0
 35
0.0
146
0.0
 13
0.0
 23
0.0
 33
0.0
 16
1.0
 26
0.0
 36
0.0
 17
0.0
 27
1.0
 37
0.0
 76
     0
330
747D
  0
LAYOUT
  5
15CBD
102
{ACAD_XDICTIONARY
360
16EC9
102
}
102
{ACAD_REACTORS
330
15CBA
102
}
330
15CBA
100
AcDbPlotSettings
  1

  2
Microsoft Office Document Image Writer
  4

  6

 40
0.0
 41
0.0
 42
0.0
 43
0.0
 44
0.0
 45
0.0
 46
0.0
 47
0.0
 48
0.0
 49
0.0
140
0.0
141
0.0
142
1.0
143
1.0
 70
   688
 72
     0
 73
     0
 74
     5
  7

 75
    16
147
1.0
148
0.0
149
0.0
100
AcDbLayout
  1
レイアウト1
 70
     0
 71
     1
 10
0.0
 20
0.0
 11
420.0
 21
297.0
 12
0.0
 22
0.0
 32
0.0
 14
1.000000000000000E+20
 24
1.000000000000000E+20
 34
1.000000000000000E+20
 15
-1.000000000000000E+20
 25
-1.000000000000000E+20
 35
-1.000000000000000E+20
146
0.0
 13
0.0
 23
0.0
 33
0.0
 16
1.0
 26
0.0
 36
0.0
 17
0.0
 27
1.0
 37
0.0
 76
     0
330
747A
  0
MLINESTYLE
  5
7480
102
{ACAD_REACTORS
330
7473
102
}
330
7473
100
AcDbMlineStyle
  2
STANDARD
 70
     0
  3

 62
     0
 51
90.0
 52
90.0
 71
     2
 49
0.5
 62
   256
  6
BYLAYER
 49
-0.5
 62
   256
  6
BYLAYER
  0
ACDBPLACEHOLDER
  5
15CB7
102
{ACAD_REACTORS
330
15CB6
102
}
330
15CB6
  0
XRECORD
  5
16EC6
102
{ACAD_REACTORS
330
16EC4
102
}
330
16EC4
100
AcDbXrecord
280
     1
340
15CB9
  0
XRECORD
  5
16EC5
102
{ACAD_REACTORS
330
16EC4
102
}
330
16EC4
100
AcDbXrecord
280
     1
340
15CB8
  0
DICTIONARYVAR
  5
16EC1
102
{ACAD_REACTORS
330
16EC0
102
}
330
16EC0
100
DictionaryVariables
280
     0
  1
1
  0
DICTIONARYVAR
  5
16EC2
102
{ACAD_REACTORS
330
16EC0
102
}
330
16EC0
100
DictionaryVariables
280
     0
  1

  0
DICTIONARY
  5
16EC7
330
15CBC
100
AcDbDictionary
280
     1
281
     1
  3
ACAD_XREC_ROUNDTRIP
360
16EC8
  0
DICTIONARY
  5
16EC9
330
15CBD
100
AcDbDictionary
280
     1
281
     1
  3
ACAD_XREC_ROUNDTRIP
360
16ECA
  0
XRECORD
  5
16EC8
102
{ACAD_REACTORS
330
16EC7
102
}
330
16EC7
100
AcDbXrecord
280
     1
102
SHADEPLOT
 70
     0
102
SHADEPLOTRESLEVEL
 70
     2
102
SHADEPLOTCUSTOMDPI
 70
   300
  0
XRECORD
  5
16ECA
102
{ACAD_REACTORS
330
16EC9
102
}
330
16EC9
100
AcDbXrecord
280
     1
102
SHADEPLOT
 70
     0
102
SHADEPLOTRESLEVEL
 70
     2
102
SHADEPLOTCUSTOMDPI
 70
   300
  0
ENDSEC
  0
EOF
