  0
SECTION
  2
HEADER
  9
$ACADVER
  1
AC1015
  9
$ACADMAINTVER
 70
    20
  9
$DWGCODEPAGE
  3
ANSI_932
  9
$INSBASE
 10
0.0
 20
0.0
 30
0.0
  9
$EXTMIN
 10
139.9999999999995
 20
-0.0000000000000909
 30
0.0
  9
$EXTMAX
 10
16307.2
 20
11409.6
 30
0.0
  9
$LIMMIN
 10
0.0
 20
0.0
  9
$LIMMAX
 10
16800.0
 20
11880.0
  9
$ORTHOMODE
 70
     0
  9
$REGENMODE
 70
     1
  9
$FILLMODE
 70
     1
  9
$QTEXTMODE
 70
     0
  9
$MIRRTEXT
 70
     1
  9
$LTSCALE
 40
20.0
  9
$ATTMODE
 70
     1
  9
$TEXTSIZE
 40
100.0
  9
$TRACEWID
 40
1.0
  9
$TEXTSTYLE
  7
STYLE3
  9
$CLAYER
  8
寸法
  9
$CELTYPE
  6
BYLAYER
  9
$CECOLOR
 62
   256
  9
$CELTSCALE
 40
50.0
  9
$DISPSILH
 70
     0
  9
$DIMSCALE
 40
40.0
  9
$DIMASZ
 40
2.5
  9
$DIMEXO
 40
0.5
  9
$DIMDLI
 40
7.0
  9
$DIMRND
 40
0.0
  9
$DIMDLE
 40
0.0
  9
$DIMEXE
 40
1.5
  9
$DIMTP
 40
0.0
  9
$DIMTM
 40
0.0
  9
$DIMTXT
 40
3.0
  9
$DIMCEN
 40
0.0
  9
$DIMTSZ
 40
0.0
  9
$DIMTOL
 70
     0
  9
$DIMLIM
 70
     0
  9
$DIMTIH
 70
     0
  9
$DIMTOH
 70
     0
  9
$DIMSE1
 70
     0
  9
$DIMSE2
 70
     0
  9
$DIMTAD
 70
     3
  9
$DIMZIN
 70
     8
  9
$DIMBLK
  1

  9
$DIMASO
 70
     1
  9
$DIMSHO
 70
     1
  9
$DIMPOST
  1

  9
$DIMAPOST
  1

  9
$DIMALT
 70
     0
  9
$DIMALTD
 70
     2
  9
$DIMALTF
 40
0.0394
  9
$DIMLFAC
 40
1.0
  9
$DIMTOFL
 70
     1
  9
$DIMTVP
 40
0.0
  9
$DIMTIX
 70
     1
  9
$DIMSOXD
 70
     0
  9
$DIMSAH
 70
     1
  9
$DIMBLK1
  1
DOTSMALL
  9
$DIMBLK2
  1
DOTSMALL
  9
$DIMSTYLE
  2
INABA_S40G
  9
$DIMCLRD
 70
     0
  9
$DIMCLRE
 70
     0
  9
$DIMCLRT
 70
     7
  9
$DIMTFAC
 40
1.0
  9
$DIMGAP
 40
1.0
  9
$DIMJUST
 70
     0
  9
$DIMSD1
 70
     0
  9
$DIMSD2
 70
     0
  9
$DIMTOLJ
 70
     1
  9
$DIMTZIN
 70
     0
  9
$DIMALTZ
 70
     0
  9
$DIMALTTZ
 70
     0
  9
$DIMUPT
 70
     0
  9
$DIMDEC
 70
     1
  9
$DIMTDEC
 70
     4
  9
$DIMALTU
 70
     2
  9
$DIMALTTD
 70
     2
  9
$DIMTXSTY
  7
STYLE1
  9
$DIMAUNIT
 70
     0
  9
$DIMADEC
 70
     0
  9
$DIMALTRND
 40
0.0
  9
$DIMAZIN
 70
     0
  9
$DIMDSEP
 70
    46
  9
$DIMATFIT
 70
     3
  9
$DIMFRAC
 70
     0
  9
$DIMLDRBLK
  1

  9
$DIMLUNIT
 70
     2
  9
$DIMLWD
 70
    -2
  9
$DIMLWE
 70
    -2
  9
$DIMTMOVE
 70
     0
  9
$LUNITS
 70
     2
  9
$LUPREC
 70
     1
  9
$SKETCHINC
 40
1.0
  9
$FILLETRAD
 40
5.0
  9
$AUNITS
 70
     0
  9
$AUPREC
 70
     0
  9
$MENU
  1
acad
  9
$ELEVATION
 40
0.0
  9
$PELEVATION
 40
0.0
  9
$THICKNESS
 40
0.0
  9
$LIMCHECK
 70
     0
  9
$CHAMFERA
 40
0.0
  9
$CHAMFERB
 40
0.0
  9
$CHAMFERC
 40
0.0
  9
$CHAMFERD
 40
0.0
  9
$SKPOLY
 70
     0
  9
$TDCREATE
 40
2452116.684896065
  9
$TDUCREATE
 40
2452116.309896065
  9
$TDUPDATE
 40
2455575.690078299
  9
$TDUUPDATE
 40
2455575.315078299
  9
$TDINDWG
 40
0.5078636111
  9
$TDUSRTIMER
 40
0.5078636111
  9
$USRTIMER
 70
     1
  9
$ANGBASE
 50
0.0
  9
$ANGDIR
 70
     0
  9
$PDMODE
 70
     3
  9
$PDSIZE
 40
2.0
  9
$PLINEWID
 40
0.0
  9
$SPLFRAME
 70
     0
  9
$SPLINETYPE
 70
     6
  9
$SPLINESEGS
 70
     8
  9
$HANDSEED
  5
172F0
  9
$SURFTAB1
 70
     6
  9
$SURFTAB2
 70
     6
  9
$SURFTYPE
 70
     6
  9
$SURFU
 70
     6
  9
$SURFV
 70
     6
  9
$UCSBASE
  2

  9
$UCSNAME
  2

  9
$UCSORG
 10
0.0
 20
0.0
 30
0.0
  9
$UCSXDIR
 10
1.0
 20
0.0
 30
0.0
  9
$UCSYDIR
 10
0.0
 20
1.0
 30
0.0
  9
$UCSORTHOREF
  2

  9
$UCSORTHOVIEW
 70
     0
  9
$UCSORGTOP
 10
0.0
 20
0.0
 30
0.0
  9
$UCSORGBOTTOM
 10
0.0
 20
0.0
 30
0.0
  9
$UCSORGLEFT
 10
0.0
 20
0.0
 30
0.0
  9
$UCSORGRIGHT
 10
0.0
 20
0.0
 30
0.0
  9
$UCSORGFRONT
 10
0.0
 20
0.0
 30
0.0
  9
$UCSORGBACK
 10
0.0
 20
0.0
 30
0.0
  9
$PUCSBASE
  2

  9
$PUCSNAME
  2

  9
$PUCSORG
 10
0.0
 20
0.0
 30
0.0
  9
$PUCSXDIR
 10
1.0
 20
0.0
 30
0.0
  9
$PUCSYDIR
 10
0.0
 20
1.0
 30
0.0
  9
$PUCSORTHOREF
  2

  9
$PUCSORTHOVIEW
 70
     0
  9
$PUCSORGTOP
 10
0.0
 20
0.0
 30
0.0
  9
$PUCSORGBOTTOM
 10
0.0
 20
0.0
 30
0.0
  9
$PUCSORGLEFT
 10
0.0
 20
0.0
 30
0.0
  9
$PUCSORGRIGHT
 10
0.0
 20
0.0
 30
0.0
  9
$PUCSORGFRONT
 10
0.0
 20
0.0
 30
0.0
  9
$PUCSORGBACK
 10
0.0
 20
0.0
 30
0.0
  9
$USERI1
 70
     0
  9
$USERI2
 70
     0
  9
$USERI3
 70
     0
  9
$USERI4
 70
     0
  9
$USERI5
 70
     0
  9
$USERR1
 40
0.0
  9
$USERR2
 40
0.0
  9
$USERR3
 40
0.0
  9
$USERR4
 40
0.0
  9
$USERR5
 40
0.0
  9
$WORLDVIEW
 70
     1
  9
$SHADEDGE
 70
     3
  9
$SHADEDIF
 70
    70
  9
$TILEMODE
 70
     1
  9
$MAXACTVP
 70
    16
  9
$PINSBASE
 10
0.0
 20
0.0
 30
0.0
  9
$PLIMCHECK
 70
     0
  9
$PEXTMIN
 10
1.000000000000000E+20
 20
1.000000000000000E+20
 30
1.000000000000000E+20
  9
$PEXTMAX
 10
-1.000000000000000E+20
 20
-1.000000000000000E+20
 30
-1.000000000000000E+20
  9
$PLIMMIN
 10
0.0
 20
0.0
  9
$PLIMMAX
 10
420.0
 20
297.0
  9
$UNITMODE
 70
     0
  9
$VISRETAIN
 70
     0
  9
$PLINEGEN
 70
     0
  9
$PSLTSCALE
 70
     0
  9
$TREEDEPTH
 70
  3020
  9
$CMLSTYLE
  2
STANDARD
  9
$CMLJUST
 70
     0
  9
$CMLSCALE
 40
1.0
  9
$PROXYGRAPHICS
 70
     1
  9
$MEASUREMENT
 70
     1
  9
$CELWEIGHT
370
    -1
  9
$ENDCAPS
280
     0
  9
$JOINSTYLE
280
     0
  9
$LWDISPLAY
290
     0
  9
$INSUNITS
 70
     0
  9
$HYPERLINKBASE
  1

  9
$STYLESHEET
  1

  9
$XEDIT
290
     1
  9
$CEPSNTYPE
380
     0
  9
$PSTYLEMODE
290
     1
  9
$FINGERPRINTGUID
  2
{170725BC-2F8B-4340-B86D-ACCC050492C4}
  9
$VERSIONGUID
  2
{CBB79523-10F2-4A5D-87AC-3C320C15AFD7}
  9
$EXTNAMES
290
     1
  9
$PSVPSCALE
 40
0.0
  9
$OLESTARTUP
290
     0
  0
ENDSEC
  0
SECTION
  2
CLASSES
  0
CLASS
  1
ACDBDICTIONARYWDFLT
  2
AcDbDictionaryWithDefault
  3
ObjectDBX Classes
 90
        0
280
     0
281
     0
  0
CLASS
  1
DICTIONARYVAR
  2
AcDbDictionaryVar
  3
ObjectDBX Classes
 90
        0
280
     0
281
     0
  0
CLASS
  1
ACDBPLACEHOLDER
  2
AcDbPlaceHolder
  3
ObjectDBX Classes
 90
        0
280
     0
281
     0
  0
CLASS
  1
LAYOUT
  2
AcDbLayout
  3
ObjectDBX Classes
 90
        0
280
     0
281
     0
  0
ENDSEC
  0
SECTION
  2
TABLES
  0
TABLE
  2
VPORT
  5
746D
330
0
100
AcDbSymbolTable
 70
     2
  0
VPORT
  5
172E8
330
746D
100
AcDbSymbolTableRecord
100
AcDbViewportTableRecord
  2
*Active
 70
     0
 10
0.0
 20
0.0
 11
1.0
 21
1.0
 12
8223.761025238502
 22
6348.450019463587
 13
0.0
 23
0.0
 14
10.0
 24
10.0
 15
10.0
 25
10.0
 16
0.0
 26
0.0
 36
1.0
 17
0.0
 27
0.0
 37
0.0
 40
12806.19294782812
 41
1.525925925925925
 42
50.0
 43
0.0
 44
0.0
 50
0.0
 51
0.0
 71
     0
 72
     0
 73
     1
 74
     0
 75
     0
 76
     0
 77
     0
 78
     0
281
     0
 65
     1
110
0.0
120
0.0
130
0.0
111
1.0
121
0.0
131
0.0
112
0.0
122
1.0
132
0.0
 79
     0
146
0.0
  0
ENDTAB
  0
TABLE
  2
LTYPE
  5
746A
330
0
100
AcDbSymbolTable
 70
     4
  0
LTYPE
  5
7477
330
746A
100
AcDbSymbolTableRecord
100
AcDbLinetypeTableRecord
  2
BYBLOCK
 70
     0
  3

 72
    65
 73
     0
 40
0.0
  0
LTYPE
  5
7478
330
746A
100
AcDbSymbolTableRecord
100
AcDbLinetypeTableRecord
  2
BYLAYER
 70
     0
  3

 72
    65
 73
     0
 40
0.0
  0
LTYPE
  5
7479
330
746A
100
AcDbSymbolTableRecord
100
AcDbLinetypeTableRecord
  2
CONTINUOUS
 70
     0
  3
Solid line
 72
    65
 73
     0
 40
0.0
  0
LTYPE
  5
7816
330
746A
100
AcDbSymbolTableRecord
100
AcDbLinetypeTableRecord
  2
CENTER
 70
     0
  3
____ _ ____ _ ____ _ ____ _ ____ _ ____ _ ____ 
 72
    65
 73
     4
 40
2.0
 49
1.25
 74
     0
 49
-0.25
 74
     0
 49
0.25
 74
     0
 49
-0.25
 74
     0
  0
LTYPE
  5
781A
330
746A
100
AcDbSymbolTableRecord
100
AcDbLinetypeTableRecord
  2
HIDDEN
 70
     0
  3
__ __ __ __ __ __ __ __ __ __ __ __ __ __ __ __
 72
    65
 73
     2
 40
0.375
 49
0.25
 74
     0
 49
-0.125
 74
     0
  0
LTYPE
  5
781B
330
746A
100
AcDbSymbolTableRecord
100
AcDbLinetypeTableRecord
  2
PHANTOM
 70
     0
  3
______  __  __  ______  __  __  ______  __  __ 
 72
    65
 73
     6
 40
2.5
 49
1.25
 74
     0
 49
-0.25
 74
     0
 49
0.25
 74
     0
 49
-0.25
 74
     0
 49
0.25
 74
     0
 49
-0.25
 74
     0
  0
ENDTAB
  0
TABLE
  2
LAYER
  5
7467
102
{ACAD_XDICTIONARY
360
15BF5
102
}
330
0
100
AcDbSymbolTable
 70
    12
  0
LAYER
  5
7474
330
7467
100
AcDbSymbolTableRecord
100
AcDbLayerTableRecord
  2
0
 70
     0
 62
     7
  6
CONTINUOUS
370
    -3
390
15A1F
  0
LAYER
  5
DEB2
330
7467
100
AcDbSymbolTableRecord
100
AcDbLayerTableRecord
  2
センター
 70
     0
 62
     3
  6
CENTER
370
    -3
390
15A1F
  0
LAYER
  5
DEB3
330
7467
100
AcDbSymbolTableRecord
100
AcDbLayerTableRecord
  2
寸法
 70
     0
 62
     4
  6
CONTINUOUS
370
    -3
390
15A1F
  0
LAYER
  5
DEB4
330
7467
100
AcDbSymbolTableRecord
100
AcDbLayerTableRecord
  2
部品1
 70
     0
 62
     7
  6
CONTINUOUS
370
    -3
390
15A1F
  0
LAYER
  5
DEB5
330
7467
100
AcDbSymbolTableRecord
100
AcDbLayerTableRecord
  2
補助
 70
     0
 62
    -1
  6
CONTINUOUS
370
    -3
390
15A1F
  0
LAYER
  5
DEB6
330
7467
100
AcDbSymbolTableRecord
100
AcDbLayerTableRecord
  2
文字
 70
     0
 62
     7
  6
CONTINUOUS
370
    -3
390
15A1F
  0
LAYER
  5
F255
330
7467
100
AcDbSymbolTableRecord
100
AcDbLayerTableRecord
  2
DEFPOINTS
 70
     0
 62
     7
  6
CONTINUOUS
290
     0
370
    -3
390
15A1F
  0
LAYER
  5
10B54
330
7467
100
AcDbSymbolTableRecord
100
AcDbLayerTableRecord
  2
仕様書枠
 70
     0
 62
   230
  6
CONTINUOUS
370
    -3
390
15A1F
  0
LAYER
  5
11729
330
7467
100
AcDbSymbolTableRecord
100
AcDbLayerTableRecord
  2
Ｇ．Ｌ
 70
     0
 62
    30
  6
CONTINUOUS
370
    -3
390
15A1F
  0
LAYER
  5
1173F
330
7467
100
AcDbSymbolTableRecord
100
AcDbLayerTableRecord
  2
細線
 70
     0
 62
     5
  6
CONTINUOUS
370
    -3
390
15A1F
  0
LAYER
  5
118A1
330
7467
100
AcDbSymbolTableRecord
100
AcDbLayerTableRecord
  2
想像線
 70
     0
 62
     6
  6
PHANTOM
370
    -3
390
15A1F
  0
LAYER
  5
123C1
330
7467
100
AcDbSymbolTableRecord
100
AcDbLayerTableRecord
  2
破線
 70
     0
 62
     2
  6
HIDDEN
370
    -3
390
15A1F
  0
ENDTAB
  0
TABLE
  2
STYLE
  5
7468
330
0
100
AcDbSymbolTable
 70
     4
  0
STYLE
  5
7475
330
7468
100
AcDbSymbolTableRecord
100
AcDbTextStyleTableRecord
  2
STANDARD
 70
     0
 40
0.0
 41
1.0
 50
0.0
 71
     0
 42
4.0
  3
txt
  4
C:\AutoCAD LT\bigfont.shx
  0
STYLE
  5
F706
330
7468
100
AcDbSymbolTableRecord
100
AcDbTextStyleTableRecord
  2
STYLE1
 70
     0
 40
0.0
 41
1.0
 50
0.0
 71
     0
 42
4.0
  3
isocp.shx
  4
bigfont.shx
  0
STYLE
  5
103BF
330
7468
100
AcDbSymbolTableRecord
100
AcDbTextStyleTableRecord
  2
STYLE2
 70
     0
 40
0.0
 41
1.0
 50
0.0
 71
     0
 42
100.0
  3
MS PGothic.ttf
  4

1001
ACAD
1000
MS PGothic
1071
    32818
  0
STYLE
  5
10BAA
330
7468
100
AcDbSymbolTableRecord
100
AcDbTextStyleTableRecord
  2
STYLE3
 70
     0
 40
0.0
 41
1.0
 50
0.0
 71
     0
 42
100.0
  3

  4

1001
ACAD
1000
DFPGothic-EB
1071
    32818
  0
ENDTAB
  0
TABLE
  2
VIEW
  5
746B
330
0
100
AcDbSymbolTable
 70
     0
  0
ENDTAB
  0
TABLE
  2
UCS
  5
746C
330
0
100
AcDbSymbolTable
 70
     0
  0
ENDTAB
  0
TABLE
  2
APPID
  5
746E
330
0
100
AcDbSymbolTable
 70
     6
  0
APPID
  5
7476
330
746E
100
AcDbSymbolTableRecord
100
AcDbRegAppTableRecord
  2
ACAD
 70
     0
  0
APPID
  5
DEA9
330
746E
100
AcDbSymbolTableRecord
100
AcDbRegAppTableRecord
  2
CONTENTBLOCKICON
 70
     0
  0
APPID
  5
DEAA
330
746E
100
AcDbSymbolTableRecord
100
AcDbRegAppTableRecord
  2
CONTENTBLOCKDESCRIPTION
 70
     0
  0
APPID
  5
E71D
330
746E
100
AcDbSymbolTableRecord
100
AcDbRegAppTableRecord
  2
CONTENTTABDATA
 70
     0
  0
APPID
  5
E71E
330
746E
100
AcDbSymbolTableRecord
100
AcDbRegAppTableRecord
  2
CONTENTCURRENTTAB
 70
     0
  0
APPID
  5
F3BA
330
746E
100
AcDbSymbolTableRecord
100
AcDbRegAppTableRecord
  2
DRAWINGVARIABLESXDATA
 70
     0
  0
ENDTAB
  0
TABLE
  2
DIMSTYLE
  5
746F
330
0
100
AcDbSymbolTable
 70
     2
100
AcDbDimStyleTable
 71
     1
340
F71F
  0
DIMSTYLE
105
7484
330
746F
100
AcDbSymbolTableRecord
100
AcDbDimStyleTableRecord
  2
JIS
 70
     0
 41
2.5
 42
1.0
 43
7.0
 44
1.0
 73
     0
 74
     0
 77
     1
 78
     8
140
2.5
141
0.0
143
0.0394
147
0.0
172
     1
174
     1
175
     1
340
7475
  0
DIMSTYLE
105
F71F
102
{ACAD_REACTORS
330
15107
330
15108
330
15109
330
1510A
330
1510B
330
1510C
330
1510D
330
1510E
330
1511A
330
15126
330
1516A
330
15171
330
15189
330
1518A
330
151C8
330
156F5
330
15855
330
15864
330
1587E
330
15898
330
15939
330
15943
330
15A0F
330
1672C
330
1672B
330
1672A
330
1677E
330
16D56
330
16D57
330
16D5B
330
16D5C
330
16D5D
330
16D5E
330
16D86
330
16D87
330
16D99
330
171BE
330
171BF
330
171EA
330
17202
330
17205
102
}
330
746F
100
AcDbSymbolTableRecord
100
AcDbDimStyleTableRecord
  2
INABA_S40G
 70
     0
 40
40.0
 41
2.5
 42
0.5
 43
7.0
 44
1.5
 73
     0
 74
     0
 77
     3
 78
     8
140
3.0
141
0.0
143
0.0394
147
1.0
172
     1
173
     1
174
     1
178
     7
271
     1
340
F706
341
F770
343
F770
344
F770
  0
ENDTAB
  0
TABLE
  2
BLOCK_RECORD
  5
7466
330
0
100
AcDbSymbolTable
 70
    42
  0
BLOCK_RECORD
  5
747D
330
7466
100
AcDbSymbolTableRecord
100
AcDbBlockTableRecord
  2
*MODEL_SPACE
340
15A24
  0
BLOCK_RECORD
  5
747A
330
7466
100
AcDbSymbolTableRecord
100
AcDbBlockTableRecord
  2
*PAPER_SPACE
340
15A25
  0
BLOCK_RECORD
  5
F770
330
7466
100
AcDbSymbolTableRecord
100
AcDbBlockTableRecord
  2
_DOTSMALL
340
0
102
{BLKREFS
331
16889
331
1688A
331
16894
331
16895
331
1689D
331
1689E
331
168A6
331
168A7
331
168FD
331
168FE
331
16908
331
16909
331
16911
331
16912
331
16923
331
16924
331
16935
331
16936
331
16947
331
16948
331
16959
331
1695A
331
16964
331
16965
331
1696D
331
1696E
331
1697F
331
16980
331
16988
331
16989
331
16991
331
16992
331
1699C
331
1699D
331
169A5
331
169A6
331
169AE
331
169AF
331
169B9
331
169BA
331
169C4
331
169C5
331
169CD
331
169CE
331
169D8
331
169D9
331
169E1
331
169E2
331
169EC
331
169ED
331
169F7
331
169F8
331
16A00
331
16A01
331
1710D
331
1710E
331
17117
331
17118
331
17121
331
17122
331
1712A
331
1712B
331
17135
331
17136
331
1713E
331
1713F
331
17147
331
17148
331
17152
331
17153
331
1715B
331
1715C
331
171DB
331
171DC
331
171E4
331
171E5
331
171FC
331
171FD
331
17223
331
17224
331
1722C
331
1722D
102
}
  0
BLOCK_RECORD
  5
152EF
330
7466
100
AcDbSymbolTableRecord
100
AcDbBlockTableRecord
  2
*D1
340
0
  0
BLOCK_RECORD
  5
152FB
330
7466
100
AcDbSymbolTableRecord
100
AcDbBlockTableRecord
  2
*D2
340
0
  0
BLOCK_RECORD
  5
15309
330
7466
100
AcDbSymbolTableRecord
100
AcDbBlockTableRecord
  2
*D3
340
0
  0
BLOCK_RECORD
  5
15317
330
7466
100
AcDbSymbolTableRecord
100
AcDbBlockTableRecord
  2
*D4
340
0
  0
BLOCK_RECORD
  5
15323
330
7466
100
AcDbSymbolTableRecord
100
AcDbBlockTableRecord
  2
*D5
340
0
  0
BLOCK_RECORD
  5
15331
330
7466
100
AcDbSymbolTableRecord
100
AcDbBlockTableRecord
  2
*D6
340
0
  0
BLOCK_RECORD
  5
1533D
330
7466
100
AcDbSymbolTableRecord
100
AcDbBlockTableRecord
  2
*D7
340
0
  0
BLOCK_RECORD
  5
1534B
330
7466
100
AcDbSymbolTableRecord
100
AcDbBlockTableRecord
  2
*D8
340
0
  0
BLOCK_RECORD
  5
15371
330
7466
100
AcDbSymbolTableRecord
100
AcDbBlockTableRecord
  2
*D9
340
0
  0
BLOCK_RECORD
  5
1537D
330
7466
100
AcDbSymbolTableRecord
100
AcDbBlockTableRecord
  2
*D10
340
0
  0
BLOCK_RECORD
  5
15395
330
7466
100
AcDbSymbolTableRecord
100
AcDbBlockTableRecord
  2
*D11
340
0
  0
BLOCK_RECORD
  5
153A3
330
7466
100
AcDbSymbolTableRecord
100
AcDbBlockTableRecord
  2
*D12
340
0
  0
BLOCK_RECORD
  5
153BB
330
7466
100
AcDbSymbolTableRecord
100
AcDbBlockTableRecord
  2
*D13
340
0
  0
BLOCK_RECORD
  5
153C7
330
7466
100
AcDbSymbolTableRecord
100
AcDbBlockTableRecord
  2
*D14
340
0
  0
BLOCK_RECORD
  5
153DF
330
7466
100
AcDbSymbolTableRecord
100
AcDbBlockTableRecord
  2
*D15
340
0
  0
BLOCK_RECORD
  5
156FD
330
7466
100
AcDbSymbolTableRecord
100
AcDbBlockTableRecord
  2
*D16
340
0
  0
BLOCK_RECORD
  5
15856
330
7466
100
AcDbSymbolTableRecord
100
AcDbBlockTableRecord
  2
*D17
340
0
  0
BLOCK_RECORD
  5
15865
330
7466
100
AcDbSymbolTableRecord
100
AcDbBlockTableRecord
  2
*D18
340
0
  0
BLOCK_RECORD
  5
1587F
330
7466
100
AcDbSymbolTableRecord
100
AcDbBlockTableRecord
  2
*D19
340
0
  0
BLOCK_RECORD
  5
15899
330
7466
100
AcDbSymbolTableRecord
100
AcDbBlockTableRecord
  2
*D20
340
0
  0
BLOCK_RECORD
  5
15944
330
7466
100
AcDbSymbolTableRecord
100
AcDbBlockTableRecord
  2
*D21
340
0
  0
BLOCK_RECORD
  5
15950
330
7466
100
AcDbSymbolTableRecord
100
AcDbBlockTableRecord
  2
*D22
340
0
  0
BLOCK_RECORD
  5
15A10
330
7466
100
AcDbSymbolTableRecord
100
AcDbBlockTableRecord
  2
*D23
340
0
  0
BLOCK_RECORD
  5
1673B
330
7466
100
AcDbSymbolTableRecord
100
AcDbBlockTableRecord
  2
*D24
340
0
  0
BLOCK_RECORD
  5
16749
330
7466
100
AcDbSymbolTableRecord
100
AcDbBlockTableRecord
  2
*D25
340
0
  0
BLOCK_RECORD
  5
16755
330
7466
100
AcDbSymbolTableRecord
100
AcDbBlockTableRecord
  2
*D26
340
0
  0
BLOCK_RECORD
  5
16789
330
7466
100
AcDbSymbolTableRecord
100
AcDbBlockTableRecord
  2
*D27
340
0
  0
BLOCK_RECORD
  5
16FD0
330
7466
100
AcDbSymbolTableRecord
100
AcDbBlockTableRecord
  2
*D28
340
0
  0
BLOCK_RECORD
  5
16FDC
330
7466
100
AcDbSymbolTableRecord
100
AcDbBlockTableRecord
  2
*D29
340
0
  0
BLOCK_RECORD
  5
16FEA
330
7466
100
AcDbSymbolTableRecord
100
AcDbBlockTableRecord
  2
*D30
340
0
  0
BLOCK_RECORD
  5
16FF6
330
7466
100
AcDbSymbolTableRecord
100
AcDbBlockTableRecord
  2
*D31
340
0
  0
BLOCK_RECORD
  5
17002
330
7466
100
AcDbSymbolTableRecord
100
AcDbBlockTableRecord
  2
*D32
340
0
  0
BLOCK_RECORD
  5
17010
330
7466
100
AcDbSymbolTableRecord
100
AcDbBlockTableRecord
  2
*D33
340
0
  0
BLOCK_RECORD
  5
1701C
330
7466
100
AcDbSymbolTableRecord
100
AcDbBlockTableRecord
  2
*D34
340
0
  0
BLOCK_RECORD
  5
17029
330
7466
100
AcDbSymbolTableRecord
100
AcDbBlockTableRecord
  2
*D35
340
0
  0
BLOCK_RECORD
  5
17036
330
7466
100
AcDbSymbolTableRecord
100
AcDbBlockTableRecord
  2
*D36
340
0
  0
BLOCK_RECORD
  5
171C0
330
7466
100
AcDbSymbolTableRecord
100
AcDbBlockTableRecord
  2
*D37
340
0
  0
BLOCK_RECORD
  5
171CC
330
7466
100
AcDbSymbolTableRecord
100
AcDbBlockTableRecord
  2
*D38
340
0
  0
BLOCK_RECORD
  5
171ED
330
7466
100
AcDbSymbolTableRecord
100
AcDbBlockTableRecord
  2
*D39
340
0
  0
BLOCK_RECORD
  5
17208
330
7466
100
AcDbSymbolTableRecord
100
AcDbBlockTableRecord
  2
*D40
340
0
  0
BLOCK_RECORD
  5
17214
330
7466
100
AcDbSymbolTableRecord
100
AcDbBlockTableRecord
  2
*D41
340
0
  0
ENDTAB
  0
ENDSEC
  0
SECTION
  2
BLOCKS
  0
BLOCK
  5
7489
330
747D
100
AcDbEntity
  8
0
100
AcDbBlockBegin
  2
*MODEL_SPACE
 70
     0
 10
0.0
 20
0.0
 30
0.0
  3
*MODEL_SPACE
  1

  0
ENDBLK
  5
748A
330
747D
100
AcDbEntity
  8
0
100
AcDbBlockEnd
  0
BLOCK
  5
7487
330
747A
100
AcDbEntity
 67
     1
  8
0
100
AcDbBlockBegin
  2
*PAPER_SPACE
 70
     0
 10
0.0
 20
0.0
 30
0.0
  3
*PAPER_SPACE
  1

  0
ENDBLK
  5
7488
330
747A
100
AcDbEntity
 67
     1
  8
0
100
AcDbBlockEnd
  0
BLOCK
  5
F771
330
F770
100
AcDbEntity
  8
0
 48
50.0
100
AcDbBlockBegin
  2
_DOTSMALL
 70
     0
 10
0.0
 20
0.0
 30
0.0
  3
_DOTSMALL
  1

  0
LWPOLYLINE
  5
F772
330
F770
100
AcDbEntity
  8
0
  6
ByBlock
 62
     0
 48
50.0
100
AcDbPolyline
 90
        2
 70
     1
 43
0.5
 10
-0.0625
 20
0.0
 42
1.0
 10
0.0625
 20
0.0
 42
1.0
  0
ENDBLK
  5
F776
330
F770
100
AcDbEntity
  8
0
 48
50.0
100
AcDbBlockEnd
  0
BLOCK
  5
1541F
330
152EF
100
AcDbEntity
  8
0
 48
50.0
100
AcDbBlockBegin
  2
*D1
 70
     1
 10
0.0
 20
0.0
 30
0.0
  3
*D1
  1

  0
LINE
  5
169FD
330
152EF
100
AcDbEntity
  8
寸法
 62
     0
 48
50.0
370
    -2
100
AcDbLine
 10
7024.484998239408
 20
9497.584002499982
 30
0.0
 11
7024.484998239408
 21
9753.392222124972
 31
0.0
  0
LINE
  5
169FE
330
152EF
100
AcDbEntity
  8
寸法
 62
     0
 48
50.0
370
    -2
100
AcDbLine
 10
6314.48499823941
 20
9497.584002499968
 30
0.0
 11
6314.48499823941
 21
9753.392222124972
 31
0.0
  0
LINE
  5
169FF
330
152EF
100
AcDbEntity
  8
寸法
 62
     0
 48
50.0
370
    -2
100
AcDbLine
 10
7024.484998239408
 20
9693.39222212497
 30
0.0
 11
6314.48499823941
 21
9693.39222212497
 31
0.0
  0
INSERT
  5
16A00
330
152EF
100
AcDbEntity
  8
寸法
 62
     0
 48
50.0
370
    -2
100
AcDbBlockReference
  2
_DOTSMALL
 10
7024.484998239408
 20
9693.39222212497
 30
0.0
 41
100.0
 42
100.0
 43
100.0
  0
INSERT
  5
16A01
330
152EF
100
AcDbEntity
  8
寸法
 62
     0
 48
50.0
370
    -2
100
AcDbBlockReference
  2
_DOTSMALL
 10
6314.48499823941
 20
9693.39222212497
 30
0.0
 41
100.0
 42
100.0
 43
100.0
 50
180.0
  0
MTEXT
  5
16A02
330
152EF
100
AcDbEntity
  8
寸法
 62
     7
 48
50.0
100
AcDbMText
 10
6669.484998239409
 20
9793.392222124971
 30
0.0
 40
120.0
 41
0.0
 71
     5
 72
     1
  1
\A1;710
  7
STYLE1
 73
     1
 44
1.0
1001
ACAD
1000
MTEXTBEGIN
1070
    73
1070
     1
1070
    44
1040
1.0
1070
    74
1070
     0
1000
MTEXTEND
  0
POINT
  5
16A03
330
152EF
100
AcDbEntity
  8
DEFPOINTS
 62
     0
 48
50.0
100
AcDbPoint
 10
7024.484998239408
 20
9477.584002499982
 30
0.0
  0
POINT
  5
16A04
330
152EF
100
AcDbEntity
  8
DEFPOINTS
 62
     0
 48
50.0
100
AcDbPoint
 10
6314.48499823941
 20
9477.584002499966
 30
0.0
  0
POINT
  5
16A05
330
152EF
100
AcDbEntity
  8
DEFPOINTS
 62
     0
 48
50.0
100
AcDbPoint
 10
6314.48499823941
 20
9693.39222212497
 30
0.0
  0
ENDBLK
  5
15429
330
152EF
100
AcDbEntity
  8
0
 48
50.0
100
AcDbBlockEnd
  0
BLOCK
  5
1542A
330
152FB
100
AcDbEntity
  8
0
 48
50.0
100
AcDbBlockBegin
  2
*D2
 70
     1
 10
0.0
 20
0.0
 30
0.0
  3
*D2
  1

  0
LINE
  5
169F2
330
152FB
100
AcDbEntity
  8
寸法
 62
     0
 48
50.0
370
    -2
100
AcDbLine
 10
7844.484998239408
 20
9497.584002499968
 30
0.0
 11
7844.484998239408
 21
9753.392222124949
 31
0.0
  0
LINE
  5
169F3
330
152FB
100
AcDbEntity
  8
寸法
 62
     0
 48
50.0
370
    -2
100
AcDbLine
 10
7899.484998239408
 20
9497.584002499968
 30
0.0
 11
7899.484998239408
 21
9753.392222124949
 31
0.0
  0
LINE
  5
169F4
330
152FB
100
AcDbEntity
  8
寸法
 62
     0
 48
50.0
370
    -2
100
AcDbLine
 10
7844.484998239408
 20
9693.392222124948
 30
0.0
 11
7744.484998239407
 21
9693.392222124948
 31
0.0
  0
LINE
  5
169F5
330
152FB
100
AcDbEntity
  8
寸法
 62
     0
 48
50.0
370
    -2
100
AcDbLine
 10
7899.484998239408
 20
9693.392222124948
 30
0.0
 11
8316.455560987884
 21
9693.392222124948
 31
0.0
  0
LINE
  5
169F6
330
152FB
100
AcDbEntity
  8
寸法
 62
     0
 48
50.0
370
    -2
100
AcDbLine
 10
7844.484998239408
 20
9693.392222124948
 30
0.0
 11
7899.484998239408
 21
9693.392222124948
 31
0.0
  0
INSERT
  5
169F7
330
152FB
100
AcDbEntity
  8
寸法
 62
     0
 48
50.0
370
    -2
100
AcDbBlockReference
  2
_DOTSMALL
 10
7844.484998239408
 20
9693.392222124948
 30
0.0
 41
100.0
 42
100.0
 43
100.0
  0
INSERT
  5
169F8
330
152FB
100
AcDbEntity
  8
寸法
 62
     0
 48
50.0
370
    -2
100
AcDbBlockReference
  2
_DOTSMALL
 10
7899.484998239408
 20
9693.392222124948
 30
0.0
 41
100.0
 42
100.0
 43
100.0
 50
180.0
  0
MTEXT
  5
169F9
330
152FB
100
AcDbEntity
  8
寸法
 62
     7
 48
50.0
100
AcDbMText
 10
8207.970279613645
 20
9793.39222212495
 30
0.0
 40
120.0
 41
0.0
 71
     5
 72
     1
  1
\A1;55
  7
STYLE1
 73
     1
 44
1.0
1001
ACAD
1000
MTEXTBEGIN
1070
    73
1070
     1
1070
    44
1040
1.0
1070
    74
1070
     0
1000
MTEXTEND
  0
POINT
  5
169FA
330
152FB
100
AcDbEntity
  8
DEFPOINTS
 62
     0
 48
50.0
100
AcDbPoint
 10
7844.484998239408
 20
9477.584002499966
 30
0.0
  0
POINT
  5
169FB
330
152FB
100
AcDbEntity
  8
DEFPOINTS
 62
     0
 48
50.0
100
AcDbPoint
 10
7899.484998239408
 20
9477.584002499966
 30
0.0
  0
POINT
  5
169FC
330
152FB
100
AcDbEntity
  8
DEFPOINTS
 62
     0
 48
50.0
100
AcDbPoint
 10
7899.484998239408
 20
9693.392222124948
 30
0.0
  0
ENDBLK
  5
15436
330
152FB
100
AcDbEntity
  8
0
 48
50.0
100
AcDbBlockEnd
  0
BLOCK
  5
15437
330
15309
100
AcDbEntity
  8
0
 48
50.0
100
AcDbBlockBegin
  2
*D3
 70
     1
 10
0.0
 20
0.0
 30
0.0
  3
*D3
  1

  0
LINE
  5
169E7
330
15309
100
AcDbEntity
  8
寸法
 62
     0
 48
50.0
370
    -2
100
AcDbLine
 10
5384.484998239407
 20
9497.584002499989
 30
0.0
 11
5384.484998239407
 21
9753.392222124972
 31
0.0
  0
LINE
  5
169E8
330
15309
100
AcDbEntity
  8
寸法
 62
     0
 48
50.0
370
    -2
100
AcDbLine
 10
5494.48499823941
 20
9497.584002499968
 30
0.0
 11
5494.48499823941
 21
9753.392222124972
 31
0.0
  0
LINE
  5
169E9
330
15309
100
AcDbEntity
  8
寸法
 62
     0
 48
50.0
370
    -2
100
AcDbLine
 10
5384.484998239407
 20
9693.39222212497
 30
0.0
 11
5284.484998239406
 21
9693.39222212497
 31
0.0
  0
LINE
  5
169EA
330
15309
100
AcDbEntity
  8
寸法
 62
     0
 48
50.0
370
    -2
100
AcDbLine
 10
5494.48499823941
 20
9693.39222212497
 30
0.0
 11
5594.484998239409
 21
9693.39222212497
 31
0.0
  0
LINE
  5
169EB
330
15309
100
AcDbEntity
  8
寸法
 62
     0
 48
50.0
370
    -2
100
AcDbLine
 10
5384.484998239407
 20
9693.39222212497
 30
0.0
 11
5494.48499823941
 21
9693.39222212497
 31
0.0
  0
INSERT
  5
169EC
330
15309
100
AcDbEntity
  8
寸法
 62
     0
 48
50.0
370
    -2
100
AcDbBlockReference
  2
_DOTSMALL
 10
5384.484998239407
 20
9693.39222212497
 30
0.0
 41
100.0
 42
100.0
 43
100.0
  0
INSERT
  5
169ED
330
15309
100
AcDbEntity
  8
寸法
 62
     0
 48
50.0
370
    -2
100
AcDbBlockReference
  2
_DOTSMALL
 10
5494.48499823941
 20
9693.39222212497
 30
0.0
 41
100.0
 42
100.0
 43
100.0
 50
180.0
  0
MTEXT
  5
169EE
330
15309
100
AcDbEntity
  8
寸法
 62
     7
 48
50.0
100
AcDbMText
 10
5439.484998239407
 20
9793.392222124971
 30
0.0
 40
120.0
 41
0.0
 71
     5
 72
     1
  1
\A1;110
  7
STYLE1
 73
     1
 44
1.0
1001
ACAD
1000
MTEXTBEGIN
1070
    73
1070
     1
1070
    44
1040
1.0
1070
    74
1070
     0
1000
MTEXTEND
  0
POINT
  5
169EF
330
15309
100
AcDbEntity
  8
DEFPOINTS
 62
     0
 48
50.0
100
AcDbPoint
 10
5384.484998239407
 20
9477.584002499989
 30
0.0
  0
POINT
  5
169F0
330
15309
100
AcDbEntity
  8
DEFPOINTS
 62
     0
 48
50.0
100
AcDbPoint
 10
5494.48499823941
 20
9477.584002499966
 30
0.0
  0
POINT
  5
169F1
330
15309
100
AcDbEntity
  8
DEFPOINTS
 62
     0
 48
50.0
100
AcDbPoint
 10
5494.48499823941
 20
9693.39222212497
 30
0.0
  0
ENDBLK
  5
15443
330
15309
100
AcDbEntity
  8
0
 48
50.0
100
AcDbBlockEnd
  0
BLOCK
  5
15444
330
15317
100
AcDbEntity
  8
0
 48
50.0
100
AcDbBlockBegin
  2
*D4
 70
     1
 10
0.0
 20
0.0
 30
0.0
  3
*D4
  1

  0
LINE
  5
169DE
330
15317
100
AcDbEntity
  8
寸法
 62
     0
 48
50.0
370
    -2
100
AcDbLine
 10
4674.484998239408
 20
9497.584002499902
 30
0.0
 11
4674.484998239408
 21
9753.392222124972
 31
0.0
  0
LINE
  5
169DF
330
15317
100
AcDbEntity
  8
寸法
 62
     0
 48
50.0
370
    -2
100
AcDbLine
 10
5384.484998239407
 20
9497.584002499989
 30
0.0
 11
5384.484998239407
 21
9753.392222124972
 31
0.0
  0
LINE
  5
169E0
330
15317
100
AcDbEntity
  8
寸法
 62
     0
 48
50.0
370
    -2
100
AcDbLine
 10
4674.484998239408
 20
9693.39222212497
 30
0.0
 11
5384.484998239407
 21
9693.39222212497
 31
0.0
  0
INSERT
  5
169E1
330
15317
100
AcDbEntity
  8
寸法
 62
     0
 48
50.0
370
    -2
100
AcDbBlockReference
  2
_DOTSMALL
 10
4674.484998239408
 20
9693.39222212497
 30
0.0
 41
100.0
 42
100.0
 43
100.0
 50
180.0
  0
INSERT
  5
169E2
330
15317
100
AcDbEntity
  8
寸法
 62
     0
 48
50.0
370
    -2
100
AcDbBlockReference
  2
_DOTSMALL
 10
5384.484998239407
 20
9693.39222212497
 30
0.0
 41
100.0
 42
100.0
 43
100.0
  0
MTEXT
  5
169E3
330
15317
100
AcDbEntity
  8
寸法
 62
     7
 48
50.0
100
AcDbMText
 10
5029.734998239406
 20
9793.392222124971
 30
0.0
 40
120.0
 41
0.0
 71
     5
 72
     1
  1
\A1;710
  7
STYLE1
 73
     1
 44
1.0
1001
ACAD
1000
MTEXTBEGIN
1070
    73
1070
     1
1070
    44
1040
1.0
1070
    74
1070
     0
1000
MTEXTEND
  0
POINT
  5
169E4
330
15317
100
AcDbEntity
  8
DEFPOINTS
 62
     0
 48
50.0
100
AcDbPoint
 10
4674.484998239408
 20
9477.5840024999
 30
0.0
  0
POINT
  5
169E5
330
15317
100
AcDbEntity
  8
DEFPOINTS
 62
     0
 48
50.0
100
AcDbPoint
 10
5384.484998239407
 20
9477.584002499989
 30
0.0
  0
POINT
  5
169E6
330
15317
100
AcDbEntity
  8
DEFPOINTS
 62
     0
 48
50.0
100
AcDbPoint
 10
5384.484998239407
 20
9693.39222212497
 30
0.0
  0
ENDBLK
  5
1544E
330
15317
100
AcDbEntity
  8
0
 48
50.0
100
AcDbBlockEnd
  0
BLOCK
  5
1544F
330
15323
100
AcDbEntity
  8
0
 48
50.0
100
AcDbBlockBegin
  2
*D5
 70
     1
 10
0.0
 20
0.0
 30
0.0
  3
*D5
  1

  0
LINE
  5
169D3
330
15323
100
AcDbEntity
  8
寸法
 62
     0
 48
50.0
370
    -2
100
AcDbLine
 10
6204.484998239406
 20
9497.584002499989
 30
0.0
 11
6204.484998239406
 21
9753.392222124972
 31
0.0
  0
LINE
  5
169D4
330
15323
100
AcDbEntity
  8
寸法
 62
     0
 48
50.0
370
    -2
100
AcDbLine
 10
6314.48499823941
 20
9497.584002499968
 30
0.0
 11
6314.48499823941
 21
9753.392222124972
 31
0.0
  0
LINE
  5
169D5
330
15323
100
AcDbEntity
  8
寸法
 62
     0
 48
50.0
370
    -2
100
AcDbLine
 10
6204.484998239406
 20
9693.39222212497
 30
0.0
 11
6104.484998239406
 21
9693.39222212497
 31
0.0
  0
LINE
  5
169D6
330
15323
100
AcDbEntity
  8
寸法
 62
     0
 48
50.0
370
    -2
100
AcDbLine
 10
6314.48499823941
 20
9693.39222212497
 30
0.0
 11
6414.48499823941
 21
9693.39222212497
 31
0.0
  0
LINE
  5
169D7
330
15323
100
AcDbEntity
  8
寸法
 62
     0
 48
50.0
370
    -2
100
AcDbLine
 10
6204.484998239406
 20
9693.39222212497
 30
0.0
 11
6314.48499823941
 21
9693.39222212497
 31
0.0
  0
INSERT
  5
169D8
330
15323
100
AcDbEntity
  8
寸法
 62
     0
 48
50.0
370
    -2
100
AcDbBlockReference
  2
_DOTSMALL
 10
6204.484998239406
 20
9693.39222212497
 30
0.0
 41
100.0
 42
100.0
 43
100.0
  0
INSERT
  5
169D9
330
15323
100
AcDbEntity
  8
寸法
 62
     0
 48
50.0
370
    -2
100
AcDbBlockReference
  2
_DOTSMALL
 10
6314.48499823941
 20
9693.39222212497
 30
0.0
 41
100.0
 42
100.0
 43
100.0
 50
180.0
  0
MTEXT
  5
169DA
330
15323
100
AcDbEntity
  8
寸法
 62
     7
 48
50.0
100
AcDbMText
 10
6259.484998239408
 20
9793.392222124971
 30
0.0
 40
120.0
 41
0.0
 71
     5
 72
     1
  1
\A1;110
  7
STYLE1
 73
     1
 44
1.0
1001
ACAD
1000
MTEXTBEGIN
1070
    73
1070
     1
1070
    44
1040
1.0
1070
    74
1070
     0
1000
MTEXTEND
  0
POINT
  5
169DB
330
15323
100
AcDbEntity
  8
DEFPOINTS
 62
     0
 48
50.0
100
AcDbPoint
 10
6204.484998239406
 20
9477.584002499989
 30
0.0
  0
POINT
  5
169DC
330
15323
100
AcDbEntity
  8
DEFPOINTS
 62
     0
 48
50.0
100
AcDbPoint
 10
6314.48499823941
 20
9477.584002499966
 30
0.0
  0
POINT
  5
169DD
330
15323
100
AcDbEntity
  8
DEFPOINTS
 62
     0
 48
50.0
100
AcDbPoint
 10
6314.48499823941
 20
9693.39222212497
 30
0.0
  0
ENDBLK
  5
1545B
330
15323
100
AcDbEntity
  8
0
 48
50.0
100
AcDbBlockEnd
  0
BLOCK
  5
1545C
330
15331
100
AcDbEntity
  8
0
 48
50.0
100
AcDbBlockBegin
  2
*D6
 70
     1
 10
0.0
 20
0.0
 30
0.0
  3
*D6
  1

  0
LINE
  5
169CA
330
15331
100
AcDbEntity
  8
寸法
 62
     0
 48
50.0
370
    -2
100
AcDbLine
 10
5494.484998239408
 20
9497.584002499902
 30
0.0
 11
5494.484998239408
 21
9753.392222124972
 31
0.0
  0
LINE
  5
169CB
330
15331
100
AcDbEntity
  8
寸法
 62
     0
 48
50.0
370
    -2
100
AcDbLine
 10
6204.484998239406
 20
9497.584002499989
 30
0.0
 11
6204.484998239406
 21
9753.392222124972
 31
0.0
  0
LINE
  5
169CC
330
15331
100
AcDbEntity
  8
寸法
 62
     0
 48
50.0
370
    -2
100
AcDbLine
 10
5494.484998239408
 20
9693.39222212497
 30
0.0
 11
6204.484998239406
 21
9693.39222212497
 31
0.0
  0
INSERT
  5
169CD
330
15331
100
AcDbEntity
  8
寸法
 62
     0
 48
50.0
370
    -2
100
AcDbBlockReference
  2
_DOTSMALL
 10
5494.484998239408
 20
9693.39222212497
 30
0.0
 41
100.0
 42
100.0
 43
100.0
 50
180.0
  0
INSERT
  5
169CE
330
15331
100
AcDbEntity
  8
寸法
 62
     0
 48
50.0
370
    -2
100
AcDbBlockReference
  2
_DOTSMALL
 10
6204.484998239406
 20
9693.39222212497
 30
0.0
 41
100.0
 42
100.0
 43
100.0
  0
MTEXT
  5
169CF
330
15331
100
AcDbEntity
  8
寸法
 62
     7
 48
50.0
100
AcDbMText
 10
5849.734998239406
 20
9793.392222124971
 30
0.0
 40
120.0
 41
0.0
 71
     5
 72
     1
  1
\A1;710
  7
STYLE1
 73
     1
 44
1.0
1001
ACAD
1000
MTEXTBEGIN
1070
    73
1070
     1
1070
    44
1040
1.0
1070
    74
1070
     0
1000
MTEXTEND
  0
POINT
  5
169D0
330
15331
100
AcDbEntity
  8
DEFPOINTS
 62
     0
 48
50.0
100
AcDbPoint
 10
5494.484998239408
 20
9477.5840024999
 30
0.0
  0
POINT
  5
169D1
330
15331
100
AcDbEntity
  8
DEFPOINTS
 62
     0
 48
50.0
100
AcDbPoint
 10
6204.484998239406
 20
9477.584002499989
 30
0.0
  0
POINT
  5
169D2
330
15331
100
AcDbEntity
  8
DEFPOINTS
 62
     0
 48
50.0
100
AcDbPoint
 10
6204.484998239406
 20
9693.39222212497
 30
0.0
  0
ENDBLK
  5
15466
330
15331
100
AcDbEntity
  8
0
 48
50.0
100
AcDbBlockEnd
  0
BLOCK
  5
15467
330
1533D
100
AcDbEntity
  8
0
 48
50.0
100
AcDbBlockBegin
  2
*D7
 70
     1
 10
0.0
 20
0.0
 30
0.0
  3
*D7
  1

  0
LINE
  5
169BF
330
1533D
100
AcDbEntity
  8
寸法
 62
     0
 48
50.0
370
    -2
100
AcDbLine
 10
7919.484998239408
 20
9477.584002499966
 30
0.0
 11
8606.911343973818
 21
9477.584002499966
 31
0.0
  0
LINE
  5
169C0
330
1533D
100
AcDbEntity
  8
寸法
 62
     0
 48
50.0
370
    -2
100
AcDbLine
 10
7919.484998239408
 20
9422.584002499966
 30
0.0
 11
8606.911343973818
 21
9422.584002499966
 31
0.0
  0
LINE
  5
169C1
330
1533D
100
AcDbEntity
  8
寸法
 62
     0
 48
50.0
370
    -2
100
AcDbLine
 10
8546.911343973819
 20
9422.584002499966
 30
0.0
 11
8546.911343973819
 21
9322.584002499967
 31
0.0
  0
LINE
  5
169C2
330
1533D
100
AcDbEntity
  8
寸法
 62
     0
 48
50.0
370
    -2
100
AcDbLine
 10
8546.911343973819
 20
9477.584002499966
 30
0.0
 11
8546.911343973819
 21
9894.554565248444
 31
0.0
  0
LINE
  5
169C3
330
1533D
100
AcDbEntity
  8
寸法
 62
     0
 48
50.0
370
    -2
100
AcDbLine
 10
8546.911343973819
 20
9422.584002499966
 30
0.0
 11
8546.911343973819
 21
9477.584002499966
 31
0.0
  0
INSERT
  5
169C4
330
1533D
100
AcDbEntity
  8
寸法
 62
     0
 48
50.0
370
    -2
100
AcDbBlockReference
  2
_DOTSMALL
 10
8546.911343973819
 20
9422.584002499966
 30
0.0
 41
100.0
 42
100.0
 43
100.0
 50
90.0
  0
INSERT
  5
169C5
330
1533D
100
AcDbEntity
  8
寸法
 62
     0
 48
50.0
370
    -2
100
AcDbBlockReference
  2
_DOTSMALL
 10
8546.911343973819
 20
9477.584002499966
 30
0.0
 41
100.0
 42
100.0
 43
100.0
 50
270.0
  0
MTEXT
  5
169C6
330
1533D
100
AcDbEntity
  8
寸法
 62
     7
 48
50.0
100
AcDbMText
 10
8446.911343973818
 20
9786.069283874207
 30
0.0
 40
120.0
 41
0.0
 71
     5
 72
     1
  1
\A1;55
  7
STYLE1
 11
0.0000000000000001
 21
1.0
 31
0.0
 73
     1
 44
1.0
1001
ACAD
1000
MTEXTBEGIN
1070
    73
1070
     1
1070
    44
1040
1.0
1070
    74
1070
     0
1000
MTEXTEND
  0
POINT
  5
169C7
330
1533D
100
AcDbEntity
  8
DEFPOINTS
 62
     0
 48
50.0
100
AcDbPoint
 10
7899.484998239408
 20
9477.584002499966
 30
0.0
  0
POINT
  5
169C8
330
1533D
100
AcDbEntity
  8
DEFPOINTS
 62
     0
 48
50.0
100
AcDbPoint
 10
7899.484998239408
 20
9422.584002499966
 30
0.0
  0
POINT
  5
169C9
330
1533D
100
AcDbEntity
  8
DEFPOINTS
 62
     0
 48
50.0
100
AcDbPoint
 10
8546.911343973819
 20
9422.584002499966
 30
0.0
  0
ENDBLK
  5
15473
330
1533D
100
AcDbEntity
  8
0
 48
50.0
100
AcDbBlockEnd
  0
BLOCK
  5
15474
330
1534B
100
AcDbEntity
  8
0
 48
50.0
100
AcDbBlockBegin
  2
*D8
 70
     1
 10
0.0
 20
0.0
 30
0.0
  3
*D8
  1

  0
LINE
  5
169B4
330
1534B
100
AcDbEntity
  8
寸法
 62
     0
 48
50.0
370
    -2
100
AcDbLine
 10
3799.484998239372
 20
9497.584002499873
 30
0.0
 11
3799.484998239372
 21
9753.392222124855
 31
0.0
  0
LINE
  5
169B5
330
1534B
100
AcDbEntity
  8
寸法
 62
     0
 48
50.0
370
    -2
100
AcDbLine
 10
3854.484998239409
 20
9497.584002499873
 30
0.0
 11
3854.484998239409
 21
9753.392222124855
 31
0.0
  0
LINE
  5
169B6
330
1534B
100
AcDbEntity
  8
寸法
 62
     0
 48
50.0
370
    -2
100
AcDbLine
 10
3854.484998239409
 20
9693.392222124854
 30
0.0
 11
3954.484998239408
 21
9693.392222124854
 31
0.0
  0
LINE
  5
169B7
330
1534B
100
AcDbEntity
  8
寸法
 62
     0
 48
50.0
370
    -2
100
AcDbLine
 10
3799.484998239372
 20
9693.392222124854
 30
0.0
 11
3382.514435490894
 21
9693.392222124854
 31
0.0
  0
LINE
  5
169B8
330
1534B
100
AcDbEntity
  8
寸法
 62
     0
 48
50.0
370
    -2
100
AcDbLine
 10
3854.484998239409
 20
9693.392222124854
 30
0.0
 11
3799.484998239372
 21
9693.392222124854
 31
0.0
  0
INSERT
  5
169B9
330
1534B
100
AcDbEntity
  8
寸法
 62
     0
 48
50.0
370
    -2
100
AcDbBlockReference
  2
_DOTSMALL
 10
3854.484998239409
 20
9693.392222124854
 30
0.0
 41
100.0
 42
100.0
 43
100.0
 50
180.0
  0
INSERT
  5
169BA
330
1534B
100
AcDbEntity
  8
寸法
 62
     0
 48
50.0
370
    -2
100
AcDbBlockReference
  2
_DOTSMALL
 10
3799.484998239372
 20
9693.392222124854
 30
0.0
 41
100.0
 42
100.0
 43
100.0
  0
MTEXT
  5
169BB
330
1534B
100
AcDbEntity
  8
寸法
 62
     7
 48
50.0
100
AcDbMText
 10
3490.999716865133
 20
9793.392222124854
 30
0.0
 40
120.0
 41
0.0
 71
     5
 72
     1
  1
\A1;55
  7
STYLE1
 73
     1
 44
1.0
1001
ACAD
1000
MTEXTBEGIN
1070
    73
1070
     1
1070
    44
1040
1.0
1070
    74
1070
     0
1000
MTEXTEND
  0
POINT
  5
169BC
330
1534B
100
AcDbEntity
  8
DEFPOINTS
 62
     0
 48
50.0
100
AcDbPoint
 10
3799.484998239372
 20
9477.584002499872
 30
0.0
  0
POINT
  5
169BD
330
1534B
100
AcDbEntity
  8
DEFPOINTS
 62
     0
 48
50.0
100
AcDbPoint
 10
3854.484998239409
 20
9477.584002499872
 30
0.0
  0
POINT
  5
169BE
330
1534B
100
AcDbEntity
  8
DEFPOINTS
 62
     0
 48
50.0
100
AcDbPoint
 10
3854.484998239409
 20
9693.392222124854
 30
0.0
  0
ENDBLK
  5
15480
330
1534B
100
AcDbEntity
  8
0
 48
50.0
100
AcDbBlockEnd
  0
BLOCK
  5
159FC
330
15371
100
AcDbEntity
  8
0
 48
50.0
100
AcDbBlockBegin
  2
*D9
 70
     1
 10
0.0
 20
0.0
 30
0.0
  3
*D9
  1

  0
LINE
  5
169AB
330
15371
100
AcDbEntity
  8
寸法
 62
     0
 48
50.0
370
    -2
100
AcDbLine
 10
3799.484998239401
 20
8087.584002499765
 30
0.0
 11
3799.484998239401
 21
7060.482127639716
 31
0.0
  0
LINE
  5
169AC
330
15371
100
AcDbEntity
  8
寸法
 62
     0
 48
50.0
370
    -2
100
AcDbLine
 10
7899.484998239383
 20
8087.584002499923
 30
0.0
 11
7899.484998239383
 21
7060.482127639716
 31
0.0
  0
LINE
  5
169AD
330
15371
100
AcDbEntity
  8
寸法
 62
     0
 48
50.0
370
    -2
100
AcDbLine
 10
3799.484998239401
 20
7120.482127639717
 30
0.0
 11
7899.484998239383
 21
7120.482127639717
 31
0.0
  0
INSERT
  5
169AE
330
15371
100
AcDbEntity
  8
寸法
 62
     0
 48
50.0
370
    -2
100
AcDbBlockReference
  2
_DOTSMALL
 10
3799.484998239401
 20
7120.482127639717
 30
0.0
 41
100.0
 42
100.0
 43
100.0
 50
180.0
  0
INSERT
  5
169AF
330
15371
100
AcDbEntity
  8
寸法
 62
     0
 48
50.0
370
    -2
100
AcDbBlockReference
  2
_DOTSMALL
 10
7899.484998239383
 20
7120.482127639717
 30
0.0
 41
100.0
 42
100.0
 43
100.0
  0
MTEXT
  5
169B0
330
15371
100
AcDbEntity
  8
寸法
 62
     7
 48
50.0
100
AcDbMText
 10
5849.484998239391
 20
7220.482127639717
 30
0.0
 40
120.0
 41
0.0
 71
     5
 72
     1
  1
\A1;4100
  7
STYLE1
 73
     1
 44
1.0
1001
ACAD
1000
MTEXTBEGIN
1070
    73
1070
     1
1070
    44
1040
1.0
1070
    74
1070
     0
1000
MTEXTEND
  0
POINT
  5
169B1
330
15371
100
AcDbEntity
  8
DEFPOINTS
 62
     0
 48
50.0
100
AcDbPoint
 10
3799.484998239401
 20
8107.584002499764
 30
0.0
  0
POINT
  5
169B2
330
15371
100
AcDbEntity
  8
DEFPOINTS
 62
     0
 48
50.0
100
AcDbPoint
 10
7899.484998239383
 20
8107.584002499924
 30
0.0
  0
POINT
  5
169B3
330
15371
100
AcDbEntity
  8
DEFPOINTS
 62
     0
 48
50.0
100
AcDbPoint
 10
7899.484998239383
 20
7120.482127639717
 30
0.0
  0
ENDBLK
  5
15A06
330
15371
100
AcDbEntity
  8
0
 48
50.0
100
AcDbBlockEnd
  0
BLOCK
  5
158C7
330
1537D
100
AcDbEntity
  8
0
 48
50.0
100
AcDbBlockBegin
  2
*D10
 70
     1
 10
0.0
 20
0.0
 30
0.0
  3
*D10
  1

  0
LINE
  5
169A2
330
1537D
100
AcDbEntity
  8
寸法
 62
     0
 48
50.0
370
    -2
100
AcDbLine
 10
6314.484998239404
 20
8087.584002499864
 30
0.0
 11
6314.484998239404
 21
7607.760334704789
 31
0.0
  0
LINE
  5
169A3
330
1537D
100
AcDbEntity
  8
寸法
 62
     0
 48
50.0
370
    -2
100
AcDbLine
 10
6999.484998239402
 20
8087.584002499829
 30
0.0
 11
6999.484998239402
 21
7607.760334704789
 31
0.0
  0
LINE
  5
169A4
330
1537D
100
AcDbEntity
  8
寸法
 62
     0
 48
50.0
370
    -2
100
AcDbLine
 10
6314.484998239404
 20
7667.760334704787
 30
0.0
 11
6999.484998239402
 21
7667.760334704787
 31
0.0
  0
INSERT
  5
169A5
330
1537D
100
AcDbEntity
  8
寸法
 62
     0
 48
50.0
370
    -2
100
AcDbBlockReference
  2
_DOTSMALL
 10
6314.484998239404
 20
7667.760334704787
 30
0.0
 41
100.0
 42
100.0
 43
100.0
 50
180.0
  0
INSERT
  5
169A6
330
1537D
100
AcDbEntity
  8
寸法
 62
     0
 48
50.0
370
    -2
100
AcDbBlockReference
  2
_DOTSMALL
 10
6999.484998239402
 20
7667.760334704787
 30
0.0
 41
100.0
 42
100.0
 43
100.0
  0
MTEXT
  5
169A7
330
1537D
100
AcDbEntity
  8
寸法
 62
     7
 48
50.0
100
AcDbMText
 10
6656.984998239403
 20
7767.760334704788
 30
0.0
 40
120.0
 41
0.0
 71
     5
 72
     1
  1
\A1;685
  7
STYLE1
 73
     1
 44
1.0
1001
ACAD
1000
MTEXTBEGIN
1070
    73
1070
     1
1070
    44
1040
1.0
1070
    74
1070
     0
1000
MTEXTEND
  0
POINT
  5
169A8
330
1537D
100
AcDbEntity
  8
DEFPOINTS
 62
     0
 48
50.0
100
AcDbPoint
 10
6314.484998239404
 20
8107.584002499866
 30
0.0
  0
POINT
  5
169A9
330
1537D
100
AcDbEntity
  8
DEFPOINTS
 62
     0
 48
50.0
100
AcDbPoint
 10
6999.484998239402
 20
8107.584002499828
 30
0.0
  0
POINT
  5
169AA
330
1537D
100
AcDbEntity
  8
DEFPOINTS
 62
     0
 48
50.0
100
AcDbPoint
 10
6999.484998239402
 20
7667.760334704787
 30
0.0
  0
ENDBLK
  5
158D1
330
1537D
100
AcDbEntity
  8
0
 48
50.0
100
AcDbBlockEnd
  0
BLOCK
  5
154B8
330
15395
100
AcDbEntity
  8
0
 48
50.0
100
AcDbBlockBegin
  2
*D11
 70
     1
 10
0.0
 20
0.0
 30
0.0
  3
*D11
  1

  0
LINE
  5
16997
330
15395
100
AcDbEntity
  8
寸法
 62
     0
 48
50.0
370
    -2
100
AcDbLine
 10
7919.484998239383
 20
8162.584002499952
 30
0.0
 11
8606.911343973795
 21
8162.584002499952
 31
0.0
  0
LINE
  5
16998
330
15395
100
AcDbEntity
  8
寸法
 62
     0
 48
50.0
370
    -2
100
AcDbLine
 10
7919.484998239383
 20
8107.584002499953
 30
0.0
 11
8606.911343973795
 21
8107.584002499953
 31
0.0
  0
LINE
  5
16999
330
15395
100
AcDbEntity
  8
寸法
 62
     0
 48
50.0
370
    -2
100
AcDbLine
 10
8546.911343973794
 20
8162.584002499952
 30
0.0
 11
8546.911343973794
 21
8262.584002499954
 31
0.0
  0
LINE
  5
1699A
330
15395
100
AcDbEntity
  8
寸法
 62
     0
 48
50.0
370
    -2
100
AcDbLine
 10
8546.911343973794
 20
8107.584002499953
 30
0.0
 11
8546.911343973794
 21
7621.237254220851
 31
0.0
  0
LINE
  5
1699B
330
15395
100
AcDbEntity
  8
寸法
 62
     0
 48
50.0
370
    -2
100
AcDbLine
 10
8546.911343973794
 20
8162.584002499952
 30
0.0
 11
8546.911343973794
 21
8107.584002499953
 31
0.0
  0
INSERT
  5
1699C
330
15395
100
AcDbEntity
  8
寸法
 62
     0
 48
50.0
370
    -2
100
AcDbBlockReference
  2
_DOTSMALL
 10
8546.911343973794
 20
8162.584002499952
 30
0.0
 41
100.0
 42
100.0
 43
100.0
 50
270.0
  0
INSERT
  5
1699D
330
15395
100
AcDbEntity
  8
寸法
 62
     0
 48
50.0
370
    -2
100
AcDbBlockReference
  2
_DOTSMALL
 10
8546.911343973794
 20
8107.584002499953
 30
0.0
 41
100.0
 42
100.0
 43
100.0
 50
90.0
  0
MTEXT
  5
1699E
330
15395
100
AcDbEntity
  8
寸法
 62
     7
 48
50.0
100
AcDbMText
 10
8446.911343973793
 20
7729.72253559509
 30
0.0
 40
120.0
 41
0.0
 71
     5
 72
     1
  1
\A1;55
  7
STYLE1
 11
0.0000000000000001
 21
1.0
 31
0.0
 73
     1
 44
1.0
1001
ACAD
1000
MTEXTBEGIN
1070
    73
1070
     1
1070
    44
1040
1.0
1070
    74
1070
     0
1000
MTEXTEND
  0
POINT
  5
1699F
330
15395
100
AcDbEntity
  8
DEFPOINTS
 62
     0
 48
50.0
100
AcDbPoint
 10
7899.484998239383
 20
8162.584002499952
 30
0.0
  0
POINT
  5
169A0
330
15395
100
AcDbEntity
  8
DEFPOINTS
 62
     0
 48
50.0
100
AcDbPoint
 10
7899.484998239383
 20
8107.584002499953
 30
0.0
  0
POINT
  5
169A1
330
15395
100
AcDbEntity
  8
DEFPOINTS
 62
     0
 48
50.0
100
AcDbPoint
 10
8546.911343973794
 20
8107.584002499953
 30
0.0
  0
ENDBLK
  5
154C4
330
15395
100
AcDbEntity
  8
0
 48
50.0
100
AcDbBlockEnd
  0
BLOCK
  5
154C5
330
153A3
100
AcDbEntity
  8
0
 48
50.0
100
AcDbBlockBegin
  2
*D12
 70
     1
 10
0.0
 20
0.0
 30
0.0
  3
*D12
  1

  0
LINE
  5
1698E
330
153A3
100
AcDbEntity
  8
寸法
 62
     0
 48
50.0
370
    -2
100
AcDbLine
 10
7919.484998239408
 20
9477.584002499966
 30
0.0
 11
8916.022874789495
 21
9477.584002499966
 31
0.0
  0
LINE
  5
1698F
330
153A3
100
AcDbEntity
  8
寸法
 62
     0
 48
50.0
370
    -2
100
AcDbLine
 10
7919.484998239383
 20
8107.584002499953
 30
0.0
 11
8916.022874789495
 21
8107.584002499953
 31
0.0
  0
LINE
  5
16990
330
153A3
100
AcDbEntity
  8
寸法
 62
     0
 48
50.0
370
    -2
100
AcDbLine
 10
8856.022874789497
 20
9477.584002499966
 30
0.0
 11
8856.022874789497
 21
8107.584002499953
 31
0.0
  0
INSERT
  5
16991
330
153A3
100
AcDbEntity
  8
寸法
 62
     0
 48
50.0
370
    -2
100
AcDbBlockReference
  2
_DOTSMALL
 10
8856.022874789497
 20
9477.584002499966
 30
0.0
 41
100.0
 42
100.0
 43
100.0
 50
90.0
  0
INSERT
  5
16992
330
153A3
100
AcDbEntity
  8
寸法
 62
     0
 48
50.0
370
    -2
100
AcDbBlockReference
  2
_DOTSMALL
 10
8856.022874789497
 20
8107.584002499953
 30
0.0
 41
100.0
 42
100.0
 43
100.0
 50
270.0
  0
MTEXT
  5
16993
330
153A3
100
AcDbEntity
  8
寸法
 62
     7
 48
50.0
100
AcDbMText
 10
8756.022874789493
 20
8792.58400249996
 30
0.0
 40
120.0
 41
0.0
 71
     5
 72
     1
  1
\A1;1370
  7
STYLE1
 11
0.0000000000000001
 21
1.0
 31
0.0
 73
     1
 44
1.0
1001
ACAD
1000
MTEXTBEGIN
1070
    73
1070
     1
1070
    44
1040
1.0
1070
    74
1070
     0
1000
MTEXTEND
  0
POINT
  5
16994
330
153A3
100
AcDbEntity
  8
DEFPOINTS
 62
     0
 48
50.0
100
AcDbPoint
 10
7899.484998239408
 20
9477.584002499966
 30
0.0
  0
POINT
  5
16995
330
153A3
100
AcDbEntity
  8
DEFPOINTS
 62
     0
 48
50.0
100
AcDbPoint
 10
7899.484998239383
 20
8107.584002499953
 30
0.0
  0
POINT
  5
16996
330
153A3
100
AcDbEntity
  8
DEFPOINTS
 62
     0
 48
50.0
100
AcDbPoint
 10
8856.022874789497
 20
8107.584002499953
 30
0.0
  0
ENDBLK
  5
154CF
330
153A3
100
AcDbEntity
  8
0
 48
50.0
100
AcDbBlockEnd
  0
BLOCK
  5
154DB
330
153BB
100
AcDbEntity
  8
0
 48
50.0
100
AcDbBlockBegin
  2
*D13
 70
     1
 10
0.0
 20
0.0
 30
0.0
  3
*D13
  1

  0
LINE
  5
16985
330
153BB
100
AcDbEntity
  8
寸法
 62
     0
 48
50.0
370
    -2
100
AcDbLine
 10
7889.984998239341
 20
9442.725018651286
 30
0.0
 11
8285.342724101365
 21
9336.789235285152
 31
0.0
  0
LINE
  5
16986
330
153BB
100
AcDbEntity
  8
寸法
 62
     0
 48
50.0
370
    -2
100
AcDbLine
 10
7889.984998239341
 20
8992.725018651286
 30
0.0
 11
8285.342724101365
 21
8886.789235285153
 31
0.0
  0
LINE
  5
16987
330
153BB
100
AcDbEntity
  8
寸法
 62
     0
 48
50.0
370
    -2
100
AcDbLine
 10
8225.342724101365
 20
9352.86618683102
 30
0.0
 11
8225.342724101365
 21
8902.866186831019
 31
0.0
  0
INSERT
  5
16988
330
153BB
100
AcDbEntity
  8
寸法
 62
     0
 48
50.0
370
    -2
100
AcDbBlockReference
  2
_DOTSMALL
 10
8225.342724101365
 20
9352.86618683102
 30
0.0
 41
100.0
 42
100.0
 43
100.0
 50
90.0
  0
INSERT
  5
16989
330
153BB
100
AcDbEntity
  8
寸法
 62
     0
 48
50.0
370
    -2
100
AcDbBlockReference
  2
_DOTSMALL
 10
8225.342724101365
 20
8902.866186831019
 30
0.0
 41
100.0
 42
100.0
 43
100.0
 50
270.0
  0
MTEXT
  5
1698A
330
153BB
100
AcDbEntity
  8
寸法
 62
     7
 48
50.0
100
AcDbMText
 10
8125.342724101363
 20
9127.86618683102
 30
0.0
 40
120.0
 41
0.0
 71
     5
 72
     1
  1
\A1;450
  7
STYLE1
 11
0.0000000000000001
 21
1.0
 31
0.0
 73
     1
 44
1.0
1001
ACAD
1000
MTEXTBEGIN
1070
    73
1070
     1
1070
    44
1040
1.0
1070
    74
1070
     0
1000
MTEXTEND
  0
POINT
  5
1698B
330
153BB
100
AcDbEntity
  8
DEFPOINTS
 62
     0
 48
50.0
100
AcDbPoint
 10
7869.98499823934
 20
9448.084002499909
 30
0.0
  0
POINT
  5
1698C
330
153BB
100
AcDbEntity
  8
DEFPOINTS
 62
     0
 48
50.0
100
AcDbPoint
 10
7869.98499823934
 20
8998.08400249991
 30
0.0
  0
POINT
  5
1698D
330
153BB
100
AcDbEntity
  8
DEFPOINTS
 62
     0
 48
50.0
100
AcDbPoint
 10
8225.342724101365
 20
8902.866186831019
 30
0.0
  0
ENDBLK
  5
154E5
330
153BB
100
AcDbEntity
  8
0
 48
50.0
100
AcDbBlockEnd
  0
BLOCK
  5
154E6
330
153C7
100
AcDbEntity
  8
0
 48
50.0
100
AcDbBlockBegin
  2
*D14
 70
     1
 10
0.0
 20
0.0
 30
0.0
  3
*D14
  1

  0
LINE
  5
1697C
330
153C7
100
AcDbEntity
  8
寸法
 62
     0
 48
50.0
370
    -2
100
AcDbLine
 10
7919.484998239408
 20
9422.584002499966
 30
0.0
 11
8606.911343973818
 21
9422.584002499966
 31
0.0
  0
LINE
  5
1697D
330
153C7
100
AcDbEntity
  8
寸法
 62
     0
 48
50.0
370
    -2
100
AcDbLine
 10
7919.484998239383
 20
8162.584002499952
 30
0.0
 11
8606.911343973818
 21
8162.584002499952
 31
0.0
  0
LINE
  5
1697E
330
153C7
100
AcDbEntity
  8
寸法
 62
     0
 48
50.0
370
    -2
100
AcDbLine
 10
8546.911343973819
 20
9422.584002499966
 30
0.0
 11
8546.911343973819
 21
8162.584002499952
 31
0.0
  0
INSERT
  5
1697F
330
153C7
100
AcDbEntity
  8
寸法
 62
     0
 48
50.0
370
    -2
100
AcDbBlockReference
  2
_DOTSMALL
 10
8546.911343973819
 20
9422.584002499966
 30
0.0
 41
100.0
 42
100.0
 43
100.0
 50
90.0
  0
INSERT
  5
16980
330
153C7
100
AcDbEntity
  8
寸法
 62
     0
 48
50.0
370
    -2
100
AcDbBlockReference
  2
_DOTSMALL
 10
8546.911343973819
 20
8162.584002499952
 30
0.0
 41
100.0
 42
100.0
 43
100.0
 50
270.0
  0
MTEXT
  5
16981
330
153C7
100
AcDbEntity
  8
寸法
 62
     7
 48
50.0
100
AcDbMText
 10
8446.899532950196
 20
8792.58400249996
 30
0.0
 40
120.0
 41
0.0
 71
     5
 72
     1
  1
\A1;3X420=1260
  7
STYLE1
 11
0.0000000000000001
 21
1.0
 31
0.0
 73
     1
 44
1.0
1001
ACAD
1000
MTEXTBEGIN
1070
    73
1070
     1
1070
    44
1040
1.0
1070
    74
1070
     0
1000
MTEXTEND
  0
POINT
  5
16982
330
153C7
100
AcDbEntity
  8
DEFPOINTS
 62
     0
 48
50.0
100
AcDbPoint
 10
7899.484998239408
 20
9422.584002499966
 30
0.0
  0
POINT
  5
16983
330
153C7
100
AcDbEntity
  8
DEFPOINTS
 62
     0
 48
50.0
100
AcDbPoint
 10
7899.484998239383
 20
8162.584002499952
 30
0.0
  0
POINT
  5
16984
330
153C7
100
AcDbEntity
  8
DEFPOINTS
 62
     0
 48
50.0
100
AcDbPoint
 10
8546.911343973819
 20
8162.584002499952
 30
0.0
  0
ENDBLK
  5
154F0
330
153C7
100
AcDbEntity
  8
0
 48
50.0
100
AcDbBlockEnd
  0
BLOCK
  5
154FC
330
153DF
100
AcDbEntity
  8
0
 48
50.0
100
AcDbBlockBegin
  2
*D15
 70
     1
 10
0.0
 20
0.0
 30
0.0
  3
*D15
  1

  0
LINE
  5
1696A
330
153DF
100
AcDbEntity
  8
寸法
 62
     0
 48
50.0
370
    -2
100
AcDbLine
 10
3779.4849982394
 20
5142.295364285294
 30
0.0
 11
3421.380470631798
 21
5142.295364285294
 31
0.0
  0
LINE
  5
1696B
330
153DF
100
AcDbEntity
  8
寸法
 62
     0
 48
50.0
370
    -2
100
AcDbLine
 10
3779.4849982394
 20
3382.295364285298
 30
0.0
 11
3421.380470631798
 21
3382.295364285298
 31
0.0
  0
LINE
  5
1696C
330
153DF
100
AcDbEntity
  8
寸法
 62
     0
 48
50.0
370
    -2
100
AcDbLine
 10
3481.380470631798
 20
5142.295364285294
 30
0.0
 11
3481.380470631798
 21
3382.295364285298
 31
0.0
  0
INSERT
  5
1696D
330
153DF
100
AcDbEntity
  8
寸法
 62
     0
 48
50.0
370
    -2
100
AcDbBlockReference
  2
_DOTSMALL
 10
3481.380470631798
 20
5142.295364285294
 30
0.0
 41
100.0
 42
100.0
 43
100.0
 50
90.0
  0
INSERT
  5
1696E
330
153DF
100
AcDbEntity
  8
寸法
 62
     0
 48
50.0
370
    -2
100
AcDbBlockReference
  2
_DOTSMALL
 10
3481.380470631798
 20
3382.295364285298
 30
0.0
 41
100.0
 42
100.0
 43
100.0
 50
270.0
  0
MTEXT
  5
1696F
330
153DF
100
AcDbEntity
  8
寸法
 62
     7
 48
50.0
100
AcDbMText
 10
3381.380470631797
 20
4261.295364285295
 30
0.0
 40
120.0
 41
0.0
 71
     5
 72
     1
  1
\A1;有効開口部高サ1760
  7
STYLE1
 11
0.0000000000000001
 21
1.0
 31
0.0
 73
     1
 44
1.0
1001
ACAD
1000
MTEXTBEGIN
1070
    73
1070
     1
1070
    44
1040
1.0
1070
    74
1070
     0
1000
MTEXTEND
  0
POINT
  5
16970
330
153DF
100
AcDbEntity
  8
DEFPOINTS
 62
     0
 48
50.0
100
AcDbPoint
 10
3799.484998239401
 20
5142.295364285294
 30
0.0
  0
POINT
  5
16971
330
153DF
100
AcDbEntity
  8
DEFPOINTS
 62
     0
 48
50.0
100
AcDbPoint
 10
3799.484998239401
 20
3382.295364285298
 30
0.0
  0
POINT
  5
16972
330
153DF
100
AcDbEntity
  8
DEFPOINTS
 62
     0
 48
50.0
100
AcDbPoint
 10
3481.380470631798
 20
3382.295364285298
 30
0.0
  0
ENDBLK
  5
15506
330
153DF
100
AcDbEntity
  8
0
 48
50.0
100
AcDbBlockEnd
  0
BLOCK
  5
156FE
330
156FD
100
AcDbEntity
  8
0
 48
50.0
100
AcDbBlockBegin
  2
*D16
 70
     1
 10
0.0
 20
0.0
 30
0.0
  3
*D16
  1

  0
LINE
  5
1695F
330
156FD
100
AcDbEntity
  8
寸法
 62
     0
 48
50.0
370
    -2
100
AcDbLine
 10
4564.484998239406
 20
9497.584002499989
 30
0.0
 11
4564.484998239406
 21
9753.392222124972
 31
0.0
  0
LINE
  5
16960
330
156FD
100
AcDbEntity
  8
寸法
 62
     0
 48
50.0
370
    -2
100
AcDbLine
 10
4674.484998239409
 20
9497.584002499968
 30
0.0
 11
4674.484998239409
 21
9753.392222124972
 31
0.0
  0
LINE
  5
16961
330
156FD
100
AcDbEntity
  8
寸法
 62
     0
 48
50.0
370
    -2
100
AcDbLine
 10
4564.484998239406
 20
9693.39222212497
 30
0.0
 11
4464.484998239406
 21
9693.39222212497
 31
0.0
  0
LINE
  5
16962
330
156FD
100
AcDbEntity
  8
寸法
 62
     0
 48
50.0
370
    -2
100
AcDbLine
 10
4674.484998239409
 20
9693.39222212497
 30
0.0
 11
4774.48499823941
 21
9693.39222212497
 31
0.0
  0
LINE
  5
16963
330
156FD
100
AcDbEntity
  8
寸法
 62
     0
 48
50.0
370
    -2
100
AcDbLine
 10
4564.484998239406
 20
9693.39222212497
 30
0.0
 11
4674.484998239409
 21
9693.39222212497
 31
0.0
  0
INSERT
  5
16964
330
156FD
100
AcDbEntity
  8
寸法
 62
     0
 48
50.0
370
    -2
100
AcDbBlockReference
  2
_DOTSMALL
 10
4564.484998239406
 20
9693.39222212497
 30
0.0
 41
100.0
 42
100.0
 43
100.0
  0
INSERT
  5
16965
330
156FD
100
AcDbEntity
  8
寸法
 62
     0
 48
50.0
370
    -2
100
AcDbBlockReference
  2
_DOTSMALL
 10
4674.484998239409
 20
9693.39222212497
 30
0.0
 41
100.0
 42
100.0
 43
100.0
 50
180.0
  0
MTEXT
  5
16966
330
156FD
100
AcDbEntity
  8
寸法
 62
     7
 48
50.0
100
AcDbMText
 10
4619.484998239408
 20
9793.392222124971
 30
0.0
 40
120.0
 41
0.0
 71
     5
 72
     1
  1
\A1;110
  7
STYLE1
 73
     1
 44
1.0
1001
ACAD
1000
MTEXTBEGIN
1070
    73
1070
     1
1070
    44
1040
1.0
1070
    74
1070
     0
1000
MTEXTEND
  0
POINT
  5
16967
330
156FD
100
AcDbEntity
  8
DEFPOINTS
 62
     0
 48
50.0
100
AcDbPoint
 10
4564.484998239406
 20
9477.584002499989
 30
0.0
  0
POINT
  5
16968
330
156FD
100
AcDbEntity
  8
DEFPOINTS
 62
     0
 48
50.0
100
AcDbPoint
 10
4674.484998239409
 20
9477.584002499966
 30
0.0
  0
POINT
  5
16969
330
156FD
100
AcDbEntity
  8
DEFPOINTS
 62
     0
 48
50.0
100
AcDbPoint
 10
4674.484998239409
 20
9693.39222212497
 30
0.0
  0
ENDBLK
  5
1570A
330
156FD
100
AcDbEntity
  8
0
 48
50.0
100
AcDbBlockEnd
  0
BLOCK
  5
15857
330
15856
100
AcDbEntity
  8
0
 48
50.0
100
AcDbBlockBegin
  2
*D17
 70
     1
 10
0.0
 20
0.0
 30
0.0
  3
*D17
  1

  0
LINE
  5
16956
330
15856
100
AcDbEntity
  8
寸法
 62
     0
 48
50.0
370
    -2
100
AcDbLine
 10
3854.484998239409
 20
9497.584002499902
 30
0.0
 11
3854.484998239409
 21
9753.392222124972
 31
0.0
  0
LINE
  5
16957
330
15856
100
AcDbEntity
  8
寸法
 62
     0
 48
50.0
370
    -2
100
AcDbLine
 10
4564.484998239406
 20
9497.584002499989
 30
0.0
 11
4564.484998239406
 21
9753.392222124972
 31
0.0
  0
LINE
  5
16958
330
15856
100
AcDbEntity
  8
寸法
 62
     0
 48
50.0
370
    -2
100
AcDbLine
 10
3854.484998239409
 20
9693.39222212497
 30
0.0
 11
4564.484998239406
 21
9693.39222212497
 31
0.0
  0
INSERT
  5
16959
330
15856
100
AcDbEntity
  8
寸法
 62
     0
 48
50.0
370
    -2
100
AcDbBlockReference
  2
_DOTSMALL
 10
3854.484998239409
 20
9693.39222212497
 30
0.0
 41
100.0
 42
100.0
 43
100.0
 50
180.0
  0
INSERT
  5
1695A
330
15856
100
AcDbEntity
  8
寸法
 62
     0
 48
50.0
370
    -2
100
AcDbBlockReference
  2
_DOTSMALL
 10
4564.484998239406
 20
9693.39222212497
 30
0.0
 41
100.0
 42
100.0
 43
100.0
  0
MTEXT
  5
1695B
330
15856
100
AcDbEntity
  8
寸法
 62
     7
 48
50.0
100
AcDbMText
 10
4209.734998239406
 20
9793.392222124971
 30
0.0
 40
120.0
 41
0.0
 71
     5
 72
     1
  1
\A1;710
  7
STYLE1
 73
     1
 44
1.0
1001
ACAD
1000
MTEXTBEGIN
1070
    73
1070
     1
1070
    44
1040
1.0
1070
    74
1070
     0
1000
MTEXTEND
  0
POINT
  5
1695C
330
15856
100
AcDbEntity
  8
DEFPOINTS
 62
     0
 48
50.0
100
AcDbPoint
 10
3854.484998239409
 20
9477.5840024999
 30
0.0
  0
POINT
  5
1695D
330
15856
100
AcDbEntity
  8
DEFPOINTS
 62
     0
 48
50.0
100
AcDbPoint
 10
4564.484998239406
 20
9477.584002499989
 30
0.0
  0
POINT
  5
1695E
330
15856
100
AcDbEntity
  8
DEFPOINTS
 62
     0
 48
50.0
100
AcDbPoint
 10
4564.484998239406
 20
9693.39222212497
 30
0.0
  0
ENDBLK
  5
15861
330
15856
100
AcDbEntity
  8
0
 48
50.0
100
AcDbBlockEnd
  0
BLOCK
  5
158BC
330
15865
100
AcDbEntity
  8
0
 48
50.0
100
AcDbBlockBegin
  2
*D18
 70
     1
 10
0.0
 20
0.0
 30
0.0
  3
*D18
  1

  0
LINE
  5
16944
330
15865
100
AcDbEntity
  8
寸法
 62
     0
 48
50.0
370
    -2
100
AcDbLine
 10
5494.484998239404
 20
8087.584002499864
 30
0.0
 11
5494.484998239404
 21
7607.760334704789
 31
0.0
  0
LINE
  5
16945
330
15865
100
AcDbEntity
  8
寸法
 62
     0
 48
50.0
370
    -2
100
AcDbLine
 10
6179.4849982394
 20
8087.584002499829
 30
0.0
 11
6179.4849982394
 21
7607.760334704789
 31
0.0
  0
LINE
  5
16946
330
15865
100
AcDbEntity
  8
寸法
 62
     0
 48
50.0
370
    -2
100
AcDbLine
 10
5494.484998239404
 20
7667.760334704787
 30
0.0
 11
6179.4849982394
 21
7667.760334704787
 31
0.0
  0
INSERT
  5
16947
330
15865
100
AcDbEntity
  8
寸法
 62
     0
 48
50.0
370
    -2
100
AcDbBlockReference
  2
_DOTSMALL
 10
5494.484998239404
 20
7667.760334704787
 30
0.0
 41
100.0
 42
100.0
 43
100.0
 50
180.0
  0
INSERT
  5
16948
330
15865
100
AcDbEntity
  8
寸法
 62
     0
 48
50.0
370
    -2
100
AcDbBlockReference
  2
_DOTSMALL
 10
6179.4849982394
 20
7667.760334704787
 30
0.0
 41
100.0
 42
100.0
 43
100.0
  0
MTEXT
  5
16949
330
15865
100
AcDbEntity
  8
寸法
 62
     7
 48
50.0
100
AcDbMText
 10
5836.984998239403
 20
7767.760334704788
 30
0.0
 40
120.0
 41
0.0
 71
     5
 72
     1
  1
\A1;685
  7
STYLE1
 73
     1
 44
1.0
1001
ACAD
1000
MTEXTBEGIN
1070
    73
1070
     1
1070
    44
1040
1.0
1070
    74
1070
     0
1000
MTEXTEND
  0
POINT
  5
1694A
330
15865
100
AcDbEntity
  8
DEFPOINTS
 62
     0
 48
50.0
100
AcDbPoint
 10
5494.484998239404
 20
8107.584002499866
 30
0.0
  0
POINT
  5
1694B
330
15865
100
AcDbEntity
  8
DEFPOINTS
 62
     0
 48
50.0
100
AcDbPoint
 10
6179.4849982394
 20
8107.584002499828
 30
0.0
  0
POINT
  5
1694C
330
15865
100
AcDbEntity
  8
DEFPOINTS
 62
     0
 48
50.0
100
AcDbPoint
 10
6179.4849982394
 20
7667.760334704787
 30
0.0
  0
ENDBLK
  5
158C6
330
15865
100
AcDbEntity
  8
0
 48
50.0
100
AcDbBlockEnd
  0
BLOCK
  5
158B1
330
1587F
100
AcDbEntity
  8
0
 48
50.0
100
AcDbBlockBegin
  2
*D19
 70
     1
 10
0.0
 20
0.0
 30
0.0
  3
*D19
  1

  0
LINE
  5
16932
330
1587F
100
AcDbEntity
  8
寸法
 62
     0
 48
50.0
370
    -2
100
AcDbLine
 10
4674.484998239404
 20
8087.584002499864
 30
0.0
 11
4674.484998239404
 21
7607.760334704789
 31
0.0
  0
LINE
  5
16933
330
1587F
100
AcDbEntity
  8
寸法
 62
     0
 48
50.0
370
    -2
100
AcDbLine
 10
5359.484998239401
 20
8087.584002499829
 30
0.0
 11
5359.484998239401
 21
7607.760334704789
 31
0.0
  0
LINE
  5
16934
330
1587F
100
AcDbEntity
  8
寸法
 62
     0
 48
50.0
370
    -2
100
AcDbLine
 10
4674.484998239404
 20
7667.760334704787
 30
0.0
 11
5359.484998239401
 21
7667.760334704787
 31
0.0
  0
INSERT
  5
16935
330
1587F
100
AcDbEntity
  8
寸法
 62
     0
 48
50.0
370
    -2
100
AcDbBlockReference
  2
_DOTSMALL
 10
4674.484998239404
 20
7667.760334704787
 30
0.0
 41
100.0
 42
100.0
 43
100.0
 50
180.0
  0
INSERT
  5
16936
330
1587F
100
AcDbEntity
  8
寸法
 62
     0
 48
50.0
370
    -2
100
AcDbBlockReference
  2
_DOTSMALL
 10
5359.484998239401
 20
7667.760334704787
 30
0.0
 41
100.0
 42
100.0
 43
100.0
  0
MTEXT
  5
16937
330
1587F
100
AcDbEntity
  8
寸法
 62
     7
 48
50.0
100
AcDbMText
 10
5016.984998239403
 20
7767.760334704788
 30
0.0
 40
120.0
 41
0.0
 71
     5
 72
     1
  1
\A1;685
  7
STYLE1
 73
     1
 44
1.0
1001
ACAD
1000
MTEXTBEGIN
1070
    73
1070
     1
1070
    44
1040
1.0
1070
    74
1070
     0
1000
MTEXTEND
  0
POINT
  5
16938
330
1587F
100
AcDbEntity
  8
DEFPOINTS
 62
     0
 48
50.0
100
AcDbPoint
 10
4674.484998239404
 20
8107.584002499866
 30
0.0
  0
POINT
  5
16939
330
1587F
100
AcDbEntity
  8
DEFPOINTS
 62
     0
 48
50.0
100
AcDbPoint
 10
5359.484998239401
 20
8107.584002499828
 30
0.0
  0
POINT
  5
1693A
330
1587F
100
AcDbEntity
  8
DEFPOINTS
 62
     0
 48
50.0
100
AcDbPoint
 10
5359.484998239401
 20
7667.760334704787
 30
0.0
  0
ENDBLK
  5
158BB
330
1587F
100
AcDbEntity
  8
0
 48
50.0
100
AcDbBlockEnd
  0
BLOCK
  5
1589A
330
15899
100
AcDbEntity
  8
0
 48
50.0
100
AcDbBlockBegin
  2
*D20
 70
     1
 10
0.0
 20
0.0
 30
0.0
  3
*D20
  1

  0
LINE
  5
16920
330
15899
100
AcDbEntity
  8
寸法
 62
     0
 48
50.0
370
    -2
100
AcDbLine
 10
7134.484998239405
 20
8087.584002499864
 30
0.0
 11
7134.484998239405
 21
7607.760334704789
 31
0.0
  0
LINE
  5
16921
330
15899
100
AcDbEntity
  8
寸法
 62
     0
 48
50.0
370
    -2
100
AcDbLine
 10
7819.4849982394
 20
8087.584002499829
 30
0.0
 11
7819.4849982394
 21
7607.760334704789
 31
0.0
  0
LINE
  5
16922
330
15899
100
AcDbEntity
  8
寸法
 62
     0
 48
50.0
370
    -2
100
AcDbLine
 10
7134.484998239405
 20
7667.760334704787
 30
0.0
 11
7819.4849982394
 21
7667.760334704787
 31
0.0
  0
INSERT
  5
16923
330
15899
100
AcDbEntity
  8
寸法
 62
     0
 48
50.0
370
    -2
100
AcDbBlockReference
  2
_DOTSMALL
 10
7134.484998239405
 20
7667.760334704787
 30
0.0
 41
100.0
 42
100.0
 43
100.0
 50
180.0
  0
INSERT
  5
16924
330
15899
100
AcDbEntity
  8
寸法
 62
     0
 48
50.0
370
    -2
100
AcDbBlockReference
  2
_DOTSMALL
 10
7819.4849982394
 20
7667.760334704787
 30
0.0
 41
100.0
 42
100.0
 43
100.0
  0
MTEXT
  5
16925
330
15899
100
AcDbEntity
  8
寸法
 62
     7
 48
50.0
100
AcDbMText
 10
7476.984998239402
 20
7867.760334704787
 30
0.0
 40
120.0
 41
0.0
 71
     5
 72
     1
  1
\A1;有効開口部間口\P685
  7
STYLE1
 73
     1
 44
1.0
1001
ACAD
1000
MTEXTBEGIN
1070
    73
1070
     1
1070
    44
1040
1.0
1070
    74
1070
     0
1000
MTEXTEND
  0
POINT
  5
16926
330
15899
100
AcDbEntity
  8
DEFPOINTS
 62
     0
 48
50.0
100
AcDbPoint
 10
7134.484998239405
 20
8107.584002499866
 30
0.0
  0
POINT
  5
16927
330
15899
100
AcDbEntity
  8
DEFPOINTS
 62
     0
 48
50.0
100
AcDbPoint
 10
7819.4849982394
 20
8107.584002499828
 30
0.0
  0
POINT
  5
16928
330
15899
100
AcDbEntity
  8
DEFPOINTS
 62
     0
 48
50.0
100
AcDbPoint
 10
7819.4849982394
 20
7667.760334704787
 30
0.0
  0
ENDBLK
  5
158A4
330
15899
100
AcDbEntity
  8
0
 48
50.0
100
AcDbBlockEnd
  0
BLOCK
  5
15945
330
15944
100
AcDbEntity
  8
0
 48
50.0
100
AcDbBlockBegin
  2
*D21
 70
     1
 10
0.0
 20
0.0
 30
0.0
  3
*D21
  1

  0
LINE
  5
1690E
330
15944
100
AcDbEntity
  8
寸法
 62
     0
 48
50.0
370
    -2
100
AcDbLine
 10
7844.484998239408
 20
9497.584002499982
 30
0.0
 11
7844.484998239408
 21
9753.392222124972
 31
0.0
  0
LINE
  5
1690F
330
15944
100
AcDbEntity
  8
寸法
 62
     0
 48
50.0
370
    -2
100
AcDbLine
 10
7134.484998239409
 20
9497.584002499968
 30
0.0
 11
7134.484998239409
 21
9753.392222124972
 31
0.0
  0
LINE
  5
16910
330
15944
100
AcDbEntity
  8
寸法
 62
     0
 48
50.0
370
    -2
100
AcDbLine
 10
7844.484998239408
 20
9693.39222212497
 30
0.0
 11
7134.484998239409
 21
9693.39222212497
 31
0.0
  0
INSERT
  5
16911
330
15944
100
AcDbEntity
  8
寸法
 62
     0
 48
50.0
370
    -2
100
AcDbBlockReference
  2
_DOTSMALL
 10
7844.484998239408
 20
9693.39222212497
 30
0.0
 41
100.0
 42
100.0
 43
100.0
  0
INSERT
  5
16912
330
15944
100
AcDbEntity
  8
寸法
 62
     0
 48
50.0
370
    -2
100
AcDbBlockReference
  2
_DOTSMALL
 10
7134.484998239409
 20
9693.39222212497
 30
0.0
 41
100.0
 42
100.0
 43
100.0
 50
180.0
  0
MTEXT
  5
16913
330
15944
100
AcDbEntity
  8
寸法
 62
     7
 48
50.0
100
AcDbMText
 10
7489.484998239409
 20
9793.392222124971
 30
0.0
 40
120.0
 41
0.0
 71
     5
 72
     1
  1
\A1;710
  7
STYLE1
 73
     1
 44
1.0
1001
ACAD
1000
MTEXTBEGIN
1070
    73
1070
     1
1070
    44
1040
1.0
1070
    74
1070
     0
1000
MTEXTEND
  0
POINT
  5
16914
330
15944
100
AcDbEntity
  8
DEFPOINTS
 62
     0
 48
50.0
100
AcDbPoint
 10
7844.484998239408
 20
9477.584002499982
 30
0.0
  0
POINT
  5
16915
330
15944
100
AcDbEntity
  8
DEFPOINTS
 62
     0
 48
50.0
100
AcDbPoint
 10
7134.484998239409
 20
9477.584002499966
 30
0.0
  0
POINT
  5
16916
330
15944
100
AcDbEntity
  8
DEFPOINTS
 62
     0
 48
50.0
100
AcDbPoint
 10
7134.484998239409
 20
9693.39222212497
 30
0.0
  0
ENDBLK
  5
1594F
330
15944
100
AcDbEntity
  8
0
 48
50.0
100
AcDbBlockEnd
  0
BLOCK
  5
15951
330
15950
100
AcDbEntity
  8
0
 48
50.0
100
AcDbBlockBegin
  2
*D22
 70
     1
 10
0.0
 20
0.0
 30
0.0
  3
*D22
  1

  0
LINE
  5
16903
330
15950
100
AcDbEntity
  8
寸法
 62
     0
 48
50.0
370
    -2
100
AcDbLine
 10
7024.484998239405
 20
9497.584002499989
 30
0.0
 11
7024.484998239405
 21
9753.392222124972
 31
0.0
  0
LINE
  5
16904
330
15950
100
AcDbEntity
  8
寸法
 62
     0
 48
50.0
370
    -2
100
AcDbLine
 10
7134.484998239409
 20
9497.584002499968
 30
0.0
 11
7134.484998239409
 21
9753.392222124972
 31
0.0
  0
LINE
  5
16905
330
15950
100
AcDbEntity
  8
寸法
 62
     0
 48
50.0
370
    -2
100
AcDbLine
 10
7024.484998239405
 20
9693.39222212497
 30
0.0
 11
6924.484998239406
 21
9693.39222212497
 31
0.0
  0
LINE
  5
16906
330
15950
100
AcDbEntity
  8
寸法
 62
     0
 48
50.0
370
    -2
100
AcDbLine
 10
7134.484998239409
 20
9693.39222212497
 30
0.0
 11
7234.484998239409
 21
9693.39222212497
 31
0.0
  0
LINE
  5
16907
330
15950
100
AcDbEntity
  8
寸法
 62
     0
 48
50.0
370
    -2
100
AcDbLine
 10
7024.484998239405
 20
9693.39222212497
 30
0.0
 11
7134.484998239409
 21
9693.39222212497
 31
0.0
  0
INSERT
  5
16908
330
15950
100
AcDbEntity
  8
寸法
 62
     0
 48
50.0
370
    -2
100
AcDbBlockReference
  2
_DOTSMALL
 10
7024.484998239405
 20
9693.39222212497
 30
0.0
 41
100.0
 42
100.0
 43
100.0
  0
INSERT
  5
16909
330
15950
100
AcDbEntity
  8
寸法
 62
     0
 48
50.0
370
    -2
100
AcDbBlockReference
  2
_DOTSMALL
 10
7134.484998239409
 20
9693.39222212497
 30
0.0
 41
100.0
 42
100.0
 43
100.0
 50
180.0
  0
MTEXT
  5
1690A
330
15950
100
AcDbEntity
  8
寸法
 62
     7
 48
50.0
100
AcDbMText
 10
7079.484998239408
 20
9793.392222124971
 30
0.0
 40
120.0
 41
0.0
 71
     5
 72
     1
  1
\A1;110
  7
STYLE1
 73
     1
 44
1.0
1001
ACAD
1000
MTEXTBEGIN
1070
    73
1070
     1
1070
    44
1040
1.0
1070
    74
1070
     0
1000
MTEXTEND
  0
POINT
  5
1690B
330
15950
100
AcDbEntity
  8
DEFPOINTS
 62
     0
 48
50.0
100
AcDbPoint
 10
7024.484998239405
 20
9477.584002499989
 30
0.0
  0
POINT
  5
1690C
330
15950
100
AcDbEntity
  8
DEFPOINTS
 62
     0
 48
50.0
100
AcDbPoint
 10
7134.484998239409
 20
9477.584002499966
 30
0.0
  0
POINT
  5
1690D
330
15950
100
AcDbEntity
  8
DEFPOINTS
 62
     0
 48
50.0
100
AcDbPoint
 10
7134.484998239409
 20
9693.39222212497
 30
0.0
  0
ENDBLK
  5
1595D
330
15950
100
AcDbEntity
  8
0
 48
50.0
100
AcDbBlockEnd
  0
BLOCK
  5
15A11
330
15A10
100
AcDbEntity
  8
0
 48
50.0
100
AcDbBlockBegin
  2
*D23
 70
     1
 10
0.0
 20
0.0
 30
0.0
  3
*D23
  1

  0
LINE
  5
168FA
330
15A10
100
AcDbEntity
  8
寸法
 62
     0
 48
50.0
370
    -2
100
AcDbLine
 10
3854.484998239405
 20
8087.584002499864
 30
0.0
 11
3854.484998239405
 21
7607.760334704789
 31
0.0
  0
LINE
  5
168FB
330
15A10
100
AcDbEntity
  8
寸法
 62
     0
 48
50.0
370
    -2
100
AcDbLine
 10
4539.484998239401
 20
8087.584002499829
 30
0.0
 11
4539.484998239401
 21
7607.760334704789
 31
0.0
  0
LINE
  5
168FC
330
15A10
100
AcDbEntity
  8
寸法
 62
     0
 48
50.0
370
    -2
100
AcDbLine
 10
3854.484998239405
 20
7667.760334704787
 30
0.0
 11
4539.484998239401
 21
7667.760334704787
 31
0.0
  0
INSERT
  5
168FD
330
15A10
100
AcDbEntity
  8
寸法
 62
     0
 48
50.0
370
    -2
100
AcDbBlockReference
  2
_DOTSMALL
 10
3854.484998239405
 20
7667.760334704787
 30
0.0
 41
100.0
 42
100.0
 43
100.0
 50
180.0
  0
INSERT
  5
168FE
330
15A10
100
AcDbEntity
  8
寸法
 62
     0
 48
50.0
370
    -2
100
AcDbBlockReference
  2
_DOTSMALL
 10
4539.484998239401
 20
7667.760334704787
 30
0.0
 41
100.0
 42
100.0
 43
100.0
  0
MTEXT
  5
168FF
330
15A10
100
AcDbEntity
  8
寸法
 62
     7
 48
50.0
100
AcDbMText
 10
4196.984998239402
 20
7767.760334704788
 30
0.0
 40
120.0
 41
0.0
 71
     5
 72
     1
  1
\A1;685
  7
STYLE1
 73
     1
 44
1.0
1001
ACAD
1000
MTEXTBEGIN
1070
    73
1070
     1
1070
    44
1040
1.0
1070
    74
1070
     0
1000
MTEXTEND
  0
POINT
  5
16900
330
15A10
100
AcDbEntity
  8
DEFPOINTS
 62
     0
 48
50.0
100
AcDbPoint
 10
3854.484998239405
 20
8107.584002499866
 30
0.0
  0
POINT
  5
16901
330
15A10
100
AcDbEntity
  8
DEFPOINTS
 62
     0
 48
50.0
100
AcDbPoint
 10
4539.484998239401
 20
8107.584002499828
 30
0.0
  0
POINT
  5
16902
330
15A10
100
AcDbEntity
  8
DEFPOINTS
 62
     0
 48
50.0
100
AcDbPoint
 10
4539.484998239401
 20
7667.760334704787
 30
0.0
  0
ENDBLK
  5
15A1B
330
15A10
100
AcDbEntity
  8
0
 48
50.0
100
AcDbBlockEnd
  0
BLOCK
  5
16747
330
1673B
100
AcDbEntity
  8
0
 48
50.0
100
AcDbBlockBegin
  2
*D24
 70
     1
 10
0.0
 20
0.0
 30
0.0
  3
*D24
  1

  0
LINE
  5
1688F
330
1673B
100
AcDbEntity
  8
寸法
 62
     0
 48
50.0
370
    -2
100
AcDbLine
 10
3799.484998239401
 20
5415.795364285298
 30
0.0
 11
3799.484998239401
 21
5668.336949543537
 31
0.0
  0
LINE
  5
16890
330
1673B
100
AcDbEntity
  8
寸法
 62
     0
 48
50.0
370
    -2
100
AcDbLine
 10
3749.484998239401
 20
5415.795364285298
 30
0.0
 11
3749.484998239401
 21
5668.336949543537
 31
0.0
  0
LINE
  5
16891
330
1673B
100
AcDbEntity
  8
寸法
 62
     0
 48
50.0
370
    -2
100
AcDbLine
 10
3799.484998239401
 20
5608.336949543536
 30
0.0
 11
3899.484998239401
 21
5608.336949543536
 31
0.0
  0
LINE
  5
16892
330
1673B
100
AcDbEntity
  8
寸法
 62
     0
 48
50.0
370
    -2
100
AcDbLine
 10
3749.484998239401
 20
5608.336949543536
 30
0.0
 11
3329.952472770666
 21
5608.336949543536
 31
0.0
  0
LINE
  5
16893
330
1673B
100
AcDbEntity
  8
寸法
 62
     0
 48
50.0
370
    -2
100
AcDbLine
 10
3799.484998239401
 20
5608.336949543536
 30
0.0
 11
3749.484998239401
 21
5608.336949543536
 31
0.0
  0
INSERT
  5
16894
330
1673B
100
AcDbEntity
  8
寸法
 62
     0
 48
50.0
370
    -2
100
AcDbBlockReference
  2
_DOTSMALL
 10
3799.484998239401
 20
5608.336949543536
 30
0.0
 41
100.0
 42
100.0
 43
100.0
 50
180.0
  0
INSERT
  5
16895
330
1673B
100
AcDbEntity
  8
寸法
 62
     0
 48
50.0
370
    -2
100
AcDbBlockReference
  2
_DOTSMALL
 10
3749.484998239401
 20
5608.336949543536
 30
0.0
 41
100.0
 42
100.0
 43
100.0
  0
MTEXT
  5
16896
330
1673B
100
AcDbEntity
  8
寸法
 62
     7
 48
50.0
100
AcDbMText
 10
3435.999716865154
 20
5708.336949543536
 30
0.0
 40
120.0
 41
0.0
 71
     5
 72
     1
  1
\A1;50
  7
STYLE1
 73
     1
 44
1.0
1001
ACAD
1000
MTEXTBEGIN
1070
    73
1070
     1
1070
    44
1040
1.0
1070
    74
1070
     0
1000
MTEXTEND
  0
POINT
  5
16897
330
1673B
100
AcDbEntity
  8
DEFPOINTS
 62
     0
 48
50.0
100
AcDbPoint
 10
3799.484998239401
 20
5395.795364285299
 30
0.0
  0
POINT
  5
16898
330
1673B
100
AcDbEntity
  8
DEFPOINTS
 62
     0
 48
50.0
100
AcDbPoint
 10
3749.484998239401
 20
5395.795364285297
 30
0.0
  0
POINT
  5
16899
330
1673B
100
AcDbEntity
  8
DEFPOINTS
 62
     0
 48
50.0
100
AcDbPoint
 10
3749.484998239401
 20
5608.336949543536
 30
0.0
  0
ENDBLK
  5
16748
330
1673B
100
AcDbEntity
  8
0
 48
50.0
100
AcDbBlockEnd
  0
BLOCK
  5
16753
330
16749
100
AcDbEntity
  8
0
 48
50.0
100
AcDbBlockBegin
  2
*D25
 70
     1
 10
0.0
 20
0.0
 30
0.0
  3
*D25
  1

  0
LINE
  5
1689A
330
16749
100
AcDbEntity
  8
寸法
 62
     0
 48
50.0
370
    -2
100
AcDbLine
 10
3749.484998239401
 20
5415.795364285298
 30
0.0
 11
3749.484998239401
 21
5891.293927981383
 31
0.0
  0
LINE
  5
1689B
330
16749
100
AcDbEntity
  8
寸法
 62
     0
 48
50.0
370
    -2
100
AcDbLine
 10
7949.484998239404
 20
5415.795364285295
 30
0.0
 11
7949.484998239404
 21
5891.293927981383
 31
0.0
  0
LINE
  5
1689C
330
16749
100
AcDbEntity
  8
寸法
 62
     0
 48
50.0
370
    -2
100
AcDbLine
 10
3749.484998239401
 20
5831.293927981384
 30
0.0
 11
7949.484998239404
 21
5831.293927981384
 31
0.0
  0
INSERT
  5
1689D
330
16749
100
AcDbEntity
  8
寸法
 62
     0
 48
50.0
370
    -2
100
AcDbBlockReference
  2
_DOTSMALL
 10
3749.484998239401
 20
5831.293927981384
 30
0.0
 41
100.0
 42
100.0
 43
100.0
 50
180.0
  0
INSERT
  5
1689E
330
16749
100
AcDbEntity
  8
寸法
 62
     0
 48
50.0
370
    -2
100
AcDbBlockReference
  2
_DOTSMALL
 10
7949.484998239404
 20
5831.293927981384
 30
0.0
 41
100.0
 42
100.0
 43
100.0
  0
MTEXT
  5
1689F
330
16749
100
AcDbEntity
  8
寸法
 62
     7
 48
50.0
100
AcDbMText
 10
5849.484998239403
 20
5931.305739005005
 30
0.0
 40
120.0
 41
0.0
 71
     5
 72
     1
  1
\A1;4200
  7
STYLE1
 73
     1
 44
1.0
1001
ACAD
1000
MTEXTBEGIN
1070
    73
1070
     1
1070
    44
1040
1.0
1070
    74
1070
     0
1000
MTEXTEND
  0
POINT
  5
168A0
330
16749
100
AcDbEntity
  8
DEFPOINTS
 62
     0
 48
50.0
100
AcDbPoint
 10
3749.484998239401
 20
5395.795364285297
 30
0.0
  0
POINT
  5
168A1
330
16749
100
AcDbEntity
  8
DEFPOINTS
 62
     0
 48
50.0
100
AcDbPoint
 10
7949.484998239404
 20
5395.795364285295
 30
0.0
  0
POINT
  5
168A2
330
16749
100
AcDbEntity
  8
DEFPOINTS
 62
     0
 48
50.0
100
AcDbPoint
 10
7949.484998239404
 20
5831.293927981384
 30
0.0
  0
ENDBLK
  5
16754
330
16749
100
AcDbEntity
  8
0
 48
50.0
100
AcDbBlockEnd
  0
BLOCK
  5
1675F
330
16755
100
AcDbEntity
  8
0
 48
50.0
100
AcDbBlockBegin
  2
*D26
 70
     1
 10
0.0
 20
0.0
 30
0.0
  3
*D26
  1

  0
LINE
  5
168A3
330
16755
100
AcDbEntity
  8
寸法
 62
     0
 48
50.0
370
    -2
100
AcDbLine
 10
7899.484998239405
 20
5415.795364285298
 30
0.0
 11
7899.484998239405
 21
5668.336949543537
 31
0.0
  0
LINE
  5
168A4
330
16755
100
AcDbEntity
  8
寸法
 62
     0
 48
50.0
370
    -2
100
AcDbLine
 10
3799.484998239401
 20
5415.795364285298
 30
0.0
 11
3799.484998239401
 21
5668.336949543537
 31
0.0
  0
LINE
  5
168A5
330
16755
100
AcDbEntity
  8
寸法
 62
     0
 48
50.0
370
    -2
100
AcDbLine
 10
7899.484998239405
 20
5608.336949543536
 30
0.0
 11
3799.484998239401
 21
5608.336949543536
 31
0.0
  0
INSERT
  5
168A6
330
16755
100
AcDbEntity
  8
寸法
 62
     0
 48
50.0
370
    -2
100
AcDbBlockReference
  2
_DOTSMALL
 10
7899.484998239405
 20
5608.336949543536
 30
0.0
 41
100.0
 42
100.0
 43
100.0
  0
INSERT
  5
168A7
330
16755
100
AcDbEntity
  8
寸法
 62
     0
 48
50.0
370
    -2
100
AcDbBlockReference
  2
_DOTSMALL
 10
3799.484998239401
 20
5608.336949543536
 30
0.0
 41
100.0
 42
100.0
 43
100.0
 50
180.0
  0
MTEXT
  5
168A8
330
16755
100
AcDbEntity
  8
寸法
 62
     7
 48
50.0
100
AcDbMText
 10
5849.484998239391
 20
5708.336949543536
 30
0.0
 40
120.0
 41
0.0
 71
     5
 72
     1
  1
\A1;柱外寸法4100
  7
STYLE1
 73
     1
 44
1.0
1001
ACAD
1000
MTEXTBEGIN
1070
    73
1070
     1
1070
    44
1040
1.0
1070
    74
1070
     0
1000
MTEXTEND
  0
POINT
  5
168A9
330
16755
100
AcDbEntity
  8
DEFPOINTS
 62
     0
 48
50.0
100
AcDbPoint
 10
7899.484998239405
 20
5395.795364285297
 30
0.0
  0
POINT
  5
168AA
330
16755
100
AcDbEntity
  8
DEFPOINTS
 62
     0
 48
50.0
100
AcDbPoint
 10
3799.484998239401
 20
5395.795364285299
 30
0.0
  0
POINT
  5
168AB
330
16755
100
AcDbEntity
  8
DEFPOINTS
 62
     0
 48
50.0
100
AcDbPoint
 10
3799.484998239401
 20
5608.336949543536
 30
0.0
  0
ENDBLK
  5
16760
330
16755
100
AcDbEntity
  8
0
 48
50.0
100
AcDbBlockEnd
  0
BLOCK
  5
16795
330
16789
100
AcDbEntity
  8
0
 48
50.0
100
AcDbBlockBegin
  2
*D27
 70
     1
 10
0.0
 20
0.0
 30
0.0
  3
*D27
  1

  0
LINE
  5
16884
330
16789
100
AcDbEntity
  8
寸法
 62
     0
 48
50.0
370
    -2
100
AcDbLine
 10
7949.484998239404
 20
5415.795364285295
 30
0.0
 11
7949.484998239404
 21
5668.336949543537
 31
0.0
  0
LINE
  5
16885
330
16789
100
AcDbEntity
  8
寸法
 62
     0
 48
50.0
370
    -2
100
AcDbLine
 10
7899.484998239405
 20
5415.795364285298
 30
0.0
 11
7899.484998239405
 21
5668.336949543537
 31
0.0
  0
LINE
  5
16886
330
16789
100
AcDbEntity
  8
寸法
 62
     0
 48
50.0
370
    -2
100
AcDbLine
 10
7899.484998239405
 20
5608.336949543536
 30
0.0
 11
7799.484998239404
 21
5608.336949543536
 31
0.0
  0
LINE
  5
16887
330
16789
100
AcDbEntity
  8
寸法
 62
     0
 48
50.0
370
    -2
100
AcDbLine
 10
7949.484998239404
 20
5608.336949543536
 30
0.0
 11
8369.017523708128
 21
5608.336949543536
 31
0.0
  0
LINE
  5
16888
330
16789
100
AcDbEntity
  8
寸法
 62
     0
 48
50.0
370
    -2
100
AcDbLine
 10
7899.484998239405
 20
5608.336949543536
 30
0.0
 11
7949.484998239404
 21
5608.336949543536
 31
0.0
  0
INSERT
  5
16889
330
16789
100
AcDbEntity
  8
寸法
 62
     0
 48
50.0
370
    -2
100
AcDbBlockReference
  2
_DOTSMALL
 10
7899.484998239405
 20
5608.336949543536
 30
0.0
 41
100.0
 42
100.0
 43
100.0
  0
INSERT
  5
1688A
330
16789
100
AcDbEntity
  8
寸法
 62
     0
 48
50.0
370
    -2
100
AcDbBlockReference
  2
_DOTSMALL
 10
7949.484998239404
 20
5608.336949543536
 30
0.0
 41
100.0
 42
100.0
 43
100.0
 50
180.0
  0
MTEXT
  5
1688B
330
16789
100
AcDbEntity
  8
寸法
 62
     7
 48
50.0
100
AcDbMText
 10
8262.970279613641
 20
5708.336949543536
 30
0.0
 40
120.0
 41
0.0
 71
     5
 72
     1
  1
\A1;50
  7
STYLE1
 73
     1
 44
1.0
1001
ACAD
1000
MTEXTBEGIN
1070
    73
1070
     1
1070
    44
1040
1.0
1070
    74
1070
     0
1000
MTEXTEND
  0
POINT
  5
1688C
330
16789
100
AcDbEntity
  8
DEFPOINTS
 62
     0
 48
50.0
100
AcDbPoint
 10
7949.484998239404
 20
5395.795364285295
 30
0.0
  0
POINT
  5
1688D
330
16789
100
AcDbEntity
  8
DEFPOINTS
 62
     0
 48
50.0
100
AcDbPoint
 10
7899.484998239405
 20
5395.795364285297
 30
0.0
  0
POINT
  5
1688E
330
16789
100
AcDbEntity
  8
DEFPOINTS
 62
     0
 48
50.0
100
AcDbPoint
 10
7899.484998239405
 20
5608.336949543536
 30
0.0
  0
ENDBLK
  5
16796
330
16789
100
AcDbEntity
  8
0
 48
50.0
100
AcDbBlockEnd
  0
BLOCK
  5
16FDA
330
16FD0
100
AcDbEntity
  8
0
 48
50.0
100
AcDbBlockBegin
  2
*D28
 70
     1
 10
0.0
 20
0.0
 30
0.0
  3
*D28
  1

  0
LINE
  5
17158
330
16FD0
100
AcDbEntity
  8
寸法
 62
     0
 48
50.0
370
    -2
100
AcDbLine
 10
10266.35691079978
 20
3320.795364285296
 30
0.0
 11
9322.085099159304
 21
3320.795364285296
 31
0.0
  0
LINE
  5
17159
330
16FD0
100
AcDbEntity
  8
寸法
 62
     0
 48
50.0
370
    -2
100
AcDbLine
 10
10206.35691079978
 20
5395.795364285299
 30
0.0
 11
9322.085099159306
 21
5395.795364285299
 31
0.0
  0
LINE
  5
1715A
330
16FD0
100
AcDbEntity
  8
寸法
 62
     0
 48
50.0
370
    -2
100
AcDbLine
 10
9382.085099159302
 20
3320.795364285296
 30
0.0
 11
9382.085099159304
 21
5395.795364285299
 31
0.0
  0
INSERT
  5
1715B
330
16FD0
100
AcDbEntity
  8
寸法
 62
     0
 48
50.0
370
    -2
100
AcDbBlockReference
  2
_DOTSMALL
 10
9382.085099159302
 20
3320.795364285296
 30
0.0
 41
100.0
 42
100.0
 43
100.0
 50
270.0
  0
INSERT
  5
1715C
330
16FD0
100
AcDbEntity
  8
寸法
 62
     0
 48
50.0
370
    -2
100
AcDbBlockReference
  2
_DOTSMALL
 10
9382.085099159304
 20
5395.795364285299
 30
0.0
 41
100.0
 42
100.0
 43
100.0
 50
90.0
  0
MTEXT
  5
1715D
330
16FD0
100
AcDbEntity
  8
寸法
 62
     7
 48
50.0
100
AcDbMText
 10
9282.073288135682
 20
4296.002354705097
 30
0.0
 40
120.0
 41
0.0
 71
     5
 72
     1
  1
\A1;2075
  7
STYLE1
 11
0.0000000000000001
 21
1.0
 31
0.0
 73
     1
 44
1.0
1001
ACAD
1000
MTEXTBEGIN
1070
    73
1070
     1
1070
    44
1040
1.0
1070
    74
1070
     0
1000
MTEXTEND
  0
POINT
  5
1715E
330
16FD0
100
AcDbEntity
  8
DEFPOINTS
 62
     0
 48
50.0
100
AcDbPoint
 10
10286.35691079978
 20
3320.795364285296
 30
0.0
  0
POINT
  5
1715F
330
16FD0
100
AcDbEntity
  8
DEFPOINTS
 62
     0
 48
50.0
100
AcDbPoint
 10
10226.35691079978
 20
5395.795364285299
 30
0.0
  0
POINT
  5
17160
330
16FD0
100
AcDbEntity
  8
DEFPOINTS
 62
     0
 48
50.0
100
AcDbPoint
 10
9382.085099159304
 20
5395.795364285299
 30
0.0
  0
ENDBLK
  5
16FDB
330
16FD0
100
AcDbEntity
  8
0
 48
50.0
100
AcDbBlockEnd
  0
BLOCK
  5
16FE8
330
16FDC
100
AcDbEntity
  8
0
 48
50.0
100
AcDbBlockBegin
  2
*D29
 70
     1
 10
0.0
 20
0.0
 30
0.0
  3
*D29
  1

  0
LINE
  5
1714D
330
16FDC
100
AcDbEntity
  8
寸法
 62
     0
 48
50.0
370
    -2
100
AcDbLine
 10
10259.35454075501
 20
3370.795364285297
 30
0.0
 11
9624.393820107581
 21
3370.795364285297
 31
0.0
  0
LINE
  5
1714E
330
16FDC
100
AcDbEntity
  8
寸法
 62
     0
 48
50.0
370
    -2
100
AcDbLine
 10
10211.35691079978
 20
3320.795364285296
 30
0.0
 11
9624.393820107581
 21
3320.795364285296
 31
0.0
  0
LINE
  5
1714F
330
16FDC
100
AcDbEntity
  8
寸法
 62
     0
 48
50.0
370
    -2
100
AcDbLine
 10
9684.39382010758
 20
3370.795364285297
 30
0.0
 11
9684.39382010758
 21
3470.795364285297
 31
0.0
  0
LINE
  5
17150
330
16FDC
100
AcDbEntity
  8
寸法
 62
     0
 48
50.0
370
    -2
100
AcDbLine
 10
9684.39382010758
 20
3320.795364285296
 30
0.0
 11
9684.39382010758
 21
2908.700876096315
 31
0.0
  0
LINE
  5
17151
330
16FDC
100
AcDbEntity
  8
寸法
 62
     0
 48
50.0
370
    -2
100
AcDbLine
 10
9684.39382010758
 20
3370.795364285297
 30
0.0
 11
9684.39382010758
 21
3320.795364285296
 31
0.0
  0
INSERT
  5
17152
330
16FDC
100
AcDbEntity
  8
寸法
 62
     0
 48
50.0
370
    -2
100
AcDbBlockReference
  2
_DOTSMALL
 10
9684.39382010758
 20
3370.795364285297
 30
0.0
 41
100.0
 42
100.0
 43
100.0
 50
270.0
  0
INSERT
  5
17153
330
16FDC
100
AcDbEntity
  8
寸法
 62
     0
 48
50.0
370
    -2
100
AcDbBlockReference
  2
_DOTSMALL
 10
9684.39382010758
 20
3320.795364285296
 30
0.0
 41
100.0
 42
100.0
 43
100.0
 50
90.0
  0
MTEXT
  5
17154
330
16FDC
100
AcDbEntity
  8
寸法
 62
     7
 48
50.0
100
AcDbMText
 10
9584.39382010758
 20
3014.748120190805
 30
0.0
 40
120.0
 41
0.0
 71
     5
 72
     1
  1
\A1;50
  7
STYLE1
 11
0.0000000000000001
 21
1.0
 31
0.0
 73
     1
 44
1.0
1001
ACAD
1000
MTEXTBEGIN
1070
    73
1070
     1
1070
    44
1040
1.0
1070
    74
1070
     0
1000
MTEXTEND
  0
POINT
  5
17155
330
16FDC
100
AcDbEntity
  8
DEFPOINTS
 62
     0
 48
50.0
100
AcDbPoint
 10
10279.35454075501
 20
3370.795364285297
 30
0.0
  0
POINT
  5
17156
330
16FDC
100
AcDbEntity
  8
DEFPOINTS
 62
     0
 48
50.0
100
AcDbPoint
 10
10231.35691079978
 20
3320.795364285296
 30
0.0
  0
POINT
  5
17157
330
16FDC
100
AcDbEntity
  8
DEFPOINTS
 62
     0
 48
50.0
100
AcDbPoint
 10
9684.39382010758
 20
3320.795364285296
 30
0.0
  0
ENDBLK
  5
16FE9
330
16FDC
100
AcDbEntity
  8
0
 48
50.0
100
AcDbBlockEnd
  0
BLOCK
  5
16FF4
330
16FEA
100
AcDbEntity
  8
0
 48
50.0
100
AcDbBlockBegin
  2
*D30
 70
     1
 10
0.0
 20
0.0
 30
0.0
  3
*D30
  1

  0
LINE
  5
17144
330
16FEA
100
AcDbEntity
  8
寸法
 62
     0
 48
50.0
370
    -2
100
AcDbLine
 10
11676.35691079978
 20
3320.795364285296
 30
0.0
 11
12421.28406877191
 21
3320.795364285296
 31
0.0
  0
LINE
  5
17145
330
16FEA
100
AcDbEntity
  8
寸法
 62
     0
 48
50.0
370
    -2
100
AcDbLine
 10
11756.35691079978
 20
5340.795364285295
 30
0.0
 11
12421.28406877191
 21
5340.795364285295
 31
0.0
  0
LINE
  5
17146
330
16FEA
100
AcDbEntity
  8
寸法
 62
     0
 48
50.0
370
    -2
100
AcDbLine
 10
12361.28406877191
 20
3320.795364285296
 30
0.0
 11
12361.28406877191
 21
5340.795364285295
 31
0.0
  0
INSERT
  5
17147
330
16FEA
100
AcDbEntity
  8
寸法
 62
     0
 48
50.0
370
    -2
100
AcDbBlockReference
  2
_DOTSMALL
 10
12361.28406877191
 20
3320.795364285296
 30
0.0
 41
100.0
 42
100.0
 43
100.0
 50
270.0
  0
INSERT
  5
17148
330
16FEA
100
AcDbEntity
  8
寸法
 62
     0
 48
50.0
370
    -2
100
AcDbBlockReference
  2
_DOTSMALL
 10
12361.28406877191
 20
5340.795364285295
 30
0.0
 41
100.0
 42
100.0
 43
100.0
 50
90.0
  0
MTEXT
  5
17149
330
16FEA
100
AcDbEntity
  8
寸法
 62
     7
 48
50.0
100
AcDbMText
 10
12261.27225774829
 20
4330.795364285297
 30
0.0
 40
120.0
 41
0.0
 71
     5
 72
     1
  1
\A1;2020
  7
STYLE1
 11
0.0000000000000001
 21
1.0
 31
0.0
 73
     1
 44
1.0
1001
ACAD
1000
MTEXTBEGIN
1070
    73
1070
     1
1070
    44
1040
1.0
1070
    74
1070
     0
1000
MTEXTEND
  0
POINT
  5
1714A
330
16FEA
100
AcDbEntity
  8
DEFPOINTS
 62
     0
 48
50.0
100
AcDbPoint
 10
11656.35691079978
 20
3320.795364285296
 30
0.0
  0
POINT
  5
1714B
330
16FEA
100
AcDbEntity
  8
DEFPOINTS
 62
     0
 48
50.0
100
AcDbPoint
 10
11736.35691079978
 20
5340.795364285295
 30
0.0
  0
POINT
  5
1714C
330
16FEA
100
AcDbEntity
  8
DEFPOINTS
 62
     0
 48
50.0
100
AcDbPoint
 10
12361.28406877191
 20
5340.795364285295
 30
0.0
  0
ENDBLK
  5
16FF5
330
16FEA
100
AcDbEntity
  8
0
 48
50.0
100
AcDbBlockEnd
  0
BLOCK
  5
17000
330
16FF6
100
AcDbEntity
  8
0
 48
50.0
100
AcDbBlockBegin
  2
*D31
 70
     1
 10
0.0
 20
0.0
 30
0.0
  3
*D31
  1

  0
LINE
  5
1713B
330
16FF6
100
AcDbEntity
  8
寸法
 62
     0
 48
50.0
370
    -2
100
AcDbLine
 10
11656.35691079978
 20
5362.606043896947
 30
0.0
 11
11656.35691079978
 21
5854.452817864597
 31
0.0
  0
LINE
  5
1713C
330
16FF6
100
AcDbEntity
  8
寸法
 62
     0
 48
50.0
370
    -2
100
AcDbLine
 10
10286.35691079978
 20
5411.796982408271
 30
0.0
 11
10286.35691079978
 21
5854.452817864597
 31
0.0
  0
LINE
  5
1713D
330
16FF6
100
AcDbEntity
  8
寸法
 62
     0
 48
50.0
370
    -2
100
AcDbLine
 10
11656.35691079978
 20
5794.452817864598
 30
0.0
 11
10286.35691079978
 21
5794.452817864598
 31
0.0
  0
INSERT
  5
1713E
330
16FF6
100
AcDbEntity
  8
寸法
 62
     0
 48
50.0
370
    -2
100
AcDbBlockReference
  2
_DOTSMALL
 10
11656.35691079978
 20
5794.452817864598
 30
0.0
 41
100.0
 42
100.0
 43
100.0
  0
INSERT
  5
1713F
330
16FF6
100
AcDbEntity
  8
寸法
 62
     0
 48
50.0
370
    -2
100
AcDbBlockReference
  2
_DOTSMALL
 10
10286.35691079978
 20
5794.452817864598
 30
0.0
 41
100.0
 42
100.0
 43
100.0
 50
180.0
  0
MTEXT
  5
17140
330
16FF6
100
AcDbEntity
  8
寸法
 62
     7
 48
50.0
100
AcDbMText
 10
10936.17594369033
 20
5894.452817864598
 30
0.0
 40
120.0
 41
0.0
 71
     5
 72
     1
  1
\A1;柱外寸法1370
  7
STYLE1
 73
     1
 44
1.0
1001
ACAD
1000
MTEXTBEGIN
1070
    73
1070
     1
1070
    44
1040
1.0
1070
    74
1070
     0
1000
MTEXTEND
  0
POINT
  5
17141
330
16FF6
100
AcDbEntity
  8
DEFPOINTS
 62
     0
 48
50.0
100
AcDbPoint
 10
11656.35691079978
 20
5342.606043896947
 30
0.0
  0
POINT
  5
17142
330
16FF6
100
AcDbEntity
  8
DEFPOINTS
 62
     0
 48
50.0
100
AcDbPoint
 10
10286.35691079978
 20
5391.79698240827
 30
0.0
  0
POINT
  5
17143
330
16FF6
100
AcDbEntity
  8
DEFPOINTS
 62
     0
 48
50.0
100
AcDbPoint
 10
10286.35691079978
 20
5794.452817864598
 30
0.0
  0
ENDBLK
  5
17001
330
16FF6
100
AcDbEntity
  8
0
 48
50.0
100
AcDbBlockEnd
  0
BLOCK
  5
1700E
330
17002
100
AcDbEntity
  8
0
 48
50.0
100
AcDbBlockBegin
  2
*D32
 70
     1
 10
0.0
 20
0.0
 30
0.0
  3
*D32
  1

  0
LINE
  5
17130
330
17002
100
AcDbEntity
  8
寸法
 62
     0
 48
50.0
370
    -2
100
AcDbLine
 10
10286.35691079978
 20
5411.796982408271
 30
0.0
 11
10286.35691079978
 21
5854.452817864597
 31
0.0
  0
LINE
  5
17131
330
17002
100
AcDbEntity
  8
寸法
 62
     0
 48
50.0
370
    -2
100
AcDbLine
 10
10226.35691079978
 20
5415.795364285298
 30
0.0
 11
10226.35691079978
 21
5854.452817864597
 31
0.0
  0
LINE
  5
17132
330
17002
100
AcDbEntity
  8
寸法
 62
     0
 48
50.0
370
    -2
100
AcDbLine
 10
10286.35691079978
 20
5794.452817864598
 30
0.0
 11
10386.35691079978
 21
5794.452817864598
 31
0.0
  0
LINE
  5
17133
330
17002
100
AcDbEntity
  8
寸法
 62
     0
 48
50.0
370
    -2
100
AcDbLine
 10
10226.35691079978
 20
5794.452817864598
 30
0.0
 11
9807.081320248606
 21
5794.452817864598
 31
0.0
  0
LINE
  5
17134
330
17002
100
AcDbEntity
  8
寸法
 62
     0
 48
50.0
370
    -2
100
AcDbLine
 10
10286.35691079978
 20
5794.452817864598
 30
0.0
 11
10226.35691079978
 21
5794.452817864598
 31
0.0
  0
INSERT
  5
17135
330
17002
100
AcDbEntity
  8
寸法
 62
     0
 48
50.0
370
    -2
100
AcDbBlockReference
  2
_DOTSMALL
 10
10286.35691079978
 20
5794.452817864598
 30
0.0
 41
100.0
 42
100.0
 43
100.0
 50
180.0
  0
INSERT
  5
17136
330
17002
100
AcDbEntity
  8
寸法
 62
     0
 48
50.0
370
    -2
100
AcDbBlockReference
  2
_DOTSMALL
 10
10226.35691079978
 20
5794.452817864598
 30
0.0
 41
100.0
 42
100.0
 43
100.0
  0
MTEXT
  5
17137
330
17002
100
AcDbEntity
  8
寸法
 62
     7
 48
50.0
100
AcDbMText
 10
9916.719115524195
 20
5894.452817864598
 30
0.0
 40
120.0
 41
0.0
 71
     5
 72
     1
  1
\A1;60
  7
STYLE1
 73
     1
 44
1.0
1001
ACAD
1000
MTEXTBEGIN
1070
    73
1070
     1
1070
    44
1040
1.0
1070
    74
1070
     0
1000
MTEXTEND
  0
POINT
  5
17138
330
17002
100
AcDbEntity
  8
DEFPOINTS
 62
     0
 48
50.0
100
AcDbPoint
 10
10286.35691079978
 20
5391.79698240827
 30
0.0
  0
POINT
  5
17139
330
17002
100
AcDbEntity
  8
DEFPOINTS
 62
     0
 48
50.0
100
AcDbPoint
 10
10226.35691079978
 20
5395.795364285299
 30
0.0
  0
POINT
  5
1713A
330
17002
100
AcDbEntity
  8
DEFPOINTS
 62
     0
 48
50.0
100
AcDbPoint
 10
10226.35691079978
 20
5794.452817864598
 30
0.0
  0
ENDBLK
  5
1700F
330
17002
100
AcDbEntity
  8
0
 48
50.0
100
AcDbBlockEnd
  0
BLOCK
  5
1701A
330
17010
100
AcDbEntity
  8
0
 48
50.0
100
AcDbBlockBegin
  2
*D33
 70
     1
 10
0.0
 20
0.0
 30
0.0
  3
*D33
  1

  0
LINE
  5
17127
330
17010
100
AcDbEntity
  8
寸法
 62
     0
 48
50.0
370
    -2
100
AcDbLine
 10
11736.35691079978
 20
5360.795364285295
 30
0.0
 11
11736.35691079978
 21
6062.627139056562
 31
0.0
  0
LINE
  5
17128
330
17010
100
AcDbEntity
  8
寸法
 62
     0
 48
50.0
370
    -2
100
AcDbLine
 10
10226.35691079978
 20
5415.795364285298
 30
0.0
 11
10226.35691079978
 21
6062.627139056562
 31
0.0
  0
LINE
  5
17129
330
17010
100
AcDbEntity
  8
寸法
 62
     0
 48
50.0
370
    -2
100
AcDbLine
 10
11736.35691079978
 20
6002.627139056562
 30
0.0
 11
10226.35691079978
 21
6002.627139056562
 31
0.0
  0
INSERT
  5
1712A
330
17010
100
AcDbEntity
  8
寸法
 62
     0
 48
50.0
370
    -2
100
AcDbBlockReference
  2
_DOTSMALL
 10
11736.35691079978
 20
6002.627139056562
 30
0.0
 41
100.0
 42
100.0
 43
100.0
  0
INSERT
  5
1712B
330
17010
100
AcDbEntity
  8
寸法
 62
     0
 48
50.0
370
    -2
100
AcDbBlockReference
  2
_DOTSMALL
 10
10226.35691079978
 20
6002.627139056562
 30
0.0
 41
100.0
 42
100.0
 43
100.0
 50
180.0
  0
MTEXT
  5
1712C
330
17010
100
AcDbEntity
  8
寸法
 62
     7
 48
50.0
100
AcDbMText
 10
10953.4817405016
 20
6102.627139056561
 30
0.0
 40
120.0
 41
0.0
 71
     5
 72
     1
  1
\A1;1510
  7
STYLE1
 73
     1
 44
1.0
1001
ACAD
1000
MTEXTBEGIN
1070
    73
1070
     1
1070
    44
1040
1.0
1070
    74
1070
     0
1000
MTEXTEND
  0
POINT
  5
1712D
330
17010
100
AcDbEntity
  8
DEFPOINTS
 62
     0
 48
50.0
100
AcDbPoint
 10
11736.35691079978
 20
5340.795364285295
 30
0.0
  0
POINT
  5
1712E
330
17010
100
AcDbEntity
  8
DEFPOINTS
 62
     0
 48
50.0
100
AcDbPoint
 10
10226.35691079978
 20
5395.795364285299
 30
0.0
  0
POINT
  5
1712F
330
17010
100
AcDbEntity
  8
DEFPOINTS
 62
     0
 48
50.0
100
AcDbPoint
 10
10226.35691079978
 20
6002.627139056562
 30
0.0
  0
ENDBLK
  5
1701B
330
17010
100
AcDbEntity
  8
0
 48
50.0
100
AcDbBlockEnd
  0
BLOCK
  5
17027
330
1701C
100
AcDbEntity
  8
0
 48
50.0
100
AcDbBlockBegin
  2
*D34
 70
     1
 10
0.0
 20
0.0
 30
0.0
  3
*D34
  1

  0
LINE
  5
1711D
330
1701C
100
AcDbEntity
  8
寸法
 62
     0
 48
50.0
370
    -2
100
AcDbLine
 10
11656.35691079978
 20
5362.606043896947
 30
0.0
 11
11656.35691079978
 21
5854.452817864597
 31
0.0
  0
LINE
  5
1711E
330
1701C
100
AcDbEntity
  8
寸法
 62
     0
 48
50.0
370
    -2
100
AcDbLine
 10
11736.35691079978
 20
5360.795364285295
 30
0.0
 11
11736.35691079978
 21
5854.452817864597
 31
0.0
  0
LINE
  5
1711F
330
1701C
100
AcDbEntity
  8
寸法
 62
     0
 48
50.0
370
    -2
100
AcDbLine
 10
11656.35691079978
 20
5794.452817864598
 30
0.0
 11
11736.35691079978
 21
5794.452817864598
 31
0.0
  0
LINE
  5
17120
330
1701C
100
AcDbEntity
  8
寸法
 62
     0
 48
50.0
370
    -2
100
AcDbLine
 10
11736.35691079978
 20
5794.452817864598
 30
0.0
 11
12048.45139898876
 21
5794.452817864598
 31
0.0
  0
INSERT
  5
17121
330
1701C
100
AcDbEntity
  8
寸法
 62
     0
 48
50.0
370
    -2
100
AcDbBlockReference
  2
_DOTSMALL
 10
11656.35691079978
 20
5794.452817864598
 30
0.0
 41
100.0
 42
100.0
 43
100.0
 50
180.0
  0
INSERT
  5
17122
330
1701C
100
AcDbEntity
  8
寸法
 62
     0
 48
50.0
370
    -2
100
AcDbBlockReference
  2
_DOTSMALL
 10
11736.35691079978
 20
5794.452817864598
 30
0.0
 41
100.0
 42
100.0
 43
100.0
  0
MTEXT
  5
17123
330
1701C
100
AcDbEntity
  8
寸法
 62
     7
 48
50.0
100
AcDbMText
 10
11942.40415489427
 20
5894.452817864598
 30
0.0
 40
120.0
 41
0.0
 71
     5
 72
     1
  1
\A1;80
  7
STYLE1
 73
     1
 44
1.0
1001
ACAD
1000
MTEXTBEGIN
1070
    73
1070
     1
1070
    44
1040
1.0
1070
    74
1070
     0
1000
MTEXTEND
  0
POINT
  5
17124
330
1701C
100
AcDbEntity
  8
DEFPOINTS
 62
     0
 48
50.0
100
AcDbPoint
 10
11656.35691079978
 20
5342.606043896947
 30
0.0
  0
POINT
  5
17125
330
1701C
100
AcDbEntity
  8
DEFPOINTS
 62
     0
 48
50.0
100
AcDbPoint
 10
11736.35691079978
 20
5340.795364285295
 30
0.0
  0
POINT
  5
17126
330
1701C
100
AcDbEntity
  8
DEFPOINTS
 62
     0
 48
50.0
100
AcDbPoint
 10
11736.35691079978
 20
5794.452817864598
 30
0.0
  0
ENDBLK
  5
17028
330
1701C
100
AcDbEntity
  8
0
 48
50.0
100
AcDbBlockEnd
  0
BLOCK
  5
17034
330
17029
100
AcDbEntity
  8
0
 48
50.0
100
AcDbBlockBegin
  2
*D35
 70
     1
 10
0.0
 20
0.0
 30
0.0
  3
*D35
  1

  0
LINE
  5
17113
330
17029
100
AcDbEntity
  8
寸法
 62
     0
 48
50.0
370
    -2
100
AcDbLine
 10
10221.71371548728
 20
5254.330975758771
 30
0.0
 11
9568.813545193254
 21
5278.982006998749
 31
0.0
  0
LINE
  5
17114
330
17029
100
AcDbEntity
  8
寸法
 62
     0
 48
50.0
370
    -2
100
AcDbLine
 10
10227.03354963924
 20
5395.230583155654
 30
0.0
 11
9574.133379345047
 21
5419.881614395638
 31
0.0
  0
LINE
  5
17115
330
17029
100
AcDbEntity
  8
寸法
 62
     0
 48
50.0
370
    -2
100
AcDbLine
 10
9628.770824936612
 20
5276.71824778522
 30
0.0
 11
9634.090659088405
 21
5417.617855182109
 31
0.0
  0
LINE
  5
17116
330
17029
100
AcDbEntity
  8
寸法
 62
     0
 48
50.0
370
    -2
100
AcDbLine
 10
9634.090659088405
 20
5417.617855182109
 30
0.0
 11
9647.673214369604
 21
5777.361533642943
 31
0.0
  0
INSERT
  5
17117
330
17029
100
AcDbEntity
  8
寸法
 62
     0
 48
50.0
370
    -2
100
AcDbBlockReference
  2
_DOTSMALL
 10
9628.770824936612
 20
5276.71824778522
 30
0.0
 41
100.0
 42
100.0
 43
100.0
 50
267.8377559871574
  0
INSERT
  5
17118
330
17029
100
AcDbEntity
  8
寸法
 62
     0
 48
50.0
370
    -2
100
AcDbBlockReference
  2
_DOTSMALL
 10
9634.090659088405
 20
5417.617855182109
 30
0.0
 41
100.0
 42
100.0
 43
100.0
 50
87.83775598715743
  0
MTEXT
  5
17119
330
17029
100
AcDbEntity
  8
寸法
 62
     7
 48
50.0
100
AcDbMText
 10
9542.83960316803
 20
5651.22702622155
 30
0.0
 40
120.0
 41
0.0
 71
     5
 72
     1
  1
\A1;141
  7
STYLE1
 11
0.03772932022548
 21
0.9992879957226159
 31
0.0
 73
     1
 44
1.0
1001
ACAD
1000
MTEXTBEGIN
1070
    73
1070
     1
1070
    44
1040
1.0
1070
    74
1070
     0
1000
MTEXTEND
  0
POINT
  5
1711A
330
17029
100
AcDbEntity
  8
DEFPOINTS
 62
     0
 48
50.0
100
AcDbPoint
 10
10241.69947540173
 20
5253.576389354261
 30
0.0
  0
POINT
  5
1711B
330
17029
100
AcDbEntity
  8
DEFPOINTS
 62
     0
 48
50.0
100
AcDbPoint
 10
10247.01930955369
 20
5394.475996751143
 30
0.0
  0
POINT
  5
1711C
330
17029
100
AcDbEntity
  8
DEFPOINTS
 62
     0
 48
50.0
100
AcDbPoint
 10
9634.090659088405
 20
5417.617855182109
 30
0.0
  0
ENDBLK
  5
17035
330
17029
100
AcDbEntity
  8
0
 48
50.0
100
AcDbBlockEnd
  0
BLOCK
  5
17040
330
17036
100
AcDbEntity
  8
0
 48
50.0
100
AcDbBlockBegin
  2
*D36
 70
     1
 10
0.0
 20
0.0
 30
0.0
  3
*D36
  1

  0
LINE
  5
1710A
330
17036
100
AcDbEntity
  8
寸法
 62
     0
 48
50.0
370
    -2
100
AcDbLine
 10
10259.35454075501
 20
5160.795364285295
 30
0.0
 11
9624.393820107583
 21
5160.795364285295
 31
0.0
  0
LINE
  5
1710B
330
17036
100
AcDbEntity
  8
寸法
 62
     0
 48
50.0
370
    -2
100
AcDbLine
 10
10259.35454075501
 20
3370.795364285297
 30
0.0
 11
9624.393820107581
 21
3370.795364285297
 31
0.0
  0
LINE
  5
1710C
330
17036
100
AcDbEntity
  8
寸法
 62
     0
 48
50.0
370
    -2
100
AcDbLine
 10
9684.393820107581
 20
5160.795364285295
 30
0.0
 11
9684.39382010758
 21
3370.795364285297
 31
0.0
  0
INSERT
  5
1710D
330
17036
100
AcDbEntity
  8
寸法
 62
     0
 48
50.0
370
    -2
100
AcDbBlockReference
  2
_DOTSMALL
 10
9684.393820107581
 20
5160.795364285295
 30
0.0
 41
100.0
 42
100.0
 43
100.0
 50
90.0
  0
INSERT
  5
1710E
330
17036
100
AcDbEntity
  8
寸法
 62
     0
 48
50.0
370
    -2
100
AcDbBlockReference
  2
_DOTSMALL
 10
9684.39382010758
 20
3370.795364285297
 30
0.0
 41
100.0
 42
100.0
 43
100.0
 50
270.0
  0
MTEXT
  5
1710F
330
17036
100
AcDbEntity
  8
寸法
 62
     7
 48
50.0
100
AcDbMText
 10
9584.39382010758
 20
4275.830376161683
 30
0.0
 40
120.0
 41
0.0
 71
     5
 72
     1
  1
\A1;1790
  7
STYLE1
 11
0.0000000000000001
 21
1.0
 31
0.0
 73
     1
 44
1.0
1001
ACAD
1000
MTEXTBEGIN
1070
    73
1070
     1
1070
    44
1040
1.0
1070
    74
1070
     0
1000
MTEXTEND
  0
POINT
  5
17110
330
17036
100
AcDbEntity
  8
DEFPOINTS
 62
     0
 48
50.0
100
AcDbPoint
 10
10279.35454075501
 20
5160.795364285295
 30
0.0
  0
POINT
  5
17111
330
17036
100
AcDbEntity
  8
DEFPOINTS
 62
     0
 48
50.0
100
AcDbPoint
 10
10279.35454075501
 20
3370.795364285297
 30
0.0
  0
POINT
  5
17112
330
17036
100
AcDbEntity
  8
DEFPOINTS
 62
     0
 48
50.0
100
AcDbPoint
 10
9684.39382010758
 20
3370.795364285297
 30
0.0
  0
ENDBLK
  5
17041
330
17036
100
AcDbEntity
  8
0
 48
50.0
100
AcDbBlockEnd
  0
BLOCK
  5
171CA
330
171C0
100
AcDbEntity
  8
0
 48
50.0
100
AcDbBlockBegin
  2
*D37
 70
     1
 10
0.0
 20
0.0
 30
0.0
  3
*D37
  1

  0
LINE
  5
171D8
330
171C0
100
AcDbEntity
  8
寸法
 62
     0
 48
50.0
370
    -2
100
AcDbLine
 10
4643.626021068416
 20
8978.084002499876
 30
0.0
 11
4534.972623537584
 21
8572.584002499841
 31
0.0
  0
LINE
  5
171D9
330
171C0
100
AcDbEntity
  8
寸法
 62
     0
 48
50.0
370
    -2
100
AcDbLine
 10
5404.626021068429
 20
8978.084002499869
 30
0.0
 11
5295.9726235376
 21
8572.584002499841
 31
0.0
  0
LINE
  5
171DA
330
171C0
100
AcDbEntity
  8
寸法
 62
     0
 48
50.0
370
    -2
100
AcDbLine
 10
4551.049575083452
 20
8632.584002499839
 30
0.0
 11
5312.049575083467
 21
8632.584002499839
 31
0.0
  0
INSERT
  5
171DB
330
171C0
100
AcDbEntity
  8
寸法
 62
     0
 48
50.0
370
    -2
100
AcDbBlockReference
  2
_DOTSMALL
 10
4551.049575083452
 20
8632.584002499839
 30
0.0
 41
100.0
 42
100.0
 43
100.0
 50
180.0
  0
INSERT
  5
171DC
330
171C0
100
AcDbEntity
  8
寸法
 62
     0
 48
50.0
370
    -2
100
AcDbBlockReference
  2
_DOTSMALL
 10
5312.049575083467
 20
8632.584002499839
 30
0.0
 41
100.0
 42
100.0
 43
100.0
  0
MTEXT
  5
171DD
330
171C0
100
AcDbEntity
  8
寸法
 62
     7
 48
50.0
100
AcDbMText
 10
4931.54957508346
 20
8732.584002499839
 30
0.0
 40
120.0
 41
0.0
 71
     5
 72
     1
  1
\A1;761
  7
STYLE1
 73
     1
 44
1.0
1001
ACAD
1000
MTEXTBEGIN
1070
    73
1070
     1
1070
    44
1040
1.0
1070
    74
1070
     0
1000
MTEXTEND
  0
POINT
  5
171DE
330
171C0
100
AcDbEntity
  8
DEFPOINTS
 62
     0
 48
50.0
100
AcDbPoint
 10
4648.985004917038
 20
8998.084002499876
 30
0.0
  0
POINT
  5
171DF
330
171C0
100
AcDbEntity
  8
DEFPOINTS
 62
     0
 48
50.0
100
AcDbPoint
 10
5409.985004917051
 20
8998.084002499869
 30
0.0
  0
POINT
  5
171E0
330
171C0
100
AcDbEntity
  8
DEFPOINTS
 62
     0
 48
50.0
100
AcDbPoint
 10
5312.049575083467
 20
8632.584002499839
 30
0.0
  0
ENDBLK
  5
171CB
330
171C0
100
AcDbEntity
  8
0
 48
50.0
100
AcDbBlockEnd
  0
BLOCK
  5
171D6
330
171CC
100
AcDbEntity
  8
0
 48
50.0
100
AcDbBlockBegin
  2
*D38
 70
     1
 10
0.0
 20
0.0
 30
0.0
  3
*D38
  1

  0
LINE
  5
171E1
330
171CC
100
AcDbEntity
  8
寸法
 62
     0
 48
50.0
370
    -2
100
AcDbLine
 10
3823.626021068416
 20
8978.084002499876
 30
0.0
 11
3714.972623537585
 21
8572.584002499841
 31
0.0
  0
LINE
  5
171E2
330
171CC
100
AcDbEntity
  8
寸法
 62
     0
 48
50.0
370
    -2
100
AcDbLine
 10
4584.626021068428
 20
8978.084002499869
 30
0.0
 11
4475.972623537599
 21
8572.584002499841
 31
0.0
  0
LINE
  5
171E3
330
171CC
100
AcDbEntity
  8
寸法
 62
     0
 48
50.0
370
    -2
100
AcDbLine
 10
3731.049575083453
 20
8632.584002499839
 30
0.0
 11
4492.049575083466
 21
8632.584002499839
 31
0.0
  0
INSERT
  5
171E4
330
171CC
100
AcDbEntity
  8
寸法
 62
     0
 48
50.0
370
    -2
100
AcDbBlockReference
  2
_DOTSMALL
 10
3731.049575083453
 20
8632.584002499839
 30
0.0
 41
100.0
 42
100.0
 43
100.0
 50
180.0
  0
INSERT
  5
171E5
330
171CC
100
AcDbEntity
  8
寸法
 62
     0
 48
50.0
370
    -2
100
AcDbBlockReference
  2
_DOTSMALL
 10
4492.049575083466
 20
8632.584002499839
 30
0.0
 41
100.0
 42
100.0
 43
100.0
  0
MTEXT
  5
171E6
330
171CC
100
AcDbEntity
  8
寸法
 62
     7
 48
50.0
100
AcDbMText
 10
4111.491859890919
 20
8732.584002499839
 30
0.0
 40
120.0
 41
0.0
 71
     5
 72
     1
  1
\A1;761
  7
STYLE1
 73
     1
 44
1.0
1001
ACAD
1000
MTEXTBEGIN
1070
    73
1070
     1
1070
    44
1040
1.0
1070
    74
1070
     0
1000
MTEXTEND
  0
POINT
  5
171E7
330
171CC
100
AcDbEntity
  8
DEFPOINTS
 62
     0
 48
50.0
100
AcDbPoint
 10
3828.985004917038
 20
8998.084002499876
 30
0.0
  0
POINT
  5
171E8
330
171CC
100
AcDbEntity
  8
DEFPOINTS
 62
     0
 48
50.0
100
AcDbPoint
 10
4589.985004917051
 20
8998.084002499869
 30
0.0
  0
POINT
  5
171E9
330
171CC
100
AcDbEntity
  8
DEFPOINTS
 62
     0
 48
50.0
100
AcDbPoint
 10
4492.049575083466
 20
8632.584002499839
 30
0.0
  0
ENDBLK
  5
171D7
330
171CC
100
AcDbEntity
  8
0
 48
50.0
100
AcDbBlockEnd
  0
BLOCK
  5
171F7
330
171ED
100
AcDbEntity
  8
0
 48
50.0
100
AcDbBlockBegin
  2
*D39
 70
     1
 10
0.0
 20
0.0
 30
0.0
  3
*D39
  1

  0
LINE
  5
171F9
330
171ED
100
AcDbEntity
  8
寸法
 62
     0
 48
50.0
370
    -2
100
AcDbLine
 10
5463.626021068415
 20
8978.084016359169
 30
0.0
 11
5354.972623537585
 21
8572.584016359133
 31
0.0
  0
LINE
  5
171FA
330
171ED
100
AcDbEntity
  8
寸法
 62
     0
 48
50.0
370
    -2
100
AcDbLine
 10
6224.626021068429
 20
8978.084016359161
 30
0.0
 11
6115.972623537599
 21
8572.584016359133
 31
0.0
  0
LINE
  5
171FB
330
171ED
100
AcDbEntity
  8
寸法
 62
     0
 48
50.0
370
    -2
100
AcDbLine
 10
5371.049575083453
 20
8632.584016359134
 30
0.0
 11
6132.049575083467
 21
8632.584016359134
 31
0.0
  0
INSERT
  5
171FC
330
171ED
100
AcDbEntity
  8
寸法
 62
     0
 48
50.0
370
    -2
100
AcDbBlockReference
  2
_DOTSMALL
 10
5371.049575083453
 20
8632.584016359134
 30
0.0
 41
100.0
 42
100.0
 43
100.0
 50
180.0
  0
INSERT
  5
171FD
330
171ED
100
AcDbEntity
  8
寸法
 62
     0
 48
50.0
370
    -2
100
AcDbBlockReference
  2
_DOTSMALL
 10
6132.049575083467
 20
8632.584016359134
 30
0.0
 41
100.0
 42
100.0
 43
100.0
  0
MTEXT
  5
171FE
330
171ED
100
AcDbEntity
  8
寸法
 62
     7
 48
50.0
100
AcDbMText
 10
5751.549575083459
 20
8732.584016359133
 30
0.0
 40
120.0
 41
0.0
 71
     5
 72
     1
  1
\A1;761
  7
STYLE1
 73
     1
 44
1.0
1001
ACAD
1000
MTEXTBEGIN
1070
    73
1070
     1
1070
    44
1040
1.0
1070
    74
1070
     0
1000
MTEXTEND
  0
POINT
  5
171FF
330
171ED
100
AcDbEntity
  8
DEFPOINTS
 62
     0
 48
50.0
100
AcDbPoint
 10
5468.985004917038
 20
8998.08401635917
 30
0.0
  0
POINT
  5
17200
330
171ED
100
AcDbEntity
  8
DEFPOINTS
 62
     0
 48
50.0
100
AcDbPoint
 10
6229.98500491705
 20
8998.084016359163
 30
0.0
  0
POINT
  5
17201
330
171ED
100
AcDbEntity
  8
DEFPOINTS
 62
     0
 48
50.0
100
AcDbPoint
 10
6132.049575083467
 20
8632.584016359134
 30
0.0
  0
ENDBLK
  5
171F8
330
171ED
100
AcDbEntity
  8
0
 48
50.0
100
AcDbBlockEnd
  0
BLOCK
  5
17212
330
17208
100
AcDbEntity
  8
0
 48
50.0
100
AcDbBlockBegin
  2
*D40
 70
     1
 10
0.0
 20
0.0
 30
0.0
  3
*D40
  1

  0
LINE
  5
17220
330
17208
100
AcDbEntity
  8
寸法
 62
     0
 48
50.0
370
    -2
100
AcDbLine
 10
7102.626021068416
 20
8978.084044060855
 30
0.0
 11
6993.972623537584
 21
8572.584044060819
 31
0.0
  0
LINE
  5
17221
330
17208
100
AcDbEntity
  8
寸法
 62
     0
 48
50.0
370
    -2
100
AcDbLine
 10
7863.626021068428
 20
8978.084044060848
 30
0.0
 11
7754.9726235376
 21
8572.584044060819
 31
0.0
  0
LINE
  5
17222
330
17208
100
AcDbEntity
  8
寸法
 62
     0
 48
50.0
370
    -2
100
AcDbLine
 10
7010.049575083453
 20
8632.584044060818
 30
0.0
 11
7771.049575083466
 21
8632.584044060818
 31
0.0
  0
INSERT
  5
17223
330
17208
100
AcDbEntity
  8
寸法
 62
     0
 48
50.0
370
    -2
100
AcDbBlockReference
  2
_DOTSMALL
 10
7010.049575083453
 20
8632.584044060818
 30
0.0
 41
100.0
 42
100.0
 43
100.0
 50
180.0
  0
INSERT
  5
17224
330
17208
100
AcDbEntity
  8
寸法
 62
     0
 48
50.0
370
    -2
100
AcDbBlockReference
  2
_DOTSMALL
 10
7771.049575083466
 20
8632.584044060818
 30
0.0
 41
100.0
 42
100.0
 43
100.0
  0
MTEXT
  5
17225
330
17208
100
AcDbEntity
  8
寸法
 62
     7
 48
50.0
100
AcDbMText
 10
7390.54957508346
 20
8732.58404406082
 30
0.0
 40
120.0
 41
0.0
 71
     5
 72
     1
  1
\A1;761
  7
STYLE1
 73
     1
 44
1.0
1001
ACAD
1000
MTEXTBEGIN
1070
    73
1070
     1
1070
    44
1040
1.0
1070
    74
1070
     0
1000
MTEXTEND
  0
POINT
  5
17226
330
17208
100
AcDbEntity
  8
DEFPOINTS
 62
     0
 48
50.0
100
AcDbPoint
 10
7107.985004917039
 20
8998.084044060856
 30
0.0
  0
POINT
  5
17227
330
17208
100
AcDbEntity
  8
DEFPOINTS
 62
     0
 48
50.0
100
AcDbPoint
 10
7868.985004917051
 20
8998.084044060849
 30
0.0
  0
POINT
  5
17228
330
17208
100
AcDbEntity
  8
DEFPOINTS
 62
     0
 48
50.0
100
AcDbPoint
 10
7771.049575083466
 20
8632.584044060818
 30
0.0
  0
ENDBLK
  5
17213
330
17208
100
AcDbEntity
  8
0
 48
50.0
100
AcDbBlockEnd
  0
BLOCK
  5
1721E
330
17214
100
AcDbEntity
  8
0
 48
50.0
100
AcDbBlockBegin
  2
*D41
 70
     1
 10
0.0
 20
0.0
 30
0.0
  3
*D41
  1

  0
LINE
  5
17229
330
17214
100
AcDbEntity
  8
寸法
 62
     0
 48
50.0
370
    -2
100
AcDbLine
 10
6282.626021068416
 20
8978.084044060855
 30
0.0
 11
6173.972623537585
 21
8572.584044060819
 31
0.0
  0
LINE
  5
1722A
330
17214
100
AcDbEntity
  8
寸法
 62
     0
 48
50.0
370
    -2
100
AcDbLine
 10
7043.626021068428
 20
8978.084044060848
 30
0.0
 11
6934.9726235376
 21
8572.584044060819
 31
0.0
  0
LINE
  5
1722B
330
17214
100
AcDbEntity
  8
寸法
 62
     0
 48
50.0
370
    -2
100
AcDbLine
 10
6190.049575083452
 20
8632.584044060818
 30
0.0
 11
6951.049575083468
 21
8632.584044060818
 31
0.0
  0
INSERT
  5
1722C
330
17214
100
AcDbEntity
  8
寸法
 62
     0
 48
50.0
370
    -2
100
AcDbBlockReference
  2
_DOTSMALL
 10
6190.049575083452
 20
8632.584044060818
 30
0.0
 41
100.0
 42
100.0
 43
100.0
 50
180.0
  0
INSERT
  5
1722D
330
17214
100
AcDbEntity
  8
寸法
 62
     0
 48
50.0
370
    -2
100
AcDbBlockReference
  2
_DOTSMALL
 10
6951.049575083468
 20
8632.584044060818
 30
0.0
 41
100.0
 42
100.0
 43
100.0
  0
MTEXT
  5
1722E
330
17214
100
AcDbEntity
  8
寸法
 62
     7
 48
50.0
100
AcDbMText
 10
6570.491859890918
 20
8732.58404406082
 30
0.0
 40
120.0
 41
0.0
 71
     5
 72
     1
  1
\A1;761
  7
STYLE1
 73
     1
 44
1.0
1001
ACAD
1000
MTEXTBEGIN
1070
    73
1070
     1
1070
    44
1040
1.0
1070
    74
1070
     0
1000
MTEXTEND
  0
POINT
  5
1722F
330
17214
100
AcDbEntity
  8
DEFPOINTS
 62
     0
 48
50.0
100
AcDbPoint
 10
6287.985004917039
 20
8998.084044060856
 30
0.0
  0
POINT
  5
17230
330
17214
100
AcDbEntity
  8
DEFPOINTS
 62
     0
 48
50.0
100
AcDbPoint
 10
7048.985004917051
 20
8998.084044060849
 30
0.0
  0
POINT
  5
17231
330
17214
100
AcDbEntity
  8
DEFPOINTS
 62
     0
 48
50.0
100
AcDbPoint
 10
6951.049575083468
 20
8632.584044060818
 30
0.0
  0
ENDBLK
  5
1721F
330
17214
100
AcDbEntity
  8
0
 48
50.0
100
AcDbBlockEnd
  0
ENDSEC
  0
SECTION
  2
ENTITIES
  0
LINE
  5
10B56
330
747D
100
AcDbEntity
  8
補助
  6
PHANTOM
 62
   230
 48
50.0
100
AcDbLine
 10
140.0
 20
0.0
 30
0.0
 11
139.9999999999995
 21
11409.6
 31
0.0
  0
LINE
  5
10B57
330
747D
100
AcDbEntity
  8
補助
  6
PHANTOM
 62
   230
 48
50.0
100
AcDbLine
 10
139.9999999999995
 20
11409.6
 30
0.0
 11
16307.2
 21
11409.6
 31
0.0
  0
LINE
  5
10B59
330
747D
100
AcDbEntity
  8
仕様書枠
  6
Continuous
 48
50.0
100
AcDbLine
 10
13107.2
 20
1200.0
 30
0.0
 11
13107.2
 21
-0.0000000000000729
 31
0.0
  0
LINE
  5
10B5C
330
747D
100
AcDbEntity
  8
仕様書枠
 48
50.0
100
AcDbLine
 10
16307.2
 20
1200.0
 30
0.0
 11
16307.2
 21
-0.0000000000000909
 31
0.0
  0
LINE
  5
10B5D
330
747D
100
AcDbEntity
  8
仕様書枠
 48
50.0
100
AcDbLine
 10
140.0
 20
0.0
 30
0.0
 11
16307.2
 21
-0.0000000000000909
 31
0.0
  0
LINE
  5
10B5E
330
747D
100
AcDbEntity
  8
補助
  6
PHANTOM
 62
   230
 48
50.0
100
AcDbLine
 10
16307.2
 20
11409.6
 30
0.0
 11
16307.2
 21
1200.0
 31
0.0
  0
LINE
  5
10B6C
330
747D
100
AcDbEntity
  8
仕様書枠
 48
50.0
100
AcDbLine
 10
13107.2
 20
1200.0
 30
0.0
 11
16307.2
 21
1200.0
 31
0.0
  0
LINE
  5
10B6D
330
747D
100
AcDbEntity
  8
補助
  6
PHANTOM
 62
   230
 48
50.0
100
AcDbLine
 10
13107.2
 20
11409.6
 30
0.0
 11
13107.2
 21
4800.0
 31
0.0
  0
LINE
  5
10B6F
330
747D
100
AcDbEntity
  8
補助
  6
PHANTOM
 62
   230
 48
50.0
100
AcDbLine
 10
13107.2
 20
4800.0
 30
0.0
 11
16307.2
 21
4800.0
 31
0.0
  0
LINE
  5
10B72
330
747D
100
AcDbEntity
  8
文字
 62
     7
 48
50.0
100
AcDbLine
 10
13187.2
 20
400.0
 30
0.0
 11
16227.2
 21
400.0
 31
0.0
  0
TEXT
  5
10B73
330
747D
100
AcDbEntity
  8
文字
 62
     7
 48
50.0
100
AcDbText
 10
13162.9790565769
 20
895.0906074299405
 30
0.0
 40
200.0
  1
外 形 図
  7
STYLE2
100
AcDbText
  0
TEXT
  5
10B74
330
747D
100
AcDbEntity
  8
文字
 62
     7
 48
50.0
100
AcDbText
 10
13201.43669998441
 20
477.2740661031255
 30
0.0
 40
160.0
  1
機種名
  7
STYLE2
100
AcDbText
  0
TEXT
  5
10B75
330
747D
100
AcDbEntity
  8
文字
 62
     7
 48
50.0
100
AcDbText
 10
13209.4053442172
 20
228.5435242569016
 30
0.0
 40
100.0
  1
○有効開口寸法 ： 685×1760(mm)
  7
STYLE2
100
AcDbText
  0
TEXT
  5
10B76
330
747D
100
AcDbEntity
  8
文字
 62
     7
 48
50.0
100
AcDbText
 10
13209.4053442172
 20
76.09434707649343
 30
0.0
 40
100.0
  1
○床面積 ： 5.62㎡(1.70坪) 　
  7
STYLE2
100
AcDbText
  0
TEXT
  5
10B79
330
747D
100
AcDbEntity
  8
文字
 62
     7
 48
50.0
100
AcDbText
 10
14524.131837222
 20
1031.557706291228
 30
0.0
 40
100.0
  1
NO.04     <縮尺> S=1/40
  7
STYLE2
100
AcDbText
  0
LINE
  5
10B7B
330
747D
100
AcDbEntity
  8
仕様書枠
 48
50.0
100
AcDbLine
 10
13107.2
 20
800.0
 30
0.0
 11
14251.2
 21
800.0
 31
0.0
  0
LINE
  5
10B88
330
747D
100
AcDbEntity
  8
仕様書枠
  6
Continuous
 48
50.0
100
AcDbLine
 10
14251.2
 20
1200.0
 30
0.0
 11
14251.2
 21
800.0
 31
0.0
  0
TEXT
  5
13A63
330
747D
100
AcDbEntity
  8
部品1
100
AcDbText
 10
2768.98441824974
 20
3256.902267891196
 30
0.0
 40
125.0
  1
▽G.L
  7
STYLE2
100
AcDbText
  0
TEXT
  5
13B2F
330
747D
100
AcDbEntity
  8
部品1
100
AcDbText
 10
5558.719342913612
 20
6577.111784481556
 30
0.0
 40
135.0
  1
平面図
  7
STYLE2
100
AcDbText
  0
LWPOLYLINE
  5
13B30
330
747D
100
AcDbEntity
  8
部品1
100
AcDbPolyline
 90
        4
 70
     1
 43
0.0
 10
5468.799733084575
 20
6770.005313700079
 10
5468.799733084575
 20
6530.112992154546
 10
6232.270399313013
 20
6530.112992154546
 10
6232.270399313013
 20
6770.005313700079
  0
DIMENSION
  5
15107
330
747D
100
AcDbEntity
  8
寸法
 48
50.0
100
AcDbDimension
  2
*D1
 10
6314.48499823941
 20
9693.39222212497
 30
0.0
 11
6669.484998239409
 21
9793.392222124971
 31
0.0
 70
    32
 71
     5
 42
709.9999999999981
  3
INABA_S40G
100
AcDbAlignedDimension
 13
7024.484998239408
 23
9477.584002499982
 33
0.0
 14
6314.48499823941
 24
9477.584002499966
 34
0.0
100
AcDbRotatedDimension
  0
DIMENSION
  5
15108
330
747D
100
AcDbEntity
  8
寸法
100
AcDbDimension
  2
*D2
 10
7899.484998239408
 20
9693.392222124948
 30
0.0
 11
8207.970279613645
 21
9693.392222124948
 31
0.0
 70
   160
 71
     5
 42
55.0
  3
INABA_S40G
100
AcDbAlignedDimension
 13
7844.484998239408
 23
9477.584002499966
 33
0.0
 14
7899.484998239408
 24
9477.584002499966
 34
0.0
100
AcDbRotatedDimension
1001
ACAD
1000
DSTYLE
1002
{
1002
}
  0
DIMENSION
  5
15109
330
747D
100
AcDbEntity
  8
寸法
 48
50.0
100
AcDbDimension
  2
*D3
 10
5494.48499823941
 20
9693.39222212497
 30
0.0
 11
5439.484998239407
 21
9793.392222124971
 31
0.0
 70
    32
 71
     5
 42
110.0000000000036
  3
INABA_S40G
100
AcDbAlignedDimension
 13
5384.484998239407
 23
9477.584002499989
 33
0.0
 14
5494.48499823941
 24
9477.584002499966
 34
0.0
100
AcDbRotatedDimension
  0
DIMENSION
  5
1510A
330
747D
100
AcDbEntity
  8
寸法
100
AcDbDimension
  2
*D4
 10
5384.484998239407
 20
9693.39222212497
 30
0.0
 11
5029.734998239406
 21
9693.39222212497
 31
0.0
 70
   160
 71
     5
 42
709.9999999999981
  3
INABA_S40G
100
AcDbAlignedDimension
 13
4674.484998239408
 23
9477.5840024999
 33
0.0
 14
5384.484998239407
 24
9477.584002499989
 34
0.0
100
AcDbRotatedDimension
1001
ACAD
1000
DSTYLE
1002
{
1002
}
  0
DIMENSION
  5
1510B
330
747D
100
AcDbEntity
  8
寸法
 48
50.0
100
AcDbDimension
  2
*D5
 10
6314.48499823941
 20
9693.39222212497
 30
0.0
 11
6259.484998239408
 21
9793.392222124971
 31
0.0
 70
    32
 71
     5
 42
110.0000000000036
  3
INABA_S40G
100
AcDbAlignedDimension
 13
6204.484998239406
 23
9477.584002499989
 33
0.0
 14
6314.48499823941
 24
9477.584002499966
 34
0.0
100
AcDbRotatedDimension
  0
DIMENSION
  5
1510C
330
747D
100
AcDbEntity
  8
寸法
100
AcDbDimension
  2
*D6
 10
6204.484998239406
 20
9693.39222212497
 30
0.0
 11
5849.734998239406
 21
9693.39222212497
 31
0.0
 70
   160
 71
     5
 42
709.9999999999981
  3
INABA_S40G
100
AcDbAlignedDimension
 13
5494.484998239408
 23
9477.5840024999
 33
0.0
 14
6204.484998239406
 24
9477.584002499989
 34
0.0
100
AcDbRotatedDimension
1001
ACAD
1000
DSTYLE
1002
{
1002
}
  0
DIMENSION
  5
1510D
330
747D
100
AcDbEntity
  8
寸法
100
AcDbDimension
  2
*D7
 10
8546.911343973819
 20
9422.584002499966
 30
0.0
 11
8546.911343973818
 21
9786.069283874207
 31
0.0
 70
   160
 71
     5
 42
55.0
  3
INABA_S40G
100
AcDbAlignedDimension
 13
7899.484998239408
 23
9477.584002499966
 33
0.0
 14
7899.484998239408
 24
9422.584002499966
 34
0.0
 50
90.0
100
AcDbRotatedDimension
1001
ACAD
1000
DSTYLE
1002
{
1002
}
  0
DIMENSION
  5
1510E
330
747D
100
AcDbEntity
  8
寸法
100
AcDbDimension
  2
*D8
 10
3854.484998239409
 20
9693.392222124854
 30
0.0
 11
3490.999716865133
 21
9693.392222124854
 31
0.0
 70
   160
 71
     5
 42
55.00000000003637
  3
INABA_S40G
100
AcDbAlignedDimension
 13
3799.484998239372
 23
9477.584002499872
 33
0.0
 14
3854.484998239409
 24
9477.584002499872
 34
0.0
100
AcDbRotatedDimension
1001
ACAD
1000
DSTYLE
1002
{
1002
}
  0
LINE
  5
1510F
330
747D
100
AcDbEntity
  8
部品1
100
AcDbLine
 10
5467.484998239355
 20
9449.584002499895
 30
0.0
 11
6256.865701258008
 21
9449.584002499916
 31
0.0
  0
LINE
  5
15110
330
747D
100
AcDbEntity
  8
部品1
100
AcDbLine
 10
5468.985004917037
 20
9448.08400249993
 30
0.0
 11
6229.985004917038
 21
9448.084002499982
 31
0.0
  0
LINE
  5
15112
330
747D
100
AcDbEntity
  8
破線
 48
10.0
100
AcDbLine
 10
6180.484998239394
 20
8262.584002499917
 30
0.0
 11
5518.484998239394
 21
8262.584002499902
 31
0.0
  0
LINE
  5
15113
330
747D
100
AcDbEntity
  8
部品1
 48
5.0
100
AcDbLine
 10
5463.484998239403
 20
8137.084002499852
 30
0.0
 11
6235.484998239403
 21
8137.084002499909
 31
0.0
  0
ARC
  5
15114
330
747D
100
AcDbEntity
  8
想像線
 48
10.0
100
AcDbCircle
 10
6207.132947562243
 20
8109.27889587548
 30
0.0
 40
722.649936915561
100
AcDbArc
 50
180.1343808685485
 51
270.5829222700353
  0
LINE
  5
15116
330
747D
100
AcDbEntity
  8
部品1
100
AcDbLine
 10
6203.984998239386
 20
8239.084002499916
 30
0.0
 11
5494.984504985502
 21
8239.083500302443
 31
0.0
  0
LINE
  5
15117
330
747D
100
AcDbEntity
  8
部品1
100
AcDbLine
 10
6214.484998239401
 20
8133.58400249996
 30
0.0
 11
5484.484998239401
 21
8133.584002499931
 31
0.0
  0
LINE
  5
15118
330
747D
100
AcDbEntity
  8
部品1
100
AcDbLine
 10
5468.985004917038
 20
8998.084002499931
 30
0.0
 11
6229.985004917036
 21
8998.084002499982
 31
0.0
  0
DIMENSION
  5
1511A
330
747D
100
AcDbEntity
  8
寸法
100
AcDbDimension
  2
*D9
 10
7899.484998239383
 20
7120.482127639717
 30
0.0
 11
5849.484998239391
 21
7120.482127639717
 31
0.0
 70
   160
 71
     5
 42
4099.999999999982
  3
INABA_S40G
100
AcDbAlignedDimension
 13
3799.484998239401
 23
8107.584002499764
 33
0.0
 14
7899.484998239383
 24
8107.584002499924
 34
0.0
100
AcDbRotatedDimension
1001
ACAD
1000
DSTYLE
1002
{
1002
}
  0
LINE
  5
1511B
330
747D
100
AcDbEntity
  8
部品1
100
AcDbLine
 10
7899.484998239383
 20
8107.584002499953
 30
0.0
 11
4619.484998239401
 21
8107.584002499859
 31
0.0
  0
LINE
  5
1511C
330
747D
100
AcDbEntity
  8
細線
 48
50.0
100
AcDbLine
 10
6229.985004917038
 20
9448.084002499982
 30
0.0
 11
5468.985004917038
 21
8998.084002499931
 31
0.0
  0
LINE
  5
1511D
330
747D
100
AcDbEntity
  8
細線
 48
50.0
100
AcDbLine
 10
6229.985004917036
 20
8998.084002499982
 30
0.0
 11
5468.985004917037
 21
9448.08400249993
 31
0.0
  0
LINE
  5
1511E
330
747D
100
AcDbEntity
  8
部品1
 48
5.0
100
AcDbLine
 10
5384.484998239402
 20
8162.58400249991
 30
0.0
 11
5384.484998239404
 21
8137.084002499909
 31
0.0
  0
LINE
  5
1511F
330
747D
100
AcDbEntity
  8
部品1
 48
5.0
100
AcDbLine
 10
5415.484998239403
 20
8162.58400249991
 30
0.0
 11
5415.484998239403
 21
8137.084002499909
 31
0.0
  0
LINE
  5
15120
330
747D
100
AcDbEntity
  8
部品1
 48
5.0
100
AcDbLine
 10
5463.484998239405
 20
8162.58400249991
 30
0.0
 11
5463.484998239403
 21
8137.084002499909
 31
0.0
  0
LINE
  5
15121
330
747D
100
AcDbEntity
  8
部品1
 48
5.0
100
AcDbLine
 10
5494.484998239403
 20
8162.58400249991
 30
0.0
 11
5494.484998239404
 21
8137.084002499909
 31
0.0
  0
LINE
  5
15122
330
747D
100
AcDbEntity
  8
部品1
 48
2.83
100
AcDbLine
 10
3799.484998239401
 20
8107.584002499793
 30
0.0
 11
3799.484998239401
 21
8162.584002499793
 31
0.0
  0
LINE
  5
15123
330
747D
100
AcDbEntity
  8
部品1
100
AcDbLine
 10
3799.484998239399
 20
8162.584002499793
 30
0.0
 11
3799.484998239401
 21
8107.584002499793
 31
0.0
  0
LINE
  5
15124
330
747D
100
AcDbEntity
  8
部品1
 48
2.83
100
AcDbLine
 10
3854.484998239401
 20
8162.584002499793
 30
0.0
 11
3854.484998239405
 21
8137.084002499793
 31
0.0
  0
LINE
  5
15125
330
747D
100
AcDbEntity
  8
部品1
100
AcDbLine
 10
3799.484998239372
 20
9477.584002499837
 30
0.0
 11
3799.484998239401
 21
8107.584002499828
 31
0.0
  0
DIMENSION
  5
15126
330
747D
100
AcDbEntity
  8
寸法
 48
50.0
100
AcDbDimension
  2
*D10
 10
6999.484998239402
 20
7667.760334704787
 30
0.0
 11
6656.984998239403
 21
7667.760334704787
 31
0.0
 70
   160
 71
     5
 42
684.9999999999964
  3
INABA_S40G
100
AcDbAlignedDimension
 13
6314.484998239404
 23
8107.584002499866
 33
0.0
 14
6999.484998239402
 24
8107.584002499828
 34
0.0
100
AcDbRotatedDimension
  0
ARC
  5
15127
330
747D
100
AcDbEntity
  8
想像線
 48
10.0
100
AcDbCircle
 10
5387.132947562244
 20
8109.27889587548
 30
0.0
 40
722.6499369155621
100
AcDbArc
 50
180.1343808685507
 51
270.5829222700352
  0
LINE
  5
15128
330
747D
100
AcDbEntity
  8
部品1
100
AcDbLine
 10
5394.484998239401
 20
8133.584002499922
 30
0.0
 11
4664.484998239401
 21
8133.584002499894
 31
0.0
  0
LINE
  5
15129
330
747D
100
AcDbEntity
  8
部品1
 48
5.0
100
AcDbLine
 10
4643.484998239403
 20
8137.084002499909
 30
0.0
 11
5415.484998239403
 21
8137.084002499852
 31
0.0
  0
LINE
  5
1512A
330
747D
100
AcDbEntity
  8
部品1
100
AcDbLine
 10
5490.484998239401
 20
8107.584002499859
 30
0.0
 11
4619.484998239401
 21
8107.584002499828
 31
0.0
  0
LINE
  5
1512B
330
747D
100
AcDbEntity
  8
部品1
 48
2.83
100
AcDbLine
 10
3842.484998239401
 20
8107.584002499793
 30
0.0
 11
3799.484998239401
 21
8107.584002499793
 31
0.0
  0
LINE
  5
1512C
330
747D
100
AcDbEntity
  8
部品1
100
AcDbLine
 10
3844.484998239401
 20
8133.584002499894
 30
0.0
 11
3844.484998239401
 21
8107.584002499859
 31
0.0
  0
LINE
  5
1512D
330
747D
100
AcDbEntity
  8
部品1
 48
2.83
100
AcDbLine
 10
3842.484998239401
 20
8137.084002499793
 30
0.0
 11
3842.484998239401
 21
8107.584002499793
 31
0.0
  0
LINE
  5
1512E
330
747D
100
AcDbEntity
  8
想像線
 48
10.0
100
AcDbLine
 10
5394.484998239401
 20
8107.58400249991
 30
0.0
 11
5394.484998239401
 21
7386.666358844118
 31
0.0
  0
LINE
  5
1512F
330
747D
100
AcDbEntity
  8
部品1
 48
5.0
100
AcDbLine
 10
5396.484998239403
 20
8107.58400249991
 30
0.0
 11
5482.484998239403
 21
8107.58400249991
 31
0.0
  0
LINE
  5
15130
330
747D
100
AcDbEntity
  8
部品1
 48
0.2
100
AcDbLine
 10
5381.547446068078
 20
8100.58163245513
 30
0.0
 11
5386.547446068078
 21
8100.58163245513
 31
0.0
  0
ARC
  5
15131
330
747D
100
AcDbEntity
  8
細線
 48
0.2
100
AcDbCircle
 10
5386.547446068078
 20
8108.58163245513
 30
0.0
 40
4.049999999999999
100
AcDbArc
 50
194.2603506853988
 51
345.7396493146012
  0
ARC
  5
15132
330
747D
100
AcDbEntity
  8
部品1
 48
0.2
100
AcDbCircle
 10
5381.547446068078
 20
8108.58163245513
 30
0.0
 40
8.0
100
AcDbArc
 50
187.1636477221926
 51
269.9999999999992
  0
ARC
  5
15133
330
747D
100
AcDbEntity
  8
部品1
 48
0.2
100
AcDbCircle
 10
5386.547446068078
 20
8108.58163245513
 30
0.0
 40
8.0
100
AcDbArc
 50
270.0
 51
352.8363522778074
  0
LINE
  5
15134
330
747D
100
AcDbEntity
  8
部品1
 48
5.0
100
AcDbLine
 10
5396.484998239403
 20
8137.084002499909
 30
0.0
 11
5396.484998239403
 21
8107.58400249991
 31
0.0
  0
LINE
  5
15135
330
747D
100
AcDbEntity
  8
部品1
100
AcDbLine
 10
5396.484998239401
 20
8137.084002499852
 30
0.0
 11
5396.484998239397
 21
8107.584002499901
 31
0.0
  0
LINE
  5
15136
330
747D
100
AcDbEntity
  8
部品1
100
AcDbLine
 10
5394.484998239401
 20
8133.58400249996
 30
0.0
 11
5394.484998239401
 21
8107.584002499901
 31
0.0
  0
LINE
  5
15137
330
747D
100
AcDbEntity
  8
部品1
 48
5.0
100
AcDbLine
 10
5482.484998239403
 20
8137.084002499909
 30
0.0
 11
5482.484998239403
 21
8107.58400249991
 31
0.0
  0
LINE
  5
15138
330
747D
100
AcDbEntity
  8
部品1
100
AcDbLine
 10
5482.4849982394
 20
8137.084002499859
 30
0.0
 11
5482.484998239403
 21
8107.58400249991
 31
0.0
  0
LINE
  5
15139
330
747D
100
AcDbEntity
  8
部品1
100
AcDbLine
 10
5484.484998239401
 20
8133.584002499931
 30
0.0
 11
5484.484998239401
 21
8107.584002499894
 31
0.0
  0
LINE
  5
1513A
330
747D
100
AcDbEntity
  8
部品1
 48
50.0
100
AcDbLine
 10
5494.9849918951
 20
8239.084002524576
 30
0.0
 11
5494.984994867962
 21
8998.084002499917
 31
0.0
  0
LINE
  5
1513B
330
747D
100
AcDbEntity
  8
部品1
 48
50.0
100
AcDbLine
 10
5383.984998239387
 20
8239.084002499916
 30
0.0
 11
5383.984998239361
 21
8998.084002499975
 31
0.0
  0
LINE
  5
1513C
330
747D
100
AcDbEntity
  8
破線
 48
10.0
100
AcDbLine
 10
5360.484998239393
 20
8262.584002499917
 30
0.0
 11
5360.484992077129
 21
8805.083969622362
 31
0.0
  0
LINE
  5
1513D
330
747D
100
AcDbEntity
  8
破線
 48
10.0
100
AcDbLine
 10
5518.484998239394
 20
8262.584002499924
 30
0.0
 11
5518.484989070289
 21
8805.083963100514
 31
0.0
  0
LINE
  5
1513E
330
747D
100
AcDbEntity
  8
部品1
 48
5.0
100
AcDbLine
 10
3855.985969664366
 20
8239.084002499968
 30
0.0
 11
3855.985476733054
 21
8998.084002499879
 31
0.0
  0
LINE
  5
1513F
330
747D
100
AcDbEntity
  8
破線
 48
10.0
100
AcDbLine
 10
3879.48506316411
 20
8998.084002499879
 30
0.0
 11
3879.485050541087
 21
8855.084030754351
 31
0.0
  0
LINE
  5
15141
330
747D
100
AcDbEntity
  8
部品1
 48
50.0
100
AcDbLine
 10
5439.484998239386
 20
8162.58400249991
 30
0.0
 11
5439.484998239386
 21
9422.584002499915
 31
0.0
  0
LINE
  5
15142
330
747D
100
AcDbEntity
  8
部品1
 48
50.0
100
AcDbLine
 10
5411.484998239386
 20
8162.58400249991
 30
0.0
 11
5411.484998239334
 21
9449.584002499916
 31
0.0
  0
LINE
  5
15143
330
747D
100
AcDbEntity
  8
部品1
 48
50.0
100
AcDbLine
 10
5467.484998239386
 20
8162.58400249991
 30
0.0
 11
5467.484998239331
 21
9477.584002499916
 31
0.0
  0
LINE
  5
15144
330
747D
100
AcDbEntity
  8
部品1
100
AcDbLine
 10
3827.484998239383
 20
8162.584002499821
 30
0.0
 11
3827.484998239408
 21
9449.584002499873
 31
0.0
  0
LINE
  5
15145
330
747D
100
AcDbEntity
  8
部品1
100
AcDbLine
 10
5383.985568687565
 20
8239.083421679952
 30
0.0
 11
4675.985969665794
 21
8239.082920191426
 31
0.0
  0
LINE
  5
15146
330
747D
100
AcDbEntity
  8
破線
 48
10.0
100
AcDbLine
 10
5360.484998239393
 20
8262.584002499895
 30
0.0
 11
4699.484998239394
 21
8262.584002499879
 31
0.0
  0
LINE
  5
15147
330
747D
100
AcDbEntity
  8
部品1
 48
2.83
100
AcDbLine
 10
3831.484998239401
 20
8162.584002499793
 30
0.0
 11
3854.484998239401
 21
8162.584002499793
 31
0.0
  0
LINE
  5
15148
330
747D
100
AcDbEntity
  8
部品1
 48
2.83
100
AcDbLine
 10
3799.484998239401
 20
8162.584002499793
 30
0.0
 11
3822.484998239401
 21
8162.584002499793
 31
0.0
  0
LINE
  5
15149
330
747D
100
AcDbEntity
  8
部品1
100
AcDbLine
 10
3827.484998239383
 20
8162.584002499793
 30
0.0
 11
3799.484998239399
 21
8162.584002499793
 31
0.0
  0
LINE
  5
1514A
330
747D
100
AcDbEntity
  8
部品1
100
AcDbLine
 10
3827.484998239383
 20
8162.584002499821
 30
0.0
 11
3799.484998239399
 21
8162.584002499821
 31
0.0
  0
LINE
  5
1514B
330
747D
100
AcDbEntity
  8
部品1
100
AcDbLine
 10
3827.484998239399
 20
8162.584002499837
 30
0.0
 11
3799.484998239399
 21
8162.584002499837
 31
0.0
  0
LINE
  5
1514C
330
747D
100
AcDbEntity
  8
部品1
 48
50.0
100
AcDbLine
 10
3855.985969665795
 20
8239.082920191426
 30
0.0
 11
3827.484998239383
 21
8210.063749258962
 31
0.0
  0
LINE
  5
1514D
330
747D
100
AcDbEntity
  8
部品1
100
AcDbLine
 10
3827.484998239383
 20
8582.584002499835
 30
0.0
 11
3799.484998239382
 21
8582.584002499835
 31
0.0
  0
LINE
  5
1514E
330
747D
100
AcDbEntity
  8
部品1
 48
5.0
100
AcDbLine
 10
5471.484998239403
 20
8162.58400249991
 30
0.0
 11
5494.484998239403
 21
8162.58400249991
 31
0.0
  0
LINE
  5
1514F
330
747D
100
AcDbEntity
  8
部品1
 48
5.0
100
AcDbLine
 10
5411.484998239386
 20
8162.58400249991
 30
0.0
 11
5467.484998239386
 21
8162.58400249991
 31
0.0
  0
LINE
  5
15150
330
747D
100
AcDbEntity
  8
部品1
 48
5.0
100
AcDbLine
 10
5407.484998239403
 20
8162.58400249991
 30
0.0
 11
5384.4849982394
 21
8162.58400249991
 31
0.0
  0
LINE
  5
15151
330
747D
100
AcDbEntity
  8
部品1
 48
50.0
100
AcDbLine
 10
5494.984998239385
 20
8239.084002524583
 30
0.0
 11
5467.484998239386
 21
8211.084002499909
 31
0.0
  0
LINE
  5
15152
330
747D
100
AcDbEntity
  8
部品1
 48
50.0
100
AcDbLine
 10
5411.484998239386
 20
8211.084002499909
 30
0.0
 11
5383.984998239387
 21
8239.084002499916
 31
0.0
  0
LINE
  5
15153
330
747D
100
AcDbEntity
  8
部品1
 48
5.0
100
AcDbLine
 10
5439.484998239386
 20
8582.58400249991
 30
0.0
 11
5411.484998239335
 21
8582.584002499917
 31
0.0
  0
LINE
  5
15154
330
747D
100
AcDbEntity
  8
部品1
100
AcDbLine
 10
4648.985004917036
 20
9448.08400249993
 30
0.0
 11
5409.985004917039
 21
9448.084002499982
 31
0.0
  0
LINE
  5
15155
330
747D
100
AcDbEntity
  8
部品1
100
AcDbLine
 10
4647.484998239408
 20
9449.584002499873
 30
0.0
 11
5436.86570125803
 21
9449.584002499895
 31
0.0
  0
LINE
  5
15156
330
747D
100
AcDbEntity
  8
部品1
100
AcDbLine
 10
4648.985004917038
 20
8998.084002499931
 30
0.0
 11
5409.985004917036
 21
8998.084002499982
 31
0.0
  0
LINE
  5
15157
330
747D
100
AcDbEntity
  8
細線
 48
50.0
100
AcDbLine
 10
5409.985004917039
 20
9448.084002499982
 30
0.0
 11
4648.985004917038
 21
8998.084002499931
 31
0.0
  0
LINE
  5
15158
330
747D
100
AcDbEntity
  8
細線
 48
50.0
100
AcDbLine
 10
5409.985004917036
 20
8998.084002499982
 30
0.0
 11
4648.985004917036
 21
9448.08400249993
 31
0.0
  0
LINE
  5
15159
330
747D
100
AcDbEntity
  8
部品1
 48
50.0
100
AcDbLine
 10
3828.985004917036
 20
9448.08400249993
 30
0.0
 11
3828.985004917038
 21
8998.084002499931
 31
0.0
  0
LINE
  5
1515A
330
747D
100
AcDbEntity
  8
部品1
100
AcDbLine
 10
3827.484998239383
 20
9002.584002499835
 30
0.0
 11
3799.484998239382
 21
9002.584002499835
 31
0.0
  0
LINE
  5
1515B
330
747D
100
AcDbEntity
  8
部品1
 48
50.0
100
AcDbLine
 10
3828.985004917031
 20
9448.08400249988
 30
0.0
 11
3827.484998239408
 21
9449.584002499873
 31
0.0
  0
LINE
  5
1515C
330
747D
100
AcDbEntity
  8
部品1
100
AcDbLine
 10
3827.484998239376
 20
9422.584002499844
 30
0.0
 11
3799.484998239375
 21
9422.584002499844
 31
0.0
  0
LINE
  5
1515D
330
747D
100
AcDbEntity
  8
部品1
100
AcDbLine
 10
3854.484998239371
 20
9477.584002499837
 30
0.0
 11
3854.484998239376
 21
9449.584002499836
 31
0.0
  0
LINE
  5
1515E
330
747D
100
AcDbEntity
  8
部品1
100
AcDbLine
 10
3854.484998239409
 20
9477.584002499872
 30
0.0
 11
3854.484998239409
 21
9449.584002499873
 31
0.0
  0
LINE
  5
1515F
330
747D
100
AcDbEntity
  8
部品1
 48
50.0
100
AcDbLine
 10
5409.985004917039
 20
9448.084002499982
 30
0.0
 11
5409.985004917039
 21
8998.084002499982
 31
0.0
  0
LINE
  5
15160
330
747D
100
AcDbEntity
  8
部品1
 48
50.0
100
AcDbLine
 10
5468.985004917037
 20
9448.08400249993
 30
0.0
 11
5468.985004917038
 21
8998.084002499931
 31
0.0
  0
LINE
  5
15161
330
747D
100
AcDbEntity
  8
部品1
 48
50.0
100
AcDbLine
 10
5439.484998239379
 20
9040.584002499917
 30
0.0
 11
5467.484998239361
 21
9040.584002499917
 31
0.0
  0
LINE
  5
15162
330
747D
100
AcDbEntity
  8
部品1
 48
50.0
100
AcDbLine
 10
5439.484998239379
 20
9002.584002499917
 30
0.0
 11
5467.484998239361
 21
9002.584002499917
 31
0.0
  0
LINE
  5
15163
330
747D
100
AcDbEntity
  8
部品1
 48
5.0
100
AcDbLine
 10
5439.484998239386
 20
9002.584002499908
 30
0.0
 11
5411.484998239335
 21
9002.584002499917
 31
0.0
  0
LINE
  5
15164
330
747D
100
AcDbEntity
  8
部品1
 48
5.0
100
AcDbLine
 10
5467.484998239335
 20
9422.584002499915
 30
0.0
 11
5411.484998239335
 21
9422.584002499915
 31
0.0
  0
LINE
  5
15165
330
747D
100
AcDbEntity
  8
部品1
 48
5.0
100
AcDbLine
 10
5414.194272686582
 20
9477.584002499916
 30
0.0
 11
5436.86570125801
 21
9449.584002499916
 31
0.0
  0
LINE
  5
15166
330
747D
100
AcDbEntity
  8
部品1
 48
5.0
100
AcDbLine
 10
5384.484998239404
 20
9449.584002499916
 30
0.0
 11
5384.484998239407
 21
9477.584002499916
 31
0.0
  0
LINE
  5
15167
330
747D
100
AcDbEntity
  8
部品1
 48
50.0
100
AcDbLine
 10
5409.985004917039
 20
9448.029489840159
 30
0.0
 11
5411.484998239334
 21
9449.584002499916
 31
0.0
  0
LINE
  5
15168
330
747D
100
AcDbEntity
  8
部品1
 48
50.0
100
AcDbLine
 10
5468.984998239339
 20
9448.029480979657
 30
0.0
 11
5467.484998239333
 21
9449.584002499916
 31
0.0
  0
LINE
  5
15169
330
747D
100
AcDbEntity
  8
部品1
 48
5.0
100
AcDbLine
 10
5494.48499823941
 20
9477.584002499916
 30
0.0
 11
5494.484998239404
 21
9449.584002499923
 31
0.0
  0
DIMENSION
  5
1516A
330
747D
100
AcDbEntity
  8
寸法
100
AcDbDimension
  2
*D11
 10
8546.911343973794
 20
8107.584002499953
 30
0.0
 11
8546.911343973793
 21
7729.72253559509
 31
0.0
 70
   160
 71
     5
 42
55.0
  3
INABA_S40G
100
AcDbAlignedDimension
 13
7899.484998239383
 23
8162.584002499952
 33
0.0
 14
7899.484998239383
 24
8107.584002499953
 34
0.0
 50
90.0
100
AcDbRotatedDimension
1001
ACAD
1000
DSTYLE
1002
{
1002
}
  0
LINE
  5
1516B
330
747D
100
AcDbEntity
  8
部品1
 48
2.83
100
AcDbLine
 10
7844.484998239384
 20
8162.584002499924
 30
0.0
 11
7844.484998239384
 21
8137.084002499923
 31
0.0
  0
LINE
  5
1516C
330
747D
100
AcDbEntity
  8
部品1
 48
5.0
100
AcDbLine
 10
6204.484998239403
 20
8162.58400249991
 30
0.0
 11
6204.484998239404
 21
8137.084002499909
 31
0.0
  0
LINE
  5
1516D
330
747D
100
AcDbEntity
  8
部品1
 48
5.0
100
AcDbLine
 10
6235.484998239403
 20
8162.58400249991
 30
0.0
 11
6235.484998239403
 21
8137.084002499909
 31
0.0
  0
LINE
  5
1516E
330
747D
100
AcDbEntity
  8
部品1
 48
5.0
100
AcDbLine
 10
6283.484998239405
 20
8162.58400249991
 30
0.0
 11
6283.484998239402
 21
8137.084002499909
 31
0.0
  0
LINE
  5
1516F
330
747D
100
AcDbEntity
  8
部品1
 48
5.0
100
AcDbLine
 10
6314.484998239403
 20
8162.58400249991
 30
0.0
 11
6314.484998239404
 21
8137.084002499909
 31
0.0
  0
LINE
  5
15170
330
747D
100
AcDbEntity
  8
部品1
100
AcDbLine
 10
7899.484998239408
 20
9477.584002499966
 30
0.0
 11
7899.484998239383
 21
8107.584002499953
 31
0.0
  0
DIMENSION
  5
15171
330
747D
100
AcDbEntity
  8
寸法
100
AcDbDimension
  2
*D12
 10
8856.022874789497
 20
8107.584002499953
 30
0.0
 11
8856.022874789493
 21
8792.58400249996
 31
0.0
 70
   160
 71
     5
 42
1370.000000000014
  3
INABA_S40G
100
AcDbAlignedDimension
 13
7899.484998239408
 23
9477.584002499966
 33
0.0
 14
7899.484998239383
 24
8107.584002499953
 34
0.0
 50
90.0
100
AcDbRotatedDimension
1001
ACAD
1000
DSTYLE
1002
{
1002
}
  0
ARC
  5
15172
330
747D
100
AcDbEntity
  8
想像線
 48
10.0
100
AcDbCircle
 10
7027.132947562243
 20
8109.278895875496
 30
0.0
 40
722.6499369155638
100
AcDbArc
 50
180.1343808685487
 51
270.5829222700352
  0
LINE
  5
15174
330
747D
100
AcDbEntity
  8
部品1
100
AcDbLine
 10
7034.484998239401
 20
8133.58400249996
 30
0.0
 11
6304.4849982394
 21
8133.584002499901
 31
0.0
  0
LINE
  5
15175
330
747D
100
AcDbEntity
  8
部品1
 48
5.0
100
AcDbLine
 10
7055.484998239403
 20
8137.084002499909
 30
0.0
 11
6283.484998239402
 21
8137.084002499909
 31
0.0
  0
LINE
  5
15176
330
747D
100
AcDbEntity
  8
想像線
 48
10.0
100
AcDbLine
 10
6214.484998239401
 20
8107.58400249991
 30
0.0
 11
6214.484998239401
 21
7386.666358844118
 31
0.0
  0
LINE
  5
15177
330
747D
100
AcDbEntity
  8
部品1
 48
0.2
100
AcDbLine
 10
6201.547446068078
 20
8100.58163245513
 30
0.0
 11
6206.547446068078
 21
8100.58163245513
 31
0.0
  0
ARC
  5
15178
330
747D
100
AcDbEntity
  8
細線
 48
0.2
100
AcDbCircle
 10
6206.547446068078
 20
8108.58163245513
 30
0.0
 40
4.049999999999999
100
AcDbArc
 50
194.2603506853988
 51
345.7396493146012
  0
ARC
  5
15179
330
747D
100
AcDbEntity
  8
部品1
 48
0.2
100
AcDbCircle
 10
6201.547446068078
 20
8108.58163245513
 30
0.0
 40
8.0
100
AcDbArc
 50
187.1636477221926
 51
269.9999999999992
  0
LINE
  5
1517A
330
747D
100
AcDbEntity
  8
部品1
 48
5.0
100
AcDbLine
 10
6216.484998239402
 20
8107.58400249991
 30
0.0
 11
6302.484998239402
 21
8107.58400249991
 31
0.0
  0
ARC
  5
1517B
330
747D
100
AcDbEntity
  8
部品1
 48
0.2
100
AcDbCircle
 10
6206.547446068078
 20
8108.58163245513
 30
0.0
 40
8.0
100
AcDbArc
 50
270.0
 51
352.8363522778074
  0
LINE
  5
1517C
330
747D
100
AcDbEntity
  8
部品1
 48
5.0
100
AcDbLine
 10
6216.484998239402
 20
8137.084002499909
 30
0.0
 11
6216.484998239402
 21
8107.58400249991
 31
0.0
  0
LINE
  5
1517D
330
747D
100
AcDbEntity
  8
部品1
100
AcDbLine
 10
6216.484998239401
 20
8137.084002499852
 30
0.0
 11
6216.484998239398
 21
8107.584002499901
 31
0.0
  0
LINE
  5
1517E
330
747D
100
AcDbEntity
  8
部品1
100
AcDbLine
 10
6214.484998239401
 20
8133.58400249996
 30
0.0
 11
6214.484998239401
 21
8107.584002499901
 31
0.0
  0
LINE
  5
1517F
330
747D
100
AcDbEntity
  8
部品1
 48
5.0
100
AcDbLine
 10
6302.484998239402
 20
8137.084002499909
 30
0.0
 11
6302.484998239402
 21
8107.58400249991
 31
0.0
  0
LINE
  5
15180
330
747D
100
AcDbEntity
  8
部品1
100
AcDbLine
 10
6304.4849982394
 20
8133.584002499901
 30
0.0
 11
6304.484998239399
 21
8107.58400249991
 31
0.0
  0
LINE
  5
15181
330
747D
100
AcDbEntity
  8
部品1
100
AcDbLine
 10
6302.484998239401
 20
8137.084002499859
 30
0.0
 11
6302.484998239402
 21
8107.58400249991
 31
0.0
  0
LINE
  5
15182
330
747D
100
AcDbEntity
  8
想像線
 48
10.0
100
AcDbLine
 10
7854.484998239401
 20
8107.584002499917
 30
0.0
 11
7854.484998239401
 21
7386.666358844125
 31
0.0
  0
LINE
  5
15183
330
747D
100
AcDbEntity
  8
部品1
 48
2.83
100
AcDbLine
 10
7856.484998239382
 20
8137.084002499923
 30
0.0
 11
7856.484998239382
 21
8107.584002499924
 31
0.0
  0
ARC
  5
15184
330
747D
100
AcDbEntity
  8
細線
 48
0.2
100
AcDbCircle
 10
7846.547446068079
 20
8108.581632455146
 30
0.0
 40
4.049999999999999
100
AcDbArc
 50
194.2603506853988
 51
345.7396493146012
  0
ARC
  5
15185
330
747D
100
AcDbEntity
  8
部品1
 48
0.2
100
AcDbCircle
 10
7841.54744606808
 20
8108.581632455146
 30
0.0
 40
8.0
100
AcDbArc
 50
187.1636477221926
 51
269.9999999999992
  0
ARC
  5
15186
330
747D
100
AcDbEntity
  8
部品1
 48
0.2
100
AcDbCircle
 10
7846.547446068079
 20
8108.581632455146
 30
0.0
 40
8.0
100
AcDbArc
 50
270.0
 51
352.8363522778074
  0
LINE
  5
15187
330
747D
100
AcDbEntity
  8
部品1
 48
0.2
100
AcDbLine
 10
7841.54744606808
 20
8100.581632455144
 30
0.0
 11
7846.547446068079
 21
8100.581632455144
 31
0.0
  0
LINE
  5
15188
330
747D
100
AcDbEntity
  8
部品1
100
AcDbLine
 10
7854.484998239401
 20
8133.58400249996
 30
0.0
 11
7854.484998239401
 21
8107.584002499953
 31
0.0
  0
DIMENSION
  5
15189
330
747D
100
AcDbEntity
  8
寸法
100
AcDbDimension
  2
*D13
 10
8225.342724101365
 20
8902.866186831019
 30
0.0
 11
8125.342724101363
 21
9127.86618683102
 31
0.0
 70
    32
 71
     5
 42
450.0
  3
INABA_S40G
100
AcDbAlignedDimension
 13
7869.98499823934
 23
9448.084002499909
 33
0.0
 14
7869.98499823934
 24
8998.08400249991
 34
0.0
 50
90.0
100
AcDbRotatedDimension
1001
ACAD
1000
DSTYLE
1002
{
1002
}
  0
DIMENSION
  5
1518A
330
747D
100
AcDbEntity
  8
寸法
100
AcDbDimension
  2
*D14
 10
8546.911343973819
 20
8162.584002499952
 30
0.0
 11
8546.911343973818
 21
8792.58400249996
 31
0.0
 70
   160
  1
3X420=<>
 71
     5
 42
1260.000000000014
  3
INABA_S40G
100
AcDbAlignedDimension
 13
7899.484998239408
 23
9422.584002499966
 33
0.0
 14
7899.484998239383
 24
8162.584002499952
 34
0.0
 50
90.0
100
AcDbRotatedDimension
1001
ACAD
1000
DSTYLE
1002
{
1002
}
  0
LINE
  5
1518B
330
747D
100
AcDbEntity
  8
部品1
 48
5.0
100
AcDbLine
 10
7842.98402681445
 20
8239.084002499968
 30
0.0
 11
7842.984519745762
 21
8998.08400249991
 31
0.0
  0
LINE
  5
1518C
330
747D
100
AcDbEntity
  8
破線
 48
10.0
100
AcDbLine
 10
7819.485063164076
 20
8998.084002499917
 30
0.0
 11
7819.485050541048
 21
8855.083868120964
 31
0.0
  0
LINE
  5
1518D
330
747D
100
AcDbEntity
  8
部品1
 48
50.0
100
AcDbLine
 10
6314.984991895101
 20
8239.084002524576
 30
0.0
 11
6314.984994867963
 21
8998.084002499917
 31
0.0
  0
LINE
  5
1518E
330
747D
100
AcDbEntity
  8
部品1
 48
50.0
100
AcDbLine
 10
6203.984998239386
 20
8239.084002499916
 30
0.0
 11
6203.984998239361
 21
8998.084002499975
 31
0.0
  0
LINE
  5
1518F
330
747D
100
AcDbEntity
  8
破線
 48
10.0
100
AcDbLine
 10
6338.484998239394
 20
8262.584002499924
 30
0.0
 11
6338.484989070289
 21
8805.083929252957
 31
0.0
  0
LINE
  5
15191
330
747D
100
AcDbEntity
  8
破線
 48
10.0
100
AcDbLine
 10
6180.484998239394
 20
8262.584002499917
 30
0.0
 11
6180.48499207713
 21
8805.083935774803
 31
0.0
  0
LINE
  5
15192
330
747D
100
AcDbEntity
  8
部品1
 48
50.0
100
AcDbLine
 10
6259.484998239386
 20
8162.58400249991
 30
0.0
 11
6259.484998239386
 21
9422.584002499915
 31
0.0
  0
LINE
  5
15193
330
747D
100
AcDbEntity
  8
部品1
 48
50.0
100
AcDbLine
 10
6231.484998239387
 20
8162.58400249991
 30
0.0
 11
6231.484998239333
 21
9449.584002499916
 31
0.0
  0
LINE
  5
15194
330
747D
100
AcDbEntity
  8
部品1
 48
50.0
100
AcDbLine
 10
6287.484998239386
 20
8162.58400249991
 30
0.0
 11
6287.484998239332
 21
9477.584002499916
 31
0.0
  0
LINE
  5
15195
330
747D
100
AcDbEntity
  8
部品1
100
AcDbLine
 10
7871.484998239409
 20
9449.584002499966
 30
0.0
 11
7871.484998239385
 21
8162.584002499952
 31
0.0
  0
LINE
  5
15196
330
747D
100
AcDbEntity
  8
破線
 48
10.0
100
AcDbLine
 10
6999.484998239386
 20
8262.584002499961
 30
0.0
 11
6338.484998239394
 21
8262.584002499924
 31
0.0
  0
LINE
  5
15197
330
747D
100
AcDbEntity
  8
部品1
100
AcDbLine
 10
7022.984026814594
 20
8239.084108212805
 30
0.0
 11
6314.984998239385
 21
8239.084002524583
 31
0.0
  0
LINE
  5
15198
330
747D
100
AcDbEntity
  8
部品1
 48
5.0
100
AcDbLine
 10
6227.484998239402
 20
8162.58400249991
 30
0.0
 11
6204.484998239401
 21
8162.58400249991
 31
0.0
  0
LINE
  5
15199
330
747D
100
AcDbEntity
  8
部品1
 48
50.0
100
AcDbLine
 10
6231.484998239387
 20
8211.084002499909
 30
0.0
 11
6203.984998239386
 21
8239.084002499916
 31
0.0
  0
LINE
  5
1519A
330
747D
100
AcDbEntity
  8
部品1
 48
5.0
100
AcDbLine
 10
6291.484998239402
 20
8162.58400249991
 30
0.0
 11
6314.484998239403
 21
8162.58400249991
 31
0.0
  0
LINE
  5
1519B
330
747D
100
AcDbEntity
  8
部品1
 48
5.0
100
AcDbLine
 10
6231.484998239387
 20
8162.58400249991
 30
0.0
 11
6287.484998239386
 21
8162.58400249991
 31
0.0
  0
LINE
  5
1519C
330
747D
100
AcDbEntity
  8
部品1
 48
50.0
100
AcDbLine
 10
6314.984998239385
 20
8239.084002524583
 30
0.0
 11
6287.484998239386
 21
8211.084002499909
 31
0.0
  0
LINE
  5
1519D
330
747D
100
AcDbEntity
  8
部品1
 48
5.0
100
AcDbLine
 10
6259.484998239386
 20
8582.58400249991
 30
0.0
 11
6231.484998239335
 21
8582.584002499917
 31
0.0
  0
LINE
  5
1519E
330
747D
100
AcDbEntity
  8
部品1
 48
2.83
100
AcDbLine
 10
7899.484998239383
 20
8162.584002499924
 30
0.0
 11
7876.484998239383
 21
8162.584002499924
 31
0.0
  0
LINE
  5
1519F
330
747D
100
AcDbEntity
  8
部品1
100
AcDbLine
 10
7871.484998239385
 20
8162.584002499952
 30
0.0
 11
7899.484998239383
 21
8162.584002499952
 31
0.0
  0
LINE
  5
151A0
330
747D
100
AcDbEntity
  8
部品1
100
AcDbLine
 10
7871.484998239416
 20
8162.584002499967
 30
0.0
 11
7899.484998239415
 21
8162.584002499967
 31
0.0
  0
LINE
  5
151A1
330
747D
100
AcDbEntity
  8
部品1
 48
50.0
100
AcDbLine
 10
7871.484998239385
 20
8210.064937307555
 30
0.0
 11
7842.984026814592
 21
8239.084108212805
 31
0.0
  0
LINE
  5
151A2
330
747D
100
AcDbEntity
  8
部品1
 48
2.83
100
AcDbLine
 10
7867.484998239382
 20
8162.584002499924
 30
0.0
 11
7844.484998239384
 21
8162.584002499924
 31
0.0
  0
LINE
  5
151A3
330
747D
100
AcDbEntity
  8
部品1
100
AcDbLine
 10
7871.484998239409
 20
8582.584002499968
 30
0.0
 11
7899.484998239408
 21
8582.584002499968
 31
0.0
  0
LINE
  5
151A4
330
747D
100
AcDbEntity
  8
部品1
100
AcDbLine
 10
6287.484998239332
 20
9449.584002499916
 30
0.0
 11
7076.865701257969
 21
9449.584002499969
 31
0.0
  0
LINE
  5
151A5
330
747D
100
AcDbEntity
  8
部品1
100
AcDbLine
 10
6288.984998239339
 20
9448.084002499916
 30
0.0
 11
7049.984998239342
 21
9448.084002499909
 31
0.0
  0
LINE
  5
151A6
330
747D
100
AcDbEntity
  8
部品1
100
AcDbLine
 10
6288.984998239339
 20
8998.084002499917
 30
0.0
 11
7049.984998239342
 21
8998.08400249991
 31
0.0
  0
LINE
  5
151A7
330
747D
100
AcDbEntity
  8
細線
 48
50.0
100
AcDbLine
 10
7049.984998239342
 20
9448.084002499909
 30
0.0
 11
6288.984998239339
 21
8998.084002499917
 31
0.0
  0
LINE
  5
151A8
330
747D
100
AcDbEntity
  8
細線
 48
50.0
100
AcDbLine
 10
7049.984998239342
 20
8998.08400249991
 30
0.0
 11
6288.984998239339
 21
9448.084002499916
 31
0.0
  0
LINE
  5
151A9
330
747D
100
AcDbEntity
  8
部品1
 48
50.0
100
AcDbLine
 10
6288.984998239339
 20
9448.084002499916
 30
0.0
 11
6288.984998239339
 21
8998.084002499917
 31
0.0
  0
LINE
  5
151AA
330
747D
100
AcDbEntity
  8
部品1
 48
50.0
100
AcDbLine
 10
6229.985004917038
 20
9448.084002499982
 30
0.0
 11
6229.985004917038
 21
8998.084002499982
 31
0.0
  0
LINE
  5
151AB
330
747D
100
AcDbEntity
  8
部品1
 48
50.0
100
AcDbLine
 10
6259.484998239379
 20
9040.584002499917
 30
0.0
 11
6287.48499823936
 21
9040.584002499917
 31
0.0
  0
LINE
  5
151AC
330
747D
100
AcDbEntity
  8
部品1
 48
50.0
100
AcDbLine
 10
6259.484998239379
 20
9002.584002499917
 30
0.0
 11
6287.48499823936
 21
9002.584002499917
 31
0.0
  0
LINE
  5
151AD
330
747D
100
AcDbEntity
  8
部品1
 48
5.0
100
AcDbLine
 10
6259.484998239386
 20
9002.584002499908
 30
0.0
 11
6231.484998239335
 21
9002.584002499917
 31
0.0
  0
LINE
  5
151AE
330
747D
100
AcDbEntity
  8
部品1
 48
5.0
100
AcDbLine
 10
6204.484998239404
 20
9449.584002499916
 30
0.0
 11
6204.484998239406
 21
9477.584002499916
 31
0.0
  0
LINE
  5
151AF
330
747D
100
AcDbEntity
  8
部品1
 48
5.0
100
AcDbLine
 10
6287.484998239335
 20
9422.584002499915
 30
0.0
 11
6231.484998239335
 21
9422.584002499915
 31
0.0
  0
LINE
  5
151B0
330
747D
100
AcDbEntity
  8
部品1
 48
5.0
100
AcDbLine
 10
6234.194272686582
 20
9477.584002499916
 30
0.0
 11
6256.86570125801
 21
9449.584002499916
 31
0.0
  0
LINE
  5
151B1
330
747D
100
AcDbEntity
  8
部品1
 48
50.0
100
AcDbLine
 10
6229.985004917038
 20
9448.029489840159
 30
0.0
 11
6231.484998239333
 21
9449.584002499916
 31
0.0
  0
LINE
  5
151B2
330
747D
100
AcDbEntity
  8
部品1
 48
50.0
100
AcDbLine
 10
6288.984998239339
 20
9448.029480979657
 30
0.0
 11
6287.484998239333
 21
9449.584002499916
 31
0.0
  0
LINE
  5
151B3
330
747D
100
AcDbEntity
  8
部品1
 48
5.0
100
AcDbLine
 10
6314.48499823941
 20
9477.584002499916
 30
0.0
 11
6314.484998239404
 21
9449.584002499923
 31
0.0
  0
LINE
  5
151B4
330
747D
100
AcDbEntity
  8
部品1
100
AcDbLine
 10
7869.98499823934
 20
9448.084002499909
 30
0.0
 11
7869.98499823934
 21
8998.08400249991
 31
0.0
  0
LINE
  5
151B5
330
747D
100
AcDbEntity
  8
部品1
100
AcDbLine
 10
7871.484998239409
 20
9002.584002499967
 30
0.0
 11
7899.484998239408
 21
9002.584002499967
 31
0.0
  0
LINE
  5
151B6
330
747D
100
AcDbEntity
  8
部品1
 48
50.0
100
AcDbLine
 10
7869.984991561732
 20
9448.084002499916
 30
0.0
 11
7871.484998239409
 21
9449.584002499966
 31
0.0
  0
LINE
  5
151B7
330
747D
100
AcDbEntity
  8
部品1
100
AcDbLine
 10
7871.484998239409
 20
9422.584002499966
 30
0.0
 11
7899.484998239408
 21
9422.584002499966
 31
0.0
  0
LINE
  5
151B8
330
747D
100
AcDbEntity
  8
部品1
100
AcDbLine
 10
7844.484998239408
 20
9477.584002499966
 30
0.0
 11
7844.484998239408
 21
9449.584002499966
 31
0.0
  0
LINE
  5
151B9
330
747D
100
AcDbEntity
  8
部品1
100
AcDbLine
 10
7844.484998239408
 20
9477.584002499982
 30
0.0
 11
7844.484998239408
 21
9449.584002499982
 31
0.0
  0
LINE
  5
151BA
330
747D
100
AcDbEntity
  8
部品1
100
AcDbLine
 10
6216.484998239401
 20
5160.795364285293
 30
0.0
 11
6216.484998239401
 21
3363.795364285314
 31
0.0
  0
LINE
  5
151BB
330
747D
100
AcDbEntity
  8
部品1
100
AcDbLine
 10
6214.4849982394
 20
5158.295364285294
 30
0.0
 11
6214.484998239402
 21
3367.295364285315
 31
0.0
  0
LINE
  5
151BC
330
747D
100
AcDbEntity
  8
部品1
100
AcDbLine
 10
5484.4849982394
 20
5158.295364285292
 30
0.0
 11
5484.484998239401
 21
3367.295364285308
 31
0.0
  0
LINE
  5
151BD
330
747D
100
AcDbEntity
  8
部品1
100
AcDbLine
 10
5482.4849982394
 20
5160.795364285293
 30
0.0
 11
5482.4849982394
 21
3363.795364285314
 31
0.0
  0
LINE
  5
151BE
330
747D
100
AcDbEntity
  8
部品1
100
AcDbLine
 10
3844.484998239401
 20
5158.295364285296
 30
0.0
 11
3844.484998239401
 21
3367.2953642853
 31
0.0
  0
LINE
  5
151BF
330
747D
100
AcDbEntity
  8
部品1
100
AcDbLine
 10
7856.484998239401
 20
5160.795364285293
 30
0.0
 11
7856.484998239401
 21
3363.795364285314
 31
0.0
  0
LINE
  5
151C0
330
747D
100
AcDbEntity
  8
部品1
100
AcDbLine
 10
3799.484998239401
 20
5254.795364285294
 30
0.0
 11
3799.484998239401
 21
3220.795364285294
 31
0.0
  0
LINE
  5
151C1
330
747D
100
AcDbEntity
  8
部品1
100
AcDbLine
 10
7899.484998239401
 20
5254.795364285288
 30
0.0
 11
7899.484998239401
 21
3220.795364285294
 31
0.0
  0
LINE
  5
151C2
330
747D
100
AcDbEntity
  8
部品1
100
AcDbLine
 10
7854.484998239399
 20
5158.295364285294
 30
0.0
 11
7854.484998239401
 21
3367.295364285315
 31
0.0
  0
LINE
  5
151C3
330
747D
100
AcDbEntity
  8
部品1
100
AcDbLine
 10
6304.4849982394
 20
5158.295364285294
 30
0.0
 11
6304.4849982394
 21
3367.295364285307
 31
0.0
  0
LINE
  5
151C4
330
747D
100
AcDbEntity
  8
部品1
100
AcDbLine
 10
6302.484998239401
 20
5160.795364285293
 30
0.0
 11
6302.484998239401
 21
3363.795364285314
 31
0.0
  0
LINE
  5
151C5
330
747D
100
AcDbEntity
  8
部品1
100
AcDbLine
 10
5396.484998239401
 20
5160.795364285293
 30
0.0
 11
5396.484998239401
 21
3363.795364285314
 31
0.0
  0
LINE
  5
151C6
330
747D
100
AcDbEntity
  8
部品1
100
AcDbLine
 10
5394.484998239398
 20
5158.295364285294
 30
0.0
 11
5394.484998239402
 21
3367.295364285304
 31
0.0
  0
LINE
  5
151C7
330
747D
100
AcDbEntity
  8
部品1
100
AcDbLine
 10
3842.484998239401
 20
5160.795364285293
 30
0.0
 11
3842.484998239401
 21
3363.795364285314
 31
0.0
  0
DIMENSION
  5
151C8
330
747D
100
AcDbEntity
  8
寸法
100
AcDbDimension
  2
*D15
 10
3481.380470631798
 20
3382.295364285298
 30
0.0
 11
3481.380470631797
 21
4261.295364285295
 31
0.0
 70
   160
  1
有効開口部高サ<>
 71
     5
 42
1759.999999999996
  3
INABA_S40G
100
AcDbAlignedDimension
 13
3799.484998239401
 23
5142.295364285294
 33
0.0
 14
3799.484998239401
 24
3382.295364285298
 34
0.0
 50
90.0
100
AcDbRotatedDimension
1001
ACAD
1000
DSTYLE
1002
{
1070
   288
1070
     1
1002
}
  0
LINE
  5
151C9
330
747D
100
AcDbEntity
  8
部品1
100
AcDbLine
 10
5484.484998239401
 20
3367.295364285308
 30
0.0
 11
6194.42255041072
 21
3367.295364285314
 31
0.0
  0
LINE
  5
151CC
330
747D
100
AcDbEntity
  8
部品1
100
AcDbLine
 10
4664.484998239401
 20
3367.2953642853
 30
0.0
 11
5374.42255041072
 21
3367.295364285305
 31
0.0
  0
LINE
  5
151CE
330
747D
100
AcDbEntity
  8
細線
 48
0.2
100
AcDbLine
 10
5394.422550410719
 20
3371.545364285312
 30
0.0
 11
5374.42255041072
 21
3371.545364285312
 31
0.0
  0
LINE
  5
151CF
330
747D
100
AcDbEntity
  8
部品1
 48
0.2
100
AcDbLine
 10
5394.422550410719
 20
3374.045364285313
 30
0.0
 11
5374.422550410719
 21
3374.045364285313
 31
0.0
  0
ARC
  5
151D0
330
747D
100
AcDbEntity
  8
細線
 48
0.2
100
AcDbCircle
 10
5391.42255041072
 20
3367.074854454064
 30
0.0
 40
1.0
100
AcDbArc
 50
286.6015495990217
 51
0.0
  0
LINE
  5
151D1
330
747D
100
AcDbEntity
  8
細線
 48
0.2
100
AcDbLine
 10
5394.422550410719
 20
3367.045364285313
 30
0.0
 11
5374.42255041072
 21
3367.045364285313
 31
0.0
  0
LINE
  5
151D2
330
747D
100
AcDbEntity
  8
細線
 48
0.2
100
AcDbLine
 10
5394.422550410719
 20
3369.545364285313
 30
0.0
 11
5374.42255041072
 21
3369.545364285314
 31
0.0
  0
ARC
  5
151D3
330
747D
100
AcDbEntity
  8
細線
 48
0.2
100
AcDbCircle
 10
5381.422550410719
 20
3367.074854454064
 30
0.0
 40
1.0
100
AcDbArc
 50
179.9999999999984
 51
253.3984504009775
  0
ARC
  5
151D4
330
747D
100
AcDbEntity
  8
細線
 48
0.2
100
AcDbCircle
 10
5386.422550410719
 20
3383.84536428531
 30
0.0
 40
18.49999999999796
100
AcDbArc
 50
253.3984504009772
 51
286.6015495990217
  0
LINE
  5
151D5
330
747D
100
AcDbEntity
  8
細線
 48
0.2
100
AcDbLine
 10
5392.106541707227
 20
3366.345364285312
 30
0.0
 11
5380.738559114215
 21
3366.345364285312
 31
0.0
  0
LINE
  5
151D6
330
747D
100
AcDbEntity
  8
細線
 48
50.0
100
AcDbLine
 10
5374.422550410719
 20
3367.295364285314
 30
0.0
 11
5374.422550410719
 21
3367.045364285313
 31
0.0
  0
LINE
  5
151D7
330
747D
100
AcDbEntity
  8
部品1
100
AcDbLine
 10
5394.42255041072
 20
3367.295364285314
 30
0.0
 11
5394.484998239401
 21
3367.295364285314
 31
0.0
  0
LINE
  5
151D8
330
747D
100
AcDbEntity
  8
部品1
100
AcDbLine
 10
5394.42255041072
 20
3367.295364285305
 30
0.0
 11
5394.484998239401
 21
3367.295364285305
 31
0.0
  0
LINE
  5
151D9
330
747D
100
AcDbEntity
  8
細線
 48
0.1
100
AcDbLine
 10
5394.422550410719
 20
3367.045364285313
 30
0.0
 11
5394.422550410719
 21
3374.045364285313
 31
0.0
  0
LINE
  5
151DA
330
747D
100
AcDbEntity
  8
細線
 48
50.0
100
AcDbLine
 10
5382.559793216415
 20
3369.545364285314
 30
0.0
 11
5382.559793216416
 21
3371.545364285312
 31
0.0
  0
LINE
  5
151DB
330
747D
100
AcDbEntity
  8
細線
 48
50.0
100
AcDbLine
 10
5390.41020326238
 20
3369.545364285314
 30
0.0
 11
5390.41020326238
 21
3371.545364285312
 31
0.0
  0
LINE
  5
151DC
330
747D
100
AcDbEntity
  8
部品1
 48
50.0
100
AcDbLine
 10
5374.422550410719
 20
3374.045364285313
 30
0.0
 11
5374.422550410719
 21
3367.295364285314
 31
0.0
  0
LINE
  5
151DF
330
747D
100
AcDbEntity
  8
部品1
100
AcDbLine
 10
6304.4849982394
 20
3367.295364285308
 30
0.0
 11
7014.42255041072
 21
3367.295364285314
 31
0.0
  0
LINE
  5
151E0
330
747D
100
AcDbEntity
  8
部品1
 48
0.2
100
AcDbLine
 10
6214.422550410719
 20
3374.045364285313
 30
0.0
 11
6194.422550410719
 21
3374.045364285313
 31
0.0
  0
LINE
  5
151E1
330
747D
100
AcDbEntity
  8
細線
 48
0.2
100
AcDbLine
 10
6214.422550410719
 20
3371.545364285312
 30
0.0
 11
6194.42255041072
 21
3371.545364285312
 31
0.0
  0
LINE
  5
151E2
330
747D
100
AcDbEntity
  8
細線
 48
0.2
100
AcDbLine
 10
6214.422550410719
 20
3369.545364285313
 30
0.0
 11
6194.42255041072
 21
3369.545364285314
 31
0.0
  0
LINE
  5
151E3
330
747D
100
AcDbEntity
  8
細線
 48
0.2
100
AcDbLine
 10
6214.422550410719
 20
3367.045364285313
 30
0.0
 11
6194.42255041072
 21
3367.045364285313
 31
0.0
  0
LINE
  5
151E4
330
747D
100
AcDbEntity
  8
細線
 48
50.0
100
AcDbLine
 10
6194.422550410719
 20
3367.295364285314
 30
0.0
 11
6194.422550410719
 21
3367.045364285313
 31
0.0
  0
LINE
  5
151E5
330
747D
100
AcDbEntity
  8
細線
 48
0.2
100
AcDbLine
 10
6212.106541707226
 20
3366.345364285312
 30
0.0
 11
6200.738559114214
 21
3366.345364285312
 31
0.0
  0
ARC
  5
151E6
330
747D
100
AcDbEntity
  8
細線
 48
0.2
100
AcDbCircle
 10
6206.422550410719
 20
3383.84536428531
 30
0.0
 40
18.49999999999796
100
AcDbArc
 50
253.3984504009772
 51
286.6015495990217
  0
ARC
  5
151E7
330
747D
100
AcDbEntity
  8
細線
 48
0.2
100
AcDbCircle
 10
6201.422550410718
 20
3367.074854454064
 30
0.0
 40
1.0
100
AcDbArc
 50
179.9999999999984
 51
253.3984504009775
  0
ARC
  5
151E8
330
747D
100
AcDbEntity
  8
細線
 48
0.2
100
AcDbCircle
 10
6211.422550410719
 20
3367.074854454064
 30
0.0
 40
1.0
100
AcDbArc
 50
286.6015495990217
 51
0.0
  0
LINE
  5
151E9
330
747D
100
AcDbEntity
  8
部品1
 48
50.0
100
AcDbLine
 10
6194.422550410719
 20
3374.045364285313
 30
0.0
 11
6194.422550410719
 21
3367.295364285314
 31
0.0
  0
LINE
  5
151EA
330
747D
100
AcDbEntity
  8
細線
 48
50.0
100
AcDbLine
 10
6210.41020326238
 20
3369.545364285314
 30
0.0
 11
6210.41020326238
 21
3371.545364285312
 31
0.0
  0
LINE
  5
151EB
330
747D
100
AcDbEntity
  8
細線
 48
50.0
100
AcDbLine
 10
6202.559793216416
 20
3369.545364285314
 30
0.0
 11
6202.559793216416
 21
3371.545364285312
 31
0.0
  0
LINE
  5
151ED
330
747D
100
AcDbEntity
  8
部品1
100
AcDbLine
 10
6214.42255041072
 20
3367.295364285316
 30
0.0
 11
6214.484998239401
 21
3367.295364285316
 31
0.0
  0
LINE
  5
151EE
330
747D
100
AcDbEntity
  8
部品1
100
AcDbLine
 10
6214.42255041072
 20
3367.295364285314
 30
0.0
 11
6214.484998239401
 21
3367.295364285314
 31
0.0
  0
LINE
  5
151EF
330
747D
100
AcDbEntity
  8
部品1
100
AcDbLine
 10
6214.42255041072
 20
3367.295364285314
 30
0.0
 11
6214.4849982394
 21
3367.295364285314
 31
0.0
  0
LINE
  5
151F0
330
747D
100
AcDbEntity
  8
細線
 48
0.1
100
AcDbLine
 10
6214.422550410719
 20
3367.045364285313
 30
0.0
 11
6214.422550410719
 21
3374.045364285313
 31
0.0
  0
LINE
  5
151F3
330
747D
100
AcDbEntity
  8
部品1
 48
0.2
100
AcDbLine
 10
7854.422550410719
 20
3374.045364285313
 30
0.0
 11
7834.422550410718
 21
3374.045364285313
 31
0.0
  0
LINE
  5
151F4
330
747D
100
AcDbEntity
  8
細線
 48
0.2
100
AcDbLine
 10
7854.422550410719
 20
3371.545364285312
 30
0.0
 11
7834.42255041072
 21
3371.545364285312
 31
0.0
  0
LINE
  5
151F5
330
747D
100
AcDbEntity
  8
部品1
100
AcDbLine
 10
7854.422550410721
 20
3367.295364285316
 30
0.0
 11
7854.484998239401
 21
3367.295364285316
 31
0.0
  0
LINE
  5
151F6
330
747D
100
AcDbEntity
  8
部品1
100
AcDbLine
 10
7854.422550410721
 20
3367.295364285314
 30
0.0
 11
7854.484998239401
 21
3367.295364285314
 31
0.0
  0
LINE
  5
151F7
330
747D
100
AcDbEntity
  8
細線
 48
50.0
100
AcDbLine
 10
7834.422550410718
 20
3367.295364285314
 30
0.0
 11
7834.422550410718
 21
3367.045364285313
 31
0.0
  0
LINE
  5
151F8
330
747D
100
AcDbEntity
  8
細線
 48
0.2
100
AcDbLine
 10
7852.106541707226
 20
3366.345364285312
 30
0.0
 11
7840.738559114214
 21
3366.345364285312
 31
0.0
  0
ARC
  5
151F9
330
747D
100
AcDbEntity
  8
細線
 48
0.2
100
AcDbCircle
 10
7846.422550410719
 20
3383.84536428531
 30
0.0
 40
18.49999999999796
100
AcDbArc
 50
253.3984504009772
 51
286.6015495990217
  0
ARC
  5
151FA
330
747D
100
AcDbEntity
  8
細線
 48
0.2
100
AcDbCircle
 10
7841.422550410719
 20
3367.074854454064
 30
0.0
 40
1.0
100
AcDbArc
 50
179.9999999999984
 51
253.3984504009775
  0
LINE
  5
151FB
330
747D
100
AcDbEntity
  8
細線
 48
0.2
100
AcDbLine
 10
7854.422550410719
 20
3369.545364285313
 30
0.0
 11
7834.42255041072
 21
3369.545364285314
 31
0.0
  0
LINE
  5
151FC
330
747D
100
AcDbEntity
  8
細線
 48
0.2
100
AcDbLine
 10
7854.422550410719
 20
3367.045364285313
 30
0.0
 11
7834.42255041072
 21
3367.045364285313
 31
0.0
  0
ARC
  5
151FD
330
747D
100
AcDbEntity
  8
細線
 48
0.2
100
AcDbCircle
 10
7851.422550410719
 20
3367.074854454064
 30
0.0
 40
1.0
100
AcDbArc
 50
286.6015495990217
 51
0.0
  0
LINE
  5
151FE
330
747D
100
AcDbEntity
  8
部品1
100
AcDbLine
 10
7854.422550410721
 20
3367.295364285314
 30
0.0
 11
7854.484998239399
 21
3367.295364285314
 31
0.0
  0
LINE
  5
151FF
330
747D
100
AcDbEntity
  8
部品1
 48
50.0
100
AcDbLine
 10
7834.422550410718
 20
3374.045364285313
 30
0.0
 11
7834.422550410718
 21
3367.295364285314
 31
0.0
  0
LINE
  5
15200
330
747D
100
AcDbEntity
  8
細線
 48
50.0
100
AcDbLine
 10
7850.410203262379
 20
3369.545364285314
 30
0.0
 11
7850.410203262379
 21
3371.545364285312
 31
0.0
  0
LINE
  5
15201
330
747D
100
AcDbEntity
  8
細線
 48
50.0
100
AcDbLine
 10
7842.559793216415
 20
3369.545364285314
 30
0.0
 11
7842.559793216416
 21
3371.545364285312
 31
0.0
  0
LINE
  5
15202
330
747D
100
AcDbEntity
  8
細線
 48
0.1
100
AcDbLine
 10
7854.422550410719
 20
3367.045364285313
 30
0.0
 11
7854.422550410719
 21
3374.045364285313
 31
0.0
  0
LINE
  5
15205
330
747D
100
AcDbEntity
  8
部品1
100
AcDbLine
 10
5484.484998239398
 20
5158.295364285292
 30
0.0
 11
6194.422550410719
 21
5158.295364285294
 31
0.0
  0
LINE
  5
15255
330
747D
100
AcDbEntity
  8
部品1
100
AcDbLine
 10
4664.484998239401
 20
5158.295364285296
 30
0.0
 11
5374.42255041072
 21
5158.295364285296
 31
0.0
  0
LINE
  5
15256
330
747D
100
AcDbEntity
  8
細線
 48
0.2
100
AcDbLine
 10
5392.106541707227
 20
5159.245364285296
 30
0.0
 11
5380.738559114215
 21
5159.245364285296
 31
0.0
  0
ARC
  5
15257
330
747D
100
AcDbEntity
  8
細線
 48
0.2
100
AcDbCircle
 10
5386.422550410719
 20
5141.745364285299
 30
0.0
 40
18.49999999999796
100
AcDbArc
 50
73.39845040097829
 51
106.6015495990228
  0
ARC
  5
15258
330
747D
100
AcDbEntity
  8
細線
 48
0.2
100
AcDbCircle
 10
5391.42255041072
 20
5158.515874116543
 30
0.0
 40
1.0
100
AcDbArc
 50
0.0
 51
73.39845040097829
  0
ARC
  5
15259
330
747D
100
AcDbEntity
  8
細線
 48
0.2
100
AcDbCircle
 10
5381.422550410719
 20
5158.515874116543
 30
0.0
 40
1.0
100
AcDbArc
 50
106.6015495990225
 51
180.0000000000016
  0
LINE
  5
1525A
330
747D
100
AcDbEntity
  8
細線
 48
0.2
100
AcDbLine
 10
5394.422550410719
 20
5156.045364285295
 30
0.0
 11
5374.42255041072
 21
5156.045364285295
 31
0.0
  0
LINE
  5
1525B
330
747D
100
AcDbEntity
  8
細線
 48
0.2
100
AcDbLine
 10
5394.422550410719
 20
5158.545364285295
 30
0.0
 11
5374.42255041072
 21
5158.545364285295
 31
0.0
  0
LINE
  5
1525C
330
747D
100
AcDbEntity
  8
部品1
100
AcDbLine
 10
5394.42255041072
 20
5158.295364285296
 30
0.0
 11
5394.484998239401
 21
5158.295364285294
 31
0.0
  0
LINE
  5
1525D
330
747D
100
AcDbEntity
  8
細線
 48
50.0
100
AcDbLine
 10
5374.422550410719
 20
5158.295364285296
 30
0.0
 11
5374.422550410719
 21
5158.545364285295
 31
0.0
  0
LINE
  5
1525E
330
747D
100
AcDbEntity
  8
部品1
 48
0.2
100
AcDbLine
 10
5394.422550410719
 20
5151.545364285295
 30
0.0
 11
5374.422550410719
 21
5151.545364285295
 31
0.0
  0
LINE
  5
1525F
330
747D
100
AcDbEntity
  8
細線
 48
0.2
100
AcDbLine
 10
5394.422550410719
 20
5154.045364285295
 30
0.0
 11
5374.42255041072
 21
5154.045364285295
 31
0.0
  0
LINE
  5
15260
330
747D
100
AcDbEntity
  8
細線
 48
50.0
100
AcDbLine
 10
5390.41020326238
 20
5156.045364285295
 30
0.0
 11
5390.41020326238
 21
5154.045364285295
 31
0.0
  0
LINE
  5
15261
330
747D
100
AcDbEntity
  8
細線
 48
50.0
100
AcDbLine
 10
5382.559793216415
 20
5156.045364285295
 30
0.0
 11
5382.559793216416
 21
5154.045364285295
 31
0.0
  0
LINE
  5
15262
330
747D
100
AcDbEntity
  8
細線
 48
0.1
100
AcDbLine
 10
5394.422550410719
 20
5158.545364285295
 30
0.0
 11
5394.422550410719
 21
5151.545364285295
 31
0.0
  0
LINE
  5
15263
330
747D
100
AcDbEntity
  8
部品1
 48
50.0
100
AcDbLine
 10
5374.422550410719
 20
5151.545364285295
 30
0.0
 11
5374.422550410719
 21
5158.295364285296
 31
0.0
  0
LINE
  5
1528B
330
747D
100
AcDbEntity
  8
部品1
100
AcDbLine
 10
6304.4849982394
 20
5158.295364285294
 30
0.0
 11
7014.42255041072
 21
5158.295364285294
 31
0.0
  0
LINE
  5
1528C
330
747D
100
AcDbEntity
  8
細線
 48
0.2
100
AcDbLine
 10
6214.422550410719
 20
5158.545364285295
 30
0.0
 11
6194.42255041072
 21
5158.545364285295
 31
0.0
  0
LINE
  5
1528D
330
747D
100
AcDbEntity
  8
細線
 48
0.2
100
AcDbLine
 10
6214.422550410719
 20
5156.045364285295
 30
0.0
 11
6194.42255041072
 21
5156.045364285295
 31
0.0
  0
LINE
  5
1528E
330
747D
100
AcDbEntity
  8
細線
 48
0.2
100
AcDbLine
 10
6214.422550410719
 20
5154.045364285295
 30
0.0
 11
6194.42255041072
 21
5154.045364285295
 31
0.0
  0
LINE
  5
1528F
330
747D
100
AcDbEntity
  8
部品1
 48
0.2
100
AcDbLine
 10
6214.422550410719
 20
5151.545364285295
 30
0.0
 11
6194.422550410719
 21
5151.545364285295
 31
0.0
  0
ARC
  5
15290
330
747D
100
AcDbEntity
  8
細線
 48
0.2
100
AcDbCircle
 10
6211.422550410719
 20
5158.515874116543
 30
0.0
 40
1.0
100
AcDbArc
 50
0.0
 51
73.39845040097829
  0
ARC
  5
15291
330
747D
100
AcDbEntity
  8
細線
 48
0.2
100
AcDbCircle
 10
6201.422550410718
 20
5158.515874116543
 30
0.0
 40
1.0
100
AcDbArc
 50
106.6015495990225
 51
180.0000000000016
  0
ARC
  5
15292
330
747D
100
AcDbEntity
  8
細線
 48
0.2
100
AcDbCircle
 10
6206.422550410719
 20
5141.745364285299
 30
0.0
 40
18.49999999999796
100
AcDbArc
 50
73.39845040097829
 51
106.6015495990228
  0
LINE
  5
15293
330
747D
100
AcDbEntity
  8
細線
 48
0.2
100
AcDbLine
 10
6212.106541707226
 20
5159.245364285296
 30
0.0
 11
6200.738559114214
 21
5159.245364285296
 31
0.0
  0
LINE
  5
15294
330
747D
100
AcDbEntity
  8
細線
 48
50.0
100
AcDbLine
 10
6194.422550410719
 20
5158.295364285296
 30
0.0
 11
6194.422550410719
 21
5158.545364285295
 31
0.0
  0
LINE
  5
15295
330
747D
100
AcDbEntity
  8
細線
 48
50.0
100
AcDbLine
 10
6202.559793216416
 20
5156.045364285295
 30
0.0
 11
6202.559793216416
 21
5154.045364285295
 31
0.0
  0
LINE
  5
15296
330
747D
100
AcDbEntity
  8
細線
 48
50.0
100
AcDbLine
 10
6210.41020326238
 20
5156.045364285295
 30
0.0
 11
6210.41020326238
 21
5154.045364285295
 31
0.0
  0
LINE
  5
15297
330
747D
100
AcDbEntity
  8
部品1
 48
50.0
100
AcDbLine
 10
6194.422550410719
 20
5151.545364285295
 30
0.0
 11
6194.422550410719
 21
5158.295364285296
 31
0.0
  0
LINE
  5
15298
330
747D
100
AcDbEntity
  8
部品1
100
AcDbLine
 10
6214.42255041072
 20
5158.295364285296
 30
0.0
 11
6214.484998239401
 21
5158.295364285294
 31
0.0
  0
LINE
  5
15299
330
747D
100
AcDbEntity
  8
部品1
100
AcDbLine
 10
6214.42255041072
 20
5158.295364285292
 30
0.0
 11
6214.484998239401
 21
5158.295364285294
 31
0.0
  0
LINE
  5
1529A
330
747D
100
AcDbEntity
  8
細線
 48
0.1
100
AcDbLine
 10
6214.422550410719
 20
5158.545364285295
 30
0.0
 11
6214.422550410719
 21
5151.545364285295
 31
0.0
  0
ARC
  5
1529B
330
747D
100
AcDbEntity
  8
細線
 48
0.2
100
AcDbCircle
 10
7851.422550410719
 20
5158.515874116543
 30
0.0
 40
1.0
100
AcDbArc
 50
0.0
 51
73.39845040097829
  0
LINE
  5
1529C
330
747D
100
AcDbEntity
  8
細線
 48
0.2
100
AcDbLine
 10
7854.422550410719
 20
5158.545364285295
 30
0.0
 11
7834.42255041072
 21
5158.545364285295
 31
0.0
  0
LINE
  5
1529D
330
747D
100
AcDbEntity
  8
細線
 48
0.2
100
AcDbLine
 10
7854.422550410719
 20
5156.045364285295
 30
0.0
 11
7834.42255041072
 21
5156.045364285295
 31
0.0
  0
ARC
  5
1529E
330
747D
100
AcDbEntity
  8
細線
 48
0.2
100
AcDbCircle
 10
7841.422550410719
 20
5158.515874116543
 30
0.0
 40
1.0
100
AcDbArc
 50
106.6015495990225
 51
180.0000000000016
  0
ARC
  5
1529F
330
747D
100
AcDbEntity
  8
細線
 48
0.2
100
AcDbCircle
 10
7846.422550410719
 20
5141.745364285299
 30
0.0
 40
18.49999999999796
100
AcDbArc
 50
73.39845040097829
 51
106.6015495990228
  0
LINE
  5
152A0
330
747D
100
AcDbEntity
  8
細線
 48
0.2
100
AcDbLine
 10
7852.106541707226
 20
5159.245364285296
 30
0.0
 11
7840.738559114214
 21
5159.245364285296
 31
0.0
  0
LINE
  5
152A1
330
747D
100
AcDbEntity
  8
細線
 48
50.0
100
AcDbLine
 10
7834.422550410718
 20
5158.295364285296
 30
0.0
 11
7834.422550410718
 21
5158.545364285295
 31
0.0
  0
LINE
  5
152A2
330
747D
100
AcDbEntity
  8
部品1
100
AcDbLine
 10
7854.422550410721
 20
5158.295364285296
 30
0.0
 11
7854.484998239401
 21
5158.295364285294
 31
0.0
  0
LINE
  5
152A3
330
747D
100
AcDbEntity
  8
部品1
100
AcDbLine
 10
7854.422550410721
 20
5158.295364285292
 30
0.0
 11
7854.484998239401
 21
5158.295364285294
 31
0.0
  0
LINE
  5
152A4
330
747D
100
AcDbEntity
  8
細線
 48
0.2
100
AcDbLine
 10
7854.422550410719
 20
5154.045364285295
 30
0.0
 11
7834.42255041072
 21
5154.045364285295
 31
0.0
  0
LINE
  5
152A5
330
747D
100
AcDbEntity
  8
部品1
 48
0.2
100
AcDbLine
 10
7854.422550410719
 20
5151.545364285295
 30
0.0
 11
7834.422550410718
 21
5151.545364285295
 31
0.0
  0
LINE
  5
152A6
330
747D
100
AcDbEntity
  8
細線
 48
0.1
100
AcDbLine
 10
7854.422550410719
 20
5158.545364285295
 30
0.0
 11
7854.422550410719
 21
5151.545364285295
 31
0.0
  0
LINE
  5
152A7
330
747D
100
AcDbEntity
  8
細線
 48
50.0
100
AcDbLine
 10
7842.559793216415
 20
5156.045364285295
 30
0.0
 11
7842.559793216416
 21
5154.045364285295
 31
0.0
  0
LINE
  5
152A8
330
747D
100
AcDbEntity
  8
細線
 48
50.0
100
AcDbLine
 10
7850.410203262379
 20
5156.045364285295
 30
0.0
 11
7850.410203262379
 21
5154.045364285295
 31
0.0
  0
LINE
  5
152A9
330
747D
100
AcDbEntity
  8
部品1
 48
50.0
100
AcDbLine
 10
7834.422550410718
 20
5151.545364285295
 30
0.0
 11
7834.422550410718
 21
5158.295364285296
 31
0.0
  0
LINE
  5
1556A
330
747D
100
AcDbEntity
  8
細線
 48
50.0
100
AcDbLine
 10
4999.484998239408
 20
9456.084002499753
 30
0.0
 11
4999.484998239406
 21
9477.584002499749
 31
0.0
  0
LINE
  5
1556B
330
747D
100
AcDbEntity
  8
細線
 48
50.0
100
AcDbLine
 10
5059.484998239408
 20
9456.084002499753
 30
0.0
 11
5059.484998239407
 21
9477.584002499757
 31
0.0
  0
LINE
  5
1556C
330
747D
100
AcDbEntity
  8
細線
 48
50.0
100
AcDbLine
 10
5059.484998239408
 20
9456.084002499753
 30
0.0
 11
4999.484998239408
 21
9456.084002499748
 31
0.0
  0
LINE
  5
1556D
330
747D
100
AcDbEntity
  8
細線
 48
50.0
100
AcDbLine
 10
5879.484998239409
 20
9456.084002499862
 30
0.0
 11
5819.484998239408
 21
9456.084002499858
 31
0.0
  0
LINE
  5
1556E
330
747D
100
AcDbEntity
  8
細線
 48
50.0
100
AcDbLine
 10
5819.484998239408
 20
9456.084002499862
 30
0.0
 11
5819.484998239406
 21
9477.584002499858
 31
0.0
  0
LINE
  5
1556F
330
747D
100
AcDbEntity
  8
細線
 48
50.0
100
AcDbLine
 10
5879.484998239409
 20
9456.084002499862
 30
0.0
 11
5879.484998239406
 21
9477.584002499865
 31
0.0
  0
LINE
  5
15570
330
747D
100
AcDbEntity
  8
細線
 48
50.0
100
AcDbLine
 10
6699.48499156171
 20
9456.084002500011
 30
0.0
 11
6699.484991561707
 21
9477.584002500014
 31
0.0
  0
LINE
  5
15571
330
747D
100
AcDbEntity
  8
細線
 48
50.0
100
AcDbLine
 10
6639.484991561708
 20
9456.084002500011
 30
0.0
 11
6639.484991561707
 21
9477.584002500007
 31
0.0
  0
LINE
  5
15572
330
747D
100
AcDbEntity
  8
細線
 48
50.0
100
AcDbLine
 10
6699.48499156171
 20
9456.084002500011
 30
0.0
 11
6639.484991561708
 21
9456.084002500007
 31
0.0
  0
LINE
  5
15573
330
747D
100
AcDbEntity
  8
細線
 48
50.0
100
AcDbLine
 10
6428.484998239401
 20
8133.584002499942
 30
0.0
 11
6428.484998239401
 21
8107.584002499894
 31
0.0
  0
LINE
  5
15574
330
747D
100
AcDbEntity
  8
細線
 48
50.0
100
AcDbLine
 10
6841.4849982394
 20
8133.584002500146
 30
0.0
 11
6841.4849982394
 21
8107.584002500109
 31
0.0
  0
LINE
  5
15575
330
747D
100
AcDbEntity
  8
細線
 48
50.0
100
AcDbLine
 10
6654.484998239401
 20
8133.584002499931
 30
0.0
 11
6654.484998239401
 21
8107.584002499894
 31
0.0
  0
LINE
  5
15576
330
747D
100
AcDbEntity
  8
細線
 48
50.0
100
AcDbLine
 10
6614.484998239401
 20
8133.584002499931
 30
0.0
 11
6614.484998239401
 21
8107.584002499894
 31
0.0
  0
LINE
  5
15577
330
747D
100
AcDbEntity
  8
細線
 48
50.0
100
AcDbLine
 10
6881.4849982394
 20
8133.584002500146
 30
0.0
 11
6881.4849982394
 21
8107.584002500109
 31
0.0
  0
LINE
  5
15578
330
747D
100
AcDbEntity
  8
細線
 48
50.0
100
AcDbLine
 10
5834.484998239401
 20
8133.584002499931
 30
0.0
 11
5834.484998239401
 21
8107.584002499894
 31
0.0
  0
LINE
  5
15579
330
747D
100
AcDbEntity
  8
細線
 48
50.0
100
AcDbLine
 10
5608.484998239401
 20
8133.584002499942
 30
0.0
 11
5608.484998239401
 21
8107.584002499894
 31
0.0
  0
LINE
  5
1557A
330
747D
100
AcDbEntity
  8
細線
 48
50.0
100
AcDbLine
 10
5794.484998239401
 20
8133.584002499931
 30
0.0
 11
5794.484998239401
 21
8107.584002499894
 31
0.0
  0
LINE
  5
1557B
330
747D
100
AcDbEntity
  8
細線
 48
50.0
100
AcDbLine
 10
6061.4849982394
 20
8133.584002500146
 30
0.0
 11
6061.4849982394
 21
8107.584002500109
 31
0.0
  0
LINE
  5
1557C
330
747D
100
AcDbEntity
  8
細線
 48
50.0
100
AcDbLine
 10
6021.484998239401
 20
8133.584002500146
 30
0.0
 11
6021.484998239401
 21
8107.584002500109
 31
0.0
  0
LINE
  5
1557D
330
747D
100
AcDbEntity
  8
細線
 48
50.0
100
AcDbLine
 10
3968.4849982394
 20
8133.584002499942
 30
0.0
 11
3968.4849982394
 21
8107.584002499894
 31
0.0
  0
LINE
  5
1557E
330
747D
100
AcDbEntity
  8
細線
 48
50.0
100
AcDbLine
 10
5201.484998239401
 20
8133.584002500146
 30
0.0
 11
5201.484998239401
 21
8107.584002500109
 31
0.0
  0
LINE
  5
1557F
330
747D
100
AcDbEntity
  8
細線
 48
50.0
100
AcDbLine
 10
5014.4849982394
 20
8133.584002499931
 30
0.0
 11
5014.4849982394
 21
8107.584002499894
 31
0.0
  0
LINE
  5
15580
330
747D
100
AcDbEntity
  8
細線
 48
50.0
100
AcDbLine
 10
4974.4849982394
 20
8133.584002499931
 30
0.0
 11
4974.4849982394
 21
8107.584002499894
 31
0.0
  0
LINE
  5
15581
330
747D
100
AcDbEntity
  8
細線
 48
50.0
100
AcDbLine
 10
5241.484998239401
 20
8133.584002500146
 30
0.0
 11
5241.484998239401
 21
8107.584002500109
 31
0.0
  0
ARC
  5
155C4
330
747D
100
AcDbEntity
  8
細線
100
AcDbCircle
 10
3905.484998239399
 20
4209.795364285295
 30
0.0
 40
5.5
100
AcDbArc
 50
270.0
 51
0.0
  0
ARC
  5
155C5
330
747D
100
AcDbEntity
  8
部品1
100
AcDbCircle
 10
3906.484998239399
 20
4208.795364285295
 30
0.0
 40
6.0
100
AcDbArc
 50
270.0
 51
0.0
  0
ARC
  5
155C6
330
747D
100
AcDbEntity
  8
細線
100
AcDbCircle
 10
3866.318379770154
 20
4209.795364285295
 30
0.0
 40
5.5
100
AcDbArc
 50
190.4214509727298
 51
269.9999999999997
  0
ARC
  5
155C7
330
747D
100
AcDbEntity
  8
部品1
100
AcDbCircle
 10
3865.486728348384
 20
4208.795364285295
 30
0.0
 40
6.0
100
AcDbArc
 50
190.5838025965097
 51
270.0
  0
LINE
  5
155C8
330
747D
100
AcDbEntity
  8
細線
100
AcDbLine
 10
3866.318379770154
 20
4204.295364285296
 30
0.0
 11
3905.484998239399
 21
4204.295364285296
 31
0.0
  0
LINE
  5
155C9
330
747D
100
AcDbEntity
  8
部品1
100
AcDbLine
 10
3865.486728348384
 20
4202.795364285296
 30
0.0
 11
3906.484998239399
 21
4202.795364285296
 31
0.0
  0
CIRCLE
  5
155CA
330
747D
100
AcDbEntity
  8
細線
 48
20.0
100
AcDbCircle
 10
3885.985863293893
 20
4363.295364285295
 30
0.0
 40
20.0
  0
CIRCLE
  5
155CB
330
747D
100
AcDbEntity
  8
細線
 48
20.0
100
AcDbCircle
 10
3885.985863293893
 20
4363.295364285295
 30
0.0
 40
10.0
  0
ARC
  5
155CC
330
747D
100
AcDbEntity
  8
細線
100
AcDbCircle
 10
3900.484998239399
 20
4306.795364285295
 30
0.0
 40
6.0
100
AcDbArc
 50
0.0
 51
90.0
  0
ARC
  5
155CD
330
747D
100
AcDbEntity
  8
細線
100
AcDbCircle
 10
3890.692537418145
 20
4303.795364285295
 30
0.0
 40
6.0
100
AcDbArc
 50
0.0
 51
90.0
  0
ARC
  5
155CE
330
747D
100
AcDbEntity
  8
細線
100
AcDbCircle
 10
3905.484998239399
 20
4315.795364285295
 30
0.0
 40
5.5
100
AcDbArc
 50
0.0
 51
90.0
  0
ARC
  5
155CF
330
747D
100
AcDbEntity
  8
部品1
100
AcDbCircle
 10
3906.484998239399
 20
4316.795364285296
 30
0.0
 40
6.0
100
AcDbArc
 50
0.0
 51
90.0
  0
LINE
  5
155D0
330
747D
100
AcDbEntity
  8
細線
100
AcDbLine
 10
3879.979422149232
 20
4306.795364285295
 30
0.0
 11
3878.484998239399
 21
4306.795364285295
 31
0.0
  0
ARC
  5
155D1
330
747D
100
AcDbEntity
  8
細線
100
AcDbCircle
 10
3879.979422149232
 20
4303.795364285295
 30
0.0
 40
3.0
100
AcDbArc
 50
8.099550838277986
 51
90.0
  0
ARC
  5
155D2
330
747D
100
AcDbEntity
  8
細線
100
AcDbCircle
 10
3869.865954603876
 20
4306.795364285295
 30
0.0
 40
6.0
100
AcDbArc
 50
90.0
 51
171.2120626773636
  0
LINE
  5
155D3
330
747D
100
AcDbEntity
  8
細線
100
AcDbLine
 10
3878.484998239399
 20
4306.794856386733
 30
0.0
 11
3865.721671023432
 21
4306.794856386733
 31
0.0
  0
ARC
  5
155D4
330
747D
100
AcDbEntity
  8
細線
100
AcDbCircle
 10
3866.318379770154
 20
4315.795364285295
 30
0.0
 40
5.5
100
AcDbArc
 50
89.99999999999969
 51
169.5785490272683
  0
ARC
  5
155D5
330
747D
100
AcDbEntity
  8
部品1
100
AcDbCircle
 10
3865.486728348384
 20
4316.795364285296
 30
0.0
 40
6.0
100
AcDbArc
 50
90.0
 51
169.4161974034886
  0
LINE
  5
155D6
330
747D
100
AcDbEntity
  8
細線
100
AcDbLine
 10
3905.484998239399
 20
4321.295364285295
 30
0.0
 11
3866.318379770154
 21
4321.295364285295
 31
0.0
  0
LINE
  5
155D7
330
747D
100
AcDbEntity
  8
細線
100
AcDbLine
 10
3890.692537418145
 20
4309.795364285295
 30
0.0
 11
3878.484998239399
 21
4309.795364285295
 31
0.0
  0
LINE
  5
155D8
330
747D
100
AcDbEntity
  8
細線
100
AcDbLine
 10
3900.484998239399
 20
4312.795364285295
 30
0.0
 11
3869.865954603876
 21
4312.795364285295
 31
0.0
  0
LINE
  5
155D9
330
747D
100
AcDbEntity
  8
部品1
100
AcDbLine
 10
3906.484998239399
 20
4322.795364285295
 30
0.0
 11
3865.486728348384
 21
4322.795364285295
 31
0.0
  0
ARC
  5
155DA
330
747D
100
AcDbEntity
  8
細線
100
AcDbCircle
 10
3900.484998239399
 20
4218.795364285295
 30
0.0
 40
6.0
100
AcDbArc
 50
270.0
 51
0.0
  0
ARC
  5
155DB
330
747D
100
AcDbEntity
  8
細線
100
AcDbCircle
 10
3890.692537418145
 20
4221.795364285295
 30
0.0
 40
6.0
100
AcDbArc
 50
270.0
 51
360.0
  0
LINE
  5
155DC
330
747D
100
AcDbEntity
  8
細線
100
AcDbLine
 10
3878.484998239399
 20
4218.795364285295
 30
0.0
 11
3879.979422149234
 21
4218.795364285295
 31
0.0
  0
ARC
  5
155DD
330
747D
100
AcDbEntity
  8
細線
100
AcDbCircle
 10
3879.979422149234
 20
4221.795364285295
 30
0.0
 40
3.0
100
AcDbArc
 50
270.0
 51
351.9004491617184
  0
ARC
  5
155DE
330
747D
100
AcDbEntity
  8
細線
100
AcDbCircle
 10
3869.865954603876
 20
4218.795364285295
 30
0.0
 40
6.0
100
AcDbArc
 50
188.7879373226349
 51
270.0
  0
LINE
  5
155DF
330
747D
100
AcDbEntity
  8
細線
100
AcDbLine
 10
3878.484998239399
 20
4218.795872183856
 30
0.0
 11
3865.006293740576
 21
4218.795872183856
 31
0.0
  0
LINE
  5
155E0
330
747D
100
AcDbEntity
  8
細線
100
AcDbLine
 10
3878.484998239399
 20
4215.795364285295
 30
0.0
 11
3890.692537418145
 21
4215.795364285295
 31
0.0
  0
LINE
  5
155E1
330
747D
100
AcDbEntity
  8
細線
100
AcDbLine
 10
3869.865954603876
 20
4212.795364285295
 30
0.0
 11
3900.484998239399
 21
4212.795364285295
 31
0.0
  0
LINE
  5
155E2
330
747D
100
AcDbEntity
  8
細線
100
AcDbLine
 10
3896.692537418145
 20
4221.795364285295
 30
0.0
 11
3896.692537418145
 21
4303.795364285295
 31
0.0
  0
LINE
  5
155E3
330
747D
100
AcDbEntity
  8
細線
100
AcDbLine
 10
3906.484998239399
 20
4218.795364285295
 30
0.0
 11
3906.484998239399
 21
4306.795364285295
 31
0.0
  0
LINE
  5
155E4
330
747D
100
AcDbEntity
  8
細線
100
AcDbLine
 10
3910.984998239399
 20
4209.795364285295
 30
0.0
 11
3910.984998239399
 21
4315.795364285295
 31
0.0
  0
LINE
  5
155E5
330
747D
100
AcDbEntity
  8
部品1
100
AcDbLine
 10
3912.484998239399
 20
4208.795364285295
 30
0.0
 11
3912.484998239399
 21
4316.795364285296
 31
0.0
  0
LINE
  5
155E6
330
747D
100
AcDbEntity
  8
細線
100
AcDbLine
 10
3878.484998239399
 20
4312.795364285295
 30
0.0
 11
3878.484998239399
 21
4212.795364285295
 31
0.0
  0
ARC
  5
155E7
330
747D
100
AcDbEntity
  8
細線
100
AcDbCircle
 10
4154.484998239399
 20
4262.795364285294
 30
0.0
 40
298.5
100
AcDbArc
 50
169.578549027269
 51
190.4214509727309
  0
ARC
  5
155E8
330
747D
100
AcDbEntity
  8
細線
100
AcDbCircle
 10
4154.484998239399
 20
4262.795364285294
 30
0.0
 40
294.0
100
AcDbArc
 50
171.212062677364
 51
188.7879373226359
  0
ARC
  5
155E9
330
747D
100
AcDbEntity
  8
細線
100
AcDbCircle
 10
3591.882216331474
 20
4262.795364285294
 30
0.0
 40
294.0
100
AcDbArc
 50
351.900449161722
 51
8.099550838278029
  0
ARC
  5
155EA
330
747D
100
AcDbEntity
  8
部品1
100
AcDbCircle
 10
4154.484998239399
 20
4262.795364285294
 30
0.0
 40
300.0
100
AcDbArc
 50
169.4161974034894
 51
190.5838025965105
  0
LINE
  5
155ED
330
747D
100
AcDbEntity
  8
細線
100
AcDbLine
 10
5536.692537418145
 20
4221.795364285295
 30
0.0
 11
5536.692537418145
 21
4303.795364285295
 31
0.0
  0
LINE
  5
155EE
330
747D
100
AcDbEntity
  8
細線
100
AcDbLine
 10
5546.484998239399
 20
4218.795364285295
 30
0.0
 11
5546.484998239399
 21
4306.795364285295
 31
0.0
  0
LINE
  5
155EF
330
747D
100
AcDbEntity
  8
細線
100
AcDbLine
 10
5550.984998239399
 20
4209.795364285295
 30
0.0
 11
5550.984998239399
 21
4315.795364285295
 31
0.0
  0
LINE
  5
155F0
330
747D
100
AcDbEntity
  8
部品1
100
AcDbLine
 10
5552.484998239399
 20
4208.795364285295
 30
0.0
 11
5552.484998239399
 21
4316.795364285296
 31
0.0
  0
LINE
  5
155F1
330
747D
100
AcDbEntity
  8
細線
100
AcDbLine
 10
5518.484998239399
 20
4312.795364285295
 30
0.0
 11
5518.484998239399
 21
4212.795364285295
 31
0.0
  0
ARC
  5
155F2
330
747D
100
AcDbEntity
  8
細線
100
AcDbCircle
 10
5794.484998239399
 20
4262.795364285294
 30
0.0
 40
298.5
100
AcDbArc
 50
169.578549027269
 51
190.4214509727309
  0
ARC
  5
155F3
330
747D
100
AcDbEntity
  8
細線
100
AcDbCircle
 10
5794.484998239399
 20
4262.795364285294
 30
0.0
 40
294.0
100
AcDbArc
 50
171.212062677364
 51
188.7879373226359
  0
ARC
  5
155F4
330
747D
100
AcDbEntity
  8
細線
100
AcDbCircle
 10
5231.882216331474
 20
4262.795364285294
 30
0.0
 40
294.0
100
AcDbArc
 50
351.900449161722
 51
8.099550838278029
  0
ARC
  5
155F5
330
747D
100
AcDbEntity
  8
部品1
100
AcDbCircle
 10
5794.484998239399
 20
4262.795364285294
 30
0.0
 40
300.0
100
AcDbArc
 50
169.4161974034894
 51
190.5838025965105
  0
ARC
  5
155F6
330
747D
100
AcDbEntity
  8
細線
100
AcDbCircle
 10
5545.484998239398
 20
4209.795364285295
 30
0.0
 40
5.5
100
AcDbArc
 50
270.0
 51
0.0
  0
ARC
  5
155F7
330
747D
100
AcDbEntity
  8
部品1
100
AcDbCircle
 10
5546.484998239399
 20
4208.795364285295
 30
0.0
 40
6.0
100
AcDbArc
 50
270.0
 51
0.0
  0
ARC
  5
155F8
330
747D
100
AcDbEntity
  8
細線
100
AcDbCircle
 10
5506.318379770153
 20
4209.795364285295
 30
0.0
 40
5.5
100
AcDbArc
 50
190.4214509727298
 51
269.9999999999997
  0
ARC
  5
155F9
330
747D
100
AcDbEntity
  8
部品1
100
AcDbCircle
 10
5505.486728348383
 20
4208.795364285295
 30
0.0
 40
6.0
100
AcDbArc
 50
190.5838025965097
 51
270.0
  0
LINE
  5
155FA
330
747D
100
AcDbEntity
  8
細線
100
AcDbLine
 10
5506.318379770153
 20
4204.295364285296
 30
0.0
 11
5545.484998239398
 21
4204.295364285296
 31
0.0
  0
LINE
  5
155FB
330
747D
100
AcDbEntity
  8
部品1
100
AcDbLine
 10
5505.486728348383
 20
4202.795364285296
 30
0.0
 11
5546.484998239399
 21
4202.795364285296
 31
0.0
  0
ARC
  5
155FC
330
747D
100
AcDbEntity
  8
細線
100
AcDbCircle
 10
5540.484998239399
 20
4218.795364285295
 30
0.0
 40
6.0
100
AcDbArc
 50
270.0
 51
0.0
  0
ARC
  5
155FD
330
747D
100
AcDbEntity
  8
細線
100
AcDbCircle
 10
5530.692537418144
 20
4221.795364285295
 30
0.0
 40
6.0
100
AcDbArc
 50
270.0
 51
360.0
  0
LINE
  5
155FE
330
747D
100
AcDbEntity
  8
細線
100
AcDbLine
 10
5518.484998239399
 20
4218.795364285295
 30
0.0
 11
5519.979422149233
 21
4218.795364285295
 31
0.0
  0
ARC
  5
155FF
330
747D
100
AcDbEntity
  8
細線
100
AcDbCircle
 10
5519.979422149233
 20
4221.795364285295
 30
0.0
 40
3.0
100
AcDbArc
 50
270.0
 51
351.9004491617184
  0
ARC
  5
15600
330
747D
100
AcDbEntity
  8
細線
100
AcDbCircle
 10
5509.865954603876
 20
4218.795364285295
 30
0.0
 40
6.0
100
AcDbArc
 50
188.7879373226349
 51
270.0
  0
LINE
  5
15601
330
747D
100
AcDbEntity
  8
細線
100
AcDbLine
 10
5518.484998239399
 20
4218.795872183856
 30
0.0
 11
5505.006293740576
 21
4218.795872183856
 31
0.0
  0
LINE
  5
15602
330
747D
100
AcDbEntity
  8
細線
100
AcDbLine
 10
5518.484998239399
 20
4215.795364285295
 30
0.0
 11
5530.692537418144
 21
4215.795364285295
 31
0.0
  0
LINE
  5
15603
330
747D
100
AcDbEntity
  8
細線
100
AcDbLine
 10
5509.865954603876
 20
4212.795364285295
 30
0.0
 11
5540.484998239399
 21
4212.795364285295
 31
0.0
  0
CIRCLE
  5
15604
330
747D
100
AcDbEntity
  8
細線
 48
20.0
100
AcDbCircle
 10
5525.985863293892
 20
4363.295364285295
 30
0.0
 40
20.0
  0
CIRCLE
  5
15605
330
747D
100
AcDbEntity
  8
細線
 48
20.0
100
AcDbCircle
 10
5525.985863293892
 20
4363.295364285295
 30
0.0
 40
10.0
  0
ARC
  5
15606
330
747D
100
AcDbEntity
  8
細線
100
AcDbCircle
 10
5540.484998239399
 20
4306.795364285295
 30
0.0
 40
6.0
100
AcDbArc
 50
0.0
 51
90.0
  0
ARC
  5
15607
330
747D
100
AcDbEntity
  8
細線
100
AcDbCircle
 10
5530.692537418144
 20
4303.795364285295
 30
0.0
 40
6.0
100
AcDbArc
 50
0.0
 51
90.0
  0
ARC
  5
15608
330
747D
100
AcDbEntity
  8
細線
100
AcDbCircle
 10
5545.484998239398
 20
4315.795364285295
 30
0.0
 40
5.5
100
AcDbArc
 50
0.0
 51
90.0
  0
ARC
  5
15609
330
747D
100
AcDbEntity
  8
部品1
100
AcDbCircle
 10
5546.484998239399
 20
4316.795364285296
 30
0.0
 40
6.0
100
AcDbArc
 50
0.0
 51
90.0
  0
LINE
  5
1560A
330
747D
100
AcDbEntity
  8
細線
100
AcDbLine
 10
5519.979422149232
 20
4306.795364285295
 30
0.0
 11
5518.484998239399
 21
4306.795364285295
 31
0.0
  0
ARC
  5
1560B
330
747D
100
AcDbEntity
  8
細線
100
AcDbCircle
 10
5519.979422149232
 20
4303.795364285295
 30
0.0
 40
3.0
100
AcDbArc
 50
8.099550838277986
 51
90.0
  0
ARC
  5
1560C
330
747D
100
AcDbEntity
  8
細線
100
AcDbCircle
 10
5509.865954603876
 20
4306.795364285295
 30
0.0
 40
6.0
100
AcDbArc
 50
90.0
 51
171.2120626773636
  0
LINE
  5
1560D
330
747D
100
AcDbEntity
  8
細線
100
AcDbLine
 10
5518.484998239399
 20
4306.794856386733
 30
0.0
 11
5505.721671023431
 21
4306.794856386733
 31
0.0
  0
ARC
  5
1560E
330
747D
100
AcDbEntity
  8
細線
100
AcDbCircle
 10
5506.318379770153
 20
4315.795364285295
 30
0.0
 40
5.5
100
AcDbArc
 50
89.99999999999969
 51
169.5785490272683
  0
ARC
  5
1560F
330
747D
100
AcDbEntity
  8
部品1
100
AcDbCircle
 10
5505.486728348383
 20
4316.795364285296
 30
0.0
 40
6.0
100
AcDbArc
 50
90.0
 51
169.4161974034886
  0
LINE
  5
15610
330
747D
100
AcDbEntity
  8
細線
100
AcDbLine
 10
5545.484998239398
 20
4321.295364285295
 30
0.0
 11
5506.318379770153
 21
4321.295364285295
 31
0.0
  0
LINE
  5
15611
330
747D
100
AcDbEntity
  8
細線
100
AcDbLine
 10
5530.692537418144
 20
4309.795364285295
 30
0.0
 11
5518.484998239399
 21
4309.795364285295
 31
0.0
  0
LINE
  5
15612
330
747D
100
AcDbEntity
  8
細線
100
AcDbLine
 10
5540.484998239399
 20
4312.795364285295
 30
0.0
 11
5509.865954603876
 21
4312.795364285295
 31
0.0
  0
LINE
  5
15613
330
747D
100
AcDbEntity
  8
部品1
100
AcDbLine
 10
5546.484998239399
 20
4322.795364285295
 30
0.0
 11
5505.486728348383
 21
4322.795364285295
 31
0.0
  0
ARC
  5
15614
330
747D
100
AcDbEntity
  8
部品1
100
AcDbCircle
 10
6614.484998239399
 20
4262.795364285294
 30
0.0
 40
300.0
100
AcDbArc
 50
169.4161974034894
 51
190.5838025965105
  0
ARC
  5
15615
330
747D
100
AcDbEntity
  8
細線
100
AcDbCircle
 10
6051.882216331474
 20
4262.795364285294
 30
0.0
 40
294.0
100
AcDbArc
 50
351.900449161722
 51
8.099550838278029
  0
ARC
  5
15616
330
747D
100
AcDbEntity
  8
細線
100
AcDbCircle
 10
6614.484998239399
 20
4262.795364285294
 30
0.0
 40
294.0
100
AcDbArc
 50
171.212062677364
 51
188.7879373226359
  0
ARC
  5
15617
330
747D
100
AcDbEntity
  8
細線
100
AcDbCircle
 10
6614.484998239399
 20
4262.795364285294
 30
0.0
 40
298.5
100
AcDbArc
 50
169.578549027269
 51
190.4214509727309
  0
LINE
  5
15618
330
747D
100
AcDbEntity
  8
細線
100
AcDbLine
 10
6338.484998239398
 20
4312.795364285295
 30
0.0
 11
6338.484998239398
 21
4212.795364285295
 31
0.0
  0
LINE
  5
15619
330
747D
100
AcDbEntity
  8
部品1
100
AcDbLine
 10
6372.484998239399
 20
4208.795364285295
 30
0.0
 11
6372.484998239399
 21
4316.795364285296
 31
0.0
  0
LINE
  5
1561A
330
747D
100
AcDbEntity
  8
細線
100
AcDbLine
 10
6370.984998239399
 20
4209.795364285295
 30
0.0
 11
6370.984998239399
 21
4315.795364285295
 31
0.0
  0
LINE
  5
1561B
330
747D
100
AcDbEntity
  8
細線
100
AcDbLine
 10
6366.484998239399
 20
4218.795364285295
 30
0.0
 11
6366.484998239399
 21
4306.795364285295
 31
0.0
  0
LINE
  5
1561C
330
747D
100
AcDbEntity
  8
細線
100
AcDbLine
 10
6356.692537418144
 20
4221.795364285295
 30
0.0
 11
6356.692537418144
 21
4303.795364285295
 31
0.0
  0
LINE
  5
1561D
330
747D
100
AcDbEntity
  8
細線
100
AcDbLine
 10
6329.865954603876
 20
4212.795364285295
 30
0.0
 11
6360.4849982394
 21
4212.795364285295
 31
0.0
  0
LINE
  5
1561E
330
747D
100
AcDbEntity
  8
細線
100
AcDbLine
 10
6338.484998239398
 20
4215.795364285295
 30
0.0
 11
6350.692537418145
 21
4215.795364285295
 31
0.0
  0
LINE
  5
1561F
330
747D
100
AcDbEntity
  8
細線
100
AcDbLine
 10
6338.484998239398
 20
4218.795872183856
 30
0.0
 11
6325.006293740576
 21
4218.795872183856
 31
0.0
  0
ARC
  5
15620
330
747D
100
AcDbEntity
  8
細線
100
AcDbCircle
 10
6329.865954603876
 20
4218.795364285295
 30
0.0
 40
6.0
100
AcDbArc
 50
188.7879373226349
 51
270.0
  0
ARC
  5
15621
330
747D
100
AcDbEntity
  8
細線
100
AcDbCircle
 10
6339.979422149234
 20
4221.795364285295
 30
0.0
 40
3.0
100
AcDbArc
 50
270.0
 51
351.9004491617184
  0
LINE
  5
15622
330
747D
100
AcDbEntity
  8
細線
100
AcDbLine
 10
6338.484998239398
 20
4218.795364285295
 30
0.0
 11
6339.979422149234
 21
4218.795364285295
 31
0.0
  0
ARC
  5
15623
330
747D
100
AcDbEntity
  8
細線
100
AcDbCircle
 10
6350.692537418145
 20
4221.795364285295
 30
0.0
 40
6.0
100
AcDbArc
 50
270.0
 51
360.0
  0
ARC
  5
15624
330
747D
100
AcDbEntity
  8
細線
100
AcDbCircle
 10
6360.4849982394
 20
4218.795364285295
 30
0.0
 40
6.0
100
AcDbArc
 50
270.0
 51
0.0
  0
LINE
  5
15625
330
747D
100
AcDbEntity
  8
部品1
100
AcDbLine
 10
6325.486728348383
 20
4202.795364285296
 30
0.0
 11
6366.484998239399
 21
4202.795364285296
 31
0.0
  0
LINE
  5
15626
330
747D
100
AcDbEntity
  8
細線
100
AcDbLine
 10
6326.318379770153
 20
4204.295364285296
 30
0.0
 11
6365.484998239399
 21
4204.295364285296
 31
0.0
  0
ARC
  5
15627
330
747D
100
AcDbEntity
  8
部品1
100
AcDbCircle
 10
6325.486728348383
 20
4208.795364285295
 30
0.0
 40
6.0
100
AcDbArc
 50
190.5838025965097
 51
270.0
  0
ARC
  5
15628
330
747D
100
AcDbEntity
  8
細線
100
AcDbCircle
 10
6326.318379770153
 20
4209.795364285295
 30
0.0
 40
5.5
100
AcDbArc
 50
190.4214509727298
 51
269.9999999999997
  0
ARC
  5
15629
330
747D
100
AcDbEntity
  8
部品1
100
AcDbCircle
 10
6366.484998239399
 20
4208.795364285295
 30
0.0
 40
6.0
100
AcDbArc
 50
270.0
 51
0.0
  0
ARC
  5
1562A
330
747D
100
AcDbEntity
  8
細線
100
AcDbCircle
 10
6365.484998239399
 20
4209.795364285295
 30
0.0
 40
5.5
100
AcDbArc
 50
270.0
 51
0.0
  0
LINE
  5
1562B
330
747D
100
AcDbEntity
  8
部品1
100
AcDbLine
 10
6366.484998239399
 20
4322.795364285295
 30
0.0
 11
6325.486728348383
 21
4322.795364285295
 31
0.0
  0
LINE
  5
1562C
330
747D
100
AcDbEntity
  8
細線
100
AcDbLine
 10
6360.4849982394
 20
4312.795364285295
 30
0.0
 11
6329.865954603876
 21
4312.795364285295
 31
0.0
  0
LINE
  5
1562D
330
747D
100
AcDbEntity
  8
細線
100
AcDbLine
 10
6350.692537418145
 20
4309.795364285295
 30
0.0
 11
6338.484998239398
 21
4309.795364285295
 31
0.0
  0
LINE
  5
1562E
330
747D
100
AcDbEntity
  8
細線
100
AcDbLine
 10
6365.484998239399
 20
4321.295364285295
 30
0.0
 11
6326.318379770153
 21
4321.295364285295
 31
0.0
  0
ARC
  5
1562F
330
747D
100
AcDbEntity
  8
部品1
100
AcDbCircle
 10
6325.486728348383
 20
4316.795364285296
 30
0.0
 40
6.0
100
AcDbArc
 50
90.0
 51
169.4161974034886
  0
ARC
  5
15630
330
747D
100
AcDbEntity
  8
細線
100
AcDbCircle
 10
6326.318379770153
 20
4315.795364285295
 30
0.0
 40
5.5
100
AcDbArc
 50
89.99999999999969
 51
169.5785490272683
  0
LINE
  5
15631
330
747D
100
AcDbEntity
  8
細線
100
AcDbLine
 10
6338.484998239398
 20
4306.794856386733
 30
0.0
 11
6325.721671023432
 21
4306.794856386733
 31
0.0
  0
ARC
  5
15632
330
747D
100
AcDbEntity
  8
細線
100
AcDbCircle
 10
6329.865954603876
 20
4306.795364285295
 30
0.0
 40
6.0
100
AcDbArc
 50
90.0
 51
171.2120626773636
  0
ARC
  5
15633
330
747D
100
AcDbEntity
  8
細線
100
AcDbCircle
 10
6339.979422149232
 20
4303.795364285295
 30
0.0
 40
3.0
100
AcDbArc
 50
8.099550838277986
 51
90.0
  0
LINE
  5
15634
330
747D
100
AcDbEntity
  8
細線
100
AcDbLine
 10
6339.979422149232
 20
4306.795364285295
 30
0.0
 11
6338.484998239398
 21
4306.795364285295
 31
0.0
  0
ARC
  5
15635
330
747D
100
AcDbEntity
  8
部品1
100
AcDbCircle
 10
6366.484998239399
 20
4316.795364285296
 30
0.0
 40
6.0
100
AcDbArc
 50
0.0
 51
90.0
  0
ARC
  5
15636
330
747D
100
AcDbEntity
  8
細線
100
AcDbCircle
 10
6365.484998239399
 20
4315.795364285295
 30
0.0
 40
5.5
100
AcDbArc
 50
0.0
 51
90.0
  0
ARC
  5
15637
330
747D
100
AcDbEntity
  8
細線
100
AcDbCircle
 10
6350.692537418145
 20
4303.795364285295
 30
0.0
 40
6.0
100
AcDbArc
 50
0.0
 51
90.0
  0
ARC
  5
15638
330
747D
100
AcDbEntity
  8
細線
100
AcDbCircle
 10
6360.4849982394
 20
4306.795364285295
 30
0.0
 40
6.0
100
AcDbArc
 50
0.0
 51
90.0
  0
CIRCLE
  5
15639
330
747D
100
AcDbEntity
  8
細線
 48
20.0
100
AcDbCircle
 10
6345.985863293893
 20
4363.295364285295
 30
0.0
 40
10.0
  0
CIRCLE
  5
1563A
330
747D
100
AcDbEntity
  8
細線
 48
20.0
100
AcDbCircle
 10
6345.985863293893
 20
4363.295364285295
 30
0.0
 40
20.0
  0
LINE
  5
1565B
330
747D
100
AcDbEntity
  8
部品1
100
AcDbLine
 10
4574.484998239398
 20
5158.295364285294
 30
0.0
 11
4574.484998239401
 21
3367.295364285304
 31
0.0
  0
LINE
  5
1565C
330
747D
100
AcDbEntity
  8
部品1
100
AcDbLine
 10
4576.484998239401
 20
5160.795364285293
 30
0.0
 11
4576.484998239401
 21
3363.795364285314
 31
0.0
  0
LINE
  5
1565D
330
747D
100
AcDbEntity
  8
部品1
100
AcDbLine
 10
4662.484998239401
 20
5160.795364285293
 30
0.0
 11
4662.484998239401
 21
3363.795364285314
 31
0.0
  0
LINE
  5
1565E
330
747D
100
AcDbEntity
  8
部品1
100
AcDbLine
 10
4664.4849982394
 20
5158.295364285292
 30
0.0
 11
4664.484998239401
 21
3367.295364285308
 31
0.0
  0
LINE
  5
15660
330
747D
100
AcDbEntity
  8
部品1
 48
50.0
100
AcDbLine
 10
4554.422550410719
 20
3374.045364285313
 30
0.0
 11
4554.422550410719
 21
3367.295364285314
 31
0.0
  0
LINE
  5
15661
330
747D
100
AcDbEntity
  8
細線
 48
50.0
100
AcDbLine
 10
4570.410203262379
 20
3369.545364285314
 30
0.0
 11
4570.410203262379
 21
3371.545364285312
 31
0.0
  0
LINE
  5
15662
330
747D
100
AcDbEntity
  8
細線
 48
50.0
100
AcDbLine
 10
4562.559793216415
 20
3369.545364285314
 30
0.0
 11
4562.559793216416
 21
3371.545364285312
 31
0.0
  0
LINE
  5
15663
330
747D
100
AcDbEntity
  8
細線
 48
0.1
100
AcDbLine
 10
4574.422550410718
 20
3367.045364285313
 30
0.0
 11
4574.422550410718
 21
3374.045364285313
 31
0.0
  0
LINE
  5
15664
330
747D
100
AcDbEntity
  8
部品1
100
AcDbLine
 10
4574.422550410719
 20
3367.295364285305
 30
0.0
 11
4574.484998239401
 21
3367.295364285305
 31
0.0
  0
LINE
  5
15665
330
747D
100
AcDbEntity
  8
部品1
100
AcDbLine
 10
4574.422550410719
 20
3367.295364285314
 30
0.0
 11
4574.484998239401
 21
3367.295364285314
 31
0.0
  0
LINE
  5
15666
330
747D
100
AcDbEntity
  8
細線
 48
50.0
100
AcDbLine
 10
4554.422550410719
 20
3367.295364285314
 30
0.0
 11
4554.422550410719
 21
3367.045364285313
 31
0.0
  0
LINE
  5
15667
330
747D
100
AcDbEntity
  8
細線
 48
0.2
100
AcDbLine
 10
4572.106541707227
 20
3366.345364285312
 30
0.0
 11
4560.738559114215
 21
3366.345364285312
 31
0.0
  0
ARC
  5
15668
330
747D
100
AcDbEntity
  8
細線
 48
0.2
100
AcDbCircle
 10
4566.422550410719
 20
3383.84536428531
 30
0.0
 40
18.49999999999796
100
AcDbArc
 50
253.3984504009772
 51
286.6015495990217
  0
ARC
  5
15669
330
747D
100
AcDbEntity
  8
細線
 48
0.2
100
AcDbCircle
 10
4561.422550410719
 20
3367.074854454064
 30
0.0
 40
1.0
100
AcDbArc
 50
179.9999999999984
 51
253.3984504009775
  0
LINE
  5
1566A
330
747D
100
AcDbEntity
  8
細線
 48
0.2
100
AcDbLine
 10
4574.422550410718
 20
3369.545364285313
 30
0.0
 11
4554.422550410719
 21
3369.545364285314
 31
0.0
  0
LINE
  5
1566B
330
747D
100
AcDbEntity
  8
細線
 48
0.2
100
AcDbLine
 10
4574.422550410718
 20
3367.045364285313
 30
0.0
 11
4554.422550410719
 21
3367.045364285313
 31
0.0
  0
ARC
  5
1566C
330
747D
100
AcDbEntity
  8
細線
 48
0.2
100
AcDbCircle
 10
4571.422550410718
 20
3367.074854454064
 30
0.0
 40
1.0
100
AcDbArc
 50
286.6015495990217
 51
0.0
  0
LINE
  5
1566D
330
747D
100
AcDbEntity
  8
部品1
 48
0.2
100
AcDbLine
 10
4574.422550410718
 20
3374.045364285313
 30
0.0
 11
4554.422550410719
 21
3374.045364285313
 31
0.0
  0
LINE
  5
1566E
330
747D
100
AcDbEntity
  8
細線
 48
0.2
100
AcDbLine
 10
4574.422550410718
 20
3371.545364285312
 30
0.0
 11
4554.422550410719
 21
3371.545364285312
 31
0.0
  0
ARC
  5
1566F
330
747D
100
AcDbEntity
  8
部品1
100
AcDbCircle
 10
4974.484998239399
 20
4262.795364285294
 30
0.0
 40
300.0
100
AcDbArc
 50
169.4161974034894
 51
190.5838025965105
  0
ARC
  5
15670
330
747D
100
AcDbEntity
  8
細線
100
AcDbCircle
 10
4411.882216331474
 20
4262.795364285294
 30
0.0
 40
294.0
100
AcDbArc
 50
351.900449161722
 51
8.099550838278029
  0
ARC
  5
15671
330
747D
100
AcDbEntity
  8
細線
100
AcDbCircle
 10
4974.484998239399
 20
4262.795364285294
 30
0.0
 40
294.0
100
AcDbArc
 50
171.212062677364
 51
188.7879373226359
  0
ARC
  5
15672
330
747D
100
AcDbEntity
  8
細線
100
AcDbCircle
 10
4974.484998239399
 20
4262.795364285294
 30
0.0
 40
298.5
100
AcDbArc
 50
169.578549027269
 51
190.4214509727309
  0
LINE
  5
15673
330
747D
100
AcDbEntity
  8
細線
100
AcDbLine
 10
4698.484998239399
 20
4312.795364285295
 30
0.0
 11
4698.484998239399
 21
4212.795364285295
 31
0.0
  0
LINE
  5
15674
330
747D
100
AcDbEntity
  8
部品1
100
AcDbLine
 10
4732.484998239399
 20
4208.795364285295
 30
0.0
 11
4732.484998239399
 21
4316.795364285296
 31
0.0
  0
LINE
  5
15675
330
747D
100
AcDbEntity
  8
細線
100
AcDbLine
 10
4730.984998239398
 20
4209.795364285295
 30
0.0
 11
4730.984998239398
 21
4315.795364285295
 31
0.0
  0
LINE
  5
15676
330
747D
100
AcDbEntity
  8
細線
100
AcDbLine
 10
4726.484998239398
 20
4218.795364285295
 30
0.0
 11
4726.484998239398
 21
4306.795364285295
 31
0.0
  0
LINE
  5
15677
330
747D
100
AcDbEntity
  8
細線
100
AcDbLine
 10
4716.692537418144
 20
4221.795364285295
 30
0.0
 11
4716.692537418144
 21
4303.795364285295
 31
0.0
  0
LINE
  5
15678
330
747D
100
AcDbEntity
  8
細線
100
AcDbLine
 10
4689.865954603877
 20
4212.795364285295
 30
0.0
 11
4720.484998239398
 21
4212.795364285295
 31
0.0
  0
LINE
  5
15679
330
747D
100
AcDbEntity
  8
細線
100
AcDbLine
 10
4698.484998239399
 20
4215.795364285295
 30
0.0
 11
4710.692537418145
 21
4215.795364285295
 31
0.0
  0
LINE
  5
1567A
330
747D
100
AcDbEntity
  8
細線
100
AcDbLine
 10
4698.484998239399
 20
4218.795872183856
 30
0.0
 11
4685.006293740577
 21
4218.795872183856
 31
0.0
  0
ARC
  5
1567B
330
747D
100
AcDbEntity
  8
細線
100
AcDbCircle
 10
4689.865954603877
 20
4218.795364285295
 30
0.0
 40
6.0
100
AcDbArc
 50
188.7879373226349
 51
270.0
  0
ARC
  5
1567C
330
747D
100
AcDbEntity
  8
細線
100
AcDbCircle
 10
4699.979422149233
 20
4221.795364285295
 30
0.0
 40
3.0
100
AcDbArc
 50
270.0
 51
351.9004491617184
  0
LINE
  5
1567D
330
747D
100
AcDbEntity
  8
細線
100
AcDbLine
 10
4698.484998239399
 20
4218.795364285295
 30
0.0
 11
4699.979422149233
 21
4218.795364285295
 31
0.0
  0
ARC
  5
1567E
330
747D
100
AcDbEntity
  8
細線
100
AcDbCircle
 10
4710.692537418145
 20
4221.795364285295
 30
0.0
 40
6.0
100
AcDbArc
 50
270.0
 51
360.0
  0
ARC
  5
1567F
330
747D
100
AcDbEntity
  8
細線
100
AcDbCircle
 10
4720.484998239398
 20
4218.795364285295
 30
0.0
 40
6.0
100
AcDbArc
 50
270.0
 51
0.0
  0
LINE
  5
15680
330
747D
100
AcDbEntity
  8
部品1
100
AcDbLine
 10
4685.486728348383
 20
4202.795364285296
 30
0.0
 11
4726.484998239398
 21
4202.795364285296
 31
0.0
  0
LINE
  5
15681
330
747D
100
AcDbEntity
  8
細線
100
AcDbLine
 10
4686.318379770153
 20
4204.295364285296
 30
0.0
 11
4725.484998239399
 21
4204.295364285296
 31
0.0
  0
ARC
  5
15682
330
747D
100
AcDbEntity
  8
部品1
100
AcDbCircle
 10
4685.486728348383
 20
4208.795364285295
 30
0.0
 40
6.0
100
AcDbArc
 50
190.5838025965097
 51
270.0
  0
ARC
  5
15683
330
747D
100
AcDbEntity
  8
細線
100
AcDbCircle
 10
4686.318379770153
 20
4209.795364285295
 30
0.0
 40
5.5
100
AcDbArc
 50
190.4214509727298
 51
269.9999999999997
  0
ARC
  5
15684
330
747D
100
AcDbEntity
  8
部品1
100
AcDbCircle
 10
4726.484998239398
 20
4208.795364285295
 30
0.0
 40
6.0
100
AcDbArc
 50
270.0
 51
0.0
  0
ARC
  5
15685
330
747D
100
AcDbEntity
  8
細線
100
AcDbCircle
 10
4725.484998239399
 20
4209.795364285295
 30
0.0
 40
5.5
100
AcDbArc
 50
270.0
 51
0.0
  0
LINE
  5
15686
330
747D
100
AcDbEntity
  8
部品1
100
AcDbLine
 10
4726.484998239398
 20
4322.795364285295
 30
0.0
 11
4685.486728348383
 21
4322.795364285295
 31
0.0
  0
LINE
  5
15687
330
747D
100
AcDbEntity
  8
細線
100
AcDbLine
 10
4720.484998239398
 20
4312.795364285295
 30
0.0
 11
4689.865954603877
 21
4312.795364285295
 31
0.0
  0
LINE
  5
15688
330
747D
100
AcDbEntity
  8
細線
100
AcDbLine
 10
4710.692537418145
 20
4309.795364285295
 30
0.0
 11
4698.484998239399
 21
4309.795364285295
 31
0.0
  0
LINE
  5
15689
330
747D
100
AcDbEntity
  8
細線
100
AcDbLine
 10
4725.484998239399
 20
4321.295364285295
 30
0.0
 11
4686.318379770153
 21
4321.295364285295
 31
0.0
  0
ARC
  5
1568A
330
747D
100
AcDbEntity
  8
部品1
100
AcDbCircle
 10
4685.486728348383
 20
4316.795364285296
 30
0.0
 40
6.0
100
AcDbArc
 50
90.0
 51
169.4161974034886
  0
ARC
  5
1568B
330
747D
100
AcDbEntity
  8
細線
100
AcDbCircle
 10
4686.318379770153
 20
4315.795364285295
 30
0.0
 40
5.5
100
AcDbArc
 50
89.99999999999969
 51
169.5785490272683
  0
LINE
  5
1568C
330
747D
100
AcDbEntity
  8
細線
100
AcDbLine
 10
4698.484998239399
 20
4306.794856386733
 30
0.0
 11
4685.721671023432
 21
4306.794856386733
 31
0.0
  0
ARC
  5
1568D
330
747D
100
AcDbEntity
  8
細線
100
AcDbCircle
 10
4689.865954603877
 20
4306.795364285295
 30
0.0
 40
6.0
100
AcDbArc
 50
90.0
 51
171.2120626773636
  0
ARC
  5
1568E
330
747D
100
AcDbEntity
  8
細線
100
AcDbCircle
 10
4699.979422149232
 20
4303.795364285295
 30
0.0
 40
3.0
100
AcDbArc
 50
8.099550838277986
 51
90.0
  0
LINE
  5
1568F
330
747D
100
AcDbEntity
  8
細線
100
AcDbLine
 10
4699.979422149232
 20
4306.795364285295
 30
0.0
 11
4698.484998239399
 21
4306.795364285295
 31
0.0
  0
ARC
  5
15690
330
747D
100
AcDbEntity
  8
部品1
100
AcDbCircle
 10
4726.484998239398
 20
4316.795364285296
 30
0.0
 40
6.0
100
AcDbArc
 50
0.0
 51
90.0
  0
ARC
  5
15691
330
747D
100
AcDbEntity
  8
細線
100
AcDbCircle
 10
4725.484998239399
 20
4315.795364285295
 30
0.0
 40
5.5
100
AcDbArc
 50
0.0
 51
90.0
  0
ARC
  5
15692
330
747D
100
AcDbEntity
  8
細線
100
AcDbCircle
 10
4710.692537418145
 20
4303.795364285295
 30
0.0
 40
6.0
100
AcDbArc
 50
0.0
 51
90.0
  0
ARC
  5
15693
330
747D
100
AcDbEntity
  8
細線
100
AcDbCircle
 10
4720.484998239398
 20
4306.795364285295
 30
0.0
 40
6.0
100
AcDbArc
 50
0.0
 51
90.0
  0
CIRCLE
  5
15694
330
747D
100
AcDbEntity
  8
細線
 48
20.0
100
AcDbCircle
 10
4705.985863293892
 20
4363.295364285295
 30
0.0
 40
10.0
  0
CIRCLE
  5
15695
330
747D
100
AcDbEntity
  8
細線
 48
20.0
100
AcDbCircle
 10
4705.985863293892
 20
4363.295364285295
 30
0.0
 40
20.0
  0
LINE
  5
156A5
330
747D
100
AcDbEntity
  8
部品1
 48
50.0
100
AcDbLine
 10
4554.422550410719
 20
5151.545364285295
 30
0.0
 11
4554.422550410719
 21
5158.295364285296
 31
0.0
  0
LINE
  5
156A6
330
747D
100
AcDbEntity
  8
細線
 48
0.1
100
AcDbLine
 10
4574.422550410718
 20
5158.545364285295
 30
0.0
 11
4574.422550410718
 21
5151.545364285295
 31
0.0
  0
LINE
  5
156A7
330
747D
100
AcDbEntity
  8
細線
 48
50.0
100
AcDbLine
 10
4562.559793216415
 20
5156.045364285295
 30
0.0
 11
4562.559793216416
 21
5154.045364285295
 31
0.0
  0
LINE
  5
156A8
330
747D
100
AcDbEntity
  8
細線
 48
50.0
100
AcDbLine
 10
4570.410203262379
 20
5156.045364285295
 30
0.0
 11
4570.410203262379
 21
5154.045364285295
 31
0.0
  0
LINE
  5
156A9
330
747D
100
AcDbEntity
  8
細線
 48
0.2
100
AcDbLine
 10
4574.422550410718
 20
5154.045364285295
 30
0.0
 11
4554.422550410719
 21
5154.045364285295
 31
0.0
  0
LINE
  5
156AA
330
747D
100
AcDbEntity
  8
部品1
 48
0.2
100
AcDbLine
 10
4574.422550410718
 20
5151.545364285295
 30
0.0
 11
4554.422550410719
 21
5151.545364285295
 31
0.0
  0
LINE
  5
156AB
330
747D
100
AcDbEntity
  8
細線
 48
50.0
100
AcDbLine
 10
4554.422550410719
 20
5158.295364285296
 30
0.0
 11
4554.422550410719
 21
5158.545364285295
 31
0.0
  0
LINE
  5
156AC
330
747D
100
AcDbEntity
  8
部品1
100
AcDbLine
 10
4574.422550410719
 20
5158.295364285296
 30
0.0
 11
4574.484998239401
 21
5158.295364285294
 31
0.0
  0
LINE
  5
156AD
330
747D
100
AcDbEntity
  8
細線
 48
0.2
100
AcDbLine
 10
4574.422550410718
 20
5158.545364285295
 30
0.0
 11
4554.422550410719
 21
5158.545364285295
 31
0.0
  0
LINE
  5
156AE
330
747D
100
AcDbEntity
  8
細線
 48
0.2
100
AcDbLine
 10
4574.422550410718
 20
5156.045364285295
 30
0.0
 11
4554.422550410719
 21
5156.045364285295
 31
0.0
  0
ARC
  5
156AF
330
747D
100
AcDbEntity
  8
細線
 48
0.2
100
AcDbCircle
 10
4561.422550410719
 20
5158.515874116543
 30
0.0
 40
1.0
100
AcDbArc
 50
106.6015495990225
 51
180.0000000000016
  0
ARC
  5
156B0
330
747D
100
AcDbEntity
  8
細線
 48
0.2
100
AcDbCircle
 10
4571.422550410718
 20
5158.515874116543
 30
0.0
 40
1.0
100
AcDbArc
 50
0.0
 51
73.39845040097829
  0
ARC
  5
156B1
330
747D
100
AcDbEntity
  8
細線
 48
0.2
100
AcDbCircle
 10
4566.422550410719
 20
5141.745364285299
 30
0.0
 40
18.49999999999796
100
AcDbArc
 50
73.39845040097829
 51
106.6015495990228
  0
LINE
  5
156B2
330
747D
100
AcDbEntity
  8
細線
 48
0.2
100
AcDbLine
 10
4572.106541707227
 20
5159.245364285296
 30
0.0
 11
4560.738559114215
 21
5159.245364285296
 31
0.0
  0
LINE
  5
156C0
330
747D
100
AcDbEntity
  8
部品1
 48
50.0
100
AcDbLine
 10
4648.985004917036
 20
9448.08400249993
 30
0.0
 11
4648.985004917038
 21
8998.084002499931
 31
0.0
  0
LINE
  5
156C1
330
747D
100
AcDbEntity
  8
部品1
 48
50.0
100
AcDbLine
 10
4589.985004917038
 20
9448.084002499982
 30
0.0
 11
4589.985004917038
 21
8998.084002499982
 31
0.0
  0
LINE
  5
156C2
330
747D
100
AcDbEntity
  8
細線
 48
50.0
100
AcDbLine
 10
4589.985004917036
 20
8998.084002499982
 30
0.0
 11
3828.985004916905
 21
9448.084002500001
 31
0.0
  0
LINE
  5
156C3
330
747D
100
AcDbEntity
  8
細線
 48
50.0
100
AcDbLine
 10
4589.985004917038
 20
9448.084002499982
 30
0.0
 11
3828.985004917044
 21
8998.084002499933
 31
0.0
  0
LINE
  5
156C4
330
747D
100
AcDbEntity
  8
部品1
 48
50.0
100
AcDbLine
 10
4647.484998239386
 20
8162.58400249991
 30
0.0
 11
4647.484998239331
 21
9477.584002499916
 31
0.0
  0
LINE
  5
156C5
330
747D
100
AcDbEntity
  8
部品1
 48
50.0
100
AcDbLine
 10
4591.484998239386
 20
8162.58400249991
 30
0.0
 11
4591.484998239333
 21
9449.584002499916
 31
0.0
  0
LINE
  5
156C6
330
747D
100
AcDbEntity
  8
部品1
 48
50.0
100
AcDbLine
 10
4619.484998239386
 20
8162.58400249991
 30
0.0
 11
4619.484998239386
 21
9422.584002499915
 31
0.0
  0
LINE
  5
156C7
330
747D
100
AcDbEntity
  8
破線
 48
10.0
100
AcDbLine
 10
4698.484998239393
 20
8262.584002499924
 30
0.0
 11
4698.484989070288
 21
8805.083996948072
 31
0.0
  0
LINE
  5
156C8
330
747D
100
AcDbEntity
  8
破線
 48
10.0
100
AcDbLine
 10
4540.484998239393
 20
8262.584002499917
 30
0.0
 11
4540.484992077129
 21
8805.08400346992
 31
0.0
  0
LINE
  5
156C9
330
747D
100
AcDbEntity
  8
部品1
 48
50.0
100
AcDbLine
 10
4563.984998239386
 20
8239.084002499916
 30
0.0
 11
4563.98499823936
 21
8998.084002499975
 31
0.0
  0
LINE
  5
156CA
330
747D
100
AcDbEntity
  8
部品1
 48
50.0
100
AcDbLine
 10
4674.9849918951
 20
8239.084002524576
 30
0.0
 11
4674.984994867962
 21
8998.084002499917
 31
0.0
  0
LINE
  5
156CB
330
747D
100
AcDbEntity
  8
破線
 48
10.0
100
AcDbLine
 10
4540.484998239393
 20
8262.584002499895
 30
0.0
 11
3879.484998239393
 21
8262.584002499878
 31
0.0
  0
LINE
  5
156CC
330
747D
100
AcDbEntity
  8
部品1
100
AcDbLine
 10
4563.985568687566
 20
8239.083421679952
 30
0.0
 11
3855.985969665793
 21
8239.082920191426
 31
0.0
  0
LINE
  5
156CD
330
747D
100
AcDbEntity
  8
部品1
100
AcDbLine
 10
4670.484998239401
 20
8107.584002499859
 30
0.0
 11
3799.484998239401
 21
8107.584002499825
 31
0.0
  0
LINE
  5
156CF
330
747D
100
AcDbEntity
  8
部品1
100
AcDbLine
 10
4574.484998239401
 20
8133.584002499922
 30
0.0
 11
3844.484998239401
 21
8133.58400249989
 31
0.0
  0
LINE
  5
156D0
330
747D
100
AcDbEntity
  8
細線
 48
50.0
100
AcDbLine
 10
4154.4849982394
 20
8133.584002499931
 30
0.0
 11
4154.4849982394
 21
8107.584002499894
 31
0.0
  0
LINE
  5
156D1
330
747D
100
AcDbEntity
  8
細線
 48
50.0
100
AcDbLine
 10
4194.484998239401
 20
8133.584002499931
 30
0.0
 11
4194.484998239401
 21
8107.584002499894
 31
0.0
  0
LINE
  5
156D2
330
747D
100
AcDbEntity
  8
部品1
 48
5.0
100
AcDbLine
 10
4591.484998239386
 20
8162.58400249991
 30
0.0
 11
4647.484998239386
 21
8162.58400249991
 31
0.0
  0
LINE
  5
156D3
330
747D
100
AcDbEntity
  8
部品1
 48
5.0
100
AcDbLine
 10
4576.484998239402
 20
8107.58400249991
 30
0.0
 11
4662.484998239402
 21
8107.58400249991
 31
0.0
  0
LINE
  5
156D4
330
747D
100
AcDbEntity
  8
細線
 48
50.0
100
AcDbLine
 10
4421.4849982394
 20
8133.584002500146
 30
0.0
 11
4421.4849982394
 21
8107.584002500109
 31
0.0
  0
LINE
  5
156D5
330
747D
100
AcDbEntity
  8
細線
 48
50.0
100
AcDbLine
 10
4381.4849982394
 20
8133.584002500146
 30
0.0
 11
4381.4849982394
 21
8107.584002500109
 31
0.0
  0
LINE
  5
156D6
330
747D
100
AcDbEntity
  8
部品1
 48
50.0
100
AcDbLine
 10
4591.484998239386
 20
8211.084002499909
 30
0.0
 11
4563.984998239386
 21
8239.084002499916
 31
0.0
  0
LINE
  5
156D7
330
747D
100
AcDbEntity
  8
部品1
 48
5.0
100
AcDbLine
 10
4587.484998239403
 20
8162.58400249991
 30
0.0
 11
4564.4849982394
 21
8162.58400249991
 31
0.0
  0
LINE
  5
156D8
330
747D
100
AcDbEntity
  8
部品1
100
AcDbLine
 10
4574.484998239401
 20
8133.58400249996
 30
0.0
 11
4574.484998239401
 21
8107.584002499901
 31
0.0
  0
LINE
  5
156D9
330
747D
100
AcDbEntity
  8
部品1
100
AcDbLine
 10
4576.484998239401
 20
8137.084002499852
 30
0.0
 11
4576.484998239396
 21
8107.584002499901
 31
0.0
  0
LINE
  5
156DA
330
747D
100
AcDbEntity
  8
部品1
 48
5.0
100
AcDbLine
 10
4576.484998239402
 20
8137.084002499909
 30
0.0
 11
4576.484998239402
 21
8107.58400249991
 31
0.0
  0
ARC
  5
156DB
330
747D
100
AcDbEntity
  8
部品1
 48
0.2
100
AcDbCircle
 10
4566.547446068078
 20
8108.58163245513
 30
0.0
 40
8.0
100
AcDbArc
 50
270.0
 51
352.8363522778074
  0
ARC
  5
156DC
330
747D
100
AcDbEntity
  8
部品1
 48
0.2
100
AcDbCircle
 10
4561.547446068078
 20
8108.58163245513
 30
0.0
 40
8.0
100
AcDbArc
 50
187.1636477221926
 51
269.9999999999992
  0
ARC
  5
156DD
330
747D
100
AcDbEntity
  8
細線
 48
0.2
100
AcDbCircle
 10
4566.547446068078
 20
8108.58163245513
 30
0.0
 40
4.049999999999999
100
AcDbArc
 50
194.2603506853988
 51
345.7396493146012
  0
LINE
  5
156DE
330
747D
100
AcDbEntity
  8
部品1
 48
0.2
100
AcDbLine
 10
4561.547446068078
 20
8100.58163245513
 30
0.0
 11
4566.547446068078
 21
8100.58163245513
 31
0.0
  0
LINE
  5
156DF
330
747D
100
AcDbEntity
  8
部品1
 48
5.0
100
AcDbLine
 10
4595.484998239402
 20
8162.58400249991
 30
0.0
 11
4595.484998239402
 21
8137.084002499909
 31
0.0
  0
LINE
  5
156E0
330
747D
100
AcDbEntity
  8
部品1
 48
5.0
100
AcDbLine
 10
4564.484998239403
 20
8162.58400249991
 30
0.0
 11
4564.484998239404
 21
8137.084002499909
 31
0.0
  0
LINE
  5
156E1
330
747D
100
AcDbEntity
  8
細線
 48
50.0
100
AcDbLine
 10
4788.4849982394
 20
8133.584002499942
 30
0.0
 11
4788.4849982394
 21
8107.584002499894
 31
0.0
  0
LINE
  5
156E2
330
747D
100
AcDbEntity
  8
部品1
 48
50.0
100
AcDbLine
 10
4674.984998239384
 20
8239.084002524583
 30
0.0
 11
4647.484998239386
 21
8211.084002499909
 31
0.0
  0
LINE
  5
156E3
330
747D
100
AcDbEntity
  8
部品1
 48
5.0
100
AcDbLine
 10
4651.484998239403
 20
8162.58400249991
 30
0.0
 11
4674.484998239402
 21
8162.58400249991
 31
0.0
  0
LINE
  5
156E4
330
747D
100
AcDbEntity
  8
部品1
100
AcDbLine
 10
4664.484998239401
 20
8133.584002499931
 30
0.0
 11
4664.484998239401
 21
8107.584002499894
 31
0.0
  0
LINE
  5
156E5
330
747D
100
AcDbEntity
  8
部品1
100
AcDbLine
 10
4662.484998239401
 20
8137.084002499859
 30
0.0
 11
4662.484998239402
 21
8107.58400249991
 31
0.0
  0
LINE
  5
156E6
330
747D
100
AcDbEntity
  8
部品1
 48
5.0
100
AcDbLine
 10
4662.484998239402
 20
8137.084002499909
 30
0.0
 11
4662.484998239402
 21
8107.58400249991
 31
0.0
  0
LINE
  5
156E7
330
747D
100
AcDbEntity
  8
部品1
 48
5.0
100
AcDbLine
 10
4674.484998239402
 20
8162.58400249991
 30
0.0
 11
4674.484998239404
 21
8137.084002499909
 31
0.0
  0
LINE
  5
156E8
330
747D
100
AcDbEntity
  8
部品1
 48
5.0
100
AcDbLine
 10
4643.484998239403
 20
8162.58400249991
 30
0.0
 11
4643.484998239403
 21
8137.084002499909
 31
0.0
  0
LINE
  5
156EA
330
747D
100
AcDbEntity
  8
部品1
 48
5.0
100
AcDbLine
 10
4619.484998239386
 20
8582.58400249991
 30
0.0
 11
4591.484998239335
 21
8582.584002499917
 31
0.0
  0
LINE
  5
156EB
330
747D
100
AcDbEntity
  8
部品1
 48
50.0
100
AcDbLine
 10
4619.484998239379
 20
9002.584002499917
 30
0.0
 11
4647.48499823936
 21
9002.584002499917
 31
0.0
  0
LINE
  5
156EC
330
747D
100
AcDbEntity
  8
部品1
 48
50.0
100
AcDbLine
 10
4619.484998239379
 20
9040.584002499917
 30
0.0
 11
4647.48499823936
 21
9040.584002499917
 31
0.0
  0
LINE
  5
156ED
330
747D
100
AcDbEntity
  8
部品1
 48
5.0
100
AcDbLine
 10
4619.484998239386
 20
9002.584002499908
 30
0.0
 11
4591.484998239335
 21
9002.584002499917
 31
0.0
  0
LINE
  5
156F1
330
747D
100
AcDbEntity
  8
細線
 48
50.0
100
AcDbLine
 10
4239.484998239407
 20
9456.084002499753
 30
0.0
 11
4179.484998239408
 21
9456.084002499748
 31
0.0
  0
LINE
  5
156F2
330
747D
100
AcDbEntity
  8
細線
 48
50.0
100
AcDbLine
 10
4239.484998239407
 20
9456.084002499753
 30
0.0
 11
4239.484998239406
 21
9477.584002499757
 31
0.0
  0
LINE
  5
156F3
330
747D
100
AcDbEntity
  8
細線
 48
50.0
100
AcDbLine
 10
4179.484998239408
 20
9456.084002499753
 30
0.0
 11
4179.484998239406
 21
9477.584002499749
 31
0.0
  0
LINE
  5
156F4
330
747D
100
AcDbEntity
  8
部品1
 48
5.0
100
AcDbLine
 10
4647.484998239335
 20
9422.584002499915
 30
0.0
 11
4591.484998239335
 21
9422.584002499915
 31
0.0
  0
DIMENSION
  5
156F5
330
747D
100
AcDbEntity
  8
寸法
 48
50.0
100
AcDbDimension
  2
*D16
 10
4674.484998239409
 20
9693.39222212497
 30
0.0
 11
4619.484998239408
 21
9793.392222124971
 31
0.0
 70
    32
 71
     5
 42
110.0000000000036
  3
INABA_S40G
100
AcDbAlignedDimension
 13
4564.484998239406
 23
9477.584002499989
 33
0.0
 14
4674.484998239409
 24
9477.584002499966
 34
0.0
100
AcDbRotatedDimension
  0
LINE
  5
156F6
330
747D
100
AcDbEntity
  8
部品1
 48
50.0
100
AcDbLine
 10
4589.985004917038
 20
9448.029489840159
 30
0.0
 11
4591.484998239333
 21
9449.584002499916
 31
0.0
  0
LINE
  5
156F7
330
747D
100
AcDbEntity
  8
部品1
 48
5.0
100
AcDbLine
 10
4564.484998239404
 20
9449.584002499916
 30
0.0
 11
4564.484998239406
 21
9477.584002499916
 31
0.0
  0
LINE
  5
156F8
330
747D
100
AcDbEntity
  8
部品1
 48
5.0
100
AcDbLine
 10
4594.194272686581
 20
9477.584002499916
 30
0.0
 11
4616.865701258009
 21
9449.584002499916
 31
0.0
  0
LINE
  5
156F9
330
747D
100
AcDbEntity
  8
部品1
 48
5.0
100
AcDbLine
 10
4674.484998239409
 20
9477.584002499916
 30
0.0
 11
4674.484998239404
 21
9449.584002499923
 31
0.0
  0
LINE
  5
156FA
330
747D
100
AcDbEntity
  8
部品1
 48
50.0
100
AcDbLine
 10
4648.984998239338
 20
9448.029480979657
 30
0.0
 11
4647.484998239334
 21
9449.584002499916
 31
0.0
  0
LINE
  5
156FB
330
747D
100
AcDbEntity
  8
想像線
 48
10.0
100
AcDbLine
 10
4574.484998239401
 20
8107.58400249991
 30
0.0
 11
4574.484998239401
 21
7386.666358844118
 31
0.0
  0
ARC
  5
156FC
330
747D
100
AcDbEntity
  8
想像線
 48
10.0
100
AcDbCircle
 10
4567.132947562244
 20
8109.27889587548
 30
0.0
 40
722.6499369155621
100
AcDbArc
 50
180.1343808685507
 51
270.5829222700352
  0
LINE
  5
15779
330
747D
100
AcDbEntity
  8
部品1
100
AcDbLine
 10
3799.484998239372
 20
9477.584002499837
 30
0.0
 11
7899.484998239408
 21
9477.584002499966
 31
0.0
  0
LINE
  5
1577A
330
747D
100
AcDbEntity
  8
部品1
100
AcDbLine
 10
3827.484998239402
 20
9449.584002499875
 30
0.0
 11
4616.86570125803
 21
9449.584002499895
 31
0.0
  0
LINE
  5
1577B
330
747D
100
AcDbEntity
  8
部品1
100
AcDbLine
 10
3828.985004916976
 20
9448.084002499937
 30
0.0
 11
4589.985004917038
 21
9448.084002499982
 31
0.0
  0
LINE
  5
1577E
330
747D
100
AcDbEntity
  8
部品1
100
AcDbLine
 10
3828.985004917038
 20
8998.084002499933
 30
0.0
 11
4589.985004917036
 21
8998.084002499982
 31
0.0
  0
LINE
  5
15782
330
747D
100
AcDbEntity
  8
部品1
 48
5.0
100
AcDbLine
 10
3842.484998239401
 20
8137.084002499795
 30
0.0
 11
4595.484998239402
 21
8137.084002499852
 31
0.0
  0
LINE
  5
1578A
330
747D
100
AcDbEntity
  8
部品1
100
AcDbLine
 10
3844.484998239401
 20
5158.295364285296
 30
0.0
 11
4554.422550410719
 21
5158.295364285296
 31
0.0
  0
LINE
  5
1578B
330
747D
100
AcDbEntity
  8
部品1
100
AcDbLine
 10
3799.484998239401
 20
5160.79536428529
 30
0.0
 11
7899.484998239401
 21
5160.795364285293
 31
0.0
  0
LINE
  5
1578C
330
747D
100
AcDbEntity
  8
部品1
100
AcDbLine
 10
3799.484998239401
 20
3363.795364285292
 30
0.0
 11
7899.484998239401
 21
3363.795364285314
 31
0.0
  0
LINE
  5
1578D
330
747D
100
AcDbEntity
  8
部品1
100
AcDbLine
 10
3844.484998239401
 20
3367.2953642853
 30
0.0
 11
4554.422550410719
 21
3367.295364285305
 31
0.0
  0
LINE
  5
1578E
330
747D
100
AcDbEntity
  8
部品1
100
AcDbLine
 10
3799.484998239401
 20
3320.795364285294
 30
0.0
 11
7899.484998239401
 21
3320.795364285294
 31
0.0
  0
LINE
  5
1578F
330
747D
100
AcDbEntity
  8
Ｇ．Ｌ
100
AcDbLine
 10
2772.264416145161
 20
3220.795364285294
 30
0.0
 11
12524.0634965472
 21
3220.795364285294
 31
0.0
  0
LINE
  5
15798
330
747D
100
AcDbEntity
  8
細線
 48
50.0
100
AcDbLine
 10
5439.4849982394
 20
5254.795364285291
 30
0.0
 11
5439.4849982394
 21
5160.795364285293
 31
0.0
  0
LINE
  5
15799
330
747D
100
AcDbEntity
  8
細線
 48
50.0
100
AcDbLine
 10
5429.4849982394
 20
5254.795364285292
 30
0.0
 11
5429.4849982394
 21
5395.795364285292
 31
0.0
  0
LINE
  5
157FC
330
747D
100
AcDbEntity
  8
部品1
 48
50.0
100
AcDbLine
 10
5439.4849982394
 20
3363.795364285303
 30
0.0
 11
5439.4849982394
 21
3320.795364285294
 31
0.0
  0
DIMENSION
  5
15855
330
747D
100
AcDbEntity
  8
寸法
100
AcDbDimension
  2
*D17
 10
4564.484998239406
 20
9693.39222212497
 30
0.0
 11
4209.734998239406
 21
9693.39222212497
 31
0.0
 70
   160
 71
     5
 42
709.9999999999981
  3
INABA_S40G
100
AcDbAlignedDimension
 13
3854.484998239409
 23
9477.5840024999
 33
0.0
 14
4564.484998239406
 24
9477.584002499989
 34
0.0
100
AcDbRotatedDimension
1001
ACAD
1000
DSTYLE
1002
{
1002
}
  0
DIMENSION
  5
15864
330
747D
100
AcDbEntity
  8
寸法
 48
50.0
100
AcDbDimension
  2
*D18
 10
6179.4849982394
 20
7667.760334704787
 30
0.0
 11
5836.984998239403
 21
7667.760334704787
 31
0.0
 70
   160
 71
     5
 42
684.9999999999964
  3
INABA_S40G
100
AcDbAlignedDimension
 13
5494.484998239404
 23
8107.584002499866
 33
0.0
 14
6179.4849982394
 24
8107.584002499828
 34
0.0
100
AcDbRotatedDimension
  0
DIMENSION
  5
1587E
330
747D
100
AcDbEntity
  8
寸法
 48
50.0
100
AcDbDimension
  2
*D19
 10
5359.484998239401
 20
7667.760334704787
 30
0.0
 11
5016.984998239403
 21
7667.760334704787
 31
0.0
 70
   160
 71
     5
 42
684.9999999999964
  3
INABA_S40G
100
AcDbAlignedDimension
 13
4674.484998239404
 23
8107.584002499866
 33
0.0
 14
5359.484998239401
 24
8107.584002499828
 34
0.0
100
AcDbRotatedDimension
  0
DIMENSION
  5
15898
330
747D
100
AcDbEntity
  8
寸法
 48
50.0
100
AcDbDimension
  2
*D20
 10
7819.4849982394
 20
7667.760334704787
 30
0.0
 11
7476.984998239402
 21
7667.760334704787
 31
0.0
 70
   160
  1
有効開口部間口\P<>
 71
     5
 42
684.9999999999964
  3
INABA_S40G
100
AcDbAlignedDimension
 13
7134.484998239405
 23
8107.584002499866
 33
0.0
 14
7819.4849982394
 24
8107.584002499828
 34
0.0
100
AcDbRotatedDimension
  0
LINE
  5
15906
330
747D
100
AcDbEntity
  8
部品1
 48
50.0
100
AcDbLine
 10
7049.985004917037
 20
9448.084002499982
 30
0.0
 11
7049.985004917037
 21
8998.084002499982
 31
0.0
  0
LINE
  5
15907
330
747D
100
AcDbEntity
  8
部品1
 48
50.0
100
AcDbLine
 10
7108.984998239339
 20
9448.084002499916
 30
0.0
 11
7108.984998239339
 21
8998.084002499917
 31
0.0
  0
LINE
  5
15908
330
747D
100
AcDbEntity
  8
細線
 48
50.0
100
AcDbLine
 10
7869.98499823934
 20
8998.08400249991
 30
0.0
 11
7108.984998239339
 21
9448.084002499916
 31
0.0
  0
LINE
  5
15909
330
747D
100
AcDbEntity
  8
細線
 48
50.0
100
AcDbLine
 10
7869.98499823934
 20
9448.084002499909
 30
0.0
 11
7108.984998239339
 21
8998.084002499917
 31
0.0
  0
LINE
  5
1590A
330
747D
100
AcDbEntity
  8
部品1
 48
50.0
100
AcDbLine
 10
7107.484998239385
 20
8162.58400249991
 30
0.0
 11
7107.484998239332
 21
9477.584002499916
 31
0.0
  0
LINE
  5
1590B
330
747D
100
AcDbEntity
  8
部品1
 48
50.0
100
AcDbLine
 10
7051.484998239387
 20
8162.58400249991
 30
0.0
 11
7051.484998239333
 21
9449.584002499916
 31
0.0
  0
LINE
  5
1590C
330
747D
100
AcDbEntity
  8
部品1
 48
50.0
100
AcDbLine
 10
7079.484998239387
 20
8162.58400249991
 30
0.0
 11
7079.484998239387
 21
9422.584002499915
 31
0.0
  0
LINE
  5
1590D
330
747D
100
AcDbEntity
  8
想像線
 48
10.0
100
AcDbLine
 10
7034.484998239401
 20
8107.58400249991
 30
0.0
 11
7034.484998239401
 21
7386.666358844118
 31
0.0
  0
ARC
  5
1590E
330
747D
100
AcDbEntity
  8
想像線
 48
10.0
100
AcDbCircle
 10
7847.132947562243
 20
8109.278895875496
 30
0.0
 40
722.6499369155638
100
AcDbArc
 50
180.1343808685487
 51
270.5829222700352
  0
LINE
  5
1590F
330
747D
100
AcDbEntity
  8
破線
 48
10.0
100
AcDbLine
 10
7000.484998239393
 20
8262.584002499917
 30
0.0
 11
7000.484992077132
 21
8805.083901927245
 31
0.0
  0
LINE
  5
15910
330
747D
100
AcDbEntity
  8
破線
 48
10.0
100
AcDbLine
 10
7158.484998239393
 20
8262.584002499924
 30
0.0
 11
7158.484989070288
 21
8805.083895405399
 31
0.0
  0
LINE
  5
15911
330
747D
100
AcDbEntity
  8
部品1
 48
50.0
100
AcDbLine
 10
7023.984998239386
 20
8239.084002499916
 30
0.0
 11
7023.98499823936
 21
8998.084002499975
 31
0.0
  0
LINE
  5
15912
330
747D
100
AcDbEntity
  8
部品1
 48
50.0
100
AcDbLine
 10
7134.984991895101
 20
8239.084002524576
 30
0.0
 11
7134.984994867962
 21
8998.084002499917
 31
0.0
  0
LINE
  5
15913
330
747D
100
AcDbEntity
  8
部品1
100
AcDbLine
 10
7842.984026814592
 20
8239.084108212805
 30
0.0
 11
7134.984998239385
 21
8239.084002524583
 31
0.0
  0
LINE
  5
15914
330
747D
100
AcDbEntity
  8
破線
 48
10.0
100
AcDbLine
 10
7819.484998239386
 20
8262.584002499961
 30
0.0
 11
7158.484998239393
 21
8262.584002499924
 31
0.0
  0
LINE
  5
15915
330
747D
100
AcDbEntity
  8
部品1
 48
5.0
100
AcDbLine
 10
7856.484998239382
 20
8137.084002499909
 30
0.0
 11
7103.484998239402
 21
8137.084002499909
 31
0.0
  0
LINE
  5
15916
330
747D
100
AcDbEntity
  8
部品1
100
AcDbLine
 10
7854.484998239401
 20
8133.58400249996
 30
0.0
 11
7124.484998239402
 21
8133.584002499901
 31
0.0
  0
LINE
  5
15918
330
747D
100
AcDbEntity
  8
部品1
 48
5.0
100
AcDbLine
 10
7051.484998239387
 20
8162.58400249991
 30
0.0
 11
7107.484998239385
 21
8162.58400249991
 31
0.0
  0
LINE
  5
15919
330
747D
100
AcDbEntity
  8
部品1
 48
5.0
100
AcDbLine
 10
7036.484998239403
 20
8107.58400249991
 30
0.0
 11
7122.484998239404
 21
8107.58400249991
 31
0.0
  0
LINE
  5
1591A
330
747D
100
AcDbEntity
  8
部品1
 48
50.0
100
AcDbLine
 10
7051.484998239387
 20
8211.084002499909
 30
0.0
 11
7023.984998239386
 21
8239.084002499916
 31
0.0
  0
LINE
  5
1591B
330
747D
100
AcDbEntity
  8
部品1
 48
5.0
100
AcDbLine
 10
7047.484998239403
 20
8162.58400249991
 30
0.0
 11
7024.484998239401
 21
8162.58400249991
 31
0.0
  0
LINE
  5
1591C
330
747D
100
AcDbEntity
  8
部品1
100
AcDbLine
 10
7034.484998239401
 20
8133.58400249996
 30
0.0
 11
7034.484998239401
 21
8107.584002499901
 31
0.0
  0
LINE
  5
1591D
330
747D
100
AcDbEntity
  8
部品1
100
AcDbLine
 10
7036.484998239401
 20
8137.084002499852
 30
0.0
 11
7036.484998239398
 21
8107.584002499901
 31
0.0
  0
LINE
  5
1591E
330
747D
100
AcDbEntity
  8
部品1
 48
5.0
100
AcDbLine
 10
7036.484998239403
 20
8137.084002499909
 30
0.0
 11
7036.484998239403
 21
8107.58400249991
 31
0.0
  0
ARC
  5
1591F
330
747D
100
AcDbEntity
  8
部品1
 48
0.2
100
AcDbCircle
 10
7026.547446068078
 20
8108.58163245513
 30
0.0
 40
8.0
100
AcDbArc
 50
270.0
 51
352.8363522778074
  0
ARC
  5
15920
330
747D
100
AcDbEntity
  8
部品1
 48
0.2
100
AcDbCircle
 10
7021.547446068078
 20
8108.58163245513
 30
0.0
 40
8.0
100
AcDbArc
 50
187.1636477221926
 51
269.9999999999992
  0
ARC
  5
15921
330
747D
100
AcDbEntity
  8
細線
 48
0.2
100
AcDbCircle
 10
7026.547446068078
 20
8108.58163245513
 30
0.0
 40
4.049999999999999
100
AcDbArc
 50
194.2603506853988
 51
345.7396493146012
  0
LINE
  5
15922
330
747D
100
AcDbEntity
  8
部品1
 48
0.2
100
AcDbLine
 10
7021.547446068078
 20
8100.58163245513
 30
0.0
 11
7026.547446068078
 21
8100.58163245513
 31
0.0
  0
LINE
  5
15923
330
747D
100
AcDbEntity
  8
部品1
 48
5.0
100
AcDbLine
 10
7055.484998239403
 20
8162.58400249991
 30
0.0
 11
7055.484998239403
 21
8137.084002499909
 31
0.0
  0
LINE
  5
15924
330
747D
100
AcDbEntity
  8
部品1
 48
5.0
100
AcDbLine
 10
7024.484998239403
 20
8162.58400249991
 30
0.0
 11
7024.484998239405
 21
8137.084002499909
 31
0.0
  0
LINE
  5
15925
330
747D
100
AcDbEntity
  8
細線
 48
50.0
100
AcDbLine
 10
7248.484998239401
 20
8133.584002499942
 30
0.0
 11
7248.484998239401
 21
8107.584002499894
 31
0.0
  0
LINE
  5
15926
330
747D
100
AcDbEntity
  8
部品1
 48
50.0
100
AcDbLine
 10
7134.984998239385
 20
8239.084002524583
 30
0.0
 11
7107.484998239385
 21
8211.084002499909
 31
0.0
  0
LINE
  5
15927
330
747D
100
AcDbEntity
  8
部品1
 48
5.0
100
AcDbLine
 10
7111.484998239403
 20
8162.58400249991
 30
0.0
 11
7134.484998239402
 21
8162.58400249991
 31
0.0
  0
LINE
  5
15928
330
747D
100
AcDbEntity
  8
部品1
100
AcDbLine
 10
7122.4849982394
 20
8137.084002499859
 30
0.0
 11
7122.484998239404
 21
8107.58400249991
 31
0.0
  0
LINE
  5
15929
330
747D
100
AcDbEntity
  8
部品1
100
AcDbLine
 10
7124.484998239402
 20
8133.584002499901
 30
0.0
 11
7124.484998239399
 21
8107.58400249991
 31
0.0
  0
LINE
  5
1592A
330
747D
100
AcDbEntity
  8
部品1
 48
5.0
100
AcDbLine
 10
7122.484998239404
 20
8137.084002499909
 30
0.0
 11
7122.484998239404
 21
8107.58400249991
 31
0.0
  0
LINE
  5
1592B
330
747D
100
AcDbEntity
  8
部品1
 48
5.0
100
AcDbLine
 10
7134.484998239402
 20
8162.58400249991
 30
0.0
 11
7134.484998239405
 21
8137.084002499909
 31
0.0
  0
LINE
  5
1592C
330
747D
100
AcDbEntity
  8
部品1
 48
5.0
100
AcDbLine
 10
7103.484998239405
 20
8162.58400249991
 30
0.0
 11
7103.484998239402
 21
8137.084002499909
 31
0.0
  0
LINE
  5
1592D
330
747D
100
AcDbEntity
  8
細線
 48
50.0
100
AcDbLine
 10
7434.484998239401
 20
8133.584002499931
 30
0.0
 11
7434.484998239401
 21
8107.584002499894
 31
0.0
  0
LINE
  5
1592E
330
747D
100
AcDbEntity
  8
細線
 48
50.0
100
AcDbLine
 10
7474.484998239401
 20
8133.584002499931
 30
0.0
 11
7474.484998239401
 21
8107.584002499894
 31
0.0
  0
LINE
  5
1592F
330
747D
100
AcDbEntity
  8
細線
 48
50.0
100
AcDbLine
 10
7701.484998239401
 20
8133.584002500146
 30
0.0
 11
7701.484998239401
 21
8107.584002500109
 31
0.0
  0
LINE
  5
15930
330
747D
100
AcDbEntity
  8
細線
 48
50.0
100
AcDbLine
 10
7661.484998239401
 20
8133.584002500146
 30
0.0
 11
7661.484998239401
 21
8107.584002500109
 31
0.0
  0
LINE
  5
15931
330
747D
100
AcDbEntity
  8
部品1
100
AcDbLine
 10
7108.984998239339
 20
8998.084002499917
 30
0.0
 11
7869.98499823934
 21
8998.08400249991
 31
0.0
  0
LINE
  5
15933
330
747D
100
AcDbEntity
  8
部品1
 48
5.0
100
AcDbLine
 10
7079.484998239387
 20
8582.58400249991
 30
0.0
 11
7051.484998239335
 21
8582.584002499917
 31
0.0
  0
LINE
  5
15934
330
747D
100
AcDbEntity
  8
部品1
 48
50.0
100
AcDbLine
 10
7079.484998239379
 20
9002.584002499917
 30
0.0
 11
7107.484998239361
 21
9002.584002499917
 31
0.0
  0
LINE
  5
15935
330
747D
100
AcDbEntity
  8
部品1
 48
50.0
100
AcDbLine
 10
7079.484998239379
 20
9040.584002499917
 30
0.0
 11
7107.484998239361
 21
9040.584002499917
 31
0.0
  0
LINE
  5
15936
330
747D
100
AcDbEntity
  8
部品1
 48
5.0
100
AcDbLine
 10
7079.484998239387
 20
9002.584002499908
 30
0.0
 11
7051.484998239335
 21
9002.584002499917
 31
0.0
  0
LINE
  5
15937
330
747D
100
AcDbEntity
  8
部品1
100
AcDbLine
 10
7108.984998239339
 20
9448.084002499916
 30
0.0
 11
7869.98499823934
 21
9448.084002499909
 31
0.0
  0
LINE
  5
15938
330
747D
100
AcDbEntity
  8
部品1
100
AcDbLine
 10
7107.484998239332
 20
9449.584002499916
 30
0.0
 11
7871.484998239409
 21
9449.584002499966
 31
0.0
  0
DIMENSION
  5
15939
330
747D
100
AcDbEntity
  8
寸法
 48
50.0
100
AcDbDimension
  2
*D21
 10
7134.484998239409
 20
9693.39222212497
 30
0.0
 11
7489.484998239409
 21
9793.392222124971
 31
0.0
 70
    32
 71
     5
 42
709.9999999999981
  3
INABA_S40G
100
AcDbAlignedDimension
 13
7844.484998239408
 23
9477.584002499982
 33
0.0
 14
7134.484998239409
 24
9477.584002499966
 34
0.0
100
AcDbRotatedDimension
  0
LINE
  5
1593A
330
747D
100
AcDbEntity
  8
部品1
 48
5.0
100
AcDbLine
 10
7107.484998239335
 20
9422.584002499915
 30
0.0
 11
7051.484998239335
 21
9422.584002499915
 31
0.0
  0
LINE
  5
1593B
330
747D
100
AcDbEntity
  8
部品1
 48
50.0
100
AcDbLine
 10
7049.985004917037
 20
9448.029489840159
 30
0.0
 11
7051.484998239333
 21
9449.584002499916
 31
0.0
  0
LINE
  5
1593C
330
747D
100
AcDbEntity
  8
部品1
 48
5.0
100
AcDbLine
 10
7054.194272686583
 20
9477.584002499916
 30
0.0
 11
7076.865701258009
 21
9449.584002499916
 31
0.0
  0
LINE
  5
1593D
330
747D
100
AcDbEntity
  8
部品1
 48
5.0
100
AcDbLine
 10
7024.484998239405
 20
9449.584002499916
 30
0.0
 11
7024.484998239405
 21
9477.584002499916
 31
0.0
  0
LINE
  5
1593E
330
747D
100
AcDbEntity
  8
部品1
 48
5.0
100
AcDbLine
 10
7134.484998239409
 20
9477.584002499916
 30
0.0
 11
7134.484998239405
 21
9449.584002499923
 31
0.0
  0
LINE
  5
1593F
330
747D
100
AcDbEntity
  8
部品1
 48
50.0
100
AcDbLine
 10
7108.984998239339
 20
9448.029480979657
 30
0.0
 11
7107.484998239333
 21
9449.584002499916
 31
0.0
  0
LINE
  5
15940
330
747D
100
AcDbEntity
  8
細線
 48
50.0
100
AcDbLine
 10
7519.484991561708
 20
9456.084002500011
 30
0.0
 11
7459.484991561708
 21
9456.084002500007
 31
0.0
  0
LINE
  5
15941
330
747D
100
AcDbEntity
  8
細線
 48
50.0
100
AcDbLine
 10
7459.484991561708
 20
9456.084002500011
 30
0.0
 11
7459.484991561708
 21
9477.584002500007
 31
0.0
  0
LINE
  5
15942
330
747D
100
AcDbEntity
  8
細線
 48
50.0
100
AcDbLine
 10
7519.484991561708
 20
9456.084002500011
 30
0.0
 11
7519.484991561707
 21
9477.584002500014
 31
0.0
  0
DIMENSION
  5
15943
330
747D
100
AcDbEntity
  8
寸法
 48
50.0
100
AcDbDimension
  2
*D22
 10
7134.484998239409
 20
9693.39222212497
 30
0.0
 11
7079.484998239408
 21
9793.392222124971
 31
0.0
 70
    32
 71
     5
 42
110.0000000000036
  3
INABA_S40G
100
AcDbAlignedDimension
 13
7024.484998239405
 23
9477.584002499989
 33
0.0
 14
7134.484998239409
 24
9477.584002499966
 34
0.0
100
AcDbRotatedDimension
  0
LINE
  5
1598C
330
747D
100
AcDbEntity
  8
部品1
100
AcDbLine
 10
7122.4849982394
 20
5160.795364285293
 30
0.0
 11
7122.4849982394
 21
3363.795364285314
 31
0.0
  0
LINE
  5
1598D
330
747D
100
AcDbEntity
  8
部品1
100
AcDbLine
 10
7124.4849982394
 20
5158.295364285294
 30
0.0
 11
7124.484998239402
 21
3367.295364285307
 31
0.0
  0
LINE
  5
1598E
330
747D
100
AcDbEntity
  8
部品1
100
AcDbLine
 10
7034.484998239399
 20
5158.295364285294
 30
0.0
 11
7034.484998239403
 21
3367.295364285315
 31
0.0
  0
LINE
  5
1598F
330
747D
100
AcDbEntity
  8
部品1
100
AcDbLine
 10
7036.484998239401
 20
5160.795364285293
 30
0.0
 11
7036.484998239401
 21
3363.795364285314
 31
0.0
  0
LINE
  5
15990
330
747D
100
AcDbEntity
  8
部品1
100
AcDbLine
 10
7124.484998239402
 20
3367.295364285308
 30
0.0
 11
7834.42255041072
 21
3367.295364285314
 31
0.0
  0
LINE
  5
15991
330
747D
100
AcDbEntity
  8
細線
 48
0.1
100
AcDbLine
 10
7034.422550410718
 20
3367.045364285313
 30
0.0
 11
7034.422550410718
 21
3374.045364285313
 31
0.0
  0
LINE
  5
15992
330
747D
100
AcDbEntity
  8
細線
 48
50.0
100
AcDbLine
 10
7022.559793216416
 20
3369.545364285314
 30
0.0
 11
7022.559793216416
 21
3371.545364285312
 31
0.0
  0
LINE
  5
15993
330
747D
100
AcDbEntity
  8
細線
 48
50.0
100
AcDbLine
 10
7030.41020326238
 20
3369.545364285314
 30
0.0
 11
7030.41020326238
 21
3371.545364285312
 31
0.0
  0
LINE
  5
15994
330
747D
100
AcDbEntity
  8
部品1
 48
50.0
100
AcDbLine
 10
7014.42255041072
 20
3374.045364285313
 30
0.0
 11
7014.42255041072
 21
3367.295364285314
 31
0.0
  0
LINE
  5
15995
330
747D
100
AcDbEntity
  8
部品1
100
AcDbLine
 10
7034.42255041072
 20
3367.295364285314
 30
0.0
 11
7034.484998239399
 21
3367.295364285314
 31
0.0
  0
LINE
  5
15996
330
747D
100
AcDbEntity
  8
部品1
100
AcDbLine
 10
7034.42255041072
 20
3367.295364285314
 30
0.0
 11
7034.484998239401
 21
3367.295364285314
 31
0.0
  0
LINE
  5
15997
330
747D
100
AcDbEntity
  8
部品1
100
AcDbLine
 10
7034.42255041072
 20
3367.295364285316
 30
0.0
 11
7034.484998239401
 21
3367.295364285316
 31
0.0
  0
ARC
  5
15998
330
747D
100
AcDbEntity
  8
細線
 48
0.2
100
AcDbCircle
 10
7031.422550410718
 20
3367.074854454064
 30
0.0
 40
1.0
100
AcDbArc
 50
286.6015495990217
 51
0.0
  0
ARC
  5
15999
330
747D
100
AcDbEntity
  8
細線
 48
0.2
100
AcDbCircle
 10
7021.422550410719
 20
3367.074854454064
 30
0.0
 40
1.0
100
AcDbArc
 50
179.9999999999984
 51
253.3984504009775
  0
ARC
  5
1599A
330
747D
100
AcDbEntity
  8
細線
 48
0.2
100
AcDbCircle
 10
7026.422550410718
 20
3383.84536428531
 30
0.0
 40
18.49999999999796
100
AcDbArc
 50
253.3984504009772
 51
286.6015495990217
  0
LINE
  5
1599B
330
747D
100
AcDbEntity
  8
細線
 48
0.2
100
AcDbLine
 10
7032.106541707228
 20
3366.345364285312
 30
0.0
 11
7020.738559114214
 21
3366.345364285312
 31
0.0
  0
LINE
  5
1599C
330
747D
100
AcDbEntity
  8
細線
 48
50.0
100
AcDbLine
 10
7014.42255041072
 20
3367.295364285314
 30
0.0
 11
7014.42255041072
 21
3367.045364285313
 31
0.0
  0
LINE
  5
1599D
330
747D
100
AcDbEntity
  8
細線
 48
0.2
100
AcDbLine
 10
7034.422550410718
 20
3367.045364285313
 30
0.0
 11
7014.42255041072
 21
3367.045364285313
 31
0.0
  0
LINE
  5
1599E
330
747D
100
AcDbEntity
  8
細線
 48
0.2
100
AcDbLine
 10
7034.422550410718
 20
3369.545364285313
 30
0.0
 11
7014.42255041072
 21
3369.545364285314
 31
0.0
  0
LINE
  5
1599F
330
747D
100
AcDbEntity
  8
細線
 48
0.2
100
AcDbLine
 10
7034.422550410718
 20
3371.545364285312
 30
0.0
 11
7014.42255041072
 21
3371.545364285312
 31
0.0
  0
LINE
  5
159A0
330
747D
100
AcDbEntity
  8
部品1
 48
0.2
100
AcDbLine
 10
7034.422550410718
 20
3374.045364285313
 30
0.0
 11
7014.42255041072
 21
3374.045364285313
 31
0.0
  0
LINE
  5
159A1
330
747D
100
AcDbEntity
  8
細線
100
AcDbLine
 10
7176.692537418145
 20
4221.795364285295
 30
0.0
 11
7176.692537418145
 21
4303.795364285295
 31
0.0
  0
LINE
  5
159A2
330
747D
100
AcDbEntity
  8
細線
100
AcDbLine
 10
7186.484998239399
 20
4218.795364285295
 30
0.0
 11
7186.484998239399
 21
4306.795364285295
 31
0.0
  0
LINE
  5
159A3
330
747D
100
AcDbEntity
  8
細線
100
AcDbLine
 10
7190.984998239399
 20
4209.795364285295
 30
0.0
 11
7190.984998239399
 21
4315.795364285295
 31
0.0
  0
LINE
  5
159A4
330
747D
100
AcDbEntity
  8
部品1
100
AcDbLine
 10
7192.484998239399
 20
4208.795364285295
 30
0.0
 11
7192.484998239399
 21
4316.795364285296
 31
0.0
  0
LINE
  5
159A5
330
747D
100
AcDbEntity
  8
細線
100
AcDbLine
 10
7158.484998239399
 20
4312.795364285295
 30
0.0
 11
7158.484998239399
 21
4212.795364285295
 31
0.0
  0
ARC
  5
159A6
330
747D
100
AcDbEntity
  8
細線
100
AcDbCircle
 10
7434.484998239399
 20
4262.795364285294
 30
0.0
 40
298.5
100
AcDbArc
 50
169.578549027269
 51
190.4214509727309
  0
ARC
  5
159A7
330
747D
100
AcDbEntity
  8
細線
100
AcDbCircle
 10
7434.484998239399
 20
4262.795364285294
 30
0.0
 40
294.0
100
AcDbArc
 50
171.212062677364
 51
188.7879373226359
  0
ARC
  5
159A8
330
747D
100
AcDbEntity
  8
細線
100
AcDbCircle
 10
6871.882216331474
 20
4262.795364285294
 30
0.0
 40
294.0
100
AcDbArc
 50
351.900449161722
 51
8.099550838278029
  0
ARC
  5
159A9
330
747D
100
AcDbEntity
  8
部品1
100
AcDbCircle
 10
7434.484998239399
 20
4262.795364285294
 30
0.0
 40
300.0
100
AcDbArc
 50
169.4161974034894
 51
190.5838025965105
  0
ARC
  5
159AA
330
747D
100
AcDbEntity
  8
細線
100
AcDbCircle
 10
7185.484998239399
 20
4209.795364285295
 30
0.0
 40
5.5
100
AcDbArc
 50
270.0
 51
0.0
  0
ARC
  5
159AB
330
747D
100
AcDbEntity
  8
部品1
100
AcDbCircle
 10
7186.484998239399
 20
4208.795364285295
 30
0.0
 40
6.0
100
AcDbArc
 50
270.0
 51
0.0
  0
ARC
  5
159AC
330
747D
100
AcDbEntity
  8
細線
100
AcDbCircle
 10
7146.318379770153
 20
4209.795364285295
 30
0.0
 40
5.5
100
AcDbArc
 50
190.4214509727298
 51
269.9999999999997
  0
ARC
  5
159AD
330
747D
100
AcDbEntity
  8
部品1
100
AcDbCircle
 10
7145.486728348384
 20
4208.795364285295
 30
0.0
 40
6.0
100
AcDbArc
 50
190.5838025965097
 51
270.0
  0
LINE
  5
159AE
330
747D
100
AcDbEntity
  8
細線
100
AcDbLine
 10
7146.318379770153
 20
4204.295364285296
 30
0.0
 11
7185.484998239399
 21
4204.295364285296
 31
0.0
  0
LINE
  5
159AF
330
747D
100
AcDbEntity
  8
部品1
100
AcDbLine
 10
7145.486728348384
 20
4202.795364285296
 30
0.0
 11
7186.484998239399
 21
4202.795364285296
 31
0.0
  0
ARC
  5
159B0
330
747D
100
AcDbEntity
  8
細線
100
AcDbCircle
 10
7180.484998239399
 20
4218.795364285295
 30
0.0
 40
6.0
100
AcDbArc
 50
270.0
 51
0.0
  0
ARC
  5
159B1
330
747D
100
AcDbEntity
  8
細線
100
AcDbCircle
 10
7170.692537418145
 20
4221.795364285295
 30
0.0
 40
6.0
100
AcDbArc
 50
270.0
 51
360.0
  0
LINE
  5
159B2
330
747D
100
AcDbEntity
  8
細線
100
AcDbLine
 10
7158.484998239399
 20
4218.795364285295
 30
0.0
 11
7159.979422149234
 21
4218.795364285295
 31
0.0
  0
ARC
  5
159B3
330
747D
100
AcDbEntity
  8
細線
100
AcDbCircle
 10
7159.979422149234
 20
4221.795364285295
 30
0.0
 40
3.0
100
AcDbArc
 50
270.0
 51
351.9004491617184
  0
ARC
  5
159B4
330
747D
100
AcDbEntity
  8
細線
100
AcDbCircle
 10
7149.865954603876
 20
4218.795364285295
 30
0.0
 40
6.0
100
AcDbArc
 50
188.7879373226349
 51
270.0
  0
LINE
  5
159B5
330
747D
100
AcDbEntity
  8
細線
100
AcDbLine
 10
7158.484998239399
 20
4218.795872183856
 30
0.0
 11
7145.006293740576
 21
4218.795872183856
 31
0.0
  0
LINE
  5
159B6
330
747D
100
AcDbEntity
  8
細線
100
AcDbLine
 10
7158.484998239399
 20
4215.795364285295
 30
0.0
 11
7170.692537418145
 21
4215.795364285295
 31
0.0
  0
LINE
  5
159B7
330
747D
100
AcDbEntity
  8
細線
100
AcDbLine
 10
7149.865954603876
 20
4212.795364285295
 30
0.0
 11
7180.484998239399
 21
4212.795364285295
 31
0.0
  0
CIRCLE
  5
159B8
330
747D
100
AcDbEntity
  8
細線
 48
20.0
100
AcDbCircle
 10
7165.985863293892
 20
4363.295364285295
 30
0.0
 40
20.0
  0
CIRCLE
  5
159B9
330
747D
100
AcDbEntity
  8
細線
 48
20.0
100
AcDbCircle
 10
7165.985863293892
 20
4363.295364285295
 30
0.0
 40
10.0
  0
ARC
  5
159BA
330
747D
100
AcDbEntity
  8
細線
100
AcDbCircle
 10
7180.484998239399
 20
4306.795364285295
 30
0.0
 40
6.0
100
AcDbArc
 50
0.0
 51
90.0
  0
ARC
  5
159BB
330
747D
100
AcDbEntity
  8
細線
100
AcDbCircle
 10
7170.692537418145
 20
4303.795364285295
 30
0.0
 40
6.0
100
AcDbArc
 50
0.0
 51
90.0
  0
ARC
  5
159BC
330
747D
100
AcDbEntity
  8
細線
100
AcDbCircle
 10
7185.484998239399
 20
4315.795364285295
 30
0.0
 40
5.5
100
AcDbArc
 50
0.0
 51
90.0
  0
ARC
  5
159BD
330
747D
100
AcDbEntity
  8
部品1
100
AcDbCircle
 10
7186.484998239399
 20
4316.795364285296
 30
0.0
 40
6.0
100
AcDbArc
 50
0.0
 51
90.0
  0
LINE
  5
159BE
330
747D
100
AcDbEntity
  8
細線
100
AcDbLine
 10
7159.979422149231
 20
4306.795364285295
 30
0.0
 11
7158.484998239399
 21
4306.795364285295
 31
0.0
  0
ARC
  5
159BF
330
747D
100
AcDbEntity
  8
細線
100
AcDbCircle
 10
7159.979422149231
 20
4303.795364285295
 30
0.0
 40
3.0
100
AcDbArc
 50
8.099550838277986
 51
90.0
  0
ARC
  5
159C0
330
747D
100
AcDbEntity
  8
細線
100
AcDbCircle
 10
7149.865954603876
 20
4306.795364285295
 30
0.0
 40
6.0
100
AcDbArc
 50
90.0
 51
171.2120626773636
  0
LINE
  5
159C1
330
747D
100
AcDbEntity
  8
細線
100
AcDbLine
 10
7158.484998239399
 20
4306.794856386733
 30
0.0
 11
7145.721671023432
 21
4306.794856386733
 31
0.0
  0
ARC
  5
159C2
330
747D
100
AcDbEntity
  8
細線
100
AcDbCircle
 10
7146.318379770153
 20
4315.795364285295
 30
0.0
 40
5.5
100
AcDbArc
 50
89.99999999999969
 51
169.5785490272683
  0
ARC
  5
159C3
330
747D
100
AcDbEntity
  8
部品1
100
AcDbCircle
 10
7145.486728348384
 20
4316.795364285296
 30
0.0
 40
6.0
100
AcDbArc
 50
90.0
 51
169.4161974034886
  0
LINE
  5
159C4
330
747D
100
AcDbEntity
  8
細線
100
AcDbLine
 10
7185.484998239399
 20
4321.295364285295
 30
0.0
 11
7146.318379770153
 21
4321.295364285295
 31
0.0
  0
LINE
  5
159C5
330
747D
100
AcDbEntity
  8
細線
100
AcDbLine
 10
7170.692537418145
 20
4309.795364285295
 30
0.0
 11
7158.484998239399
 21
4309.795364285295
 31
0.0
  0
LINE
  5
159C6
330
747D
100
AcDbEntity
  8
細線
100
AcDbLine
 10
7180.484998239399
 20
4312.795364285295
 30
0.0
 11
7149.865954603876
 21
4312.795364285295
 31
0.0
  0
LINE
  5
159C7
330
747D
100
AcDbEntity
  8
部品1
100
AcDbLine
 10
7186.484998239399
 20
4322.795364285295
 30
0.0
 11
7145.486728348384
 21
4322.795364285295
 31
0.0
  0
LINE
  5
159C8
330
747D
100
AcDbEntity
  8
部品1
100
AcDbLine
 10
7124.4849982394
 20
5158.295364285294
 30
0.0
 11
7834.422550410718
 21
5158.295364285294
 31
0.0
  0
LINE
  5
159C9
330
747D
100
AcDbEntity
  8
細線
 48
0.1
100
AcDbLine
 10
7034.422550410718
 20
5158.545364285295
 30
0.0
 11
7034.422550410718
 21
5151.545364285295
 31
0.0
  0
LINE
  5
159CA
330
747D
100
AcDbEntity
  8
部品1
100
AcDbLine
 10
7034.42255041072
 20
5158.295364285292
 30
0.0
 11
7034.484998239401
 21
5158.295364285294
 31
0.0
  0
LINE
  5
159CB
330
747D
100
AcDbEntity
  8
部品1
100
AcDbLine
 10
7034.42255041072
 20
5158.295364285296
 30
0.0
 11
7034.484998239401
 21
5158.295364285294
 31
0.0
  0
LINE
  5
159CC
330
747D
100
AcDbEntity
  8
部品1
 48
50.0
100
AcDbLine
 10
7014.42255041072
 20
5151.545364285295
 30
0.0
 11
7014.42255041072
 21
5158.295364285296
 31
0.0
  0
LINE
  5
159CD
330
747D
100
AcDbEntity
  8
細線
 48
50.0
100
AcDbLine
 10
7030.41020326238
 20
5156.045364285295
 30
0.0
 11
7030.41020326238
 21
5154.045364285295
 31
0.0
  0
LINE
  5
159CE
330
747D
100
AcDbEntity
  8
細線
 48
50.0
100
AcDbLine
 10
7022.559793216416
 20
5156.045364285295
 30
0.0
 11
7022.559793216416
 21
5154.045364285295
 31
0.0
  0
LINE
  5
159CF
330
747D
100
AcDbEntity
  8
細線
 48
50.0
100
AcDbLine
 10
7014.42255041072
 20
5158.295364285296
 30
0.0
 11
7014.42255041072
 21
5158.545364285295
 31
0.0
  0
LINE
  5
159D0
330
747D
100
AcDbEntity
  8
細線
 48
0.2
100
AcDbLine
 10
7032.106541707228
 20
5159.245364285296
 30
0.0
 11
7020.738559114214
 21
5159.245364285296
 31
0.0
  0
ARC
  5
159D1
330
747D
100
AcDbEntity
  8
細線
 48
0.2
100
AcDbCircle
 10
7026.422550410718
 20
5141.745364285299
 30
0.0
 40
18.49999999999796
100
AcDbArc
 50
73.39845040097829
 51
106.6015495990228
  0
ARC
  5
159D2
330
747D
100
AcDbEntity
  8
細線
 48
0.2
100
AcDbCircle
 10
7021.422550410719
 20
5158.515874116543
 30
0.0
 40
1.0
100
AcDbArc
 50
106.6015495990225
 51
180.0000000000016
  0
ARC
  5
159D3
330
747D
100
AcDbEntity
  8
細線
 48
0.2
100
AcDbCircle
 10
7031.422550410718
 20
5158.515874116543
 30
0.0
 40
1.0
100
AcDbArc
 50
0.0
 51
73.39845040097829
  0
LINE
  5
159D4
330
747D
100
AcDbEntity
  8
部品1
 48
0.2
100
AcDbLine
 10
7034.422550410718
 20
5151.545364285295
 30
0.0
 11
7014.42255041072
 21
5151.545364285295
 31
0.0
  0
LINE
  5
159D5
330
747D
100
AcDbEntity
  8
細線
 48
0.2
100
AcDbLine
 10
7034.422550410718
 20
5154.045364285295
 30
0.0
 11
7014.42255041072
 21
5154.045364285295
 31
0.0
  0
LINE
  5
159D6
330
747D
100
AcDbEntity
  8
細線
 48
0.2
100
AcDbLine
 10
7034.422550410718
 20
5156.045364285295
 30
0.0
 11
7014.42255041072
 21
5156.045364285295
 31
0.0
  0
LINE
  5
159D7
330
747D
100
AcDbEntity
  8
細線
 48
0.2
100
AcDbLine
 10
7034.422550410718
 20
5158.545364285295
 30
0.0
 11
7014.42255041072
 21
5158.545364285295
 31
0.0
  0
DIMENSION
  5
15A0F
330
747D
100
AcDbEntity
  8
寸法
 48
50.0
100
AcDbDimension
  2
*D23
 10
4539.484998239401
 20
7667.760334704787
 30
0.0
 11
4196.984998239402
 21
7667.760334704787
 31
0.0
 70
   160
 71
     5
 42
684.9999999999964
  3
INABA_S40G
100
AcDbAlignedDimension
 13
3854.484998239405
 23
8107.584002499866
 33
0.0
 14
4539.484998239401
 24
8107.584002499828
 34
0.0
100
AcDbRotatedDimension
  0
MTEXT
  5
15FC1
330
747D
100
AcDbEntity
  8
寸法
 62
     7
 48
50.0
100
AcDbMText
 10
6684.764795849973
 20
9067.697750037146
 30
0.0
 40
96.0
 41
0.0
 71
     5
 72
     1
  1
棚 2段
  7
STYLE1
 73
     1
 44
1.0
1001
ACAD
1000
MTEXTBEGIN
1070
    73
1070
     1
1070
    44
1040
1.0
1070
    74
1070
     0
1000
MTEXTEND
  0
TEXT
  5
16008
330
747D
100
AcDbEntity
  8
文字
 62
     7
 48
50.0
100
AcDbText
 10
14271.39351435261
 20
483.8967129911411
 30
0.0
 40
160.0
  1
ＮＸＮ－１１ＤＬ－５
  7
STYLE2
100
AcDbText
  0
LINE
  5
16044
330
747D
100
AcDbEntity
  8
仕様書枠
 48
50.0
100
AcDbLine
 10
16307.19999999999
 20
11409.6
 30
0.0
 11
13127.2
 21
11409.6
 31
0.0
  0
MTEXT
  5
1604A
330
747D
100
AcDbEntity
  8
寸法
 62
     7
 48
50.0
100
AcDbMText
 10
5044.764809205368
 20
9067.697750037202
 30
0.0
 40
96.0
 41
0.0
 71
     5
 72
     1
  1
棚 2段
  7
STYLE1
 73
     1
 44
1.0
1001
ACAD
1000
MTEXTBEGIN
1070
    73
1070
     1
1070
    44
1040
1.0
1070
    74
1070
     0
1000
MTEXTEND
  0
MTEXT
  5
1604B
330
747D
100
AcDbEntity
  8
寸法
 62
     7
 48
50.0
100
AcDbMText
 10
5864.764802527672
 20
9067.697750037188
 30
0.0
 40
96.0
 41
0.0
 71
     5
 72
     1
  1
棚 2段
  7
STYLE1
 73
     1
 44
1.0
1001
ACAD
1000
MTEXTBEGIN
1070
    73
1070
     1
1070
    44
1040
1.0
1070
    74
1070
     0
1000
MTEXTEND
  0
LWPOLYLINE
  5
1604C
330
747D
100
AcDbEntity
  8
部品1
100
AcDbPolyline
 90
        4
 70
     1
 43
0.0
 10
5467.749665125173
 20
2617.718783468577
 10
5467.749665125173
 20
2377.826461923044
 10
6231.22033135361
 20
2377.826461923044
 10
6231.22033135361
 20
2617.718783468577
  0
TEXT
  5
1604D
330
747D
100
AcDbEntity
  8
部品1
100
AcDbText
 10
5558.275068863125
 20
2424.825254250053
 30
0.0
 40
135.0
  1
正面図
  7
STYLE2
100
AcDbText
  0
MTEXT
  5
1604E
330
747D
100
AcDbEntity
  8
寸法
 62
     7
 48
50.0
100
AcDbMText
 10
4224.764809205369
 20
9067.697750037202
 30
0.0
 40
96.0
 41
0.0
 71
     5
 72
     1
  1
棚 2段
  7
STYLE1
 73
     1
 44
1.0
1001
ACAD
1000
MTEXTBEGIN
1070
    73
1070
     1
1070
    44
1040
1.0
1070
    74
1070
     0
1000
MTEXTEND
  0
MTEXT
  5
16729
330
747D
100
AcDbEntity
  8
寸法
 62
     7
 48
50.0
100
AcDbMText
 10
7504.764795849972
 20
9067.697750037146
 30
0.0
 40
96.0
 41
0.0
 71
     5
 72
     1
  1
棚 2段
  7
STYLE1
 73
     1
 44
1.0
1001
ACAD
1000
MTEXTBEGIN
1070
    73
1070
     1
1070
    44
1040
1.0
1070
    74
1070
     0
1000
MTEXTEND
  0
DIMENSION
  5
1672A
330
747D
100
AcDbEntity
  8
寸法
 48
50.0
100
AcDbDimension
  2
*D26
 10
3799.484998239401
 20
5608.336949543536
 30
0.0
 11
5849.484998239391
 21
5608.336949543536
 31
0.0
 70
   160
  1
柱外寸法<>
 71
     5
 42
4100.000000000004
  3
INABA_S40G
100
AcDbAlignedDimension
 13
7899.484998239405
 23
5395.795364285297
 33
0.0
 14
3799.484998239401
 24
5395.795364285299
 34
0.0
100
AcDbRotatedDimension
  0
DIMENSION
  5
1672B
330
747D
100
AcDbEntity
  8
寸法
 48
50.0
100
AcDbDimension
  2
*D25
 10
7949.484998239404
 20
5831.293927981384
 30
0.0
 11
5849.484998239403
 21
5831.293927981384
 31
0.0
 70
   160
 71
     5
 42
4200.000000000003
  3
INABA_S40G
100
AcDbAlignedDimension
 13
3749.484998239401
 23
5395.795364285297
 33
0.0
 14
7949.484998239404
 24
5395.795364285295
 34
0.0
100
AcDbRotatedDimension
  0
DIMENSION
  5
1672C
330
747D
100
AcDbEntity
  8
寸法
 48
50.0
100
AcDbDimension
  2
*D24
 10
3749.484998239401
 20
5608.336949543536
 30
0.0
 11
3435.999716865154
 21
5608.336949543536
 31
0.0
 70
   160
 71
     5
 42
50.0
  3
INABA_S40G
100
AcDbAlignedDimension
 13
3799.484998239401
 23
5395.795364285299
 33
0.0
 14
3749.484998239401
 24
5395.795364285297
 34
0.0
100
AcDbRotatedDimension
1001
ACAD
1000
DSTYLE
1002
{
1002
}
  0
LINE
  5
1672D
330
747D
100
AcDbEntity
  8
部品1
100
AcDbLine
 10
3749.904659254731
 20
5388.398838890054
 30
0.0
 11
3751.038056587081
 21
5368.422710907456
 31
0.0
  0
LINE
  5
1672E
330
747D
100
AcDbEntity
  8
部品1
100
AcDbLine
 10
3762.475076908657
 20
5272.765303740398
 30
0.0
 11
3763.119982715765
 21
5261.398838890056
 31
0.0
  0
LINE
  5
1672F
330
747D
100
AcDbEntity
  8
部品1
100
AcDbLine
 10
3754.23904638381
 20
5364.965303740398
 30
0.0
 11
3759.274087111921
 21
5276.222710907456
 31
0.0
  0
ARC
  5
16730
330
747D
100
AcDbEntity
  8
部品1
 48
50.0
100
AcDbCircle
 10
3751.243863487623
 20
5364.795364285296
 30
0.0
 40
3.0
100
AcDbArc
 50
3.247342790337682
 51
82.34187279263654
  0
ARC
  5
16731
330
747D
100
AcDbEntity
  8
部品1
 48
50.0
100
AcDbCircle
 10
3759.479894012468
 20
5272.595364285295
 30
0.0
 40
3.0
100
AcDbArc
 50
3.247342790337682
 51
82.34187279263654
  0
ARC
  5
16732
330
747D
100
AcDbEntity
  8
部品1
 48
50.0
100
AcDbCircle
 10
3759.972963121029
 20
5276.262363446978
 30
0.0
 40
0.7
100
AcDbArc
 50
183.2473427902922
 51
262.3418727926365
  0
ARC
  5
16733
330
747D
100
AcDbEntity
  8
部品1
 48
50.0
100
AcDbCircle
 10
3751.736932596188
 20
5368.462363446983
 30
0.0
 40
0.7
100
AcDbArc
 50
183.2473427903897
 51
262.3418727926365
  0
ARC
  5
16734
330
747D
100
AcDbEntity
  8
部品1
100
AcDbCircle
 10
3770.108742806864
 20
5261.795364285298
 30
0.0
 40
7.0
100
AcDbArc
 50
183.2473427903377
 51
270.0
  0
ARC
  5
16735
330
747D
100
AcDbEntity
  8
部品1
100
AcDbCircle
 10
3756.89341934583
 20
5388.795364285296
 30
0.0
 40
7.0
100
AcDbArc
 50
90.0
 51
183.2473427903377
  0
LINE
  5
16736
330
747D
100
AcDbEntity
  8
細線
 48
50.0
100
AcDbLine
 10
3782.484998239401
 20
5395.795364285295
 30
0.0
 11
3782.484998239401
 21
5254.795364285294
 31
0.0
  0
LINE
  5
16737
330
747D
100
AcDbEntity
  8
部品1
 48
50.0
100
AcDbLine
 10
7928.861253671937
 20
5254.795364285287
 30
0.0
 11
3770.108742806864
 21
5254.795364285294
 31
0.0
  0
LINE
  5
16738
330
747D
100
AcDbEntity
  8
細線
 48
50.0
100
AcDbLine
 10
7939.090316702908
 20
5275.568606848796
 30
0.0
 11
3759.879679774647
 21
5275.56860684929
 31
0.0
  0
LINE
  5
16739
330
747D
100
AcDbEntity
  8
細線
 48
50.0
100
AcDbLine
 10
7947.326347227705
 20
5367.768606848795
 30
0.0
 11
3751.643649249814
 21
5367.768606849291
 31
0.0
  0
LINE
  5
1673A
330
747D
100
AcDbEntity
  8
部品1
 48
50.0
100
AcDbLine
 10
7942.076577132971
 20
5395.795364285293
 30
0.0
 11
3756.89341934583
 21
5395.795364285292
 31
0.0
  0
DIMENSION
  5
1677E
330
747D
100
AcDbEntity
  8
寸法
 48
50.0
100
AcDbDimension
  2
*D27
 10
7899.484998239405
 20
5608.336949543536
 30
0.0
 11
8262.970279613641
 21
5608.336949543536
 31
0.0
 70
   160
 71
     5
 42
50.0
  3
INABA_S40G
100
AcDbAlignedDimension
 13
7949.484998239404
 23
5395.795364285295
 33
0.0
 14
7899.484998239405
 24
5395.795364285297
 34
0.0
100
AcDbRotatedDimension
  0
ARC
  5
1677F
330
747D
100
AcDbEntity
  8
部品1
100
AcDbCircle
 10
7942.076577132971
 20
5388.795364285296
 30
0.0
 40
7.0
100
AcDbArc
 50
356.7526572096623
 51
90.0
  0
ARC
  5
16780
330
747D
100
AcDbEntity
  8
部品1
100
AcDbCircle
 10
7928.861253671937
 20
5261.795364285298
 30
0.0
 40
7.0
100
AcDbArc
 50
270.0
 51
356.7526572096623
  0
ARC
  5
16781
330
747D
100
AcDbEntity
  8
部品1
 48
50.0
100
AcDbCircle
 10
7947.233063882617
 20
5368.462363446983
 30
0.0
 40
0.7
100
AcDbArc
 50
277.6581272073635
 51
356.7526572096103
  0
ARC
  5
16782
330
747D
100
AcDbEntity
  8
部品1
 48
50.0
100
AcDbCircle
 10
7938.997033357773
 20
5276.262363446978
 30
0.0
 40
0.7
100
AcDbArc
 50
277.6581272073635
 51
356.7526572097079
  0
ARC
  5
16783
330
747D
100
AcDbEntity
  8
部品1
 48
50.0
100
AcDbCircle
 10
7939.490102466334
 20
5272.595364285295
 30
0.0
 40
3.0
100
AcDbArc
 50
97.65812720736347
 51
176.7526572096623
  0
ARC
  5
16784
330
747D
100
AcDbEntity
  8
部品1
 48
50.0
100
AcDbCircle
 10
7947.726132991178
 20
5364.795364285297
 30
0.0
 40
3.0
100
AcDbArc
 50
97.65812720736347
 51
176.7526572096623
  0
LINE
  5
16785
330
747D
100
AcDbEntity
  8
部品1
100
AcDbLine
 10
7944.730950094992
 20
5364.965303740398
 30
0.0
 11
7939.695909366881
 21
5276.222710907456
 31
0.0
  0
LINE
  5
16786
330
747D
100
AcDbEntity
  8
部品1
100
AcDbLine
 10
7936.494919570148
 20
5272.765303740398
 30
0.0
 11
7935.850013763036
 21
5261.398838890058
 31
0.0
  0
LINE
  5
16787
330
747D
100
AcDbEntity
  8
細線
 48
50.0
100
AcDbLine
 10
7916.484998239404
 20
5395.795364285295
 30
0.0
 11
7916.484998239404
 21
5254.795364285295
 31
0.0
  0
LINE
  5
16788
330
747D
100
AcDbEntity
  8
部品1
100
AcDbLine
 10
7949.06533722407
 20
5388.398838890056
 30
0.0
 11
7947.931939891725
 21
5368.422710907456
 31
0.0
  0
LINE
  5
167C7
330
747D
100
AcDbEntity
  8
細線
100
AcDbLine
 10
4209.484998239408
 20
5220.295364285288
 30
0.0
 11
4209.484998239408
 21
5197.295364285288
 31
0.0
  0
LINE
  5
167C8
330
747D
100
AcDbEntity
  8
細線
100
AcDbLine
 10
4283.484998239408
 20
5208.295364285288
 30
0.0
 11
4209.484998239408
 21
5208.295364285288
 31
0.0
  0
LINE
  5
167C9
330
747D
100
AcDbEntity
  8
細線
100
AcDbLine
 10
4283.484998239408
 20
5202.295364285288
 30
0.0
 11
4209.484998239408
 21
5202.295364285288
 31
0.0
  0
LINE
  5
167CA
330
747D
100
AcDbEntity
  8
細線
100
AcDbLine
 10
4283.484998239408
 20
5214.295364285288
 30
0.0
 11
4209.484998239408
 21
5214.295364285288
 31
0.0
  0
LINE
  5
167CB
330
747D
100
AcDbEntity
  8
細線
100
AcDbLine
 10
4135.484998239408
 20
5214.295364285288
 30
0.0
 11
4204.484998239408
 21
5214.295364285288
 31
0.0
  0
LINE
  5
167CC
330
747D
100
AcDbEntity
  8
細線
100
AcDbLine
 10
4135.484998239408
 20
5202.295364285288
 30
0.0
 11
4209.484998239408
 21
5202.295364285288
 31
0.0
  0
LINE
  5
167CD
330
747D
100
AcDbEntity
  8
細線
100
AcDbLine
 10
4135.484998239408
 20
5208.295364285288
 30
0.0
 11
4209.484998239408
 21
5208.295364285288
 31
0.0
  0
LINE
  5
167CE
330
747D
100
AcDbEntity
  8
細線
100
AcDbLine
 10
4135.484998239408
 20
5214.295364285288
 30
0.0
 11
4209.484998239408
 21
5214.295364285288
 31
0.0
  0
LINE
  5
167CF
330
747D
100
AcDbEntity
  8
部品1
 48
0.01
100
AcDbLine
 10
4297.484998239408
 20
5226.795364285288
 30
0.0
 11
4121.484998239408
 21
5226.795364285288
 31
0.0
  0
LINE
  5
167D0
330
747D
100
AcDbEntity
  8
部品1
 48
0.01
100
AcDbLine
 10
4119.484998239408
 20
5224.795364285288
 30
0.0
 11
4119.484998239408
 21
5193.295364285288
 31
0.0
  0
LINE
  5
167D1
330
747D
100
AcDbEntity
  8
部品1
 48
0.01
100
AcDbLine
 10
4121.484998239408
 20
5191.295364285288
 30
0.0
 11
4297.484998239408
 21
5191.295364285288
 31
0.0
  0
LINE
  5
167D2
330
747D
100
AcDbEntity
  8
部品1
 48
0.01
100
AcDbLine
 10
4299.484998239408
 20
5193.295364285288
 30
0.0
 11
4299.484998239408
 21
5224.795364285288
 31
0.0
  0
LINE
  5
167D3
330
747D
100
AcDbEntity
  8
細線
100
AcDbLine
 10
4135.484998239408
 20
5220.295364285288
 30
0.0
 11
4135.484998239408
 21
5197.295364285288
 31
0.0
  0
LINE
  5
167D4
330
747D
100
AcDbEntity
  8
細線
100
AcDbLine
 10
4283.484998239408
 20
5197.295364285288
 30
0.0
 11
4283.484998239408
 21
5220.295364285288
 31
0.0
  0
LINE
  5
167D5
330
747D
100
AcDbEntity
  8
細線
100
AcDbLine
 10
4283.484998239408
 20
5220.295364285288
 30
0.0
 11
4209.484998239408
 21
5220.295364285288
 31
0.0
  0
LINE
  5
167D6
330
747D
100
AcDbEntity
  8
細線
100
AcDbLine
 10
4135.484998239408
 20
5197.295364285288
 30
0.0
 11
4209.484998239408
 21
5197.295364285288
 31
0.0
  0
LINE
  5
167D7
330
747D
100
AcDbEntity
  8
細線
100
AcDbLine
 10
4209.484998239408
 20
5220.295364285288
 30
0.0
 11
4135.484998239408
 21
5220.295364285288
 31
0.0
  0
LINE
  5
167D8
330
747D
100
AcDbEntity
  8
細線
100
AcDbLine
 10
4209.484998239408
 20
5197.295364285288
 30
0.0
 11
4283.484998239408
 21
5197.295364285288
 31
0.0
  0
ARC
  5
167D9
330
747D
100
AcDbEntity
  8
部品1
 48
0.01
100
AcDbCircle
 10
4121.484998239408
 20
5224.795364285288
 30
0.0
 40
2.0
100
AcDbArc
 50
90.0
 51
180.0
  0
ARC
  5
167DA
330
747D
100
AcDbEntity
  8
部品1
 48
0.01
100
AcDbCircle
 10
4121.484998239408
 20
5193.295364285288
 30
0.0
 40
2.0
100
AcDbArc
 50
180.0
 51
270.0
  0
ARC
  5
167DB
330
747D
100
AcDbEntity
  8
部品1
 48
0.01
100
AcDbCircle
 10
4297.484998239408
 20
5224.795364285288
 30
0.0
 40
2.0
100
AcDbArc
 50
0.0
 51
90.0
  0
ARC
  5
167DC
330
747D
100
AcDbEntity
  8
部品1
 48
0.01
100
AcDbCircle
 10
4297.484998239408
 20
5193.295364285288
 30
0.0
 40
2.0
100
AcDbArc
 50
270.0
 51
0.0
  0
ARC
  5
167DD
330
747D
100
AcDbEntity
  8
部品1
 48
0.01
100
AcDbCircle
 10
5117.484998239408
 20
5193.295364285288
 30
0.0
 40
2.0
100
AcDbArc
 50
270.0
 51
0.0
  0
ARC
  5
167DE
330
747D
100
AcDbEntity
  8
部品1
 48
0.01
100
AcDbCircle
 10
5117.484998239408
 20
5224.795364285288
 30
0.0
 40
2.0
100
AcDbArc
 50
0.0
 51
90.0
  0
ARC
  5
167DF
330
747D
100
AcDbEntity
  8
部品1
 48
0.01
100
AcDbCircle
 10
4941.484998239408
 20
5193.295364285288
 30
0.0
 40
2.0
100
AcDbArc
 50
180.0
 51
270.0
  0
ARC
  5
167E0
330
747D
100
AcDbEntity
  8
部品1
 48
0.01
100
AcDbCircle
 10
4941.484998239408
 20
5224.795364285288
 30
0.0
 40
2.0
100
AcDbArc
 50
90.0
 51
180.0
  0
LINE
  5
167E1
330
747D
100
AcDbEntity
  8
細線
100
AcDbLine
 10
5029.484998239408
 20
5197.295364285288
 30
0.0
 11
5103.484998239408
 21
5197.295364285288
 31
0.0
  0
LINE
  5
167E2
330
747D
100
AcDbEntity
  8
細線
100
AcDbLine
 10
5029.484998239408
 20
5220.295364285288
 30
0.0
 11
4955.484998239408
 21
5220.295364285288
 31
0.0
  0
LINE
  5
167E3
330
747D
100
AcDbEntity
  8
細線
100
AcDbLine
 10
4955.484998239408
 20
5197.295364285288
 30
0.0
 11
5029.484998239408
 21
5197.295364285288
 31
0.0
  0
LINE
  5
167E4
330
747D
100
AcDbEntity
  8
細線
100
AcDbLine
 10
5103.484998239408
 20
5220.295364285288
 30
0.0
 11
5029.484998239408
 21
5220.295364285288
 31
0.0
  0
LINE
  5
167E5
330
747D
100
AcDbEntity
  8
細線
100
AcDbLine
 10
5103.484998239408
 20
5197.295364285288
 30
0.0
 11
5103.484998239408
 21
5220.295364285288
 31
0.0
  0
LINE
  5
167E6
330
747D
100
AcDbEntity
  8
細線
100
AcDbLine
 10
4955.484998239408
 20
5220.295364285288
 30
0.0
 11
4955.484998239408
 21
5197.295364285288
 31
0.0
  0
LINE
  5
167E7
330
747D
100
AcDbEntity
  8
部品1
 48
0.01
100
AcDbLine
 10
5119.484998239408
 20
5193.295364285288
 30
0.0
 11
5119.484998239408
 21
5224.795364285288
 31
0.0
  0
LINE
  5
167E8
330
747D
100
AcDbEntity
  8
部品1
 48
0.01
100
AcDbLine
 10
4941.484998239408
 20
5191.295364285288
 30
0.0
 11
5117.484998239408
 21
5191.295364285288
 31
0.0
  0
LINE
  5
167E9
330
747D
100
AcDbEntity
  8
部品1
 48
0.01
100
AcDbLine
 10
4939.484998239407
 20
5224.795364285288
 30
0.0
 11
4939.484998239407
 21
5193.295364285288
 31
0.0
  0
LINE
  5
167EA
330
747D
100
AcDbEntity
  8
部品1
 48
0.01
100
AcDbLine
 10
5117.484998239408
 20
5226.795364285288
 30
0.0
 11
4941.484998239408
 21
5226.795364285288
 31
0.0
  0
LINE
  5
167EB
330
747D
100
AcDbEntity
  8
細線
100
AcDbLine
 10
4955.484998239408
 20
5214.295364285288
 30
0.0
 11
5029.484998239408
 21
5214.295364285288
 31
0.0
  0
LINE
  5
167EC
330
747D
100
AcDbEntity
  8
細線
100
AcDbLine
 10
4955.484998239408
 20
5208.295364285288
 30
0.0
 11
5029.484998239408
 21
5208.295364285288
 31
0.0
  0
LINE
  5
167ED
330
747D
100
AcDbEntity
  8
細線
100
AcDbLine
 10
4955.484998239408
 20
5202.295364285288
 30
0.0
 11
5029.484998239408
 21
5202.295364285288
 31
0.0
  0
LINE
  5
167EE
330
747D
100
AcDbEntity
  8
細線
100
AcDbLine
 10
4955.484998239408
 20
5214.295364285288
 30
0.0
 11
5024.484998239408
 21
5214.295364285288
 31
0.0
  0
LINE
  5
167EF
330
747D
100
AcDbEntity
  8
細線
100
AcDbLine
 10
5103.484998239408
 20
5214.295364285288
 30
0.0
 11
5029.484998239408
 21
5214.295364285288
 31
0.0
  0
LINE
  5
167F0
330
747D
100
AcDbEntity
  8
細線
100
AcDbLine
 10
5103.484998239408
 20
5202.295364285288
 30
0.0
 11
5029.484998239408
 21
5202.295364285288
 31
0.0
  0
LINE
  5
167F1
330
747D
100
AcDbEntity
  8
細線
100
AcDbLine
 10
5103.484998239408
 20
5208.295364285288
 30
0.0
 11
5029.484998239408
 21
5208.295364285288
 31
0.0
  0
LINE
  5
167F2
330
747D
100
AcDbEntity
  8
細線
100
AcDbLine
 10
5029.484998239408
 20
5220.295364285288
 30
0.0
 11
5029.484998239408
 21
5197.295364285288
 31
0.0
  0
LINE
  5
167F3
330
747D
100
AcDbEntity
  8
細線
100
AcDbLine
 10
5849.48499823941
 20
5220.295364285288
 30
0.0
 11
5849.48499823941
 21
5197.295364285288
 31
0.0
  0
LINE
  5
167F4
330
747D
100
AcDbEntity
  8
細線
100
AcDbLine
 10
5923.48499823941
 20
5208.295364285288
 30
0.0
 11
5849.48499823941
 21
5208.295364285288
 31
0.0
  0
LINE
  5
167F5
330
747D
100
AcDbEntity
  8
細線
100
AcDbLine
 10
5923.48499823941
 20
5202.295364285288
 30
0.0
 11
5849.48499823941
 21
5202.295364285288
 31
0.0
  0
LINE
  5
167F6
330
747D
100
AcDbEntity
  8
細線
100
AcDbLine
 10
5923.48499823941
 20
5214.295364285288
 30
0.0
 11
5849.48499823941
 21
5214.295364285288
 31
0.0
  0
LINE
  5
167F7
330
747D
100
AcDbEntity
  8
細線
100
AcDbLine
 10
5775.484998239409
 20
5214.295364285288
 30
0.0
 11
5844.484998239409
 21
5214.295364285288
 31
0.0
  0
LINE
  5
167F8
330
747D
100
AcDbEntity
  8
細線
100
AcDbLine
 10
5775.484998239409
 20
5202.295364285288
 30
0.0
 11
5849.48499823941
 21
5202.295364285288
 31
0.0
  0
LINE
  5
167F9
330
747D
100
AcDbEntity
  8
細線
100
AcDbLine
 10
5775.484998239409
 20
5208.295364285288
 30
0.0
 11
5849.48499823941
 21
5208.295364285288
 31
0.0
  0
LINE
  5
167FA
330
747D
100
AcDbEntity
  8
細線
100
AcDbLine
 10
5775.484998239409
 20
5214.295364285288
 30
0.0
 11
5849.48499823941
 21
5214.295364285288
 31
0.0
  0
LINE
  5
167FB
330
747D
100
AcDbEntity
  8
部品1
 48
0.01
100
AcDbLine
 10
5937.484998239409
 20
5226.795364285288
 30
0.0
 11
5761.48499823941
 21
5226.795364285288
 31
0.0
  0
LINE
  5
167FC
330
747D
100
AcDbEntity
  8
部品1
 48
0.01
100
AcDbLine
 10
5759.48499823941
 20
5224.795364285288
 30
0.0
 11
5759.48499823941
 21
5193.295364285288
 31
0.0
  0
LINE
  5
167FD
330
747D
100
AcDbEntity
  8
部品1
 48
0.01
100
AcDbLine
 10
5761.48499823941
 20
5191.295364285288
 30
0.0
 11
5937.484998239409
 21
5191.295364285288
 31
0.0
  0
LINE
  5
167FE
330
747D
100
AcDbEntity
  8
部品1
 48
0.01
100
AcDbLine
 10
5939.48499823941
 20
5193.295364285288
 30
0.0
 11
5939.48499823941
 21
5224.795364285288
 31
0.0
  0
LINE
  5
167FF
330
747D
100
AcDbEntity
  8
細線
100
AcDbLine
 10
5775.484998239409
 20
5220.295364285288
 30
0.0
 11
5775.484998239409
 21
5197.295364285288
 31
0.0
  0
LINE
  5
16800
330
747D
100
AcDbEntity
  8
細線
100
AcDbLine
 10
5923.48499823941
 20
5197.295364285288
 30
0.0
 11
5923.48499823941
 21
5220.295364285288
 31
0.0
  0
LINE
  5
16801
330
747D
100
AcDbEntity
  8
細線
100
AcDbLine
 10
5923.48499823941
 20
5220.295364285288
 30
0.0
 11
5849.48499823941
 21
5220.295364285288
 31
0.0
  0
LINE
  5
16802
330
747D
100
AcDbEntity
  8
細線
100
AcDbLine
 10
5775.484998239409
 20
5197.295364285288
 30
0.0
 11
5849.48499823941
 21
5197.295364285288
 31
0.0
  0
LINE
  5
16803
330
747D
100
AcDbEntity
  8
細線
100
AcDbLine
 10
5849.48499823941
 20
5220.295364285288
 30
0.0
 11
5775.484998239409
 21
5220.295364285288
 31
0.0
  0
LINE
  5
16804
330
747D
100
AcDbEntity
  8
細線
100
AcDbLine
 10
5849.48499823941
 20
5197.295364285288
 30
0.0
 11
5923.48499823941
 21
5197.295364285288
 31
0.0
  0
ARC
  5
16805
330
747D
100
AcDbEntity
  8
部品1
 48
0.01
100
AcDbCircle
 10
5761.48499823941
 20
5224.795364285288
 30
0.0
 40
2.0
100
AcDbArc
 50
90.0
 51
180.0
  0
ARC
  5
16806
330
747D
100
AcDbEntity
  8
部品1
 48
0.01
100
AcDbCircle
 10
5761.48499823941
 20
5193.295364285288
 30
0.0
 40
2.0
100
AcDbArc
 50
180.0
 51
270.0
  0
ARC
  5
16807
330
747D
100
AcDbEntity
  8
部品1
 48
0.01
100
AcDbCircle
 10
5937.484998239409
 20
5224.795364285288
 30
0.0
 40
2.0
100
AcDbArc
 50
0.0
 51
90.0
  0
ARC
  5
16808
330
747D
100
AcDbEntity
  8
部品1
 48
0.01
100
AcDbCircle
 10
5937.484998239409
 20
5193.295364285288
 30
0.0
 40
2.0
100
AcDbArc
 50
270.0
 51
0.0
  0
ARC
  5
16809
330
747D
100
AcDbEntity
  8
部品1
 48
0.01
100
AcDbCircle
 10
6757.48499823941
 20
5193.295364285287
 30
0.0
 40
2.0
100
AcDbArc
 50
270.0
 51
0.0
  0
ARC
  5
1680A
330
747D
100
AcDbEntity
  8
部品1
 48
0.01
100
AcDbCircle
 10
6757.48499823941
 20
5224.795364285287
 30
0.0
 40
2.0
100
AcDbArc
 50
0.0
 51
90.0
  0
ARC
  5
1680B
330
747D
100
AcDbEntity
  8
部品1
 48
0.01
100
AcDbCircle
 10
6581.484998239409
 20
5193.295364285287
 30
0.0
 40
2.0
100
AcDbArc
 50
180.0
 51
270.0
  0
ARC
  5
1680C
330
747D
100
AcDbEntity
  8
部品1
 48
0.01
100
AcDbCircle
 10
6581.484998239409
 20
5224.795364285287
 30
0.0
 40
2.0
100
AcDbArc
 50
90.0
 51
180.0
  0
LINE
  5
1680D
330
747D
100
AcDbEntity
  8
細線
100
AcDbLine
 10
6669.48499823941
 20
5197.295364285287
 30
0.0
 11
6743.484998239409
 21
5197.295364285287
 31
0.0
  0
LINE
  5
1680E
330
747D
100
AcDbEntity
  8
細線
100
AcDbLine
 10
6669.48499823941
 20
5220.295364285288
 30
0.0
 11
6595.48499823941
 21
5220.295364285288
 31
0.0
  0
LINE
  5
1680F
330
747D
100
AcDbEntity
  8
細線
100
AcDbLine
 10
6595.48499823941
 20
5197.295364285287
 30
0.0
 11
6669.48499823941
 21
5197.295364285287
 31
0.0
  0
LINE
  5
16810
330
747D
100
AcDbEntity
  8
細線
100
AcDbLine
 10
6743.484998239409
 20
5220.295364285288
 30
0.0
 11
6669.48499823941
 21
5220.295364285288
 31
0.0
  0
LINE
  5
16811
330
747D
100
AcDbEntity
  8
細線
100
AcDbLine
 10
6743.484998239409
 20
5197.295364285287
 30
0.0
 11
6743.484998239409
 21
5220.295364285288
 31
0.0
  0
LINE
  5
16812
330
747D
100
AcDbEntity
  8
細線
100
AcDbLine
 10
6595.48499823941
 20
5220.295364285288
 30
0.0
 11
6595.48499823941
 21
5197.295364285287
 31
0.0
  0
LINE
  5
16813
330
747D
100
AcDbEntity
  8
部品1
 48
0.01
100
AcDbLine
 10
6759.484998239409
 20
5193.295364285287
 30
0.0
 11
6759.484998239409
 21
5224.795364285287
 31
0.0
  0
LINE
  5
16814
330
747D
100
AcDbEntity
  8
部品1
 48
0.01
100
AcDbLine
 10
6581.484998239409
 20
5191.295364285287
 30
0.0
 11
6757.48499823941
 21
5191.295364285287
 31
0.0
  0
LINE
  5
16815
330
747D
100
AcDbEntity
  8
部品1
 48
0.01
100
AcDbLine
 10
6579.48499823941
 20
5224.795364285287
 30
0.0
 11
6579.48499823941
 21
5193.295364285287
 31
0.0
  0
LINE
  5
16816
330
747D
100
AcDbEntity
  8
部品1
 48
0.01
100
AcDbLine
 10
6757.48499823941
 20
5226.795364285287
 30
0.0
 11
6581.484998239409
 21
5226.795364285287
 31
0.0
  0
LINE
  5
16817
330
747D
100
AcDbEntity
  8
細線
100
AcDbLine
 10
6595.48499823941
 20
5214.295364285288
 30
0.0
 11
6669.48499823941
 21
5214.295364285288
 31
0.0
  0
LINE
  5
16818
330
747D
100
AcDbEntity
  8
細線
100
AcDbLine
 10
6595.48499823941
 20
5208.295364285287
 30
0.0
 11
6669.48499823941
 21
5208.295364285287
 31
0.0
  0
LINE
  5
16819
330
747D
100
AcDbEntity
  8
細線
100
AcDbLine
 10
6595.48499823941
 20
5202.295364285287
 30
0.0
 11
6669.48499823941
 21
5202.295364285287
 31
0.0
  0
LINE
  5
1681A
330
747D
100
AcDbEntity
  8
細線
100
AcDbLine
 10
6595.48499823941
 20
5214.295364285288
 30
0.0
 11
6664.48499823941
 21
5214.295364285288
 31
0.0
  0
LINE
  5
1681B
330
747D
100
AcDbEntity
  8
細線
100
AcDbLine
 10
6743.484998239409
 20
5214.295364285288
 30
0.0
 11
6669.48499823941
 21
5214.295364285288
 31
0.0
  0
LINE
  5
1681C
330
747D
100
AcDbEntity
  8
細線
100
AcDbLine
 10
6743.484998239409
 20
5202.295364285287
 30
0.0
 11
6669.48499823941
 21
5202.295364285287
 31
0.0
  0
LINE
  5
1681D
330
747D
100
AcDbEntity
  8
細線
100
AcDbLine
 10
6743.484998239409
 20
5208.295364285287
 30
0.0
 11
6669.48499823941
 21
5208.295364285287
 31
0.0
  0
LINE
  5
1681E
330
747D
100
AcDbEntity
  8
細線
100
AcDbLine
 10
6669.48499823941
 20
5220.295364285288
 30
0.0
 11
6669.48499823941
 21
5197.295364285287
 31
0.0
  0
LINE
  5
1681F
330
747D
100
AcDbEntity
  8
細線
100
AcDbLine
 10
7489.484998239411
 20
5220.295364285286
 30
0.0
 11
7489.484998239411
 21
5197.295364285286
 31
0.0
  0
LINE
  5
16820
330
747D
100
AcDbEntity
  8
細線
100
AcDbLine
 10
7563.48499823941
 20
5208.295364285286
 30
0.0
 11
7489.484998239411
 21
5208.295364285286
 31
0.0
  0
LINE
  5
16821
330
747D
100
AcDbEntity
  8
細線
100
AcDbLine
 10
7563.48499823941
 20
5202.295364285286
 30
0.0
 11
7489.484998239411
 21
5202.295364285286
 31
0.0
  0
LINE
  5
16822
330
747D
100
AcDbEntity
  8
細線
100
AcDbLine
 10
7563.48499823941
 20
5214.295364285287
 30
0.0
 11
7489.484998239411
 21
5214.295364285287
 31
0.0
  0
LINE
  5
16823
330
747D
100
AcDbEntity
  8
細線
100
AcDbLine
 10
7415.48499823941
 20
5214.295364285287
 30
0.0
 11
7484.484998239409
 21
5214.295364285287
 31
0.0
  0
LINE
  5
16824
330
747D
100
AcDbEntity
  8
細線
100
AcDbLine
 10
7415.48499823941
 20
5202.295364285286
 30
0.0
 11
7489.484998239411
 21
5202.295364285286
 31
0.0
  0
LINE
  5
16825
330
747D
100
AcDbEntity
  8
細線
100
AcDbLine
 10
7415.48499823941
 20
5208.295364285286
 30
0.0
 11
7489.484998239411
 21
5208.295364285286
 31
0.0
  0
LINE
  5
16826
330
747D
100
AcDbEntity
  8
細線
100
AcDbLine
 10
7415.48499823941
 20
5214.295364285287
 30
0.0
 11
7489.484998239411
 21
5214.295364285287
 31
0.0
  0
LINE
  5
16827
330
747D
100
AcDbEntity
  8
部品1
 48
0.01
100
AcDbLine
 10
7577.48499823941
 20
5226.795364285287
 30
0.0
 11
7401.48499823941
 21
5226.795364285287
 31
0.0
  0
LINE
  5
16828
330
747D
100
AcDbEntity
  8
部品1
 48
0.01
100
AcDbLine
 10
7399.48499823941
 20
5224.795364285286
 30
0.0
 11
7399.48499823941
 21
5193.295364285287
 31
0.0
  0
LINE
  5
16829
330
747D
100
AcDbEntity
  8
部品1
 48
0.01
100
AcDbLine
 10
7401.48499823941
 20
5191.295364285286
 30
0.0
 11
7577.48499823941
 21
5191.295364285286
 31
0.0
  0
LINE
  5
1682A
330
747D
100
AcDbEntity
  8
部品1
 48
0.01
100
AcDbLine
 10
7579.48499823941
 20
5193.295364285287
 30
0.0
 11
7579.48499823941
 21
5224.795364285286
 31
0.0
  0
LINE
  5
1682B
330
747D
100
AcDbEntity
  8
細線
100
AcDbLine
 10
7415.48499823941
 20
5220.295364285286
 30
0.0
 11
7415.48499823941
 21
5197.295364285286
 31
0.0
  0
LINE
  5
1682C
330
747D
100
AcDbEntity
  8
細線
100
AcDbLine
 10
7563.48499823941
 20
5197.295364285286
 30
0.0
 11
7563.48499823941
 21
5220.295364285286
 31
0.0
  0
LINE
  5
1682D
330
747D
100
AcDbEntity
  8
細線
100
AcDbLine
 10
7563.48499823941
 20
5220.295364285286
 30
0.0
 11
7489.484998239411
 21
5220.295364285286
 31
0.0
  0
LINE
  5
1682E
330
747D
100
AcDbEntity
  8
細線
100
AcDbLine
 10
7415.48499823941
 20
5197.295364285286
 30
0.0
 11
7489.484998239411
 21
5197.295364285286
 31
0.0
  0
LINE
  5
1682F
330
747D
100
AcDbEntity
  8
細線
100
AcDbLine
 10
7489.484998239411
 20
5220.295364285286
 30
0.0
 11
7415.48499823941
 21
5220.295364285286
 31
0.0
  0
LINE
  5
16830
330
747D
100
AcDbEntity
  8
細線
100
AcDbLine
 10
7489.484998239411
 20
5197.295364285286
 30
0.0
 11
7563.48499823941
 21
5197.295364285286
 31
0.0
  0
ARC
  5
16831
330
747D
100
AcDbEntity
  8
部品1
 48
0.01
100
AcDbCircle
 10
7401.48499823941
 20
5224.795364285286
 30
0.0
 40
2.0
100
AcDbArc
 50
90.0
 51
180.0
  0
ARC
  5
16832
330
747D
100
AcDbEntity
  8
部品1
 48
0.01
100
AcDbCircle
 10
7401.48499823941
 20
5193.295364285287
 30
0.0
 40
2.0
100
AcDbArc
 50
180.0
 51
270.0
  0
ARC
  5
16833
330
747D
100
AcDbEntity
  8
部品1
 48
0.01
100
AcDbCircle
 10
7577.48499823941
 20
5224.795364285286
 30
0.0
 40
2.0
100
AcDbArc
 50
0.0
 51
90.0
  0
ARC
  5
16834
330
747D
100
AcDbEntity
  8
部品1
 48
0.01
100
AcDbCircle
 10
7577.48499823941
 20
5193.295364285287
 30
0.0
 40
2.0
100
AcDbArc
 50
270.0
 51
0.0
  0
LINE
  5
16D52
330
747D
100
AcDbEntity
  8
部品1
100
AcDbLine
 10
10279.35454075501
 20
5160.795364285295
 30
0.0
 11
11656.35691079978
 21
5160.795364285293
 31
0.0
  0
LINE
  5
16D53
330
747D
100
AcDbEntity
  8
部品1
100
AcDbLine
 10
10286.35691079978
 20
3370.795364285294
 30
0.0
 11
11656.35691079978
 21
3370.795364285296
 31
0.0
  0
LINE
  5
16D54
330
747D
100
AcDbEntity
  8
部品1
100
AcDbLine
 10
10341.35691079978
 20
5160.795364285293
 30
0.0
 11
10341.35691079978
 21
3370.795364285294
 31
0.0
  0
LINE
  5
16D55
330
747D
100
AcDbEntity
  8
部品1
100
AcDbLine
 10
10286.35691079978
 20
5252.372258225737
 30
0.0
 11
10286.35691079978
 21
3220.795364285294
 31
0.0
  0
DIMENSION
  5
16D56
330
747D
100
AcDbEntity
  8
寸法
100
AcDbDimension
  2
*D28
 10
9382.085099159304
 20
5395.795364285299
 30
0.0
 11
9382.085099159302
 21
4296.002354705097
 31
0.0
 70
   160
 71
     5
 42
2075.000000000003
  3
INABA_S40G
100
AcDbAlignedDimension
 13
10286.35691079978
 23
3320.795364285296
 33
0.0
 14
10226.35691079978
 24
5395.795364285299
 34
0.0
 50
90.0
100
AcDbRotatedDimension
1001
ACAD
1000
DSTYLE
1002
{
1070
   174
1070
     0
1070
   272
1070
     1
1070
   288
1070
     0
1070
   341
1005
0
1002
}
  0
DIMENSION
  5
16D57
330
747D
100
AcDbEntity
  8
寸法
100
AcDbDimension
  2
*D29
 10
9684.39382010758
 20
3320.795364285296
 30
0.0
 11
9684.39382010758
 21
3014.748120190805
 31
0.0
 70
   160
 71
     5
 42
50.00000000000182
  3
INABA_S40G
100
AcDbAlignedDimension
 13
10279.35454075501
 23
3370.795364285297
 33
0.0
 14
10231.35691079978
 24
3320.795364285296
 34
0.0
 50
90.0
100
AcDbRotatedDimension
1001
ACAD
1000
DSTYLE
1002
{
1070
   174
1070
     0
1070
   272
1070
     1
1070
   288
1070
     0
1070
   341
1005
0
1002
}
  0
LINE
  5
16D58
330
747D
100
AcDbEntity
  8
部品1
100
AcDbLine
 10
10761.35691079978
 20
5160.795364285293
 30
0.0
 11
10761.35691079978
 21
3370.795364285294
 31
0.0
  0
LINE
  5
16D59
330
747D
100
AcDbEntity
  8
部品1
100
AcDbLine
 10
11656.35691079978
 20
5215.431945120546
 30
0.0
 11
11656.35691079978
 21
3220.795364285294
 31
0.0
  0
LINE
  5
16D5A
330
747D
100
AcDbEntity
  8
部品1
100
AcDbLine
 10
11601.35691079978
 20
5160.795364285293
 30
0.0
 11
11601.35691079978
 21
3370.795364285294
 31
0.0
  0
DIMENSION
  5
16D5B
330
747D
100
AcDbEntity
  8
寸法
100
AcDbDimension
  2
*D30
 10
12361.28406877191
 20
5340.795364285295
 30
0.0
 11
12261.27225774829
 21
4330.795364285297
 31
0.0
 70
    32
 71
     5
 42
2020.0
  3
INABA_S40G
100
AcDbAlignedDimension
 13
11656.35691079978
 23
3320.795364285296
 33
0.0
 14
11736.35691079978
 24
5340.795364285295
 34
0.0
 50
90.0
100
AcDbRotatedDimension
1001
ACAD
1000
DSTYLE
1002
{
1070
   174
1070
     0
1070
   272
1070
     1
1070
   288
1070
     0
1070
   341
1005
0
1002
}
  0
DIMENSION
  5
16D5C
330
747D
100
AcDbEntity
  8
寸法
 48
50.0
100
AcDbDimension
  2
*D31
 10
10286.35691079978
 20
5794.452817864598
 30
0.0
 11
10936.17594369033
 21
5794.452817864598
 31
0.0
 70
   160
  1
柱外寸法<>
 71
     5
 42
1370.0
  3
INABA_S40G
100
AcDbAlignedDimension
 13
11656.35691079978
 23
5342.606043896947
 33
0.0
 14
10286.35691079978
 24
5391.79698240827
 34
0.0
100
AcDbRotatedDimension
1001
ACAD
1000
DSTYLE
1002
{
1070
   174
1070
     0
1070
   272
1070
     1
1070
   288
1070
     0
1070
   341
1005
0
1002
}
  0
DIMENSION
  5
16D5D
330
747D
100
AcDbEntity
  8
寸法
 48
50.0
100
AcDbDimension
  2
*D32
 10
10226.35691079978
 20
5794.452817864598
 30
0.0
 11
9916.719115524195
 21
5794.452817864598
 31
0.0
 70
   160
 71
     5
 42
60.0
  3
INABA_S40G
100
AcDbAlignedDimension
 13
10286.35691079978
 23
5391.79698240827
 33
0.0
 14
10226.35691079978
 24
5395.795364285299
 34
0.0
100
AcDbRotatedDimension
1001
ACAD
1000
DSTYLE
1002
{
1070
   174
1070
     0
1070
   272
1070
     1
1070
   288
1070
     0
1070
   341
1005
0
1002
}
  0
DIMENSION
  5
16D5E
330
747D
100
AcDbEntity
  8
寸法
 48
50.0
100
AcDbDimension
  2
*D33
 10
10226.35691079978
 20
6002.627139056562
 30
0.0
 11
10953.4817405016
 21
6002.627139056562
 31
0.0
 70
   160
 71
     5
 42
1510.0
  3
INABA_S40G
100
AcDbAlignedDimension
 13
11736.35691079978
 23
5340.795364285295
 33
0.0
 14
10226.35691079978
 24
5395.795364285299
 34
0.0
100
AcDbRotatedDimension
1001
ACAD
1000
DSTYLE
1002
{
1070
   174
1070
     0
1070
   272
1070
     1
1070
   288
1070
     0
1070
   341
1005
0
1002
}
  0
LINE
  5
16D5F
330
747D
100
AcDbEntity
  8
部品1
100
AcDbLine
 10
10286.35691079978
 20
3320.795364285296
 30
0.0
 11
11656.35691079978
 21
3320.795364285294
 31
0.0
  0
TEXT
  5
16D60
330
747D
100
AcDbEntity
  8
部品1
100
AcDbText
 10
10689.06767910917
 20
2424.825254250052
 30
0.0
 40
135.0
  1
側面図
  7
STYLE2
100
AcDbText
  0
LWPOLYLINE
  5
16D61
330
747D
100
AcDbEntity
  8
部品1
100
AcDbPolyline
 90
        4
 70
     1
 43
0.0
 10
10599.62157768556
 20
2617.718783468578
 10
10599.62157768556
 20
2377.826461923045
 10
11363.092243914
 20
2377.826461923045
 10
11363.092243914
 20
2617.718783468578
  0
LINE
  5
16D62
330
747D
100
AcDbEntity
  8
細線
 48
50.0
100
AcDbLine
 10
10838.85691079978
 20
5160.795364285293
 30
0.0
 11
10838.85691079978
 21
3370.795364285294
 31
0.0
  0
LINE
  5
16D63
330
747D
100
AcDbEntity
  8
細線
 48
50.0
100
AcDbLine
 10
10823.85691079978
 20
5160.795364285293
 30
0.0
 11
10823.85691079978
 21
3370.795364285294
 31
0.0
  0
LINE
  5
16D64
330
747D
100
AcDbEntity
  8
細線
 48
50.0
100
AcDbLine
 10
10963.85691079978
 20
5160.795364285293
 30
0.0
 11
10963.85691079978
 21
3370.795364285294
 31
0.0
  0
LINE
  5
16D65
330
747D
100
AcDbEntity
  8
細線
 48
50.0
100
AcDbLine
 10
10978.85691079978
 20
5160.795364285293
 30
0.0
 11
10978.85691079978
 21
3370.795364285294
 31
0.0
  0
LINE
  5
16D66
330
747D
100
AcDbEntity
  8
細線
 48
50.0
100
AcDbLine
 10
11118.85691079978
 20
5160.795364285293
 30
0.0
 11
11118.85691079978
 21
3370.795364285294
 31
0.0
  0
LINE
  5
16D67
330
747D
100
AcDbEntity
  8
細線
 48
50.0
100
AcDbLine
 10
11103.85691079978
 20
5160.795364285293
 30
0.0
 11
11103.85691079978
 21
3370.795364285294
 31
0.0
  0
LINE
  5
16D68
330
747D
100
AcDbEntity
  8
細線
 48
50.0
100
AcDbLine
 10
10683.85691079978
 20
5160.795364285293
 30
0.0
 11
10683.85691079978
 21
3370.795364285294
 31
0.0
  0
LINE
  5
16D69
330
747D
100
AcDbEntity
  8
細線
 48
50.0
100
AcDbLine
 10
10698.85691079978
 20
5160.795364285293
 30
0.0
 11
10698.85691079978
 21
3370.795364285294
 31
0.0
  0
LINE
  5
16D6A
330
747D
100
AcDbEntity
  8
細線
 48
50.0
100
AcDbLine
 10
10558.85691079978
 20
5160.795364285293
 30
0.0
 11
10558.85691079978
 21
3370.795364285294
 31
0.0
  0
LINE
  5
16D6B
330
747D
100
AcDbEntity
  8
細線
 48
50.0
100
AcDbLine
 10
10543.85691079978
 20
5160.795364285293
 30
0.0
 11
10543.85691079978
 21
3370.795364285294
 31
0.0
  0
LINE
  5
16D6C
330
747D
100
AcDbEntity
  8
細線
 48
50.0
100
AcDbLine
 10
10403.85691079978
 20
5160.795364285293
 30
0.0
 11
10403.85691079978
 21
3370.795364285294
 31
0.0
  0
LINE
  5
16D6D
330
747D
100
AcDbEntity
  8
細線
 48
50.0
100
AcDbLine
 10
10418.85691079978
 20
5160.795364285293
 30
0.0
 11
10418.85691079978
 21
3370.795364285294
 31
0.0
  0
LINE
  5
16D6E
330
747D
100
AcDbEntity
  8
部品1
100
AcDbLine
 10
10233.90189715674
 20
5394.51309961956
 30
0.0
 11
11728.96878766124
 21
5338.84620561286
 31
0.0
  0
LINE
  5
16D6F
330
747D
100
AcDbEntity
  8
部品1
100
AcDbLine
 10
10241.69947540173
 20
5253.576389354261
 30
0.0
 11
11711.02061133963
 21
5213.958007738482
 31
0.0
  0
LINE
  5
16D70
330
747D
100
AcDbEntity
  8
細線
 48
50.0
100
AcDbLine
 10
10259.35691079978
 20
5393.1950406607
 30
0.0
 11
10254.06780924427
 21
5253.109408033345
 31
0.0
  0
LINE
  5
16D71
330
747D
100
AcDbEntity
  8
細線
 48
50.0
100
AcDbLine
 10
11703.35691079978
 20
5340.172386939015
 30
0.0
 11
11698.60922791178
 21
5214.426614448272
 31
0.0
  0
LINE
  5
16D72
330
747D
100
AcDbEntity
  8
部品1
 48
50.0
100
AcDbLine
 10
10226.54119671289
 20
5387.388910449987
 30
0.0
 11
10226.9214564907
 21
5367.461946003576
 31
0.0
  0
LINE
  5
16D73
330
747D
100
AcDbEntity
  8
部品1
 48
50.0
100
AcDbLine
 10
10229.99022859695
 20
5363.886664510102
 30
0.0
 11
10231.69413008831
 21
5274.596167803457
 31
0.0
  0
LINE
  5
16D74
330
747D
100
AcDbEntity
  8
細線
 48
50.0
100
AcDbLine
 10
10227.3963339006
 20
5366.812446126656
 30
0.0
 11
11733.03231864576
 21
5310.598285104254
 31
0.0
  0
LINE
  5
16D75
330
747D
100
AcDbEntity
  8
細線
 48
50.0
100
AcDbLine
 10
10232.15680913788
 20
5273.950934428793
 30
0.0
 11
11722.16047356852
 21
5233.551659072723
 31
0.0
  0
LINE
  5
16D76
330
747D
100
AcDbEntity
  8
部品1
 48
50.0
100
AcDbLine
 10
10234.76290219455
 20
5271.020886309983
 30
0.0
 11
10234.96485481498
 21
5260.437850916891
 31
0.0
  0
ARC
  5
16D77
330
747D
100
AcDbEntity
  8
部品1
 48
50.0
100
AcDbCircle
 10
10233.53992254123
 20
5387.522464857415
 30
0.0
 40
7.0
100
AcDbArc
 50
87.03587545283228
 51
181.0932240292635
  0
ARC
  5
16D78
330
747D
100
AcDbEntity
  8
部品1
 48
50.0
100
AcDbCircle
 10
10241.96358064332
 20
5260.571405324319
 30
0.0
 40
7.0
100
AcDbArc
 50
181.0932240292635
 51
267.8377559869492
  0
ARC
  5
16D79
330
747D
100
AcDbEntity
  8
部品1
100
AcDbCircle
 10
10231.76344826812
 20
5270.9636487068
 30
0.0
 40
3.0
100
AcDbArc
 50
1.093224029263536
 51
80.18775403148449
  0
ARC
  5
16D7A
330
747D
100
AcDbEntity
  8
部品1
100
AcDbCircle
 10
10226.99077467052
 20
5363.829426906919
 30
0.0
 40
3.0
100
AcDbArc
 50
1.093224029263536
 51
80.18775403169875
  0
ARC
  5
16D7B
330
747D
100
AcDbEntity
  8
部品1
100
AcDbCircle
 10
10227.62132907354
 20
5367.475301444318
 30
0.0
 40
0.7
100
AcDbArc
 50
181.0932240292114
 51
260.1877540314845
  0
ARC
  5
16D7C
330
747D
100
AcDbEntity
  8
部品1
100
AcDbCircle
 10
10232.39400267115
 20
5274.609523244198
 30
0.0
 40
0.7
100
AcDbArc
 50
181.0932240292114
 51
260.1877540314845
  0
LINE
  5
16D7D
330
747D
100
AcDbEntity
  8
部品1
 48
50.0
100
AcDbLine
 10
11735.57081361048
 20
5331.146560177938
 30
0.0
 11
11733.54019241951
 21
5311.201518920158
 31
0.0
  0
LINE
  5
16D7E
330
747D
100
AcDbEntity
  8
部品1
 48
50.0
100
AcDbLine
 10
11730.18762593503
 20
5307.89088484725
 30
0.0
 11
11722.68084667019
 21
5234.158264102236
 31
0.0
  0
LINE
  5
16D7F
330
747D
100
AcDbEntity
  8
部品1
 48
50.0
100
AcDbLine
 10
11719.32828018571
 20
5230.847630029324
 30
0.0
 11
11718.24871714597
 21
5220.244013035767
 31
0.0
  0
ARC
  5
16D80
330
747D
100
AcDbEntity
  8
部品1
 48
50.0
100
AcDbCircle
 10
11728.60681304573
 20
5331.855570850712
 30
0.0
 40
7.0
100
AcDbArc
 50
354.1866997664961
 51
87.03587545283228
  0
ARC
  5
16D81
330
747D
100
AcDbEntity
  8
部品1
 48
50.0
100
AcDbCircle
 10
11711.28471658121
 20
5220.95302370854
 30
0.0
 40
7.0
100
AcDbArc
 50
267.8377559869492
 51
354.1866997664961
  0
ARC
  5
16D82
330
747D
100
AcDbEntity
  8
部品1
100
AcDbCircle
 10
11722.31285185632
 20
5230.543768312422
 30
0.0
 40
3.0
100
AcDbArc
 50
95.09216976420788
 51
174.186699766496
  0
ARC
  5
16D83
330
747D
100
AcDbEntity
  8
部品1
100
AcDbCircle
 10
11733.17219760564
 20
5307.587023130345
 30
0.0
 40
3.0
100
AcDbArc
 50
95.09216976420788
 51
174.186699766496
  0
ARC
  5
16D84
330
747D
100
AcDbEntity
  8
部品1
100
AcDbCircle
 10
11732.84379236304
 20
5311.272419987435
 30
0.0
 40
0.7
100
AcDbArc
 50
275.0921697642079
 51
354.1866997664961
  0
ARC
  5
16D85
330
747D
100
AcDbEntity
  8
部品1
100
AcDbCircle
 10
11721.98444661372
 20
5234.229165169512
 30
0.0
 40
0.7
100
AcDbArc
 50
275.0921697642079
 51
354.1866997667034
  0
DIMENSION
  5
16D86
330
747D
100
AcDbEntity
  8
寸法
 48
50.0
100
AcDbDimension
  2
*D34
 10
11736.35691079978
 20
5794.452817864598
 30
0.0
 11
11942.40415489427
 21
5794.452817864598
 31
0.0
 70
   160
 71
     5
 42
80.0
  3
INABA_S40G
100
AcDbAlignedDimension
 13
11656.35691079978
 23
5342.606043896947
 33
0.0
 14
11736.35691079978
 24
5340.795364285295
 34
0.0
100
AcDbRotatedDimension
1001
ACAD
1000
DSTYLE
1002
{
1070
   174
1070
     0
1070
   272
1070
     1
1070
   288
1070
     0
1070
   341
1005
0
1002
}
  0
DIMENSION
  5
16D87
330
747D
100
AcDbEntity
  8
寸法
 48
50.0
100
AcDbDimension
  2
*D35
 10
9634.090659088405
 20
5417.617855182109
 30
0.0
 11
9642.768402740292
 21
5647.454094199002
 31
0.0
 70
   160
 71
     5
 42
141.0
  3
INABA_S40G
100
AcDbAlignedDimension
 13
10241.69947540173
 23
5253.576389354261
 33
0.0
 14
10247.01930955369
 24
5394.475996751143
 34
0.0
 50
87.83775598715743
100
AcDbRotatedDimension
1001
ACAD
1000
DSTYLE
1002
{
1070
   174
1070
     0
1070
   272
1070
     1
1070
   288
1070
     0
1070
   341
1005
0
1002
}
  0
LINE
  5
16D88
330
747D
100
AcDbEntity
  8
部品1
 48
50.0
100
AcDbLine
 10
10831.35691079978
 20
5526.663503386573
 30
0.0
 11
11131.35691079978
 21
5526.663503386573
 31
0.0
  0
LINE
  5
16D89
330
747D
100
AcDbEntity
  8
部品1
 48
50.0
100
AcDbLine
 10
11131.35691079978
 20
5526.663503386573
 30
0.0
 11
11131.35691079978
 21
5505.063503386574
 31
0.0
  0
TEXT
  5
16D8A
330
747D
100
AcDbEntity
  8
部品1
 48
50.0
100
AcDbText
 10
10819.62474602351
 20
5562.547525539006
 30
0.0
 40
120.0
  1
1000
  7
STYLE1
100
AcDbText
  0
TEXT
  5
16D8B
330
747D
100
AcDbEntity
  8
部品1
 48
50.0
100
AcDbText
 10
11308.44975808764
 20
5425.046267320723
 30
0.0
 40
120.0
  1
71
 50
90.0
  7
STYLE1
100
AcDbText
  0
LINE
  5
16D8C
330
747D
100
AcDbEntity
  8
部品1
100
AcDbLine
 10
11181.35691079978
 20
5160.795364285293
 30
0.0
 11
11181.35691079978
 21
3370.795364285294
 31
0.0
  0
LINE
  5
16D8D
330
747D
100
AcDbEntity
  8
細線
 48
50.0
100
AcDbLine
 10
11523.85691079979
 20
5160.795364285293
 30
0.0
 11
11523.85691079979
 21
3370.795364285294
 31
0.0
  0
LINE
  5
16D8E
330
747D
100
AcDbEntity
  8
細線
 48
50.0
100
AcDbLine
 10
11538.85691079978
 20
5160.795364285293
 30
0.0
 11
11538.85691079978
 21
3370.795364285294
 31
0.0
  0
LINE
  5
16D8F
330
747D
100
AcDbEntity
  8
細線
 48
50.0
100
AcDbLine
 10
11398.85691079978
 20
5160.795364285293
 30
0.0
 11
11398.85691079978
 21
3370.795364285294
 31
0.0
  0
LINE
  5
16D90
330
747D
100
AcDbEntity
  8
細線
 48
50.0
100
AcDbLine
 10
11383.85691079979
 20
5160.795364285293
 30
0.0
 11
11383.85691079979
 21
3370.795364285294
 31
0.0
  0
LINE
  5
16D91
330
747D
100
AcDbEntity
  8
細線
 48
50.0
100
AcDbLine
 10
11243.85691079978
 20
5160.795364285293
 30
0.0
 11
11243.85691079978
 21
3370.795364285294
 31
0.0
  0
LINE
  5
16D92
330
747D
100
AcDbEntity
  8
細線
 48
50.0
100
AcDbLine
 10
11258.85691079978
 20
5160.795364285293
 30
0.0
 11
11258.85691079978
 21
3370.795364285294
 31
0.0
  0
LINE
  5
16D93
330
747D
100
AcDbEntity
  8
部品1
 48
50.0
100
AcDbLine
 10
10831.35691079978
 20
5526.663503386573
 30
0.0
 11
11131.35691079978
 21
5505.063503386574
 31
0.0
  0
LINE
  5
16D94
330
747D
100
AcDbEntity
  8
部品1
 48
0.2
100
AcDbLine
 10
10279.35454075501
 20
5160.795364285293
 30
0.0
 11
10279.35454075501
 21
5150.045364285295
 31
0.0
  0
LINE
  5
16D95
330
747D
100
AcDbEntity
  8
部品1
 48
50.0
100
AcDbLine
 10
10279.35454075501
 20
5150.045364285293
 30
0.0
 11
10286.35691079978
 21
5150.045364285293
 31
0.0
  0
LINE
  5
16D96
330
747D
100
AcDbEntity
  8
部品1
 48
50.0
100
AcDbLine
 10
10279.35454075501
 20
3381.545364285297
 30
0.0
 11
10286.35691079978
 21
3381.545364285297
 31
0.0
  0
LINE
  5
16D97
330
747D
100
AcDbEntity
  8
部品1
 48
0.2
100
AcDbLine
 10
10279.35454075501
 20
3381.545364285297
 30
0.0
 11
10279.35454075501
 21
3370.795364285297
 31
0.0
  0
LINE
  5
16D98
330
747D
100
AcDbEntity
  8
部品1
 48
50.0
100
AcDbLine
 10
10279.35454075501
 20
3370.795364285297
 30
0.0
 11
10286.35691079978
 21
3370.795364285297
 31
0.0
  0
DIMENSION
  5
16D99
330
747D
100
AcDbEntity
  8
寸法
100
AcDbDimension
  2
*D36
 10
9684.39382010758
 20
3370.795364285297
 30
0.0
 11
9684.39382010758
 21
4275.830376161683
 31
0.0
 70
   160
 71
     5
 42
1789.999999999998
  3
INABA_S40G
100
AcDbAlignedDimension
 13
10279.35454075501
 23
5160.795364285295
 33
0.0
 14
10279.35454075501
 24
3370.795364285297
 34
0.0
 50
90.0
100
AcDbRotatedDimension
1001
ACAD
1000
DSTYLE
1002
{
1070
   288
1070
     1
1002
}
  0
TEXT
  5
17184
330
747D
100
AcDbEntity
  8
文字
 62
     7
 48
50.0
100
AcDbText
 10
14260.68475616112
 20
855.469579666289
 30
0.0
 40
100.0
  1
～一般型・多雪地型・豪雪地型～
  7
STYLE2
100
AcDbText
  0
LINE
  5
171BA
330
747D
100
AcDbEntity
  8
破線
 48
10.0
100
AcDbLine
 10
3855.985611427217
 20
8855.08403172435
 30
0.0
 11
4563.9849958645
 21
8855.084002499898
 31
0.0
  0
LINE
  5
171BB
330
747D
100
AcDbEntity
  8
破線
 48
10.0
100
AcDbLine
 10
3855.985611427217
 20
8805.08403172435
 30
0.0
 11
4563.9849958645
 21
8805.084002499897
 31
0.0
  0
LINE
  5
171BC
330
747D
100
AcDbEntity
  8
破線
 48
10.0
100
AcDbLine
 10
4675.985611427216
 20
8855.08403172435
 30
0.0
 11
5383.9849958645
 21
8855.084002499898
 31
0.0
  0
LINE
  5
171BD
330
747D
100
AcDbEntity
  8
破線
 48
10.0
100
AcDbLine
 10
4675.985611427216
 20
8805.08403172435
 30
0.0
 11
5383.9849958645
 21
8805.084002499897
 31
0.0
  0
DIMENSION
  5
171BE
330
747D
100
AcDbEntity
  8
寸法
100
AcDbDimension
  2
*D37
 10
5312.049575083467
 20
8632.584002499839
 30
0.0
 11
4931.54957508346
 21
8632.584002499839
 31
0.0
 70
   160
 71
     5
 42
761.0000000000127
  3
INABA_S40G
100
AcDbAlignedDimension
 13
4648.985004917038
 23
8998.084002499876
 33
0.0
 14
5409.985004917051
 24
8998.084002499869
 34
0.0
100
AcDbRotatedDimension
1001
ACAD
1000
DSTYLE
1002
{
1002
}
  0
DIMENSION
  5
171BF
330
747D
100
AcDbEntity
  8
寸法
100
AcDbDimension
  2
*D38
 10
4492.049575083466
 20
8632.584002499839
 30
0.0
 11
4111.491859890919
 21
8632.584002499839
 31
0.0
 70
   160
 71
     5
 42
761.0000000000127
  3
INABA_S40G
100
AcDbAlignedDimension
 13
3828.985004917038
 23
8998.084002499876
 33
0.0
 14
4589.985004917051
 24
8998.084002499869
 34
0.0
100
AcDbRotatedDimension
1001
ACAD
1000
DSTYLE
1002
{
1002
}
  0
DIMENSION
  5
171EA
330
747D
100
AcDbEntity
  8
寸法
100
AcDbDimension
  2
*D39
 10
6132.049575083467
 20
8632.584016359134
 30
0.0
 11
5751.549575083459
 21
8632.584016359134
 31
0.0
 70
   160
 71
     5
 42
761.0000000000127
  3
INABA_S40G
100
AcDbAlignedDimension
 13
5468.985004917038
 23
8998.08401635917
 33
0.0
 14
6229.98500491705
 24
8998.084016359163
 34
0.0
100
AcDbRotatedDimension
1001
ACAD
1000
DSTYLE
1002
{
1002
}
  0
LINE
  5
171EB
330
747D
100
AcDbEntity
  8
破線
 48
10.0
100
AcDbLine
 10
5495.985611427216
 20
8805.084045583642
 30
0.0
 11
6203.9849958645
 21
8805.084016359192
 31
0.0
  0
LINE
  5
171EC
330
747D
100
AcDbEntity
  8
破線
 48
10.0
100
AcDbLine
 10
5495.985611427216
 20
8855.084045583643
 30
0.0
 11
6203.9849958645
 21
8855.084016359191
 31
0.0
  0
DIMENSION
  5
17202
330
747D
100
AcDbEntity
  8
寸法
100
AcDbDimension
  2
*D40
 10
7771.049575083466
 20
8632.584044060818
 30
0.0
 11
7390.54957508346
 21
8632.584044060818
 31
0.0
 70
   160
 71
     5
 42
761.0000000000127
  3
INABA_S40G
100
AcDbAlignedDimension
 13
7107.985004917039
 23
8998.084044060856
 33
0.0
 14
7868.985004917051
 24
8998.084044060849
 34
0.0
100
AcDbRotatedDimension
1001
ACAD
1000
DSTYLE
1002
{
1002
}
  0
LINE
  5
17203
330
747D
100
AcDbEntity
  8
破線
 48
10.0
100
AcDbLine
 10
7134.985611427215
 20
8805.084073285328
 30
0.0
 11
7842.984995864501
 21
8805.084044060878
 31
0.0
  0
LINE
  5
17204
330
747D
100
AcDbEntity
  8
破線
 48
10.0
100
AcDbLine
 10
7134.985611427215
 20
8855.084073285329
 30
0.0
 11
7842.984995864501
 21
8855.084044060879
 31
0.0
  0
DIMENSION
  5
17205
330
747D
100
AcDbEntity
  8
寸法
100
AcDbDimension
  2
*D41
 10
6951.049575083468
 20
8632.584044060818
 30
0.0
 11
6570.491859890918
 21
8632.584044060818
 31
0.0
 70
   160
 71
     5
 42
761.0000000000127
  3
INABA_S40G
100
AcDbAlignedDimension
 13
6287.985004917039
 23
8998.084044060856
 33
0.0
 14
7048.985004917051
 24
8998.084044060849
 34
0.0
100
AcDbRotatedDimension
1001
ACAD
1000
DSTYLE
1002
{
1002
}
  0
LINE
  5
17206
330
747D
100
AcDbEntity
  8
破線
 48
10.0
100
AcDbLine
 10
6314.985611427216
 20
8805.084073285328
 30
0.0
 11
7022.984995864501
 21
8805.084044060878
 31
0.0
  0
LINE
  5
17207
330
747D
100
AcDbEntity
  8
破線
 48
10.0
100
AcDbLine
 10
6314.985611427216
 20
8855.084073285329
 30
0.0
 11
7022.984995864501
 21
8855.084044060879
 31
0.0
  0
LINE
  5
17232
330
747D
100
AcDbEntity
  8
破線
 48
10.0
100
AcDbLine
 10
3879.485046127443
 20
8805.084030754349
 30
0.0
 11
3879.484998239393
 21
8262.584002499879
 31
0.0
  0
LINE
  5
17233
330
747D
100
AcDbEntity
  8
破線
 48
10.0
100
AcDbLine
 10
4540.484991509178
 20
8855.084003469922
 30
0.0
 11
4540.48498988484
 21
8998.084002499975
 31
0.0
  0
LINE
  5
17234
330
747D
100
AcDbEntity
  8
破線
 48
10.0
100
AcDbLine
 10
4698.484988225209
 20
8855.083996948073
 30
0.0
 11
4698.484985808283
 21
8998.084002499917
 31
0.0
  0
LINE
  5
17235
330
747D
100
AcDbEntity
  8
破線
 48
10.0
100
AcDbLine
 10
5360.484991509179
 20
8855.083969622363
 30
0.0
 11
5360.484989884841
 21
8998.084002499975
 31
0.0
  0
LINE
  5
17236
330
747D
100
AcDbEntity
  8
破線
 48
10.0
100
AcDbLine
 10
5518.48498822521
 20
8855.083963100515
 30
0.0
 11
5518.484985808283
 21
8998.084002499917
 31
0.0
  0
LINE
  5
17237
330
747D
100
AcDbEntity
  8
破線
 48
10.0
100
AcDbLine
 10
6180.48499150918
 20
8855.083935774805
 30
0.0
 11
6180.484989884841
 21
8998.084002499975
 31
0.0
  0
LINE
  5
17238
330
747D
100
AcDbEntity
  8
破線
 48
10.0
100
AcDbLine
 10
6338.484988225211
 20
8855.083929252959
 30
0.0
 11
6338.484985808284
 21
8998.084002499917
 31
0.0
  0
LINE
  5
17239
330
747D
100
AcDbEntity
  8
破線
 48
10.0
100
AcDbLine
 10
7000.484991509179
 20
8855.083901927249
 30
0.0
 11
7000.48498988484
 21
8998.084002499975
 31
0.0
  0
LINE
  5
1723A
330
747D
100
AcDbEntity
  8
破線
 48
10.0
100
AcDbLine
 10
7158.48498822521
 20
8855.0838954054
 30
0.0
 11
7158.484985808283
 21
8998.084002499917
 31
0.0
  0
LINE
  5
1723B
330
747D
100
AcDbEntity
  8
破線
 48
10.0
100
AcDbLine
 10
7819.485046127406
 20
8805.083868120963
 30
0.0
 11
7819.48499823939
 21
8262.584002499961
 31
0.0
  0
TEXT
  5
17292
330
747D
100
AcDbEntity
  8
文字
 62
     7
 48
50.0
100
AcDbText
 10
15022.63965474517
 20
10930.01374588372
 30
0.0
 40
100.0
  1
F12            1.2
  7
STYLE1
100
AcDbText
  0
TEXT
  5
17293
330
747D
100
AcDbEntity
  8
文字
 62
     7
 48
50.0
100
AcDbText
 10
13583.11819016569
 20
10930.01374588373
 30
0.0
 40
100.0
  1
根太
  7
STYLE1
100
AcDbText
  0
TEXT
  5
17294
330
747D
100
AcDbEntity
  8
文字
 62
     7
 48
50.0
100
AcDbText
 10
13248.77747366447
 20
8720.013745883735
 30
0.0
 40
100.0
  1
15
  7
STYLE1
100
AcDbText
  0
LINE
  5
17295
330
747D
100
AcDbEntity
  8
仕様書枠
 48
50.0
100
AcDbLine
 10
16307.2
 20
10899.6
 30
0.0
 11
13127.2
 21
10899.6
 31
0.0
  0
TEXT
  5
17296
330
747D
100
AcDbEntity
  8
文字
 62
     7
 48
50.0
100
AcDbText
 10
13583.1181901657
 20
9740.013745883729
 30
0.0
 40
100.0
  1
梁中央
 41
0.9
  7
STYLE1
100
AcDbText
  0
TEXT
  5
17297
330
747D
100
AcDbEntity
  8
文字
 62
     7
 48
50.0
100
AcDbText
 10
15022.63965474517
 20
9740.013745883729
 30
0.0
 40
100.0
  1
F12,Y10       0.7+1.0
  7
STYLE1
100
AcDbText
  0
TEXT
  5
17298
330
747D
100
AcDbEntity
  8
文字
 62
     7
 48
50.0
100
AcDbText
 10
13583.11819016567
 20
8720.013745883729
 30
0.0
 40
100.0
  1
アンカープレート
  7
STYLE1
100
AcDbText
  0
TEXT
  5
17299
330
747D
100
AcDbEntity
  8
文字
 62
     7
 48
50.0
100
AcDbText
 10
15022.63965474513
 20
8720.013745883722
 30
0.0
 40
100.0
  1
F12            2.3
  7
STYLE1
100
AcDbText
  0
LINE
  5
1729A
330
747D
100
AcDbEntity
  8
仕様書枠
 48
50.0
100
AcDbLine
 10
16307.2
 20
9879.600000000001
 30
0.0
 11
13127.2
 21
9879.600000000001
 31
0.0
  0
LINE
  5
1729C
330
747D
100
AcDbEntity
  8
仕様書枠
 48
50.0
100
AcDbLine
 10
16307.19999999999
 20
8349.600000000007
 30
0.0
 11
16307.2
 21
11409.6
 31
0.0
  0
LINE
  5
1729D
330
747D
100
AcDbEntity
  8
仕様書枠
 48
50.0
100
AcDbLine
 10
14785.2
 20
11409.59999999999
 30
0.0
 11
14785.19999999999
 21
8689.6
 31
0.0
  0
LINE
  5
1729E
330
747D
100
AcDbEntity
  8
仕様書枠
 48
50.0
100
AcDbLine
 10
13490.2
 20
11409.6
 30
0.0
 11
13490.2
 21
8689.600000000003
 31
0.0
  0
LINE
  5
1729F
330
747D
100
AcDbEntity
  8
仕様書枠
 48
50.0
100
AcDbLine
 10
16307.19999999999
 20
11239.6
 30
0.0
 11
13127.2
 21
11239.6
 31
0.0
  0
LINE
  5
172A0
330
747D
100
AcDbEntity
  8
仕様書枠
 48
50.0
100
AcDbLine
 10
16307.2
 20
10729.6
 30
0.0
 11
13127.2
 21
10729.6
 31
0.0
  0
LINE
  5
172A1
330
747D
100
AcDbEntity
  8
仕様書枠
 48
50.0
100
AcDbLine
 10
16307.19999999999
 20
11069.6
 30
0.0
 11
13127.2
 21
11069.6
 31
0.0
  0
LINE
  5
172A2
330
747D
100
AcDbEntity
  8
仕様書枠
 48
50.0
100
AcDbLine
 10
16307.19999999999
 20
10389.6
 30
0.0
 11
13127.2
 21
10389.6
 31
0.0
  0
LINE
  5
172A3
330
747D
100
AcDbEntity
  8
仕様書枠
 48
50.0
100
AcDbLine
 10
16307.19999999999
 20
10219.6
 30
0.0
 11
13127.2
 21
10219.6
 31
0.0
  0
LINE
  5
172A4
330
747D
100
AcDbEntity
  8
仕様書枠
 48
50.0
100
AcDbLine
 10
16307.19999999999
 20
10559.6
 30
0.0
 11
13127.2
 21
10559.6
 31
0.0
  0
TEXT
  5
172A5
330
747D
100
AcDbEntity
  8
文字
 62
     7
 48
50.0
100
AcDbText
 10
13197.42518560407
 20
11270.01374588373
 30
0.0
 40
100.0
  1
品番
  7
STYLE1
100
AcDbText
  0
TEXT
  5
172A6
330
747D
100
AcDbEntity
  8
文字
 62
     7
 48
50.0
100
AcDbText
 10
13271.19032244792
 20
11100.01374588373
 30
0.0
 40
100.0
  1
1
  7
STYLE1
100
AcDbText
  0
TEXT
  5
172A7
330
747D
100
AcDbEntity
  8
文字
 62
     7
 48
50.0
100
AcDbText
 10
13271.19032244792
 20
10930.01374588373
 30
0.0
 40
100.0
  1
2
  7
STYLE1
100
AcDbText
  0
TEXT
  5
172A8
330
747D
100
AcDbEntity
  8
文字
 62
     7
 48
50.0
100
AcDbText
 10
13271.19032244793
 20
10590.01374588373
 30
0.0
 40
100.0
  1
4
  7
STYLE1
100
AcDbText
  0
TEXT
  5
172A9
330
747D
100
AcDbEntity
  8
文字
 62
     7
 48
50.0
100
AcDbText
 10
13271.19032244793
 20
10760.01374588373
 30
0.0
 40
100.0
  1
3
  7
STYLE1
100
AcDbText
  0
TEXT
  5
172AA
330
747D
100
AcDbEntity
  8
文字
 62
     7
 48
50.0
100
AcDbText
 10
13732.03840939434
 20
11270.01374588373
 30
0.0
 40
100.0
  1
部　　品　　名
  7
STYLE1
100
AcDbText
  0
TEXT
  5
172AB
330
747D
100
AcDbEntity
  8
文字
 62
     7
 48
50.0
100
AcDbText
 10
14859.79774614482
 20
11270.01374588373
 30
0.0
 40
100.0
  1
材料（材質）　　単位mm
  7
STYLE1
100
AcDbText
  0
TEXT
  5
172AC
330
747D
100
AcDbEntity
  8
文字
 62
     7
 48
50.0
100
AcDbText
 10
13583.11819016569
 20
11100.01374588373
 30
0.0
 40
100.0
  1
土台枠
  7
STYLE1
100
AcDbText
  0
TEXT
  5
172AD
330
747D
100
AcDbEntity
  8
文字
 62
     7
 48
50.0
100
AcDbText
 10
13583.1181901657
 20
10760.01374588373
 30
0.0
 40
100.0
  1
柱
  7
STYLE1
100
AcDbText
  0
TEXT
  5
172AE
330
747D
100
AcDbEntity
  8
文字
 62
     7
 48
50.0
100
AcDbText
 10
13583.1181901657
 20
10420.01374588373
 30
0.0
 40
100.0
  1
鴨居
  7
STYLE1
100
AcDbText
  0
TEXT
  5
172AF
330
747D
100
AcDbEntity
  8
文字
 62
     7
 48
50.0
100
AcDbText
 10
13583.1181901657
 20
10250.01374588373
 30
0.0
 40
100.0
  1
桁後
  7
STYLE1
100
AcDbText
  0
TEXT
  5
172B0
330
747D
100
AcDbEntity
  8
文字
 62
     7
 48
50.0
100
AcDbText
 10
13271.19032244793
 20
10420.01374588373
 30
0.0
 40
100.0
  1
5
  7
STYLE1
100
AcDbText
  0
TEXT
  5
172B1
330
747D
100
AcDbEntity
  8
文字
 62
     7
 48
50.0
100
AcDbText
 10
13583.1181901657
 20
10080.01374588373
 30
0.0
 40
100.0
  1
妻板左右
  7
STYLE1
100
AcDbText
  0
TEXT
  5
172B2
330
747D
100
AcDbEntity
  8
文字
 62
     7
 48
50.0
100
AcDbText
 10
13248.77747366447
 20
9570.013745883729
 30
0.0
 40
100.0
  1
10
  7
STYLE1
100
AcDbText
  0
TEXT
  5
172B3
330
747D
100
AcDbEntity
  8
文字
 62
     7
 48
50.0
100
AcDbText
 10
13583.11819016568
 20
9230.013745883729
 30
0.0
 40
100.0
  1
壁パネル
  7
STYLE1
100
AcDbText
  0
TEXT
  5
172B4
330
747D
100
AcDbEntity
  8
文字
 62
     7
 48
50.0
100
AcDbText
 10
13583.11819016569
 20
9400.013745883729
 30
0.0
 40
100.0
  1
屋根パネル
  7
STYLE1
100
AcDbText
  0
TEXT
  5
172B5
330
747D
100
AcDbEntity
  8
文字
 62
     7
 48
50.0
100
AcDbText
 10
13583.1181901657
 20
9910.01374588373
 30
0.0
 40
100.0
  1
鼻隠シ前後
  7
STYLE1
100
AcDbText
  0
TEXT
  5
172B6
330
747D
100
AcDbEntity
  8
文字
 62
     7
 48
50.0
100
AcDbText
 10
13271.19032244792
 20
9910.01374588373
 30
0.0
 40
100.0
  1
8
  7
STYLE1
100
AcDbText
  0
TEXT
  5
172B7
330
747D
100
AcDbEntity
  8
文字
 62
     7
 48
50.0
100
AcDbText
 10
13271.19032244792
 20
9740.013745883729
 30
0.0
 40
100.0
  1
9
  7
STYLE1
100
AcDbText
  0
TEXT
  5
172B8
330
747D
100
AcDbEntity
  8
文字
 62
     7
 48
50.0
100
AcDbText
 10
13271.19032244792
 20
10080.01374588373
 30
0.0
 40
100.0
  1
7
  7
STYLE1
100
AcDbText
  0
TEXT
  5
172B9
330
747D
100
AcDbEntity
  8
文字
 62
     7
 48
50.0
100
AcDbText
 10
13271.19032244793
 20
10250.01374588373
 30
0.0
 40
100.0
  1
6
  7
STYLE1
100
AcDbText
  0
LINE
  5
172BA
330
747D
100
AcDbEntity
  8
仕様書枠
 48
50.0
100
AcDbLine
 10
16307.19999999998
 20
9369.600000000001
 30
0.0
 11
13127.19999999999
 21
9369.600000000001
 31
0.0
  0
LINE
  5
172BB
330
747D
100
AcDbEntity
  8
仕様書枠
 48
50.0
100
AcDbLine
 10
16307.19999999998
 20
9029.6
 30
0.0
 11
13127.19999999999
 21
9029.6
 31
0.0
  0
LINE
  5
172BC
330
747D
100
AcDbEntity
  8
仕様書枠
 48
50.0
100
AcDbLine
 10
16307.19999999998
 20
9199.600000000001
 30
0.0
 11
13127.19999999999
 21
9199.600000000001
 31
0.0
  0
LINE
  5
172BD
330
747D
100
AcDbEntity
  8
仕様書枠
 48
50.0
100
AcDbLine
 10
16307.2
 20
10049.6
 30
0.0
 11
13127.2
 21
10049.6
 31
0.0
  0
LINE
  5
172BE
330
747D
100
AcDbEntity
  8
仕様書枠
 48
50.0
100
AcDbLine
 10
16307.2
 20
9709.600000000001
 30
0.0
 11
13127.2
 21
9709.600000000001
 31
0.0
  0
TEXT
  5
172BF
330
747D
100
AcDbEntity
  8
文字
 62
     7
 48
50.0
100
AcDbText
 10
13248.77747366447
 20
9400.013745883729
 30
0.0
 40
100.0
  1
11
  7
STYLE1
100
AcDbText
  0
LINE
  5
172C0
330
747D
100
AcDbEntity
  8
仕様書枠
 48
50.0
100
AcDbLine
 10
16307.19999999998
 20
8859.6
 30
0.0
 11
13127.19999999999
 21
8859.6
 31
0.0
  0
LINE
  5
172C1
330
747D
100
AcDbEntity
  8
仕様書枠
 48
50.0
100
AcDbLine
 10
16307.19999999998
 20
8519.600000000002
 30
0.0
 11
13127.19999999999
 21
8519.600000000004
 31
0.0
  0
TEXT
  5
172C2
330
747D
100
AcDbEntity
  8
文字
 62
     7
 48
50.0
100
AcDbText
 10
13248.77747366447
 20
9060.013745883729
 30
0.0
 40
100.0
  1
13
  7
STYLE1
100
AcDbText
  0
TEXT
  5
172C3
330
747D
100
AcDbEntity
  8
文字
 62
     7
 48
50.0
100
AcDbText
 10
13248.77747366447
 20
9230.013745883729
 30
0.0
 40
100.0
  1
12
  7
STYLE1
100
AcDbText
  0
TEXT
  5
172C4
330
747D
100
AcDbEntity
  8
文字
 62
     7
 48
50.0
100
AcDbText
 10
15022.63965474517
 20
11100.01374588372
 30
0.0
 40
100.0
  1
F12            1.2
  7
STYLE1
100
AcDbText
  0
TEXT
  5
172C5
330
747D
100
AcDbEntity
  8
文字
 62
     7
 48
50.0
100
AcDbText
 10
15022.63965474518
 20
10760.01374588372
 30
0.0
 40
100.0
  1
F12            1.0
  7
STYLE1
100
AcDbText
  0
TEXT
  5
172C6
330
747D
100
AcDbEntity
  8
文字
 62
     7
 48
50.0
100
AcDbText
 10
15022.63965474517
 20
10420.01374588372
 30
0.0
 40
100.0
  1
Y10            1.0
  7
STYLE1
100
AcDbText
  0
TEXT
  5
172C7
330
747D
100
AcDbEntity
  8
文字
 62
     7
 48
50.0
100
AcDbText
 10
15022.63965474517
 20
10250.01374588372
 30
0.0
 40
100.0
  1
Y10            1.0
  7
STYLE1
100
AcDbText
  0
TEXT
  5
172C8
330
747D
100
AcDbEntity
  8
文字
 62
     7
 48
50.0
100
AcDbText
 10
15022.63965474517
 20
10080.01374588372
 30
0.0
 40
100.0
  1
Y10            0.7
  7
STYLE1
100
AcDbText
  0
TEXT
  5
172C9
330
747D
100
AcDbEntity
  8
文字
 62
     7
 48
50.0
100
AcDbText
 10
15022.63965474517
 20
9910.013745883725
 30
0.0
 40
100.0
  1
Y10            0.7
  7
STYLE1
100
AcDbText
  0
TEXT
  5
172CA
330
747D
100
AcDbEntity
  8
文字
 62
     7
 48
50.0
100
AcDbText
 10
15022.63965474516
 20
9400.013745883725
 30
0.0
 40
100.0
  1
Y10            0.5
  7
STYLE1
100
AcDbText
  0
TEXT
  5
172CB
330
747D
100
AcDbEntity
  8
文字
 62
     7
 48
50.0
100
AcDbText
 10
15022.63965474515
 20
9230.013745883725
 30
0.0
 40
100.0
  1
F12            0.6
  7
STYLE1
100
AcDbText
  0
LINE
  5
172CC
330
747D
100
AcDbEntity
  8
仕様書枠
 48
50.0
100
AcDbLine
 10
16307.19999999998
 20
8349.600000000004
 30
0.0
 11
13127.19999999999
 21
8349.600000000004
 31
0.0
  0
TEXT
  5
172CD
330
747D
100
AcDbEntity
  8
文字
 62
     7
 48
50.0
100
AcDbText
 10
13229.83081656553
 20
8550.013745883729
 30
0.0
 40
100.0
  1
F12→溶融亜鉛めっき鋼板(JIS G 3302)
  7
STYLE1
100
AcDbText
  0
TEXT
  5
172CE
330
747D
100
AcDbEntity
  8
文字
 62
     7
 48
50.0
100
AcDbText
 10
13229.83081656553
 20
8380.013745883728
 30
0.0
 40
100.0
  1
Y10→溶融亜鉛-5％アルミニウム合金めっき鋼板(JIS G 3317)
 41
0.9
  7
STYLE1
100
AcDbText
  0
LINE
  5
172CF
330
747D
100
AcDbEntity
  8
仕様書枠
 48
50.0
100
AcDbLine
 10
13127.2
 20
11409.6
 30
0.0
 11
13127.19999999999
 21
8349.600000000004
 31
0.0
  0
LINE
  5
172D0
330
747D
100
AcDbEntity
  8
仕様書枠
 48
50.0
100
AcDbLine
 10
16307.19999999998
 20
8689.6
 30
0.0
 11
13127.19999999999
 21
8689.600000000003
 31
0.0
  0
TEXT
  5
172D1
330
747D
100
AcDbEntity
  8
文字
 62
     7
 48
50.0
100
AcDbText
 10
13583.1181901657
 20
10590.01374588373
 30
0.0
 40
100.0
  1
床パネル
 41
0.9
  7
STYLE1
100
AcDbText
  0
TEXT
  5
172D2
330
747D
100
AcDbEntity
  8
文字
 62
     7
 48
50.0
100
AcDbText
 10
15022.63965474517
 20
10590.01374588372
 30
0.0
 40
100.0
  1
F12            1.0
  7
STYLE1
100
AcDbText
  0
TEXT
  5
172D3
330
747D
100
AcDbEntity
  8
文字
 62
     7
 48
50.0
100
AcDbText
 10
15022.63965474515
 20
9060.013745883725
 30
0.0
 40
100.0
  1
F12            0.8
  7
STYLE1
100
AcDbText
  0
TEXT
  5
172D4
330
747D
100
AcDbEntity
  8
文字
 62
     7
 48
50.0
100
AcDbText
 10
13583.11819016568
 20
9060.013745883729
 30
0.0
 40
100.0
  1
扉
  7
STYLE1
100
AcDbText
  0
TEXT
  5
172D5
330
747D
100
AcDbEntity
  8
文字
 62
     7
 48
50.0
100
AcDbText
 10
15022.63965474515
 20
8890.013745883729
 30
0.0
 40
100.0
  1
F12            0.6
  7
STYLE1
100
AcDbText
  0
TEXT
  5
172D6
330
747D
100
AcDbEntity
  8
文字
 62
     7
 48
50.0
100
AcDbText
 10
13583.11819016568
 20
8890.013745883733
 30
0.0
 40
100.0
  1
棚板
  7
STYLE1
100
AcDbText
  0
LINE
  5
172D7
330
747D
100
AcDbEntity
  8
仕様書枠
 48
50.0
100
AcDbLine
 10
16307.2
 20
9539.6
 30
0.0
 11
13127.2
 21
9539.6
 31
0.0
  0
TEXT
  5
172D8
330
747D
100
AcDbEntity
  8
文字
 62
     7
 48
50.0
100
AcDbText
 10
13248.77747366447
 20
8890.013745883731
 30
0.0
 40
100.0
  1
14
  7
STYLE1
100
AcDbText
  0
TEXT
  5
172D9
330
747D
100
AcDbEntity
  8
文字
 62
     7
 48
50.0
100
AcDbText
 10
15022.63965474518
 20
9570.013745883725
 30
0.0
 40
100.0
  1
F12            1.0
  7
STYLE1
100
AcDbText
  0
TEXT
  5
172DA
330
747D
100
AcDbEntity
  8
文字
 62
     7
 48
50.0
100
AcDbText
 10
13583.1181901657
 20
9570.013745883729
 30
0.0
 40
100.0
  1
母屋中
  7
STYLE1
100
AcDbText
  0
ENDSEC
  0
SECTION
  2
OBJECTS
  0
DICTIONARY
  5
7471
330
0
100
AcDbDictionary
281
     1
  3
ACAD_COLOR
350
15A21
  3
ACAD_GROUP
350
7472
  3
ACAD_LAYOUT
350
15A22
  3
ACAD_MATERIAL
350
15A20
  3
ACAD_MLINESTYLE
350
7473
  3
ACAD_PLOTSETTINGS
350
15A23
  3
ACAD_PLOTSTYLENAME
350
15A1E
  3
ACDBHEADERROUNDTRIPXREC
350
172E9
  3
AcDbVariableDictionary
350
172E5
  3
CONTENTDICTIONARY
350
E71C
  3
DRAWINGVARIABLESDICT
350
F3B9
  0
DICTIONARY
  5
15BF5
330
7467
100
AcDbDictionary
280
     1
281
     1
  3
ACAD_LAYERSTATES
360
15BF6
  0
DICTIONARY
  5
15A21
102
{ACAD_REACTORS
330
7471
102
}
330
7471
100
AcDbDictionary
281
     1
  0
DICTIONARY
  5
7472
102
{ACAD_REACTORS
330
7471
102
}
330
7471
100
AcDbDictionary
281
     1
  0
DICTIONARY
  5
15A22
102
{ACAD_REACTORS
330
7471
102
}
330
7471
100
AcDbDictionary
281
     1
  3
Model
350
15A24
  3
レイアウト1
350
15A25
  0
DICTIONARY
  5
15A20
102
{ACAD_REACTORS
330
7471
102
}
330
7471
100
AcDbDictionary
281
     1
  0
DICTIONARY
  5
7473
102
{ACAD_REACTORS
330
7471
102
}
330
7471
100
AcDbDictionary
281
     1
  3
STANDARD
350
7480
  0
DICTIONARY
  5
15A23
102
{ACAD_REACTORS
330
7471
102
}
330
7471
100
AcDbDictionary
281
     1
  0
ACDBDICTIONARYWDFLT
  5
15A1E
102
{ACAD_REACTORS
330
7471
102
}
330
7471
100
AcDbDictionary
281
     1
  3
Normal
350
15A1F
100
AcDbDictionaryWithDefault
340
15A1F
  0
DICTIONARY
  5
172E9
102
{ACAD_REACTORS
330
7471
102
}
330
7471
100
AcDbDictionary
281
     1
  3
COLORDICT
350
172EB
  3
MATERIALDICT
350
172EA
  0
DICTIONARY
  5
172E5
102
{ACAD_REACTORS
330
7471
102
}
330
7471
100
AcDbDictionary
281
     1
  3
DIMASSOC
350
172E6
  3
PROJECTNAME
350
172E7
  0
DICTIONARY
  5
E71C
102
{ACAD_REACTORS
330
7471
102
}
330
7471
100
AcDbDictionary
281
     1
  0
DICTIONARY
  5
F3B9
102
{ACAD_REACTORS
330
7471
102
}
330
7471
100
AcDbDictionary
281
     1
1001
DRAWINGVARIABLESXDATA
1000
POLARMODE
1000
1
  0
DICTIONARY
  5
15BF6
102
{ACAD_REACTORS
330
15BF5
102
}
330
15BF5
100
AcDbDictionary
281
     1
  0
LAYOUT
  5
15A24
102
{ACAD_XDICTIONARY
360
172EC
102
}
102
{ACAD_REACTORS
330
15A22
102
}
330
15A22
100
AcDbPlotSettings
  1

  2
Microsoft Office Document Image Writer
  4

  6

 40
0.0
 41
0.0
 42
0.0
 43
0.0
 44
0.0
 45
0.0
 46
0.0
 47
0.0
 48
0.0
 49
0.0
140
0.0
141
0.0
142
1.0
143
1.0
 70
  1712
 72
     0
 73
     0
 74
     0
  7

 75
     0
147
1.0
148
0.0
149
0.0
100
AcDbLayout
  1
Model
 70
     1
 71
     0
 10
0.0
 20
0.0
 11
12.0
 21
9.0
 12
0.0
 22
0.0
 32
0.0
 14
0.0
 24
0.0
 34
0.0
 15
0.0
 25
0.0
 35
0.0
146
0.0
 13
0.0
 23
0.0
 33
0.0
 16
1.0
 26
0.0
 36
0.0
 17
0.0
 27
1.0
 37
0.0
 76
     0
330
747D
  0
LAYOUT
  5
15A25
102
{ACAD_XDICTIONARY
360
172EE
102
}
102
{ACAD_REACTORS
330
15A22
102
}
330
15A22
100
AcDbPlotSettings
  1

  2
Microsoft Office Document Image Writer
  4

  6

 40
0.0
 41
0.0
 42
0.0
 43
0.0
 44
0.0
 45
0.0
 46
0.0
 47
0.0
 48
0.0
 49
0.0
140
0.0
141
0.0
142
1.0
143
1.0
 70
   688
 72
     0
 73
     0
 74
     5
  7

 75
    16
147
1.0
148
0.0
149
0.0
100
AcDbLayout
  1
レイアウト1
 70
     0
 71
     1
 10
0.0
 20
0.0
 11
420.0
 21
297.0
 12
0.0
 22
0.0
 32
0.0
 14
1.000000000000000E+20
 24
1.000000000000000E+20
 34
1.000000000000000E+20
 15
-1.000000000000000E+20
 25
-1.000000000000000E+20
 35
-1.000000000000000E+20
146
0.0
 13
0.0
 23
0.0
 33
0.0
 16
1.0
 26
0.0
 36
0.0
 17
0.0
 27
1.0
 37
0.0
 76
     0
330
747A
  0
MLINESTYLE
  5
7480
102
{ACAD_REACTORS
330
7473
102
}
330
7473
100
AcDbMlineStyle
  2
STANDARD
 70
     0
  3

 62
     0
 51
90.0
 52
90.0
 71
     2
 49
0.5
 62
   256
  6
BYLAYER
 49
-0.5
 62
   256
  6
BYLAYER
  0
ACDBPLACEHOLDER
  5
15A1F
102
{ACAD_REACTORS
330
15A1E
102
}
330
15A1E
  0
XRECORD
  5
172EB
102
{ACAD_REACTORS
330
172E9
102
}
330
172E9
100
AcDbXrecord
280
     1
340
15A21
  0
XRECORD
  5
172EA
102
{ACAD_REACTORS
330
172E9
102
}
330
172E9
100
AcDbXrecord
280
     1
340
15A20
  0
DICTIONARYVAR
  5
172E6
102
{ACAD_REACTORS
330
172E5
102
}
330
172E5
100
DictionaryVariables
280
     0
  1
1
  0
DICTIONARYVAR
  5
172E7
102
{ACAD_REACTORS
330
172E5
102
}
330
172E5
100
DictionaryVariables
280
     0
  1

  0
DICTIONARY
  5
172EC
330
15A24
100
AcDbDictionary
280
     1
281
     1
  3
ACAD_XREC_ROUNDTRIP
360
172ED
  0
DICTIONARY
  5
172EE
330
15A25
100
AcDbDictionary
280
     1
281
     1
  3
ACAD_XREC_ROUNDTRIP
360
172EF
  0
XRECORD
  5
172ED
102
{ACAD_REACTORS
330
172EC
102
}
330
172EC
100
AcDbXrecord
280
     1
102
SHADEPLOT
 70
     0
102
SHADEPLOTRESLEVEL
 70
     2
102
SHADEPLOTCUSTOMDPI
 70
   300
  0
XRECORD
  5
172EF
102
{ACAD_REACTORS
330
172EE
102
}
330
172EE
100
AcDbXrecord
280
     1
102
SHADEPLOT
 70
     0
102
SHADEPLOTRESLEVEL
 70
     2
102
SHADEPLOTCUSTOMDPI
 70
   300
  0
ENDSEC
  0
EOF
