  0
SECTION
  2
HEADER
  9
$ACADVER
  1
AC1015
  9
$ACADMAINTVER
 70
    20
  9
$DWGCODEPAGE
  3
ANSI_932
  9
$INSBASE
 10
0.0
 20
0.0
 30
0.0
  9
$EXTMIN
 10
139.9999999999995
 20
-0.0000000000000909
 30
0.0
  9
$EXTMAX
 10
16307.2
 20
11409.6
 30
0.0
  9
$LIMMIN
 10
0.0
 20
0.0
  9
$LIMMAX
 10
16800.0
 20
11880.0
  9
$ORTHOMODE
 70
     0
  9
$REGENMODE
 70
     1
  9
$FILLMODE
 70
     1
  9
$QTEXTMODE
 70
     0
  9
$MIRRTEXT
 70
     1
  9
$LTSCALE
 40
20.0
  9
$ATTMODE
 70
     1
  9
$TEXTSIZE
 40
100.0
  9
$TRACEWID
 40
1.0
  9
$TEXTSTYLE
  7
STYLE3
  9
$CLAYER
  8
寸法
  9
$CELTYPE
  6
BYLAYER
  9
$CECOLOR
 62
   256
  9
$CELTSCALE
 40
50.0
  9
$DISPSILH
 70
     0
  9
$DIMSCALE
 40
40.0
  9
$DIMASZ
 40
2.5
  9
$DIMEXO
 40
0.5
  9
$DIMDLI
 40
7.0
  9
$DIMRND
 40
0.0
  9
$DIMDLE
 40
0.0
  9
$DIMEXE
 40
1.5
  9
$DIMTP
 40
0.0
  9
$DIMTM
 40
0.0
  9
$DIMTXT
 40
3.0
  9
$DIMCEN
 40
0.0
  9
$DIMTSZ
 40
0.0
  9
$DIMTOL
 70
     0
  9
$DIMLIM
 70
     0
  9
$DIMTIH
 70
     0
  9
$DIMTOH
 70
     0
  9
$DIMSE1
 70
     0
  9
$DIMSE2
 70
     0
  9
$DIMTAD
 70
     3
  9
$DIMZIN
 70
     8
  9
$DIMBLK
  1

  9
$DIMASO
 70
     1
  9
$DIMSHO
 70
     1
  9
$DIMPOST
  1

  9
$DIMAPOST
  1

  9
$DIMALT
 70
     0
  9
$DIMALTD
 70
     2
  9
$DIMALTF
 40
0.0394
  9
$DIMLFAC
 40
1.0
  9
$DIMTOFL
 70
     1
  9
$DIMTVP
 40
0.0
  9
$DIMTIX
 70
     1
  9
$DIMSOXD
 70
     0
  9
$DIMSAH
 70
     1
  9
$DIMBLK1
  1
DOTSMALL
  9
$DIMBLK2
  1
DOTSMALL
  9
$DIMSTYLE
  2
INABA_S40G
  9
$DIMCLRD
 70
     0
  9
$DIMCLRE
 70
     0
  9
$DIMCLRT
 70
     7
  9
$DIMTFAC
 40
1.0
  9
$DIMGAP
 40
1.0
  9
$DIMJUST
 70
     0
  9
$DIMSD1
 70
     0
  9
$DIMSD2
 70
     0
  9
$DIMTOLJ
 70
     1
  9
$DIMTZIN
 70
     0
  9
$DIMALTZ
 70
     0
  9
$DIMALTTZ
 70
     0
  9
$DIMUPT
 70
     0
  9
$DIMDEC
 70
     1
  9
$DIMTDEC
 70
     4
  9
$DIMALTU
 70
     2
  9
$DIMALTTD
 70
     2
  9
$DIMTXSTY
  7
STYLE1
  9
$DIMAUNIT
 70
     0
  9
$DIMADEC
 70
     0
  9
$DIMALTRND
 40
0.0
  9
$DIMAZIN
 70
     0
  9
$DIMDSEP
 70
    46
  9
$DIMATFIT
 70
     3
  9
$DIMFRAC
 70
     0
  9
$DIMLDRBLK
  1

  9
$DIMLUNIT
 70
     2
  9
$DIMLWD
 70
    -2
  9
$DIMLWE
 70
    -2
  9
$DIMTMOVE
 70
     0
  9
$LUNITS
 70
     2
  9
$LUPREC
 70
     1
  9
$SKETCHINC
 40
1.0
  9
$FILLETRAD
 40
5.0
  9
$AUNITS
 70
     0
  9
$AUPREC
 70
     0
  9
$MENU
  1
acad
  9
$ELEVATION
 40
0.0
  9
$PELEVATION
 40
0.0
  9
$THICKNESS
 40
0.0
  9
$LIMCHECK
 70
     0
  9
$CHAMFERA
 40
0.0
  9
$CHAMFERB
 40
0.0
  9
$CHAMFERC
 40
0.0
  9
$CHAMFERD
 40
0.0
  9
$SKPOLY
 70
     0
  9
$TDCREATE
 40
2452116.684896065
  9
$TDUCREATE
 40
2452116.309896065
  9
$TDUPDATE
 40
2455575.690047373
  9
$TDUUPDATE
 40
2455575.315047373
  9
$TDINDWG
 40
0.5043531944
  9
$TDUSRTIMER
 40
0.5043531944
  9
$USRTIMER
 70
     1
  9
$ANGBASE
 50
0.0
  9
$ANGDIR
 70
     0
  9
$PDMODE
 70
     3
  9
$PDSIZE
 40
2.0
  9
$PLINEWID
 40
0.0
  9
$SPLFRAME
 70
     0
  9
$SPLINETYPE
 70
     6
  9
$SPLINESEGS
 70
     8
  9
$HANDSEED
  5
1728C
  9
$SURFTAB1
 70
     6
  9
$SURFTAB2
 70
     6
  9
$SURFTYPE
 70
     6
  9
$SURFU
 70
     6
  9
$SURFV
 70
     6
  9
$UCSBASE
  2

  9
$UCSNAME
  2

  9
$UCSORG
 10
0.0
 20
0.0
 30
0.0
  9
$UCSXDIR
 10
1.0
 20
0.0
 30
0.0
  9
$UCSYDIR
 10
0.0
 20
1.0
 30
0.0
  9
$UCSORTHOREF
  2

  9
$UCSORTHOVIEW
 70
     0
  9
$UCSORGTOP
 10
0.0
 20
0.0
 30
0.0
  9
$UCSORGBOTTOM
 10
0.0
 20
0.0
 30
0.0
  9
$UCSORGLEFT
 10
0.0
 20
0.0
 30
0.0
  9
$UCSORGRIGHT
 10
0.0
 20
0.0
 30
0.0
  9
$UCSORGFRONT
 10
0.0
 20
0.0
 30
0.0
  9
$UCSORGBACK
 10
0.0
 20
0.0
 30
0.0
  9
$PUCSBASE
  2

  9
$PUCSNAME
  2

  9
$PUCSORG
 10
0.0
 20
0.0
 30
0.0
  9
$PUCSXDIR
 10
1.0
 20
0.0
 30
0.0
  9
$PUCSYDIR
 10
0.0
 20
1.0
 30
0.0
  9
$PUCSORTHOREF
  2

  9
$PUCSORTHOVIEW
 70
     0
  9
$PUCSORGTOP
 10
0.0
 20
0.0
 30
0.0
  9
$PUCSORGBOTTOM
 10
0.0
 20
0.0
 30
0.0
  9
$PUCSORGLEFT
 10
0.0
 20
0.0
 30
0.0
  9
$PUCSORGRIGHT
 10
0.0
 20
0.0
 30
0.0
  9
$PUCSORGFRONT
 10
0.0
 20
0.0
 30
0.0
  9
$PUCSORGBACK
 10
0.0
 20
0.0
 30
0.0
  9
$USERI1
 70
     0
  9
$USERI2
 70
     0
  9
$USERI3
 70
     0
  9
$USERI4
 70
     0
  9
$USERI5
 70
     0
  9
$USERR1
 40
0.0
  9
$USERR2
 40
0.0
  9
$USERR3
 40
0.0
  9
$USERR4
 40
0.0
  9
$USERR5
 40
0.0
  9
$WORLDVIEW
 70
     1
  9
$SHADEDGE
 70
     3
  9
$SHADEDIF
 70
    70
  9
$TILEMODE
 70
     1
  9
$MAXACTVP
 70
    16
  9
$PINSBASE
 10
0.0
 20
0.0
 30
0.0
  9
$PLIMCHECK
 70
     0
  9
$PEXTMIN
 10
1.000000000000000E+20
 20
1.000000000000000E+20
 30
1.000000000000000E+20
  9
$PEXTMAX
 10
-1.000000000000000E+20
 20
-1.000000000000000E+20
 30
-1.000000000000000E+20
  9
$PLIMMIN
 10
0.0
 20
0.0
  9
$PLIMMAX
 10
420.0
 20
297.0
  9
$UNITMODE
 70
     0
  9
$VISRETAIN
 70
     0
  9
$PLINEGEN
 70
     0
  9
$PSLTSCALE
 70
     0
  9
$TREEDEPTH
 70
  3020
  9
$CMLSTYLE
  2
STANDARD
  9
$CMLJUST
 70
     0
  9
$CMLSCALE
 40
1.0
  9
$PROXYGRAPHICS
 70
     1
  9
$MEASUREMENT
 70
     1
  9
$CELWEIGHT
370
    -1
  9
$ENDCAPS
280
     0
  9
$JOINSTYLE
280
     0
  9
$LWDISPLAY
290
     0
  9
$INSUNITS
 70
     0
  9
$HYPERLINKBASE
  1

  9
$STYLESHEET
  1

  9
$XEDIT
290
     1
  9
$CEPSNTYPE
380
     0
  9
$PSTYLEMODE
290
     1
  9
$FINGERPRINTGUID
  2
{157C666C-547C-4636-8D22-2739B0E71F2C}
  9
$VERSIONGUID
  2
{6C78766F-1127-45BA-9144-8FBF40D9CF4B}
  9
$EXTNAMES
290
     1
  9
$PSVPSCALE
 40
0.0
  9
$OLESTARTUP
290
     0
  0
ENDSEC
  0
SECTION
  2
CLASSES
  0
CLASS
  1
ACDBDICTIONARYWDFLT
  2
AcDbDictionaryWithDefault
  3
ObjectDBX Classes
 90
        0
280
     0
281
     0
  0
CLASS
  1
DICTIONARYVAR
  2
AcDbDictionaryVar
  3
ObjectDBX Classes
 90
        0
280
     0
281
     0
  0
CLASS
  1
ACDBPLACEHOLDER
  2
AcDbPlaceHolder
  3
ObjectDBX Classes
 90
        0
280
     0
281
     0
  0
CLASS
  1
LAYOUT
  2
AcDbLayout
  3
ObjectDBX Classes
 90
        0
280
     0
281
     0
  0
ENDSEC
  0
SECTION
  2
TABLES
  0
TABLE
  2
VPORT
  5
746D
330
0
100
AcDbSymbolTable
 70
     2
  0
VPORT
  5
17284
330
746D
100
AcDbSymbolTableRecord
100
AcDbViewportTableRecord
  2
*Active
 70
     0
 10
0.0
 20
0.0
 11
1.0
 21
1.0
 12
8223.761025238502
 22
6348.534457703607
 13
0.0
 23
0.0
 14
10.0
 24
10.0
 15
10.0
 25
10.0
 16
0.0
 26
0.0
 36
1.0
 17
0.0
 27
0.0
 37
0.0
 40
12805.99746330794
 41
1.525925925925925
 42
50.0
 43
0.0
 44
0.0
 50
0.0
 51
0.0
 71
     0
 72
     0
 73
     1
 74
     0
 75
     0
 76
     0
 77
     0
 78
     0
281
     0
 65
     1
110
0.0
120
0.0
130
0.0
111
1.0
121
0.0
131
0.0
112
0.0
122
1.0
132
0.0
 79
     0
146
0.0
  0
ENDTAB
  0
TABLE
  2
LTYPE
  5
746A
330
0
100
AcDbSymbolTable
 70
     4
  0
LTYPE
  5
7477
330
746A
100
AcDbSymbolTableRecord
100
AcDbLinetypeTableRecord
  2
BYBLOCK
 70
     0
  3

 72
    65
 73
     0
 40
0.0
  0
LTYPE
  5
7478
330
746A
100
AcDbSymbolTableRecord
100
AcDbLinetypeTableRecord
  2
BYLAYER
 70
     0
  3

 72
    65
 73
     0
 40
0.0
  0
LTYPE
  5
7479
330
746A
100
AcDbSymbolTableRecord
100
AcDbLinetypeTableRecord
  2
CONTINUOUS
 70
     0
  3
Solid line
 72
    65
 73
     0
 40
0.0
  0
LTYPE
  5
7816
330
746A
100
AcDbSymbolTableRecord
100
AcDbLinetypeTableRecord
  2
CENTER
 70
     0
  3
____ _ ____ _ ____ _ ____ _ ____ _ ____ _ ____ 
 72
    65
 73
     4
 40
2.0
 49
1.25
 74
     0
 49
-0.25
 74
     0
 49
0.25
 74
     0
 49
-0.25
 74
     0
  0
LTYPE
  5
781A
330
746A
100
AcDbSymbolTableRecord
100
AcDbLinetypeTableRecord
  2
HIDDEN
 70
     0
  3
__ __ __ __ __ __ __ __ __ __ __ __ __ __ __ __
 72
    65
 73
     2
 40
0.375
 49
0.25
 74
     0
 49
-0.125
 74
     0
  0
LTYPE
  5
781B
330
746A
100
AcDbSymbolTableRecord
100
AcDbLinetypeTableRecord
  2
PHANTOM
 70
     0
  3
______  __  __  ______  __  __  ______  __  __ 
 72
    65
 73
     6
 40
2.5
 49
1.25
 74
     0
 49
-0.25
 74
     0
 49
0.25
 74
     0
 49
-0.25
 74
     0
 49
0.25
 74
     0
 49
-0.25
 74
     0
  0
ENDTAB
  0
TABLE
  2
LAYER
  5
7467
102
{ACAD_XDICTIONARY
360
15AAE
102
}
330
0
100
AcDbSymbolTable
 70
    12
  0
LAYER
  5
7474
330
7467
100
AcDbSymbolTableRecord
100
AcDbLayerTableRecord
  2
0
 70
     0
 62
     7
  6
CONTINUOUS
370
    -3
390
1590A
  0
LAYER
  5
DEB2
330
7467
100
AcDbSymbolTableRecord
100
AcDbLayerTableRecord
  2
センター
 70
     0
 62
     3
  6
CENTER
370
    -3
390
1590A
  0
LAYER
  5
DEB3
330
7467
100
AcDbSymbolTableRecord
100
AcDbLayerTableRecord
  2
寸法
 70
     0
 62
     4
  6
CONTINUOUS
370
    -3
390
1590A
  0
LAYER
  5
DEB4
330
7467
100
AcDbSymbolTableRecord
100
AcDbLayerTableRecord
  2
部品1
 70
     0
 62
     7
  6
CONTINUOUS
370
    -3
390
1590A
  0
LAYER
  5
DEB5
330
7467
100
AcDbSymbolTableRecord
100
AcDbLayerTableRecord
  2
補助
 70
     0
 62
    -1
  6
CONTINUOUS
370
    -3
390
1590A
  0
LAYER
  5
DEB6
330
7467
100
AcDbSymbolTableRecord
100
AcDbLayerTableRecord
  2
文字
 70
     0
 62
     7
  6
CONTINUOUS
370
    -3
390
1590A
  0
LAYER
  5
F255
330
7467
100
AcDbSymbolTableRecord
100
AcDbLayerTableRecord
  2
DEFPOINTS
 70
     0
 62
     7
  6
CONTINUOUS
290
     0
370
    -3
390
1590A
  0
LAYER
  5
10B54
330
7467
100
AcDbSymbolTableRecord
100
AcDbLayerTableRecord
  2
仕様書枠
 70
     0
 62
   230
  6
CONTINUOUS
370
    -3
390
1590A
  0
LAYER
  5
11729
330
7467
100
AcDbSymbolTableRecord
100
AcDbLayerTableRecord
  2
Ｇ．Ｌ
 70
     0
 62
    30
  6
CONTINUOUS
370
    -3
390
1590A
  0
LAYER
  5
1173F
330
7467
100
AcDbSymbolTableRecord
100
AcDbLayerTableRecord
  2
細線
 70
     0
 62
     5
  6
CONTINUOUS
370
    -3
390
1590A
  0
LAYER
  5
118A1
330
7467
100
AcDbSymbolTableRecord
100
AcDbLayerTableRecord
  2
想像線
 70
     0
 62
     6
  6
PHANTOM
370
    -3
390
1590A
  0
LAYER
  5
123C1
330
7467
100
AcDbSymbolTableRecord
100
AcDbLayerTableRecord
  2
破線
 70
     0
 62
     2
  6
HIDDEN
370
    -3
390
1590A
  0
ENDTAB
  0
TABLE
  2
STYLE
  5
7468
330
0
100
AcDbSymbolTable
 70
     4
  0
STYLE
  5
7475
330
7468
100
AcDbSymbolTableRecord
100
AcDbTextStyleTableRecord
  2
STANDARD
 70
     0
 40
0.0
 41
1.0
 50
0.0
 71
     0
 42
4.0
  3
txt
  4
C:\AutoCAD LT\bigfont.shx
  0
STYLE
  5
F706
330
7468
100
AcDbSymbolTableRecord
100
AcDbTextStyleTableRecord
  2
STYLE1
 70
     0
 40
0.0
 41
1.0
 50
0.0
 71
     0
 42
4.0
  3
isocp.shx
  4
bigfont.shx
  0
STYLE
  5
103BF
330
7468
100
AcDbSymbolTableRecord
100
AcDbTextStyleTableRecord
  2
STYLE2
 70
     0
 40
0.0
 41
1.0
 50
0.0
 71
     0
 42
100.0
  3
MS PGothic.ttf
  4

1001
ACAD
1000
MS PGothic
1071
    32818
  0
STYLE
  5
10BAA
330
7468
100
AcDbSymbolTableRecord
100
AcDbTextStyleTableRecord
  2
STYLE3
 70
     0
 40
0.0
 41
1.0
 50
0.0
 71
     0
 42
100.0
  3

  4

1001
ACAD
1000
DFPGothic-EB
1071
    32818
  0
ENDTAB
  0
TABLE
  2
VIEW
  5
746B
330
0
100
AcDbSymbolTable
 70
     0
  0
ENDTAB
  0
TABLE
  2
UCS
  5
746C
330
0
100
AcDbSymbolTable
 70
     0
  0
ENDTAB
  0
TABLE
  2
APPID
  5
746E
330
0
100
AcDbSymbolTable
 70
     6
  0
APPID
  5
7476
330
746E
100
AcDbSymbolTableRecord
100
AcDbRegAppTableRecord
  2
ACAD
 70
     0
  0
APPID
  5
DEA9
330
746E
100
AcDbSymbolTableRecord
100
AcDbRegAppTableRecord
  2
CONTENTBLOCKICON
 70
     0
  0
APPID
  5
DEAA
330
746E
100
AcDbSymbolTableRecord
100
AcDbRegAppTableRecord
  2
CONTENTBLOCKDESCRIPTION
 70
     0
  0
APPID
  5
E71D
330
746E
100
AcDbSymbolTableRecord
100
AcDbRegAppTableRecord
  2
CONTENTTABDATA
 70
     0
  0
APPID
  5
E71E
330
746E
100
AcDbSymbolTableRecord
100
AcDbRegAppTableRecord
  2
CONTENTCURRENTTAB
 70
     0
  0
APPID
  5
F3BA
330
746E
100
AcDbSymbolTableRecord
100
AcDbRegAppTableRecord
  2
DRAWINGVARIABLESXDATA
 70
     0
  0
ENDTAB
  0
TABLE
  2
DIMSTYLE
  5
746F
330
0
100
AcDbSymbolTable
 70
     2
100
AcDbDimStyleTable
 71
     1
340
F71F
  0
DIMSTYLE
105
7484
330
746F
100
AcDbSymbolTableRecord
100
AcDbDimStyleTableRecord
  2
JIS
 70
     0
 41
2.5
 42
1.0
 43
7.0
 44
1.0
 73
     0
 74
     0
 77
     1
 78
     8
140
2.5
141
0.0
143
0.0394
147
0.0
172
     1
174
     1
175
     1
340
7475
  0
DIMSTYLE
105
F71F
102
{ACAD_REACTORS
330
15107
330
15108
330
15109
330
1510A
330
1510B
330
1510C
330
1510D
330
1510E
330
1511A
330
1516A
330
15171
330
15189
330
1518A
330
151C8
330
156F5
330
15855
330
15864
330
1587E
330
15898
330
158FA
330
16417
330
16416
330
16418
330
1648D
330
16CEA
330
16CEB
330
16CEF
330
16CF0
330
16CF1
330
16CF2
330
16D1A
330
16D1B
330
16D2D
330
17174
330
17175
330
171A0
330
171A3
102
}
330
746F
100
AcDbSymbolTableRecord
100
AcDbDimStyleTableRecord
  2
INABA_S40G
 70
     0
 40
40.0
 41
2.5
 42
0.5
 43
7.0
 44
1.5
 73
     0
 74
     0
 77
     3
 78
     8
140
3.0
141
0.0
143
0.0394
147
1.0
172
     1
173
     1
174
     1
178
     7
271
     1
340
F706
341
F770
343
F770
344
F770
  0
ENDTAB
  0
TABLE
  2
BLOCK_RECORD
  5
7466
330
0
100
AcDbSymbolTable
 70
    38
  0
BLOCK_RECORD
  5
747D
330
7466
100
AcDbSymbolTableRecord
100
AcDbBlockTableRecord
  2
*MODEL_SPACE
340
1590F
  0
BLOCK_RECORD
  5
747A
330
7466
100
AcDbSymbolTableRecord
100
AcDbBlockTableRecord
  2
*PAPER_SPACE
340
15910
  0
BLOCK_RECORD
  5
F770
330
7466
100
AcDbSymbolTableRecord
100
AcDbBlockTableRecord
  2
_DOTSMALL
340
0
102
{BLKREFS
331
16839
331
1683A
331
16844
331
16845
331
1684D
331
1684E
331
16856
331
16857
331
168A4
331
168A5
331
168AD
331
168AE
331
168BF
331
168C0
331
168D1
331
168D2
331
168E3
331
168E4
331
168EE
331
168EF
331
168F7
331
168F8
331
16909
331
1690A
331
16912
331
16913
331
1691B
331
1691C
331
16926
331
16927
331
1692F
331
16930
331
1693A
331
1693B
331
16945
331
16946
331
1694E
331
1694F
331
16959
331
1695A
331
16962
331
16963
331
1696D
331
1696E
331
16978
331
16979
331
16981
331
16982
331
170A1
331
170A2
331
170AB
331
170AC
331
170B5
331
170B6
331
170BE
331
170BF
331
170C9
331
170CA
331
170D2
331
170D3
331
170DB
331
170DC
331
170E6
331
170E7
331
170EF
331
170F0
331
17191
331
17192
331
1719A
331
1719B
331
171C1
331
171C2
331
171CA
331
171CB
102
}
  0
BLOCK_RECORD
  5
152EF
330
7466
100
AcDbSymbolTableRecord
100
AcDbBlockTableRecord
  2
*D1
340
0
  0
BLOCK_RECORD
  5
152FB
330
7466
100
AcDbSymbolTableRecord
100
AcDbBlockTableRecord
  2
*D2
340
0
  0
BLOCK_RECORD
  5
15309
330
7466
100
AcDbSymbolTableRecord
100
AcDbBlockTableRecord
  2
*D3
340
0
  0
BLOCK_RECORD
  5
15317
330
7466
100
AcDbSymbolTableRecord
100
AcDbBlockTableRecord
  2
*D4
340
0
  0
BLOCK_RECORD
  5
15323
330
7466
100
AcDbSymbolTableRecord
100
AcDbBlockTableRecord
  2
*D5
340
0
  0
BLOCK_RECORD
  5
15331
330
7466
100
AcDbSymbolTableRecord
100
AcDbBlockTableRecord
  2
*D6
340
0
  0
BLOCK_RECORD
  5
1533D
330
7466
100
AcDbSymbolTableRecord
100
AcDbBlockTableRecord
  2
*D7
340
0
  0
BLOCK_RECORD
  5
1534B
330
7466
100
AcDbSymbolTableRecord
100
AcDbBlockTableRecord
  2
*D8
340
0
  0
BLOCK_RECORD
  5
15371
330
7466
100
AcDbSymbolTableRecord
100
AcDbBlockTableRecord
  2
*D9
340
0
  0
BLOCK_RECORD
  5
15395
330
7466
100
AcDbSymbolTableRecord
100
AcDbBlockTableRecord
  2
*D10
340
0
  0
BLOCK_RECORD
  5
153A3
330
7466
100
AcDbSymbolTableRecord
100
AcDbBlockTableRecord
  2
*D11
340
0
  0
BLOCK_RECORD
  5
153BB
330
7466
100
AcDbSymbolTableRecord
100
AcDbBlockTableRecord
  2
*D12
340
0
  0
BLOCK_RECORD
  5
153C7
330
7466
100
AcDbSymbolTableRecord
100
AcDbBlockTableRecord
  2
*D13
340
0
  0
BLOCK_RECORD
  5
153DF
330
7466
100
AcDbSymbolTableRecord
100
AcDbBlockTableRecord
  2
*D14
340
0
  0
BLOCK_RECORD
  5
156FD
330
7466
100
AcDbSymbolTableRecord
100
AcDbBlockTableRecord
  2
*D15
340
0
  0
BLOCK_RECORD
  5
15856
330
7466
100
AcDbSymbolTableRecord
100
AcDbBlockTableRecord
  2
*D16
340
0
  0
BLOCK_RECORD
  5
15865
330
7466
100
AcDbSymbolTableRecord
100
AcDbBlockTableRecord
  2
*D17
340
0
  0
BLOCK_RECORD
  5
1587F
330
7466
100
AcDbSymbolTableRecord
100
AcDbBlockTableRecord
  2
*D18
340
0
  0
BLOCK_RECORD
  5
15899
330
7466
100
AcDbSymbolTableRecord
100
AcDbBlockTableRecord
  2
*D19
340
0
  0
BLOCK_RECORD
  5
158FB
330
7466
100
AcDbSymbolTableRecord
100
AcDbBlockTableRecord
  2
*D20
340
0
  0
BLOCK_RECORD
  5
16431
330
7466
100
AcDbSymbolTableRecord
100
AcDbBlockTableRecord
  2
*D21
340
0
  0
BLOCK_RECORD
  5
1643D
330
7466
100
AcDbSymbolTableRecord
100
AcDbBlockTableRecord
  2
*D22
340
0
  0
BLOCK_RECORD
  5
16449
330
7466
100
AcDbSymbolTableRecord
100
AcDbBlockTableRecord
  2
*D23
340
0
  0
BLOCK_RECORD
  5
16498
330
7466
100
AcDbSymbolTableRecord
100
AcDbBlockTableRecord
  2
*D24
340
0
  0
BLOCK_RECORD
  5
16F64
330
7466
100
AcDbSymbolTableRecord
100
AcDbBlockTableRecord
  2
*D25
340
0
  0
BLOCK_RECORD
  5
16F70
330
7466
100
AcDbSymbolTableRecord
100
AcDbBlockTableRecord
  2
*D26
340
0
  0
BLOCK_RECORD
  5
16F7E
330
7466
100
AcDbSymbolTableRecord
100
AcDbBlockTableRecord
  2
*D27
340
0
  0
BLOCK_RECORD
  5
16F8A
330
7466
100
AcDbSymbolTableRecord
100
AcDbBlockTableRecord
  2
*D28
340
0
  0
BLOCK_RECORD
  5
16F96
330
7466
100
AcDbSymbolTableRecord
100
AcDbBlockTableRecord
  2
*D29
340
0
  0
BLOCK_RECORD
  5
16FA4
330
7466
100
AcDbSymbolTableRecord
100
AcDbBlockTableRecord
  2
*D30
340
0
  0
BLOCK_RECORD
  5
16FB0
330
7466
100
AcDbSymbolTableRecord
100
AcDbBlockTableRecord
  2
*D31
340
0
  0
BLOCK_RECORD
  5
16FBD
330
7466
100
AcDbSymbolTableRecord
100
AcDbBlockTableRecord
  2
*D32
340
0
  0
BLOCK_RECORD
  5
16FCA
330
7466
100
AcDbSymbolTableRecord
100
AcDbBlockTableRecord
  2
*D33
340
0
  0
BLOCK_RECORD
  5
17176
330
7466
100
AcDbSymbolTableRecord
100
AcDbBlockTableRecord
  2
*D34
340
0
  0
BLOCK_RECORD
  5
17182
330
7466
100
AcDbSymbolTableRecord
100
AcDbBlockTableRecord
  2
*D35
340
0
  0
BLOCK_RECORD
  5
171A6
330
7466
100
AcDbSymbolTableRecord
100
AcDbBlockTableRecord
  2
*D36
340
0
  0
BLOCK_RECORD
  5
171B2
330
7466
100
AcDbSymbolTableRecord
100
AcDbBlockTableRecord
  2
*D37
340
0
  0
ENDTAB
  0
ENDSEC
  0
SECTION
  2
BLOCKS
  0
BLOCK
  5
7489
330
747D
100
AcDbEntity
  8
0
100
AcDbBlockBegin
  2
*MODEL_SPACE
 70
     0
 10
0.0
 20
0.0
 30
0.0
  3
*MODEL_SPACE
  1

  0
ENDBLK
  5
748A
330
747D
100
AcDbEntity
  8
0
100
AcDbBlockEnd
  0
BLOCK
  5
7487
330
747A
100
AcDbEntity
 67
     1
  8
0
100
AcDbBlockBegin
  2
*PAPER_SPACE
 70
     0
 10
0.0
 20
0.0
 30
0.0
  3
*PAPER_SPACE
  1

  0
ENDBLK
  5
7488
330
747A
100
AcDbEntity
 67
     1
  8
0
100
AcDbBlockEnd
  0
BLOCK
  5
F771
330
F770
100
AcDbEntity
  8
0
 48
50.0
100
AcDbBlockBegin
  2
_DOTSMALL
 70
     0
 10
0.0
 20
0.0
 30
0.0
  3
_DOTSMALL
  1

  0
LWPOLYLINE
  5
F772
330
F770
100
AcDbEntity
  8
0
  6
ByBlock
 62
     0
 48
50.0
100
AcDbPolyline
 90
        2
 70
     1
 43
0.5
 10
-0.0625
 20
0.0
 42
1.0
 10
0.0625
 20
0.0
 42
1.0
  0
ENDBLK
  5
F776
330
F770
100
AcDbEntity
  8
0
 48
50.0
100
AcDbBlockEnd
  0
BLOCK
  5
1541F
330
152EF
100
AcDbEntity
  8
0
 48
50.0
100
AcDbBlockBegin
  2
*D1
 70
     1
 10
0.0
 20
0.0
 30
0.0
  3
*D1
  1

  0
LINE
  5
1697E
330
152EF
100
AcDbEntity
  8
寸法
 62
     0
 48
50.0
370
    -2
100
AcDbLine
 10
8106.095742082201
 20
9118.845970764906
 30
0.0
 11
8106.095742082201
 21
9374.654190389895
 31
0.0
  0
LINE
  5
1697F
330
152EF
100
AcDbEntity
  8
寸法
 62
     0
 48
50.0
370
    -2
100
AcDbLine
 10
7396.095742082204
 20
9118.845970764891
 30
0.0
 11
7396.095742082204
 21
9374.654190389895
 31
0.0
  0
LINE
  5
16980
330
152EF
100
AcDbEntity
  8
寸法
 62
     0
 48
50.0
370
    -2
100
AcDbLine
 10
8106.095742082201
 20
9314.654190389894
 30
0.0
 11
7396.095742082204
 21
9314.654190389894
 31
0.0
  0
INSERT
  5
16981
330
152EF
100
AcDbEntity
  8
寸法
 62
     0
 48
50.0
370
    -2
100
AcDbBlockReference
  2
_DOTSMALL
 10
8106.095742082201
 20
9314.654190389894
 30
0.0
 41
100.0
 42
100.0
 43
100.0
  0
INSERT
  5
16982
330
152EF
100
AcDbEntity
  8
寸法
 62
     0
 48
50.0
370
    -2
100
AcDbBlockReference
  2
_DOTSMALL
 10
7396.095742082204
 20
9314.654190389894
 30
0.0
 41
100.0
 42
100.0
 43
100.0
 50
180.0
  0
MTEXT
  5
16983
330
152EF
100
AcDbEntity
  8
寸法
 62
     7
 48
50.0
100
AcDbMText
 10
7751.095742082203
 20
9414.654190389894
 30
0.0
 40
120.0
 41
0.0
 71
     5
 72
     1
  1
\A1;710
  7
STYLE1
 73
     1
 44
1.0
1001
ACAD
1000
MTEXTBEGIN
1070
    73
1070
     1
1070
    44
1040
1.0
1070
    74
1070
     0
1000
MTEXTEND
  0
POINT
  5
16984
330
152EF
100
AcDbEntity
  8
DEFPOINTS
 62
     0
 48
50.0
100
AcDbPoint
 10
8106.095742082201
 20
9098.845970764905
 30
0.0
  0
POINT
  5
16985
330
152EF
100
AcDbEntity
  8
DEFPOINTS
 62
     0
 48
50.0
100
AcDbPoint
 10
7396.095742082204
 20
9098.845970764891
 30
0.0
  0
POINT
  5
16986
330
152EF
100
AcDbEntity
  8
DEFPOINTS
 62
     0
 48
50.0
100
AcDbPoint
 10
7396.095742082204
 20
9314.654190389894
 30
0.0
  0
ENDBLK
  5
15429
330
152EF
100
AcDbEntity
  8
0
 48
50.0
100
AcDbBlockEnd
  0
BLOCK
  5
1542A
330
152FB
100
AcDbEntity
  8
0
 48
50.0
100
AcDbBlockBegin
  2
*D2
 70
     1
 10
0.0
 20
0.0
 30
0.0
  3
*D2
  1

  0
LINE
  5
16973
330
152FB
100
AcDbEntity
  8
寸法
 62
     0
 48
50.0
370
    -2
100
AcDbLine
 10
8106.095742082201
 20
9118.845970764891
 30
0.0
 11
8106.095742082201
 21
9374.654190389874
 31
0.0
  0
LINE
  5
16974
330
152FB
100
AcDbEntity
  8
寸法
 62
     0
 48
50.0
370
    -2
100
AcDbLine
 10
8161.095742082201
 20
9118.845970764891
 30
0.0
 11
8161.095742082201
 21
9374.654190389874
 31
0.0
  0
LINE
  5
16975
330
152FB
100
AcDbEntity
  8
寸法
 62
     0
 48
50.0
370
    -2
100
AcDbLine
 10
8106.095742082201
 20
9314.654190389871
 30
0.0
 11
8006.095742082202
 21
9314.654190389871
 31
0.0
  0
LINE
  5
16976
330
152FB
100
AcDbEntity
  8
寸法
 62
     0
 48
50.0
370
    -2
100
AcDbLine
 10
8161.095742082201
 20
9314.654190389871
 30
0.0
 11
8578.066304830677
 21
9314.654190389871
 31
0.0
  0
LINE
  5
16977
330
152FB
100
AcDbEntity
  8
寸法
 62
     0
 48
50.0
370
    -2
100
AcDbLine
 10
8106.095742082201
 20
9314.654190389871
 30
0.0
 11
8161.095742082201
 21
9314.654190389871
 31
0.0
  0
INSERT
  5
16978
330
152FB
100
AcDbEntity
  8
寸法
 62
     0
 48
50.0
370
    -2
100
AcDbBlockReference
  2
_DOTSMALL
 10
8106.095742082201
 20
9314.654190389871
 30
0.0
 41
100.0
 42
100.0
 43
100.0
  0
INSERT
  5
16979
330
152FB
100
AcDbEntity
  8
寸法
 62
     0
 48
50.0
370
    -2
100
AcDbBlockReference
  2
_DOTSMALL
 10
8161.095742082201
 20
9314.654190389871
 30
0.0
 41
100.0
 42
100.0
 43
100.0
 50
180.0
  0
MTEXT
  5
1697A
330
152FB
100
AcDbEntity
  8
寸法
 62
     7
 48
50.0
100
AcDbMText
 10
8469.58102345644
 20
9414.654190389873
 30
0.0
 40
120.0
 41
0.0
 71
     5
 72
     1
  1
\A1;55
  7
STYLE1
 73
     1
 44
1.0
1001
ACAD
1000
MTEXTBEGIN
1070
    73
1070
     1
1070
    44
1040
1.0
1070
    74
1070
     0
1000
MTEXTEND
  0
POINT
  5
1697B
330
152FB
100
AcDbEntity
  8
DEFPOINTS
 62
     0
 48
50.0
100
AcDbPoint
 10
8106.095742082201
 20
9098.845970764891
 30
0.0
  0
POINT
  5
1697C
330
152FB
100
AcDbEntity
  8
DEFPOINTS
 62
     0
 48
50.0
100
AcDbPoint
 10
8161.095742082201
 20
9098.845970764891
 30
0.0
  0
POINT
  5
1697D
330
152FB
100
AcDbEntity
  8
DEFPOINTS
 62
     0
 48
50.0
100
AcDbPoint
 10
8161.095742082201
 20
9314.654190389871
 30
0.0
  0
ENDBLK
  5
15436
330
152FB
100
AcDbEntity
  8
0
 48
50.0
100
AcDbBlockEnd
  0
BLOCK
  5
15437
330
15309
100
AcDbEntity
  8
0
 48
50.0
100
AcDbBlockBegin
  2
*D3
 70
     1
 10
0.0
 20
0.0
 30
0.0
  3
*D3
  1

  0
LINE
  5
16968
330
15309
100
AcDbEntity
  8
寸法
 62
     0
 48
50.0
370
    -2
100
AcDbLine
 10
6466.0957420822
 20
9118.845970764914
 30
0.0
 11
6466.0957420822
 21
9374.654190389895
 31
0.0
  0
LINE
  5
16969
330
15309
100
AcDbEntity
  8
寸法
 62
     0
 48
50.0
370
    -2
100
AcDbLine
 10
6576.095742082204
 20
9118.845970764891
 30
0.0
 11
6576.095742082204
 21
9374.654190389895
 31
0.0
  0
LINE
  5
1696A
330
15309
100
AcDbEntity
  8
寸法
 62
     0
 48
50.0
370
    -2
100
AcDbLine
 10
6466.0957420822
 20
9314.654190389894
 30
0.0
 11
6366.0957420822
 21
9314.654190389894
 31
0.0
  0
LINE
  5
1696B
330
15309
100
AcDbEntity
  8
寸法
 62
     0
 48
50.0
370
    -2
100
AcDbLine
 10
6576.095742082204
 20
9314.654190389894
 30
0.0
 11
6676.095742082203
 21
9314.654190389894
 31
0.0
  0
LINE
  5
1696C
330
15309
100
AcDbEntity
  8
寸法
 62
     0
 48
50.0
370
    -2
100
AcDbLine
 10
6466.0957420822
 20
9314.654190389894
 30
0.0
 11
6576.095742082204
 21
9314.654190389894
 31
0.0
  0
INSERT
  5
1696D
330
15309
100
AcDbEntity
  8
寸法
 62
     0
 48
50.0
370
    -2
100
AcDbBlockReference
  2
_DOTSMALL
 10
6466.0957420822
 20
9314.654190389894
 30
0.0
 41
100.0
 42
100.0
 43
100.0
  0
INSERT
  5
1696E
330
15309
100
AcDbEntity
  8
寸法
 62
     0
 48
50.0
370
    -2
100
AcDbBlockReference
  2
_DOTSMALL
 10
6576.095742082204
 20
9314.654190389894
 30
0.0
 41
100.0
 42
100.0
 43
100.0
 50
180.0
  0
MTEXT
  5
1696F
330
15309
100
AcDbEntity
  8
寸法
 62
     7
 48
50.0
100
AcDbMText
 10
6521.095742082201
 20
9414.654190389894
 30
0.0
 40
120.0
 41
0.0
 71
     5
 72
     1
  1
\A1;110
  7
STYLE1
 73
     1
 44
1.0
1001
ACAD
1000
MTEXTBEGIN
1070
    73
1070
     1
1070
    44
1040
1.0
1070
    74
1070
     0
1000
MTEXTEND
  0
POINT
  5
16970
330
15309
100
AcDbEntity
  8
DEFPOINTS
 62
     0
 48
50.0
100
AcDbPoint
 10
6466.0957420822
 20
9098.845970764912
 30
0.0
  0
POINT
  5
16971
330
15309
100
AcDbEntity
  8
DEFPOINTS
 62
     0
 48
50.0
100
AcDbPoint
 10
6576.095742082204
 20
9098.845970764891
 30
0.0
  0
POINT
  5
16972
330
15309
100
AcDbEntity
  8
DEFPOINTS
 62
     0
 48
50.0
100
AcDbPoint
 10
6576.095742082204
 20
9314.654190389894
 30
0.0
  0
ENDBLK
  5
15443
330
15309
100
AcDbEntity
  8
0
 48
50.0
100
AcDbBlockEnd
  0
BLOCK
  5
15444
330
15317
100
AcDbEntity
  8
0
 48
50.0
100
AcDbBlockBegin
  2
*D4
 70
     1
 10
0.0
 20
0.0
 30
0.0
  3
*D4
  1

  0
LINE
  5
1695F
330
15317
100
AcDbEntity
  8
寸法
 62
     0
 48
50.0
370
    -2
100
AcDbLine
 10
5756.095742082202
 20
9118.845970764825
 30
0.0
 11
5756.095742082202
 21
9374.654190389895
 31
0.0
  0
LINE
  5
16960
330
15317
100
AcDbEntity
  8
寸法
 62
     0
 48
50.0
370
    -2
100
AcDbLine
 10
6466.0957420822
 20
9118.845970764914
 30
0.0
 11
6466.0957420822
 21
9374.654190389895
 31
0.0
  0
LINE
  5
16961
330
15317
100
AcDbEntity
  8
寸法
 62
     0
 48
50.0
370
    -2
100
AcDbLine
 10
5756.095742082202
 20
9314.654190389894
 30
0.0
 11
6466.0957420822
 21
9314.654190389894
 31
0.0
  0
INSERT
  5
16962
330
15317
100
AcDbEntity
  8
寸法
 62
     0
 48
50.0
370
    -2
100
AcDbBlockReference
  2
_DOTSMALL
 10
5756.095742082202
 20
9314.654190389894
 30
0.0
 41
100.0
 42
100.0
 43
100.0
 50
180.0
  0
INSERT
  5
16963
330
15317
100
AcDbEntity
  8
寸法
 62
     0
 48
50.0
370
    -2
100
AcDbBlockReference
  2
_DOTSMALL
 10
6466.0957420822
 20
9314.654190389894
 30
0.0
 41
100.0
 42
100.0
 43
100.0
  0
MTEXT
  5
16964
330
15317
100
AcDbEntity
  8
寸法
 62
     7
 48
50.0
100
AcDbMText
 10
6111.3457420822
 20
9414.654190389894
 30
0.0
 40
120.0
 41
0.0
 71
     5
 72
     1
  1
\A1;710
  7
STYLE1
 73
     1
 44
1.0
1001
ACAD
1000
MTEXTBEGIN
1070
    73
1070
     1
1070
    44
1040
1.0
1070
    74
1070
     0
1000
MTEXTEND
  0
POINT
  5
16965
330
15317
100
AcDbEntity
  8
DEFPOINTS
 62
     0
 48
50.0
100
AcDbPoint
 10
5756.095742082202
 20
9098.845970764825
 30
0.0
  0
POINT
  5
16966
330
15317
100
AcDbEntity
  8
DEFPOINTS
 62
     0
 48
50.0
100
AcDbPoint
 10
6466.0957420822
 20
9098.845970764912
 30
0.0
  0
POINT
  5
16967
330
15317
100
AcDbEntity
  8
DEFPOINTS
 62
     0
 48
50.0
100
AcDbPoint
 10
6466.0957420822
 20
9314.654190389894
 30
0.0
  0
ENDBLK
  5
1544E
330
15317
100
AcDbEntity
  8
0
 48
50.0
100
AcDbBlockEnd
  0
BLOCK
  5
1544F
330
15323
100
AcDbEntity
  8
0
 48
50.0
100
AcDbBlockBegin
  2
*D5
 70
     1
 10
0.0
 20
0.0
 30
0.0
  3
*D5
  1

  0
LINE
  5
16954
330
15323
100
AcDbEntity
  8
寸法
 62
     0
 48
50.0
370
    -2
100
AcDbLine
 10
7286.0957420822
 20
9118.845970764914
 30
0.0
 11
7286.0957420822
 21
9374.654190389895
 31
0.0
  0
LINE
  5
16955
330
15323
100
AcDbEntity
  8
寸法
 62
     0
 48
50.0
370
    -2
100
AcDbLine
 10
7396.095742082204
 20
9118.845970764891
 30
0.0
 11
7396.095742082204
 21
9374.654190389895
 31
0.0
  0
LINE
  5
16956
330
15323
100
AcDbEntity
  8
寸法
 62
     0
 48
50.0
370
    -2
100
AcDbLine
 10
7286.0957420822
 20
9314.654190389894
 30
0.0
 11
7186.0957420822
 21
9314.654190389894
 31
0.0
  0
LINE
  5
16957
330
15323
100
AcDbEntity
  8
寸法
 62
     0
 48
50.0
370
    -2
100
AcDbLine
 10
7396.095742082204
 20
9314.654190389894
 30
0.0
 11
7496.095742082204
 21
9314.654190389894
 31
0.0
  0
LINE
  5
16958
330
15323
100
AcDbEntity
  8
寸法
 62
     0
 48
50.0
370
    -2
100
AcDbLine
 10
7286.0957420822
 20
9314.654190389894
 30
0.0
 11
7396.095742082204
 21
9314.654190389894
 31
0.0
  0
INSERT
  5
16959
330
15323
100
AcDbEntity
  8
寸法
 62
     0
 48
50.0
370
    -2
100
AcDbBlockReference
  2
_DOTSMALL
 10
7286.0957420822
 20
9314.654190389894
 30
0.0
 41
100.0
 42
100.0
 43
100.0
  0
INSERT
  5
1695A
330
15323
100
AcDbEntity
  8
寸法
 62
     0
 48
50.0
370
    -2
100
AcDbBlockReference
  2
_DOTSMALL
 10
7396.095742082204
 20
9314.654190389894
 30
0.0
 41
100.0
 42
100.0
 43
100.0
 50
180.0
  0
MTEXT
  5
1695B
330
15323
100
AcDbEntity
  8
寸法
 62
     7
 48
50.0
100
AcDbMText
 10
7341.095742082202
 20
9414.654190389894
 30
0.0
 40
120.0
 41
0.0
 71
     5
 72
     1
  1
\A1;110
  7
STYLE1
 73
     1
 44
1.0
1001
ACAD
1000
MTEXTBEGIN
1070
    73
1070
     1
1070
    44
1040
1.0
1070
    74
1070
     0
1000
MTEXTEND
  0
POINT
  5
1695C
330
15323
100
AcDbEntity
  8
DEFPOINTS
 62
     0
 48
50.0
100
AcDbPoint
 10
7286.0957420822
 20
9098.845970764912
 30
0.0
  0
POINT
  5
1695D
330
15323
100
AcDbEntity
  8
DEFPOINTS
 62
     0
 48
50.0
100
AcDbPoint
 10
7396.095742082204
 20
9098.845970764891
 30
0.0
  0
POINT
  5
1695E
330
15323
100
AcDbEntity
  8
DEFPOINTS
 62
     0
 48
50.0
100
AcDbPoint
 10
7396.095742082204
 20
9314.654190389894
 30
0.0
  0
ENDBLK
  5
1545B
330
15323
100
AcDbEntity
  8
0
 48
50.0
100
AcDbBlockEnd
  0
BLOCK
  5
1545C
330
15331
100
AcDbEntity
  8
0
 48
50.0
100
AcDbBlockBegin
  2
*D6
 70
     1
 10
0.0
 20
0.0
 30
0.0
  3
*D6
  1

  0
LINE
  5
1694B
330
15331
100
AcDbEntity
  8
寸法
 62
     0
 48
50.0
370
    -2
100
AcDbLine
 10
6576.095742082201
 20
9118.845970764825
 30
0.0
 11
6576.095742082201
 21
9374.654190389895
 31
0.0
  0
LINE
  5
1694C
330
15331
100
AcDbEntity
  8
寸法
 62
     0
 48
50.0
370
    -2
100
AcDbLine
 10
7286.0957420822
 20
9118.845970764914
 30
0.0
 11
7286.0957420822
 21
9374.654190389895
 31
0.0
  0
LINE
  5
1694D
330
15331
100
AcDbEntity
  8
寸法
 62
     0
 48
50.0
370
    -2
100
AcDbLine
 10
6576.095742082201
 20
9314.654190389894
 30
0.0
 11
7286.0957420822
 21
9314.654190389894
 31
0.0
  0
INSERT
  5
1694E
330
15331
100
AcDbEntity
  8
寸法
 62
     0
 48
50.0
370
    -2
100
AcDbBlockReference
  2
_DOTSMALL
 10
6576.095742082201
 20
9314.654190389894
 30
0.0
 41
100.0
 42
100.0
 43
100.0
 50
180.0
  0
INSERT
  5
1694F
330
15331
100
AcDbEntity
  8
寸法
 62
     0
 48
50.0
370
    -2
100
AcDbBlockReference
  2
_DOTSMALL
 10
7286.0957420822
 20
9314.654190389894
 30
0.0
 41
100.0
 42
100.0
 43
100.0
  0
MTEXT
  5
16950
330
15331
100
AcDbEntity
  8
寸法
 62
     7
 48
50.0
100
AcDbMText
 10
6931.3457420822
 20
9414.654190389894
 30
0.0
 40
120.0
 41
0.0
 71
     5
 72
     1
  1
\A1;710
  7
STYLE1
 73
     1
 44
1.0
1001
ACAD
1000
MTEXTBEGIN
1070
    73
1070
     1
1070
    44
1040
1.0
1070
    74
1070
     0
1000
MTEXTEND
  0
POINT
  5
16951
330
15331
100
AcDbEntity
  8
DEFPOINTS
 62
     0
 48
50.0
100
AcDbPoint
 10
6576.095742082201
 20
9098.845970764825
 30
0.0
  0
POINT
  5
16952
330
15331
100
AcDbEntity
  8
DEFPOINTS
 62
     0
 48
50.0
100
AcDbPoint
 10
7286.0957420822
 20
9098.845970764912
 30
0.0
  0
POINT
  5
16953
330
15331
100
AcDbEntity
  8
DEFPOINTS
 62
     0
 48
50.0
100
AcDbPoint
 10
7286.0957420822
 20
9314.654190389894
 30
0.0
  0
ENDBLK
  5
15466
330
15331
100
AcDbEntity
  8
0
 48
50.0
100
AcDbBlockEnd
  0
BLOCK
  5
15467
330
1533D
100
AcDbEntity
  8
0
 48
50.0
100
AcDbBlockBegin
  2
*D7
 70
     1
 10
0.0
 20
0.0
 30
0.0
  3
*D7
  1

  0
LINE
  5
16940
330
1533D
100
AcDbEntity
  8
寸法
 62
     0
 48
50.0
370
    -2
100
AcDbLine
 10
8181.095742082202
 20
9098.845970764891
 30
0.0
 11
8868.522087816613
 21
9098.845970764891
 31
0.0
  0
LINE
  5
16941
330
1533D
100
AcDbEntity
  8
寸法
 62
     0
 48
50.0
370
    -2
100
AcDbLine
 10
8181.095742082202
 20
9043.845970764889
 30
0.0
 11
8868.522087816613
 21
9043.845970764889
 31
0.0
  0
LINE
  5
16942
330
1533D
100
AcDbEntity
  8
寸法
 62
     0
 48
50.0
370
    -2
100
AcDbLine
 10
8808.522087816612
 20
9043.845970764889
 30
0.0
 11
8808.522087816612
 21
8943.84597076489
 31
0.0
  0
LINE
  5
16943
330
1533D
100
AcDbEntity
  8
寸法
 62
     0
 48
50.0
370
    -2
100
AcDbLine
 10
8808.522087816612
 20
9098.845970764891
 30
0.0
 11
8808.522087816612
 21
9515.816533513367
 31
0.0
  0
LINE
  5
16944
330
1533D
100
AcDbEntity
  8
寸法
 62
     0
 48
50.0
370
    -2
100
AcDbLine
 10
8808.522087816612
 20
9043.845970764889
 30
0.0
 11
8808.522087816612
 21
9098.845970764891
 31
0.0
  0
INSERT
  5
16945
330
1533D
100
AcDbEntity
  8
寸法
 62
     0
 48
50.0
370
    -2
100
AcDbBlockReference
  2
_DOTSMALL
 10
8808.522087816612
 20
9043.845970764889
 30
0.0
 41
100.0
 42
100.0
 43
100.0
 50
90.0
  0
INSERT
  5
16946
330
1533D
100
AcDbEntity
  8
寸法
 62
     0
 48
50.0
370
    -2
100
AcDbBlockReference
  2
_DOTSMALL
 10
8808.522087816612
 20
9098.845970764891
 30
0.0
 41
100.0
 42
100.0
 43
100.0
 50
270.0
  0
MTEXT
  5
16947
330
1533D
100
AcDbEntity
  8
寸法
 62
     7
 48
50.0
100
AcDbMText
 10
8708.522087816611
 20
9407.331252139131
 30
0.0
 40
120.0
 41
0.0
 71
     5
 72
     1
  1
\A1;55
  7
STYLE1
 11
0.0000000000000001
 21
1.0
 31
0.0
 73
     1
 44
1.0
1001
ACAD
1000
MTEXTBEGIN
1070
    73
1070
     1
1070
    44
1040
1.0
1070
    74
1070
     0
1000
MTEXTEND
  0
POINT
  5
16948
330
1533D
100
AcDbEntity
  8
DEFPOINTS
 62
     0
 48
50.0
100
AcDbPoint
 10
8161.095742082201
 20
9098.845970764891
 30
0.0
  0
POINT
  5
16949
330
1533D
100
AcDbEntity
  8
DEFPOINTS
 62
     0
 48
50.0
100
AcDbPoint
 10
8161.095742082201
 20
9043.845970764889
 30
0.0
  0
POINT
  5
1694A
330
1533D
100
AcDbEntity
  8
DEFPOINTS
 62
     0
 48
50.0
100
AcDbPoint
 10
8808.522087816612
 20
9043.845970764889
 30
0.0
  0
ENDBLK
  5
15473
330
1533D
100
AcDbEntity
  8
0
 48
50.0
100
AcDbBlockEnd
  0
BLOCK
  5
15474
330
1534B
100
AcDbEntity
  8
0
 48
50.0
100
AcDbBlockBegin
  2
*D8
 70
     1
 10
0.0
 20
0.0
 30
0.0
  3
*D8
  1

  0
LINE
  5
16935
330
1534B
100
AcDbEntity
  8
寸法
 62
     0
 48
50.0
370
    -2
100
AcDbLine
 10
4881.095742082165
 20
9118.845970764796
 30
0.0
 11
4881.095742082165
 21
9374.654190389778
 31
0.0
  0
LINE
  5
16936
330
1534B
100
AcDbEntity
  8
寸法
 62
     0
 48
50.0
370
    -2
100
AcDbLine
 10
4936.095742082201
 20
9118.845970764796
 30
0.0
 11
4936.095742082201
 21
9374.654190389778
 31
0.0
  0
LINE
  5
16937
330
1534B
100
AcDbEntity
  8
寸法
 62
     0
 48
50.0
370
    -2
100
AcDbLine
 10
4936.095742082201
 20
9314.654190389779
 30
0.0
 11
5036.095742082202
 21
9314.654190389779
 31
0.0
  0
LINE
  5
16938
330
1534B
100
AcDbEntity
  8
寸法
 62
     0
 48
50.0
370
    -2
100
AcDbLine
 10
4881.095742082165
 20
9314.654190389779
 30
0.0
 11
4464.125179333687
 21
9314.654190389779
 31
0.0
  0
LINE
  5
16939
330
1534B
100
AcDbEntity
  8
寸法
 62
     0
 48
50.0
370
    -2
100
AcDbLine
 10
4936.095742082201
 20
9314.654190389779
 30
0.0
 11
4881.095742082165
 21
9314.654190389779
 31
0.0
  0
INSERT
  5
1693A
330
1534B
100
AcDbEntity
  8
寸法
 62
     0
 48
50.0
370
    -2
100
AcDbBlockReference
  2
_DOTSMALL
 10
4936.095742082201
 20
9314.654190389779
 30
0.0
 41
100.0
 42
100.0
 43
100.0
 50
180.0
  0
INSERT
  5
1693B
330
1534B
100
AcDbEntity
  8
寸法
 62
     0
 48
50.0
370
    -2
100
AcDbBlockReference
  2
_DOTSMALL
 10
4881.095742082165
 20
9314.654190389779
 30
0.0
 41
100.0
 42
100.0
 43
100.0
  0
MTEXT
  5
1693C
330
1534B
100
AcDbEntity
  8
寸法
 62
     7
 48
50.0
100
AcDbMText
 10
4572.610460707926
 20
9414.654190389779
 30
0.0
 40
120.0
 41
0.0
 71
     5
 72
     1
  1
\A1;55
  7
STYLE1
 73
     1
 44
1.0
1001
ACAD
1000
MTEXTBEGIN
1070
    73
1070
     1
1070
    44
1040
1.0
1070
    74
1070
     0
1000
MTEXTEND
  0
POINT
  5
1693D
330
1534B
100
AcDbEntity
  8
DEFPOINTS
 62
     0
 48
50.0
100
AcDbPoint
 10
4881.095742082165
 20
9098.845970764797
 30
0.0
  0
POINT
  5
1693E
330
1534B
100
AcDbEntity
  8
DEFPOINTS
 62
     0
 48
50.0
100
AcDbPoint
 10
4936.095742082201
 20
9098.845970764797
 30
0.0
  0
POINT
  5
1693F
330
1534B
100
AcDbEntity
  8
DEFPOINTS
 62
     0
 48
50.0
100
AcDbPoint
 10
4936.095742082201
 20
9314.654190389779
 30
0.0
  0
ENDBLK
  5
15480
330
1534B
100
AcDbEntity
  8
0
 48
50.0
100
AcDbBlockEnd
  0
BLOCK
  5
1583A
330
15371
100
AcDbEntity
  8
0
 48
50.0
100
AcDbBlockBegin
  2
*D9
 70
     1
 10
0.0
 20
0.0
 30
0.0
  3
*D9
  1

  0
LINE
  5
1692C
330
15371
100
AcDbEntity
  8
寸法
 62
     0
 48
50.0
370
    -2
100
AcDbLine
 10
4881.095742082194
 20
7708.845970764689
 30
0.0
 11
4881.095742082194
 21
6681.744095904639
 31
0.0
  0
LINE
  5
1692D
330
15371
100
AcDbEntity
  8
寸法
 62
     0
 48
50.0
370
    -2
100
AcDbLine
 10
8161.095742082176
 20
7708.845970764847
 30
0.0
 11
8161.095742082176
 21
6681.744095904639
 31
0.0
  0
LINE
  5
1692E
330
15371
100
AcDbEntity
  8
寸法
 62
     0
 48
50.0
370
    -2
100
AcDbLine
 10
4881.095742082194
 20
6741.74409590464
 30
0.0
 11
8161.095742082176
 21
6741.74409590464
 31
0.0
  0
INSERT
  5
1692F
330
15371
100
AcDbEntity
  8
寸法
 62
     0
 48
50.0
370
    -2
100
AcDbBlockReference
  2
_DOTSMALL
 10
4881.095742082194
 20
6741.74409590464
 30
0.0
 41
100.0
 42
100.0
 43
100.0
 50
180.0
  0
INSERT
  5
16930
330
15371
100
AcDbEntity
  8
寸法
 62
     0
 48
50.0
370
    -2
100
AcDbBlockReference
  2
_DOTSMALL
 10
8161.095742082176
 20
6741.74409590464
 30
0.0
 41
100.0
 42
100.0
 43
100.0
  0
MTEXT
  5
16931
330
15371
100
AcDbEntity
  8
寸法
 62
     7
 48
50.0
100
AcDbMText
 10
6521.095742082185
 20
6841.755906928262
 30
0.0
 40
120.0
 41
0.0
 71
     5
 72
     1
  1
\A1;3280
  7
STYLE1
 73
     1
 44
1.0
1001
ACAD
1000
MTEXTBEGIN
1070
    73
1070
     1
1070
    44
1040
1.0
1070
    74
1070
     0
1000
MTEXTEND
  0
POINT
  5
16932
330
15371
100
AcDbEntity
  8
DEFPOINTS
 62
     0
 48
50.0
100
AcDbPoint
 10
4881.095742082194
 20
7728.845970764689
 30
0.0
  0
POINT
  5
16933
330
15371
100
AcDbEntity
  8
DEFPOINTS
 62
     0
 48
50.0
100
AcDbPoint
 10
8161.095742082176
 20
7728.845970764847
 30
0.0
  0
POINT
  5
16934
330
15371
100
AcDbEntity
  8
DEFPOINTS
 62
     0
 48
50.0
100
AcDbPoint
 10
8161.095742082176
 20
6741.74409590464
 30
0.0
  0
ENDBLK
  5
15844
330
15371
100
AcDbEntity
  8
0
 48
50.0
100
AcDbBlockEnd
  0
BLOCK
  5
154B8
330
15395
100
AcDbEntity
  8
0
 48
50.0
100
AcDbBlockBegin
  2
*D10
 70
     1
 10
0.0
 20
0.0
 30
0.0
  3
*D10
  1

  0
LINE
  5
16921
330
15395
100
AcDbEntity
  8
寸法
 62
     0
 48
50.0
370
    -2
100
AcDbLine
 10
8181.095742082176
 20
7783.845970764876
 30
0.0
 11
8868.522087816588
 21
7783.845970764876
 31
0.0
  0
LINE
  5
16922
330
15395
100
AcDbEntity
  8
寸法
 62
     0
 48
50.0
370
    -2
100
AcDbLine
 10
8181.095742082176
 20
7728.845970764877
 30
0.0
 11
8868.522087816588
 21
7728.845970764877
 31
0.0
  0
LINE
  5
16923
330
15395
100
AcDbEntity
  8
寸法
 62
     0
 48
50.0
370
    -2
100
AcDbLine
 10
8808.522087816587
 20
7783.845970764876
 30
0.0
 11
8808.522087816587
 21
7883.845970764877
 31
0.0
  0
LINE
  5
16924
330
15395
100
AcDbEntity
  8
寸法
 62
     0
 48
50.0
370
    -2
100
AcDbLine
 10
8808.522087816587
 20
7728.845970764877
 30
0.0
 11
8808.522087816587
 21
7242.499222485775
 31
0.0
  0
LINE
  5
16925
330
15395
100
AcDbEntity
  8
寸法
 62
     0
 48
50.0
370
    -2
100
AcDbLine
 10
8808.522087816587
 20
7783.845970764876
 30
0.0
 11
8808.522087816587
 21
7728.845970764877
 31
0.0
  0
INSERT
  5
16926
330
15395
100
AcDbEntity
  8
寸法
 62
     0
 48
50.0
370
    -2
100
AcDbBlockReference
  2
_DOTSMALL
 10
8808.522087816587
 20
7783.845970764876
 30
0.0
 41
100.0
 42
100.0
 43
100.0
 50
270.0
  0
INSERT
  5
16927
330
15395
100
AcDbEntity
  8
寸法
 62
     0
 48
50.0
370
    -2
100
AcDbBlockReference
  2
_DOTSMALL
 10
8808.522087816587
 20
7728.845970764877
 30
0.0
 41
100.0
 42
100.0
 43
100.0
 50
90.0
  0
MTEXT
  5
16928
330
15395
100
AcDbEntity
  8
寸法
 62
     7
 48
50.0
100
AcDbMText
 10
8708.522087816586
 20
7350.984503860015
 30
0.0
 40
120.0
 41
0.0
 71
     5
 72
     1
  1
\A1;55
  7
STYLE1
 11
0.0000000000000001
 21
1.0
 31
0.0
 73
     1
 44
1.0
1001
ACAD
1000
MTEXTBEGIN
1070
    73
1070
     1
1070
    44
1040
1.0
1070
    74
1070
     0
1000
MTEXTEND
  0
POINT
  5
16929
330
15395
100
AcDbEntity
  8
DEFPOINTS
 62
     0
 48
50.0
100
AcDbPoint
 10
8161.095742082176
 20
7783.845970764876
 30
0.0
  0
POINT
  5
1692A
330
15395
100
AcDbEntity
  8
DEFPOINTS
 62
     0
 48
50.0
100
AcDbPoint
 10
8161.095742082176
 20
7728.845970764877
 30
0.0
  0
POINT
  5
1692B
330
15395
100
AcDbEntity
  8
DEFPOINTS
 62
     0
 48
50.0
100
AcDbPoint
 10
8808.522087816587
 20
7728.845970764877
 30
0.0
  0
ENDBLK
  5
154C4
330
15395
100
AcDbEntity
  8
0
 48
50.0
100
AcDbBlockEnd
  0
BLOCK
  5
154C5
330
153A3
100
AcDbEntity
  8
0
 48
50.0
100
AcDbBlockBegin
  2
*D11
 70
     1
 10
0.0
 20
0.0
 30
0.0
  3
*D11
  1

  0
LINE
  5
16918
330
153A3
100
AcDbEntity
  8
寸法
 62
     0
 48
50.0
370
    -2
100
AcDbLine
 10
8181.095742082202
 20
9098.845970764891
 30
0.0
 11
9177.63361863229
 21
9098.845970764891
 31
0.0
  0
LINE
  5
16919
330
153A3
100
AcDbEntity
  8
寸法
 62
     0
 48
50.0
370
    -2
100
AcDbLine
 10
8181.095742082176
 20
7728.845970764877
 30
0.0
 11
9177.63361863229
 21
7728.845970764877
 31
0.0
  0
LINE
  5
1691A
330
153A3
100
AcDbEntity
  8
寸法
 62
     0
 48
50.0
370
    -2
100
AcDbLine
 10
9117.633618632289
 20
9098.845970764891
 30
0.0
 11
9117.633618632289
 21
7728.845970764877
 31
0.0
  0
INSERT
  5
1691B
330
153A3
100
AcDbEntity
  8
寸法
 62
     0
 48
50.0
370
    -2
100
AcDbBlockReference
  2
_DOTSMALL
 10
9117.633618632289
 20
9098.845970764891
 30
0.0
 41
100.0
 42
100.0
 43
100.0
 50
90.0
  0
INSERT
  5
1691C
330
153A3
100
AcDbEntity
  8
寸法
 62
     0
 48
50.0
370
    -2
100
AcDbBlockReference
  2
_DOTSMALL
 10
9117.633618632289
 20
7728.845970764877
 30
0.0
 41
100.0
 42
100.0
 43
100.0
 50
270.0
  0
MTEXT
  5
1691D
330
153A3
100
AcDbEntity
  8
寸法
 62
     7
 48
50.0
100
AcDbMText
 10
9017.633618632288
 20
8413.845970764883
 30
0.0
 40
120.0
 41
0.0
 71
     5
 72
     1
  1
\A1;1370
  7
STYLE1
 11
0.0000000000000001
 21
1.0
 31
0.0
 73
     1
 44
1.0
1001
ACAD
1000
MTEXTBEGIN
1070
    73
1070
     1
1070
    44
1040
1.0
1070
    74
1070
     0
1000
MTEXTEND
  0
POINT
  5
1691E
330
153A3
100
AcDbEntity
  8
DEFPOINTS
 62
     0
 48
50.0
100
AcDbPoint
 10
8161.095742082201
 20
9098.845970764891
 30
0.0
  0
POINT
  5
1691F
330
153A3
100
AcDbEntity
  8
DEFPOINTS
 62
     0
 48
50.0
100
AcDbPoint
 10
8161.095742082176
 20
7728.845970764877
 30
0.0
  0
POINT
  5
16920
330
153A3
100
AcDbEntity
  8
DEFPOINTS
 62
     0
 48
50.0
100
AcDbPoint
 10
9117.633618632289
 20
7728.845970764877
 30
0.0
  0
ENDBLK
  5
154CF
330
153A3
100
AcDbEntity
  8
0
 48
50.0
100
AcDbBlockEnd
  0
BLOCK
  5
154DB
330
153BB
100
AcDbEntity
  8
0
 48
50.0
100
AcDbBlockBegin
  2
*D12
 70
     1
 10
0.0
 20
0.0
 30
0.0
  3
*D12
  1

  0
LINE
  5
1690F
330
153BB
100
AcDbEntity
  8
寸法
 62
     0
 48
50.0
370
    -2
100
AcDbLine
 10
8151.595742082134
 20
9063.98698691621
 30
0.0
 11
8546.95346794416
 21
8958.051203550075
 31
0.0
  0
LINE
  5
16910
330
153BB
100
AcDbEntity
  8
寸法
 62
     0
 48
50.0
370
    -2
100
AcDbLine
 10
8151.595742082134
 20
8613.986986916209
 30
0.0
 11
8546.95346794416
 21
8508.051203550076
 31
0.0
  0
LINE
  5
16911
330
153BB
100
AcDbEntity
  8
寸法
 62
     0
 48
50.0
370
    -2
100
AcDbLine
 10
8486.953467944159
 20
8974.128155095943
 30
0.0
 11
8486.953467944159
 21
8524.128155095942
 31
0.0
  0
INSERT
  5
16912
330
153BB
100
AcDbEntity
  8
寸法
 62
     0
 48
50.0
370
    -2
100
AcDbBlockReference
  2
_DOTSMALL
 10
8486.953467944159
 20
8974.128155095943
 30
0.0
 41
100.0
 42
100.0
 43
100.0
 50
90.0
  0
INSERT
  5
16913
330
153BB
100
AcDbEntity
  8
寸法
 62
     0
 48
50.0
370
    -2
100
AcDbBlockReference
  2
_DOTSMALL
 10
8486.953467944159
 20
8524.128155095942
 30
0.0
 41
100.0
 42
100.0
 43
100.0
 50
270.0
  0
MTEXT
  5
16914
330
153BB
100
AcDbEntity
  8
寸法
 62
     7
 48
50.0
100
AcDbMText
 10
8386.953467944158
 20
8749.128155095943
 30
0.0
 40
120.0
 41
0.0
 71
     5
 72
     1
  1
\A1;450
  7
STYLE1
 11
0.0000000000000001
 21
1.0
 31
0.0
 73
     1
 44
1.0
1001
ACAD
1000
MTEXTBEGIN
1070
    73
1070
     1
1070
    44
1040
1.0
1070
    74
1070
     0
1000
MTEXTEND
  0
POINT
  5
16915
330
153BB
100
AcDbEntity
  8
DEFPOINTS
 62
     0
 48
50.0
100
AcDbPoint
 10
8131.595742082135
 20
9069.345970764834
 30
0.0
  0
POINT
  5
16916
330
153BB
100
AcDbEntity
  8
DEFPOINTS
 62
     0
 48
50.0
100
AcDbPoint
 10
8131.595742082135
 20
8619.345970764832
 30
0.0
  0
POINT
  5
16917
330
153BB
100
AcDbEntity
  8
DEFPOINTS
 62
     0
 48
50.0
100
AcDbPoint
 10
8486.953467944159
 20
8524.128155095942
 30
0.0
  0
ENDBLK
  5
154E5
330
153BB
100
AcDbEntity
  8
0
 48
50.0
100
AcDbBlockEnd
  0
BLOCK
  5
154E6
330
153C7
100
AcDbEntity
  8
0
 48
50.0
100
AcDbBlockBegin
  2
*D13
 70
     1
 10
0.0
 20
0.0
 30
0.0
  3
*D13
  1

  0
LINE
  5
16906
330
153C7
100
AcDbEntity
  8
寸法
 62
     0
 48
50.0
370
    -2
100
AcDbLine
 10
8181.095742082202
 20
9043.845970764889
 30
0.0
 11
8868.522087816613
 21
9043.845970764889
 31
0.0
  0
LINE
  5
16907
330
153C7
100
AcDbEntity
  8
寸法
 62
     0
 48
50.0
370
    -2
100
AcDbLine
 10
8181.095742082176
 20
7783.845970764876
 30
0.0
 11
8868.522087816613
 21
7783.845970764876
 31
0.0
  0
LINE
  5
16908
330
153C7
100
AcDbEntity
  8
寸法
 62
     0
 48
50.0
370
    -2
100
AcDbLine
 10
8808.522087816612
 20
9043.845970764889
 30
0.0
 11
8808.522087816612
 21
7783.845970764876
 31
0.0
  0
INSERT
  5
16909
330
153C7
100
AcDbEntity
  8
寸法
 62
     0
 48
50.0
370
    -2
100
AcDbBlockReference
  2
_DOTSMALL
 10
8808.522087816612
 20
9043.845970764889
 30
0.0
 41
100.0
 42
100.0
 43
100.0
 50
90.0
  0
INSERT
  5
1690A
330
153C7
100
AcDbEntity
  8
寸法
 62
     0
 48
50.0
370
    -2
100
AcDbBlockReference
  2
_DOTSMALL
 10
8808.522087816612
 20
7783.845970764876
 30
0.0
 41
100.0
 42
100.0
 43
100.0
 50
270.0
  0
MTEXT
  5
1690B
330
153C7
100
AcDbEntity
  8
寸法
 62
     7
 48
50.0
100
AcDbMText
 10
8708.51027679299
 20
8413.845970764883
 30
0.0
 40
120.0
 41
0.0
 71
     5
 72
     1
  1
\A1;3X420=1260
  7
STYLE1
 11
0.0000000000000001
 21
1.0
 31
0.0
 73
     1
 44
1.0
1001
ACAD
1000
MTEXTBEGIN
1070
    73
1070
     1
1070
    44
1040
1.0
1070
    74
1070
     0
1000
MTEXTEND
  0
POINT
  5
1690C
330
153C7
100
AcDbEntity
  8
DEFPOINTS
 62
     0
 48
50.0
100
AcDbPoint
 10
8161.095742082201
 20
9043.845970764889
 30
0.0
  0
POINT
  5
1690D
330
153C7
100
AcDbEntity
  8
DEFPOINTS
 62
     0
 48
50.0
100
AcDbPoint
 10
8161.095742082176
 20
7783.845970764876
 30
0.0
  0
POINT
  5
1690E
330
153C7
100
AcDbEntity
  8
DEFPOINTS
 62
     0
 48
50.0
100
AcDbPoint
 10
8808.522087816612
 20
7783.845970764876
 30
0.0
  0
ENDBLK
  5
154F0
330
153C7
100
AcDbEntity
  8
0
 48
50.0
100
AcDbBlockEnd
  0
BLOCK
  5
154FC
330
153DF
100
AcDbEntity
  8
0
 48
50.0
100
AcDbBlockBegin
  2
*D14
 70
     1
 10
0.0
 20
0.0
 30
0.0
  3
*D14
  1

  0
LINE
  5
168F4
330
153DF
100
AcDbEntity
  8
寸法
 62
     0
 48
50.0
370
    -2
100
AcDbLine
 10
4861.095742082194
 20
4763.557332550217
 30
0.0
 11
4502.991214474591
 21
4763.557332550217
 31
0.0
  0
LINE
  5
168F5
330
153DF
100
AcDbEntity
  8
寸法
 62
     0
 48
50.0
370
    -2
100
AcDbLine
 10
4861.095742082194
 20
3003.557332550221
 30
0.0
 11
4502.991214474591
 21
3003.557332550221
 31
0.0
  0
LINE
  5
168F6
330
153DF
100
AcDbEntity
  8
寸法
 62
     0
 48
50.0
370
    -2
100
AcDbLine
 10
4562.991214474592
 20
4763.557332550217
 30
0.0
 11
4562.991214474592
 21
3003.557332550221
 31
0.0
  0
INSERT
  5
168F7
330
153DF
100
AcDbEntity
  8
寸法
 62
     0
 48
50.0
370
    -2
100
AcDbBlockReference
  2
_DOTSMALL
 10
4562.991214474592
 20
4763.557332550217
 30
0.0
 41
100.0
 42
100.0
 43
100.0
 50
90.0
  0
INSERT
  5
168F8
330
153DF
100
AcDbEntity
  8
寸法
 62
     0
 48
50.0
370
    -2
100
AcDbBlockReference
  2
_DOTSMALL
 10
4562.991214474592
 20
3003.557332550221
 30
0.0
 41
100.0
 42
100.0
 43
100.0
 50
270.0
  0
MTEXT
  5
168F9
330
153DF
100
AcDbEntity
  8
寸法
 62
     7
 48
50.0
100
AcDbMText
 10
4462.99121447459
 20
3882.557332550219
 30
0.0
 40
120.0
 41
0.0
 71
     5
 72
     1
  1
\A1;有効開口部高サ1760
  7
STYLE1
 11
0.0000000000000001
 21
1.0
 31
0.0
 73
     1
 44
1.0
1001
ACAD
1000
MTEXTBEGIN
1070
    73
1070
     1
1070
    44
1040
1.0
1070
    74
1070
     0
1000
MTEXTEND
  0
POINT
  5
168FA
330
153DF
100
AcDbEntity
  8
DEFPOINTS
 62
     0
 48
50.0
100
AcDbPoint
 10
4881.095742082194
 20
4763.557332550217
 30
0.0
  0
POINT
  5
168FB
330
153DF
100
AcDbEntity
  8
DEFPOINTS
 62
     0
 48
50.0
100
AcDbPoint
 10
4881.095742082194
 20
3003.557332550221
 30
0.0
  0
POINT
  5
168FC
330
153DF
100
AcDbEntity
  8
DEFPOINTS
 62
     0
 48
50.0
100
AcDbPoint
 10
4562.991214474592
 20
3003.557332550221
 30
0.0
  0
ENDBLK
  5
15506
330
153DF
100
AcDbEntity
  8
0
 48
50.0
100
AcDbBlockEnd
  0
BLOCK
  5
156FE
330
156FD
100
AcDbEntity
  8
0
 48
50.0
100
AcDbBlockBegin
  2
*D15
 70
     1
 10
0.0
 20
0.0
 30
0.0
  3
*D15
  1

  0
LINE
  5
168E9
330
156FD
100
AcDbEntity
  8
寸法
 62
     0
 48
50.0
370
    -2
100
AcDbLine
 10
5646.095742082199
 20
9118.845970764914
 30
0.0
 11
5646.095742082199
 21
9374.654190389895
 31
0.0
  0
LINE
  5
168EA
330
156FD
100
AcDbEntity
  8
寸法
 62
     0
 48
50.0
370
    -2
100
AcDbLine
 10
5756.095742082203
 20
9118.845970764891
 30
0.0
 11
5756.095742082203
 21
9374.654190389895
 31
0.0
  0
LINE
  5
168EB
330
156FD
100
AcDbEntity
  8
寸法
 62
     0
 48
50.0
370
    -2
100
AcDbLine
 10
5646.095742082199
 20
9314.654190389894
 30
0.0
 11
5546.0957420822
 21
9314.654190389894
 31
0.0
  0
LINE
  5
168EC
330
156FD
100
AcDbEntity
  8
寸法
 62
     0
 48
50.0
370
    -2
100
AcDbLine
 10
5756.095742082203
 20
9314.654190389894
 30
0.0
 11
5856.095742082203
 21
9314.654190389894
 31
0.0
  0
LINE
  5
168ED
330
156FD
100
AcDbEntity
  8
寸法
 62
     0
 48
50.0
370
    -2
100
AcDbLine
 10
5646.095742082199
 20
9314.654190389894
 30
0.0
 11
5756.095742082203
 21
9314.654190389894
 31
0.0
  0
INSERT
  5
168EE
330
156FD
100
AcDbEntity
  8
寸法
 62
     0
 48
50.0
370
    -2
100
AcDbBlockReference
  2
_DOTSMALL
 10
5646.095742082199
 20
9314.654190389894
 30
0.0
 41
100.0
 42
100.0
 43
100.0
  0
INSERT
  5
168EF
330
156FD
100
AcDbEntity
  8
寸法
 62
     0
 48
50.0
370
    -2
100
AcDbBlockReference
  2
_DOTSMALL
 10
5756.095742082203
 20
9314.654190389894
 30
0.0
 41
100.0
 42
100.0
 43
100.0
 50
180.0
  0
MTEXT
  5
168F0
330
156FD
100
AcDbEntity
  8
寸法
 62
     7
 48
50.0
100
AcDbMText
 10
5701.095742082202
 20
9414.654190389894
 30
0.0
 40
120.0
 41
0.0
 71
     5
 72
     1
  1
\A1;110
  7
STYLE1
 73
     1
 44
1.0
1001
ACAD
1000
MTEXTBEGIN
1070
    73
1070
     1
1070
    44
1040
1.0
1070
    74
1070
     0
1000
MTEXTEND
  0
POINT
  5
168F1
330
156FD
100
AcDbEntity
  8
DEFPOINTS
 62
     0
 48
50.0
100
AcDbPoint
 10
5646.095742082199
 20
9098.845970764912
 30
0.0
  0
POINT
  5
168F2
330
156FD
100
AcDbEntity
  8
DEFPOINTS
 62
     0
 48
50.0
100
AcDbPoint
 10
5756.095742082203
 20
9098.845970764891
 30
0.0
  0
POINT
  5
168F3
330
156FD
100
AcDbEntity
  8
DEFPOINTS
 62
     0
 48
50.0
100
AcDbPoint
 10
5756.095742082203
 20
9314.654190389894
 30
0.0
  0
ENDBLK
  5
1570A
330
156FD
100
AcDbEntity
  8
0
 48
50.0
100
AcDbBlockEnd
  0
BLOCK
  5
15857
330
15856
100
AcDbEntity
  8
0
 48
50.0
100
AcDbBlockBegin
  2
*D16
 70
     1
 10
0.0
 20
0.0
 30
0.0
  3
*D16
  1

  0
LINE
  5
168E0
330
15856
100
AcDbEntity
  8
寸法
 62
     0
 48
50.0
370
    -2
100
AcDbLine
 10
4936.095742082201
 20
9118.845970764825
 30
0.0
 11
4936.095742082201
 21
9374.654190389895
 31
0.0
  0
LINE
  5
168E1
330
15856
100
AcDbEntity
  8
寸法
 62
     0
 48
50.0
370
    -2
100
AcDbLine
 10
5646.095742082199
 20
9118.845970764914
 30
0.0
 11
5646.095742082199
 21
9374.654190389895
 31
0.0
  0
LINE
  5
168E2
330
15856
100
AcDbEntity
  8
寸法
 62
     0
 48
50.0
370
    -2
100
AcDbLine
 10
4936.095742082201
 20
9314.654190389894
 30
0.0
 11
5646.095742082199
 21
9314.654190389894
 31
0.0
  0
INSERT
  5
168E3
330
15856
100
AcDbEntity
  8
寸法
 62
     0
 48
50.0
370
    -2
100
AcDbBlockReference
  2
_DOTSMALL
 10
4936.095742082201
 20
9314.654190389894
 30
0.0
 41
100.0
 42
100.0
 43
100.0
 50
180.0
  0
INSERT
  5
168E4
330
15856
100
AcDbEntity
  8
寸法
 62
     0
 48
50.0
370
    -2
100
AcDbBlockReference
  2
_DOTSMALL
 10
5646.095742082199
 20
9314.654190389894
 30
0.0
 41
100.0
 42
100.0
 43
100.0
  0
MTEXT
  5
168E5
330
15856
100
AcDbEntity
  8
寸法
 62
     7
 48
50.0
100
AcDbMText
 10
5291.345742082199
 20
9414.654190389894
 30
0.0
 40
120.0
 41
0.0
 71
     5
 72
     1
  1
\A1;710
  7
STYLE1
 73
     1
 44
1.0
1001
ACAD
1000
MTEXTBEGIN
1070
    73
1070
     1
1070
    44
1040
1.0
1070
    74
1070
     0
1000
MTEXTEND
  0
POINT
  5
168E6
330
15856
100
AcDbEntity
  8
DEFPOINTS
 62
     0
 48
50.0
100
AcDbPoint
 10
4936.095742082201
 20
9098.845970764825
 30
0.0
  0
POINT
  5
168E7
330
15856
100
AcDbEntity
  8
DEFPOINTS
 62
     0
 48
50.0
100
AcDbPoint
 10
5646.095742082199
 20
9098.845970764912
 30
0.0
  0
POINT
  5
168E8
330
15856
100
AcDbEntity
  8
DEFPOINTS
 62
     0
 48
50.0
100
AcDbPoint
 10
5646.095742082199
 20
9314.654190389894
 30
0.0
  0
ENDBLK
  5
15861
330
15856
100
AcDbEntity
  8
0
 48
50.0
100
AcDbBlockEnd
  0
BLOCK
  5
158BC
330
15865
100
AcDbEntity
  8
0
 48
50.0
100
AcDbBlockBegin
  2
*D17
 70
     1
 10
0.0
 20
0.0
 30
0.0
  3
*D17
  1

  0
LINE
  5
168CE
330
15865
100
AcDbEntity
  8
寸法
 62
     0
 48
50.0
370
    -2
100
AcDbLine
 10
6576.095742082198
 20
7708.845970764788
 30
0.0
 11
6576.095742082198
 21
7229.022302969712
 31
0.0
  0
LINE
  5
168CF
330
15865
100
AcDbEntity
  8
寸法
 62
     0
 48
50.0
370
    -2
100
AcDbLine
 10
7261.095742082194
 20
7708.845970764753
 30
0.0
 11
7261.095742082194
 21
7229.022302969712
 31
0.0
  0
LINE
  5
168D0
330
15865
100
AcDbEntity
  8
寸法
 62
     0
 48
50.0
370
    -2
100
AcDbLine
 10
6576.095742082198
 20
7289.022302969712
 30
0.0
 11
7261.095742082194
 21
7289.022302969712
 31
0.0
  0
INSERT
  5
168D1
330
15865
100
AcDbEntity
  8
寸法
 62
     0
 48
50.0
370
    -2
100
AcDbBlockReference
  2
_DOTSMALL
 10
6576.095742082198
 20
7289.022302969712
 30
0.0
 41
100.0
 42
100.0
 43
100.0
 50
180.0
  0
INSERT
  5
168D2
330
15865
100
AcDbEntity
  8
寸法
 62
     0
 48
50.0
370
    -2
100
AcDbBlockReference
  2
_DOTSMALL
 10
7261.095742082194
 20
7289.022302969712
 30
0.0
 41
100.0
 42
100.0
 43
100.0
  0
MTEXT
  5
168D3
330
15865
100
AcDbEntity
  8
寸法
 62
     7
 48
50.0
100
AcDbMText
 10
6918.595742082196
 20
7389.022302969713
 30
0.0
 40
120.0
 41
0.0
 71
     5
 72
     1
  1
\A1;685
  7
STYLE1
 73
     1
 44
1.0
1001
ACAD
1000
MTEXTBEGIN
1070
    73
1070
     1
1070
    44
1040
1.0
1070
    74
1070
     0
1000
MTEXTEND
  0
POINT
  5
168D4
330
15865
100
AcDbEntity
  8
DEFPOINTS
 62
     0
 48
50.0
100
AcDbPoint
 10
6576.095742082198
 20
7728.845970764789
 30
0.0
  0
POINT
  5
168D5
330
15865
100
AcDbEntity
  8
DEFPOINTS
 62
     0
 48
50.0
100
AcDbPoint
 10
7261.095742082194
 20
7728.845970764753
 30
0.0
  0
POINT
  5
168D6
330
15865
100
AcDbEntity
  8
DEFPOINTS
 62
     0
 48
50.0
100
AcDbPoint
 10
7261.095742082194
 20
7289.022302969712
 30
0.0
  0
ENDBLK
  5
158C6
330
15865
100
AcDbEntity
  8
0
 48
50.0
100
AcDbBlockEnd
  0
BLOCK
  5
158B1
330
1587F
100
AcDbEntity
  8
0
 48
50.0
100
AcDbBlockBegin
  2
*D18
 70
     1
 10
0.0
 20
0.0
 30
0.0
  3
*D18
  1

  0
LINE
  5
168BC
330
1587F
100
AcDbEntity
  8
寸法
 62
     0
 48
50.0
370
    -2
100
AcDbLine
 10
5756.095742082198
 20
7708.845970764788
 30
0.0
 11
5756.095742082198
 21
7229.022302969712
 31
0.0
  0
LINE
  5
168BD
330
1587F
100
AcDbEntity
  8
寸法
 62
     0
 48
50.0
370
    -2
100
AcDbLine
 10
6441.095742082194
 20
7708.845970764753
 30
0.0
 11
6441.095742082194
 21
7229.022302969712
 31
0.0
  0
LINE
  5
168BE
330
1587F
100
AcDbEntity
  8
寸法
 62
     0
 48
50.0
370
    -2
100
AcDbLine
 10
5756.095742082198
 20
7289.022302969712
 30
0.0
 11
6441.095742082194
 21
7289.022302969712
 31
0.0
  0
INSERT
  5
168BF
330
1587F
100
AcDbEntity
  8
寸法
 62
     0
 48
50.0
370
    -2
100
AcDbBlockReference
  2
_DOTSMALL
 10
5756.095742082198
 20
7289.022302969712
 30
0.0
 41
100.0
 42
100.0
 43
100.0
 50
180.0
  0
INSERT
  5
168C0
330
1587F
100
AcDbEntity
  8
寸法
 62
     0
 48
50.0
370
    -2
100
AcDbBlockReference
  2
_DOTSMALL
 10
6441.095742082194
 20
7289.022302969712
 30
0.0
 41
100.0
 42
100.0
 43
100.0
  0
MTEXT
  5
168C1
330
1587F
100
AcDbEntity
  8
寸法
 62
     7
 48
50.0
100
AcDbMText
 10
6098.595742082196
 20
7389.022302969713
 30
0.0
 40
120.0
 41
0.0
 71
     5
 72
     1
  1
\A1;685
  7
STYLE1
 73
     1
 44
1.0
1001
ACAD
1000
MTEXTBEGIN
1070
    73
1070
     1
1070
    44
1040
1.0
1070
    74
1070
     0
1000
MTEXTEND
  0
POINT
  5
168C2
330
1587F
100
AcDbEntity
  8
DEFPOINTS
 62
     0
 48
50.0
100
AcDbPoint
 10
5756.095742082198
 20
7728.845970764789
 30
0.0
  0
POINT
  5
168C3
330
1587F
100
AcDbEntity
  8
DEFPOINTS
 62
     0
 48
50.0
100
AcDbPoint
 10
6441.095742082194
 20
7728.845970764753
 30
0.0
  0
POINT
  5
168C4
330
1587F
100
AcDbEntity
  8
DEFPOINTS
 62
     0
 48
50.0
100
AcDbPoint
 10
6441.095742082194
 20
7289.022302969712
 30
0.0
  0
ENDBLK
  5
158BB
330
1587F
100
AcDbEntity
  8
0
 48
50.0
100
AcDbBlockEnd
  0
BLOCK
  5
1589A
330
15899
100
AcDbEntity
  8
0
 48
50.0
100
AcDbBlockBegin
  2
*D19
 70
     1
 10
0.0
 20
0.0
 30
0.0
  3
*D19
  1

  0
LINE
  5
168AA
330
15899
100
AcDbEntity
  8
寸法
 62
     0
 48
50.0
370
    -2
100
AcDbLine
 10
7396.095742082197
 20
7708.845970764788
 30
0.0
 11
7396.095742082197
 21
7229.022302969712
 31
0.0
  0
LINE
  5
168AB
330
15899
100
AcDbEntity
  8
寸法
 62
     0
 48
50.0
370
    -2
100
AcDbLine
 10
8081.095742082196
 20
7708.845970764753
 30
0.0
 11
8081.095742082196
 21
7229.022302969712
 31
0.0
  0
LINE
  5
168AC
330
15899
100
AcDbEntity
  8
寸法
 62
     0
 48
50.0
370
    -2
100
AcDbLine
 10
7396.095742082197
 20
7289.022302969712
 30
0.0
 11
8081.095742082196
 21
7289.022302969712
 31
0.0
  0
INSERT
  5
168AD
330
15899
100
AcDbEntity
  8
寸法
 62
     0
 48
50.0
370
    -2
100
AcDbBlockReference
  2
_DOTSMALL
 10
7396.095742082197
 20
7289.022302969712
 30
0.0
 41
100.0
 42
100.0
 43
100.0
 50
180.0
  0
INSERT
  5
168AE
330
15899
100
AcDbEntity
  8
寸法
 62
     0
 48
50.0
370
    -2
100
AcDbBlockReference
  2
_DOTSMALL
 10
8081.095742082196
 20
7289.022302969712
 30
0.0
 41
100.0
 42
100.0
 43
100.0
  0
MTEXT
  5
168AF
330
15899
100
AcDbEntity
  8
寸法
 62
     7
 48
50.0
100
AcDbMText
 10
7738.595742082196
 20
7489.022302969712
 30
0.0
 40
120.0
 41
0.0
 71
     5
 72
     1
  1
\A1;有効開口部間口\P685
  7
STYLE1
 73
     1
 44
1.0
1001
ACAD
1000
MTEXTBEGIN
1070
    73
1070
     1
1070
    44
1040
1.0
1070
    74
1070
     0
1000
MTEXTEND
  0
POINT
  5
168B0
330
15899
100
AcDbEntity
  8
DEFPOINTS
 62
     0
 48
50.0
100
AcDbPoint
 10
7396.095742082197
 20
7728.845970764789
 30
0.0
  0
POINT
  5
168B1
330
15899
100
AcDbEntity
  8
DEFPOINTS
 62
     0
 48
50.0
100
AcDbPoint
 10
8081.095742082196
 20
7728.845970764753
 30
0.0
  0
POINT
  5
168B2
330
15899
100
AcDbEntity
  8
DEFPOINTS
 62
     0
 48
50.0
100
AcDbPoint
 10
8081.095742082196
 20
7289.022302969712
 30
0.0
  0
ENDBLK
  5
158A4
330
15899
100
AcDbEntity
  8
0
 48
50.0
100
AcDbBlockEnd
  0
BLOCK
  5
158FC
330
158FB
100
AcDbEntity
  8
0
 48
50.0
100
AcDbBlockBegin
  2
*D20
 70
     1
 10
0.0
 20
0.0
 30
0.0
  3
*D20
  1

  0
LINE
  5
168A1
330
158FB
100
AcDbEntity
  8
寸法
 62
     0
 48
50.0
370
    -2
100
AcDbLine
 10
4936.095742082198
 20
7708.845970764788
 30
0.0
 11
4936.095742082198
 21
7229.022302969712
 31
0.0
  0
LINE
  5
168A2
330
158FB
100
AcDbEntity
  8
寸法
 62
     0
 48
50.0
370
    -2
100
AcDbLine
 10
5621.095742082194
 20
7708.845970764753
 30
0.0
 11
5621.095742082194
 21
7229.022302969712
 31
0.0
  0
LINE
  5
168A3
330
158FB
100
AcDbEntity
  8
寸法
 62
     0
 48
50.0
370
    -2
100
AcDbLine
 10
4936.095742082198
 20
7289.022302969712
 30
0.0
 11
5621.095742082194
 21
7289.022302969712
 31
0.0
  0
INSERT
  5
168A4
330
158FB
100
AcDbEntity
  8
寸法
 62
     0
 48
50.0
370
    -2
100
AcDbBlockReference
  2
_DOTSMALL
 10
4936.095742082198
 20
7289.022302969712
 30
0.0
 41
100.0
 42
100.0
 43
100.0
 50
180.0
  0
INSERT
  5
168A5
330
158FB
100
AcDbEntity
  8
寸法
 62
     0
 48
50.0
370
    -2
100
AcDbBlockReference
  2
_DOTSMALL
 10
5621.095742082194
 20
7289.022302969712
 30
0.0
 41
100.0
 42
100.0
 43
100.0
  0
MTEXT
  5
168A6
330
158FB
100
AcDbEntity
  8
寸法
 62
     7
 48
50.0
100
AcDbMText
 10
5278.595742082195
 20
7389.022302969713
 30
0.0
 40
120.0
 41
0.0
 71
     5
 72
     1
  1
\A1;685
  7
STYLE1
 73
     1
 44
1.0
1001
ACAD
1000
MTEXTBEGIN
1070
    73
1070
     1
1070
    44
1040
1.0
1070
    74
1070
     0
1000
MTEXTEND
  0
POINT
  5
168A7
330
158FB
100
AcDbEntity
  8
DEFPOINTS
 62
     0
 48
50.0
100
AcDbPoint
 10
4936.095742082198
 20
7728.845970764789
 30
0.0
  0
POINT
  5
168A8
330
158FB
100
AcDbEntity
  8
DEFPOINTS
 62
     0
 48
50.0
100
AcDbPoint
 10
5621.095742082194
 20
7728.845970764753
 30
0.0
  0
POINT
  5
168A9
330
158FB
100
AcDbEntity
  8
DEFPOINTS
 62
     0
 48
50.0
100
AcDbPoint
 10
5621.095742082194
 20
7289.022302969712
 30
0.0
  0
ENDBLK
  5
15906
330
158FB
100
AcDbEntity
  8
0
 48
50.0
100
AcDbBlockEnd
  0
BLOCK
  5
1643B
330
16431
100
AcDbEntity
  8
0
 48
50.0
100
AcDbBlockBegin
  2
*D21
 70
     1
 10
0.0
 20
0.0
 30
0.0
  3
*D21
  1

  0
LINE
  5
1684A
330
16431
100
AcDbEntity
  8
寸法
 62
     0
 48
50.0
370
    -2
100
AcDbLine
 10
4831.095742082194
 20
5037.057332550221
 30
0.0
 11
4831.095742082194
 21
5512.555896246308
 31
0.0
  0
LINE
  5
1684B
330
16431
100
AcDbEntity
  8
寸法
 62
     0
 48
50.0
370
    -2
100
AcDbLine
 10
8211.095742082198
 20
5037.057332550219
 30
0.0
 11
8211.095742082198
 21
5512.555896246308
 31
0.0
  0
LINE
  5
1684C
330
16431
100
AcDbEntity
  8
寸法
 62
     0
 48
50.0
370
    -2
100
AcDbLine
 10
4831.095742082194
 20
5452.555896246307
 30
0.0
 11
8211.095742082198
 21
5452.555896246307
 31
0.0
  0
INSERT
  5
1684D
330
16431
100
AcDbEntity
  8
寸法
 62
     0
 48
50.0
370
    -2
100
AcDbBlockReference
  2
_DOTSMALL
 10
4831.095742082194
 20
5452.555896246307
 30
0.0
 41
100.0
 42
100.0
 43
100.0
 50
180.0
  0
INSERT
  5
1684E
330
16431
100
AcDbEntity
  8
寸法
 62
     0
 48
50.0
370
    -2
100
AcDbBlockReference
  2
_DOTSMALL
 10
8211.095742082198
 20
5452.555896246307
 30
0.0
 41
100.0
 42
100.0
 43
100.0
  0
MTEXT
  5
1684F
330
16431
100
AcDbEntity
  8
寸法
 62
     7
 48
50.0
100
AcDbMText
 10
6521.095742082185
 20
5552.555896246307
 30
0.0
 40
120.0
 41
0.0
 71
     5
 72
     1
  1
\A1;3380
  7
STYLE1
 73
     1
 44
1.0
1001
ACAD
1000
MTEXTBEGIN
1070
    73
1070
     1
1070
    44
1040
1.0
1070
    74
1070
     0
1000
MTEXTEND
  0
POINT
  5
16850
330
16431
100
AcDbEntity
  8
DEFPOINTS
 62
     0
 48
50.0
100
AcDbPoint
 10
4831.095742082194
 20
5017.057332550221
 30
0.0
  0
POINT
  5
16851
330
16431
100
AcDbEntity
  8
DEFPOINTS
 62
     0
 48
50.0
100
AcDbPoint
 10
8211.095742082198
 20
5017.057332550219
 30
0.0
  0
POINT
  5
16852
330
16431
100
AcDbEntity
  8
DEFPOINTS
 62
     0
 48
50.0
100
AcDbPoint
 10
8211.095742082198
 20
5452.555896246307
 30
0.0
  0
ENDBLK
  5
1643C
330
16431
100
AcDbEntity
  8
0
 48
50.0
100
AcDbBlockEnd
  0
BLOCK
  5
16447
330
1643D
100
AcDbEntity
  8
0
 48
50.0
100
AcDbBlockBegin
  2
*D22
 70
     1
 10
0.0
 20
0.0
 30
0.0
  3
*D22
  1

  0
LINE
  5
16853
330
1643D
100
AcDbEntity
  8
寸法
 62
     0
 48
50.0
370
    -2
100
AcDbLine
 10
8161.095742082197
 20
5037.057332550221
 30
0.0
 11
8161.095742082197
 21
5289.598917808461
 31
0.0
  0
LINE
  5
16854
330
1643D
100
AcDbEntity
  8
寸法
 62
     0
 48
50.0
370
    -2
100
AcDbLine
 10
4881.095742082194
 20
5037.057332550222
 30
0.0
 11
4881.095742082194
 21
5289.598917808461
 31
0.0
  0
LINE
  5
16855
330
1643D
100
AcDbEntity
  8
寸法
 62
     0
 48
50.0
370
    -2
100
AcDbLine
 10
8161.095742082197
 20
5229.59891780846
 30
0.0
 11
4881.095742082194
 21
5229.59891780846
 31
0.0
  0
INSERT
  5
16856
330
1643D
100
AcDbEntity
  8
寸法
 62
     0
 48
50.0
370
    -2
100
AcDbBlockReference
  2
_DOTSMALL
 10
8161.095742082197
 20
5229.59891780846
 30
0.0
 41
100.0
 42
100.0
 43
100.0
  0
INSERT
  5
16857
330
1643D
100
AcDbEntity
  8
寸法
 62
     0
 48
50.0
370
    -2
100
AcDbBlockReference
  2
_DOTSMALL
 10
4881.095742082194
 20
5229.59891780846
 30
0.0
 41
100.0
 42
100.0
 43
100.0
 50
180.0
  0
MTEXT
  5
16858
330
1643D
100
AcDbEntity
  8
寸法
 62
     7
 48
50.0
100
AcDbMText
 10
6521.095742082185
 20
5329.610728832082
 30
0.0
 40
120.0
 41
0.0
 71
     5
 72
     1
  1
\A1;柱外寸法3280
  7
STYLE1
 73
     1
 44
1.0
1001
ACAD
1000
MTEXTBEGIN
1070
    73
1070
     1
1070
    44
1040
1.0
1070
    74
1070
     0
1000
MTEXTEND
  0
POINT
  5
16859
330
1643D
100
AcDbEntity
  8
DEFPOINTS
 62
     0
 48
50.0
100
AcDbPoint
 10
8161.095742082197
 20
5017.057332550221
 30
0.0
  0
POINT
  5
1685A
330
1643D
100
AcDbEntity
  8
DEFPOINTS
 62
     0
 48
50.0
100
AcDbPoint
 10
4881.095742082194
 20
5017.057332550223
 30
0.0
  0
POINT
  5
1685B
330
1643D
100
AcDbEntity
  8
DEFPOINTS
 62
     0
 48
50.0
100
AcDbPoint
 10
4881.095742082194
 20
5229.59891780846
 30
0.0
  0
ENDBLK
  5
16448
330
1643D
100
AcDbEntity
  8
0
 48
50.0
100
AcDbBlockEnd
  0
BLOCK
  5
16455
330
16449
100
AcDbEntity
  8
0
 48
50.0
100
AcDbBlockBegin
  2
*D23
 70
     1
 10
0.0
 20
0.0
 30
0.0
  3
*D23
  1

  0
LINE
  5
1683F
330
16449
100
AcDbEntity
  8
寸法
 62
     0
 48
50.0
370
    -2
100
AcDbLine
 10
4881.095742082194
 20
5037.057332550222
 30
0.0
 11
4881.095742082194
 21
5289.598917808461
 31
0.0
  0
LINE
  5
16840
330
16449
100
AcDbEntity
  8
寸法
 62
     0
 48
50.0
370
    -2
100
AcDbLine
 10
4831.095742082194
 20
5037.057332550221
 30
0.0
 11
4831.095742082194
 21
5289.598917808461
 31
0.0
  0
LINE
  5
16841
330
16449
100
AcDbEntity
  8
寸法
 62
     0
 48
50.0
370
    -2
100
AcDbLine
 10
4881.095742082194
 20
5229.59891780846
 30
0.0
 11
4981.095742082194
 21
5229.59891780846
 31
0.0
  0
LINE
  5
16842
330
16449
100
AcDbEntity
  8
寸法
 62
     0
 48
50.0
370
    -2
100
AcDbLine
 10
4831.095742082194
 20
5229.59891780846
 30
0.0
 11
4411.563216613459
 21
5229.59891780846
 31
0.0
  0
LINE
  5
16843
330
16449
100
AcDbEntity
  8
寸法
 62
     0
 48
50.0
370
    -2
100
AcDbLine
 10
4881.095742082194
 20
5229.59891780846
 30
0.0
 11
4831.095742082194
 21
5229.59891780846
 31
0.0
  0
INSERT
  5
16844
330
16449
100
AcDbEntity
  8
寸法
 62
     0
 48
50.0
370
    -2
100
AcDbBlockReference
  2
_DOTSMALL
 10
4881.095742082194
 20
5229.59891780846
 30
0.0
 41
100.0
 42
100.0
 43
100.0
 50
180.0
  0
INSERT
  5
16845
330
16449
100
AcDbEntity
  8
寸法
 62
     0
 48
50.0
370
    -2
100
AcDbBlockReference
  2
_DOTSMALL
 10
4831.095742082194
 20
5229.59891780846
 30
0.0
 41
100.0
 42
100.0
 43
100.0
  0
MTEXT
  5
16846
330
16449
100
AcDbEntity
  8
寸法
 62
     7
 48
50.0
100
AcDbMText
 10
4517.610460707947
 20
5329.598917808461
 30
0.0
 40
120.0
 41
0.0
 71
     5
 72
     1
  1
\A1;50
  7
STYLE1
 73
     1
 44
1.0
1001
ACAD
1000
MTEXTBEGIN
1070
    73
1070
     1
1070
    44
1040
1.0
1070
    74
1070
     0
1000
MTEXTEND
  0
POINT
  5
16847
330
16449
100
AcDbEntity
  8
DEFPOINTS
 62
     0
 48
50.0
100
AcDbPoint
 10
4881.095742082194
 20
5017.057332550223
 30
0.0
  0
POINT
  5
16848
330
16449
100
AcDbEntity
  8
DEFPOINTS
 62
     0
 48
50.0
100
AcDbPoint
 10
4831.095742082194
 20
5017.057332550221
 30
0.0
  0
POINT
  5
16849
330
16449
100
AcDbEntity
  8
DEFPOINTS
 62
     0
 48
50.0
100
AcDbPoint
 10
4831.095742082194
 20
5229.59891780846
 30
0.0
  0
ENDBLK
  5
16456
330
16449
100
AcDbEntity
  8
0
 48
50.0
100
AcDbBlockEnd
  0
BLOCK
  5
164A4
330
16498
100
AcDbEntity
  8
0
 48
50.0
100
AcDbBlockBegin
  2
*D24
 70
     1
 10
0.0
 20
0.0
 30
0.0
  3
*D24
  1

  0
LINE
  5
16834
330
16498
100
AcDbEntity
  8
寸法
 62
     0
 48
50.0
370
    -2
100
AcDbLine
 10
8211.095742082198
 20
5037.057332550219
 30
0.0
 11
8211.095742082198
 21
5289.598917808461
 31
0.0
  0
LINE
  5
16835
330
16498
100
AcDbEntity
  8
寸法
 62
     0
 48
50.0
370
    -2
100
AcDbLine
 10
8161.095742082197
 20
5037.057332550221
 30
0.0
 11
8161.095742082197
 21
5289.598917808461
 31
0.0
  0
LINE
  5
16836
330
16498
100
AcDbEntity
  8
寸法
 62
     0
 48
50.0
370
    -2
100
AcDbLine
 10
8161.095742082197
 20
5229.59891780846
 30
0.0
 11
8061.095742082198
 21
5229.59891780846
 31
0.0
  0
LINE
  5
16837
330
16498
100
AcDbEntity
  8
寸法
 62
     0
 48
50.0
370
    -2
100
AcDbLine
 10
8211.095742082198
 20
5229.59891780846
 30
0.0
 11
8630.628267550921
 21
5229.59891780846
 31
0.0
  0
LINE
  5
16838
330
16498
100
AcDbEntity
  8
寸法
 62
     0
 48
50.0
370
    -2
100
AcDbLine
 10
8161.095742082197
 20
5229.59891780846
 30
0.0
 11
8211.095742082198
 21
5229.59891780846
 31
0.0
  0
INSERT
  5
16839
330
16498
100
AcDbEntity
  8
寸法
 62
     0
 48
50.0
370
    -2
100
AcDbBlockReference
  2
_DOTSMALL
 10
8161.095742082197
 20
5229.59891780846
 30
0.0
 41
100.0
 42
100.0
 43
100.0
  0
INSERT
  5
1683A
330
16498
100
AcDbEntity
  8
寸法
 62
     0
 48
50.0
370
    -2
100
AcDbBlockReference
  2
_DOTSMALL
 10
8211.095742082198
 20
5229.59891780846
 30
0.0
 41
100.0
 42
100.0
 43
100.0
 50
180.0
  0
MTEXT
  5
1683B
330
16498
100
AcDbEntity
  8
寸法
 62
     7
 48
50.0
100
AcDbMText
 10
8524.581023456434
 20
5329.598917808461
 30
0.0
 40
120.0
 41
0.0
 71
     5
 72
     1
  1
\A1;50
  7
STYLE1
 73
     1
 44
1.0
1001
ACAD
1000
MTEXTBEGIN
1070
    73
1070
     1
1070
    44
1040
1.0
1070
    74
1070
     0
1000
MTEXTEND
  0
POINT
  5
1683C
330
16498
100
AcDbEntity
  8
DEFPOINTS
 62
     0
 48
50.0
100
AcDbPoint
 10
8211.095742082198
 20
5017.057332550219
 30
0.0
  0
POINT
  5
1683D
330
16498
100
AcDbEntity
  8
DEFPOINTS
 62
     0
 48
50.0
100
AcDbPoint
 10
8161.095742082197
 20
5017.057332550221
 30
0.0
  0
POINT
  5
1683E
330
16498
100
AcDbEntity
  8
DEFPOINTS
 62
     0
 48
50.0
100
AcDbPoint
 10
8161.095742082197
 20
5229.59891780846
 30
0.0
  0
ENDBLK
  5
164A5
330
16498
100
AcDbEntity
  8
0
 48
50.0
100
AcDbBlockEnd
  0
BLOCK
  5
16F6E
330
16F64
100
AcDbEntity
  8
0
 48
50.0
100
AcDbBlockBegin
  2
*D25
 70
     1
 10
0.0
 20
0.0
 30
0.0
  3
*D25
  1

  0
LINE
  5
170EC
330
16F64
100
AcDbEntity
  8
寸法
 62
     0
 48
50.0
370
    -2
100
AcDbLine
 10
10527.96765464257
 20
2942.05733255022
 30
0.0
 11
9583.695843002097
 21
2942.05733255022
 31
0.0
  0
LINE
  5
170ED
330
16F64
100
AcDbEntity
  8
寸法
 62
     0
 48
50.0
370
    -2
100
AcDbLine
 10
10467.96765464258
 20
5017.057332550223
 30
0.0
 11
9583.695843002098
 21
5017.057332550224
 31
0.0
  0
LINE
  5
170EE
330
16F64
100
AcDbEntity
  8
寸法
 62
     0
 48
50.0
370
    -2
100
AcDbLine
 10
9643.695843002097
 20
2942.05733255022
 30
0.0
 11
9643.695843002099
 21
5017.057332550224
 31
0.0
  0
INSERT
  5
170EF
330
16F64
100
AcDbEntity
  8
寸法
 62
     0
 48
50.0
370
    -2
100
AcDbBlockReference
  2
_DOTSMALL
 10
9643.695843002097
 20
2942.05733255022
 30
0.0
 41
100.0
 42
100.0
 43
100.0
 50
270.0
  0
INSERT
  5
170F0
330
16F64
100
AcDbEntity
  8
寸法
 62
     0
 48
50.0
370
    -2
100
AcDbBlockReference
  2
_DOTSMALL
 10
9643.695843002099
 20
5017.057332550224
 30
0.0
 41
100.0
 42
100.0
 43
100.0
 50
90.0
  0
MTEXT
  5
170F1
330
16F64
100
AcDbEntity
  8
寸法
 62
     7
 48
50.0
100
AcDbMText
 10
9543.684031978475
 20
3917.264322970021
 30
0.0
 40
120.0
 41
0.0
 71
     5
 72
     1
  1
\A1;2075
  7
STYLE1
 11
0.0000000000000001
 21
1.0
 31
0.0
 73
     1
 44
1.0
1001
ACAD
1000
MTEXTBEGIN
1070
    73
1070
     1
1070
    44
1040
1.0
1070
    74
1070
     0
1000
MTEXTEND
  0
POINT
  5
170F2
330
16F64
100
AcDbEntity
  8
DEFPOINTS
 62
     0
 48
50.0
100
AcDbPoint
 10
10547.96765464257
 20
2942.05733255022
 30
0.0
  0
POINT
  5
170F3
330
16F64
100
AcDbEntity
  8
DEFPOINTS
 62
     0
 48
50.0
100
AcDbPoint
 10
10487.96765464258
 20
5017.057332550223
 30
0.0
  0
POINT
  5
170F4
330
16F64
100
AcDbEntity
  8
DEFPOINTS
 62
     0
 48
50.0
100
AcDbPoint
 10
9643.695843002099
 20
5017.057332550224
 30
0.0
  0
ENDBLK
  5
16F6F
330
16F64
100
AcDbEntity
  8
0
 48
50.0
100
AcDbBlockEnd
  0
BLOCK
  5
16F7C
330
16F70
100
AcDbEntity
  8
0
 48
50.0
100
AcDbBlockBegin
  2
*D26
 70
     1
 10
0.0
 20
0.0
 30
0.0
  3
*D26
  1

  0
LINE
  5
170E1
330
16F70
100
AcDbEntity
  8
寸法
 62
     0
 48
50.0
370
    -2
100
AcDbLine
 10
10520.9652845978
 20
2992.057332550221
 30
0.0
 11
9886.004563950374
 21
2992.057332550221
 31
0.0
  0
LINE
  5
170E2
330
16F70
100
AcDbEntity
  8
寸法
 62
     0
 48
50.0
370
    -2
100
AcDbLine
 10
10472.96765464257
 20
2942.05733255022
 30
0.0
 11
9886.004563950374
 21
2942.05733255022
 31
0.0
  0
LINE
  5
170E3
330
16F70
100
AcDbEntity
  8
寸法
 62
     0
 48
50.0
370
    -2
100
AcDbLine
 10
9946.004563950374
 20
2992.057332550221
 30
0.0
 11
9946.004563950374
 21
3092.057332550221
 31
0.0
  0
LINE
  5
170E4
330
16F70
100
AcDbEntity
  8
寸法
 62
     0
 48
50.0
370
    -2
100
AcDbLine
 10
9946.004563950374
 20
2942.05733255022
 30
0.0
 11
9946.004563950374
 21
2529.962844361239
 31
0.0
  0
LINE
  5
170E5
330
16F70
100
AcDbEntity
  8
寸法
 62
     0
 48
50.0
370
    -2
100
AcDbLine
 10
9946.004563950374
 20
2992.057332550221
 30
0.0
 11
9946.004563950374
 21
2942.05733255022
 31
0.0
  0
INSERT
  5
170E6
330
16F70
100
AcDbEntity
  8
寸法
 62
     0
 48
50.0
370
    -2
100
AcDbBlockReference
  2
_DOTSMALL
 10
9946.004563950374
 20
2992.057332550221
 30
0.0
 41
100.0
 42
100.0
 43
100.0
 50
270.0
  0
INSERT
  5
170E7
330
16F70
100
AcDbEntity
  8
寸法
 62
     0
 48
50.0
370
    -2
100
AcDbBlockReference
  2
_DOTSMALL
 10
9946.004563950374
 20
2942.05733255022
 30
0.0
 41
100.0
 42
100.0
 43
100.0
 50
90.0
  0
MTEXT
  5
170E8
330
16F70
100
AcDbEntity
  8
寸法
 62
     7
 48
50.0
100
AcDbMText
 10
9846.004563950373
 20
2636.010088455729
 30
0.0
 40
120.0
 41
0.0
 71
     5
 72
     1
  1
\A1;50
  7
STYLE1
 11
0.0000000000000001
 21
1.0
 31
0.0
 73
     1
 44
1.0
1001
ACAD
1000
MTEXTBEGIN
1070
    73
1070
     1
1070
    44
1040
1.0
1070
    74
1070
     0
1000
MTEXTEND
  0
POINT
  5
170E9
330
16F70
100
AcDbEntity
  8
DEFPOINTS
 62
     0
 48
50.0
100
AcDbPoint
 10
10540.9652845978
 20
2992.057332550221
 30
0.0
  0
POINT
  5
170EA
330
16F70
100
AcDbEntity
  8
DEFPOINTS
 62
     0
 48
50.0
100
AcDbPoint
 10
10492.96765464257
 20
2942.05733255022
 30
0.0
  0
POINT
  5
170EB
330
16F70
100
AcDbEntity
  8
DEFPOINTS
 62
     0
 48
50.0
100
AcDbPoint
 10
9946.004563950374
 20
2942.05733255022
 30
0.0
  0
ENDBLK
  5
16F7D
330
16F70
100
AcDbEntity
  8
0
 48
50.0
100
AcDbBlockEnd
  0
BLOCK
  5
16F88
330
16F7E
100
AcDbEntity
  8
0
 48
50.0
100
AcDbBlockBegin
  2
*D27
 70
     1
 10
0.0
 20
0.0
 30
0.0
  3
*D27
  1

  0
LINE
  5
170D8
330
16F7E
100
AcDbEntity
  8
寸法
 62
     0
 48
50.0
370
    -2
100
AcDbLine
 10
11937.96765464258
 20
2942.05733255022
 30
0.0
 11
12682.8948126147
 21
2942.05733255022
 31
0.0
  0
LINE
  5
170D9
330
16F7E
100
AcDbEntity
  8
寸法
 62
     0
 48
50.0
370
    -2
100
AcDbLine
 10
12017.96765464258
 20
4962.057332550219
 30
0.0
 11
12682.8948126147
 21
4962.057332550219
 31
0.0
  0
LINE
  5
170DA
330
16F7E
100
AcDbEntity
  8
寸法
 62
     0
 48
50.0
370
    -2
100
AcDbLine
 10
12622.8948126147
 20
2942.05733255022
 30
0.0
 11
12622.8948126147
 21
4962.057332550219
 31
0.0
  0
INSERT
  5
170DB
330
16F7E
100
AcDbEntity
  8
寸法
 62
     0
 48
50.0
370
    -2
100
AcDbBlockReference
  2
_DOTSMALL
 10
12622.8948126147
 20
2942.05733255022
 30
0.0
 41
100.0
 42
100.0
 43
100.0
 50
270.0
  0
INSERT
  5
170DC
330
16F7E
100
AcDbEntity
  8
寸法
 62
     0
 48
50.0
370
    -2
100
AcDbBlockReference
  2
_DOTSMALL
 10
12622.8948126147
 20
4962.057332550219
 30
0.0
 41
100.0
 42
100.0
 43
100.0
 50
90.0
  0
MTEXT
  5
170DD
330
16F7E
100
AcDbEntity
  8
寸法
 62
     7
 48
50.0
100
AcDbMText
 10
12522.88300159108
 20
3952.057332550221
 30
0.0
 40
120.0
 41
0.0
 71
     5
 72
     1
  1
\A1;2020
  7
STYLE1
 11
0.0000000000000001
 21
1.0
 31
0.0
 73
     1
 44
1.0
1001
ACAD
1000
MTEXTBEGIN
1070
    73
1070
     1
1070
    44
1040
1.0
1070
    74
1070
     0
1000
MTEXTEND
  0
POINT
  5
170DE
330
16F7E
100
AcDbEntity
  8
DEFPOINTS
 62
     0
 48
50.0
100
AcDbPoint
 10
11917.96765464258
 20
2942.05733255022
 30
0.0
  0
POINT
  5
170DF
330
16F7E
100
AcDbEntity
  8
DEFPOINTS
 62
     0
 48
50.0
100
AcDbPoint
 10
11997.96765464258
 20
4962.057332550219
 30
0.0
  0
POINT
  5
170E0
330
16F7E
100
AcDbEntity
  8
DEFPOINTS
 62
     0
 48
50.0
100
AcDbPoint
 10
12622.8948126147
 20
4962.057332550219
 30
0.0
  0
ENDBLK
  5
16F89
330
16F7E
100
AcDbEntity
  8
0
 48
50.0
100
AcDbBlockEnd
  0
BLOCK
  5
16F94
330
16F8A
100
AcDbEntity
  8
0
 48
50.0
100
AcDbBlockBegin
  2
*D28
 70
     1
 10
0.0
 20
0.0
 30
0.0
  3
*D28
  1

  0
LINE
  5
170CF
330
16F8A
100
AcDbEntity
  8
寸法
 62
     0
 48
50.0
370
    -2
100
AcDbLine
 10
11917.96765464258
 20
4983.86801216187
 30
0.0
 11
11917.96765464258
 21
5475.714786129522
 31
0.0
  0
LINE
  5
170D0
330
16F8A
100
AcDbEntity
  8
寸法
 62
     0
 48
50.0
370
    -2
100
AcDbLine
 10
10547.96765464258
 20
5033.058950673193
 30
0.0
 11
10547.96765464258
 21
5475.714786129522
 31
0.0
  0
LINE
  5
170D1
330
16F8A
100
AcDbEntity
  8
寸法
 62
     0
 48
50.0
370
    -2
100
AcDbLine
 10
11917.96765464258
 20
5415.714786129521
 30
0.0
 11
10547.96765464258
 21
5415.714786129521
 31
0.0
  0
INSERT
  5
170D2
330
16F8A
100
AcDbEntity
  8
寸法
 62
     0
 48
50.0
370
    -2
100
AcDbBlockReference
  2
_DOTSMALL
 10
11917.96765464258
 20
5415.714786129521
 30
0.0
 41
100.0
 42
100.0
 43
100.0
  0
INSERT
  5
170D3
330
16F8A
100
AcDbEntity
  8
寸法
 62
     0
 48
50.0
370
    -2
100
AcDbBlockReference
  2
_DOTSMALL
 10
10547.96765464258
 20
5415.714786129521
 30
0.0
 41
100.0
 42
100.0
 43
100.0
 50
180.0
  0
MTEXT
  5
170D4
330
16F8A
100
AcDbEntity
  8
寸法
 62
     7
 48
50.0
100
AcDbMText
 10
11197.78668753312
 20
5515.714786129521
 30
0.0
 40
120.0
 41
0.0
 71
     5
 72
     1
  1
\A1;柱外寸法1370
  7
STYLE1
 73
     1
 44
1.0
1001
ACAD
1000
MTEXTBEGIN
1070
    73
1070
     1
1070
    44
1040
1.0
1070
    74
1070
     0
1000
MTEXTEND
  0
POINT
  5
170D5
330
16F8A
100
AcDbEntity
  8
DEFPOINTS
 62
     0
 48
50.0
100
AcDbPoint
 10
11917.96765464258
 20
4963.868012161871
 30
0.0
  0
POINT
  5
170D6
330
16F8A
100
AcDbEntity
  8
DEFPOINTS
 62
     0
 48
50.0
100
AcDbPoint
 10
10547.96765464258
 20
5013.058950673194
 30
0.0
  0
POINT
  5
170D7
330
16F8A
100
AcDbEntity
  8
DEFPOINTS
 62
     0
 48
50.0
100
AcDbPoint
 10
10547.96765464258
 20
5415.714786129521
 30
0.0
  0
ENDBLK
  5
16F95
330
16F8A
100
AcDbEntity
  8
0
 48
50.0
100
AcDbBlockEnd
  0
BLOCK
  5
16FA2
330
16F96
100
AcDbEntity
  8
0
 48
50.0
100
AcDbBlockBegin
  2
*D29
 70
     1
 10
0.0
 20
0.0
 30
0.0
  3
*D29
  1

  0
LINE
  5
170C4
330
16F96
100
AcDbEntity
  8
寸法
 62
     0
 48
50.0
370
    -2
100
AcDbLine
 10
10547.96765464258
 20
5033.058950673193
 30
0.0
 11
10547.96765464258
 21
5475.714786129522
 31
0.0
  0
LINE
  5
170C5
330
16F96
100
AcDbEntity
  8
寸法
 62
     0
 48
50.0
370
    -2
100
AcDbLine
 10
10487.96765464258
 20
5037.057332550222
 30
0.0
 11
10487.96765464258
 21
5475.714786129522
 31
0.0
  0
LINE
  5
170C6
330
16F96
100
AcDbEntity
  8
寸法
 62
     0
 48
50.0
370
    -2
100
AcDbLine
 10
10547.96765464258
 20
5415.714786129521
 30
0.0
 11
10647.96765464258
 21
5415.714786129521
 31
0.0
  0
LINE
  5
170C7
330
16F96
100
AcDbEntity
  8
寸法
 62
     0
 48
50.0
370
    -2
100
AcDbLine
 10
10487.96765464258
 20
5415.714786129521
 30
0.0
 11
10068.6920640914
 21
5415.714786129521
 31
0.0
  0
LINE
  5
170C8
330
16F96
100
AcDbEntity
  8
寸法
 62
     0
 48
50.0
370
    -2
100
AcDbLine
 10
10547.96765464258
 20
5415.714786129521
 30
0.0
 11
10487.96765464258
 21
5415.714786129521
 31
0.0
  0
INSERT
  5
170C9
330
16F96
100
AcDbEntity
  8
寸法
 62
     0
 48
50.0
370
    -2
100
AcDbBlockReference
  2
_DOTSMALL
 10
10547.96765464258
 20
5415.714786129521
 30
0.0
 41
100.0
 42
100.0
 43
100.0
 50
180.0
  0
INSERT
  5
170CA
330
16F96
100
AcDbEntity
  8
寸法
 62
     0
 48
50.0
370
    -2
100
AcDbBlockReference
  2
_DOTSMALL
 10
10487.96765464258
 20
5415.714786129521
 30
0.0
 41
100.0
 42
100.0
 43
100.0
  0
MTEXT
  5
170CB
330
16F96
100
AcDbEntity
  8
寸法
 62
     7
 48
50.0
100
AcDbMText
 10
10178.32985936699
 20
5515.714786129521
 30
0.0
 40
120.0
 41
0.0
 71
     5
 72
     1
  1
\A1;60
  7
STYLE1
 73
     1
 44
1.0
1001
ACAD
1000
MTEXTBEGIN
1070
    73
1070
     1
1070
    44
1040
1.0
1070
    74
1070
     0
1000
MTEXTEND
  0
POINT
  5
170CC
330
16F96
100
AcDbEntity
  8
DEFPOINTS
 62
     0
 48
50.0
100
AcDbPoint
 10
10547.96765464258
 20
5013.058950673194
 30
0.0
  0
POINT
  5
170CD
330
16F96
100
AcDbEntity
  8
DEFPOINTS
 62
     0
 48
50.0
100
AcDbPoint
 10
10487.96765464258
 20
5017.057332550223
 30
0.0
  0
POINT
  5
170CE
330
16F96
100
AcDbEntity
  8
DEFPOINTS
 62
     0
 48
50.0
100
AcDbPoint
 10
10487.96765464258
 20
5415.714786129521
 30
0.0
  0
ENDBLK
  5
16FA3
330
16F96
100
AcDbEntity
  8
0
 48
50.0
100
AcDbBlockEnd
  0
BLOCK
  5
16FAE
330
16FA4
100
AcDbEntity
  8
0
 48
50.0
100
AcDbBlockBegin
  2
*D30
 70
     1
 10
0.0
 20
0.0
 30
0.0
  3
*D30
  1

  0
LINE
  5
170BB
330
16FA4
100
AcDbEntity
  8
寸法
 62
     0
 48
50.0
370
    -2
100
AcDbLine
 10
11997.96765464258
 20
4982.057332550219
 30
0.0
 11
11997.96765464258
 21
5683.889107321485
 31
0.0
  0
LINE
  5
170BC
330
16FA4
100
AcDbEntity
  8
寸法
 62
     0
 48
50.0
370
    -2
100
AcDbLine
 10
10487.96765464258
 20
5037.057332550222
 30
0.0
 11
10487.96765464258
 21
5683.889107321485
 31
0.0
  0
LINE
  5
170BD
330
16FA4
100
AcDbEntity
  8
寸法
 62
     0
 48
50.0
370
    -2
100
AcDbLine
 10
11997.96765464258
 20
5623.889107321486
 30
0.0
 11
10487.96765464258
 21
5623.889107321486
 31
0.0
  0
INSERT
  5
170BE
330
16FA4
100
AcDbEntity
  8
寸法
 62
     0
 48
50.0
370
    -2
100
AcDbBlockReference
  2
_DOTSMALL
 10
11997.96765464258
 20
5623.889107321486
 30
0.0
 41
100.0
 42
100.0
 43
100.0
  0
INSERT
  5
170BF
330
16FA4
100
AcDbEntity
  8
寸法
 62
     0
 48
50.0
370
    -2
100
AcDbBlockReference
  2
_DOTSMALL
 10
10487.96765464258
 20
5623.889107321486
 30
0.0
 41
100.0
 42
100.0
 43
100.0
 50
180.0
  0
MTEXT
  5
170C0
330
16FA4
100
AcDbEntity
  8
寸法
 62
     7
 48
50.0
100
AcDbMText
 10
11215.0924843444
 20
5723.889107321486
 30
0.0
 40
120.0
 41
0.0
 71
     5
 72
     1
  1
\A1;1510
  7
STYLE1
 73
     1
 44
1.0
1001
ACAD
1000
MTEXTBEGIN
1070
    73
1070
     1
1070
    44
1040
1.0
1070
    74
1070
     0
1000
MTEXTEND
  0
POINT
  5
170C1
330
16FA4
100
AcDbEntity
  8
DEFPOINTS
 62
     0
 48
50.0
100
AcDbPoint
 10
11997.96765464258
 20
4962.057332550219
 30
0.0
  0
POINT
  5
170C2
330
16FA4
100
AcDbEntity
  8
DEFPOINTS
 62
     0
 48
50.0
100
AcDbPoint
 10
10487.96765464258
 20
5017.057332550223
 30
0.0
  0
POINT
  5
170C3
330
16FA4
100
AcDbEntity
  8
DEFPOINTS
 62
     0
 48
50.0
100
AcDbPoint
 10
10487.96765464258
 20
5623.889107321486
 30
0.0
  0
ENDBLK
  5
16FAF
330
16FA4
100
AcDbEntity
  8
0
 48
50.0
100
AcDbBlockEnd
  0
BLOCK
  5
16FBB
330
16FB0
100
AcDbEntity
  8
0
 48
50.0
100
AcDbBlockBegin
  2
*D31
 70
     1
 10
0.0
 20
0.0
 30
0.0
  3
*D31
  1

  0
LINE
  5
170B1
330
16FB0
100
AcDbEntity
  8
寸法
 62
     0
 48
50.0
370
    -2
100
AcDbLine
 10
11917.96765464258
 20
4983.86801216187
 30
0.0
 11
11917.96765464258
 21
5475.714786129522
 31
0.0
  0
LINE
  5
170B2
330
16FB0
100
AcDbEntity
  8
寸法
 62
     0
 48
50.0
370
    -2
100
AcDbLine
 10
11997.96765464258
 20
4982.057332550219
 30
0.0
 11
11997.96765464258
 21
5475.714786129522
 31
0.0
  0
LINE
  5
170B3
330
16FB0
100
AcDbEntity
  8
寸法
 62
     0
 48
50.0
370
    -2
100
AcDbLine
 10
11917.96765464258
 20
5415.714786129521
 30
0.0
 11
11997.96765464258
 21
5415.714786129521
 31
0.0
  0
LINE
  5
170B4
330
16FB0
100
AcDbEntity
  8
寸法
 62
     0
 48
50.0
370
    -2
100
AcDbLine
 10
11997.96765464258
 20
5415.714786129521
 30
0.0
 11
12310.06214283155
 21
5415.714786129521
 31
0.0
  0
INSERT
  5
170B5
330
16FB0
100
AcDbEntity
  8
寸法
 62
     0
 48
50.0
370
    -2
100
AcDbBlockReference
  2
_DOTSMALL
 10
11917.96765464258
 20
5415.714786129521
 30
0.0
 41
100.0
 42
100.0
 43
100.0
 50
180.0
  0
INSERT
  5
170B6
330
16FB0
100
AcDbEntity
  8
寸法
 62
     0
 48
50.0
370
    -2
100
AcDbBlockReference
  2
_DOTSMALL
 10
11997.96765464258
 20
5415.714786129521
 30
0.0
 41
100.0
 42
100.0
 43
100.0
  0
MTEXT
  5
170B7
330
16FB0
100
AcDbEntity
  8
寸法
 62
     7
 48
50.0
100
AcDbMText
 10
12204.01489873707
 20
5515.714786129521
 30
0.0
 40
120.0
 41
0.0
 71
     5
 72
     1
  1
\A1;80
  7
STYLE1
 73
     1
 44
1.0
1001
ACAD
1000
MTEXTBEGIN
1070
    73
1070
     1
1070
    44
1040
1.0
1070
    74
1070
     0
1000
MTEXTEND
  0
POINT
  5
170B8
330
16FB0
100
AcDbEntity
  8
DEFPOINTS
 62
     0
 48
50.0
100
AcDbPoint
 10
11917.96765464258
 20
4963.868012161871
 30
0.0
  0
POINT
  5
170B9
330
16FB0
100
AcDbEntity
  8
DEFPOINTS
 62
     0
 48
50.0
100
AcDbPoint
 10
11997.96765464258
 20
4962.057332550219
 30
0.0
  0
POINT
  5
170BA
330
16FB0
100
AcDbEntity
  8
DEFPOINTS
 62
     0
 48
50.0
100
AcDbPoint
 10
11997.96765464258
 20
5415.714786129521
 30
0.0
  0
ENDBLK
  5
16FBC
330
16FB0
100
AcDbEntity
  8
0
 48
50.0
100
AcDbBlockEnd
  0
BLOCK
  5
16FC8
330
16FBD
100
AcDbEntity
  8
0
 48
50.0
100
AcDbBlockBegin
  2
*D32
 70
     1
 10
0.0
 20
0.0
 30
0.0
  3
*D32
  1

  0
LINE
  5
170A7
330
16FBD
100
AcDbEntity
  8
寸法
 62
     0
 48
50.0
370
    -2
100
AcDbLine
 10
10483.32445933007
 20
4875.592944023694
 30
0.0
 11
9830.424289036047
 21
4900.243975263672
 31
0.0
  0
LINE
  5
170A8
330
16FBD
100
AcDbEntity
  8
寸法
 62
     0
 48
50.0
370
    -2
100
AcDbLine
 10
10488.64429348203
 20
5016.492551420577
 30
0.0
 11
9835.74412318784
 21
5041.143582660562
 31
0.0
  0
LINE
  5
170A9
330
16FBD
100
AcDbEntity
  8
寸法
 62
     0
 48
50.0
370
    -2
100
AcDbLine
 10
9890.381568779405
 20
4897.980216050143
 30
0.0
 11
9895.701402931198
 21
5038.879823447033
 31
0.0
  0
LINE
  5
170AA
330
16FBD
100
AcDbEntity
  8
寸法
 62
     0
 48
50.0
370
    -2
100
AcDbLine
 10
9895.701402931198
 20
5038.879823447033
 30
0.0
 11
9909.283958212396
 21
5398.623501907866
 31
0.0
  0
INSERT
  5
170AB
330
16FBD
100
AcDbEntity
  8
寸法
 62
     0
 48
50.0
370
    -2
100
AcDbBlockReference
  2
_DOTSMALL
 10
9890.381568779405
 20
4897.980216050143
 30
0.0
 41
100.0
 42
100.0
 43
100.0
 50
267.8377559871574
  0
INSERT
  5
170AC
330
16FBD
100
AcDbEntity
  8
寸法
 62
     0
 48
50.0
370
    -2
100
AcDbBlockReference
  2
_DOTSMALL
 10
9895.701402931198
 20
5038.879823447033
 30
0.0
 41
100.0
 42
100.0
 43
100.0
 50
87.83775598715743
  0
MTEXT
  5
170AD
330
16FBD
100
AcDbEntity
  8
寸法
 62
     7
 48
50.0
100
AcDbMText
 10
9804.450347010822
 20
5272.488994486473
 30
0.0
 40
120.0
 41
0.0
 71
     5
 72
     1
  1
\A1;141
  7
STYLE1
 11
0.03772932022548
 21
0.9992879957226159
 31
0.0
 73
     1
 44
1.0
1001
ACAD
1000
MTEXTBEGIN
1070
    73
1070
     1
1070
    44
1040
1.0
1070
    74
1070
     0
1000
MTEXTEND
  0
POINT
  5
170AE
330
16FBD
100
AcDbEntity
  8
DEFPOINTS
 62
     0
 48
50.0
100
AcDbPoint
 10
10503.31021924453
 20
4874.838357619183
 30
0.0
  0
POINT
  5
170AF
330
16FBD
100
AcDbEntity
  8
DEFPOINTS
 62
     0
 48
50.0
100
AcDbPoint
 10
10508.63005339648
 20
5015.737965016068
 30
0.0
  0
POINT
  5
170B0
330
16FBD
100
AcDbEntity
  8
DEFPOINTS
 62
     0
 48
50.0
100
AcDbPoint
 10
9895.701402931198
 20
5038.879823447033
 30
0.0
  0
ENDBLK
  5
16FC9
330
16FBD
100
AcDbEntity
  8
0
 48
50.0
100
AcDbBlockEnd
  0
BLOCK
  5
16FD4
330
16FCA
100
AcDbEntity
  8
0
 48
50.0
100
AcDbBlockBegin
  2
*D33
 70
     1
 10
0.0
 20
0.0
 30
0.0
  3
*D33
  1

  0
LINE
  5
1709E
330
16FCA
100
AcDbEntity
  8
寸法
 62
     0
 48
50.0
370
    -2
100
AcDbLine
 10
10520.9652845978
 20
4782.057332550218
 30
0.0
 11
9886.004563950375
 21
4782.057332550219
 31
0.0
  0
LINE
  5
1709F
330
16FCA
100
AcDbEntity
  8
寸法
 62
     0
 48
50.0
370
    -2
100
AcDbLine
 10
10520.9652845978
 20
2992.057332550221
 30
0.0
 11
9886.004563950374
 21
2992.057332550221
 31
0.0
  0
LINE
  5
170A0
330
16FCA
100
AcDbEntity
  8
寸法
 62
     0
 48
50.0
370
    -2
100
AcDbLine
 10
9946.004563950374
 20
4782.057332550219
 30
0.0
 11
9946.004563950374
 21
2992.057332550221
 31
0.0
  0
INSERT
  5
170A1
330
16FCA
100
AcDbEntity
  8
寸法
 62
     0
 48
50.0
370
    -2
100
AcDbBlockReference
  2
_DOTSMALL
 10
9946.004563950374
 20
4782.057332550219
 30
0.0
 41
100.0
 42
100.0
 43
100.0
 50
90.0
  0
INSERT
  5
170A2
330
16FCA
100
AcDbEntity
  8
寸法
 62
     0
 48
50.0
370
    -2
100
AcDbBlockReference
  2
_DOTSMALL
 10
9946.004563950374
 20
2992.057332550221
 30
0.0
 41
100.0
 42
100.0
 43
100.0
 50
270.0
  0
MTEXT
  5
170A3
330
16FCA
100
AcDbEntity
  8
寸法
 62
     7
 48
50.0
100
AcDbMText
 10
9846.004563950373
 20
3897.092344426607
 30
0.0
 40
120.0
 41
0.0
 71
     5
 72
     1
  1
\A1;1790
  7
STYLE1
 11
0.0000000000000001
 21
1.0
 31
0.0
 73
     1
 44
1.0
1001
ACAD
1000
MTEXTBEGIN
1070
    73
1070
     1
1070
    44
1040
1.0
1070
    74
1070
     0
1000
MTEXTEND
  0
POINT
  5
170A4
330
16FCA
100
AcDbEntity
  8
DEFPOINTS
 62
     0
 48
50.0
100
AcDbPoint
 10
10540.9652845978
 20
4782.057332550218
 30
0.0
  0
POINT
  5
170A5
330
16FCA
100
AcDbEntity
  8
DEFPOINTS
 62
     0
 48
50.0
100
AcDbPoint
 10
10540.9652845978
 20
2992.057332550221
 30
0.0
  0
POINT
  5
170A6
330
16FCA
100
AcDbEntity
  8
DEFPOINTS
 62
     0
 48
50.0
100
AcDbPoint
 10
9946.004563950374
 20
2992.057332550221
 30
0.0
  0
ENDBLK
  5
16FD5
330
16FCA
100
AcDbEntity
  8
0
 48
50.0
100
AcDbBlockEnd
  0
BLOCK
  5
17180
330
17176
100
AcDbEntity
  8
0
 48
50.0
100
AcDbBlockBegin
  2
*D34
 70
     1
 10
0.0
 20
0.0
 30
0.0
  3
*D34
  1

  0
LINE
  5
1718E
330
17176
100
AcDbEntity
  8
寸法
 62
     0
 48
50.0
370
    -2
100
AcDbLine
 10
5725.236764911209
 20
8599.345970764799
 30
0.0
 11
5616.583367380378
 21
8193.845970764764
 31
0.0
  0
LINE
  5
1718F
330
17176
100
AcDbEntity
  8
寸法
 62
     0
 48
50.0
370
    -2
100
AcDbLine
 10
6486.236764911222
 20
8599.345970764792
 30
0.0
 11
6377.583367380393
 21
8193.845970764764
 31
0.0
  0
LINE
  5
17190
330
17176
100
AcDbEntity
  8
寸法
 62
     0
 48
50.0
370
    -2
100
AcDbLine
 10
5632.660318926246
 20
8253.845970764762
 30
0.0
 11
6393.660318926261
 21
8253.845970764762
 31
0.0
  0
INSERT
  5
17191
330
17176
100
AcDbEntity
  8
寸法
 62
     0
 48
50.0
370
    -2
100
AcDbBlockReference
  2
_DOTSMALL
 10
5632.660318926246
 20
8253.845970764762
 30
0.0
 41
100.0
 42
100.0
 43
100.0
 50
180.0
  0
INSERT
  5
17192
330
17176
100
AcDbEntity
  8
寸法
 62
     0
 48
50.0
370
    -2
100
AcDbBlockReference
  2
_DOTSMALL
 10
6393.660318926261
 20
8253.845970764762
 30
0.0
 41
100.0
 42
100.0
 43
100.0
  0
MTEXT
  5
17193
330
17176
100
AcDbEntity
  8
寸法
 62
     7
 48
50.0
100
AcDbMText
 10
6013.160318926253
 20
8353.845970764764
 30
0.0
 40
120.0
 41
0.0
 71
     5
 72
     1
  1
\A1;761
  7
STYLE1
 73
     1
 44
1.0
1001
ACAD
1000
MTEXTBEGIN
1070
    73
1070
     1
1070
    44
1040
1.0
1070
    74
1070
     0
1000
MTEXTEND
  0
POINT
  5
17194
330
17176
100
AcDbEntity
  8
DEFPOINTS
 62
     0
 48
50.0
100
AcDbPoint
 10
5730.595748759832
 20
8619.345970764801
 30
0.0
  0
POINT
  5
17195
330
17176
100
AcDbEntity
  8
DEFPOINTS
 62
     0
 48
50.0
100
AcDbPoint
 10
6491.595748759845
 20
8619.345970764793
 30
0.0
  0
POINT
  5
17196
330
17176
100
AcDbEntity
  8
DEFPOINTS
 62
     0
 48
50.0
100
AcDbPoint
 10
6393.660318926261
 20
8253.845970764762
 30
0.0
  0
ENDBLK
  5
17181
330
17176
100
AcDbEntity
  8
0
 48
50.0
100
AcDbBlockEnd
  0
BLOCK
  5
1718C
330
17182
100
AcDbEntity
  8
0
 48
50.0
100
AcDbBlockBegin
  2
*D35
 70
     1
 10
0.0
 20
0.0
 30
0.0
  3
*D35
  1

  0
LINE
  5
17197
330
17182
100
AcDbEntity
  8
寸法
 62
     0
 48
50.0
370
    -2
100
AcDbLine
 10
4905.236764911209
 20
8599.345970764799
 30
0.0
 11
4796.583367380378
 21
8193.845970764764
 31
0.0
  0
LINE
  5
17198
330
17182
100
AcDbEntity
  8
寸法
 62
     0
 48
50.0
370
    -2
100
AcDbLine
 10
5666.236764911221
 20
8599.345970764792
 30
0.0
 11
5557.583367380392
 21
8193.845970764764
 31
0.0
  0
LINE
  5
17199
330
17182
100
AcDbEntity
  8
寸法
 62
     0
 48
50.0
370
    -2
100
AcDbLine
 10
4812.660318926246
 20
8253.845970764762
 30
0.0
 11
5573.660318926261
 21
8253.845970764762
 31
0.0
  0
INSERT
  5
1719A
330
17182
100
AcDbEntity
  8
寸法
 62
     0
 48
50.0
370
    -2
100
AcDbBlockReference
  2
_DOTSMALL
 10
4812.660318926246
 20
8253.845970764762
 30
0.0
 41
100.0
 42
100.0
 43
100.0
 50
180.0
  0
INSERT
  5
1719B
330
17182
100
AcDbEntity
  8
寸法
 62
     0
 48
50.0
370
    -2
100
AcDbBlockReference
  2
_DOTSMALL
 10
5573.660318926261
 20
8253.845970764762
 30
0.0
 41
100.0
 42
100.0
 43
100.0
  0
MTEXT
  5
1719C
330
17182
100
AcDbEntity
  8
寸法
 62
     7
 48
50.0
100
AcDbMText
 10
5193.102603733713
 20
8353.845970764764
 30
0.0
 40
120.0
 41
0.0
 71
     5
 72
     1
  1
\A1;761
  7
STYLE1
 73
     1
 44
1.0
1001
ACAD
1000
MTEXTBEGIN
1070
    73
1070
     1
1070
    44
1040
1.0
1070
    74
1070
     0
1000
MTEXTEND
  0
POINT
  5
1719D
330
17182
100
AcDbEntity
  8
DEFPOINTS
 62
     0
 48
50.0
100
AcDbPoint
 10
4910.595748759831
 20
8619.345970764801
 30
0.0
  0
POINT
  5
1719E
330
17182
100
AcDbEntity
  8
DEFPOINTS
 62
     0
 48
50.0
100
AcDbPoint
 10
5671.595748759845
 20
8619.345970764793
 30
0.0
  0
POINT
  5
1719F
330
17182
100
AcDbEntity
  8
DEFPOINTS
 62
     0
 48
50.0
100
AcDbPoint
 10
5573.660318926261
 20
8253.845970764762
 30
0.0
  0
ENDBLK
  5
1718D
330
17182
100
AcDbEntity
  8
0
 48
50.0
100
AcDbBlockEnd
  0
BLOCK
  5
171B0
330
171A6
100
AcDbEntity
  8
0
 48
50.0
100
AcDbBlockBegin
  2
*D36
 70
     1
 10
0.0
 20
0.0
 30
0.0
  3
*D36
  1

  0
LINE
  5
171BE
330
171A6
100
AcDbEntity
  8
寸法
 62
     0
 48
50.0
370
    -2
100
AcDbLine
 10
7364.236764911209
 20
8599.345998466487
 30
0.0
 11
7255.583367380379
 21
8193.84599846645
 31
0.0
  0
LINE
  5
171BF
330
171A6
100
AcDbEntity
  8
寸法
 62
     0
 48
50.0
370
    -2
100
AcDbLine
 10
8125.236764911221
 20
8599.34599846648
 30
0.0
 11
8016.583367380393
 21
8193.84599846645
 31
0.0
  0
LINE
  5
171C0
330
171A6
100
AcDbEntity
  8
寸法
 62
     0
 48
50.0
370
    -2
100
AcDbLine
 10
7271.660318926246
 20
8253.84599846645
 30
0.0
 11
8032.660318926261
 21
8253.84599846645
 31
0.0
  0
INSERT
  5
171C1
330
171A6
100
AcDbEntity
  8
寸法
 62
     0
 48
50.0
370
    -2
100
AcDbBlockReference
  2
_DOTSMALL
 10
7271.660318926246
 20
8253.84599846645
 30
0.0
 41
100.0
 42
100.0
 43
100.0
 50
180.0
  0
INSERT
  5
171C2
330
171A6
100
AcDbEntity
  8
寸法
 62
     0
 48
50.0
370
    -2
100
AcDbBlockReference
  2
_DOTSMALL
 10
8032.660318926261
 20
8253.84599846645
 30
0.0
 41
100.0
 42
100.0
 43
100.0
  0
MTEXT
  5
171C3
330
171A6
100
AcDbEntity
  8
寸法
 62
     7
 48
50.0
100
AcDbMText
 10
7652.160318926253
 20
8353.84599846645
 30
0.0
 40
120.0
 41
0.0
 71
     5
 72
     1
  1
\A1;761
  7
STYLE1
 73
     1
 44
1.0
1001
ACAD
1000
MTEXTBEGIN
1070
    73
1070
     1
1070
    44
1040
1.0
1070
    74
1070
     0
1000
MTEXTEND
  0
POINT
  5
171C4
330
171A6
100
AcDbEntity
  8
DEFPOINTS
 62
     0
 48
50.0
100
AcDbPoint
 10
7369.595748759832
 20
8619.345998466485
 30
0.0
  0
POINT
  5
171C5
330
171A6
100
AcDbEntity
  8
DEFPOINTS
 62
     0
 48
50.0
100
AcDbPoint
 10
8130.595748759844
 20
8619.345998466478
 30
0.0
  0
POINT
  5
171C6
330
171A6
100
AcDbEntity
  8
DEFPOINTS
 62
     0
 48
50.0
100
AcDbPoint
 10
8032.660318926261
 20
8253.84599846645
 30
0.0
  0
ENDBLK
  5
171B1
330
171A6
100
AcDbEntity
  8
0
 48
50.0
100
AcDbBlockEnd
  0
BLOCK
  5
171BC
330
171B2
100
AcDbEntity
  8
0
 48
50.0
100
AcDbBlockBegin
  2
*D37
 70
     1
 10
0.0
 20
0.0
 30
0.0
  3
*D37
  1

  0
LINE
  5
171C7
330
171B2
100
AcDbEntity
  8
寸法
 62
     0
 48
50.0
370
    -2
100
AcDbLine
 10
6544.23676491121
 20
8599.345998466487
 30
0.0
 11
6435.583367380378
 21
8193.84599846645
 31
0.0
  0
LINE
  5
171C8
330
171B2
100
AcDbEntity
  8
寸法
 62
     0
 48
50.0
370
    -2
100
AcDbLine
 10
7305.236764911223
 20
8599.34599846648
 30
0.0
 11
7196.583367380393
 21
8193.84599846645
 31
0.0
  0
LINE
  5
171C9
330
171B2
100
AcDbEntity
  8
寸法
 62
     0
 48
50.0
370
    -2
100
AcDbLine
 10
6451.660318926245
 20
8253.84599846645
 30
0.0
 11
7212.660318926261
 21
8253.84599846645
 31
0.0
  0
INSERT
  5
171CA
330
171B2
100
AcDbEntity
  8
寸法
 62
     0
 48
50.0
370
    -2
100
AcDbBlockReference
  2
_DOTSMALL
 10
6451.660318926245
 20
8253.84599846645
 30
0.0
 41
100.0
 42
100.0
 43
100.0
 50
180.0
  0
INSERT
  5
171CB
330
171B2
100
AcDbEntity
  8
寸法
 62
     0
 48
50.0
370
    -2
100
AcDbBlockReference
  2
_DOTSMALL
 10
7212.660318926261
 20
8253.84599846645
 30
0.0
 41
100.0
 42
100.0
 43
100.0
  0
MTEXT
  5
171CC
330
171B2
100
AcDbEntity
  8
寸法
 62
     7
 48
50.0
100
AcDbMText
 10
6832.102603733712
 20
8353.84599846645
 30
0.0
 40
120.0
 41
0.0
 71
     5
 72
     1
  1
\A1;761
  7
STYLE1
 73
     1
 44
1.0
1001
ACAD
1000
MTEXTBEGIN
1070
    73
1070
     1
1070
    44
1040
1.0
1070
    74
1070
     0
1000
MTEXTEND
  0
POINT
  5
171CD
330
171B2
100
AcDbEntity
  8
DEFPOINTS
 62
     0
 48
50.0
100
AcDbPoint
 10
6549.595748759831
 20
8619.345998466485
 30
0.0
  0
POINT
  5
171CE
330
171B2
100
AcDbEntity
  8
DEFPOINTS
 62
     0
 48
50.0
100
AcDbPoint
 10
7310.595748759844
 20
8619.345998466478
 30
0.0
  0
POINT
  5
171CF
330
171B2
100
AcDbEntity
  8
DEFPOINTS
 62
     0
 48
50.0
100
AcDbPoint
 10
7212.660318926261
 20
8253.84599846645
 30
0.0
  0
ENDBLK
  5
171BD
330
171B2
100
AcDbEntity
  8
0
 48
50.0
100
AcDbBlockEnd
  0
ENDSEC
  0
SECTION
  2
ENTITIES
  0
LINE
  5
10B56
330
747D
100
AcDbEntity
  8
補助
  6
PHANTOM
 62
   230
 48
50.0
100
AcDbLine
 10
140.0
 20
0.0
 30
0.0
 11
139.9999999999995
 21
11409.6
 31
0.0
  0
LINE
  5
10B57
330
747D
100
AcDbEntity
  8
補助
  6
PHANTOM
 62
   230
 48
50.0
100
AcDbLine
 10
139.9999999999995
 20
11409.6
 30
0.0
 11
16307.2
 21
11409.6
 31
0.0
  0
LINE
  5
10B59
330
747D
100
AcDbEntity
  8
仕様書枠
  6
Continuous
 48
50.0
100
AcDbLine
 10
13107.2
 20
1200.0
 30
0.0
 11
13107.2
 21
-0.0000000000000729
 31
0.0
  0
LINE
  5
10B5C
330
747D
100
AcDbEntity
  8
仕様書枠
 48
50.0
100
AcDbLine
 10
16307.2
 20
1200.0
 30
0.0
 11
16307.2
 21
-0.0000000000000909
 31
0.0
  0
LINE
  5
10B5D
330
747D
100
AcDbEntity
  8
仕様書枠
 48
50.0
100
AcDbLine
 10
140.0
 20
0.0
 30
0.0
 11
16307.2
 21
-0.0000000000000909
 31
0.0
  0
LINE
  5
10B5E
330
747D
100
AcDbEntity
  8
補助
  6
PHANTOM
 62
   230
 48
50.0
100
AcDbLine
 10
16307.2
 20
11409.6
 30
0.0
 11
16307.2
 21
1200.0
 31
0.0
  0
LINE
  5
10B6C
330
747D
100
AcDbEntity
  8
仕様書枠
 48
50.0
100
AcDbLine
 10
13107.2
 20
1200.0
 30
0.0
 11
16307.2
 21
1200.0
 31
0.0
  0
LINE
  5
10B6D
330
747D
100
AcDbEntity
  8
補助
  6
PHANTOM
 62
   230
 48
50.0
100
AcDbLine
 10
13107.2
 20
11409.6
 30
0.0
 11
13107.2
 21
4800.0
 31
0.0
  0
LINE
  5
10B6F
330
747D
100
AcDbEntity
  8
補助
  6
PHANTOM
 62
   230
 48
50.0
100
AcDbLine
 10
13107.2
 20
4800.0
 30
0.0
 11
16307.2
 21
4800.0
 31
0.0
  0
LINE
  5
10B72
330
747D
100
AcDbEntity
  8
文字
 62
     7
 48
50.0
100
AcDbLine
 10
13187.2
 20
400.0
 30
0.0
 11
16227.2
 21
400.0
 31
0.0
  0
TEXT
  5
10B73
330
747D
100
AcDbEntity
  8
文字
 62
     7
 48
50.0
100
AcDbText
 10
13162.9790565769
 20
895.0906074299405
 30
0.0
 40
200.0
  1
外 形 図
  7
STYLE2
100
AcDbText
  0
TEXT
  5
10B74
330
747D
100
AcDbEntity
  8
文字
 62
     7
 48
50.0
100
AcDbText
 10
13201.43669998441
 20
477.2740661031255
 30
0.0
 40
160.0
  1
機種名
  7
STYLE2
100
AcDbText
  0
TEXT
  5
10B75
330
747D
100
AcDbEntity
  8
文字
 62
     7
 48
50.0
100
AcDbText
 10
13209.4053442172
 20
228.5435242569016
 30
0.0
 40
100.0
  1
○有効開口寸法 ： 685×1760(mm)
  7
STYLE2
100
AcDbText
  0
TEXT
  5
10B76
330
747D
100
AcDbEntity
  8
文字
 62
     7
 48
50.0
100
AcDbText
 10
13209.4053442172
 20
76.09434707649343
 30
0.0
 40
100.0
  1
○床面積 ： 4.49㎡(1.36坪) 　
  7
STYLE2
100
AcDbText
  0
TEXT
  5
10B79
330
747D
100
AcDbEntity
  8
文字
 62
     7
 48
50.0
100
AcDbText
 10
14524.131837222
 20
1031.557706291228
 30
0.0
 40
100.0
  1
NO.03     <縮尺> S=1/40
  7
STYLE2
100
AcDbText
  0
LINE
  5
10B7B
330
747D
100
AcDbEntity
  8
仕様書枠
 48
50.0
100
AcDbLine
 10
13107.2
 20
800.0
 30
0.0
 11
14251.2
 21
800.0
 31
0.0
  0
LINE
  5
10B88
330
747D
100
AcDbEntity
  8
仕様書枠
  6
Continuous
 48
50.0
100
AcDbLine
 10
14251.2
 20
1200.0
 30
0.0
 11
14251.2
 21
800.0
 31
0.0
  0
TEXT
  5
13A63
330
747D
100
AcDbEntity
  8
部品1
100
AcDbText
 10
3850.595162092534
 20
2878.164236156119
 30
0.0
 40
125.0
  1
▽G.L
  7
STYLE2
100
AcDbText
  0
TEXT
  5
13B2F
330
747D
100
AcDbEntity
  8
部品1
100
AcDbText
 10
6230.330086756406
 20
6198.37375274648
 30
0.0
 40
135.0
  1
平面図
  7
STYLE2
100
AcDbText
  0
LWPOLYLINE
  5
13B30
330
747D
100
AcDbEntity
  8
部品1
100
AcDbPolyline
 90
        4
 70
     1
 43
0.0
 10
6140.410476927367
 20
6391.267281965003
 10
6140.410476927367
 20
6151.37496041947
 10
6903.881143155807
 20
6151.37496041947
 10
6903.881143155807
 20
6391.267281965003
  0
DIMENSION
  5
15107
330
747D
100
AcDbEntity
  8
寸法
 48
50.0
100
AcDbDimension
  2
*D1
 10
7396.095742082204
 20
9314.654190389894
 30
0.0
 11
7751.095742082203
 21
9414.654190389894
 31
0.0
 70
    32
 71
     5
 42
709.9999999999981
  3
INABA_S40G
100
AcDbAlignedDimension
 13
8106.095742082201
 23
9098.845970764905
 33
0.0
 14
7396.095742082204
 24
9098.845970764891
 34
0.0
100
AcDbRotatedDimension
  0
DIMENSION
  5
15108
330
747D
100
AcDbEntity
  8
寸法
100
AcDbDimension
  2
*D2
 10
8161.095742082201
 20
9314.654190389871
 30
0.0
 11
8469.58102345644
 21
9314.654190389871
 31
0.0
 70
   160
 71
     5
 42
55.0
  3
INABA_S40G
100
AcDbAlignedDimension
 13
8106.095742082201
 23
9098.845970764891
 33
0.0
 14
8161.095742082201
 24
9098.845970764891
 34
0.0
100
AcDbRotatedDimension
1001
ACAD
1000
DSTYLE
1002
{
1002
}
  0
DIMENSION
  5
15109
330
747D
100
AcDbEntity
  8
寸法
 48
50.0
100
AcDbDimension
  2
*D3
 10
6576.095742082204
 20
9314.654190389894
 30
0.0
 11
6521.095742082201
 21
9414.654190389894
 31
0.0
 70
    32
 71
     5
 42
110.0000000000036
  3
INABA_S40G
100
AcDbAlignedDimension
 13
6466.0957420822
 23
9098.845970764912
 33
0.0
 14
6576.095742082204
 24
9098.845970764891
 34
0.0
100
AcDbRotatedDimension
  0
DIMENSION
  5
1510A
330
747D
100
AcDbEntity
  8
寸法
100
AcDbDimension
  2
*D4
 10
6466.0957420822
 20
9314.654190389894
 30
0.0
 11
6111.3457420822
 21
9314.654190389894
 31
0.0
 70
   160
 71
     5
 42
709.9999999999981
  3
INABA_S40G
100
AcDbAlignedDimension
 13
5756.095742082202
 23
9098.845970764825
 33
0.0
 14
6466.0957420822
 24
9098.845970764912
 34
0.0
100
AcDbRotatedDimension
1001
ACAD
1000
DSTYLE
1002
{
1002
}
  0
DIMENSION
  5
1510B
330
747D
100
AcDbEntity
  8
寸法
 48
50.0
100
AcDbDimension
  2
*D5
 10
7396.095742082204
 20
9314.654190389894
 30
0.0
 11
7341.095742082202
 21
9414.654190389894
 31
0.0
 70
    32
 71
     5
 42
110.0000000000036
  3
INABA_S40G
100
AcDbAlignedDimension
 13
7286.0957420822
 23
9098.845970764912
 33
0.0
 14
7396.095742082204
 24
9098.845970764891
 34
0.0
100
AcDbRotatedDimension
  0
DIMENSION
  5
1510C
330
747D
100
AcDbEntity
  8
寸法
100
AcDbDimension
  2
*D6
 10
7286.0957420822
 20
9314.654190389894
 30
0.0
 11
6931.3457420822
 21
9314.654190389894
 31
0.0
 70
   160
 71
     5
 42
709.9999999999981
  3
INABA_S40G
100
AcDbAlignedDimension
 13
6576.095742082201
 23
9098.845970764825
 33
0.0
 14
7286.0957420822
 24
9098.845970764912
 34
0.0
100
AcDbRotatedDimension
1001
ACAD
1000
DSTYLE
1002
{
1002
}
  0
DIMENSION
  5
1510D
330
747D
100
AcDbEntity
  8
寸法
100
AcDbDimension
  2
*D7
 10
8808.522087816612
 20
9043.845970764889
 30
0.0
 11
8808.52208781661
 21
9407.331252139131
 31
0.0
 70
   160
 71
     5
 42
55.0
  3
INABA_S40G
100
AcDbAlignedDimension
 13
8161.095742082201
 23
9098.845970764891
 33
0.0
 14
8161.095742082201
 24
9043.845970764889
 34
0.0
 50
90.0
100
AcDbRotatedDimension
1001
ACAD
1000
DSTYLE
1002
{
1002
}
  0
DIMENSION
  5
1510E
330
747D
100
AcDbEntity
  8
寸法
100
AcDbDimension
  2
*D8
 10
4936.095742082201
 20
9314.654190389779
 30
0.0
 11
4572.610460707926
 21
9314.654190389779
 31
0.0
 70
   160
 71
     5
 42
55.00000000003637
  3
INABA_S40G
100
AcDbAlignedDimension
 13
4881.095742082165
 23
9098.845970764797
 33
0.0
 14
4936.095742082201
 24
9098.845970764797
 34
0.0
100
AcDbRotatedDimension
1001
ACAD
1000
DSTYLE
1002
{
1002
}
  0
LINE
  5
1510F
330
747D
100
AcDbEntity
  8
部品1
100
AcDbLine
 10
6549.095742082148
 20
9070.845970764819
 30
0.0
 11
7338.476445100801
 21
9070.845970764841
 31
0.0
  0
LINE
  5
15110
330
747D
100
AcDbEntity
  8
部品1
100
AcDbLine
 10
6550.595748759829
 20
9069.345970764855
 30
0.0
 11
7311.595748759832
 21
9069.345970764905
 31
0.0
  0
LINE
  5
15112
330
747D
100
AcDbEntity
  8
破線
 48
10.0
100
AcDbLine
 10
7262.095742082187
 20
7883.84597076484
 30
0.0
 11
6600.095742082188
 21
7883.845970764825
 31
0.0
  0
LINE
  5
15113
330
747D
100
AcDbEntity
  8
部品1
 48
5.0
100
AcDbLine
 10
6545.095742082196
 20
7758.345970764775
 30
0.0
 11
7317.095742082196
 21
7758.345970764833
 31
0.0
  0
ARC
  5
15114
330
747D
100
AcDbEntity
  8
想像線
 48
10.0
100
AcDbCircle
 10
7288.743691405038
 20
7730.540864140403
 30
0.0
 40
722.649936915561
100
AcDbArc
 50
180.1343808685485
 51
270.5829222700353
  0
LINE
  5
15116
330
747D
100
AcDbEntity
  8
部品1
100
AcDbLine
 10
7285.595742082179
 20
7860.345970764839
 30
0.0
 11
6576.595248828296
 21
7860.345468567368
 31
0.0
  0
LINE
  5
15117
330
747D
100
AcDbEntity
  8
部品1
100
AcDbLine
 10
7296.095742082194
 20
7754.845970764883
 30
0.0
 11
6566.095742082194
 21
7754.845970764854
 31
0.0
  0
LINE
  5
15118
330
747D
100
AcDbEntity
  8
部品1
100
AcDbLine
 10
6550.595748759832
 20
8619.345970764854
 30
0.0
 11
7311.595748759829
 21
8619.345970764905
 31
0.0
  0
DIMENSION
  5
1511A
330
747D
100
AcDbEntity
  8
寸法
100
AcDbDimension
  2
*D9
 10
8161.095742082176
 20
6741.74409590464
 30
0.0
 11
6521.095742082185
 21
6741.74409590464
 31
0.0
 70
   160
 71
     5
 42
3279.999999999982
  3
INABA_S40G
100
AcDbAlignedDimension
 13
4881.095742082194
 23
7728.845970764689
 33
0.0
 14
8161.095742082176
 24
7728.845970764847
 34
0.0
100
AcDbRotatedDimension
1001
ACAD
1000
DSTYLE
1002
{
1002
}
  0
LINE
  5
1511B
330
747D
100
AcDbEntity
  8
部品1
100
AcDbLine
 10
8161.095742082176
 20
7728.845970764877
 30
0.0
 11
5701.095742082195
 21
7728.845970764782
 31
0.0
  0
LINE
  5
1511C
330
747D
100
AcDbEntity
  8
細線
 48
50.0
100
AcDbLine
 10
7311.595748759832
 20
9069.345970764905
 30
0.0
 11
6550.595748759832
 21
8619.345970764854
 31
0.0
  0
LINE
  5
1511D
330
747D
100
AcDbEntity
  8
細線
 48
50.0
100
AcDbLine
 10
7311.595748759829
 20
8619.345970764905
 30
0.0
 11
6550.595748759829
 21
9069.345970764855
 31
0.0
  0
LINE
  5
1511E
330
747D
100
AcDbEntity
  8
部品1
 48
5.0
100
AcDbLine
 10
6466.095742082195
 20
7783.845970764833
 30
0.0
 11
6466.095742082197
 21
7758.345970764833
 31
0.0
  0
LINE
  5
1511F
330
747D
100
AcDbEntity
  8
部品1
 48
5.0
100
AcDbLine
 10
6497.095742082196
 20
7783.845970764833
 30
0.0
 11
6497.095742082196
 21
7758.345970764833
 31
0.0
  0
LINE
  5
15120
330
747D
100
AcDbEntity
  8
部品1
 48
5.0
100
AcDbLine
 10
6545.095742082198
 20
7783.845970764833
 30
0.0
 11
6545.095742082196
 21
7758.345970764833
 31
0.0
  0
LINE
  5
15121
330
747D
100
AcDbEntity
  8
部品1
 48
5.0
100
AcDbLine
 10
6576.095742082197
 20
7783.845970764833
 30
0.0
 11
6576.095742082198
 21
7758.345970764833
 31
0.0
  0
LINE
  5
15122
330
747D
100
AcDbEntity
  8
部品1
 48
2.83
100
AcDbLine
 10
4881.095742082194
 20
7728.845970764716
 30
0.0
 11
4881.095742082194
 21
7783.845970764716
 31
0.0
  0
LINE
  5
15123
330
747D
100
AcDbEntity
  8
部品1
100
AcDbLine
 10
4881.095742082192
 20
7783.845970764716
 30
0.0
 11
4881.095742082194
 21
7728.845970764716
 31
0.0
  0
LINE
  5
15124
330
747D
100
AcDbEntity
  8
部品1
 48
2.83
100
AcDbLine
 10
4936.095742082194
 20
7783.845970764716
 30
0.0
 11
4936.095742082198
 21
7758.345970764716
 31
0.0
  0
LINE
  5
15125
330
747D
100
AcDbEntity
  8
部品1
100
AcDbLine
 10
4881.095742082165
 20
9098.845970764761
 30
0.0
 11
4881.095742082194
 21
7728.845970764753
 31
0.0
  0
ARC
  5
15127
330
747D
100
AcDbEntity
  8
想像線
 48
10.0
100
AcDbCircle
 10
6468.743691405038
 20
7730.540864140403
 30
0.0
 40
722.6499369155621
100
AcDbArc
 50
180.1343808685507
 51
270.5829222700352
  0
LINE
  5
15128
330
747D
100
AcDbEntity
  8
部品1
100
AcDbLine
 10
6476.095742082193
 20
7754.845970764847
 30
0.0
 11
5746.095742082194
 21
7754.845970764818
 31
0.0
  0
LINE
  5
15129
330
747D
100
AcDbEntity
  8
部品1
 48
5.0
100
AcDbLine
 10
5725.095742082196
 20
7758.345970764833
 30
0.0
 11
6497.095742082196
 21
7758.345970764775
 31
0.0
  0
LINE
  5
1512A
330
747D
100
AcDbEntity
  8
部品1
100
AcDbLine
 10
6572.095742082194
 20
7728.845970764782
 30
0.0
 11
5701.095742082195
 21
7728.845970764753
 31
0.0
  0
LINE
  5
1512B
330
747D
100
AcDbEntity
  8
部品1
 48
2.83
100
AcDbLine
 10
4924.095742082194
 20
7728.845970764716
 30
0.0
 11
4881.095742082194
 21
7728.845970764716
 31
0.0
  0
LINE
  5
1512C
330
747D
100
AcDbEntity
  8
部品1
100
AcDbLine
 10
4926.095742082194
 20
7754.845970764818
 30
0.0
 11
4926.095742082194
 21
7728.845970764782
 31
0.0
  0
LINE
  5
1512D
330
747D
100
AcDbEntity
  8
部品1
 48
2.83
100
AcDbLine
 10
4924.095742082194
 20
7758.345970764716
 30
0.0
 11
4924.095742082194
 21
7728.845970764716
 31
0.0
  0
LINE
  5
1512E
330
747D
100
AcDbEntity
  8
想像線
 48
10.0
100
AcDbLine
 10
6476.095742082193
 20
7728.845970764833
 30
0.0
 11
6476.095742082193
 21
7007.928327109043
 31
0.0
  0
LINE
  5
1512F
330
747D
100
AcDbEntity
  8
部品1
 48
5.0
100
AcDbLine
 10
6478.095742082196
 20
7728.845970764833
 30
0.0
 11
6564.095742082196
 21
7728.845970764833
 31
0.0
  0
LINE
  5
15130
330
747D
100
AcDbEntity
  8
部品1
 48
0.2
100
AcDbLine
 10
6463.15818991087
 20
7721.843600720055
 30
0.0
 11
6468.158189910872
 21
7721.843600720055
 31
0.0
  0
ARC
  5
15131
330
747D
100
AcDbEntity
  8
細線
 48
0.2
100
AcDbCircle
 10
6468.158189910872
 20
7729.843600720055
 30
0.0
 40
4.049999999999999
100
AcDbArc
 50
194.2603506853988
 51
345.7396493146012
  0
ARC
  5
15132
330
747D
100
AcDbEntity
  8
部品1
 48
0.2
100
AcDbCircle
 10
6463.15818991087
 20
7729.843600720055
 30
0.0
 40
8.0
100
AcDbArc
 50
187.1636477221926
 51
269.9999999999992
  0
ARC
  5
15133
330
747D
100
AcDbEntity
  8
部品1
 48
0.2
100
AcDbCircle
 10
6468.158189910872
 20
7729.843600720055
 30
0.0
 40
8.0
100
AcDbArc
 50
270.0
 51
352.8363522778074
  0
LINE
  5
15134
330
747D
100
AcDbEntity
  8
部品1
 48
5.0
100
AcDbLine
 10
6478.095742082196
 20
7758.345970764833
 30
0.0
 11
6478.095742082196
 21
7728.845970764833
 31
0.0
  0
LINE
  5
15135
330
747D
100
AcDbEntity
  8
部品1
100
AcDbLine
 10
6478.095742082195
 20
7758.345970764775
 30
0.0
 11
6478.09574208219
 21
7728.845970764826
 31
0.0
  0
LINE
  5
15136
330
747D
100
AcDbEntity
  8
部品1
100
AcDbLine
 10
6476.095742082193
 20
7754.845970764883
 30
0.0
 11
6476.095742082193
 21
7728.845970764826
 31
0.0
  0
LINE
  5
15137
330
747D
100
AcDbEntity
  8
部品1
 48
5.0
100
AcDbLine
 10
6564.095742082196
 20
7758.345970764833
 30
0.0
 11
6564.095742082196
 21
7728.845970764833
 31
0.0
  0
LINE
  5
15138
330
747D
100
AcDbEntity
  8
部品1
100
AcDbLine
 10
6564.095742082194
 20
7758.345970764782
 30
0.0
 11
6564.095742082196
 21
7728.845970764833
 31
0.0
  0
LINE
  5
15139
330
747D
100
AcDbEntity
  8
部品1
100
AcDbLine
 10
6566.095742082194
 20
7754.845970764854
 30
0.0
 11
6566.095742082194
 21
7728.845970764819
 31
0.0
  0
LINE
  5
1513A
330
747D
100
AcDbEntity
  8
部品1
 48
50.0
100
AcDbLine
 10
6576.595735737893
 20
7860.345970789499
 30
0.0
 11
6576.595738710756
 21
8619.34597076484
 31
0.0
  0
LINE
  5
1513B
330
747D
100
AcDbEntity
  8
部品1
 48
50.0
100
AcDbLine
 10
6465.595742082179
 20
7860.345970764839
 30
0.0
 11
6465.595742082154
 21
8619.345970764898
 31
0.0
  0
LINE
  5
1513C
330
747D
100
AcDbEntity
  8
破線
 48
10.0
100
AcDbLine
 10
6442.095742082186
 20
7883.84597076484
 30
0.0
 11
6442.095735919922
 21
8426.345937887285
 31
0.0
  0
LINE
  5
1513D
330
747D
100
AcDbEntity
  8
破線
 48
10.0
100
AcDbLine
 10
6600.095742082188
 20
7883.845970764847
 30
0.0
 11
6600.095732913082
 21
8426.345931365441
 31
0.0
  0
LINE
  5
1513E
330
747D
100
AcDbEntity
  8
部品1
 48
5.0
100
AcDbLine
 10
4937.596713507159
 20
7860.345970764891
 30
0.0
 11
4937.596220575848
 21
8619.345970764802
 31
0.0
  0
LINE
  5
1513F
330
747D
100
AcDbEntity
  8
破線
 48
10.0
100
AcDbLine
 10
4961.095807006903
 20
8619.345970764802
 30
0.0
 11
4961.095794383881
 21
8476.345999019272
 31
0.0
  0
LINE
  5
15141
330
747D
100
AcDbEntity
  8
部品1
 48
50.0
100
AcDbLine
 10
6521.09574208218
 20
7783.845970764833
 30
0.0
 11
6521.09574208218
 21
9043.84597076484
 31
0.0
  0
LINE
  5
15142
330
747D
100
AcDbEntity
  8
部品1
 48
50.0
100
AcDbLine
 10
6493.095742082179
 20
7783.845970764833
 30
0.0
 11
6493.095742082127
 21
9070.845970764841
 31
0.0
  0
LINE
  5
15143
330
747D
100
AcDbEntity
  8
部品1
 48
50.0
100
AcDbLine
 10
6549.09574208218
 20
7783.845970764833
 30
0.0
 11
6549.095742082124
 21
9098.845970764839
 31
0.0
  0
LINE
  5
15144
330
747D
100
AcDbEntity
  8
部品1
100
AcDbLine
 10
4909.095742082175
 20
7783.845970764746
 30
0.0
 11
4909.095742082201
 21
9070.845970764796
 31
0.0
  0
LINE
  5
15145
330
747D
100
AcDbEntity
  8
部品1
100
AcDbLine
 10
6465.596312530358
 20
7860.345389944876
 30
0.0
 11
5757.596713508588
 21
7860.344888456352
 31
0.0
  0
LINE
  5
15146
330
747D
100
AcDbEntity
  8
破線
 48
10.0
100
AcDbLine
 10
6442.095742082186
 20
7883.845970764818
 30
0.0
 11
5781.095742082187
 21
7883.845970764804
 31
0.0
  0
LINE
  5
15147
330
747D
100
AcDbEntity
  8
部品1
 48
2.83
100
AcDbLine
 10
4913.095742082195
 20
7783.845970764716
 30
0.0
 11
4936.095742082194
 21
7783.845970764716
 31
0.0
  0
LINE
  5
15148
330
747D
100
AcDbEntity
  8
部品1
 48
2.83
100
AcDbLine
 10
4881.095742082194
 20
7783.845970764716
 30
0.0
 11
4904.095742082194
 21
7783.845970764716
 31
0.0
  0
LINE
  5
15149
330
747D
100
AcDbEntity
  8
部品1
100
AcDbLine
 10
4909.095742082175
 20
7783.845970764716
 30
0.0
 11
4881.095742082192
 21
7783.845970764716
 31
0.0
  0
LINE
  5
1514A
330
747D
100
AcDbEntity
  8
部品1
100
AcDbLine
 10
4909.095742082175
 20
7783.845970764746
 30
0.0
 11
4881.095742082192
 21
7783.845970764746
 31
0.0
  0
LINE
  5
1514B
330
747D
100
AcDbEntity
  8
部品1
100
AcDbLine
 10
4909.095742082192
 20
7783.84597076476
 30
0.0
 11
4881.095742082192
 21
7783.84597076476
 31
0.0
  0
LINE
  5
1514C
330
747D
100
AcDbEntity
  8
部品1
 48
50.0
100
AcDbLine
 10
4937.596713508589
 20
7860.344888456352
 30
0.0
 11
4909.095742082175
 21
7831.325717523887
 31
0.0
  0
LINE
  5
1514D
330
747D
100
AcDbEntity
  8
部品1
100
AcDbLine
 10
4909.095742082175
 20
8203.84597076476
 30
0.0
 11
4881.095742082176
 21
8203.84597076476
 31
0.0
  0
LINE
  5
1514E
330
747D
100
AcDbEntity
  8
部品1
 48
5.0
100
AcDbLine
 10
6553.095742082196
 20
7783.845970764833
 30
0.0
 11
6576.095742082197
 21
7783.845970764833
 31
0.0
  0
LINE
  5
1514F
330
747D
100
AcDbEntity
  8
部品1
 48
5.0
100
AcDbLine
 10
6493.095742082179
 20
7783.845970764833
 30
0.0
 11
6549.09574208218
 21
7783.845970764833
 31
0.0
  0
LINE
  5
15150
330
747D
100
AcDbEntity
  8
部品1
 48
5.0
100
AcDbLine
 10
6489.095742082196
 20
7783.845970764833
 30
0.0
 11
6466.095742082194
 21
7783.845970764833
 31
0.0
  0
LINE
  5
15151
330
747D
100
AcDbEntity
  8
部品1
 48
50.0
100
AcDbLine
 10
6576.595742082178
 20
7860.345970789506
 30
0.0
 11
6549.09574208218
 21
7832.345970764833
 31
0.0
  0
LINE
  5
15152
330
747D
100
AcDbEntity
  8
部品1
 48
50.0
100
AcDbLine
 10
6493.095742082179
 20
7832.345970764833
 30
0.0
 11
6465.595742082179
 21
7860.345970764839
 31
0.0
  0
LINE
  5
15153
330
747D
100
AcDbEntity
  8
部品1
 48
5.0
100
AcDbLine
 10
6521.09574208218
 20
8203.845970764833
 30
0.0
 11
6493.095742082129
 21
8203.84597076484
 31
0.0
  0
LINE
  5
15154
330
747D
100
AcDbEntity
  8
部品1
100
AcDbLine
 10
5730.59574875983
 20
9069.345970764855
 30
0.0
 11
6491.595748759832
 21
9069.345970764905
 31
0.0
  0
LINE
  5
15155
330
747D
100
AcDbEntity
  8
部品1
100
AcDbLine
 10
5729.095742082201
 20
9070.845970764796
 30
0.0
 11
6518.476445100823
 21
9070.845970764819
 31
0.0
  0
LINE
  5
15156
330
747D
100
AcDbEntity
  8
部品1
100
AcDbLine
 10
5730.595748759832
 20
8619.345970764854
 30
0.0
 11
6491.595748759831
 21
8619.345970764905
 31
0.0
  0
LINE
  5
15157
330
747D
100
AcDbEntity
  8
細線
 48
50.0
100
AcDbLine
 10
6491.595748759832
 20
9069.345970764905
 30
0.0
 11
5730.595748759832
 21
8619.345970764854
 31
0.0
  0
LINE
  5
15158
330
747D
100
AcDbEntity
  8
細線
 48
50.0
100
AcDbLine
 10
6491.595748759831
 20
8619.345970764905
 30
0.0
 11
5730.59574875983
 21
9069.345970764855
 31
0.0
  0
LINE
  5
15159
330
747D
100
AcDbEntity
  8
部品1
 48
50.0
100
AcDbLine
 10
4910.595748759829
 20
9069.345970764855
 30
0.0
 11
4910.595748759831
 21
8619.345970764854
 31
0.0
  0
LINE
  5
1515A
330
747D
100
AcDbEntity
  8
部品1
100
AcDbLine
 10
4909.095742082175
 20
8623.84597076476
 30
0.0
 11
4881.095742082176
 21
8623.84597076476
 31
0.0
  0
LINE
  5
1515B
330
747D
100
AcDbEntity
  8
部品1
 48
50.0
100
AcDbLine
 10
4910.595748759824
 20
9069.345970764803
 30
0.0
 11
4909.095742082201
 21
9070.845970764796
 31
0.0
  0
LINE
  5
1515C
330
747D
100
AcDbEntity
  8
部品1
100
AcDbLine
 10
4909.095742082168
 20
9043.845970764767
 30
0.0
 11
4881.095742082169
 21
9043.845970764767
 31
0.0
  0
LINE
  5
1515D
330
747D
100
AcDbEntity
  8
部品1
100
AcDbLine
 10
4936.095742082165
 20
9098.845970764761
 30
0.0
 11
4936.095742082169
 21
9070.845970764761
 31
0.0
  0
LINE
  5
1515E
330
747D
100
AcDbEntity
  8
部品1
100
AcDbLine
 10
4936.095742082201
 20
9098.845970764797
 30
0.0
 11
4936.095742082201
 21
9070.845970764796
 31
0.0
  0
LINE
  5
1515F
330
747D
100
AcDbEntity
  8
部品1
 48
50.0
100
AcDbLine
 10
6491.595748759832
 20
9069.345970764905
 30
0.0
 11
6491.595748759832
 21
8619.345970764905
 31
0.0
  0
LINE
  5
15160
330
747D
100
AcDbEntity
  8
部品1
 48
50.0
100
AcDbLine
 10
6550.595748759829
 20
9069.345970764855
 30
0.0
 11
6550.595748759832
 21
8619.345970764854
 31
0.0
  0
LINE
  5
15161
330
747D
100
AcDbEntity
  8
部品1
 48
50.0
100
AcDbLine
 10
6521.095742082173
 20
8661.84597076484
 30
0.0
 11
6549.095742082155
 21
8661.84597076484
 31
0.0
  0
LINE
  5
15162
330
747D
100
AcDbEntity
  8
部品1
 48
50.0
100
AcDbLine
 10
6521.095742082173
 20
8623.84597076484
 30
0.0
 11
6549.095742082155
 21
8623.84597076484
 31
0.0
  0
LINE
  5
15163
330
747D
100
AcDbEntity
  8
部品1
 48
5.0
100
AcDbLine
 10
6521.09574208218
 20
8623.845970764833
 30
0.0
 11
6493.095742082129
 21
8623.84597076484
 31
0.0
  0
LINE
  5
15164
330
747D
100
AcDbEntity
  8
部品1
 48
5.0
100
AcDbLine
 10
6549.095742082129
 20
9043.84597076484
 30
0.0
 11
6493.095742082129
 21
9043.84597076484
 31
0.0
  0
LINE
  5
15165
330
747D
100
AcDbEntity
  8
部品1
 48
5.0
100
AcDbLine
 10
6495.805016529375
 20
9098.845970764839
 30
0.0
 11
6518.476445100803
 21
9070.845970764841
 31
0.0
  0
LINE
  5
15166
330
747D
100
AcDbEntity
  8
部品1
 48
5.0
100
AcDbLine
 10
6466.095742082197
 20
9070.845970764841
 30
0.0
 11
6466.0957420822
 21
9098.845970764839
 31
0.0
  0
LINE
  5
15167
330
747D
100
AcDbEntity
  8
部品1
 48
50.0
100
AcDbLine
 10
6491.595748759832
 20
9069.291458105082
 30
0.0
 11
6493.095742082127
 21
9070.845970764841
 31
0.0
  0
LINE
  5
15168
330
747D
100
AcDbEntity
  8
部品1
 48
50.0
100
AcDbLine
 10
6550.595742082132
 20
9069.291449244582
 30
0.0
 11
6549.095742082127
 21
9070.845970764841
 31
0.0
  0
LINE
  5
15169
330
747D
100
AcDbEntity
  8
部品1
 48
5.0
100
AcDbLine
 10
6576.095742082204
 20
9098.845970764839
 30
0.0
 11
6576.095742082198
 21
9070.845970764848
 31
0.0
  0
DIMENSION
  5
1516A
330
747D
100
AcDbEntity
  8
寸法
100
AcDbDimension
  2
*D10
 10
8808.522087816587
 20
7728.845970764877
 30
0.0
 11
8808.522087816585
 21
7350.984503860015
 31
0.0
 70
   160
 71
     5
 42
55.0
  3
INABA_S40G
100
AcDbAlignedDimension
 13
8161.095742082176
 23
7783.845970764876
 33
0.0
 14
8161.095742082176
 24
7728.845970764877
 34
0.0
 50
90.0
100
AcDbRotatedDimension
1001
ACAD
1000
DSTYLE
1002
{
1002
}
  0
LINE
  5
1516B
330
747D
100
AcDbEntity
  8
部品1
 48
2.83
100
AcDbLine
 10
8106.095742082176
 20
7783.845970764847
 30
0.0
 11
8106.095742082176
 21
7758.345970764847
 31
0.0
  0
LINE
  5
1516C
330
747D
100
AcDbEntity
  8
部品1
 48
5.0
100
AcDbLine
 10
7286.095742082196
 20
7783.845970764833
 30
0.0
 11
7286.095742082197
 21
7758.345970764833
 31
0.0
  0
LINE
  5
1516D
330
747D
100
AcDbEntity
  8
部品1
 48
5.0
100
AcDbLine
 10
7317.095742082196
 20
7783.845970764833
 30
0.0
 11
7317.095742082196
 21
7758.345970764833
 31
0.0
  0
LINE
  5
1516E
330
747D
100
AcDbEntity
  8
部品1
 48
5.0
100
AcDbLine
 10
7365.095742082198
 20
7783.845970764833
 30
0.0
 11
7365.095742082196
 21
7758.345970764833
 31
0.0
  0
LINE
  5
1516F
330
747D
100
AcDbEntity
  8
部品1
 48
5.0
100
AcDbLine
 10
7396.095742082195
 20
7783.845970764833
 30
0.0
 11
7396.095742082199
 21
7758.345970764833
 31
0.0
  0
LINE
  5
15170
330
747D
100
AcDbEntity
  8
部品1
100
AcDbLine
 10
8161.095742082201
 20
9098.845970764891
 30
0.0
 11
8161.095742082176
 21
7728.845970764877
 31
0.0
  0
DIMENSION
  5
15171
330
747D
100
AcDbEntity
  8
寸法
100
AcDbDimension
  2
*D11
 10
9117.633618632289
 20
7728.845970764877
 30
0.0
 11
9117.633618632288
 21
8413.845970764883
 31
0.0
 70
   160
 71
     5
 42
1370.000000000014
  3
INABA_S40G
100
AcDbAlignedDimension
 13
8161.095742082201
 23
9098.845970764891
 33
0.0
 14
8161.095742082176
 24
7728.845970764877
 34
0.0
 50
90.0
100
AcDbRotatedDimension
1001
ACAD
1000
DSTYLE
1002
{
1002
}
  0
ARC
  5
15172
330
747D
100
AcDbEntity
  8
想像線
 48
10.0
100
AcDbCircle
 10
8108.743691405036
 20
7730.54086414042
 30
0.0
 40
722.6499369155638
100
AcDbArc
 50
180.1343808685487
 51
270.5829222700352
  0
LINE
  5
15174
330
747D
100
AcDbEntity
  8
部品1
100
AcDbLine
 10
8116.095742082194
 20
7754.845970764883
 30
0.0
 11
7386.095742082194
 21
7754.845970764825
 31
0.0
  0
LINE
  5
15175
330
747D
100
AcDbEntity
  8
部品1
 48
5.0
100
AcDbLine
 10
8118.095742082175
 20
7758.345970764833
 30
0.0
 11
7365.095742082196
 21
7758.345970764833
 31
0.0
  0
LINE
  5
15176
330
747D
100
AcDbEntity
  8
想像線
 48
10.0
100
AcDbLine
 10
7296.095742082194
 20
7728.845970764833
 30
0.0
 11
7296.095742082194
 21
7007.928327109043
 31
0.0
  0
LINE
  5
15177
330
747D
100
AcDbEntity
  8
部品1
 48
0.2
100
AcDbLine
 10
7283.158189910871
 20
7721.843600720055
 30
0.0
 11
7288.158189910871
 21
7721.843600720055
 31
0.0
  0
ARC
  5
15178
330
747D
100
AcDbEntity
  8
細線
 48
0.2
100
AcDbCircle
 10
7288.158189910871
 20
7729.843600720055
 30
0.0
 40
4.049999999999999
100
AcDbArc
 50
194.2603506853988
 51
345.7396493146012
  0
ARC
  5
15179
330
747D
100
AcDbEntity
  8
部品1
 48
0.2
100
AcDbCircle
 10
7283.158189910871
 20
7729.843600720055
 30
0.0
 40
8.0
100
AcDbArc
 50
187.1636477221926
 51
269.9999999999992
  0
LINE
  5
1517A
330
747D
100
AcDbEntity
  8
部品1
 48
5.0
100
AcDbLine
 10
7298.095742082196
 20
7728.845970764833
 30
0.0
 11
7384.095742082196
 21
7728.845970764833
 31
0.0
  0
ARC
  5
1517B
330
747D
100
AcDbEntity
  8
部品1
 48
0.2
100
AcDbCircle
 10
7288.158189910871
 20
7729.843600720055
 30
0.0
 40
8.0
100
AcDbArc
 50
270.0
 51
352.8363522778074
  0
LINE
  5
1517C
330
747D
100
AcDbEntity
  8
部品1
 48
5.0
100
AcDbLine
 10
7298.095742082196
 20
7758.345970764833
 30
0.0
 11
7298.095742082196
 21
7728.845970764833
 31
0.0
  0
LINE
  5
1517D
330
747D
100
AcDbEntity
  8
部品1
100
AcDbLine
 10
7298.095742082193
 20
7758.345970764775
 30
0.0
 11
7298.095742082191
 21
7728.845970764826
 31
0.0
  0
LINE
  5
1517E
330
747D
100
AcDbEntity
  8
部品1
100
AcDbLine
 10
7296.095742082194
 20
7754.845970764883
 30
0.0
 11
7296.095742082194
 21
7728.845970764826
 31
0.0
  0
LINE
  5
1517F
330
747D
100
AcDbEntity
  8
部品1
 48
5.0
100
AcDbLine
 10
7384.095742082196
 20
7758.345970764833
 30
0.0
 11
7384.095742082196
 21
7728.845970764833
 31
0.0
  0
LINE
  5
15180
330
747D
100
AcDbEntity
  8
部品1
100
AcDbLine
 10
7386.095742082194
 20
7754.845970764825
 30
0.0
 11
7386.095742082192
 21
7728.845970764833
 31
0.0
  0
LINE
  5
15181
330
747D
100
AcDbEntity
  8
部品1
100
AcDbLine
 10
7384.095742082194
 20
7758.345970764782
 30
0.0
 11
7384.095742082196
 21
7728.845970764833
 31
0.0
  0
LINE
  5
15182
330
747D
100
AcDbEntity
  8
想像線
 48
10.0
100
AcDbLine
 10
8116.095742082194
 20
7728.84597076484
 30
0.0
 11
8116.095742082194
 21
7007.92832710905
 31
0.0
  0
LINE
  5
15183
330
747D
100
AcDbEntity
  8
部品1
 48
2.83
100
AcDbLine
 10
8118.095742082175
 20
7758.345970764847
 30
0.0
 11
8118.095742082175
 21
7728.845970764847
 31
0.0
  0
ARC
  5
15184
330
747D
100
AcDbEntity
  8
細線
 48
0.2
100
AcDbCircle
 10
8108.158189910874
 20
7729.843600720069
 30
0.0
 40
4.049999999999999
100
AcDbArc
 50
194.2603506853988
 51
345.7396493146012
  0
ARC
  5
15185
330
747D
100
AcDbEntity
  8
部品1
 48
0.2
100
AcDbCircle
 10
8103.158189910873
 20
7729.843600720069
 30
0.0
 40
8.0
100
AcDbArc
 50
187.1636477221926
 51
269.9999999999992
  0
ARC
  5
15186
330
747D
100
AcDbEntity
  8
部品1
 48
0.2
100
AcDbCircle
 10
8108.158189910874
 20
7729.843600720069
 30
0.0
 40
8.0
100
AcDbArc
 50
270.0
 51
352.8363522778074
  0
LINE
  5
15187
330
747D
100
AcDbEntity
  8
部品1
 48
0.2
100
AcDbLine
 10
8103.158189910873
 20
7721.843600720069
 30
0.0
 11
8108.158189910874
 21
7721.843600720069
 31
0.0
  0
LINE
  5
15188
330
747D
100
AcDbEntity
  8
部品1
100
AcDbLine
 10
8116.095742082194
 20
7754.845970764883
 30
0.0
 11
8116.095742082194
 21
7728.845970764877
 31
0.0
  0
DIMENSION
  5
15189
330
747D
100
AcDbEntity
  8
寸法
100
AcDbDimension
  2
*D12
 10
8486.953467944159
 20
8524.128155095942
 30
0.0
 11
8386.953467944158
 21
8749.128155095943
 31
0.0
 70
    32
 71
     5
 42
450.0
  3
INABA_S40G
100
AcDbAlignedDimension
 13
8131.595742082135
 23
9069.345970764834
 33
0.0
 14
8131.595742082135
 24
8619.345970764832
 34
0.0
 50
90.0
100
AcDbRotatedDimension
1001
ACAD
1000
DSTYLE
1002
{
1002
}
  0
DIMENSION
  5
1518A
330
747D
100
AcDbEntity
  8
寸法
100
AcDbDimension
  2
*D13
 10
8808.522087816612
 20
7783.845970764876
 30
0.0
 11
8808.52208781661
 21
8413.845970764883
 31
0.0
 70
   160
  1
3X420=<>
 71
     5
 42
1260.000000000014
  3
INABA_S40G
100
AcDbAlignedDimension
 13
8161.095742082201
 23
9043.845970764889
 33
0.0
 14
8161.095742082176
 24
7783.845970764876
 34
0.0
 50
90.0
100
AcDbRotatedDimension
1001
ACAD
1000
DSTYLE
1002
{
1002
}
  0
LINE
  5
1518B
330
747D
100
AcDbEntity
  8
部品1
 48
5.0
100
AcDbLine
 10
8104.594770657245
 20
7860.345970764891
 30
0.0
 11
8104.595263588555
 21
8619.345970764832
 31
0.0
  0
LINE
  5
1518C
330
747D
100
AcDbEntity
  8
破線
 48
10.0
100
AcDbLine
 10
8081.095807006871
 20
8619.34597076484
 30
0.0
 11
8081.095794383841
 21
8476.345870233444
 31
0.0
  0
LINE
  5
1518D
330
747D
100
AcDbEntity
  8
部品1
 48
50.0
100
AcDbLine
 10
7396.595735737894
 20
7860.345970789499
 30
0.0
 11
7396.595738710755
 21
8619.34597076484
 31
0.0
  0
LINE
  5
1518E
330
747D
100
AcDbEntity
  8
部品1
 48
50.0
100
AcDbLine
 10
7285.595742082179
 20
7860.345970764839
 30
0.0
 11
7285.595742082154
 21
8619.345970764898
 31
0.0
  0
LINE
  5
1518F
330
747D
100
AcDbEntity
  8
破線
 48
10.0
100
AcDbLine
 10
7420.095742082186
 20
7883.845970764847
 30
0.0
 11
7420.095732913082
 21
8426.345897517881
 31
0.0
  0
LINE
  5
15191
330
747D
100
AcDbEntity
  8
破線
 48
10.0
100
AcDbLine
 10
7262.095742082187
 20
7883.84597076484
 30
0.0
 11
7262.095735919922
 21
8426.345904039727
 31
0.0
  0
LINE
  5
15192
330
747D
100
AcDbEntity
  8
部品1
 48
50.0
100
AcDbLine
 10
7341.09574208218
 20
7783.845970764833
 30
0.0
 11
7341.09574208218
 21
9043.84597076484
 31
0.0
  0
LINE
  5
15193
330
747D
100
AcDbEntity
  8
部品1
 48
50.0
100
AcDbLine
 10
7313.09574208218
 20
7783.845970764833
 30
0.0
 11
7313.095742082127
 21
9070.845970764841
 31
0.0
  0
LINE
  5
15194
330
747D
100
AcDbEntity
  8
部品1
 48
50.0
100
AcDbLine
 10
7369.09574208218
 20
7783.845970764833
 30
0.0
 11
7369.095742082125
 21
9098.845970764839
 31
0.0
  0
LINE
  5
15195
330
747D
100
AcDbEntity
  8
部品1
100
AcDbLine
 10
8133.095742082202
 20
9070.84597076489
 30
0.0
 11
8133.095742082177
 21
7783.845970764876
 31
0.0
  0
LINE
  5
15196
330
747D
100
AcDbEntity
  8
破線
 48
10.0
100
AcDbLine
 10
8081.09574208218
 20
7883.845970764884
 30
0.0
 11
7420.095742082186
 21
7883.845970764847
 31
0.0
  0
LINE
  5
15197
330
747D
100
AcDbEntity
  8
部品1
100
AcDbLine
 10
8104.594770657387
 20
7860.346076477729
 30
0.0
 11
7396.595742082178
 21
7860.345970789506
 31
0.0
  0
LINE
  5
15198
330
747D
100
AcDbEntity
  8
部品1
 48
5.0
100
AcDbLine
 10
7309.095742082196
 20
7783.845970764833
 30
0.0
 11
7286.095742082195
 21
7783.845970764833
 31
0.0
  0
LINE
  5
15199
330
747D
100
AcDbEntity
  8
部品1
 48
50.0
100
AcDbLine
 10
7313.09574208218
 20
7832.345970764833
 30
0.0
 11
7285.595742082179
 21
7860.345970764839
 31
0.0
  0
LINE
  5
1519A
330
747D
100
AcDbEntity
  8
部品1
 48
5.0
100
AcDbLine
 10
7373.095742082196
 20
7783.845970764833
 30
0.0
 11
7396.095742082195
 21
7783.845970764833
 31
0.0
  0
LINE
  5
1519B
330
747D
100
AcDbEntity
  8
部品1
 48
5.0
100
AcDbLine
 10
7313.09574208218
 20
7783.845970764833
 30
0.0
 11
7369.09574208218
 21
7783.845970764833
 31
0.0
  0
LINE
  5
1519C
330
747D
100
AcDbEntity
  8
部品1
 48
50.0
100
AcDbLine
 10
7396.595742082178
 20
7860.345970789506
 30
0.0
 11
7369.09574208218
 21
7832.345970764833
 31
0.0
  0
LINE
  5
1519D
330
747D
100
AcDbEntity
  8
部品1
 48
5.0
100
AcDbLine
 10
7341.09574208218
 20
8203.845970764833
 30
0.0
 11
7313.095742082129
 21
8203.84597076484
 31
0.0
  0
LINE
  5
1519E
330
747D
100
AcDbEntity
  8
部品1
 48
2.83
100
AcDbLine
 10
8161.095742082176
 20
7783.845970764847
 30
0.0
 11
8138.095742082176
 21
7783.845970764847
 31
0.0
  0
LINE
  5
1519F
330
747D
100
AcDbEntity
  8
部品1
100
AcDbLine
 10
8133.095742082177
 20
7783.845970764876
 30
0.0
 11
8161.095742082176
 21
7783.845970764876
 31
0.0
  0
LINE
  5
151A0
330
747D
100
AcDbEntity
  8
部品1
100
AcDbLine
 10
8133.095742082209
 20
7783.845970764891
 30
0.0
 11
8161.095742082208
 21
7783.845970764891
 31
0.0
  0
LINE
  5
151A1
330
747D
100
AcDbEntity
  8
部品1
 48
50.0
100
AcDbLine
 10
8133.095742082177
 20
7831.326905572478
 30
0.0
 11
8104.594770657387
 21
7860.346076477729
 31
0.0
  0
LINE
  5
151A2
330
747D
100
AcDbEntity
  8
部品1
 48
2.83
100
AcDbLine
 10
8129.095742082176
 20
7783.845970764847
 30
0.0
 11
8106.095742082176
 21
7783.845970764847
 31
0.0
  0
LINE
  5
151A3
330
747D
100
AcDbEntity
  8
部品1
100
AcDbLine
 10
8133.095742082202
 20
8203.845970764891
 30
0.0
 11
8161.095742082201
 21
8203.845970764891
 31
0.0
  0
LINE
  5
151A4
330
747D
100
AcDbEntity
  8
部品1
100
AcDbLine
 10
7369.095742082125
 20
9070.845970764841
 30
0.0
 11
8133.095742082202
 21
9070.84597076489
 31
0.0
  0
LINE
  5
151A5
330
747D
100
AcDbEntity
  8
部品1
100
AcDbLine
 10
7370.595742082132
 20
9069.345970764841
 30
0.0
 11
8131.595742082135
 21
9069.345970764834
 31
0.0
  0
LINE
  5
151A6
330
747D
100
AcDbEntity
  8
部品1
100
AcDbLine
 10
7370.595742082132
 20
8619.34597076484
 30
0.0
 11
8131.595742082135
 21
8619.345970764832
 31
0.0
  0
LINE
  5
151A7
330
747D
100
AcDbEntity
  8
細線
 48
50.0
100
AcDbLine
 10
8131.595742082135
 20
9069.345970764834
 30
0.0
 11
7370.595742082132
 21
8619.34597076484
 31
0.0
  0
LINE
  5
151A8
330
747D
100
AcDbEntity
  8
細線
 48
50.0
100
AcDbLine
 10
8131.595742082135
 20
8619.345970764832
 30
0.0
 11
7370.595742082132
 21
9069.345970764841
 31
0.0
  0
LINE
  5
151A9
330
747D
100
AcDbEntity
  8
部品1
 48
50.0
100
AcDbLine
 10
7370.595742082132
 20
9069.345970764841
 30
0.0
 11
7370.595742082132
 21
8619.34597076484
 31
0.0
  0
LINE
  5
151AA
330
747D
100
AcDbEntity
  8
部品1
 48
50.0
100
AcDbLine
 10
7311.595748759832
 20
9069.345970764905
 30
0.0
 11
7311.595748759832
 21
8619.345970764905
 31
0.0
  0
LINE
  5
151AB
330
747D
100
AcDbEntity
  8
部品1
 48
50.0
100
AcDbLine
 10
7341.095742082173
 20
8661.84597076484
 30
0.0
 11
7369.095742082155
 21
8661.84597076484
 31
0.0
  0
LINE
  5
151AC
330
747D
100
AcDbEntity
  8
部品1
 48
50.0
100
AcDbLine
 10
7341.095742082173
 20
8623.84597076484
 30
0.0
 11
7369.095742082155
 21
8623.84597076484
 31
0.0
  0
LINE
  5
151AD
330
747D
100
AcDbEntity
  8
部品1
 48
5.0
100
AcDbLine
 10
7341.09574208218
 20
8623.845970764833
 30
0.0
 11
7313.095742082129
 21
8623.84597076484
 31
0.0
  0
LINE
  5
151AE
330
747D
100
AcDbEntity
  8
部品1
 48
5.0
100
AcDbLine
 10
7286.095742082197
 20
9070.845970764841
 30
0.0
 11
7286.0957420822
 21
9098.845970764839
 31
0.0
  0
LINE
  5
151AF
330
747D
100
AcDbEntity
  8
部品1
 48
5.0
100
AcDbLine
 10
7369.095742082129
 20
9043.84597076484
 30
0.0
 11
7313.095742082129
 21
9043.84597076484
 31
0.0
  0
LINE
  5
151B0
330
747D
100
AcDbEntity
  8
部品1
 48
5.0
100
AcDbLine
 10
7315.805016529376
 20
9098.845970764839
 30
0.0
 11
7338.476445100804
 21
9070.845970764841
 31
0.0
  0
LINE
  5
151B1
330
747D
100
AcDbEntity
  8
部品1
 48
50.0
100
AcDbLine
 10
7311.595748759832
 20
9069.291458105082
 30
0.0
 11
7313.095742082127
 21
9070.845970764841
 31
0.0
  0
LINE
  5
151B2
330
747D
100
AcDbEntity
  8
部品1
 48
50.0
100
AcDbLine
 10
7370.595742082132
 20
9069.291449244582
 30
0.0
 11
7369.095742082127
 21
9070.845970764841
 31
0.0
  0
LINE
  5
151B3
330
747D
100
AcDbEntity
  8
部品1
 48
5.0
100
AcDbLine
 10
7396.095742082204
 20
9098.845970764839
 30
0.0
 11
7396.095742082199
 21
9070.845970764848
 31
0.0
  0
LINE
  5
151B4
330
747D
100
AcDbEntity
  8
部品1
100
AcDbLine
 10
8131.595742082135
 20
9069.345970764834
 30
0.0
 11
8131.595742082135
 21
8619.345970764832
 31
0.0
  0
LINE
  5
151B5
330
747D
100
AcDbEntity
  8
部品1
100
AcDbLine
 10
8133.095742082202
 20
8623.845970764891
 30
0.0
 11
8161.095742082201
 21
8623.845970764891
 31
0.0
  0
LINE
  5
151B6
330
747D
100
AcDbEntity
  8
部品1
 48
50.0
100
AcDbLine
 10
8131.595735404527
 20
9069.345970764841
 30
0.0
 11
8133.095742082202
 21
9070.84597076489
 31
0.0
  0
LINE
  5
151B7
330
747D
100
AcDbEntity
  8
部品1
100
AcDbLine
 10
8133.095742082202
 20
9043.845970764889
 30
0.0
 11
8161.095742082201
 21
9043.845970764889
 31
0.0
  0
LINE
  5
151B8
330
747D
100
AcDbEntity
  8
部品1
100
AcDbLine
 10
8106.095742082201
 20
9098.845970764891
 30
0.0
 11
8106.095742082201
 21
9070.84597076489
 31
0.0
  0
LINE
  5
151B9
330
747D
100
AcDbEntity
  8
部品1
100
AcDbLine
 10
8106.095742082201
 20
9098.845970764905
 30
0.0
 11
8106.095742082201
 21
9070.845970764905
 31
0.0
  0
LINE
  5
151BA
330
747D
100
AcDbEntity
  8
部品1
100
AcDbLine
 10
7298.095742082193
 20
4782.057332550217
 30
0.0
 11
7298.095742082193
 21
2985.057332550237
 31
0.0
  0
LINE
  5
151BB
330
747D
100
AcDbEntity
  8
部品1
100
AcDbLine
 10
7296.095742082194
 20
4779.557332550218
 30
0.0
 11
7296.095742082194
 21
2988.557332550238
 31
0.0
  0
LINE
  5
151BC
330
747D
100
AcDbEntity
  8
部品1
100
AcDbLine
 10
6566.095742082194
 20
4779.557332550215
 30
0.0
 11
6566.095742082194
 21
2988.557332550231
 31
0.0
  0
LINE
  5
151BD
330
747D
100
AcDbEntity
  8
部品1
100
AcDbLine
 10
6564.095742082194
 20
4782.057332550217
 30
0.0
 11
6564.095742082194
 21
2985.057332550237
 31
0.0
  0
LINE
  5
151BE
330
747D
100
AcDbEntity
  8
部品1
100
AcDbLine
 10
4926.095742082194
 20
4779.557332550218
 30
0.0
 11
4926.095742082194
 21
2988.557332550224
 31
0.0
  0
LINE
  5
151BF
330
747D
100
AcDbEntity
  8
部品1
100
AcDbLine
 10
8118.095742082195
 20
4782.057332550217
 30
0.0
 11
8118.095742082195
 21
2985.057332550237
 31
0.0
  0
LINE
  5
151C0
330
747D
100
AcDbEntity
  8
部品1
100
AcDbLine
 10
4881.095742082194
 20
4876.057332550217
 30
0.0
 11
4881.095742082194
 21
2842.057332550218
 31
0.0
  0
LINE
  5
151C1
330
747D
100
AcDbEntity
  8
部品1
100
AcDbLine
 10
8161.095742082194
 20
4876.057332550214
 30
0.0
 11
8161.095742082194
 21
2842.057332550218
 31
0.0
  0
LINE
  5
151C2
330
747D
100
AcDbEntity
  8
部品1
100
AcDbLine
 10
8116.095742082194
 20
4779.557332550218
 30
0.0
 11
8116.095742082194
 21
2988.557332550238
 31
0.0
  0
LINE
  5
151C3
330
747D
100
AcDbEntity
  8
部品1
100
AcDbLine
 10
7386.095742082194
 20
4779.557332550218
 30
0.0
 11
7386.095742082194
 21
2988.55733255023
 31
0.0
  0
LINE
  5
151C4
330
747D
100
AcDbEntity
  8
部品1
100
AcDbLine
 10
7384.095742082194
 20
4782.057332550217
 30
0.0
 11
7384.095742082194
 21
2985.057332550237
 31
0.0
  0
LINE
  5
151C5
330
747D
100
AcDbEntity
  8
部品1
100
AcDbLine
 10
6478.095742082195
 20
4782.057332550217
 30
0.0
 11
6478.095742082195
 21
2985.057332550237
 31
0.0
  0
LINE
  5
151C6
330
747D
100
AcDbEntity
  8
部品1
100
AcDbLine
 10
6476.095742082192
 20
4779.557332550218
 30
0.0
 11
6476.095742082193
 21
2988.557332550228
 31
0.0
  0
LINE
  5
151C7
330
747D
100
AcDbEntity
  8
部品1
100
AcDbLine
 10
4924.095742082194
 20
4782.057332550217
 30
0.0
 11
4924.095742082194
 21
2985.057332550237
 31
0.0
  0
DIMENSION
  5
151C8
330
747D
100
AcDbEntity
  8
寸法
100
AcDbDimension
  2
*D14
 10
4562.991214474592
 20
3003.557332550221
 30
0.0
 11
4562.99121447459
 21
3882.557332550219
 31
0.0
 70
   160
  1
有効開口部高サ<>
 71
     5
 42
1759.999999999996
  3
INABA_S40G
100
AcDbAlignedDimension
 13
4881.095742082194
 23
4763.557332550217
 33
0.0
 14
4881.095742082194
 24
3003.557332550221
 34
0.0
 50
90.0
100
AcDbRotatedDimension
1001
ACAD
1000
DSTYLE
1002
{
1070
   288
1070
     1
1002
}
  0
LINE
  5
151C9
330
747D
100
AcDbEntity
  8
部品1
100
AcDbLine
 10
6566.095742082194
 20
2988.557332550231
 30
0.0
 11
7276.033294253513
 21
2988.557332550238
 31
0.0
  0
LINE
  5
151CC
330
747D
100
AcDbEntity
  8
部品1
100
AcDbLine
 10
5746.095742082194
 20
2988.557332550224
 30
0.0
 11
6456.033294253514
 21
2988.557332550228
 31
0.0
  0
LINE
  5
151CE
330
747D
100
AcDbEntity
  8
細線
 48
0.2
100
AcDbLine
 10
6476.033294253513
 20
2992.807332550236
 30
0.0
 11
6456.033294253514
 21
2992.807332550236
 31
0.0
  0
LINE
  5
151CF
330
747D
100
AcDbEntity
  8
部品1
 48
0.2
100
AcDbLine
 10
6476.033294253513
 20
2995.307332550236
 30
0.0
 11
6456.033294253514
 21
2995.307332550236
 31
0.0
  0
ARC
  5
151D0
330
747D
100
AcDbEntity
  8
細線
 48
0.2
100
AcDbCircle
 10
6473.033294253513
 20
2988.336822718988
 30
0.0
 40
1.0
100
AcDbArc
 50
286.6015495990217
 51
0.0
  0
LINE
  5
151D1
330
747D
100
AcDbEntity
  8
細線
 48
0.2
100
AcDbLine
 10
6476.033294253513
 20
2988.307332550236
 30
0.0
 11
6456.033294253514
 21
2988.307332550236
 31
0.0
  0
LINE
  5
151D2
330
747D
100
AcDbEntity
  8
細線
 48
0.2
100
AcDbLine
 10
6476.033294253513
 20
2990.807332550236
 30
0.0
 11
6456.033294253514
 21
2990.807332550238
 31
0.0
  0
ARC
  5
151D3
330
747D
100
AcDbEntity
  8
細線
 48
0.2
100
AcDbCircle
 10
6463.033294253513
 20
2988.336822718988
 30
0.0
 40
1.0
100
AcDbArc
 50
179.9999999999984
 51
253.3984504009775
  0
ARC
  5
151D4
330
747D
100
AcDbEntity
  8
細線
 48
0.2
100
AcDbCircle
 10
6468.033294253513
 20
3005.107332550233
 30
0.0
 40
18.49999999999796
100
AcDbArc
 50
253.3984504009772
 51
286.6015495990217
  0
LINE
  5
151D5
330
747D
100
AcDbEntity
  8
細線
 48
0.2
100
AcDbLine
 10
6473.717285550022
 20
2987.607332550235
 30
0.0
 11
6462.349302957008
 21
2987.607332550235
 31
0.0
  0
LINE
  5
151D6
330
747D
100
AcDbEntity
  8
細線
 48
50.0
100
AcDbLine
 10
6456.033294253514
 20
2988.557332550238
 30
0.0
 11
6456.033294253514
 21
2988.307332550236
 31
0.0
  0
LINE
  5
151D7
330
747D
100
AcDbEntity
  8
部品1
100
AcDbLine
 10
6476.033294253513
 20
2988.557332550238
 30
0.0
 11
6476.095742082193
 21
2988.557332550238
 31
0.0
  0
LINE
  5
151D8
330
747D
100
AcDbEntity
  8
部品1
100
AcDbLine
 10
6476.033294253513
 20
2988.557332550228
 30
0.0
 11
6476.095742082193
 21
2988.557332550228
 31
0.0
  0
LINE
  5
151D9
330
747D
100
AcDbEntity
  8
細線
 48
0.1
100
AcDbLine
 10
6476.033294253513
 20
2988.307332550236
 30
0.0
 11
6476.033294253513
 21
2995.307332550236
 31
0.0
  0
LINE
  5
151DA
330
747D
100
AcDbEntity
  8
細線
 48
50.0
100
AcDbLine
 10
6464.17053705921
 20
2990.807332550238
 30
0.0
 11
6464.17053705921
 21
2992.807332550236
 31
0.0
  0
LINE
  5
151DB
330
747D
100
AcDbEntity
  8
細線
 48
50.0
100
AcDbLine
 10
6472.020947105173
 20
2990.807332550238
 30
0.0
 11
6472.020947105173
 21
2992.807332550236
 31
0.0
  0
LINE
  5
151DC
330
747D
100
AcDbEntity
  8
部品1
 48
50.0
100
AcDbLine
 10
6456.033294253514
 20
2995.307332550236
 30
0.0
 11
6456.033294253514
 21
2988.557332550238
 31
0.0
  0
LINE
  5
151DF
330
747D
100
AcDbEntity
  8
部品1
100
AcDbLine
 10
7386.095742082194
 20
2988.557332550231
 30
0.0
 11
8096.033294253514
 21
2988.557332550238
 31
0.0
  0
LINE
  5
151E0
330
747D
100
AcDbEntity
  8
部品1
 48
0.2
100
AcDbLine
 10
7296.033294253513
 20
2995.307332550236
 30
0.0
 11
7276.033294253513
 21
2995.307332550236
 31
0.0
  0
LINE
  5
151E1
330
747D
100
AcDbEntity
  8
細線
 48
0.2
100
AcDbLine
 10
7296.033294253513
 20
2992.807332550236
 30
0.0
 11
7276.033294253513
 21
2992.807332550236
 31
0.0
  0
LINE
  5
151E2
330
747D
100
AcDbEntity
  8
細線
 48
0.2
100
AcDbLine
 10
7296.033294253513
 20
2990.807332550236
 30
0.0
 11
7276.033294253513
 21
2990.807332550238
 31
0.0
  0
LINE
  5
151E3
330
747D
100
AcDbEntity
  8
細線
 48
0.2
100
AcDbLine
 10
7296.033294253513
 20
2988.307332550236
 30
0.0
 11
7276.033294253513
 21
2988.307332550236
 31
0.0
  0
LINE
  5
151E4
330
747D
100
AcDbEntity
  8
細線
 48
50.0
100
AcDbLine
 10
7276.033294253513
 20
2988.557332550238
 30
0.0
 11
7276.033294253513
 21
2988.307332550236
 31
0.0
  0
LINE
  5
151E5
330
747D
100
AcDbEntity
  8
細線
 48
0.2
100
AcDbLine
 10
7293.71728555002
 20
2987.607332550235
 30
0.0
 11
7282.349302957008
 21
2987.607332550235
 31
0.0
  0
ARC
  5
151E6
330
747D
100
AcDbEntity
  8
細線
 48
0.2
100
AcDbCircle
 10
7288.033294253513
 20
3005.107332550233
 30
0.0
 40
18.49999999999796
100
AcDbArc
 50
253.3984504009772
 51
286.6015495990217
  0
ARC
  5
151E7
330
747D
100
AcDbEntity
  8
細線
 48
0.2
100
AcDbCircle
 10
7283.033294253513
 20
2988.336822718988
 30
0.0
 40
1.0
100
AcDbArc
 50
179.9999999999984
 51
253.3984504009775
  0
ARC
  5
151E8
330
747D
100
AcDbEntity
  8
細線
 48
0.2
100
AcDbCircle
 10
7293.033294253513
 20
2988.336822718988
 30
0.0
 40
1.0
100
AcDbArc
 50
286.6015495990217
 51
0.0
  0
LINE
  5
151E9
330
747D
100
AcDbEntity
  8
部品1
 48
50.0
100
AcDbLine
 10
7276.033294253513
 20
2995.307332550236
 30
0.0
 11
7276.033294253513
 21
2988.557332550238
 31
0.0
  0
LINE
  5
151EA
330
747D
100
AcDbEntity
  8
細線
 48
50.0
100
AcDbLine
 10
7292.020947105173
 20
2990.807332550238
 30
0.0
 11
7292.020947105173
 21
2992.807332550236
 31
0.0
  0
LINE
  5
151EB
330
747D
100
AcDbEntity
  8
細線
 48
50.0
100
AcDbLine
 10
7284.17053705921
 20
2990.807332550238
 30
0.0
 11
7284.17053705921
 21
2992.807332550236
 31
0.0
  0
LINE
  5
151ED
330
747D
100
AcDbEntity
  8
部品1
100
AcDbLine
 10
7296.033294253513
 20
2988.557332550239
 30
0.0
 11
7296.095742082194
 21
2988.557332550239
 31
0.0
  0
LINE
  5
151EE
330
747D
100
AcDbEntity
  8
部品1
100
AcDbLine
 10
7296.033294253513
 20
2988.557332550238
 30
0.0
 11
7296.095742082194
 21
2988.557332550238
 31
0.0
  0
LINE
  5
151EF
330
747D
100
AcDbEntity
  8
部品1
100
AcDbLine
 10
7296.033294253513
 20
2988.557332550238
 30
0.0
 11
7296.095742082194
 21
2988.557332550238
 31
0.0
  0
LINE
  5
151F0
330
747D
100
AcDbEntity
  8
細線
 48
0.1
100
AcDbLine
 10
7296.033294253513
 20
2988.307332550236
 30
0.0
 11
7296.033294253513
 21
2995.307332550236
 31
0.0
  0
LINE
  5
151F3
330
747D
100
AcDbEntity
  8
部品1
 48
0.2
100
AcDbLine
 10
8116.033294253513
 20
2995.307332550236
 30
0.0
 11
8096.033294253514
 21
2995.307332550236
 31
0.0
  0
LINE
  5
151F4
330
747D
100
AcDbEntity
  8
細線
 48
0.2
100
AcDbLine
 10
8116.033294253513
 20
2992.807332550236
 30
0.0
 11
8096.033294253514
 21
2992.807332550236
 31
0.0
  0
LINE
  5
151F5
330
747D
100
AcDbEntity
  8
部品1
100
AcDbLine
 10
8116.033294253513
 20
2988.557332550239
 30
0.0
 11
8116.095742082194
 21
2988.557332550239
 31
0.0
  0
LINE
  5
151F6
330
747D
100
AcDbEntity
  8
部品1
100
AcDbLine
 10
8116.033294253513
 20
2988.557332550238
 30
0.0
 11
8116.095742082194
 21
2988.557332550238
 31
0.0
  0
LINE
  5
151F7
330
747D
100
AcDbEntity
  8
細線
 48
50.0
100
AcDbLine
 10
8096.033294253514
 20
2988.557332550238
 30
0.0
 11
8096.033294253514
 21
2988.307332550236
 31
0.0
  0
LINE
  5
151F8
330
747D
100
AcDbEntity
  8
細線
 48
0.2
100
AcDbLine
 10
8113.717285550022
 20
2987.607332550235
 30
0.0
 11
8102.349302957009
 21
2987.607332550235
 31
0.0
  0
ARC
  5
151F9
330
747D
100
AcDbEntity
  8
細線
 48
0.2
100
AcDbCircle
 10
8108.033294253514
 20
3005.107332550233
 30
0.0
 40
18.49999999999796
100
AcDbArc
 50
253.3984504009772
 51
286.6015495990217
  0
ARC
  5
151FA
330
747D
100
AcDbEntity
  8
細線
 48
0.2
100
AcDbCircle
 10
8103.033294253513
 20
2988.336822718988
 30
0.0
 40
1.0
100
AcDbArc
 50
179.9999999999984
 51
253.3984504009775
  0
LINE
  5
151FB
330
747D
100
AcDbEntity
  8
細線
 48
0.2
100
AcDbLine
 10
8116.033294253513
 20
2990.807332550236
 30
0.0
 11
8096.033294253514
 21
2990.807332550238
 31
0.0
  0
LINE
  5
151FC
330
747D
100
AcDbEntity
  8
細線
 48
0.2
100
AcDbLine
 10
8116.033294253513
 20
2988.307332550236
 30
0.0
 11
8096.033294253514
 21
2988.307332550236
 31
0.0
  0
ARC
  5
151FD
330
747D
100
AcDbEntity
  8
細線
 48
0.2
100
AcDbCircle
 10
8113.033294253513
 20
2988.336822718988
 30
0.0
 40
1.0
100
AcDbArc
 50
286.6015495990217
 51
0.0
  0
LINE
  5
151FE
330
747D
100
AcDbEntity
  8
部品1
100
AcDbLine
 10
8116.033294253513
 20
2988.557332550238
 30
0.0
 11
8116.095742082194
 21
2988.557332550238
 31
0.0
  0
LINE
  5
151FF
330
747D
100
AcDbEntity
  8
部品1
 48
50.0
100
AcDbLine
 10
8096.033294253514
 20
2995.307332550236
 30
0.0
 11
8096.033294253514
 21
2988.557332550238
 31
0.0
  0
LINE
  5
15200
330
747D
100
AcDbEntity
  8
細線
 48
50.0
100
AcDbLine
 10
8112.020947105174
 20
2990.807332550238
 30
0.0
 11
8112.020947105174
 21
2992.807332550236
 31
0.0
  0
LINE
  5
15201
330
747D
100
AcDbEntity
  8
細線
 48
50.0
100
AcDbLine
 10
8104.170537059209
 20
2990.807332550238
 30
0.0
 11
8104.170537059209
 21
2992.807332550236
 31
0.0
  0
LINE
  5
15202
330
747D
100
AcDbEntity
  8
細線
 48
0.1
100
AcDbLine
 10
8116.033294253513
 20
2988.307332550236
 30
0.0
 11
8116.033294253513
 21
2995.307332550236
 31
0.0
  0
LINE
  5
15205
330
747D
100
AcDbEntity
  8
部品1
100
AcDbLine
 10
6566.095742082193
 20
4779.557332550215
 30
0.0
 11
7276.033294253513
 21
4779.557332550218
 31
0.0
  0
LINE
  5
15255
330
747D
100
AcDbEntity
  8
部品1
100
AcDbLine
 10
5746.095742082194
 20
4779.557332550218
 30
0.0
 11
6456.033294253514
 21
4779.557332550218
 31
0.0
  0
LINE
  5
15256
330
747D
100
AcDbEntity
  8
細線
 48
0.2
100
AcDbLine
 10
6473.717285550022
 20
4780.50733255022
 30
0.0
 11
6462.349302957008
 21
4780.50733255022
 31
0.0
  0
ARC
  5
15257
330
747D
100
AcDbEntity
  8
細線
 48
0.2
100
AcDbCircle
 10
6468.033294253513
 20
4763.007332550222
 30
0.0
 40
18.49999999999796
100
AcDbArc
 50
73.39845040097829
 51
106.6015495990228
  0
ARC
  5
15258
330
747D
100
AcDbEntity
  8
細線
 48
0.2
100
AcDbCircle
 10
6473.033294253513
 20
4779.777842381466
 30
0.0
 40
1.0
100
AcDbArc
 50
0.0
 51
73.39845040097829
  0
ARC
  5
15259
330
747D
100
AcDbEntity
  8
細線
 48
0.2
100
AcDbCircle
 10
6463.033294253513
 20
4779.777842381466
 30
0.0
 40
1.0
100
AcDbArc
 50
106.6015495990225
 51
180.0000000000016
  0
LINE
  5
1525A
330
747D
100
AcDbEntity
  8
細線
 48
0.2
100
AcDbLine
 10
6476.033294253513
 20
4777.307332550218
 30
0.0
 11
6456.033294253514
 21
4777.307332550218
 31
0.0
  0
LINE
  5
1525B
330
747D
100
AcDbEntity
  8
細線
 48
0.2
100
AcDbLine
 10
6476.033294253513
 20
4779.807332550219
 30
0.0
 11
6456.033294253514
 21
4779.807332550219
 31
0.0
  0
LINE
  5
1525C
330
747D
100
AcDbEntity
  8
部品1
100
AcDbLine
 10
6476.033294253513
 20
4779.557332550218
 30
0.0
 11
6476.095742082193
 21
4779.557332550218
 31
0.0
  0
LINE
  5
1525D
330
747D
100
AcDbEntity
  8
細線
 48
50.0
100
AcDbLine
 10
6456.033294253514
 20
4779.557332550218
 30
0.0
 11
6456.033294253514
 21
4779.807332550219
 31
0.0
  0
LINE
  5
1525E
330
747D
100
AcDbEntity
  8
部品1
 48
0.2
100
AcDbLine
 10
6476.033294253513
 20
4772.807332550219
 30
0.0
 11
6456.033294253514
 21
4772.807332550219
 31
0.0
  0
LINE
  5
1525F
330
747D
100
AcDbEntity
  8
細線
 48
0.2
100
AcDbLine
 10
6476.033294253513
 20
4775.307332550219
 30
0.0
 11
6456.033294253514
 21
4775.307332550219
 31
0.0
  0
LINE
  5
15260
330
747D
100
AcDbEntity
  8
細線
 48
50.0
100
AcDbLine
 10
6472.020947105173
 20
4777.307332550218
 30
0.0
 11
6472.020947105173
 21
4775.307332550219
 31
0.0
  0
LINE
  5
15261
330
747D
100
AcDbEntity
  8
細線
 48
50.0
100
AcDbLine
 10
6464.17053705921
 20
4777.307332550218
 30
0.0
 11
6464.17053705921
 21
4775.307332550219
 31
0.0
  0
LINE
  5
15262
330
747D
100
AcDbEntity
  8
細線
 48
0.1
100
AcDbLine
 10
6476.033294253513
 20
4779.807332550219
 30
0.0
 11
6476.033294253513
 21
4772.807332550219
 31
0.0
  0
LINE
  5
15263
330
747D
100
AcDbEntity
  8
部品1
 48
50.0
100
AcDbLine
 10
6456.033294253514
 20
4772.807332550219
 30
0.0
 11
6456.033294253514
 21
4779.557332550218
 31
0.0
  0
LINE
  5
1528B
330
747D
100
AcDbEntity
  8
部品1
100
AcDbLine
 10
7386.095742082194
 20
4779.557332550218
 30
0.0
 11
8096.033294253514
 21
4779.557332550218
 31
0.0
  0
LINE
  5
1528C
330
747D
100
AcDbEntity
  8
細線
 48
0.2
100
AcDbLine
 10
7296.033294253513
 20
4779.807332550219
 30
0.0
 11
7276.033294253513
 21
4779.807332550219
 31
0.0
  0
LINE
  5
1528D
330
747D
100
AcDbEntity
  8
細線
 48
0.2
100
AcDbLine
 10
7296.033294253513
 20
4777.307332550218
 30
0.0
 11
7276.033294253513
 21
4777.307332550218
 31
0.0
  0
LINE
  5
1528E
330
747D
100
AcDbEntity
  8
細線
 48
0.2
100
AcDbLine
 10
7296.033294253513
 20
4775.307332550219
 30
0.0
 11
7276.033294253513
 21
4775.307332550219
 31
0.0
  0
LINE
  5
1528F
330
747D
100
AcDbEntity
  8
部品1
 48
0.2
100
AcDbLine
 10
7296.033294253513
 20
4772.807332550219
 30
0.0
 11
7276.033294253513
 21
4772.807332550219
 31
0.0
  0
ARC
  5
15290
330
747D
100
AcDbEntity
  8
細線
 48
0.2
100
AcDbCircle
 10
7293.033294253513
 20
4779.777842381466
 30
0.0
 40
1.0
100
AcDbArc
 50
0.0
 51
73.39845040097829
  0
ARC
  5
15291
330
747D
100
AcDbEntity
  8
細線
 48
0.2
100
AcDbCircle
 10
7283.033294253513
 20
4779.777842381466
 30
0.0
 40
1.0
100
AcDbArc
 50
106.6015495990225
 51
180.0000000000016
  0
ARC
  5
15292
330
747D
100
AcDbEntity
  8
細線
 48
0.2
100
AcDbCircle
 10
7288.033294253513
 20
4763.007332550222
 30
0.0
 40
18.49999999999796
100
AcDbArc
 50
73.39845040097829
 51
106.6015495990228
  0
LINE
  5
15293
330
747D
100
AcDbEntity
  8
細線
 48
0.2
100
AcDbLine
 10
7293.71728555002
 20
4780.50733255022
 30
0.0
 11
7282.349302957008
 21
4780.50733255022
 31
0.0
  0
LINE
  5
15294
330
747D
100
AcDbEntity
  8
細線
 48
50.0
100
AcDbLine
 10
7276.033294253513
 20
4779.557332550218
 30
0.0
 11
7276.033294253513
 21
4779.807332550219
 31
0.0
  0
LINE
  5
15295
330
747D
100
AcDbEntity
  8
細線
 48
50.0
100
AcDbLine
 10
7284.17053705921
 20
4777.307332550218
 30
0.0
 11
7284.17053705921
 21
4775.307332550219
 31
0.0
  0
LINE
  5
15296
330
747D
100
AcDbEntity
  8
細線
 48
50.0
100
AcDbLine
 10
7292.020947105173
 20
4777.307332550218
 30
0.0
 11
7292.020947105173
 21
4775.307332550219
 31
0.0
  0
LINE
  5
15297
330
747D
100
AcDbEntity
  8
部品1
 48
50.0
100
AcDbLine
 10
7276.033294253513
 20
4772.807332550219
 30
0.0
 11
7276.033294253513
 21
4779.557332550218
 31
0.0
  0
LINE
  5
15298
330
747D
100
AcDbEntity
  8
部品1
100
AcDbLine
 10
7296.033294253513
 20
4779.557332550218
 30
0.0
 11
7296.095742082194
 21
4779.557332550218
 31
0.0
  0
LINE
  5
15299
330
747D
100
AcDbEntity
  8
部品1
100
AcDbLine
 10
7296.033294253513
 20
4779.557332550215
 30
0.0
 11
7296.095742082194
 21
4779.557332550218
 31
0.0
  0
LINE
  5
1529A
330
747D
100
AcDbEntity
  8
細線
 48
0.1
100
AcDbLine
 10
7296.033294253513
 20
4779.807332550219
 30
0.0
 11
7296.033294253513
 21
4772.807332550219
 31
0.0
  0
ARC
  5
1529B
330
747D
100
AcDbEntity
  8
細線
 48
0.2
100
AcDbCircle
 10
8113.033294253513
 20
4779.777842381466
 30
0.0
 40
1.0
100
AcDbArc
 50
0.0
 51
73.39845040097829
  0
LINE
  5
1529C
330
747D
100
AcDbEntity
  8
細線
 48
0.2
100
AcDbLine
 10
8116.033294253513
 20
4779.807332550219
 30
0.0
 11
8096.033294253514
 21
4779.807332550219
 31
0.0
  0
LINE
  5
1529D
330
747D
100
AcDbEntity
  8
細線
 48
0.2
100
AcDbLine
 10
8116.033294253513
 20
4777.307332550218
 30
0.0
 11
8096.033294253514
 21
4777.307332550218
 31
0.0
  0
ARC
  5
1529E
330
747D
100
AcDbEntity
  8
細線
 48
0.2
100
AcDbCircle
 10
8103.033294253513
 20
4779.777842381466
 30
0.0
 40
1.0
100
AcDbArc
 50
106.6015495990225
 51
180.0000000000016
  0
ARC
  5
1529F
330
747D
100
AcDbEntity
  8
細線
 48
0.2
100
AcDbCircle
 10
8108.033294253514
 20
4763.007332550222
 30
0.0
 40
18.49999999999796
100
AcDbArc
 50
73.39845040097829
 51
106.6015495990228
  0
LINE
  5
152A0
330
747D
100
AcDbEntity
  8
細線
 48
0.2
100
AcDbLine
 10
8113.717285550022
 20
4780.50733255022
 30
0.0
 11
8102.349302957009
 21
4780.50733255022
 31
0.0
  0
LINE
  5
152A1
330
747D
100
AcDbEntity
  8
細線
 48
50.0
100
AcDbLine
 10
8096.033294253514
 20
4779.557332550218
 30
0.0
 11
8096.033294253514
 21
4779.807332550219
 31
0.0
  0
LINE
  5
152A2
330
747D
100
AcDbEntity
  8
部品1
100
AcDbLine
 10
8116.033294253513
 20
4779.557332550218
 30
0.0
 11
8116.095742082194
 21
4779.557332550218
 31
0.0
  0
LINE
  5
152A3
330
747D
100
AcDbEntity
  8
部品1
100
AcDbLine
 10
8116.033294253513
 20
4779.557332550215
 30
0.0
 11
8116.095742082194
 21
4779.557332550218
 31
0.0
  0
LINE
  5
152A4
330
747D
100
AcDbEntity
  8
細線
 48
0.2
100
AcDbLine
 10
8116.033294253513
 20
4775.307332550219
 30
0.0
 11
8096.033294253514
 21
4775.307332550219
 31
0.0
  0
LINE
  5
152A5
330
747D
100
AcDbEntity
  8
部品1
 48
0.2
100
AcDbLine
 10
8116.033294253513
 20
4772.807332550219
 30
0.0
 11
8096.033294253514
 21
4772.807332550219
 31
0.0
  0
LINE
  5
152A6
330
747D
100
AcDbEntity
  8
細線
 48
0.1
100
AcDbLine
 10
8116.033294253513
 20
4779.807332550219
 30
0.0
 11
8116.033294253513
 21
4772.807332550219
 31
0.0
  0
LINE
  5
152A7
330
747D
100
AcDbEntity
  8
細線
 48
50.0
100
AcDbLine
 10
8104.170537059209
 20
4777.307332550218
 30
0.0
 11
8104.170537059209
 21
4775.307332550219
 31
0.0
  0
LINE
  5
152A8
330
747D
100
AcDbEntity
  8
細線
 48
50.0
100
AcDbLine
 10
8112.020947105174
 20
4777.307332550218
 30
0.0
 11
8112.020947105174
 21
4775.307332550219
 31
0.0
  0
LINE
  5
152A9
330
747D
100
AcDbEntity
  8
部品1
 48
50.0
100
AcDbLine
 10
8096.033294253514
 20
4772.807332550219
 30
0.0
 11
8096.033294253514
 21
4779.557332550218
 31
0.0
  0
LINE
  5
1556A
330
747D
100
AcDbEntity
  8
細線
 48
50.0
100
AcDbLine
 10
6081.095742082201
 20
9077.345970764676
 30
0.0
 11
6081.0957420822
 21
9098.845970764672
 31
0.0
  0
LINE
  5
1556B
330
747D
100
AcDbEntity
  8
細線
 48
50.0
100
AcDbLine
 10
6141.095742082201
 20
9077.345970764676
 30
0.0
 11
6141.0957420822
 21
9098.84597076468
 31
0.0
  0
LINE
  5
1556C
330
747D
100
AcDbEntity
  8
細線
 48
50.0
100
AcDbLine
 10
6141.095742082201
 20
9077.345970764676
 30
0.0
 11
6081.095742082201
 21
9077.345970764673
 31
0.0
  0
LINE
  5
1556D
330
747D
100
AcDbEntity
  8
細線
 48
50.0
100
AcDbLine
 10
6961.095742082202
 20
9077.345970764786
 30
0.0
 11
6901.095742082201
 21
9077.345970764781
 31
0.0
  0
LINE
  5
1556E
330
747D
100
AcDbEntity
  8
細線
 48
50.0
100
AcDbLine
 10
6901.095742082201
 20
9077.345970764786
 30
0.0
 11
6901.095742082199
 21
9098.845970764783
 31
0.0
  0
LINE
  5
1556F
330
747D
100
AcDbEntity
  8
細線
 48
50.0
100
AcDbLine
 10
6961.095742082202
 20
9077.345970764786
 30
0.0
 11
6961.0957420822
 21
9098.84597076479
 31
0.0
  0
LINE
  5
15570
330
747D
100
AcDbEntity
  8
細線
 48
50.0
100
AcDbLine
 10
7781.095735404503
 20
9077.345970764936
 30
0.0
 11
7781.0957354045
 21
9098.845970764939
 31
0.0
  0
LINE
  5
15571
330
747D
100
AcDbEntity
  8
細線
 48
50.0
100
AcDbLine
 10
7721.095735404502
 20
9077.345970764936
 30
0.0
 11
7721.0957354045
 21
9098.845970764932
 31
0.0
  0
LINE
  5
15572
330
747D
100
AcDbEntity
  8
細線
 48
50.0
100
AcDbLine
 10
7781.095735404503
 20
9077.345970764936
 30
0.0
 11
7721.095735404502
 21
9077.34597076493
 31
0.0
  0
LINE
  5
15573
330
747D
100
AcDbEntity
  8
細線
 48
50.0
100
AcDbLine
 10
7510.095742082194
 20
7754.845970764866
 30
0.0
 11
7510.095742082194
 21
7728.845970764819
 31
0.0
  0
LINE
  5
15574
330
747D
100
AcDbEntity
  8
細線
 48
50.0
100
AcDbLine
 10
7923.095742082193
 20
7754.845970765069
 30
0.0
 11
7923.095742082193
 21
7728.845970765033
 31
0.0
  0
LINE
  5
15575
330
747D
100
AcDbEntity
  8
細線
 48
50.0
100
AcDbLine
 10
7736.095742082195
 20
7754.845970764854
 30
0.0
 11
7736.095742082195
 21
7728.845970764819
 31
0.0
  0
LINE
  5
15576
330
747D
100
AcDbEntity
  8
細線
 48
50.0
100
AcDbLine
 10
7696.095742082194
 20
7754.845970764854
 30
0.0
 11
7696.095742082194
 21
7728.845970764819
 31
0.0
  0
LINE
  5
15577
330
747D
100
AcDbEntity
  8
細線
 48
50.0
100
AcDbLine
 10
7963.095742082194
 20
7754.845970765069
 30
0.0
 11
7963.095742082194
 21
7728.845970765033
 31
0.0
  0
LINE
  5
15578
330
747D
100
AcDbEntity
  8
細線
 48
50.0
100
AcDbLine
 10
6916.095742082195
 20
7754.845970764854
 30
0.0
 11
6916.095742082195
 21
7728.845970764819
 31
0.0
  0
LINE
  5
15579
330
747D
100
AcDbEntity
  8
細線
 48
50.0
100
AcDbLine
 10
6690.095742082194
 20
7754.845970764866
 30
0.0
 11
6690.095742082194
 21
7728.845970764819
 31
0.0
  0
LINE
  5
1557A
330
747D
100
AcDbEntity
  8
細線
 48
50.0
100
AcDbLine
 10
6876.095742082194
 20
7754.845970764854
 30
0.0
 11
6876.095742082194
 21
7728.845970764819
 31
0.0
  0
LINE
  5
1557B
330
747D
100
AcDbEntity
  8
細線
 48
50.0
100
AcDbLine
 10
7143.095742082194
 20
7754.845970765069
 30
0.0
 11
7143.095742082194
 21
7728.845970765033
 31
0.0
  0
LINE
  5
1557C
330
747D
100
AcDbEntity
  8
細線
 48
50.0
100
AcDbLine
 10
7103.095742082195
 20
7754.845970765069
 30
0.0
 11
7103.095742082195
 21
7728.845970765033
 31
0.0
  0
LINE
  5
1557D
330
747D
100
AcDbEntity
  8
細線
 48
50.0
100
AcDbLine
 10
5050.095742082194
 20
7754.845970764866
 30
0.0
 11
5050.095742082194
 21
7728.845970764819
 31
0.0
  0
LINE
  5
1557E
330
747D
100
AcDbEntity
  8
細線
 48
50.0
100
AcDbLine
 10
6283.095742082195
 20
7754.845970765069
 30
0.0
 11
6283.095742082195
 21
7728.845970765033
 31
0.0
  0
LINE
  5
1557F
330
747D
100
AcDbEntity
  8
細線
 48
50.0
100
AcDbLine
 10
6096.095742082194
 20
7754.845970764854
 30
0.0
 11
6096.095742082194
 21
7728.845970764819
 31
0.0
  0
LINE
  5
15580
330
747D
100
AcDbEntity
  8
細線
 48
50.0
100
AcDbLine
 10
6056.095742082194
 20
7754.845970764854
 30
0.0
 11
6056.095742082194
 21
7728.845970764819
 31
0.0
  0
LINE
  5
15581
330
747D
100
AcDbEntity
  8
細線
 48
50.0
100
AcDbLine
 10
6323.095742082195
 20
7754.845970765069
 30
0.0
 11
6323.095742082195
 21
7728.845970765033
 31
0.0
  0
ARC
  5
155C4
330
747D
100
AcDbEntity
  8
細線
100
AcDbCircle
 10
4987.095742082193
 20
3831.057332550219
 30
0.0
 40
5.5
100
AcDbArc
 50
270.0
 51
0.0
  0
ARC
  5
155C5
330
747D
100
AcDbEntity
  8
部品1
100
AcDbCircle
 10
4988.095742082192
 20
3830.057332550219
 30
0.0
 40
6.0
100
AcDbArc
 50
270.0
 51
0.0
  0
ARC
  5
155C6
330
747D
100
AcDbEntity
  8
細線
100
AcDbCircle
 10
4947.929123612947
 20
3831.057332550219
 30
0.0
 40
5.5
100
AcDbArc
 50
190.4214509727298
 51
269.9999999999997
  0
ARC
  5
155C7
330
747D
100
AcDbEntity
  8
部品1
100
AcDbCircle
 10
4947.097472191178
 20
3830.057332550219
 30
0.0
 40
6.0
100
AcDbArc
 50
190.5838025965097
 51
270.0
  0
LINE
  5
155C8
330
747D
100
AcDbEntity
  8
細線
100
AcDbLine
 10
4947.929123612947
 20
3825.557332550219
 30
0.0
 11
4987.095742082193
 21
3825.557332550219
 31
0.0
  0
LINE
  5
155C9
330
747D
100
AcDbEntity
  8
部品1
100
AcDbLine
 10
4947.097472191178
 20
3824.057332550219
 30
0.0
 11
4988.095742082192
 21
3824.057332550219
 31
0.0
  0
CIRCLE
  5
155CA
330
747D
100
AcDbEntity
  8
細線
 48
20.0
100
AcDbCircle
 10
4967.596607136686
 20
3984.557332550219
 30
0.0
 40
20.0
  0
CIRCLE
  5
155CB
330
747D
100
AcDbEntity
  8
細線
 48
20.0
100
AcDbCircle
 10
4967.596607136686
 20
3984.557332550219
 30
0.0
 40
10.0
  0
ARC
  5
155CC
330
747D
100
AcDbEntity
  8
細線
100
AcDbCircle
 10
4982.095742082193
 20
3928.057332550219
 30
0.0
 40
6.0
100
AcDbArc
 50
0.0
 51
90.0
  0
ARC
  5
155CD
330
747D
100
AcDbEntity
  8
細線
100
AcDbCircle
 10
4972.303281260938
 20
3925.05733255022
 30
0.0
 40
6.0
100
AcDbArc
 50
0.0
 51
90.0
  0
ARC
  5
155CE
330
747D
100
AcDbEntity
  8
細線
100
AcDbCircle
 10
4987.095742082193
 20
3937.057332550219
 30
0.0
 40
5.5
100
AcDbArc
 50
0.0
 51
90.0
  0
ARC
  5
155CF
330
747D
100
AcDbEntity
  8
部品1
100
AcDbCircle
 10
4988.095742082192
 20
3938.057332550219
 30
0.0
 40
6.0
100
AcDbArc
 50
0.0
 51
90.0
  0
LINE
  5
155D0
330
747D
100
AcDbEntity
  8
細線
100
AcDbLine
 10
4961.590165992025
 20
3928.057332550219
 30
0.0
 11
4960.095742082192
 21
3928.057332550219
 31
0.0
  0
ARC
  5
155D1
330
747D
100
AcDbEntity
  8
細線
100
AcDbCircle
 10
4961.590165992025
 20
3925.05733255022
 30
0.0
 40
3.0
100
AcDbArc
 50
8.099550838277986
 51
90.0
  0
ARC
  5
155D2
330
747D
100
AcDbEntity
  8
細線
100
AcDbCircle
 10
4951.476698446669
 20
3928.057332550219
 30
0.0
 40
6.0
100
AcDbArc
 50
90.0
 51
171.2120626773636
  0
LINE
  5
155D3
330
747D
100
AcDbEntity
  8
細線
100
AcDbLine
 10
4960.095742082192
 20
3928.056824651656
 30
0.0
 11
4947.332414866225
 21
3928.056824651656
 31
0.0
  0
ARC
  5
155D4
330
747D
100
AcDbEntity
  8
細線
100
AcDbCircle
 10
4947.929123612947
 20
3937.057332550219
 30
0.0
 40
5.5
100
AcDbArc
 50
89.99999999999969
 51
169.5785490272683
  0
ARC
  5
155D5
330
747D
100
AcDbEntity
  8
部品1
100
AcDbCircle
 10
4947.097472191178
 20
3938.057332550219
 30
0.0
 40
6.0
100
AcDbArc
 50
90.0
 51
169.4161974034886
  0
LINE
  5
155D6
330
747D
100
AcDbEntity
  8
細線
100
AcDbLine
 10
4987.095742082193
 20
3942.557332550219
 30
0.0
 11
4947.929123612947
 21
3942.557332550219
 31
0.0
  0
LINE
  5
155D7
330
747D
100
AcDbEntity
  8
細線
100
AcDbLine
 10
4972.303281260938
 20
3931.057332550219
 30
0.0
 11
4960.095742082192
 21
3931.057332550219
 31
0.0
  0
LINE
  5
155D8
330
747D
100
AcDbEntity
  8
細線
100
AcDbLine
 10
4982.095742082193
 20
3934.057332550219
 30
0.0
 11
4951.476698446669
 21
3934.057332550219
 31
0.0
  0
LINE
  5
155D9
330
747D
100
AcDbEntity
  8
部品1
100
AcDbLine
 10
4988.095742082192
 20
3944.057332550219
 30
0.0
 11
4947.097472191178
 21
3944.057332550219
 31
0.0
  0
ARC
  5
155DA
330
747D
100
AcDbEntity
  8
細線
100
AcDbCircle
 10
4982.095742082193
 20
3840.05733255022
 30
0.0
 40
6.0
100
AcDbArc
 50
270.0
 51
0.0
  0
ARC
  5
155DB
330
747D
100
AcDbEntity
  8
細線
100
AcDbCircle
 10
4972.303281260938
 20
3843.05733255022
 30
0.0
 40
6.0
100
AcDbArc
 50
270.0
 51
360.0
  0
LINE
  5
155DC
330
747D
100
AcDbEntity
  8
細線
100
AcDbLine
 10
4960.095742082192
 20
3840.05733255022
 30
0.0
 11
4961.590165992028
 21
3840.05733255022
 31
0.0
  0
ARC
  5
155DD
330
747D
100
AcDbEntity
  8
細線
100
AcDbCircle
 10
4961.590165992028
 20
3843.05733255022
 30
0.0
 40
3.0
100
AcDbArc
 50
270.0
 51
351.9004491617184
  0
ARC
  5
155DE
330
747D
100
AcDbEntity
  8
細線
100
AcDbCircle
 10
4951.476698446669
 20
3840.05733255022
 30
0.0
 40
6.0
100
AcDbArc
 50
188.7879373226349
 51
270.0
  0
LINE
  5
155DF
330
747D
100
AcDbEntity
  8
細線
100
AcDbLine
 10
4960.095742082192
 20
3840.057840448781
 30
0.0
 11
4946.61703758337
 21
3840.057840448781
 31
0.0
  0
LINE
  5
155E0
330
747D
100
AcDbEntity
  8
細線
100
AcDbLine
 10
4960.095742082192
 20
3837.057332550219
 30
0.0
 11
4972.303281260938
 21
3837.057332550219
 31
0.0
  0
LINE
  5
155E1
330
747D
100
AcDbEntity
  8
細線
100
AcDbLine
 10
4951.476698446669
 20
3834.057332550219
 30
0.0
 11
4982.095742082193
 21
3834.057332550219
 31
0.0
  0
LINE
  5
155E2
330
747D
100
AcDbEntity
  8
細線
100
AcDbLine
 10
4978.303281260938
 20
3843.05733255022
 30
0.0
 11
4978.303281260938
 21
3925.05733255022
 31
0.0
  0
LINE
  5
155E3
330
747D
100
AcDbEntity
  8
細線
100
AcDbLine
 10
4988.095742082192
 20
3840.05733255022
 30
0.0
 11
4988.095742082192
 21
3928.057332550219
 31
0.0
  0
LINE
  5
155E4
330
747D
100
AcDbEntity
  8
細線
100
AcDbLine
 10
4992.595742082192
 20
3831.057332550219
 30
0.0
 11
4992.595742082192
 21
3937.057332550219
 31
0.0
  0
LINE
  5
155E5
330
747D
100
AcDbEntity
  8
部品1
100
AcDbLine
 10
4994.095742082192
 20
3830.057332550219
 30
0.0
 11
4994.095742082192
 21
3938.057332550219
 31
0.0
  0
LINE
  5
155E6
330
747D
100
AcDbEntity
  8
細線
100
AcDbLine
 10
4960.095742082192
 20
3934.057332550219
 30
0.0
 11
4960.095742082192
 21
3834.057332550219
 31
0.0
  0
ARC
  5
155E7
330
747D
100
AcDbEntity
  8
細線
100
AcDbCircle
 10
5236.095742082192
 20
3884.057332550219
 30
0.0
 40
298.5
100
AcDbArc
 50
169.578549027269
 51
190.4214509727309
  0
ARC
  5
155E8
330
747D
100
AcDbEntity
  8
細線
100
AcDbCircle
 10
5236.095742082192
 20
3884.057332550219
 30
0.0
 40
294.0
100
AcDbArc
 50
171.212062677364
 51
188.7879373226359
  0
ARC
  5
155E9
330
747D
100
AcDbEntity
  8
細線
100
AcDbCircle
 10
4673.492960174267
 20
3884.057332550219
 30
0.0
 40
294.0
100
AcDbArc
 50
351.900449161722
 51
8.099550838278029
  0
ARC
  5
155EA
330
747D
100
AcDbEntity
  8
部品1
100
AcDbCircle
 10
5236.095742082192
 20
3884.057332550219
 30
0.0
 40
300.0
100
AcDbArc
 50
169.4161974034894
 51
190.5838025965105
  0
LINE
  5
155ED
330
747D
100
AcDbEntity
  8
細線
100
AcDbLine
 10
6618.303281260939
 20
3843.05733255022
 30
0.0
 11
6618.303281260939
 21
3925.05733255022
 31
0.0
  0
LINE
  5
155EE
330
747D
100
AcDbEntity
  8
細線
100
AcDbLine
 10
6628.095742082192
 20
3840.05733255022
 30
0.0
 11
6628.095742082192
 21
3928.057332550219
 31
0.0
  0
LINE
  5
155EF
330
747D
100
AcDbEntity
  8
細線
100
AcDbLine
 10
6632.595742082192
 20
3831.057332550219
 30
0.0
 11
6632.595742082192
 21
3937.057332550219
 31
0.0
  0
LINE
  5
155F0
330
747D
100
AcDbEntity
  8
部品1
100
AcDbLine
 10
6634.095742082192
 20
3830.057332550219
 30
0.0
 11
6634.095742082192
 21
3938.057332550219
 31
0.0
  0
LINE
  5
155F1
330
747D
100
AcDbEntity
  8
細線
100
AcDbLine
 10
6600.095742082192
 20
3934.057332550219
 30
0.0
 11
6600.095742082192
 21
3834.057332550219
 31
0.0
  0
ARC
  5
155F2
330
747D
100
AcDbEntity
  8
細線
100
AcDbCircle
 10
6876.095742082192
 20
3884.057332550219
 30
0.0
 40
298.5
100
AcDbArc
 50
169.578549027269
 51
190.4214509727309
  0
ARC
  5
155F3
330
747D
100
AcDbEntity
  8
細線
100
AcDbCircle
 10
6876.095742082192
 20
3884.057332550219
 30
0.0
 40
294.0
100
AcDbArc
 50
171.212062677364
 51
188.7879373226359
  0
ARC
  5
155F4
330
747D
100
AcDbEntity
  8
細線
100
AcDbCircle
 10
6313.492960174268
 20
3884.057332550219
 30
0.0
 40
294.0
100
AcDbArc
 50
351.900449161722
 51
8.099550838278029
  0
ARC
  5
155F5
330
747D
100
AcDbEntity
  8
部品1
100
AcDbCircle
 10
6876.095742082192
 20
3884.057332550219
 30
0.0
 40
300.0
100
AcDbArc
 50
169.4161974034894
 51
190.5838025965105
  0
ARC
  5
155F6
330
747D
100
AcDbEntity
  8
細線
100
AcDbCircle
 10
6627.095742082193
 20
3831.057332550219
 30
0.0
 40
5.5
100
AcDbArc
 50
270.0
 51
0.0
  0
ARC
  5
155F7
330
747D
100
AcDbEntity
  8
部品1
100
AcDbCircle
 10
6628.095742082192
 20
3830.057332550219
 30
0.0
 40
6.0
100
AcDbArc
 50
270.0
 51
0.0
  0
ARC
  5
155F8
330
747D
100
AcDbEntity
  8
細線
100
AcDbCircle
 10
6587.929123612946
 20
3831.057332550219
 30
0.0
 40
5.5
100
AcDbArc
 50
190.4214509727298
 51
269.9999999999997
  0
ARC
  5
155F9
330
747D
100
AcDbEntity
  8
部品1
100
AcDbCircle
 10
6587.097472191178
 20
3830.057332550219
 30
0.0
 40
6.0
100
AcDbArc
 50
190.5838025965097
 51
270.0
  0
LINE
  5
155FA
330
747D
100
AcDbEntity
  8
細線
100
AcDbLine
 10
6587.929123612946
 20
3825.557332550219
 30
0.0
 11
6627.095742082193
 21
3825.557332550219
 31
0.0
  0
LINE
  5
155FB
330
747D
100
AcDbEntity
  8
部品1
100
AcDbLine
 10
6587.097472191178
 20
3824.057332550219
 30
0.0
 11
6628.095742082192
 21
3824.057332550219
 31
0.0
  0
ARC
  5
155FC
330
747D
100
AcDbEntity
  8
細線
100
AcDbCircle
 10
6622.095742082191
 20
3840.05733255022
 30
0.0
 40
6.0
100
AcDbArc
 50
270.0
 51
0.0
  0
ARC
  5
155FD
330
747D
100
AcDbEntity
  8
細線
100
AcDbCircle
 10
6612.303281260938
 20
3843.05733255022
 30
0.0
 40
6.0
100
AcDbArc
 50
270.0
 51
360.0
  0
LINE
  5
155FE
330
747D
100
AcDbEntity
  8
細線
100
AcDbLine
 10
6600.095742082192
 20
3840.05733255022
 30
0.0
 11
6601.590165992027
 21
3840.05733255022
 31
0.0
  0
ARC
  5
155FF
330
747D
100
AcDbEntity
  8
細線
100
AcDbCircle
 10
6601.590165992027
 20
3843.05733255022
 30
0.0
 40
3.0
100
AcDbArc
 50
270.0
 51
351.9004491617184
  0
ARC
  5
15600
330
747D
100
AcDbEntity
  8
細線
100
AcDbCircle
 10
6591.476698446669
 20
3840.05733255022
 30
0.0
 40
6.0
100
AcDbArc
 50
188.7879373226349
 51
270.0
  0
LINE
  5
15601
330
747D
100
AcDbEntity
  8
細線
100
AcDbLine
 10
6600.095742082192
 20
3840.057840448781
 30
0.0
 11
6586.61703758337
 21
3840.057840448781
 31
0.0
  0
LINE
  5
15602
330
747D
100
AcDbEntity
  8
細線
100
AcDbLine
 10
6600.095742082192
 20
3837.057332550219
 30
0.0
 11
6612.303281260938
 21
3837.057332550219
 31
0.0
  0
LINE
  5
15603
330
747D
100
AcDbEntity
  8
細線
100
AcDbLine
 10
6591.476698446669
 20
3834.057332550219
 30
0.0
 11
6622.095742082191
 21
3834.057332550219
 31
0.0
  0
CIRCLE
  5
15604
330
747D
100
AcDbEntity
  8
細線
 48
20.0
100
AcDbCircle
 10
6607.596607136686
 20
3984.557332550219
 30
0.0
 40
20.0
  0
CIRCLE
  5
15605
330
747D
100
AcDbEntity
  8
細線
 48
20.0
100
AcDbCircle
 10
6607.596607136686
 20
3984.557332550219
 30
0.0
 40
10.0
  0
ARC
  5
15606
330
747D
100
AcDbEntity
  8
細線
100
AcDbCircle
 10
6622.095742082191
 20
3928.057332550219
 30
0.0
 40
6.0
100
AcDbArc
 50
0.0
 51
90.0
  0
ARC
  5
15607
330
747D
100
AcDbEntity
  8
細線
100
AcDbCircle
 10
6612.303281260938
 20
3925.05733255022
 30
0.0
 40
6.0
100
AcDbArc
 50
0.0
 51
90.0
  0
ARC
  5
15608
330
747D
100
AcDbEntity
  8
細線
100
AcDbCircle
 10
6627.095742082193
 20
3937.057332550219
 30
0.0
 40
5.5
100
AcDbArc
 50
0.0
 51
90.0
  0
ARC
  5
15609
330
747D
100
AcDbEntity
  8
部品1
100
AcDbCircle
 10
6628.095742082192
 20
3938.057332550219
 30
0.0
 40
6.0
100
AcDbArc
 50
0.0
 51
90.0
  0
LINE
  5
1560A
330
747D
100
AcDbEntity
  8
細線
100
AcDbLine
 10
6601.590165992026
 20
3928.057332550219
 30
0.0
 11
6600.095742082192
 21
3928.057332550219
 31
0.0
  0
ARC
  5
1560B
330
747D
100
AcDbEntity
  8
細線
100
AcDbCircle
 10
6601.590165992026
 20
3925.05733255022
 30
0.0
 40
3.0
100
AcDbArc
 50
8.099550838277986
 51
90.0
  0
ARC
  5
1560C
330
747D
100
AcDbEntity
  8
細線
100
AcDbCircle
 10
6591.476698446669
 20
3928.057332550219
 30
0.0
 40
6.0
100
AcDbArc
 50
90.0
 51
171.2120626773636
  0
LINE
  5
1560D
330
747D
100
AcDbEntity
  8
細線
100
AcDbLine
 10
6600.095742082192
 20
3928.056824651656
 30
0.0
 11
6587.332414866224
 21
3928.056824651656
 31
0.0
  0
ARC
  5
1560E
330
747D
100
AcDbEntity
  8
細線
100
AcDbCircle
 10
6587.929123612946
 20
3937.057332550219
 30
0.0
 40
5.5
100
AcDbArc
 50
89.99999999999969
 51
169.5785490272683
  0
ARC
  5
1560F
330
747D
100
AcDbEntity
  8
部品1
100
AcDbCircle
 10
6587.097472191178
 20
3938.057332550219
 30
0.0
 40
6.0
100
AcDbArc
 50
90.0
 51
169.4161974034886
  0
LINE
  5
15610
330
747D
100
AcDbEntity
  8
細線
100
AcDbLine
 10
6627.095742082193
 20
3942.557332550219
 30
0.0
 11
6587.929123612946
 21
3942.557332550219
 31
0.0
  0
LINE
  5
15611
330
747D
100
AcDbEntity
  8
細線
100
AcDbLine
 10
6612.303281260938
 20
3931.057332550219
 30
0.0
 11
6600.095742082192
 21
3931.057332550219
 31
0.0
  0
LINE
  5
15612
330
747D
100
AcDbEntity
  8
細線
100
AcDbLine
 10
6622.095742082191
 20
3934.057332550219
 30
0.0
 11
6591.476698446669
 21
3934.057332550219
 31
0.0
  0
LINE
  5
15613
330
747D
100
AcDbEntity
  8
部品1
100
AcDbLine
 10
6628.095742082192
 20
3944.057332550219
 30
0.0
 11
6587.097472191178
 21
3944.057332550219
 31
0.0
  0
ARC
  5
15614
330
747D
100
AcDbEntity
  8
部品1
100
AcDbCircle
 10
7696.095742082192
 20
3884.057332550219
 30
0.0
 40
300.0
100
AcDbArc
 50
169.4161974034894
 51
190.5838025965105
  0
ARC
  5
15615
330
747D
100
AcDbEntity
  8
細線
100
AcDbCircle
 10
7133.492960174269
 20
3884.057332550219
 30
0.0
 40
294.0
100
AcDbArc
 50
351.900449161722
 51
8.099550838278029
  0
ARC
  5
15616
330
747D
100
AcDbEntity
  8
細線
100
AcDbCircle
 10
7696.095742082192
 20
3884.057332550219
 30
0.0
 40
294.0
100
AcDbArc
 50
171.212062677364
 51
188.7879373226359
  0
ARC
  5
15617
330
747D
100
AcDbEntity
  8
細線
100
AcDbCircle
 10
7696.095742082192
 20
3884.057332550219
 30
0.0
 40
298.5
100
AcDbArc
 50
169.578549027269
 51
190.4214509727309
  0
LINE
  5
15618
330
747D
100
AcDbEntity
  8
細線
100
AcDbLine
 10
7420.095742082192
 20
3934.057332550219
 30
0.0
 11
7420.095742082192
 21
3834.057332550219
 31
0.0
  0
LINE
  5
15619
330
747D
100
AcDbEntity
  8
部品1
100
AcDbLine
 10
7454.095742082192
 20
3830.057332550219
 30
0.0
 11
7454.095742082192
 21
3938.057332550219
 31
0.0
  0
LINE
  5
1561A
330
747D
100
AcDbEntity
  8
細線
100
AcDbLine
 10
7452.595742082192
 20
3831.057332550219
 30
0.0
 11
7452.595742082192
 21
3937.057332550219
 31
0.0
  0
LINE
  5
1561B
330
747D
100
AcDbEntity
  8
細線
100
AcDbLine
 10
7448.095742082192
 20
3840.05733255022
 30
0.0
 11
7448.095742082192
 21
3928.057332550219
 31
0.0
  0
LINE
  5
1561C
330
747D
100
AcDbEntity
  8
細線
100
AcDbLine
 10
7438.303281260939
 20
3843.05733255022
 30
0.0
 11
7438.303281260939
 21
3925.05733255022
 31
0.0
  0
LINE
  5
1561D
330
747D
100
AcDbEntity
  8
細線
100
AcDbLine
 10
7411.476698446669
 20
3834.057332550219
 30
0.0
 11
7442.095742082192
 21
3834.057332550219
 31
0.0
  0
LINE
  5
1561E
330
747D
100
AcDbEntity
  8
細線
100
AcDbLine
 10
7420.095742082192
 20
3837.057332550219
 30
0.0
 11
7432.303281260939
 21
3837.057332550219
 31
0.0
  0
LINE
  5
1561F
330
747D
100
AcDbEntity
  8
細線
100
AcDbLine
 10
7420.095742082192
 20
3840.057840448781
 30
0.0
 11
7406.61703758337
 21
3840.057840448781
 31
0.0
  0
ARC
  5
15620
330
747D
100
AcDbEntity
  8
細線
100
AcDbCircle
 10
7411.476698446669
 20
3840.05733255022
 30
0.0
 40
6.0
100
AcDbArc
 50
188.7879373226349
 51
270.0
  0
ARC
  5
15621
330
747D
100
AcDbEntity
  8
細線
100
AcDbCircle
 10
7421.590165992028
 20
3843.05733255022
 30
0.0
 40
3.0
100
AcDbArc
 50
270.0
 51
351.9004491617184
  0
LINE
  5
15622
330
747D
100
AcDbEntity
  8
細線
100
AcDbLine
 10
7420.095742082192
 20
3840.05733255022
 30
0.0
 11
7421.590165992028
 21
3840.05733255022
 31
0.0
  0
ARC
  5
15623
330
747D
100
AcDbEntity
  8
細線
100
AcDbCircle
 10
7432.303281260939
 20
3843.05733255022
 30
0.0
 40
6.0
100
AcDbArc
 50
270.0
 51
360.0
  0
ARC
  5
15624
330
747D
100
AcDbEntity
  8
細線
100
AcDbCircle
 10
7442.095742082192
 20
3840.05733255022
 30
0.0
 40
6.0
100
AcDbArc
 50
270.0
 51
0.0
  0
LINE
  5
15625
330
747D
100
AcDbEntity
  8
部品1
100
AcDbLine
 10
7407.097472191177
 20
3824.057332550219
 30
0.0
 11
7448.095742082192
 21
3824.057332550219
 31
0.0
  0
LINE
  5
15626
330
747D
100
AcDbEntity
  8
細線
100
AcDbLine
 10
7407.929123612946
 20
3825.557332550219
 30
0.0
 11
7447.095742082193
 21
3825.557332550219
 31
0.0
  0
ARC
  5
15627
330
747D
100
AcDbEntity
  8
部品1
100
AcDbCircle
 10
7407.097472191177
 20
3830.057332550219
 30
0.0
 40
6.0
100
AcDbArc
 50
190.5838025965097
 51
270.0
  0
ARC
  5
15628
330
747D
100
AcDbEntity
  8
細線
100
AcDbCircle
 10
7407.929123612946
 20
3831.057332550219
 30
0.0
 40
5.5
100
AcDbArc
 50
190.4214509727298
 51
269.9999999999997
  0
ARC
  5
15629
330
747D
100
AcDbEntity
  8
部品1
100
AcDbCircle
 10
7448.095742082192
 20
3830.057332550219
 30
0.0
 40
6.0
100
AcDbArc
 50
270.0
 51
0.0
  0
ARC
  5
1562A
330
747D
100
AcDbEntity
  8
細線
100
AcDbCircle
 10
7447.095742082193
 20
3831.057332550219
 30
0.0
 40
5.5
100
AcDbArc
 50
270.0
 51
0.0
  0
LINE
  5
1562B
330
747D
100
AcDbEntity
  8
部品1
100
AcDbLine
 10
7448.095742082192
 20
3944.057332550219
 30
0.0
 11
7407.097472191177
 21
3944.057332550219
 31
0.0
  0
LINE
  5
1562C
330
747D
100
AcDbEntity
  8
細線
100
AcDbLine
 10
7442.095742082192
 20
3934.057332550219
 30
0.0
 11
7411.476698446669
 21
3934.057332550219
 31
0.0
  0
LINE
  5
1562D
330
747D
100
AcDbEntity
  8
細線
100
AcDbLine
 10
7432.303281260939
 20
3931.057332550219
 30
0.0
 11
7420.095742082192
 21
3931.057332550219
 31
0.0
  0
LINE
  5
1562E
330
747D
100
AcDbEntity
  8
細線
100
AcDbLine
 10
7447.095742082193
 20
3942.557332550219
 30
0.0
 11
7407.929123612946
 21
3942.557332550219
 31
0.0
  0
ARC
  5
1562F
330
747D
100
AcDbEntity
  8
部品1
100
AcDbCircle
 10
7407.097472191177
 20
3938.057332550219
 30
0.0
 40
6.0
100
AcDbArc
 50
90.0
 51
169.4161974034886
  0
ARC
  5
15630
330
747D
100
AcDbEntity
  8
細線
100
AcDbCircle
 10
7407.929123612946
 20
3937.057332550219
 30
0.0
 40
5.5
100
AcDbArc
 50
89.99999999999969
 51
169.5785490272683
  0
LINE
  5
15631
330
747D
100
AcDbEntity
  8
細線
100
AcDbLine
 10
7420.095742082192
 20
3928.056824651656
 30
0.0
 11
7407.332414866225
 21
3928.056824651656
 31
0.0
  0
ARC
  5
15632
330
747D
100
AcDbEntity
  8
細線
100
AcDbCircle
 10
7411.476698446669
 20
3928.057332550219
 30
0.0
 40
6.0
100
AcDbArc
 50
90.0
 51
171.2120626773636
  0
ARC
  5
15633
330
747D
100
AcDbEntity
  8
細線
100
AcDbCircle
 10
7421.590165992026
 20
3925.05733255022
 30
0.0
 40
3.0
100
AcDbArc
 50
8.099550838277986
 51
90.0
  0
LINE
  5
15634
330
747D
100
AcDbEntity
  8
細線
100
AcDbLine
 10
7421.590165992026
 20
3928.057332550219
 30
0.0
 11
7420.095742082192
 21
3928.057332550219
 31
0.0
  0
ARC
  5
15635
330
747D
100
AcDbEntity
  8
部品1
100
AcDbCircle
 10
7448.095742082192
 20
3938.057332550219
 30
0.0
 40
6.0
100
AcDbArc
 50
0.0
 51
90.0
  0
ARC
  5
15636
330
747D
100
AcDbEntity
  8
細線
100
AcDbCircle
 10
7447.095742082193
 20
3937.057332550219
 30
0.0
 40
5.5
100
AcDbArc
 50
0.0
 51
90.0
  0
ARC
  5
15637
330
747D
100
AcDbEntity
  8
細線
100
AcDbCircle
 10
7432.303281260939
 20
3925.05733255022
 30
0.0
 40
6.0
100
AcDbArc
 50
0.0
 51
90.0
  0
ARC
  5
15638
330
747D
100
AcDbEntity
  8
細線
100
AcDbCircle
 10
7442.095742082192
 20
3928.057332550219
 30
0.0
 40
6.0
100
AcDbArc
 50
0.0
 51
90.0
  0
CIRCLE
  5
15639
330
747D
100
AcDbEntity
  8
細線
 48
20.0
100
AcDbCircle
 10
7427.596607136685
 20
3984.557332550219
 30
0.0
 40
10.0
  0
CIRCLE
  5
1563A
330
747D
100
AcDbEntity
  8
細線
 48
20.0
100
AcDbCircle
 10
7427.596607136685
 20
3984.557332550219
 30
0.0
 40
20.0
  0
LINE
  5
1565B
330
747D
100
AcDbEntity
  8
部品1
100
AcDbLine
 10
5656.095742082192
 20
4779.557332550218
 30
0.0
 11
5656.095742082194
 21
2988.557332550228
 31
0.0
  0
LINE
  5
1565C
330
747D
100
AcDbEntity
  8
部品1
100
AcDbLine
 10
5658.095742082195
 20
4782.057332550217
 30
0.0
 11
5658.095742082195
 21
2985.057332550237
 31
0.0
  0
LINE
  5
1565D
330
747D
100
AcDbEntity
  8
部品1
100
AcDbLine
 10
5744.095742082194
 20
4782.057332550217
 30
0.0
 11
5744.095742082194
 21
2985.057332550237
 31
0.0
  0
LINE
  5
1565E
330
747D
100
AcDbEntity
  8
部品1
100
AcDbLine
 10
5746.095742082194
 20
4779.557332550215
 30
0.0
 11
5746.095742082194
 21
2988.557332550231
 31
0.0
  0
LINE
  5
15660
330
747D
100
AcDbEntity
  8
部品1
 48
50.0
100
AcDbLine
 10
5636.033294253514
 20
2995.307332550236
 30
0.0
 11
5636.033294253514
 21
2988.557332550238
 31
0.0
  0
LINE
  5
15661
330
747D
100
AcDbEntity
  8
細線
 48
50.0
100
AcDbLine
 10
5652.020947105173
 20
2990.807332550238
 30
0.0
 11
5652.020947105173
 21
2992.807332550236
 31
0.0
  0
LINE
  5
15662
330
747D
100
AcDbEntity
  8
細線
 48
50.0
100
AcDbLine
 10
5644.17053705921
 20
2990.807332550238
 30
0.0
 11
5644.17053705921
 21
2992.807332550236
 31
0.0
  0
LINE
  5
15663
330
747D
100
AcDbEntity
  8
細線
 48
0.1
100
AcDbLine
 10
5656.033294253513
 20
2988.307332550236
 30
0.0
 11
5656.033294253513
 21
2995.307332550236
 31
0.0
  0
LINE
  5
15664
330
747D
100
AcDbEntity
  8
部品1
100
AcDbLine
 10
5656.033294253513
 20
2988.557332550228
 30
0.0
 11
5656.095742082194
 21
2988.557332550228
 31
0.0
  0
LINE
  5
15665
330
747D
100
AcDbEntity
  8
部品1
100
AcDbLine
 10
5656.033294253513
 20
2988.557332550238
 30
0.0
 11
5656.095742082194
 21
2988.557332550238
 31
0.0
  0
LINE
  5
15666
330
747D
100
AcDbEntity
  8
細線
 48
50.0
100
AcDbLine
 10
5636.033294253514
 20
2988.557332550238
 30
0.0
 11
5636.033294253514
 21
2988.307332550236
 31
0.0
  0
LINE
  5
15667
330
747D
100
AcDbEntity
  8
細線
 48
0.2
100
AcDbLine
 10
5653.717285550022
 20
2987.607332550235
 30
0.0
 11
5642.349302957009
 21
2987.607332550235
 31
0.0
  0
ARC
  5
15668
330
747D
100
AcDbEntity
  8
細線
 48
0.2
100
AcDbCircle
 10
5648.033294253513
 20
3005.107332550233
 30
0.0
 40
18.49999999999796
100
AcDbArc
 50
253.3984504009772
 51
286.6015495990217
  0
ARC
  5
15669
330
747D
100
AcDbEntity
  8
細線
 48
0.2
100
AcDbCircle
 10
5643.033294253513
 20
2988.336822718988
 30
0.0
 40
1.0
100
AcDbArc
 50
179.9999999999984
 51
253.3984504009775
  0
LINE
  5
1566A
330
747D
100
AcDbEntity
  8
細線
 48
0.2
100
AcDbLine
 10
5656.033294253513
 20
2990.807332550236
 30
0.0
 11
5636.033294253514
 21
2990.807332550238
 31
0.0
  0
LINE
  5
1566B
330
747D
100
AcDbEntity
  8
細線
 48
0.2
100
AcDbLine
 10
5656.033294253513
 20
2988.307332550236
 30
0.0
 11
5636.033294253514
 21
2988.307332550236
 31
0.0
  0
ARC
  5
1566C
330
747D
100
AcDbEntity
  8
細線
 48
0.2
100
AcDbCircle
 10
5653.033294253513
 20
2988.336822718988
 30
0.0
 40
1.0
100
AcDbArc
 50
286.6015495990217
 51
0.0
  0
LINE
  5
1566D
330
747D
100
AcDbEntity
  8
部品1
 48
0.2
100
AcDbLine
 10
5656.033294253513
 20
2995.307332550236
 30
0.0
 11
5636.033294253514
 21
2995.307332550236
 31
0.0
  0
LINE
  5
1566E
330
747D
100
AcDbEntity
  8
細線
 48
0.2
100
AcDbLine
 10
5656.033294253513
 20
2992.807332550236
 30
0.0
 11
5636.033294253514
 21
2992.807332550236
 31
0.0
  0
ARC
  5
1566F
330
747D
100
AcDbEntity
  8
部品1
100
AcDbCircle
 10
6056.095742082192
 20
3884.057332550219
 30
0.0
 40
300.0
100
AcDbArc
 50
169.4161974034894
 51
190.5838025965105
  0
ARC
  5
15670
330
747D
100
AcDbEntity
  8
細線
100
AcDbCircle
 10
5493.492960174268
 20
3884.057332550219
 30
0.0
 40
294.0
100
AcDbArc
 50
351.900449161722
 51
8.099550838278029
  0
ARC
  5
15671
330
747D
100
AcDbEntity
  8
細線
100
AcDbCircle
 10
6056.095742082192
 20
3884.057332550219
 30
0.0
 40
294.0
100
AcDbArc
 50
171.212062677364
 51
188.7879373226359
  0
ARC
  5
15672
330
747D
100
AcDbEntity
  8
細線
100
AcDbCircle
 10
6056.095742082192
 20
3884.057332550219
 30
0.0
 40
298.5
100
AcDbArc
 50
169.578549027269
 51
190.4214509727309
  0
LINE
  5
15673
330
747D
100
AcDbEntity
  8
細線
100
AcDbLine
 10
5780.095742082192
 20
3934.057332550219
 30
0.0
 11
5780.095742082192
 21
3834.057332550219
 31
0.0
  0
LINE
  5
15674
330
747D
100
AcDbEntity
  8
部品1
100
AcDbLine
 10
5814.095742082193
 20
3830.057332550219
 30
0.0
 11
5814.095742082193
 21
3938.057332550219
 31
0.0
  0
LINE
  5
15675
330
747D
100
AcDbEntity
  8
細線
100
AcDbLine
 10
5812.595742082192
 20
3831.057332550219
 30
0.0
 11
5812.595742082192
 21
3937.057332550219
 31
0.0
  0
LINE
  5
15676
330
747D
100
AcDbEntity
  8
細線
100
AcDbLine
 10
5808.095742082192
 20
3840.05733255022
 30
0.0
 11
5808.095742082192
 21
3928.057332550219
 31
0.0
  0
LINE
  5
15677
330
747D
100
AcDbEntity
  8
細線
100
AcDbLine
 10
5798.303281260938
 20
3843.05733255022
 30
0.0
 11
5798.303281260938
 21
3925.05733255022
 31
0.0
  0
LINE
  5
15678
330
747D
100
AcDbEntity
  8
細線
100
AcDbLine
 10
5771.47669844667
 20
3834.057332550219
 30
0.0
 11
5802.095742082192
 21
3834.057332550219
 31
0.0
  0
LINE
  5
15679
330
747D
100
AcDbEntity
  8
細線
100
AcDbLine
 10
5780.095742082192
 20
3837.057332550219
 30
0.0
 11
5792.303281260938
 21
3837.057332550219
 31
0.0
  0
LINE
  5
1567A
330
747D
100
AcDbEntity
  8
細線
100
AcDbLine
 10
5780.095742082192
 20
3840.057840448781
 30
0.0
 11
5766.61703758337
 21
3840.057840448781
 31
0.0
  0
ARC
  5
1567B
330
747D
100
AcDbEntity
  8
細線
100
AcDbCircle
 10
5771.47669844667
 20
3840.05733255022
 30
0.0
 40
6.0
100
AcDbArc
 50
188.7879373226349
 51
270.0
  0
ARC
  5
1567C
330
747D
100
AcDbEntity
  8
細線
100
AcDbCircle
 10
5781.590165992027
 20
3843.05733255022
 30
0.0
 40
3.0
100
AcDbArc
 50
270.0
 51
351.9004491617184
  0
LINE
  5
1567D
330
747D
100
AcDbEntity
  8
細線
100
AcDbLine
 10
5780.095742082192
 20
3840.05733255022
 30
0.0
 11
5781.590165992027
 21
3840.05733255022
 31
0.0
  0
ARC
  5
1567E
330
747D
100
AcDbEntity
  8
細線
100
AcDbCircle
 10
5792.303281260938
 20
3843.05733255022
 30
0.0
 40
6.0
100
AcDbArc
 50
270.0
 51
360.0
  0
ARC
  5
1567F
330
747D
100
AcDbEntity
  8
細線
100
AcDbCircle
 10
5802.095742082192
 20
3840.05733255022
 30
0.0
 40
6.0
100
AcDbArc
 50
270.0
 51
0.0
  0
LINE
  5
15680
330
747D
100
AcDbEntity
  8
部品1
100
AcDbLine
 10
5767.097472191177
 20
3824.057332550219
 30
0.0
 11
5808.095742082192
 21
3824.057332550219
 31
0.0
  0
LINE
  5
15681
330
747D
100
AcDbEntity
  8
細線
100
AcDbLine
 10
5767.929123612947
 20
3825.557332550219
 30
0.0
 11
5807.095742082193
 21
3825.557332550219
 31
0.0
  0
ARC
  5
15682
330
747D
100
AcDbEntity
  8
部品1
100
AcDbCircle
 10
5767.097472191177
 20
3830.057332550219
 30
0.0
 40
6.0
100
AcDbArc
 50
190.5838025965097
 51
270.0
  0
ARC
  5
15683
330
747D
100
AcDbEntity
  8
細線
100
AcDbCircle
 10
5767.929123612947
 20
3831.057332550219
 30
0.0
 40
5.5
100
AcDbArc
 50
190.4214509727298
 51
269.9999999999997
  0
ARC
  5
15684
330
747D
100
AcDbEntity
  8
部品1
100
AcDbCircle
 10
5808.095742082192
 20
3830.057332550219
 30
0.0
 40
6.0
100
AcDbArc
 50
270.0
 51
0.0
  0
ARC
  5
15685
330
747D
100
AcDbEntity
  8
細線
100
AcDbCircle
 10
5807.095742082193
 20
3831.057332550219
 30
0.0
 40
5.5
100
AcDbArc
 50
270.0
 51
0.0
  0
LINE
  5
15686
330
747D
100
AcDbEntity
  8
部品1
100
AcDbLine
 10
5808.095742082192
 20
3944.057332550219
 30
0.0
 11
5767.097472191177
 21
3944.057332550219
 31
0.0
  0
LINE
  5
15687
330
747D
100
AcDbEntity
  8
細線
100
AcDbLine
 10
5802.095742082192
 20
3934.057332550219
 30
0.0
 11
5771.47669844667
 21
3934.057332550219
 31
0.0
  0
LINE
  5
15688
330
747D
100
AcDbEntity
  8
細線
100
AcDbLine
 10
5792.303281260938
 20
3931.057332550219
 30
0.0
 11
5780.095742082192
 21
3931.057332550219
 31
0.0
  0
LINE
  5
15689
330
747D
100
AcDbEntity
  8
細線
100
AcDbLine
 10
5807.095742082193
 20
3942.557332550219
 30
0.0
 11
5767.929123612947
 21
3942.557332550219
 31
0.0
  0
ARC
  5
1568A
330
747D
100
AcDbEntity
  8
部品1
100
AcDbCircle
 10
5767.097472191177
 20
3938.057332550219
 30
0.0
 40
6.0
100
AcDbArc
 50
90.0
 51
169.4161974034886
  0
ARC
  5
1568B
330
747D
100
AcDbEntity
  8
細線
100
AcDbCircle
 10
5767.929123612947
 20
3937.057332550219
 30
0.0
 40
5.5
100
AcDbArc
 50
89.99999999999969
 51
169.5785490272683
  0
LINE
  5
1568C
330
747D
100
AcDbEntity
  8
細線
100
AcDbLine
 10
5780.095742082192
 20
3928.056824651656
 30
0.0
 11
5767.332414866225
 21
3928.056824651656
 31
0.0
  0
ARC
  5
1568D
330
747D
100
AcDbEntity
  8
細線
100
AcDbCircle
 10
5771.47669844667
 20
3928.057332550219
 30
0.0
 40
6.0
100
AcDbArc
 50
90.0
 51
171.2120626773636
  0
ARC
  5
1568E
330
747D
100
AcDbEntity
  8
細線
100
AcDbCircle
 10
5781.590165992025
 20
3925.05733255022
 30
0.0
 40
3.0
100
AcDbArc
 50
8.099550838277986
 51
90.0
  0
LINE
  5
1568F
330
747D
100
AcDbEntity
  8
細線
100
AcDbLine
 10
5781.590165992025
 20
3928.057332550219
 30
0.0
 11
5780.095742082192
 21
3928.057332550219
 31
0.0
  0
ARC
  5
15690
330
747D
100
AcDbEntity
  8
部品1
100
AcDbCircle
 10
5808.095742082192
 20
3938.057332550219
 30
0.0
 40
6.0
100
AcDbArc
 50
0.0
 51
90.0
  0
ARC
  5
15691
330
747D
100
AcDbEntity
  8
細線
100
AcDbCircle
 10
5807.095742082193
 20
3937.057332550219
 30
0.0
 40
5.5
100
AcDbArc
 50
0.0
 51
90.0
  0
ARC
  5
15692
330
747D
100
AcDbEntity
  8
細線
100
AcDbCircle
 10
5792.303281260938
 20
3925.05733255022
 30
0.0
 40
6.0
100
AcDbArc
 50
0.0
 51
90.0
  0
ARC
  5
15693
330
747D
100
AcDbEntity
  8
細線
100
AcDbCircle
 10
5802.095742082192
 20
3928.057332550219
 30
0.0
 40
6.0
100
AcDbArc
 50
0.0
 51
90.0
  0
CIRCLE
  5
15694
330
747D
100
AcDbEntity
  8
細線
 48
20.0
100
AcDbCircle
 10
5787.596607136686
 20
3984.557332550219
 30
0.0
 40
10.0
  0
CIRCLE
  5
15695
330
747D
100
AcDbEntity
  8
細線
 48
20.0
100
AcDbCircle
 10
5787.596607136686
 20
3984.557332550219
 30
0.0
 40
20.0
  0
LINE
  5
156A5
330
747D
100
AcDbEntity
  8
部品1
 48
50.0
100
AcDbLine
 10
5636.033294253514
 20
4772.807332550219
 30
0.0
 11
5636.033294253514
 21
4779.557332550218
 31
0.0
  0
LINE
  5
156A6
330
747D
100
AcDbEntity
  8
細線
 48
0.1
100
AcDbLine
 10
5656.033294253513
 20
4779.807332550219
 30
0.0
 11
5656.033294253513
 21
4772.807332550219
 31
0.0
  0
LINE
  5
156A7
330
747D
100
AcDbEntity
  8
細線
 48
50.0
100
AcDbLine
 10
5644.17053705921
 20
4777.307332550218
 30
0.0
 11
5644.17053705921
 21
4775.307332550219
 31
0.0
  0
LINE
  5
156A8
330
747D
100
AcDbEntity
  8
細線
 48
50.0
100
AcDbLine
 10
5652.020947105173
 20
4777.307332550218
 30
0.0
 11
5652.020947105173
 21
4775.307332550219
 31
0.0
  0
LINE
  5
156A9
330
747D
100
AcDbEntity
  8
細線
 48
0.2
100
AcDbLine
 10
5656.033294253513
 20
4775.307332550219
 30
0.0
 11
5636.033294253514
 21
4775.307332550219
 31
0.0
  0
LINE
  5
156AA
330
747D
100
AcDbEntity
  8
部品1
 48
0.2
100
AcDbLine
 10
5656.033294253513
 20
4772.807332550219
 30
0.0
 11
5636.033294253514
 21
4772.807332550219
 31
0.0
  0
LINE
  5
156AB
330
747D
100
AcDbEntity
  8
細線
 48
50.0
100
AcDbLine
 10
5636.033294253514
 20
4779.557332550218
 30
0.0
 11
5636.033294253514
 21
4779.807332550219
 31
0.0
  0
LINE
  5
156AC
330
747D
100
AcDbEntity
  8
部品1
100
AcDbLine
 10
5656.033294253513
 20
4779.557332550218
 30
0.0
 11
5656.095742082194
 21
4779.557332550218
 31
0.0
  0
LINE
  5
156AD
330
747D
100
AcDbEntity
  8
細線
 48
0.2
100
AcDbLine
 10
5656.033294253513
 20
4779.807332550219
 30
0.0
 11
5636.033294253514
 21
4779.807332550219
 31
0.0
  0
LINE
  5
156AE
330
747D
100
AcDbEntity
  8
細線
 48
0.2
100
AcDbLine
 10
5656.033294253513
 20
4777.307332550218
 30
0.0
 11
5636.033294253514
 21
4777.307332550218
 31
0.0
  0
ARC
  5
156AF
330
747D
100
AcDbEntity
  8
細線
 48
0.2
100
AcDbCircle
 10
5643.033294253513
 20
4779.777842381466
 30
0.0
 40
1.0
100
AcDbArc
 50
106.6015495990225
 51
180.0000000000016
  0
ARC
  5
156B0
330
747D
100
AcDbEntity
  8
細線
 48
0.2
100
AcDbCircle
 10
5653.033294253513
 20
4779.777842381466
 30
0.0
 40
1.0
100
AcDbArc
 50
0.0
 51
73.39845040097829
  0
ARC
  5
156B1
330
747D
100
AcDbEntity
  8
細線
 48
0.2
100
AcDbCircle
 10
5648.033294253513
 20
4763.007332550222
 30
0.0
 40
18.49999999999796
100
AcDbArc
 50
73.39845040097829
 51
106.6015495990228
  0
LINE
  5
156B2
330
747D
100
AcDbEntity
  8
細線
 48
0.2
100
AcDbLine
 10
5653.717285550022
 20
4780.50733255022
 30
0.0
 11
5642.349302957009
 21
4780.50733255022
 31
0.0
  0
LINE
  5
156C0
330
747D
100
AcDbEntity
  8
部品1
 48
50.0
100
AcDbLine
 10
5730.59574875983
 20
9069.345970764855
 30
0.0
 11
5730.595748759832
 21
8619.345970764854
 31
0.0
  0
LINE
  5
156C1
330
747D
100
AcDbEntity
  8
部品1
 48
50.0
100
AcDbLine
 10
5671.595748759831
 20
9069.345970764905
 30
0.0
 11
5671.595748759831
 21
8619.345970764905
 31
0.0
  0
LINE
  5
156C2
330
747D
100
AcDbEntity
  8
細線
 48
50.0
100
AcDbLine
 10
5671.59574875983
 20
8619.345970764905
 30
0.0
 11
4910.595748759697
 21
9069.345970764926
 31
0.0
  0
LINE
  5
156C3
330
747D
100
AcDbEntity
  8
細線
 48
50.0
100
AcDbLine
 10
5671.595748759831
 20
9069.345970764905
 30
0.0
 11
4910.595748759837
 21
8619.345970764856
 31
0.0
  0
LINE
  5
156C4
330
747D
100
AcDbEntity
  8
部品1
 48
50.0
100
AcDbLine
 10
5729.095742082179
 20
7783.845970764833
 30
0.0
 11
5729.095742082125
 21
9098.845970764839
 31
0.0
  0
LINE
  5
156C5
330
747D
100
AcDbEntity
  8
部品1
 48
50.0
100
AcDbLine
 10
5673.095742082179
 20
7783.845970764833
 30
0.0
 11
5673.095742082127
 21
9070.845970764841
 31
0.0
  0
LINE
  5
156C6
330
747D
100
AcDbEntity
  8
部品1
 48
50.0
100
AcDbLine
 10
5701.09574208218
 20
7783.845970764833
 30
0.0
 11
5701.09574208218
 21
9043.84597076484
 31
0.0
  0
LINE
  5
156C7
330
747D
100
AcDbEntity
  8
破線
 48
10.0
100
AcDbLine
 10
5780.095742082187
 20
7883.845970764847
 30
0.0
 11
5780.095732913082
 21
8426.345965212997
 31
0.0
  0
LINE
  5
156C8
330
747D
100
AcDbEntity
  8
破線
 48
10.0
100
AcDbLine
 10
5622.095742082187
 20
7883.84597076484
 30
0.0
 11
5622.095735919923
 21
8426.345971734845
 31
0.0
  0
LINE
  5
156C9
330
747D
100
AcDbEntity
  8
部品1
 48
50.0
100
AcDbLine
 10
5645.595742082179
 20
7860.345970764839
 30
0.0
 11
5645.595742082154
 21
8619.345970764898
 31
0.0
  0
LINE
  5
156CA
330
747D
100
AcDbEntity
  8
部品1
 48
50.0
100
AcDbLine
 10
5756.595735737894
 20
7860.345970789499
 30
0.0
 11
5756.595738710756
 21
8619.34597076484
 31
0.0
  0
LINE
  5
156CB
330
747D
100
AcDbEntity
  8
破線
 48
10.0
100
AcDbLine
 10
5622.095742082187
 20
7883.845970764818
 30
0.0
 11
4961.095742082187
 21
7883.845970764801
 31
0.0
  0
LINE
  5
156CC
330
747D
100
AcDbEntity
  8
部品1
100
AcDbLine
 10
5645.596312530359
 20
7860.345389944876
 30
0.0
 11
4937.596713508586
 21
7860.344888456352
 31
0.0
  0
LINE
  5
156CD
330
747D
100
AcDbEntity
  8
部品1
100
AcDbLine
 10
5752.095742082194
 20
7728.845970764782
 30
0.0
 11
4881.095742082194
 21
7728.845970764749
 31
0.0
  0
LINE
  5
156CF
330
747D
100
AcDbEntity
  8
部品1
100
AcDbLine
 10
5656.095742082194
 20
7754.845970764847
 30
0.0
 11
4926.095742082194
 21
7754.845970764815
 31
0.0
  0
LINE
  5
156D0
330
747D
100
AcDbEntity
  8
細線
 48
50.0
100
AcDbLine
 10
5236.095742082194
 20
7754.845970764854
 30
0.0
 11
5236.095742082194
 21
7728.845970764819
 31
0.0
  0
LINE
  5
156D1
330
747D
100
AcDbEntity
  8
細線
 48
50.0
100
AcDbLine
 10
5276.095742082194
 20
7754.845970764854
 30
0.0
 11
5276.095742082194
 21
7728.845970764819
 31
0.0
  0
LINE
  5
156D2
330
747D
100
AcDbEntity
  8
部品1
 48
5.0
100
AcDbLine
 10
5673.095742082179
 20
7783.845970764833
 30
0.0
 11
5729.095742082179
 21
7783.845970764833
 31
0.0
  0
LINE
  5
156D3
330
747D
100
AcDbEntity
  8
部品1
 48
5.0
100
AcDbLine
 10
5658.095742082196
 20
7728.845970764833
 30
0.0
 11
5744.095742082196
 21
7728.845970764833
 31
0.0
  0
LINE
  5
156D4
330
747D
100
AcDbEntity
  8
細線
 48
50.0
100
AcDbLine
 10
5503.095742082194
 20
7754.845970765069
 30
0.0
 11
5503.095742082194
 21
7728.845970765033
 31
0.0
  0
LINE
  5
156D5
330
747D
100
AcDbEntity
  8
細線
 48
50.0
100
AcDbLine
 10
5463.095742082194
 20
7754.845970765069
 30
0.0
 11
5463.095742082194
 21
7728.845970765033
 31
0.0
  0
LINE
  5
156D6
330
747D
100
AcDbEntity
  8
部品1
 48
50.0
100
AcDbLine
 10
5673.095742082179
 20
7832.345970764833
 30
0.0
 11
5645.595742082179
 21
7860.345970764839
 31
0.0
  0
LINE
  5
156D7
330
747D
100
AcDbEntity
  8
部品1
 48
5.0
100
AcDbLine
 10
5669.095742082196
 20
7783.845970764833
 30
0.0
 11
5646.095742082194
 21
7783.845970764833
 31
0.0
  0
LINE
  5
156D8
330
747D
100
AcDbEntity
  8
部品1
100
AcDbLine
 10
5656.095742082194
 20
7754.845970764883
 30
0.0
 11
5656.095742082194
 21
7728.845970764826
 31
0.0
  0
LINE
  5
156D9
330
747D
100
AcDbEntity
  8
部品1
100
AcDbLine
 10
5658.095742082195
 20
7758.345970764775
 30
0.0
 11
5658.09574208219
 21
7728.845970764826
 31
0.0
  0
LINE
  5
156DA
330
747D
100
AcDbEntity
  8
部品1
 48
5.0
100
AcDbLine
 10
5658.095742082196
 20
7758.345970764833
 30
0.0
 11
5658.095742082196
 21
7728.845970764833
 31
0.0
  0
ARC
  5
156DB
330
747D
100
AcDbEntity
  8
部品1
 48
0.2
100
AcDbCircle
 10
5648.158189910872
 20
7729.843600720055
 30
0.0
 40
8.0
100
AcDbArc
 50
270.0
 51
352.8363522778074
  0
ARC
  5
156DC
330
747D
100
AcDbEntity
  8
部品1
 48
0.2
100
AcDbCircle
 10
5643.158189910871
 20
7729.843600720055
 30
0.0
 40
8.0
100
AcDbArc
 50
187.1636477221926
 51
269.9999999999992
  0
ARC
  5
156DD
330
747D
100
AcDbEntity
  8
細線
 48
0.2
100
AcDbCircle
 10
5648.158189910872
 20
7729.843600720055
 30
0.0
 40
4.049999999999999
100
AcDbArc
 50
194.2603506853988
 51
345.7396493146012
  0
LINE
  5
156DE
330
747D
100
AcDbEntity
  8
部品1
 48
0.2
100
AcDbLine
 10
5643.158189910871
 20
7721.843600720055
 30
0.0
 11
5648.158189910872
 21
7721.843600720055
 31
0.0
  0
LINE
  5
156DF
330
747D
100
AcDbEntity
  8
部品1
 48
5.0
100
AcDbLine
 10
5677.095742082196
 20
7783.845970764833
 30
0.0
 11
5677.095742082196
 21
7758.345970764833
 31
0.0
  0
LINE
  5
156E0
330
747D
100
AcDbEntity
  8
部品1
 48
5.0
100
AcDbLine
 10
5646.095742082196
 20
7783.845970764833
 30
0.0
 11
5646.095742082198
 21
7758.345970764833
 31
0.0
  0
LINE
  5
156E1
330
747D
100
AcDbEntity
  8
細線
 48
50.0
100
AcDbLine
 10
5870.095742082194
 20
7754.845970764866
 30
0.0
 11
5870.095742082194
 21
7728.845970764819
 31
0.0
  0
LINE
  5
156E2
330
747D
100
AcDbEntity
  8
部品1
 48
50.0
100
AcDbLine
 10
5756.595742082178
 20
7860.345970789506
 30
0.0
 11
5729.095742082179
 21
7832.345970764833
 31
0.0
  0
LINE
  5
156E3
330
747D
100
AcDbEntity
  8
部品1
 48
5.0
100
AcDbLine
 10
5733.095742082196
 20
7783.845970764833
 30
0.0
 11
5756.095742082196
 21
7783.845970764833
 31
0.0
  0
LINE
  5
156E4
330
747D
100
AcDbEntity
  8
部品1
100
AcDbLine
 10
5746.095742082194
 20
7754.845970764854
 30
0.0
 11
5746.095742082194
 21
7728.845970764819
 31
0.0
  0
LINE
  5
156E5
330
747D
100
AcDbEntity
  8
部品1
100
AcDbLine
 10
5744.095742082194
 20
7758.345970764782
 30
0.0
 11
5744.095742082196
 21
7728.845970764833
 31
0.0
  0
LINE
  5
156E6
330
747D
100
AcDbEntity
  8
部品1
 48
5.0
100
AcDbLine
 10
5744.095742082196
 20
7758.345970764833
 30
0.0
 11
5744.095742082196
 21
7728.845970764833
 31
0.0
  0
LINE
  5
156E7
330
747D
100
AcDbEntity
  8
部品1
 48
5.0
100
AcDbLine
 10
5756.095742082196
 20
7783.845970764833
 30
0.0
 11
5756.095742082198
 21
7758.345970764833
 31
0.0
  0
LINE
  5
156E8
330
747D
100
AcDbEntity
  8
部品1
 48
5.0
100
AcDbLine
 10
5725.095742082197
 20
7783.845970764833
 30
0.0
 11
5725.095742082196
 21
7758.345970764833
 31
0.0
  0
LINE
  5
156EA
330
747D
100
AcDbEntity
  8
部品1
 48
5.0
100
AcDbLine
 10
5701.09574208218
 20
8203.845970764833
 30
0.0
 11
5673.095742082129
 21
8203.84597076484
 31
0.0
  0
LINE
  5
156EB
330
747D
100
AcDbEntity
  8
部品1
 48
50.0
100
AcDbLine
 10
5701.095742082173
 20
8623.84597076484
 30
0.0
 11
5729.095742082154
 21
8623.84597076484
 31
0.0
  0
LINE
  5
156EC
330
747D
100
AcDbEntity
  8
部品1
 48
50.0
100
AcDbLine
 10
5701.095742082173
 20
8661.84597076484
 30
0.0
 11
5729.095742082154
 21
8661.84597076484
 31
0.0
  0
LINE
  5
156ED
330
747D
100
AcDbEntity
  8
部品1
 48
5.0
100
AcDbLine
 10
5701.09574208218
 20
8623.845970764833
 30
0.0
 11
5673.095742082129
 21
8623.84597076484
 31
0.0
  0
LINE
  5
156F1
330
747D
100
AcDbEntity
  8
細線
 48
50.0
100
AcDbLine
 10
5321.095742082201
 20
9077.345970764676
 30
0.0
 11
5261.095742082201
 21
9077.345970764673
 31
0.0
  0
LINE
  5
156F2
330
747D
100
AcDbEntity
  8
細線
 48
50.0
100
AcDbLine
 10
5321.095742082201
 20
9077.345970764676
 30
0.0
 11
5321.095742082199
 21
9098.84597076468
 31
0.0
  0
LINE
  5
156F3
330
747D
100
AcDbEntity
  8
細線
 48
50.0
100
AcDbLine
 10
5261.095742082201
 20
9077.345970764676
 30
0.0
 11
5261.0957420822
 21
9098.845970764672
 31
0.0
  0
LINE
  5
156F4
330
747D
100
AcDbEntity
  8
部品1
 48
5.0
100
AcDbLine
 10
5729.095742082129
 20
9043.84597076484
 30
0.0
 11
5673.095742082129
 21
9043.84597076484
 31
0.0
  0
DIMENSION
  5
156F5
330
747D
100
AcDbEntity
  8
寸法
 48
50.0
100
AcDbDimension
  2
*D15
 10
5756.095742082203
 20
9314.654190389894
 30
0.0
 11
5701.095742082202
 21
9414.654190389894
 31
0.0
 70
    32
 71
     5
 42
110.0000000000036
  3
INABA_S40G
100
AcDbAlignedDimension
 13
5646.095742082199
 23
9098.845970764912
 33
0.0
 14
5756.095742082203
 24
9098.845970764891
 34
0.0
100
AcDbRotatedDimension
  0
LINE
  5
156F6
330
747D
100
AcDbEntity
  8
部品1
 48
50.0
100
AcDbLine
 10
5671.595748759831
 20
9069.291458105082
 30
0.0
 11
5673.095742082127
 21
9070.845970764841
 31
0.0
  0
LINE
  5
156F7
330
747D
100
AcDbEntity
  8
部品1
 48
5.0
100
AcDbLine
 10
5646.095742082198
 20
9070.845970764841
 30
0.0
 11
5646.095742082199
 21
9098.845970764839
 31
0.0
  0
LINE
  5
156F8
330
747D
100
AcDbEntity
  8
部品1
 48
5.0
100
AcDbLine
 10
5675.805016529375
 20
9098.845970764839
 30
0.0
 11
5698.476445100803
 21
9070.845970764841
 31
0.0
  0
LINE
  5
156F9
330
747D
100
AcDbEntity
  8
部品1
 48
5.0
100
AcDbLine
 10
5756.095742082203
 20
9098.845970764839
 30
0.0
 11
5756.095742082198
 21
9070.845970764848
 31
0.0
  0
LINE
  5
156FA
330
747D
100
AcDbEntity
  8
部品1
 48
50.0
100
AcDbLine
 10
5730.595742082132
 20
9069.291449244582
 30
0.0
 11
5729.095742082127
 21
9070.845970764841
 31
0.0
  0
LINE
  5
156FB
330
747D
100
AcDbEntity
  8
想像線
 48
10.0
100
AcDbLine
 10
5656.095742082194
 20
7728.845970764833
 30
0.0
 11
5656.095742082194
 21
7007.928327109043
 31
0.0
  0
ARC
  5
156FC
330
747D
100
AcDbEntity
  8
想像線
 48
10.0
100
AcDbCircle
 10
5648.743691405037
 20
7730.540864140403
 30
0.0
 40
722.6499369155621
100
AcDbArc
 50
180.1343808685507
 51
270.5829222700352
  0
LINE
  5
15779
330
747D
100
AcDbEntity
  8
部品1
100
AcDbLine
 10
4881.095742082165
 20
9098.845970764761
 30
0.0
 11
8161.095742082201
 21
9098.845970764891
 31
0.0
  0
LINE
  5
1577A
330
747D
100
AcDbEntity
  8
部品1
100
AcDbLine
 10
4909.095742082196
 20
9070.8459707648
 30
0.0
 11
5698.476445100823
 21
9070.845970764819
 31
0.0
  0
LINE
  5
1577B
330
747D
100
AcDbEntity
  8
部品1
100
AcDbLine
 10
4910.59574875977
 20
9069.34597076486
 30
0.0
 11
5671.595748759831
 21
9069.345970764905
 31
0.0
  0
LINE
  5
1577E
330
747D
100
AcDbEntity
  8
部品1
100
AcDbLine
 10
4910.595748759831
 20
8619.345970764856
 30
0.0
 11
5671.59574875983
 21
8619.345970764905
 31
0.0
  0
LINE
  5
15782
330
747D
100
AcDbEntity
  8
部品1
 48
5.0
100
AcDbLine
 10
4924.095742082194
 20
7758.345970764719
 30
0.0
 11
5677.095742082196
 21
7758.345970764775
 31
0.0
  0
LINE
  5
1578A
330
747D
100
AcDbEntity
  8
部品1
100
AcDbLine
 10
4926.095742082194
 20
4779.557332550218
 30
0.0
 11
5636.033294253514
 21
4779.557332550218
 31
0.0
  0
LINE
  5
1578B
330
747D
100
AcDbEntity
  8
部品1
100
AcDbLine
 10
4881.095742082194
 20
4782.057332550214
 30
0.0
 11
8161.095742082194
 21
4782.057332550217
 31
0.0
  0
LINE
  5
1578C
330
747D
100
AcDbEntity
  8
部品1
100
AcDbLine
 10
4881.095742082194
 20
2985.057332550216
 30
0.0
 11
8161.095742082194
 21
2985.057332550237
 31
0.0
  0
LINE
  5
1578D
330
747D
100
AcDbEntity
  8
部品1
100
AcDbLine
 10
4926.095742082194
 20
2988.557332550224
 30
0.0
 11
5636.033294253514
 21
2988.557332550228
 31
0.0
  0
LINE
  5
1578E
330
747D
100
AcDbEntity
  8
部品1
100
AcDbLine
 10
4881.095742082194
 20
2942.057332550218
 30
0.0
 11
8161.095742082194
 21
2942.057332550218
 31
0.0
  0
LINE
  5
1578F
330
747D
100
AcDbEntity
  8
Ｇ．Ｌ
100
AcDbLine
 10
3853.875159987955
 20
2842.057332550218
 30
0.0
 11
13000.69269973183
 21
2842.057332550218
 31
0.0
  0
LINE
  5
15798
330
747D
100
AcDbEntity
  8
細線
 48
50.0
100
AcDbLine
 10
6521.095742082194
 20
4876.057332550217
 30
0.0
 11
6521.095742082194
 21
4782.057332550217
 31
0.0
  0
LINE
  5
15799
330
747D
100
AcDbEntity
  8
細線
 48
50.0
100
AcDbLine
 10
6511.095742082194
 20
4876.057332550217
 30
0.0
 11
6511.095742082194
 21
5017.057332550216
 31
0.0
  0
LINE
  5
157FC
330
747D
100
AcDbEntity
  8
部品1
 48
50.0
100
AcDbLine
 10
6521.095742082194
 20
2985.057332550227
 30
0.0
 11
6521.095742082194
 21
2942.057332550218
 31
0.0
  0
DIMENSION
  5
15855
330
747D
100
AcDbEntity
  8
寸法
100
AcDbDimension
  2
*D16
 10
5646.095742082199
 20
9314.654190389894
 30
0.0
 11
5291.345742082199
 21
9314.654190389894
 31
0.0
 70
   160
 71
     5
 42
709.9999999999981
  3
INABA_S40G
100
AcDbAlignedDimension
 13
4936.095742082201
 23
9098.845970764825
 33
0.0
 14
5646.095742082199
 24
9098.845970764912
 34
0.0
100
AcDbRotatedDimension
1001
ACAD
1000
DSTYLE
1002
{
1002
}
  0
DIMENSION
  5
15864
330
747D
100
AcDbEntity
  8
寸法
 48
50.0
100
AcDbDimension
  2
*D17
 10
7261.095742082194
 20
7289.022302969712
 30
0.0
 11
6918.595742082196
 21
7289.022302969712
 31
0.0
 70
   160
 71
     5
 42
684.9999999999964
  3
INABA_S40G
100
AcDbAlignedDimension
 13
6576.095742082198
 23
7728.845970764789
 33
0.0
 14
7261.095742082194
 24
7728.845970764753
 34
0.0
100
AcDbRotatedDimension
  0
DIMENSION
  5
1587E
330
747D
100
AcDbEntity
  8
寸法
 48
50.0
100
AcDbDimension
  2
*D18
 10
6441.095742082194
 20
7289.022302969712
 30
0.0
 11
6098.595742082196
 21
7289.022302969712
 31
0.0
 70
   160
 71
     5
 42
684.9999999999964
  3
INABA_S40G
100
AcDbAlignedDimension
 13
5756.095742082198
 23
7728.845970764789
 33
0.0
 14
6441.095742082194
 24
7728.845970764753
 34
0.0
100
AcDbRotatedDimension
  0
DIMENSION
  5
15898
330
747D
100
AcDbEntity
  8
寸法
 48
50.0
100
AcDbDimension
  2
*D19
 10
8081.095742082196
 20
7289.022302969712
 30
0.0
 11
7738.595742082196
 21
7289.022302969712
 31
0.0
 70
   160
  1
有効開口部間口\P<>
 71
     5
 42
684.9999999999972
  3
INABA_S40G
100
AcDbAlignedDimension
 13
7396.095742082197
 23
7728.845970764789
 33
0.0
 14
8081.095742082196
 24
7728.845970764753
 34
0.0
100
AcDbRotatedDimension
  0
DIMENSION
  5
158FA
330
747D
100
AcDbEntity
  8
寸法
 48
50.0
100
AcDbDimension
  2
*D20
 10
5621.095742082194
 20
7289.022302969712
 30
0.0
 11
5278.595742082195
 21
7289.022302969712
 31
0.0
 70
   160
 71
     5
 42
684.9999999999964
  3
INABA_S40G
100
AcDbAlignedDimension
 13
4936.095742082198
 23
7728.845970764789
 33
0.0
 14
5621.095742082194
 24
7728.845970764753
 34
0.0
100
AcDbRotatedDimension
  0
MTEXT
  5
15D63
330
747D
100
AcDbEntity
  8
寸法
 62
     7
 48
50.0
100
AcDbMText
 10
5306.37555304817
 20
8688.959718302127
 30
0.0
 40
96.0
 41
0.0
 71
     5
 72
     1
  1
棚 2段
  7
STYLE1
 73
     1
 44
1.0
1001
ACAD
1000
MTEXTBEGIN
1070
    73
1070
     1
1070
    44
1040
1.0
1070
    74
1070
     0
1000
MTEXTEND
  0
TEXT
  5
15E4D
330
747D
100
AcDbEntity
  8
部品1
100
AcDbText
 10
6229.885812705921
 20
2046.087222514976
 30
0.0
 40
135.0
  1
正面図
  7
STYLE2
100
AcDbText
  0
LWPOLYLINE
  5
15E4E
330
747D
100
AcDbEntity
  8
部品1
100
AcDbPolyline
 90
        4
 70
     1
 43
0.0
 10
6139.360408967967
 20
2238.9807517335
 10
6139.360408967967
 20
1999.088430187968
 10
6902.831075196404
 20
1999.088430187968
 10
6902.831075196404
 20
2238.9807517335
  0
MTEXT
  5
15EAD
330
747D
100
AcDbEntity
  8
寸法
 62
     7
 48
50.0
100
AcDbMText
 10
6946.375546370473
 20
8688.959718302113
 30
0.0
 40
96.0
 41
0.0
 71
     5
 72
     1
  1
棚 2段
  7
STYLE1
 73
     1
 44
1.0
1001
ACAD
1000
MTEXTBEGIN
1070
    73
1070
     1
1070
    44
1040
1.0
1070
    74
1070
     0
1000
MTEXTEND
  0
MTEXT
  5
15EAE
330
747D
100
AcDbEntity
  8
寸法
 62
     7
 48
50.0
100
AcDbMText
 10
6126.375553048169
 20
8688.959718302127
 30
0.0
 40
96.0
 41
0.0
 71
     5
 72
     1
  1
棚 2段
  7
STYLE1
 73
     1
 44
1.0
1001
ACAD
1000
MTEXTBEGIN
1070
    73
1070
     1
1070
    44
1040
1.0
1070
    74
1070
     0
1000
MTEXTEND
  0
LINE
  5
15EB4
330
747D
100
AcDbEntity
  8
仕様書枠
 48
50.0
100
AcDbLine
 10
16307.2
 20
11409.6
 30
0.0
 11
13127.2
 21
11409.6
 31
0.0
  0
TEXT
  5
15EF0
330
747D
100
AcDbEntity
  8
文字
 62
     7
 48
50.0
100
AcDbText
 10
14271.39351435261
 20
483.8967129911411
 30
0.0
 40
160.0
  1
ＮＸＮ－１１ＤＬ－４
  7
STYLE2
100
AcDbText
  0
MTEXT
  5
16414
330
747D
100
AcDbEntity
  8
寸法
 62
     7
 48
50.0
100
AcDbMText
 10
7766.375539692774
 20
8688.95971830207
 30
0.0
 40
96.0
 41
0.0
 71
     5
 72
     1
  1
棚 2段
  7
STYLE1
 73
     1
 44
1.0
1001
ACAD
1000
MTEXTBEGIN
1070
    73
1070
     1
1070
    44
1040
1.0
1070
    74
1070
     0
1000
MTEXTEND
  0
DIMENSION
  5
16416
330
747D
100
AcDbEntity
  8
寸法
 48
50.0
100
AcDbDimension
  2
*D22
 10
4881.095742082194
 20
5229.59891780846
 30
0.0
 11
6521.095742082185
 21
5229.59891780846
 31
0.0
 70
   160
  1
柱外寸法<>
 71
     5
 42
3280.000000000004
  3
INABA_S40G
100
AcDbAlignedDimension
 13
8161.095742082197
 23
5017.057332550221
 33
0.0
 14
4881.095742082194
 24
5017.057332550223
 34
0.0
100
AcDbRotatedDimension
  0
DIMENSION
  5
16417
330
747D
100
AcDbEntity
  8
寸法
 48
50.0
100
AcDbDimension
  2
*D21
 10
8211.095742082198
 20
5452.555896246307
 30
0.0
 11
6521.095742082185
 21
5452.555896246307
 31
0.0
 70
   160
 71
     5
 42
3380.000000000004
  3
INABA_S40G
100
AcDbAlignedDimension
 13
4831.095742082194
 23
5017.057332550221
 33
0.0
 14
8211.095742082198
 24
5017.057332550219
 34
0.0
100
AcDbRotatedDimension
  0
DIMENSION
  5
16418
330
747D
100
AcDbEntity
  8
寸法
 48
50.0
100
AcDbDimension
  2
*D23
 10
4831.095742082194
 20
5229.59891780846
 30
0.0
 11
4517.610460707947
 21
5229.59891780846
 31
0.0
 70
   160
 71
     5
 42
50.0
  3
INABA_S40G
100
AcDbAlignedDimension
 13
4881.095742082194
 23
5017.057332550223
 33
0.0
 14
4831.095742082194
 24
5017.057332550221
 34
0.0
100
AcDbRotatedDimension
1001
ACAD
1000
DSTYLE
1002
{
1002
}
  0
LINE
  5
16419
330
747D
100
AcDbEntity
  8
部品1
100
AcDbLine
 10
4831.515403097524
 20
5009.660807154978
 30
0.0
 11
4832.648800429874
 21
4989.684679172381
 31
0.0
  0
LINE
  5
1641A
330
747D
100
AcDbEntity
  8
部品1
100
AcDbLine
 10
4844.08582075145
 20
4894.027272005321
 30
0.0
 11
4844.730726558559
 21
4882.66080715498
 31
0.0
  0
LINE
  5
1641B
330
747D
100
AcDbEntity
  8
部品1
100
AcDbLine
 10
4835.849790226603
 20
4986.227272005322
 30
0.0
 11
4840.884830954713
 21
4897.484679172379
 31
0.0
  0
ARC
  5
1641C
330
747D
100
AcDbEntity
  8
部品1
 48
50.0
100
AcDbCircle
 10
4832.854607330417
 20
4986.057332550219
 30
0.0
 40
3.0
100
AcDbArc
 50
3.247342790337682
 51
82.34187279263654
  0
ARC
  5
1641D
330
747D
100
AcDbEntity
  8
部品1
 48
50.0
100
AcDbCircle
 10
4841.090637855261
 20
4893.857332550219
 30
0.0
 40
3.0
100
AcDbArc
 50
3.247342790337682
 51
82.34187279263654
  0
ARC
  5
1641E
330
747D
100
AcDbEntity
  8
部品1
 48
50.0
100
AcDbCircle
 10
4841.583706963822
 20
4897.524331711903
 30
0.0
 40
0.7
100
AcDbArc
 50
183.2473427902856
 51
262.3418727926365
  0
ARC
  5
1641F
330
747D
100
AcDbEntity
  8
部品1
 48
50.0
100
AcDbCircle
 10
4833.347676438981
 20
4989.724331711906
 30
0.0
 40
0.7
100
AcDbArc
 50
183.2473427903897
 51
262.3418727926365
  0
ARC
  5
16420
330
747D
100
AcDbEntity
  8
部品1
100
AcDbCircle
 10
4851.719486649657
 20
4883.057332550221
 30
0.0
 40
7.0
100
AcDbArc
 50
183.2473427903377
 51
270.0
  0
ARC
  5
16421
330
747D
100
AcDbEntity
  8
部品1
100
AcDbCircle
 10
4838.504163188623
 20
5010.057332550219
 30
0.0
 40
7.0
100
AcDbArc
 50
90.0
 51
183.2473427903377
  0
LINE
  5
16422
330
747D
100
AcDbEntity
  8
細線
 48
50.0
100
AcDbLine
 10
4864.095742082194
 20
5017.057332550219
 30
0.0
 11
4864.095742082194
 21
4876.057332550217
 31
0.0
  0
LINE
  5
16423
330
747D
100
AcDbEntity
  8
部品1
 48
50.0
100
AcDbLine
 10
8190.471997514732
 20
4876.057332550214
 30
0.0
 11
4851.719486649657
 21
4876.057332550217
 31
0.0
  0
LINE
  5
16424
330
747D
100
AcDbEntity
  8
細線
 48
50.0
100
AcDbLine
 10
8200.701060546419
 20
4896.830575113817
 30
0.0
 11
4841.49042361744
 21
4896.830575114215
 31
0.0
  0
LINE
  5
16425
330
747D
100
AcDbEntity
  8
細線
 48
50.0
100
AcDbLine
 10
8208.93709107122
 20
4989.030575113815
 30
0.0
 11
4833.254393092608
 21
4989.030575114215
 31
0.0
  0
LINE
  5
16426
330
747D
100
AcDbEntity
  8
部品1
 48
50.0
100
AcDbLine
 10
8203.687320975765
 20
5017.057332550216
 30
0.0
 11
4838.504163188623
 21
5017.057332550216
 31
0.0
  0
DIMENSION
  5
1648D
330
747D
100
AcDbEntity
  8
寸法
 48
50.0
100
AcDbDimension
  2
*D24
 10
8161.095742082197
 20
5229.59891780846
 30
0.0
 11
8524.581023456434
 21
5229.59891780846
 31
0.0
 70
   160
 71
     5
 42
50.0
  3
INABA_S40G
100
AcDbAlignedDimension
 13
8211.095742082198
 23
5017.057332550219
 33
0.0
 14
8161.095742082197
 24
5017.057332550221
 34
0.0
100
AcDbRotatedDimension
  0
ARC
  5
1648E
330
747D
100
AcDbEntity
  8
部品1
100
AcDbCircle
 10
8203.687320975765
 20
5010.057332550219
 30
0.0
 40
7.0
100
AcDbArc
 50
356.7526572096623
 51
90.0
  0
ARC
  5
1648F
330
747D
100
AcDbEntity
  8
部品1
100
AcDbCircle
 10
8190.471997514732
 20
4883.057332550221
 30
0.0
 40
7.0
100
AcDbArc
 50
270.0
 51
356.7526572096623
  0
ARC
  5
16490
330
747D
100
AcDbEntity
  8
部品1
 48
50.0
100
AcDbCircle
 10
8208.843807725411
 20
4989.724331711906
 30
0.0
 40
0.7
100
AcDbArc
 50
277.6581272073635
 51
356.7526572096103
  0
ARC
  5
16491
330
747D
100
AcDbEntity
  8
部品1
 48
50.0
100
AcDbCircle
 10
8200.607777200566
 20
4897.524331711903
 30
0.0
 40
0.7
100
AcDbArc
 50
277.6581272073635
 51
356.7526572097143
  0
ARC
  5
16492
330
747D
100
AcDbEntity
  8
部品1
 48
50.0
100
AcDbCircle
 10
8201.100846309127
 20
4893.857332550219
 30
0.0
 40
3.0
100
AcDbArc
 50
97.65812720736347
 51
176.7526572096623
  0
ARC
  5
16493
330
747D
100
AcDbEntity
  8
部品1
 48
50.0
100
AcDbCircle
 10
8209.336876833971
 20
4986.05733255022
 30
0.0
 40
3.0
100
AcDbArc
 50
97.65812720736347
 51
176.7526572096623
  0
LINE
  5
16494
330
747D
100
AcDbEntity
  8
部品1
100
AcDbLine
 10
8206.341693937785
 20
4986.227272005322
 30
0.0
 11
8201.306653209675
 21
4897.484679172379
 31
0.0
  0
LINE
  5
16495
330
747D
100
AcDbEntity
  8
部品1
100
AcDbLine
 10
8198.105663412942
 20
4894.027272005321
 30
0.0
 11
8197.46075760583
 21
4882.660807154982
 31
0.0
  0
LINE
  5
16496
330
747D
100
AcDbEntity
  8
細線
 48
50.0
100
AcDbLine
 10
8178.095742082197
 20
5017.057332550219
 30
0.0
 11
8178.095742082197
 21
4876.057332550219
 31
0.0
  0
LINE
  5
16497
330
747D
100
AcDbEntity
  8
部品1
100
AcDbLine
 10
8210.676081066864
 20
5009.66080715498
 30
0.0
 11
8209.542683734518
 21
4989.684679172381
 31
0.0
  0
LINE
  5
164D6
330
747D
100
AcDbEntity
  8
細線
100
AcDbLine
 10
6931.095742082203
 20
4841.557332550213
 30
0.0
 11
6931.095742082203
 21
4818.557332550212
 31
0.0
  0
LINE
  5
164D7
330
747D
100
AcDbEntity
  8
細線
100
AcDbLine
 10
7005.095742082203
 20
4829.557332550212
 30
0.0
 11
6931.095742082203
 21
4829.557332550212
 31
0.0
  0
LINE
  5
164D8
330
747D
100
AcDbEntity
  8
細線
100
AcDbLine
 10
7005.095742082203
 20
4823.557332550212
 30
0.0
 11
6931.095742082203
 21
4823.557332550212
 31
0.0
  0
LINE
  5
164D9
330
747D
100
AcDbEntity
  8
細線
100
AcDbLine
 10
7005.095742082203
 20
4835.557332550212
 30
0.0
 11
6931.095742082203
 21
4835.557332550212
 31
0.0
  0
LINE
  5
164DA
330
747D
100
AcDbEntity
  8
細線
100
AcDbLine
 10
6857.095742082204
 20
4835.557332550212
 30
0.0
 11
6926.095742082203
 21
4835.557332550212
 31
0.0
  0
LINE
  5
164DB
330
747D
100
AcDbEntity
  8
細線
100
AcDbLine
 10
6857.095742082204
 20
4823.557332550212
 30
0.0
 11
6931.095742082203
 21
4823.557332550212
 31
0.0
  0
LINE
  5
164DC
330
747D
100
AcDbEntity
  8
細線
100
AcDbLine
 10
6857.095742082204
 20
4829.557332550212
 30
0.0
 11
6931.095742082203
 21
4829.557332550212
 31
0.0
  0
LINE
  5
164DD
330
747D
100
AcDbEntity
  8
細線
100
AcDbLine
 10
6857.095742082204
 20
4835.557332550212
 30
0.0
 11
6931.095742082203
 21
4835.557332550212
 31
0.0
  0
LINE
  5
164DE
330
747D
100
AcDbEntity
  8
部品1
 48
0.01
100
AcDbLine
 10
7019.095742082203
 20
4848.057332550212
 30
0.0
 11
6843.095742082204
 21
4848.057332550212
 31
0.0
  0
LINE
  5
164DF
330
747D
100
AcDbEntity
  8
部品1
 48
0.01
100
AcDbLine
 10
6841.095742082202
 20
4846.057332550212
 30
0.0
 11
6841.095742082202
 21
4814.557332550212
 31
0.0
  0
LINE
  5
164E0
330
747D
100
AcDbEntity
  8
部品1
 48
0.01
100
AcDbLine
 10
6843.095742082204
 20
4812.557332550212
 30
0.0
 11
7019.095742082203
 21
4812.557332550212
 31
0.0
  0
LINE
  5
164E1
330
747D
100
AcDbEntity
  8
部品1
 48
0.01
100
AcDbLine
 10
7021.095742082204
 20
4814.557332550212
 30
0.0
 11
7021.095742082204
 21
4846.057332550212
 31
0.0
  0
LINE
  5
164E2
330
747D
100
AcDbEntity
  8
細線
100
AcDbLine
 10
6857.095742082204
 20
4841.557332550213
 30
0.0
 11
6857.095742082204
 21
4818.557332550212
 31
0.0
  0
LINE
  5
164E3
330
747D
100
AcDbEntity
  8
細線
100
AcDbLine
 10
7005.095742082203
 20
4818.557332550212
 30
0.0
 11
7005.095742082203
 21
4841.557332550213
 31
0.0
  0
LINE
  5
164E4
330
747D
100
AcDbEntity
  8
細線
100
AcDbLine
 10
7005.095742082203
 20
4841.557332550213
 30
0.0
 11
6931.095742082203
 21
4841.557332550213
 31
0.0
  0
LINE
  5
164E5
330
747D
100
AcDbEntity
  8
細線
100
AcDbLine
 10
6857.095742082204
 20
4818.557332550212
 30
0.0
 11
6931.095742082203
 21
4818.557332550212
 31
0.0
  0
LINE
  5
164E6
330
747D
100
AcDbEntity
  8
細線
100
AcDbLine
 10
6931.095742082203
 20
4841.557332550213
 30
0.0
 11
6857.095742082204
 21
4841.557332550213
 31
0.0
  0
LINE
  5
164E7
330
747D
100
AcDbEntity
  8
細線
100
AcDbLine
 10
6931.095742082203
 20
4818.557332550212
 30
0.0
 11
7005.095742082203
 21
4818.557332550212
 31
0.0
  0
ARC
  5
164E8
330
747D
100
AcDbEntity
  8
部品1
 48
0.01
100
AcDbCircle
 10
6843.095742082204
 20
4846.057332550212
 30
0.0
 40
2.0
100
AcDbArc
 50
90.0
 51
180.0
  0
ARC
  5
164E9
330
747D
100
AcDbEntity
  8
部品1
 48
0.01
100
AcDbCircle
 10
6843.095742082204
 20
4814.557332550212
 30
0.0
 40
2.0
100
AcDbArc
 50
180.0
 51
270.0
  0
ARC
  5
164EA
330
747D
100
AcDbEntity
  8
部品1
 48
0.01
100
AcDbCircle
 10
7019.095742082203
 20
4846.057332550212
 30
0.0
 40
2.0
100
AcDbArc
 50
0.0
 51
90.0
  0
ARC
  5
164EB
330
747D
100
AcDbEntity
  8
部品1
 48
0.01
100
AcDbCircle
 10
7019.095742082203
 20
4814.557332550212
 30
0.0
 40
2.0
100
AcDbArc
 50
270.0
 51
0.0
  0
ARC
  5
164EC
330
747D
100
AcDbEntity
  8
部品1
 48
0.01
100
AcDbCircle
 10
6199.095742082201
 20
4814.557332550212
 30
0.0
 40
2.0
100
AcDbArc
 50
270.0
 51
0.0
  0
ARC
  5
164ED
330
747D
100
AcDbEntity
  8
部品1
 48
0.01
100
AcDbCircle
 10
6199.095742082201
 20
4846.057332550212
 30
0.0
 40
2.0
100
AcDbArc
 50
0.0
 51
90.0
  0
ARC
  5
164EE
330
747D
100
AcDbEntity
  8
部品1
 48
0.01
100
AcDbCircle
 10
6023.095742082201
 20
4814.557332550212
 30
0.0
 40
2.0
100
AcDbArc
 50
180.0
 51
270.0
  0
ARC
  5
164EF
330
747D
100
AcDbEntity
  8
部品1
 48
0.01
100
AcDbCircle
 10
6023.095742082201
 20
4846.057332550212
 30
0.0
 40
2.0
100
AcDbArc
 50
90.0
 51
180.0
  0
LINE
  5
164F0
330
747D
100
AcDbEntity
  8
細線
100
AcDbLine
 10
6111.095742082202
 20
4818.557332550212
 30
0.0
 11
6185.095742082201
 21
4818.557332550212
 31
0.0
  0
LINE
  5
164F1
330
747D
100
AcDbEntity
  8
細線
100
AcDbLine
 10
6111.095742082202
 20
4841.557332550213
 30
0.0
 11
6037.095742082201
 21
4841.557332550213
 31
0.0
  0
LINE
  5
164F2
330
747D
100
AcDbEntity
  8
細線
100
AcDbLine
 10
6037.095742082201
 20
4818.557332550212
 30
0.0
 11
6111.095742082202
 21
4818.557332550212
 31
0.0
  0
LINE
  5
164F3
330
747D
100
AcDbEntity
  8
細線
100
AcDbLine
 10
6185.095742082201
 20
4841.557332550213
 30
0.0
 11
6111.095742082202
 21
4841.557332550213
 31
0.0
  0
LINE
  5
164F4
330
747D
100
AcDbEntity
  8
細線
100
AcDbLine
 10
6185.095742082201
 20
4818.557332550212
 30
0.0
 11
6185.095742082201
 21
4841.557332550213
 31
0.0
  0
LINE
  5
164F5
330
747D
100
AcDbEntity
  8
細線
100
AcDbLine
 10
6037.095742082201
 20
4841.557332550213
 30
0.0
 11
6037.095742082201
 21
4818.557332550212
 31
0.0
  0
LINE
  5
164F6
330
747D
100
AcDbEntity
  8
部品1
 48
0.01
100
AcDbLine
 10
6201.095742082202
 20
4814.557332550212
 30
0.0
 11
6201.095742082202
 21
4846.057332550212
 31
0.0
  0
LINE
  5
164F7
330
747D
100
AcDbEntity
  8
部品1
 48
0.01
100
AcDbLine
 10
6023.095742082201
 20
4812.557332550212
 30
0.0
 11
6199.095742082201
 21
4812.557332550212
 31
0.0
  0
LINE
  5
164F8
330
747D
100
AcDbEntity
  8
部品1
 48
0.01
100
AcDbLine
 10
6021.095742082201
 20
4846.057332550212
 30
0.0
 11
6021.095742082201
 21
4814.557332550212
 31
0.0
  0
LINE
  5
164F9
330
747D
100
AcDbEntity
  8
部品1
 48
0.01
100
AcDbLine
 10
6199.095742082201
 20
4848.057332550212
 30
0.0
 11
6023.095742082201
 21
4848.057332550212
 31
0.0
  0
LINE
  5
164FA
330
747D
100
AcDbEntity
  8
細線
100
AcDbLine
 10
6037.095742082201
 20
4835.557332550212
 30
0.0
 11
6111.095742082202
 21
4835.557332550212
 31
0.0
  0
LINE
  5
164FB
330
747D
100
AcDbEntity
  8
細線
100
AcDbLine
 10
6037.095742082201
 20
4829.557332550212
 30
0.0
 11
6111.095742082202
 21
4829.557332550212
 31
0.0
  0
LINE
  5
164FC
330
747D
100
AcDbEntity
  8
細線
100
AcDbLine
 10
6037.095742082201
 20
4823.557332550212
 30
0.0
 11
6111.095742082202
 21
4823.557332550212
 31
0.0
  0
LINE
  5
164FD
330
747D
100
AcDbEntity
  8
細線
100
AcDbLine
 10
6037.095742082201
 20
4835.557332550212
 30
0.0
 11
6106.095742082201
 21
4835.557332550212
 31
0.0
  0
LINE
  5
164FE
330
747D
100
AcDbEntity
  8
細線
100
AcDbLine
 10
6185.095742082201
 20
4835.557332550212
 30
0.0
 11
6111.095742082202
 21
4835.557332550212
 31
0.0
  0
LINE
  5
164FF
330
747D
100
AcDbEntity
  8
細線
100
AcDbLine
 10
6185.095742082201
 20
4823.557332550212
 30
0.0
 11
6111.095742082202
 21
4823.557332550212
 31
0.0
  0
LINE
  5
16500
330
747D
100
AcDbEntity
  8
細線
100
AcDbLine
 10
6185.095742082201
 20
4829.557332550212
 30
0.0
 11
6111.095742082202
 21
4829.557332550212
 31
0.0
  0
LINE
  5
16501
330
747D
100
AcDbEntity
  8
細線
100
AcDbLine
 10
6111.095742082202
 20
4841.557332550213
 30
0.0
 11
6111.095742082202
 21
4818.557332550212
 31
0.0
  0
LINE
  5
16502
330
747D
100
AcDbEntity
  8
細線
100
AcDbLine
 10
5291.095742082202
 20
4841.557332550213
 30
0.0
 11
5291.095742082202
 21
4818.557332550212
 31
0.0
  0
LINE
  5
16503
330
747D
100
AcDbEntity
  8
細線
100
AcDbLine
 10
5365.095742082202
 20
4829.557332550212
 30
0.0
 11
5291.095742082202
 21
4829.557332550212
 31
0.0
  0
LINE
  5
16504
330
747D
100
AcDbEntity
  8
細線
100
AcDbLine
 10
5365.095742082202
 20
4823.557332550212
 30
0.0
 11
5291.095742082202
 21
4823.557332550212
 31
0.0
  0
LINE
  5
16505
330
747D
100
AcDbEntity
  8
細線
100
AcDbLine
 10
5365.095742082202
 20
4835.557332550212
 30
0.0
 11
5291.095742082202
 21
4835.557332550212
 31
0.0
  0
LINE
  5
16506
330
747D
100
AcDbEntity
  8
細線
100
AcDbLine
 10
5217.095742082201
 20
4835.557332550212
 30
0.0
 11
5286.095742082202
 21
4835.557332550212
 31
0.0
  0
LINE
  5
16507
330
747D
100
AcDbEntity
  8
細線
100
AcDbLine
 10
5217.095742082201
 20
4823.557332550212
 30
0.0
 11
5291.095742082202
 21
4823.557332550212
 31
0.0
  0
LINE
  5
16508
330
747D
100
AcDbEntity
  8
細線
100
AcDbLine
 10
5217.095742082201
 20
4829.557332550212
 30
0.0
 11
5291.095742082202
 21
4829.557332550212
 31
0.0
  0
LINE
  5
16509
330
747D
100
AcDbEntity
  8
細線
100
AcDbLine
 10
5217.095742082201
 20
4835.557332550212
 30
0.0
 11
5291.095742082202
 21
4835.557332550212
 31
0.0
  0
LINE
  5
1650A
330
747D
100
AcDbEntity
  8
部品1
 48
0.01
100
AcDbLine
 10
5379.095742082202
 20
4848.057332550212
 30
0.0
 11
5203.095742082201
 21
4848.057332550212
 31
0.0
  0
LINE
  5
1650B
330
747D
100
AcDbEntity
  8
部品1
 48
0.01
100
AcDbLine
 10
5201.095742082202
 20
4846.057332550212
 30
0.0
 11
5201.095742082202
 21
4814.557332550212
 31
0.0
  0
LINE
  5
1650C
330
747D
100
AcDbEntity
  8
部品1
 48
0.01
100
AcDbLine
 10
5203.095742082201
 20
4812.557332550212
 30
0.0
 11
5379.095742082202
 21
4812.557332550212
 31
0.0
  0
LINE
  5
1650D
330
747D
100
AcDbEntity
  8
部品1
 48
0.01
100
AcDbLine
 10
5381.095742082202
 20
4814.557332550212
 30
0.0
 11
5381.095742082202
 21
4846.057332550212
 31
0.0
  0
LINE
  5
1650E
330
747D
100
AcDbEntity
  8
細線
100
AcDbLine
 10
5217.095742082201
 20
4841.557332550213
 30
0.0
 11
5217.095742082201
 21
4818.557332550212
 31
0.0
  0
LINE
  5
1650F
330
747D
100
AcDbEntity
  8
細線
100
AcDbLine
 10
5365.095742082202
 20
4818.557332550212
 30
0.0
 11
5365.095742082202
 21
4841.557332550213
 31
0.0
  0
LINE
  5
16510
330
747D
100
AcDbEntity
  8
細線
100
AcDbLine
 10
5365.095742082202
 20
4841.557332550213
 30
0.0
 11
5291.095742082202
 21
4841.557332550213
 31
0.0
  0
LINE
  5
16511
330
747D
100
AcDbEntity
  8
細線
100
AcDbLine
 10
5217.095742082201
 20
4818.557332550212
 30
0.0
 11
5291.095742082202
 21
4818.557332550212
 31
0.0
  0
LINE
  5
16512
330
747D
100
AcDbEntity
  8
細線
100
AcDbLine
 10
5291.095742082202
 20
4841.557332550213
 30
0.0
 11
5217.095742082201
 21
4841.557332550213
 31
0.0
  0
LINE
  5
16513
330
747D
100
AcDbEntity
  8
細線
100
AcDbLine
 10
5291.095742082202
 20
4818.557332550212
 30
0.0
 11
5365.095742082202
 21
4818.557332550212
 31
0.0
  0
ARC
  5
16514
330
747D
100
AcDbEntity
  8
部品1
 48
0.01
100
AcDbCircle
 10
5203.095742082201
 20
4846.057332550212
 30
0.0
 40
2.0
100
AcDbArc
 50
90.0
 51
180.0
  0
ARC
  5
16515
330
747D
100
AcDbEntity
  8
部品1
 48
0.01
100
AcDbCircle
 10
5203.095742082201
 20
4814.557332550212
 30
0.0
 40
2.0
100
AcDbArc
 50
180.0
 51
270.0
  0
ARC
  5
16516
330
747D
100
AcDbEntity
  8
部品1
 48
0.01
100
AcDbCircle
 10
5379.095742082202
 20
4846.057332550212
 30
0.0
 40
2.0
100
AcDbArc
 50
0.0
 51
90.0
  0
ARC
  5
16517
330
747D
100
AcDbEntity
  8
部品1
 48
0.01
100
AcDbCircle
 10
5379.095742082202
 20
4814.557332550212
 30
0.0
 40
2.0
100
AcDbArc
 50
270.0
 51
0.0
  0
ARC
  5
16518
330
747D
100
AcDbEntity
  8
部品1
 48
0.01
100
AcDbCircle
 10
7839.095742082204
 20
4814.557332550212
 30
0.0
 40
2.0
100
AcDbArc
 50
270.0
 51
0.0
  0
ARC
  5
16519
330
747D
100
AcDbEntity
  8
部品1
 48
0.01
100
AcDbCircle
 10
7839.095742082204
 20
4846.057332550211
 30
0.0
 40
2.0
100
AcDbArc
 50
0.0
 51
90.0
  0
ARC
  5
1651A
330
747D
100
AcDbEntity
  8
部品1
 48
0.01
100
AcDbCircle
 10
7663.095742082203
 20
4814.557332550212
 30
0.0
 40
2.0
100
AcDbArc
 50
180.0
 51
270.0
  0
ARC
  5
1651B
330
747D
100
AcDbEntity
  8
部品1
 48
0.01
100
AcDbCircle
 10
7663.095742082203
 20
4846.057332550211
 30
0.0
 40
2.0
100
AcDbArc
 50
90.0
 51
180.0
  0
LINE
  5
1651C
330
747D
100
AcDbEntity
  8
細線
100
AcDbLine
 10
7751.095742082203
 20
4818.557332550211
 30
0.0
 11
7825.095742082203
 21
4818.557332550211
 31
0.0
  0
LINE
  5
1651D
330
747D
100
AcDbEntity
  8
細線
100
AcDbLine
 10
7751.095742082203
 20
4841.557332550211
 30
0.0
 11
7677.095742082203
 21
4841.557332550211
 31
0.0
  0
LINE
  5
1651E
330
747D
100
AcDbEntity
  8
細線
100
AcDbLine
 10
7677.095742082203
 20
4818.557332550211
 30
0.0
 11
7751.095742082203
 21
4818.557332550211
 31
0.0
  0
LINE
  5
1651F
330
747D
100
AcDbEntity
  8
細線
100
AcDbLine
 10
7825.095742082203
 20
4841.557332550211
 30
0.0
 11
7751.095742082203
 21
4841.557332550211
 31
0.0
  0
LINE
  5
16520
330
747D
100
AcDbEntity
  8
細線
100
AcDbLine
 10
7825.095742082203
 20
4818.557332550211
 30
0.0
 11
7825.095742082203
 21
4841.557332550211
 31
0.0
  0
LINE
  5
16521
330
747D
100
AcDbEntity
  8
細線
100
AcDbLine
 10
7677.095742082203
 20
4841.557332550211
 30
0.0
 11
7677.095742082203
 21
4818.557332550211
 31
0.0
  0
LINE
  5
16522
330
747D
100
AcDbEntity
  8
部品1
 48
0.01
100
AcDbLine
 10
7841.095742082202
 20
4814.557332550212
 30
0.0
 11
7841.095742082202
 21
4846.057332550211
 31
0.0
  0
LINE
  5
16523
330
747D
100
AcDbEntity
  8
部品1
 48
0.01
100
AcDbLine
 10
7663.095742082203
 20
4812.557332550211
 30
0.0
 11
7839.095742082204
 21
4812.557332550211
 31
0.0
  0
LINE
  5
16524
330
747D
100
AcDbEntity
  8
部品1
 48
0.01
100
AcDbLine
 10
7661.095742082203
 20
4846.057332550211
 30
0.0
 11
7661.095742082203
 21
4814.557332550212
 31
0.0
  0
LINE
  5
16525
330
747D
100
AcDbEntity
  8
部品1
 48
0.01
100
AcDbLine
 10
7839.095742082204
 20
4848.057332550212
 30
0.0
 11
7663.095742082203
 21
4848.057332550212
 31
0.0
  0
LINE
  5
16526
330
747D
100
AcDbEntity
  8
細線
100
AcDbLine
 10
7677.095742082203
 20
4835.557332550211
 30
0.0
 11
7751.095742082203
 21
4835.557332550211
 31
0.0
  0
LINE
  5
16527
330
747D
100
AcDbEntity
  8
細線
100
AcDbLine
 10
7677.095742082203
 20
4829.557332550211
 30
0.0
 11
7751.095742082203
 21
4829.557332550211
 31
0.0
  0
LINE
  5
16528
330
747D
100
AcDbEntity
  8
細線
100
AcDbLine
 10
7677.095742082203
 20
4823.557332550211
 30
0.0
 11
7751.095742082203
 21
4823.557332550211
 31
0.0
  0
LINE
  5
16529
330
747D
100
AcDbEntity
  8
細線
100
AcDbLine
 10
7677.095742082203
 20
4835.557332550211
 30
0.0
 11
7746.095742082204
 21
4835.557332550211
 31
0.0
  0
LINE
  5
1652A
330
747D
100
AcDbEntity
  8
細線
100
AcDbLine
 10
7825.095742082203
 20
4835.557332550211
 30
0.0
 11
7751.095742082203
 21
4835.557332550211
 31
0.0
  0
LINE
  5
1652B
330
747D
100
AcDbEntity
  8
細線
100
AcDbLine
 10
7825.095742082203
 20
4823.557332550211
 30
0.0
 11
7751.095742082203
 21
4823.557332550211
 31
0.0
  0
LINE
  5
1652C
330
747D
100
AcDbEntity
  8
細線
100
AcDbLine
 10
7825.095742082203
 20
4829.557332550211
 30
0.0
 11
7751.095742082203
 21
4829.557332550211
 31
0.0
  0
LINE
  5
1652D
330
747D
100
AcDbEntity
  8
細線
100
AcDbLine
 10
7751.095742082203
 20
4841.557332550211
 30
0.0
 11
7751.095742082203
 21
4818.557332550211
 31
0.0
  0
LINE
  5
16CE6
330
747D
100
AcDbEntity
  8
部品1
100
AcDbLine
 10
10540.9652845978
 20
4782.057332550218
 30
0.0
 11
11917.96765464258
 21
4782.057332550217
 31
0.0
  0
LINE
  5
16CE7
330
747D
100
AcDbEntity
  8
部品1
100
AcDbLine
 10
10547.96765464257
 20
2992.057332550217
 30
0.0
 11
11917.96765464258
 21
2992.057332550219
 31
0.0
  0
LINE
  5
16CE8
330
747D
100
AcDbEntity
  8
部品1
100
AcDbLine
 10
10602.96765464257
 20
4782.057332550217
 30
0.0
 11
10602.96765464257
 21
2992.057332550217
 31
0.0
  0
LINE
  5
16CE9
330
747D
100
AcDbEntity
  8
部品1
100
AcDbLine
 10
10547.96765464258
 20
4873.63422649066
 30
0.0
 11
10547.96765464257
 21
2842.057332550218
 31
0.0
  0
DIMENSION
  5
16CEA
330
747D
100
AcDbEntity
  8
寸法
100
AcDbDimension
  2
*D25
 10
9643.695843002099
 20
5017.057332550224
 30
0.0
 11
9643.695843002097
 21
3917.264322970021
 31
0.0
 70
   160
 71
     5
 42
2075.000000000004
  3
INABA_S40G
100
AcDbAlignedDimension
 13
10547.96765464257
 23
2942.05733255022
 33
0.0
 14
10487.96765464258
 24
5017.057332550223
 34
0.0
 50
90.0
100
AcDbRotatedDimension
1001
ACAD
1000
DSTYLE
1002
{
1070
   174
1070
     0
1070
   272
1070
     1
1070
   288
1070
     0
1070
   341
1005
0
1002
}
  0
DIMENSION
  5
16CEB
330
747D
100
AcDbEntity
  8
寸法
100
AcDbDimension
  2
*D26
 10
9946.004563950374
 20
2942.05733255022
 30
0.0
 11
9946.004563950374
 21
2636.010088455729
 31
0.0
 70
   160
 71
     5
 42
50.00000000000182
  3
INABA_S40G
100
AcDbAlignedDimension
 13
10540.9652845978
 23
2992.057332550221
 33
0.0
 14
10492.96765464257
 24
2942.05733255022
 34
0.0
 50
90.0
100
AcDbRotatedDimension
1001
ACAD
1000
DSTYLE
1002
{
1070
   174
1070
     0
1070
   272
1070
     1
1070
   288
1070
     0
1070
   341
1005
0
1002
}
  0
LINE
  5
16CEC
330
747D
100
AcDbEntity
  8
部品1
100
AcDbLine
 10
11022.96765464257
 20
4782.057332550217
 30
0.0
 11
11022.96765464257
 21
2992.057332550217
 31
0.0
  0
LINE
  5
16CED
330
747D
100
AcDbEntity
  8
部品1
100
AcDbLine
 10
11917.96765464257
 20
4836.69391338547
 30
0.0
 11
11917.96765464258
 21
2842.057332550218
 31
0.0
  0
LINE
  5
16CEE
330
747D
100
AcDbEntity
  8
部品1
100
AcDbLine
 10
11862.96765464258
 20
4782.057332550217
 30
0.0
 11
11862.96765464258
 21
2992.057332550217
 31
0.0
  0
DIMENSION
  5
16CEF
330
747D
100
AcDbEntity
  8
寸法
100
AcDbDimension
  2
*D27
 10
12622.8948126147
 20
4962.057332550219
 30
0.0
 11
12522.88300159108
 21
3952.057332550221
 31
0.0
 70
    32
 71
     5
 42
2020.0
  3
INABA_S40G
100
AcDbAlignedDimension
 13
11917.96765464258
 23
2942.05733255022
 33
0.0
 14
11997.96765464258
 24
4962.057332550219
 34
0.0
 50
90.0
100
AcDbRotatedDimension
1001
ACAD
1000
DSTYLE
1002
{
1070
   174
1070
     0
1070
   272
1070
     1
1070
   288
1070
     0
1070
   341
1005
0
1002
}
  0
DIMENSION
  5
16CF0
330
747D
100
AcDbEntity
  8
寸法
 48
50.0
100
AcDbDimension
  2
*D28
 10
10547.96765464258
 20
5415.714786129521
 30
0.0
 11
11197.78668753312
 21
5415.714786129521
 31
0.0
 70
   160
  1
柱外寸法<>
 71
     5
 42
1370.0
  3
INABA_S40G
100
AcDbAlignedDimension
 13
11917.96765464258
 23
4963.868012161871
 33
0.0
 14
10547.96765464258
 24
5013.058950673194
 34
0.0
100
AcDbRotatedDimension
1001
ACAD
1000
DSTYLE
1002
{
1070
   174
1070
     0
1070
   272
1070
     1
1070
   288
1070
     0
1070
   341
1005
0
1002
}
  0
DIMENSION
  5
16CF1
330
747D
100
AcDbEntity
  8
寸法
 48
50.0
100
AcDbDimension
  2
*D29
 10
10487.96765464258
 20
5415.714786129521
 30
0.0
 11
10178.32985936699
 21
5415.714786129521
 31
0.0
 70
   160
 71
     5
 42
60.0
  3
INABA_S40G
100
AcDbAlignedDimension
 13
10547.96765464258
 23
5013.058950673194
 33
0.0
 14
10487.96765464258
 24
5017.057332550223
 34
0.0
100
AcDbRotatedDimension
1001
ACAD
1000
DSTYLE
1002
{
1070
   174
1070
     0
1070
   272
1070
     1
1070
   288
1070
     0
1070
   341
1005
0
1002
}
  0
DIMENSION
  5
16CF2
330
747D
100
AcDbEntity
  8
寸法
 48
50.0
100
AcDbDimension
  2
*D30
 10
10487.96765464258
 20
5623.889107321486
 30
0.0
 11
11215.0924843444
 21
5623.889107321486
 31
0.0
 70
   160
 71
     5
 42
1510.0
  3
INABA_S40G
100
AcDbAlignedDimension
 13
11997.96765464258
 23
4962.057332550219
 33
0.0
 14
10487.96765464258
 24
5017.057332550223
 34
0.0
100
AcDbRotatedDimension
1001
ACAD
1000
DSTYLE
1002
{
1070
   174
1070
     0
1070
   272
1070
     1
1070
   288
1070
     0
1070
   341
1005
0
1002
}
  0
LINE
  5
16CF3
330
747D
100
AcDbEntity
  8
部品1
100
AcDbLine
 10
10547.96765464257
 20
2942.05733255022
 30
0.0
 11
11917.96765464258
 21
2942.057332550218
 31
0.0
  0
TEXT
  5
16CF4
330
747D
100
AcDbEntity
  8
部品1
100
AcDbText
 10
10950.67842295196
 20
2046.087222514976
 30
0.0
 40
135.0
  1
側面図
  7
STYLE2
100
AcDbText
  0
LWPOLYLINE
  5
16CF5
330
747D
100
AcDbEntity
  8
部品1
100
AcDbPolyline
 90
        4
 70
     1
 43
0.0
 10
10861.23232152836
 20
2238.980751733501
 10
10861.23232152836
 20
1999.088430187969
 10
11624.70298775679
 20
1999.088430187969
 10
11624.70298775679
 20
2238.980751733501
  0
LINE
  5
16CF6
330
747D
100
AcDbEntity
  8
細線
 48
50.0
100
AcDbLine
 10
11100.46765464257
 20
4782.057332550217
 30
0.0
 11
11100.46765464257
 21
2992.057332550217
 31
0.0
  0
LINE
  5
16CF7
330
747D
100
AcDbEntity
  8
細線
 48
50.0
100
AcDbLine
 10
11085.46765464257
 20
4782.057332550217
 30
0.0
 11
11085.46765464257
 21
2992.057332550217
 31
0.0
  0
LINE
  5
16CF8
330
747D
100
AcDbEntity
  8
細線
 48
50.0
100
AcDbLine
 10
11225.46765464257
 20
4782.057332550217
 30
0.0
 11
11225.46765464257
 21
2992.057332550217
 31
0.0
  0
LINE
  5
16CF9
330
747D
100
AcDbEntity
  8
細線
 48
50.0
100
AcDbLine
 10
11240.46765464257
 20
4782.057332550217
 30
0.0
 11
11240.46765464257
 21
2992.057332550217
 31
0.0
  0
LINE
  5
16CFA
330
747D
100
AcDbEntity
  8
細線
 48
50.0
100
AcDbLine
 10
11380.46765464257
 20
4782.057332550217
 30
0.0
 11
11380.46765464257
 21
2992.057332550217
 31
0.0
  0
LINE
  5
16CFB
330
747D
100
AcDbEntity
  8
細線
 48
50.0
100
AcDbLine
 10
11365.46765464257
 20
4782.057332550217
 30
0.0
 11
11365.46765464257
 21
2992.057332550217
 31
0.0
  0
LINE
  5
16CFC
330
747D
100
AcDbEntity
  8
細線
 48
50.0
100
AcDbLine
 10
10945.46765464257
 20
4782.057332550217
 30
0.0
 11
10945.46765464257
 21
2992.057332550217
 31
0.0
  0
LINE
  5
16CFD
330
747D
100
AcDbEntity
  8
細線
 48
50.0
100
AcDbLine
 10
10960.46765464257
 20
4782.057332550217
 30
0.0
 11
10960.46765464257
 21
2992.057332550217
 31
0.0
  0
LINE
  5
16CFE
330
747D
100
AcDbEntity
  8
細線
 48
50.0
100
AcDbLine
 10
10820.46765464257
 20
4782.057332550217
 30
0.0
 11
10820.46765464257
 21
2992.057332550217
 31
0.0
  0
LINE
  5
16CFF
330
747D
100
AcDbEntity
  8
細線
 48
50.0
100
AcDbLine
 10
10805.46765464257
 20
4782.057332550217
 30
0.0
 11
10805.46765464257
 21
2992.057332550217
 31
0.0
  0
LINE
  5
16D00
330
747D
100
AcDbEntity
  8
細線
 48
50.0
100
AcDbLine
 10
10665.46765464257
 20
4782.057332550217
 30
0.0
 11
10665.46765464257
 21
2992.057332550217
 31
0.0
  0
LINE
  5
16D01
330
747D
100
AcDbEntity
  8
細線
 48
50.0
100
AcDbLine
 10
10680.46765464257
 20
4782.057332550217
 30
0.0
 11
10680.46765464257
 21
2992.057332550217
 31
0.0
  0
LINE
  5
16D02
330
747D
100
AcDbEntity
  8
部品1
100
AcDbLine
 10
10495.51264099954
 20
5015.775067884484
 30
0.0
 11
11990.57953150404
 21
4960.108173877783
 31
0.0
  0
LINE
  5
16D03
330
747D
100
AcDbEntity
  8
部品1
100
AcDbLine
 10
10503.31021924453
 20
4874.838357619185
 30
0.0
 11
11972.63135518242
 21
4835.219976003405
 31
0.0
  0
LINE
  5
16D04
330
747D
100
AcDbEntity
  8
細線
 48
50.0
100
AcDbLine
 10
10520.96765464258
 20
5014.457008925623
 30
0.0
 11
10515.67855308707
 21
4874.371376298268
 31
0.0
  0
LINE
  5
16D05
330
747D
100
AcDbEntity
  8
細線
 48
50.0
100
AcDbLine
 10
11964.96765464257
 20
4961.434355203939
 30
0.0
 11
11960.21997175457
 21
4835.688582713196
 31
0.0
  0
LINE
  5
16D06
330
747D
100
AcDbEntity
  8
部品1
 48
50.0
100
AcDbLine
 10
10488.15194055568
 20
5008.65087871491
 30
0.0
 11
10488.5322003335
 21
4988.7239142685
 31
0.0
  0
LINE
  5
16D07
330
747D
100
AcDbEntity
  8
部品1
 48
50.0
100
AcDbLine
 10
10491.60097243974
 20
4985.148632775026
 30
0.0
 11
10493.30487393111
 21
4895.85813606838
 31
0.0
  0
LINE
  5
16D08
330
747D
100
AcDbEntity
  8
細線
 48
50.0
100
AcDbLine
 10
10489.00707774339
 20
4988.074414391579
 30
0.0
 11
11994.64306248856
 21
4931.860253369177
 31
0.0
  0
LINE
  5
16D09
330
747D
100
AcDbEntity
  8
細線
 48
50.0
100
AcDbLine
 10
10493.76755298067
 20
4895.212902693717
 30
0.0
 11
11983.77121741131
 21
4854.813627337648
 31
0.0
  0
LINE
  5
16D0A
330
747D
100
AcDbEntity
  8
部品1
 48
50.0
100
AcDbLine
 10
10496.37364603734
 20
4892.282854574907
 30
0.0
 11
10496.57559865778
 21
4881.699819181815
 31
0.0
  0
ARC
  5
16D0B
330
747D
100
AcDbEntity
  8
部品1
 48
50.0
100
AcDbCircle
 10
10495.15066638402
 20
5008.784433122339
 30
0.0
 40
7.0
100
AcDbArc
 50
87.03587545283228
 51
181.0932240292632
  0
ARC
  5
16D0C
330
747D
100
AcDbEntity
  8
部品1
 48
50.0
100
AcDbCircle
 10
10503.57432448612
 20
4881.833373589243
 30
0.0
 40
7.0
100
AcDbArc
 50
181.0932240292632
 51
267.8377559869492
  0
ARC
  5
16D0D
330
747D
100
AcDbEntity
  8
部品1
100
AcDbCircle
 10
10493.37419211091
 20
4892.225616971724
 30
0.0
 40
3.0
100
AcDbArc
 50
1.093224029263163
 51
80.18775403148449
  0
ARC
  5
16D0E
330
747D
100
AcDbEntity
  8
部品1
100
AcDbCircle
 10
10488.60151851331
 20
4985.091395171843
 30
0.0
 40
3.0
100
AcDbArc
 50
1.093224029263163
 51
80.18775403169875
  0
ARC
  5
16D0F
330
747D
100
AcDbEntity
  8
部品1
100
AcDbCircle
 10
10489.23207291633
 20
4988.737269709242
 30
0.0
 40
0.7
100
AcDbArc
 50
181.093224029211
 51
260.1877540314845
  0
ARC
  5
16D10
330
747D
100
AcDbEntity
  8
部品1
100
AcDbCircle
 10
10494.00474651394
 20
4895.871491509122
 30
0.0
 40
0.7
100
AcDbArc
 50
181.093224029211
 51
260.1877540314845
  0
LINE
  5
16D11
330
747D
100
AcDbEntity
  8
部品1
 48
50.0
100
AcDbLine
 10
11997.18155745328
 20
4952.408528442862
 30
0.0
 11
11995.15093626231
 21
4932.463487185081
 31
0.0
  0
LINE
  5
16D12
330
747D
100
AcDbEntity
  8
部品1
 48
50.0
100
AcDbLine
 10
11991.79836977782
 20
4929.152853112173
 30
0.0
 11
11984.29159051299
 21
4855.420232367159
 31
0.0
  0
LINE
  5
16D13
330
747D
100
AcDbEntity
  8
部品1
 48
50.0
100
AcDbLine
 10
11980.9390240285
 20
4852.109598294248
 30
0.0
 11
11979.85946098876
 21
4841.505981300691
 31
0.0
  0
ARC
  5
16D14
330
747D
100
AcDbEntity
  8
部品1
 48
50.0
100
AcDbCircle
 10
11990.21755688852
 20
4953.117539115636
 30
0.0
 40
7.0
100
AcDbArc
 50
354.1866997664961
 51
87.03587545283228
  0
ARC
  5
16D15
330
747D
100
AcDbEntity
  8
部品1
 48
50.0
100
AcDbCircle
 10
11972.89546042401
 20
4842.214991973463
 30
0.0
 40
7.0
100
AcDbArc
 50
267.8377559869492
 51
354.1866997664961
  0
ARC
  5
16D16
330
747D
100
AcDbEntity
  8
部品1
100
AcDbCircle
 10
11983.92359569911
 20
4851.805736577346
 30
0.0
 40
3.0
100
AcDbArc
 50
95.09216976420788
 51
174.186699766496
  0
ARC
  5
16D17
330
747D
100
AcDbEntity
  8
部品1
100
AcDbCircle
 10
11994.78294144843
 20
4928.848991395269
 30
0.0
 40
3.0
100
AcDbArc
 50
95.09216976420788
 51
174.186699766496
  0
ARC
  5
16D18
330
747D
100
AcDbEntity
  8
部品1
100
AcDbCircle
 10
11994.45453620583
 20
4932.53438825236
 30
0.0
 40
0.7
100
AcDbArc
 50
275.0921697642079
 51
354.1866997664961
  0
ARC
  5
16D19
330
747D
100
AcDbEntity
  8
部品1
100
AcDbCircle
 10
11983.59519045651
 20
4855.491133434436
 30
0.0
 40
0.7
100
AcDbArc
 50
275.0921697642079
 51
354.1866997667054
  0
DIMENSION
  5
16D1A
330
747D
100
AcDbEntity
  8
寸法
 48
50.0
100
AcDbDimension
  2
*D31
 10
11997.96765464258
 20
5415.714786129521
 30
0.0
 11
12204.01489873707
 21
5415.714786129521
 31
0.0
 70
   160
 71
     5
 42
80.0
  3
INABA_S40G
100
AcDbAlignedDimension
 13
11917.96765464258
 23
4963.868012161871
 33
0.0
 14
11997.96765464258
 24
4962.057332550219
 34
0.0
100
AcDbRotatedDimension
1001
ACAD
1000
DSTYLE
1002
{
1070
   174
1070
     0
1070
   272
1070
     1
1070
   288
1070
     0
1070
   341
1005
0
1002
}
  0
DIMENSION
  5
16D1B
330
747D
100
AcDbEntity
  8
寸法
 48
50.0
100
AcDbDimension
  2
*D32
 10
9895.701402931198
 20
5038.879823447033
 30
0.0
 11
9904.379146583083
 21
5268.716062463925
 31
0.0
 70
   160
 71
     5
 42
141.0000000000009
  3
INABA_S40G
100
AcDbAlignedDimension
 13
10503.31021924453
 23
4874.838357619185
 33
0.0
 14
10508.63005339648
 24
5015.737965016068
 34
0.0
 50
87.83775598715743
100
AcDbRotatedDimension
1001
ACAD
1000
DSTYLE
1002
{
1070
   174
1070
     0
1070
   272
1070
     1
1070
   288
1070
     0
1070
   341
1005
0
1002
}
  0
LINE
  5
16D1C
330
747D
100
AcDbEntity
  8
部品1
 48
50.0
100
AcDbLine
 10
11092.96765464258
 20
5147.925471651497
 30
0.0
 11
11392.96765464258
 21
5147.925471651497
 31
0.0
  0
LINE
  5
16D1D
330
747D
100
AcDbEntity
  8
部品1
 48
50.0
100
AcDbLine
 10
11392.96765464258
 20
5147.925471651497
 30
0.0
 11
11392.96765464258
 21
5126.325471651498
 31
0.0
  0
TEXT
  5
16D1E
330
747D
100
AcDbEntity
  8
部品1
 48
50.0
100
AcDbText
 10
11081.2354898663
 20
5183.809493803931
 30
0.0
 40
120.0
  1
1000
  7
STYLE1
100
AcDbText
  0
TEXT
  5
16D1F
330
747D
100
AcDbEntity
  8
部品1
 48
50.0
100
AcDbText
 10
11570.06050193044
 20
5046.308235585648
 30
0.0
 40
120.0
  1
71
 50
90.0
  7
STYLE1
100
AcDbText
  0
LINE
  5
16D20
330
747D
100
AcDbEntity
  8
部品1
100
AcDbLine
 10
11442.96765464257
 20
4782.057332550217
 30
0.0
 11
11442.96765464257
 21
2992.057332550217
 31
0.0
  0
LINE
  5
16D21
330
747D
100
AcDbEntity
  8
細線
 48
50.0
100
AcDbLine
 10
11785.46765464258
 20
4782.057332550217
 30
0.0
 11
11785.46765464258
 21
2992.057332550217
 31
0.0
  0
LINE
  5
16D22
330
747D
100
AcDbEntity
  8
細線
 48
50.0
100
AcDbLine
 10
11800.46765464258
 20
4782.057332550217
 30
0.0
 11
11800.46765464258
 21
2992.057332550217
 31
0.0
  0
LINE
  5
16D23
330
747D
100
AcDbEntity
  8
細線
 48
50.0
100
AcDbLine
 10
11660.46765464258
 20
4782.057332550217
 30
0.0
 11
11660.46765464258
 21
2992.057332550217
 31
0.0
  0
LINE
  5
16D24
330
747D
100
AcDbEntity
  8
細線
 48
50.0
100
AcDbLine
 10
11645.46765464258
 20
4782.057332550217
 30
0.0
 11
11645.46765464258
 21
2992.057332550217
 31
0.0
  0
LINE
  5
16D25
330
747D
100
AcDbEntity
  8
細線
 48
50.0
100
AcDbLine
 10
11505.46765464258
 20
4782.057332550217
 30
0.0
 11
11505.46765464258
 21
2992.057332550217
 31
0.0
  0
LINE
  5
16D26
330
747D
100
AcDbEntity
  8
細線
 48
50.0
100
AcDbLine
 10
11520.46765464258
 20
4782.057332550217
 30
0.0
 11
11520.46765464258
 21
2992.057332550217
 31
0.0
  0
LINE
  5
16D27
330
747D
100
AcDbEntity
  8
部品1
 48
50.0
100
AcDbLine
 10
11092.96765464258
 20
5147.925471651497
 30
0.0
 11
11392.96765464258
 21
5126.325471651498
 31
0.0
  0
LINE
  5
16D28
330
747D
100
AcDbEntity
  8
部品1
 48
0.2
100
AcDbLine
 10
10540.9652845978
 20
4782.057332550217
 30
0.0
 11
10540.9652845978
 21
4771.307332550219
 31
0.0
  0
LINE
  5
16D29
330
747D
100
AcDbEntity
  8
部品1
 48
50.0
100
AcDbLine
 10
10540.9652845978
 20
4771.307332550217
 30
0.0
 11
10547.96765464257
 21
4771.307332550217
 31
0.0
  0
LINE
  5
16D2A
330
747D
100
AcDbEntity
  8
部品1
 48
50.0
100
AcDbLine
 10
10540.9652845978
 20
3002.807332550221
 30
0.0
 11
10547.96765464257
 21
3002.807332550221
 31
0.0
  0
LINE
  5
16D2B
330
747D
100
AcDbEntity
  8
部品1
 48
0.2
100
AcDbLine
 10
10540.9652845978
 20
3002.807332550221
 30
0.0
 11
10540.9652845978
 21
2992.057332550221
 31
0.0
  0
LINE
  5
16D2C
330
747D
100
AcDbEntity
  8
部品1
 48
50.0
100
AcDbLine
 10
10540.9652845978
 20
2992.057332550221
 30
0.0
 11
10547.96765464257
 21
2992.057332550221
 31
0.0
  0
DIMENSION
  5
16D2D
330
747D
100
AcDbEntity
  8
寸法
100
AcDbDimension
  2
*D33
 10
9946.004563950374
 20
2992.057332550221
 30
0.0
 11
9946.004563950374
 21
3897.092344426607
 31
0.0
 70
   160
 71
     5
 42
1789.999999999998
  3
INABA_S40G
100
AcDbAlignedDimension
 13
10540.9652845978
 23
4782.057332550218
 33
0.0
 14
10540.9652845978
 24
2992.057332550221
 34
0.0
 50
90.0
100
AcDbRotatedDimension
1001
ACAD
1000
DSTYLE
1002
{
1070
   288
1070
     1
1002
}
  0
TEXT
  5
1713A
330
747D
100
AcDbEntity
  8
文字
 62
     7
 48
50.0
100
AcDbText
 10
14260.68475616112
 20
855.469579666289
 30
0.0
 40
100.0
  1
～一般型・多雪地型・豪雪地型～
  7
STYLE2
100
AcDbText
  0
LINE
  5
17170
330
747D
100
AcDbEntity
  8
破線
 48
10.0
100
AcDbLine
 10
4937.596355270009
 20
8476.345999989273
 30
0.0
 11
5645.595739707293
 21
8476.345970764823
 31
0.0
  0
LINE
  5
17171
330
747D
100
AcDbEntity
  8
破線
 48
10.0
100
AcDbLine
 10
4937.596355270009
 20
8426.345999989273
 30
0.0
 11
5645.595739707293
 21
8426.345970764822
 31
0.0
  0
LINE
  5
17172
330
747D
100
AcDbEntity
  8
破線
 48
10.0
100
AcDbLine
 10
5757.59635527001
 20
8476.345999989273
 30
0.0
 11
6465.595739707294
 21
8476.345970764823
 31
0.0
  0
LINE
  5
17173
330
747D
100
AcDbEntity
  8
破線
 48
10.0
100
AcDbLine
 10
5757.59635527001
 20
8426.345999989273
 30
0.0
 11
6465.595739707294
 21
8426.345970764822
 31
0.0
  0
DIMENSION
  5
17174
330
747D
100
AcDbEntity
  8
寸法
100
AcDbDimension
  2
*D34
 10
6393.660318926261
 20
8253.845970764762
 30
0.0
 11
6013.160318926253
 21
8253.845970764762
 31
0.0
 70
   160
 71
     5
 42
761.0000000000127
  3
INABA_S40G
100
AcDbAlignedDimension
 13
5730.595748759832
 23
8619.345970764801
 33
0.0
 14
6491.595748759845
 24
8619.345970764793
 34
0.0
100
AcDbRotatedDimension
1001
ACAD
1000
DSTYLE
1002
{
1002
}
  0
DIMENSION
  5
17175
330
747D
100
AcDbEntity
  8
寸法
100
AcDbDimension
  2
*D35
 10
5573.660318926261
 20
8253.845970764762
 30
0.0
 11
5193.102603733713
 21
8253.845970764762
 31
0.0
 70
   160
 71
     5
 42
761.0000000000127
  3
INABA_S40G
100
AcDbAlignedDimension
 13
4910.595748759831
 23
8619.345970764801
 33
0.0
 14
5671.595748759845
 24
8619.345970764793
 34
0.0
100
AcDbRotatedDimension
1001
ACAD
1000
DSTYLE
1002
{
1002
}
  0
DIMENSION
  5
171A0
330
747D
100
AcDbEntity
  8
寸法
100
AcDbDimension
  2
*D36
 10
8032.660318926261
 20
8253.84599846645
 30
0.0
 11
7652.160318926253
 21
8253.84599846645
 31
0.0
 70
   160
 71
     5
 42
761.0000000000127
  3
INABA_S40G
100
AcDbAlignedDimension
 13
7369.595748759832
 23
8619.345998466485
 33
0.0
 14
8130.595748759844
 24
8619.345998466478
 34
0.0
100
AcDbRotatedDimension
1001
ACAD
1000
DSTYLE
1002
{
1002
}
  0
LINE
  5
171A1
330
747D
100
AcDbEntity
  8
破線
 48
10.0
100
AcDbLine
 10
7396.59635527001
 20
8426.346027690959
 30
0.0
 11
8104.595739707294
 21
8426.345998466507
 31
0.0
  0
LINE
  5
171A2
330
747D
100
AcDbEntity
  8
破線
 48
10.0
100
AcDbLine
 10
7396.59635527001
 20
8476.34602769096
 30
0.0
 11
8104.595739707294
 21
8476.345998466507
 31
0.0
  0
DIMENSION
  5
171A3
330
747D
100
AcDbEntity
  8
寸法
100
AcDbDimension
  2
*D37
 10
7212.660318926261
 20
8253.84599846645
 30
0.0
 11
6832.102603733712
 21
8253.84599846645
 31
0.0
 70
   160
 71
     5
 42
761.0000000000127
  3
INABA_S40G
100
AcDbAlignedDimension
 13
6549.595748759831
 23
8619.345998466485
 33
0.0
 14
7310.595748759844
 24
8619.345998466478
 34
0.0
100
AcDbRotatedDimension
1001
ACAD
1000
DSTYLE
1002
{
1002
}
  0
LINE
  5
171A4
330
747D
100
AcDbEntity
  8
破線
 48
10.0
100
AcDbLine
 10
6576.59635527001
 20
8426.346027690959
 30
0.0
 11
7284.595739707294
 21
8426.345998466507
 31
0.0
  0
LINE
  5
171A5
330
747D
100
AcDbEntity
  8
破線
 48
10.0
100
AcDbLine
 10
6576.59635527001
 20
8476.34602769096
 30
0.0
 11
7284.595739707294
 21
8476.345998466507
 31
0.0
  0
LINE
  5
171D0
330
747D
100
AcDbEntity
  8
破線
 48
10.0
100
AcDbLine
 10
4961.095789970237
 20
8426.345999019273
 30
0.0
 11
4961.095742082187
 21
7883.845970764804
 31
0.0
  0
LINE
  5
171D1
330
747D
100
AcDbEntity
  8
破線
 48
10.0
100
AcDbLine
 10
5622.095735351973
 20
8476.345971734843
 30
0.0
 11
5622.095733727634
 21
8619.345970764898
 31
0.0
  0
LINE
  5
171D2
330
747D
100
AcDbEntity
  8
破線
 48
10.0
100
AcDbLine
 10
5780.095732068002
 20
8476.345965212997
 30
0.0
 11
5780.095729651077
 21
8619.34597076484
 31
0.0
  0
LINE
  5
171D3
330
747D
100
AcDbEntity
  8
破線
 48
10.0
100
AcDbLine
 10
6442.095735351973
 20
8476.345937887286
 30
0.0
 11
6442.095733727635
 21
8619.345970764898
 31
0.0
  0
LINE
  5
171D4
330
747D
100
AcDbEntity
  8
破線
 48
10.0
100
AcDbLine
 10
6600.095732068004
 20
8476.345931365438
 30
0.0
 11
6600.095729651077
 21
8619.34597076484
 31
0.0
  0
LINE
  5
171D5
330
747D
100
AcDbEntity
  8
破線
 48
10.0
100
AcDbLine
 10
7262.095735351973
 20
8476.345904039728
 30
0.0
 11
7262.095733727633
 21
8619.345970764898
 31
0.0
  0
LINE
  5
171D6
330
747D
100
AcDbEntity
  8
破線
 48
10.0
100
AcDbLine
 10
7420.095732068003
 20
8476.34589751788
 30
0.0
 11
7420.095729651077
 21
8619.34597076484
 31
0.0
  0
LINE
  5
171D7
330
747D
100
AcDbEntity
  8
破線
 48
10.0
100
AcDbLine
 10
8081.0957899702
 20
8426.345870233445
 30
0.0
 11
8081.095742082183
 21
7883.845970764884
 31
0.0
  0
TEXT
  5
1722E
330
747D
100
AcDbEntity
  8
文字
 62
     7
 48
50.0
100
AcDbText
 10
15022.63965474517
 20
10930.01374588372
 30
0.0
 40
100.0
  1
F12            1.2
  7
STYLE1
100
AcDbText
  0
TEXT
  5
1722F
330
747D
100
AcDbEntity
  8
文字
 62
     7
 48
50.0
100
AcDbText
 10
13583.11819016569
 20
10930.01374588373
 30
0.0
 40
100.0
  1
根太
  7
STYLE1
100
AcDbText
  0
TEXT
  5
17230
330
747D
100
AcDbEntity
  8
文字
 62
     7
 48
50.0
100
AcDbText
 10
13248.77747366447
 20
8720.013745883735
 30
0.0
 40
100.0
  1
15
  7
STYLE1
100
AcDbText
  0
LINE
  5
17231
330
747D
100
AcDbEntity
  8
仕様書枠
 48
50.0
100
AcDbLine
 10
16307.2
 20
10899.6
 30
0.0
 11
13127.2
 21
10899.6
 31
0.0
  0
TEXT
  5
17232
330
747D
100
AcDbEntity
  8
文字
 62
     7
 48
50.0
100
AcDbText
 10
13583.1181901657
 20
9740.013745883729
 30
0.0
 40
100.0
  1
梁中央
 41
0.9
  7
STYLE1
100
AcDbText
  0
TEXT
  5
17233
330
747D
100
AcDbEntity
  8
文字
 62
     7
 48
50.0
100
AcDbText
 10
15022.63965474517
 20
9740.013745883729
 30
0.0
 40
100.0
  1
F12,Y10       0.7+1.0
  7
STYLE1
100
AcDbText
  0
TEXT
  5
17234
330
747D
100
AcDbEntity
  8
文字
 62
     7
 48
50.0
100
AcDbText
 10
13583.11819016568
 20
8720.013745883729
 30
0.0
 40
100.0
  1
アンカープレート
  7
STYLE1
100
AcDbText
  0
TEXT
  5
17235
330
747D
100
AcDbEntity
  8
文字
 62
     7
 48
50.0
100
AcDbText
 10
15022.63965474514
 20
8720.013745883722
 30
0.0
 40
100.0
  1
F12            2.3
  7
STYLE1
100
AcDbText
  0
LINE
  5
17236
330
747D
100
AcDbEntity
  8
仕様書枠
 48
50.0
100
AcDbLine
 10
16307.2
 20
9879.600000000001
 30
0.0
 11
13127.2
 21
9879.600000000001
 31
0.0
  0
LINE
  5
17238
330
747D
100
AcDbEntity
  8
仕様書枠
 48
50.0
100
AcDbLine
 10
16307.2
 20
8349.600000000007
 30
0.0
 11
16307.2
 21
11409.6
 31
0.0
  0
LINE
  5
17239
330
747D
100
AcDbEntity
  8
仕様書枠
 48
50.0
100
AcDbLine
 10
14785.2
 20
11409.59999999999
 30
0.0
 11
14785.19999999999
 21
8689.6
 31
0.0
  0
LINE
  5
1723A
330
747D
100
AcDbEntity
  8
仕様書枠
 48
50.0
100
AcDbLine
 10
13490.2
 20
11409.6
 30
0.0
 11
13490.20000000001
 21
8689.600000000003
 31
0.0
  0
LINE
  5
1723B
330
747D
100
AcDbEntity
  8
仕様書枠
 48
50.0
100
AcDbLine
 10
16307.2
 20
11239.6
 30
0.0
 11
13127.2
 21
11239.6
 31
0.0
  0
LINE
  5
1723C
330
747D
100
AcDbEntity
  8
仕様書枠
 48
50.0
100
AcDbLine
 10
16307.2
 20
10729.6
 30
0.0
 11
13127.2
 21
10729.6
 31
0.0
  0
LINE
  5
1723D
330
747D
100
AcDbEntity
  8
仕様書枠
 48
50.0
100
AcDbLine
 10
16307.2
 20
11069.6
 30
0.0
 11
13127.2
 21
11069.6
 31
0.0
  0
LINE
  5
1723E
330
747D
100
AcDbEntity
  8
仕様書枠
 48
50.0
100
AcDbLine
 10
16307.2
 20
10389.6
 30
0.0
 11
13127.2
 21
10389.6
 31
0.0
  0
LINE
  5
1723F
330
747D
100
AcDbEntity
  8
仕様書枠
 48
50.0
100
AcDbLine
 10
16307.2
 20
10219.6
 30
0.0
 11
13127.2
 21
10219.6
 31
0.0
  0
LINE
  5
17240
330
747D
100
AcDbEntity
  8
仕様書枠
 48
50.0
100
AcDbLine
 10
16307.2
 20
10559.6
 30
0.0
 11
13127.2
 21
10559.6
 31
0.0
  0
TEXT
  5
17241
330
747D
100
AcDbEntity
  8
文字
 62
     7
 48
50.0
100
AcDbText
 10
13197.42518560407
 20
11270.01374588373
 30
0.0
 40
100.0
  1
品番
  7
STYLE1
100
AcDbText
  0
TEXT
  5
17242
330
747D
100
AcDbEntity
  8
文字
 62
     7
 48
50.0
100
AcDbText
 10
13271.19032244792
 20
11100.01374588373
 30
0.0
 40
100.0
  1
1
  7
STYLE1
100
AcDbText
  0
TEXT
  5
17243
330
747D
100
AcDbEntity
  8
文字
 62
     7
 48
50.0
100
AcDbText
 10
13271.19032244792
 20
10930.01374588373
 30
0.0
 40
100.0
  1
2
  7
STYLE1
100
AcDbText
  0
TEXT
  5
17244
330
747D
100
AcDbEntity
  8
文字
 62
     7
 48
50.0
100
AcDbText
 10
13271.19032244793
 20
10590.01374588373
 30
0.0
 40
100.0
  1
4
  7
STYLE1
100
AcDbText
  0
TEXT
  5
17245
330
747D
100
AcDbEntity
  8
文字
 62
     7
 48
50.0
100
AcDbText
 10
13271.19032244793
 20
10760.01374588373
 30
0.0
 40
100.0
  1
3
  7
STYLE1
100
AcDbText
  0
TEXT
  5
17246
330
747D
100
AcDbEntity
  8
文字
 62
     7
 48
50.0
100
AcDbText
 10
13732.03840939435
 20
11270.01374588373
 30
0.0
 40
100.0
  1
部　　品　　名
  7
STYLE1
100
AcDbText
  0
TEXT
  5
17247
330
747D
100
AcDbEntity
  8
文字
 62
     7
 48
50.0
100
AcDbText
 10
14859.79774614482
 20
11270.01374588373
 30
0.0
 40
100.0
  1
材料（材質）　　単位mm
  7
STYLE1
100
AcDbText
  0
TEXT
  5
17248
330
747D
100
AcDbEntity
  8
文字
 62
     7
 48
50.0
100
AcDbText
 10
13583.11819016569
 20
11100.01374588373
 30
0.0
 40
100.0
  1
土台枠
  7
STYLE1
100
AcDbText
  0
TEXT
  5
17249
330
747D
100
AcDbEntity
  8
文字
 62
     7
 48
50.0
100
AcDbText
 10
13583.1181901657
 20
10760.01374588373
 30
0.0
 40
100.0
  1
柱
  7
STYLE1
100
AcDbText
  0
TEXT
  5
1724A
330
747D
100
AcDbEntity
  8
文字
 62
     7
 48
50.0
100
AcDbText
 10
13583.1181901657
 20
10420.01374588373
 30
0.0
 40
100.0
  1
鴨居
  7
STYLE1
100
AcDbText
  0
TEXT
  5
1724B
330
747D
100
AcDbEntity
  8
文字
 62
     7
 48
50.0
100
AcDbText
 10
13583.1181901657
 20
10250.01374588373
 30
0.0
 40
100.0
  1
桁後
  7
STYLE1
100
AcDbText
  0
TEXT
  5
1724C
330
747D
100
AcDbEntity
  8
文字
 62
     7
 48
50.0
100
AcDbText
 10
13271.19032244793
 20
10420.01374588373
 30
0.0
 40
100.0
  1
5
  7
STYLE1
100
AcDbText
  0
TEXT
  5
1724D
330
747D
100
AcDbEntity
  8
文字
 62
     7
 48
50.0
100
AcDbText
 10
13583.1181901657
 20
10080.01374588373
 30
0.0
 40
100.0
  1
妻板左右
  7
STYLE1
100
AcDbText
  0
TEXT
  5
1724E
330
747D
100
AcDbEntity
  8
文字
 62
     7
 48
50.0
100
AcDbText
 10
13248.77747366447
 20
9570.013745883729
 30
0.0
 40
100.0
  1
10
  7
STYLE1
100
AcDbText
  0
TEXT
  5
1724F
330
747D
100
AcDbEntity
  8
文字
 62
     7
 48
50.0
100
AcDbText
 10
13583.11819016568
 20
9230.013745883729
 30
0.0
 40
100.0
  1
壁パネル
  7
STYLE1
100
AcDbText
  0
TEXT
  5
17250
330
747D
100
AcDbEntity
  8
文字
 62
     7
 48
50.0
100
AcDbText
 10
13583.11819016569
 20
9400.013745883729
 30
0.0
 40
100.0
  1
屋根パネル
  7
STYLE1
100
AcDbText
  0
TEXT
  5
17251
330
747D
100
AcDbEntity
  8
文字
 62
     7
 48
50.0
100
AcDbText
 10
13583.1181901657
 20
9910.01374588373
 30
0.0
 40
100.0
  1
鼻隠シ前後
  7
STYLE1
100
AcDbText
  0
TEXT
  5
17252
330
747D
100
AcDbEntity
  8
文字
 62
     7
 48
50.0
100
AcDbText
 10
13271.19032244793
 20
9910.01374588373
 30
0.0
 40
100.0
  1
8
  7
STYLE1
100
AcDbText
  0
TEXT
  5
17253
330
747D
100
AcDbEntity
  8
文字
 62
     7
 48
50.0
100
AcDbText
 10
13271.19032244792
 20
9740.013745883729
 30
0.0
 40
100.0
  1
9
  7
STYLE1
100
AcDbText
  0
TEXT
  5
17254
330
747D
100
AcDbEntity
  8
文字
 62
     7
 48
50.0
100
AcDbText
 10
13271.19032244793
 20
10080.01374588373
 30
0.0
 40
100.0
  1
7
  7
STYLE1
100
AcDbText
  0
TEXT
  5
17255
330
747D
100
AcDbEntity
  8
文字
 62
     7
 48
50.0
100
AcDbText
 10
13271.19032244793
 20
10250.01374588373
 30
0.0
 40
100.0
  1
6
  7
STYLE1
100
AcDbText
  0
LINE
  5
17256
330
747D
100
AcDbEntity
  8
仕様書枠
 48
50.0
100
AcDbLine
 10
16307.19999999999
 20
9369.600000000001
 30
0.0
 11
13127.19999999999
 21
9369.600000000001
 31
0.0
  0
LINE
  5
17257
330
747D
100
AcDbEntity
  8
仕様書枠
 48
50.0
100
AcDbLine
 10
16307.19999999999
 20
9029.6
 30
0.0
 11
13127.19999999999
 21
9029.6
 31
0.0
  0
LINE
  5
17258
330
747D
100
AcDbEntity
  8
仕様書枠
 48
50.0
100
AcDbLine
 10
16307.19999999999
 20
9199.600000000001
 30
0.0
 11
13127.19999999999
 21
9199.600000000001
 31
0.0
  0
LINE
  5
17259
330
747D
100
AcDbEntity
  8
仕様書枠
 48
50.0
100
AcDbLine
 10
16307.2
 20
10049.6
 30
0.0
 11
13127.2
 21
10049.6
 31
0.0
  0
LINE
  5
1725A
330
747D
100
AcDbEntity
  8
仕様書枠
 48
50.0
100
AcDbLine
 10
16307.2
 20
9709.600000000001
 30
0.0
 11
13127.2
 21
9709.600000000001
 31
0.0
  0
TEXT
  5
1725B
330
747D
100
AcDbEntity
  8
文字
 62
     7
 48
50.0
100
AcDbText
 10
13248.77747366447
 20
9400.013745883729
 30
0.0
 40
100.0
  1
11
  7
STYLE1
100
AcDbText
  0
LINE
  5
1725C
330
747D
100
AcDbEntity
  8
仕様書枠
 48
50.0
100
AcDbLine
 10
16307.19999999999
 20
8859.6
 30
0.0
 11
13127.19999999999
 21
8859.6
 31
0.0
  0
LINE
  5
1725D
330
747D
100
AcDbEntity
  8
仕様書枠
 48
50.0
100
AcDbLine
 10
16307.19999999999
 20
8519.600000000002
 30
0.0
 11
13127.19999999999
 21
8519.600000000004
 31
0.0
  0
TEXT
  5
1725E
330
747D
100
AcDbEntity
  8
文字
 62
     7
 48
50.0
100
AcDbText
 10
13248.77747366447
 20
9060.013745883729
 30
0.0
 40
100.0
  1
13
  7
STYLE1
100
AcDbText
  0
TEXT
  5
1725F
330
747D
100
AcDbEntity
  8
文字
 62
     7
 48
50.0
100
AcDbText
 10
13248.77747366447
 20
9230.013745883729
 30
0.0
 40
100.0
  1
12
  7
STYLE1
100
AcDbText
  0
TEXT
  5
17260
330
747D
100
AcDbEntity
  8
文字
 62
     7
 48
50.0
100
AcDbText
 10
15022.63965474517
 20
11100.01374588372
 30
0.0
 40
100.0
  1
F12            1.2
  7
STYLE1
100
AcDbText
  0
TEXT
  5
17261
330
747D
100
AcDbEntity
  8
文字
 62
     7
 48
50.0
100
AcDbText
 10
15022.63965474518
 20
10760.01374588372
 30
0.0
 40
100.0
  1
F12            1.0
  7
STYLE1
100
AcDbText
  0
TEXT
  5
17262
330
747D
100
AcDbEntity
  8
文字
 62
     7
 48
50.0
100
AcDbText
 10
15022.63965474518
 20
10420.01374588372
 30
0.0
 40
100.0
  1
Y10            1.0
  7
STYLE1
100
AcDbText
  0
TEXT
  5
17263
330
747D
100
AcDbEntity
  8
文字
 62
     7
 48
50.0
100
AcDbText
 10
15022.63965474517
 20
10250.01374588372
 30
0.0
 40
100.0
  1
Y10            1.0
  7
STYLE1
100
AcDbText
  0
TEXT
  5
17264
330
747D
100
AcDbEntity
  8
文字
 62
     7
 48
50.0
100
AcDbText
 10
15022.63965474518
 20
10080.01374588372
 30
0.0
 40
100.0
  1
Y10            0.7
  7
STYLE1
100
AcDbText
  0
TEXT
  5
17265
330
747D
100
AcDbEntity
  8
文字
 62
     7
 48
50.0
100
AcDbText
 10
15022.63965474517
 20
9910.013745883725
 30
0.0
 40
100.0
  1
Y10            0.7
  7
STYLE1
100
AcDbText
  0
TEXT
  5
17266
330
747D
100
AcDbEntity
  8
文字
 62
     7
 48
50.0
100
AcDbText
 10
15022.63965474517
 20
9400.013745883725
 30
0.0
 40
100.0
  1
Y10            0.5
  7
STYLE1
100
AcDbText
  0
TEXT
  5
17267
330
747D
100
AcDbEntity
  8
文字
 62
     7
 48
50.0
100
AcDbText
 10
15022.63965474515
 20
9230.013745883725
 30
0.0
 40
100.0
  1
F12            0.6
  7
STYLE1
100
AcDbText
  0
LINE
  5
17268
330
747D
100
AcDbEntity
  8
仕様書枠
 48
50.0
100
AcDbLine
 10
16307.19999999998
 20
8349.600000000004
 30
0.0
 11
13127.19999999999
 21
8349.600000000004
 31
0.0
  0
TEXT
  5
17269
330
747D
100
AcDbEntity
  8
文字
 62
     7
 48
50.0
100
AcDbText
 10
13229.83081656554
 20
8550.013745883729
 30
0.0
 40
100.0
  1
F12→溶融亜鉛めっき鋼板(JIS G 3302)
  7
STYLE1
100
AcDbText
  0
TEXT
  5
1726A
330
747D
100
AcDbEntity
  8
文字
 62
     7
 48
50.0
100
AcDbText
 10
13229.83081656554
 20
8380.013745883728
 30
0.0
 40
100.0
  1
Y10→溶融亜鉛-5％アルミニウム合金めっき鋼板(JIS G 3317)
 41
0.9
  7
STYLE1
100
AcDbText
  0
LINE
  5
1726B
330
747D
100
AcDbEntity
  8
仕様書枠
 48
50.0
100
AcDbLine
 10
13127.2
 20
11409.6
 30
0.0
 11
13127.19999999999
 21
8349.600000000004
 31
0.0
  0
LINE
  5
1726C
330
747D
100
AcDbEntity
  8
仕様書枠
 48
50.0
100
AcDbLine
 10
16307.19999999999
 20
8689.6
 30
0.0
 11
13127.19999999999
 21
8689.600000000003
 31
0.0
  0
TEXT
  5
1726D
330
747D
100
AcDbEntity
  8
文字
 62
     7
 48
50.0
100
AcDbText
 10
13583.11819016571
 20
10590.01374588373
 30
0.0
 40
100.0
  1
床パネル
 41
0.9
  7
STYLE1
100
AcDbText
  0
TEXT
  5
1726E
330
747D
100
AcDbEntity
  8
文字
 62
     7
 48
50.0
100
AcDbText
 10
15022.63965474518
 20
10590.01374588372
 30
0.0
 40
100.0
  1
F12            1.0
  7
STYLE1
100
AcDbText
  0
TEXT
  5
1726F
330
747D
100
AcDbEntity
  8
文字
 62
     7
 48
50.0
100
AcDbText
 10
15022.63965474515
 20
9060.013745883725
 30
0.0
 40
100.0
  1
F12            0.8
  7
STYLE1
100
AcDbText
  0
TEXT
  5
17270
330
747D
100
AcDbEntity
  8
文字
 62
     7
 48
50.0
100
AcDbText
 10
13583.11819016568
 20
9060.013745883729
 30
0.0
 40
100.0
  1
扉
  7
STYLE1
100
AcDbText
  0
TEXT
  5
17271
330
747D
100
AcDbEntity
  8
文字
 62
     7
 48
50.0
100
AcDbText
 10
15022.63965474515
 20
8890.013745883729
 30
0.0
 40
100.0
  1
F12            0.6
  7
STYLE1
100
AcDbText
  0
TEXT
  5
17272
330
747D
100
AcDbEntity
  8
文字
 62
     7
 48
50.0
100
AcDbText
 10
13583.11819016568
 20
8890.013745883733
 30
0.0
 40
100.0
  1
棚板
  7
STYLE1
100
AcDbText
  0
LINE
  5
17273
330
747D
100
AcDbEntity
  8
仕様書枠
 48
50.0
100
AcDbLine
 10
16307.2
 20
9539.6
 30
0.0
 11
13127.2
 21
9539.6
 31
0.0
  0
TEXT
  5
17274
330
747D
100
AcDbEntity
  8
文字
 62
     7
 48
50.0
100
AcDbText
 10
13248.77747366447
 20
8890.013745883731
 30
0.0
 40
100.0
  1
14
  7
STYLE1
100
AcDbText
  0
TEXT
  5
17275
330
747D
100
AcDbEntity
  8
文字
 62
     7
 48
50.0
100
AcDbText
 10
15022.63965474518
 20
9570.013745883725
 30
0.0
 40
100.0
  1
F12            1.0
  7
STYLE1
100
AcDbText
  0
TEXT
  5
17276
330
747D
100
AcDbEntity
  8
文字
 62
     7
 48
50.0
100
AcDbText
 10
13583.1181901657
 20
9570.013745883729
 30
0.0
 40
100.0
  1
母屋中
  7
STYLE1
100
AcDbText
  0
ENDSEC
  0
SECTION
  2
OBJECTS
  0
DICTIONARY
  5
7471
330
0
100
AcDbDictionary
281
     1
  3
ACAD_COLOR
350
1590C
  3
ACAD_GROUP
350
7472
  3
ACAD_LAYOUT
350
1590D
  3
ACAD_MATERIAL
350
1590B
  3
ACAD_MLINESTYLE
350
7473
  3
ACAD_PLOTSETTINGS
350
1590E
  3
ACAD_PLOTSTYLENAME
350
15909
  3
ACDBHEADERROUNDTRIPXREC
350
17285
  3
AcDbVariableDictionary
350
17281
  3
CONTENTDICTIONARY
350
E71C
  3
DRAWINGVARIABLESDICT
350
F3B9
  0
DICTIONARY
  5
15AAE
330
7467
100
AcDbDictionary
280
     1
281
     1
  3
ACAD_LAYERSTATES
360
15AAF
  0
DICTIONARY
  5
1590C
102
{ACAD_REACTORS
330
7471
102
}
330
7471
100
AcDbDictionary
281
     1
  0
DICTIONARY
  5
7472
102
{ACAD_REACTORS
330
7471
102
}
330
7471
100
AcDbDictionary
281
     1
  0
DICTIONARY
  5
1590D
102
{ACAD_REACTORS
330
7471
102
}
330
7471
100
AcDbDictionary
281
     1
  3
Model
350
1590F
  3
レイアウト1
350
15910
  0
DICTIONARY
  5
1590B
102
{ACAD_REACTORS
330
7471
102
}
330
7471
100
AcDbDictionary
281
     1
  0
DICTIONARY
  5
7473
102
{ACAD_REACTORS
330
7471
102
}
330
7471
100
AcDbDictionary
281
     1
  3
STANDARD
350
7480
  0
DICTIONARY
  5
1590E
102
{ACAD_REACTORS
330
7471
102
}
330
7471
100
AcDbDictionary
281
     1
  0
ACDBDICTIONARYWDFLT
  5
15909
102
{ACAD_REACTORS
330
7471
102
}
330
7471
100
AcDbDictionary
281
     1
  3
Normal
350
1590A
100
AcDbDictionaryWithDefault
340
1590A
  0
DICTIONARY
  5
17285
102
{ACAD_REACTORS
330
7471
102
}
330
7471
100
AcDbDictionary
281
     1
  3
COLORDICT
350
17287
  3
MATERIALDICT
350
17286
  0
DICTIONARY
  5
17281
102
{ACAD_REACTORS
330
7471
102
}
330
7471
100
AcDbDictionary
281
     1
  3
DIMASSOC
350
17282
  3
PROJECTNAME
350
17283
  0
DICTIONARY
  5
E71C
102
{ACAD_REACTORS
330
7471
102
}
330
7471
100
AcDbDictionary
281
     1
  0
DICTIONARY
  5
F3B9
102
{ACAD_REACTORS
330
7471
102
}
330
7471
100
AcDbDictionary
281
     1
1001
DRAWINGVARIABLESXDATA
1000
POLARMODE
1000
1
  0
DICTIONARY
  5
15AAF
102
{ACAD_REACTORS
330
15AAE
102
}
330
15AAE
100
AcDbDictionary
281
     1
  0
LAYOUT
  5
1590F
102
{ACAD_XDICTIONARY
360
17288
102
}
102
{ACAD_REACTORS
330
1590D
102
}
330
1590D
100
AcDbPlotSettings
  1

  2
Microsoft Office Document Image Writer
  4

  6

 40
0.0
 41
0.0
 42
0.0
 43
0.0
 44
0.0
 45
0.0
 46
0.0
 47
0.0
 48
0.0
 49
0.0
140
0.0
141
0.0
142
1.0
143
1.0
 70
  1712
 72
     0
 73
     0
 74
     0
  7

 75
     0
147
1.0
148
0.0
149
0.0
100
AcDbLayout
  1
Model
 70
     1
 71
     0
 10
0.0
 20
0.0
 11
12.0
 21
9.0
 12
0.0
 22
0.0
 32
0.0
 14
0.0
 24
0.0
 34
0.0
 15
0.0
 25
0.0
 35
0.0
146
0.0
 13
0.0
 23
0.0
 33
0.0
 16
1.0
 26
0.0
 36
0.0
 17
0.0
 27
1.0
 37
0.0
 76
     0
330
747D
  0
LAYOUT
  5
15910
102
{ACAD_XDICTIONARY
360
1728A
102
}
102
{ACAD_REACTORS
330
1590D
102
}
330
1590D
100
AcDbPlotSettings
  1

  2
Microsoft Office Document Image Writer
  4

  6

 40
0.0
 41
0.0
 42
0.0
 43
0.0
 44
0.0
 45
0.0
 46
0.0
 47
0.0
 48
0.0
 49
0.0
140
0.0
141
0.0
142
1.0
143
1.0
 70
   688
 72
     0
 73
     0
 74
     5
  7

 75
    16
147
1.0
148
0.0
149
0.0
100
AcDbLayout
  1
レイアウト1
 70
     0
 71
     1
 10
0.0
 20
0.0
 11
420.0
 21
297.0
 12
0.0
 22
0.0
 32
0.0
 14
1.000000000000000E+20
 24
1.000000000000000E+20
 34
1.000000000000000E+20
 15
-1.000000000000000E+20
 25
-1.000000000000000E+20
 35
-1.000000000000000E+20
146
0.0
 13
0.0
 23
0.0
 33
0.0
 16
1.0
 26
0.0
 36
0.0
 17
0.0
 27
1.0
 37
0.0
 76
     0
330
747A
  0
MLINESTYLE
  5
7480
102
{ACAD_REACTORS
330
7473
102
}
330
7473
100
AcDbMlineStyle
  2
STANDARD
 70
     0
  3

 62
     0
 51
90.0
 52
90.0
 71
     2
 49
0.5
 62
   256
  6
BYLAYER
 49
-0.5
 62
   256
  6
BYLAYER
  0
ACDBPLACEHOLDER
  5
1590A
102
{ACAD_REACTORS
330
15909
102
}
330
15909
  0
XRECORD
  5
17287
102
{ACAD_REACTORS
330
17285
102
}
330
17285
100
AcDbXrecord
280
     1
340
1590C
  0
XRECORD
  5
17286
102
{ACAD_REACTORS
330
17285
102
}
330
17285
100
AcDbXrecord
280
     1
340
1590B
  0
DICTIONARYVAR
  5
17282
102
{ACAD_REACTORS
330
17281
102
}
330
17281
100
DictionaryVariables
280
     0
  1
1
  0
DICTIONARYVAR
  5
17283
102
{ACAD_REACTORS
330
17281
102
}
330
17281
100
DictionaryVariables
280
     0
  1

  0
DICTIONARY
  5
17288
330
1590F
100
AcDbDictionary
280
     1
281
     1
  3
ACAD_XREC_ROUNDTRIP
360
17289
  0
DICTIONARY
  5
1728A
330
15910
100
AcDbDictionary
280
     1
281
     1
  3
ACAD_XREC_ROUNDTRIP
360
1728B
  0
XRECORD
  5
17289
102
{ACAD_REACTORS
330
17288
102
}
330
17288
100
AcDbXrecord
280
     1
102
SHADEPLOT
 70
     0
102
SHADEPLOTRESLEVEL
 70
     2
102
SHADEPLOTCUSTOMDPI
 70
   300
  0
XRECORD
  5
1728B
102
{ACAD_REACTORS
330
1728A
102
}
330
1728A
100
AcDbXrecord
280
     1
102
SHADEPLOT
 70
     0
102
SHADEPLOTRESLEVEL
 70
     2
102
SHADEPLOTCUSTOMDPI
 70
   300
  0
ENDSEC
  0
EOF
