  0
SECTION
  2
HEADER
  9
$ACADVER
  1
AC1015
  9
$ACADMAINTVER
 70
    20
  9
$DWGCODEPAGE
  3
ANSI_932
  9
$INSBASE
 10
0.0
 20
0.0
 30
0.0
  9
$EXTMIN
 10
139.9999999999995
 20
-0.0000000000000909
 30
0.0
  9
$EXTMAX
 10
16307.2
 20
11409.6
 30
0.0
  9
$LIMMIN
 10
0.0
 20
0.0
  9
$LIMMAX
 10
16800.0
 20
11880.0
  9
$ORTHOMODE
 70
     0
  9
$REGENMODE
 70
     1
  9
$FILLMODE
 70
     1
  9
$QTEXTMODE
 70
     0
  9
$MIRRTEXT
 70
     1
  9
$LTSCALE
 40
20.0
  9
$ATTMODE
 70
     1
  9
$TEXTSIZE
 40
100.0
  9
$TRACEWID
 40
1.0
  9
$TEXTSTYLE
  7
STYLE3
  9
$CLAYER
  8
寸法
  9
$CELTYPE
  6
BYLAYER
  9
$CECOLOR
 62
   256
  9
$CELTSCALE
 40
50.0
  9
$DISPSILH
 70
     0
  9
$DIMSCALE
 40
40.0
  9
$DIMASZ
 40
2.5
  9
$DIMEXO
 40
0.5
  9
$DIMDLI
 40
7.0
  9
$DIMRND
 40
0.0
  9
$DIMDLE
 40
0.0
  9
$DIMEXE
 40
1.5
  9
$DIMTP
 40
0.0
  9
$DIMTM
 40
0.0
  9
$DIMTXT
 40
3.0
  9
$DIMCEN
 40
0.0
  9
$DIMTSZ
 40
0.0
  9
$DIMTOL
 70
     0
  9
$DIMLIM
 70
     0
  9
$DIMTIH
 70
     0
  9
$DIMTOH
 70
     0
  9
$DIMSE1
 70
     0
  9
$DIMSE2
 70
     0
  9
$DIMTAD
 70
     3
  9
$DIMZIN
 70
     8
  9
$DIMBLK
  1

  9
$DIMASO
 70
     1
  9
$DIMSHO
 70
     1
  9
$DIMPOST
  1

  9
$DIMAPOST
  1

  9
$DIMALT
 70
     0
  9
$DIMALTD
 70
     2
  9
$DIMALTF
 40
0.0394
  9
$DIMLFAC
 40
1.0
  9
$DIMTOFL
 70
     1
  9
$DIMTVP
 40
0.0
  9
$DIMTIX
 70
     1
  9
$DIMSOXD
 70
     0
  9
$DIMSAH
 70
     1
  9
$DIMBLK1
  1
DOTSMALL
  9
$DIMBLK2
  1
DOTSMALL
  9
$DIMSTYLE
  2
INABA_S40G
  9
$DIMCLRD
 70
     0
  9
$DIMCLRE
 70
     0
  9
$DIMCLRT
 70
     7
  9
$DIMTFAC
 40
1.0
  9
$DIMGAP
 40
1.0
  9
$DIMJUST
 70
     0
  9
$DIMSD1
 70
     0
  9
$DIMSD2
 70
     0
  9
$DIMTOLJ
 70
     1
  9
$DIMTZIN
 70
     0
  9
$DIMALTZ
 70
     0
  9
$DIMALTTZ
 70
     0
  9
$DIMUPT
 70
     0
  9
$DIMDEC
 70
     1
  9
$DIMTDEC
 70
     4
  9
$DIMALTU
 70
     2
  9
$DIMALTTD
 70
     2
  9
$DIMTXSTY
  7
STYLE1
  9
$DIMAUNIT
 70
     0
  9
$DIMADEC
 70
     0
  9
$DIMALTRND
 40
0.0
  9
$DIMAZIN
 70
     0
  9
$DIMDSEP
 70
    46
  9
$DIMATFIT
 70
     3
  9
$DIMFRAC
 70
     0
  9
$DIMLDRBLK
  1

  9
$DIMLUNIT
 70
     2
  9
$DIMLWD
 70
    -2
  9
$DIMLWE
 70
    -2
  9
$DIMTMOVE
 70
     0
  9
$LUNITS
 70
     2
  9
$LUPREC
 70
     1
  9
$SKETCHINC
 40
1.0
  9
$FILLETRAD
 40
5.0
  9
$AUNITS
 70
     0
  9
$AUPREC
 70
     0
  9
$MENU
  1
acad
  9
$ELEVATION
 40
0.0
  9
$PELEVATION
 40
0.0
  9
$THICKNESS
 40
0.0
  9
$LIMCHECK
 70
     0
  9
$CHAMFERA
 40
0.0
  9
$CHAMFERB
 40
0.0
  9
$CHAMFERC
 40
0.0
  9
$CHAMFERD
 40
0.0
  9
$SKPOLY
 70
     0
  9
$TDCREATE
 40
2452116.684896065
  9
$TDUCREATE
 40
2452116.309896065
  9
$TDUPDATE
 40
2455575.690017361
  9
$TDUUPDATE
 40
2455575.315017361
  9
$TDINDWG
 40
0.4371551620
  9
$TDUSRTIMER
 40
0.4371551620
  9
$USRTIMER
 70
     1
  9
$ANGBASE
 50
0.0
  9
$ANGDIR
 70
     0
  9
$PDMODE
 70
     3
  9
$PDSIZE
 40
2.0
  9
$PLINEWID
 40
0.0
  9
$SPLFRAME
 70
     0
  9
$SPLINETYPE
 70
     6
  9
$SPLINESEGS
 70
     8
  9
$HANDSEED
  5
170C9
  9
$SURFTAB1
 70
     6
  9
$SURFTAB2
 70
     6
  9
$SURFTYPE
 70
     6
  9
$SURFU
 70
     6
  9
$SURFV
 70
     6
  9
$UCSBASE
  2

  9
$UCSNAME
  2

  9
$UCSORG
 10
0.0
 20
0.0
 30
0.0
  9
$UCSXDIR
 10
1.0
 20
0.0
 30
0.0
  9
$UCSYDIR
 10
0.0
 20
1.0
 30
0.0
  9
$UCSORTHOREF
  2

  9
$UCSORTHOVIEW
 70
     0
  9
$UCSORGTOP
 10
0.0
 20
0.0
 30
0.0
  9
$UCSORGBOTTOM
 10
0.0
 20
0.0
 30
0.0
  9
$UCSORGLEFT
 10
0.0
 20
0.0
 30
0.0
  9
$UCSORGRIGHT
 10
0.0
 20
0.0
 30
0.0
  9
$UCSORGFRONT
 10
0.0
 20
0.0
 30
0.0
  9
$UCSORGBACK
 10
0.0
 20
0.0
 30
0.0
  9
$PUCSBASE
  2

  9
$PUCSNAME
  2

  9
$PUCSORG
 10
0.0
 20
0.0
 30
0.0
  9
$PUCSXDIR
 10
1.0
 20
0.0
 30
0.0
  9
$PUCSYDIR
 10
0.0
 20
1.0
 30
0.0
  9
$PUCSORTHOREF
  2

  9
$PUCSORTHOVIEW
 70
     0
  9
$PUCSORGTOP
 10
0.0
 20
0.0
 30
0.0
  9
$PUCSORGBOTTOM
 10
0.0
 20
0.0
 30
0.0
  9
$PUCSORGLEFT
 10
0.0
 20
0.0
 30
0.0
  9
$PUCSORGRIGHT
 10
0.0
 20
0.0
 30
0.0
  9
$PUCSORGFRONT
 10
0.0
 20
0.0
 30
0.0
  9
$PUCSORGBACK
 10
0.0
 20
0.0
 30
0.0
  9
$USERI1
 70
     0
  9
$USERI2
 70
     0
  9
$USERI3
 70
     0
  9
$USERI4
 70
     0
  9
$USERI5
 70
     0
  9
$USERR1
 40
0.0
  9
$USERR2
 40
0.0
  9
$USERR3
 40
0.0
  9
$USERR4
 40
0.0
  9
$USERR5
 40
0.0
  9
$WORLDVIEW
 70
     1
  9
$SHADEDGE
 70
     3
  9
$SHADEDIF
 70
    70
  9
$TILEMODE
 70
     1
  9
$MAXACTVP
 70
    16
  9
$PINSBASE
 10
0.0
 20
0.0
 30
0.0
  9
$PLIMCHECK
 70
     0
  9
$PEXTMIN
 10
1.000000000000000E+20
 20
1.000000000000000E+20
 30
1.000000000000000E+20
  9
$PEXTMAX
 10
-1.000000000000000E+20
 20
-1.000000000000000E+20
 30
-1.000000000000000E+20
  9
$PLIMMIN
 10
0.0
 20
0.0
  9
$PLIMMAX
 10
420.0
 20
297.0
  9
$UNITMODE
 70
     0
  9
$VISRETAIN
 70
     0
  9
$PLINEGEN
 70
     0
  9
$PSLTSCALE
 70
     0
  9
$TREEDEPTH
 70
  3020
  9
$CMLSTYLE
  2
STANDARD
  9
$CMLJUST
 70
     0
  9
$CMLSCALE
 40
1.0
  9
$PROXYGRAPHICS
 70
     1
  9
$MEASUREMENT
 70
     1
  9
$CELWEIGHT
370
    -1
  9
$ENDCAPS
280
     0
  9
$JOINSTYLE
280
     0
  9
$LWDISPLAY
290
     0
  9
$INSUNITS
 70
     0
  9
$HYPERLINKBASE
  1

  9
$STYLESHEET
  1

  9
$XEDIT
290
     1
  9
$CEPSNTYPE
380
     0
  9
$PSTYLEMODE
290
     1
  9
$FINGERPRINTGUID
  2
{EC301F16-43EE-49D4-ADD7-F9DCCF0BCE73}
  9
$VERSIONGUID
  2
{7D791F91-7F90-49AF-9D61-E61DBD3A6277}
  9
$EXTNAMES
290
     1
  9
$PSVPSCALE
 40
0.0
  9
$OLESTARTUP
290
     0
  0
ENDSEC
  0
SECTION
  2
CLASSES
  0
CLASS
  1
ACDBDICTIONARYWDFLT
  2
AcDbDictionaryWithDefault
  3
ObjectDBX Classes
 90
        0
280
     0
281
     0
  0
CLASS
  1
DICTIONARYVAR
  2
AcDbDictionaryVar
  3
ObjectDBX Classes
 90
        0
280
     0
281
     0
  0
CLASS
  1
ACDBPLACEHOLDER
  2
AcDbPlaceHolder
  3
ObjectDBX Classes
 90
        0
280
     0
281
     0
  0
CLASS
  1
LAYOUT
  2
AcDbLayout
  3
ObjectDBX Classes
 90
        0
280
     0
281
     0
  0
ENDSEC
  0
SECTION
  2
TABLES
  0
TABLE
  2
VPORT
  5
746D
330
0
100
AcDbSymbolTable
 70
     2
  0
VPORT
  5
170C1
330
746D
100
AcDbSymbolTableRecord
100
AcDbViewportTableRecord
  2
*Active
 70
     0
 10
0.0
 20
0.0
 11
1.0
 21
1.0
 12
8223.761025238502
 22
6348.450019463587
 13
0.0
 23
0.0
 14
10.0
 24
10.0
 15
10.0
 25
10.0
 16
0.0
 26
0.0
 36
1.0
 17
0.0
 27
0.0
 37
0.0
 40
12806.19294782812
 41
1.525925925925925
 42
50.0
 43
0.0
 44
0.0
 50
0.0
 51
0.0
 71
     0
 72
     0
 73
     1
 74
     0
 75
     0
 76
     0
 77
     0
 78
     0
281
     0
 65
     1
110
0.0
120
0.0
130
0.0
111
1.0
121
0.0
131
0.0
112
0.0
122
1.0
132
0.0
 79
     0
146
0.0
  0
ENDTAB
  0
TABLE
  2
LTYPE
  5
746A
330
0
100
AcDbSymbolTable
 70
     4
  0
LTYPE
  5
7477
330
746A
100
AcDbSymbolTableRecord
100
AcDbLinetypeTableRecord
  2
BYBLOCK
 70
     0
  3

 72
    65
 73
     0
 40
0.0
  0
LTYPE
  5
7478
330
746A
100
AcDbSymbolTableRecord
100
AcDbLinetypeTableRecord
  2
BYLAYER
 70
     0
  3

 72
    65
 73
     0
 40
0.0
  0
LTYPE
  5
7479
330
746A
100
AcDbSymbolTableRecord
100
AcDbLinetypeTableRecord
  2
CONTINUOUS
 70
     0
  3
Solid line
 72
    65
 73
     0
 40
0.0
  0
LTYPE
  5
7816
330
746A
100
AcDbSymbolTableRecord
100
AcDbLinetypeTableRecord
  2
CENTER
 70
     0
  3
____ _ ____ _ ____ _ ____ _ ____ _ ____ _ ____ 
 72
    65
 73
     4
 40
2.0
 49
1.25
 74
     0
 49
-0.25
 74
     0
 49
0.25
 74
     0
 49
-0.25
 74
     0
  0
LTYPE
  5
781A
330
746A
100
AcDbSymbolTableRecord
100
AcDbLinetypeTableRecord
  2
HIDDEN
 70
     0
  3
__ __ __ __ __ __ __ __ __ __ __ __ __ __ __ __
 72
    65
 73
     2
 40
0.375
 49
0.25
 74
     0
 49
-0.125
 74
     0
  0
LTYPE
  5
781B
330
746A
100
AcDbSymbolTableRecord
100
AcDbLinetypeTableRecord
  2
PHANTOM
 70
     0
  3
______  __  __  ______  __  __  ______  __  __ 
 72
    65
 73
     6
 40
2.5
 49
1.25
 74
     0
 49
-0.25
 74
     0
 49
0.25
 74
     0
 49
-0.25
 74
     0
 49
0.25
 74
     0
 49
-0.25
 74
     0
  0
ENDTAB
  0
TABLE
  2
LAYER
  5
7467
102
{ACAD_XDICTIONARY
360
15828
102
}
330
0
100
AcDbSymbolTable
 70
    12
  0
LAYER
  5
7474
330
7467
100
AcDbSymbolTableRecord
100
AcDbLayerTableRecord
  2
0
 70
     0
 62
     7
  6
CONTINUOUS
370
    -3
390
156B8
  0
LAYER
  5
DEB2
330
7467
100
AcDbSymbolTableRecord
100
AcDbLayerTableRecord
  2
センター
 70
     0
 62
     3
  6
CENTER
370
    -3
390
156B8
  0
LAYER
  5
DEB3
330
7467
100
AcDbSymbolTableRecord
100
AcDbLayerTableRecord
  2
寸法
 70
     0
 62
     4
  6
CONTINUOUS
370
    -3
390
156B8
  0
LAYER
  5
DEB4
330
7467
100
AcDbSymbolTableRecord
100
AcDbLayerTableRecord
  2
部品1
 70
     0
 62
     7
  6
CONTINUOUS
370
    -3
390
156B8
  0
LAYER
  5
DEB5
330
7467
100
AcDbSymbolTableRecord
100
AcDbLayerTableRecord
  2
補助
 70
     0
 62
    -1
  6
CONTINUOUS
370
    -3
390
156B8
  0
LAYER
  5
DEB6
330
7467
100
AcDbSymbolTableRecord
100
AcDbLayerTableRecord
  2
文字
 70
     0
 62
     7
  6
CONTINUOUS
370
    -3
390
156B8
  0
LAYER
  5
F255
330
7467
100
AcDbSymbolTableRecord
100
AcDbLayerTableRecord
  2
DEFPOINTS
 70
     0
 62
     7
  6
CONTINUOUS
290
     0
370
    -3
390
156B8
  0
LAYER
  5
10B54
330
7467
100
AcDbSymbolTableRecord
100
AcDbLayerTableRecord
  2
仕様書枠
 70
     0
 62
   230
  6
CONTINUOUS
370
    -3
390
156B8
  0
LAYER
  5
11729
330
7467
100
AcDbSymbolTableRecord
100
AcDbLayerTableRecord
  2
Ｇ．Ｌ
 70
     0
 62
    30
  6
CONTINUOUS
370
    -3
390
156B8
  0
LAYER
  5
1173F
330
7467
100
AcDbSymbolTableRecord
100
AcDbLayerTableRecord
  2
細線
 70
     0
 62
     5
  6
CONTINUOUS
370
    -3
390
156B8
  0
LAYER
  5
118A1
330
7467
100
AcDbSymbolTableRecord
100
AcDbLayerTableRecord
  2
想像線
 70
     0
 62
     6
  6
PHANTOM
370
    -3
390
156B8
  0
LAYER
  5
123C1
330
7467
100
AcDbSymbolTableRecord
100
AcDbLayerTableRecord
  2
破線
 70
     0
 62
     2
  6
HIDDEN
370
    -3
390
156B8
  0
ENDTAB
  0
TABLE
  2
STYLE
  5
7468
330
0
100
AcDbSymbolTable
 70
     4
  0
STYLE
  5
7475
330
7468
100
AcDbSymbolTableRecord
100
AcDbTextStyleTableRecord
  2
STANDARD
 70
     0
 40
0.0
 41
1.0
 50
0.0
 71
     0
 42
4.0
  3
txt
  4
C:\AutoCAD LT\bigfont.shx
  0
STYLE
  5
F706
330
7468
100
AcDbSymbolTableRecord
100
AcDbTextStyleTableRecord
  2
STYLE1
 70
     0
 40
0.0
 41
1.0
 50
0.0
 71
     0
 42
4.0
  3
isocp.shx
  4
bigfont.shx
  0
STYLE
  5
103BF
330
7468
100
AcDbSymbolTableRecord
100
AcDbTextStyleTableRecord
  2
STYLE2
 70
     0
 40
0.0
 41
1.0
 50
0.0
 71
     0
 42
100.0
  3
MS PGothic.ttf
  4

1001
ACAD
1000
MS PGothic
1071
    32818
  0
STYLE
  5
10BAA
330
7468
100
AcDbSymbolTableRecord
100
AcDbTextStyleTableRecord
  2
STYLE3
 70
     0
 40
0.0
 41
1.0
 50
0.0
 71
     0
 42
100.0
  3

  4

1001
ACAD
1000
DFPGothic-EB
1071
    32818
  0
ENDTAB
  0
TABLE
  2
VIEW
  5
746B
330
0
100
AcDbSymbolTable
 70
     0
  0
ENDTAB
  0
TABLE
  2
UCS
  5
746C
330
0
100
AcDbSymbolTable
 70
     0
  0
ENDTAB
  0
TABLE
  2
APPID
  5
746E
330
0
100
AcDbSymbolTable
 70
     6
  0
APPID
  5
7476
330
746E
100
AcDbSymbolTableRecord
100
AcDbRegAppTableRecord
  2
ACAD
 70
     0
  0
APPID
  5
DEA9
330
746E
100
AcDbSymbolTableRecord
100
AcDbRegAppTableRecord
  2
CONTENTBLOCKICON
 70
     0
  0
APPID
  5
DEAA
330
746E
100
AcDbSymbolTableRecord
100
AcDbRegAppTableRecord
  2
CONTENTBLOCKDESCRIPTION
 70
     0
  0
APPID
  5
E71D
330
746E
100
AcDbSymbolTableRecord
100
AcDbRegAppTableRecord
  2
CONTENTTABDATA
 70
     0
  0
APPID
  5
E71E
330
746E
100
AcDbSymbolTableRecord
100
AcDbRegAppTableRecord
  2
CONTENTCURRENTTAB
 70
     0
  0
APPID
  5
F3BA
330
746E
100
AcDbSymbolTableRecord
100
AcDbRegAppTableRecord
  2
DRAWINGVARIABLESXDATA
 70
     0
  0
ENDTAB
  0
TABLE
  2
DIMSTYLE
  5
746F
330
0
100
AcDbSymbolTable
 70
     3
100
AcDbDimStyleTable
 71
     1
340
F71F
  0
DIMSTYLE
105
7484
330
746F
100
AcDbSymbolTableRecord
100
AcDbDimStyleTableRecord
  2
JIS
 70
     0
 41
2.5
 42
1.0
 43
7.0
 44
1.0
 73
     0
 74
     0
 77
     1
 78
     8
140
2.5
141
0.0
143
0.0394
147
0.0
172
     1
174
     1
175
     1
340
7475
  0
DIMSTYLE
105
F71F
102
{ACAD_REACTORS
330
15107
330
15108
330
15109
330
1510A
330
1510B
330
1510C
330
1510D
330
1510E
330
1511A
330
15126
330
1516A
330
15171
330
15189
330
1518A
330
15645
330
1565D
330
1624F
330
1625E
330
1625F
330
16260
330
16377
330
16B11
330
16B12
330
16B16
330
16B17
330
16B18
330
16B19
330
16B41
330
16B42
330
16B54
330
16FCB
330
16FCC
330
16FF7
102
}
330
746F
100
AcDbSymbolTableRecord
100
AcDbDimStyleTableRecord
  2
INABA_S40G
 70
     0
 40
40.0
 41
2.5
 42
0.5
 43
7.0
 44
1.5
 73
     0
 74
     0
 77
     3
 78
     8
140
3.0
141
0.0
143
0.0394
147
1.0
172
     1
173
     1
174
     1
178
     7
271
     1
340
F706
341
F770
343
F770
344
F770
  0
DIMSTYLE
105
16079
330
746F
100
AcDbSymbolTableRecord
100
AcDbDimStyleTableRecord
  2
INABA_S40
 70
     0
 40
40.0
 41
2.5
 42
0.5
 43
7.0
 44
1.5
 73
     0
 74
     0
 77
     3
 78
     8
140
3.0
141
0.0
143
0.0394
147
1.0
172
     1
173
     1
174
     1
175
     1
178
     7
289
     0
340
7475
341
15FD4
343
15FD4
344
15FD4
  0
ENDTAB
  0
TABLE
  2
BLOCK_RECORD
  5
7466
330
0
100
AcDbSymbolTable
 70
    36
  0
BLOCK_RECORD
  5
747D
330
7466
100
AcDbSymbolTableRecord
100
AcDbBlockTableRecord
  2
*MODEL_SPACE
340
156BD
  0
BLOCK_RECORD
  5
747A
330
7466
100
AcDbSymbolTableRecord
100
AcDbBlockTableRecord
  2
*PAPER_SPACE
340
156BE
  0
BLOCK_RECORD
  5
F770
330
7466
100
AcDbSymbolTableRecord
100
AcDbBlockTableRecord
  2
_DOTSMALL
340
0
102
{BLKREFS
331
16698
331
16699
331
166A1
331
166A2
331
166AA
331
166AB
331
166B5
331
166B6
331
166C0
331
166C1
331
16729
331
1672A
331
16732
331
16733
331
16744
331
16745
331
1674D
331
1674E
331
16756
331
16757
331
16761
331
16762
331
1676A
331
1676B
331
16773
331
16774
331
1677E
331
1677F
331
16789
331
1678A
331
16792
331
16793
331
1679D
331
1679E
331
167A6
331
167A7
331
167B1
331
167B2
331
167BC
331
167BD
331
167C5
331
167C6
331
16EC8
331
16EC9
331
16ED2
331
16ED3
331
16EDC
331
16EDD
331
16EE5
331
16EE6
331
16EF0
331
16EF1
331
16EF9
331
16EFA
331
16F02
331
16F03
331
16F0D
331
16F0E
331
16F16
331
16F17
331
16FE8
331
16FE9
331
16FF1
331
16FF2
331
17009
331
1700A
102
}
  0
BLOCK_RECORD
  5
152EF
330
7466
100
AcDbSymbolTableRecord
100
AcDbBlockTableRecord
  2
*D1
340
0
  0
BLOCK_RECORD
  5
152FB
330
7466
100
AcDbSymbolTableRecord
100
AcDbBlockTableRecord
  2
*D2
340
0
  0
BLOCK_RECORD
  5
15309
330
7466
100
AcDbSymbolTableRecord
100
AcDbBlockTableRecord
  2
*D3
340
0
  0
BLOCK_RECORD
  5
15317
330
7466
100
AcDbSymbolTableRecord
100
AcDbBlockTableRecord
  2
*D4
340
0
  0
BLOCK_RECORD
  5
15323
330
7466
100
AcDbSymbolTableRecord
100
AcDbBlockTableRecord
  2
*D5
340
0
  0
BLOCK_RECORD
  5
15331
330
7466
100
AcDbSymbolTableRecord
100
AcDbBlockTableRecord
  2
*D6
340
0
  0
BLOCK_RECORD
  5
1533D
330
7466
100
AcDbSymbolTableRecord
100
AcDbBlockTableRecord
  2
*D7
340
0
  0
BLOCK_RECORD
  5
1534B
330
7466
100
AcDbSymbolTableRecord
100
AcDbBlockTableRecord
  2
*D8
340
0
  0
BLOCK_RECORD
  5
15371
330
7466
100
AcDbSymbolTableRecord
100
AcDbBlockTableRecord
  2
*D9
340
0
  0
BLOCK_RECORD
  5
1537D
330
7466
100
AcDbSymbolTableRecord
100
AcDbBlockTableRecord
  2
*D10
340
0
  0
BLOCK_RECORD
  5
15395
330
7466
100
AcDbSymbolTableRecord
100
AcDbBlockTableRecord
  2
*D11
340
0
  0
BLOCK_RECORD
  5
153A3
330
7466
100
AcDbSymbolTableRecord
100
AcDbBlockTableRecord
  2
*D12
340
0
  0
BLOCK_RECORD
  5
153BB
330
7466
100
AcDbSymbolTableRecord
100
AcDbBlockTableRecord
  2
*D13
340
0
  0
BLOCK_RECORD
  5
153C7
330
7466
100
AcDbSymbolTableRecord
100
AcDbBlockTableRecord
  2
*D14
340
0
  0
BLOCK_RECORD
  5
15646
330
7466
100
AcDbSymbolTableRecord
100
AcDbBlockTableRecord
  2
*D15
340
0
  0
BLOCK_RECORD
  5
1565E
330
7466
100
AcDbSymbolTableRecord
100
AcDbBlockTableRecord
  2
*D16
340
0
  0
BLOCK_RECORD
  5
15FD4
330
7466
100
AcDbSymbolTableRecord
100
AcDbBlockTableRecord
  2
_OPEN
340
0
  0
BLOCK_RECORD
  5
15FDA
330
7466
100
AcDbSymbolTableRecord
100
AcDbBlockTableRecord
  2
_DOT
340
0
  0
BLOCK_RECORD
  5
16388
330
7466
100
AcDbSymbolTableRecord
100
AcDbBlockTableRecord
  2
*D19
340
0
  0
BLOCK_RECORD
  5
16396
330
7466
100
AcDbSymbolTableRecord
100
AcDbBlockTableRecord
  2
*D20
340
0
  0
BLOCK_RECORD
  5
163A4
330
7466
100
AcDbSymbolTableRecord
100
AcDbBlockTableRecord
  2
*D21
340
0
  0
BLOCK_RECORD
  5
163B0
330
7466
100
AcDbSymbolTableRecord
100
AcDbBlockTableRecord
  2
*D22
340
0
  0
BLOCK_RECORD
  5
16422
330
7466
100
AcDbSymbolTableRecord
100
AcDbBlockTableRecord
  2
*D23
340
0
  0
BLOCK_RECORD
  5
16D8B
330
7466
100
AcDbSymbolTableRecord
100
AcDbBlockTableRecord
  2
*D24
340
0
  0
BLOCK_RECORD
  5
16D97
330
7466
100
AcDbSymbolTableRecord
100
AcDbBlockTableRecord
  2
*D25
340
0
  0
BLOCK_RECORD
  5
16DA5
330
7466
100
AcDbSymbolTableRecord
100
AcDbBlockTableRecord
  2
*D26
340
0
  0
BLOCK_RECORD
  5
16DB1
330
7466
100
AcDbSymbolTableRecord
100
AcDbBlockTableRecord
  2
*D27
340
0
  0
BLOCK_RECORD
  5
16DBD
330
7466
100
AcDbSymbolTableRecord
100
AcDbBlockTableRecord
  2
*D28
340
0
  0
BLOCK_RECORD
  5
16DCB
330
7466
100
AcDbSymbolTableRecord
100
AcDbBlockTableRecord
  2
*D29
340
0
  0
BLOCK_RECORD
  5
16DD7
330
7466
100
AcDbSymbolTableRecord
100
AcDbBlockTableRecord
  2
*D30
340
0
  0
BLOCK_RECORD
  5
16DE4
330
7466
100
AcDbSymbolTableRecord
100
AcDbBlockTableRecord
  2
*D31
340
0
  0
BLOCK_RECORD
  5
16DF1
330
7466
100
AcDbSymbolTableRecord
100
AcDbBlockTableRecord
  2
*D32
340
0
  0
BLOCK_RECORD
  5
16FCD
330
7466
100
AcDbSymbolTableRecord
100
AcDbBlockTableRecord
  2
*D33
340
0
  0
BLOCK_RECORD
  5
16FD9
330
7466
100
AcDbSymbolTableRecord
100
AcDbBlockTableRecord
  2
*D34
340
0
  0
BLOCK_RECORD
  5
16FFA
330
7466
100
AcDbSymbolTableRecord
100
AcDbBlockTableRecord
  2
*D35
340
0
  0
ENDTAB
  0
ENDSEC
  0
SECTION
  2
BLOCKS
  0
BLOCK
  5
7489
330
747D
100
AcDbEntity
  8
0
100
AcDbBlockBegin
  2
*MODEL_SPACE
 70
     0
 10
0.0
 20
0.0
 30
0.0
  3
*MODEL_SPACE
  1

  0
ENDBLK
  5
748A
330
747D
100
AcDbEntity
  8
0
100
AcDbBlockEnd
  0
BLOCK
  5
7487
330
747A
100
AcDbEntity
 67
     1
  8
0
100
AcDbBlockBegin
  2
*PAPER_SPACE
 70
     0
 10
0.0
 20
0.0
 30
0.0
  3
*PAPER_SPACE
  1

  0
ENDBLK
  5
7488
330
747A
100
AcDbEntity
 67
     1
  8
0
100
AcDbBlockEnd
  0
BLOCK
  5
F771
330
F770
100
AcDbEntity
  8
0
 48
50.0
100
AcDbBlockBegin
  2
_DOTSMALL
 70
     0
 10
0.0
 20
0.0
 30
0.0
  3
_DOTSMALL
  1

  0
LWPOLYLINE
  5
F772
330
F770
100
AcDbEntity
  8
0
  6
ByBlock
 62
     0
 48
50.0
100
AcDbPolyline
 90
        2
 70
     1
 43
0.5
 10
-0.0625
 20
0.0
 42
1.0
 10
0.0625
 20
0.0
 42
1.0
  0
ENDBLK
  5
F776
330
F770
100
AcDbEntity
  8
0
 48
50.0
100
AcDbBlockEnd
  0
BLOCK
  5
1541F
330
152EF
100
AcDbEntity
  8
0
 48
50.0
100
AcDbBlockBegin
  2
*D1
 70
     1
 10
0.0
 20
0.0
 30
0.0
  3
*D1
  1

  0
LINE
  5
167C2
330
152EF
100
AcDbEntity
  8
寸法
 62
     0
 48
50.0
370
    -2
100
AcDbLine
 10
7432.977759729161
 20
9474.259486297921
 30
0.0
 11
7432.977759729161
 21
9730.067705922909
 31
0.0
  0
LINE
  5
167C3
330
152EF
100
AcDbEntity
  8
寸法
 62
     0
 48
50.0
370
    -2
100
AcDbLine
 10
6722.977759729163
 20
9474.259486297906
 30
0.0
 11
6722.977759729163
 21
9730.067705922909
 31
0.0
  0
LINE
  5
167C4
330
152EF
100
AcDbEntity
  8
寸法
 62
     0
 48
50.0
370
    -2
100
AcDbLine
 10
7432.977759729161
 20
9670.06770592291
 30
0.0
 11
6722.977759729163
 21
9670.06770592291
 31
0.0
  0
INSERT
  5
167C5
330
152EF
100
AcDbEntity
  8
寸法
 62
     0
 48
50.0
370
    -2
100
AcDbBlockReference
  2
_DOTSMALL
 10
7432.977759729161
 20
9670.06770592291
 30
0.0
 41
100.0
 42
100.0
 43
100.0
  0
INSERT
  5
167C6
330
152EF
100
AcDbEntity
  8
寸法
 62
     0
 48
50.0
370
    -2
100
AcDbBlockReference
  2
_DOTSMALL
 10
6722.977759729163
 20
9670.06770592291
 30
0.0
 41
100.0
 42
100.0
 43
100.0
 50
180.0
  0
MTEXT
  5
167C7
330
152EF
100
AcDbEntity
  8
寸法
 62
     7
 48
50.0
100
AcDbMText
 10
7077.977759729162
 20
9770.06770592291
 30
0.0
 40
120.0
 41
0.0
 71
     5
 72
     1
  1
\A1;710
  7
STYLE1
 73
     1
 44
1.0
1001
ACAD
1000
MTEXTBEGIN
1070
    73
1070
     1
1070
    44
1040
1.0
1070
    74
1070
     0
1000
MTEXTEND
  0
POINT
  5
167C8
330
152EF
100
AcDbEntity
  8
DEFPOINTS
 62
     0
 48
50.0
100
AcDbPoint
 10
7432.977759729161
 20
9454.259486297919
 30
0.0
  0
POINT
  5
167C9
330
152EF
100
AcDbEntity
  8
DEFPOINTS
 62
     0
 48
50.0
100
AcDbPoint
 10
6722.977759729163
 20
9454.259486297905
 30
0.0
  0
POINT
  5
167CA
330
152EF
100
AcDbEntity
  8
DEFPOINTS
 62
     0
 48
50.0
100
AcDbPoint
 10
6722.977759729163
 20
9670.06770592291
 30
0.0
  0
ENDBLK
  5
15429
330
152EF
100
AcDbEntity
  8
0
 48
50.0
100
AcDbBlockEnd
  0
BLOCK
  5
1542A
330
152FB
100
AcDbEntity
  8
0
 48
50.0
100
AcDbBlockBegin
  2
*D2
 70
     1
 10
0.0
 20
0.0
 30
0.0
  3
*D2
  1

  0
LINE
  5
167B7
330
152FB
100
AcDbEntity
  8
寸法
 62
     0
 48
50.0
370
    -2
100
AcDbLine
 10
7432.977759729161
 20
9474.259486297906
 30
0.0
 11
7432.977759729161
 21
9730.067705922888
 31
0.0
  0
LINE
  5
167B8
330
152FB
100
AcDbEntity
  8
寸法
 62
     0
 48
50.0
370
    -2
100
AcDbLine
 10
7487.977759729162
 20
9474.259486297906
 30
0.0
 11
7487.977759729162
 21
9730.067705922888
 31
0.0
  0
LINE
  5
167B9
330
152FB
100
AcDbEntity
  8
寸法
 62
     0
 48
50.0
370
    -2
100
AcDbLine
 10
7432.977759729161
 20
9670.067705922889
 30
0.0
 11
7332.97775972916
 21
9670.067705922889
 31
0.0
  0
LINE
  5
167BA
330
152FB
100
AcDbEntity
  8
寸法
 62
     0
 48
50.0
370
    -2
100
AcDbLine
 10
7487.977759729162
 20
9670.067705922889
 30
0.0
 11
7904.948322477638
 21
9670.067705922889
 31
0.0
  0
LINE
  5
167BB
330
152FB
100
AcDbEntity
  8
寸法
 62
     0
 48
50.0
370
    -2
100
AcDbLine
 10
7432.977759729161
 20
9670.067705922889
 30
0.0
 11
7487.977759729162
 21
9670.067705922889
 31
0.0
  0
INSERT
  5
167BC
330
152FB
100
AcDbEntity
  8
寸法
 62
     0
 48
50.0
370
    -2
100
AcDbBlockReference
  2
_DOTSMALL
 10
7432.977759729161
 20
9670.067705922889
 30
0.0
 41
100.0
 42
100.0
 43
100.0
  0
INSERT
  5
167BD
330
152FB
100
AcDbEntity
  8
寸法
 62
     0
 48
50.0
370
    -2
100
AcDbBlockReference
  2
_DOTSMALL
 10
7487.977759729162
 20
9670.067705922889
 30
0.0
 41
100.0
 42
100.0
 43
100.0
 50
180.0
  0
MTEXT
  5
167BE
330
152FB
100
AcDbEntity
  8
寸法
 62
     7
 48
50.0
100
AcDbMText
 10
7796.463041103399
 20
9770.067705922889
 30
0.0
 40
120.0
 41
0.0
 71
     5
 72
     1
  1
\A1;55
  7
STYLE1
 73
     1
 44
1.0
1001
ACAD
1000
MTEXTBEGIN
1070
    73
1070
     1
1070
    44
1040
1.0
1070
    74
1070
     0
1000
MTEXTEND
  0
POINT
  5
167BF
330
152FB
100
AcDbEntity
  8
DEFPOINTS
 62
     0
 48
50.0
100
AcDbPoint
 10
7432.977759729161
 20
9454.259486297905
 30
0.0
  0
POINT
  5
167C0
330
152FB
100
AcDbEntity
  8
DEFPOINTS
 62
     0
 48
50.0
100
AcDbPoint
 10
7487.977759729162
 20
9454.259486297905
 30
0.0
  0
POINT
  5
167C1
330
152FB
100
AcDbEntity
  8
DEFPOINTS
 62
     0
 48
50.0
100
AcDbPoint
 10
7487.977759729162
 20
9670.067705922889
 30
0.0
  0
ENDBLK
  5
15436
330
152FB
100
AcDbEntity
  8
0
 48
50.0
100
AcDbBlockEnd
  0
BLOCK
  5
15437
330
15309
100
AcDbEntity
  8
0
 48
50.0
100
AcDbBlockBegin
  2
*D3
 70
     1
 10
0.0
 20
0.0
 30
0.0
  3
*D3
  1

  0
LINE
  5
167AC
330
15309
100
AcDbEntity
  8
寸法
 62
     0
 48
50.0
370
    -2
100
AcDbLine
 10
5792.97775972916
 20
9474.259486297928
 30
0.0
 11
5792.97775972916
 21
9730.067705922909
 31
0.0
  0
LINE
  5
167AD
330
15309
100
AcDbEntity
  8
寸法
 62
     0
 48
50.0
370
    -2
100
AcDbLine
 10
5902.977759729163
 20
9474.259486297906
 30
0.0
 11
5902.977759729163
 21
9730.067705922909
 31
0.0
  0
LINE
  5
167AE
330
15309
100
AcDbEntity
  8
寸法
 62
     0
 48
50.0
370
    -2
100
AcDbLine
 10
5792.97775972916
 20
9670.06770592291
 30
0.0
 11
5692.97775972916
 21
9670.06770592291
 31
0.0
  0
LINE
  5
167AF
330
15309
100
AcDbEntity
  8
寸法
 62
     0
 48
50.0
370
    -2
100
AcDbLine
 10
5902.977759729163
 20
9670.06770592291
 30
0.0
 11
6002.977759729163
 21
9670.06770592291
 31
0.0
  0
LINE
  5
167B0
330
15309
100
AcDbEntity
  8
寸法
 62
     0
 48
50.0
370
    -2
100
AcDbLine
 10
5792.97775972916
 20
9670.06770592291
 30
0.0
 11
5902.977759729163
 21
9670.06770592291
 31
0.0
  0
INSERT
  5
167B1
330
15309
100
AcDbEntity
  8
寸法
 62
     0
 48
50.0
370
    -2
100
AcDbBlockReference
  2
_DOTSMALL
 10
5792.97775972916
 20
9670.06770592291
 30
0.0
 41
100.0
 42
100.0
 43
100.0
  0
INSERT
  5
167B2
330
15309
100
AcDbEntity
  8
寸法
 62
     0
 48
50.0
370
    -2
100
AcDbBlockReference
  2
_DOTSMALL
 10
5902.977759729163
 20
9670.06770592291
 30
0.0
 41
100.0
 42
100.0
 43
100.0
 50
180.0
  0
MTEXT
  5
167B3
330
15309
100
AcDbEntity
  8
寸法
 62
     7
 48
50.0
100
AcDbMText
 10
5847.977759729161
 20
9770.06770592291
 30
0.0
 40
120.0
 41
0.0
 71
     5
 72
     1
  1
\A1;110
  7
STYLE1
 73
     1
 44
1.0
1001
ACAD
1000
MTEXTBEGIN
1070
    73
1070
     1
1070
    44
1040
1.0
1070
    74
1070
     0
1000
MTEXTEND
  0
POINT
  5
167B4
330
15309
100
AcDbEntity
  8
DEFPOINTS
 62
     0
 48
50.0
100
AcDbPoint
 10
5792.97775972916
 20
9454.259486297926
 30
0.0
  0
POINT
  5
167B5
330
15309
100
AcDbEntity
  8
DEFPOINTS
 62
     0
 48
50.0
100
AcDbPoint
 10
5902.977759729163
 20
9454.259486297905
 30
0.0
  0
POINT
  5
167B6
330
15309
100
AcDbEntity
  8
DEFPOINTS
 62
     0
 48
50.0
100
AcDbPoint
 10
5902.977759729163
 20
9670.06770592291
 30
0.0
  0
ENDBLK
  5
15443
330
15309
100
AcDbEntity
  8
0
 48
50.0
100
AcDbBlockEnd
  0
BLOCK
  5
15444
330
15317
100
AcDbEntity
  8
0
 48
50.0
100
AcDbBlockBegin
  2
*D4
 70
     1
 10
0.0
 20
0.0
 30
0.0
  3
*D4
  1

  0
LINE
  5
167A3
330
15317
100
AcDbEntity
  8
寸法
 62
     0
 48
50.0
370
    -2
100
AcDbLine
 10
5082.977759729161
 20
9474.259486297841
 30
0.0
 11
5082.977759729161
 21
9730.067705922909
 31
0.0
  0
LINE
  5
167A4
330
15317
100
AcDbEntity
  8
寸法
 62
     0
 48
50.0
370
    -2
100
AcDbLine
 10
5792.97775972916
 20
9474.259486297928
 30
0.0
 11
5792.97775972916
 21
9730.067705922909
 31
0.0
  0
LINE
  5
167A5
330
15317
100
AcDbEntity
  8
寸法
 62
     0
 48
50.0
370
    -2
100
AcDbLine
 10
5082.977759729161
 20
9670.06770592291
 30
0.0
 11
5792.97775972916
 21
9670.06770592291
 31
0.0
  0
INSERT
  5
167A6
330
15317
100
AcDbEntity
  8
寸法
 62
     0
 48
50.0
370
    -2
100
AcDbBlockReference
  2
_DOTSMALL
 10
5082.977759729161
 20
9670.06770592291
 30
0.0
 41
100.0
 42
100.0
 43
100.0
 50
180.0
  0
INSERT
  5
167A7
330
15317
100
AcDbEntity
  8
寸法
 62
     0
 48
50.0
370
    -2
100
AcDbBlockReference
  2
_DOTSMALL
 10
5792.97775972916
 20
9670.06770592291
 30
0.0
 41
100.0
 42
100.0
 43
100.0
  0
MTEXT
  5
167A8
330
15317
100
AcDbEntity
  8
寸法
 62
     7
 48
50.0
100
AcDbMText
 10
5438.227759729159
 20
9770.06770592291
 30
0.0
 40
120.0
 41
0.0
 71
     5
 72
     1
  1
\A1;710
  7
STYLE1
 73
     1
 44
1.0
1001
ACAD
1000
MTEXTBEGIN
1070
    73
1070
     1
1070
    44
1040
1.0
1070
    74
1070
     0
1000
MTEXTEND
  0
POINT
  5
167A9
330
15317
100
AcDbEntity
  8
DEFPOINTS
 62
     0
 48
50.0
100
AcDbPoint
 10
5082.977759729161
 20
9454.259486297841
 30
0.0
  0
POINT
  5
167AA
330
15317
100
AcDbEntity
  8
DEFPOINTS
 62
     0
 48
50.0
100
AcDbPoint
 10
5792.97775972916
 20
9454.259486297926
 30
0.0
  0
POINT
  5
167AB
330
15317
100
AcDbEntity
  8
DEFPOINTS
 62
     0
 48
50.0
100
AcDbPoint
 10
5792.97775972916
 20
9670.06770592291
 30
0.0
  0
ENDBLK
  5
1544E
330
15317
100
AcDbEntity
  8
0
 48
50.0
100
AcDbBlockEnd
  0
BLOCK
  5
1544F
330
15323
100
AcDbEntity
  8
0
 48
50.0
100
AcDbBlockBegin
  2
*D5
 70
     1
 10
0.0
 20
0.0
 30
0.0
  3
*D5
  1

  0
LINE
  5
16798
330
15323
100
AcDbEntity
  8
寸法
 62
     0
 48
50.0
370
    -2
100
AcDbLine
 10
6612.977759729159
 20
9474.259486297928
 30
0.0
 11
6612.977759729159
 21
9730.067705922909
 31
0.0
  0
LINE
  5
16799
330
15323
100
AcDbEntity
  8
寸法
 62
     0
 48
50.0
370
    -2
100
AcDbLine
 10
6722.977759729163
 20
9474.259486297906
 30
0.0
 11
6722.977759729163
 21
9730.067705922909
 31
0.0
  0
LINE
  5
1679A
330
15323
100
AcDbEntity
  8
寸法
 62
     0
 48
50.0
370
    -2
100
AcDbLine
 10
6612.977759729159
 20
9670.06770592291
 30
0.0
 11
6512.977759729159
 21
9670.06770592291
 31
0.0
  0
LINE
  5
1679B
330
15323
100
AcDbEntity
  8
寸法
 62
     0
 48
50.0
370
    -2
100
AcDbLine
 10
6722.977759729163
 20
9670.06770592291
 30
0.0
 11
6822.977759729162
 21
9670.06770592291
 31
0.0
  0
LINE
  5
1679C
330
15323
100
AcDbEntity
  8
寸法
 62
     0
 48
50.0
370
    -2
100
AcDbLine
 10
6612.977759729159
 20
9670.06770592291
 30
0.0
 11
6722.977759729163
 21
9670.06770592291
 31
0.0
  0
INSERT
  5
1679D
330
15323
100
AcDbEntity
  8
寸法
 62
     0
 48
50.0
370
    -2
100
AcDbBlockReference
  2
_DOTSMALL
 10
6612.977759729159
 20
9670.06770592291
 30
0.0
 41
100.0
 42
100.0
 43
100.0
  0
INSERT
  5
1679E
330
15323
100
AcDbEntity
  8
寸法
 62
     0
 48
50.0
370
    -2
100
AcDbBlockReference
  2
_DOTSMALL
 10
6722.977759729163
 20
9670.06770592291
 30
0.0
 41
100.0
 42
100.0
 43
100.0
 50
180.0
  0
MTEXT
  5
1679F
330
15323
100
AcDbEntity
  8
寸法
 62
     7
 48
50.0
100
AcDbMText
 10
6667.977759729161
 20
9770.06770592291
 30
0.0
 40
120.0
 41
0.0
 71
     5
 72
     1
  1
\A1;110
  7
STYLE1
 73
     1
 44
1.0
1001
ACAD
1000
MTEXTBEGIN
1070
    73
1070
     1
1070
    44
1040
1.0
1070
    74
1070
     0
1000
MTEXTEND
  0
POINT
  5
167A0
330
15323
100
AcDbEntity
  8
DEFPOINTS
 62
     0
 48
50.0
100
AcDbPoint
 10
6612.977759729159
 20
9454.259486297926
 30
0.0
  0
POINT
  5
167A1
330
15323
100
AcDbEntity
  8
DEFPOINTS
 62
     0
 48
50.0
100
AcDbPoint
 10
6722.977759729163
 20
9454.259486297905
 30
0.0
  0
POINT
  5
167A2
330
15323
100
AcDbEntity
  8
DEFPOINTS
 62
     0
 48
50.0
100
AcDbPoint
 10
6722.977759729163
 20
9670.06770592291
 30
0.0
  0
ENDBLK
  5
1545B
330
15323
100
AcDbEntity
  8
0
 48
50.0
100
AcDbBlockEnd
  0
BLOCK
  5
1545C
330
15331
100
AcDbEntity
  8
0
 48
50.0
100
AcDbBlockBegin
  2
*D6
 70
     1
 10
0.0
 20
0.0
 30
0.0
  3
*D6
  1

  0
LINE
  5
1678F
330
15331
100
AcDbEntity
  8
寸法
 62
     0
 48
50.0
370
    -2
100
AcDbLine
 10
5902.977759729161
 20
9474.259486297841
 30
0.0
 11
5902.977759729161
 21
9730.067705922909
 31
0.0
  0
LINE
  5
16790
330
15331
100
AcDbEntity
  8
寸法
 62
     0
 48
50.0
370
    -2
100
AcDbLine
 10
6612.977759729159
 20
9474.259486297928
 30
0.0
 11
6612.977759729159
 21
9730.067705922909
 31
0.0
  0
LINE
  5
16791
330
15331
100
AcDbEntity
  8
寸法
 62
     0
 48
50.0
370
    -2
100
AcDbLine
 10
5902.977759729161
 20
9670.06770592291
 30
0.0
 11
6612.977759729159
 21
9670.06770592291
 31
0.0
  0
INSERT
  5
16792
330
15331
100
AcDbEntity
  8
寸法
 62
     0
 48
50.0
370
    -2
100
AcDbBlockReference
  2
_DOTSMALL
 10
5902.977759729161
 20
9670.06770592291
 30
0.0
 41
100.0
 42
100.0
 43
100.0
 50
180.0
  0
INSERT
  5
16793
330
15331
100
AcDbEntity
  8
寸法
 62
     0
 48
50.0
370
    -2
100
AcDbBlockReference
  2
_DOTSMALL
 10
6612.977759729159
 20
9670.06770592291
 30
0.0
 41
100.0
 42
100.0
 43
100.0
  0
MTEXT
  5
16794
330
15331
100
AcDbEntity
  8
寸法
 62
     7
 48
50.0
100
AcDbMText
 10
6258.227759729159
 20
9770.06770592291
 30
0.0
 40
120.0
 41
0.0
 71
     5
 72
     1
  1
\A1;710
  7
STYLE1
 73
     1
 44
1.0
1001
ACAD
1000
MTEXTBEGIN
1070
    73
1070
     1
1070
    44
1040
1.0
1070
    74
1070
     0
1000
MTEXTEND
  0
POINT
  5
16795
330
15331
100
AcDbEntity
  8
DEFPOINTS
 62
     0
 48
50.0
100
AcDbPoint
 10
5902.977759729161
 20
9454.259486297841
 30
0.0
  0
POINT
  5
16796
330
15331
100
AcDbEntity
  8
DEFPOINTS
 62
     0
 48
50.0
100
AcDbPoint
 10
6612.977759729159
 20
9454.259486297926
 30
0.0
  0
POINT
  5
16797
330
15331
100
AcDbEntity
  8
DEFPOINTS
 62
     0
 48
50.0
100
AcDbPoint
 10
6612.977759729159
 20
9670.06770592291
 30
0.0
  0
ENDBLK
  5
15466
330
15331
100
AcDbEntity
  8
0
 48
50.0
100
AcDbBlockEnd
  0
BLOCK
  5
15467
330
1533D
100
AcDbEntity
  8
0
 48
50.0
100
AcDbBlockBegin
  2
*D7
 70
     1
 10
0.0
 20
0.0
 30
0.0
  3
*D7
  1

  0
LINE
  5
16784
330
1533D
100
AcDbEntity
  8
寸法
 62
     0
 48
50.0
370
    -2
100
AcDbLine
 10
7507.977759729161
 20
9454.259486297905
 30
0.0
 11
8195.404105463572
 21
9454.259486297905
 31
0.0
  0
LINE
  5
16785
330
1533D
100
AcDbEntity
  8
寸法
 62
     0
 48
50.0
370
    -2
100
AcDbLine
 10
7507.977759729161
 20
9399.259486297905
 30
0.0
 11
8195.404105463572
 21
9399.259486297905
 31
0.0
  0
LINE
  5
16786
330
1533D
100
AcDbEntity
  8
寸法
 62
     0
 48
50.0
370
    -2
100
AcDbLine
 10
8135.404105463571
 20
9399.259486297905
 30
0.0
 11
8135.404105463571
 21
9299.259486297906
 31
0.0
  0
LINE
  5
16787
330
1533D
100
AcDbEntity
  8
寸法
 62
     0
 48
50.0
370
    -2
100
AcDbLine
 10
8135.404105463571
 20
9454.259486297905
 30
0.0
 11
8135.404105463571
 21
9871.230049046381
 31
0.0
  0
LINE
  5
16788
330
1533D
100
AcDbEntity
  8
寸法
 62
     0
 48
50.0
370
    -2
100
AcDbLine
 10
8135.404105463571
 20
9399.259486297905
 30
0.0
 11
8135.404105463571
 21
9454.259486297905
 31
0.0
  0
INSERT
  5
16789
330
1533D
100
AcDbEntity
  8
寸法
 62
     0
 48
50.0
370
    -2
100
AcDbBlockReference
  2
_DOTSMALL
 10
8135.404105463571
 20
9399.259486297905
 30
0.0
 41
100.0
 42
100.0
 43
100.0
 50
90.0
  0
INSERT
  5
1678A
330
1533D
100
AcDbEntity
  8
寸法
 62
     0
 48
50.0
370
    -2
100
AcDbBlockReference
  2
_DOTSMALL
 10
8135.404105463571
 20
9454.259486297905
 30
0.0
 41
100.0
 42
100.0
 43
100.0
 50
270.0
  0
MTEXT
  5
1678B
330
1533D
100
AcDbEntity
  8
寸法
 62
     7
 48
50.0
100
AcDbMText
 10
8035.404105463571
 20
9762.744767672145
 30
0.0
 40
120.0
 41
0.0
 71
     5
 72
     1
  1
\A1;55
  7
STYLE1
 11
0.0000000000000001
 21
1.0
 31
0.0
 73
     1
 44
1.0
1001
ACAD
1000
MTEXTBEGIN
1070
    73
1070
     1
1070
    44
1040
1.0
1070
    74
1070
     0
1000
MTEXTEND
  0
POINT
  5
1678C
330
1533D
100
AcDbEntity
  8
DEFPOINTS
 62
     0
 48
50.0
100
AcDbPoint
 10
7487.977759729162
 20
9454.259486297905
 30
0.0
  0
POINT
  5
1678D
330
1533D
100
AcDbEntity
  8
DEFPOINTS
 62
     0
 48
50.0
100
AcDbPoint
 10
7487.977759729162
 20
9399.259486297905
 30
0.0
  0
POINT
  5
1678E
330
1533D
100
AcDbEntity
  8
DEFPOINTS
 62
     0
 48
50.0
100
AcDbPoint
 10
8135.404105463571
 20
9399.259486297905
 30
0.0
  0
ENDBLK
  5
15473
330
1533D
100
AcDbEntity
  8
0
 48
50.0
100
AcDbBlockEnd
  0
BLOCK
  5
15474
330
1534B
100
AcDbEntity
  8
0
 48
50.0
100
AcDbBlockBegin
  2
*D8
 70
     1
 10
0.0
 20
0.0
 30
0.0
  3
*D8
  1

  0
LINE
  5
16779
330
1534B
100
AcDbEntity
  8
寸法
 62
     0
 48
50.0
370
    -2
100
AcDbLine
 10
5027.977759729125
 20
9474.25948629781
 30
0.0
 11
5027.977759729125
 21
9730.067705922794
 31
0.0
  0
LINE
  5
1677A
330
1534B
100
AcDbEntity
  8
寸法
 62
     0
 48
50.0
370
    -2
100
AcDbLine
 10
5082.977759729161
 20
9474.25948629781
 30
0.0
 11
5082.977759729161
 21
9730.067705922794
 31
0.0
  0
LINE
  5
1677B
330
1534B
100
AcDbEntity
  8
寸法
 62
     0
 48
50.0
370
    -2
100
AcDbLine
 10
5082.977759729161
 20
9670.067705922793
 30
0.0
 11
5182.977759729162
 21
9670.067705922793
 31
0.0
  0
LINE
  5
1677C
330
1534B
100
AcDbEntity
  8
寸法
 62
     0
 48
50.0
370
    -2
100
AcDbLine
 10
5027.977759729125
 20
9670.067705922793
 30
0.0
 11
4611.007196980647
 21
9670.067705922793
 31
0.0
  0
LINE
  5
1677D
330
1534B
100
AcDbEntity
  8
寸法
 62
     0
 48
50.0
370
    -2
100
AcDbLine
 10
5082.977759729161
 20
9670.067705922793
 30
0.0
 11
5027.977759729125
 21
9670.067705922793
 31
0.0
  0
INSERT
  5
1677E
330
1534B
100
AcDbEntity
  8
寸法
 62
     0
 48
50.0
370
    -2
100
AcDbBlockReference
  2
_DOTSMALL
 10
5082.977759729161
 20
9670.067705922793
 30
0.0
 41
100.0
 42
100.0
 43
100.0
 50
180.0
  0
INSERT
  5
1677F
330
1534B
100
AcDbEntity
  8
寸法
 62
     0
 48
50.0
370
    -2
100
AcDbBlockReference
  2
_DOTSMALL
 10
5027.977759729125
 20
9670.067705922793
 30
0.0
 41
100.0
 42
100.0
 43
100.0
  0
MTEXT
  5
16780
330
1534B
100
AcDbEntity
  8
寸法
 62
     7
 48
50.0
100
AcDbMText
 10
4719.492478354887
 20
9770.067705922793
 30
0.0
 40
120.0
 41
0.0
 71
     5
 72
     1
  1
\A1;55
  7
STYLE1
 73
     1
 44
1.0
1001
ACAD
1000
MTEXTBEGIN
1070
    73
1070
     1
1070
    44
1040
1.0
1070
    74
1070
     0
1000
MTEXTEND
  0
POINT
  5
16781
330
1534B
100
AcDbEntity
  8
DEFPOINTS
 62
     0
 48
50.0
100
AcDbPoint
 10
5027.977759729125
 20
9454.259486297813
 30
0.0
  0
POINT
  5
16782
330
1534B
100
AcDbEntity
  8
DEFPOINTS
 62
     0
 48
50.0
100
AcDbPoint
 10
5082.977759729161
 20
9454.259486297813
 30
0.0
  0
POINT
  5
16783
330
1534B
100
AcDbEntity
  8
DEFPOINTS
 62
     0
 48
50.0
100
AcDbPoint
 10
5082.977759729161
 20
9670.067705922793
 30
0.0
  0
ENDBLK
  5
15480
330
1534B
100
AcDbEntity
  8
0
 48
50.0
100
AcDbBlockEnd
  0
BLOCK
  5
15497
330
15371
100
AcDbEntity
  8
0
 48
50.0
100
AcDbBlockBegin
  2
*D9
 70
     1
 10
0.0
 20
0.0
 30
0.0
  3
*D9
  1

  0
LINE
  5
16770
330
15371
100
AcDbEntity
  8
寸法
 62
     0
 48
50.0
370
    -2
100
AcDbLine
 10
5027.977759729154
 20
8064.259486297732
 30
0.0
 11
5027.977759729154
 21
7037.157611437655
 31
0.0
  0
LINE
  5
16771
330
15371
100
AcDbEntity
  8
寸法
 62
     0
 48
50.0
370
    -2
100
AcDbLine
 10
7487.977759729137
 20
8064.259486297862
 30
0.0
 11
7487.977759729137
 21
7037.157611437655
 31
0.0
  0
LINE
  5
16772
330
15371
100
AcDbEntity
  8
寸法
 62
     0
 48
50.0
370
    -2
100
AcDbLine
 10
5027.977759729154
 20
7097.157611437655
 30
0.0
 11
7487.977759729137
 21
7097.157611437655
 31
0.0
  0
INSERT
  5
16773
330
15371
100
AcDbEntity
  8
寸法
 62
     0
 48
50.0
370
    -2
100
AcDbBlockReference
  2
_DOTSMALL
 10
5027.977759729154
 20
7097.157611437655
 30
0.0
 41
100.0
 42
100.0
 43
100.0
 50
180.0
  0
INSERT
  5
16774
330
15371
100
AcDbEntity
  8
寸法
 62
     0
 48
50.0
370
    -2
100
AcDbBlockReference
  2
_DOTSMALL
 10
7487.977759729137
 20
7097.157611437655
 30
0.0
 41
100.0
 42
100.0
 43
100.0
  0
MTEXT
  5
16775
330
15371
100
AcDbEntity
  8
寸法
 62
     7
 48
50.0
100
AcDbMText
 10
6257.977759729145
 20
7197.169422461276
 30
0.0
 40
120.0
 41
0.0
 71
     5
 72
     1
  1
\A1;2460
  7
STYLE1
 73
     1
 44
1.0
1001
ACAD
1000
MTEXTBEGIN
1070
    73
1070
     1
1070
    44
1040
1.0
1070
    74
1070
     0
1000
MTEXTEND
  0
POINT
  5
16776
330
15371
100
AcDbEntity
  8
DEFPOINTS
 62
     0
 48
50.0
100
AcDbPoint
 10
5027.977759729154
 20
8084.25948629773
 30
0.0
  0
POINT
  5
16777
330
15371
100
AcDbEntity
  8
DEFPOINTS
 62
     0
 48
50.0
100
AcDbPoint
 10
7487.977759729137
 20
8084.259486297863
 30
0.0
  0
POINT
  5
16778
330
15371
100
AcDbEntity
  8
DEFPOINTS
 62
     0
 48
50.0
100
AcDbPoint
 10
7487.977759729137
 20
7097.157611437655
 30
0.0
  0
ENDBLK
  5
154A1
330
15371
100
AcDbEntity
  8
0
 48
50.0
100
AcDbBlockEnd
  0
BLOCK
  5
154A2
330
1537D
100
AcDbEntity
  8
0
 48
50.0
100
AcDbBlockBegin
  2
*D10
 70
     1
 10
0.0
 20
0.0
 30
0.0
  3
*D10
  1

  0
LINE
  5
16767
330
1537D
100
AcDbEntity
  8
寸法
 62
     0
 48
50.0
370
    -2
100
AcDbLine
 10
6722.977759729158
 20
8064.259486297805
 30
0.0
 11
6722.977759729158
 21
7584.435818502727
 31
0.0
  0
LINE
  5
16768
330
1537D
100
AcDbEntity
  8
寸法
 62
     0
 48
50.0
370
    -2
100
AcDbLine
 10
7407.977759729154
 20
8064.259486297768
 30
0.0
 11
7407.977759729154
 21
7584.435818502727
 31
0.0
  0
LINE
  5
16769
330
1537D
100
AcDbEntity
  8
寸法
 62
     0
 48
50.0
370
    -2
100
AcDbLine
 10
6722.977759729158
 20
7644.435818502727
 30
0.0
 11
7407.977759729154
 21
7644.435818502727
 31
0.0
  0
INSERT
  5
1676A
330
1537D
100
AcDbEntity
  8
寸法
 62
     0
 48
50.0
370
    -2
100
AcDbBlockReference
  2
_DOTSMALL
 10
6722.977759729158
 20
7644.435818502727
 30
0.0
 41
100.0
 42
100.0
 43
100.0
 50
180.0
  0
INSERT
  5
1676B
330
1537D
100
AcDbEntity
  8
寸法
 62
     0
 48
50.0
370
    -2
100
AcDbBlockReference
  2
_DOTSMALL
 10
7407.977759729154
 20
7644.435818502727
 30
0.0
 41
100.0
 42
100.0
 43
100.0
  0
MTEXT
  5
1676C
330
1537D
100
AcDbEntity
  8
寸法
 62
     7
 48
50.0
100
AcDbMText
 10
7065.477759729155
 20
7844.435818502727
 30
0.0
 40
120.0
 41
0.0
 71
     5
 72
     1
  1
\A1;有効開口部間口\P685
  7
STYLE1
 73
     1
 44
1.0
1001
ACAD
1000
MTEXTBEGIN
1070
    73
1070
     1
1070
    44
1040
1.0
1070
    74
1070
     0
1000
MTEXTEND
  0
POINT
  5
1676D
330
1537D
100
AcDbEntity
  8
DEFPOINTS
 62
     0
 48
50.0
100
AcDbPoint
 10
6722.977759729158
 20
8084.259486297804
 30
0.0
  0
POINT
  5
1676E
330
1537D
100
AcDbEntity
  8
DEFPOINTS
 62
     0
 48
50.0
100
AcDbPoint
 10
7407.977759729154
 20
8084.259486297767
 30
0.0
  0
POINT
  5
1676F
330
1537D
100
AcDbEntity
  8
DEFPOINTS
 62
     0
 48
50.0
100
AcDbPoint
 10
7407.977759729154
 20
7644.435818502727
 30
0.0
  0
ENDBLK
  5
154AC
330
1537D
100
AcDbEntity
  8
0
 48
50.0
100
AcDbBlockEnd
  0
BLOCK
  5
154B8
330
15395
100
AcDbEntity
  8
0
 48
50.0
100
AcDbBlockBegin
  2
*D11
 70
     1
 10
0.0
 20
0.0
 30
0.0
  3
*D11
  1

  0
LINE
  5
1675C
330
15395
100
AcDbEntity
  8
寸法
 62
     0
 48
50.0
370
    -2
100
AcDbLine
 10
7507.977759729135
 20
8139.259486297891
 30
0.0
 11
8195.404105463547
 21
8139.259486297891
 31
0.0
  0
LINE
  5
1675D
330
15395
100
AcDbEntity
  8
寸法
 62
     0
 48
50.0
370
    -2
100
AcDbLine
 10
7507.977759729135
 20
8084.259486297892
 30
0.0
 11
8195.404105463547
 21
8084.259486297892
 31
0.0
  0
LINE
  5
1675E
330
15395
100
AcDbEntity
  8
寸法
 62
     0
 48
50.0
370
    -2
100
AcDbLine
 10
8135.404105463546
 20
8139.259486297891
 30
0.0
 11
8135.404105463546
 21
8239.259486297891
 31
0.0
  0
LINE
  5
1675F
330
15395
100
AcDbEntity
  8
寸法
 62
     0
 48
50.0
370
    -2
100
AcDbLine
 10
8135.404105463546
 20
8084.259486297892
 30
0.0
 11
8135.404105463546
 21
7597.912738018789
 31
0.0
  0
LINE
  5
16760
330
15395
100
AcDbEntity
  8
寸法
 62
     0
 48
50.0
370
    -2
100
AcDbLine
 10
8135.404105463546
 20
8139.259486297891
 30
0.0
 11
8135.404105463546
 21
8084.259486297892
 31
0.0
  0
INSERT
  5
16761
330
15395
100
AcDbEntity
  8
寸法
 62
     0
 48
50.0
370
    -2
100
AcDbBlockReference
  2
_DOTSMALL
 10
8135.404105463546
 20
8139.259486297891
 30
0.0
 41
100.0
 42
100.0
 43
100.0
 50
270.0
  0
INSERT
  5
16762
330
15395
100
AcDbEntity
  8
寸法
 62
     0
 48
50.0
370
    -2
100
AcDbBlockReference
  2
_DOTSMALL
 10
8135.404105463546
 20
8084.259486297892
 30
0.0
 41
100.0
 42
100.0
 43
100.0
 50
90.0
  0
MTEXT
  5
16763
330
15395
100
AcDbEntity
  8
寸法
 62
     7
 48
50.0
100
AcDbMText
 10
8035.404105463546
 20
7706.398019393029
 30
0.0
 40
120.0
 41
0.0
 71
     5
 72
     1
  1
\A1;55
  7
STYLE1
 11
0.0000000000000001
 21
1.0
 31
0.0
 73
     1
 44
1.0
1001
ACAD
1000
MTEXTBEGIN
1070
    73
1070
     1
1070
    44
1040
1.0
1070
    74
1070
     0
1000
MTEXTEND
  0
POINT
  5
16764
330
15395
100
AcDbEntity
  8
DEFPOINTS
 62
     0
 48
50.0
100
AcDbPoint
 10
7487.977759729137
 20
8139.259486297891
 30
0.0
  0
POINT
  5
16765
330
15395
100
AcDbEntity
  8
DEFPOINTS
 62
     0
 48
50.0
100
AcDbPoint
 10
7487.977759729137
 20
8084.259486297892
 30
0.0
  0
POINT
  5
16766
330
15395
100
AcDbEntity
  8
DEFPOINTS
 62
     0
 48
50.0
100
AcDbPoint
 10
8135.404105463546
 20
8084.259486297892
 30
0.0
  0
ENDBLK
  5
154C4
330
15395
100
AcDbEntity
  8
0
 48
50.0
100
AcDbBlockEnd
  0
BLOCK
  5
154C5
330
153A3
100
AcDbEntity
  8
0
 48
50.0
100
AcDbBlockBegin
  2
*D12
 70
     1
 10
0.0
 20
0.0
 30
0.0
  3
*D12
  1

  0
LINE
  5
16753
330
153A3
100
AcDbEntity
  8
寸法
 62
     0
 48
50.0
370
    -2
100
AcDbLine
 10
7507.977759729161
 20
9454.259486297905
 30
0.0
 11
8504.515636279249
 21
9454.259486297905
 31
0.0
  0
LINE
  5
16754
330
153A3
100
AcDbEntity
  8
寸法
 62
     0
 48
50.0
370
    -2
100
AcDbLine
 10
7507.977759729135
 20
8084.259486297892
 30
0.0
 11
8504.515636279249
 21
8084.259486297892
 31
0.0
  0
LINE
  5
16755
330
153A3
100
AcDbEntity
  8
寸法
 62
     0
 48
50.0
370
    -2
100
AcDbLine
 10
8444.51563627925
 20
9454.259486297905
 30
0.0
 11
8444.51563627925
 21
8084.259486297892
 31
0.0
  0
INSERT
  5
16756
330
153A3
100
AcDbEntity
  8
寸法
 62
     0
 48
50.0
370
    -2
100
AcDbBlockReference
  2
_DOTSMALL
 10
8444.51563627925
 20
9454.259486297905
 30
0.0
 41
100.0
 42
100.0
 43
100.0
 50
90.0
  0
INSERT
  5
16757
330
153A3
100
AcDbEntity
  8
寸法
 62
     0
 48
50.0
370
    -2
100
AcDbBlockReference
  2
_DOTSMALL
 10
8444.51563627925
 20
8084.259486297892
 30
0.0
 41
100.0
 42
100.0
 43
100.0
 50
270.0
  0
MTEXT
  5
16758
330
153A3
100
AcDbEntity
  8
寸法
 62
     7
 48
50.0
100
AcDbMText
 10
8344.515636279247
 20
8769.259486297899
 30
0.0
 40
120.0
 41
0.0
 71
     5
 72
     1
  1
\A1;1370
  7
STYLE1
 11
0.0000000000000001
 21
1.0
 31
0.0
 73
     1
 44
1.0
1001
ACAD
1000
MTEXTBEGIN
1070
    73
1070
     1
1070
    44
1040
1.0
1070
    74
1070
     0
1000
MTEXTEND
  0
POINT
  5
16759
330
153A3
100
AcDbEntity
  8
DEFPOINTS
 62
     0
 48
50.0
100
AcDbPoint
 10
7487.977759729162
 20
9454.259486297905
 30
0.0
  0
POINT
  5
1675A
330
153A3
100
AcDbEntity
  8
DEFPOINTS
 62
     0
 48
50.0
100
AcDbPoint
 10
7487.977759729137
 20
8084.259486297892
 30
0.0
  0
POINT
  5
1675B
330
153A3
100
AcDbEntity
  8
DEFPOINTS
 62
     0
 48
50.0
100
AcDbPoint
 10
8444.51563627925
 20
8084.259486297892
 30
0.0
  0
ENDBLK
  5
154CF
330
153A3
100
AcDbEntity
  8
0
 48
50.0
100
AcDbBlockEnd
  0
BLOCK
  5
154DB
330
153BB
100
AcDbEntity
  8
0
 48
50.0
100
AcDbBlockBegin
  2
*D13
 70
     1
 10
0.0
 20
0.0
 30
0.0
  3
*D13
  1

  0
LINE
  5
1674A
330
153BB
100
AcDbEntity
  8
寸法
 62
     0
 48
50.0
370
    -2
100
AcDbLine
 10
7478.477759729094
 20
9419.400502449226
 30
0.0
 11
7873.835485591119
 21
9313.464719083091
 31
0.0
  0
LINE
  5
1674B
330
153BB
100
AcDbEntity
  8
寸法
 62
     0
 48
50.0
370
    -2
100
AcDbLine
 10
7478.477759729094
 20
8969.400502449225
 30
0.0
 11
7873.835485591119
 21
8863.464719083092
 31
0.0
  0
LINE
  5
1674C
330
153BB
100
AcDbEntity
  8
寸法
 62
     0
 48
50.0
370
    -2
100
AcDbLine
 10
7813.835485591119
 20
9329.541670628959
 30
0.0
 11
7813.835485591119
 21
8879.541670628958
 31
0.0
  0
INSERT
  5
1674D
330
153BB
100
AcDbEntity
  8
寸法
 62
     0
 48
50.0
370
    -2
100
AcDbBlockReference
  2
_DOTSMALL
 10
7813.835485591119
 20
9329.541670628959
 30
0.0
 41
100.0
 42
100.0
 43
100.0
 50
90.0
  0
INSERT
  5
1674E
330
153BB
100
AcDbEntity
  8
寸法
 62
     0
 48
50.0
370
    -2
100
AcDbBlockReference
  2
_DOTSMALL
 10
7813.835485591119
 20
8879.541670628958
 30
0.0
 41
100.0
 42
100.0
 43
100.0
 50
270.0
  0
MTEXT
  5
1674F
330
153BB
100
AcDbEntity
  8
寸法
 62
     7
 48
50.0
100
AcDbMText
 10
7713.835485591117
 20
9104.541670628959
 30
0.0
 40
120.0
 41
0.0
 71
     5
 72
     1
  1
\A1;450
  7
STYLE1
 11
0.0000000000000001
 21
1.0
 31
0.0
 73
     1
 44
1.0
1001
ACAD
1000
MTEXTBEGIN
1070
    73
1070
     1
1070
    44
1040
1.0
1070
    74
1070
     0
1000
MTEXTEND
  0
POINT
  5
16750
330
153BB
100
AcDbEntity
  8
DEFPOINTS
 62
     0
 48
50.0
100
AcDbPoint
 10
7458.477759729094
 20
9424.759486297848
 30
0.0
  0
POINT
  5
16751
330
153BB
100
AcDbEntity
  8
DEFPOINTS
 62
     0
 48
50.0
100
AcDbPoint
 10
7458.477759729094
 20
8974.759486297847
 30
0.0
  0
POINT
  5
16752
330
153BB
100
AcDbEntity
  8
DEFPOINTS
 62
     0
 48
50.0
100
AcDbPoint
 10
7813.835485591119
 20
8879.541670628958
 30
0.0
  0
ENDBLK
  5
154E5
330
153BB
100
AcDbEntity
  8
0
 48
50.0
100
AcDbBlockEnd
  0
BLOCK
  5
154E6
330
153C7
100
AcDbEntity
  8
0
 48
50.0
100
AcDbBlockBegin
  2
*D14
 70
     1
 10
0.0
 20
0.0
 30
0.0
  3
*D14
  1

  0
LINE
  5
16741
330
153C7
100
AcDbEntity
  8
寸法
 62
     0
 48
50.0
370
    -2
100
AcDbLine
 10
7507.977759729161
 20
9399.259486297905
 30
0.0
 11
8195.404105463572
 21
9399.259486297905
 31
0.0
  0
LINE
  5
16742
330
153C7
100
AcDbEntity
  8
寸法
 62
     0
 48
50.0
370
    -2
100
AcDbLine
 10
7507.977759729135
 20
8139.259486297891
 30
0.0
 11
8195.404105463572
 21
8139.259486297891
 31
0.0
  0
LINE
  5
16743
330
153C7
100
AcDbEntity
  8
寸法
 62
     0
 48
50.0
370
    -2
100
AcDbLine
 10
8135.404105463571
 20
9399.259486297905
 30
0.0
 11
8135.404105463571
 21
8139.259486297891
 31
0.0
  0
INSERT
  5
16744
330
153C7
100
AcDbEntity
  8
寸法
 62
     0
 48
50.0
370
    -2
100
AcDbBlockReference
  2
_DOTSMALL
 10
8135.404105463571
 20
9399.259486297905
 30
0.0
 41
100.0
 42
100.0
 43
100.0
 50
90.0
  0
INSERT
  5
16745
330
153C7
100
AcDbEntity
  8
寸法
 62
     0
 48
50.0
370
    -2
100
AcDbBlockReference
  2
_DOTSMALL
 10
8135.404105463571
 20
8139.259486297891
 30
0.0
 41
100.0
 42
100.0
 43
100.0
 50
270.0
  0
MTEXT
  5
16746
330
153C7
100
AcDbEntity
  8
寸法
 62
     7
 48
50.0
100
AcDbMText
 10
8035.392294439949
 20
8769.259486297899
 30
0.0
 40
120.0
 41
0.0
 71
     5
 72
     1
  1
\A1;3X420=1260
  7
STYLE1
 11
0.0000000000000001
 21
1.0
 31
0.0
 73
     1
 44
1.0
1001
ACAD
1000
MTEXTBEGIN
1070
    73
1070
     1
1070
    44
1040
1.0
1070
    74
1070
     0
1000
MTEXTEND
  0
POINT
  5
16747
330
153C7
100
AcDbEntity
  8
DEFPOINTS
 62
     0
 48
50.0
100
AcDbPoint
 10
7487.977759729162
 20
9399.259486297905
 30
0.0
  0
POINT
  5
16748
330
153C7
100
AcDbEntity
  8
DEFPOINTS
 62
     0
 48
50.0
100
AcDbPoint
 10
7487.977759729137
 20
8139.259486297891
 30
0.0
  0
POINT
  5
16749
330
153C7
100
AcDbEntity
  8
DEFPOINTS
 62
     0
 48
50.0
100
AcDbPoint
 10
8135.404105463571
 20
8139.259486297891
 30
0.0
  0
ENDBLK
  5
154F0
330
153C7
100
AcDbEntity
  8
0
 48
50.0
100
AcDbBlockEnd
  0
BLOCK
  5
15652
330
15646
100
AcDbEntity
  8
0
 48
50.0
100
AcDbBlockBegin
  2
*D15
 70
     1
 10
0.0
 20
0.0
 30
0.0
  3
*D15
  1

  0
LINE
  5
1672F
330
15646
100
AcDbEntity
  8
寸法
 62
     0
 48
50.0
370
    -2
100
AcDbLine
 10
5902.977759729157
 20
8064.259486297805
 30
0.0
 11
5902.977759729157
 21
7584.435818502727
 31
0.0
  0
LINE
  5
16730
330
15646
100
AcDbEntity
  8
寸法
 62
     0
 48
50.0
370
    -2
100
AcDbLine
 10
6587.977759729153
 20
8064.259486297768
 30
0.0
 11
6587.977759729153
 21
7584.435818502727
 31
0.0
  0
LINE
  5
16731
330
15646
100
AcDbEntity
  8
寸法
 62
     0
 48
50.0
370
    -2
100
AcDbLine
 10
5902.977759729157
 20
7644.435818502727
 30
0.0
 11
6587.977759729153
 21
7644.435818502727
 31
0.0
  0
INSERT
  5
16732
330
15646
100
AcDbEntity
  8
寸法
 62
     0
 48
50.0
370
    -2
100
AcDbBlockReference
  2
_DOTSMALL
 10
5902.977759729157
 20
7644.435818502727
 30
0.0
 41
100.0
 42
100.0
 43
100.0
 50
180.0
  0
INSERT
  5
16733
330
15646
100
AcDbEntity
  8
寸法
 62
     0
 48
50.0
370
    -2
100
AcDbBlockReference
  2
_DOTSMALL
 10
6587.977759729153
 20
7644.435818502727
 30
0.0
 41
100.0
 42
100.0
 43
100.0
  0
MTEXT
  5
16734
330
15646
100
AcDbEntity
  8
寸法
 62
     7
 48
50.0
100
AcDbMText
 10
6245.477759729156
 20
7744.435818502727
 30
0.0
 40
120.0
 41
0.0
 71
     5
 72
     1
  1
\A1;685
  7
STYLE1
 73
     1
 44
1.0
1001
ACAD
1000
MTEXTBEGIN
1070
    73
1070
     1
1070
    44
1040
1.0
1070
    74
1070
     0
1000
MTEXTEND
  0
POINT
  5
16735
330
15646
100
AcDbEntity
  8
DEFPOINTS
 62
     0
 48
50.0
100
AcDbPoint
 10
5902.977759729157
 20
8084.259486297804
 30
0.0
  0
POINT
  5
16736
330
15646
100
AcDbEntity
  8
DEFPOINTS
 62
     0
 48
50.0
100
AcDbPoint
 10
6587.977759729153
 20
8084.259486297767
 30
0.0
  0
POINT
  5
16737
330
15646
100
AcDbEntity
  8
DEFPOINTS
 62
     0
 48
50.0
100
AcDbPoint
 10
6587.977759729153
 20
7644.435818502727
 30
0.0
  0
ENDBLK
  5
1565C
330
15646
100
AcDbEntity
  8
0
 48
50.0
100
AcDbBlockEnd
  0
BLOCK
  5
1565F
330
1565E
100
AcDbEntity
  8
0
 48
50.0
100
AcDbBlockBegin
  2
*D16
 70
     1
 10
0.0
 20
0.0
 30
0.0
  3
*D16
  1

  0
LINE
  5
16726
330
1565E
100
AcDbEntity
  8
寸法
 62
     0
 48
50.0
370
    -2
100
AcDbLine
 10
5082.977759729158
 20
8064.259486297805
 30
0.0
 11
5082.977759729158
 21
7584.435818502727
 31
0.0
  0
LINE
  5
16727
330
1565E
100
AcDbEntity
  8
寸法
 62
     0
 48
50.0
370
    -2
100
AcDbLine
 10
5767.977759729154
 20
8064.259486297768
 30
0.0
 11
5767.977759729154
 21
7584.435818502727
 31
0.0
  0
LINE
  5
16728
330
1565E
100
AcDbEntity
  8
寸法
 62
     0
 48
50.0
370
    -2
100
AcDbLine
 10
5082.977759729158
 20
7644.435818502727
 30
0.0
 11
5767.977759729154
 21
7644.435818502727
 31
0.0
  0
INSERT
  5
16729
330
1565E
100
AcDbEntity
  8
寸法
 62
     0
 48
50.0
370
    -2
100
AcDbBlockReference
  2
_DOTSMALL
 10
5082.977759729158
 20
7644.435818502727
 30
0.0
 41
100.0
 42
100.0
 43
100.0
 50
180.0
  0
INSERT
  5
1672A
330
1565E
100
AcDbEntity
  8
寸法
 62
     0
 48
50.0
370
    -2
100
AcDbBlockReference
  2
_DOTSMALL
 10
5767.977759729154
 20
7644.435818502727
 30
0.0
 41
100.0
 42
100.0
 43
100.0
  0
MTEXT
  5
1672B
330
1565E
100
AcDbEntity
  8
寸法
 62
     7
 48
50.0
100
AcDbMText
 10
5425.477759729155
 20
7744.435818502727
 30
0.0
 40
120.0
 41
0.0
 71
     5
 72
     1
  1
\A1;685
  7
STYLE1
 73
     1
 44
1.0
1001
ACAD
1000
MTEXTBEGIN
1070
    73
1070
     1
1070
    44
1040
1.0
1070
    74
1070
     0
1000
MTEXTEND
  0
POINT
  5
1672C
330
1565E
100
AcDbEntity
  8
DEFPOINTS
 62
     0
 48
50.0
100
AcDbPoint
 10
5082.977759729158
 20
8084.259486297804
 30
0.0
  0
POINT
  5
1672D
330
1565E
100
AcDbEntity
  8
DEFPOINTS
 62
     0
 48
50.0
100
AcDbPoint
 10
5767.977759729154
 20
8084.259486297767
 30
0.0
  0
POINT
  5
1672E
330
1565E
100
AcDbEntity
  8
DEFPOINTS
 62
     0
 48
50.0
100
AcDbPoint
 10
5767.977759729154
 20
7644.435818502727
 30
0.0
  0
ENDBLK
  5
15669
330
1565E
100
AcDbEntity
  8
0
 48
50.0
100
AcDbBlockEnd
  0
BLOCK
  5
15FD5
330
15FD4
100
AcDbEntity
  8
0
100
AcDbBlockBegin
  2
_OPEN
 70
     0
 10
0.0
 20
0.0
 30
0.0
  3
_OPEN
  1

  0
LINE
  5
15FD6
330
15FD4
100
AcDbEntity
  8
0
  6
ByBlock
 62
     0
100
AcDbLine
 10
-1.0
 20
0.1666666666666666
 30
0.0
 11
0.0
 21
0.0
 31
0.0
  0
LINE
  5
15FD7
330
15FD4
100
AcDbEntity
  8
0
  6
ByBlock
 62
     0
100
AcDbLine
 10
0.0
 20
0.0
 30
0.0
 11
-1.0
 21
-0.1666666666666666
 31
0.0
  0
LINE
  5
15FD8
330
15FD4
100
AcDbEntity
  8
0
  6
ByBlock
 62
     0
100
AcDbLine
 10
0.0
 20
0.0
 30
0.0
 11
-1.0
 21
0.0
 31
0.0
  0
ENDBLK
  5
15FD9
330
15FD4
100
AcDbEntity
  8
0
100
AcDbBlockEnd
  0
BLOCK
  5
15FDB
330
15FDA
100
AcDbEntity
  8
0
 48
50.0
100
AcDbBlockBegin
  2
_DOT
 70
     0
 10
0.0
 20
0.0
 30
0.0
  3
_DOT
  1

  0
LWPOLYLINE
  5
15FDC
330
15FDA
100
AcDbEntity
  8
0
  6
ByBlock
 62
     0
 48
50.0
100
AcDbPolyline
 90
        2
 70
     1
 43
0.5
 10
-0.25
 20
0.0
 42
1.0
 10
0.25
 20
0.0
 42
1.0
  0
LINE
  5
15FDD
330
15FDA
100
AcDbEntity
  8
0
  6
ByBlock
 62
     0
 48
50.0
100
AcDbLine
 10
-0.5
 20
0.0
 30
0.0
 11
-1.0
 21
0.0
 31
0.0
  0
ENDBLK
  5
15FDE
330
15FDA
100
AcDbEntity
  8
0
 48
50.0
100
AcDbBlockEnd
  0
BLOCK
  5
16394
330
16388
100
AcDbEntity
  8
0
 48
50.0
100
AcDbBlockBegin
  2
*D19
 70
     1
 10
0.0
 20
0.0
 30
0.0
  3
*D19
  1

  0
LINE
  5
166BB
330
16388
100
AcDbEntity
  8
寸法
 62
     0
 48
50.0
370
    -2
100
AcDbLine
 10
7537.977759729158
 20
5392.470848083235
 30
0.0
 11
7537.977759729158
 21
5645.012433341475
 31
0.0
  0
LINE
  5
166BC
330
16388
100
AcDbEntity
  8
寸法
 62
     0
 48
50.0
370
    -2
100
AcDbLine
 10
7487.977759729158
 20
5392.470848083235
 30
0.0
 11
7487.977759729158
 21
5645.012433341475
 31
0.0
  0
LINE
  5
166BD
330
16388
100
AcDbEntity
  8
寸法
 62
     0
 48
50.0
370
    -2
100
AcDbLine
 10
7487.977759729158
 20
5585.012433341475
 30
0.0
 11
7387.977759729158
 21
5585.012433341475
 31
0.0
  0
LINE
  5
166BE
330
16388
100
AcDbEntity
  8
寸法
 62
     0
 48
50.0
370
    -2
100
AcDbLine
 10
7537.977759729158
 20
5585.012433341475
 30
0.0
 11
7957.510285197883
 21
5585.012433341475
 31
0.0
  0
LINE
  5
166BF
330
16388
100
AcDbEntity
  8
寸法
 62
     0
 48
50.0
370
    -2
100
AcDbLine
 10
7487.977759729158
 20
5585.012433341475
 30
0.0
 11
7537.977759729158
 21
5585.012433341475
 31
0.0
  0
INSERT
  5
166C0
330
16388
100
AcDbEntity
  8
寸法
 62
     0
 48
50.0
370
    -2
100
AcDbBlockReference
  2
_DOTSMALL
 10
7487.977759729158
 20
5585.012433341475
 30
0.0
 41
100.0
 42
100.0
 43
100.0
  0
INSERT
  5
166C1
330
16388
100
AcDbEntity
  8
寸法
 62
     0
 48
50.0
370
    -2
100
AcDbBlockReference
  2
_DOTSMALL
 10
7537.977759729158
 20
5585.012433341475
 30
0.0
 41
100.0
 42
100.0
 43
100.0
 50
180.0
  0
MTEXT
  5
166C2
330
16388
100
AcDbEntity
  8
寸法
 62
     7
 48
50.0
100
AcDbMText
 10
7851.463041103395
 20
5685.012433341475
 30
0.0
 40
120.0
 41
0.0
 71
     5
 72
     1
  1
\A1;50
  7
STYLE1
 73
     1
 44
1.0
1001
ACAD
1000
MTEXTBEGIN
1070
    73
1070
     1
1070
    44
1040
1.0
1070
    74
1070
     0
1000
MTEXTEND
  0
POINT
  5
166C3
330
16388
100
AcDbEntity
  8
DEFPOINTS
 62
     0
 48
50.0
100
AcDbPoint
 10
7537.977759729158
 20
5372.470848083234
 30
0.0
  0
POINT
  5
166C4
330
16388
100
AcDbEntity
  8
DEFPOINTS
 62
     0
 48
50.0
100
AcDbPoint
 10
7487.977759729158
 20
5372.470848083236
 30
0.0
  0
POINT
  5
166C5
330
16388
100
AcDbEntity
  8
DEFPOINTS
 62
     0
 48
50.0
100
AcDbPoint
 10
7487.977759729158
 20
5585.012433341475
 30
0.0
  0
ENDBLK
  5
16395
330
16388
100
AcDbEntity
  8
0
 48
50.0
100
AcDbBlockEnd
  0
BLOCK
  5
163A2
330
16396
100
AcDbEntity
  8
0
 48
50.0
100
AcDbBlockBegin
  2
*D20
 70
     1
 10
0.0
 20
0.0
 30
0.0
  3
*D20
  1

  0
LINE
  5
166B0
330
16396
100
AcDbEntity
  8
寸法
 62
     0
 48
50.0
370
    -2
100
AcDbLine
 10
5027.977759729154
 20
5392.470848083242
 30
0.0
 11
5027.977759729154
 21
5645.012433341479
 31
0.0
  0
LINE
  5
166B1
330
16396
100
AcDbEntity
  8
寸法
 62
     0
 48
50.0
370
    -2
100
AcDbLine
 10
4977.977759729154
 20
5392.47084808324
 30
0.0
 11
4977.977759729154
 21
5645.012433341479
 31
0.0
  0
LINE
  5
166B2
330
16396
100
AcDbEntity
  8
寸法
 62
     0
 48
50.0
370
    -2
100
AcDbLine
 10
5027.977759729154
 20
5585.012433341479
 30
0.0
 11
5127.977759729154
 21
5585.012433341479
 31
0.0
  0
LINE
  5
166B3
330
16396
100
AcDbEntity
  8
寸法
 62
     0
 48
50.0
370
    -2
100
AcDbLine
 10
4977.977759729154
 20
5585.012433341479
 30
0.0
 11
4558.445234260419
 21
5585.012433341479
 31
0.0
  0
LINE
  5
166B4
330
16396
100
AcDbEntity
  8
寸法
 62
     0
 48
50.0
370
    -2
100
AcDbLine
 10
5027.977759729154
 20
5585.012433341479
 30
0.0
 11
4977.977759729154
 21
5585.012433341479
 31
0.0
  0
INSERT
  5
166B5
330
16396
100
AcDbEntity
  8
寸法
 62
     0
 48
50.0
370
    -2
100
AcDbBlockReference
  2
_DOTSMALL
 10
5027.977759729154
 20
5585.012433341479
 30
0.0
 41
100.0
 42
100.0
 43
100.0
 50
180.0
  0
INSERT
  5
166B6
330
16396
100
AcDbEntity
  8
寸法
 62
     0
 48
50.0
370
    -2
100
AcDbBlockReference
  2
_DOTSMALL
 10
4977.977759729154
 20
5585.012433341479
 30
0.0
 41
100.0
 42
100.0
 43
100.0
  0
MTEXT
  5
166B7
330
16396
100
AcDbEntity
  8
寸法
 62
     7
 48
50.0
100
AcDbMText
 10
4664.492478354906
 20
5685.012433341479
 30
0.0
 40
120.0
 41
0.0
 71
     5
 72
     1
  1
\A1;50
  7
STYLE1
 73
     1
 44
1.0
1001
ACAD
1000
MTEXTBEGIN
1070
    73
1070
     1
1070
    44
1040
1.0
1070
    74
1070
     0
1000
MTEXTEND
  0
POINT
  5
166B8
330
16396
100
AcDbEntity
  8
DEFPOINTS
 62
     0
 48
50.0
100
AcDbPoint
 10
5027.977759729154
 20
5372.470848083242
 30
0.0
  0
POINT
  5
166B9
330
16396
100
AcDbEntity
  8
DEFPOINTS
 62
     0
 48
50.0
100
AcDbPoint
 10
4977.977759729154
 20
5372.470848083239
 30
0.0
  0
POINT
  5
166BA
330
16396
100
AcDbEntity
  8
DEFPOINTS
 62
     0
 48
50.0
100
AcDbPoint
 10
4977.977759729154
 20
5585.012433341479
 30
0.0
  0
ENDBLK
  5
163A3
330
16396
100
AcDbEntity
  8
0
 48
50.0
100
AcDbBlockEnd
  0
BLOCK
  5
163AE
330
163A4
100
AcDbEntity
  8
0
 48
50.0
100
AcDbBlockBegin
  2
*D21
 70
     1
 10
0.0
 20
0.0
 30
0.0
  3
*D21
  1

  0
LINE
  5
166A7
330
163A4
100
AcDbEntity
  8
寸法
 62
     0
 48
50.0
370
    -2
100
AcDbLine
 10
7487.977759729158
 20
5392.470848083235
 30
0.0
 11
7487.977759729158
 21
5645.012433341479
 31
0.0
  0
LINE
  5
166A8
330
163A4
100
AcDbEntity
  8
寸法
 62
     0
 48
50.0
370
    -2
100
AcDbLine
 10
5027.977759729154
 20
5392.470848083242
 30
0.0
 11
5027.977759729154
 21
5645.012433341479
 31
0.0
  0
LINE
  5
166A9
330
163A4
100
AcDbEntity
  8
寸法
 62
     0
 48
50.0
370
    -2
100
AcDbLine
 10
7487.977759729158
 20
5585.012433341479
 30
0.0
 11
5027.977759729154
 21
5585.012433341479
 31
0.0
  0
INSERT
  5
166AA
330
163A4
100
AcDbEntity
  8
寸法
 62
     0
 48
50.0
370
    -2
100
AcDbBlockReference
  2
_DOTSMALL
 10
7487.977759729158
 20
5585.012433341479
 30
0.0
 41
100.0
 42
100.0
 43
100.0
  0
INSERT
  5
166AB
330
163A4
100
AcDbEntity
  8
寸法
 62
     0
 48
50.0
370
    -2
100
AcDbBlockReference
  2
_DOTSMALL
 10
5027.977759729154
 20
5585.012433341479
 30
0.0
 41
100.0
 42
100.0
 43
100.0
 50
180.0
  0
MTEXT
  5
166AC
330
163A4
100
AcDbEntity
  8
寸法
 62
     7
 48
50.0
100
AcDbMText
 10
6257.977759729156
 20
5685.0242443651
 30
0.0
 40
120.0
 41
0.0
 71
     5
 72
     1
  1
\A1;柱外寸法2460
  7
STYLE1
 73
     1
 44
1.0
1001
ACAD
1000
MTEXTBEGIN
1070
    73
1070
     1
1070
    44
1040
1.0
1070
    74
1070
     0
1000
MTEXTEND
  0
POINT
  5
166AD
330
163A4
100
AcDbEntity
  8
DEFPOINTS
 62
     0
 48
50.0
100
AcDbPoint
 10
7487.977759729158
 20
5372.470848083236
 30
0.0
  0
POINT
  5
166AE
330
163A4
100
AcDbEntity
  8
DEFPOINTS
 62
     0
 48
50.0
100
AcDbPoint
 10
5027.977759729154
 20
5372.470848083242
 30
0.0
  0
POINT
  5
166AF
330
163A4
100
AcDbEntity
  8
DEFPOINTS
 62
     0
 48
50.0
100
AcDbPoint
 10
5027.977759729154
 20
5585.012433341479
 30
0.0
  0
ENDBLK
  5
163AF
330
163A4
100
AcDbEntity
  8
0
 48
50.0
100
AcDbBlockEnd
  0
BLOCK
  5
163BA
330
163B0
100
AcDbEntity
  8
0
 48
50.0
100
AcDbBlockBegin
  2
*D22
 70
     1
 10
0.0
 20
0.0
 30
0.0
  3
*D22
  1

  0
LINE
  5
1669E
330
163B0
100
AcDbEntity
  8
寸法
 62
     0
 48
50.0
370
    -2
100
AcDbLine
 10
4977.977759729154
 20
5392.47084808324
 30
0.0
 11
4977.977759729154
 21
5867.969411779326
 31
0.0
  0
LINE
  5
1669F
330
163B0
100
AcDbEntity
  8
寸法
 62
     0
 48
50.0
370
    -2
100
AcDbLine
 10
7537.977759729158
 20
5392.470848083235
 30
0.0
 11
7537.977759729158
 21
5867.969411779326
 31
0.0
  0
LINE
  5
166A0
330
163B0
100
AcDbEntity
  8
寸法
 62
     0
 48
50.0
370
    -2
100
AcDbLine
 10
4977.977759729154
 20
5807.969411779326
 30
0.0
 11
7537.977759729158
 21
5807.969411779326
 31
0.0
  0
INSERT
  5
166A1
330
163B0
100
AcDbEntity
  8
寸法
 62
     0
 48
50.0
370
    -2
100
AcDbBlockReference
  2
_DOTSMALL
 10
4977.977759729154
 20
5807.969411779326
 30
0.0
 41
100.0
 42
100.0
 43
100.0
 50
180.0
  0
INSERT
  5
166A2
330
163B0
100
AcDbEntity
  8
寸法
 62
     0
 48
50.0
370
    -2
100
AcDbBlockReference
  2
_DOTSMALL
 10
7537.977759729158
 20
5807.969411779326
 30
0.0
 41
100.0
 42
100.0
 43
100.0
  0
MTEXT
  5
166A3
330
163B0
100
AcDbEntity
  8
寸法
 62
     7
 48
50.0
100
AcDbMText
 10
6257.977759729156
 20
5907.981222802948
 30
0.0
 40
120.0
 41
0.0
 71
     5
 72
     1
  1
\A1;2560
  7
STYLE1
 73
     1
 44
1.0
1001
ACAD
1000
MTEXTBEGIN
1070
    73
1070
     1
1070
    44
1040
1.0
1070
    74
1070
     0
1000
MTEXTEND
  0
POINT
  5
166A4
330
163B0
100
AcDbEntity
  8
DEFPOINTS
 62
     0
 48
50.0
100
AcDbPoint
 10
4977.977759729154
 20
5372.470848083239
 30
0.0
  0
POINT
  5
166A5
330
163B0
100
AcDbEntity
  8
DEFPOINTS
 62
     0
 48
50.0
100
AcDbPoint
 10
7537.977759729158
 20
5372.470848083234
 30
0.0
  0
POINT
  5
166A6
330
163B0
100
AcDbEntity
  8
DEFPOINTS
 62
     0
 48
50.0
100
AcDbPoint
 10
7537.977759729158
 20
5807.969411779326
 30
0.0
  0
ENDBLK
  5
163BB
330
163B0
100
AcDbEntity
  8
0
 48
50.0
100
AcDbBlockEnd
  0
BLOCK
  5
1642C
330
16422
100
AcDbEntity
  8
0
 48
50.0
100
AcDbBlockBegin
  2
*D23
 70
     1
 10
0.0
 20
0.0
 30
0.0
  3
*D23
  1

  0
LINE
  5
16695
330
16422
100
AcDbEntity
  8
寸法
 62
     0
 48
50.0
370
    -2
100
AcDbLine
 10
5007.977759729154
 20
5118.970848083232
 30
0.0
 11
4649.873232121551
 21
5118.970848083232
 31
0.0
  0
LINE
  5
16696
330
16422
100
AcDbEntity
  8
寸法
 62
     0
 48
50.0
370
    -2
100
AcDbLine
 10
5007.977759729154
 20
3358.970848083237
 30
0.0
 11
4649.873232121551
 21
3358.970848083237
 31
0.0
  0
LINE
  5
16697
330
16422
100
AcDbEntity
  8
寸法
 62
     0
 48
50.0
370
    -2
100
AcDbLine
 10
4709.873232121551
 20
5118.970848083232
 30
0.0
 11
4709.873232121551
 21
3358.970848083237
 31
0.0
  0
INSERT
  5
16698
330
16422
100
AcDbEntity
  8
寸法
 62
     0
 48
50.0
370
    -2
100
AcDbBlockReference
  2
_DOTSMALL
 10
4709.873232121551
 20
5118.970848083232
 30
0.0
 41
100.0
 42
100.0
 43
100.0
 50
90.0
  0
INSERT
  5
16699
330
16422
100
AcDbEntity
  8
寸法
 62
     0
 48
50.0
370
    -2
100
AcDbBlockReference
  2
_DOTSMALL
 10
4709.873232121551
 20
3358.970848083237
 30
0.0
 41
100.0
 42
100.0
 43
100.0
 50
270.0
  0
MTEXT
  5
1669A
330
16422
100
AcDbEntity
  8
寸法
 62
     7
 48
50.0
100
AcDbMText
 10
4609.873232121549
 20
4237.970848083234
 30
0.0
 40
120.0
 41
0.0
 71
     5
 72
     1
  1
\A1;有効開口部高サ1760
  7
STYLE1
 11
0.0000000000000001
 21
1.0
 31
0.0
 73
     1
 44
1.0
1001
ACAD
1000
MTEXTBEGIN
1070
    73
1070
     1
1070
    44
1040
1.0
1070
    74
1070
     0
1000
MTEXTEND
  0
POINT
  5
1669B
330
16422
100
AcDbEntity
  8
DEFPOINTS
 62
     0
 48
50.0
100
AcDbPoint
 10
5027.977759729154
 20
5118.970848083232
 30
0.0
  0
POINT
  5
1669C
330
16422
100
AcDbEntity
  8
DEFPOINTS
 62
     0
 48
50.0
100
AcDbPoint
 10
5027.977759729154
 20
3358.970848083237
 30
0.0
  0
POINT
  5
1669D
330
16422
100
AcDbEntity
  8
DEFPOINTS
 62
     0
 48
50.0
100
AcDbPoint
 10
4709.873232121551
 20
3358.970848083237
 30
0.0
  0
ENDBLK
  5
1642D
330
16422
100
AcDbEntity
  8
0
 48
50.0
100
AcDbBlockEnd
  0
BLOCK
  5
16D95
330
16D8B
100
AcDbEntity
  8
0
 48
50.0
100
AcDbBlockBegin
  2
*D24
 70
     1
 10
0.0
 20
0.0
 30
0.0
  3
*D24
  1

  0
LINE
  5
16F13
330
16D8B
100
AcDbEntity
  8
寸法
 62
     0
 48
50.0
370
    -2
100
AcDbLine
 10
9854.849672289537
 20
3297.470848083234
 30
0.0
 11
8910.577860649057
 21
3297.470848083235
 31
0.0
  0
LINE
  5
16F14
330
16D8B
100
AcDbEntity
  8
寸法
 62
     0
 48
50.0
370
    -2
100
AcDbLine
 10
9794.849672289538
 20
5372.470848083238
 30
0.0
 11
8910.577860649059
 21
5372.470848083238
 31
0.0
  0
LINE
  5
16F15
330
16D8B
100
AcDbEntity
  8
寸法
 62
     0
 48
50.0
370
    -2
100
AcDbLine
 10
8970.577860649056
 20
3297.470848083235
 30
0.0
 11
8970.577860649058
 21
5372.470848083238
 31
0.0
  0
INSERT
  5
16F16
330
16D8B
100
AcDbEntity
  8
寸法
 62
     0
 48
50.0
370
    -2
100
AcDbBlockReference
  2
_DOTSMALL
 10
8970.577860649056
 20
3297.470848083235
 30
0.0
 41
100.0
 42
100.0
 43
100.0
 50
270.0
  0
INSERT
  5
16F17
330
16D8B
100
AcDbEntity
  8
寸法
 62
     0
 48
50.0
370
    -2
100
AcDbBlockReference
  2
_DOTSMALL
 10
8970.577860649058
 20
5372.470848083238
 30
0.0
 41
100.0
 42
100.0
 43
100.0
 50
90.0
  0
MTEXT
  5
16F18
330
16D8B
100
AcDbEntity
  8
寸法
 62
     7
 48
50.0
100
AcDbMText
 10
8870.566049625436
 20
4272.677838503035
 30
0.0
 40
120.0
 41
0.0
 71
     5
 72
     1
  1
\A1;2075
  7
STYLE1
 11
0.0000000000000001
 21
1.0
 31
0.0
 73
     1
 44
1.0
1001
ACAD
1000
MTEXTBEGIN
1070
    73
1070
     1
1070
    44
1040
1.0
1070
    74
1070
     0
1000
MTEXTEND
  0
POINT
  5
16F19
330
16D8B
100
AcDbEntity
  8
DEFPOINTS
 62
     0
 48
50.0
100
AcDbPoint
 10
9874.849672289537
 20
3297.470848083234
 30
0.0
  0
POINT
  5
16F1A
330
16D8B
100
AcDbEntity
  8
DEFPOINTS
 62
     0
 48
50.0
100
AcDbPoint
 10
9814.84967228954
 20
5372.470848083238
 30
0.0
  0
POINT
  5
16F1B
330
16D8B
100
AcDbEntity
  8
DEFPOINTS
 62
     0
 48
50.0
100
AcDbPoint
 10
8970.577860649058
 20
5372.470848083238
 30
0.0
  0
ENDBLK
  5
16D96
330
16D8B
100
AcDbEntity
  8
0
 48
50.0
100
AcDbBlockEnd
  0
BLOCK
  5
16DA3
330
16D97
100
AcDbEntity
  8
0
 48
50.0
100
AcDbBlockBegin
  2
*D25
 70
     1
 10
0.0
 20
0.0
 30
0.0
  3
*D25
  1

  0
LINE
  5
16F08
330
16D97
100
AcDbEntity
  8
寸法
 62
     0
 48
50.0
370
    -2
100
AcDbLine
 10
9847.84730224476
 20
3347.470848083236
 30
0.0
 11
9212.886581597333
 21
3347.470848083236
 31
0.0
  0
LINE
  5
16F09
330
16D97
100
AcDbEntity
  8
寸法
 62
     0
 48
50.0
370
    -2
100
AcDbLine
 10
9799.849672289537
 20
3297.470848083234
 30
0.0
 11
9212.886581597333
 21
3297.470848083235
 31
0.0
  0
LINE
  5
16F0A
330
16D97
100
AcDbEntity
  8
寸法
 62
     0
 48
50.0
370
    -2
100
AcDbLine
 10
9272.886581597333
 20
3347.470848083236
 30
0.0
 11
9272.886581597333
 21
3447.470848083237
 31
0.0
  0
LINE
  5
16F0B
330
16D97
100
AcDbEntity
  8
寸法
 62
     0
 48
50.0
370
    -2
100
AcDbLine
 10
9272.886581597333
 20
3297.470848083234
 30
0.0
 11
9272.886581597333
 21
2885.376359894254
 31
0.0
  0
LINE
  5
16F0C
330
16D97
100
AcDbEntity
  8
寸法
 62
     0
 48
50.0
370
    -2
100
AcDbLine
 10
9272.886581597333
 20
3347.470848083236
 30
0.0
 11
9272.886581597333
 21
3297.470848083234
 31
0.0
  0
INSERT
  5
16F0D
330
16D97
100
AcDbEntity
  8
寸法
 62
     0
 48
50.0
370
    -2
100
AcDbBlockReference
  2
_DOTSMALL
 10
9272.886581597333
 20
3347.470848083236
 30
0.0
 41
100.0
 42
100.0
 43
100.0
 50
270.0
  0
INSERT
  5
16F0E
330
16D97
100
AcDbEntity
  8
寸法
 62
     0
 48
50.0
370
    -2
100
AcDbBlockReference
  2
_DOTSMALL
 10
9272.886581597333
 20
3297.470848083234
 30
0.0
 41
100.0
 42
100.0
 43
100.0
 50
90.0
  0
MTEXT
  5
16F0F
330
16D97
100
AcDbEntity
  8
寸法
 62
     7
 48
50.0
100
AcDbMText
 10
9172.886581597333
 20
2991.423603988744
 30
0.0
 40
120.0
 41
0.0
 71
     5
 72
     1
  1
\A1;50
  7
STYLE1
 11
0.0000000000000001
 21
1.0
 31
0.0
 73
     1
 44
1.0
1001
ACAD
1000
MTEXTBEGIN
1070
    73
1070
     1
1070
    44
1040
1.0
1070
    74
1070
     0
1000
MTEXTEND
  0
POINT
  5
16F10
330
16D97
100
AcDbEntity
  8
DEFPOINTS
 62
     0
 48
50.0
100
AcDbPoint
 10
9867.847302244761
 20
3347.470848083236
 30
0.0
  0
POINT
  5
16F11
330
16D97
100
AcDbEntity
  8
DEFPOINTS
 62
     0
 48
50.0
100
AcDbPoint
 10
9819.849672289535
 20
3297.470848083234
 30
0.0
  0
POINT
  5
16F12
330
16D97
100
AcDbEntity
  8
DEFPOINTS
 62
     0
 48
50.0
100
AcDbPoint
 10
9272.886581597333
 20
3297.470848083234
 30
0.0
  0
ENDBLK
  5
16DA4
330
16D97
100
AcDbEntity
  8
0
 48
50.0
100
AcDbBlockEnd
  0
BLOCK
  5
16DAF
330
16DA5
100
AcDbEntity
  8
0
 48
50.0
100
AcDbBlockBegin
  2
*D26
 70
     1
 10
0.0
 20
0.0
 30
0.0
  3
*D26
  1

  0
LINE
  5
16EFF
330
16DA5
100
AcDbEntity
  8
寸法
 62
     0
 48
50.0
370
    -2
100
AcDbLine
 10
11264.84967228954
 20
3297.470848083234
 30
0.0
 11
12009.77683026166
 21
3297.470848083234
 31
0.0
  0
LINE
  5
16F00
330
16DA5
100
AcDbEntity
  8
寸法
 62
     0
 48
50.0
370
    -2
100
AcDbLine
 10
11344.84967228954
 20
5317.470848083234
 30
0.0
 11
12009.77683026166
 21
5317.470848083234
 31
0.0
  0
LINE
  5
16F01
330
16DA5
100
AcDbEntity
  8
寸法
 62
     0
 48
50.0
370
    -2
100
AcDbLine
 10
11949.77683026166
 20
3297.470848083234
 30
0.0
 11
11949.77683026166
 21
5317.470848083234
 31
0.0
  0
INSERT
  5
16F02
330
16DA5
100
AcDbEntity
  8
寸法
 62
     0
 48
50.0
370
    -2
100
AcDbBlockReference
  2
_DOTSMALL
 10
11949.77683026166
 20
3297.470848083234
 30
0.0
 41
100.0
 42
100.0
 43
100.0
 50
270.0
  0
INSERT
  5
16F03
330
16DA5
100
AcDbEntity
  8
寸法
 62
     0
 48
50.0
370
    -2
100
AcDbBlockReference
  2
_DOTSMALL
 10
11949.77683026166
 20
5317.470848083234
 30
0.0
 41
100.0
 42
100.0
 43
100.0
 50
90.0
  0
MTEXT
  5
16F04
330
16DA5
100
AcDbEntity
  8
寸法
 62
     7
 48
50.0
100
AcDbMText
 10
11849.76501923804
 20
4307.470848083236
 30
0.0
 40
120.0
 41
0.0
 71
     5
 72
     1
  1
\A1;2020
  7
STYLE1
 11
0.0000000000000001
 21
1.0
 31
0.0
 73
     1
 44
1.0
1001
ACAD
1000
MTEXTBEGIN
1070
    73
1070
     1
1070
    44
1040
1.0
1070
    74
1070
     0
1000
MTEXTEND
  0
POINT
  5
16F05
330
16DA5
100
AcDbEntity
  8
DEFPOINTS
 62
     0
 48
50.0
100
AcDbPoint
 10
11244.84967228954
 20
3297.470848083234
 30
0.0
  0
POINT
  5
16F06
330
16DA5
100
AcDbEntity
  8
DEFPOINTS
 62
     0
 48
50.0
100
AcDbPoint
 10
11324.84967228954
 20
5317.470848083234
 30
0.0
  0
POINT
  5
16F07
330
16DA5
100
AcDbEntity
  8
DEFPOINTS
 62
     0
 48
50.0
100
AcDbPoint
 10
11949.77683026166
 20
5317.470848083234
 30
0.0
  0
ENDBLK
  5
16DB0
330
16DA5
100
AcDbEntity
  8
0
 48
50.0
100
AcDbBlockEnd
  0
BLOCK
  5
16DBB
330
16DB1
100
AcDbEntity
  8
0
 48
50.0
100
AcDbBlockBegin
  2
*D27
 70
     1
 10
0.0
 20
0.0
 30
0.0
  3
*D27
  1

  0
LINE
  5
16EF6
330
16DB1
100
AcDbEntity
  8
寸法
 62
     0
 48
50.0
370
    -2
100
AcDbLine
 10
11244.84967228954
 20
5339.281527694886
 30
0.0
 11
11244.84967228954
 21
5831.128301662537
 31
0.0
  0
LINE
  5
16EF7
330
16DB1
100
AcDbEntity
  8
寸法
 62
     0
 48
50.0
370
    -2
100
AcDbLine
 10
9874.849672289538
 20
5388.472466206209
 30
0.0
 11
9874.849672289538
 21
5831.128301662537
 31
0.0
  0
LINE
  5
16EF8
330
16DB1
100
AcDbEntity
  8
寸法
 62
     0
 48
50.0
370
    -2
100
AcDbLine
 10
11244.84967228954
 20
5771.128301662536
 30
0.0
 11
9874.849672289538
 21
5771.128301662536
 31
0.0
  0
INSERT
  5
16EF9
330
16DB1
100
AcDbEntity
  8
寸法
 62
     0
 48
50.0
370
    -2
100
AcDbBlockReference
  2
_DOTSMALL
 10
11244.84967228954
 20
5771.128301662536
 30
0.0
 41
100.0
 42
100.0
 43
100.0
  0
INSERT
  5
16EFA
330
16DB1
100
AcDbEntity
  8
寸法
 62
     0
 48
50.0
370
    -2
100
AcDbBlockReference
  2
_DOTSMALL
 10
9874.849672289538
 20
5771.128301662536
 30
0.0
 41
100.0
 42
100.0
 43
100.0
 50
180.0
  0
MTEXT
  5
16EFB
330
16DB1
100
AcDbEntity
  8
寸法
 62
     7
 48
50.0
100
AcDbMText
 10
10524.66870518008
 20
5871.128301662537
 30
0.0
 40
120.0
 41
0.0
 71
     5
 72
     1
  1
\A1;柱外寸法1370
  7
STYLE1
 73
     1
 44
1.0
1001
ACAD
1000
MTEXTBEGIN
1070
    73
1070
     1
1070
    44
1040
1.0
1070
    74
1070
     0
1000
MTEXTEND
  0
POINT
  5
16EFC
330
16DB1
100
AcDbEntity
  8
DEFPOINTS
 62
     0
 48
50.0
100
AcDbPoint
 10
11244.84967228954
 20
5319.281527694887
 30
0.0
  0
POINT
  5
16EFD
330
16DB1
100
AcDbEntity
  8
DEFPOINTS
 62
     0
 48
50.0
100
AcDbPoint
 10
9874.849672289538
 20
5368.472466206209
 30
0.0
  0
POINT
  5
16EFE
330
16DB1
100
AcDbEntity
  8
DEFPOINTS
 62
     0
 48
50.0
100
AcDbPoint
 10
9874.849672289538
 20
5771.128301662536
 30
0.0
  0
ENDBLK
  5
16DBC
330
16DB1
100
AcDbEntity
  8
0
 48
50.0
100
AcDbBlockEnd
  0
BLOCK
  5
16DC9
330
16DBD
100
AcDbEntity
  8
0
 48
50.0
100
AcDbBlockBegin
  2
*D28
 70
     1
 10
0.0
 20
0.0
 30
0.0
  3
*D28
  1

  0
LINE
  5
16EEB
330
16DBD
100
AcDbEntity
  8
寸法
 62
     0
 48
50.0
370
    -2
100
AcDbLine
 10
9874.849672289538
 20
5388.472466206209
 30
0.0
 11
9874.849672289538
 21
5831.128301662537
 31
0.0
  0
LINE
  5
16EEC
330
16DBD
100
AcDbEntity
  8
寸法
 62
     0
 48
50.0
370
    -2
100
AcDbLine
 10
9814.84967228954
 20
5392.470848083238
 30
0.0
 11
9814.84967228954
 21
5831.128301662537
 31
0.0
  0
LINE
  5
16EED
330
16DBD
100
AcDbEntity
  8
寸法
 62
     0
 48
50.0
370
    -2
100
AcDbLine
 10
9874.849672289538
 20
5771.128301662536
 30
0.0
 11
9974.849672289538
 21
5771.128301662536
 31
0.0
  0
LINE
  5
16EEE
330
16DBD
100
AcDbEntity
  8
寸法
 62
     0
 48
50.0
370
    -2
100
AcDbLine
 10
9814.84967228954
 20
5771.128301662536
 30
0.0
 11
9395.574081738358
 21
5771.128301662536
 31
0.0
  0
LINE
  5
16EEF
330
16DBD
100
AcDbEntity
  8
寸法
 62
     0
 48
50.0
370
    -2
100
AcDbLine
 10
9874.849672289538
 20
5771.128301662536
 30
0.0
 11
9814.84967228954
 21
5771.128301662536
 31
0.0
  0
INSERT
  5
16EF0
330
16DBD
100
AcDbEntity
  8
寸法
 62
     0
 48
50.0
370
    -2
100
AcDbBlockReference
  2
_DOTSMALL
 10
9874.849672289538
 20
5771.128301662536
 30
0.0
 41
100.0
 42
100.0
 43
100.0
 50
180.0
  0
INSERT
  5
16EF1
330
16DBD
100
AcDbEntity
  8
寸法
 62
     0
 48
50.0
370
    -2
100
AcDbBlockReference
  2
_DOTSMALL
 10
9814.84967228954
 20
5771.128301662536
 30
0.0
 41
100.0
 42
100.0
 43
100.0
  0
MTEXT
  5
16EF2
330
16DBD
100
AcDbEntity
  8
寸法
 62
     7
 48
50.0
100
AcDbMText
 10
9505.211877013946
 20
5871.128301662537
 30
0.0
 40
120.0
 41
0.0
 71
     5
 72
     1
  1
\A1;60
  7
STYLE1
 73
     1
 44
1.0
1001
ACAD
1000
MTEXTBEGIN
1070
    73
1070
     1
1070
    44
1040
1.0
1070
    74
1070
     0
1000
MTEXTEND
  0
POINT
  5
16EF3
330
16DBD
100
AcDbEntity
  8
DEFPOINTS
 62
     0
 48
50.0
100
AcDbPoint
 10
9874.849672289538
 20
5368.472466206209
 30
0.0
  0
POINT
  5
16EF4
330
16DBD
100
AcDbEntity
  8
DEFPOINTS
 62
     0
 48
50.0
100
AcDbPoint
 10
9814.84967228954
 20
5372.470848083238
 30
0.0
  0
POINT
  5
16EF5
330
16DBD
100
AcDbEntity
  8
DEFPOINTS
 62
     0
 48
50.0
100
AcDbPoint
 10
9814.84967228954
 20
5771.128301662536
 30
0.0
  0
ENDBLK
  5
16DCA
330
16DBD
100
AcDbEntity
  8
0
 48
50.0
100
AcDbBlockEnd
  0
BLOCK
  5
16DD5
330
16DCB
100
AcDbEntity
  8
0
 48
50.0
100
AcDbBlockBegin
  2
*D29
 70
     1
 10
0.0
 20
0.0
 30
0.0
  3
*D29
  1

  0
LINE
  5
16EE2
330
16DCB
100
AcDbEntity
  8
寸法
 62
     0
 48
50.0
370
    -2
100
AcDbLine
 10
11324.84967228954
 20
5337.470848083234
 30
0.0
 11
11324.84967228954
 21
6039.3026228545
 31
0.0
  0
LINE
  5
16EE3
330
16DCB
100
AcDbEntity
  8
寸法
 62
     0
 48
50.0
370
    -2
100
AcDbLine
 10
9814.84967228954
 20
5392.470848083238
 30
0.0
 11
9814.84967228954
 21
6039.3026228545
 31
0.0
  0
LINE
  5
16EE4
330
16DCB
100
AcDbEntity
  8
寸法
 62
     0
 48
50.0
370
    -2
100
AcDbLine
 10
11324.84967228954
 20
5979.3026228545
 30
0.0
 11
9814.84967228954
 21
5979.3026228545
 31
0.0
  0
INSERT
  5
16EE5
330
16DCB
100
AcDbEntity
  8
寸法
 62
     0
 48
50.0
370
    -2
100
AcDbBlockReference
  2
_DOTSMALL
 10
11324.84967228954
 20
5979.3026228545
 30
0.0
 41
100.0
 42
100.0
 43
100.0
  0
INSERT
  5
16EE6
330
16DCB
100
AcDbEntity
  8
寸法
 62
     0
 48
50.0
370
    -2
100
AcDbBlockReference
  2
_DOTSMALL
 10
9814.84967228954
 20
5979.3026228545
 30
0.0
 41
100.0
 42
100.0
 43
100.0
 50
180.0
  0
MTEXT
  5
16EE7
330
16DCB
100
AcDbEntity
  8
寸法
 62
     7
 48
50.0
100
AcDbMText
 10
10541.97450199136
 20
6079.3026228545
 30
0.0
 40
120.0
 41
0.0
 71
     5
 72
     1
  1
\A1;1510
  7
STYLE1
 73
     1
 44
1.0
1001
ACAD
1000
MTEXTBEGIN
1070
    73
1070
     1
1070
    44
1040
1.0
1070
    74
1070
     0
1000
MTEXTEND
  0
POINT
  5
16EE8
330
16DCB
100
AcDbEntity
  8
DEFPOINTS
 62
     0
 48
50.0
100
AcDbPoint
 10
11324.84967228954
 20
5317.470848083234
 30
0.0
  0
POINT
  5
16EE9
330
16DCB
100
AcDbEntity
  8
DEFPOINTS
 62
     0
 48
50.0
100
AcDbPoint
 10
9814.84967228954
 20
5372.470848083238
 30
0.0
  0
POINT
  5
16EEA
330
16DCB
100
AcDbEntity
  8
DEFPOINTS
 62
     0
 48
50.0
100
AcDbPoint
 10
9814.84967228954
 20
5979.3026228545
 30
0.0
  0
ENDBLK
  5
16DD6
330
16DCB
100
AcDbEntity
  8
0
 48
50.0
100
AcDbBlockEnd
  0
BLOCK
  5
16DE2
330
16DD7
100
AcDbEntity
  8
0
 48
50.0
100
AcDbBlockBegin
  2
*D30
 70
     1
 10
0.0
 20
0.0
 30
0.0
  3
*D30
  1

  0
LINE
  5
16ED8
330
16DD7
100
AcDbEntity
  8
寸法
 62
     0
 48
50.0
370
    -2
100
AcDbLine
 10
11244.84967228954
 20
5339.281527694886
 30
0.0
 11
11244.84967228954
 21
5831.128301662537
 31
0.0
  0
LINE
  5
16ED9
330
16DD7
100
AcDbEntity
  8
寸法
 62
     0
 48
50.0
370
    -2
100
AcDbLine
 10
11324.84967228954
 20
5337.470848083234
 30
0.0
 11
11324.84967228954
 21
5831.128301662537
 31
0.0
  0
LINE
  5
16EDA
330
16DD7
100
AcDbEntity
  8
寸法
 62
     0
 48
50.0
370
    -2
100
AcDbLine
 10
11244.84967228954
 20
5771.128301662536
 30
0.0
 11
11324.84967228954
 21
5771.128301662536
 31
0.0
  0
LINE
  5
16EDB
330
16DD7
100
AcDbEntity
  8
寸法
 62
     0
 48
50.0
370
    -2
100
AcDbLine
 10
11324.84967228954
 20
5771.128301662536
 30
0.0
 11
11636.94416047851
 21
5771.128301662536
 31
0.0
  0
INSERT
  5
16EDC
330
16DD7
100
AcDbEntity
  8
寸法
 62
     0
 48
50.0
370
    -2
100
AcDbBlockReference
  2
_DOTSMALL
 10
11244.84967228954
 20
5771.128301662536
 30
0.0
 41
100.0
 42
100.0
 43
100.0
 50
180.0
  0
INSERT
  5
16EDD
330
16DD7
100
AcDbEntity
  8
寸法
 62
     0
 48
50.0
370
    -2
100
AcDbBlockReference
  2
_DOTSMALL
 10
11324.84967228954
 20
5771.128301662536
 30
0.0
 41
100.0
 42
100.0
 43
100.0
  0
MTEXT
  5
16EDE
330
16DD7
100
AcDbEntity
  8
寸法
 62
     7
 48
50.0
100
AcDbMText
 10
11530.89691638403
 20
5871.128301662537
 30
0.0
 40
120.0
 41
0.0
 71
     5
 72
     1
  1
\A1;80
  7
STYLE1
 73
     1
 44
1.0
1001
ACAD
1000
MTEXTBEGIN
1070
    73
1070
     1
1070
    44
1040
1.0
1070
    74
1070
     0
1000
MTEXTEND
  0
POINT
  5
16EDF
330
16DD7
100
AcDbEntity
  8
DEFPOINTS
 62
     0
 48
50.0
100
AcDbPoint
 10
11244.84967228954
 20
5319.281527694887
 30
0.0
  0
POINT
  5
16EE0
330
16DD7
100
AcDbEntity
  8
DEFPOINTS
 62
     0
 48
50.0
100
AcDbPoint
 10
11324.84967228954
 20
5317.470848083234
 30
0.0
  0
POINT
  5
16EE1
330
16DD7
100
AcDbEntity
  8
DEFPOINTS
 62
     0
 48
50.0
100
AcDbPoint
 10
11324.84967228954
 20
5771.128301662536
 30
0.0
  0
ENDBLK
  5
16DE3
330
16DD7
100
AcDbEntity
  8
0
 48
50.0
100
AcDbBlockEnd
  0
BLOCK
  5
16DEF
330
16DE4
100
AcDbEntity
  8
0
 48
50.0
100
AcDbBlockBegin
  2
*D31
 70
     1
 10
0.0
 20
0.0
 30
0.0
  3
*D31
  1

  0
LINE
  5
16ECE
330
16DE4
100
AcDbEntity
  8
寸法
 62
     0
 48
50.0
370
    -2
100
AcDbLine
 10
9810.20647697704
 20
5231.006459556709
 30
0.0
 11
9157.306306683009
 21
5255.657490796687
 31
0.0
  0
LINE
  5
16ECF
330
16DE4
100
AcDbEntity
  8
寸法
 62
     0
 48
50.0
370
    -2
100
AcDbLine
 10
9815.526311128994
 20
5371.906066953592
 30
0.0
 11
9162.626140834801
 21
5396.557098193575
 31
0.0
  0
LINE
  5
16ED0
330
16DE4
100
AcDbEntity
  8
寸法
 62
     0
 48
50.0
370
    -2
100
AcDbLine
 10
9217.263586426366
 20
5253.393731583159
 30
0.0
 11
9222.583420578159
 21
5394.293338980047
 31
0.0
  0
LINE
  5
16ED1
330
16DE4
100
AcDbEntity
  8
寸法
 62
     0
 48
50.0
370
    -2
100
AcDbLine
 10
9222.583420578159
 20
5394.293338980047
 30
0.0
 11
9236.165975859355
 21
5754.037017440882
 31
0.0
  0
INSERT
  5
16ED2
330
16DE4
100
AcDbEntity
  8
寸法
 62
     0
 48
50.0
370
    -2
100
AcDbBlockReference
  2
_DOTSMALL
 10
9217.263586426366
 20
5253.393731583159
 30
0.0
 41
100.0
 42
100.0
 43
100.0
 50
267.8377559871574
  0
INSERT
  5
16ED3
330
16DE4
100
AcDbEntity
  8
寸法
 62
     0
 48
50.0
370
    -2
100
AcDbBlockReference
  2
_DOTSMALL
 10
9222.583420578159
 20
5394.293338980047
 30
0.0
 41
100.0
 42
100.0
 43
100.0
 50
87.83775598715743
  0
MTEXT
  5
16ED4
330
16DE4
100
AcDbEntity
  8
寸法
 62
     7
 48
50.0
100
AcDbMText
 10
9131.332364657783
 20
5627.902510019488
 30
0.0
 40
120.0
 41
0.0
 71
     5
 72
     1
  1
\A1;141
  7
STYLE1
 11
0.03772932022548
 21
0.9992879957226159
 31
0.0
 73
     1
 44
1.0
1001
ACAD
1000
MTEXTBEGIN
1070
    73
1070
     1
1070
    44
1040
1.0
1070
    74
1070
     0
1000
MTEXTEND
  0
POINT
  5
16ED5
330
16DE4
100
AcDbEntity
  8
DEFPOINTS
 62
     0
 48
50.0
100
AcDbPoint
 10
9830.192236891491
 20
5230.2518731522
 30
0.0
  0
POINT
  5
16ED6
330
16DE4
100
AcDbEntity
  8
DEFPOINTS
 62
     0
 48
50.0
100
AcDbPoint
 10
9835.512071043446
 20
5371.151480549081
 30
0.0
  0
POINT
  5
16ED7
330
16DE4
100
AcDbEntity
  8
DEFPOINTS
 62
     0
 48
50.0
100
AcDbPoint
 10
9222.583420578159
 20
5394.293338980047
 30
0.0
  0
ENDBLK
  5
16DF0
330
16DE4
100
AcDbEntity
  8
0
 48
50.0
100
AcDbBlockEnd
  0
BLOCK
  5
16DFB
330
16DF1
100
AcDbEntity
  8
0
 48
50.0
100
AcDbBlockBegin
  2
*D32
 70
     1
 10
0.0
 20
0.0
 30
0.0
  3
*D32
  1

  0
LINE
  5
16EC5
330
16DF1
100
AcDbEntity
  8
寸法
 62
     0
 48
50.0
370
    -2
100
AcDbLine
 10
9847.84730224476
 20
5137.470848083233
 30
0.0
 11
9212.886581597336
 21
5137.470848083233
 31
0.0
  0
LINE
  5
16EC6
330
16DF1
100
AcDbEntity
  8
寸法
 62
     0
 48
50.0
370
    -2
100
AcDbLine
 10
9847.84730224476
 20
3347.470848083236
 30
0.0
 11
9212.886581597333
 21
3347.470848083236
 31
0.0
  0
LINE
  5
16EC7
330
16DF1
100
AcDbEntity
  8
寸法
 62
     0
 48
50.0
370
    -2
100
AcDbLine
 10
9272.886581597335
 20
5137.470848083233
 30
0.0
 11
9272.886581597333
 21
3347.470848083236
 31
0.0
  0
INSERT
  5
16EC8
330
16DF1
100
AcDbEntity
  8
寸法
 62
     0
 48
50.0
370
    -2
100
AcDbBlockReference
  2
_DOTSMALL
 10
9272.886581597335
 20
5137.470848083233
 30
0.0
 41
100.0
 42
100.0
 43
100.0
 50
90.0
  0
INSERT
  5
16EC9
330
16DF1
100
AcDbEntity
  8
寸法
 62
     0
 48
50.0
370
    -2
100
AcDbBlockReference
  2
_DOTSMALL
 10
9272.886581597333
 20
3347.470848083236
 30
0.0
 41
100.0
 42
100.0
 43
100.0
 50
270.0
  0
MTEXT
  5
16ECA
330
16DF1
100
AcDbEntity
  8
寸法
 62
     7
 48
50.0
100
AcDbMText
 10
9172.886581597333
 20
4252.505859959621
 30
0.0
 40
120.0
 41
0.0
 71
     5
 72
     1
  1
\A1;1790
  7
STYLE1
 11
0.0000000000000001
 21
1.0
 31
0.0
 73
     1
 44
1.0
1001
ACAD
1000
MTEXTBEGIN
1070
    73
1070
     1
1070
    44
1040
1.0
1070
    74
1070
     0
1000
MTEXTEND
  0
POINT
  5
16ECB
330
16DF1
100
AcDbEntity
  8
DEFPOINTS
 62
     0
 48
50.0
100
AcDbPoint
 10
9867.847302244761
 20
5137.470848083233
 30
0.0
  0
POINT
  5
16ECC
330
16DF1
100
AcDbEntity
  8
DEFPOINTS
 62
     0
 48
50.0
100
AcDbPoint
 10
9867.847302244761
 20
3347.470848083236
 30
0.0
  0
POINT
  5
16ECD
330
16DF1
100
AcDbEntity
  8
DEFPOINTS
 62
     0
 48
50.0
100
AcDbPoint
 10
9272.886581597333
 20
3347.470848083236
 30
0.0
  0
ENDBLK
  5
16DFC
330
16DF1
100
AcDbEntity
  8
0
 48
50.0
100
AcDbBlockEnd
  0
BLOCK
  5
16FD7
330
16FCD
100
AcDbEntity
  8
0
 48
50.0
100
AcDbBlockBegin
  2
*D33
 70
     1
 10
0.0
 20
0.0
 30
0.0
  3
*D33
  1

  0
LINE
  5
16FE5
330
16FCD
100
AcDbEntity
  8
寸法
 62
     0
 48
50.0
370
    -2
100
AcDbLine
 10
5872.118782558169
 20
8954.759486297815
 30
0.0
 11
5763.465385027338
 21
8549.259486297778
 31
0.0
  0
LINE
  5
16FE6
330
16FCD
100
AcDbEntity
  8
寸法
 62
     0
 48
50.0
370
    -2
100
AcDbLine
 10
6633.118782558182
 20
8954.759486297808
 30
0.0
 11
6524.465385027352
 21
8549.259486297778
 31
0.0
  0
LINE
  5
16FE7
330
16FCD
100
AcDbEntity
  8
寸法
 62
     0
 48
50.0
370
    -2
100
AcDbLine
 10
5779.542336573206
 20
8609.259486297778
 30
0.0
 11
6540.542336573221
 21
8609.259486297778
 31
0.0
  0
INSERT
  5
16FE8
330
16FCD
100
AcDbEntity
  8
寸法
 62
     0
 48
50.0
370
    -2
100
AcDbBlockReference
  2
_DOTSMALL
 10
5779.542336573206
 20
8609.259486297778
 30
0.0
 41
100.0
 42
100.0
 43
100.0
 50
180.0
  0
INSERT
  5
16FE9
330
16FCD
100
AcDbEntity
  8
寸法
 62
     0
 48
50.0
370
    -2
100
AcDbBlockReference
  2
_DOTSMALL
 10
6540.542336573221
 20
8609.259486297778
 30
0.0
 41
100.0
 42
100.0
 43
100.0
  0
MTEXT
  5
16FEA
330
16FCD
100
AcDbEntity
  8
寸法
 62
     7
 48
50.0
100
AcDbMText
 10
6160.042336573213
 20
8709.25948629778
 30
0.0
 40
120.0
 41
0.0
 71
     5
 72
     1
  1
\A1;761
  7
STYLE1
 73
     1
 44
1.0
1001
ACAD
1000
MTEXTBEGIN
1070
    73
1070
     1
1070
    44
1040
1.0
1070
    74
1070
     0
1000
MTEXTEND
  0
POINT
  5
16FEB
330
16FCD
100
AcDbEntity
  8
DEFPOINTS
 62
     0
 48
50.0
100
AcDbPoint
 10
5877.477766406792
 20
8974.759486297815
 30
0.0
  0
POINT
  5
16FEC
330
16FCD
100
AcDbEntity
  8
DEFPOINTS
 62
     0
 48
50.0
100
AcDbPoint
 10
6638.477766406804
 20
8974.759486297807
 30
0.0
  0
POINT
  5
16FED
330
16FCD
100
AcDbEntity
  8
DEFPOINTS
 62
     0
 48
50.0
100
AcDbPoint
 10
6540.542336573221
 20
8609.259486297778
 30
0.0
  0
ENDBLK
  5
16FD8
330
16FCD
100
AcDbEntity
  8
0
 48
50.0
100
AcDbBlockEnd
  0
BLOCK
  5
16FE3
330
16FD9
100
AcDbEntity
  8
0
 48
50.0
100
AcDbBlockBegin
  2
*D34
 70
     1
 10
0.0
 20
0.0
 30
0.0
  3
*D34
  1

  0
LINE
  5
16FEE
330
16FD9
100
AcDbEntity
  8
寸法
 62
     0
 48
50.0
370
    -2
100
AcDbLine
 10
5052.118782558169
 20
8954.759486297815
 30
0.0
 11
4943.465385027337
 21
8549.259486297778
 31
0.0
  0
LINE
  5
16FEF
330
16FD9
100
AcDbEntity
  8
寸法
 62
     0
 48
50.0
370
    -2
100
AcDbLine
 10
5813.118782558182
 20
8954.759486297808
 30
0.0
 11
5704.465385027353
 21
8549.259486297778
 31
0.0
  0
LINE
  5
16FF0
330
16FD9
100
AcDbEntity
  8
寸法
 62
     0
 48
50.0
370
    -2
100
AcDbLine
 10
4959.542336573206
 20
8609.259486297778
 30
0.0
 11
5720.54233657322
 21
8609.259486297778
 31
0.0
  0
INSERT
  5
16FF1
330
16FD9
100
AcDbEntity
  8
寸法
 62
     0
 48
50.0
370
    -2
100
AcDbBlockReference
  2
_DOTSMALL
 10
4959.542336573206
 20
8609.259486297778
 30
0.0
 41
100.0
 42
100.0
 43
100.0
 50
180.0
  0
INSERT
  5
16FF2
330
16FD9
100
AcDbEntity
  8
寸法
 62
     0
 48
50.0
370
    -2
100
AcDbBlockReference
  2
_DOTSMALL
 10
5720.54233657322
 20
8609.259486297778
 30
0.0
 41
100.0
 42
100.0
 43
100.0
  0
MTEXT
  5
16FF3
330
16FD9
100
AcDbEntity
  8
寸法
 62
     7
 48
50.0
100
AcDbMText
 10
5339.984621380672
 20
8709.25948629778
 30
0.0
 40
120.0
 41
0.0
 71
     5
 72
     1
  1
\A1;761
  7
STYLE1
 73
     1
 44
1.0
1001
ACAD
1000
MTEXTBEGIN
1070
    73
1070
     1
1070
    44
1040
1.0
1070
    74
1070
     0
1000
MTEXTEND
  0
POINT
  5
16FF4
330
16FD9
100
AcDbEntity
  8
DEFPOINTS
 62
     0
 48
50.0
100
AcDbPoint
 10
5057.477766406791
 20
8974.759486297815
 30
0.0
  0
POINT
  5
16FF5
330
16FD9
100
AcDbEntity
  8
DEFPOINTS
 62
     0
 48
50.0
100
AcDbPoint
 10
5818.477766406804
 20
8974.759486297807
 30
0.0
  0
POINT
  5
16FF6
330
16FD9
100
AcDbEntity
  8
DEFPOINTS
 62
     0
 48
50.0
100
AcDbPoint
 10
5720.54233657322
 20
8609.259486297778
 30
0.0
  0
ENDBLK
  5
16FE4
330
16FD9
100
AcDbEntity
  8
0
 48
50.0
100
AcDbBlockEnd
  0
BLOCK
  5
17004
330
16FFA
100
AcDbEntity
  8
0
 48
50.0
100
AcDbBlockBegin
  2
*D35
 70
     1
 10
0.0
 20
0.0
 30
0.0
  3
*D35
  1

  0
LINE
  5
17006
330
16FFA
100
AcDbEntity
  8
寸法
 62
     0
 48
50.0
370
    -2
100
AcDbLine
 10
6692.11878255817
 20
8954.759500157109
 30
0.0
 11
6583.465385027338
 21
8549.259500157074
 31
0.0
  0
LINE
  5
17007
330
16FFA
100
AcDbEntity
  8
寸法
 62
     0
 48
50.0
370
    -2
100
AcDbLine
 10
7453.118782558182
 20
8954.759500157102
 30
0.0
 11
7344.465385027354
 21
8549.259500157074
 31
0.0
  0
LINE
  5
17008
330
16FFA
100
AcDbEntity
  8
寸法
 62
     0
 48
50.0
370
    -2
100
AcDbLine
 10
6599.542336573207
 20
8609.259500157074
 30
0.0
 11
7360.542336573222
 21
8609.259500157074
 31
0.0
  0
INSERT
  5
17009
330
16FFA
100
AcDbEntity
  8
寸法
 62
     0
 48
50.0
370
    -2
100
AcDbBlockReference
  2
_DOTSMALL
 10
6599.542336573207
 20
8609.259500157074
 30
0.0
 41
100.0
 42
100.0
 43
100.0
 50
180.0
  0
INSERT
  5
1700A
330
16FFA
100
AcDbEntity
  8
寸法
 62
     0
 48
50.0
370
    -2
100
AcDbBlockReference
  2
_DOTSMALL
 10
7360.542336573222
 20
8609.259500157074
 30
0.0
 41
100.0
 42
100.0
 43
100.0
  0
MTEXT
  5
1700B
330
16FFA
100
AcDbEntity
  8
寸法
 62
     7
 48
50.0
100
AcDbMText
 10
6980.042336573214
 20
8709.259500157074
 30
0.0
 40
120.0
 41
0.0
 71
     5
 72
     1
  1
\A1;761
  7
STYLE1
 73
     1
 44
1.0
1001
ACAD
1000
MTEXTBEGIN
1070
    73
1070
     1
1070
    44
1040
1.0
1070
    74
1070
     0
1000
MTEXTEND
  0
POINT
  5
1700C
330
16FFA
100
AcDbEntity
  8
DEFPOINTS
 62
     0
 48
50.0
100
AcDbPoint
 10
6697.477766406793
 20
8974.75950015711
 30
0.0
  0
POINT
  5
1700D
330
16FFA
100
AcDbEntity
  8
DEFPOINTS
 62
     0
 48
50.0
100
AcDbPoint
 10
7458.477766406805
 20
8974.759500157103
 30
0.0
  0
POINT
  5
1700E
330
16FFA
100
AcDbEntity
  8
DEFPOINTS
 62
     0
 48
50.0
100
AcDbPoint
 10
7360.542336573222
 20
8609.259500157074
 30
0.0
  0
ENDBLK
  5
17005
330
16FFA
100
AcDbEntity
  8
0
 48
50.0
100
AcDbBlockEnd
  0
ENDSEC
  0
SECTION
  2
ENTITIES
  0
LINE
  5
10B56
330
747D
100
AcDbEntity
  8
補助
  6
PHANTOM
 62
   230
 48
50.0
100
AcDbLine
 10
140.0
 20
0.0
 30
0.0
 11
139.9999999999995
 21
11409.6
 31
0.0
  0
LINE
  5
10B57
330
747D
100
AcDbEntity
  8
補助
  6
PHANTOM
 62
   230
 48
50.0
100
AcDbLine
 10
139.9999999999995
 20
11409.6
 30
0.0
 11
16307.2
 21
11409.6
 31
0.0
  0
LINE
  5
10B59
330
747D
100
AcDbEntity
  8
仕様書枠
  6
Continuous
 48
50.0
100
AcDbLine
 10
13107.2
 20
1200.0
 30
0.0
 11
13107.2
 21
-0.0000000000000729
 31
0.0
  0
LINE
  5
10B5C
330
747D
100
AcDbEntity
  8
仕様書枠
 48
50.0
100
AcDbLine
 10
16307.2
 20
1200.0
 30
0.0
 11
16307.2
 21
-0.0000000000000909
 31
0.0
  0
LINE
  5
10B5D
330
747D
100
AcDbEntity
  8
仕様書枠
 48
50.0
100
AcDbLine
 10
140.0
 20
0.0
 30
0.0
 11
16307.2
 21
-0.0000000000000909
 31
0.0
  0
LINE
  5
10B5E
330
747D
100
AcDbEntity
  8
補助
  6
PHANTOM
 62
   230
 48
50.0
100
AcDbLine
 10
16307.2
 20
11409.6
 30
0.0
 11
16307.2
 21
1200.0
 31
0.0
  0
LINE
  5
10B6C
330
747D
100
AcDbEntity
  8
仕様書枠
 48
50.0
100
AcDbLine
 10
13107.2
 20
1200.0
 30
0.0
 11
16307.2
 21
1200.0
 31
0.0
  0
LINE
  5
10B6D
330
747D
100
AcDbEntity
  8
補助
  6
PHANTOM
 62
   230
 48
50.0
100
AcDbLine
 10
13107.2
 20
11409.6
 30
0.0
 11
13107.2
 21
4800.0
 31
0.0
  0
LINE
  5
10B6F
330
747D
100
AcDbEntity
  8
補助
  6
PHANTOM
 62
   230
 48
50.0
100
AcDbLine
 10
13107.2
 20
4800.0
 30
0.0
 11
16307.2
 21
4800.0
 31
0.0
  0
LINE
  5
10B72
330
747D
100
AcDbEntity
  8
文字
 62
     7
 48
50.0
100
AcDbLine
 10
13187.2
 20
400.0
 30
0.0
 11
16227.2
 21
400.0
 31
0.0
  0
TEXT
  5
10B73
330
747D
100
AcDbEntity
  8
文字
 62
     7
 48
50.0
100
AcDbText
 10
13162.9790565769
 20
895.0906074299405
 30
0.0
 40
200.0
  1
外 形 図
  7
STYLE2
100
AcDbText
  0
TEXT
  5
10B74
330
747D
100
AcDbEntity
  8
文字
 62
     7
 48
50.0
100
AcDbText
 10
13201.43669998441
 20
477.2740661031255
 30
0.0
 40
160.0
  1
機種名
  7
STYLE2
100
AcDbText
  0
TEXT
  5
10B75
330
747D
100
AcDbEntity
  8
文字
 62
     7
 48
50.0
100
AcDbText
 10
13209.4053442172
 20
228.5435242569016
 30
0.0
 40
100.0
  1
○有効開口寸法 ： 685×1760(mm)
  7
STYLE2
100
AcDbText
  0
TEXT
  5
10B76
330
747D
100
AcDbEntity
  8
文字
 62
     7
 48
50.0
100
AcDbText
 10
13209.4053442172
 20
76.09434707649343
 30
0.0
 40
100.0
  1
○床面積 ： 3.37㎡(1.02坪) 　
  7
STYLE2
100
AcDbText
  0
TEXT
  5
10B79
330
747D
100
AcDbEntity
  8
文字
 62
     7
 48
50.0
100
AcDbText
 10
14524.131837222
 20
1031.557706291228
 30
0.0
 40
100.0
  1
NO.02     <縮尺> S=1/40
  7
STYLE2
100
AcDbText
  0
LINE
  5
10B7B
330
747D
100
AcDbEntity
  8
仕様書枠
 48
50.0
100
AcDbLine
 10
13107.2
 20
800.0
 30
0.0
 11
14251.2
 21
800.0
 31
0.0
  0
LINE
  5
10B88
330
747D
100
AcDbEntity
  8
仕様書枠
  6
Continuous
 48
50.0
100
AcDbLine
 10
14251.2
 20
1200.0
 30
0.0
 11
14251.2
 21
800.0
 31
0.0
  0
TEXT
  5
13B2F
330
747D
100
AcDbEntity
  8
部品1
100
AcDbText
 10
5967.212104403365
 20
6553.787268279496
 30
0.0
 40
135.0
  1
平面図
  7
STYLE2
100
AcDbText
  0
LWPOLYLINE
  5
13B30
330
747D
100
AcDbEntity
  8
部品1
100
AcDbPolyline
 90
        4
 70
     1
 43
0.0
 10
5877.292494574328
 20
6746.680797498019
 10
5877.292494574328
 20
6506.788475952486
 10
6640.763160802767
 20
6506.788475952486
 10
6640.763160802767
 20
6746.680797498019
  0
DIMENSION
  5
15107
330
747D
100
AcDbEntity
  8
寸法
 48
50.0
100
AcDbDimension
  2
*D1
 10
6722.977759729163
 20
9670.06770592291
 30
0.0
 11
7077.977759729162
 21
9770.06770592291
 31
0.0
 70
    32
 71
     5
 42
709.9999999999981
  3
INABA_S40G
100
AcDbAlignedDimension
 13
7432.977759729161
 23
9454.259486297919
 33
0.0
 14
6722.977759729163
 24
9454.259486297905
 34
0.0
100
AcDbRotatedDimension
  0
DIMENSION
  5
15108
330
747D
100
AcDbEntity
  8
寸法
100
AcDbDimension
  2
*D2
 10
7487.977759729162
 20
9670.067705922889
 30
0.0
 11
7796.463041103399
 21
9670.067705922889
 31
0.0
 70
   160
 71
     5
 42
55.0
  3
INABA_S40G
100
AcDbAlignedDimension
 13
7432.977759729161
 23
9454.259486297905
 33
0.0
 14
7487.977759729162
 24
9454.259486297905
 34
0.0
100
AcDbRotatedDimension
1001
ACAD
1000
DSTYLE
1002
{
1002
}
  0
DIMENSION
  5
15109
330
747D
100
AcDbEntity
  8
寸法
 48
50.0
100
AcDbDimension
  2
*D3
 10
5902.977759729163
 20
9670.06770592291
 30
0.0
 11
5847.977759729161
 21
9770.06770592291
 31
0.0
 70
    32
 71
     5
 42
110.0000000000036
  3
INABA_S40G
100
AcDbAlignedDimension
 13
5792.97775972916
 23
9454.259486297926
 33
0.0
 14
5902.977759729163
 24
9454.259486297905
 34
0.0
100
AcDbRotatedDimension
  0
DIMENSION
  5
1510A
330
747D
100
AcDbEntity
  8
寸法
100
AcDbDimension
  2
*D4
 10
5792.97775972916
 20
9670.06770592291
 30
0.0
 11
5438.227759729159
 21
9670.06770592291
 31
0.0
 70
   160
 71
     5
 42
709.9999999999981
  3
INABA_S40G
100
AcDbAlignedDimension
 13
5082.977759729161
 23
9454.259486297841
 33
0.0
 14
5792.97775972916
 24
9454.259486297926
 34
0.0
100
AcDbRotatedDimension
1001
ACAD
1000
DSTYLE
1002
{
1002
}
  0
DIMENSION
  5
1510B
330
747D
100
AcDbEntity
  8
寸法
 48
50.0
100
AcDbDimension
  2
*D5
 10
6722.977759729163
 20
9670.06770592291
 30
0.0
 11
6667.977759729161
 21
9770.06770592291
 31
0.0
 70
    32
 71
     5
 42
110.0000000000036
  3
INABA_S40G
100
AcDbAlignedDimension
 13
6612.977759729159
 23
9454.259486297926
 33
0.0
 14
6722.977759729163
 24
9454.259486297905
 34
0.0
100
AcDbRotatedDimension
  0
DIMENSION
  5
1510C
330
747D
100
AcDbEntity
  8
寸法
100
AcDbDimension
  2
*D6
 10
6612.977759729159
 20
9670.06770592291
 30
0.0
 11
6258.227759729159
 21
9670.06770592291
 31
0.0
 70
   160
 71
     5
 42
709.9999999999981
  3
INABA_S40G
100
AcDbAlignedDimension
 13
5902.977759729161
 23
9454.259486297841
 33
0.0
 14
6612.977759729159
 24
9454.259486297926
 34
0.0
100
AcDbRotatedDimension
1001
ACAD
1000
DSTYLE
1002
{
1002
}
  0
DIMENSION
  5
1510D
330
747D
100
AcDbEntity
  8
寸法
100
AcDbDimension
  2
*D7
 10
8135.404105463571
 20
9399.259486297905
 30
0.0
 11
8135.404105463571
 21
9762.744767672145
 31
0.0
 70
   160
 71
     5
 42
55.0
  3
INABA_S40G
100
AcDbAlignedDimension
 13
7487.977759729162
 23
9454.259486297905
 33
0.0
 14
7487.977759729162
 24
9399.259486297905
 34
0.0
 50
90.0
100
AcDbRotatedDimension
1001
ACAD
1000
DSTYLE
1002
{
1002
}
  0
DIMENSION
  5
1510E
330
747D
100
AcDbEntity
  8
寸法
100
AcDbDimension
  2
*D8
 10
5082.977759729161
 20
9670.067705922793
 30
0.0
 11
4719.492478354887
 21
9670.067705922793
 31
0.0
 70
   160
 71
     5
 42
55.00000000003637
  3
INABA_S40G
100
AcDbAlignedDimension
 13
5027.977759729125
 23
9454.259486297813
 33
0.0
 14
5082.977759729161
 24
9454.259486297813
 34
0.0
100
AcDbRotatedDimension
1001
ACAD
1000
DSTYLE
1002
{
1002
}
  0
LINE
  5
1510F
330
747D
100
AcDbEntity
  8
部品1
100
AcDbLine
 10
5875.977759729108
 20
9426.259486297833
 30
0.0
 11
6665.358462747761
 21
9426.259486297855
 31
0.0
  0
LINE
  5
15110
330
747D
100
AcDbEntity
  8
部品1
100
AcDbLine
 10
5877.47776640679
 20
9424.759486297871
 30
0.0
 11
6638.477766406791
 21
9424.75948629792
 31
0.0
  0
LINE
  5
15111
330
747D
100
AcDbEntity
  8
部品1
100
AcDbLine
 10
5027.977759729161
 20
9454.259486297813
 30
0.0
 11
7487.977759729162
 21
9454.259486297905
 31
0.0
  0
LINE
  5
15112
330
747D
100
AcDbEntity
  8
破線
 48
10.0
100
AcDbLine
 10
6588.977759729147
 20
8239.259486297855
 30
0.0
 11
5926.977759729147
 21
8239.259486297839
 31
0.0
  0
LINE
  5
15113
330
747D
100
AcDbEntity
  8
部品1
 48
5.0
100
AcDbLine
 10
5871.977759729156
 20
8113.759486297789
 30
0.0
 11
6643.977759729157
 21
8113.759486297848
 31
0.0
  0
ARC
  5
15114
330
747D
100
AcDbEntity
  8
想像線
 48
10.0
100
AcDbCircle
 10
6615.625709051997
 20
8085.954379673419
 30
0.0
 40
722.649936915561
100
AcDbArc
 50
180.1343808685485
 51
270.5829222700353
  0
LINE
  5
15116
330
747D
100
AcDbEntity
  8
部品1
100
AcDbLine
 10
6612.47775972914
 20
8215.759486297855
 30
0.0
 11
5903.477266475256
 21
8215.758984100382
 31
0.0
  0
LINE
  5
15117
330
747D
100
AcDbEntity
  8
部品1
100
AcDbLine
 10
6622.977759729154
 20
8110.259486297898
 30
0.0
 11
5892.977759729154
 21
8110.259486297868
 31
0.0
  0
LINE
  5
15118
330
747D
100
AcDbEntity
  8
部品1
100
AcDbLine
 10
5877.477766406792
 20
8974.75948629787
 30
0.0
 11
6638.47776640679
 21
8974.759486297919
 31
0.0
  0
DIMENSION
  5
1511A
330
747D
100
AcDbEntity
  8
寸法
100
AcDbDimension
  2
*D9
 10
7487.977759729137
 20
7097.157611437655
 30
0.0
 11
6257.977759729145
 21
7097.157611437655
 31
0.0
 70
   160
 71
     5
 42
2459.999999999982
  3
INABA_S40G
100
AcDbAlignedDimension
 13
5027.977759729154
 23
8084.25948629773
 33
0.0
 14
7487.977759729137
 24
8084.259486297863
 34
0.0
100
AcDbRotatedDimension
1001
ACAD
1000
DSTYLE
1002
{
1002
}
  0
LINE
  5
1511B
330
747D
100
AcDbEntity
  8
部品1
100
AcDbLine
 10
7487.977759729137
 20
8084.259486297892
 30
0.0
 11
5027.977759729154
 21
8084.259486297797
 31
0.0
  0
LINE
  5
1511C
330
747D
100
AcDbEntity
  8
細線
 48
50.0
100
AcDbLine
 10
6638.477766406791
 20
9424.75948629792
 30
0.0
 11
5877.477766406792
 21
8974.75948629787
 31
0.0
  0
LINE
  5
1511D
330
747D
100
AcDbEntity
  8
細線
 48
50.0
100
AcDbLine
 10
6638.47776640679
 20
8974.759486297919
 30
0.0
 11
5877.47776640679
 21
9424.759486297871
 31
0.0
  0
LINE
  5
1511E
330
747D
100
AcDbEntity
  8
部品1
 48
5.0
100
AcDbLine
 10
5792.977759729156
 20
8139.259486297849
 30
0.0
 11
5792.977759729158
 21
8113.759486297848
 31
0.0
  0
LINE
  5
1511F
330
747D
100
AcDbEntity
  8
部品1
 48
5.0
100
AcDbLine
 10
5823.977759729156
 20
8139.259486297849
 30
0.0
 11
5823.977759729156
 21
8113.759486297848
 31
0.0
  0
LINE
  5
15120
330
747D
100
AcDbEntity
  8
部品1
 48
5.0
100
AcDbLine
 10
5871.977759729158
 20
8139.259486297849
 30
0.0
 11
5871.977759729156
 21
8113.759486297848
 31
0.0
  0
LINE
  5
15121
330
747D
100
AcDbEntity
  8
部品1
 48
5.0
100
AcDbLine
 10
5902.977759729156
 20
8139.259486297849
 30
0.0
 11
5902.977759729157
 21
8113.759486297848
 31
0.0
  0
LINE
  5
15122
330
747D
100
AcDbEntity
  8
部品1
 48
2.83
100
AcDbLine
 10
5027.977759729154
 20
8084.25948629773
 30
0.0
 11
5027.977759729154
 21
8139.259486297731
 31
0.0
  0
LINE
  5
15123
330
747D
100
AcDbEntity
  8
部品1
100
AcDbLine
 10
5027.977759729152
 20
8139.259486297731
 30
0.0
 11
5027.977759729154
 21
8084.25948629773
 31
0.0
  0
LINE
  5
15124
330
747D
100
AcDbEntity
  8
部品1
 48
2.83
100
AcDbLine
 10
5082.977759729153
 20
8139.259486297731
 30
0.0
 11
5082.977759729158
 21
8113.75948629773
 31
0.0
  0
LINE
  5
15125
330
747D
100
AcDbEntity
  8
部品1
100
AcDbLine
 10
5027.977759729125
 20
9454.259486297775
 30
0.0
 11
5027.977759729154
 21
8084.259486297767
 31
0.0
  0
DIMENSION
  5
15126
330
747D
100
AcDbEntity
  8
寸法
 48
50.0
100
AcDbDimension
  2
*D10
 10
7407.977759729154
 20
7644.435818502727
 30
0.0
 11
7065.477759729155
 21
7644.435818502727
 31
0.0
 70
   160
  1
有効開口部間口\P<>
 71
     5
 42
684.9999999999964
  3
INABA_S40G
100
AcDbAlignedDimension
 13
6722.977759729158
 23
8084.259486297804
 33
0.0
 14
7407.977759729154
 24
8084.259486297767
 34
0.0
100
AcDbRotatedDimension
  0
ARC
  5
15127
330
747D
100
AcDbEntity
  8
想像線
 48
10.0
100
AcDbCircle
 10
5795.625709051997
 20
8085.954379673419
 30
0.0
 40
722.6499369155621
100
AcDbArc
 50
180.1343808685507
 51
270.5829222700352
  0
LINE
  5
15128
330
747D
100
AcDbEntity
  8
部品1
100
AcDbLine
 10
5802.977759729154
 20
8110.259486297861
 30
0.0
 11
5072.977759729154
 21
8110.259486297833
 31
0.0
  0
LINE
  5
15129
330
747D
100
AcDbEntity
  8
部品1
 48
5.0
100
AcDbLine
 10
5070.977759729154
 20
8113.75948629773
 30
0.0
 11
5823.977759729156
 21
8113.759486297789
 31
0.0
  0
LINE
  5
1512A
330
747D
100
AcDbEntity
  8
部品1
100
AcDbLine
 10
5898.977759729154
 20
8084.259486297797
 30
0.0
 11
5027.977759729154
 21
8084.259486297767
 31
0.0
  0
LINE
  5
1512B
330
747D
100
AcDbEntity
  8
部品1
 48
2.83
100
AcDbLine
 10
5070.977759729154
 20
8084.25948629773
 30
0.0
 11
5027.977759729154
 21
8084.25948629773
 31
0.0
  0
LINE
  5
1512C
330
747D
100
AcDbEntity
  8
部品1
100
AcDbLine
 10
5072.977759729154
 20
8110.259486297833
 30
0.0
 11
5072.977759729154
 21
8084.259486297797
 31
0.0
  0
LINE
  5
1512D
330
747D
100
AcDbEntity
  8
部品1
 48
2.83
100
AcDbLine
 10
5070.977759729154
 20
8113.75948629773
 30
0.0
 11
5070.977759729154
 21
8084.25948629773
 31
0.0
  0
LINE
  5
1512E
330
747D
100
AcDbEntity
  8
想像線
 48
10.0
100
AcDbLine
 10
5802.977759729154
 20
8084.259486297847
 30
0.0
 11
5802.977759729154
 21
7363.341842642057
 31
0.0
  0
LINE
  5
1512F
330
747D
100
AcDbEntity
  8
部品1
 48
5.0
100
AcDbLine
 10
5804.977759729156
 20
8084.259486297847
 30
0.0
 11
5890.977759729156
 21
8084.259486297847
 31
0.0
  0
LINE
  5
15130
330
747D
100
AcDbEntity
  8
部品1
 48
0.2
100
AcDbLine
 10
5790.040207557831
 20
8077.25711625307
 30
0.0
 11
5795.040207557832
 21
8077.25711625307
 31
0.0
  0
ARC
  5
15131
330
747D
100
AcDbEntity
  8
細線
 48
0.2
100
AcDbCircle
 10
5795.040207557832
 20
8085.257116253069
 30
0.0
 40
4.049999999999999
100
AcDbArc
 50
194.2603506853988
 51
345.7396493146012
  0
ARC
  5
15132
330
747D
100
AcDbEntity
  8
部品1
 48
0.2
100
AcDbCircle
 10
5790.040207557831
 20
8085.257116253069
 30
0.0
 40
8.0
100
AcDbArc
 50
187.1636477221926
 51
269.9999999999992
  0
ARC
  5
15133
330
747D
100
AcDbEntity
  8
部品1
 48
0.2
100
AcDbCircle
 10
5795.040207557832
 20
8085.257116253069
 30
0.0
 40
8.0
100
AcDbArc
 50
270.0
 51
352.8363522778074
  0
LINE
  5
15134
330
747D
100
AcDbEntity
  8
部品1
 48
5.0
100
AcDbLine
 10
5804.977759729156
 20
8113.759486297848
 30
0.0
 11
5804.977759729156
 21
8084.259486297847
 31
0.0
  0
LINE
  5
15135
330
747D
100
AcDbEntity
  8
部品1
100
AcDbLine
 10
5804.977759729155
 20
8113.759486297789
 30
0.0
 11
5804.97775972915
 21
8084.25948629784
 31
0.0
  0
LINE
  5
15136
330
747D
100
AcDbEntity
  8
部品1
100
AcDbLine
 10
5802.977759729154
 20
8110.259486297898
 30
0.0
 11
5802.977759729154
 21
8084.25948629784
 31
0.0
  0
LINE
  5
15137
330
747D
100
AcDbEntity
  8
部品1
 48
5.0
100
AcDbLine
 10
5890.977759729156
 20
8113.759486297848
 30
0.0
 11
5890.977759729156
 21
8084.259486297847
 31
0.0
  0
LINE
  5
15138
330
747D
100
AcDbEntity
  8
部品1
100
AcDbLine
 10
5890.977759729154
 20
8113.759486297796
 30
0.0
 11
5890.977759729156
 21
8084.259486297847
 31
0.0
  0
LINE
  5
15139
330
747D
100
AcDbEntity
  8
部品1
100
AcDbLine
 10
5892.977759729154
 20
8110.259486297868
 30
0.0
 11
5892.977759729154
 21
8084.259486297833
 31
0.0
  0
LINE
  5
1513A
330
747D
100
AcDbEntity
  8
部品1
 48
50.0
100
AcDbLine
 10
5903.477753384854
 20
8215.759486322513
 30
0.0
 11
5903.477756357716
 21
8974.759486297854
 31
0.0
  0
LINE
  5
1513B
330
747D
100
AcDbEntity
  8
部品1
 48
50.0
100
AcDbLine
 10
5792.477759729139
 20
8215.759486297855
 30
0.0
 11
5792.477759729114
 21
8974.759486297912
 31
0.0
  0
LINE
  5
1513C
330
747D
100
AcDbEntity
  8
破線
 48
10.0
100
AcDbLine
 10
5768.977759729146
 20
8239.259486297855
 30
0.0
 11
5768.977753566882
 21
8781.75956882227
 31
0.0
  0
LINE
  5
1513D
330
747D
100
AcDbEntity
  8
破線
 48
10.0
100
AcDbLine
 10
5926.977759729147
 20
8239.259486297862
 30
0.0
 11
5926.977750560039
 21
8781.759562300424
 31
0.0
  0
LINE
  5
1513E
330
747D
100
AcDbEntity
  8
部品1
 48
5.0
100
AcDbLine
 10
5084.478731154119
 20
8215.759486297905
 30
0.0
 11
5084.478238222807
 21
8974.759486297818
 31
0.0
  0
LINE
  5
1513F
330
747D
100
AcDbEntity
  8
破線
 48
10.0
100
AcDbLine
 10
5107.977824653863
 20
8974.759486297818
 30
0.0
 11
5107.977812030848
 21
8831.759596106698
 31
0.0
  0
LINE
  5
15141
330
747D
100
AcDbEntity
  8
部品1
 48
50.0
100
AcDbLine
 10
5847.97775972914
 20
8139.259486297849
 30
0.0
 11
5847.97775972914
 21
9399.259486297856
 31
0.0
  0
LINE
  5
15142
330
747D
100
AcDbEntity
  8
部品1
 48
50.0
100
AcDbLine
 10
5819.977759729139
 20
8139.259486297849
 30
0.0
 11
5819.977759729087
 21
9426.259486297855
 31
0.0
  0
LINE
  5
15143
330
747D
100
AcDbEntity
  8
部品1
 48
50.0
100
AcDbLine
 10
5875.977759729139
 20
8139.259486297849
 30
0.0
 11
5875.977759729085
 21
9454.259486297855
 31
0.0
  0
LINE
  5
15144
330
747D
100
AcDbEntity
  8
部品1
100
AcDbLine
 10
5055.977759729135
 20
8139.25948629776
 30
0.0
 11
5055.977759729161
 21
9426.259486297812
 31
0.0
  0
LINE
  5
15145
330
747D
100
AcDbEntity
  8
部品1
100
AcDbLine
 10
5792.478330177319
 20
8215.758905477891
 30
0.0
 11
5084.478731155549
 21
8215.758403989367
 31
0.0
  0
LINE
  5
15146
330
747D
100
AcDbEntity
  8
破線
 48
10.0
100
AcDbLine
 10
5768.977759729146
 20
8239.259486297832
 30
0.0
 11
5107.977759729147
 21
8239.259486297818
 31
0.0
  0
LINE
  5
15147
330
747D
100
AcDbEntity
  8
部品1
 48
2.83
100
AcDbLine
 10
5059.977759729154
 20
8139.259486297731
 30
0.0
 11
5082.977759729153
 21
8139.259486297731
 31
0.0
  0
LINE
  5
15148
330
747D
100
AcDbEntity
  8
部品1
 48
2.83
100
AcDbLine
 10
5027.977759729154
 20
8139.259486297731
 30
0.0
 11
5050.977759729153
 21
8139.259486297731
 31
0.0
  0
LINE
  5
15149
330
747D
100
AcDbEntity
  8
部品1
100
AcDbLine
 10
5055.977759729135
 20
8139.259486297731
 30
0.0
 11
5027.977759729152
 21
8139.259486297731
 31
0.0
  0
LINE
  5
1514A
330
747D
100
AcDbEntity
  8
部品1
100
AcDbLine
 10
5055.977759729135
 20
8139.25948629776
 30
0.0
 11
5027.977759729152
 21
8139.25948629776
 31
0.0
  0
LINE
  5
1514B
330
747D
100
AcDbEntity
  8
部品1
100
AcDbLine
 10
5055.977759729152
 20
8139.259486297774
 30
0.0
 11
5027.977759729152
 21
8139.259486297774
 31
0.0
  0
LINE
  5
1514C
330
747D
100
AcDbEntity
  8
部品1
 48
50.0
100
AcDbLine
 10
5084.478731155549
 20
8215.758403989367
 30
0.0
 11
5055.977759729135
 21
8186.739233056902
 31
0.0
  0
LINE
  5
1514D
330
747D
100
AcDbEntity
  8
部品1
100
AcDbLine
 10
5055.977759729135
 20
8559.259486297774
 30
0.0
 11
5027.977759729136
 21
8559.259486297774
 31
0.0
  0
LINE
  5
1514E
330
747D
100
AcDbEntity
  8
部品1
 48
5.0
100
AcDbLine
 10
5879.977759729156
 20
8139.259486297849
 30
0.0
 11
5902.977759729156
 21
8139.259486297849
 31
0.0
  0
LINE
  5
1514F
330
747D
100
AcDbEntity
  8
部品1
 48
5.0
100
AcDbLine
 10
5819.977759729139
 20
8139.259486297849
 30
0.0
 11
5875.977759729139
 21
8139.259486297849
 31
0.0
  0
LINE
  5
15150
330
747D
100
AcDbEntity
  8
部品1
 48
5.0
100
AcDbLine
 10
5815.977759729156
 20
8139.259486297849
 30
0.0
 11
5792.977759729154
 21
8139.259486297849
 31
0.0
  0
LINE
  5
15151
330
747D
100
AcDbEntity
  8
部品1
 48
50.0
100
AcDbLine
 10
5903.477759729138
 20
8215.75948632252
 30
0.0
 11
5875.977759729139
 21
8187.759486297847
 31
0.0
  0
LINE
  5
15152
330
747D
100
AcDbEntity
  8
部品1
 48
50.0
100
AcDbLine
 10
5819.977759729139
 20
8187.759486297847
 30
0.0
 11
5792.477759729139
 21
8215.759486297855
 31
0.0
  0
LINE
  5
15153
330
747D
100
AcDbEntity
  8
部品1
 48
5.0
100
AcDbLine
 10
5847.97775972914
 20
8559.259486297847
 30
0.0
 11
5819.977759729089
 21
8559.259486297854
 31
0.0
  0
LINE
  5
15154
330
747D
100
AcDbEntity
  8
部品1
100
AcDbLine
 10
5057.47776640679
 20
9424.759486297871
 30
0.0
 11
5818.477766406791
 21
9424.75948629792
 31
0.0
  0
LINE
  5
15155
330
747D
100
AcDbEntity
  8
部品1
100
AcDbLine
 10
5055.977759729161
 20
9426.259486297812
 30
0.0
 11
5845.358462747783
 21
9426.259486297833
 31
0.0
  0
LINE
  5
15156
330
747D
100
AcDbEntity
  8
部品1
100
AcDbLine
 10
5057.477766406791
 20
8974.75948629787
 30
0.0
 11
5818.47776640679
 21
8974.759486297919
 31
0.0
  0
LINE
  5
15157
330
747D
100
AcDbEntity
  8
細線
 48
50.0
100
AcDbLine
 10
5818.477766406791
 20
9424.75948629792
 30
0.0
 11
5057.477766406791
 21
8974.75948629787
 31
0.0
  0
LINE
  5
15158
330
747D
100
AcDbEntity
  8
細線
 48
50.0
100
AcDbLine
 10
5818.47776640679
 20
8974.759486297919
 30
0.0
 11
5057.47776640679
 21
9424.759486297871
 31
0.0
  0
LINE
  5
15159
330
747D
100
AcDbEntity
  8
部品1
 48
50.0
100
AcDbLine
 10
5057.47776640679
 20
9424.759486297871
 30
0.0
 11
5057.477766406791
 21
8974.75948629787
 31
0.0
  0
LINE
  5
1515A
330
747D
100
AcDbEntity
  8
部品1
100
AcDbLine
 10
5055.977759729135
 20
8979.259486297776
 30
0.0
 11
5027.977759729136
 21
8979.259486297776
 31
0.0
  0
LINE
  5
1515B
330
747D
100
AcDbEntity
  8
部品1
 48
50.0
100
AcDbLine
 10
5057.477766406784
 20
9424.759486297819
 30
0.0
 11
5055.977759729161
 21
9426.259486297812
 31
0.0
  0
LINE
  5
1515C
330
747D
100
AcDbEntity
  8
部品1
100
AcDbLine
 10
5055.977759729128
 20
9399.259486297783
 30
0.0
 11
5027.977759729129
 21
9399.259486297783
 31
0.0
  0
LINE
  5
1515D
330
747D
100
AcDbEntity
  8
部品1
100
AcDbLine
 10
5082.977759729125
 20
9454.259486297775
 30
0.0
 11
5082.977759729129
 21
9426.259486297775
 31
0.0
  0
LINE
  5
1515E
330
747D
100
AcDbEntity
  8
部品1
100
AcDbLine
 10
5082.977759729161
 20
9454.259486297813
 30
0.0
 11
5082.977759729161
 21
9426.259486297812
 31
0.0
  0
LINE
  5
1515F
330
747D
100
AcDbEntity
  8
部品1
 48
50.0
100
AcDbLine
 10
5818.477766406791
 20
9424.75948629792
 30
0.0
 11
5818.477766406791
 21
8974.759486297919
 31
0.0
  0
LINE
  5
15160
330
747D
100
AcDbEntity
  8
部品1
 48
50.0
100
AcDbLine
 10
5877.47776640679
 20
9424.759486297871
 30
0.0
 11
5877.477766406792
 21
8974.75948629787
 31
0.0
  0
LINE
  5
15161
330
747D
100
AcDbEntity
  8
部品1
 48
50.0
100
AcDbLine
 10
5847.977759729133
 20
9017.259486297856
 30
0.0
 11
5875.977759729114
 21
9017.259486297856
 31
0.0
  0
LINE
  5
15162
330
747D
100
AcDbEntity
  8
部品1
 48
50.0
100
AcDbLine
 10
5847.977759729133
 20
8979.259486297854
 30
0.0
 11
5875.977759729114
 21
8979.259486297854
 31
0.0
  0
LINE
  5
15163
330
747D
100
AcDbEntity
  8
部品1
 48
5.0
100
AcDbLine
 10
5847.97775972914
 20
8979.259486297847
 30
0.0
 11
5819.977759729089
 21
8979.259486297854
 31
0.0
  0
LINE
  5
15164
330
747D
100
AcDbEntity
  8
部品1
 48
5.0
100
AcDbLine
 10
5875.977759729089
 20
9399.259486297856
 30
0.0
 11
5819.977759729089
 21
9399.259486297856
 31
0.0
  0
LINE
  5
15165
330
747D
100
AcDbEntity
  8
部品1
 48
5.0
100
AcDbLine
 10
5822.687034176335
 20
9454.259486297855
 30
0.0
 11
5845.358462747763
 21
9426.259486297855
 31
0.0
  0
LINE
  5
15166
330
747D
100
AcDbEntity
  8
部品1
 48
5.0
100
AcDbLine
 10
5792.977759729158
 20
9426.259486297855
 30
0.0
 11
5792.97775972916
 21
9454.259486297855
 31
0.0
  0
LINE
  5
15167
330
747D
100
AcDbEntity
  8
部品1
 48
50.0
100
AcDbLine
 10
5818.477766406791
 20
9424.704973638098
 30
0.0
 11
5819.977759729087
 21
9426.259486297855
 31
0.0
  0
LINE
  5
15168
330
747D
100
AcDbEntity
  8
部品1
 48
50.0
100
AcDbLine
 10
5877.477759729092
 20
9424.704964777596
 30
0.0
 11
5875.977759729087
 21
9426.259486297855
 31
0.0
  0
LINE
  5
15169
330
747D
100
AcDbEntity
  8
部品1
 48
5.0
100
AcDbLine
 10
5902.977759729163
 20
9454.259486297855
 30
0.0
 11
5902.977759729157
 21
9426.259486297862
 31
0.0
  0
DIMENSION
  5
1516A
330
747D
100
AcDbEntity
  8
寸法
100
AcDbDimension
  2
*D11
 10
8135.404105463546
 20
8084.259486297892
 30
0.0
 11
8135.404105463546
 21
7706.398019393029
 31
0.0
 70
   160
 71
     5
 42
55.0
  3
INABA_S40G
100
AcDbAlignedDimension
 13
7487.977759729137
 23
8139.259486297891
 33
0.0
 14
7487.977759729137
 24
8084.259486297892
 34
0.0
 50
90.0
100
AcDbRotatedDimension
1001
ACAD
1000
DSTYLE
1002
{
1002
}
  0
LINE
  5
1516B
330
747D
100
AcDbEntity
  8
部品1
 48
2.83
100
AcDbLine
 10
7432.977759729135
 20
8139.259486297863
 30
0.0
 11
7432.977759729135
 21
8113.759486297862
 31
0.0
  0
LINE
  5
1516C
330
747D
100
AcDbEntity
  8
部品1
 48
5.0
100
AcDbLine
 10
6612.977759729156
 20
8139.259486297849
 30
0.0
 11
6612.977759729158
 21
8113.759486297848
 31
0.0
  0
LINE
  5
1516D
330
747D
100
AcDbEntity
  8
部品1
 48
5.0
100
AcDbLine
 10
6643.977759729157
 20
8139.259486297849
 30
0.0
 11
6643.977759729157
 21
8113.759486297848
 31
0.0
  0
LINE
  5
1516E
330
747D
100
AcDbEntity
  8
部品1
 48
5.0
100
AcDbLine
 10
6691.977759729159
 20
8139.259486297849
 30
0.0
 11
6691.977759729155
 21
8113.759486297848
 31
0.0
  0
LINE
  5
1516F
330
747D
100
AcDbEntity
  8
部品1
 48
5.0
100
AcDbLine
 10
6722.977759729156
 20
8139.259486297849
 30
0.0
 11
6722.977759729158
 21
8113.759486297848
 31
0.0
  0
LINE
  5
15170
330
747D
100
AcDbEntity
  8
部品1
100
AcDbLine
 10
7487.977759729162
 20
9454.259486297905
 30
0.0
 11
7487.977759729137
 21
8084.259486297892
 31
0.0
  0
DIMENSION
  5
15171
330
747D
100
AcDbEntity
  8
寸法
100
AcDbDimension
  2
*D12
 10
8444.51563627925
 20
8084.259486297892
 30
0.0
 11
8444.515636279247
 21
8769.259486297899
 31
0.0
 70
   160
 71
     5
 42
1370.000000000014
  3
INABA_S40G
100
AcDbAlignedDimension
 13
7487.977759729162
 23
9454.259486297905
 33
0.0
 14
7487.977759729137
 24
8084.259486297892
 34
0.0
 50
90.0
100
AcDbRotatedDimension
1001
ACAD
1000
DSTYLE
1002
{
1002
}
  0
ARC
  5
15172
330
747D
100
AcDbEntity
  8
想像線
 48
10.0
100
AcDbCircle
 10
7435.625709051997
 20
8085.954379673434
 30
0.0
 40
722.6499369155638
100
AcDbArc
 50
180.1343808685487
 51
270.5829222700352
  0
LINE
  5
15174
330
747D
100
AcDbEntity
  8
部品1
100
AcDbLine
 10
7442.977759729155
 20
8110.259486297898
 30
0.0
 11
6712.977759729153
 21
8110.25948629784
 31
0.0
  0
LINE
  5
15175
330
747D
100
AcDbEntity
  8
部品1
 48
5.0
100
AcDbLine
 10
7444.977759729136
 20
8113.759486297848
 30
0.0
 11
6691.977759729155
 21
8113.759486297848
 31
0.0
  0
LINE
  5
15176
330
747D
100
AcDbEntity
  8
想像線
 48
10.0
100
AcDbLine
 10
6622.977759729154
 20
8084.259486297847
 30
0.0
 11
6622.977759729154
 21
7363.341842642057
 31
0.0
  0
LINE
  5
15177
330
747D
100
AcDbEntity
  8
部品1
 48
0.2
100
AcDbLine
 10
6610.040207557831
 20
8077.25711625307
 30
0.0
 11
6615.040207557831
 21
8077.25711625307
 31
0.0
  0
ARC
  5
15178
330
747D
100
AcDbEntity
  8
細線
 48
0.2
100
AcDbCircle
 10
6615.040207557831
 20
8085.257116253069
 30
0.0
 40
4.049999999999999
100
AcDbArc
 50
194.2603506853988
 51
345.7396493146012
  0
ARC
  5
15179
330
747D
100
AcDbEntity
  8
部品1
 48
0.2
100
AcDbCircle
 10
6610.040207557831
 20
8085.257116253069
 30
0.0
 40
8.0
100
AcDbArc
 50
187.1636477221926
 51
269.9999999999992
  0
LINE
  5
1517A
330
747D
100
AcDbEntity
  8
部品1
 48
5.0
100
AcDbLine
 10
6624.977759729155
 20
8084.259486297847
 30
0.0
 11
6710.977759729155
 21
8084.259486297847
 31
0.0
  0
ARC
  5
1517B
330
747D
100
AcDbEntity
  8
部品1
 48
0.2
100
AcDbCircle
 10
6615.040207557831
 20
8085.257116253069
 30
0.0
 40
8.0
100
AcDbArc
 50
270.0
 51
352.8363522778074
  0
LINE
  5
1517C
330
747D
100
AcDbEntity
  8
部品1
 48
5.0
100
AcDbLine
 10
6624.977759729155
 20
8113.759486297848
 30
0.0
 11
6624.977759729155
 21
8084.259486297847
 31
0.0
  0
LINE
  5
1517D
330
747D
100
AcDbEntity
  8
部品1
100
AcDbLine
 10
6624.977759729154
 20
8113.759486297789
 30
0.0
 11
6624.977759729151
 21
8084.25948629784
 31
0.0
  0
LINE
  5
1517E
330
747D
100
AcDbEntity
  8
部品1
100
AcDbLine
 10
6622.977759729154
 20
8110.259486297898
 30
0.0
 11
6622.977759729154
 21
8084.25948629784
 31
0.0
  0
LINE
  5
1517F
330
747D
100
AcDbEntity
  8
部品1
 48
5.0
100
AcDbLine
 10
6710.977759729155
 20
8113.759486297848
 30
0.0
 11
6710.977759729155
 21
8084.259486297847
 31
0.0
  0
LINE
  5
15180
330
747D
100
AcDbEntity
  8
部品1
100
AcDbLine
 10
6712.977759729153
 20
8110.25948629784
 30
0.0
 11
6712.977759729152
 21
8084.259486297847
 31
0.0
  0
LINE
  5
15181
330
747D
100
AcDbEntity
  8
部品1
100
AcDbLine
 10
6710.977759729154
 20
8113.759486297796
 30
0.0
 11
6710.977759729155
 21
8084.259486297847
 31
0.0
  0
LINE
  5
15182
330
747D
100
AcDbEntity
  8
想像線
 48
10.0
100
AcDbLine
 10
7442.977759729155
 20
8084.259486297854
 30
0.0
 11
7442.977759729155
 21
7363.341842642064
 31
0.0
  0
LINE
  5
15183
330
747D
100
AcDbEntity
  8
部品1
 48
2.83
100
AcDbLine
 10
7444.977759729136
 20
8113.759486297862
 30
0.0
 11
7444.977759729136
 21
8084.259486297863
 31
0.0
  0
ARC
  5
15184
330
747D
100
AcDbEntity
  8
細線
 48
0.2
100
AcDbCircle
 10
7435.040207557833
 20
8085.257116253083
 30
0.0
 40
4.049999999999999
100
AcDbArc
 50
194.2603506853988
 51
345.7396493146012
  0
ARC
  5
15185
330
747D
100
AcDbEntity
  8
部品1
 48
0.2
100
AcDbCircle
 10
7430.040207557834
 20
8085.257116253083
 30
0.0
 40
8.0
100
AcDbArc
 50
187.1636477221926
 51
269.9999999999992
  0
ARC
  5
15186
330
747D
100
AcDbEntity
  8
部品1
 48
0.2
100
AcDbCircle
 10
7435.040207557833
 20
8085.257116253083
 30
0.0
 40
8.0
100
AcDbArc
 50
270.0
 51
352.8363522778074
  0
LINE
  5
15187
330
747D
100
AcDbEntity
  8
部品1
 48
0.2
100
AcDbLine
 10
7430.040207557834
 20
8077.257116253084
 30
0.0
 11
7435.040207557833
 21
8077.257116253084
 31
0.0
  0
LINE
  5
15188
330
747D
100
AcDbEntity
  8
部品1
100
AcDbLine
 10
7442.977759729155
 20
8110.259486297898
 30
0.0
 11
7442.977759729155
 21
8084.259486297892
 31
0.0
  0
DIMENSION
  5
15189
330
747D
100
AcDbEntity
  8
寸法
100
AcDbDimension
  2
*D13
 10
7813.835485591119
 20
8879.541670628958
 30
0.0
 11
7713.835485591117
 21
9104.541670628959
 31
0.0
 70
    32
 71
     5
 42
450.0
  3
INABA_S40G
100
AcDbAlignedDimension
 13
7458.477759729094
 23
9424.759486297848
 33
0.0
 14
7458.477759729094
 24
8974.759486297847
 34
0.0
 50
90.0
100
AcDbRotatedDimension
1001
ACAD
1000
DSTYLE
1002
{
1002
}
  0
DIMENSION
  5
1518A
330
747D
100
AcDbEntity
  8
寸法
100
AcDbDimension
  2
*D14
 10
8135.404105463571
 20
8139.259486297891
 30
0.0
 11
8135.404105463571
 21
8769.259486297899
 31
0.0
 70
   160
  1
3X420=<>
 71
     5
 42
1260.000000000014
  3
INABA_S40G
100
AcDbAlignedDimension
 13
7487.977759729162
 23
9399.259486297905
 33
0.0
 14
7487.977759729137
 24
8139.259486297891
 34
0.0
 50
90.0
100
AcDbRotatedDimension
1001
ACAD
1000
DSTYLE
1002
{
1002
}
  0
LINE
  5
1518B
330
747D
100
AcDbEntity
  8
部品1
 48
5.0
100
AcDbLine
 10
7431.476788304204
 20
8215.759486297905
 30
0.0
 11
7431.477281235514
 21
8974.759486297847
 31
0.0
  0
LINE
  5
1518C
330
747D
100
AcDbEntity
  8
破線
 48
10.0
100
AcDbLine
 10
7407.97782465383
 20
8974.759486297854
 30
0.0
 11
7407.977812030813
 21
8831.759501168427
 31
0.0
  0
LINE
  5
1518D
330
747D
100
AcDbEntity
  8
部品1
 48
50.0
100
AcDbLine
 10
6723.477753384854
 20
8215.759486322513
 30
0.0
 11
6723.477756357715
 21
8974.759486297854
 31
0.0
  0
LINE
  5
1518E
330
747D
100
AcDbEntity
  8
部品1
 48
50.0
100
AcDbLine
 10
6612.47775972914
 20
8215.759486297855
 30
0.0
 11
6612.477759729114
 21
8974.759486297912
 31
0.0
  0
LINE
  5
1518F
330
747D
100
AcDbEntity
  8
破線
 48
10.0
100
AcDbLine
 10
6746.977759729147
 20
8239.259486297862
 30
0.0
 11
6746.977750560041
 21
8781.759528452864
 31
0.0
  0
LINE
  5
15191
330
747D
100
AcDbEntity
  8
破線
 48
10.0
100
AcDbLine
 10
6588.977759729147
 20
8239.259486297855
 30
0.0
 11
6588.977753566881
 21
8781.759534974712
 31
0.0
  0
LINE
  5
15192
330
747D
100
AcDbEntity
  8
部品1
 48
50.0
100
AcDbLine
 10
6667.977759729139
 20
8139.259486297849
 30
0.0
 11
6667.977759729139
 21
9399.259486297856
 31
0.0
  0
LINE
  5
15193
330
747D
100
AcDbEntity
  8
部品1
 48
50.0
100
AcDbLine
 10
6639.977759729139
 20
8139.259486297849
 30
0.0
 11
6639.977759729086
 21
9426.259486297855
 31
0.0
  0
LINE
  5
15194
330
747D
100
AcDbEntity
  8
部品1
 48
50.0
100
AcDbLine
 10
6695.977759729139
 20
8139.259486297849
 30
0.0
 11
6695.977759729085
 21
9454.259486297855
 31
0.0
  0
LINE
  5
15195
330
747D
100
AcDbEntity
  8
部品1
100
AcDbLine
 10
7459.977759729162
 20
9426.259486297906
 30
0.0
 11
7459.977759729138
 21
8139.259486297891
 31
0.0
  0
LINE
  5
15196
330
747D
100
AcDbEntity
  8
破線
 48
10.0
100
AcDbLine
 10
7407.977759729139
 20
8239.259486297898
 30
0.0
 11
6746.977759729147
 21
8239.259486297862
 31
0.0
  0
LINE
  5
15197
330
747D
100
AcDbEntity
  8
部品1
100
AcDbLine
 10
7431.476788304346
 20
8215.759592010746
 30
0.0
 11
6723.477759729139
 21
8215.75948632252
 31
0.0
  0
LINE
  5
15198
330
747D
100
AcDbEntity
  8
部品1
 48
5.0
100
AcDbLine
 10
6635.977759729155
 20
8139.259486297849
 30
0.0
 11
6612.977759729154
 21
8139.259486297849
 31
0.0
  0
LINE
  5
15199
330
747D
100
AcDbEntity
  8
部品1
 48
50.0
100
AcDbLine
 10
6639.977759729139
 20
8187.759486297847
 30
0.0
 11
6612.47775972914
 21
8215.759486297855
 31
0.0
  0
LINE
  5
1519A
330
747D
100
AcDbEntity
  8
部品1
 48
5.0
100
AcDbLine
 10
6699.977759729155
 20
8139.259486297849
 30
0.0
 11
6722.977759729156
 21
8139.259486297849
 31
0.0
  0
LINE
  5
1519B
330
747D
100
AcDbEntity
  8
部品1
 48
5.0
100
AcDbLine
 10
6639.977759729139
 20
8139.259486297849
 30
0.0
 11
6695.977759729139
 21
8139.259486297849
 31
0.0
  0
LINE
  5
1519C
330
747D
100
AcDbEntity
  8
部品1
 48
50.0
100
AcDbLine
 10
6723.477759729139
 20
8215.75948632252
 30
0.0
 11
6695.977759729139
 21
8187.759486297847
 31
0.0
  0
LINE
  5
1519D
330
747D
100
AcDbEntity
  8
部品1
 48
5.0
100
AcDbLine
 10
6667.977759729139
 20
8559.259486297847
 30
0.0
 11
6639.977759729089
 21
8559.259486297854
 31
0.0
  0
LINE
  5
1519E
330
747D
100
AcDbEntity
  8
部品1
 48
2.83
100
AcDbLine
 10
7487.977759729137
 20
8139.259486297863
 30
0.0
 11
7464.977759729136
 21
8139.259486297863
 31
0.0
  0
LINE
  5
1519F
330
747D
100
AcDbEntity
  8
部品1
100
AcDbLine
 10
7459.977759729138
 20
8139.259486297891
 30
0.0
 11
7487.977759729137
 21
8139.259486297891
 31
0.0
  0
LINE
  5
151A0
330
747D
100
AcDbEntity
  8
部品1
100
AcDbLine
 10
7459.977759729169
 20
8139.259486297907
 30
0.0
 11
7487.977759729169
 21
8139.259486297907
 31
0.0
  0
LINE
  5
151A1
330
747D
100
AcDbEntity
  8
部品1
 48
50.0
100
AcDbLine
 10
7459.977759729138
 20
8186.740421105493
 30
0.0
 11
7431.476788304346
 21
8215.759592010746
 31
0.0
  0
LINE
  5
151A2
330
747D
100
AcDbEntity
  8
部品1
 48
2.83
100
AcDbLine
 10
7455.977759729136
 20
8139.259486297863
 30
0.0
 11
7432.977759729135
 21
8139.259486297863
 31
0.0
  0
LINE
  5
151A3
330
747D
100
AcDbEntity
  8
部品1
100
AcDbLine
 10
7459.977759729162
 20
8559.259486297905
 30
0.0
 11
7487.977759729162
 21
8559.259486297905
 31
0.0
  0
LINE
  5
151A4
330
747D
100
AcDbEntity
  8
部品1
100
AcDbLine
 10
6695.977759729085
 20
9426.259486297855
 30
0.0
 11
7459.977759729162
 21
9426.259486297906
 31
0.0
  0
LINE
  5
151A5
330
747D
100
AcDbEntity
  8
部品1
100
AcDbLine
 10
6697.477759729093
 20
9424.759486297855
 30
0.0
 11
7458.477759729094
 21
9424.759486297848
 31
0.0
  0
LINE
  5
151A6
330
747D
100
AcDbEntity
  8
部品1
100
AcDbLine
 10
6697.477759729093
 20
8974.759486297854
 30
0.0
 11
7458.477759729094
 21
8974.759486297847
 31
0.0
  0
LINE
  5
151A7
330
747D
100
AcDbEntity
  8
細線
 48
50.0
100
AcDbLine
 10
7458.477759729094
 20
9424.759486297848
 30
0.0
 11
6697.477759729093
 21
8974.759486297854
 31
0.0
  0
LINE
  5
151A8
330
747D
100
AcDbEntity
  8
細線
 48
50.0
100
AcDbLine
 10
7458.477759729094
 20
8974.759486297847
 30
0.0
 11
6697.477759729093
 21
9424.759486297855
 31
0.0
  0
LINE
  5
151A9
330
747D
100
AcDbEntity
  8
部品1
 48
50.0
100
AcDbLine
 10
6697.477759729093
 20
9424.759486297855
 30
0.0
 11
6697.477759729093
 21
8974.759486297854
 31
0.0
  0
LINE
  5
151AA
330
747D
100
AcDbEntity
  8
部品1
 48
50.0
100
AcDbLine
 10
6638.477766406791
 20
9424.75948629792
 30
0.0
 11
6638.477766406791
 21
8974.759486297919
 31
0.0
  0
LINE
  5
151AB
330
747D
100
AcDbEntity
  8
部品1
 48
50.0
100
AcDbLine
 10
6667.977759729132
 20
9017.259486297856
 30
0.0
 11
6695.977759729114
 21
9017.259486297856
 31
0.0
  0
LINE
  5
151AC
330
747D
100
AcDbEntity
  8
部品1
 48
50.0
100
AcDbLine
 10
6667.977759729132
 20
8979.259486297854
 30
0.0
 11
6695.977759729114
 21
8979.259486297854
 31
0.0
  0
LINE
  5
151AD
330
747D
100
AcDbEntity
  8
部品1
 48
5.0
100
AcDbLine
 10
6667.977759729139
 20
8979.259486297847
 30
0.0
 11
6639.977759729089
 21
8979.259486297854
 31
0.0
  0
LINE
  5
151AE
330
747D
100
AcDbEntity
  8
部品1
 48
5.0
100
AcDbLine
 10
6612.977759729158
 20
9426.259486297855
 30
0.0
 11
6612.977759729159
 21
9454.259486297855
 31
0.0
  0
LINE
  5
151AF
330
747D
100
AcDbEntity
  8
部品1
 48
5.0
100
AcDbLine
 10
6695.977759729088
 20
9399.259486297856
 30
0.0
 11
6639.977759729089
 21
9399.259486297856
 31
0.0
  0
LINE
  5
151B0
330
747D
100
AcDbEntity
  8
部品1
 48
5.0
100
AcDbLine
 10
6642.687034176335
 20
9454.259486297855
 30
0.0
 11
6665.358462747763
 21
9426.259486297855
 31
0.0
  0
LINE
  5
151B1
330
747D
100
AcDbEntity
  8
部品1
 48
50.0
100
AcDbLine
 10
6638.477766406791
 20
9424.704973638098
 30
0.0
 11
6639.977759729086
 21
9426.259486297855
 31
0.0
  0
LINE
  5
151B2
330
747D
100
AcDbEntity
  8
部品1
 48
50.0
100
AcDbLine
 10
6697.477759729093
 20
9424.704964777596
 30
0.0
 11
6695.977759729086
 21
9426.259486297855
 31
0.0
  0
LINE
  5
151B3
330
747D
100
AcDbEntity
  8
部品1
 48
5.0
100
AcDbLine
 10
6722.977759729163
 20
9454.259486297855
 30
0.0
 11
6722.977759729158
 21
9426.259486297862
 31
0.0
  0
LINE
  5
151B4
330
747D
100
AcDbEntity
  8
部品1
100
AcDbLine
 10
7458.477759729094
 20
9424.759486297848
 30
0.0
 11
7458.477759729094
 21
8974.759486297847
 31
0.0
  0
LINE
  5
151B5
330
747D
100
AcDbEntity
  8
部品1
100
AcDbLine
 10
7459.977759729162
 20
8979.259486297905
 30
0.0
 11
7487.977759729162
 21
8979.259486297905
 31
0.0
  0
LINE
  5
151B6
330
747D
100
AcDbEntity
  8
部品1
 48
50.0
100
AcDbLine
 10
7458.477753051486
 20
9424.759486297855
 30
0.0
 11
7459.977759729162
 21
9426.259486297906
 31
0.0
  0
LINE
  5
151B7
330
747D
100
AcDbEntity
  8
部品1
100
AcDbLine
 10
7459.977759729162
 20
9399.259486297905
 30
0.0
 11
7487.977759729162
 21
9399.259486297905
 31
0.0
  0
LINE
  5
151B8
330
747D
100
AcDbEntity
  8
部品1
100
AcDbLine
 10
7432.977759729161
 20
9454.259486297905
 30
0.0
 11
7432.977759729161
 21
9426.259486297906
 31
0.0
  0
LINE
  5
151B9
330
747D
100
AcDbEntity
  8
部品1
100
AcDbLine
 10
7432.977759729161
 20
9454.259486297919
 30
0.0
 11
7432.977759729161
 21
9426.25948629792
 31
0.0
  0
LINE
  5
1556A
330
747D
100
AcDbEntity
  8
細線
 48
50.0
100
AcDbLine
 10
5407.977759729162
 20
9432.75948629769
 30
0.0
 11
5407.97775972916
 21
9454.259486297688
 31
0.0
  0
LINE
  5
1556B
330
747D
100
AcDbEntity
  8
細線
 48
50.0
100
AcDbLine
 10
5467.977759729161
 20
9432.75948629769
 30
0.0
 11
5467.977759729159
 21
9454.259486297695
 31
0.0
  0
LINE
  5
1556C
330
747D
100
AcDbEntity
  8
細線
 48
50.0
100
AcDbLine
 10
5467.977759729161
 20
9432.75948629769
 30
0.0
 11
5407.977759729162
 21
9432.759486297689
 31
0.0
  0
LINE
  5
1556D
330
747D
100
AcDbEntity
  8
細線
 48
50.0
100
AcDbLine
 10
6287.977759729161
 20
9432.759486297801
 30
0.0
 11
6227.977759729161
 21
9432.759486297797
 31
0.0
  0
LINE
  5
1556E
330
747D
100
AcDbEntity
  8
細線
 48
50.0
100
AcDbLine
 10
6227.977759729161
 20
9432.759486297801
 30
0.0
 11
6227.97775972916
 21
9454.259486297797
 31
0.0
  0
LINE
  5
1556F
330
747D
100
AcDbEntity
  8
細線
 48
50.0
100
AcDbLine
 10
6287.977759729161
 20
9432.759486297801
 30
0.0
 11
6287.97775972916
 21
9454.259486297804
 31
0.0
  0
LINE
  5
15570
330
747D
100
AcDbEntity
  8
細線
 48
50.0
100
AcDbLine
 10
7107.977753051462
 20
9432.75948629795
 30
0.0
 11
7107.977753051461
 21
9454.259486297953
 31
0.0
  0
LINE
  5
15571
330
747D
100
AcDbEntity
  8
細線
 48
50.0
100
AcDbLine
 10
7047.977753051462
 20
9432.75948629795
 30
0.0
 11
7047.977753051461
 21
9454.259486297946
 31
0.0
  0
LINE
  5
15572
330
747D
100
AcDbEntity
  8
細線
 48
50.0
100
AcDbLine
 10
7107.977753051462
 20
9432.75948629795
 30
0.0
 11
7047.977753051462
 21
9432.759486297946
 31
0.0
  0
LINE
  5
15573
330
747D
100
AcDbEntity
  8
細線
 48
50.0
100
AcDbLine
 10
6836.977759729155
 20
8110.259486297881
 30
0.0
 11
6836.977759729155
 21
8084.259486297833
 31
0.0
  0
LINE
  5
15574
330
747D
100
AcDbEntity
  8
細線
 48
50.0
100
AcDbLine
 10
7249.977759729154
 20
8110.259486298083
 30
0.0
 11
7249.977759729154
 21
8084.259486298048
 31
0.0
  0
LINE
  5
15575
330
747D
100
AcDbEntity
  8
細線
 48
50.0
100
AcDbLine
 10
7062.977759729154
 20
8110.259486297868
 30
0.0
 11
7062.977759729154
 21
8084.259486297833
 31
0.0
  0
LINE
  5
15576
330
747D
100
AcDbEntity
  8
細線
 48
50.0
100
AcDbLine
 10
7022.977759729155
 20
8110.259486297868
 30
0.0
 11
7022.977759729155
 21
8084.259486297833
 31
0.0
  0
LINE
  5
15577
330
747D
100
AcDbEntity
  8
細線
 48
50.0
100
AcDbLine
 10
7289.977759729154
 20
8110.259486298083
 30
0.0
 11
7289.977759729154
 21
8084.259486298048
 31
0.0
  0
LINE
  5
15578
330
747D
100
AcDbEntity
  8
細線
 48
50.0
100
AcDbLine
 10
6242.977759729154
 20
8110.259486297868
 30
0.0
 11
6242.977759729154
 21
8084.259486297833
 31
0.0
  0
LINE
  5
15579
330
747D
100
AcDbEntity
  8
細線
 48
50.0
100
AcDbLine
 10
6016.977759729154
 20
8110.259486297881
 30
0.0
 11
6016.977759729154
 21
8084.259486297833
 31
0.0
  0
LINE
  5
1557A
330
747D
100
AcDbEntity
  8
細線
 48
50.0
100
AcDbLine
 10
6202.977759729154
 20
8110.259486297868
 30
0.0
 11
6202.977759729154
 21
8084.259486297833
 31
0.0
  0
LINE
  5
1557B
330
747D
100
AcDbEntity
  8
細線
 48
50.0
100
AcDbLine
 10
6469.977759729154
 20
8110.259486298083
 30
0.0
 11
6469.977759729154
 21
8084.259486298048
 31
0.0
  0
LINE
  5
1557C
330
747D
100
AcDbEntity
  8
細線
 48
50.0
100
AcDbLine
 10
6429.977759729154
 20
8110.259486298083
 30
0.0
 11
6429.977759729154
 21
8084.259486298048
 31
0.0
  0
LINE
  5
1557D
330
747D
100
AcDbEntity
  8
細線
 48
50.0
100
AcDbLine
 10
5196.977759729154
 20
8110.259486297881
 30
0.0
 11
5196.977759729154
 21
8084.259486297833
 31
0.0
  0
LINE
  5
1557E
330
747D
100
AcDbEntity
  8
細線
 48
50.0
100
AcDbLine
 10
5609.977759729154
 20
8110.259486298083
 30
0.0
 11
5609.977759729154
 21
8084.259486298048
 31
0.0
  0
LINE
  5
1557F
330
747D
100
AcDbEntity
  8
細線
 48
50.0
100
AcDbLine
 10
5422.977759729154
 20
8110.259486297868
 30
0.0
 11
5422.977759729154
 21
8084.259486297833
 31
0.0
  0
LINE
  5
15580
330
747D
100
AcDbEntity
  8
細線
 48
50.0
100
AcDbLine
 10
5382.977759729154
 20
8110.259486297868
 30
0.0
 11
5382.977759729154
 21
8084.259486297833
 31
0.0
  0
LINE
  5
15581
330
747D
100
AcDbEntity
  8
細線
 48
50.0
100
AcDbLine
 10
5649.977759729154
 20
8110.259486298083
 30
0.0
 11
5649.977759729154
 21
8084.259486298048
 31
0.0
  0
DIMENSION
  5
15645
330
747D
100
AcDbEntity
  8
寸法
 48
50.0
100
AcDbDimension
  2
*D15
 10
6587.977759729153
 20
7644.435818502727
 30
0.0
 11
6245.477759729156
 21
7644.435818502727
 31
0.0
 70
   160
 71
     5
 42
684.9999999999964
  3
INABA_S40G
100
AcDbAlignedDimension
 13
5902.977759729157
 23
8084.259486297804
 33
0.0
 14
6587.977759729153
 24
8084.259486297767
 34
0.0
100
AcDbRotatedDimension
  0
DIMENSION
  5
1565D
330
747D
100
AcDbEntity
  8
寸法
 48
50.0
100
AcDbDimension
  2
*D16
 10
5767.977759729154
 20
7644.435818502727
 30
0.0
 11
5425.477759729155
 21
7644.435818502727
 31
0.0
 70
   160
 71
     5
 42
684.9999999999964
  3
INABA_S40G
100
AcDbAlignedDimension
 13
5082.977759729158
 23
8084.259486297804
 33
0.0
 14
5767.977759729154
 24
8084.259486297767
 34
0.0
100
AcDbRotatedDimension
  0
LINE
  5
15A82
330
747D
100
AcDbEntity
  8
Ｇ．Ｌ
100
AcDbLine
 10
3935.45736630293
 20
3197.470848083233
 30
0.0
 11
12172.74358049436
 21
3197.470848083233
 31
0.0
  0
TEXT
  5
15B22
330
747D
100
AcDbEntity
  8
文字
 62
     7
 48
50.0
100
AcDbText
 10
14271.39351435261
 20
483.8967129911411
 30
0.0
 40
160.0
  1
ＮＸＮ－１１ＤＬ－３
  7
STYLE2
100
AcDbText
  0
LINE
  5
15B5E
330
747D
100
AcDbEntity
  8
仕様書枠
 48
50.0
100
AcDbLine
 10
16307.19999999999
 20
11409.6
 30
0.0
 11
13127.2
 21
11409.6
 31
0.0
  0
MTEXT
  5
15B80
330
747D
100
AcDbEntity
  8
寸法
 62
     7
 48
50.0
100
AcDbMText
 10
6273.257564017429
 20
9044.373233835099
 30
0.0
 40
96.0
 41
0.0
 71
     5
 72
     1
  1
棚 2段
  7
STYLE1
 73
     1
 44
1.0
1001
ACAD
1000
MTEXTBEGIN
1070
    73
1070
     1
1070
    44
1040
1.0
1070
    74
1070
     0
1000
MTEXTEND
  0
MTEXT
  5
15B81
330
747D
100
AcDbEntity
  8
寸法
 62
     7
 48
50.0
100
AcDbMText
 10
7093.257557339732
 20
9044.373233835086
 30
0.0
 40
96.0
 41
0.0
 71
     5
 72
     1
  1
棚 2段
  7
STYLE1
 73
     1
 44
1.0
1001
ACAD
1000
MTEXTBEGIN
1070
    73
1070
     1
1070
    44
1040
1.0
1070
    74
1070
     0
1000
MTEXTEND
  0
LINE
  5
16203
330
747D
100
AcDbEntity
  8
細線
100
AcDbLine
 10
7077.977759729162
 20
5196.970848083231
 30
0.0
 11
7077.977759729162
 21
5173.97084808323
 31
0.0
  0
LINE
  5
16204
330
747D
100
AcDbEntity
  8
細線
100
AcDbLine
 10
7151.977759729163
 20
5184.970848083231
 30
0.0
 11
7077.977759729162
 21
5184.970848083231
 31
0.0
  0
LINE
  5
16205
330
747D
100
AcDbEntity
  8
細線
100
AcDbLine
 10
7151.977759729163
 20
5178.97084808323
 30
0.0
 11
7077.977759729162
 21
5178.97084808323
 31
0.0
  0
LINE
  5
16206
330
747D
100
AcDbEntity
  8
細線
100
AcDbLine
 10
7151.977759729163
 20
5190.970848083231
 30
0.0
 11
7077.977759729162
 21
5190.970848083231
 31
0.0
  0
LINE
  5
16207
330
747D
100
AcDbEntity
  8
細線
100
AcDbLine
 10
7003.977759729163
 20
5190.970848083231
 30
0.0
 11
7072.977759729162
 21
5190.970848083231
 31
0.0
  0
LINE
  5
16208
330
747D
100
AcDbEntity
  8
細線
100
AcDbLine
 10
7003.977759729163
 20
5178.97084808323
 30
0.0
 11
7077.977759729162
 21
5178.97084808323
 31
0.0
  0
LINE
  5
16209
330
747D
100
AcDbEntity
  8
細線
100
AcDbLine
 10
7003.977759729163
 20
5184.970848083231
 30
0.0
 11
7077.977759729162
 21
5184.970848083231
 31
0.0
  0
LINE
  5
1620A
330
747D
100
AcDbEntity
  8
細線
100
AcDbLine
 10
7003.977759729163
 20
5190.970848083231
 30
0.0
 11
7077.977759729162
 21
5190.970848083231
 31
0.0
  0
LINE
  5
1620B
330
747D
100
AcDbEntity
  8
部品1
 48
0.01
100
AcDbLine
 10
7165.977759729163
 20
5203.470848083231
 30
0.0
 11
6989.977759729163
 21
5203.470848083231
 31
0.0
  0
LINE
  5
1620C
330
747D
100
AcDbEntity
  8
部品1
 48
0.01
100
AcDbLine
 10
6987.977759729163
 20
5201.47084808323
 30
0.0
 11
6987.977759729163
 21
5169.970848083231
 31
0.0
  0
LINE
  5
1620D
330
747D
100
AcDbEntity
  8
部品1
 48
0.01
100
AcDbLine
 10
6989.977759729163
 20
5167.97084808323
 30
0.0
 11
7165.977759729163
 21
5167.97084808323
 31
0.0
  0
LINE
  5
1620E
330
747D
100
AcDbEntity
  8
部品1
 48
0.01
100
AcDbLine
 10
7167.977759729163
 20
5169.970848083231
 30
0.0
 11
7167.977759729163
 21
5201.47084808323
 31
0.0
  0
LINE
  5
1620F
330
747D
100
AcDbEntity
  8
細線
100
AcDbLine
 10
7003.977759729163
 20
5196.970848083231
 30
0.0
 11
7003.977759729163
 21
5173.97084808323
 31
0.0
  0
LINE
  5
16210
330
747D
100
AcDbEntity
  8
細線
100
AcDbLine
 10
7151.977759729163
 20
5173.97084808323
 30
0.0
 11
7151.977759729163
 21
5196.970848083231
 31
0.0
  0
LINE
  5
16211
330
747D
100
AcDbEntity
  8
細線
100
AcDbLine
 10
7151.977759729163
 20
5196.970848083231
 30
0.0
 11
7077.977759729162
 21
5196.970848083231
 31
0.0
  0
LINE
  5
16212
330
747D
100
AcDbEntity
  8
細線
100
AcDbLine
 10
7003.977759729163
 20
5173.97084808323
 30
0.0
 11
7077.977759729162
 21
5173.97084808323
 31
0.0
  0
LINE
  5
16213
330
747D
100
AcDbEntity
  8
細線
100
AcDbLine
 10
7077.977759729162
 20
5196.970848083231
 30
0.0
 11
7003.977759729163
 21
5196.970848083231
 31
0.0
  0
LINE
  5
16214
330
747D
100
AcDbEntity
  8
細線
100
AcDbLine
 10
7077.977759729162
 20
5173.97084808323
 30
0.0
 11
7151.977759729163
 21
5173.97084808323
 31
0.0
  0
ARC
  5
16215
330
747D
100
AcDbEntity
  8
部品1
 48
0.01
100
AcDbCircle
 10
6989.977759729163
 20
5201.47084808323
 30
0.0
 40
2.0
100
AcDbArc
 50
90.0
 51
180.0
  0
ARC
  5
16216
330
747D
100
AcDbEntity
  8
部品1
 48
0.01
100
AcDbCircle
 10
6989.977759729163
 20
5169.970848083231
 30
0.0
 40
2.0
100
AcDbArc
 50
180.0
 51
270.0
  0
ARC
  5
16217
330
747D
100
AcDbEntity
  8
部品1
 48
0.01
100
AcDbCircle
 10
7165.977759729163
 20
5201.47084808323
 30
0.0
 40
2.0
100
AcDbArc
 50
0.0
 51
90.0
  0
ARC
  5
16218
330
747D
100
AcDbEntity
  8
部品1
 48
0.01
100
AcDbCircle
 10
7165.977759729163
 20
5169.970848083231
 30
0.0
 40
2.0
100
AcDbArc
 50
270.0
 51
0.0
  0
ARC
  5
16219
330
747D
100
AcDbEntity
  8
部品1
 48
0.01
100
AcDbCircle
 10
6345.977759729161
 20
5169.970848083231
 30
0.0
 40
2.0
100
AcDbArc
 50
270.0
 51
0.0
  0
ARC
  5
1621A
330
747D
100
AcDbEntity
  8
部品1
 48
0.01
100
AcDbCircle
 10
6345.977759729161
 20
5201.47084808323
 30
0.0
 40
2.0
100
AcDbArc
 50
0.0
 51
90.0
  0
ARC
  5
1621B
330
747D
100
AcDbEntity
  8
部品1
 48
0.01
100
AcDbCircle
 10
6169.977759729161
 20
5169.970848083231
 30
0.0
 40
2.0
100
AcDbArc
 50
180.0
 51
270.0
  0
ARC
  5
1621C
330
747D
100
AcDbEntity
  8
部品1
 48
0.01
100
AcDbCircle
 10
6169.977759729161
 20
5201.47084808323
 30
0.0
 40
2.0
100
AcDbArc
 50
90.0
 51
180.0
  0
LINE
  5
1621D
330
747D
100
AcDbEntity
  8
細線
100
AcDbLine
 10
6257.977759729161
 20
5173.97084808323
 30
0.0
 11
6331.977759729161
 21
5173.97084808323
 31
0.0
  0
LINE
  5
1621E
330
747D
100
AcDbEntity
  8
細線
100
AcDbLine
 10
6257.977759729161
 20
5196.970848083231
 30
0.0
 11
6183.977759729161
 21
5196.970848083231
 31
0.0
  0
LINE
  5
1621F
330
747D
100
AcDbEntity
  8
細線
100
AcDbLine
 10
6183.977759729161
 20
5173.97084808323
 30
0.0
 11
6257.977759729161
 21
5173.97084808323
 31
0.0
  0
LINE
  5
16220
330
747D
100
AcDbEntity
  8
細線
100
AcDbLine
 10
6331.977759729161
 20
5196.970848083231
 30
0.0
 11
6257.977759729161
 21
5196.970848083231
 31
0.0
  0
LINE
  5
16221
330
747D
100
AcDbEntity
  8
細線
100
AcDbLine
 10
6331.977759729161
 20
5173.97084808323
 30
0.0
 11
6331.977759729161
 21
5196.970848083231
 31
0.0
  0
LINE
  5
16222
330
747D
100
AcDbEntity
  8
細線
100
AcDbLine
 10
6183.977759729161
 20
5196.970848083231
 30
0.0
 11
6183.977759729161
 21
5173.97084808323
 31
0.0
  0
LINE
  5
16223
330
747D
100
AcDbEntity
  8
部品1
 48
0.01
100
AcDbLine
 10
6347.977759729161
 20
5169.970848083231
 30
0.0
 11
6347.977759729161
 21
5201.47084808323
 31
0.0
  0
LINE
  5
16224
330
747D
100
AcDbEntity
  8
部品1
 48
0.01
100
AcDbLine
 10
6169.977759729161
 20
5167.97084808323
 30
0.0
 11
6345.977759729161
 21
5167.97084808323
 31
0.0
  0
LINE
  5
16225
330
747D
100
AcDbEntity
  8
部品1
 48
0.01
100
AcDbLine
 10
6167.977759729161
 20
5201.47084808323
 30
0.0
 11
6167.977759729161
 21
5169.970848083231
 31
0.0
  0
LINE
  5
16226
330
747D
100
AcDbEntity
  8
部品1
 48
0.01
100
AcDbLine
 10
6345.977759729161
 20
5203.470848083231
 30
0.0
 11
6169.977759729161
 21
5203.470848083231
 31
0.0
  0
LINE
  5
16227
330
747D
100
AcDbEntity
  8
細線
100
AcDbLine
 10
6183.977759729161
 20
5190.970848083231
 30
0.0
 11
6257.977759729161
 21
5190.970848083231
 31
0.0
  0
LINE
  5
16228
330
747D
100
AcDbEntity
  8
細線
100
AcDbLine
 10
6183.977759729161
 20
5184.970848083231
 30
0.0
 11
6257.977759729161
 21
5184.970848083231
 31
0.0
  0
LINE
  5
16229
330
747D
100
AcDbEntity
  8
細線
100
AcDbLine
 10
6183.977759729161
 20
5178.97084808323
 30
0.0
 11
6257.977759729161
 21
5178.97084808323
 31
0.0
  0
LINE
  5
1622A
330
747D
100
AcDbEntity
  8
細線
100
AcDbLine
 10
6183.977759729161
 20
5190.970848083231
 30
0.0
 11
6252.977759729161
 21
5190.970848083231
 31
0.0
  0
LINE
  5
1622B
330
747D
100
AcDbEntity
  8
細線
100
AcDbLine
 10
6331.977759729161
 20
5190.970848083231
 30
0.0
 11
6257.977759729161
 21
5190.970848083231
 31
0.0
  0
LINE
  5
1622C
330
747D
100
AcDbEntity
  8
細線
100
AcDbLine
 10
6331.977759729161
 20
5178.97084808323
 30
0.0
 11
6257.977759729161
 21
5178.97084808323
 31
0.0
  0
LINE
  5
1622D
330
747D
100
AcDbEntity
  8
細線
100
AcDbLine
 10
6331.977759729161
 20
5184.970848083231
 30
0.0
 11
6257.977759729161
 21
5184.970848083231
 31
0.0
  0
LINE
  5
1622E
330
747D
100
AcDbEntity
  8
細線
100
AcDbLine
 10
6257.977759729161
 20
5196.970848083231
 30
0.0
 11
6257.977759729161
 21
5173.97084808323
 31
0.0
  0
LINE
  5
1622F
330
747D
100
AcDbEntity
  8
細線
100
AcDbLine
 10
5437.977759729161
 20
5196.970848083231
 30
0.0
 11
5437.977759729161
 21
5173.97084808323
 31
0.0
  0
LINE
  5
16230
330
747D
100
AcDbEntity
  8
細線
100
AcDbLine
 10
5511.977759729162
 20
5184.970848083231
 30
0.0
 11
5437.977759729161
 21
5184.970848083231
 31
0.0
  0
LINE
  5
16231
330
747D
100
AcDbEntity
  8
細線
100
AcDbLine
 10
5511.977759729162
 20
5178.97084808323
 30
0.0
 11
5437.977759729161
 21
5178.97084808323
 31
0.0
  0
LINE
  5
16232
330
747D
100
AcDbEntity
  8
細線
100
AcDbLine
 10
5511.977759729162
 20
5190.970848083231
 30
0.0
 11
5437.977759729161
 21
5190.970848083231
 31
0.0
  0
LINE
  5
16233
330
747D
100
AcDbEntity
  8
細線
100
AcDbLine
 10
5363.977759729161
 20
5190.970848083231
 30
0.0
 11
5432.977759729162
 21
5190.970848083231
 31
0.0
  0
LINE
  5
16234
330
747D
100
AcDbEntity
  8
細線
100
AcDbLine
 10
5363.977759729161
 20
5178.97084808323
 30
0.0
 11
5437.977759729161
 21
5178.97084808323
 31
0.0
  0
LINE
  5
16235
330
747D
100
AcDbEntity
  8
細線
100
AcDbLine
 10
5363.977759729161
 20
5184.970848083231
 30
0.0
 11
5437.977759729161
 21
5184.970848083231
 31
0.0
  0
LINE
  5
16236
330
747D
100
AcDbEntity
  8
細線
100
AcDbLine
 10
5363.977759729161
 20
5190.970848083231
 30
0.0
 11
5437.977759729161
 21
5190.970848083231
 31
0.0
  0
LINE
  5
16237
330
747D
100
AcDbEntity
  8
部品1
 48
0.01
100
AcDbLine
 10
5525.977759729162
 20
5203.470848083231
 30
0.0
 11
5349.977759729161
 21
5203.470848083231
 31
0.0
  0
LINE
  5
16238
330
747D
100
AcDbEntity
  8
部品1
 48
0.01
100
AcDbLine
 10
5347.977759729161
 20
5201.47084808323
 30
0.0
 11
5347.977759729161
 21
5169.970848083231
 31
0.0
  0
LINE
  5
16239
330
747D
100
AcDbEntity
  8
部品1
 48
0.01
100
AcDbLine
 10
5349.977759729161
 20
5167.97084808323
 30
0.0
 11
5525.977759729162
 21
5167.97084808323
 31
0.0
  0
LINE
  5
1623A
330
747D
100
AcDbEntity
  8
部品1
 48
0.01
100
AcDbLine
 10
5527.977759729161
 20
5169.970848083231
 30
0.0
 11
5527.977759729161
 21
5201.47084808323
 31
0.0
  0
LINE
  5
1623B
330
747D
100
AcDbEntity
  8
細線
100
AcDbLine
 10
5363.977759729161
 20
5196.970848083231
 30
0.0
 11
5363.977759729161
 21
5173.97084808323
 31
0.0
  0
LINE
  5
1623C
330
747D
100
AcDbEntity
  8
細線
100
AcDbLine
 10
5511.977759729162
 20
5173.97084808323
 30
0.0
 11
5511.977759729162
 21
5196.970848083231
 31
0.0
  0
LINE
  5
1623D
330
747D
100
AcDbEntity
  8
細線
100
AcDbLine
 10
5511.977759729162
 20
5196.970848083231
 30
0.0
 11
5437.977759729161
 21
5196.970848083231
 31
0.0
  0
LINE
  5
1623E
330
747D
100
AcDbEntity
  8
細線
100
AcDbLine
 10
5363.977759729161
 20
5173.97084808323
 30
0.0
 11
5437.977759729161
 21
5173.97084808323
 31
0.0
  0
LINE
  5
1623F
330
747D
100
AcDbEntity
  8
細線
100
AcDbLine
 10
5437.977759729161
 20
5196.970848083231
 30
0.0
 11
5363.977759729161
 21
5196.970848083231
 31
0.0
  0
LINE
  5
16240
330
747D
100
AcDbEntity
  8
細線
100
AcDbLine
 10
5437.977759729161
 20
5173.97084808323
 30
0.0
 11
5511.977759729162
 21
5173.97084808323
 31
0.0
  0
ARC
  5
16241
330
747D
100
AcDbEntity
  8
部品1
 48
0.01
100
AcDbCircle
 10
5349.977759729161
 20
5201.47084808323
 30
0.0
 40
2.0
100
AcDbArc
 50
90.0
 51
180.0
  0
ARC
  5
16242
330
747D
100
AcDbEntity
  8
部品1
 48
0.01
100
AcDbCircle
 10
5349.977759729161
 20
5169.970848083231
 30
0.0
 40
2.0
100
AcDbArc
 50
180.0
 51
270.0
  0
ARC
  5
16243
330
747D
100
AcDbEntity
  8
部品1
 48
0.01
100
AcDbCircle
 10
5525.977759729162
 20
5201.47084808323
 30
0.0
 40
2.0
100
AcDbArc
 50
0.0
 51
90.0
  0
ARC
  5
16244
330
747D
100
AcDbEntity
  8
部品1
 48
0.01
100
AcDbCircle
 10
5525.977759729162
 20
5169.970848083231
 30
0.0
 40
2.0
100
AcDbArc
 50
270.0
 51
0.0
  0
ARC
  5
16245
330
747D
100
AcDbEntity
  8
部品1
100
AcDbCircle
 10
7530.569338622725
 20
5365.470848083234
 30
0.0
 40
7.0
100
AcDbArc
 50
356.7526572096623
 51
90.0
  0
ARC
  5
16246
330
747D
100
AcDbEntity
  8
部品1
100
AcDbCircle
 10
7517.35401516169
 20
5238.470848083236
 30
0.0
 40
7.0
100
AcDbArc
 50
270.0
 51
356.7526572096623
  0
ARC
  5
16247
330
747D
100
AcDbEntity
  8
部品1
 48
50.0
100
AcDbCircle
 10
7535.72582537237
 20
5345.137847244921
 30
0.0
 40
0.7
100
AcDbArc
 50
277.6581272073635
 51
356.7526572096103
  0
ARC
  5
16248
330
747D
100
AcDbEntity
  8
部品1
 48
50.0
100
AcDbCircle
 10
7527.489794847527
 20
5252.937847244917
 30
0.0
 40
0.7
100
AcDbArc
 50
277.6581272073635
 51
356.7526572097143
  0
ARC
  5
16249
330
747D
100
AcDbEntity
  8
部品1
 48
50.0
100
AcDbCircle
 10
7527.982863956087
 20
5249.270848083233
 30
0.0
 40
3.0
100
AcDbArc
 50
97.65812720736347
 51
176.7526572096623
  0
ARC
  5
1624A
330
747D
100
AcDbEntity
  8
部品1
 48
50.0
100
AcDbCircle
 10
7536.218894480931
 20
5341.470848083236
 30
0.0
 40
3.0
100
AcDbArc
 50
97.65812720736347
 51
176.7526572096623
  0
LINE
  5
1624B
330
747D
100
AcDbEntity
  8
部品1
100
AcDbLine
 10
7533.223711584746
 20
5341.640787538338
 30
0.0
 11
7528.188670856635
 21
5252.898194705394
 31
0.0
  0
LINE
  5
1624C
330
747D
100
AcDbEntity
  8
部品1
100
AcDbLine
 10
7524.987681059902
 20
5249.440787538336
 30
0.0
 11
7524.342775252789
 21
5238.074322687997
 31
0.0
  0
LINE
  5
1624D
330
747D
100
AcDbEntity
  8
細線
 48
50.0
100
AcDbLine
 10
7504.977759729158
 20
5372.470848083234
 30
0.0
 11
7504.977759729158
 21
5231.470848083234
 31
0.0
  0
LINE
  5
1624E
330
747D
100
AcDbEntity
  8
部品1
100
AcDbLine
 10
7537.558098713823
 20
5365.074322687995
 30
0.0
 11
7536.424701381479
 21
5345.098194705395
 31
0.0
  0
DIMENSION
  5
1624F
330
747D
100
AcDbEntity
  8
寸法
 48
50.0
100
AcDbDimension
  2
*D19
 10
7487.977759729158
 20
5585.012433341475
 30
0.0
 11
7851.463041103395
 21
5585.012433341475
 31
0.0
 70
   160
 71
     5
 42
50.0
  3
INABA_S40G
100
AcDbAlignedDimension
 13
7537.977759729158
 23
5372.470848083234
 33
0.0
 14
7487.977759729158
 24
5372.470848083236
 34
0.0
100
AcDbRotatedDimension
  0
LINE
  5
16250
330
747D
100
AcDbEntity
  8
部品1
 48
50.0
100
AcDbLine
 10
7517.35401516169
 20
5231.470848083234
 30
0.0
 11
4998.601504296617
 21
5231.470848083236
 31
0.0
  0
LINE
  5
16251
330
747D
100
AcDbEntity
  8
細線
 48
50.0
100
AcDbLine
 10
7527.5830781917
 20
5252.244090646932
 30
0.0
 11
4988.372441264401
 21
5252.244090647233
 31
0.0
  0
LINE
  5
16252
330
747D
100
AcDbEntity
  8
細線
 48
50.0
100
AcDbLine
 10
7535.819108716511
 20
5344.444090646931
 30
0.0
 11
4980.136410739568
 21
5344.444090647233
 31
0.0
  0
LINE
  5
16253
330
747D
100
AcDbEntity
  8
部品1
 48
50.0
100
AcDbLine
 10
7530.569338622725
 20
5372.470848083234
 30
0.0
 11
4985.386180835583
 21
5372.470848083234
 31
0.0
  0
LINE
  5
16254
330
747D
100
AcDbEntity
  8
部品1
100
AcDbLine
 10
4978.397420744484
 20
5365.074322687997
 30
0.0
 11
4979.530818076834
 21
5345.098194705399
 31
0.0
  0
LINE
  5
16255
330
747D
100
AcDbEntity
  8
部品1
100
AcDbLine
 10
4990.96783839841
 20
5249.44078753834
 30
0.0
 11
4991.612744205518
 21
5238.074322687999
 31
0.0
  0
LINE
  5
16256
330
747D
100
AcDbEntity
  8
部品1
100
AcDbLine
 10
4982.731807873562
 20
5341.640787538342
 30
0.0
 11
4987.766848601673
 21
5252.898194705398
 31
0.0
  0
ARC
  5
16257
330
747D
100
AcDbEntity
  8
部品1
 48
50.0
100
AcDbCircle
 10
4979.736624977377
 20
5341.470848083238
 30
0.0
 40
3.0
100
AcDbArc
 50
3.247342790337682
 51
82.34187279263654
  0
ARC
  5
16258
330
747D
100
AcDbEntity
  8
部品1
 48
50.0
100
AcDbCircle
 10
4987.972655502221
 20
5249.270848083237
 30
0.0
 40
3.0
100
AcDbArc
 50
3.247342790337682
 51
82.34187279263654
  0
ARC
  5
16259
330
747D
100
AcDbEntity
  8
部品1
 48
50.0
100
AcDbCircle
 10
4988.465724610782
 20
5252.937847244921
 30
0.0
 40
0.7
100
AcDbArc
 50
183.2473427902856
 51
262.3418727926365
  0
ARC
  5
1625A
330
747D
100
AcDbEntity
  8
部品1
 48
50.0
100
AcDbCircle
 10
4980.229694085942
 20
5345.137847244925
 30
0.0
 40
0.7
100
AcDbArc
 50
183.2473427903897
 51
262.3418727926365
  0
ARC
  5
1625B
330
747D
100
AcDbEntity
  8
部品1
100
AcDbCircle
 10
4998.601504296617
 20
5238.470848083239
 30
0.0
 40
7.0
100
AcDbArc
 50
183.2473427903377
 51
270.0
  0
ARC
  5
1625C
330
747D
100
AcDbEntity
  8
部品1
100
AcDbCircle
 10
4985.386180835583
 20
5365.470848083237
 30
0.0
 40
7.0
100
AcDbArc
 50
90.0
 51
183.2473427903377
  0
LINE
  5
1625D
330
747D
100
AcDbEntity
  8
細線
 48
50.0
100
AcDbLine
 10
5010.977759729154
 20
5372.470848083238
 30
0.0
 11
5010.977759729154
 21
5231.470848083236
 31
0.0
  0
DIMENSION
  5
1625E
330
747D
100
AcDbEntity
  8
寸法
 48
50.0
100
AcDbDimension
  2
*D20
 10
4977.977759729154
 20
5585.012433341479
 30
0.0
 11
4664.492478354906
 21
5585.012433341479
 31
0.0
 70
   160
 71
     5
 42
50.0
  3
INABA_S40G
100
AcDbAlignedDimension
 13
5027.977759729154
 23
5372.470848083242
 33
0.0
 14
4977.977759729154
 24
5372.470848083239
 34
0.0
100
AcDbRotatedDimension
1001
ACAD
1000
DSTYLE
1002
{
1002
}
  0
DIMENSION
  5
1625F
330
747D
100
AcDbEntity
  8
寸法
 48
50.0
100
AcDbDimension
  2
*D21
 10
5027.977759729154
 20
5585.012433341479
 30
0.0
 11
6257.977759729156
 21
5585.012433341479
 31
0.0
 70
   160
  1
柱外寸法<>
 71
     5
 42
2460.000000000004
  3
INABA_S40G
100
AcDbAlignedDimension
 13
7487.977759729158
 23
5372.470848083236
 33
0.0
 14
5027.977759729154
 24
5372.470848083242
 34
0.0
100
AcDbRotatedDimension
  0
DIMENSION
  5
16260
330
747D
100
AcDbEntity
  8
寸法
 48
50.0
100
AcDbDimension
  2
*D22
 10
7537.977759729158
 20
5807.969411779326
 30
0.0
 11
6257.977759729156
 21
5807.969411779326
 31
0.0
 70
   160
 71
     5
 42
2560.000000000004
  3
INABA_S40G
100
AcDbAlignedDimension
 13
4977.977759729154
 23
5372.470848083239
 33
0.0
 14
7537.977759729158
 24
5372.470848083234
 34
0.0
100
AcDbRotatedDimension
  0
LWPOLYLINE
  5
16261
330
747D
100
AcDbEntity
  8
部品1
100
AcDbPolyline
 90
        4
 70
     1
 43
0.0
 10
5876.242426614937
 20
2594.394267266515
 10
5876.242426614937
 20
2354.501945720983
 10
6639.713092843374
 20
2354.501945720983
 10
6639.713092843374
 20
2594.394267266515
  0
TEXT
  5
16262
330
747D
100
AcDbEntity
  8
部品1
100
AcDbText
 10
5966.76783035289
 20
2401.500738047991
 30
0.0
 40
135.0
  1
正面図
  7
STYLE2
100
AcDbText
  0
ARC
  5
1629E
330
747D
100
AcDbEntity
  8
細線
100
AcDbCircle
 10
6768.977759729153
 20
4283.470848083234
 30
0.0
 40
6.0
100
AcDbArc
 50
0.0
 51
90.0
  0
LINE
  5
1629F
330
747D
100
AcDbEntity
  8
細線
100
AcDbLine
 10
6773.977759729153
 20
4297.970848083234
 30
0.0
 11
6734.811141259908
 21
4297.970848083234
 31
0.0
  0
LINE
  5
162A0
330
747D
100
AcDbEntity
  8
細線
100
AcDbLine
 10
6748.472183638987
 20
4283.470848083234
 30
0.0
 11
6746.977759729154
 21
4283.470848083234
 31
0.0
  0
ARC
  5
162A1
330
747D
100
AcDbEntity
  8
細線
100
AcDbCircle
 10
6748.472183638987
 20
4280.470848083234
 30
0.0
 40
3.0
100
AcDbArc
 50
8.099550838261343
 51
90.0
  0
LINE
  5
162A2
330
747D
100
AcDbEntity
  8
細線
100
AcDbLine
 10
6759.1852989079
 20
4286.470848083234
 30
0.0
 11
6746.977759729154
 21
4286.470848083234
 31
0.0
  0
ARC
  5
162A3
330
747D
100
AcDbEntity
  8
細線
100
AcDbCircle
 10
6738.358716093632
 20
4283.470848083234
 30
0.0
 40
6.0
100
AcDbArc
 50
90.0
 51
171.2120626773515
  0
LINE
  5
162A4
330
747D
100
AcDbEntity
  8
細線
100
AcDbLine
 10
6746.977759729154
 20
4283.47034018467
 30
0.0
 11
6734.214432513187
 21
4283.47034018467
 31
0.0
  0
ARC
  5
162A5
330
747D
100
AcDbEntity
  8
細線
100
AcDbCircle
 10
6734.811141259908
 20
4292.470848083234
 30
0.0
 40
5.5
100
AcDbArc
 50
90.0
 51
169.5785490272547
  0
ARC
  5
162A6
330
747D
100
AcDbEntity
  8
細線
100
AcDbCircle
 10
6759.1852989079
 20
4280.470848083234
 30
0.0
 40
6.0
100
AcDbArc
 50
0.0
 51
90.0
  0
LINE
  5
162A7
330
747D
100
AcDbEntity
  8
細線
100
AcDbLine
 10
6768.977759729153
 20
4289.470848083234
 30
0.0
 11
6738.358716093632
 21
4289.470848083234
 31
0.0
  0
ARC
  5
162A8
330
747D
100
AcDbEntity
  8
細線
100
AcDbCircle
 10
6773.977759729153
 20
4292.470848083234
 30
0.0
 40
5.5
100
AcDbArc
 50
0.0
 51
90.0
  0
LINE
  5
162A9
330
747D
100
AcDbEntity
  8
部品1
100
AcDbLine
 10
6774.977759729154
 20
4299.470848083234
 30
0.0
 11
6733.979489838138
 21
4299.470848083234
 31
0.0
  0
ARC
  5
162AA
330
747D
100
AcDbEntity
  8
部品1
100
AcDbCircle
 10
6733.979489838138
 20
4293.470848083233
 30
0.0
 40
6.0
100
AcDbArc
 50
90.0
 51
169.4161974034606
  0
ARC
  5
162AB
330
747D
100
AcDbEntity
  8
部品1
100
AcDbCircle
 10
6774.977759729154
 20
4293.470848083233
 30
0.0
 40
6.0
100
AcDbArc
 50
0.0
 51
90.0
  0
CIRCLE
  5
162AC
330
747D
100
AcDbEntity
  8
細線
 48
20.0
100
AcDbCircle
 10
6754.478624783645
 20
4339.970848083234
 30
0.0
 40
20.0
  0
CIRCLE
  5
162AD
330
747D
100
AcDbEntity
  8
細線
 48
20.0
100
AcDbCircle
 10
6754.478624783645
 20
4339.970848083234
 30
0.0
 40
10.0
  0
ARC
  5
162AE
330
747D
100
AcDbEntity
  8
細線
100
AcDbCircle
 10
6768.977759729153
 20
4195.470848083235
 30
0.0
 40
6.0
100
AcDbArc
 50
270.0
 51
0.0
  0
LINE
  5
162AF
330
747D
100
AcDbEntity
  8
細線
100
AcDbLine
 10
6734.811141259908
 20
4180.970848083234
 30
0.0
 11
6773.977759729153
 21
4180.970848083234
 31
0.0
  0
LINE
  5
162B0
330
747D
100
AcDbEntity
  8
細線
100
AcDbLine
 10
6746.977759729154
 20
4195.470848083235
 30
0.0
 11
6748.472183638989
 21
4195.470848083235
 31
0.0
  0
ARC
  5
162B1
330
747D
100
AcDbEntity
  8
細線
100
AcDbCircle
 10
6748.472183638989
 20
4198.470848083235
 30
0.0
 40
3.0
100
AcDbArc
 50
270.0
 51
351.9004491617129
  0
LINE
  5
162B2
330
747D
100
AcDbEntity
  8
細線
100
AcDbLine
 10
6746.977759729154
 20
4192.470848083234
 30
0.0
 11
6759.1852989079
 21
4192.470848083234
 31
0.0
  0
ARC
  5
162B3
330
747D
100
AcDbEntity
  8
細線
100
AcDbCircle
 10
6738.358716093632
 20
4195.470848083235
 30
0.0
 40
6.0
100
AcDbArc
 50
188.7879373226485
 51
270.0
  0
ARC
  5
162B4
330
747D
100
AcDbEntity
  8
細線
100
AcDbCircle
 10
6734.811141259908
 20
4186.470848083234
 30
0.0
 40
5.5
100
AcDbArc
 50
190.4214509727453
 51
270.0
  0
LINE
  5
162B5
330
747D
100
AcDbEntity
  8
細線
100
AcDbLine
 10
6746.977759729154
 20
4195.471355981797
 30
0.0
 11
6733.499055230331
 21
4195.471355981797
 31
0.0
  0
ARC
  5
162B6
330
747D
100
AcDbEntity
  8
細線
100
AcDbCircle
 10
6759.1852989079
 20
4198.470848083235
 30
0.0
 40
6.0
100
AcDbArc
 50
270.0
 51
0.0
  0
LINE
  5
162B7
330
747D
100
AcDbEntity
  8
細線
100
AcDbLine
 10
6738.358716093632
 20
4189.470848083234
 30
0.0
 11
6768.977759729153
 21
4189.470848083234
 31
0.0
  0
ARC
  5
162B8
330
747D
100
AcDbEntity
  8
細線
100
AcDbCircle
 10
6773.977759729153
 20
4186.470848083234
 30
0.0
 40
5.5
100
AcDbArc
 50
270.0
 51
0.0
  0
ARC
  5
162B9
330
747D
100
AcDbEntity
  8
部品1
100
AcDbCircle
 10
6733.979489838138
 20
4185.470848083234
 30
0.0
 40
6.0
100
AcDbArc
 50
190.5838025965393
 51
270.0
  0
ARC
  5
162BA
330
747D
100
AcDbEntity
  8
部品1
100
AcDbCircle
 10
6774.977759729154
 20
4185.470848083234
 30
0.0
 40
6.0
100
AcDbArc
 50
270.0
 51
0.0
  0
LINE
  5
162BB
330
747D
100
AcDbEntity
  8
部品1
100
AcDbLine
 10
6733.979489838138
 20
4179.470848083234
 30
0.0
 11
6774.977759729154
 21
4179.470848083234
 31
0.0
  0
LINE
  5
162BC
330
747D
100
AcDbEntity
  8
細線
100
AcDbLine
 10
6765.1852989079
 20
4198.470848083235
 30
0.0
 11
6765.1852989079
 21
4280.470848083234
 31
0.0
  0
LINE
  5
162BD
330
747D
100
AcDbEntity
  8
細線
100
AcDbLine
 10
6746.977759729154
 20
4289.470848083234
 30
0.0
 11
6746.977759729154
 21
4189.470848083234
 31
0.0
  0
ARC
  5
162BE
330
747D
100
AcDbEntity
  8
細線
100
AcDbCircle
 10
7022.977759729155
 20
4239.470848083234
 30
0.0
 40
298.5
100
AcDbArc
 50
169.5785490272547
 51
190.4214509727453
  0
ARC
  5
162BF
330
747D
100
AcDbEntity
  8
細線
100
AcDbCircle
 10
7022.977759729155
 20
4239.470848083234
 30
0.0
 40
294.0
100
AcDbArc
 50
171.2120626773515
 51
188.7879373226485
  0
ARC
  5
162C0
330
747D
100
AcDbEntity
  8
細線
100
AcDbCircle
 10
6460.374977821229
 20
4239.470848083234
 30
0.0
 40
294.0
100
AcDbArc
 50
351.9004491617387
 51
8.099550838261343
  0
LINE
  5
162C1
330
747D
100
AcDbEntity
  8
細線
100
AcDbLine
 10
6774.977759729154
 20
4195.470848083235
 30
0.0
 11
6774.977759729154
 21
4283.470848083234
 31
0.0
  0
LINE
  5
162C2
330
747D
100
AcDbEntity
  8
細線
100
AcDbLine
 10
6779.477759729154
 20
4186.470848083234
 30
0.0
 11
6779.477759729154
 21
4292.470848083234
 31
0.0
  0
ARC
  5
162C3
330
747D
100
AcDbEntity
  8
部品1
100
AcDbCircle
 10
7022.977759729155
 20
4239.470848083234
 30
0.0
 40
300.0
100
AcDbArc
 50
169.4161974034606
 51
190.5838025965393
  0
LINE
  5
162C4
330
747D
100
AcDbEntity
  8
部品1
100
AcDbLine
 10
6780.977759729154
 20
4185.470848083234
 30
0.0
 11
6780.977759729154
 21
4293.470848083233
 31
0.0
  0
CIRCLE
  5
162C5
330
747D
100
AcDbEntity
  8
細線
 48
20.0
100
AcDbCircle
 10
5934.478624783645
 20
4339.970848083234
 30
0.0
 40
10.0
  0
CIRCLE
  5
162C6
330
747D
100
AcDbEntity
  8
細線
 48
20.0
100
AcDbCircle
 10
5934.478624783645
 20
4339.970848083234
 30
0.0
 40
20.0
  0
ARC
  5
162C7
330
747D
100
AcDbEntity
  8
部品1
100
AcDbCircle
 10
5954.977759729154
 20
4293.470848083233
 30
0.0
 40
6.0
100
AcDbArc
 50
0.0
 51
90.0
  0
ARC
  5
162C8
330
747D
100
AcDbEntity
  8
部品1
100
AcDbCircle
 10
5913.979489838139
 20
4293.470848083233
 30
0.0
 40
6.0
100
AcDbArc
 50
90.0
 51
169.4161974034606
  0
LINE
  5
162C9
330
747D
100
AcDbEntity
  8
部品1
100
AcDbLine
 10
5954.977759729154
 20
4299.470848083234
 30
0.0
 11
5913.979489838139
 21
4299.470848083234
 31
0.0
  0
ARC
  5
162CA
330
747D
100
AcDbEntity
  8
細線
100
AcDbCircle
 10
5953.977759729154
 20
4292.470848083234
 30
0.0
 40
5.5
100
AcDbArc
 50
0.0
 51
90.0
  0
LINE
  5
162CB
330
747D
100
AcDbEntity
  8
細線
100
AcDbLine
 10
5948.977759729154
 20
4289.470848083234
 30
0.0
 11
5918.358716093631
 21
4289.470848083234
 31
0.0
  0
ARC
  5
162CC
330
747D
100
AcDbEntity
  8
細線
100
AcDbCircle
 10
5939.1852989079
 20
4280.470848083234
 30
0.0
 40
6.0
100
AcDbArc
 50
0.0
 51
90.0
  0
ARC
  5
162CD
330
747D
100
AcDbEntity
  8
細線
100
AcDbCircle
 10
5914.811141259908
 20
4292.470848083234
 30
0.0
 40
5.5
100
AcDbArc
 50
90.0
 51
169.5785490272547
  0
LINE
  5
162CE
330
747D
100
AcDbEntity
  8
細線
100
AcDbLine
 10
5926.977759729155
 20
4283.47034018467
 30
0.0
 11
5914.214432513187
 21
4283.47034018467
 31
0.0
  0
ARC
  5
162CF
330
747D
100
AcDbEntity
  8
細線
100
AcDbCircle
 10
5918.358716093631
 20
4283.470848083234
 30
0.0
 40
6.0
100
AcDbArc
 50
90.0
 51
171.2120626773515
  0
LINE
  5
162D0
330
747D
100
AcDbEntity
  8
細線
100
AcDbLine
 10
5939.1852989079
 20
4286.470848083234
 30
0.0
 11
5926.977759729155
 21
4286.470848083234
 31
0.0
  0
ARC
  5
162D1
330
747D
100
AcDbEntity
  8
細線
100
AcDbCircle
 10
5928.472183638987
 20
4280.470848083234
 30
0.0
 40
3.0
100
AcDbArc
 50
8.099550838261343
 51
90.0
  0
LINE
  5
162D2
330
747D
100
AcDbEntity
  8
細線
100
AcDbLine
 10
5928.472183638987
 20
4283.470848083234
 30
0.0
 11
5926.977759729155
 21
4283.470848083234
 31
0.0
  0
LINE
  5
162D3
330
747D
100
AcDbEntity
  8
細線
100
AcDbLine
 10
5953.977759729154
 20
4297.970848083234
 30
0.0
 11
5914.811141259908
 21
4297.970848083234
 31
0.0
  0
ARC
  5
162D4
330
747D
100
AcDbEntity
  8
細線
100
AcDbCircle
 10
5948.977759729154
 20
4283.470848083234
 30
0.0
 40
6.0
100
AcDbArc
 50
0.0
 51
90.0
  0
LINE
  5
162D5
330
747D
100
AcDbEntity
  8
部品1
100
AcDbLine
 10
5913.979489838139
 20
4179.470848083234
 30
0.0
 11
5954.977759729154
 21
4179.470848083234
 31
0.0
  0
ARC
  5
162D6
330
747D
100
AcDbEntity
  8
部品1
100
AcDbCircle
 10
5954.977759729154
 20
4185.470848083234
 30
0.0
 40
6.0
100
AcDbArc
 50
270.0
 51
0.0
  0
ARC
  5
162D7
330
747D
100
AcDbEntity
  8
部品1
100
AcDbCircle
 10
5913.979489838139
 20
4185.470848083234
 30
0.0
 40
6.0
100
AcDbArc
 50
190.5838025965393
 51
270.0
  0
ARC
  5
162D8
330
747D
100
AcDbEntity
  8
細線
100
AcDbCircle
 10
5953.977759729154
 20
4186.470848083234
 30
0.0
 40
5.5
100
AcDbArc
 50
270.0
 51
0.0
  0
LINE
  5
162D9
330
747D
100
AcDbEntity
  8
細線
100
AcDbLine
 10
5918.358716093631
 20
4189.470848083234
 30
0.0
 11
5948.977759729154
 21
4189.470848083234
 31
0.0
  0
ARC
  5
162DA
330
747D
100
AcDbEntity
  8
細線
100
AcDbCircle
 10
5939.1852989079
 20
4198.470848083235
 30
0.0
 40
6.0
100
AcDbArc
 50
270.0
 51
0.0
  0
LINE
  5
162DB
330
747D
100
AcDbEntity
  8
細線
100
AcDbLine
 10
5926.977759729155
 20
4195.471355981797
 30
0.0
 11
5913.499055230332
 21
4195.471355981797
 31
0.0
  0
ARC
  5
162DC
330
747D
100
AcDbEntity
  8
細線
100
AcDbCircle
 10
5914.811141259908
 20
4186.470848083234
 30
0.0
 40
5.5
100
AcDbArc
 50
190.4214509727453
 51
270.0
  0
ARC
  5
162DD
330
747D
100
AcDbEntity
  8
細線
100
AcDbCircle
 10
5918.358716093631
 20
4195.470848083235
 30
0.0
 40
6.0
100
AcDbArc
 50
188.7879373226485
 51
270.0
  0
LINE
  5
162DE
330
747D
100
AcDbEntity
  8
細線
100
AcDbLine
 10
5926.977759729155
 20
4192.470848083234
 30
0.0
 11
5939.1852989079
 21
4192.470848083234
 31
0.0
  0
ARC
  5
162DF
330
747D
100
AcDbEntity
  8
細線
100
AcDbCircle
 10
5928.472183638989
 20
4198.470848083235
 30
0.0
 40
3.0
100
AcDbArc
 50
270.0
 51
351.9004491617129
  0
LINE
  5
162E0
330
747D
100
AcDbEntity
  8
細線
100
AcDbLine
 10
5926.977759729155
 20
4195.470848083235
 30
0.0
 11
5928.472183638989
 21
4195.470848083235
 31
0.0
  0
LINE
  5
162E1
330
747D
100
AcDbEntity
  8
細線
100
AcDbLine
 10
5914.811141259908
 20
4180.970848083234
 30
0.0
 11
5953.977759729154
 21
4180.970848083234
 31
0.0
  0
ARC
  5
162E2
330
747D
100
AcDbEntity
  8
細線
100
AcDbCircle
 10
5948.977759729154
 20
4195.470848083235
 30
0.0
 40
6.0
100
AcDbArc
 50
270.0
 51
0.0
  0
LINE
  5
162E3
330
747D
100
AcDbEntity
  8
部品1
100
AcDbLine
 10
5960.977759729154
 20
4185.470848083234
 30
0.0
 11
5960.977759729154
 21
4293.470848083233
 31
0.0
  0
ARC
  5
162E4
330
747D
100
AcDbEntity
  8
部品1
100
AcDbCircle
 10
6202.977759729154
 20
4239.470848083234
 30
0.0
 40
300.0
100
AcDbArc
 50
169.4161974034606
 51
190.5838025965393
  0
LINE
  5
162E5
330
747D
100
AcDbEntity
  8
細線
100
AcDbLine
 10
5959.477759729153
 20
4186.470848083234
 30
0.0
 11
5959.477759729153
 21
4292.470848083234
 31
0.0
  0
LINE
  5
162E6
330
747D
100
AcDbEntity
  8
細線
100
AcDbLine
 10
5954.977759729154
 20
4195.470848083235
 30
0.0
 11
5954.977759729154
 21
4283.470848083234
 31
0.0
  0
ARC
  5
162E7
330
747D
100
AcDbEntity
  8
細線
100
AcDbCircle
 10
5640.374977821229
 20
4239.470848083234
 30
0.0
 40
294.0
100
AcDbArc
 50
351.9004491617387
 51
8.099550838261343
  0
ARC
  5
162E8
330
747D
100
AcDbEntity
  8
細線
100
AcDbCircle
 10
6202.977759729154
 20
4239.470848083234
 30
0.0
 40
294.0
100
AcDbArc
 50
171.2120626773515
 51
188.7879373226485
  0
ARC
  5
162E9
330
747D
100
AcDbEntity
  8
細線
100
AcDbCircle
 10
6202.977759729154
 20
4239.470848083234
 30
0.0
 40
298.5
100
AcDbArc
 50
169.5785490272547
 51
190.4214509727453
  0
LINE
  5
162EA
330
747D
100
AcDbEntity
  8
細線
100
AcDbLine
 10
5926.977759729155
 20
4289.470848083234
 30
0.0
 11
5926.977759729155
 21
4189.470848083234
 31
0.0
  0
LINE
  5
162EB
330
747D
100
AcDbEntity
  8
細線
100
AcDbLine
 10
5945.1852989079
 20
4198.470848083235
 30
0.0
 11
5945.1852989079
 21
4280.470848083234
 31
0.0
  0
LINE
  5
162EC
330
747D
100
AcDbEntity
  8
部品1
 48
50.0
100
AcDbLine
 10
7422.915311900474
 20
5128.220848083234
 30
0.0
 11
7422.915311900474
 21
5134.970848083234
 31
0.0
  0
LINE
  5
162ED
330
747D
100
AcDbEntity
  8
細線
 48
50.0
100
AcDbLine
 10
7438.902964752135
 20
5132.720848083234
 30
0.0
 11
7438.902964752135
 21
5130.720848083234
 31
0.0
  0
LINE
  5
162EE
330
747D
100
AcDbEntity
  8
細線
 48
50.0
100
AcDbLine
 10
7431.05255470617
 20
5132.720848083234
 30
0.0
 11
7431.05255470617
 21
5130.720848083234
 31
0.0
  0
LINE
  5
162EF
330
747D
100
AcDbEntity
  8
細線
 48
0.1
100
AcDbLine
 10
7442.915311900474
 20
5135.220848083235
 30
0.0
 11
7442.915311900474
 21
5128.220848083234
 31
0.0
  0
LINE
  5
162F0
330
747D
100
AcDbEntity
  8
部品1
 48
0.2
100
AcDbLine
 10
7442.915311900474
 20
5128.220848083234
 30
0.0
 11
7422.915311900474
 21
5128.220848083234
 31
0.0
  0
LINE
  5
162F1
330
747D
100
AcDbEntity
  8
細線
 48
0.2
100
AcDbLine
 10
7442.915311900474
 20
5130.720848083234
 30
0.0
 11
7422.915311900474
 21
5130.720848083234
 31
0.0
  0
LINE
  5
162F2
330
747D
100
AcDbEntity
  8
部品1
100
AcDbLine
 10
7442.915311900474
 20
5134.970848083231
 30
0.0
 11
7442.977759729155
 21
5134.970848083233
 31
0.0
  0
LINE
  5
162F3
330
747D
100
AcDbEntity
  8
部品1
100
AcDbLine
 10
7442.915311900474
 20
5134.970848083234
 30
0.0
 11
7442.977759729155
 21
5134.970848083233
 31
0.0
  0
LINE
  5
162F4
330
747D
100
AcDbEntity
  8
細線
 48
50.0
100
AcDbLine
 10
7422.915311900474
 20
5134.970848083234
 30
0.0
 11
7422.915311900474
 21
5135.220848083235
 31
0.0
  0
LINE
  5
162F5
330
747D
100
AcDbEntity
  8
細線
 48
0.2
100
AcDbLine
 10
7440.599303196981
 20
5135.920848083235
 30
0.0
 11
7429.231320603969
 21
5135.920848083235
 31
0.0
  0
ARC
  5
162F6
330
747D
100
AcDbEntity
  8
細線
 48
0.2
100
AcDbCircle
 10
7434.915311900474
 20
5118.420848083236
 30
0.0
 40
18.49999999999796
100
AcDbArc
 50
73.39845040100779
 51
106.6015495989922
  0
ARC
  5
162F7
330
747D
100
AcDbEntity
  8
細線
 48
0.2
100
AcDbCircle
 10
7429.915311900472
 20
5135.191357914482
 30
0.0
 40
1.0
100
AcDbArc
 50
106.6015495989922
 51
180.0
  0
LINE
  5
162F8
330
747D
100
AcDbEntity
  8
細線
 48
0.2
100
AcDbLine
 10
7442.915311900474
 20
5132.720848083234
 30
0.0
 11
7422.915311900474
 21
5132.720848083234
 31
0.0
  0
LINE
  5
162F9
330
747D
100
AcDbEntity
  8
細線
 48
0.2
100
AcDbLine
 10
7442.915311900474
 20
5135.220848083235
 30
0.0
 11
7422.915311900474
 21
5135.220848083235
 31
0.0
  0
ARC
  5
162FA
330
747D
100
AcDbEntity
  8
細線
 48
0.2
100
AcDbCircle
 10
7439.915311900474
 20
5135.191357914482
 30
0.0
 40
1.0
100
AcDbArc
 50
0.0
 51
73.39845040100779
  0
LINE
  5
162FB
330
747D
100
AcDbEntity
  8
部品1
 48
50.0
100
AcDbLine
 10
6602.915311900473
 20
5128.220848083234
 30
0.0
 11
6602.915311900473
 21
5134.970848083234
 31
0.0
  0
LINE
  5
162FC
330
747D
100
AcDbEntity
  8
細線
 48
50.0
100
AcDbLine
 10
6618.902964752135
 20
5132.720848083234
 30
0.0
 11
6618.902964752135
 21
5130.720848083234
 31
0.0
  0
LINE
  5
162FD
330
747D
100
AcDbEntity
  8
細線
 48
50.0
100
AcDbLine
 10
6611.052554706169
 20
5132.720848083234
 30
0.0
 11
6611.052554706169
 21
5130.720848083234
 31
0.0
  0
LINE
  5
162FE
330
747D
100
AcDbEntity
  8
細線
 48
0.1
100
AcDbLine
 10
6622.915311900474
 20
5135.220848083235
 30
0.0
 11
6622.915311900474
 21
5128.220848083234
 31
0.0
  0
LINE
  5
162FF
330
747D
100
AcDbEntity
  8
部品1
 48
0.2
100
AcDbLine
 10
6622.915311900474
 20
5128.220848083234
 30
0.0
 11
6602.915311900473
 21
5128.220848083234
 31
0.0
  0
LINE
  5
16300
330
747D
100
AcDbEntity
  8
細線
 48
0.2
100
AcDbLine
 10
6622.915311900474
 20
5130.720848083234
 30
0.0
 11
6602.915311900473
 21
5130.720848083234
 31
0.0
  0
LINE
  5
16301
330
747D
100
AcDbEntity
  8
部品1
100
AcDbLine
 10
6622.915311900474
 20
5134.970848083231
 30
0.0
 11
6622.977759729154
 21
5134.970848083233
 31
0.0
  0
LINE
  5
16302
330
747D
100
AcDbEntity
  8
部品1
100
AcDbLine
 10
6622.915311900474
 20
5134.970848083234
 30
0.0
 11
6622.977759729154
 21
5134.970848083233
 31
0.0
  0
LINE
  5
16303
330
747D
100
AcDbEntity
  8
細線
 48
50.0
100
AcDbLine
 10
6602.915311900473
 20
5134.970848083234
 30
0.0
 11
6602.915311900473
 21
5135.220848083235
 31
0.0
  0
LINE
  5
16304
330
747D
100
AcDbEntity
  8
細線
 48
0.2
100
AcDbLine
 10
6620.599303196981
 20
5135.920848083235
 30
0.0
 11
6609.231320603969
 21
5135.920848083235
 31
0.0
  0
ARC
  5
16305
330
747D
100
AcDbEntity
  8
細線
 48
0.2
100
AcDbCircle
 10
6614.915311900474
 20
5118.420848083236
 30
0.0
 40
18.49999999999796
100
AcDbArc
 50
73.39845040100779
 51
106.6015495989922
  0
ARC
  5
16306
330
747D
100
AcDbEntity
  8
細線
 48
0.2
100
AcDbCircle
 10
6609.915311900474
 20
5135.191357914482
 30
0.0
 40
1.0
100
AcDbArc
 50
106.6015495989922
 51
180.0
  0
LINE
  5
16307
330
747D
100
AcDbEntity
  8
細線
 48
0.2
100
AcDbLine
 10
6622.915311900474
 20
5132.720848083234
 30
0.0
 11
6602.915311900473
 21
5132.720848083234
 31
0.0
  0
LINE
  5
16308
330
747D
100
AcDbEntity
  8
細線
 48
0.2
100
AcDbLine
 10
6622.915311900474
 20
5135.220848083235
 30
0.0
 11
6602.915311900473
 21
5135.220848083235
 31
0.0
  0
ARC
  5
16309
330
747D
100
AcDbEntity
  8
細線
 48
0.2
100
AcDbCircle
 10
6619.915311900474
 20
5135.191357914482
 30
0.0
 40
1.0
100
AcDbArc
 50
0.0
 51
73.39845040100779
  0
LINE
  5
1630A
330
747D
100
AcDbEntity
  8
部品1
100
AcDbLine
 10
6712.977759729153
 20
5134.970848083233
 30
0.0
 11
7422.915311900474
 21
5134.970848083233
 31
0.0
  0
LINE
  5
1630B
330
747D
100
AcDbEntity
  8
部品1
 48
50.0
100
AcDbLine
 10
5782.915311900473
 20
5128.220848083234
 30
0.0
 11
5782.915311900473
 21
5134.970848083234
 31
0.0
  0
LINE
  5
1630C
330
747D
100
AcDbEntity
  8
細線
 48
0.1
100
AcDbLine
 10
5802.915311900473
 20
5135.220848083235
 30
0.0
 11
5802.915311900473
 21
5128.220848083234
 31
0.0
  0
LINE
  5
1630D
330
747D
100
AcDbEntity
  8
細線
 48
50.0
100
AcDbLine
 10
5791.052554706169
 20
5132.720848083234
 30
0.0
 11
5791.052554706169
 21
5130.720848083234
 31
0.0
  0
LINE
  5
1630E
330
747D
100
AcDbEntity
  8
細線
 48
50.0
100
AcDbLine
 10
5798.902964752135
 20
5132.720848083234
 30
0.0
 11
5798.902964752135
 21
5130.720848083234
 31
0.0
  0
LINE
  5
1630F
330
747D
100
AcDbEntity
  8
細線
 48
0.2
100
AcDbLine
 10
5802.915311900473
 20
5130.720848083234
 30
0.0
 11
5782.915311900473
 21
5130.720848083234
 31
0.0
  0
LINE
  5
16310
330
747D
100
AcDbEntity
  8
部品1
 48
0.2
100
AcDbLine
 10
5802.915311900473
 20
5128.220848083234
 30
0.0
 11
5782.915311900473
 21
5128.220848083234
 31
0.0
  0
LINE
  5
16311
330
747D
100
AcDbEntity
  8
細線
 48
50.0
100
AcDbLine
 10
5782.915311900473
 20
5134.970848083234
 30
0.0
 11
5782.915311900473
 21
5135.220848083235
 31
0.0
  0
LINE
  5
16312
330
747D
100
AcDbEntity
  8
部品1
100
AcDbLine
 10
5802.915311900473
 20
5134.970848083234
 30
0.0
 11
5802.977759729154
 21
5134.970848083233
 31
0.0
  0
LINE
  5
16313
330
747D
100
AcDbEntity
  8
細線
 48
0.2
100
AcDbLine
 10
5802.915311900473
 20
5135.220848083235
 30
0.0
 11
5782.915311900473
 21
5135.220848083235
 31
0.0
  0
LINE
  5
16314
330
747D
100
AcDbEntity
  8
細線
 48
0.2
100
AcDbLine
 10
5802.915311900473
 20
5132.720848083234
 30
0.0
 11
5782.915311900473
 21
5132.720848083234
 31
0.0
  0
ARC
  5
16315
330
747D
100
AcDbEntity
  8
細線
 48
0.2
100
AcDbCircle
 10
5789.915311900473
 20
5135.191357914482
 30
0.0
 40
1.0
100
AcDbArc
 50
106.6015495989922
 51
180.0
  0
ARC
  5
16316
330
747D
100
AcDbEntity
  8
細線
 48
0.2
100
AcDbCircle
 10
5799.915311900473
 20
5135.191357914482
 30
0.0
 40
1.0
100
AcDbArc
 50
0.0
 51
73.39845040100779
  0
ARC
  5
16317
330
747D
100
AcDbEntity
  8
細線
 48
0.2
100
AcDbCircle
 10
5794.915311900473
 20
5118.420848083236
 30
0.0
 40
18.49999999999796
100
AcDbArc
 50
73.39845040100779
 51
106.6015495989922
  0
LINE
  5
16318
330
747D
100
AcDbEntity
  8
細線
 48
0.2
100
AcDbLine
 10
5800.599303196981
 20
5135.920848083235
 30
0.0
 11
5789.231320603969
 21
5135.920848083235
 31
0.0
  0
LINE
  5
16319
330
747D
100
AcDbEntity
  8
部品1
100
AcDbLine
 10
5072.977759729154
 20
5134.970848083234
 30
0.0
 11
5782.915311900473
 21
5134.970848083234
 31
0.0
  0
LINE
  5
1631A
330
747D
100
AcDbEntity
  8
部品1
100
AcDbLine
 10
5027.977759729154
 20
5137.470848083232
 30
0.0
 11
7487.977759729154
 21
5137.470848083232
 31
0.0
  0
LINE
  5
1631B
330
747D
100
AcDbEntity
  8
部品1
100
AcDbLine
 10
5892.977759729154
 20
5134.970848083231
 30
0.0
 11
6602.915311900473
 21
5134.970848083233
 31
0.0
  0
CIRCLE
  5
1631C
330
747D
100
AcDbEntity
  8
細線
 48
20.0
100
AcDbCircle
 10
5114.478624783646
 20
4339.970848083234
 30
0.0
 40
10.0
  0
CIRCLE
  5
1631D
330
747D
100
AcDbEntity
  8
細線
 48
20.0
100
AcDbCircle
 10
5114.478624783646
 20
4339.970848083234
 30
0.0
 40
20.0
  0
LINE
  5
1631E
330
747D
100
AcDbEntity
  8
部品1
100
AcDbLine
 10
5140.977759729154
 20
4185.470848083234
 30
0.0
 11
5140.977759729154
 21
4293.470848083233
 31
0.0
  0
ARC
  5
1631F
330
747D
100
AcDbEntity
  8
部品1
100
AcDbCircle
 10
5382.977759729154
 20
4239.470848083234
 30
0.0
 40
300.0
100
AcDbArc
 50
169.4161974034606
 51
190.5838025965393
  0
LINE
  5
16320
330
747D
100
AcDbEntity
  8
部品1
100
AcDbLine
 10
5093.979489838137
 20
4179.470848083234
 30
0.0
 11
5134.977759729154
 21
4179.470848083234
 31
0.0
  0
ARC
  5
16321
330
747D
100
AcDbEntity
  8
部品1
100
AcDbCircle
 10
5134.977759729154
 20
4185.470848083234
 30
0.0
 40
6.0
100
AcDbArc
 50
270.0
 51
0.0
  0
ARC
  5
16322
330
747D
100
AcDbEntity
  8
部品1
100
AcDbCircle
 10
5093.979489838137
 20
4185.470848083234
 30
0.0
 40
6.0
100
AcDbArc
 50
190.5838025965393
 51
270.0
  0
ARC
  5
16323
330
747D
100
AcDbEntity
  8
部品1
100
AcDbCircle
 10
5134.977759729154
 20
4293.470848083233
 30
0.0
 40
6.0
100
AcDbArc
 50
0.0
 51
90.0
  0
ARC
  5
16324
330
747D
100
AcDbEntity
  8
部品1
100
AcDbCircle
 10
5093.979489838137
 20
4293.470848083233
 30
0.0
 40
6.0
100
AcDbArc
 50
90.0
 51
169.4161974034606
  0
LINE
  5
16325
330
747D
100
AcDbEntity
  8
部品1
100
AcDbLine
 10
5134.977759729154
 20
4299.470848083234
 30
0.0
 11
5093.979489838137
 21
4299.470848083234
 31
0.0
  0
LINE
  5
16326
330
747D
100
AcDbEntity
  8
細線
100
AcDbLine
 10
5139.477759729154
 20
4186.470848083234
 30
0.0
 11
5139.477759729154
 21
4292.470848083234
 31
0.0
  0
LINE
  5
16327
330
747D
100
AcDbEntity
  8
細線
100
AcDbLine
 10
5134.977759729154
 20
4195.470848083235
 30
0.0
 11
5134.977759729154
 21
4283.470848083234
 31
0.0
  0
ARC
  5
16328
330
747D
100
AcDbEntity
  8
細線
100
AcDbCircle
 10
4820.37497782123
 20
4239.470848083234
 30
0.0
 40
294.0
100
AcDbArc
 50
351.9004491617387
 51
8.099550838261343
  0
ARC
  5
16329
330
747D
100
AcDbEntity
  8
細線
100
AcDbCircle
 10
5382.977759729154
 20
4239.470848083234
 30
0.0
 40
294.0
100
AcDbArc
 50
171.2120626773515
 51
188.7879373226485
  0
ARC
  5
1632A
330
747D
100
AcDbEntity
  8
細線
100
AcDbCircle
 10
5382.977759729154
 20
4239.470848083234
 30
0.0
 40
298.5
100
AcDbArc
 50
169.5785490272547
 51
190.4214509727453
  0
LINE
  5
1632B
330
747D
100
AcDbEntity
  8
細線
100
AcDbLine
 10
5106.977759729154
 20
4289.470848083234
 30
0.0
 11
5106.977759729154
 21
4189.470848083234
 31
0.0
  0
LINE
  5
1632C
330
747D
100
AcDbEntity
  8
細線
100
AcDbLine
 10
5125.1852989079
 20
4198.470848083235
 30
0.0
 11
5125.1852989079
 21
4280.470848083234
 31
0.0
  0
ARC
  5
1632D
330
747D
100
AcDbEntity
  8
細線
100
AcDbCircle
 10
5133.977759729154
 20
4186.470848083234
 30
0.0
 40
5.5
100
AcDbArc
 50
270.0
 51
0.0
  0
LINE
  5
1632E
330
747D
100
AcDbEntity
  8
細線
100
AcDbLine
 10
5098.358716093629
 20
4189.470848083234
 30
0.0
 11
5128.977759729154
 21
4189.470848083234
 31
0.0
  0
ARC
  5
1632F
330
747D
100
AcDbEntity
  8
細線
100
AcDbCircle
 10
5119.1852989079
 20
4198.470848083235
 30
0.0
 40
6.0
100
AcDbArc
 50
270.0
 51
0.0
  0
LINE
  5
16330
330
747D
100
AcDbEntity
  8
細線
100
AcDbLine
 10
5106.977759729154
 20
4195.471355981795
 30
0.0
 11
5093.499055230331
 21
4195.471355981795
 31
0.0
  0
ARC
  5
16331
330
747D
100
AcDbEntity
  8
細線
100
AcDbCircle
 10
5094.81114125991
 20
4186.470848083234
 30
0.0
 40
5.5
100
AcDbArc
 50
190.4214509727453
 51
270.0
  0
ARC
  5
16332
330
747D
100
AcDbEntity
  8
細線
100
AcDbCircle
 10
5098.358716093629
 20
4195.470848083235
 30
0.0
 40
6.0
100
AcDbArc
 50
188.7879373226485
 51
270.0
  0
LINE
  5
16333
330
747D
100
AcDbEntity
  8
細線
100
AcDbLine
 10
5106.977759729154
 20
4192.470848083234
 30
0.0
 11
5119.1852989079
 21
4192.470848083234
 31
0.0
  0
ARC
  5
16334
330
747D
100
AcDbEntity
  8
細線
100
AcDbCircle
 10
5108.472183638989
 20
4198.470848083235
 30
0.0
 40
3.0
100
AcDbArc
 50
270.0
 51
351.9004491617129
  0
LINE
  5
16335
330
747D
100
AcDbEntity
  8
細線
100
AcDbLine
 10
5106.977759729154
 20
4195.470848083235
 30
0.0
 11
5108.472183638989
 21
4195.470848083235
 31
0.0
  0
LINE
  5
16336
330
747D
100
AcDbEntity
  8
細線
100
AcDbLine
 10
5094.81114125991
 20
4180.970848083234
 30
0.0
 11
5133.977759729154
 21
4180.970848083234
 31
0.0
  0
ARC
  5
16337
330
747D
100
AcDbEntity
  8
細線
100
AcDbCircle
 10
5128.977759729154
 20
4195.470848083235
 30
0.0
 40
6.0
100
AcDbArc
 50
270.0
 51
0.0
  0
ARC
  5
16338
330
747D
100
AcDbEntity
  8
細線
100
AcDbCircle
 10
5133.977759729154
 20
4292.470848083234
 30
0.0
 40
5.5
100
AcDbArc
 50
0.0
 51
90.0
  0
LINE
  5
16339
330
747D
100
AcDbEntity
  8
細線
100
AcDbLine
 10
5128.977759729154
 20
4289.470848083234
 30
0.0
 11
5098.358716093629
 21
4289.470848083234
 31
0.0
  0
ARC
  5
1633A
330
747D
100
AcDbEntity
  8
細線
100
AcDbCircle
 10
5119.1852989079
 20
4280.470848083234
 30
0.0
 40
6.0
100
AcDbArc
 50
0.0
 51
90.0
  0
ARC
  5
1633B
330
747D
100
AcDbEntity
  8
細線
100
AcDbCircle
 10
5094.81114125991
 20
4292.470848083234
 30
0.0
 40
5.5
100
AcDbArc
 50
90.0
 51
169.5785490272547
  0
LINE
  5
1633C
330
747D
100
AcDbEntity
  8
細線
100
AcDbLine
 10
5106.977759729154
 20
4283.47034018467
 30
0.0
 11
5094.214432513188
 21
4283.47034018467
 31
0.0
  0
ARC
  5
1633D
330
747D
100
AcDbEntity
  8
細線
100
AcDbCircle
 10
5098.358716093629
 20
4283.470848083234
 30
0.0
 40
6.0
100
AcDbArc
 50
90.0
 51
171.2120626773515
  0
LINE
  5
1633E
330
747D
100
AcDbEntity
  8
細線
100
AcDbLine
 10
5119.1852989079
 20
4286.470848083234
 30
0.0
 11
5106.977759729154
 21
4286.470848083234
 31
0.0
  0
ARC
  5
1633F
330
747D
100
AcDbEntity
  8
細線
100
AcDbCircle
 10
5108.472183638987
 20
4280.470848083234
 30
0.0
 40
3.0
100
AcDbArc
 50
8.099550838261343
 51
90.0
  0
LINE
  5
16340
330
747D
100
AcDbEntity
  8
細線
100
AcDbLine
 10
5108.472183638987
 20
4283.470848083234
 30
0.0
 11
5106.977759729154
 21
4283.470848083234
 31
0.0
  0
LINE
  5
16341
330
747D
100
AcDbEntity
  8
細線
100
AcDbLine
 10
5133.977759729154
 20
4297.970848083234
 30
0.0
 11
5094.81114125991
 21
4297.970848083234
 31
0.0
  0
ARC
  5
16342
330
747D
100
AcDbEntity
  8
細線
100
AcDbCircle
 10
5128.977759729154
 20
4283.470848083234
 30
0.0
 40
6.0
100
AcDbArc
 50
0.0
 51
90.0
  0
LINE
  5
16343
330
747D
100
AcDbEntity
  8
細線
 48
0.1
100
AcDbLine
 10
7442.915311900474
 20
3343.72084808325
 30
0.0
 11
7442.915311900474
 21
3350.720848083251
 31
0.0
  0
LINE
  5
16344
330
747D
100
AcDbEntity
  8
細線
 48
50.0
100
AcDbLine
 10
7431.05255470617
 20
3346.220848083252
 30
0.0
 11
7431.05255470617
 21
3348.220848083251
 31
0.0
  0
LINE
  5
16345
330
747D
100
AcDbEntity
  8
細線
 48
50.0
100
AcDbLine
 10
7438.902964752135
 20
3346.220848083252
 30
0.0
 11
7438.902964752135
 21
3348.220848083251
 31
0.0
  0
LINE
  5
16346
330
747D
100
AcDbEntity
  8
部品1
 48
50.0
100
AcDbLine
 10
7422.915311900474
 20
3350.720848083251
 30
0.0
 11
7422.915311900474
 21
3343.970848083252
 31
0.0
  0
LINE
  5
16347
330
747D
100
AcDbEntity
  8
部品1
100
AcDbLine
 10
7442.915311900474
 20
3343.970848083252
 30
0.0
 11
7442.977759729155
 21
3343.970848083252
 31
0.0
  0
ARC
  5
16348
330
747D
100
AcDbEntity
  8
細線
 48
0.2
100
AcDbCircle
 10
7439.915311900474
 20
3343.750338252003
 30
0.0
 40
1.0
100
AcDbArc
 50
286.6015495989922
 51
0.0
  0
LINE
  5
16349
330
747D
100
AcDbEntity
  8
細線
 48
0.2
100
AcDbLine
 10
7442.915311900474
 20
3343.72084808325
 30
0.0
 11
7422.915311900474
 21
3343.72084808325
 31
0.0
  0
LINE
  5
1634A
330
747D
100
AcDbEntity
  8
細線
 48
0.2
100
AcDbLine
 10
7442.915311900474
 20
3346.220848083251
 30
0.0
 11
7422.915311900474
 21
3346.220848083252
 31
0.0
  0
ARC
  5
1634B
330
747D
100
AcDbEntity
  8
細線
 48
0.2
100
AcDbCircle
 10
7429.915311900472
 20
3343.750338252003
 30
0.0
 40
1.0
100
AcDbArc
 50
180.0
 51
253.3984504010078
  0
ARC
  5
1634C
330
747D
100
AcDbEntity
  8
細線
 48
0.2
100
AcDbCircle
 10
7434.915311900474
 20
3360.520848083248
 30
0.0
 40
18.49999999999796
100
AcDbArc
 50
253.3984504010078
 51
286.6015495989922
  0
LINE
  5
1634D
330
747D
100
AcDbEntity
  8
細線
 48
0.2
100
AcDbLine
 10
7440.599303196981
 20
3343.02084808325
 30
0.0
 11
7429.231320603969
 21
3343.02084808325
 31
0.0
  0
LINE
  5
1634E
330
747D
100
AcDbEntity
  8
細線
 48
50.0
100
AcDbLine
 10
7422.915311900474
 20
3343.970848083252
 30
0.0
 11
7422.915311900474
 21
3343.72084808325
 31
0.0
  0
LINE
  5
1634F
330
747D
100
AcDbEntity
  8
部品1
100
AcDbLine
 10
7442.915311900474
 20
3343.970848083252
 30
0.0
 11
7442.977759729155
 21
3343.970848083252
 31
0.0
  0
LINE
  5
16350
330
747D
100
AcDbEntity
  8
部品1
100
AcDbLine
 10
7442.915311900474
 20
3343.970848083254
 30
0.0
 11
7442.977759729155
 21
3343.970848083254
 31
0.0
  0
LINE
  5
16351
330
747D
100
AcDbEntity
  8
細線
 48
0.2
100
AcDbLine
 10
7442.915311900474
 20
3348.220848083251
 30
0.0
 11
7422.915311900474
 21
3348.220848083251
 31
0.0
  0
LINE
  5
16352
330
747D
100
AcDbEntity
  8
部品1
 48
0.2
100
AcDbLine
 10
7442.915311900474
 20
3350.720848083251
 30
0.0
 11
7422.915311900474
 21
3350.720848083251
 31
0.0
  0
LINE
  5
16353
330
747D
100
AcDbEntity
  8
細線
 48
0.1
100
AcDbLine
 10
6622.915311900474
 20
3343.72084808325
 30
0.0
 11
6622.915311900474
 21
3350.720848083251
 31
0.0
  0
LINE
  5
16354
330
747D
100
AcDbEntity
  8
細線
 48
50.0
100
AcDbLine
 10
6611.052554706169
 20
3346.220848083252
 30
0.0
 11
6611.052554706169
 21
3348.220848083251
 31
0.0
  0
LINE
  5
16355
330
747D
100
AcDbEntity
  8
細線
 48
50.0
100
AcDbLine
 10
6618.902964752135
 20
3346.220848083252
 30
0.0
 11
6618.902964752135
 21
3348.220848083251
 31
0.0
  0
LINE
  5
16356
330
747D
100
AcDbEntity
  8
部品1
 48
50.0
100
AcDbLine
 10
6602.915311900473
 20
3350.720848083251
 30
0.0
 11
6602.915311900473
 21
3343.970848083252
 31
0.0
  0
LINE
  5
16357
330
747D
100
AcDbEntity
  8
部品1
100
AcDbLine
 10
6622.915311900474
 20
3343.970848083252
 30
0.0
 11
6622.977759729154
 21
3343.970848083252
 31
0.0
  0
ARC
  5
16358
330
747D
100
AcDbEntity
  8
細線
 48
0.2
100
AcDbCircle
 10
6619.915311900474
 20
3343.750338252003
 30
0.0
 40
1.0
100
AcDbArc
 50
286.6015495989922
 51
0.0
  0
LINE
  5
16359
330
747D
100
AcDbEntity
  8
細線
 48
0.2
100
AcDbLine
 10
6622.915311900474
 20
3343.72084808325
 30
0.0
 11
6602.915311900473
 21
3343.72084808325
 31
0.0
  0
LINE
  5
1635A
330
747D
100
AcDbEntity
  8
細線
 48
0.2
100
AcDbLine
 10
6622.915311900474
 20
3346.220848083251
 30
0.0
 11
6602.915311900473
 21
3346.220848083252
 31
0.0
  0
ARC
  5
1635B
330
747D
100
AcDbEntity
  8
細線
 48
0.2
100
AcDbCircle
 10
6609.915311900474
 20
3343.750338252003
 30
0.0
 40
1.0
100
AcDbArc
 50
180.0
 51
253.3984504010078
  0
ARC
  5
1635C
330
747D
100
AcDbEntity
  8
細線
 48
0.2
100
AcDbCircle
 10
6614.915311900474
 20
3360.520848083248
 30
0.0
 40
18.49999999999796
100
AcDbArc
 50
253.3984504010078
 51
286.6015495989922
  0
LINE
  5
1635D
330
747D
100
AcDbEntity
  8
細線
 48
0.2
100
AcDbLine
 10
6620.599303196981
 20
3343.02084808325
 30
0.0
 11
6609.231320603969
 21
3343.02084808325
 31
0.0
  0
LINE
  5
1635E
330
747D
100
AcDbEntity
  8
細線
 48
50.0
100
AcDbLine
 10
6602.915311900473
 20
3343.970848083252
 30
0.0
 11
6602.915311900473
 21
3343.72084808325
 31
0.0
  0
LINE
  5
1635F
330
747D
100
AcDbEntity
  8
部品1
100
AcDbLine
 10
6622.915311900474
 20
3343.970848083252
 30
0.0
 11
6622.977759729154
 21
3343.970848083252
 31
0.0
  0
LINE
  5
16360
330
747D
100
AcDbEntity
  8
部品1
100
AcDbLine
 10
6622.915311900474
 20
3343.970848083254
 30
0.0
 11
6622.977759729154
 21
3343.970848083254
 31
0.0
  0
LINE
  5
16361
330
747D
100
AcDbEntity
  8
細線
 48
0.2
100
AcDbLine
 10
6622.915311900474
 20
3348.220848083251
 30
0.0
 11
6602.915311900473
 21
3348.220848083251
 31
0.0
  0
LINE
  5
16362
330
747D
100
AcDbEntity
  8
部品1
 48
0.2
100
AcDbLine
 10
6622.915311900474
 20
3350.720848083251
 30
0.0
 11
6602.915311900473
 21
3350.720848083251
 31
0.0
  0
LINE
  5
16363
330
747D
100
AcDbEntity
  8
部品1
100
AcDbLine
 10
6712.977759729153
 20
3343.970848083245
 30
0.0
 11
7422.915311900474
 21
3343.970848083252
 31
0.0
  0
LINE
  5
16364
330
747D
100
AcDbEntity
  8
部品1
 48
50.0
100
AcDbLine
 10
5782.915311900473
 20
3350.720848083251
 30
0.0
 11
5782.915311900473
 21
3343.970848083252
 31
0.0
  0
LINE
  5
16365
330
747D
100
AcDbEntity
  8
細線
 48
50.0
100
AcDbLine
 10
5798.902964752135
 20
3346.220848083252
 30
0.0
 11
5798.902964752135
 21
3348.220848083251
 31
0.0
  0
LINE
  5
16366
330
747D
100
AcDbEntity
  8
細線
 48
50.0
100
AcDbLine
 10
5791.052554706169
 20
3346.220848083252
 30
0.0
 11
5791.052554706169
 21
3348.220848083251
 31
0.0
  0
LINE
  5
16367
330
747D
100
AcDbEntity
  8
細線
 48
0.1
100
AcDbLine
 10
5802.915311900473
 20
3343.72084808325
 30
0.0
 11
5802.915311900473
 21
3350.720848083251
 31
0.0
  0
LINE
  5
16368
330
747D
100
AcDbEntity
  8
部品1
100
AcDbLine
 10
5802.915311900473
 20
3343.970848083244
 30
0.0
 11
5802.977759729154
 21
3343.970848083244
 31
0.0
  0
LINE
  5
16369
330
747D
100
AcDbEntity
  8
部品1
100
AcDbLine
 10
5802.915311900473
 20
3343.970848083252
 30
0.0
 11
5802.977759729154
 21
3343.970848083252
 31
0.0
  0
LINE
  5
1636A
330
747D
100
AcDbEntity
  8
細線
 48
50.0
100
AcDbLine
 10
5782.915311900473
 20
3343.970848083252
 30
0.0
 11
5782.915311900473
 21
3343.72084808325
 31
0.0
  0
LINE
  5
1636B
330
747D
100
AcDbEntity
  8
細線
 48
0.2
100
AcDbLine
 10
5800.599303196981
 20
3343.02084808325
 30
0.0
 11
5789.231320603969
 21
3343.02084808325
 31
0.0
  0
ARC
  5
1636C
330
747D
100
AcDbEntity
  8
細線
 48
0.2
100
AcDbCircle
 10
5794.915311900473
 20
3360.520848083248
 30
0.0
 40
18.49999999999796
100
AcDbArc
 50
253.3984504010078
 51
286.6015495989922
  0
ARC
  5
1636D
330
747D
100
AcDbEntity
  8
細線
 48
0.2
100
AcDbCircle
 10
5789.915311900473
 20
3343.750338252003
 30
0.0
 40
1.0
100
AcDbArc
 50
180.0
 51
253.3984504010078
  0
LINE
  5
1636E
330
747D
100
AcDbEntity
  8
細線
 48
0.2
100
AcDbLine
 10
5802.915311900473
 20
3346.220848083251
 30
0.0
 11
5782.915311900473
 21
3346.220848083252
 31
0.0
  0
LINE
  5
1636F
330
747D
100
AcDbEntity
  8
細線
 48
0.2
100
AcDbLine
 10
5802.915311900473
 20
3343.72084808325
 30
0.0
 11
5782.915311900473
 21
3343.72084808325
 31
0.0
  0
ARC
  5
16370
330
747D
100
AcDbEntity
  8
細線
 48
0.2
100
AcDbCircle
 10
5799.915311900473
 20
3343.750338252003
 30
0.0
 40
1.0
100
AcDbArc
 50
286.6015495989922
 51
0.0
  0
LINE
  5
16371
330
747D
100
AcDbEntity
  8
部品1
 48
0.2
100
AcDbLine
 10
5802.915311900473
 20
3350.720848083251
 30
0.0
 11
5782.915311900473
 21
3350.720848083251
 31
0.0
  0
LINE
  5
16372
330
747D
100
AcDbEntity
  8
細線
 48
0.2
100
AcDbLine
 10
5802.915311900473
 20
3348.220848083251
 30
0.0
 11
5782.915311900473
 21
3348.220848083251
 31
0.0
  0
LINE
  5
16373
330
747D
100
AcDbEntity
  8
部品1
100
AcDbLine
 10
5072.977759729154
 20
3343.970848083238
 30
0.0
 11
5782.915311900473
 21
3343.970848083244
 31
0.0
  0
LINE
  5
16374
330
747D
100
AcDbEntity
  8
部品1
100
AcDbLine
 10
5027.977759729154
 20
3297.470848083233
 30
0.0
 11
7487.977759729154
 21
3297.470848083233
 31
0.0
  0
LINE
  5
16375
330
747D
100
AcDbEntity
  8
部品1
100
AcDbLine
 10
5027.977759729154
 20
3340.470848083236
 30
0.0
 11
7487.977759729154
 21
3340.470848083253
 31
0.0
  0
LINE
  5
16376
330
747D
100
AcDbEntity
  8
部品1
100
AcDbLine
 10
5892.977759729154
 20
3343.970848083245
 30
0.0
 11
6602.915311900473
 21
3343.970848083252
 31
0.0
  0
DIMENSION
  5
16377
330
747D
100
AcDbEntity
  8
寸法
100
AcDbDimension
  2
*D23
 10
4709.873232121551
 20
3358.970848083237
 30
0.0
 11
4709.87323212155
 21
4237.970848083234
 31
0.0
 70
   160
  1
有効開口部高サ<>
 71
     5
 42
1759.999999999995
  3
INABA_S40G
100
AcDbAlignedDimension
 13
5027.977759729154
 23
5118.970848083232
 33
0.0
 14
5027.977759729154
 24
3358.970848083237
 34
0.0
 50
90.0
100
AcDbRotatedDimension
1001
ACAD
1000
DSTYLE
1002
{
1070
   288
1070
     1
1002
}
  0
LINE
  5
16378
330
747D
100
AcDbEntity
  8
部品1
100
AcDbLine
 10
5070.977759729154
 20
5137.470848083232
 30
0.0
 11
5070.977759729154
 21
3340.470848083253
 31
0.0
  0
LINE
  5
16379
330
747D
100
AcDbEntity
  8
部品1
100
AcDbLine
 10
5802.977759729154
 20
5134.970848083233
 30
0.0
 11
5802.977759729156
 21
3343.970848083244
 31
0.0
  0
LINE
  5
1637A
330
747D
100
AcDbEntity
  8
部品1
100
AcDbLine
 10
5804.977759729155
 20
5137.470848083232
 30
0.0
 11
5804.977759729155
 21
3340.470848083253
 31
0.0
  0
LINE
  5
1637B
330
747D
100
AcDbEntity
  8
部品1
100
AcDbLine
 10
6710.977759729154
 20
5137.470848083232
 30
0.0
 11
6710.977759729154
 21
3340.470848083253
 31
0.0
  0
LINE
  5
1637C
330
747D
100
AcDbEntity
  8
部品1
100
AcDbLine
 10
6712.977759729153
 20
5134.970848083233
 30
0.0
 11
6712.977759729156
 21
3343.970848083245
 31
0.0
  0
LINE
  5
1637D
330
747D
100
AcDbEntity
  8
部品1
100
AcDbLine
 10
7442.977759729155
 20
5134.970848083233
 30
0.0
 11
7442.977759729156
 21
3343.970848083252
 31
0.0
  0
LINE
  5
1637E
330
747D
100
AcDbEntity
  8
部品1
100
AcDbLine
 10
7487.977759729154
 20
5231.470848083234
 30
0.0
 11
7487.977759729154
 21
3197.470848083233
 31
0.0
  0
LINE
  5
1637F
330
747D
100
AcDbEntity
  8
部品1
100
AcDbLine
 10
5027.977759729154
 20
5231.470848083236
 30
0.0
 11
5027.977759729154
 21
3197.470848083233
 31
0.0
  0
LINE
  5
16380
330
747D
100
AcDbEntity
  8
部品1
100
AcDbLine
 10
7444.977759729154
 20
5137.470848083232
 30
0.0
 11
7444.977759729154
 21
3340.470848083253
 31
0.0
  0
LINE
  5
16381
330
747D
100
AcDbEntity
  8
部品1
100
AcDbLine
 10
5072.977759729154
 20
5134.970848083234
 30
0.0
 11
5072.977759729154
 21
3343.970848083238
 31
0.0
  0
LINE
  5
16382
330
747D
100
AcDbEntity
  8
部品1
100
AcDbLine
 10
5890.977759729154
 20
5137.470848083232
 30
0.0
 11
5890.977759729154
 21
3340.470848083253
 31
0.0
  0
LINE
  5
16383
330
747D
100
AcDbEntity
  8
部品1
100
AcDbLine
 10
5892.977759729154
 20
5134.970848083231
 30
0.0
 11
5892.977759729154
 21
3343.970848083245
 31
0.0
  0
LINE
  5
16384
330
747D
100
AcDbEntity
  8
部品1
100
AcDbLine
 10
6622.977759729154
 20
5134.970848083233
 30
0.0
 11
6622.977759729156
 21
3343.970848083252
 31
0.0
  0
LINE
  5
16385
330
747D
100
AcDbEntity
  8
部品1
100
AcDbLine
 10
6624.977759729154
 20
5137.470848083232
 30
0.0
 11
6624.977759729154
 21
3340.470848083253
 31
0.0
  0
TEXT
  5
16386
330
747D
100
AcDbEntity
  8
部品1
100
AcDbText
 10
4136.083442537755
 20
3233.577751689134
 30
0.0
 40
125.0
  1
▽G.L
  7
STYLE2
100
AcDbText
  0
MTEXT
  5
164DE
330
747D
100
AcDbEntity
  8
寸法
 62
     7
 48
50.0
100
AcDbMText
 10
5453.25756401743
 20
9044.373233835099
 30
0.0
 40
96.0
 41
0.0
 71
     5
 72
     1
  1
棚 2段
  7
STYLE1
 73
     1
 44
1.0
1001
ACAD
1000
MTEXTBEGIN
1070
    73
1070
     1
1070
    44
1040
1.0
1070
    74
1070
     0
1000
MTEXTEND
  0
LINE
  5
16B0D
330
747D
100
AcDbEntity
  8
部品1
100
AcDbLine
 10
9867.847302244761
 20
5137.470848083233
 30
0.0
 11
11244.84967228954
 21
5137.470848083232
 31
0.0
  0
LINE
  5
16B0E
330
747D
100
AcDbEntity
  8
部品1
100
AcDbLine
 10
9874.849672289537
 20
3347.470848083233
 30
0.0
 11
11244.84967228954
 21
3347.470848083234
 31
0.0
  0
LINE
  5
16B0F
330
747D
100
AcDbEntity
  8
部品1
100
AcDbLine
 10
9929.849672289536
 20
5137.470848083232
 30
0.0
 11
9929.849672289536
 21
3347.470848083233
 31
0.0
  0
LINE
  5
16B10
330
747D
100
AcDbEntity
  8
部品1
100
AcDbLine
 10
9874.849672289542
 20
5229.047742023674
 30
0.0
 11
9874.849672289537
 21
3197.470848083233
 31
0.0
  0
DIMENSION
  5
16B11
330
747D
100
AcDbEntity
  8
寸法
100
AcDbDimension
  2
*D24
 10
8970.577860649058
 20
5372.470848083238
 30
0.0
 11
8970.577860649056
 21
4272.677838503035
 31
0.0
 70
   160
 71
     5
 42
2075.000000000003
  3
INABA_S40G
100
AcDbAlignedDimension
 13
9874.849672289537
 23
3297.470848083234
 33
0.0
 14
9814.84967228954
 24
5372.470848083238
 34
0.0
 50
90.0
100
AcDbRotatedDimension
1001
ACAD
1000
DSTYLE
1002
{
1070
   174
1070
     0
1070
   272
1070
     1
1070
   288
1070
     0
1070
   341
1005
0
1002
}
  0
DIMENSION
  5
16B12
330
747D
100
AcDbEntity
  8
寸法
100
AcDbDimension
  2
*D25
 10
9272.886581597333
 20
3297.470848083234
 30
0.0
 11
9272.886581597333
 21
2991.423603988744
 31
0.0
 70
   160
 71
     5
 42
50.00000000000182
  3
INABA_S40G
100
AcDbAlignedDimension
 13
9867.847302244761
 23
3347.470848083236
 33
0.0
 14
9819.849672289535
 24
3297.470848083234
 34
0.0
 50
90.0
100
AcDbRotatedDimension
1001
ACAD
1000
DSTYLE
1002
{
1070
   174
1070
     0
1070
   272
1070
     1
1070
   288
1070
     0
1070
   341
1005
0
1002
}
  0
LINE
  5
16B13
330
747D
100
AcDbEntity
  8
部品1
100
AcDbLine
 10
10349.84967228953
 20
5137.470848083232
 30
0.0
 11
10349.84967228953
 21
3347.470848083233
 31
0.0
  0
LINE
  5
16B14
330
747D
100
AcDbEntity
  8
部品1
100
AcDbLine
 10
11244.84967228953
 20
5192.107428918485
 30
0.0
 11
11244.84967228954
 21
3197.470848083233
 31
0.0
  0
LINE
  5
16B15
330
747D
100
AcDbEntity
  8
部品1
100
AcDbLine
 10
11189.84967228954
 20
5137.470848083232
 30
0.0
 11
11189.84967228954
 21
3347.470848083233
 31
0.0
  0
DIMENSION
  5
16B16
330
747D
100
AcDbEntity
  8
寸法
100
AcDbDimension
  2
*D26
 10
11949.77683026166
 20
5317.470848083234
 30
0.0
 11
11849.76501923804
 21
4307.470848083236
 31
0.0
 70
    32
 71
     5
 42
2020.000000000001
  3
INABA_S40G
100
AcDbAlignedDimension
 13
11244.84967228954
 23
3297.470848083234
 33
0.0
 14
11324.84967228954
 24
5317.470848083234
 34
0.0
 50
90.0
100
AcDbRotatedDimension
1001
ACAD
1000
DSTYLE
1002
{
1070
   174
1070
     0
1070
   272
1070
     1
1070
   288
1070
     0
1070
   341
1005
0
1002
}
  0
DIMENSION
  5
16B17
330
747D
100
AcDbEntity
  8
寸法
 48
50.0
100
AcDbDimension
  2
*D27
 10
9874.849672289538
 20
5771.128301662536
 30
0.0
 11
10524.66870518008
 21
5771.128301662536
 31
0.0
 70
   160
  1
柱外寸法<>
 71
     5
 42
1370.0
  3
INABA_S40G
100
AcDbAlignedDimension
 13
11244.84967228954
 23
5319.281527694887
 33
0.0
 14
9874.849672289538
 24
5368.472466206209
 34
0.0
100
AcDbRotatedDimension
1001
ACAD
1000
DSTYLE
1002
{
1070
   174
1070
     0
1070
   272
1070
     1
1070
   288
1070
     0
1070
   341
1005
0
1002
}
  0
DIMENSION
  5
16B18
330
747D
100
AcDbEntity
  8
寸法
 48
50.0
100
AcDbDimension
  2
*D28
 10
9814.84967228954
 20
5771.128301662536
 30
0.0
 11
9505.211877013946
 21
5771.128301662536
 31
0.0
 70
   160
 71
     5
 42
60.0
  3
INABA_S40G
100
AcDbAlignedDimension
 13
9874.849672289538
 23
5368.472466206209
 33
0.0
 14
9814.84967228954
 24
5372.470848083238
 34
0.0
100
AcDbRotatedDimension
1001
ACAD
1000
DSTYLE
1002
{
1070
   174
1070
     0
1070
   272
1070
     1
1070
   288
1070
     0
1070
   341
1005
0
1002
}
  0
DIMENSION
  5
16B19
330
747D
100
AcDbEntity
  8
寸法
 48
50.0
100
AcDbDimension
  2
*D29
 10
9814.84967228954
 20
5979.3026228545
 30
0.0
 11
10541.97450199136
 21
5979.3026228545
 31
0.0
 70
   160
 71
     5
 42
1510.0
  3
INABA_S40G
100
AcDbAlignedDimension
 13
11324.84967228954
 23
5317.470848083234
 33
0.0
 14
9814.84967228954
 24
5372.470848083238
 34
0.0
100
AcDbRotatedDimension
1001
ACAD
1000
DSTYLE
1002
{
1070
   174
1070
     0
1070
   272
1070
     1
1070
   288
1070
     0
1070
   341
1005
0
1002
}
  0
LINE
  5
16B1A
330
747D
100
AcDbEntity
  8
部品1
100
AcDbLine
 10
9874.849672289537
 20
3297.470848083234
 30
0.0
 11
11244.84967228954
 21
3297.470848083233
 31
0.0
  0
TEXT
  5
16B1B
330
747D
100
AcDbEntity
  8
部品1
100
AcDbText
 10
10277.56044059892
 20
2401.500738047991
 30
0.0
 40
135.0
  1
側面図
  7
STYLE2
100
AcDbText
  0
LWPOLYLINE
  5
16B1C
330
747D
100
AcDbEntity
  8
部品1
100
AcDbPolyline
 90
        4
 70
     1
 43
0.0
 10
10188.11433917532
 20
2594.394267266516
 10
10188.11433917532
 20
2354.501945720984
 10
10951.58500540375
 20
2354.501945720984
 10
10951.58500540375
 20
2594.394267266516
  0
LINE
  5
16B1D
330
747D
100
AcDbEntity
  8
細線
 48
50.0
100
AcDbLine
 10
10427.34967228953
 20
5137.470848083232
 30
0.0
 11
10427.34967228953
 21
3347.470848083233
 31
0.0
  0
LINE
  5
16B1E
330
747D
100
AcDbEntity
  8
細線
 48
50.0
100
AcDbLine
 10
10412.34967228953
 20
5137.470848083232
 30
0.0
 11
10412.34967228953
 21
3347.470848083233
 31
0.0
  0
LINE
  5
16B1F
330
747D
100
AcDbEntity
  8
細線
 48
50.0
100
AcDbLine
 10
10552.34967228953
 20
5137.470848083232
 30
0.0
 11
10552.34967228953
 21
3347.470848083233
 31
0.0
  0
LINE
  5
16B20
330
747D
100
AcDbEntity
  8
細線
 48
50.0
100
AcDbLine
 10
10567.34967228953
 20
5137.470848083232
 30
0.0
 11
10567.34967228953
 21
3347.470848083233
 31
0.0
  0
LINE
  5
16B21
330
747D
100
AcDbEntity
  8
細線
 48
50.0
100
AcDbLine
 10
10707.34967228953
 20
5137.470848083232
 30
0.0
 11
10707.34967228953
 21
3347.470848083233
 31
0.0
  0
LINE
  5
16B22
330
747D
100
AcDbEntity
  8
細線
 48
50.0
100
AcDbLine
 10
10692.34967228953
 20
5137.470848083232
 30
0.0
 11
10692.34967228953
 21
3347.470848083233
 31
0.0
  0
LINE
  5
16B23
330
747D
100
AcDbEntity
  8
細線
 48
50.0
100
AcDbLine
 10
10272.34967228953
 20
5137.470848083232
 30
0.0
 11
10272.34967228953
 21
3347.470848083233
 31
0.0
  0
LINE
  5
16B24
330
747D
100
AcDbEntity
  8
細線
 48
50.0
100
AcDbLine
 10
10287.34967228953
 20
5137.470848083232
 30
0.0
 11
10287.34967228953
 21
3347.470848083233
 31
0.0
  0
LINE
  5
16B25
330
747D
100
AcDbEntity
  8
細線
 48
50.0
100
AcDbLine
 10
10147.34967228953
 20
5137.470848083232
 30
0.0
 11
10147.34967228953
 21
3347.470848083233
 31
0.0
  0
LINE
  5
16B26
330
747D
100
AcDbEntity
  8
細線
 48
50.0
100
AcDbLine
 10
10132.34967228953
 20
5137.470848083232
 30
0.0
 11
10132.34967228953
 21
3347.470848083233
 31
0.0
  0
LINE
  5
16B27
330
747D
100
AcDbEntity
  8
細線
 48
50.0
100
AcDbLine
 10
9992.349672289536
 20
5137.470848083232
 30
0.0
 11
9992.349672289536
 21
3347.470848083233
 31
0.0
  0
LINE
  5
16B28
330
747D
100
AcDbEntity
  8
細線
 48
50.0
100
AcDbLine
 10
10007.34967228953
 20
5137.470848083232
 30
0.0
 11
10007.34967228953
 21
3347.470848083233
 31
0.0
  0
LINE
  5
16B29
330
747D
100
AcDbEntity
  8
部品1
100
AcDbLine
 10
9822.3946586465
 20
5371.188583417499
 30
0.0
 11
11317.461549151
 21
5315.521689410798
 31
0.0
  0
LINE
  5
16B2A
330
747D
100
AcDbEntity
  8
部品1
100
AcDbLine
 10
9830.192236891491
 20
5230.2518731522
 30
0.0
 11
11299.51337282938
 21
5190.63349153642
 31
0.0
  0
LINE
  5
16B2B
330
747D
100
AcDbEntity
  8
細線
 48
50.0
100
AcDbLine
 10
9847.849672289539
 20
5369.870524458638
 30
0.0
 11
9842.560570734029
 21
5229.784891831283
 31
0.0
  0
LINE
  5
16B2C
330
747D
100
AcDbEntity
  8
細線
 48
50.0
100
AcDbLine
 10
11291.84967228954
 20
5316.847870736954
 30
0.0
 11
11287.10198940154
 21
5191.102098246211
 31
0.0
  0
LINE
  5
16B2D
330
747D
100
AcDbEntity
  8
部品1
 48
50.0
100
AcDbLine
 10
9815.033958202645
 20
5364.064394247925
 30
0.0
 11
9815.414217980457
 21
5344.137429801515
 31
0.0
  0
LINE
  5
16B2E
330
747D
100
AcDbEntity
  8
部品1
 48
50.0
100
AcDbLine
 10
9818.482990086701
 20
5340.562148308041
 30
0.0
 11
9820.186891578067
 21
5251.271651601395
 31
0.0
  0
LINE
  5
16B2F
330
747D
100
AcDbEntity
  8
細線
 48
50.0
100
AcDbLine
 10
9815.889095390351
 20
5343.487929924595
 30
0.0
 11
11321.52508013552
 21
5287.273768902192
 31
0.0
  0
LINE
  5
16B30
330
747D
100
AcDbEntity
  8
細線
 48
50.0
100
AcDbLine
 10
9820.649570627637
 20
5250.626418226731
 30
0.0
 11
11310.65323505827
 21
5210.227142870663
 31
0.0
  0
LINE
  5
16B31
330
747D
100
AcDbEntity
  8
部品1
 48
50.0
100
AcDbLine
 10
9823.255663684307
 20
5247.696370107922
 30
0.0
 11
9823.457616304741
 21
5237.11333471483
 31
0.0
  0
ARC
  5
16B32
330
747D
100
AcDbEntity
  8
部品1
 48
50.0
100
AcDbCircle
 10
9822.032684030983
 20
5364.197948655354
 30
0.0
 40
7.0
100
AcDbArc
 50
87.03587545283228
 51
181.093224029263
  0
ARC
  5
16B33
330
747D
100
AcDbEntity
  8
部品1
 48
50.0
100
AcDbCircle
 10
9830.456342133079
 20
5237.246889122258
 30
0.0
 40
7.0
100
AcDbArc
 50
181.093224029263
 51
267.8377559869492
  0
ARC
  5
16B34
330
747D
100
AcDbEntity
  8
部品1
100
AcDbCircle
 10
9820.256209757877
 20
5247.639132504739
 30
0.0
 40
3.0
100
AcDbArc
 50
1.093224029263039
 51
80.18775403148449
  0
ARC
  5
16B35
330
747D
100
AcDbEntity
  8
部品1
100
AcDbCircle
 10
9815.483536160272
 20
5340.504910704858
 30
0.0
 40
3.0
100
AcDbArc
 50
1.093224029263039
 51
80.18775403169875
  0
ARC
  5
16B36
330
747D
100
AcDbEntity
  8
部品1
100
AcDbCircle
 10
9816.114090563294
 20
5344.150785242256
 30
0.0
 40
0.7
100
AcDbArc
 50
181.0932240292109
 51
260.1877540314845
  0
ARC
  5
16B37
330
747D
100
AcDbEntity
  8
部品1
100
AcDbCircle
 10
9820.886764160903
 20
5251.285007042137
 30
0.0
 40
0.7
100
AcDbArc
 50
181.0932240292109
 51
260.1877540314845
  0
LINE
  5
16B38
330
747D
100
AcDbEntity
  8
部品1
 48
50.0
100
AcDbLine
 10
11324.06357510024
 20
5307.822043975877
 30
0.0
 11
11322.03295390926
 21
5287.877002718096
 31
0.0
  0
LINE
  5
16B39
330
747D
100
AcDbEntity
  8
部品1
 48
50.0
100
AcDbLine
 10
11318.68038742478
 20
5284.566368645188
 30
0.0
 11
11311.17360815995
 21
5210.833747900174
 31
0.0
  0
LINE
  5
16B3A
330
747D
100
AcDbEntity
  8
部品1
 48
50.0
100
AcDbLine
 10
11307.82104167546
 20
5207.523113827263
 30
0.0
 11
11306.74147863572
 21
5196.919496833705
 31
0.0
  0
ARC
  5
16B3B
330
747D
100
AcDbEntity
  8
部品1
 48
50.0
100
AcDbCircle
 10
11317.09957453548
 20
5308.531054648651
 30
0.0
 40
7.0
100
AcDbArc
 50
354.1866997664961
 51
87.03587545283228
  0
ARC
  5
16B3C
330
747D
100
AcDbEntity
  8
部品1
 48
50.0
100
AcDbCircle
 10
11299.77747807097
 20
5197.628507506479
 30
0.0
 40
7.0
100
AcDbArc
 50
267.8377559869492
 51
354.1866997664961
  0
ARC
  5
16B3D
330
747D
100
AcDbEntity
  8
部品1
100
AcDbCircle
 10
11310.80561334607
 20
5207.219252110361
 30
0.0
 40
3.0
100
AcDbArc
 50
95.09216976420788
 51
174.186699766496
  0
ARC
  5
16B3E
330
747D
100
AcDbEntity
  8
部品1
100
AcDbCircle
 10
11321.66495909539
 20
5284.262506928284
 30
0.0
 40
3.0
100
AcDbArc
 50
95.09216976420788
 51
174.186699766496
  0
ARC
  5
16B3F
330
747D
100
AcDbEntity
  8
部品1
100
AcDbCircle
 10
11321.33655385279
 20
5287.947903785374
 30
0.0
 40
0.7
100
AcDbArc
 50
275.0921697642079
 51
354.1866997664961
  0
ARC
  5
16B40
330
747D
100
AcDbEntity
  8
部品1
100
AcDbCircle
 10
11310.47720810347
 20
5210.904648967451
 30
0.0
 40
0.7
100
AcDbArc
 50
275.0921697642079
 51
354.1866997667061
  0
DIMENSION
  5
16B41
330
747D
100
AcDbEntity
  8
寸法
 48
50.0
100
AcDbDimension
  2
*D30
 10
11324.84967228954
 20
5771.128301662536
 30
0.0
 11
11530.89691638403
 21
5771.128301662536
 31
0.0
 70
   160
 71
     5
 42
80.0
  3
INABA_S40G
100
AcDbAlignedDimension
 13
11244.84967228954
 23
5319.281527694887
 33
0.0
 14
11324.84967228954
 24
5317.470848083234
 34
0.0
100
AcDbRotatedDimension
1001
ACAD
1000
DSTYLE
1002
{
1070
   174
1070
     0
1070
   272
1070
     1
1070
   288
1070
     0
1070
   341
1005
0
1002
}
  0
DIMENSION
  5
16B42
330
747D
100
AcDbEntity
  8
寸法
 48
50.0
100
AcDbDimension
  2
*D31
 10
9222.583420578159
 20
5394.293338980047
 30
0.0
 11
9231.261164230044
 21
5624.12957799694
 31
0.0
 70
   160
 71
     5
 42
140.9999999999991
  3
INABA_S40G
100
AcDbAlignedDimension
 13
9830.192236891491
 23
5230.2518731522
 33
0.0
 14
9835.512071043446
 24
5371.151480549082
 34
0.0
 50
87.83775598715743
100
AcDbRotatedDimension
1001
ACAD
1000
DSTYLE
1002
{
1070
   174
1070
     0
1070
   272
1070
     1
1070
   288
1070
     0
1070
   341
1005
0
1002
}
  0
LINE
  5
16B43
330
747D
100
AcDbEntity
  8
部品1
 48
50.0
100
AcDbLine
 10
10419.84967228954
 20
5503.338987184513
 30
0.0
 11
10719.84967228954
 21
5503.338987184513
 31
0.0
  0
LINE
  5
16B44
330
747D
100
AcDbEntity
  8
部品1
 48
50.0
100
AcDbLine
 10
10719.84967228954
 20
5503.338987184513
 30
0.0
 11
10719.84967228954
 21
5481.738987184513
 31
0.0
  0
TEXT
  5
16B45
330
747D
100
AcDbEntity
  8
部品1
 48
50.0
100
AcDbText
 10
10408.11750751326
 20
5539.223009336946
 30
0.0
 40
120.0
  1
1000
  7
STYLE1
100
AcDbText
  0
TEXT
  5
16B46
330
747D
100
AcDbEntity
  8
部品1
 48
50.0
100
AcDbText
 10
10896.9425195774
 20
5401.721751118663
 30
0.0
 40
120.0
  1
71
 50
90.0
  7
STYLE1
100
AcDbText
  0
LINE
  5
16B47
330
747D
100
AcDbEntity
  8
部品1
100
AcDbLine
 10
10769.84967228953
 20
5137.470848083232
 30
0.0
 11
10769.84967228953
 21
3347.470848083233
 31
0.0
  0
LINE
  5
16B48
330
747D
100
AcDbEntity
  8
細線
 48
50.0
100
AcDbLine
 10
11112.34967228954
 20
5137.470848083232
 30
0.0
 11
11112.34967228954
 21
3347.470848083233
 31
0.0
  0
LINE
  5
16B49
330
747D
100
AcDbEntity
  8
細線
 48
50.0
100
AcDbLine
 10
11127.34967228954
 20
5137.470848083232
 30
0.0
 11
11127.34967228954
 21
3347.470848083233
 31
0.0
  0
LINE
  5
16B4A
330
747D
100
AcDbEntity
  8
細線
 48
50.0
100
AcDbLine
 10
10987.34967228954
 20
5137.470848083232
 30
0.0
 11
10987.34967228954
 21
3347.470848083233
 31
0.0
  0
LINE
  5
16B4B
330
747D
100
AcDbEntity
  8
細線
 48
50.0
100
AcDbLine
 10
10972.34967228954
 20
5137.470848083232
 30
0.0
 11
10972.34967228954
 21
3347.470848083233
 31
0.0
  0
LINE
  5
16B4C
330
747D
100
AcDbEntity
  8
細線
 48
50.0
100
AcDbLine
 10
10832.34967228954
 20
5137.470848083232
 30
0.0
 11
10832.34967228954
 21
3347.470848083233
 31
0.0
  0
LINE
  5
16B4D
330
747D
100
AcDbEntity
  8
細線
 48
50.0
100
AcDbLine
 10
10847.34967228954
 20
5137.470848083232
 30
0.0
 11
10847.34967228954
 21
3347.470848083233
 31
0.0
  0
LINE
  5
16B4E
330
747D
100
AcDbEntity
  8
部品1
 48
50.0
100
AcDbLine
 10
10419.84967228954
 20
5503.338987184513
 30
0.0
 11
10719.84967228954
 21
5481.738987184513
 31
0.0
  0
LINE
  5
16B4F
330
747D
100
AcDbEntity
  8
部品1
 48
0.2
100
AcDbLine
 10
9867.847302244761
 20
5137.470848083232
 30
0.0
 11
9867.847302244761
 21
5126.720848083234
 31
0.0
  0
LINE
  5
16B50
330
747D
100
AcDbEntity
  8
部品1
 48
50.0
100
AcDbLine
 10
9867.847302244761
 20
5126.720848083232
 30
0.0
 11
9874.849672289537
 21
5126.720848083232
 31
0.0
  0
LINE
  5
16B51
330
747D
100
AcDbEntity
  8
部品1
 48
50.0
100
AcDbLine
 10
9867.847302244761
 20
3358.220848083237
 30
0.0
 11
9874.849672289537
 21
3358.220848083237
 31
0.0
  0
LINE
  5
16B52
330
747D
100
AcDbEntity
  8
部品1
 48
0.2
100
AcDbLine
 10
9867.847302244761
 20
3358.220848083237
 30
0.0
 11
9867.847302244761
 21
3347.470848083236
 31
0.0
  0
LINE
  5
16B53
330
747D
100
AcDbEntity
  8
部品1
 48
50.0
100
AcDbLine
 10
9867.847302244761
 20
3347.470848083236
 30
0.0
 11
9874.849672289537
 21
3347.470848083236
 31
0.0
  0
DIMENSION
  5
16B54
330
747D
100
AcDbEntity
  8
寸法
100
AcDbDimension
  2
*D32
 10
9272.886581597333
 20
3347.470848083236
 30
0.0
 11
9272.886581597333
 21
4252.505859959621
 31
0.0
 70
   160
 71
     5
 42
1789.999999999997
  3
INABA_S40G
100
AcDbAlignedDimension
 13
9867.847302244761
 23
5137.470848083233
 33
0.0
 14
9867.847302244761
 24
3347.470848083236
 34
0.0
 50
90.0
100
AcDbRotatedDimension
1001
ACAD
1000
DSTYLE
1002
{
1070
   288
1070
     1
1002
}
  0
TEXT
  5
16F3F
330
747D
100
AcDbEntity
  8
文字
 62
     7
 48
50.0
100
AcDbText
 10
14260.68475616112
 20
855.469579666289
 30
0.0
 40
100.0
  1
～一般型・多雪地型・豪雪地型～
  7
STYLE2
100
AcDbText
  0
LINE
  5
16FC7
330
747D
100
AcDbEntity
  8
破線
 48
10.0
100
AcDbLine
 10
5084.47837291697
 20
8831.759515522287
 30
0.0
 11
5792.477757354253
 21
8831.759486297837
 31
0.0
  0
LINE
  5
16FC8
330
747D
100
AcDbEntity
  8
破線
 48
10.0
100
AcDbLine
 10
5084.47837291697
 20
8781.759515522287
 30
0.0
 11
5792.477757354253
 21
8781.759486297836
 31
0.0
  0
LINE
  5
16FC9
330
747D
100
AcDbEntity
  8
破線
 48
10.0
100
AcDbLine
 10
5904.478372916969
 20
8831.759515522287
 30
0.0
 11
6612.477757354253
 21
8831.759486297837
 31
0.0
  0
LINE
  5
16FCA
330
747D
100
AcDbEntity
  8
破線
 48
10.0
100
AcDbLine
 10
5904.478372916969
 20
8781.759515522287
 30
0.0
 11
6612.477757354253
 21
8781.759486297836
 31
0.0
  0
DIMENSION
  5
16FCB
330
747D
100
AcDbEntity
  8
寸法
100
AcDbDimension
  2
*D33
 10
6540.542336573221
 20
8609.259486297778
 30
0.0
 11
6160.042336573213
 21
8609.259486297778
 31
0.0
 70
   160
 71
     5
 42
761.0000000000127
  3
INABA_S40G
100
AcDbAlignedDimension
 13
5877.477766406792
 23
8974.759486297815
 33
0.0
 14
6638.477766406804
 24
8974.759486297807
 34
0.0
100
AcDbRotatedDimension
1001
ACAD
1000
DSTYLE
1002
{
1002
}
  0
DIMENSION
  5
16FCC
330
747D
100
AcDbEntity
  8
寸法
100
AcDbDimension
  2
*D34
 10
5720.54233657322
 20
8609.259486297778
 30
0.0
 11
5339.984621380672
 21
8609.259486297778
 31
0.0
 70
   160
 71
     5
 42
761.0000000000127
  3
INABA_S40G
100
AcDbAlignedDimension
 13
5057.477766406791
 23
8974.759486297815
 33
0.0
 14
5818.477766406804
 24
8974.759486297807
 34
0.0
100
AcDbRotatedDimension
1001
ACAD
1000
DSTYLE
1002
{
1002
}
  0
DIMENSION
  5
16FF7
330
747D
100
AcDbEntity
  8
寸法
100
AcDbDimension
  2
*D35
 10
7360.542336573222
 20
8609.259500157074
 30
0.0
 11
6980.042336573214
 21
8609.259500157074
 31
0.0
 70
   160
 71
     5
 42
761.0000000000127
  3
INABA_S40G
100
AcDbAlignedDimension
 13
6697.477766406793
 23
8974.75950015711
 33
0.0
 14
7458.477766406805
 24
8974.759500157103
 34
0.0
100
AcDbRotatedDimension
1001
ACAD
1000
DSTYLE
1002
{
1002
}
  0
LINE
  5
16FF8
330
747D
100
AcDbEntity
  8
破線
 48
10.0
100
AcDbLine
 10
6724.478372916971
 20
8781.759529381583
 30
0.0
 11
7432.477757354255
 21
8781.759500157132
 31
0.0
  0
LINE
  5
16FF9
330
747D
100
AcDbEntity
  8
破線
 48
10.0
100
AcDbLine
 10
6724.478372916971
 20
8831.759529381583
 30
0.0
 11
7432.477757354255
 21
8831.759500157131
 31
0.0
  0
LINE
  5
1700F
330
747D
100
AcDbEntity
  8
破線
 48
10.0
100
AcDbLine
 10
7407.977807617172
 20
8781.759501168428
 30
0.0
 11
7407.977759729144
 21
8239.259486297898
 31
0.0
  0
LINE
  5
17010
330
747D
100
AcDbEntity
  8
破線
 48
10.0
100
AcDbLine
 10
6746.977749714962
 20
8831.759528452865
 30
0.0
 11
6746.977747298037
 21
8974.759486297854
 31
0.0
  0
LINE
  5
17011
330
747D
100
AcDbEntity
  8
破線
 48
10.0
100
AcDbLine
 10
6588.97775299893
 20
8831.759534974709
 30
0.0
 11
6588.977751374594
 21
8974.759486297912
 31
0.0
  0
LINE
  5
17012
330
747D
100
AcDbEntity
  8
破線
 48
10.0
100
AcDbLine
 10
5926.977749714961
 20
8831.759562300424
 30
0.0
 11
5926.977747298036
 21
8974.759486297854
 31
0.0
  0
LINE
  5
17013
330
747D
100
AcDbEntity
  8
破線
 48
10.0
100
AcDbLine
 10
5768.977752998931
 20
8831.759568822269
 30
0.0
 11
5768.977751374594
 21
8974.759486297912
 31
0.0
  0
LINE
  5
17014
330
747D
100
AcDbEntity
  8
破線
 48
10.0
100
AcDbLine
 10
5107.977807617203
 20
8781.759596106699
 30
0.0
 11
5107.977759729147
 21
8239.259486297818
 31
0.0
  0
TEXT
  5
1706B
330
747D
100
AcDbEntity
  8
文字
 62
     7
 48
50.0
100
AcDbText
 10
15022.63965474517
 20
10930.01374588372
 30
0.0
 40
100.0
  1
F12            1.2
  7
STYLE1
100
AcDbText
  0
TEXT
  5
1706C
330
747D
100
AcDbEntity
  8
文字
 62
     7
 48
50.0
100
AcDbText
 10
13583.11819016569
 20
10930.01374588373
 30
0.0
 40
100.0
  1
根太
  7
STYLE1
100
AcDbText
  0
TEXT
  5
1706D
330
747D
100
AcDbEntity
  8
文字
 62
     7
 48
50.0
100
AcDbText
 10
13248.77747366447
 20
8720.013745883735
 30
0.0
 40
100.0
  1
15
  7
STYLE1
100
AcDbText
  0
LINE
  5
1706E
330
747D
100
AcDbEntity
  8
仕様書枠
 48
50.0
100
AcDbLine
 10
16307.2
 20
10899.6
 30
0.0
 11
13127.2
 21
10899.6
 31
0.0
  0
TEXT
  5
1706F
330
747D
100
AcDbEntity
  8
文字
 62
     7
 48
50.0
100
AcDbText
 10
13583.1181901657
 20
9740.013745883729
 30
0.0
 40
100.0
  1
梁中央
 41
0.9
  7
STYLE1
100
AcDbText
  0
TEXT
  5
17070
330
747D
100
AcDbEntity
  8
文字
 62
     7
 48
50.0
100
AcDbText
 10
15022.63965474517
 20
9740.013745883729
 30
0.0
 40
100.0
  1
F12,Y10       0.7+1.0
  7
STYLE1
100
AcDbText
  0
TEXT
  5
17071
330
747D
100
AcDbEntity
  8
文字
 62
     7
 48
50.0
100
AcDbText
 10
13583.11819016567
 20
8720.013745883729
 30
0.0
 40
100.0
  1
アンカープレート
  7
STYLE1
100
AcDbText
  0
TEXT
  5
17072
330
747D
100
AcDbEntity
  8
文字
 62
     7
 48
50.0
100
AcDbText
 10
15022.63965474513
 20
8720.013745883722
 30
0.0
 40
100.0
  1
F12            2.3
  7
STYLE1
100
AcDbText
  0
LINE
  5
17073
330
747D
100
AcDbEntity
  8
仕様書枠
 48
50.0
100
AcDbLine
 10
16307.2
 20
9879.600000000001
 30
0.0
 11
13127.2
 21
9879.600000000001
 31
0.0
  0
LINE
  5
17075
330
747D
100
AcDbEntity
  8
仕様書枠
 48
50.0
100
AcDbLine
 10
16307.19999999999
 20
8349.600000000007
 30
0.0
 11
16307.2
 21
11409.6
 31
0.0
  0
LINE
  5
17076
330
747D
100
AcDbEntity
  8
仕様書枠
 48
50.0
100
AcDbLine
 10
14785.2
 20
11409.59999999999
 30
0.0
 11
14785.19999999999
 21
8689.6
 31
0.0
  0
LINE
  5
17077
330
747D
100
AcDbEntity
  8
仕様書枠
 48
50.0
100
AcDbLine
 10
13490.2
 20
11409.6
 30
0.0
 11
13490.2
 21
8689.600000000003
 31
0.0
  0
LINE
  5
17078
330
747D
100
AcDbEntity
  8
仕様書枠
 48
50.0
100
AcDbLine
 10
16307.19999999999
 20
11239.6
 30
0.0
 11
13127.2
 21
11239.6
 31
0.0
  0
LINE
  5
17079
330
747D
100
AcDbEntity
  8
仕様書枠
 48
50.0
100
AcDbLine
 10
16307.2
 20
10729.6
 30
0.0
 11
13127.2
 21
10729.6
 31
0.0
  0
LINE
  5
1707A
330
747D
100
AcDbEntity
  8
仕様書枠
 48
50.0
100
AcDbLine
 10
16307.19999999999
 20
11069.6
 30
0.0
 11
13127.2
 21
11069.6
 31
0.0
  0
LINE
  5
1707B
330
747D
100
AcDbEntity
  8
仕様書枠
 48
50.0
100
AcDbLine
 10
16307.19999999999
 20
10389.6
 30
0.0
 11
13127.2
 21
10389.6
 31
0.0
  0
LINE
  5
1707C
330
747D
100
AcDbEntity
  8
仕様書枠
 48
50.0
100
AcDbLine
 10
16307.19999999999
 20
10219.6
 30
0.0
 11
13127.2
 21
10219.6
 31
0.0
  0
LINE
  5
1707D
330
747D
100
AcDbEntity
  8
仕様書枠
 48
50.0
100
AcDbLine
 10
16307.19999999999
 20
10559.6
 30
0.0
 11
13127.2
 21
10559.6
 31
0.0
  0
TEXT
  5
1707E
330
747D
100
AcDbEntity
  8
文字
 62
     7
 48
50.0
100
AcDbText
 10
13197.42518560407
 20
11270.01374588373
 30
0.0
 40
100.0
  1
品番
  7
STYLE1
100
AcDbText
  0
TEXT
  5
1707F
330
747D
100
AcDbEntity
  8
文字
 62
     7
 48
50.0
100
AcDbText
 10
13271.19032244792
 20
11100.01374588373
 30
0.0
 40
100.0
  1
1
  7
STYLE1
100
AcDbText
  0
TEXT
  5
17080
330
747D
100
AcDbEntity
  8
文字
 62
     7
 48
50.0
100
AcDbText
 10
13271.19032244792
 20
10930.01374588373
 30
0.0
 40
100.0
  1
2
  7
STYLE1
100
AcDbText
  0
TEXT
  5
17081
330
747D
100
AcDbEntity
  8
文字
 62
     7
 48
50.0
100
AcDbText
 10
13271.19032244793
 20
10590.01374588373
 30
0.0
 40
100.0
  1
4
  7
STYLE1
100
AcDbText
  0
TEXT
  5
17082
330
747D
100
AcDbEntity
  8
文字
 62
     7
 48
50.0
100
AcDbText
 10
13271.19032244793
 20
10760.01374588373
 30
0.0
 40
100.0
  1
3
  7
STYLE1
100
AcDbText
  0
TEXT
  5
17083
330
747D
100
AcDbEntity
  8
文字
 62
     7
 48
50.0
100
AcDbText
 10
13732.03840939434
 20
11270.01374588373
 30
0.0
 40
100.0
  1
部　　品　　名
  7
STYLE1
100
AcDbText
  0
TEXT
  5
17084
330
747D
100
AcDbEntity
  8
文字
 62
     7
 48
50.0
100
AcDbText
 10
14859.79774614482
 20
11270.01374588373
 30
0.0
 40
100.0
  1
材料（材質）　　単位mm
  7
STYLE1
100
AcDbText
  0
TEXT
  5
17085
330
747D
100
AcDbEntity
  8
文字
 62
     7
 48
50.0
100
AcDbText
 10
13583.11819016569
 20
11100.01374588373
 30
0.0
 40
100.0
  1
土台枠
  7
STYLE1
100
AcDbText
  0
TEXT
  5
17086
330
747D
100
AcDbEntity
  8
文字
 62
     7
 48
50.0
100
AcDbText
 10
13583.1181901657
 20
10760.01374588373
 30
0.0
 40
100.0
  1
柱
  7
STYLE1
100
AcDbText
  0
TEXT
  5
17087
330
747D
100
AcDbEntity
  8
文字
 62
     7
 48
50.0
100
AcDbText
 10
13583.1181901657
 20
10420.01374588373
 30
0.0
 40
100.0
  1
鴨居
  7
STYLE1
100
AcDbText
  0
TEXT
  5
17088
330
747D
100
AcDbEntity
  8
文字
 62
     7
 48
50.0
100
AcDbText
 10
13583.1181901657
 20
10250.01374588373
 30
0.0
 40
100.0
  1
桁後
  7
STYLE1
100
AcDbText
  0
TEXT
  5
17089
330
747D
100
AcDbEntity
  8
文字
 62
     7
 48
50.0
100
AcDbText
 10
13271.19032244793
 20
10420.01374588373
 30
0.0
 40
100.0
  1
5
  7
STYLE1
100
AcDbText
  0
TEXT
  5
1708A
330
747D
100
AcDbEntity
  8
文字
 62
     7
 48
50.0
100
AcDbText
 10
13583.1181901657
 20
10080.01374588373
 30
0.0
 40
100.0
  1
妻板左右
  7
STYLE1
100
AcDbText
  0
TEXT
  5
1708B
330
747D
100
AcDbEntity
  8
文字
 62
     7
 48
50.0
100
AcDbText
 10
13248.77747366447
 20
9570.013745883729
 30
0.0
 40
100.0
  1
10
  7
STYLE1
100
AcDbText
  0
TEXT
  5
1708C
330
747D
100
AcDbEntity
  8
文字
 62
     7
 48
50.0
100
AcDbText
 10
13583.11819016568
 20
9230.013745883729
 30
0.0
 40
100.0
  1
壁パネル
  7
STYLE1
100
AcDbText
  0
TEXT
  5
1708D
330
747D
100
AcDbEntity
  8
文字
 62
     7
 48
50.0
100
AcDbText
 10
13583.11819016569
 20
9400.013745883729
 30
0.0
 40
100.0
  1
屋根パネル
  7
STYLE1
100
AcDbText
  0
TEXT
  5
1708E
330
747D
100
AcDbEntity
  8
文字
 62
     7
 48
50.0
100
AcDbText
 10
13583.1181901657
 20
9910.01374588373
 30
0.0
 40
100.0
  1
鼻隠シ前後
  7
STYLE1
100
AcDbText
  0
TEXT
  5
1708F
330
747D
100
AcDbEntity
  8
文字
 62
     7
 48
50.0
100
AcDbText
 10
13271.19032244792
 20
9910.01374588373
 30
0.0
 40
100.0
  1
8
  7
STYLE1
100
AcDbText
  0
TEXT
  5
17090
330
747D
100
AcDbEntity
  8
文字
 62
     7
 48
50.0
100
AcDbText
 10
13271.19032244792
 20
9740.013745883729
 30
0.0
 40
100.0
  1
9
  7
STYLE1
100
AcDbText
  0
TEXT
  5
17091
330
747D
100
AcDbEntity
  8
文字
 62
     7
 48
50.0
100
AcDbText
 10
13271.19032244792
 20
10080.01374588373
 30
0.0
 40
100.0
  1
7
  7
STYLE1
100
AcDbText
  0
TEXT
  5
17092
330
747D
100
AcDbEntity
  8
文字
 62
     7
 48
50.0
100
AcDbText
 10
13271.19032244793
 20
10250.01374588373
 30
0.0
 40
100.0
  1
6
  7
STYLE1
100
AcDbText
  0
LINE
  5
17093
330
747D
100
AcDbEntity
  8
仕様書枠
 48
50.0
100
AcDbLine
 10
16307.19999999998
 20
9369.600000000001
 30
0.0
 11
13127.19999999999
 21
9369.600000000001
 31
0.0
  0
LINE
  5
17094
330
747D
100
AcDbEntity
  8
仕様書枠
 48
50.0
100
AcDbLine
 10
16307.19999999998
 20
9029.6
 30
0.0
 11
13127.19999999999
 21
9029.6
 31
0.0
  0
LINE
  5
17095
330
747D
100
AcDbEntity
  8
仕様書枠
 48
50.0
100
AcDbLine
 10
16307.19999999998
 20
9199.600000000001
 30
0.0
 11
13127.19999999999
 21
9199.600000000001
 31
0.0
  0
LINE
  5
17096
330
747D
100
AcDbEntity
  8
仕様書枠
 48
50.0
100
AcDbLine
 10
16307.2
 20
10049.6
 30
0.0
 11
13127.2
 21
10049.6
 31
0.0
  0
LINE
  5
17097
330
747D
100
AcDbEntity
  8
仕様書枠
 48
50.0
100
AcDbLine
 10
16307.2
 20
9709.600000000001
 30
0.0
 11
13127.2
 21
9709.600000000001
 31
0.0
  0
TEXT
  5
17098
330
747D
100
AcDbEntity
  8
文字
 62
     7
 48
50.0
100
AcDbText
 10
13248.77747366447
 20
9400.013745883729
 30
0.0
 40
100.0
  1
11
  7
STYLE1
100
AcDbText
  0
LINE
  5
17099
330
747D
100
AcDbEntity
  8
仕様書枠
 48
50.0
100
AcDbLine
 10
16307.19999999998
 20
8859.6
 30
0.0
 11
13127.19999999999
 21
8859.6
 31
0.0
  0
LINE
  5
1709A
330
747D
100
AcDbEntity
  8
仕様書枠
 48
50.0
100
AcDbLine
 10
16307.19999999998
 20
8519.600000000002
 30
0.0
 11
13127.19999999999
 21
8519.600000000004
 31
0.0
  0
TEXT
  5
1709B
330
747D
100
AcDbEntity
  8
文字
 62
     7
 48
50.0
100
AcDbText
 10
13248.77747366447
 20
9060.013745883729
 30
0.0
 40
100.0
  1
13
  7
STYLE1
100
AcDbText
  0
TEXT
  5
1709C
330
747D
100
AcDbEntity
  8
文字
 62
     7
 48
50.0
100
AcDbText
 10
13248.77747366447
 20
9230.013745883729
 30
0.0
 40
100.0
  1
12
  7
STYLE1
100
AcDbText
  0
TEXT
  5
1709D
330
747D
100
AcDbEntity
  8
文字
 62
     7
 48
50.0
100
AcDbText
 10
15022.63965474517
 20
11100.01374588372
 30
0.0
 40
100.0
  1
F12            1.2
  7
STYLE1
100
AcDbText
  0
TEXT
  5
1709E
330
747D
100
AcDbEntity
  8
文字
 62
     7
 48
50.0
100
AcDbText
 10
15022.63965474518
 20
10760.01374588372
 30
0.0
 40
100.0
  1
F12            1.0
  7
STYLE1
100
AcDbText
  0
TEXT
  5
1709F
330
747D
100
AcDbEntity
  8
文字
 62
     7
 48
50.0
100
AcDbText
 10
15022.63965474517
 20
10420.01374588372
 30
0.0
 40
100.0
  1
Y10            1.0
  7
STYLE1
100
AcDbText
  0
TEXT
  5
170A0
330
747D
100
AcDbEntity
  8
文字
 62
     7
 48
50.0
100
AcDbText
 10
15022.63965474517
 20
10250.01374588372
 30
0.0
 40
100.0
  1
Y10            1.0
  7
STYLE1
100
AcDbText
  0
TEXT
  5
170A1
330
747D
100
AcDbEntity
  8
文字
 62
     7
 48
50.0
100
AcDbText
 10
15022.63965474517
 20
10080.01374588372
 30
0.0
 40
100.0
  1
Y10            0.7
  7
STYLE1
100
AcDbText
  0
TEXT
  5
170A2
330
747D
100
AcDbEntity
  8
文字
 62
     7
 48
50.0
100
AcDbText
 10
15022.63965474517
 20
9910.013745883725
 30
0.0
 40
100.0
  1
Y10            0.7
  7
STYLE1
100
AcDbText
  0
TEXT
  5
170A3
330
747D
100
AcDbEntity
  8
文字
 62
     7
 48
50.0
100
AcDbText
 10
15022.63965474516
 20
9400.013745883725
 30
0.0
 40
100.0
  1
Y10            0.5
  7
STYLE1
100
AcDbText
  0
TEXT
  5
170A4
330
747D
100
AcDbEntity
  8
文字
 62
     7
 48
50.0
100
AcDbText
 10
15022.63965474515
 20
9230.013745883725
 30
0.0
 40
100.0
  1
F12            0.6
  7
STYLE1
100
AcDbText
  0
LINE
  5
170A5
330
747D
100
AcDbEntity
  8
仕様書枠
 48
50.0
100
AcDbLine
 10
16307.19999999998
 20
8349.600000000004
 30
0.0
 11
13127.19999999999
 21
8349.600000000004
 31
0.0
  0
TEXT
  5
170A6
330
747D
100
AcDbEntity
  8
文字
 62
     7
 48
50.0
100
AcDbText
 10
13229.83081656553
 20
8550.013745883729
 30
0.0
 40
100.0
  1
F12→溶融亜鉛めっき鋼板(JIS G 3302)
  7
STYLE1
100
AcDbText
  0
TEXT
  5
170A7
330
747D
100
AcDbEntity
  8
文字
 62
     7
 48
50.0
100
AcDbText
 10
13229.83081656553
 20
8380.013745883728
 30
0.0
 40
100.0
  1
Y10→溶融亜鉛-5％アルミニウム合金めっき鋼板(JIS G 3317)
 41
0.9
  7
STYLE1
100
AcDbText
  0
LINE
  5
170A8
330
747D
100
AcDbEntity
  8
仕様書枠
 48
50.0
100
AcDbLine
 10
13127.2
 20
11409.6
 30
0.0
 11
13127.19999999999
 21
8349.600000000004
 31
0.0
  0
LINE
  5
170A9
330
747D
100
AcDbEntity
  8
仕様書枠
 48
50.0
100
AcDbLine
 10
16307.19999999998
 20
8689.6
 30
0.0
 11
13127.19999999999
 21
8689.600000000003
 31
0.0
  0
TEXT
  5
170AA
330
747D
100
AcDbEntity
  8
文字
 62
     7
 48
50.0
100
AcDbText
 10
13583.1181901657
 20
10590.01374588373
 30
0.0
 40
100.0
  1
床パネル
 41
0.9
  7
STYLE1
100
AcDbText
  0
TEXT
  5
170AB
330
747D
100
AcDbEntity
  8
文字
 62
     7
 48
50.0
100
AcDbText
 10
15022.63965474517
 20
10590.01374588372
 30
0.0
 40
100.0
  1
F12            1.0
  7
STYLE1
100
AcDbText
  0
TEXT
  5
170AC
330
747D
100
AcDbEntity
  8
文字
 62
     7
 48
50.0
100
AcDbText
 10
15022.63965474515
 20
9060.013745883725
 30
0.0
 40
100.0
  1
F12            0.8
  7
STYLE1
100
AcDbText
  0
TEXT
  5
170AD
330
747D
100
AcDbEntity
  8
文字
 62
     7
 48
50.0
100
AcDbText
 10
13583.11819016568
 20
9060.013745883729
 30
0.0
 40
100.0
  1
扉
  7
STYLE1
100
AcDbText
  0
TEXT
  5
170AE
330
747D
100
AcDbEntity
  8
文字
 62
     7
 48
50.0
100
AcDbText
 10
15022.63965474515
 20
8890.013745883729
 30
0.0
 40
100.0
  1
F12            0.6
  7
STYLE1
100
AcDbText
  0
TEXT
  5
170AF
330
747D
100
AcDbEntity
  8
文字
 62
     7
 48
50.0
100
AcDbText
 10
13583.11819016568
 20
8890.013745883733
 30
0.0
 40
100.0
  1
棚板
  7
STYLE1
100
AcDbText
  0
LINE
  5
170B0
330
747D
100
AcDbEntity
  8
仕様書枠
 48
50.0
100
AcDbLine
 10
16307.2
 20
9539.6
 30
0.0
 11
13127.2
 21
9539.6
 31
0.0
  0
TEXT
  5
170B1
330
747D
100
AcDbEntity
  8
文字
 62
     7
 48
50.0
100
AcDbText
 10
13248.77747366447
 20
8890.013745883731
 30
0.0
 40
100.0
  1
14
  7
STYLE1
100
AcDbText
  0
TEXT
  5
170B2
330
747D
100
AcDbEntity
  8
文字
 62
     7
 48
50.0
100
AcDbText
 10
15022.63965474518
 20
9570.013745883725
 30
0.0
 40
100.0
  1
F12            1.0
  7
STYLE1
100
AcDbText
  0
TEXT
  5
170B3
330
747D
100
AcDbEntity
  8
文字
 62
     7
 48
50.0
100
AcDbText
 10
13583.1181901657
 20
9570.013745883729
 30
0.0
 40
100.0
  1
母屋中
  7
STYLE1
100
AcDbText
  0
ENDSEC
  0
SECTION
  2
OBJECTS
  0
DICTIONARY
  5
7471
330
0
100
AcDbDictionary
281
     1
  3
ACAD_COLOR
350
156BA
  3
ACAD_GROUP
350
7472
  3
ACAD_LAYOUT
350
156BB
  3
ACAD_MATERIAL
350
156B9
  3
ACAD_MLINESTYLE
350
7473
  3
ACAD_PLOTSETTINGS
350
156BC
  3
ACAD_PLOTSTYLENAME
350
156B7
  3
ACDBHEADERROUNDTRIPXREC
350
170C2
  3
AcDbVariableDictionary
350
170BE
  3
CONTENTDICTIONARY
350
E71C
  3
DRAWINGVARIABLESDICT
350
F3B9
  0
DICTIONARY
  5
15828
330
7467
100
AcDbDictionary
280
     1
281
     1
  3
ACAD_LAYERSTATES
360
15829
  0
DICTIONARY
  5
156BA
102
{ACAD_REACTORS
330
7471
102
}
330
7471
100
AcDbDictionary
281
     1
  0
DICTIONARY
  5
7472
102
{ACAD_REACTORS
330
7471
102
}
330
7471
100
AcDbDictionary
281
     1
  0
DICTIONARY
  5
156BB
102
{ACAD_REACTORS
330
7471
102
}
330
7471
100
AcDbDictionary
281
     1
  3
Model
350
156BD
  3
レイアウト1
350
156BE
  0
DICTIONARY
  5
156B9
102
{ACAD_REACTORS
330
7471
102
}
330
7471
100
AcDbDictionary
281
     1
  0
DICTIONARY
  5
7473
102
{ACAD_REACTORS
330
7471
102
}
330
7471
100
AcDbDictionary
281
     1
  3
STANDARD
350
7480
  0
DICTIONARY
  5
156BC
102
{ACAD_REACTORS
330
7471
102
}
330
7471
100
AcDbDictionary
281
     1
  0
ACDBDICTIONARYWDFLT
  5
156B7
102
{ACAD_REACTORS
330
7471
102
}
330
7471
100
AcDbDictionary
281
     1
  3
Normal
350
156B8
100
AcDbDictionaryWithDefault
340
156B8
  0
DICTIONARY
  5
170C2
102
{ACAD_REACTORS
330
7471
102
}
330
7471
100
AcDbDictionary
281
     1
  3
COLORDICT
350
170C4
  3
MATERIALDICT
350
170C3
  0
DICTIONARY
  5
170BE
102
{ACAD_REACTORS
330
7471
102
}
330
7471
100
AcDbDictionary
281
     1
  3
DIMASSOC
350
170BF
  3
PROJECTNAME
350
170C0
  0
DICTIONARY
  5
E71C
102
{ACAD_REACTORS
330
7471
102
}
330
7471
100
AcDbDictionary
281
     1
  0
DICTIONARY
  5
F3B9
102
{ACAD_REACTORS
330
7471
102
}
330
7471
100
AcDbDictionary
281
     1
1001
DRAWINGVARIABLESXDATA
1000
POLARMODE
1000
1
  0
DICTIONARY
  5
15829
102
{ACAD_REACTORS
330
15828
102
}
330
15828
100
AcDbDictionary
281
     1
  0
LAYOUT
  5
156BD
102
{ACAD_XDICTIONARY
360
170C5
102
}
102
{ACAD_REACTORS
330
156BB
102
}
330
156BB
100
AcDbPlotSettings
  1

  2
Microsoft Office Document Image Writer
  4

  6

 40
0.0
 41
0.0
 42
0.0
 43
0.0
 44
0.0
 45
0.0
 46
0.0
 47
0.0
 48
0.0
 49
0.0
140
0.0
141
0.0
142
1.0
143
1.0
 70
  1712
 72
     0
 73
     0
 74
     0
  7

 75
     0
147
1.0
148
0.0
149
0.0
100
AcDbLayout
  1
Model
 70
     1
 71
     0
 10
0.0
 20
0.0
 11
12.0
 21
9.0
 12
0.0
 22
0.0
 32
0.0
 14
0.0
 24
0.0
 34
0.0
 15
0.0
 25
0.0
 35
0.0
146
0.0
 13
0.0
 23
0.0
 33
0.0
 16
1.0
 26
0.0
 36
0.0
 17
0.0
 27
1.0
 37
0.0
 76
     0
330
747D
  0
LAYOUT
  5
156BE
102
{ACAD_XDICTIONARY
360
170C7
102
}
102
{ACAD_REACTORS
330
156BB
102
}
330
156BB
100
AcDbPlotSettings
  1

  2
Microsoft Office Document Image Writer
  4

  6

 40
0.0
 41
0.0
 42
0.0
 43
0.0
 44
0.0
 45
0.0
 46
0.0
 47
0.0
 48
0.0
 49
0.0
140
0.0
141
0.0
142
1.0
143
1.0
 70
   688
 72
     0
 73
     0
 74
     5
  7

 75
    16
147
1.0
148
0.0
149
0.0
100
AcDbLayout
  1
レイアウト1
 70
     0
 71
     1
 10
0.0
 20
0.0
 11
420.0
 21
297.0
 12
0.0
 22
0.0
 32
0.0
 14
1.000000000000000E+20
 24
1.000000000000000E+20
 34
1.000000000000000E+20
 15
-1.000000000000000E+20
 25
-1.000000000000000E+20
 35
-1.000000000000000E+20
146
0.0
 13
0.0
 23
0.0
 33
0.0
 16
1.0
 26
0.0
 36
0.0
 17
0.0
 27
1.0
 37
0.0
 76
     0
330
747A
  0
MLINESTYLE
  5
7480
102
{ACAD_REACTORS
330
7473
102
}
330
7473
100
AcDbMlineStyle
  2
STANDARD
 70
     0
  3

 62
     0
 51
90.0
 52
90.0
 71
     2
 49
0.5
 62
   256
  6
BYLAYER
 49
-0.5
 62
   256
  6
BYLAYER
  0
ACDBPLACEHOLDER
  5
156B8
102
{ACAD_REACTORS
330
156B7
102
}
330
156B7
  0
XRECORD
  5
170C4
102
{ACAD_REACTORS
330
170C2
102
}
330
170C2
100
AcDbXrecord
280
     1
340
156BA
  0
XRECORD
  5
170C3
102
{ACAD_REACTORS
330
170C2
102
}
330
170C2
100
AcDbXrecord
280
     1
340
156B9
  0
DICTIONARYVAR
  5
170BF
102
{ACAD_REACTORS
330
170BE
102
}
330
170BE
100
DictionaryVariables
280
     0
  1
1
  0
DICTIONARYVAR
  5
170C0
102
{ACAD_REACTORS
330
170BE
102
}
330
170BE
100
DictionaryVariables
280
     0
  1

  0
DICTIONARY
  5
170C5
330
156BD
100
AcDbDictionary
280
     1
281
     1
  3
ACAD_XREC_ROUNDTRIP
360
170C6
  0
DICTIONARY
  5
170C7
330
156BE
100
AcDbDictionary
280
     1
281
     1
  3
ACAD_XREC_ROUNDTRIP
360
170C8
  0
XRECORD
  5
170C6
102
{ACAD_REACTORS
330
170C5
102
}
330
170C5
100
AcDbXrecord
280
     1
102
SHADEPLOT
 70
     0
102
SHADEPLOTRESLEVEL
 70
     2
102
SHADEPLOTCUSTOMDPI
 70
   300
  0
XRECORD
  5
170C8
102
{ACAD_REACTORS
330
170C7
102
}
330
170C7
100
AcDbXrecord
280
     1
102
SHADEPLOT
 70
     0
102
SHADEPLOTRESLEVEL
 70
     2
102
SHADEPLOTCUSTOMDPI
 70
   300
  0
ENDSEC
  0
EOF
