  0
SECTION
  2
HEADER
  9
$ACADVER
  1
AC1015
  9
$ACADMAINTVER
 70
    20
  9
$DWGCODEPAGE
  3
ANSI_932
  9
$INSBASE
 10
0.0
 20
0.0
 30
0.0
  9
$EXTMIN
 10
139.9999999999995
 20
-0.0000000000000909
 30
0.0
  9
$EXTMAX
 10
16307.2
 20
11409.6
 30
0.0
  9
$LIMMIN
 10
0.0
 20
0.0
  9
$LIMMAX
 10
16800.0
 20
11880.0
  9
$ORTHOMODE
 70
     0
  9
$REGENMODE
 70
     1
  9
$FILLMODE
 70
     1
  9
$QTEXTMODE
 70
     0
  9
$MIRRTEXT
 70
     1
  9
$LTSCALE
 40
20.0
  9
$ATTMODE
 70
     1
  9
$TEXTSIZE
 40
100.0
  9
$TRACEWID
 40
1.0
  9
$TEXTSTYLE
  7
STYLE3
  9
$CLAYER
  8
寸法
  9
$CELTYPE
  6
BYLAYER
  9
$CECOLOR
 62
   256
  9
$CELTSCALE
 40
50.0
  9
$DISPSILH
 70
     0
  9
$DIMSCALE
 40
40.0
  9
$DIMASZ
 40
2.5
  9
$DIMEXO
 40
0.5
  9
$DIMDLI
 40
7.0
  9
$DIMRND
 40
0.0
  9
$DIMDLE
 40
0.0
  9
$DIMEXE
 40
1.5
  9
$DIMTP
 40
0.0
  9
$DIMTM
 40
0.0
  9
$DIMTXT
 40
3.0
  9
$DIMCEN
 40
0.0
  9
$DIMTSZ
 40
0.0
  9
$DIMTOL
 70
     0
  9
$DIMLIM
 70
     0
  9
$DIMTIH
 70
     0
  9
$DIMTOH
 70
     0
  9
$DIMSE1
 70
     0
  9
$DIMSE2
 70
     0
  9
$DIMTAD
 70
     3
  9
$DIMZIN
 70
     8
  9
$DIMBLK
  1

  9
$DIMASO
 70
     1
  9
$DIMSHO
 70
     1
  9
$DIMPOST
  1

  9
$DIMAPOST
  1

  9
$DIMALT
 70
     0
  9
$DIMALTD
 70
     2
  9
$DIMALTF
 40
0.0394
  9
$DIMLFAC
 40
1.0
  9
$DIMTOFL
 70
     1
  9
$DIMTVP
 40
0.0
  9
$DIMTIX
 70
     1
  9
$DIMSOXD
 70
     0
  9
$DIMSAH
 70
     1
  9
$DIMBLK1
  1
DOTSMALL
  9
$DIMBLK2
  1
DOTSMALL
  9
$DIMSTYLE
  2
INABA_S40G
  9
$DIMCLRD
 70
     0
  9
$DIMCLRE
 70
     0
  9
$DIMCLRT
 70
     7
  9
$DIMTFAC
 40
1.0
  9
$DIMGAP
 40
1.0
  9
$DIMJUST
 70
     0
  9
$DIMSD1
 70
     0
  9
$DIMSD2
 70
     0
  9
$DIMTOLJ
 70
     1
  9
$DIMTZIN
 70
     0
  9
$DIMALTZ
 70
     0
  9
$DIMALTTZ
 70
     0
  9
$DIMUPT
 70
     0
  9
$DIMDEC
 70
     1
  9
$DIMTDEC
 70
     4
  9
$DIMALTU
 70
     2
  9
$DIMALTTD
 70
     2
  9
$DIMTXSTY
  7
STYLE1
  9
$DIMAUNIT
 70
     0
  9
$DIMADEC
 70
     0
  9
$DIMALTRND
 40
0.0
  9
$DIMAZIN
 70
     0
  9
$DIMDSEP
 70
    46
  9
$DIMATFIT
 70
     3
  9
$DIMFRAC
 70
     0
  9
$DIMLDRBLK
  1

  9
$DIMLUNIT
 70
     2
  9
$DIMLWD
 70
    -2
  9
$DIMLWE
 70
    -2
  9
$DIMTMOVE
 70
     0
  9
$LUNITS
 70
     2
  9
$LUPREC
 70
     1
  9
$SKETCHINC
 40
1.0
  9
$FILLETRAD
 40
5.0
  9
$AUNITS
 70
     0
  9
$AUPREC
 70
     0
  9
$MENU
  1
acad
  9
$ELEVATION
 40
0.0
  9
$PELEVATION
 40
0.0
  9
$THICKNESS
 40
0.0
  9
$LIMCHECK
 70
     0
  9
$CHAMFERA
 40
0.0
  9
$CHAMFERB
 40
0.0
  9
$CHAMFERC
 40
0.0
  9
$CHAMFERD
 40
0.0
  9
$SKPOLY
 70
     0
  9
$TDCREATE
 40
2452116.684896065
  9
$TDUCREATE
 40
2452116.309896065
  9
$TDUPDATE
 40
2455575.689987882
  9
$TDUUPDATE
 40
2455575.314987882
  9
$TDINDWG
 40
0.4540018171
  9
$TDUSRTIMER
 40
0.4540018171
  9
$USRTIMER
 70
     1
  9
$ANGBASE
 50
0.0
  9
$ANGDIR
 70
     0
  9
$PDMODE
 70
     3
  9
$PDSIZE
 40
2.0
  9
$PLINEWID
 40
0.0
  9
$SPLFRAME
 70
     0
  9
$SPLINETYPE
 70
     6
  9
$SPLINESEGS
 70
     8
  9
$HANDSEED
  5
16607
  9
$SURFTAB1
 70
     6
  9
$SURFTAB2
 70
     6
  9
$SURFTYPE
 70
     6
  9
$SURFU
 70
     6
  9
$SURFV
 70
     6
  9
$UCSBASE
  2

  9
$UCSNAME
  2

  9
$UCSORG
 10
0.0
 20
0.0
 30
0.0
  9
$UCSXDIR
 10
1.0
 20
0.0
 30
0.0
  9
$UCSYDIR
 10
0.0
 20
1.0
 30
0.0
  9
$UCSORTHOREF
  2

  9
$UCSORTHOVIEW
 70
     0
  9
$UCSORGTOP
 10
0.0
 20
0.0
 30
0.0
  9
$UCSORGBOTTOM
 10
0.0
 20
0.0
 30
0.0
  9
$UCSORGLEFT
 10
0.0
 20
0.0
 30
0.0
  9
$UCSORGRIGHT
 10
0.0
 20
0.0
 30
0.0
  9
$UCSORGFRONT
 10
0.0
 20
0.0
 30
0.0
  9
$UCSORGBACK
 10
0.0
 20
0.0
 30
0.0
  9
$PUCSBASE
  2

  9
$PUCSNAME
  2

  9
$PUCSORG
 10
0.0
 20
0.0
 30
0.0
  9
$PUCSXDIR
 10
1.0
 20
0.0
 30
0.0
  9
$PUCSYDIR
 10
0.0
 20
1.0
 30
0.0
  9
$PUCSORTHOREF
  2

  9
$PUCSORTHOVIEW
 70
     0
  9
$PUCSORGTOP
 10
0.0
 20
0.0
 30
0.0
  9
$PUCSORGBOTTOM
 10
0.0
 20
0.0
 30
0.0
  9
$PUCSORGLEFT
 10
0.0
 20
0.0
 30
0.0
  9
$PUCSORGRIGHT
 10
0.0
 20
0.0
 30
0.0
  9
$PUCSORGFRONT
 10
0.0
 20
0.0
 30
0.0
  9
$PUCSORGBACK
 10
0.0
 20
0.0
 30
0.0
  9
$USERI1
 70
     0
  9
$USERI2
 70
     0
  9
$USERI3
 70
     0
  9
$USERI4
 70
     0
  9
$USERI5
 70
     0
  9
$USERR1
 40
0.0
  9
$USERR2
 40
0.0
  9
$USERR3
 40
0.0
  9
$USERR4
 40
0.0
  9
$USERR5
 40
0.0
  9
$WORLDVIEW
 70
     1
  9
$SHADEDGE
 70
     3
  9
$SHADEDIF
 70
    70
  9
$TILEMODE
 70
     1
  9
$MAXACTVP
 70
    16
  9
$PINSBASE
 10
0.0
 20
0.0
 30
0.0
  9
$PLIMCHECK
 70
     0
  9
$PEXTMIN
 10
1.000000000000000E+20
 20
1.000000000000000E+20
 30
1.000000000000000E+20
  9
$PEXTMAX
 10
-1.000000000000000E+20
 20
-1.000000000000000E+20
 30
-1.000000000000000E+20
  9
$PLIMMIN
 10
0.0
 20
0.0
  9
$PLIMMAX
 10
420.0
 20
297.0
  9
$UNITMODE
 70
     0
  9
$VISRETAIN
 70
     0
  9
$PLINEGEN
 70
     0
  9
$PSLTSCALE
 70
     0
  9
$TREEDEPTH
 70
  3020
  9
$CMLSTYLE
  2
STANDARD
  9
$CMLJUST
 70
     0
  9
$CMLSCALE
 40
1.0
  9
$PROXYGRAPHICS
 70
     1
  9
$MEASUREMENT
 70
     1
  9
$CELWEIGHT
370
    -1
  9
$ENDCAPS
280
     0
  9
$JOINSTYLE
280
     0
  9
$LWDISPLAY
290
     0
  9
$INSUNITS
 70
     0
  9
$HYPERLINKBASE
  1

  9
$STYLESHEET
  1

  9
$XEDIT
290
     1
  9
$CEPSNTYPE
380
     0
  9
$PSTYLEMODE
290
     1
  9
$FINGERPRINTGUID
  2
{A1F3EBBE-F4E2-41F7-8304-C2794D73190F}
  9
$VERSIONGUID
  2
{04CDE8ED-6E4E-433A-BFC8-A7D84BDA2006}
  9
$EXTNAMES
290
     1
  9
$PSVPSCALE
 40
0.0
  9
$OLESTARTUP
290
     0
  0
ENDSEC
  0
SECTION
  2
CLASSES
  0
CLASS
  1
ACDBDICTIONARYWDFLT
  2
AcDbDictionaryWithDefault
  3
ObjectDBX Classes
 90
        0
280
     0
281
     0
  0
CLASS
  1
DICTIONARYVAR
  2
AcDbDictionaryVar
  3
ObjectDBX Classes
 90
        0
280
     0
281
     0
  0
CLASS
  1
ACDBPLACEHOLDER
  2
AcDbPlaceHolder
  3
ObjectDBX Classes
 90
        0
280
     0
281
     0
  0
CLASS
  1
LAYOUT
  2
AcDbLayout
  3
ObjectDBX Classes
 90
        0
280
     0
281
     0
  0
ENDSEC
  0
SECTION
  2
TABLES
  0
TABLE
  2
VPORT
  5
746D
330
0
100
AcDbSymbolTable
 70
     2
  0
VPORT
  5
165FF
330
746D
100
AcDbSymbolTableRecord
100
AcDbViewportTableRecord
  2
*Active
 70
     0
 10
0.0
 20
0.0
 11
1.0
 21
1.0
 12
8223.761025238502
 22
6348.450019463587
 13
0.0
 23
0.0
 14
10.0
 24
10.0
 15
10.0
 25
10.0
 16
0.0
 26
0.0
 36
1.0
 17
0.0
 27
0.0
 37
0.0
 40
12806.19294782812
 41
1.525925925925925
 42
50.0
 43
0.0
 44
0.0
 50
0.0
 51
0.0
 71
     0
 72
     0
 73
     1
 74
     0
 75
     0
 76
     0
 77
     0
 78
     0
281
     0
 65
     1
110
0.0
120
0.0
130
0.0
111
1.0
121
0.0
131
0.0
112
0.0
122
1.0
132
0.0
 79
     0
146
0.0
  0
ENDTAB
  0
TABLE
  2
LTYPE
  5
746A
330
0
100
AcDbSymbolTable
 70
     4
  0
LTYPE
  5
7477
330
746A
100
AcDbSymbolTableRecord
100
AcDbLinetypeTableRecord
  2
BYBLOCK
 70
     0
  3

 72
    65
 73
     0
 40
0.0
  0
LTYPE
  5
7478
330
746A
100
AcDbSymbolTableRecord
100
AcDbLinetypeTableRecord
  2
BYLAYER
 70
     0
  3

 72
    65
 73
     0
 40
0.0
  0
LTYPE
  5
7479
330
746A
100
AcDbSymbolTableRecord
100
AcDbLinetypeTableRecord
  2
CONTINUOUS
 70
     0
  3
Solid line
 72
    65
 73
     0
 40
0.0
  0
LTYPE
  5
7816
330
746A
100
AcDbSymbolTableRecord
100
AcDbLinetypeTableRecord
  2
CENTER
 70
     0
  3
____ _ ____ _ ____ _ ____ _ ____ _ ____ _ ____ 
 72
    65
 73
     4
 40
2.0
 49
1.25
 74
     0
 49
-0.25
 74
     0
 49
0.25
 74
     0
 49
-0.25
 74
     0
  0
LTYPE
  5
781A
330
746A
100
AcDbSymbolTableRecord
100
AcDbLinetypeTableRecord
  2
HIDDEN
 70
     0
  3
__ __ __ __ __ __ __ __ __ __ __ __ __ __ __ __
 72
    65
 73
     2
 40
0.375
 49
0.25
 74
     0
 49
-0.125
 74
     0
  0
LTYPE
  5
781B
330
746A
100
AcDbSymbolTableRecord
100
AcDbLinetypeTableRecord
  2
PHANTOM
 70
     0
  3
______  __  __  ______  __  __  ______  __  __ 
 72
    65
 73
     6
 40
2.5
 49
1.25
 74
     0
 49
-0.25
 74
     0
 49
0.25
 74
     0
 49
-0.25
 74
     0
 49
0.25
 74
     0
 49
-0.25
 74
     0
  0
ENDTAB
  0
TABLE
  2
LAYER
  5
7467
102
{ACAD_XDICTIONARY
360
150A5
102
}
330
0
100
AcDbSymbolTable
 70
    12
  0
LAYER
  5
7474
330
7467
100
AcDbSymbolTableRecord
100
AcDbLayerTableRecord
  2
0
 70
     0
 62
     7
  6
CONTINUOUS
370
    -3
390
14F27
  0
LAYER
  5
DEB2
330
7467
100
AcDbSymbolTableRecord
100
AcDbLayerTableRecord
  2
センター
 70
     0
 62
     3
  6
CENTER
370
    -3
390
14F27
  0
LAYER
  5
DEB3
330
7467
100
AcDbSymbolTableRecord
100
AcDbLayerTableRecord
  2
寸法
 70
     0
 62
     4
  6
CONTINUOUS
370
    -3
390
14F27
  0
LAYER
  5
DEB4
330
7467
100
AcDbSymbolTableRecord
100
AcDbLayerTableRecord
  2
部品1
 70
     0
 62
     7
  6
CONTINUOUS
370
    -3
390
14F27
  0
LAYER
  5
DEB5
330
7467
100
AcDbSymbolTableRecord
100
AcDbLayerTableRecord
  2
補助
 70
     0
 62
    -1
  6
CONTINUOUS
370
    -3
390
14F27
  0
LAYER
  5
DEB6
330
7467
100
AcDbSymbolTableRecord
100
AcDbLayerTableRecord
  2
文字
 70
     0
 62
     7
  6
CONTINUOUS
370
    -3
390
14F27
  0
LAYER
  5
F255
330
7467
100
AcDbSymbolTableRecord
100
AcDbLayerTableRecord
  2
DEFPOINTS
 70
     0
 62
     7
  6
CONTINUOUS
290
     0
370
    -3
390
14F27
  0
LAYER
  5
10B54
330
7467
100
AcDbSymbolTableRecord
100
AcDbLayerTableRecord
  2
仕様書枠
 70
     0
 62
   230
  6
CONTINUOUS
370
    -3
390
14F27
  0
LAYER
  5
11729
330
7467
100
AcDbSymbolTableRecord
100
AcDbLayerTableRecord
  2
Ｇ．Ｌ
 70
     0
 62
    30
  6
CONTINUOUS
370
    -3
390
14F27
  0
LAYER
  5
1173F
330
7467
100
AcDbSymbolTableRecord
100
AcDbLayerTableRecord
  2
細線
 70
     0
 62
     5
  6
CONTINUOUS
370
    -3
390
14F27
  0
LAYER
  5
118A1
330
7467
100
AcDbSymbolTableRecord
100
AcDbLayerTableRecord
  2
想像線
 70
     0
 62
     6
  6
PHANTOM
370
    -3
390
14F27
  0
LAYER
  5
123C1
330
7467
100
AcDbSymbolTableRecord
100
AcDbLayerTableRecord
  2
破線
 70
     0
 62
     2
  6
HIDDEN
370
    -3
390
14F27
  0
ENDTAB
  0
TABLE
  2
STYLE
  5
7468
330
0
100
AcDbSymbolTable
 70
     4
  0
STYLE
  5
7475
330
7468
100
AcDbSymbolTableRecord
100
AcDbTextStyleTableRecord
  2
STANDARD
 70
     0
 40
0.0
 41
1.0
 50
0.0
 71
     0
 42
4.0
  3
txt
  4
C:\AutoCAD LT\bigfont.shx
  0
STYLE
  5
F706
330
7468
100
AcDbSymbolTableRecord
100
AcDbTextStyleTableRecord
  2
STYLE1
 70
     0
 40
0.0
 41
1.0
 50
0.0
 71
     0
 42
4.0
  3
isocp.shx
  4
bigfont.shx
  0
STYLE
  5
103BF
330
7468
100
AcDbSymbolTableRecord
100
AcDbTextStyleTableRecord
  2
STYLE2
 70
     0
 40
0.0
 41
1.0
 50
0.0
 71
     0
 42
100.0
  3
MS PGothic.ttf
  4

1001
ACAD
1000
MS PGothic
1071
    32818
  0
STYLE
  5
10BAA
330
7468
100
AcDbSymbolTableRecord
100
AcDbTextStyleTableRecord
  2
STYLE3
 70
     0
 40
0.0
 41
1.0
 50
0.0
 71
     0
 42
100.0
  3

  4

1001
ACAD
1000
DFPGothic-EB
1071
    32818
  0
ENDTAB
  0
TABLE
  2
VIEW
  5
746B
330
0
100
AcDbSymbolTable
 70
     0
  0
ENDTAB
  0
TABLE
  2
UCS
  5
746C
330
0
100
AcDbSymbolTable
 70
     0
  0
ENDTAB
  0
TABLE
  2
APPID
  5
746E
330
0
100
AcDbSymbolTable
 70
     6
  0
APPID
  5
7476
330
746E
100
AcDbSymbolTableRecord
100
AcDbRegAppTableRecord
  2
ACAD
 70
     0
  0
APPID
  5
DEA9
330
746E
100
AcDbSymbolTableRecord
100
AcDbRegAppTableRecord
  2
CONTENTBLOCKICON
 70
     0
  0
APPID
  5
DEAA
330
746E
100
AcDbSymbolTableRecord
100
AcDbRegAppTableRecord
  2
CONTENTBLOCKDESCRIPTION
 70
     0
  0
APPID
  5
E71D
330
746E
100
AcDbSymbolTableRecord
100
AcDbRegAppTableRecord
  2
CONTENTTABDATA
 70
     0
  0
APPID
  5
E71E
330
746E
100
AcDbSymbolTableRecord
100
AcDbRegAppTableRecord
  2
CONTENTCURRENTTAB
 70
     0
  0
APPID
  5
F3BA
330
746E
100
AcDbSymbolTableRecord
100
AcDbRegAppTableRecord
  2
DRAWINGVARIABLESXDATA
 70
     0
  0
ENDTAB
  0
TABLE
  2
DIMSTYLE
  5
746F
330
0
100
AcDbSymbolTable
 70
     3
100
AcDbDimStyleTable
 71
     1
340
F71F
  0
DIMSTYLE
105
7484
330
746F
100
AcDbSymbolTableRecord
100
AcDbDimStyleTableRecord
  2
JIS
 70
     0
 41
2.5
 42
1.0
 43
7.0
 44
1.0
 73
     0
 74
     0
 77
     1
 78
     8
140
2.5
141
0.0
143
0.0394
147
0.0
172
     1
174
     1
175
     1
340
7475
  0
DIMSTYLE
105
F71F
102
{ACAD_REACTORS
330
13B23
330
14ABF
330
14AD1
330
14AD2
330
14AD3
330
14AD4
330
14AD5
330
14B1F
330
14B20
330
14B21
330
14B22
330
14B38
330
14E3A
330
14ECF
330
14F17
330
152E3
330
152F2
330
152F3
330
152F4
330
15492
330
16046
330
16047
330
1604B
330
1604C
330
1604D
330
1604E
330
16076
330
16077
330
16089
102
}
330
746F
100
AcDbSymbolTableRecord
100
AcDbDimStyleTableRecord
  2
INABA_S40G
 70
     0
 40
40.0
 41
2.5
 42
0.5
 43
7.0
 44
1.5
 73
     0
 74
     0
 77
     3
 78
     8
140
3.0
141
0.0
143
0.0394
147
1.0
172
     1
173
     1
174
     1
178
     7
271
     1
340
F706
341
F770
343
F770
344
F770
  0
DIMSTYLE
105
150A4
330
746F
100
AcDbSymbolTableRecord
100
AcDbDimStyleTableRecord
  2
INABA_S40
 70
     0
 40
40.0
 41
2.5
 42
0.5
 43
7.0
 44
1.5
 73
     0
 74
     0
 77
     3
 78
     8
140
3.0
141
0.0
143
0.0394
147
1.0
172
     1
173
     1
174
     1
175
     1
178
     7
289
     0
340
7475
341
14FFF
343
14FFF
344
14FFF
  0
ENDTAB
  0
TABLE
  2
BLOCK_RECORD
  5
7466
330
0
100
AcDbSymbolTable
 70
    32
  0
BLOCK_RECORD
  5
747D
330
7466
100
AcDbSymbolTableRecord
100
AcDbBlockTableRecord
  2
*MODEL_SPACE
340
14F2C
  0
BLOCK_RECORD
  5
747A
330
7466
100
AcDbSymbolTableRecord
100
AcDbBlockTableRecord
  2
*PAPER_SPACE
340
14F2D
  0
BLOCK_RECORD
  5
F770
330
7466
100
AcDbSymbolTableRecord
100
AcDbBlockTableRecord
  2
_DOTSMALL
340
0
102
{BLKREFS
331
15C42
331
15C43
331
15C4B
331
15C4C
331
15C54
331
15C55
331
15C5F
331
15C60
331
15C6A
331
15C6B
331
15C7C
331
15C7D
331
15C85
331
15C86
331
15C8E
331
15C8F
331
15C97
331
15C98
331
15CA0
331
15CA1
331
15CAB
331
15CAC
331
15CB6
331
15CB7
331
15CBF
331
15CC0
331
15CCA
331
15CCB
331
15CD3
331
15CD4
331
15CDC
331
15CDD
331
15CF0
331
15CF1
331
15CF9
331
15CFA
331
163FD
331
163FE
331
16407
331
16408
331
16411
331
16412
331
1641A
331
1641B
331
16425
331
16426
331
1642E
331
1642F
331
16437
331
16438
331
16442
331
16443
331
1644B
331
1644C
331
164AC
331
164AD
331
164B5
331
164B6
102
}
  0
BLOCK_RECORD
  5
13C83
330
7466
100
AcDbSymbolTableRecord
100
AcDbBlockTableRecord
  2
*D1
340
0
  0
BLOCK_RECORD
  5
14B8D
330
7466
100
AcDbSymbolTableRecord
100
AcDbBlockTableRecord
  2
*D2
340
0
  0
BLOCK_RECORD
  5
14BBF
330
7466
100
AcDbSymbolTableRecord
100
AcDbBlockTableRecord
  2
*D3
340
0
  0
BLOCK_RECORD
  5
14BCB
330
7466
100
AcDbSymbolTableRecord
100
AcDbBlockTableRecord
  2
*D4
340
0
  0
BLOCK_RECORD
  5
14BD7
330
7466
100
AcDbSymbolTableRecord
100
AcDbBlockTableRecord
  2
*D5
340
0
  0
BLOCK_RECORD
  5
14BE3
330
7466
100
AcDbSymbolTableRecord
100
AcDbBlockTableRecord
  2
*D6
340
0
  0
BLOCK_RECORD
  5
14BF1
330
7466
100
AcDbSymbolTableRecord
100
AcDbBlockTableRecord
  2
*D7
340
0
  0
BLOCK_RECORD
  5
14C09
330
7466
100
AcDbSymbolTableRecord
100
AcDbBlockTableRecord
  2
*D8
340
0
  0
BLOCK_RECORD
  5
14C17
330
7466
100
AcDbSymbolTableRecord
100
AcDbBlockTableRecord
  2
*D9
340
0
  0
BLOCK_RECORD
  5
14C25
330
7466
100
AcDbSymbolTableRecord
100
AcDbBlockTableRecord
  2
*D10
340
0
  0
BLOCK_RECORD
  5
14C31
330
7466
100
AcDbSymbolTableRecord
100
AcDbBlockTableRecord
  2
*D11
340
0
  0
BLOCK_RECORD
  5
14C3D
330
7466
100
AcDbSymbolTableRecord
100
AcDbBlockTableRecord
  2
*D12
340
0
  0
BLOCK_RECORD
  5
14E3B
330
7466
100
AcDbSymbolTableRecord
100
AcDbBlockTableRecord
  2
*D13
340
0
  0
BLOCK_RECORD
  5
14ED0
330
7466
100
AcDbSymbolTableRecord
100
AcDbBlockTableRecord
  2
*D14
340
0
  0
BLOCK_RECORD
  5
14F18
330
7466
100
AcDbSymbolTableRecord
100
AcDbBlockTableRecord
  2
*D15
340
0
  0
BLOCK_RECORD
  5
14FFF
330
7466
100
AcDbSymbolTableRecord
100
AcDbBlockTableRecord
  2
_OPEN
340
0
  0
BLOCK_RECORD
  5
15005
330
7466
100
AcDbSymbolTableRecord
100
AcDbBlockTableRecord
  2
_DOT
340
0
  0
BLOCK_RECORD
  5
154AB
330
7466
100
AcDbSymbolTableRecord
100
AcDbBlockTableRecord
  2
*D18
340
0
  0
BLOCK_RECORD
  5
154B9
330
7466
100
AcDbSymbolTableRecord
100
AcDbBlockTableRecord
  2
*D19
340
0
  0
BLOCK_RECORD
  5
154C7
330
7466
100
AcDbSymbolTableRecord
100
AcDbBlockTableRecord
  2
*D20
340
0
  0
BLOCK_RECORD
  5
154D3
330
7466
100
AcDbSymbolTableRecord
100
AcDbBlockTableRecord
  2
*D21
340
0
  0
BLOCK_RECORD
  5
15603
330
7466
100
AcDbSymbolTableRecord
100
AcDbBlockTableRecord
  2
*D22
340
0
  0
BLOCK_RECORD
  5
162C0
330
7466
100
AcDbSymbolTableRecord
100
AcDbBlockTableRecord
  2
*D23
340
0
  0
BLOCK_RECORD
  5
162CC
330
7466
100
AcDbSymbolTableRecord
100
AcDbBlockTableRecord
  2
*D24
340
0
  0
BLOCK_RECORD
  5
162DA
330
7466
100
AcDbSymbolTableRecord
100
AcDbBlockTableRecord
  2
*D25
340
0
  0
BLOCK_RECORD
  5
162E6
330
7466
100
AcDbSymbolTableRecord
100
AcDbBlockTableRecord
  2
*D26
340
0
  0
BLOCK_RECORD
  5
162F2
330
7466
100
AcDbSymbolTableRecord
100
AcDbBlockTableRecord
  2
*D27
340
0
  0
BLOCK_RECORD
  5
16300
330
7466
100
AcDbSymbolTableRecord
100
AcDbBlockTableRecord
  2
*D28
340
0
  0
BLOCK_RECORD
  5
1630C
330
7466
100
AcDbSymbolTableRecord
100
AcDbBlockTableRecord
  2
*D29
340
0
  0
BLOCK_RECORD
  5
16319
330
7466
100
AcDbSymbolTableRecord
100
AcDbBlockTableRecord
  2
*D30
340
0
  0
BLOCK_RECORD
  5
16326
330
7466
100
AcDbSymbolTableRecord
100
AcDbBlockTableRecord
  2
*D31
340
0
  0
ENDTAB
  0
ENDSEC
  0
SECTION
  2
BLOCKS
  0
BLOCK
  5
7489
330
747D
100
AcDbEntity
  8
0
100
AcDbBlockBegin
  2
*MODEL_SPACE
 70
     0
 10
0.0
 20
0.0
 30
0.0
  3
*MODEL_SPACE
  1

  0
ENDBLK
  5
748A
330
747D
100
AcDbEntity
  8
0
100
AcDbBlockEnd
  0
BLOCK
  5
7487
330
747A
100
AcDbEntity
 67
     1
  8
0
100
AcDbBlockBegin
  2
*PAPER_SPACE
 70
     0
 10
0.0
 20
0.0
 30
0.0
  3
*PAPER_SPACE
  1

  0
ENDBLK
  5
7488
330
747A
100
AcDbEntity
 67
     1
  8
0
100
AcDbBlockEnd
  0
BLOCK
  5
F771
330
F770
100
AcDbEntity
  8
0
 48
50.0
100
AcDbBlockBegin
  2
_DOTSMALL
 70
     0
 10
0.0
 20
0.0
 30
0.0
  3
_DOTSMALL
  1

  0
LWPOLYLINE
  5
F772
330
F770
100
AcDbEntity
  8
0
  6
ByBlock
 62
     0
 48
50.0
100
AcDbPolyline
 90
        2
 70
     1
 43
0.5
 10
-0.0625
 20
0.0
 42
1.0
 10
0.0625
 20
0.0
 42
1.0
  0
ENDBLK
  5
F776
330
F770
100
AcDbEntity
  8
0
 48
50.0
100
AcDbBlockEnd
  0
BLOCK
  5
1477E
330
13C83
100
AcDbEntity
  8
0
 48
50.0
100
AcDbBlockBegin
  2
*D1
 70
     1
 10
0.0
 20
0.0
 30
0.0
  3
*D1
  1

  0
LINE
  5
15CF6
330
13C83
100
AcDbEntity
  8
寸法
 62
     0
 48
50.0
370
    -2
100
AcDbLine
 10
5439.4849982394
 20
7924.545031521046
 30
0.0
 11
5439.4849982394
 21
6897.443156660975
 31
0.0
  0
LINE
  5
15CF7
330
13C83
100
AcDbEntity
  8
寸法
 62
     0
 48
50.0
370
    -2
100
AcDbLine
 10
7079.484998239383
 20
7924.545031521176
 30
0.0
 11
7079.484998239383
 21
6897.443156660975
 31
0.0
  0
LINE
  5
15CF8
330
13C83
100
AcDbEntity
  8
寸法
 62
     0
 48
50.0
370
    -2
100
AcDbLine
 10
5439.4849982394
 20
6957.443156660975
 30
0.0
 11
7079.484998239383
 21
6957.443156660975
 31
0.0
  0
INSERT
  5
15CF9
330
13C83
100
AcDbEntity
  8
寸法
 62
     0
 48
50.0
370
    -2
100
AcDbBlockReference
  2
_DOTSMALL
 10
5439.4849982394
 20
6957.443156660975
 30
0.0
 41
100.0
 42
100.0
 43
100.0
 50
180.0
  0
INSERT
  5
15CFA
330
13C83
100
AcDbEntity
  8
寸法
 62
     0
 48
50.0
370
    -2
100
AcDbBlockReference
  2
_DOTSMALL
 10
7079.484998239383
 20
6957.443156660975
 30
0.0
 41
100.0
 42
100.0
 43
100.0
  0
MTEXT
  5
15CFB
330
13C83
100
AcDbEntity
  8
寸法
 62
     7
 48
50.0
100
AcDbMText
 10
6251.236540082384
 20
7057.443156660974
 30
0.0
 40
120.0
 41
0.0
 71
     5
 72
     1
  1
\A1;1640
  7
STYLE1
 73
     1
 44
1.0
1001
ACAD
1000
MTEXTBEGIN
1070
    73
1070
     1
1070
    44
1040
1.0
1070
    74
1070
     0
1000
MTEXTEND
  0
POINT
  5
15CFC
330
13C83
100
AcDbEntity
  8
DEFPOINTS
 62
     0
 48
50.0
100
AcDbPoint
 10
5439.4849982394
 20
7944.545031521045
 30
0.0
  0
POINT
  5
15CFD
330
13C83
100
AcDbEntity
  8
DEFPOINTS
 62
     0
 48
50.0
100
AcDbPoint
 10
7079.484998239383
 20
7944.545031521177
 30
0.0
  0
POINT
  5
15CFE
330
13C83
100
AcDbEntity
  8
DEFPOINTS
 62
     0
 48
50.0
100
AcDbPoint
 10
7079.484998239383
 20
6957.443156660975
 30
0.0
  0
ENDBLK
  5
14788
330
13C83
100
AcDbEntity
  8
0
 48
50.0
100
AcDbBlockEnd
  0
BLOCK
  5
14CC7
330
14B8D
100
AcDbEntity
  8
0
 48
50.0
100
AcDbBlockBegin
  2
*D2
 70
     1
 10
0.0
 20
0.0
 30
0.0
  3
*D2
  1

  0
LINE
  5
15CEB
330
14B8D
100
AcDbEntity
  8
寸法
 62
     0
 48
50.0
370
    -2
100
AcDbLine
 10
7099.484998239383
 20
7999.545031521204
 30
0.0
 11
7786.911343973793
 21
7999.545031521204
 31
0.0
  0
LINE
  5
15CEC
330
14B8D
100
AcDbEntity
  8
寸法
 62
     0
 48
50.0
370
    -2
100
AcDbLine
 10
7099.484998239383
 20
7944.545031521204
 30
0.0
 11
7786.911343973793
 21
7944.545031521204
 31
0.0
  0
LINE
  5
15CED
330
14B8D
100
AcDbEntity
  8
寸法
 62
     0
 48
50.0
370
    -2
100
AcDbLine
 10
7726.911343973793
 20
7999.545031521204
 30
0.0
 11
7726.911343973793
 21
8099.545031521204
 31
0.0
  0
LINE
  5
15CEE
330
14B8D
100
AcDbEntity
  8
寸法
 62
     0
 48
50.0
370
    -2
100
AcDbLine
 10
7726.911343973793
 20
7944.545031521204
 30
0.0
 11
7726.911343973793
 21
7458.198283242109
 31
0.0
  0
LINE
  5
15CEF
330
14B8D
100
AcDbEntity
  8
寸法
 62
     0
 48
50.0
370
    -2
100
AcDbLine
 10
7726.911343973793
 20
7999.545031521204
 30
0.0
 11
7726.911343973793
 21
7944.545031521204
 31
0.0
  0
INSERT
  5
15CF0
330
14B8D
100
AcDbEntity
  8
寸法
 62
     0
 48
50.0
370
    -2
100
AcDbBlockReference
  2
_DOTSMALL
 10
7726.911343973793
 20
7999.545031521204
 30
0.0
 41
100.0
 42
100.0
 43
100.0
 50
270.0
  0
INSERT
  5
15CF1
330
14B8D
100
AcDbEntity
  8
寸法
 62
     0
 48
50.0
370
    -2
100
AcDbBlockReference
  2
_DOTSMALL
 10
7726.911343973793
 20
7944.545031521204
 30
0.0
 41
100.0
 42
100.0
 43
100.0
 50
90.0
  0
MTEXT
  5
15CF2
330
14B8D
100
AcDbEntity
  8
寸法
 62
     7
 48
50.0
100
AcDbMText
 10
7626.911343973792
 20
7566.683564616349
 30
0.0
 40
120.0
 41
0.0
 71
     5
 72
     1
  1
\A1;55
  7
STYLE1
 11
0.0000000000000001
 21
1.0
 31
0.0
 73
     1
 44
1.0
1001
ACAD
1000
MTEXTBEGIN
1070
    73
1070
     1
1070
    44
1040
1.0
1070
    74
1070
     0
1000
MTEXTEND
  0
POINT
  5
15CF3
330
14B8D
100
AcDbEntity
  8
DEFPOINTS
 62
     0
 48
50.0
100
AcDbPoint
 10
7079.484998239383
 20
7999.545031521204
 30
0.0
  0
POINT
  5
15CF4
330
14B8D
100
AcDbEntity
  8
DEFPOINTS
 62
     0
 48
50.0
100
AcDbPoint
 10
7079.484998239383
 20
7944.545031521204
 30
0.0
  0
POINT
  5
15CF5
330
14B8D
100
AcDbEntity
  8
DEFPOINTS
 62
     0
 48
50.0
100
AcDbPoint
 10
7726.911343973793
 20
7944.545031521204
 30
0.0
  0
ENDBLK
  5
14CD3
330
14B8D
100
AcDbEntity
  8
0
 48
50.0
100
AcDbBlockEnd
  0
BLOCK
  5
14CF5
330
14BBF
100
AcDbEntity
  8
0
 48
50.0
100
AcDbBlockBegin
  2
*D3
 70
     1
 10
0.0
 20
0.0
 30
0.0
  3
*D3
  1

  0
LINE
  5
164A9
330
14BBF
100
AcDbEntity
  8
寸法
 62
     0
 48
50.0
370
    -2
100
AcDbLine
 10
6283.626021068418
 20
8815.045031521131
 30
0.0
 11
6174.972623537587
 21
8409.545031521096
 31
0.0
  0
LINE
  5
164AA
330
14BBF
100
AcDbEntity
  8
寸法
 62
     0
 48
50.0
370
    -2
100
AcDbLine
 10
7044.62602106843
 20
8815.045031521124
 30
0.0
 11
6935.972623537601
 21
8409.545031521096
 31
0.0
  0
LINE
  5
164AB
330
14BBF
100
AcDbEntity
  8
寸法
 62
     0
 48
50.0
370
    -2
100
AcDbLine
 10
6191.049575083454
 20
8469.545031521095
 30
0.0
 11
6952.049575083468
 21
8469.545031521095
 31
0.0
  0
INSERT
  5
164AC
330
14BBF
100
AcDbEntity
  8
寸法
 62
     0
 48
50.0
370
    -2
100
AcDbBlockReference
  2
_DOTSMALL
 10
6191.049575083454
 20
8469.545031521095
 30
0.0
 41
100.0
 42
100.0
 43
100.0
 50
180.0
  0
INSERT
  5
164AD
330
14BBF
100
AcDbEntity
  8
寸法
 62
     0
 48
50.0
370
    -2
100
AcDbBlockReference
  2
_DOTSMALL
 10
6952.049575083468
 20
8469.545031521095
 30
0.0
 41
100.0
 42
100.0
 43
100.0
  0
MTEXT
  5
164AE
330
14BBF
100
AcDbEntity
  8
寸法
 62
     7
 48
50.0
100
AcDbMText
 10
6571.549575083462
 20
8569.545031521094
 30
0.0
 40
120.0
 41
0.0
 71
     5
 72
     1
  1
\A1;761
  7
STYLE1
 73
     1
 44
1.0
1001
ACAD
1000
MTEXTBEGIN
1070
    73
1070
     1
1070
    44
1040
1.0
1070
    74
1070
     0
1000
MTEXTEND
  0
POINT
  5
164AF
330
14BBF
100
AcDbEntity
  8
DEFPOINTS
 62
     0
 48
50.0
100
AcDbPoint
 10
6288.98500491704
 20
8835.045031521131
 30
0.0
  0
POINT
  5
164B0
330
14BBF
100
AcDbEntity
  8
DEFPOINTS
 62
     0
 48
50.0
100
AcDbPoint
 10
7049.985004917053
 20
8835.045031521124
 30
0.0
  0
POINT
  5
164B1
330
14BBF
100
AcDbEntity
  8
DEFPOINTS
 62
     0
 48
50.0
100
AcDbPoint
 10
6952.049575083468
 20
8469.545031521095
 30
0.0
  0
ENDBLK
  5
14CFF
330
14BBF
100
AcDbEntity
  8
0
 48
50.0
100
AcDbBlockEnd
  0
BLOCK
  5
14D00
330
14BCB
100
AcDbEntity
  8
0
 48
50.0
100
AcDbBlockBegin
  2
*D4
 70
     1
 10
0.0
 20
0.0
 30
0.0
  3
*D4
  1

  0
LINE
  5
15CD9
330
14BCB
100
AcDbEntity
  8
寸法
 62
     0
 48
50.0
370
    -2
100
AcDbLine
 10
6314.484998239408
 20
9334.545031521123
 30
0.0
 11
6314.484998239408
 21
9590.353251146222
 31
0.0
  0
LINE
  5
15CDA
330
14BCB
100
AcDbEntity
  8
寸法
 62
     0
 48
50.0
370
    -2
100
AcDbLine
 10
7024.484998239408
 20
9334.545031521248
 30
0.0
 11
7024.484998239408
 21
9590.353251146222
 31
0.0
  0
LINE
  5
15CDB
330
14BCB
100
AcDbEntity
  8
寸法
 62
     0
 48
50.0
370
    -2
100
AcDbLine
 10
6314.484998239408
 20
9530.353251146221
 30
0.0
 11
7024.484998239408
 21
9530.353251146221
 31
0.0
  0
INSERT
  5
15CDC
330
14BCB
100
AcDbEntity
  8
寸法
 62
     0
 48
50.0
370
    -2
100
AcDbBlockReference
  2
_DOTSMALL
 10
6314.484998239408
 20
9530.353251146221
 30
0.0
 41
100.0
 42
100.0
 43
100.0
 50
180.0
  0
INSERT
  5
15CDD
330
14BCB
100
AcDbEntity
  8
寸法
 62
     0
 48
50.0
370
    -2
100
AcDbBlockReference
  2
_DOTSMALL
 10
7024.484998239408
 20
9530.353251146221
 30
0.0
 41
100.0
 42
100.0
 43
100.0
  0
MTEXT
  5
15CDE
330
14BCB
100
AcDbEntity
  8
寸法
 62
     7
 48
50.0
100
AcDbMText
 10
6669.734998239409
 20
9630.353251146223
 30
0.0
 40
120.0
 41
0.0
 71
     5
 72
     1
  1
\A1;710
  7
STYLE1
 73
     1
 44
1.0
1001
ACAD
1000
MTEXTBEGIN
1070
    73
1070
     1
1070
    44
1040
1.0
1070
    74
1070
     0
1000
MTEXTEND
  0
POINT
  5
15CDF
330
14BCB
100
AcDbEntity
  8
DEFPOINTS
 62
     0
 48
50.0
100
AcDbPoint
 10
6314.484998239408
 20
9314.545031521124
 30
0.0
  0
POINT
  5
15CE0
330
14BCB
100
AcDbEntity
  8
DEFPOINTS
 62
     0
 48
50.0
100
AcDbPoint
 10
7024.484998239408
 20
9314.545031521246
 30
0.0
  0
POINT
  5
15CE1
330
14BCB
100
AcDbEntity
  8
DEFPOINTS
 62
     0
 48
50.0
100
AcDbPoint
 10
7024.484998239408
 20
9530.353251146221
 30
0.0
  0
ENDBLK
  5
14D0A
330
14BCB
100
AcDbEntity
  8
0
 48
50.0
100
AcDbBlockEnd
  0
BLOCK
  5
14D0B
330
14BD7
100
AcDbEntity
  8
0
 48
50.0
100
AcDbBlockBegin
  2
*D5
 70
     1
 10
0.0
 20
0.0
 30
0.0
  3
*D5
  1

  0
LINE
  5
15CD0
330
14BD7
100
AcDbEntity
  8
寸法
 62
     0
 48
50.0
370
    -2
100
AcDbLine
 10
6204.484998239408
 20
9334.545031521248
 30
0.0
 11
6204.484998239408
 21
9590.353251146222
 31
0.0
  0
LINE
  5
15CD1
330
14BD7
100
AcDbEntity
  8
寸法
 62
     0
 48
50.0
370
    -2
100
AcDbLine
 10
6314.484998239412
 20
9334.545031521226
 30
0.0
 11
6314.484998239412
 21
9590.353251146222
 31
0.0
  0
LINE
  5
15CD2
330
14BD7
100
AcDbEntity
  8
寸法
 62
     0
 48
50.0
370
    -2
100
AcDbLine
 10
6204.484998239408
 20
9530.353251146221
 30
0.0
 11
6314.484998239412
 21
9530.353251146221
 31
0.0
  0
INSERT
  5
15CD3
330
14BD7
100
AcDbEntity
  8
寸法
 62
     0
 48
50.0
370
    -2
100
AcDbBlockReference
  2
_DOTSMALL
 10
6204.484998239408
 20
9530.353251146221
 30
0.0
 41
100.0
 42
100.0
 43
100.0
 50
180.0
  0
INSERT
  5
15CD4
330
14BD7
100
AcDbEntity
  8
寸法
 62
     0
 48
50.0
370
    -2
100
AcDbBlockReference
  2
_DOTSMALL
 10
6314.484998239412
 20
9530.353251146221
 30
0.0
 41
100.0
 42
100.0
 43
100.0
  0
MTEXT
  5
15CD5
330
14BD7
100
AcDbEntity
  8
寸法
 62
     7
 48
50.0
100
AcDbMText
 10
6259.48499823941
 20
9630.353251146223
 30
0.0
 40
120.0
 41
0.0
 71
     5
 72
     1
  1
\A1;110
  7
STYLE1
 73
     1
 44
1.0
1001
ACAD
1000
MTEXTBEGIN
1070
    73
1070
     1
1070
    44
1040
1.0
1070
    74
1070
     0
1000
MTEXTEND
  0
POINT
  5
15CD6
330
14BD7
100
AcDbEntity
  8
DEFPOINTS
 62
     0
 48
50.0
100
AcDbPoint
 10
6204.484998239408
 20
9314.545031521246
 30
0.0
  0
POINT
  5
15CD7
330
14BD7
100
AcDbEntity
  8
DEFPOINTS
 62
     0
 48
50.0
100
AcDbPoint
 10
6314.484998239412
 20
9314.545031521225
 30
0.0
  0
POINT
  5
15CD8
330
14BD7
100
AcDbEntity
  8
DEFPOINTS
 62
     0
 48
50.0
100
AcDbPoint
 10
6314.484998239412
 20
9530.353251146221
 30
0.0
  0
ENDBLK
  5
14D15
330
14BD7
100
AcDbEntity
  8
0
 48
50.0
100
AcDbBlockEnd
  0
BLOCK
  5
14D16
330
14BE3
100
AcDbEntity
  8
0
 48
50.0
100
AcDbBlockBegin
  2
*D6
 70
     1
 10
0.0
 20
0.0
 30
0.0
  3
*D6
  1

  0
LINE
  5
15CC5
330
14BE3
100
AcDbEntity
  8
寸法
 62
     0
 48
50.0
370
    -2
100
AcDbLine
 10
5439.484998239374
 20
9334.545031521123
 30
0.0
 11
5439.484998239374
 21
9590.353251146105
 31
0.0
  0
LINE
  5
15CC6
330
14BE3
100
AcDbEntity
  8
寸法
 62
     0
 48
50.0
370
    -2
100
AcDbLine
 10
5494.484998239408
 20
9334.545031521123
 30
0.0
 11
5494.484998239408
 21
9590.353251146105
 31
0.0
  0
LINE
  5
15CC7
330
14BE3
100
AcDbEntity
  8
寸法
 62
     0
 48
50.0
370
    -2
100
AcDbLine
 10
5494.484998239408
 20
9530.353251146106
 30
0.0
 11
5594.484998239408
 21
9530.353251146106
 31
0.0
  0
LINE
  5
15CC8
330
14BE3
100
AcDbEntity
  8
寸法
 62
     0
 48
50.0
370
    -2
100
AcDbLine
 10
5439.484998239374
 20
9530.353251146106
 30
0.0
 11
5022.514435490896
 21
9530.353251146106
 31
0.0
  0
LINE
  5
15CC9
330
14BE3
100
AcDbEntity
  8
寸法
 62
     0
 48
50.0
370
    -2
100
AcDbLine
 10
5494.484998239408
 20
9530.353251146106
 30
0.0
 11
5439.484998239374
 21
9530.353251146106
 31
0.0
  0
INSERT
  5
15CCA
330
14BE3
100
AcDbEntity
  8
寸法
 62
     0
 48
50.0
370
    -2
100
AcDbBlockReference
  2
_DOTSMALL
 10
5494.484998239408
 20
9530.353251146106
 30
0.0
 41
100.0
 42
100.0
 43
100.0
 50
180.0
  0
INSERT
  5
15CCB
330
14BE3
100
AcDbEntity
  8
寸法
 62
     0
 48
50.0
370
    -2
100
AcDbBlockReference
  2
_DOTSMALL
 10
5439.484998239374
 20
9530.353251146106
 30
0.0
 41
100.0
 42
100.0
 43
100.0
  0
MTEXT
  5
15CCC
330
14BE3
100
AcDbEntity
  8
寸法
 62
     7
 48
50.0
100
AcDbMText
 10
5130.999716865136
 20
9630.353251146106
 30
0.0
 40
120.0
 41
0.0
 71
     5
 72
     1
  1
\A1;55
  7
STYLE1
 73
     1
 44
1.0
1001
ACAD
1000
MTEXTBEGIN
1070
    73
1070
     1
1070
    44
1040
1.0
1070
    74
1070
     0
1000
MTEXTEND
  0
POINT
  5
15CCD
330
14BE3
100
AcDbEntity
  8
DEFPOINTS
 62
     0
 48
50.0
100
AcDbPoint
 10
5439.484998239374
 20
9314.545031521124
 30
0.0
  0
POINT
  5
15CCE
330
14BE3
100
AcDbEntity
  8
DEFPOINTS
 62
     0
 48
50.0
100
AcDbPoint
 10
5494.484998239408
 20
9314.545031521124
 30
0.0
  0
POINT
  5
15CCF
330
14BE3
100
AcDbEntity
  8
DEFPOINTS
 62
     0
 48
50.0
100
AcDbPoint
 10
5494.484998239408
 20
9530.353251146106
 30
0.0
  0
ENDBLK
  5
14D22
330
14BE3
100
AcDbEntity
  8
0
 48
50.0
100
AcDbBlockEnd
  0
BLOCK
  5
14D23
330
14BF1
100
AcDbEntity
  8
0
 48
50.0
100
AcDbBlockBegin
  2
*D7
 70
     1
 10
0.0
 20
0.0
 30
0.0
  3
*D7
  1

  0
LINE
  5
15CBC
330
14BF1
100
AcDbEntity
  8
寸法
 62
     0
 48
50.0
370
    -2
100
AcDbLine
 10
5494.484998239408
 20
9334.545031521123
 30
0.0
 11
5494.484998239408
 21
9590.353251146222
 31
0.0
  0
LINE
  5
15CBD
330
14BF1
100
AcDbEntity
  8
寸法
 62
     0
 48
50.0
370
    -2
100
AcDbLine
 10
6204.484998239408
 20
9334.545031521248
 30
0.0
 11
6204.484998239408
 21
9590.353251146222
 31
0.0
  0
LINE
  5
15CBE
330
14BF1
100
AcDbEntity
  8
寸法
 62
     0
 48
50.0
370
    -2
100
AcDbLine
 10
5494.484998239408
 20
9530.353251146221
 30
0.0
 11
6204.484998239408
 21
9530.353251146221
 31
0.0
  0
INSERT
  5
15CBF
330
14BF1
100
AcDbEntity
  8
寸法
 62
     0
 48
50.0
370
    -2
100
AcDbBlockReference
  2
_DOTSMALL
 10
5494.484998239408
 20
9530.353251146221
 30
0.0
 41
100.0
 42
100.0
 43
100.0
 50
180.0
  0
INSERT
  5
15CC0
330
14BF1
100
AcDbEntity
  8
寸法
 62
     0
 48
50.0
370
    -2
100
AcDbBlockReference
  2
_DOTSMALL
 10
6204.484998239408
 20
9530.353251146221
 30
0.0
 41
100.0
 42
100.0
 43
100.0
  0
MTEXT
  5
15CC1
330
14BF1
100
AcDbEntity
  8
寸法
 62
     7
 48
50.0
100
AcDbMText
 10
5849.734998239409
 20
9630.353251146223
 30
0.0
 40
120.0
 41
0.0
 71
     5
 72
     1
  1
\A1;710
  7
STYLE1
 73
     1
 44
1.0
1001
ACAD
1000
MTEXTBEGIN
1070
    73
1070
     1
1070
    44
1040
1.0
1070
    74
1070
     0
1000
MTEXTEND
  0
POINT
  5
15CC2
330
14BF1
100
AcDbEntity
  8
DEFPOINTS
 62
     0
 48
50.0
100
AcDbPoint
 10
5494.484998239408
 20
9314.545031521124
 30
0.0
  0
POINT
  5
15CC3
330
14BF1
100
AcDbEntity
  8
DEFPOINTS
 62
     0
 48
50.0
100
AcDbPoint
 10
6204.484998239408
 20
9314.545031521246
 30
0.0
  0
POINT
  5
15CC4
330
14BF1
100
AcDbEntity
  8
DEFPOINTS
 62
     0
 48
50.0
100
AcDbPoint
 10
6204.484998239408
 20
9530.353251146221
 30
0.0
  0
ENDBLK
  5
14D2D
330
14BF1
100
AcDbEntity
  8
0
 48
50.0
100
AcDbBlockEnd
  0
BLOCK
  5
14D39
330
14C09
100
AcDbEntity
  8
0
 48
50.0
100
AcDbBlockBegin
  2
*D8
 70
     1
 10
0.0
 20
0.0
 30
0.0
  3
*D8
  1

  0
LINE
  5
15CB1
330
14C09
100
AcDbEntity
  8
寸法
 62
     0
 48
50.0
370
    -2
100
AcDbLine
 10
7024.484998239408
 20
9334.545031521219
 30
0.0
 11
7024.484998239408
 21
9590.353251146201
 31
0.0
  0
LINE
  5
15CB2
330
14C09
100
AcDbEntity
  8
寸法
 62
     0
 48
50.0
370
    -2
100
AcDbLine
 10
7079.484998239408
 20
9334.545031521219
 30
0.0
 11
7079.484998239408
 21
9590.353251146201
 31
0.0
  0
LINE
  5
15CB3
330
14C09
100
AcDbEntity
  8
寸法
 62
     0
 48
50.0
370
    -2
100
AcDbLine
 10
7024.484998239408
 20
9530.3532511462
 30
0.0
 11
6924.484998239408
 21
9530.3532511462
 31
0.0
  0
LINE
  5
15CB4
330
14C09
100
AcDbEntity
  8
寸法
 62
     0
 48
50.0
370
    -2
100
AcDbLine
 10
7079.484998239408
 20
9530.3532511462
 30
0.0
 11
7496.455560987887
 21
9530.3532511462
 31
0.0
  0
LINE
  5
15CB5
330
14C09
100
AcDbEntity
  8
寸法
 62
     0
 48
50.0
370
    -2
100
AcDbLine
 10
7024.484998239408
 20
9530.3532511462
 30
0.0
 11
7079.484998239408
 21
9530.3532511462
 31
0.0
  0
INSERT
  5
15CB6
330
14C09
100
AcDbEntity
  8
寸法
 62
     0
 48
50.0
370
    -2
100
AcDbBlockReference
  2
_DOTSMALL
 10
7024.484998239408
 20
9530.3532511462
 30
0.0
 41
100.0
 42
100.0
 43
100.0
  0
INSERT
  5
15CB7
330
14C09
100
AcDbEntity
  8
寸法
 62
     0
 48
50.0
370
    -2
100
AcDbBlockReference
  2
_DOTSMALL
 10
7079.484998239408
 20
9530.3532511462
 30
0.0
 41
100.0
 42
100.0
 43
100.0
 50
180.0
  0
MTEXT
  5
15CB8
330
14C09
100
AcDbEntity
  8
寸法
 62
     7
 48
50.0
100
AcDbMText
 10
7387.970279613648
 20
9630.3532511462
 30
0.0
 40
120.0
 41
0.0
 71
     5
 72
     1
  1
\A1;55
  7
STYLE1
 73
     1
 44
1.0
1001
ACAD
1000
MTEXTBEGIN
1070
    73
1070
     1
1070
    44
1040
1.0
1070
    74
1070
     0
1000
MTEXTEND
  0
POINT
  5
15CB9
330
14C09
100
AcDbEntity
  8
DEFPOINTS
 62
     0
 48
50.0
100
AcDbPoint
 10
7024.484998239408
 20
9314.545031521218
 30
0.0
  0
POINT
  5
15CBA
330
14C09
100
AcDbEntity
  8
DEFPOINTS
 62
     0
 48
50.0
100
AcDbPoint
 10
7079.484998239408
 20
9314.545031521218
 30
0.0
  0
POINT
  5
15CBB
330
14C09
100
AcDbEntity
  8
DEFPOINTS
 62
     0
 48
50.0
100
AcDbPoint
 10
7079.484998239408
 20
9530.3532511462
 30
0.0
  0
ENDBLK
  5
14D45
330
14C09
100
AcDbEntity
  8
0
 48
50.0
100
AcDbBlockEnd
  0
BLOCK
  5
14D46
330
14C17
100
AcDbEntity
  8
0
 48
50.0
100
AcDbBlockBegin
  2
*D9
 70
     1
 10
0.0
 20
0.0
 30
0.0
  3
*D9
  1

  0
LINE
  5
15CA6
330
14C17
100
AcDbEntity
  8
寸法
 62
     0
 48
50.0
370
    -2
100
AcDbLine
 10
7099.484998239408
 20
9314.545031521218
 30
0.0
 11
7786.911343973819
 21
9314.545031521218
 31
0.0
  0
LINE
  5
15CA7
330
14C17
100
AcDbEntity
  8
寸法
 62
     0
 48
50.0
370
    -2
100
AcDbLine
 10
7099.484998239408
 20
9259.545031521218
 30
0.0
 11
7786.911343973819
 21
9259.545031521218
 31
0.0
  0
LINE
  5
15CA8
330
14C17
100
AcDbEntity
  8
寸法
 62
     0
 48
50.0
370
    -2
100
AcDbLine
 10
7726.911343973819
 20
9259.545031521218
 30
0.0
 11
7726.911343973819
 21
9159.545031521219
 31
0.0
  0
LINE
  5
15CA9
330
14C17
100
AcDbEntity
  8
寸法
 62
     0
 48
50.0
370
    -2
100
AcDbLine
 10
7726.911343973819
 20
9314.545031521218
 30
0.0
 11
7726.911343973819
 21
9731.515594269694
 31
0.0
  0
LINE
  5
15CAA
330
14C17
100
AcDbEntity
  8
寸法
 62
     0
 48
50.0
370
    -2
100
AcDbLine
 10
7726.911343973819
 20
9259.545031521218
 30
0.0
 11
7726.911343973819
 21
9314.545031521218
 31
0.0
  0
INSERT
  5
15CAB
330
14C17
100
AcDbEntity
  8
寸法
 62
     0
 48
50.0
370
    -2
100
AcDbBlockReference
  2
_DOTSMALL
 10
7726.911343973819
 20
9259.545031521218
 30
0.0
 41
100.0
 42
100.0
 43
100.0
 50
90.0
  0
INSERT
  5
15CAC
330
14C17
100
AcDbEntity
  8
寸法
 62
     0
 48
50.0
370
    -2
100
AcDbBlockReference
  2
_DOTSMALL
 10
7726.911343973819
 20
9314.545031521218
 30
0.0
 41
100.0
 42
100.0
 43
100.0
 50
270.0
  0
MTEXT
  5
15CAD
330
14C17
100
AcDbEntity
  8
寸法
 62
     7
 48
50.0
100
AcDbMText
 10
7626.911343973818
 20
9623.030312895458
 30
0.0
 40
120.0
 41
0.0
 71
     5
 72
     1
  1
\A1;55
  7
STYLE1
 11
0.0000000000000001
 21
1.0
 31
0.0
 73
     1
 44
1.0
1001
ACAD
1000
MTEXTBEGIN
1070
    73
1070
     1
1070
    44
1040
1.0
1070
    74
1070
     0
1000
MTEXTEND
  0
POINT
  5
15CAE
330
14C17
100
AcDbEntity
  8
DEFPOINTS
 62
     0
 48
50.0
100
AcDbPoint
 10
7079.484998239408
 20
9314.545031521218
 30
0.0
  0
POINT
  5
15CAF
330
14C17
100
AcDbEntity
  8
DEFPOINTS
 62
     0
 48
50.0
100
AcDbPoint
 10
7079.484998239408
 20
9259.545031521218
 30
0.0
  0
POINT
  5
15CB0
330
14C17
100
AcDbEntity
  8
DEFPOINTS
 62
     0
 48
50.0
100
AcDbPoint
 10
7726.911343973819
 20
9259.545031521218
 30
0.0
  0
ENDBLK
  5
14D52
330
14C17
100
AcDbEntity
  8
0
 48
50.0
100
AcDbBlockEnd
  0
BLOCK
  5
14D53
330
14C25
100
AcDbEntity
  8
0
 48
50.0
100
AcDbBlockBegin
  2
*D10
 70
     1
 10
0.0
 20
0.0
 30
0.0
  3
*D10
  1

  0
LINE
  5
15C9D
330
14C25
100
AcDbEntity
  8
寸法
 62
     0
 48
50.0
370
    -2
100
AcDbLine
 10
7099.484998239408
 20
9314.545031521218
 30
0.0
 11
8096.022874789495
 21
9314.545031521218
 31
0.0
  0
LINE
  5
15C9E
330
14C25
100
AcDbEntity
  8
寸法
 62
     0
 48
50.0
370
    -2
100
AcDbLine
 10
7099.484998239383
 20
7944.545031521204
 30
0.0
 11
8096.022874789495
 21
7944.545031521204
 31
0.0
  0
LINE
  5
15C9F
330
14C25
100
AcDbEntity
  8
寸法
 62
     0
 48
50.0
370
    -2
100
AcDbLine
 10
8036.022874789495
 20
9314.545031521218
 30
0.0
 11
8036.022874789495
 21
7944.545031521204
 31
0.0
  0
INSERT
  5
15CA0
330
14C25
100
AcDbEntity
  8
寸法
 62
     0
 48
50.0
370
    -2
100
AcDbBlockReference
  2
_DOTSMALL
 10
8036.022874789495
 20
9314.545031521218
 30
0.0
 41
100.0
 42
100.0
 43
100.0
 50
90.0
  0
INSERT
  5
15CA1
330
14C25
100
AcDbEntity
  8
寸法
 62
     0
 48
50.0
370
    -2
100
AcDbBlockReference
  2
_DOTSMALL
 10
8036.022874789495
 20
7944.545031521204
 30
0.0
 41
100.0
 42
100.0
 43
100.0
 50
270.0
  0
MTEXT
  5
15CA2
330
14C25
100
AcDbEntity
  8
寸法
 62
     7
 48
50.0
100
AcDbMText
 10
7936.022874789495
 20
8629.54503152121
 30
0.0
 40
120.0
 41
0.0
 71
     5
 72
     1
  1
\A1;1370
  7
STYLE1
 11
0.0000000000000001
 21
1.0
 31
0.0
 73
     1
 44
1.0
1001
ACAD
1000
MTEXTBEGIN
1070
    73
1070
     1
1070
    44
1040
1.0
1070
    74
1070
     0
1000
MTEXTEND
  0
POINT
  5
15CA3
330
14C25
100
AcDbEntity
  8
DEFPOINTS
 62
     0
 48
50.0
100
AcDbPoint
 10
7079.484998239408
 20
9314.545031521218
 30
0.0
  0
POINT
  5
15CA4
330
14C25
100
AcDbEntity
  8
DEFPOINTS
 62
     0
 48
50.0
100
AcDbPoint
 10
7079.484998239383
 20
7944.545031521204
 30
0.0
  0
POINT
  5
15CA5
330
14C25
100
AcDbEntity
  8
DEFPOINTS
 62
     0
 48
50.0
100
AcDbPoint
 10
8036.022874789495
 20
7944.545031521204
 30
0.0
  0
ENDBLK
  5
14D5D
330
14C25
100
AcDbEntity
  8
0
 48
50.0
100
AcDbBlockEnd
  0
BLOCK
  5
14D5E
330
14C31
100
AcDbEntity
  8
0
 48
50.0
100
AcDbBlockBegin
  2
*D11
 70
     1
 10
0.0
 20
0.0
 30
0.0
  3
*D11
  1

  0
LINE
  5
15C94
330
14C31
100
AcDbEntity
  8
寸法
 62
     0
 48
50.0
370
    -2
100
AcDbLine
 10
7099.484998239408
 20
9259.545031521218
 30
0.0
 11
7786.911343973819
 21
9259.545031521218
 31
0.0
  0
LINE
  5
15C95
330
14C31
100
AcDbEntity
  8
寸法
 62
     0
 48
50.0
370
    -2
100
AcDbLine
 10
7099.484998239383
 20
7999.545031521204
 30
0.0
 11
7786.911343973819
 21
7999.545031521204
 31
0.0
  0
LINE
  5
15C96
330
14C31
100
AcDbEntity
  8
寸法
 62
     0
 48
50.0
370
    -2
100
AcDbLine
 10
7726.911343973819
 20
9259.545031521218
 30
0.0
 11
7726.911343973819
 21
7999.545031521204
 31
0.0
  0
INSERT
  5
15C97
330
14C31
100
AcDbEntity
  8
寸法
 62
     0
 48
50.0
370
    -2
100
AcDbBlockReference
  2
_DOTSMALL
 10
7726.911343973819
 20
9259.545031521218
 30
0.0
 41
100.0
 42
100.0
 43
100.0
 50
90.0
  0
INSERT
  5
15C98
330
14C31
100
AcDbEntity
  8
寸法
 62
     0
 48
50.0
370
    -2
100
AcDbBlockReference
  2
_DOTSMALL
 10
7726.911343973819
 20
7999.545031521204
 30
0.0
 41
100.0
 42
100.0
 43
100.0
 50
270.0
  0
MTEXT
  5
15C99
330
14C31
100
AcDbEntity
  8
寸法
 62
     7
 48
50.0
100
AcDbMText
 10
7626.899532950196
 20
8629.54503152121
 30
0.0
 40
120.0
 41
0.0
 71
     5
 72
     1
  1
\A1;3X420=1260
  7
STYLE1
 11
0.0000000000000001
 21
1.0
 31
0.0
 73
     1
 44
1.0
1001
ACAD
1000
MTEXTBEGIN
1070
    73
1070
     1
1070
    44
1040
1.0
1070
    74
1070
     0
1000
MTEXTEND
  0
POINT
  5
15C9A
330
14C31
100
AcDbEntity
  8
DEFPOINTS
 62
     0
 48
50.0
100
AcDbPoint
 10
7079.484998239408
 20
9259.545031521218
 30
0.0
  0
POINT
  5
15C9B
330
14C31
100
AcDbEntity
  8
DEFPOINTS
 62
     0
 48
50.0
100
AcDbPoint
 10
7079.484998239383
 20
7999.545031521204
 30
0.0
  0
POINT
  5
15C9C
330
14C31
100
AcDbEntity
  8
DEFPOINTS
 62
     0
 48
50.0
100
AcDbPoint
 10
7726.911343973819
 20
7999.545031521204
 30
0.0
  0
ENDBLK
  5
14D68
330
14C31
100
AcDbEntity
  8
0
 48
50.0
100
AcDbBlockEnd
  0
BLOCK
  5
14D69
330
14C3D
100
AcDbEntity
  8
0
 48
50.0
100
AcDbBlockBegin
  2
*D12
 70
     1
 10
0.0
 20
0.0
 30
0.0
  3
*D12
  1

  0
LINE
  5
15C8B
330
14C3D
100
AcDbEntity
  8
寸法
 62
     0
 48
50.0
370
    -2
100
AcDbLine
 10
7069.984998239343
 20
9279.686047672546
 30
0.0
 11
7465.342724101367
 21
9173.750264306411
 31
0.0
  0
LINE
  5
15C8C
330
14C3D
100
AcDbEntity
  8
寸法
 62
     0
 48
50.0
370
    -2
100
AcDbLine
 10
7069.984998239343
 20
8829.686047672545
 30
0.0
 11
7465.342724101367
 21
8723.75026430641
 31
0.0
  0
LINE
  5
15C8D
330
14C3D
100
AcDbEntity
  8
寸法
 62
     0
 48
50.0
370
    -2
100
AcDbLine
 10
7405.342724101366
 20
9189.827215852277
 30
0.0
 11
7405.342724101366
 21
8739.827215852278
 31
0.0
  0
INSERT
  5
15C8E
330
14C3D
100
AcDbEntity
  8
寸法
 62
     0
 48
50.0
370
    -2
100
AcDbBlockReference
  2
_DOTSMALL
 10
7405.342724101366
 20
9189.827215852277
 30
0.0
 41
100.0
 42
100.0
 43
100.0
 50
90.0
  0
INSERT
  5
15C8F
330
14C3D
100
AcDbEntity
  8
寸法
 62
     0
 48
50.0
370
    -2
100
AcDbBlockReference
  2
_DOTSMALL
 10
7405.342724101366
 20
8739.827215852278
 30
0.0
 41
100.0
 42
100.0
 43
100.0
 50
270.0
  0
MTEXT
  5
15C90
330
14C3D
100
AcDbEntity
  8
寸法
 62
     7
 48
50.0
100
AcDbMText
 10
7305.342724101366
 20
8964.827215852279
 30
0.0
 40
120.0
 41
0.0
 71
     5
 72
     1
  1
\A1;450
  7
STYLE1
 11
0.0000000000000001
 21
1.0
 31
0.0
 73
     1
 44
1.0
1001
ACAD
1000
MTEXTBEGIN
1070
    73
1070
     1
1070
    44
1040
1.0
1070
    74
1070
     0
1000
MTEXTEND
  0
POINT
  5
15C91
330
14C3D
100
AcDbEntity
  8
DEFPOINTS
 62
     0
 48
50.0
100
AcDbPoint
 10
7049.984998239342
 20
9285.045031521168
 30
0.0
  0
POINT
  5
15C92
330
14C3D
100
AcDbEntity
  8
DEFPOINTS
 62
     0
 48
50.0
100
AcDbPoint
 10
7049.984998239342
 20
8835.045031521167
 30
0.0
  0
POINT
  5
15C93
330
14C3D
100
AcDbEntity
  8
DEFPOINTS
 62
     0
 48
50.0
100
AcDbPoint
 10
7405.342724101366
 20
8739.827215852278
 30
0.0
  0
ENDBLK
  5
14D73
330
14C3D
100
AcDbEntity
  8
0
 48
50.0
100
AcDbBlockEnd
  0
BLOCK
  5
14E3C
330
14E3B
100
AcDbEntity
  8
0
 48
50.0
100
AcDbBlockBegin
  2
*D13
 70
     1
 10
0.0
 20
0.0
 30
0.0
  3
*D13
  1

  0
LINE
  5
15C82
330
14E3B
100
AcDbEntity
  8
寸法
 62
     0
 48
50.0
370
    -2
100
AcDbLine
 10
6314.484998239404
 20
7924.545031521117
 30
0.0
 11
6314.484998239404
 21
7444.721363726038
 31
0.0
  0
LINE
  5
15C83
330
14E3B
100
AcDbEntity
  8
寸法
 62
     0
 48
50.0
370
    -2
100
AcDbLine
 10
6999.484998239402
 20
7924.545031521081
 30
0.0
 11
6999.484998239402
 21
7444.721363726038
 31
0.0
  0
LINE
  5
15C84
330
14E3B
100
AcDbEntity
  8
寸法
 62
     0
 48
50.0
370
    -2
100
AcDbLine
 10
6314.484998239404
 20
7504.72136372604
 30
0.0
 11
6999.484998239402
 21
7504.72136372604
 31
0.0
  0
INSERT
  5
15C85
330
14E3B
100
AcDbEntity
  8
寸法
 62
     0
 48
50.0
370
    -2
100
AcDbBlockReference
  2
_DOTSMALL
 10
6314.484998239404
 20
7504.72136372604
 30
0.0
 41
100.0
 42
100.0
 43
100.0
 50
180.0
  0
INSERT
  5
15C86
330
14E3B
100
AcDbEntity
  8
寸法
 62
     0
 48
50.0
370
    -2
100
AcDbBlockReference
  2
_DOTSMALL
 10
6999.484998239402
 20
7504.72136372604
 30
0.0
 41
100.0
 42
100.0
 43
100.0
  0
MTEXT
  5
15C87
330
14E3B
100
AcDbEntity
  8
寸法
 62
     7
 48
50.0
100
AcDbMText
 10
6656.984998239403
 20
7704.72136372604
 30
0.0
 40
120.0
 41
0.0
 71
     5
 72
     1
  1
\A1;有効開口部間口\P685
  7
STYLE1
 73
     1
 44
1.0
1001
ACAD
1000
MTEXTBEGIN
1070
    73
1070
     1
1070
    44
1040
1.0
1070
    74
1070
     0
1000
MTEXTEND
  0
POINT
  5
15C88
330
14E3B
100
AcDbEntity
  8
DEFPOINTS
 62
     0
 48
50.0
100
AcDbPoint
 10
6314.484998239404
 20
7944.545031521116
 30
0.0
  0
POINT
  5
15C89
330
14E3B
100
AcDbEntity
  8
DEFPOINTS
 62
     0
 48
50.0
100
AcDbPoint
 10
6999.484998239402
 20
7944.54503152108
 30
0.0
  0
POINT
  5
15C8A
330
14E3B
100
AcDbEntity
  8
DEFPOINTS
 62
     0
 48
50.0
100
AcDbPoint
 10
6999.484998239402
 20
7504.72136372604
 30
0.0
  0
ENDBLK
  5
14E46
330
14E3B
100
AcDbEntity
  8
0
 48
50.0
100
AcDbBlockEnd
  0
BLOCK
  5
14EDC
330
14ED0
100
AcDbEntity
  8
0
 48
50.0
100
AcDbBlockBegin
  2
*D14
 70
     1
 10
0.0
 20
0.0
 30
0.0
  3
*D14
  1

  0
LINE
  5
15C79
330
14ED0
100
AcDbEntity
  8
寸法
 62
     0
 48
50.0
370
    -2
100
AcDbLine
 10
5494.484998239404
 20
7924.545031521117
 30
0.0
 11
5494.484998239404
 21
7444.721363726038
 31
0.0
  0
LINE
  5
15C7A
330
14ED0
100
AcDbEntity
  8
寸法
 62
     0
 48
50.0
370
    -2
100
AcDbLine
 10
6179.4849982394
 20
7924.545031521081
 30
0.0
 11
6179.4849982394
 21
7444.721363726038
 31
0.0
  0
LINE
  5
15C7B
330
14ED0
100
AcDbEntity
  8
寸法
 62
     0
 48
50.0
370
    -2
100
AcDbLine
 10
5494.484998239404
 20
7504.72136372604
 30
0.0
 11
6179.4849982394
 21
7504.72136372604
 31
0.0
  0
INSERT
  5
15C7C
330
14ED0
100
AcDbEntity
  8
寸法
 62
     0
 48
50.0
370
    -2
100
AcDbBlockReference
  2
_DOTSMALL
 10
5494.484998239404
 20
7504.72136372604
 30
0.0
 41
100.0
 42
100.0
 43
100.0
 50
180.0
  0
INSERT
  5
15C7D
330
14ED0
100
AcDbEntity
  8
寸法
 62
     0
 48
50.0
370
    -2
100
AcDbBlockReference
  2
_DOTSMALL
 10
6179.4849982394
 20
7504.72136372604
 30
0.0
 41
100.0
 42
100.0
 43
100.0
  0
MTEXT
  5
15C7E
330
14ED0
100
AcDbEntity
  8
寸法
 62
     7
 48
50.0
100
AcDbMText
 10
5836.984998239403
 20
7604.72136372604
 30
0.0
 40
120.0
 41
0.0
 71
     5
 72
     1
  1
\A1;685
  7
STYLE1
 73
     1
 44
1.0
1001
ACAD
1000
MTEXTBEGIN
1070
    73
1070
     1
1070
    44
1040
1.0
1070
    74
1070
     0
1000
MTEXTEND
  0
POINT
  5
15C7F
330
14ED0
100
AcDbEntity
  8
DEFPOINTS
 62
     0
 48
50.0
100
AcDbPoint
 10
5494.484998239404
 20
7944.545031521116
 30
0.0
  0
POINT
  5
15C80
330
14ED0
100
AcDbEntity
  8
DEFPOINTS
 62
     0
 48
50.0
100
AcDbPoint
 10
6179.4849982394
 20
7944.54503152108
 30
0.0
  0
POINT
  5
15C81
330
14ED0
100
AcDbEntity
  8
DEFPOINTS
 62
     0
 48
50.0
100
AcDbPoint
 10
6179.4849982394
 20
7504.72136372604
 30
0.0
  0
ENDBLK
  5
14EE6
330
14ED0
100
AcDbEntity
  8
0
 48
50.0
100
AcDbBlockEnd
  0
BLOCK
  5
14F19
330
14F18
100
AcDbEntity
  8
0
 48
50.0
100
AcDbBlockBegin
  2
*D15
 70
     1
 10
0.0
 20
0.0
 30
0.0
  3
*D15
  1

  0
LINE
  5
164B2
330
14F18
100
AcDbEntity
  8
寸法
 62
     0
 48
50.0
370
    -2
100
AcDbLine
 10
5463.626021068417
 20
8815.045031521131
 30
0.0
 11
5354.972623537586
 21
8409.545031521096
 31
0.0
  0
LINE
  5
164B3
330
14F18
100
AcDbEntity
  8
寸法
 62
     0
 48
50.0
370
    -2
100
AcDbLine
 10
6224.626021068431
 20
8815.045031521124
 30
0.0
 11
6115.972623537601
 21
8409.545031521096
 31
0.0
  0
LINE
  5
164B4
330
14F18
100
AcDbEntity
  8
寸法
 62
     0
 48
50.0
370
    -2
100
AcDbLine
 10
5371.049575083454
 20
8469.545031521095
 30
0.0
 11
6132.049575083469
 21
8469.545031521095
 31
0.0
  0
INSERT
  5
164B5
330
14F18
100
AcDbEntity
  8
寸法
 62
     0
 48
50.0
370
    -2
100
AcDbBlockReference
  2
_DOTSMALL
 10
5371.049575083454
 20
8469.545031521095
 30
0.0
 41
100.0
 42
100.0
 43
100.0
 50
180.0
  0
INSERT
  5
164B6
330
14F18
100
AcDbEntity
  8
寸法
 62
     0
 48
50.0
370
    -2
100
AcDbBlockReference
  2
_DOTSMALL
 10
6132.049575083469
 20
8469.545031521095
 30
0.0
 41
100.0
 42
100.0
 43
100.0
  0
MTEXT
  5
164B7
330
14F18
100
AcDbEntity
  8
寸法
 62
     7
 48
50.0
100
AcDbMText
 10
5751.491859890921
 20
8569.545031521094
 30
0.0
 40
120.0
 41
0.0
 71
     5
 72
     1
  1
\A1;761
  7
STYLE1
 73
     1
 44
1.0
1001
ACAD
1000
MTEXTBEGIN
1070
    73
1070
     1
1070
    44
1040
1.0
1070
    74
1070
     0
1000
MTEXTEND
  0
POINT
  5
164B8
330
14F18
100
AcDbEntity
  8
DEFPOINTS
 62
     0
 48
50.0
100
AcDbPoint
 10
5468.98500491704
 20
8835.045031521131
 30
0.0
  0
POINT
  5
164B9
330
14F18
100
AcDbEntity
  8
DEFPOINTS
 62
     0
 48
50.0
100
AcDbPoint
 10
6229.985004917053
 20
8835.045031521124
 30
0.0
  0
POINT
  5
164BA
330
14F18
100
AcDbEntity
  8
DEFPOINTS
 62
     0
 48
50.0
100
AcDbPoint
 10
6132.049575083469
 20
8469.545031521095
 30
0.0
  0
ENDBLK
  5
14F23
330
14F18
100
AcDbEntity
  8
0
 48
50.0
100
AcDbBlockEnd
  0
BLOCK
  5
15000
330
14FFF
100
AcDbEntity
  8
0
100
AcDbBlockBegin
  2
_OPEN
 70
     0
 10
0.0
 20
0.0
 30
0.0
  3
_OPEN
  1

  0
LINE
  5
15001
330
14FFF
100
AcDbEntity
  8
0
  6
ByBlock
 62
     0
100
AcDbLine
 10
-1.0
 20
0.1666666666666666
 30
0.0
 11
0.0
 21
0.0
 31
0.0
  0
LINE
  5
15002
330
14FFF
100
AcDbEntity
  8
0
  6
ByBlock
 62
     0
100
AcDbLine
 10
0.0
 20
0.0
 30
0.0
 11
-1.0
 21
-0.1666666666666666
 31
0.0
  0
LINE
  5
15003
330
14FFF
100
AcDbEntity
  8
0
  6
ByBlock
 62
     0
100
AcDbLine
 10
0.0
 20
0.0
 30
0.0
 11
-1.0
 21
0.0
 31
0.0
  0
ENDBLK
  5
15004
330
14FFF
100
AcDbEntity
  8
0
100
AcDbBlockEnd
  0
BLOCK
  5
15006
330
15005
100
AcDbEntity
  8
0
 48
50.0
100
AcDbBlockBegin
  2
_DOT
 70
     0
 10
0.0
 20
0.0
 30
0.0
  3
_DOT
  1

  0
LWPOLYLINE
  5
15007
330
15005
100
AcDbEntity
  8
0
  6
ByBlock
 62
     0
 48
50.0
100
AcDbPolyline
 90
        2
 70
     1
 43
0.5
 10
-0.25
 20
0.0
 42
1.0
 10
0.25
 20
0.0
 42
1.0
  0
LINE
  5
15008
330
15005
100
AcDbEntity
  8
0
  6
ByBlock
 62
     0
 48
50.0
100
AcDbLine
 10
-0.5
 20
0.0
 30
0.0
 11
-1.0
 21
0.0
 31
0.0
  0
ENDBLK
  5
15009
330
15005
100
AcDbEntity
  8
0
 48
50.0
100
AcDbBlockEnd
  0
BLOCK
  5
154B7
330
154AB
100
AcDbEntity
  8
0
 48
50.0
100
AcDbBlockBegin
  2
*D18
 70
     1
 10
0.0
 20
0.0
 30
0.0
  3
*D18
  1

  0
LINE
  5
15C65
330
154AB
100
AcDbEntity
  8
寸法
 62
     0
 48
50.0
370
    -2
100
AcDbLine
 10
7129.484998239404
 20
5252.756393306555
 30
0.0
 11
7129.484998239404
 21
5505.297978564795
 31
0.0
  0
LINE
  5
15C66
330
154AB
100
AcDbEntity
  8
寸法
 62
     0
 48
50.0
370
    -2
100
AcDbLine
 10
7079.484998239404
 20
5252.756393306555
 30
0.0
 11
7079.484998239404
 21
5505.297978564795
 31
0.0
  0
LINE
  5
15C67
330
154AB
100
AcDbEntity
  8
寸法
 62
     0
 48
50.0
370
    -2
100
AcDbLine
 10
7079.484998239404
 20
5445.297978564795
 30
0.0
 11
6979.484998239404
 21
5445.297978564795
 31
0.0
  0
LINE
  5
15C68
330
154AB
100
AcDbEntity
  8
寸法
 62
     0
 48
50.0
370
    -2
100
AcDbLine
 10
7129.484998239404
 20
5445.297978564795
 30
0.0
 11
7549.017523708129
 21
5445.297978564795
 31
0.0
  0
LINE
  5
15C69
330
154AB
100
AcDbEntity
  8
寸法
 62
     0
 48
50.0
370
    -2
100
AcDbLine
 10
7079.484998239404
 20
5445.297978564795
 30
0.0
 11
7129.484998239404
 21
5445.297978564795
 31
0.0
  0
INSERT
  5
15C6A
330
154AB
100
AcDbEntity
  8
寸法
 62
     0
 48
50.0
370
    -2
100
AcDbBlockReference
  2
_DOTSMALL
 10
7079.484998239404
 20
5445.297978564795
 30
0.0
 41
100.0
 42
100.0
 43
100.0
  0
INSERT
  5
15C6B
330
154AB
100
AcDbEntity
  8
寸法
 62
     0
 48
50.0
370
    -2
100
AcDbBlockReference
  2
_DOTSMALL
 10
7129.484998239404
 20
5445.297978564795
 30
0.0
 41
100.0
 42
100.0
 43
100.0
 50
180.0
  0
MTEXT
  5
15C6C
330
154AB
100
AcDbEntity
  8
寸法
 62
     7
 48
50.0
100
AcDbMText
 10
7442.970279613641
 20
5545.297978564795
 30
0.0
 40
120.0
 41
0.0
 71
     5
 72
     1
  1
\A1;50
  7
STYLE1
 73
     1
 44
1.0
1001
ACAD
1000
MTEXTBEGIN
1070
    73
1070
     1
1070
    44
1040
1.0
1070
    74
1070
     0
1000
MTEXTEND
  0
POINT
  5
15C6D
330
154AB
100
AcDbEntity
  8
DEFPOINTS
 62
     0
 48
50.0
100
AcDbPoint
 10
7129.484998239404
 20
5232.756393306554
 30
0.0
  0
POINT
  5
15C6E
330
154AB
100
AcDbEntity
  8
DEFPOINTS
 62
     0
 48
50.0
100
AcDbPoint
 10
7079.484998239404
 20
5232.756393306556
 30
0.0
  0
POINT
  5
15C6F
330
154AB
100
AcDbEntity
  8
DEFPOINTS
 62
     0
 48
50.0
100
AcDbPoint
 10
7079.484998239404
 20
5445.297978564795
 30
0.0
  0
ENDBLK
  5
154B8
330
154AB
100
AcDbEntity
  8
0
 48
50.0
100
AcDbBlockEnd
  0
BLOCK
  5
154C5
330
154B9
100
AcDbEntity
  8
0
 48
50.0
100
AcDbBlockBegin
  2
*D19
 70
     1
 10
0.0
 20
0.0
 30
0.0
  3
*D19
  1

  0
LINE
  5
15C5A
330
154B9
100
AcDbEntity
  8
寸法
 62
     0
 48
50.0
370
    -2
100
AcDbLine
 10
5439.4849982394
 20
5252.756393306562
 30
0.0
 11
5439.4849982394
 21
5505.297978564798
 31
0.0
  0
LINE
  5
15C5B
330
154B9
100
AcDbEntity
  8
寸法
 62
     0
 48
50.0
370
    -2
100
AcDbLine
 10
5389.4849982394
 20
5252.756393306559
 30
0.0
 11
5389.4849982394
 21
5505.297978564798
 31
0.0
  0
LINE
  5
15C5C
330
154B9
100
AcDbEntity
  8
寸法
 62
     0
 48
50.0
370
    -2
100
AcDbLine
 10
5439.4849982394
 20
5445.297978564799
 30
0.0
 11
5539.484998239401
 21
5445.297978564799
 31
0.0
  0
LINE
  5
15C5D
330
154B9
100
AcDbEntity
  8
寸法
 62
     0
 48
50.0
370
    -2
100
AcDbLine
 10
5389.4849982394
 20
5445.297978564799
 30
0.0
 11
4969.952472770666
 21
5445.297978564799
 31
0.0
  0
LINE
  5
15C5E
330
154B9
100
AcDbEntity
  8
寸法
 62
     0
 48
50.0
370
    -2
100
AcDbLine
 10
5439.4849982394
 20
5445.297978564799
 30
0.0
 11
5389.4849982394
 21
5445.297978564799
 31
0.0
  0
INSERT
  5
15C5F
330
154B9
100
AcDbEntity
  8
寸法
 62
     0
 48
50.0
370
    -2
100
AcDbBlockReference
  2
_DOTSMALL
 10
5439.4849982394
 20
5445.297978564799
 30
0.0
 41
100.0
 42
100.0
 43
100.0
 50
180.0
  0
INSERT
  5
15C60
330
154B9
100
AcDbEntity
  8
寸法
 62
     0
 48
50.0
370
    -2
100
AcDbBlockReference
  2
_DOTSMALL
 10
5389.4849982394
 20
5445.297978564799
 30
0.0
 41
100.0
 42
100.0
 43
100.0
  0
MTEXT
  5
15C61
330
154B9
100
AcDbEntity
  8
寸法
 62
     7
 48
50.0
100
AcDbMText
 10
5075.999716865154
 20
5545.297978564798
 30
0.0
 40
120.0
 41
0.0
 71
     5
 72
     1
  1
\A1;50
  7
STYLE1
 73
     1
 44
1.0
1001
ACAD
1000
MTEXTBEGIN
1070
    73
1070
     1
1070
    44
1040
1.0
1070
    74
1070
     0
1000
MTEXTEND
  0
POINT
  5
15C62
330
154B9
100
AcDbEntity
  8
DEFPOINTS
 62
     0
 48
50.0
100
AcDbPoint
 10
5439.4849982394
 20
5232.756393306561
 30
0.0
  0
POINT
  5
15C63
330
154B9
100
AcDbEntity
  8
DEFPOINTS
 62
     0
 48
50.0
100
AcDbPoint
 10
5389.4849982394
 20
5232.756393306559
 30
0.0
  0
POINT
  5
15C64
330
154B9
100
AcDbEntity
  8
DEFPOINTS
 62
     0
 48
50.0
100
AcDbPoint
 10
5389.4849982394
 20
5445.297978564799
 30
0.0
  0
ENDBLK
  5
154C6
330
154B9
100
AcDbEntity
  8
0
 48
50.0
100
AcDbBlockEnd
  0
BLOCK
  5
154D1
330
154C7
100
AcDbEntity
  8
0
 48
50.0
100
AcDbBlockBegin
  2
*D20
 70
     1
 10
0.0
 20
0.0
 30
0.0
  3
*D20
  1

  0
LINE
  5
15C51
330
154C7
100
AcDbEntity
  8
寸法
 62
     0
 48
50.0
370
    -2
100
AcDbLine
 10
7079.484998239404
 20
5252.756393306555
 30
0.0
 11
7079.484998239404
 21
5505.297978564798
 31
0.0
  0
LINE
  5
15C52
330
154C7
100
AcDbEntity
  8
寸法
 62
     0
 48
50.0
370
    -2
100
AcDbLine
 10
5439.4849982394
 20
5252.756393306562
 30
0.0
 11
5439.4849982394
 21
5505.297978564798
 31
0.0
  0
LINE
  5
15C53
330
154C7
100
AcDbEntity
  8
寸法
 62
     0
 48
50.0
370
    -2
100
AcDbLine
 10
7079.484998239404
 20
5445.297978564799
 30
0.0
 11
5439.4849982394
 21
5445.297978564799
 31
0.0
  0
INSERT
  5
15C54
330
154C7
100
AcDbEntity
  8
寸法
 62
     0
 48
50.0
370
    -2
100
AcDbBlockReference
  2
_DOTSMALL
 10
7079.484998239404
 20
5445.297978564799
 30
0.0
 41
100.0
 42
100.0
 43
100.0
  0
INSERT
  5
15C55
330
154C7
100
AcDbEntity
  8
寸法
 62
     0
 48
50.0
370
    -2
100
AcDbBlockReference
  2
_DOTSMALL
 10
5439.4849982394
 20
5445.297978564799
 30
0.0
 41
100.0
 42
100.0
 43
100.0
 50
180.0
  0
MTEXT
  5
15C56
330
154C7
100
AcDbEntity
  8
寸法
 62
     7
 48
50.0
100
AcDbMText
 10
6275.858403643506
 20
5545.297978564798
 30
0.0
 40
120.0
 41
0.0
 71
     5
 72
     1
  1
\A1;柱外寸法1640
  7
STYLE1
 73
     1
 44
1.0
1001
ACAD
1000
MTEXTBEGIN
1070
    73
1070
     1
1070
    44
1040
1.0
1070
    74
1070
     0
1000
MTEXTEND
  0
POINT
  5
15C57
330
154C7
100
AcDbEntity
  8
DEFPOINTS
 62
     0
 48
50.0
100
AcDbPoint
 10
7079.484998239404
 20
5232.756393306556
 30
0.0
  0
POINT
  5
15C58
330
154C7
100
AcDbEntity
  8
DEFPOINTS
 62
     0
 48
50.0
100
AcDbPoint
 10
5439.4849982394
 20
5232.756393306561
 30
0.0
  0
POINT
  5
15C59
330
154C7
100
AcDbEntity
  8
DEFPOINTS
 62
     0
 48
50.0
100
AcDbPoint
 10
5439.4849982394
 20
5445.297978564799
 30
0.0
  0
ENDBLK
  5
154D2
330
154C7
100
AcDbEntity
  8
0
 48
50.0
100
AcDbBlockEnd
  0
BLOCK
  5
154DD
330
154D3
100
AcDbEntity
  8
0
 48
50.0
100
AcDbBlockBegin
  2
*D21
 70
     1
 10
0.0
 20
0.0
 30
0.0
  3
*D21
  1

  0
LINE
  5
15C48
330
154D3
100
AcDbEntity
  8
寸法
 62
     0
 48
50.0
370
    -2
100
AcDbLine
 10
5389.4849982394
 20
5252.756393306559
 30
0.0
 11
5389.4849982394
 21
5728.254957002646
 31
0.0
  0
LINE
  5
15C49
330
154D3
100
AcDbEntity
  8
寸法
 62
     0
 48
50.0
370
    -2
100
AcDbLine
 10
7129.484998239404
 20
5252.756393306555
 30
0.0
 11
7129.484998239404
 21
5728.254957002646
 31
0.0
  0
LINE
  5
15C4A
330
154D3
100
AcDbEntity
  8
寸法
 62
     0
 48
50.0
370
    -2
100
AcDbLine
 10
5389.4849982394
 20
5668.254957002646
 30
0.0
 11
7129.484998239404
 21
5668.254957002646
 31
0.0
  0
INSERT
  5
15C4B
330
154D3
100
AcDbEntity
  8
寸法
 62
     0
 48
50.0
370
    -2
100
AcDbBlockReference
  2
_DOTSMALL
 10
5389.4849982394
 20
5668.254957002646
 30
0.0
 41
100.0
 42
100.0
 43
100.0
 50
180.0
  0
INSERT
  5
15C4C
330
154D3
100
AcDbEntity
  8
寸法
 62
     0
 48
50.0
370
    -2
100
AcDbBlockReference
  2
_DOTSMALL
 10
7129.484998239404
 20
5668.254957002646
 30
0.0
 41
100.0
 42
100.0
 43
100.0
  0
MTEXT
  5
15C4D
330
154D3
100
AcDbEntity
  8
寸法
 62
     7
 48
50.0
100
AcDbMText
 10
6241.583474075596
 20
5768.254957002646
 30
0.0
 40
120.0
 41
0.0
 71
     5
 72
     1
  1
\A1;1740
  7
STYLE1
 73
     1
 44
1.0
1001
ACAD
1000
MTEXTBEGIN
1070
    73
1070
     1
1070
    44
1040
1.0
1070
    74
1070
     0
1000
MTEXTEND
  0
POINT
  5
15C4E
330
154D3
100
AcDbEntity
  8
DEFPOINTS
 62
     0
 48
50.0
100
AcDbPoint
 10
5389.4849982394
 20
5232.756393306559
 30
0.0
  0
POINT
  5
15C4F
330
154D3
100
AcDbEntity
  8
DEFPOINTS
 62
     0
 48
50.0
100
AcDbPoint
 10
7129.484998239404
 20
5232.756393306554
 30
0.0
  0
POINT
  5
15C50
330
154D3
100
AcDbEntity
  8
DEFPOINTS
 62
     0
 48
50.0
100
AcDbPoint
 10
7129.484998239404
 20
5668.254957002646
 30
0.0
  0
ENDBLK
  5
154DE
330
154D3
100
AcDbEntity
  8
0
 48
50.0
100
AcDbBlockEnd
  0
BLOCK
  5
1560D
330
15603
100
AcDbEntity
  8
0
 48
50.0
100
AcDbBlockBegin
  2
*D22
 70
     1
 10
0.0
 20
0.0
 30
0.0
  3
*D22
  1

  0
LINE
  5
15C3F
330
15603
100
AcDbEntity
  8
寸法
 62
     0
 48
50.0
370
    -2
100
AcDbLine
 10
5419.484998239401
 20
4979.256393306553
 30
0.0
 11
5061.380470631798
 21
4979.256393306553
 31
0.0
  0
LINE
  5
15C40
330
15603
100
AcDbEntity
  8
寸法
 62
     0
 48
50.0
370
    -2
100
AcDbLine
 10
5419.484998239401
 20
3219.256393306557
 30
0.0
 11
5061.380470631798
 21
3219.256393306557
 31
0.0
  0
LINE
  5
15C41
330
15603
100
AcDbEntity
  8
寸法
 62
     0
 48
50.0
370
    -2
100
AcDbLine
 10
5121.380470631798
 20
4979.256393306553
 30
0.0
 11
5121.380470631798
 21
3219.256393306557
 31
0.0
  0
INSERT
  5
15C42
330
15603
100
AcDbEntity
  8
寸法
 62
     0
 48
50.0
370
    -2
100
AcDbBlockReference
  2
_DOTSMALL
 10
5121.380470631798
 20
4979.256393306553
 30
0.0
 41
100.0
 42
100.0
 43
100.0
 50
90.0
  0
INSERT
  5
15C43
330
15603
100
AcDbEntity
  8
寸法
 62
     0
 48
50.0
370
    -2
100
AcDbBlockReference
  2
_DOTSMALL
 10
5121.380470631798
 20
3219.256393306557
 30
0.0
 41
100.0
 42
100.0
 43
100.0
 50
270.0
  0
MTEXT
  5
15C44
330
15603
100
AcDbEntity
  8
寸法
 62
     7
 48
50.0
100
AcDbMText
 10
5021.380470631797
 20
4098.256393306554
 30
0.0
 40
120.0
 41
0.0
 71
     5
 72
     1
  1
\A1;有効開口部高サ1760
  7
STYLE1
 11
0.0000000000000001
 21
1.0
 31
0.0
 73
     1
 44
1.0
1001
ACAD
1000
MTEXTBEGIN
1070
    73
1070
     1
1070
    44
1040
1.0
1070
    74
1070
     0
1000
MTEXTEND
  0
POINT
  5
15C45
330
15603
100
AcDbEntity
  8
DEFPOINTS
 62
     0
 48
50.0
100
AcDbPoint
 10
5439.4849982394
 20
4979.256393306553
 30
0.0
  0
POINT
  5
15C46
330
15603
100
AcDbEntity
  8
DEFPOINTS
 62
     0
 48
50.0
100
AcDbPoint
 10
5439.4849982394
 20
3219.256393306557
 30
0.0
  0
POINT
  5
15C47
330
15603
100
AcDbEntity
  8
DEFPOINTS
 62
     0
 48
50.0
100
AcDbPoint
 10
5121.380470631798
 20
3219.256393306557
 30
0.0
  0
ENDBLK
  5
1560E
330
15603
100
AcDbEntity
  8
0
 48
50.0
100
AcDbBlockEnd
  0
BLOCK
  5
162CA
330
162C0
100
AcDbEntity
  8
0
 48
50.0
100
AcDbBlockBegin
  2
*D23
 70
     1
 10
0.0
 20
0.0
 30
0.0
  3
*D23
  1

  0
LINE
  5
16448
330
162C0
100
AcDbEntity
  8
寸法
 62
     0
 48
50.0
370
    -2
100
AcDbLine
 10
9446.356910799783
 20
3157.756393306554
 30
0.0
 11
8502.085099159303
 21
3157.756393306554
 31
0.0
  0
LINE
  5
16449
330
162C0
100
AcDbEntity
  8
寸法
 62
     0
 48
50.0
370
    -2
100
AcDbLine
 10
9386.356910799785
 20
5232.756393306558
 30
0.0
 11
8502.085099159305
 21
5232.756393306558
 31
0.0
  0
LINE
  5
1644A
330
162C0
100
AcDbEntity
  8
寸法
 62
     0
 48
50.0
370
    -2
100
AcDbLine
 10
8562.085099159302
 20
3157.756393306554
 30
0.0
 11
8562.085099159306
 21
5232.756393306558
 31
0.0
  0
INSERT
  5
1644B
330
162C0
100
AcDbEntity
  8
寸法
 62
     0
 48
50.0
370
    -2
100
AcDbBlockReference
  2
_DOTSMALL
 10
8562.085099159302
 20
3157.756393306554
 30
0.0
 41
100.0
 42
100.0
 43
100.0
 50
270.0
  0
INSERT
  5
1644C
330
162C0
100
AcDbEntity
  8
寸法
 62
     0
 48
50.0
370
    -2
100
AcDbBlockReference
  2
_DOTSMALL
 10
8562.085099159306
 20
5232.756393306558
 30
0.0
 41
100.0
 42
100.0
 43
100.0
 50
90.0
  0
MTEXT
  5
1644D
330
162C0
100
AcDbEntity
  8
寸法
 62
     7
 48
50.0
100
AcDbMText
 10
8462.073288135682
 20
4132.963383726355
 30
0.0
 40
120.0
 41
0.0
 71
     5
 72
     1
  1
\A1;2075
  7
STYLE1
 11
0.0000000000000001
 21
1.0
 31
0.0
 73
     1
 44
1.0
1001
ACAD
1000
MTEXTBEGIN
1070
    73
1070
     1
1070
    44
1040
1.0
1070
    74
1070
     0
1000
MTEXTEND
  0
POINT
  5
1644E
330
162C0
100
AcDbEntity
  8
DEFPOINTS
 62
     0
 48
50.0
100
AcDbPoint
 10
9466.356910799783
 20
3157.756393306554
 30
0.0
  0
POINT
  5
1644F
330
162C0
100
AcDbEntity
  8
DEFPOINTS
 62
     0
 48
50.0
100
AcDbPoint
 10
9406.356910799784
 20
5232.756393306558
 30
0.0
  0
POINT
  5
16450
330
162C0
100
AcDbEntity
  8
DEFPOINTS
 62
     0
 48
50.0
100
AcDbPoint
 10
8562.085099159306
 20
5232.756393306558
 30
0.0
  0
ENDBLK
  5
162CB
330
162C0
100
AcDbEntity
  8
0
 48
50.0
100
AcDbBlockEnd
  0
BLOCK
  5
162D8
330
162CC
100
AcDbEntity
  8
0
 48
50.0
100
AcDbBlockBegin
  2
*D24
 70
     1
 10
0.0
 20
0.0
 30
0.0
  3
*D24
  1

  0
LINE
  5
1643D
330
162CC
100
AcDbEntity
  8
寸法
 62
     0
 48
50.0
370
    -2
100
AcDbLine
 10
9439.354540755006
 20
3207.756393306556
 30
0.0
 11
8804.393820107581
 21
3207.756393306556
 31
0.0
  0
LINE
  5
1643E
330
162CC
100
AcDbEntity
  8
寸法
 62
     0
 48
50.0
370
    -2
100
AcDbLine
 10
9391.356910799784
 20
3157.756393306554
 30
0.0
 11
8804.393820107581
 21
3157.756393306554
 31
0.0
  0
LINE
  5
1643F
330
162CC
100
AcDbEntity
  8
寸法
 62
     0
 48
50.0
370
    -2
100
AcDbLine
 10
8864.393820107579
 20
3207.756393306556
 30
0.0
 11
8864.393820107579
 21
3307.756393306557
 31
0.0
  0
LINE
  5
16440
330
162CC
100
AcDbEntity
  8
寸法
 62
     0
 48
50.0
370
    -2
100
AcDbLine
 10
8864.393820107579
 20
3157.756393306554
 30
0.0
 11
8864.393820107579
 21
2745.661905117574
 31
0.0
  0
LINE
  5
16441
330
162CC
100
AcDbEntity
  8
寸法
 62
     0
 48
50.0
370
    -2
100
AcDbLine
 10
8864.393820107579
 20
3207.756393306556
 30
0.0
 11
8864.393820107579
 21
3157.756393306554
 31
0.0
  0
INSERT
  5
16442
330
162CC
100
AcDbEntity
  8
寸法
 62
     0
 48
50.0
370
    -2
100
AcDbBlockReference
  2
_DOTSMALL
 10
8864.393820107579
 20
3207.756393306556
 30
0.0
 41
100.0
 42
100.0
 43
100.0
 50
270.0
  0
INSERT
  5
16443
330
162CC
100
AcDbEntity
  8
寸法
 62
     0
 48
50.0
370
    -2
100
AcDbBlockReference
  2
_DOTSMALL
 10
8864.393820107579
 20
3157.756393306554
 30
0.0
 41
100.0
 42
100.0
 43
100.0
 50
90.0
  0
MTEXT
  5
16444
330
162CC
100
AcDbEntity
  8
寸法
 62
     7
 48
50.0
100
AcDbMText
 10
8764.39382010758
 20
2851.709149212064
 30
0.0
 40
120.0
 41
0.0
 71
     5
 72
     1
  1
\A1;50
  7
STYLE1
 11
0.0000000000000001
 21
1.0
 31
0.0
 73
     1
 44
1.0
1001
ACAD
1000
MTEXTBEGIN
1070
    73
1070
     1
1070
    44
1040
1.0
1070
    74
1070
     0
1000
MTEXTEND
  0
POINT
  5
16445
330
162CC
100
AcDbEntity
  8
DEFPOINTS
 62
     0
 48
50.0
100
AcDbPoint
 10
9459.354540755006
 20
3207.756393306556
 30
0.0
  0
POINT
  5
16446
330
162CC
100
AcDbEntity
  8
DEFPOINTS
 62
     0
 48
50.0
100
AcDbPoint
 10
9411.356910799783
 20
3157.756393306554
 30
0.0
  0
POINT
  5
16447
330
162CC
100
AcDbEntity
  8
DEFPOINTS
 62
     0
 48
50.0
100
AcDbPoint
 10
8864.393820107579
 20
3157.756393306554
 30
0.0
  0
ENDBLK
  5
162D9
330
162CC
100
AcDbEntity
  8
0
 48
50.0
100
AcDbBlockEnd
  0
BLOCK
  5
162E4
330
162DA
100
AcDbEntity
  8
0
 48
50.0
100
AcDbBlockBegin
  2
*D25
 70
     1
 10
0.0
 20
0.0
 30
0.0
  3
*D25
  1

  0
LINE
  5
16434
330
162DA
100
AcDbEntity
  8
寸法
 62
     0
 48
50.0
370
    -2
100
AcDbLine
 10
10856.35691079978
 20
3157.756393306554
 30
0.0
 11
11601.28406877191
 21
3157.756393306554
 31
0.0
  0
LINE
  5
16435
330
162DA
100
AcDbEntity
  8
寸法
 62
     0
 48
50.0
370
    -2
100
AcDbLine
 10
10936.35691079978
 20
5177.756393306554
 30
0.0
 11
11601.28406877191
 21
5177.756393306554
 31
0.0
  0
LINE
  5
16436
330
162DA
100
AcDbEntity
  8
寸法
 62
     0
 48
50.0
370
    -2
100
AcDbLine
 10
11541.28406877191
 20
3157.756393306554
 30
0.0
 11
11541.28406877191
 21
5177.756393306554
 31
0.0
  0
INSERT
  5
16437
330
162DA
100
AcDbEntity
  8
寸法
 62
     0
 48
50.0
370
    -2
100
AcDbBlockReference
  2
_DOTSMALL
 10
11541.28406877191
 20
3157.756393306554
 30
0.0
 41
100.0
 42
100.0
 43
100.0
 50
270.0
  0
INSERT
  5
16438
330
162DA
100
AcDbEntity
  8
寸法
 62
     0
 48
50.0
370
    -2
100
AcDbBlockReference
  2
_DOTSMALL
 10
11541.28406877191
 20
5177.756393306554
 30
0.0
 41
100.0
 42
100.0
 43
100.0
 50
90.0
  0
MTEXT
  5
16439
330
162DA
100
AcDbEntity
  8
寸法
 62
     7
 48
50.0
100
AcDbMText
 10
11441.27225774829
 20
4167.756393306556
 30
0.0
 40
120.0
 41
0.0
 71
     5
 72
     1
  1
\A1;2020
  7
STYLE1
 11
0.0000000000000001
 21
1.0
 31
0.0
 73
     1
 44
1.0
1001
ACAD
1000
MTEXTBEGIN
1070
    73
1070
     1
1070
    44
1040
1.0
1070
    74
1070
     0
1000
MTEXTEND
  0
POINT
  5
1643A
330
162DA
100
AcDbEntity
  8
DEFPOINTS
 62
     0
 48
50.0
100
AcDbPoint
 10
10836.35691079978
 20
3157.756393306554
 30
0.0
  0
POINT
  5
1643B
330
162DA
100
AcDbEntity
  8
DEFPOINTS
 62
     0
 48
50.0
100
AcDbPoint
 10
10916.35691079978
 20
5177.756393306554
 30
0.0
  0
POINT
  5
1643C
330
162DA
100
AcDbEntity
  8
DEFPOINTS
 62
     0
 48
50.0
100
AcDbPoint
 10
11541.28406877191
 20
5177.756393306554
 30
0.0
  0
ENDBLK
  5
162E5
330
162DA
100
AcDbEntity
  8
0
 48
50.0
100
AcDbBlockEnd
  0
BLOCK
  5
162F0
330
162E6
100
AcDbEntity
  8
0
 48
50.0
100
AcDbBlockBegin
  2
*D26
 70
     1
 10
0.0
 20
0.0
 30
0.0
  3
*D26
  1

  0
LINE
  5
1642B
330
162E6
100
AcDbEntity
  8
寸法
 62
     0
 48
50.0
370
    -2
100
AcDbLine
 10
10836.35691079978
 20
5199.567072918206
 30
0.0
 11
10836.35691079978
 21
5691.413846885857
 31
0.0
  0
LINE
  5
1642C
330
162E6
100
AcDbEntity
  8
寸法
 62
     0
 48
50.0
370
    -2
100
AcDbLine
 10
9466.356910799785
 20
5248.758011429529
 30
0.0
 11
9466.356910799785
 21
5691.413846885857
 31
0.0
  0
LINE
  5
1642D
330
162E6
100
AcDbEntity
  8
寸法
 62
     0
 48
50.0
370
    -2
100
AcDbLine
 10
10836.35691079978
 20
5631.413846885856
 30
0.0
 11
9466.356910799785
 21
5631.413846885856
 31
0.0
  0
INSERT
  5
1642E
330
162E6
100
AcDbEntity
  8
寸法
 62
     0
 48
50.0
370
    -2
100
AcDbBlockReference
  2
_DOTSMALL
 10
10836.35691079978
 20
5631.413846885856
 30
0.0
 41
100.0
 42
100.0
 43
100.0
  0
INSERT
  5
1642F
330
162E6
100
AcDbEntity
  8
寸法
 62
     0
 48
50.0
370
    -2
100
AcDbBlockReference
  2
_DOTSMALL
 10
9466.356910799785
 20
5631.413846885856
 30
0.0
 41
100.0
 42
100.0
 43
100.0
 50
180.0
  0
MTEXT
  5
16430
330
162E6
100
AcDbEntity
  8
寸法
 62
     7
 48
50.0
100
AcDbMText
 10
10116.17594369033
 20
5731.413846885857
 30
0.0
 40
120.0
 41
0.0
 71
     5
 72
     1
  1
\A1;柱外寸法1370
  7
STYLE1
 73
     1
 44
1.0
1001
ACAD
1000
MTEXTBEGIN
1070
    73
1070
     1
1070
    44
1040
1.0
1070
    74
1070
     0
1000
MTEXTEND
  0
POINT
  5
16431
330
162E6
100
AcDbEntity
  8
DEFPOINTS
 62
     0
 48
50.0
100
AcDbPoint
 10
10836.35691079978
 20
5179.567072918206
 30
0.0
  0
POINT
  5
16432
330
162E6
100
AcDbEntity
  8
DEFPOINTS
 62
     0
 48
50.0
100
AcDbPoint
 10
9466.356910799785
 20
5228.758011429529
 30
0.0
  0
POINT
  5
16433
330
162E6
100
AcDbEntity
  8
DEFPOINTS
 62
     0
 48
50.0
100
AcDbPoint
 10
9466.356910799785
 20
5631.413846885856
 30
0.0
  0
ENDBLK
  5
162F1
330
162E6
100
AcDbEntity
  8
0
 48
50.0
100
AcDbBlockEnd
  0
BLOCK
  5
162FE
330
162F2
100
AcDbEntity
  8
0
 48
50.0
100
AcDbBlockBegin
  2
*D27
 70
     1
 10
0.0
 20
0.0
 30
0.0
  3
*D27
  1

  0
LINE
  5
16420
330
162F2
100
AcDbEntity
  8
寸法
 62
     0
 48
50.0
370
    -2
100
AcDbLine
 10
9466.356910799785
 20
5248.758011429529
 30
0.0
 11
9466.356910799785
 21
5691.413846885857
 31
0.0
  0
LINE
  5
16421
330
162F2
100
AcDbEntity
  8
寸法
 62
     0
 48
50.0
370
    -2
100
AcDbLine
 10
9406.356910799784
 20
5252.756393306558
 30
0.0
 11
9406.356910799784
 21
5691.413846885857
 31
0.0
  0
LINE
  5
16422
330
162F2
100
AcDbEntity
  8
寸法
 62
     0
 48
50.0
370
    -2
100
AcDbLine
 10
9466.356910799785
 20
5631.413846885856
 30
0.0
 11
9566.356910799784
 21
5631.413846885856
 31
0.0
  0
LINE
  5
16423
330
162F2
100
AcDbEntity
  8
寸法
 62
     0
 48
50.0
370
    -2
100
AcDbLine
 10
9406.356910799784
 20
5631.413846885856
 30
0.0
 11
8987.081320248604
 21
5631.413846885856
 31
0.0
  0
LINE
  5
16424
330
162F2
100
AcDbEntity
  8
寸法
 62
     0
 48
50.0
370
    -2
100
AcDbLine
 10
9466.356910799785
 20
5631.413846885856
 30
0.0
 11
9406.356910799784
 21
5631.413846885856
 31
0.0
  0
INSERT
  5
16425
330
162F2
100
AcDbEntity
  8
寸法
 62
     0
 48
50.0
370
    -2
100
AcDbBlockReference
  2
_DOTSMALL
 10
9466.356910799785
 20
5631.413846885856
 30
0.0
 41
100.0
 42
100.0
 43
100.0
 50
180.0
  0
INSERT
  5
16426
330
162F2
100
AcDbEntity
  8
寸法
 62
     0
 48
50.0
370
    -2
100
AcDbBlockReference
  2
_DOTSMALL
 10
9406.356910799784
 20
5631.413846885856
 30
0.0
 41
100.0
 42
100.0
 43
100.0
  0
MTEXT
  5
16427
330
162F2
100
AcDbEntity
  8
寸法
 62
     7
 48
50.0
100
AcDbMText
 10
9096.719115524194
 20
5731.413846885857
 30
0.0
 40
120.0
 41
0.0
 71
     5
 72
     1
  1
\A1;60
  7
STYLE1
 73
     1
 44
1.0
1001
ACAD
1000
MTEXTBEGIN
1070
    73
1070
     1
1070
    44
1040
1.0
1070
    74
1070
     0
1000
MTEXTEND
  0
POINT
  5
16428
330
162F2
100
AcDbEntity
  8
DEFPOINTS
 62
     0
 48
50.0
100
AcDbPoint
 10
9466.356910799785
 20
5228.758011429529
 30
0.0
  0
POINT
  5
16429
330
162F2
100
AcDbEntity
  8
DEFPOINTS
 62
     0
 48
50.0
100
AcDbPoint
 10
9406.356910799784
 20
5232.756393306558
 30
0.0
  0
POINT
  5
1642A
330
162F2
100
AcDbEntity
  8
DEFPOINTS
 62
     0
 48
50.0
100
AcDbPoint
 10
9406.356910799784
 20
5631.413846885856
 30
0.0
  0
ENDBLK
  5
162FF
330
162F2
100
AcDbEntity
  8
0
 48
50.0
100
AcDbBlockEnd
  0
BLOCK
  5
1630A
330
16300
100
AcDbEntity
  8
0
 48
50.0
100
AcDbBlockBegin
  2
*D28
 70
     1
 10
0.0
 20
0.0
 30
0.0
  3
*D28
  1

  0
LINE
  5
16417
330
16300
100
AcDbEntity
  8
寸法
 62
     0
 48
50.0
370
    -2
100
AcDbLine
 10
10916.35691079978
 20
5197.756393306554
 30
0.0
 11
10916.35691079978
 21
5899.58816807782
 31
0.0
  0
LINE
  5
16418
330
16300
100
AcDbEntity
  8
寸法
 62
     0
 48
50.0
370
    -2
100
AcDbLine
 10
9406.356910799784
 20
5252.756393306558
 30
0.0
 11
9406.356910799784
 21
5899.58816807782
 31
0.0
  0
LINE
  5
16419
330
16300
100
AcDbEntity
  8
寸法
 62
     0
 48
50.0
370
    -2
100
AcDbLine
 10
10916.35691079978
 20
5839.58816807782
 30
0.0
 11
9406.356910799784
 21
5839.58816807782
 31
0.0
  0
INSERT
  5
1641A
330
16300
100
AcDbEntity
  8
寸法
 62
     0
 48
50.0
370
    -2
100
AcDbBlockReference
  2
_DOTSMALL
 10
10916.35691079978
 20
5839.58816807782
 30
0.0
 41
100.0
 42
100.0
 43
100.0
  0
INSERT
  5
1641B
330
16300
100
AcDbEntity
  8
寸法
 62
     0
 48
50.0
370
    -2
100
AcDbBlockReference
  2
_DOTSMALL
 10
9406.356910799784
 20
5839.58816807782
 30
0.0
 41
100.0
 42
100.0
 43
100.0
 50
180.0
  0
MTEXT
  5
1641C
330
16300
100
AcDbEntity
  8
寸法
 62
     7
 48
50.0
100
AcDbMText
 10
10133.48174050161
 20
5939.58816807782
 30
0.0
 40
120.0
 41
0.0
 71
     5
 72
     1
  1
\A1;1510
  7
STYLE1
 73
     1
 44
1.0
1001
ACAD
1000
MTEXTBEGIN
1070
    73
1070
     1
1070
    44
1040
1.0
1070
    74
1070
     0
1000
MTEXTEND
  0
POINT
  5
1641D
330
16300
100
AcDbEntity
  8
DEFPOINTS
 62
     0
 48
50.0
100
AcDbPoint
 10
10916.35691079978
 20
5177.756393306554
 30
0.0
  0
POINT
  5
1641E
330
16300
100
AcDbEntity
  8
DEFPOINTS
 62
     0
 48
50.0
100
AcDbPoint
 10
9406.356910799784
 20
5232.756393306558
 30
0.0
  0
POINT
  5
1641F
330
16300
100
AcDbEntity
  8
DEFPOINTS
 62
     0
 48
50.0
100
AcDbPoint
 10
9406.356910799784
 20
5839.58816807782
 30
0.0
  0
ENDBLK
  5
1630B
330
16300
100
AcDbEntity
  8
0
 48
50.0
100
AcDbBlockEnd
  0
BLOCK
  5
16317
330
1630C
100
AcDbEntity
  8
0
 48
50.0
100
AcDbBlockBegin
  2
*D29
 70
     1
 10
0.0
 20
0.0
 30
0.0
  3
*D29
  1

  0
LINE
  5
1640D
330
1630C
100
AcDbEntity
  8
寸法
 62
     0
 48
50.0
370
    -2
100
AcDbLine
 10
10836.35691079978
 20
5199.567072918206
 30
0.0
 11
10836.35691079978
 21
5691.413846885857
 31
0.0
  0
LINE
  5
1640E
330
1630C
100
AcDbEntity
  8
寸法
 62
     0
 48
50.0
370
    -2
100
AcDbLine
 10
10916.35691079978
 20
5197.756393306554
 30
0.0
 11
10916.35691079978
 21
5691.413846885857
 31
0.0
  0
LINE
  5
1640F
330
1630C
100
AcDbEntity
  8
寸法
 62
     0
 48
50.0
370
    -2
100
AcDbLine
 10
10836.35691079978
 20
5631.413846885856
 30
0.0
 11
10916.35691079978
 21
5631.413846885856
 31
0.0
  0
LINE
  5
16410
330
1630C
100
AcDbEntity
  8
寸法
 62
     0
 48
50.0
370
    -2
100
AcDbLine
 10
10916.35691079978
 20
5631.413846885856
 30
0.0
 11
11228.45139898876
 21
5631.413846885856
 31
0.0
  0
INSERT
  5
16411
330
1630C
100
AcDbEntity
  8
寸法
 62
     0
 48
50.0
370
    -2
100
AcDbBlockReference
  2
_DOTSMALL
 10
10836.35691079978
 20
5631.413846885856
 30
0.0
 41
100.0
 42
100.0
 43
100.0
 50
180.0
  0
INSERT
  5
16412
330
1630C
100
AcDbEntity
  8
寸法
 62
     0
 48
50.0
370
    -2
100
AcDbBlockReference
  2
_DOTSMALL
 10
10916.35691079978
 20
5631.413846885856
 30
0.0
 41
100.0
 42
100.0
 43
100.0
  0
MTEXT
  5
16413
330
1630C
100
AcDbEntity
  8
寸法
 62
     7
 48
50.0
100
AcDbMText
 10
11122.40415489427
 20
5731.413846885857
 30
0.0
 40
120.0
 41
0.0
 71
     5
 72
     1
  1
\A1;80
  7
STYLE1
 73
     1
 44
1.0
1001
ACAD
1000
MTEXTBEGIN
1070
    73
1070
     1
1070
    44
1040
1.0
1070
    74
1070
     0
1000
MTEXTEND
  0
POINT
  5
16414
330
1630C
100
AcDbEntity
  8
DEFPOINTS
 62
     0
 48
50.0
100
AcDbPoint
 10
10836.35691079978
 20
5179.567072918206
 30
0.0
  0
POINT
  5
16415
330
1630C
100
AcDbEntity
  8
DEFPOINTS
 62
     0
 48
50.0
100
AcDbPoint
 10
10916.35691079978
 20
5177.756393306554
 30
0.0
  0
POINT
  5
16416
330
1630C
100
AcDbEntity
  8
DEFPOINTS
 62
     0
 48
50.0
100
AcDbPoint
 10
10916.35691079978
 20
5631.413846885856
 30
0.0
  0
ENDBLK
  5
16318
330
1630C
100
AcDbEntity
  8
0
 48
50.0
100
AcDbBlockEnd
  0
BLOCK
  5
16324
330
16319
100
AcDbEntity
  8
0
 48
50.0
100
AcDbBlockBegin
  2
*D30
 70
     1
 10
0.0
 20
0.0
 30
0.0
  3
*D30
  1

  0
LINE
  5
16403
330
16319
100
AcDbEntity
  8
寸法
 62
     0
 48
50.0
370
    -2
100
AcDbLine
 10
9401.713715487284
 20
5091.292004780028
 30
0.0
 11
8748.813545193256
 21
5115.943036020007
 31
0.0
  0
LINE
  5
16404
330
16319
100
AcDbEntity
  8
寸法
 62
     0
 48
50.0
370
    -2
100
AcDbLine
 10
9407.03354963924
 20
5232.191612176912
 30
0.0
 11
8754.133379345049
 21
5256.842643416896
 31
0.0
  0
LINE
  5
16405
330
16319
100
AcDbEntity
  8
寸法
 62
     0
 48
50.0
370
    -2
100
AcDbLine
 10
8808.770824936614
 20
5113.679276806478
 30
0.0
 11
8814.090659088405
 21
5254.578884203367
 31
0.0
  0
LINE
  5
16406
330
16319
100
AcDbEntity
  8
寸法
 62
     0
 48
50.0
370
    -2
100
AcDbLine
 10
8814.090659088405
 20
5254.578884203367
 30
0.0
 11
8827.673214369607
 21
5614.3225626642
 31
0.0
  0
INSERT
  5
16407
330
16319
100
AcDbEntity
  8
寸法
 62
     0
 48
50.0
370
    -2
100
AcDbBlockReference
  2
_DOTSMALL
 10
8808.770824936614
 20
5113.679276806478
 30
0.0
 41
100.0
 42
100.0
 43
100.0
 50
267.8377559871574
  0
INSERT
  5
16408
330
16319
100
AcDbEntity
  8
寸法
 62
     0
 48
50.0
370
    -2
100
AcDbBlockReference
  2
_DOTSMALL
 10
8814.090659088405
 20
5254.578884203367
 30
0.0
 41
100.0
 42
100.0
 43
100.0
 50
87.83775598715743
  0
MTEXT
  5
16409
330
16319
100
AcDbEntity
  8
寸法
 62
     7
 48
50.0
100
AcDbMText
 10
8722.839603168031
 20
5488.188055242807
 30
0.0
 40
120.0
 41
0.0
 71
     5
 72
     1
  1
\A1;141
  7
STYLE1
 11
0.03772932022548
 21
0.9992879957226159
 31
0.0
 73
     1
 44
1.0
1001
ACAD
1000
MTEXTBEGIN
1070
    73
1070
     1
1070
    44
1040
1.0
1070
    74
1070
     0
1000
MTEXTEND
  0
POINT
  5
1640A
330
16319
100
AcDbEntity
  8
DEFPOINTS
 62
     0
 48
50.0
100
AcDbPoint
 10
9421.699475401736
 20
5090.537418375518
 30
0.0
  0
POINT
  5
1640B
330
16319
100
AcDbEntity
  8
DEFPOINTS
 62
     0
 48
50.0
100
AcDbPoint
 10
9427.01930955369
 20
5231.437025772402
 30
0.0
  0
POINT
  5
1640C
330
16319
100
AcDbEntity
  8
DEFPOINTS
 62
     0
 48
50.0
100
AcDbPoint
 10
8814.090659088405
 20
5254.578884203367
 30
0.0
  0
ENDBLK
  5
16325
330
16319
100
AcDbEntity
  8
0
 48
50.0
100
AcDbBlockEnd
  0
BLOCK
  5
16330
330
16326
100
AcDbEntity
  8
0
 48
50.0
100
AcDbBlockBegin
  2
*D31
 70
     1
 10
0.0
 20
0.0
 30
0.0
  3
*D31
  1

  0
LINE
  5
163FA
330
16326
100
AcDbEntity
  8
寸法
 62
     0
 48
50.0
370
    -2
100
AcDbLine
 10
9439.354540755006
 20
4997.756393306553
 30
0.0
 11
8804.393820107582
 21
4997.756393306553
 31
0.0
  0
LINE
  5
163FB
330
16326
100
AcDbEntity
  8
寸法
 62
     0
 48
50.0
370
    -2
100
AcDbLine
 10
9439.354540755006
 20
3207.756393306556
 30
0.0
 11
8804.393820107581
 21
3207.756393306556
 31
0.0
  0
LINE
  5
163FC
330
16326
100
AcDbEntity
  8
寸法
 62
     0
 48
50.0
370
    -2
100
AcDbLine
 10
8864.393820107581
 20
4997.756393306553
 30
0.0
 11
8864.393820107579
 21
3207.756393306556
 31
0.0
  0
INSERT
  5
163FD
330
16326
100
AcDbEntity
  8
寸法
 62
     0
 48
50.0
370
    -2
100
AcDbBlockReference
  2
_DOTSMALL
 10
8864.393820107581
 20
4997.756393306553
 30
0.0
 41
100.0
 42
100.0
 43
100.0
 50
90.0
  0
INSERT
  5
163FE
330
16326
100
AcDbEntity
  8
寸法
 62
     0
 48
50.0
370
    -2
100
AcDbBlockReference
  2
_DOTSMALL
 10
8864.393820107579
 20
3207.756393306556
 30
0.0
 41
100.0
 42
100.0
 43
100.0
 50
270.0
  0
MTEXT
  5
163FF
330
16326
100
AcDbEntity
  8
寸法
 62
     7
 48
50.0
100
AcDbMText
 10
8764.39382010758
 20
4112.791405182941
 30
0.0
 40
120.0
 41
0.0
 71
     5
 72
     1
  1
\A1;1790
  7
STYLE1
 11
0.0000000000000001
 21
1.0
 31
0.0
 73
     1
 44
1.0
1001
ACAD
1000
MTEXTBEGIN
1070
    73
1070
     1
1070
    44
1040
1.0
1070
    74
1070
     0
1000
MTEXTEND
  0
POINT
  5
16400
330
16326
100
AcDbEntity
  8
DEFPOINTS
 62
     0
 48
50.0
100
AcDbPoint
 10
9459.354540755006
 20
4997.756393306553
 30
0.0
  0
POINT
  5
16401
330
16326
100
AcDbEntity
  8
DEFPOINTS
 62
     0
 48
50.0
100
AcDbPoint
 10
9459.354540755006
 20
3207.756393306556
 30
0.0
  0
POINT
  5
16402
330
16326
100
AcDbEntity
  8
DEFPOINTS
 62
     0
 48
50.0
100
AcDbPoint
 10
8864.393820107579
 20
3207.756393306556
 30
0.0
  0
ENDBLK
  5
16331
330
16326
100
AcDbEntity
  8
0
 48
50.0
100
AcDbBlockEnd
  0
ENDSEC
  0
SECTION
  2
ENTITIES
  0
LINE
  5
10B56
330
747D
100
AcDbEntity
  8
補助
  6
PHANTOM
 62
   230
 48
50.0
100
AcDbLine
 10
140.0
 20
0.0
 30
0.0
 11
139.9999999999995
 21
11409.6
 31
0.0
  0
LINE
  5
10B57
330
747D
100
AcDbEntity
  8
補助
  6
PHANTOM
 62
   230
 48
50.0
100
AcDbLine
 10
139.9999999999995
 20
11409.6
 30
0.0
 11
16307.2
 21
11409.6
 31
0.0
  0
LINE
  5
10B59
330
747D
100
AcDbEntity
  8
仕様書枠
  6
Continuous
 48
50.0
100
AcDbLine
 10
13107.2
 20
1200.0
 30
0.0
 11
13107.2
 21
-0.0000000000000729
 31
0.0
  0
LINE
  5
10B5C
330
747D
100
AcDbEntity
  8
仕様書枠
 48
50.0
100
AcDbLine
 10
16307.2
 20
1200.0
 30
0.0
 11
16307.2
 21
-0.0000000000000909
 31
0.0
  0
LINE
  5
10B5D
330
747D
100
AcDbEntity
  8
仕様書枠
 48
50.0
100
AcDbLine
 10
140.0
 20
0.0
 30
0.0
 11
16307.2
 21
-0.0000000000000909
 31
0.0
  0
LINE
  5
10B5E
330
747D
100
AcDbEntity
  8
補助
  6
PHANTOM
 62
   230
 48
50.0
100
AcDbLine
 10
16307.2
 20
11409.6
 30
0.0
 11
16307.2
 21
1200.0
 31
0.0
  0
LINE
  5
10B6C
330
747D
100
AcDbEntity
  8
仕様書枠
 48
50.0
100
AcDbLine
 10
13107.2
 20
1200.0
 30
0.0
 11
16307.2
 21
1200.0
 31
0.0
  0
LINE
  5
10B6D
330
747D
100
AcDbEntity
  8
補助
  6
PHANTOM
 62
   230
 48
50.0
100
AcDbLine
 10
13107.2
 20
11409.6
 30
0.0
 11
13107.2
 21
4800.0
 31
0.0
  0
LINE
  5
10B6F
330
747D
100
AcDbEntity
  8
補助
  6
PHANTOM
 62
   230
 48
50.0
100
AcDbLine
 10
13107.2
 20
4800.0
 30
0.0
 11
16307.2
 21
4800.0
 31
0.0
  0
LINE
  5
10B72
330
747D
100
AcDbEntity
  8
文字
 62
     7
 48
50.0
100
AcDbLine
 10
13187.2
 20
400.0
 30
0.0
 11
16227.2
 21
400.0
 31
0.0
  0
TEXT
  5
10B73
330
747D
100
AcDbEntity
  8
文字
 62
     7
 48
50.0
100
AcDbText
 10
13162.9790565769
 20
895.0906074299405
 30
0.0
 40
200.0
  1
外 形 図
  7
STYLE2
100
AcDbText
  0
TEXT
  5
10B74
330
747D
100
AcDbEntity
  8
文字
 62
     7
 48
50.0
100
AcDbText
 10
13201.43669998441
 20
477.2740661031255
 30
0.0
 40
160.0
  1
機種名
  7
STYLE2
100
AcDbText
  0
TEXT
  5
10B75
330
747D
100
AcDbEntity
  8
文字
 62
     7
 48
50.0
100
AcDbText
 10
13209.4053442172
 20
228.5435242569016
 30
0.0
 40
100.0
  1
○有効開口寸法 ： 685×1760(mm)
  7
STYLE2
100
AcDbText
  0
TEXT
  5
10B76
330
747D
100
AcDbEntity
  8
文字
 62
     7
 48
50.0
100
AcDbText
 10
13209.4053442172
 20
76.09434707649343
 30
0.0
 40
100.0
  1
○床面積 ： 2.25㎡(0.68坪) 　
  7
STYLE2
100
AcDbText
  0
TEXT
  5
10B79
330
747D
100
AcDbEntity
  8
文字
 62
     7
 48
50.0
100
AcDbText
 10
14524.131837222
 20
1031.557706291228
 30
0.0
 40
100.0
  1
NO.01     <縮尺> S=1/40
  7
STYLE2
100
AcDbText
  0
LINE
  5
10B7B
330
747D
100
AcDbEntity
  8
仕様書枠
 48
50.0
100
AcDbLine
 10
13107.2
 20
800.0
 30
0.0
 11
14251.2
 21
800.0
 31
0.0
  0
LINE
  5
10B88
330
747D
100
AcDbEntity
  8
仕様書枠
  6
Continuous
 48
50.0
100
AcDbLine
 10
14251.2
 20
1200.0
 30
0.0
 11
14251.2
 21
800.0
 31
0.0
  0
TEXT
  5
10EA8
330
747D
100
AcDbEntity
  8
文字
 62
     7
 48
50.0
100
AcDbText
 10
14260.68475616112
 20
855.469579666289
 30
0.0
 40
100.0
  1
～一般型・多雪地型・豪雪地型～
  7
STYLE2
100
AcDbText
  0
DIMENSION
  5
13B23
330
747D
100
AcDbEntity
  8
寸法
100
AcDbDimension
  2
*D1
 10
7079.484998239383
 20
6957.443156660975
 30
0.0
 11
6251.236540082384
 21
6957.443156660975
 31
0.0
 70
   160
 71
     5
 42
1639.999999999982
  3
INABA_S40G
100
AcDbAlignedDimension
 13
5439.4849982394
 23
7944.545031521045
 33
0.0
 14
7079.484998239383
 24
7944.545031521177
 34
0.0
100
AcDbRotatedDimension
1001
ACAD
1000
DSTYLE
1002
{
1002
}
  0
TEXT
  5
13B2F
330
747D
100
AcDbEntity
  8
部品1
100
AcDbText
 10
5959.420816797202
 20
6414.072813502816
 30
0.0
 40
135.0
  1
平面図
  7
STYLE2
100
AcDbText
  0
LWPOLYLINE
  5
13B30
330
747D
100
AcDbEntity
  8
部品1
100
AcDbPolyline
 90
        4
 70
     1
 43
0.0
 10
5869.501206968164
 20
6606.966342721339
 10
5869.501206968164
 20
6367.074021175806
 10
6632.971873196604
 20
6367.074021175806
 10
6632.971873196604
 20
6606.966342721339
  0
LINE
  5
14ABE
330
747D
100
AcDbEntity
  8
想像線
 48
10.0
100
AcDbLine
 10
7034.484998239401
 20
7944.545031521174
 30
0.0
 11
7034.484998239401
 21
7223.627387865384
 31
0.0
  0
DIMENSION
  5
14ABF
330
747D
100
AcDbEntity
  8
寸法
100
AcDbDimension
  2
*D2
 10
7726.911343973793
 20
7944.545031521204
 30
0.0
 11
7726.911343973792
 21
7566.683564616349
 31
0.0
 70
   160
 71
     5
 42
55.0
  3
INABA_S40G
100
AcDbAlignedDimension
 13
7079.484998239383
 23
7999.545031521204
 33
0.0
 14
7079.484998239383
 24
7944.545031521204
 34
0.0
 50
90.0
100
AcDbRotatedDimension
1001
ACAD
1000
DSTYLE
1002
{
1002
}
  0
LINE
  5
14AC0
330
747D
100
AcDbEntity
  8
想像線
 48
10.0
100
AcDbLine
 10
6214.484998239401
 20
7944.545031521164
 30
0.0
 11
6214.484998239401
 21
7223.62738786537
 31
0.0
  0
ARC
  5
14AC4
330
747D
100
AcDbEntity
  8
想像線
 48
10.0
100
AcDbCircle
 10
6206.299106116967
 20
7945.395578444117
 30
0.0
 40
721.8146089967647
100
AcDbArc
 50
180.06751423376
 51
270.6497889048236
  0
ARC
  5
14AC5
330
747D
100
AcDbEntity
  8
想像線
 48
10.0
100
AcDbCircle
 10
7026.299106116967
 20
7945.395578444125
 30
0.0
 40
721.8146089967647
100
AcDbArc
 50
180.06751423376
 51
270.6497889048236
  0
LINE
  5
14AC6
330
747D
100
AcDbEntity
  8
部品1
100
AcDbLine
 10
5439.484998239407
 20
9314.545031521124
 30
0.0
 11
7079.484998239408
 21
9314.545031521218
 31
0.0
  0
LINE
  5
14AC7
330
747D
100
AcDbEntity
  8
部品1
100
AcDbLine
 10
7079.484998239383
 20
7944.545031521212
 30
0.0
 11
5439.4849982394
 21
7944.545031521116
 31
0.0
  0
LINE
  5
14AC8
330
747D
100
AcDbEntity
  8
部品1
100
AcDbLine
 10
7022.984026814594
 20
8076.045137234059
 30
0.0
 11
6314.984998239386
 21
8076.045031545833
 31
0.0
  0
LINE
  5
14AC9
330
747D
100
AcDbEntity
  8
破線
 48
10.0
100
AcDbLine
 10
6999.484998239386
 20
8099.545031521218
 30
0.0
 11
6338.484998239394
 21
8099.545031521182
 31
0.0
  0
LINE
  5
14ACA
330
747D
100
AcDbEntity
  8
部品1
100
AcDbLine
 10
6288.984998239341
 20
9285.045031521175
 30
0.0
 11
7049.984998239342
 21
9285.045031521168
 31
0.0
  0
LINE
  5
14ACB
330
747D
100
AcDbEntity
  8
細線
 48
50.0
100
AcDbLine
 10
7049.984998239342
 20
8835.045031521167
 30
0.0
 11
6288.984998239341
 21
9285.045031521171
 31
0.0
  0
LINE
  5
14ACC
330
747D
100
AcDbEntity
  8
細線
 48
50.0
100
AcDbLine
 10
7049.984998239342
 20
9285.045031521168
 30
0.0
 11
6288.984998239339
 21
8835.045031521174
 31
0.0
  0
LINE
  5
14ACD
330
747D
100
AcDbEntity
  8
部品1
100
AcDbLine
 10
6288.984998239339
 20
8835.045031521174
 30
0.0
 11
7049.984998239342
 21
8835.045031521167
 31
0.0
  0
LINE
  5
14ACE
330
747D
100
AcDbEntity
  8
部品1
100
AcDbLine
 10
7034.484998239401
 20
7970.545031521218
 30
0.0
 11
6304.4849982394
 21
7970.545031521154
 31
0.0
  0
LINE
  5
14ACF
330
747D
100
AcDbEntity
  8
部品1
 48
5.0
100
AcDbLine
 10
7036.484998239382
 20
7974.045031521164
 30
0.0
 11
6283.484998239405
 21
7974.045031521164
 31
0.0
  0
LINE
  5
14AD0
330
747D
100
AcDbEntity
  8
部品1
100
AcDbLine
 10
6287.484998239332
 20
9286.545031521175
 30
0.0
 11
7051.484998239408
 21
9286.545031521219
 31
0.0
  0
DIMENSION
  5
14AD1
330
747D
100
AcDbEntity
  8
寸法
100
AcDbDimension
  2
*D3
 10
6952.049575083468
 20
8469.545031521095
 30
0.0
 11
6571.549575083462
 21
8469.545031521095
 31
0.0
 70
   160
 71
     5
 42
761.0000000000127
  3
INABA_S40G
100
AcDbAlignedDimension
 13
6288.98500491704
 23
8835.045031521131
 33
0.0
 14
7049.985004917053
 24
8835.045031521124
 34
0.0
100
AcDbRotatedDimension
1001
ACAD
1000
DSTYLE
1002
{
1002
}
  0
DIMENSION
  5
14AD2
330
747D
100
AcDbEntity
  8
寸法
100
AcDbDimension
  2
*D4
 10
7024.484998239408
 20
9530.353251146221
 30
0.0
 11
6669.734998239409
 21
9530.353251146221
 31
0.0
 70
   160
 71
     5
 42
710.0
  3
INABA_S40G
100
AcDbAlignedDimension
 13
6314.484998239408
 23
9314.545031521124
 33
0.0
 14
7024.484998239408
 24
9314.545031521246
 34
0.0
100
AcDbRotatedDimension
1001
ACAD
1000
DSTYLE
1002
{
1002
}
  0
DIMENSION
  5
14AD3
330
747D
100
AcDbEntity
  8
寸法
 48
50.0
100
AcDbDimension
  2
*D5
 10
6314.484998239412
 20
9530.353251146221
 30
0.0
 11
6259.48499823941
 21
9530.353251146221
 31
0.0
 70
   160
 71
     5
 42
110.0000000000036
  3
INABA_S40G
100
AcDbAlignedDimension
 13
6204.484998239408
 23
9314.545031521246
 33
0.0
 14
6314.484998239412
 24
9314.545031521225
 34
0.0
100
AcDbRotatedDimension
  0
DIMENSION
  5
14AD4
330
747D
100
AcDbEntity
  8
寸法
100
AcDbDimension
  2
*D6
 10
5494.484998239408
 20
9530.353251146106
 30
0.0
 11
5130.999716865136
 21
9530.353251146106
 31
0.0
 70
   160
 71
     5
 42
55.00000000003456
  3
INABA_S40G
100
AcDbAlignedDimension
 13
5439.484998239374
 23
9314.545031521124
 33
0.0
 14
5494.484998239408
 24
9314.545031521124
 34
0.0
100
AcDbRotatedDimension
1001
ACAD
1000
DSTYLE
1002
{
1002
}
  0
DIMENSION
  5
14AD5
330
747D
100
AcDbEntity
  8
寸法
100
AcDbDimension
  2
*D7
 10
6204.484998239408
 20
9530.353251146221
 30
0.0
 11
5849.734998239409
 21
9530.353251146221
 31
0.0
 70
   160
 71
     5
 42
710.0
  3
INABA_S40G
100
AcDbAlignedDimension
 13
5494.484998239408
 23
9314.545031521124
 33
0.0
 14
6204.484998239408
 24
9314.545031521246
 34
0.0
100
AcDbRotatedDimension
1001
ACAD
1000
DSTYLE
1002
{
1002
}
  0
LINE
  5
14AD6
330
747D
100
AcDbEntity
  8
破線
 48
10.0
100
AcDbLine
 10
6338.484998239394
 20
8099.545031521182
 30
0.0
 11
6338.484989070289
 21
8642.045025969327
 31
0.0
  0
LINE
  5
14AD7
330
747D
100
AcDbEntity
  8
部品1
 48
50.0
100
AcDbLine
 10
6314.984991895101
 20
8076.045031545833
 30
0.0
 11
6314.984994867963
 21
8835.045031521174
 31
0.0
  0
LINE
  5
14AD8
330
747D
100
AcDbEntity
  8
破線
 48
10.0
100
AcDbLine
 10
6180.484998239395
 20
8099.545031521172
 30
0.0
 11
6180.484992077131
 21
8642.045032491177
 31
0.0
  0
LINE
  5
14AD9
330
747D
100
AcDbEntity
  8
部品1
 48
50.0
100
AcDbLine
 10
6203.984998239386
 20
8076.045031521173
 30
0.0
 11
6203.984998239363
 21
8835.04503152123
 31
0.0
  0
LINE
  5
14ADA
330
747D
100
AcDbEntity
  8
破線
 48
10.0
100
AcDbLine
 10
5519.485063164109
 20
8835.045031521135
 30
0.0
 11
5519.485050541088
 21
8692.045059775606
 31
0.0
  0
LINE
  5
14ADB
330
747D
100
AcDbEntity
  8
部品1
 48
5.0
100
AcDbLine
 10
5495.985969664365
 20
8076.045031521223
 30
0.0
 11
5495.985476733054
 21
8835.045031521135
 31
0.0
  0
LINE
  5
14ADD
330
747D
100
AcDbEntity
  8
部品1
100
AcDbLine
 10
5467.484998239382
 20
7999.54503152108
 30
0.0
 11
5467.484998239408
 21
9286.545031521123
 31
0.0
  0
LINE
  5
14ADE
330
747D
100
AcDbEntity
  8
部品1
100
AcDbLine
 10
5439.484998239374
 20
9314.545031521095
 30
0.0
 11
5439.4849982394
 21
7944.54503152108
 31
0.0
  0
LINE
  5
14ADF
330
747D
100
AcDbEntity
  8
部品1
 48
50.0
100
AcDbLine
 10
6287.484998239389
 20
7999.545031521164
 30
0.0
 11
6287.484998239332
 21
9314.545031521175
 31
0.0
  0
LINE
  5
14AE0
330
747D
100
AcDbEntity
  8
部品1
 48
50.0
100
AcDbLine
 10
6231.484998239388
 20
7999.545031521164
 30
0.0
 11
6231.484998239335
 21
9286.545031521175
 31
0.0
  0
LINE
  5
14AE1
330
747D
100
AcDbEntity
  8
部品1
 48
50.0
100
AcDbLine
 10
6259.484998239388
 20
7999.545031521164
 30
0.0
 11
6259.484998239388
 21
9259.545031521176
 31
0.0
  0
LINE
  5
14AE2
330
747D
100
AcDbEntity
  8
破線
 48
10.0
100
AcDbLine
 10
6180.484998239395
 20
8099.545031521175
 30
0.0
 11
5519.484998239395
 21
8099.545031521135
 31
0.0
  0
LINE
  5
14AE3
330
747D
100
AcDbEntity
  8
部品1
 48
5.0
100
AcDbLine
 10
5482.484998239403
 20
7974.045031521048
 30
0.0
 11
6235.484998239404
 21
7974.045031521164
 31
0.0
  0
LINE
  5
14AE4
330
747D
100
AcDbEntity
  8
部品1
100
AcDbLine
 10
6214.484998239401
 20
7970.545031521218
 30
0.0
 11
5484.484998239401
 21
7970.545031521154
 31
0.0
  0
LINE
  5
14AE5
330
747D
100
AcDbEntity
  8
部品1
100
AcDbLine
 10
6203.984998239386
 20
8076.045031521173
 30
0.0
 11
5495.985969665795
 21
8076.043949212687
 31
0.0
  0
LINE
  5
14AE6
330
747D
100
AcDbEntity
  8
部品1
100
AcDbLine
 10
5439.4849982394
 20
7999.545031521043
 30
0.0
 11
5439.4849982394
 21
7944.545031521044
 31
0.0
  0
LINE
  5
14AE7
330
747D
100
AcDbEntity
  8
部品1
100
AcDbLine
 10
5467.484998239401
 20
7999.545031521094
 30
0.0
 11
5439.4849982394
 21
7999.545031521094
 31
0.0
  0
LINE
  5
14AE8
330
747D
100
AcDbEntity
  8
部品1
100
AcDbLine
 10
5467.484998239382
 20
7999.54503152108
 30
0.0
 11
5439.4849982394
 21
7999.54503152108
 31
0.0
  0
LINE
  5
14AE9
330
747D
100
AcDbEntity
  8
部品1
100
AcDbLine
 10
5467.484998239382
 20
7999.545031521043
 30
0.0
 11
5439.4849982394
 21
7999.545031521043
 31
0.0
  0
LINE
  5
14AEA
330
747D
100
AcDbEntity
  8
部品1
100
AcDbLine
 10
5490.484998239401
 20
7944.54503152108
 30
0.0
 11
5439.4849982394
 21
7944.54503152108
 31
0.0
  0
LINE
  5
14AEB
330
747D
100
AcDbEntity
  8
部品1
 48
2.83
100
AcDbLine
 10
5471.484998239403
 20
7999.545031521048
 30
0.0
 11
5494.484998239403
 21
7999.545031521043
 31
0.0
  0
LINE
  5
14AEC
330
747D
100
AcDbEntity
  8
部品1
 48
2.83
100
AcDbLine
 10
5482.484998239403
 20
7944.545031521048
 30
0.0
 11
5439.4849982394
 21
7944.545031521044
 31
0.0
  0
LINE
  5
14AED
330
747D
100
AcDbEntity
  8
部品1
 48
2.83
100
AcDbLine
 10
5439.484998239403
 20
7999.545031521043
 30
0.0
 11
5462.484998239403
 21
7999.545031521048
 31
0.0
  0
LINE
  5
14AEE
330
747D
100
AcDbEntity
  8
部品1
 48
2.83
100
AcDbLine
 10
5494.484998239401
 20
7999.545031521043
 30
0.0
 11
5494.484998239404
 21
7974.045031521048
 31
0.0
  0
LINE
  5
14AEF
330
747D
100
AcDbEntity
  8
部品1
 48
2.83
100
AcDbLine
 10
5482.484998239403
 20
7974.045031521048
 30
0.0
 11
5482.484998239403
 21
7944.545031521048
 31
0.0
  0
LINE
  5
14AF0
330
747D
100
AcDbEntity
  8
部品1
 48
2.83
100
AcDbLine
 10
5439.4849982394
 20
7944.545031521044
 30
0.0
 11
5439.484998239403
 21
7999.545031521043
 31
0.0
  0
LINE
  5
14AF1
330
747D
100
AcDbEntity
  8
部品1
100
AcDbLine
 10
5484.484998239401
 20
7970.545031521154
 30
0.0
 11
5484.484998239401
 21
7944.545031521116
 31
0.0
  0
LINE
  5
14AF2
330
747D
100
AcDbEntity
  8
部品1
 48
50.0
100
AcDbLine
 10
5495.985969665795
 20
8076.043949212687
 30
0.0
 11
5467.484998239385
 21
8047.024778280222
 31
0.0
  0
LINE
  5
14AF3
330
747D
100
AcDbEntity
  8
部品1
100
AcDbLine
 10
5467.484998239382
 20
8419.545031521094
 30
0.0
 11
5439.484998239382
 21
8419.545031521094
 31
0.0
  0
LINE
  5
14AF4
330
747D
100
AcDbEntity
  8
部品1
100
AcDbLine
 10
6302.484998239402
 20
7974.045031521116
 30
0.0
 11
6302.484998239404
 21
7944.545031521164
 31
0.0
  0
LINE
  5
14AF5
330
747D
100
AcDbEntity
  8
部品1
100
AcDbLine
 10
6304.4849982394
 20
7970.545031521154
 30
0.0
 11
6304.4849982394
 21
7944.545031521167
 31
0.0
  0
LINE
  5
14AF6
330
747D
100
AcDbEntity
  8
部品1
 48
5.0
100
AcDbLine
 10
6302.484998239404
 20
7974.045031521164
 30
0.0
 11
6302.484998239404
 21
7944.545031521164
 31
0.0
  0
LINE
  5
14AF7
330
747D
100
AcDbEntity
  8
部品1
 48
5.0
100
AcDbLine
 10
6314.484998239404
 20
7999.545031521164
 30
0.0
 11
6314.484998239404
 21
7974.045031521164
 31
0.0
  0
LINE
  5
14AF8
330
747D
100
AcDbEntity
  8
部品1
 48
5.0
100
AcDbLine
 10
6283.484998239405
 20
7999.545031521164
 30
0.0
 11
6283.484998239405
 21
7974.045031521164
 31
0.0
  0
LINE
  5
14AF9
330
747D
100
AcDbEntity
  8
部品1
 48
5.0
100
AcDbLine
 10
6291.484998239404
 20
7999.545031521164
 30
0.0
 11
6314.484998239404
 21
7999.545031521164
 31
0.0
  0
LINE
  5
14AFA
330
747D
100
AcDbEntity
  8
部品1
 48
50.0
100
AcDbLine
 10
6314.984998239386
 20
8076.045031545833
 30
0.0
 11
6287.484998239389
 21
8048.045031521164
 31
0.0
  0
LINE
  5
14AFB
330
747D
100
AcDbEntity
  8
部品1
100
AcDbLine
 10
6214.484998239401
 20
7970.545031521218
 30
0.0
 11
6214.484998239401
 21
7944.54503152116
 31
0.0
  0
LINE
  5
14AFC
330
747D
100
AcDbEntity
  8
部品1
100
AcDbLine
 10
6216.484998239401
 20
7974.045031521109
 30
0.0
 11
6216.484998239399
 21
7944.54503152116
 31
0.0
  0
LINE
  5
14AFD
330
747D
100
AcDbEntity
  8
部品1
 48
5.0
100
AcDbLine
 10
6216.484998239405
 20
7974.045031521164
 30
0.0
 11
6216.484998239405
 21
7944.545031521164
 31
0.0
  0
LINE
  5
14AFE
330
747D
100
AcDbEntity
  8
部品1
 48
5.0
100
AcDbLine
 10
6235.484998239404
 20
7999.545031521164
 30
0.0
 11
6235.484998239404
 21
7974.045031521164
 31
0.0
  0
LINE
  5
14AFF
330
747D
100
AcDbEntity
  8
部品1
 48
5.0
100
AcDbLine
 10
6204.484998239404
 20
7999.545031521167
 30
0.0
 11
6204.484998239404
 21
7974.045031521164
 31
0.0
  0
LINE
  5
14B00
330
747D
100
AcDbEntity
  8
部品1
 48
5.0
100
AcDbLine
 10
6227.484998239404
 20
7999.545031521164
 30
0.0
 11
6204.484998239401
 21
7999.545031521164
 31
0.0
  0
ARC
  5
14B01
330
747D
100
AcDbEntity
  8
部品1
 48
0.2
100
AcDbCircle
 10
6206.547446068079
 20
7945.542661476382
 30
0.0
 40
8.0
100
AcDbArc
 50
270.0
 51
352.8363522778074
  0
ARC
  5
14B02
330
747D
100
AcDbEntity
  8
部品1
 48
0.2
100
AcDbCircle
 10
6201.547446068079
 20
7945.542661476382
 30
0.0
 40
8.0
100
AcDbArc
 50
187.1636477221926
 51
269.9999999999992
  0
ARC
  5
14B03
330
747D
100
AcDbEntity
  8
細線
 48
0.2
100
AcDbCircle
 10
6206.547446068079
 20
7945.542661476382
 30
0.0
 40
4.049999999999999
100
AcDbArc
 50
194.2603506853988
 51
345.7396493146012
  0
LINE
  5
14B04
330
747D
100
AcDbEntity
  8
部品1
 48
0.2
100
AcDbLine
 10
6201.547446068079
 20
7937.542661476382
 30
0.0
 11
6206.547446068079
 21
7937.542661476382
 31
0.0
  0
LINE
  5
14B05
330
747D
100
AcDbEntity
  8
部品1
 48
50.0
100
AcDbLine
 10
6231.484998239388
 20
8048.045031521164
 30
0.0
 11
6203.984998239386
 21
8076.045031521173
 31
0.0
  0
LINE
  5
14B06
330
747D
100
AcDbEntity
  8
部品1
 48
5.0
100
AcDbLine
 10
6216.484998239405
 20
7944.545031521164
 30
0.0
 11
6302.484998239404
 21
7944.545031521164
 31
0.0
  0
LINE
  5
14B07
330
747D
100
AcDbEntity
  8
部品1
 48
5.0
100
AcDbLine
 10
6231.484998239388
 20
7999.545031521164
 30
0.0
 11
6287.484998239389
 21
7999.545031521164
 31
0.0
  0
LINE
  5
14B08
330
747D
100
AcDbEntity
  8
部品1
 48
5.0
100
AcDbLine
 10
6259.484998239388
 20
8419.545031521167
 30
0.0
 11
6231.484998239335
 21
8419.545031521174
 31
0.0
  0
LINE
  5
14B09
330
747D
100
AcDbEntity
  8
部品1
100
AcDbLine
 10
5467.484998239408
 20
9286.545031521123
 30
0.0
 11
6256.86570125801
 21
9286.545031521175
 31
0.0
  0
LINE
  5
14B0A
330
747D
100
AcDbEntity
  8
部品1
100
AcDbLine
 10
5468.985004917038
 20
9285.045031521132
 30
0.0
 11
6229.985004917038
 21
9285.04503152124
 31
0.0
  0
LINE
  5
14B0B
330
747D
100
AcDbEntity
  8
部品1
100
AcDbLine
 10
5468.985004917038
 20
8835.045031521131
 30
0.0
 11
6229.985004917038
 21
8835.045031521232
 31
0.0
  0
LINE
  5
14B0C
330
747D
100
AcDbEntity
  8
細線
 48
50.0
100
AcDbLine
 10
6229.985004917038
 20
8835.045031521232
 30
0.0
 11
5468.985004917038
 21
9285.045031521132
 31
0.0
  0
LINE
  5
14B0D
330
747D
100
AcDbEntity
  8
細線
 48
50.0
100
AcDbLine
 10
6229.985004917038
 20
9285.045031521233
 30
0.0
 11
5468.985004917038
 21
8835.045031521131
 31
0.0
  0
LINE
  5
14B0E
330
747D
100
AcDbEntity
  8
部品1
 48
50.0
100
AcDbLine
 10
5468.985004917038
 20
9285.045031521123
 30
0.0
 11
5468.985004917038
 21
8835.045031521131
 31
0.0
  0
LINE
  5
14B0F
330
747D
100
AcDbEntity
  8
部品1
100
AcDbLine
 10
5467.484998239382
 20
8839.545031521096
 30
0.0
 11
5439.484998239382
 21
8839.545031521096
 31
0.0
  0
LINE
  5
14B10
330
747D
100
AcDbEntity
  8
部品1
100
AcDbLine
 10
5467.484998239375
 20
9259.545031521096
 30
0.0
 11
5439.484998239375
 21
9259.545031521096
 31
0.0
  0
LINE
  5
14B11
330
747D
100
AcDbEntity
  8
部品1
100
AcDbLine
 10
5494.484998239408
 20
9314.545031521124
 30
0.0
 11
5494.484998239408
 21
9286.545031521123
 31
0.0
  0
LINE
  5
14B12
330
747D
100
AcDbEntity
  8
部品1
100
AcDbLine
 10
5494.484998239373
 20
9314.545031521095
 30
0.0
 11
5494.484998239375
 21
9286.545031521095
 31
0.0
  0
LINE
  5
14B13
330
747D
100
AcDbEntity
  8
部品1
 48
50.0
100
AcDbLine
 10
5468.985004917031
 20
9285.045031521132
 30
0.0
 11
5467.484998239408
 21
9286.545031521123
 31
0.0
  0
LINE
  5
14B14
330
747D
100
AcDbEntity
  8
部品1
 48
50.0
100
AcDbLine
 10
6229.985004917038
 20
9285.045031521233
 30
0.0
 11
6229.985004917038
 21
8835.045031521232
 31
0.0
  0
LINE
  5
14B15
330
747D
100
AcDbEntity
  8
部品1
 48
50.0
100
AcDbLine
 10
6288.984998239341
 20
9285.045031521171
 30
0.0
 11
6288.984998239341
 21
8835.045031521174
 31
0.0
  0
LINE
  5
14B16
330
747D
100
AcDbEntity
  8
部品1
 48
50.0
100
AcDbLine
 10
6259.484998239379
 20
8839.545031521174
 30
0.0
 11
6287.484998239363
 21
8839.545031521174
 31
0.0
  0
LINE
  5
14B17
330
747D
100
AcDbEntity
  8
部品1
 48
50.0
100
AcDbLine
 10
6259.484998239379
 20
8877.545031521174
 30
0.0
 11
6287.484998239363
 21
8877.545031521174
 31
0.0
  0
LINE
  5
14B18
330
747D
100
AcDbEntity
  8
部品1
 48
5.0
100
AcDbLine
 10
6259.484998239388
 20
8839.545031521167
 30
0.0
 11
6231.484998239335
 21
8839.545031521174
 31
0.0
  0
LINE
  5
14B19
330
747D
100
AcDbEntity
  8
部品1
 48
50.0
100
AcDbLine
 10
6288.984998239341
 20
9284.990510000909
 30
0.0
 11
6287.484998239335
 21
9286.545031521175
 31
0.0
  0
LINE
  5
14B1A
330
747D
100
AcDbEntity
  8
部品1
 48
5.0
100
AcDbLine
 10
6314.484998239412
 20
9314.545031521175
 30
0.0
 11
6314.484998239404
 21
9286.545031521175
 31
0.0
  0
LINE
  5
14B1B
330
747D
100
AcDbEntity
  8
部品1
 48
50.0
100
AcDbLine
 10
6229.985004917038
 20
9284.990518861418
 30
0.0
 11
6231.484998239335
 21
9286.545031521171
 31
0.0
  0
LINE
  5
14B1C
330
747D
100
AcDbEntity
  8
部品1
 48
5.0
100
AcDbLine
 10
6204.484998239406
 20
9286.545031521168
 30
0.0
 11
6204.484998239408
 21
9314.545031521168
 31
0.0
  0
LINE
  5
14B1D
330
747D
100
AcDbEntity
  8
部品1
 48
5.0
100
AcDbLine
 10
6234.194272686582
 20
9314.545031521168
 30
0.0
 11
6256.865701258012
 21
9286.545031521175
 31
0.0
  0
LINE
  5
14B1E
330
747D
100
AcDbEntity
  8
部品1
 48
5.0
100
AcDbLine
 10
6287.484998239335
 20
9259.545031521176
 30
0.0
 11
6231.484998239335
 21
9259.545031521176
 31
0.0
  0
DIMENSION
  5
14B1F
330
747D
100
AcDbEntity
  8
寸法
100
AcDbDimension
  2
*D8
 10
7079.484998239408
 20
9530.3532511462
 30
0.0
 11
7387.970279613648
 21
9530.3532511462
 31
0.0
 70
   160
 71
     5
 42
55.0
  3
INABA_S40G
100
AcDbAlignedDimension
 13
7024.484998239408
 23
9314.545031521218
 33
0.0
 14
7079.484998239408
 24
9314.545031521218
 34
0.0
100
AcDbRotatedDimension
1001
ACAD
1000
DSTYLE
1002
{
1002
}
  0
DIMENSION
  5
14B20
330
747D
100
AcDbEntity
  8
寸法
100
AcDbDimension
  2
*D9
 10
7726.911343973819
 20
9259.545031521218
 30
0.0
 11
7726.911343973817
 21
9623.030312895458
 31
0.0
 70
   160
 71
     5
 42
55.0
  3
INABA_S40G
100
AcDbAlignedDimension
 13
7079.484998239408
 23
9314.545031521218
 33
0.0
 14
7079.484998239408
 24
9259.545031521218
 34
0.0
 50
90.0
100
AcDbRotatedDimension
1001
ACAD
1000
DSTYLE
1002
{
1002
}
  0
DIMENSION
  5
14B21
330
747D
100
AcDbEntity
  8
寸法
100
AcDbDimension
  2
*D10
 10
8036.022874789495
 20
7944.545031521204
 30
0.0
 11
8036.022874789495
 21
8629.54503152121
 31
0.0
 70
   160
 71
     5
 42
1370.000000000014
  3
INABA_S40G
100
AcDbAlignedDimension
 13
7079.484998239408
 23
9314.545031521218
 33
0.0
 14
7079.484998239383
 24
7944.545031521204
 34
0.0
 50
90.0
100
AcDbRotatedDimension
1001
ACAD
1000
DSTYLE
1002
{
1002
}
  0
DIMENSION
  5
14B22
330
747D
100
AcDbEntity
  8
寸法
100
AcDbDimension
  2
*D11
 10
7726.911343973819
 20
7999.545031521204
 30
0.0
 11
7726.911343973817
 21
8629.54503152121
 31
0.0
 70
   160
  1
3X420=<>
 71
     5
 42
1260.000000000014
  3
INABA_S40G
100
AcDbAlignedDimension
 13
7079.484998239408
 23
9259.545031521218
 33
0.0
 14
7079.484998239383
 24
7999.545031521204
 34
0.0
 50
90.0
100
AcDbRotatedDimension
1001
ACAD
1000
DSTYLE
1002
{
1002
}
  0
LINE
  5
14B23
330
747D
100
AcDbEntity
  8
破線
 48
10.0
100
AcDbLine
 10
6999.485063164077
 20
8835.045031521167
 30
0.0
 11
6999.485050541055
 21
8692.04499868489
 31
0.0
  0
LINE
  5
14B24
330
747D
100
AcDbEntity
  8
部品1
 48
5.0
100
AcDbLine
 10
7022.984026814452
 20
8076.045031521223
 30
0.0
 11
7022.984519745763
 21
8835.045031521167
 31
0.0
  0
LINE
  5
14B25
330
747D
100
AcDbEntity
  8
部品1
100
AcDbLine
 10
7051.484998239408
 20
9286.545031521219
 30
0.0
 11
7051.484998239387
 21
7999.545031521204
 31
0.0
  0
LINE
  5
14B26
330
747D
100
AcDbEntity
  8
部品1
100
AcDbLine
 10
7079.484998239408
 20
9314.545031521218
 30
0.0
 11
7079.484998239383
 21
7944.545031521212
 31
0.0
  0
LINE
  5
14B27
330
747D
100
AcDbEntity
  8
部品1
 48
2.83
100
AcDbLine
 10
7047.484998239382
 20
7999.545031521178
 30
0.0
 11
7024.484998239383
 21
7999.545031521176
 31
0.0
  0
LINE
  5
14B28
330
747D
100
AcDbEntity
  8
部品1
 48
50.0
100
AcDbLine
 10
7051.484998239387
 20
8047.025966328813
 30
0.0
 11
7022.984026814594
 21
8076.045137234059
 31
0.0
  0
LINE
  5
14B29
330
747D
100
AcDbEntity
  8
部品1
 48
2.83
100
AcDbLine
 10
7024.484998239383
 20
7999.545031521176
 30
0.0
 11
7024.484998239383
 21
7974.045031521178
 31
0.0
  0
LINE
  5
14B2A
330
747D
100
AcDbEntity
  8
部品1
100
AcDbLine
 10
7034.484998239401
 20
7970.545031521218
 30
0.0
 11
7034.484998239401
 21
7944.545031521207
 31
0.0
  0
LINE
  5
14B2B
330
747D
100
AcDbEntity
  8
部品1
 48
0.2
100
AcDbLine
 10
7021.547446068082
 20
7937.542661476403
 30
0.0
 11
7026.547446068082
 21
7937.542661476403
 31
0.0
  0
ARC
  5
14B2C
330
747D
100
AcDbEntity
  8
部品1
 48
0.2
100
AcDbCircle
 10
7026.547446068082
 20
7945.542661476403
 30
0.0
 40
8.0
100
AcDbArc
 50
270.0
 51
352.8363522778074
  0
ARC
  5
14B2D
330
747D
100
AcDbEntity
  8
部品1
 48
0.2
100
AcDbCircle
 10
7021.547446068082
 20
7945.542661476403
 30
0.0
 40
8.0
100
AcDbArc
 50
187.1636477221926
 51
269.9999999999992
  0
ARC
  5
14B2E
330
747D
100
AcDbEntity
  8
細線
 48
0.2
100
AcDbCircle
 10
7026.547446068082
 20
7945.542661476403
 30
0.0
 40
4.049999999999999
100
AcDbArc
 50
194.2603506853988
 51
345.7396493146012
  0
LINE
  5
14B30
330
747D
100
AcDbEntity
  8
部品1
100
AcDbLine
 10
7051.484998239415
 20
7999.545031521225
 30
0.0
 11
7079.484998239415
 21
7999.545031521225
 31
0.0
  0
LINE
  5
14B31
330
747D
100
AcDbEntity
  8
部品1
100
AcDbLine
 10
7051.484998239387
 20
7999.545031521204
 30
0.0
 11
7079.484998239383
 21
7999.545031521204
 31
0.0
  0
LINE
  5
14B32
330
747D
100
AcDbEntity
  8
部品1
 48
2.83
100
AcDbLine
 10
7079.484998239383
 20
7999.545031521176
 30
0.0
 11
7056.484998239382
 21
7999.545031521178
 31
0.0
  0
LINE
  5
14B33
330
747D
100
AcDbEntity
  8
部品1
 48
2.83
100
AcDbLine
 10
7036.484998239382
 20
7974.045031521178
 30
0.0
 11
7036.484998239382
 21
7944.545031521179
 31
0.0
  0
LINE
  5
14B34
330
747D
100
AcDbEntity
  8
部品1
100
AcDbLine
 10
7051.484998239408
 20
8419.545031521225
 30
0.0
 11
7079.484998239408
 21
8419.545031521225
 31
0.0
  0
LINE
  5
14B35
330
747D
100
AcDbEntity
  8
部品1
100
AcDbLine
 10
7024.484998239408
 20
9314.545031521239
 30
0.0
 11
7024.484998239408
 21
9286.545031521241
 31
0.0
  0
LINE
  5
14B36
330
747D
100
AcDbEntity
  8
部品1
100
AcDbLine
 10
7024.484998239408
 20
9314.545031521218
 30
0.0
 11
7024.484998239408
 21
9286.545031521219
 31
0.0
  0
LINE
  5
14B37
330
747D
100
AcDbEntity
  8
部品1
100
AcDbLine
 10
7049.984998239342
 20
9285.045031521168
 30
0.0
 11
7049.984998239342
 21
8835.045031521167
 31
0.0
  0
DIMENSION
  5
14B38
330
747D
100
AcDbEntity
  8
寸法
100
AcDbDimension
  2
*D12
 10
7405.342724101366
 20
8739.827215852278
 30
0.0
 11
7305.342724101366
 21
8964.827215852279
 31
0.0
 70
    32
 71
     5
 42
450.0
  3
INABA_S40G
100
AcDbAlignedDimension
 13
7049.984998239342
 23
9285.045031521168
 33
0.0
 14
7049.984998239342
 24
8835.045031521167
 34
0.0
 50
90.0
100
AcDbRotatedDimension
1001
ACAD
1000
DSTYLE
1002
{
1002
}
  0
LINE
  5
14B39
330
747D
100
AcDbEntity
  8
部品1
100
AcDbLine
 10
7051.484998239408
 20
8839.545031521225
 30
0.0
 11
7079.484998239408
 21
8839.545031521225
 31
0.0
  0
LINE
  5
14B3A
330
747D
100
AcDbEntity
  8
部品1
100
AcDbLine
 10
7051.484998239408
 20
9259.545031521225
 30
0.0
 11
7079.484998239408
 21
9259.545031521225
 31
0.0
  0
LINE
  5
14E13
330
747D
100
AcDbEntity
  8
細線
 48
50.0
100
AcDbLine
 10
5879.484998239409
 20
9293.04503152101
 30
0.0
 11
5819.484998239408
 21
9293.045031521009
 31
0.0
  0
LINE
  5
14E14
330
747D
100
AcDbEntity
  8
細線
 48
50.0
100
AcDbLine
 10
5879.484998239409
 20
9293.04503152101
 30
0.0
 11
5879.484998239406
 21
9314.545031521014
 31
0.0
  0
LINE
  5
14E15
330
747D
100
AcDbEntity
  8
細線
 48
50.0
100
AcDbLine
 10
5819.484998239408
 20
9293.04503152101
 30
0.0
 11
5819.484998239406
 21
9314.545031521006
 31
0.0
  0
LINE
  5
14E16
330
747D
100
AcDbEntity
  8
細線
 48
50.0
100
AcDbLine
 10
6699.484998239409
 20
9293.045031521121
 30
0.0
 11
6639.484998239407
 21
9293.045031521115
 31
0.0
  0
LINE
  5
14E17
330
747D
100
AcDbEntity
  8
細線
 48
50.0
100
AcDbLine
 10
6639.484998239407
 20
9293.045031521121
 30
0.0
 11
6639.484998239407
 21
9314.545031521117
 31
0.0
  0
LINE
  5
14E18
330
747D
100
AcDbEntity
  8
細線
 48
50.0
100
AcDbLine
 10
6699.484998239409
 20
9293.045031521121
 30
0.0
 11
6699.484998239405
 21
9314.545031521124
 31
0.0
  0
LINE
  5
14E19
330
747D
100
AcDbEntity
  8
細線
 48
50.0
100
AcDbLine
 10
5608.484998239401
 20
7970.545031521294
 30
0.0
 11
5608.484998239401
 21
7944.545031521248
 31
0.0
  0
LINE
  5
14E1A
330
747D
100
AcDbEntity
  8
細線
 48
50.0
100
AcDbLine
 10
5834.484998239401
 20
7970.545031521284
 30
0.0
 11
5834.484998239401
 21
7944.545031521248
 31
0.0
  0
LINE
  5
14E1B
330
747D
100
AcDbEntity
  8
細線
 48
50.0
100
AcDbLine
 10
5794.484998239401
 20
7970.545031521284
 30
0.0
 11
5794.484998239401
 21
7944.545031521248
 31
0.0
  0
LINE
  5
14E1C
330
747D
100
AcDbEntity
  8
細線
 48
50.0
100
AcDbLine
 10
6021.484998239401
 20
7970.545031521499
 30
0.0
 11
6021.484998239401
 21
7944.545031521463
 31
0.0
  0
LINE
  5
14E1D
330
747D
100
AcDbEntity
  8
細線
 48
50.0
100
AcDbLine
 10
6061.4849982394
 20
7970.545031521499
 30
0.0
 11
6061.4849982394
 21
7944.545031521463
 31
0.0
  0
LINE
  5
14E1E
330
747D
100
AcDbEntity
  8
細線
 48
50.0
100
AcDbLine
 10
6654.484998239401
 20
7970.545031521284
 30
0.0
 11
6654.484998239401
 21
7944.545031521248
 31
0.0
  0
LINE
  5
14E1F
330
747D
100
AcDbEntity
  8
細線
 48
50.0
100
AcDbLine
 10
6428.484998239401
 20
7970.545031521294
 30
0.0
 11
6428.484998239401
 21
7944.545031521248
 31
0.0
  0
LINE
  5
14E20
330
747D
100
AcDbEntity
  8
細線
 48
50.0
100
AcDbLine
 10
6614.484998239401
 20
7970.545031521284
 30
0.0
 11
6614.484998239401
 21
7944.545031521248
 31
0.0
  0
LINE
  5
14E21
330
747D
100
AcDbEntity
  8
細線
 48
50.0
100
AcDbLine
 10
6881.4849982394
 20
7970.545031521499
 30
0.0
 11
6881.4849982394
 21
7944.545031521463
 31
0.0
  0
LINE
  5
14E22
330
747D
100
AcDbEntity
  8
細線
 48
50.0
100
AcDbLine
 10
6841.4849982394
 20
7970.545031521499
 30
0.0
 11
6841.4849982394
 21
7944.545031521463
 31
0.0
  0
DIMENSION
  5
14E3A
330
747D
100
AcDbEntity
  8
寸法
 48
50.0
100
AcDbDimension
  2
*D13
 10
6999.484998239402
 20
7504.72136372604
 30
0.0
 11
6656.984998239403
 21
7504.72136372604
 31
0.0
 70
   160
  1
有効開口部間口\P<>
 71
     5
 42
684.9999999999964
  3
INABA_S40G
100
AcDbAlignedDimension
 13
6314.484998239404
 23
7944.545031521116
 33
0.0
 14
6999.484998239402
 24
7944.54503152108
 34
0.0
100
AcDbRotatedDimension
  0
DIMENSION
  5
14ECF
330
747D
100
AcDbEntity
  8
寸法
 48
50.0
100
AcDbDimension
  2
*D14
 10
6179.4849982394
 20
7504.72136372604
 30
0.0
 11
5836.984998239403
 21
7504.72136372604
 31
0.0
 70
   160
 71
     5
 42
684.9999999999964
  3
INABA_S40G
100
AcDbAlignedDimension
 13
5494.484998239404
 23
7944.545031521116
 33
0.0
 14
6179.4849982394
 24
7944.54503152108
 34
0.0
100
AcDbRotatedDimension
  0
DIMENSION
  5
14F17
330
747D
100
AcDbEntity
  8
寸法
100
AcDbDimension
  2
*D15
 10
6132.049575083469
 20
8469.545031521095
 30
0.0
 11
5751.491859890921
 21
8469.545031521095
 31
0.0
 70
   160
 71
     5
 42
761.0000000000127
  3
INABA_S40G
100
AcDbAlignedDimension
 13
5468.98500491704
 23
8835.045031521131
 33
0.0
 14
6229.985004917053
 24
8835.045031521124
 34
0.0
100
AcDbRotatedDimension
1001
ACAD
1000
DSTYLE
1002
{
1002
}
  0
ARC
  5
152AB
330
747D
100
AcDbEntity
  8
部品1
 48
0.01
100
AcDbCircle
 10
6757.484998239409
 20
5030.256393306551
 30
0.0
 40
2.0
100
AcDbArc
 50
270.0
 51
0.0
  0
ARC
  5
152AC
330
747D
100
AcDbEntity
  8
部品1
 48
0.01
100
AcDbCircle
 10
6757.484998239411
 20
5061.75639330655
 30
0.0
 40
2.0
100
AcDbArc
 50
0.0
 51
90.0
  0
ARC
  5
152AD
330
747D
100
AcDbEntity
  8
部品1
 48
0.01
100
AcDbCircle
 10
6581.484998239412
 20
5030.256393306551
 30
0.0
 40
2.0
100
AcDbArc
 50
180.0
 51
270.0
  0
ARC
  5
152AE
330
747D
100
AcDbEntity
  8
部品1
 48
0.01
100
AcDbCircle
 10
6581.484998239412
 20
5061.75639330655
 30
0.0
 40
2.0
100
AcDbArc
 50
90.0
 51
180.0
  0
LINE
  5
152AF
330
747D
100
AcDbEntity
  8
細線
100
AcDbLine
 10
6669.484998239408
 20
5034.25639330655
 30
0.0
 11
6743.484998239411
 21
5034.25639330655
 31
0.0
  0
LINE
  5
152B0
330
747D
100
AcDbEntity
  8
細線
100
AcDbLine
 10
6669.484998239411
 20
5057.25639330655
 30
0.0
 11
6595.484998239412
 21
5057.25639330655
 31
0.0
  0
LINE
  5
152B1
330
747D
100
AcDbEntity
  8
細線
100
AcDbLine
 10
6595.484998239412
 20
5034.25639330655
 30
0.0
 11
6669.484998239411
 21
5034.25639330655
 31
0.0
  0
LINE
  5
152B2
330
747D
100
AcDbEntity
  8
細線
100
AcDbLine
 10
6743.484998239411
 20
5057.25639330655
 30
0.0
 11
6669.484998239411
 21
5057.25639330655
 31
0.0
  0
LINE
  5
152B3
330
747D
100
AcDbEntity
  8
細線
100
AcDbLine
 10
6743.484998239411
 20
5034.25639330655
 30
0.0
 11
6743.484998239411
 21
5057.25639330655
 31
0.0
  0
LINE
  5
152B4
330
747D
100
AcDbEntity
  8
細線
100
AcDbLine
 10
6595.484998239412
 20
5057.25639330655
 30
0.0
 11
6595.484998239412
 21
5034.25639330655
 31
0.0
  0
LINE
  5
152B5
330
747D
100
AcDbEntity
  8
部品1
 48
0.01
100
AcDbLine
 10
6759.484998239408
 20
5030.256393306551
 30
0.0
 11
6759.484998239412
 21
5061.75639330655
 31
0.0
  0
LINE
  5
152B6
330
747D
100
AcDbEntity
  8
部品1
 48
0.01
100
AcDbLine
 10
6581.484998239412
 20
5028.25639330655
 30
0.0
 11
6757.484998239409
 21
5028.25639330655
 31
0.0
  0
LINE
  5
152B7
330
747D
100
AcDbEntity
  8
部品1
 48
0.01
100
AcDbLine
 10
6579.484998239411
 20
5061.75639330655
 30
0.0
 11
6579.484998239411
 21
5030.256393306551
 31
0.0
  0
LINE
  5
152B8
330
747D
100
AcDbEntity
  8
部品1
 48
0.01
100
AcDbLine
 10
6757.484998239411
 20
5063.756393306551
 30
0.0
 11
6581.484998239412
 21
5063.756393306551
 31
0.0
  0
LINE
  5
152B9
330
747D
100
AcDbEntity
  8
細線
100
AcDbLine
 10
6595.484998239412
 20
5051.256393306551
 30
0.0
 11
6669.484998239411
 21
5051.256393306551
 31
0.0
  0
LINE
  5
152BA
330
747D
100
AcDbEntity
  8
細線
100
AcDbLine
 10
6595.484998239412
 20
5045.256393306551
 30
0.0
 11
6669.484998239411
 21
5045.256393306551
 31
0.0
  0
LINE
  5
152BB
330
747D
100
AcDbEntity
  8
細線
100
AcDbLine
 10
6595.484998239408
 20
5039.25639330655
 30
0.0
 11
6669.484998239411
 21
5039.25639330655
 31
0.0
  0
LINE
  5
152BC
330
747D
100
AcDbEntity
  8
細線
100
AcDbLine
 10
6595.484998239412
 20
5051.256393306551
 30
0.0
 11
6664.484998239412
 21
5051.256393306551
 31
0.0
  0
LINE
  5
152BD
330
747D
100
AcDbEntity
  8
細線
100
AcDbLine
 10
6743.484998239408
 20
5051.256393306551
 30
0.0
 11
6669.484998239411
 21
5051.256393306551
 31
0.0
  0
LINE
  5
152BE
330
747D
100
AcDbEntity
  8
細線
100
AcDbLine
 10
6743.484998239408
 20
5039.25639330655
 30
0.0
 11
6669.484998239411
 21
5039.25639330655
 31
0.0
  0
LINE
  5
152BF
330
747D
100
AcDbEntity
  8
細線
100
AcDbLine
 10
6743.484998239408
 20
5045.256393306551
 30
0.0
 11
6669.484998239411
 21
5045.256393306551
 31
0.0
  0
LINE
  5
152C0
330
747D
100
AcDbEntity
  8
細線
100
AcDbLine
 10
6669.484998239411
 20
5057.25639330655
 30
0.0
 11
6669.484998239408
 21
5034.25639330655
 31
0.0
  0
LINE
  5
152C1
330
747D
100
AcDbEntity
  8
細線
100
AcDbLine
 10
5849.484998239407
 20
5057.25639330655
 30
0.0
 11
5849.484998239407
 21
5034.25639330655
 31
0.0
  0
LINE
  5
152C2
330
747D
100
AcDbEntity
  8
細線
100
AcDbLine
 10
5923.484998239405
 20
5045.256393306551
 30
0.0
 11
5849.484998239407
 21
5045.256393306551
 31
0.0
  0
LINE
  5
152C3
330
747D
100
AcDbEntity
  8
細線
100
AcDbLine
 10
5923.484998239405
 20
5039.25639330655
 30
0.0
 11
5849.484998239407
 21
5039.25639330655
 31
0.0
  0
LINE
  5
152C4
330
747D
100
AcDbEntity
  8
細線
100
AcDbLine
 10
5923.484998239405
 20
5051.256393306551
 30
0.0
 11
5849.484998239407
 21
5051.256393306551
 31
0.0
  0
LINE
  5
152C5
330
747D
100
AcDbEntity
  8
細線
100
AcDbLine
 10
5775.484998239408
 20
5051.256393306551
 30
0.0
 11
5844.484998239408
 21
5051.256393306551
 31
0.0
  0
LINE
  5
152C6
330
747D
100
AcDbEntity
  8
細線
100
AcDbLine
 10
5775.484998239406
 20
5039.25639330655
 30
0.0
 11
5849.484998239407
 21
5039.25639330655
 31
0.0
  0
LINE
  5
152C7
330
747D
100
AcDbEntity
  8
細線
100
AcDbLine
 10
5775.484998239408
 20
5045.256393306551
 30
0.0
 11
5849.484998239407
 21
5045.256393306551
 31
0.0
  0
LINE
  5
152C8
330
747D
100
AcDbEntity
  8
細線
100
AcDbLine
 10
5775.484998239408
 20
5051.256393306551
 30
0.0
 11
5849.484998239407
 21
5051.256393306551
 31
0.0
  0
LINE
  5
152C9
330
747D
100
AcDbEntity
  8
部品1
 48
0.01
100
AcDbLine
 10
5937.484998239408
 20
5063.756393306551
 30
0.0
 11
5761.484998239408
 21
5063.756393306551
 31
0.0
  0
LINE
  5
152CA
330
747D
100
AcDbEntity
  8
部品1
 48
0.01
100
AcDbLine
 10
5759.484998239408
 20
5061.75639330655
 30
0.0
 11
5759.484998239408
 21
5030.256393306551
 31
0.0
  0
LINE
  5
152CB
330
747D
100
AcDbEntity
  8
部品1
 48
0.01
100
AcDbLine
 10
5761.484998239408
 20
5028.25639330655
 30
0.0
 11
5937.484998239406
 21
5028.25639330655
 31
0.0
  0
LINE
  5
152CC
330
747D
100
AcDbEntity
  8
部品1
 48
0.01
100
AcDbLine
 10
5939.484998239406
 20
5030.256393306551
 30
0.0
 11
5939.484998239407
 21
5061.75639330655
 31
0.0
  0
LINE
  5
152CD
330
747D
100
AcDbEntity
  8
細線
100
AcDbLine
 10
5775.484998239408
 20
5057.25639330655
 30
0.0
 11
5775.484998239408
 21
5034.25639330655
 31
0.0
  0
LINE
  5
152CE
330
747D
100
AcDbEntity
  8
細線
100
AcDbLine
 10
5923.484998239408
 20
5034.25639330655
 30
0.0
 11
5923.484998239408
 21
5057.25639330655
 31
0.0
  0
LINE
  5
152CF
330
747D
100
AcDbEntity
  8
細線
100
AcDbLine
 10
5923.484998239408
 20
5057.25639330655
 30
0.0
 11
5849.484998239407
 21
5057.25639330655
 31
0.0
  0
LINE
  5
152D0
330
747D
100
AcDbEntity
  8
細線
100
AcDbLine
 10
5775.484998239408
 20
5034.25639330655
 30
0.0
 11
5849.484998239407
 21
5034.25639330655
 31
0.0
  0
LINE
  5
152D1
330
747D
100
AcDbEntity
  8
細線
100
AcDbLine
 10
5849.484998239407
 20
5057.25639330655
 30
0.0
 11
5775.484998239408
 21
5057.25639330655
 31
0.0
  0
LINE
  5
152D2
330
747D
100
AcDbEntity
  8
細線
100
AcDbLine
 10
5849.484998239407
 20
5034.25639330655
 30
0.0
 11
5923.484998239408
 21
5034.25639330655
 31
0.0
  0
ARC
  5
152D3
330
747D
100
AcDbEntity
  8
部品1
 48
0.01
100
AcDbCircle
 10
5761.484998239408
 20
5061.75639330655
 30
0.0
 40
2.0
100
AcDbArc
 50
90.0
 51
180.0
  0
ARC
  5
152D4
330
747D
100
AcDbEntity
  8
部品1
 48
0.01
100
AcDbCircle
 10
5761.484998239408
 20
5030.256393306551
 30
0.0
 40
2.0
100
AcDbArc
 50
180.0
 51
270.0
  0
ARC
  5
152D5
330
747D
100
AcDbEntity
  8
部品1
 48
0.01
100
AcDbCircle
 10
5937.484998239408
 20
5061.75639330655
 30
0.0
 40
2.0
100
AcDbArc
 50
0.0
 51
90.0
  0
ARC
  5
152D6
330
747D
100
AcDbEntity
  8
部品1
 48
0.01
100
AcDbCircle
 10
5937.484998239406
 20
5030.256393306551
 30
0.0
 40
2.0
100
AcDbArc
 50
270.0
 51
0.0
  0
MTEXT
  5
152D7
330
747D
100
AcDbEntity
  8
寸法
 62
     7
 48
50.0
100
AcDbMText
 10
6684.76479584998
 20
8904.658779058406
 30
0.0
 40
96.0
 41
0.0
 71
     5
 72
     1
  1
棚 2段
  7
STYLE1
 73
     1
 44
1.0
1001
ACAD
1000
MTEXTBEGIN
1070
    73
1070
     1
1070
    44
1040
1.0
1070
    74
1070
     0
1000
MTEXTEND
  0
MTEXT
  5
152D8
330
747D
100
AcDbEntity
  8
寸法
 62
     7
 48
50.0
100
AcDbMText
 10
5864.764802527678
 20
8904.658779058419
 30
0.0
 40
96.0
 41
0.0
 71
     5
 72
     1
  1
棚 2段
  7
STYLE1
 73
     1
 44
1.0
1001
ACAD
1000
MTEXTBEGIN
1070
    73
1070
     1
1070
    44
1040
1.0
1070
    74
1070
     0
1000
MTEXTEND
  0
ARC
  5
152D9
330
747D
100
AcDbEntity
  8
部品1
100
AcDbCircle
 10
7122.076577132972
 20
5225.756393306554
 30
0.0
 40
7.0
100
AcDbArc
 50
356.7526572096623
 51
90.0
  0
ARC
  5
152DA
330
747D
100
AcDbEntity
  8
部品1
100
AcDbCircle
 10
7108.861253671938
 20
5098.756393306556
 30
0.0
 40
7.0
100
AcDbArc
 50
270.0
 51
356.7526572096623
  0
ARC
  5
152DB
330
747D
100
AcDbEntity
  8
部品1
 48
50.0
100
AcDbCircle
 10
7127.233063882617
 20
5205.423392468241
 30
0.0
 40
0.7
100
AcDbArc
 50
277.6581272073652
 51
356.7526572096103
  0
ARC
  5
152DC
330
747D
100
AcDbEntity
  8
部品1
 48
50.0
100
AcDbCircle
 10
7118.997033357773
 20
5113.223392468237
 30
0.0
 40
0.7
100
AcDbArc
 50
277.6581272073652
 51
356.7526572097143
  0
ARC
  5
152DD
330
747D
100
AcDbEntity
  8
部品1
 48
50.0
100
AcDbCircle
 10
7119.490102466333
 20
5109.556393306553
 30
0.0
 40
3.0
100
AcDbArc
 50
97.65812720736519
 51
176.7526572096623
  0
ARC
  5
152DE
330
747D
100
AcDbEntity
  8
部品1
 48
50.0
100
AcDbCircle
 10
7127.726132991178
 20
5201.756393306556
 30
0.0
 40
3.0
100
AcDbArc
 50
97.65812720736519
 51
176.7526572096623
  0
LINE
  5
152DF
330
747D
100
AcDbEntity
  8
部品1
100
AcDbLine
 10
7124.730950094992
 20
5201.926332761657
 30
0.0
 11
7119.695909366881
 21
5113.183739928714
 31
0.0
  0
LINE
  5
152E0
330
747D
100
AcDbEntity
  8
部品1
100
AcDbLine
 10
7116.494919570148
 20
5109.726332761656
 30
0.0
 11
7115.850013763036
 21
5098.359867911316
 31
0.0
  0
LINE
  5
152E1
330
747D
100
AcDbEntity
  8
細線
 48
50.0
100
AcDbLine
 10
7096.484998239404
 20
5232.756393306554
 30
0.0
 11
7096.484998239404
 21
5091.756393306553
 31
0.0
  0
LINE
  5
152E2
330
747D
100
AcDbEntity
  8
部品1
100
AcDbLine
 10
7129.065337224071
 20
5225.359867911315
 30
0.0
 11
7127.931939891725
 21
5205.383739928715
 31
0.0
  0
DIMENSION
  5
152E3
330
747D
100
AcDbEntity
  8
寸法
 48
50.0
100
AcDbDimension
  2
*D18
 10
7079.484998239404
 20
5445.297978564795
 30
0.0
 11
7442.970279613641
 21
5445.297978564795
 31
0.0
 70
   160
 71
     5
 42
50.0
  3
INABA_S40G
100
AcDbAlignedDimension
 13
7129.484998239404
 23
5232.756393306554
 33
0.0
 14
7079.484998239404
 24
5232.756393306556
 34
0.0
100
AcDbRotatedDimension
  0
LINE
  5
152E4
330
747D
100
AcDbEntity
  8
部品1
 48
50.0
100
AcDbLine
 10
7108.861253671938
 20
5091.756393306556
 30
0.0
 11
5410.108742806864
 21
5091.756393306556
 31
0.0
  0
LINE
  5
152E5
330
747D
100
AcDbEntity
  8
細線
 48
50.0
100
AcDbLine
 10
7119.090316702664
 20
5112.529635870349
 30
0.0
 11
5399.879679774647
 21
5112.529635870552
 31
0.0
  0
LINE
  5
152E6
330
747D
100
AcDbEntity
  8
細線
 48
50.0
100
AcDbLine
 10
7127.326347227484
 20
5204.729635870347
 30
0.0
 11
5391.643649249814
 21
5204.729635870553
 31
0.0
  0
LINE
  5
152E7
330
747D
100
AcDbEntity
  8
部品1
 48
50.0
100
AcDbLine
 10
7122.076577132972
 20
5232.756393306554
 30
0.0
 11
5396.89341934583
 21
5232.756393306554
 31
0.0
  0
LINE
  5
152E8
330
747D
100
AcDbEntity
  8
部品1
100
AcDbLine
 10
5389.904659254732
 20
5225.359867911318
 30
0.0
 11
5391.03805658708
 21
5205.383739928719
 31
0.0
  0
LINE
  5
152E9
330
747D
100
AcDbEntity
  8
部品1
100
AcDbLine
 10
5402.475076908657
 20
5109.72633276166
 30
0.0
 11
5403.119982715764
 21
5098.359867911319
 31
0.0
  0
LINE
  5
152EA
330
747D
100
AcDbEntity
  8
部品1
100
AcDbLine
 10
5394.239046383809
 20
5201.926332761662
 30
0.0
 11
5399.27408711192
 21
5113.183739928718
 31
0.0
  0
ARC
  5
152EB
330
747D
100
AcDbEntity
  8
部品1
 48
50.0
100
AcDbCircle
 10
5391.243863487623
 20
5201.75639330656
 30
0.0
 40
3.0
100
AcDbArc
 50
3.247342790337682
 51
82.3418727926348
  0
ARC
  5
152EC
330
747D
100
AcDbEntity
  8
部品1
 48
50.0
100
AcDbCircle
 10
5399.479894012467
 20
5109.556393306557
 30
0.0
 40
3.0
100
AcDbArc
 50
3.247342790337682
 51
82.3418727926348
  0
ARC
  5
152ED
330
747D
100
AcDbEntity
  8
部品1
 48
50.0
100
AcDbCircle
 10
5399.972963121029
 20
5113.22339246824
 30
0.0
 40
0.7
100
AcDbArc
 50
183.2473427902856
 51
262.3418727926349
  0
ARC
  5
152EE
330
747D
100
AcDbEntity
  8
部品1
 48
50.0
100
AcDbCircle
 10
5391.736932596188
 20
5205.423392468245
 30
0.0
 40
0.7
100
AcDbArc
 50
183.2473427903897
 51
262.3418727926349
  0
ARC
  5
152EF
330
747D
100
AcDbEntity
  8
部品1
100
AcDbCircle
 10
5410.108742806864
 20
5098.756393306559
 30
0.0
 40
7.0
100
AcDbArc
 50
183.2473427903377
 51
270.0
  0
ARC
  5
152F0
330
747D
100
AcDbEntity
  8
部品1
100
AcDbCircle
 10
5396.89341934583
 20
5225.756393306557
 30
0.0
 40
7.0
100
AcDbArc
 50
90.0
 51
183.2473427903377
  0
LINE
  5
152F1
330
747D
100
AcDbEntity
  8
細線
 48
50.0
100
AcDbLine
 10
5422.484998239401
 20
5232.756393306558
 30
0.0
 11
5422.484998239401
 21
5091.756393306556
 31
0.0
  0
DIMENSION
  5
152F2
330
747D
100
AcDbEntity
  8
寸法
 48
50.0
100
AcDbDimension
  2
*D19
 10
5389.4849982394
 20
5445.297978564799
 30
0.0
 11
5075.999716865154
 21
5445.297978564799
 31
0.0
 70
   160
 71
     5
 42
50.0
  3
INABA_S40G
100
AcDbAlignedDimension
 13
5439.4849982394
 23
5232.756393306561
 33
0.0
 14
5389.4849982394
 24
5232.756393306559
 34
0.0
100
AcDbRotatedDimension
1001
ACAD
1000
DSTYLE
1002
{
1002
}
  0
DIMENSION
  5
152F3
330
747D
100
AcDbEntity
  8
寸法
 48
50.0
100
AcDbDimension
  2
*D20
 10
5439.4849982394
 20
5445.297978564799
 30
0.0
 11
6275.858403643506
 21
5445.297978564799
 31
0.0
 70
   160
  1
柱外寸法<>
 71
     5
 42
1640.000000000004
  3
INABA_S40G
100
AcDbAlignedDimension
 13
7079.484998239404
 23
5232.756393306556
 33
0.0
 14
5439.4849982394
 24
5232.756393306561
 34
0.0
100
AcDbRotatedDimension
  0
DIMENSION
  5
152F4
330
747D
100
AcDbEntity
  8
寸法
 48
50.0
100
AcDbDimension
  2
*D21
 10
7129.484998239404
 20
5668.254957002646
 30
0.0
 11
6241.583474075596
 21
5668.254957002646
 31
0.0
 70
   160
 71
     5
 42
1740.000000000003
  3
INABA_S40G
100
AcDbAlignedDimension
 13
5389.4849982394
 23
5232.756393306559
 33
0.0
 14
7129.484998239404
 24
5232.756393306554
 34
0.0
100
AcDbRotatedDimension
  0
LINE
  5
152FA
330
747D
100
AcDbEntity
  8
仕様書枠
 48
50.0
100
AcDbLine
 10
16307.19999999999
 20
11409.6
 30
0.0
 11
13127.2
 21
11409.6
 31
0.0
  0
TEXT
  5
15340
330
747D
100
AcDbEntity
  8
文字
 62
     7
 48
50.0
100
AcDbText
 10
14271.39351435261
 20
483.8967129911411
 30
0.0
 40
160.0
  1
ＮＸＮ－１１ＤＬ－２
  7
STYLE2
100
AcDbText
  0
CIRCLE
  5
15373
330
747D
100
AcDbEntity
  8
細線
 48
50.0
100
AcDbCircle
 10
5529.985863293892
 20
4200.256393306552
 30
0.0
 40
20.0
  0
CIRCLE
  5
15374
330
747D
100
AcDbEntity
  8
細線
 48
50.0
100
AcDbCircle
 10
5529.985863293892
 20
4200.256393306552
 30
0.0
 40
10.0
  0
CIRCLE
  5
15375
330
747D
100
AcDbEntity
  8
細線
 48
50.0
100
AcDbCircle
 10
6345.484998239401
 20
4200.256393306553
 30
0.0
 40
10.0
  0
CIRCLE
  5
15376
330
747D
100
AcDbEntity
  8
細線
 48
50.0
100
AcDbCircle
 10
6345.484998239401
 20
4200.256393306553
 30
0.0
 40
20.0
  0
LINE
  5
153A3
330
747D
100
AcDbEntity
  8
部品1
100
AcDbLine
 10
7034.42255041072
 20
3204.256393306573
 30
0.0
 11
7034.484998239401
 21
3204.256393306573
 31
0.0
  0
LINE
  5
153A4
330
747D
100
AcDbEntity
  8
部品1
100
AcDbLine
 10
6214.42255041072
 20
3204.256393306564
 30
0.0
 11
6214.484998239401
 21
3204.256393306564
 31
0.0
  0
ARC
  5
153A5
330
747D
100
AcDbEntity
  8
細線
 48
0.2
100
AcDbCircle
 10
7031.42255041072
 20
3204.035883475323
 30
0.0
 40
1.0
100
AcDbArc
 50
286.6015495989848
 51
0.0
  0
LINE
  5
153A6
330
747D
100
AcDbEntity
  8
細線
 48
0.1
100
AcDbLine
 10
7034.42255041072
 20
3204.006393306571
 30
0.0
 11
7034.42255041072
 21
3211.006393306571
 31
0.0
  0
LINE
  5
153A7
330
747D
100
AcDbEntity
  8
細線
 48
50.0
100
AcDbLine
 10
7022.559793216416
 20
3206.506393306573
 30
0.0
 11
7022.559793216416
 21
3208.506393306571
 31
0.0
  0
LINE
  5
153A8
330
747D
100
AcDbEntity
  8
細線
 48
50.0
100
AcDbLine
 10
7030.41020326238
 20
3206.506393306573
 30
0.0
 11
7030.41020326238
 21
3208.506393306571
 31
0.0
  0
LINE
  5
153A9
330
747D
100
AcDbEntity
  8
細線
 48
0.2
100
AcDbLine
 10
7034.42255041072
 20
3204.006393306571
 30
0.0
 11
7014.42255041072
 21
3204.006393306571
 31
0.0
  0
LINE
  5
153AA
330
747D
100
AcDbEntity
  8
細線
 48
0.2
100
AcDbLine
 10
7034.42255041072
 20
3208.506393306571
 30
0.0
 11
7014.42255041072
 21
3208.506393306571
 31
0.0
  0
LINE
  5
153AB
330
747D
100
AcDbEntity
  8
細線
 48
0.2
100
AcDbLine
 10
7034.42255041072
 20
3206.506393306571
 30
0.0
 11
7014.42255041072
 21
3206.506393306573
 31
0.0
  0
ARC
  5
153AC
330
747D
100
AcDbEntity
  8
細線
 48
0.2
100
AcDbCircle
 10
7021.42255041072
 20
3204.035883475323
 30
0.0
 40
1.0
100
AcDbArc
 50
180.0
 51
253.3984504010152
  0
ARC
  5
153AD
330
747D
100
AcDbEntity
  8
細線
 48
0.2
100
AcDbCircle
 10
7026.42255041072
 20
3220.806393306568
 30
0.0
 40
18.49999999999796
100
AcDbArc
 50
253.3984504010152
 51
286.6015495989848
  0
LINE
  5
153AE
330
747D
100
AcDbEntity
  8
細線
 48
0.2
100
AcDbLine
 10
7032.106541707228
 20
3203.30639330657
 30
0.0
 11
7020.738559114215
 21
3203.30639330657
 31
0.0
  0
LINE
  5
153AF
330
747D
100
AcDbEntity
  8
細線
 48
50.0
100
AcDbLine
 10
7014.42255041072
 20
3204.256393306573
 30
0.0
 11
7014.42255041072
 21
3204.006393306571
 31
0.0
  0
LINE
  5
153B0
330
747D
100
AcDbEntity
  8
部品1
 48
50.0
100
AcDbLine
 10
7014.42255041072
 20
3211.006393306571
 30
0.0
 11
7014.42255041072
 21
3204.256393306573
 31
0.0
  0
LINE
  5
153B1
330
747D
100
AcDbEntity
  8
部品1
100
AcDbLine
 10
7034.42255041072
 20
3204.256393306573
 30
0.0
 11
7034.484998239401
 21
3204.256393306573
 31
0.0
  0
LINE
  5
153B2
330
747D
100
AcDbEntity
  8
部品1
 48
0.2
100
AcDbLine
 10
7034.42255041072
 20
3211.006393306571
 30
0.0
 11
7014.42255041072
 21
3211.006393306571
 31
0.0
  0
LINE
  5
153B3
330
747D
100
AcDbEntity
  8
部品1
100
AcDbLine
 10
7034.42255041072
 20
3204.256393306574
 30
0.0
 11
7034.484998239401
 21
3204.256393306574
 31
0.0
  0
LINE
  5
153B4
330
747D
100
AcDbEntity
  8
部品1
 48
0.2
100
AcDbLine
 10
6214.42255041072
 20
3211.006393306571
 30
0.0
 11
6194.42255041072
 21
3211.006393306571
 31
0.0
  0
LINE
  5
153B5
330
747D
100
AcDbEntity
  8
部品1
100
AcDbLine
 10
6214.42255041072
 20
3204.256393306573
 30
0.0
 11
6214.484998239401
 21
3204.256393306573
 31
0.0
  0
LINE
  5
153B6
330
747D
100
AcDbEntity
  8
部品1
 48
50.0
100
AcDbLine
 10
6194.42255041072
 20
3211.006393306571
 30
0.0
 11
6194.42255041072
 21
3204.256393306573
 31
0.0
  0
LINE
  5
153B7
330
747D
100
AcDbEntity
  8
細線
 48
50.0
100
AcDbLine
 10
6194.42255041072
 20
3204.256393306573
 30
0.0
 11
6194.42255041072
 21
3204.006393306571
 31
0.0
  0
LINE
  5
153B8
330
747D
100
AcDbEntity
  8
細線
 48
0.2
100
AcDbLine
 10
6212.106541707228
 20
3203.30639330657
 30
0.0
 11
6200.738559114216
 21
3203.30639330657
 31
0.0
  0
ARC
  5
153B9
330
747D
100
AcDbEntity
  8
細線
 48
0.2
100
AcDbCircle
 10
6206.42255041072
 20
3220.806393306568
 30
0.0
 40
18.49999999999796
100
AcDbArc
 50
253.3984504010152
 51
286.6015495989848
  0
ARC
  5
153BA
330
747D
100
AcDbEntity
  8
細線
 48
0.2
100
AcDbCircle
 10
6201.42255041072
 20
3204.035883475323
 30
0.0
 40
1.0
100
AcDbArc
 50
180.0
 51
253.3984504010152
  0
LINE
  5
153BB
330
747D
100
AcDbEntity
  8
細線
 48
0.2
100
AcDbLine
 10
6214.42255041072
 20
3206.506393306571
 30
0.0
 11
6194.42255041072
 21
3206.506393306573
 31
0.0
  0
LINE
  5
153BC
330
747D
100
AcDbEntity
  8
細線
 48
0.2
100
AcDbLine
 10
6214.42255041072
 20
3208.506393306571
 30
0.0
 11
6194.42255041072
 21
3208.506393306571
 31
0.0
  0
LINE
  5
153BD
330
747D
100
AcDbEntity
  8
細線
 48
0.2
100
AcDbLine
 10
6214.42255041072
 20
3204.006393306571
 30
0.0
 11
6194.42255041072
 21
3204.006393306571
 31
0.0
  0
LINE
  5
153BE
330
747D
100
AcDbEntity
  8
細線
 48
50.0
100
AcDbLine
 10
6210.41020326238
 20
3206.506393306573
 30
0.0
 11
6210.41020326238
 21
3208.506393306571
 31
0.0
  0
LINE
  5
153BF
330
747D
100
AcDbEntity
  8
細線
 48
50.0
100
AcDbLine
 10
6202.559793216416
 20
3206.506393306573
 30
0.0
 11
6202.559793216416
 21
3208.506393306571
 31
0.0
  0
LINE
  5
153C0
330
747D
100
AcDbEntity
  8
細線
 48
0.1
100
AcDbLine
 10
6214.42255041072
 20
3204.006393306571
 30
0.0
 11
6214.42255041072
 21
3211.006393306571
 31
0.0
  0
ARC
  5
153C1
330
747D
100
AcDbEntity
  8
細線
 48
0.2
100
AcDbCircle
 10
6211.42255041072
 20
3204.035883475323
 30
0.0
 40
1.0
100
AcDbArc
 50
286.6015495989848
 51
0.0
  0
LINE
  5
153C2
330
747D
100
AcDbEntity
  8
部品1
100
AcDbLine
 10
7034.42255041072
 20
4995.256393306551
 30
0.0
 11
7034.484998239401
 21
4995.256393306552
 31
0.0
  0
LINE
  5
153C3
330
747D
100
AcDbEntity
  8
部品1
 48
0.2
100
AcDbLine
 10
7034.42255041072
 20
4988.506393306554
 30
0.0
 11
7014.42255041072
 21
4988.506393306554
 31
0.0
  0
LINE
  5
153C4
330
747D
100
AcDbEntity
  8
部品1
100
AcDbLine
 10
7034.42255041072
 20
4995.256393306554
 30
0.0
 11
7034.484998239401
 21
4995.256393306552
 31
0.0
  0
LINE
  5
153C5
330
747D
100
AcDbEntity
  8
部品1
 48
50.0
100
AcDbLine
 10
7014.42255041072
 20
4988.506393306554
 30
0.0
 11
7014.42255041072
 21
4995.256393306554
 31
0.0
  0
LINE
  5
153C6
330
747D
100
AcDbEntity
  8
細線
 48
50.0
100
AcDbLine
 10
7014.42255041072
 20
4995.256393306554
 30
0.0
 11
7014.42255041072
 21
4995.506393306554
 31
0.0
  0
LINE
  5
153C7
330
747D
100
AcDbEntity
  8
細線
 48
0.2
100
AcDbLine
 10
7032.106541707228
 20
4996.206393306555
 30
0.0
 11
7020.738559114215
 21
4996.206393306555
 31
0.0
  0
ARC
  5
153C8
330
747D
100
AcDbEntity
  8
細線
 48
0.2
100
AcDbCircle
 10
7026.42255041072
 20
4978.706393306556
 30
0.0
 40
18.49999999999796
100
AcDbArc
 50
73.39845040101522
 51
106.6015495989848
  0
ARC
  5
153C9
330
747D
100
AcDbEntity
  8
細線
 48
0.2
100
AcDbCircle
 10
7021.42255041072
 20
4995.476903137802
 30
0.0
 40
1.0
100
AcDbArc
 50
106.6015495989848
 51
180.0
  0
LINE
  5
153CA
330
747D
100
AcDbEntity
  8
細線
 48
0.2
100
AcDbLine
 10
7034.42255041072
 20
4993.006393306554
 30
0.0
 11
7014.42255041072
 21
4993.006393306554
 31
0.0
  0
LINE
  5
153CB
330
747D
100
AcDbEntity
  8
細線
 48
0.2
100
AcDbLine
 10
7034.42255041072
 20
4991.006393306554
 30
0.0
 11
7014.42255041072
 21
4991.006393306554
 31
0.0
  0
LINE
  5
153CC
330
747D
100
AcDbEntity
  8
細線
 48
0.2
100
AcDbLine
 10
7034.42255041072
 20
4995.506393306554
 30
0.0
 11
7014.42255041072
 21
4995.506393306554
 31
0.0
  0
LINE
  5
153CD
330
747D
100
AcDbEntity
  8
細線
 48
50.0
100
AcDbLine
 10
7030.41020326238
 20
4993.006393306554
 30
0.0
 11
7030.41020326238
 21
4991.006393306554
 31
0.0
  0
LINE
  5
153CE
330
747D
100
AcDbEntity
  8
細線
 48
50.0
100
AcDbLine
 10
7022.559793216416
 20
4993.006393306554
 30
0.0
 11
7022.559793216416
 21
4991.006393306554
 31
0.0
  0
LINE
  5
153CF
330
747D
100
AcDbEntity
  8
細線
 48
0.1
100
AcDbLine
 10
7034.42255041072
 20
4995.506393306554
 30
0.0
 11
7034.42255041072
 21
4988.506393306554
 31
0.0
  0
ARC
  5
153D0
330
747D
100
AcDbEntity
  8
細線
 48
0.2
100
AcDbCircle
 10
7031.42255041072
 20
4995.476903137802
 30
0.0
 40
1.0
100
AcDbArc
 50
0.0
 51
73.39845040101522
  0
LINE
  5
153D1
330
747D
100
AcDbEntity
  8
細線
 48
50.0
100
AcDbLine
 10
6194.42255041072
 20
4995.256393306554
 30
0.0
 11
6194.42255041072
 21
4995.506393306554
 31
0.0
  0
LINE
  5
153D2
330
747D
100
AcDbEntity
  8
部品1
100
AcDbLine
 10
6214.42255041072
 20
4995.256393306554
 30
0.0
 11
6214.484998239401
 21
4995.256393306552
 31
0.0
  0
LINE
  5
153D3
330
747D
100
AcDbEntity
  8
部品1
 48
50.0
100
AcDbLine
 10
6194.42255041072
 20
4988.506393306554
 30
0.0
 11
6194.42255041072
 21
4995.256393306554
 31
0.0
  0
LINE
  5
153D4
330
747D
100
AcDbEntity
  8
細線
 48
0.2
100
AcDbLine
 10
6214.42255041072
 20
4995.506393306554
 30
0.0
 11
6194.42255041072
 21
4995.506393306554
 31
0.0
  0
LINE
  5
153D5
330
747D
100
AcDbEntity
  8
細線
 48
0.2
100
AcDbLine
 10
6214.42255041072
 20
4991.006393306554
 30
0.0
 11
6194.42255041072
 21
4991.006393306554
 31
0.0
  0
LINE
  5
153D6
330
747D
100
AcDbEntity
  8
細線
 48
0.2
100
AcDbLine
 10
6214.42255041072
 20
4993.006393306554
 30
0.0
 11
6194.42255041072
 21
4993.006393306554
 31
0.0
  0
LINE
  5
153D7
330
747D
100
AcDbEntity
  8
部品1
 48
0.2
100
AcDbLine
 10
6214.42255041072
 20
4988.506393306554
 30
0.0
 11
6194.42255041072
 21
4988.506393306554
 31
0.0
  0
ARC
  5
153D8
330
747D
100
AcDbEntity
  8
細線
 48
0.2
100
AcDbCircle
 10
6201.42255041072
 20
4995.476903137802
 30
0.0
 40
1.0
100
AcDbArc
 50
106.6015495989848
 51
180.0
  0
ARC
  5
153D9
330
747D
100
AcDbEntity
  8
細線
 48
0.2
100
AcDbCircle
 10
6211.42255041072
 20
4995.476903137802
 30
0.0
 40
1.0
100
AcDbArc
 50
0.0
 51
73.39845040101522
  0
LINE
  5
153DA
330
747D
100
AcDbEntity
  8
細線
 48
0.1
100
AcDbLine
 10
6214.42255041072
 20
4995.506393306554
 30
0.0
 11
6214.42255041072
 21
4988.506393306554
 31
0.0
  0
ARC
  5
153DB
330
747D
100
AcDbEntity
  8
細線
 48
0.2
100
AcDbCircle
 10
6206.42255041072
 20
4978.706393306556
 30
0.0
 40
18.49999999999796
100
AcDbArc
 50
73.39845040101522
 51
106.6015495989848
  0
LINE
  5
153DC
330
747D
100
AcDbEntity
  8
細線
 48
0.2
100
AcDbLine
 10
6212.106541707228
 20
4996.206393306555
 30
0.0
 11
6200.738559114216
 21
4996.206393306555
 31
0.0
  0
LINE
  5
153DD
330
747D
100
AcDbEntity
  8
細線
 48
50.0
100
AcDbLine
 10
6202.559793216416
 20
4993.006393306554
 30
0.0
 11
6202.559793216416
 21
4991.006393306554
 31
0.0
  0
LINE
  5
153DE
330
747D
100
AcDbEntity
  8
細線
 48
50.0
100
AcDbLine
 10
6210.41020326238
 20
4993.006393306554
 30
0.0
 11
6210.41020326238
 21
4991.006393306554
 31
0.0
  0
ARC
  5
153E7
330
747D
100
AcDbEntity
  8
細線
100
AcDbCircle
 10
5544.484998239401
 20
4143.756393306552
 30
0.0
 40
6.0
100
AcDbArc
 50
0.0
 51
90.0
  0
LINE
  5
153E8
330
747D
100
AcDbEntity
  8
細線
100
AcDbLine
 10
5544.484998239401
 20
4149.756393306552
 30
0.0
 11
5513.865954603878
 21
4149.756393306552
 31
0.0
  0
ARC
  5
153E9
330
747D
100
AcDbEntity
  8
細線
100
AcDbCircle
 10
5534.692537418147
 20
4140.756393306552
 30
0.0
 40
6.0
100
AcDbArc
 50
0.0
 51
90.0
  0
LINE
  5
153EA
330
747D
100
AcDbEntity
  8
細線
100
AcDbLine
 10
5534.692537418147
 20
4146.756393306552
 30
0.0
 11
5522.4849982394
 21
4146.756393306552
 31
0.0
  0
ARC
  5
153EB
330
747D
100
AcDbEntity
  8
細線
100
AcDbCircle
 10
5523.979422149234
 20
4140.756393306552
 30
0.0
 40
3.0
100
AcDbArc
 50
8.099550838287138
 51
90.0
  0
LINE
  5
153EC
330
747D
100
AcDbEntity
  8
細線
100
AcDbLine
 10
5523.979422149234
 20
4143.756393306552
 30
0.0
 11
5522.4849982394
 21
4143.756393306552
 31
0.0
  0
ARC
  5
153ED
330
747D
100
AcDbEntity
  8
部品1
100
AcDbCircle
 10
5550.484998239401
 20
4153.756393306552
 30
0.0
 40
6.0
100
AcDbArc
 50
0.0
 51
90.0
  0
ARC
  5
153EE
330
747D
100
AcDbEntity
  8
細線
100
AcDbCircle
 10
5549.484998239401
 20
4152.756393306552
 30
0.0
 40
5.5
100
AcDbArc
 50
0.0
 51
90.0
  0
ARC
  5
153EF
330
747D
100
AcDbEntity
  8
細線
100
AcDbCircle
 10
5510.318379770154
 20
4152.756393306552
 30
0.0
 40
5.5
100
AcDbArc
 50
90.0
 51
169.5785490272547
  0
ARC
  5
153F0
330
747D
100
AcDbEntity
  8
部品1
100
AcDbCircle
 10
5509.486728348385
 20
4153.756393306552
 30
0.0
 40
6.0
100
AcDbArc
 50
90.0
 51
169.4161974034606
  0
LINE
  5
153F1
330
747D
100
AcDbEntity
  8
部品1
100
AcDbLine
 10
5550.484998239401
 20
4159.756393306552
 30
0.0
 11
5509.486728348385
 21
4159.756393306552
 31
0.0
  0
LINE
  5
153F2
330
747D
100
AcDbEntity
  8
細線
100
AcDbLine
 10
5549.484998239401
 20
4158.256393306552
 30
0.0
 11
5510.318379770154
 21
4158.256393306552
 31
0.0
  0
LINE
  5
153F3
330
747D
100
AcDbEntity
  8
細線
100
AcDbLine
 10
5522.4849982394
 20
4143.755885407991
 30
0.0
 11
5509.721671023434
 21
4143.755885407991
 31
0.0
  0
ARC
  5
153F4
330
747D
100
AcDbEntity
  8
細線
100
AcDbCircle
 10
5513.865954603878
 20
4143.756393306552
 30
0.0
 40
6.0
100
AcDbArc
 50
90.0
 51
171.2120626773772
  0
ARC
  5
153F5
330
747D
100
AcDbEntity
  8
細線
100
AcDbCircle
 10
5544.484998239401
 20
4055.756393306552
 30
0.0
 40
6.0
100
AcDbArc
 50
270.0
 51
0.0
  0
LINE
  5
153F6
330
747D
100
AcDbEntity
  8
細線
100
AcDbLine
 10
5513.865954603878
 20
4049.756393306552
 30
0.0
 11
5544.484998239401
 21
4049.756393306552
 31
0.0
  0
ARC
  5
153F7
330
747D
100
AcDbEntity
  8
細線
100
AcDbCircle
 10
5534.692537418147
 20
4058.756393306552
 30
0.0
 40
6.0
100
AcDbArc
 50
270.0
 51
0.0
  0
LINE
  5
153F8
330
747D
100
AcDbEntity
  8
細線
100
AcDbLine
 10
5522.4849982394
 20
4052.756393306552
 30
0.0
 11
5534.692537418147
 21
4052.756393306552
 31
0.0
  0
ARC
  5
153F9
330
747D
100
AcDbEntity
  8
細線
100
AcDbCircle
 10
5523.979422149236
 20
4058.756393306552
 30
0.0
 40
3.0
100
AcDbArc
 50
270.0
 51
351.9004491617129
  0
LINE
  5
153FA
330
747D
100
AcDbEntity
  8
細線
100
AcDbLine
 10
5522.4849982394
 20
4055.756393306552
 30
0.0
 11
5523.979422149236
 21
4055.756393306552
 31
0.0
  0
ARC
  5
153FB
330
747D
100
AcDbEntity
  8
部品1
100
AcDbCircle
 10
5550.484998239401
 20
4045.756393306552
 30
0.0
 40
6.0
100
AcDbArc
 50
270.0
 51
0.0
  0
ARC
  5
153FC
330
747D
100
AcDbEntity
  8
細線
100
AcDbCircle
 10
5549.484998239401
 20
4046.756393306552
 30
0.0
 40
5.5
100
AcDbArc
 50
270.0
 51
0.0
  0
ARC
  5
153FD
330
747D
100
AcDbEntity
  8
細線
100
AcDbCircle
 10
5510.318379770154
 20
4046.756393306552
 30
0.0
 40
5.5
100
AcDbArc
 50
190.4214509727453
 51
270.0
  0
ARC
  5
153FE
330
747D
100
AcDbEntity
  8
部品1
100
AcDbCircle
 10
5509.486728348385
 20
4045.756393306552
 30
0.0
 40
6.0
100
AcDbArc
 50
190.5838025965393
 51
270.0
  0
LINE
  5
153FF
330
747D
100
AcDbEntity
  8
部品1
100
AcDbLine
 10
5509.486728348385
 20
4039.756393306552
 30
0.0
 11
5550.484998239401
 21
4039.756393306552
 31
0.0
  0
LINE
  5
15400
330
747D
100
AcDbEntity
  8
細線
100
AcDbLine
 10
5510.318379770154
 20
4041.256393306552
 30
0.0
 11
5549.484998239401
 21
4041.256393306552
 31
0.0
  0
LINE
  5
15401
330
747D
100
AcDbEntity
  8
細線
100
AcDbLine
 10
5522.4849982394
 20
4055.756901205115
 30
0.0
 11
5509.006293740578
 21
4055.756901205115
 31
0.0
  0
ARC
  5
15402
330
747D
100
AcDbEntity
  8
細線
100
AcDbCircle
 10
5513.865954603878
 20
4055.756393306552
 30
0.0
 40
6.0
100
AcDbArc
 50
188.7879373226227
 51
270.0
  0
LINE
  5
15403
330
747D
100
AcDbEntity
  8
部品1
100
AcDbLine
 10
5556.484998239401
 20
4045.756393306552
 30
0.0
 11
5556.484998239401
 21
4153.756393306552
 31
0.0
  0
LINE
  5
15404
330
747D
100
AcDbEntity
  8
細線
100
AcDbLine
 10
5554.984998239401
 20
4046.756393306552
 30
0.0
 11
5554.984998239401
 21
4152.756393306552
 31
0.0
  0
LINE
  5
15405
330
747D
100
AcDbEntity
  8
細線
100
AcDbLine
 10
5550.484998239401
 20
4055.756393306552
 30
0.0
 11
5550.484998239401
 21
4143.756393306552
 31
0.0
  0
ARC
  5
15406
330
747D
100
AcDbEntity
  8
細線
100
AcDbCircle
 10
5235.882216331476
 20
4099.756393306551
 30
0.0
 40
294.0
100
AcDbArc
 50
351.9004491617129
 51
8.099550838287138
  0
ARC
  5
15407
330
747D
100
AcDbEntity
  8
細線
100
AcDbCircle
 10
5798.484998239401
 20
4099.756393306551
 30
0.0
 40
294.0
100
AcDbArc
 50
171.2120626773772
 51
188.7879373226227
  0
ARC
  5
15408
330
747D
100
AcDbEntity
  8
細線
100
AcDbCircle
 10
5798.484998239401
 20
4099.756393306551
 30
0.0
 40
298.5
100
AcDbArc
 50
169.5785490272547
 51
190.4214509727453
  0
ARC
  5
15409
330
747D
100
AcDbEntity
  8
部品1
100
AcDbCircle
 10
5798.484998239401
 20
4099.756393306551
 30
0.0
 40
300.0
100
AcDbArc
 50
169.4161974034606
 51
190.5838025965393
  0
LINE
  5
1540A
330
747D
100
AcDbEntity
  8
細線
100
AcDbLine
 10
5522.4849982394
 20
4149.756393306552
 30
0.0
 11
5522.4849982394
 21
4049.756393306552
 31
0.0
  0
LINE
  5
1540B
330
747D
100
AcDbEntity
  8
細線
100
AcDbLine
 10
5540.692537418147
 20
4058.756393306552
 30
0.0
 11
5540.692537418147
 21
4140.756393306552
 31
0.0
  0
LINE
  5
1540C
330
747D
100
AcDbEntity
  8
部品1
100
AcDbLine
 10
6371.984133184907
 20
4045.756393306554
 30
0.0
 11
6371.984133184907
 21
4153.756393306553
 31
0.0
  0
LINE
  5
1540D
330
747D
100
AcDbEntity
  8
細線
100
AcDbLine
 10
6370.484133184907
 20
4046.756393306554
 30
0.0
 11
6370.484133184907
 21
4152.756393306554
 31
0.0
  0
LINE
  5
1540E
330
747D
100
AcDbEntity
  8
細線
100
AcDbLine
 10
6365.984133184907
 20
4055.756393306554
 30
0.0
 11
6365.984133184907
 21
4143.756393306554
 31
0.0
  0
ARC
  5
1540F
330
747D
100
AcDbEntity
  8
部品1
100
AcDbCircle
 10
6365.984133184907
 20
4045.756393306554
 30
0.0
 40
6.0
100
AcDbArc
 50
270.0
 51
0.0
  0
ARC
  5
15410
330
747D
100
AcDbEntity
  8
細線
100
AcDbCircle
 10
6364.984133184908
 20
4046.756393306554
 30
0.0
 40
5.5
100
AcDbArc
 50
270.0
 51
0.0
  0
ARC
  5
15411
330
747D
100
AcDbEntity
  8
部品1
100
AcDbCircle
 10
6365.984133184907
 20
4153.756393306553
 30
0.0
 40
6.0
100
AcDbArc
 50
0.0
 51
90.0
  0
ARC
  5
15412
330
747D
100
AcDbEntity
  8
細線
100
AcDbCircle
 10
6364.984133184908
 20
4152.756393306554
 30
0.0
 40
5.5
100
AcDbArc
 50
0.0
 51
90.0
  0
ARC
  5
15413
330
747D
100
AcDbEntity
  8
細線
100
AcDbCircle
 10
6051.381351276983
 20
4099.756393306554
 30
0.0
 40
294.0
100
AcDbArc
 50
351.9004491617129
 51
8.099550838287138
  0
ARC
  5
15414
330
747D
100
AcDbEntity
  8
細線
100
AcDbCircle
 10
6613.984133184906
 20
4099.756393306554
 30
0.0
 40
294.0
100
AcDbArc
 50
171.2120626773772
 51
188.7879373226227
  0
ARC
  5
15415
330
747D
100
AcDbEntity
  8
細線
100
AcDbCircle
 10
6613.984133184906
 20
4099.756393306554
 30
0.0
 40
298.5
100
AcDbArc
 50
169.5785490272547
 51
190.4214509727453
  0
ARC
  5
15416
330
747D
100
AcDbEntity
  8
部品1
100
AcDbCircle
 10
6613.984133184906
 20
4099.756393306554
 30
0.0
 40
300.0
100
AcDbArc
 50
169.4161974034606
 51
190.5838025965393
  0
LINE
  5
15417
330
747D
100
AcDbEntity
  8
細線
100
AcDbLine
 10
6337.984133184908
 20
4149.756393306554
 30
0.0
 11
6337.984133184908
 21
4049.756393306554
 31
0.0
  0
LINE
  5
15418
330
747D
100
AcDbEntity
  8
細線
100
AcDbLine
 10
6356.191672363653
 20
4058.756393306554
 30
0.0
 11
6356.191672363653
 21
4140.756393306554
 31
0.0
  0
LINE
  5
15419
330
747D
100
AcDbEntity
  8
細線
100
AcDbLine
 10
6329.365089549384
 20
4049.756393306554
 30
0.0
 11
6359.984133184908
 21
4049.756393306554
 31
0.0
  0
ARC
  5
1541A
330
747D
100
AcDbEntity
  8
細線
100
AcDbCircle
 10
6350.191672363653
 20
4058.756393306554
 30
0.0
 40
6.0
100
AcDbArc
 50
270.0
 51
0.0
  0
LINE
  5
1541B
330
747D
100
AcDbEntity
  8
細線
100
AcDbLine
 10
6337.984133184908
 20
4055.756901205115
 30
0.0
 11
6324.505428686085
 21
4055.756901205115
 31
0.0
  0
ARC
  5
1541C
330
747D
100
AcDbEntity
  8
細線
100
AcDbCircle
 10
6325.817514715662
 20
4046.756393306554
 30
0.0
 40
5.5
100
AcDbArc
 50
190.4214509727453
 51
270.0
  0
ARC
  5
1541D
330
747D
100
AcDbEntity
  8
部品1
100
AcDbCircle
 10
6324.985863293893
 20
4045.756393306554
 30
0.0
 40
6.0
100
AcDbArc
 50
190.5838025965393
 51
270.0
  0
ARC
  5
1541E
330
747D
100
AcDbEntity
  8
細線
100
AcDbCircle
 10
6329.365089549384
 20
4055.756393306554
 30
0.0
 40
6.0
100
AcDbArc
 50
188.7879373226227
 51
270.0
  0
LINE
  5
1541F
330
747D
100
AcDbEntity
  8
細線
100
AcDbLine
 10
6337.984133184908
 20
4052.756393306554
 30
0.0
 11
6350.191672363653
 21
4052.756393306554
 31
0.0
  0
ARC
  5
15420
330
747D
100
AcDbEntity
  8
細線
100
AcDbCircle
 10
6339.478557094743
 20
4058.756393306554
 30
0.0
 40
3.0
100
AcDbArc
 50
270.0
 51
351.9004491617129
  0
LINE
  5
15421
330
747D
100
AcDbEntity
  8
細線
100
AcDbLine
 10
6337.984133184908
 20
4055.756393306554
 30
0.0
 11
6339.478557094743
 21
4055.756393306554
 31
0.0
  0
LINE
  5
15422
330
747D
100
AcDbEntity
  8
細線
100
AcDbLine
 10
6359.984133184908
 20
4149.756393306554
 30
0.0
 11
6329.365089549384
 21
4149.756393306554
 31
0.0
  0
ARC
  5
15423
330
747D
100
AcDbEntity
  8
細線
100
AcDbCircle
 10
6350.191672363653
 20
4140.756393306554
 30
0.0
 40
6.0
100
AcDbArc
 50
0.0
 51
90.0
  0
ARC
  5
15424
330
747D
100
AcDbEntity
  8
細線
100
AcDbCircle
 10
6325.817514715662
 20
4152.756393306554
 30
0.0
 40
5.5
100
AcDbArc
 50
90.0
 51
169.5785490272547
  0
LINE
  5
15425
330
747D
100
AcDbEntity
  8
細線
100
AcDbLine
 10
6337.984133184908
 20
4143.755885407991
 30
0.0
 11
6325.22080596894
 21
4143.755885407991
 31
0.0
  0
ARC
  5
15426
330
747D
100
AcDbEntity
  8
細線
100
AcDbCircle
 10
6329.365089549384
 20
4143.756393306554
 30
0.0
 40
6.0
100
AcDbArc
 50
90.0
 51
171.2120626773772
  0
LINE
  5
15427
330
747D
100
AcDbEntity
  8
細線
100
AcDbLine
 10
6350.191672363653
 20
4146.756393306554
 30
0.0
 11
6337.984133184908
 21
4146.756393306554
 31
0.0
  0
ARC
  5
15428
330
747D
100
AcDbEntity
  8
細線
100
AcDbCircle
 10
6339.47855709474
 20
4140.756393306554
 30
0.0
 40
3.0
100
AcDbArc
 50
8.099550838287138
 51
90.0
  0
LINE
  5
15429
330
747D
100
AcDbEntity
  8
細線
100
AcDbLine
 10
6339.47855709474
 20
4143.756393306554
 30
0.0
 11
6337.984133184908
 21
4143.756393306554
 31
0.0
  0
ARC
  5
1542A
330
747D
100
AcDbEntity
  8
部品1
100
AcDbCircle
 10
6324.985863293893
 20
4153.756393306553
 30
0.0
 40
6.0
100
AcDbArc
 50
90.0
 51
169.4161974034606
  0
LINE
  5
1542B
330
747D
100
AcDbEntity
  8
部品1
100
AcDbLine
 10
6324.985863293893
 20
4039.756393306554
 30
0.0
 11
6365.984133184907
 21
4039.756393306554
 31
0.0
  0
LINE
  5
1542C
330
747D
100
AcDbEntity
  8
細線
100
AcDbLine
 10
6325.817514715662
 20
4041.256393306554
 30
0.0
 11
6364.984133184908
 21
4041.256393306554
 31
0.0
  0
ARC
  5
1542D
330
747D
100
AcDbEntity
  8
細線
100
AcDbCircle
 10
6359.984133184908
 20
4055.756393306554
 30
0.0
 40
6.0
100
AcDbArc
 50
270.0
 51
0.0
  0
LINE
  5
1542E
330
747D
100
AcDbEntity
  8
部品1
100
AcDbLine
 10
6365.984133184907
 20
4159.756393306554
 30
0.0
 11
6324.985863293893
 21
4159.756393306554
 31
0.0
  0
LINE
  5
1542F
330
747D
100
AcDbEntity
  8
細線
100
AcDbLine
 10
6364.984133184908
 20
4158.256393306554
 30
0.0
 11
6325.817514715662
 21
4158.256393306554
 31
0.0
  0
ARC
  5
15430
330
747D
100
AcDbEntity
  8
細線
100
AcDbCircle
 10
6359.984133184908
 20
4143.756393306554
 30
0.0
 40
6.0
100
AcDbArc
 50
0.0
 51
90.0
  0
LINE
  5
15454
330
747D
100
AcDbEntity
  8
部品1
100
AcDbLine
 10
6304.4849982394
 20
4995.256393306548
 30
0.0
 11
7014.42255041072
 21
4995.256393306552
 31
0.0
  0
LINE
  5
15455
330
747D
100
AcDbEntity
  8
部品1
100
AcDbLine
 10
5484.484998239401
 20
4995.256393306556
 30
0.0
 11
6194.42255041072
 21
4995.256393306554
 31
0.0
  0
LINE
  5
15456
330
747D
100
AcDbEntity
  8
部品1
100
AcDbLine
 10
6304.4849982394
 20
3204.256393306567
 30
0.0
 11
7014.42255041072
 21
3204.256393306573
 31
0.0
  0
LINE
  5
15457
330
747D
100
AcDbEntity
  8
部品1
100
AcDbLine
 10
5484.484998239401
 20
3204.256393306558
 30
0.0
 11
6194.42255041072
 21
3204.256393306564
 31
0.0
  0
LINE
  5
15458
330
747D
100
AcDbEntity
  8
部品1
100
AcDbLine
 10
5482.4849982394
 20
4997.756393306552
 30
0.0
 11
5482.4849982394
 21
3200.756393306573
 31
0.0
  0
LINE
  5
15459
330
747D
100
AcDbEntity
  8
部品1
100
AcDbLine
 10
6214.484998239399
 20
4995.256393306552
 30
0.0
 11
6214.484998239402
 21
3204.256393306573
 31
0.0
  0
LINE
  5
1545A
330
747D
100
AcDbEntity
  8
部品1
100
AcDbLine
 10
6216.484998239401
 20
4997.756393306552
 30
0.0
 11
6216.484998239401
 21
3200.756393306573
 31
0.0
  0
LINE
  5
1545B
330
747D
100
AcDbEntity
  8
部品1
100
AcDbLine
 10
6302.484998239401
 20
4997.756393306552
 30
0.0
 11
6302.484998239401
 21
3200.756393306573
 31
0.0
  0
LINE
  5
1545C
330
747D
100
AcDbEntity
  8
部品1
100
AcDbLine
 10
6304.4849982394
 20
4995.256393306548
 30
0.0
 11
6304.4849982394
 21
3204.256393306567
 31
0.0
  0
LINE
  5
1545D
330
747D
100
AcDbEntity
  8
部品1
100
AcDbLine
 10
7034.484998239401
 20
4995.256393306552
 30
0.0
 11
7034.484998239401
 21
3204.256393306574
 31
0.0
  0
DIMENSION
  5
15492
330
747D
100
AcDbEntity
  8
寸法
100
AcDbDimension
  2
*D22
 10
5121.380470631798
 20
3219.256393306557
 30
0.0
 11
5121.380470631797
 21
4098.256393306554
 31
0.0
 70
   160
  1
有効開口部高サ<>
 71
     5
 42
1759.999999999995
  3
INABA_S40G
100
AcDbAlignedDimension
 13
5439.4849982394
 23
4979.256393306553
 33
0.0
 14
5439.4849982394
 24
3219.256393306557
 34
0.0
 50
90.0
100
AcDbRotatedDimension
1001
ACAD
1000
DSTYLE
1002
{
1070
   288
1070
     1
1002
}
  0
LINE
  5
15493
330
747D
100
AcDbEntity
  8
部品1
100
AcDbLine
 10
7079.484998239401
 20
5091.756393306556
 30
0.0
 11
7079.484998239401
 21
3057.756393306553
 31
0.0
  0
TEXT
  5
15494
330
747D
100
AcDbEntity
  8
部品1
100
AcDbText
 10
5960.02661070612
 20
2261.786283271311
 30
0.0
 40
135.0
  1
正面図
  7
STYLE2
100
AcDbText
  0
LWPOLYLINE
  5
15495
330
747D
100
AcDbEntity
  8
部品1
100
AcDbPolyline
 90
        4
 70
     1
 43
0.0
 10
5869.501206968165
 20
2454.679812489834
 10
5869.501206968165
 20
2214.787490944302
 10
6632.971873196602
 20
2214.787490944302
 10
6632.971873196602
 20
2454.679812489834
  0
TEXT
  5
15496
330
747D
100
AcDbEntity
  8
部品1
100
AcDbText
 10
4370.696484939741
 20
3093.863296912454
 30
0.0
 40
125.0
  1
▽G.L
  7
STYLE2
100
AcDbText
  0
LINE
  5
15497
330
747D
100
AcDbEntity
  8
部品1
100
AcDbLine
 10
5439.4849982394
 20
5091.756393306556
 30
0.0
 11
5439.4849982394
 21
3057.756393306553
 31
0.0
  0
LINE
  5
15498
330
747D
100
AcDbEntity
  8
部品1
100
AcDbLine
 10
7036.484998239401
 20
4997.756393306552
 30
0.0
 11
7036.484998239401
 21
3200.756393306573
 31
0.0
  0
LINE
  5
15499
330
747D
100
AcDbEntity
  8
部品1
100
AcDbLine
 10
5484.484998239401
 20
4995.256393306556
 30
0.0
 11
5484.484998239401
 21
3204.256393306558
 31
0.0
  0
LINE
  5
1549A
330
747D
100
AcDbEntity
  8
部品1
100
AcDbLine
 10
5439.4849982394
 20
3157.756393306553
 30
0.0
 11
7079.484998239401
 21
3157.756393306553
 31
0.0
  0
LINE
  5
1549B
330
747D
100
AcDbEntity
  8
部品1
100
AcDbLine
 10
5439.4849982394
 20
4997.756393306552
 30
0.0
 11
7079.484998239401
 21
4997.756393306552
 31
0.0
  0
LINE
  5
1549C
330
747D
100
AcDbEntity
  8
部品1
100
AcDbLine
 10
5439.4849982394
 20
3200.756393306556
 30
0.0
 11
7079.484998239401
 21
3200.756393306573
 31
0.0
  0
LINE
  5
1549D
330
747D
100
AcDbEntity
  8
Ｇ．Ｌ
100
AcDbLine
 10
4101.949339401762
 20
3057.756393306553
 30
0.0
 11
11764.25081900461
 21
3057.756393306553
 31
0.0
  0
LINE
  5
16042
330
747D
100
AcDbEntity
  8
部品1
100
AcDbLine
 10
9459.354540755006
 20
4997.756393306553
 30
0.0
 11
10836.35691079978
 21
4997.756393306552
 31
0.0
  0
LINE
  5
16043
330
747D
100
AcDbEntity
  8
部品1
100
AcDbLine
 10
9466.356910799783
 20
3207.756393306552
 30
0.0
 11
10836.35691079979
 21
3207.756393306554
 31
0.0
  0
LINE
  5
16044
330
747D
100
AcDbEntity
  8
部品1
100
AcDbLine
 10
9521.356910799783
 20
4997.756393306552
 30
0.0
 11
9521.356910799783
 21
3207.756393306552
 31
0.0
  0
LINE
  5
16045
330
747D
100
AcDbEntity
  8
部品1
100
AcDbLine
 10
9466.356910799788
 20
5089.333287246994
 30
0.0
 11
9466.356910799783
 21
3057.756393306553
 31
0.0
  0
DIMENSION
  5
16046
330
747D
100
AcDbEntity
  8
寸法
100
AcDbDimension
  2
*D23
 10
8562.085099159306
 20
5232.756393306558
 30
0.0
 11
8562.085099159302
 21
4132.963383726355
 31
0.0
 70
   160
 71
     5
 42
2075.000000000003
  3
INABA_S40G
100
AcDbAlignedDimension
 13
9466.356910799783
 23
3157.756393306554
 33
0.0
 14
9406.356910799784
 24
5232.756393306558
 34
0.0
 50
90.0
100
AcDbRotatedDimension
1001
ACAD
1000
DSTYLE
1002
{
1070
   174
1070
     0
1070
   272
1070
     1
1070
   288
1070
     0
1070
   341
1005
0
1002
}
  0
DIMENSION
  5
16047
330
747D
100
AcDbEntity
  8
寸法
100
AcDbDimension
  2
*D24
 10
8864.393820107579
 20
3157.756393306554
 30
0.0
 11
8864.393820107579
 21
2851.709149212064
 31
0.0
 70
   160
 71
     5
 42
50.00000000000182
  3
INABA_S40G
100
AcDbAlignedDimension
 13
9459.354540755006
 23
3207.756393306556
 33
0.0
 14
9411.356910799783
 24
3157.756393306554
 34
0.0
 50
90.0
100
AcDbRotatedDimension
1001
ACAD
1000
DSTYLE
1002
{
1070
   174
1070
     0
1070
   272
1070
     1
1070
   288
1070
     0
1070
   341
1005
0
1002
}
  0
LINE
  5
16048
330
747D
100
AcDbEntity
  8
部品1
100
AcDbLine
 10
9941.356910799783
 20
4997.756393306552
 30
0.0
 11
9941.356910799783
 21
3207.756393306552
 31
0.0
  0
LINE
  5
16049
330
747D
100
AcDbEntity
  8
部品1
100
AcDbLine
 10
10836.35691079978
 20
5052.392974141805
 30
0.0
 11
10836.35691079978
 21
3057.756393306553
 31
0.0
  0
LINE
  5
1604A
330
747D
100
AcDbEntity
  8
部品1
100
AcDbLine
 10
10781.35691079978
 20
4997.756393306552
 30
0.0
 11
10781.35691079978
 21
3207.756393306552
 31
0.0
  0
DIMENSION
  5
1604B
330
747D
100
AcDbEntity
  8
寸法
100
AcDbDimension
  2
*D25
 10
11541.28406877191
 20
5177.756393306554
 30
0.0
 11
11441.27225774829
 21
4167.756393306556
 31
0.0
 70
    32
 71
     5
 42
2020.000000000001
  3
INABA_S40G
100
AcDbAlignedDimension
 13
10836.35691079978
 23
3157.756393306554
 33
0.0
 14
10916.35691079978
 24
5177.756393306554
 34
0.0
 50
90.0
100
AcDbRotatedDimension
1001
ACAD
1000
DSTYLE
1002
{
1070
   174
1070
     0
1070
   272
1070
     1
1070
   288
1070
     0
1070
   341
1005
0
1002
}
  0
DIMENSION
  5
1604C
330
747D
100
AcDbEntity
  8
寸法
 48
50.0
100
AcDbDimension
  2
*D26
 10
9466.356910799785
 20
5631.413846885856
 30
0.0
 11
10116.17594369033
 21
5631.413846885856
 31
0.0
 70
   160
  1
柱外寸法<>
 71
     5
 42
1370.0
  3
INABA_S40G
100
AcDbAlignedDimension
 13
10836.35691079978
 23
5179.567072918206
 33
0.0
 14
9466.356910799785
 24
5228.758011429529
 34
0.0
100
AcDbRotatedDimension
1001
ACAD
1000
DSTYLE
1002
{
1070
   174
1070
     0
1070
   272
1070
     1
1070
   288
1070
     0
1070
   341
1005
0
1002
}
  0
DIMENSION
  5
1604D
330
747D
100
AcDbEntity
  8
寸法
 48
50.0
100
AcDbDimension
  2
*D27
 10
9406.356910799784
 20
5631.413846885856
 30
0.0
 11
9096.719115524194
 21
5631.413846885856
 31
0.0
 70
   160
 71
     5
 42
60.0
  3
INABA_S40G
100
AcDbAlignedDimension
 13
9466.356910799785
 23
5228.758011429529
 33
0.0
 14
9406.356910799784
 24
5232.756393306558
 34
0.0
100
AcDbRotatedDimension
1001
ACAD
1000
DSTYLE
1002
{
1070
   174
1070
     0
1070
   272
1070
     1
1070
   288
1070
     0
1070
   341
1005
0
1002
}
  0
DIMENSION
  5
1604E
330
747D
100
AcDbEntity
  8
寸法
 48
50.0
100
AcDbDimension
  2
*D28
 10
9406.356910799784
 20
5839.58816807782
 30
0.0
 11
10133.48174050161
 21
5839.58816807782
 31
0.0
 70
   160
 71
     5
 42
1510.0
  3
INABA_S40G
100
AcDbAlignedDimension
 13
10916.35691079978
 23
5177.756393306554
 33
0.0
 14
9406.356910799784
 24
5232.756393306558
 34
0.0
100
AcDbRotatedDimension
1001
ACAD
1000
DSTYLE
1002
{
1070
   174
1070
     0
1070
   272
1070
     1
1070
   288
1070
     0
1070
   341
1005
0
1002
}
  0
LINE
  5
1604F
330
747D
100
AcDbEntity
  8
部品1
100
AcDbLine
 10
9466.356910799783
 20
3157.756393306554
 30
0.0
 11
10836.35691079978
 21
3157.756393306553
 31
0.0
  0
TEXT
  5
16050
330
747D
100
AcDbEntity
  8
部品1
100
AcDbText
 10
9869.067679109171
 20
2261.786283271311
 30
0.0
 40
135.0
  1
側面図
  7
STYLE2
100
AcDbText
  0
LWPOLYLINE
  5
16051
330
747D
100
AcDbEntity
  8
部品1
100
AcDbPolyline
 90
        4
 70
     1
 43
0.0
 10
9779.621577685565
 20
2454.679812489836
 10
9779.621577685565
 20
2214.787490944304
 10
10543.092243914
 20
2214.787490944304
 10
10543.092243914
 20
2454.679812489836
  0
LINE
  5
16052
330
747D
100
AcDbEntity
  8
細線
 48
50.0
100
AcDbLine
 10
10018.85691079978
 20
4997.756393306552
 30
0.0
 11
10018.85691079978
 21
3207.756393306552
 31
0.0
  0
LINE
  5
16053
330
747D
100
AcDbEntity
  8
細線
 48
50.0
100
AcDbLine
 10
10003.85691079978
 20
4997.756393306552
 30
0.0
 11
10003.85691079978
 21
3207.756393306552
 31
0.0
  0
LINE
  5
16054
330
747D
100
AcDbEntity
  8
細線
 48
50.0
100
AcDbLine
 10
10143.85691079978
 20
4997.756393306552
 30
0.0
 11
10143.85691079978
 21
3207.756393306552
 31
0.0
  0
LINE
  5
16055
330
747D
100
AcDbEntity
  8
細線
 48
50.0
100
AcDbLine
 10
10158.85691079978
 20
4997.756393306552
 30
0.0
 11
10158.85691079978
 21
3207.756393306552
 31
0.0
  0
LINE
  5
16056
330
747D
100
AcDbEntity
  8
細線
 48
50.0
100
AcDbLine
 10
10298.85691079978
 20
4997.756393306552
 30
0.0
 11
10298.85691079978
 21
3207.756393306552
 31
0.0
  0
LINE
  5
16057
330
747D
100
AcDbEntity
  8
細線
 48
50.0
100
AcDbLine
 10
10283.85691079978
 20
4997.756393306552
 30
0.0
 11
10283.85691079978
 21
3207.756393306552
 31
0.0
  0
LINE
  5
16058
330
747D
100
AcDbEntity
  8
細線
 48
50.0
100
AcDbLine
 10
9863.856910799782
 20
4997.756393306552
 30
0.0
 11
9863.856910799782
 21
3207.756393306552
 31
0.0
  0
LINE
  5
16059
330
747D
100
AcDbEntity
  8
細線
 48
50.0
100
AcDbLine
 10
9878.856910799783
 20
4997.756393306552
 30
0.0
 11
9878.856910799783
 21
3207.756393306552
 31
0.0
  0
LINE
  5
1605A
330
747D
100
AcDbEntity
  8
細線
 48
50.0
100
AcDbLine
 10
9738.856910799782
 20
4997.756393306552
 30
0.0
 11
9738.856910799782
 21
3207.756393306552
 31
0.0
  0
LINE
  5
1605B
330
747D
100
AcDbEntity
  8
細線
 48
50.0
100
AcDbLine
 10
9723.856910799783
 20
4997.756393306552
 30
0.0
 11
9723.856910799783
 21
3207.756393306552
 31
0.0
  0
LINE
  5
1605C
330
747D
100
AcDbEntity
  8
細線
 48
50.0
100
AcDbLine
 10
9583.856910799783
 20
4997.756393306552
 30
0.0
 11
9583.856910799783
 21
3207.756393306552
 31
0.0
  0
LINE
  5
1605D
330
747D
100
AcDbEntity
  8
細線
 48
50.0
100
AcDbLine
 10
9598.856910799783
 20
4997.756393306552
 30
0.0
 11
9598.856910799783
 21
3207.756393306552
 31
0.0
  0
LINE
  5
1605E
330
747D
100
AcDbEntity
  8
部品1
100
AcDbLine
 10
9413.901897156746
 20
5231.474128640819
 30
0.0
 11
10908.96878766124
 21
5175.807234634118
 31
0.0
  0
LINE
  5
1605F
330
747D
100
AcDbEntity
  8
部品1
100
AcDbLine
 10
9421.699475401737
 20
5090.537418375519
 30
0.0
 11
10891.02061133963
 21
5050.91903675974
 31
0.0
  0
LINE
  5
16060
330
747D
100
AcDbEntity
  8
細線
 48
50.0
100
AcDbLine
 10
9439.356910799785
 20
5230.156069681958
 30
0.0
 11
9434.067809244274
 21
5090.070437054603
 31
0.0
  0
LINE
  5
16061
330
747D
100
AcDbEntity
  8
細線
 48
50.0
100
AcDbLine
 10
10883.35691079978
 20
5177.133415960273
 30
0.0
 11
10878.60922791178
 21
5051.387643469531
 31
0.0
  0
LINE
  5
16062
330
747D
100
AcDbEntity
  8
部品1
 48
50.0
100
AcDbLine
 10
9406.541196712892
 20
5224.349939471245
 30
0.0
 11
9406.921456490703
 21
5204.422975024834
 31
0.0
  0
LINE
  5
16063
330
747D
100
AcDbEntity
  8
部品1
 48
50.0
100
AcDbLine
 10
9409.990228596948
 20
5200.847693531361
 30
0.0
 11
9411.694130088314
 21
5111.557196824715
 31
0.0
  0
LINE
  5
16064
330
747D
100
AcDbEntity
  8
細線
 48
50.0
100
AcDbLine
 10
9407.396333900598
 20
5203.773475147915
 30
0.0
 11
10913.03231864576
 21
5147.559314125512
 31
0.0
  0
LINE
  5
16065
330
747D
100
AcDbEntity
  8
細線
 48
50.0
100
AcDbLine
 10
9412.156809137883
 20
5110.911963450051
 30
0.0
 11
10902.16047356852
 21
5070.512688093982
 31
0.0
  0
LINE
  5
16066
330
747D
100
AcDbEntity
  8
部品1
 48
50.0
100
AcDbLine
 10
9414.762902194555
 20
5107.981915331242
 30
0.0
 11
9414.964854814988
 21
5097.398879938149
 31
0.0
  0
ARC
  5
16067
330
747D
100
AcDbEntity
  8
部品1
 48
50.0
100
AcDbCircle
 10
9413.539922541231
 20
5224.483493878674
 30
0.0
 40
7.0
100
AcDbArc
 50
87.03587545283228
 51
181.093224029263
  0
ARC
  5
16068
330
747D
100
AcDbEntity
  8
部品1
 48
50.0
100
AcDbCircle
 10
9421.963580643327
 20
5097.532434345578
 30
0.0
 40
7.0
100
AcDbArc
 50
181.093224029263
 51
267.8377559869492
  0
ARC
  5
16069
330
747D
100
AcDbEntity
  8
部品1
100
AcDbCircle
 10
9411.763448268123
 20
5107.924677728059
 30
0.0
 40
3.0
100
AcDbArc
 50
1.093224029263039
 51
80.18775403148449
  0
ARC
  5
1606A
330
747D
100
AcDbEntity
  8
部品1
100
AcDbCircle
 10
9406.990774670518
 20
5200.790455928178
 30
0.0
 40
3.0
100
AcDbArc
 50
1.093224029263039
 51
80.18775403169875
  0
ARC
  5
1606B
330
747D
100
AcDbEntity
  8
部品1
100
AcDbCircle
 10
9407.62132907354
 20
5204.436330465576
 30
0.0
 40
0.7
100
AcDbArc
 50
181.0932240292109
 51
260.1877540314845
  0
ARC
  5
1606C
330
747D
100
AcDbEntity
  8
部品1
100
AcDbCircle
 10
9412.394002671147
 20
5111.570552265457
 30
0.0
 40
0.7
100
AcDbArc
 50
181.0932240292109
 51
260.1877540314845
  0
LINE
  5
1606D
330
747D
100
AcDbEntity
  8
部品1
 48
50.0
100
AcDbLine
 10
10915.57081361048
 20
5168.107589199196
 30
0.0
 11
10913.54019241951
 21
5148.162547941416
 31
0.0
  0
LINE
  5
1606E
330
747D
100
AcDbEntity
  8
部品1
 48
50.0
100
AcDbLine
 10
10910.18762593503
 20
5144.851913868508
 30
0.0
 11
10902.68084667019
 21
5071.119293123494
 31
0.0
  0
LINE
  5
1606F
330
747D
100
AcDbEntity
  8
部品1
 48
50.0
100
AcDbLine
 10
10899.32828018571
 20
5067.808659050583
 30
0.0
 11
10898.24871714597
 21
5057.205042057025
 31
0.0
  0
ARC
  5
16070
330
747D
100
AcDbEntity
  8
部品1
 48
50.0
100
AcDbCircle
 10
10908.60681304573
 20
5168.81659987197
 30
0.0
 40
7.0
100
AcDbArc
 50
354.1866997664961
 51
87.03587545283228
  0
ARC
  5
16071
330
747D
100
AcDbEntity
  8
部品1
 48
50.0
100
AcDbCircle
 10
10891.28471658121
 20
5057.914052729799
 30
0.0
 40
7.0
100
AcDbArc
 50
267.8377559869492
 51
354.1866997664961
  0
ARC
  5
16072
330
747D
100
AcDbEntity
  8
部品1
100
AcDbCircle
 10
10902.31285185631
 20
5067.50479733368
 30
0.0
 40
3.0
100
AcDbArc
 50
95.09216976420788
 51
174.186699766496
  0
ARC
  5
16073
330
747D
100
AcDbEntity
  8
部品1
100
AcDbCircle
 10
10913.17219760564
 20
5144.548052151604
 30
0.0
 40
3.0
100
AcDbArc
 50
95.09216976420788
 51
174.186699766496
  0
ARC
  5
16074
330
747D
100
AcDbEntity
  8
部品1
100
AcDbCircle
 10
10912.84379236304
 20
5148.233449008694
 30
0.0
 40
0.7
100
AcDbArc
 50
275.0921697642079
 51
354.1866997664961
  0
ARC
  5
16075
330
747D
100
AcDbEntity
  8
部品1
100
AcDbCircle
 10
10901.98444661372
 20
5071.190194190771
 30
0.0
 40
0.7
100
AcDbArc
 50
275.0921697642079
 51
354.1866997667061
  0
DIMENSION
  5
16076
330
747D
100
AcDbEntity
  8
寸法
 48
50.0
100
AcDbDimension
  2
*D29
 10
10916.35691079978
 20
5631.413846885856
 30
0.0
 11
11122.40415489427
 21
5631.413846885856
 31
0.0
 70
   160
 71
     5
 42
80.0
  3
INABA_S40G
100
AcDbAlignedDimension
 13
10836.35691079978
 23
5179.567072918206
 33
0.0
 14
10916.35691079978
 24
5177.756393306554
 34
0.0
100
AcDbRotatedDimension
1001
ACAD
1000
DSTYLE
1002
{
1070
   174
1070
     0
1070
   272
1070
     1
1070
   288
1070
     0
1070
   341
1005
0
1002
}
  0
DIMENSION
  5
16077
330
747D
100
AcDbEntity
  8
寸法
 48
50.0
100
AcDbDimension
  2
*D30
 10
8814.090659088405
 20
5254.578884203367
 30
0.0
 11
8822.768402740294
 21
5484.415123220259
 31
0.0
 70
   160
 71
     5
 42
141.0
  3
INABA_S40G
100
AcDbAlignedDimension
 13
9421.699475401737
 23
5090.537418375519
 33
0.0
 14
9427.019309553692
 24
5231.437025772402
 34
0.0
 50
87.83775598715743
100
AcDbRotatedDimension
1001
ACAD
1000
DSTYLE
1002
{
1070
   174
1070
     0
1070
   272
1070
     1
1070
   288
1070
     0
1070
   341
1005
0
1002
}
  0
LINE
  5
16078
330
747D
100
AcDbEntity
  8
部品1
 48
50.0
100
AcDbLine
 10
10011.35691079978
 20
5363.624532407832
 30
0.0
 11
10311.35691079978
 21
5363.624532407832
 31
0.0
  0
LINE
  5
16079
330
747D
100
AcDbEntity
  8
部品1
 48
50.0
100
AcDbLine
 10
10311.35691079978
 20
5363.624532407832
 30
0.0
 11
10311.35691079978
 21
5342.024532407833
 31
0.0
  0
TEXT
  5
1607A
330
747D
100
AcDbEntity
  8
部品1
 48
50.0
100
AcDbText
 10
9999.624746023513
 20
5399.508554560265
 30
0.0
 40
120.0
  1
1000
  7
STYLE1
100
AcDbText
  0
TEXT
  5
1607B
330
747D
100
AcDbEntity
  8
部品1
 48
50.0
100
AcDbText
 10
10488.44975808764
 20
5262.007296341983
 30
0.0
 40
120.0
  1
71
 50
90.0
  7
STYLE1
100
AcDbText
  0
LINE
  5
1607C
330
747D
100
AcDbEntity
  8
部品1
100
AcDbLine
 10
10361.35691079978
 20
4997.756393306552
 30
0.0
 11
10361.35691079978
 21
3207.756393306552
 31
0.0
  0
LINE
  5
1607D
330
747D
100
AcDbEntity
  8
細線
 48
50.0
100
AcDbLine
 10
10703.85691079978
 20
4997.756393306552
 30
0.0
 11
10703.85691079978
 21
3207.756393306552
 31
0.0
  0
LINE
  5
1607E
330
747D
100
AcDbEntity
  8
細線
 48
50.0
100
AcDbLine
 10
10718.85691079978
 20
4997.756393306552
 30
0.0
 11
10718.85691079978
 21
3207.756393306552
 31
0.0
  0
LINE
  5
1607F
330
747D
100
AcDbEntity
  8
細線
 48
50.0
100
AcDbLine
 10
10578.85691079978
 20
4997.756393306552
 30
0.0
 11
10578.85691079978
 21
3207.756393306552
 31
0.0
  0
LINE
  5
16080
330
747D
100
AcDbEntity
  8
細線
 48
50.0
100
AcDbLine
 10
10563.85691079978
 20
4997.756393306552
 30
0.0
 11
10563.85691079978
 21
3207.756393306552
 31
0.0
  0
LINE
  5
16081
330
747D
100
AcDbEntity
  8
細線
 48
50.0
100
AcDbLine
 10
10423.85691079978
 20
4997.756393306552
 30
0.0
 11
10423.85691079978
 21
3207.756393306552
 31
0.0
  0
LINE
  5
16082
330
747D
100
AcDbEntity
  8
細線
 48
50.0
100
AcDbLine
 10
10438.85691079978
 20
4997.756393306552
 30
0.0
 11
10438.85691079978
 21
3207.756393306552
 31
0.0
  0
LINE
  5
16083
330
747D
100
AcDbEntity
  8
部品1
 48
50.0
100
AcDbLine
 10
10011.35691079978
 20
5363.624532407832
 30
0.0
 11
10311.35691079978
 21
5342.024532407833
 31
0.0
  0
LINE
  5
16084
330
747D
100
AcDbEntity
  8
部品1
 48
0.2
100
AcDbLine
 10
9459.354540755006
 20
4997.756393306552
 30
0.0
 11
9459.354540755006
 21
4987.006393306554
 31
0.0
  0
LINE
  5
16085
330
747D
100
AcDbEntity
  8
部品1
 48
50.0
100
AcDbLine
 10
9459.354540755006
 20
4987.006393306552
 30
0.0
 11
9466.356910799783
 21
4987.006393306552
 31
0.0
  0
LINE
  5
16086
330
747D
100
AcDbEntity
  8
部品1
 48
50.0
100
AcDbLine
 10
9459.354540755006
 20
3218.506393306556
 30
0.0
 11
9466.356910799783
 21
3218.506393306556
 31
0.0
  0
LINE
  5
16087
330
747D
100
AcDbEntity
  8
部品1
 48
0.2
100
AcDbLine
 10
9459.354540755006
 20
3218.506393306556
 30
0.0
 11
9459.354540755006
 21
3207.756393306556
 31
0.0
  0
LINE
  5
16088
330
747D
100
AcDbEntity
  8
部品1
 48
50.0
100
AcDbLine
 10
9459.354540755006
 20
3207.756393306556
 30
0.0
 11
9466.356910799783
 21
3207.756393306556
 31
0.0
  0
DIMENSION
  5
16089
330
747D
100
AcDbEntity
  8
寸法
100
AcDbDimension
  2
*D31
 10
8864.393820107579
 20
3207.756393306556
 30
0.0
 11
8864.393820107579
 21
4112.791405182941
 31
0.0
 70
   160
 71
     5
 42
1789.999999999997
  3
INABA_S40G
100
AcDbAlignedDimension
 13
9459.354540755006
 23
4997.756393306553
 33
0.0
 14
9459.354540755006
 24
3207.756393306556
 34
0.0
 50
90.0
100
AcDbRotatedDimension
1001
ACAD
1000
DSTYLE
1002
{
1070
   288
1070
     1
1002
}
  0
LINE
  5
1648D
330
747D
100
AcDbEntity
  8
破線
 48
10.0
100
AcDbLine
 10
5495.985611427218
 20
8692.045060745604
 30
0.0
 11
6203.984995864502
 21
8692.045031521152
 31
0.0
  0
LINE
  5
1648E
330
747D
100
AcDbEntity
  8
破線
 48
10.0
100
AcDbLine
 10
5495.985611427218
 20
8642.045060745605
 30
0.0
 11
6203.984995864502
 21
8642.045031521153
 31
0.0
  0
LINE
  5
1648F
330
747D
100
AcDbEntity
  8
破線
 48
10.0
100
AcDbLine
 10
6315.985611427218
 20
8692.045060745604
 30
0.0
 11
7023.984995864502
 21
8692.045031521152
 31
0.0
  0
LINE
  5
16490
330
747D
100
AcDbEntity
  8
破線
 48
10.0
100
AcDbLine
 10
6315.985611427218
 20
8642.045060745605
 30
0.0
 11
7023.984995864502
 21
8642.045031521153
 31
0.0
  0
LINE
  5
16491
330
747D
100
AcDbEntity
  8
破線
 48
10.0
100
AcDbLine
 10
5519.485046127442
 20
8642.045059775604
 30
0.0
 11
5519.484998239395
 21
8099.545031521135
 31
0.0
  0
LINE
  5
16492
330
747D
100
AcDbEntity
  8
破線
 48
10.0
100
AcDbLine
 10
6180.484991509181
 20
8692.045032491177
 30
0.0
 11
6180.484989884842
 21
8835.045031521225
 31
0.0
  0
LINE
  5
16493
330
747D
100
AcDbEntity
  8
破線
 48
10.0
100
AcDbLine
 10
6338.484988225209
 20
8692.045025969328
 30
0.0
 11
6338.484985808285
 21
8835.045031521174
 31
0.0
  0
LINE
  5
16494
330
747D
100
AcDbEntity
  8
破線
 48
10.0
100
AcDbLine
 10
6999.485046127412
 20
8642.044998684891
 30
0.0
 11
6999.48499823939
 21
8099.545031521218
 31
0.0
  0
LINE
  5
16496
330
747D
100
AcDbEntity
  8
寸法
 48
50.0
100
AcDbLine
 10
7135.690678565406
 20
8419.545031521094
 30
0.0
 11
7135.690678565406
 21
8419.545031521094
 31
0.0
  0
TEXT
  5
165A9
330
747D
100
AcDbEntity
  8
文字
 62
     7
 48
50.0
100
AcDbText
 10
15022.63965474517
 20
10930.01374588372
 30
0.0
 40
100.0
  1
F12            1.2
  7
STYLE1
100
AcDbText
  0
TEXT
  5
165AA
330
747D
100
AcDbEntity
  8
文字
 62
     7
 48
50.0
100
AcDbText
 10
13583.11819016569
 20
10930.01374588373
 30
0.0
 40
100.0
  1
根太
  7
STYLE1
100
AcDbText
  0
TEXT
  5
165AB
330
747D
100
AcDbEntity
  8
文字
 62
     7
 48
50.0
100
AcDbText
 10
13248.77747366447
 20
8720.013745883735
 30
0.0
 40
100.0
  1
15
  7
STYLE1
100
AcDbText
  0
LINE
  5
165AC
330
747D
100
AcDbEntity
  8
仕様書枠
 48
50.0
100
AcDbLine
 10
16307.2
 20
10899.6
 30
0.0
 11
13127.2
 21
10899.6
 31
0.0
  0
TEXT
  5
165AD
330
747D
100
AcDbEntity
  8
文字
 62
     7
 48
50.0
100
AcDbText
 10
13583.1181901657
 20
9740.013745883729
 30
0.0
 40
100.0
  1
梁中央
 41
0.9
  7
STYLE1
100
AcDbText
  0
TEXT
  5
165AE
330
747D
100
AcDbEntity
  8
文字
 62
     7
 48
50.0
100
AcDbText
 10
15022.63965474517
 20
9740.013745883729
 30
0.0
 40
100.0
  1
F12,Y10       0.7+1.0
  7
STYLE1
100
AcDbText
  0
TEXT
  5
165AF
330
747D
100
AcDbEntity
  8
文字
 62
     7
 48
50.0
100
AcDbText
 10
13583.11819016567
 20
8720.013745883729
 30
0.0
 40
100.0
  1
アンカープレート
  7
STYLE1
100
AcDbText
  0
TEXT
  5
165B0
330
747D
100
AcDbEntity
  8
文字
 62
     7
 48
50.0
100
AcDbText
 10
15022.63965474513
 20
8720.013745883722
 30
0.0
 40
100.0
  1
F12            2.3
  7
STYLE1
100
AcDbText
  0
LINE
  5
165B1
330
747D
100
AcDbEntity
  8
仕様書枠
 48
50.0
100
AcDbLine
 10
16307.2
 20
9879.600000000001
 30
0.0
 11
13127.2
 21
9879.600000000001
 31
0.0
  0
LINE
  5
165B3
330
747D
100
AcDbEntity
  8
仕様書枠
 48
50.0
100
AcDbLine
 10
16307.19999999999
 20
8349.600000000007
 30
0.0
 11
16307.2
 21
11409.6
 31
0.0
  0
LINE
  5
165B4
330
747D
100
AcDbEntity
  8
仕様書枠
 48
50.0
100
AcDbLine
 10
14785.2
 20
11409.59999999999
 30
0.0
 11
14785.19999999999
 21
8689.6
 31
0.0
  0
LINE
  5
165B5
330
747D
100
AcDbEntity
  8
仕様書枠
 48
50.0
100
AcDbLine
 10
13490.2
 20
11409.6
 30
0.0
 11
13490.2
 21
8689.600000000003
 31
0.0
  0
LINE
  5
165B6
330
747D
100
AcDbEntity
  8
仕様書枠
 48
50.0
100
AcDbLine
 10
16307.19999999999
 20
11239.6
 30
0.0
 11
13127.2
 21
11239.6
 31
0.0
  0
LINE
  5
165B7
330
747D
100
AcDbEntity
  8
仕様書枠
 48
50.0
100
AcDbLine
 10
16307.2
 20
10729.6
 30
0.0
 11
13127.2
 21
10729.6
 31
0.0
  0
LINE
  5
165B8
330
747D
100
AcDbEntity
  8
仕様書枠
 48
50.0
100
AcDbLine
 10
16307.19999999999
 20
11069.6
 30
0.0
 11
13127.2
 21
11069.6
 31
0.0
  0
LINE
  5
165B9
330
747D
100
AcDbEntity
  8
仕様書枠
 48
50.0
100
AcDbLine
 10
16307.19999999999
 20
10389.6
 30
0.0
 11
13127.2
 21
10389.6
 31
0.0
  0
LINE
  5
165BA
330
747D
100
AcDbEntity
  8
仕様書枠
 48
50.0
100
AcDbLine
 10
16307.19999999999
 20
10219.6
 30
0.0
 11
13127.2
 21
10219.6
 31
0.0
  0
LINE
  5
165BB
330
747D
100
AcDbEntity
  8
仕様書枠
 48
50.0
100
AcDbLine
 10
16307.19999999999
 20
10559.6
 30
0.0
 11
13127.2
 21
10559.6
 31
0.0
  0
TEXT
  5
165BC
330
747D
100
AcDbEntity
  8
文字
 62
     7
 48
50.0
100
AcDbText
 10
13197.42518560407
 20
11270.01374588373
 30
0.0
 40
100.0
  1
品番
  7
STYLE1
100
AcDbText
  0
TEXT
  5
165BD
330
747D
100
AcDbEntity
  8
文字
 62
     7
 48
50.0
100
AcDbText
 10
13271.19032244792
 20
11100.01374588373
 30
0.0
 40
100.0
  1
1
  7
STYLE1
100
AcDbText
  0
TEXT
  5
165BE
330
747D
100
AcDbEntity
  8
文字
 62
     7
 48
50.0
100
AcDbText
 10
13271.19032244792
 20
10930.01374588373
 30
0.0
 40
100.0
  1
2
  7
STYLE1
100
AcDbText
  0
TEXT
  5
165BF
330
747D
100
AcDbEntity
  8
文字
 62
     7
 48
50.0
100
AcDbText
 10
13271.19032244793
 20
10590.01374588373
 30
0.0
 40
100.0
  1
4
  7
STYLE1
100
AcDbText
  0
TEXT
  5
165C0
330
747D
100
AcDbEntity
  8
文字
 62
     7
 48
50.0
100
AcDbText
 10
13271.19032244793
 20
10760.01374588373
 30
0.0
 40
100.0
  1
3
  7
STYLE1
100
AcDbText
  0
TEXT
  5
165C1
330
747D
100
AcDbEntity
  8
文字
 62
     7
 48
50.0
100
AcDbText
 10
13732.03840939434
 20
11270.01374588373
 30
0.0
 40
100.0
  1
部　　品　　名
  7
STYLE1
100
AcDbText
  0
TEXT
  5
165C2
330
747D
100
AcDbEntity
  8
文字
 62
     7
 48
50.0
100
AcDbText
 10
14859.79774614482
 20
11270.01374588373
 30
0.0
 40
100.0
  1
材料（材質）　　単位mm
  7
STYLE1
100
AcDbText
  0
TEXT
  5
165C3
330
747D
100
AcDbEntity
  8
文字
 62
     7
 48
50.0
100
AcDbText
 10
13583.11819016569
 20
11100.01374588373
 30
0.0
 40
100.0
  1
土台枠
  7
STYLE1
100
AcDbText
  0
TEXT
  5
165C4
330
747D
100
AcDbEntity
  8
文字
 62
     7
 48
50.0
100
AcDbText
 10
13583.1181901657
 20
10760.01374588373
 30
0.0
 40
100.0
  1
柱
  7
STYLE1
100
AcDbText
  0
TEXT
  5
165C5
330
747D
100
AcDbEntity
  8
文字
 62
     7
 48
50.0
100
AcDbText
 10
13583.1181901657
 20
10420.01374588373
 30
0.0
 40
100.0
  1
鴨居
  7
STYLE1
100
AcDbText
  0
TEXT
  5
165C6
330
747D
100
AcDbEntity
  8
文字
 62
     7
 48
50.0
100
AcDbText
 10
13583.1181901657
 20
10250.01374588373
 30
0.0
 40
100.0
  1
桁後
  7
STYLE1
100
AcDbText
  0
TEXT
  5
165C7
330
747D
100
AcDbEntity
  8
文字
 62
     7
 48
50.0
100
AcDbText
 10
13271.19032244793
 20
10420.01374588373
 30
0.0
 40
100.0
  1
5
  7
STYLE1
100
AcDbText
  0
TEXT
  5
165C8
330
747D
100
AcDbEntity
  8
文字
 62
     7
 48
50.0
100
AcDbText
 10
13583.1181901657
 20
10080.01374588373
 30
0.0
 40
100.0
  1
妻板左右
  7
STYLE1
100
AcDbText
  0
TEXT
  5
165C9
330
747D
100
AcDbEntity
  8
文字
 62
     7
 48
50.0
100
AcDbText
 10
13248.77747366447
 20
9570.013745883729
 30
0.0
 40
100.0
  1
10
  7
STYLE1
100
AcDbText
  0
TEXT
  5
165CA
330
747D
100
AcDbEntity
  8
文字
 62
     7
 48
50.0
100
AcDbText
 10
13583.11819016568
 20
9230.013745883729
 30
0.0
 40
100.0
  1
壁パネル
  7
STYLE1
100
AcDbText
  0
TEXT
  5
165CB
330
747D
100
AcDbEntity
  8
文字
 62
     7
 48
50.0
100
AcDbText
 10
13583.11819016569
 20
9400.013745883729
 30
0.0
 40
100.0
  1
屋根パネル
  7
STYLE1
100
AcDbText
  0
TEXT
  5
165CC
330
747D
100
AcDbEntity
  8
文字
 62
     7
 48
50.0
100
AcDbText
 10
13583.1181901657
 20
9910.01374588373
 30
0.0
 40
100.0
  1
鼻隠シ前後
  7
STYLE1
100
AcDbText
  0
TEXT
  5
165CD
330
747D
100
AcDbEntity
  8
文字
 62
     7
 48
50.0
100
AcDbText
 10
13271.19032244792
 20
9910.01374588373
 30
0.0
 40
100.0
  1
8
  7
STYLE1
100
AcDbText
  0
TEXT
  5
165CE
330
747D
100
AcDbEntity
  8
文字
 62
     7
 48
50.0
100
AcDbText
 10
13271.19032244792
 20
9740.013745883729
 30
0.0
 40
100.0
  1
9
  7
STYLE1
100
AcDbText
  0
TEXT
  5
165CF
330
747D
100
AcDbEntity
  8
文字
 62
     7
 48
50.0
100
AcDbText
 10
13271.19032244792
 20
10080.01374588373
 30
0.0
 40
100.0
  1
7
  7
STYLE1
100
AcDbText
  0
TEXT
  5
165D0
330
747D
100
AcDbEntity
  8
文字
 62
     7
 48
50.0
100
AcDbText
 10
13271.19032244793
 20
10250.01374588373
 30
0.0
 40
100.0
  1
6
  7
STYLE1
100
AcDbText
  0
LINE
  5
165D1
330
747D
100
AcDbEntity
  8
仕様書枠
 48
50.0
100
AcDbLine
 10
16307.19999999998
 20
9369.600000000001
 30
0.0
 11
13127.19999999999
 21
9369.600000000001
 31
0.0
  0
LINE
  5
165D2
330
747D
100
AcDbEntity
  8
仕様書枠
 48
50.0
100
AcDbLine
 10
16307.19999999998
 20
9029.6
 30
0.0
 11
13127.19999999999
 21
9029.6
 31
0.0
  0
LINE
  5
165D3
330
747D
100
AcDbEntity
  8
仕様書枠
 48
50.0
100
AcDbLine
 10
16307.19999999998
 20
9199.600000000001
 30
0.0
 11
13127.19999999999
 21
9199.600000000001
 31
0.0
  0
LINE
  5
165D4
330
747D
100
AcDbEntity
  8
仕様書枠
 48
50.0
100
AcDbLine
 10
16307.2
 20
10049.6
 30
0.0
 11
13127.2
 21
10049.6
 31
0.0
  0
LINE
  5
165D5
330
747D
100
AcDbEntity
  8
仕様書枠
 48
50.0
100
AcDbLine
 10
16307.2
 20
9709.600000000001
 30
0.0
 11
13127.2
 21
9709.600000000001
 31
0.0
  0
TEXT
  5
165D6
330
747D
100
AcDbEntity
  8
文字
 62
     7
 48
50.0
100
AcDbText
 10
13248.77747366447
 20
9400.013745883729
 30
0.0
 40
100.0
  1
11
  7
STYLE1
100
AcDbText
  0
LINE
  5
165D7
330
747D
100
AcDbEntity
  8
仕様書枠
 48
50.0
100
AcDbLine
 10
16307.19999999998
 20
8859.6
 30
0.0
 11
13127.19999999999
 21
8859.6
 31
0.0
  0
LINE
  5
165D8
330
747D
100
AcDbEntity
  8
仕様書枠
 48
50.0
100
AcDbLine
 10
16307.19999999998
 20
8519.600000000002
 30
0.0
 11
13127.19999999999
 21
8519.600000000004
 31
0.0
  0
TEXT
  5
165D9
330
747D
100
AcDbEntity
  8
文字
 62
     7
 48
50.0
100
AcDbText
 10
13248.77747366447
 20
9060.013745883729
 30
0.0
 40
100.0
  1
13
  7
STYLE1
100
AcDbText
  0
TEXT
  5
165DA
330
747D
100
AcDbEntity
  8
文字
 62
     7
 48
50.0
100
AcDbText
 10
13248.77747366447
 20
9230.013745883729
 30
0.0
 40
100.0
  1
12
  7
STYLE1
100
AcDbText
  0
TEXT
  5
165DB
330
747D
100
AcDbEntity
  8
文字
 62
     7
 48
50.0
100
AcDbText
 10
15022.63965474517
 20
11100.01374588372
 30
0.0
 40
100.0
  1
F12            1.2
  7
STYLE1
100
AcDbText
  0
TEXT
  5
165DC
330
747D
100
AcDbEntity
  8
文字
 62
     7
 48
50.0
100
AcDbText
 10
15022.63965474518
 20
10760.01374588372
 30
0.0
 40
100.0
  1
F12            1.0
  7
STYLE1
100
AcDbText
  0
TEXT
  5
165DD
330
747D
100
AcDbEntity
  8
文字
 62
     7
 48
50.0
100
AcDbText
 10
15022.63965474517
 20
10420.01374588372
 30
0.0
 40
100.0
  1
Y10            1.0
  7
STYLE1
100
AcDbText
  0
TEXT
  5
165DE
330
747D
100
AcDbEntity
  8
文字
 62
     7
 48
50.0
100
AcDbText
 10
15022.63965474517
 20
10250.01374588372
 30
0.0
 40
100.0
  1
Y10            1.0
  7
STYLE1
100
AcDbText
  0
TEXT
  5
165DF
330
747D
100
AcDbEntity
  8
文字
 62
     7
 48
50.0
100
AcDbText
 10
15022.63965474517
 20
10080.01374588372
 30
0.0
 40
100.0
  1
Y10            0.7
  7
STYLE1
100
AcDbText
  0
TEXT
  5
165E0
330
747D
100
AcDbEntity
  8
文字
 62
     7
 48
50.0
100
AcDbText
 10
15022.63965474517
 20
9910.013745883725
 30
0.0
 40
100.0
  1
Y10            0.7
  7
STYLE1
100
AcDbText
  0
TEXT
  5
165E1
330
747D
100
AcDbEntity
  8
文字
 62
     7
 48
50.0
100
AcDbText
 10
15022.63965474516
 20
9400.013745883725
 30
0.0
 40
100.0
  1
Y10            0.5
  7
STYLE1
100
AcDbText
  0
TEXT
  5
165E2
330
747D
100
AcDbEntity
  8
文字
 62
     7
 48
50.0
100
AcDbText
 10
15022.63965474515
 20
9230.013745883725
 30
0.0
 40
100.0
  1
F12            0.6
  7
STYLE1
100
AcDbText
  0
LINE
  5
165E3
330
747D
100
AcDbEntity
  8
仕様書枠
 48
50.0
100
AcDbLine
 10
16307.19999999998
 20
8349.600000000004
 30
0.0
 11
13127.19999999999
 21
8349.600000000004
 31
0.0
  0
TEXT
  5
165E4
330
747D
100
AcDbEntity
  8
文字
 62
     7
 48
50.0
100
AcDbText
 10
13229.83081656553
 20
8550.013745883729
 30
0.0
 40
100.0
  1
F12→溶融亜鉛めっき鋼板(JIS G 3302)
  7
STYLE1
100
AcDbText
  0
TEXT
  5
165E5
330
747D
100
AcDbEntity
  8
文字
 62
     7
 48
50.0
100
AcDbText
 10
13229.83081656553
 20
8380.013745883728
 30
0.0
 40
100.0
  1
Y10→溶融亜鉛-5％アルミニウム合金めっき鋼板(JIS G 3317)
 41
0.9
  7
STYLE1
100
AcDbText
  0
LINE
  5
165E6
330
747D
100
AcDbEntity
  8
仕様書枠
 48
50.0
100
AcDbLine
 10
13127.2
 20
11409.6
 30
0.0
 11
13127.19999999999
 21
8349.600000000004
 31
0.0
  0
LINE
  5
165E7
330
747D
100
AcDbEntity
  8
仕様書枠
 48
50.0
100
AcDbLine
 10
16307.19999999998
 20
8689.6
 30
0.0
 11
13127.19999999999
 21
8689.600000000003
 31
0.0
  0
TEXT
  5
165E8
330
747D
100
AcDbEntity
  8
文字
 62
     7
 48
50.0
100
AcDbText
 10
13583.1181901657
 20
10590.01374588373
 30
0.0
 40
100.0
  1
床パネル
 41
0.9
  7
STYLE1
100
AcDbText
  0
TEXT
  5
165E9
330
747D
100
AcDbEntity
  8
文字
 62
     7
 48
50.0
100
AcDbText
 10
15022.63965474517
 20
10590.01374588372
 30
0.0
 40
100.0
  1
F12            1.0
  7
STYLE1
100
AcDbText
  0
TEXT
  5
165EA
330
747D
100
AcDbEntity
  8
文字
 62
     7
 48
50.0
100
AcDbText
 10
15022.63965474515
 20
9060.013745883725
 30
0.0
 40
100.0
  1
F12            0.8
  7
STYLE1
100
AcDbText
  0
TEXT
  5
165EB
330
747D
100
AcDbEntity
  8
文字
 62
     7
 48
50.0
100
AcDbText
 10
13583.11819016568
 20
9060.013745883729
 30
0.0
 40
100.0
  1
扉
  7
STYLE1
100
AcDbText
  0
TEXT
  5
165EC
330
747D
100
AcDbEntity
  8
文字
 62
     7
 48
50.0
100
AcDbText
 10
15022.63965474515
 20
8890.013745883729
 30
0.0
 40
100.0
  1
F12            0.6
  7
STYLE1
100
AcDbText
  0
TEXT
  5
165ED
330
747D
100
AcDbEntity
  8
文字
 62
     7
 48
50.0
100
AcDbText
 10
13583.11819016568
 20
8890.013745883733
 30
0.0
 40
100.0
  1
棚板
  7
STYLE1
100
AcDbText
  0
LINE
  5
165EE
330
747D
100
AcDbEntity
  8
仕様書枠
 48
50.0
100
AcDbLine
 10
16307.2
 20
9539.6
 30
0.0
 11
13127.2
 21
9539.6
 31
0.0
  0
TEXT
  5
165EF
330
747D
100
AcDbEntity
  8
文字
 62
     7
 48
50.0
100
AcDbText
 10
13248.77747366447
 20
8890.013745883731
 30
0.0
 40
100.0
  1
14
  7
STYLE1
100
AcDbText
  0
TEXT
  5
165F0
330
747D
100
AcDbEntity
  8
文字
 62
     7
 48
50.0
100
AcDbText
 10
15022.63965474518
 20
9570.013745883725
 30
0.0
 40
100.0
  1
F12            1.0
  7
STYLE1
100
AcDbText
  0
TEXT
  5
165F1
330
747D
100
AcDbEntity
  8
文字
 62
     7
 48
50.0
100
AcDbText
 10
13583.1181901657
 20
9570.013745883729
 30
0.0
 40
100.0
  1
母屋中
  7
STYLE1
100
AcDbText
  0
ENDSEC
  0
SECTION
  2
OBJECTS
  0
DICTIONARY
  5
7471
330
0
100
AcDbDictionary
281
     1
  3
ACAD_COLOR
350
14F29
  3
ACAD_GROUP
350
7472
  3
ACAD_LAYOUT
350
14F2A
  3
ACAD_MATERIAL
350
14F28
  3
ACAD_MLINESTYLE
350
7473
  3
ACAD_PLOTSETTINGS
350
14F2B
  3
ACAD_PLOTSTYLENAME
350
14F26
  3
ACDBHEADERROUNDTRIPXREC
350
16600
  3
AcDbVariableDictionary
350
165FC
  3
CONTENTDICTIONARY
350
E71C
  3
DRAWINGVARIABLESDICT
350
F3B9
  0
DICTIONARY
  5
150A5
330
7467
100
AcDbDictionary
280
     1
281
     1
  3
ACAD_LAYERSTATES
360
150A6
  0
DICTIONARY
  5
14F29
102
{ACAD_REACTORS
330
7471
102
}
330
7471
100
AcDbDictionary
281
     1
  0
DICTIONARY
  5
7472
102
{ACAD_REACTORS
330
7471
102
}
330
7471
100
AcDbDictionary
281
     1
  0
DICTIONARY
  5
14F2A
102
{ACAD_REACTORS
330
7471
102
}
330
7471
100
AcDbDictionary
281
     1
  3
Model
350
14F2C
  3
レイアウト1
350
14F2D
  0
DICTIONARY
  5
14F28
102
{ACAD_REACTORS
330
7471
102
}
330
7471
100
AcDbDictionary
281
     1
  0
DICTIONARY
  5
7473
102
{ACAD_REACTORS
330
7471
102
}
330
7471
100
AcDbDictionary
281
     1
  3
STANDARD
350
7480
  0
DICTIONARY
  5
14F2B
102
{ACAD_REACTORS
330
7471
102
}
330
7471
100
AcDbDictionary
281
     1
  0
ACDBDICTIONARYWDFLT
  5
14F26
102
{ACAD_REACTORS
330
7471
102
}
330
7471
100
AcDbDictionary
281
     1
  3
Normal
350
14F27
100
AcDbDictionaryWithDefault
340
14F27
  0
DICTIONARY
  5
16600
102
{ACAD_REACTORS
330
7471
102
}
330
7471
100
AcDbDictionary
281
     1
  3
COLORDICT
350
16602
  3
MATERIALDICT
350
16601
  0
DICTIONARY
  5
165FC
102
{ACAD_REACTORS
330
7471
102
}
330
7471
100
AcDbDictionary
281
     1
  3
DIMASSOC
350
165FD
  3
PROJECTNAME
350
165FE
  0
DICTIONARY
  5
E71C
102
{ACAD_REACTORS
330
7471
102
}
330
7471
100
AcDbDictionary
281
     1
  0
DICTIONARY
  5
F3B9
102
{ACAD_REACTORS
330
7471
102
}
330
7471
100
AcDbDictionary
281
     1
1001
DRAWINGVARIABLESXDATA
1000
POLARMODE
1000
1
  0
DICTIONARY
  5
150A6
102
{ACAD_REACTORS
330
150A5
102
}
330
150A5
100
AcDbDictionary
281
     1
  0
LAYOUT
  5
14F2C
102
{ACAD_XDICTIONARY
360
16603
102
}
102
{ACAD_REACTORS
330
14F2A
102
}
330
14F2A
100
AcDbPlotSettings
  1

  2
Microsoft Office Document Image Writer
  4

  6

 40
0.0
 41
0.0
 42
0.0
 43
0.0
 44
0.0
 45
0.0
 46
0.0
 47
0.0
 48
0.0
 49
0.0
140
0.0
141
0.0
142
1.0
143
1.0
 70
  1712
 72
     0
 73
     0
 74
     0
  7

 75
     0
147
1.0
148
0.0
149
0.0
100
AcDbLayout
  1
Model
 70
     1
 71
     0
 10
0.0
 20
0.0
 11
12.0
 21
9.0
 12
0.0
 22
0.0
 32
0.0
 14
0.0
 24
0.0
 34
0.0
 15
0.0
 25
0.0
 35
0.0
146
0.0
 13
0.0
 23
0.0
 33
0.0
 16
1.0
 26
0.0
 36
0.0
 17
0.0
 27
1.0
 37
0.0
 76
     0
330
747D
  0
LAYOUT
  5
14F2D
102
{ACAD_XDICTIONARY
360
16605
102
}
102
{ACAD_REACTORS
330
14F2A
102
}
330
14F2A
100
AcDbPlotSettings
  1

  2
Microsoft Office Document Image Writer
  4

  6

 40
0.0
 41
0.0
 42
0.0
 43
0.0
 44
0.0
 45
0.0
 46
0.0
 47
0.0
 48
0.0
 49
0.0
140
0.0
141
0.0
142
1.0
143
1.0
 70
   688
 72
     0
 73
     0
 74
     5
  7

 75
    16
147
1.0
148
0.0
149
0.0
100
AcDbLayout
  1
レイアウト1
 70
     0
 71
     1
 10
0.0
 20
0.0
 11
420.0
 21
297.0
 12
0.0
 22
0.0
 32
0.0
 14
1.000000000000000E+20
 24
1.000000000000000E+20
 34
1.000000000000000E+20
 15
-1.000000000000000E+20
 25
-1.000000000000000E+20
 35
-1.000000000000000E+20
146
0.0
 13
0.0
 23
0.0
 33
0.0
 16
1.0
 26
0.0
 36
0.0
 17
0.0
 27
1.0
 37
0.0
 76
     0
330
747A
  0
MLINESTYLE
  5
7480
102
{ACAD_REACTORS
330
7473
102
}
330
7473
100
AcDbMlineStyle
  2
STANDARD
 70
     0
  3

 62
     0
 51
90.0
 52
90.0
 71
     2
 49
0.5
 62
   256
  6
BYLAYER
 49
-0.5
 62
   256
  6
BYLAYER
  0
ACDBPLACEHOLDER
  5
14F27
102
{ACAD_REACTORS
330
14F26
102
}
330
14F26
  0
XRECORD
  5
16602
102
{ACAD_REACTORS
330
16600
102
}
330
16600
100
AcDbXrecord
280
     1
340
14F29
  0
XRECORD
  5
16601
102
{ACAD_REACTORS
330
16600
102
}
330
16600
100
AcDbXrecord
280
     1
340
14F28
  0
DICTIONARYVAR
  5
165FD
102
{ACAD_REACTORS
330
165FC
102
}
330
165FC
100
DictionaryVariables
280
     0
  1
1
  0
DICTIONARYVAR
  5
165FE
102
{ACAD_REACTORS
330
165FC
102
}
330
165FC
100
DictionaryVariables
280
     0
  1

  0
DICTIONARY
  5
16603
330
14F2C
100
AcDbDictionary
280
     1
281
     1
  3
ACAD_XREC_ROUNDTRIP
360
16604
  0
DICTIONARY
  5
16605
330
14F2D
100
AcDbDictionary
280
     1
281
     1
  3
ACAD_XREC_ROUNDTRIP
360
16606
  0
XRECORD
  5
16604
102
{ACAD_REACTORS
330
16603
102
}
330
16603
100
AcDbXrecord
280
     1
102
SHADEPLOT
 70
     0
102
SHADEPLOTRESLEVEL
 70
     2
102
SHADEPLOTCUSTOMDPI
 70
   300
  0
XRECORD
  5
16606
102
{ACAD_REACTORS
330
16605
102
}
330
16605
100
AcDbXrecord
280
     1
102
SHADEPLOT
 70
     0
102
SHADEPLOTRESLEVEL
 70
     2
102
SHADEPLOTCUSTOMDPI
 70
   300
  0
ENDSEC
  0
EOF
