  0
SECTION
  2
HEADER
  9
$ACADVER
  1
AC1015
  9
$ACADMAINTVER
 70
    20
  9
$DWGCODEPAGE
  3
ANSI_932
  9
$INSBASE
 10
0.0
 20
0.0
 30
0.0
  9
$EXTMIN
 10
139.9999999999995
 20
-0.0000000000000909
 30
0.0
  9
$EXTMAX
 10
16307.2
 20
11409.6
 30
0.0
  9
$LIMMIN
 10
0.0
 20
0.0
  9
$LIMMAX
 10
16800.0
 20
11880.0
  9
$ORTHOMODE
 70
     0
  9
$REGENMODE
 70
     1
  9
$FILLMODE
 70
     1
  9
$QTEXTMODE
 70
     0
  9
$MIRRTEXT
 70
     1
  9
$LTSCALE
 40
20.0
  9
$ATTMODE
 70
     1
  9
$TEXTSIZE
 40
100.0
  9
$TRACEWID
 40
1.0
  9
$TEXTSTYLE
  7
STYLE3
  9
$CLAYER
  8
寸法
  9
$CELTYPE
  6
BYLAYER
  9
$CECOLOR
 62
   256
  9
$CELTSCALE
 40
50.0
  9
$DISPSILH
 70
     0
  9
$DIMSCALE
 40
40.0
  9
$DIMASZ
 40
2.5
  9
$DIMEXO
 40
0.5
  9
$DIMDLI
 40
7.0
  9
$DIMRND
 40
0.0
  9
$DIMDLE
 40
0.0
  9
$DIMEXE
 40
1.5
  9
$DIMTP
 40
0.0
  9
$DIMTM
 40
0.0
  9
$DIMTXT
 40
3.0
  9
$DIMCEN
 40
0.0
  9
$DIMTSZ
 40
0.0
  9
$DIMTOL
 70
     0
  9
$DIMLIM
 70
     0
  9
$DIMTIH
 70
     0
  9
$DIMTOH
 70
     0
  9
$DIMSE1
 70
     0
  9
$DIMSE2
 70
     0
  9
$DIMTAD
 70
     3
  9
$DIMZIN
 70
     8
  9
$DIMBLK
  1

  9
$DIMASO
 70
     1
  9
$DIMSHO
 70
     1
  9
$DIMPOST
  1

  9
$DIMAPOST
  1

  9
$DIMALT
 70
     0
  9
$DIMALTD
 70
     2
  9
$DIMALTF
 40
0.0394
  9
$DIMLFAC
 40
1.0
  9
$DIMTOFL
 70
     1
  9
$DIMTVP
 40
0.0
  9
$DIMTIX
 70
     1
  9
$DIMSOXD
 70
     0
  9
$DIMSAH
 70
     1
  9
$DIMBLK1
  1
DOTSMALL
  9
$DIMBLK2
  1
DOTSMALL
  9
$DIMSTYLE
  2
INABA_S40G
  9
$DIMCLRD
 70
     0
  9
$DIMCLRE
 70
     0
  9
$DIMCLRT
 70
     7
  9
$DIMTFAC
 40
1.0
  9
$DIMGAP
 40
1.0
  9
$DIMJUST
 70
     0
  9
$DIMSD1
 70
     0
  9
$DIMSD2
 70
     0
  9
$DIMTOLJ
 70
     1
  9
$DIMTZIN
 70
     0
  9
$DIMALTZ
 70
     0
  9
$DIMALTTZ
 70
     0
  9
$DIMUPT
 70
     0
  9
$DIMDEC
 70
     1
  9
$DIMTDEC
 70
     4
  9
$DIMALTU
 70
     2
  9
$DIMALTTD
 70
     2
  9
$DIMTXSTY
  7
STYLE1
  9
$DIMAUNIT
 70
     0
  9
$DIMADEC
 70
     0
  9
$DIMALTRND
 40
0.0
  9
$DIMAZIN
 70
     0
  9
$DIMDSEP
 70
    46
  9
$DIMATFIT
 70
     3
  9
$DIMFRAC
 70
     0
  9
$DIMLDRBLK
  1

  9
$DIMLUNIT
 70
     2
  9
$DIMLWD
 70
    -2
  9
$DIMLWE
 70
    -2
  9
$DIMTMOVE
 70
     0
  9
$LUNITS
 70
     2
  9
$LUPREC
 70
     1
  9
$SKETCHINC
 40
1.0
  9
$FILLETRAD
 40
5.0
  9
$AUNITS
 70
     0
  9
$AUPREC
 70
     0
  9
$MENU
  1
acad
  9
$ELEVATION
 40
0.0
  9
$PELEVATION
 40
0.0
  9
$THICKNESS
 40
0.0
  9
$LIMCHECK
 70
     0
  9
$CHAMFERA
 40
0.0
  9
$CHAMFERB
 40
0.0
  9
$CHAMFERC
 40
0.0
  9
$CHAMFERD
 40
0.0
  9
$SKPOLY
 70
     0
  9
$TDCREATE
 40
2452116.684896065
  9
$TDUCREATE
 40
2452116.309896065
  9
$TDUPDATE
 40
2455575.692296366
  9
$TDUUPDATE
 40
2455575.317296366
  9
$TDINDWG
 40
0.5044416898
  9
$TDUSRTIMER
 40
0.5044416898
  9
$USRTIMER
 70
     1
  9
$ANGBASE
 50
0.0
  9
$ANGDIR
 70
     0
  9
$PDMODE
 70
     3
  9
$PDSIZE
 40
2.0
  9
$PLINEWID
 40
0.0
  9
$SPLFRAME
 70
     0
  9
$SPLINETYPE
 70
     6
  9
$SPLINESEGS
 70
     8
  9
$HANDSEED
  5
1714D
  9
$SURFTAB1
 70
     6
  9
$SURFTAB2
 70
     6
  9
$SURFTYPE
 70
     6
  9
$SURFU
 70
     6
  9
$SURFV
 70
     6
  9
$UCSBASE
  2

  9
$UCSNAME
  2

  9
$UCSORG
 10
0.0
 20
0.0
 30
0.0
  9
$UCSXDIR
 10
1.0
 20
0.0
 30
0.0
  9
$UCSYDIR
 10
0.0
 20
1.0
 30
0.0
  9
$UCSORTHOREF
  2

  9
$UCSORTHOVIEW
 70
     0
  9
$UCSORGTOP
 10
0.0
 20
0.0
 30
0.0
  9
$UCSORGBOTTOM
 10
0.0
 20
0.0
 30
0.0
  9
$UCSORGLEFT
 10
0.0
 20
0.0
 30
0.0
  9
$UCSORGRIGHT
 10
0.0
 20
0.0
 30
0.0
  9
$UCSORGFRONT
 10
0.0
 20
0.0
 30
0.0
  9
$UCSORGBACK
 10
0.0
 20
0.0
 30
0.0
  9
$PUCSBASE
  2

  9
$PUCSNAME
  2

  9
$PUCSORG
 10
0.0
 20
0.0
 30
0.0
  9
$PUCSXDIR
 10
1.0
 20
0.0
 30
0.0
  9
$PUCSYDIR
 10
0.0
 20
1.0
 30
0.0
  9
$PUCSORTHOREF
  2

  9
$PUCSORTHOVIEW
 70
     0
  9
$PUCSORGTOP
 10
0.0
 20
0.0
 30
0.0
  9
$PUCSORGBOTTOM
 10
0.0
 20
0.0
 30
0.0
  9
$PUCSORGLEFT
 10
0.0
 20
0.0
 30
0.0
  9
$PUCSORGRIGHT
 10
0.0
 20
0.0
 30
0.0
  9
$PUCSORGFRONT
 10
0.0
 20
0.0
 30
0.0
  9
$PUCSORGBACK
 10
0.0
 20
0.0
 30
0.0
  9
$USERI1
 70
     0
  9
$USERI2
 70
     0
  9
$USERI3
 70
     0
  9
$USERI4
 70
     0
  9
$USERI5
 70
     0
  9
$USERR1
 40
0.0
  9
$USERR2
 40
0.0
  9
$USERR3
 40
0.0
  9
$USERR4
 40
0.0
  9
$USERR5
 40
0.0
  9
$WORLDVIEW
 70
     1
  9
$SHADEDGE
 70
     3
  9
$SHADEDIF
 70
    70
  9
$TILEMODE
 70
     1
  9
$MAXACTVP
 70
    16
  9
$PINSBASE
 10
0.0
 20
0.0
 30
0.0
  9
$PLIMCHECK
 70
     0
  9
$PEXTMIN
 10
1.000000000000000E+20
 20
1.000000000000000E+20
 30
1.000000000000000E+20
  9
$PEXTMAX
 10
-1.000000000000000E+20
 20
-1.000000000000000E+20
 30
-1.000000000000000E+20
  9
$PLIMMIN
 10
0.0
 20
0.0
  9
$PLIMMAX
 10
420.0
 20
297.0
  9
$UNITMODE
 70
     0
  9
$VISRETAIN
 70
     0
  9
$PLINEGEN
 70
     0
  9
$PSLTSCALE
 70
     0
  9
$TREEDEPTH
 70
  3020
  9
$CMLSTYLE
  2
STANDARD
  9
$CMLJUST
 70
     0
  9
$CMLSCALE
 40
1.0
  9
$PROXYGRAPHICS
 70
     1
  9
$MEASUREMENT
 70
     1
  9
$CELWEIGHT
370
    -1
  9
$ENDCAPS
280
     0
  9
$JOINSTYLE
280
     0
  9
$LWDISPLAY
290
     0
  9
$INSUNITS
 70
     0
  9
$HYPERLINKBASE
  1

  9
$STYLESHEET
  1

  9
$XEDIT
290
     1
  9
$CEPSNTYPE
380
     0
  9
$PSTYLEMODE
290
     1
  9
$FINGERPRINTGUID
  2
{67707176-31E2-48C3-A5BE-C129F6E832D1}
  9
$VERSIONGUID
  2
{DFD3B044-C324-429E-9779-134A7AF906A2}
  9
$EXTNAMES
290
     1
  9
$PSVPSCALE
 40
0.0
  9
$OLESTARTUP
290
     0
  0
ENDSEC
  0
SECTION
  2
CLASSES
  0
CLASS
  1
ACDBDICTIONARYWDFLT
  2
AcDbDictionaryWithDefault
  3
ObjectDBX Classes
 90
        0
280
     0
281
     0
  0
CLASS
  1
DICTIONARYVAR
  2
AcDbDictionaryVar
  3
ObjectDBX Classes
 90
        0
280
     0
281
     0
  0
CLASS
  1
ACDBPLACEHOLDER
  2
AcDbPlaceHolder
  3
ObjectDBX Classes
 90
        0
280
     0
281
     0
  0
CLASS
  1
LAYOUT
  2
AcDbLayout
  3
ObjectDBX Classes
 90
        0
280
     0
281
     0
  0
ENDSEC
  0
SECTION
  2
TABLES
  0
TABLE
  2
VPORT
  5
746D
330
0
100
AcDbSymbolTable
 70
     2
  0
VPORT
  5
17145
330
746D
100
AcDbSymbolTableRecord
100
AcDbViewportTableRecord
  2
*Active
 70
     0
 10
0.0
 20
0.0
 11
1.0
 21
1.0
 12
9076.958198330489
 22
6347.43278927734
 13
0.0
 23
0.0
 14
10.0
 24
10.0
 15
10.0
 25
10.0
 16
0.0
 26
0.0
 36
1.0
 17
0.0
 27
0.0
 37
0.0
 40
12784.09004059354
 41
1.525925925925925
 42
50.0
 43
0.0
 44
0.0
 50
0.0
 51
0.0
 71
     0
 72
     0
 73
     1
 74
     0
 75
     0
 76
     0
 77
     0
 78
     0
281
     0
 65
     1
110
0.0
120
0.0
130
0.0
111
1.0
121
0.0
131
0.0
112
0.0
122
1.0
132
0.0
 79
     0
146
0.0
  0
ENDTAB
  0
TABLE
  2
LTYPE
  5
746A
330
0
100
AcDbSymbolTable
 70
     4
  0
LTYPE
  5
7477
330
746A
100
AcDbSymbolTableRecord
100
AcDbLinetypeTableRecord
  2
BYBLOCK
 70
     0
  3

 72
    65
 73
     0
 40
0.0
  0
LTYPE
  5
7478
330
746A
100
AcDbSymbolTableRecord
100
AcDbLinetypeTableRecord
  2
BYLAYER
 70
     0
  3

 72
    65
 73
     0
 40
0.0
  0
LTYPE
  5
7479
330
746A
100
AcDbSymbolTableRecord
100
AcDbLinetypeTableRecord
  2
CONTINUOUS
 70
     0
  3
Solid line
 72
    65
 73
     0
 40
0.0
  0
LTYPE
  5
7816
330
746A
100
AcDbSymbolTableRecord
100
AcDbLinetypeTableRecord
  2
CENTER
 70
     0
  3
____ _ ____ _ ____ _ ____ _ ____ _ ____ _ ____ 
 72
    65
 73
     4
 40
2.0
 49
1.25
 74
     0
 49
-0.25
 74
     0
 49
0.25
 74
     0
 49
-0.25
 74
     0
  0
LTYPE
  5
781A
330
746A
100
AcDbSymbolTableRecord
100
AcDbLinetypeTableRecord
  2
HIDDEN
 70
     0
  3
__ __ __ __ __ __ __ __ __ __ __ __ __ __ __ __
 72
    65
 73
     2
 40
0.375
 49
0.25
 74
     0
 49
-0.125
 74
     0
  0
LTYPE
  5
781B
330
746A
100
AcDbSymbolTableRecord
100
AcDbLinetypeTableRecord
  2
PHANTOM
 70
     0
  3
______  __  __  ______  __  __  ______  __  __ 
 72
    65
 73
     6
 40
2.5
 49
1.25
 74
     0
 49
-0.25
 74
     0
 49
0.25
 74
     0
 49
-0.25
 74
     0
 49
0.25
 74
     0
 49
-0.25
 74
     0
  0
ENDTAB
  0
TABLE
  2
LAYER
  5
7467
102
{ACAD_XDICTIONARY
360
160C5
102
}
330
0
100
AcDbSymbolTable
 70
    12
  0
LAYER
  5
7474
330
7467
100
AcDbSymbolTableRecord
100
AcDbLayerTableRecord
  2
0
 70
     0
 62
     7
  6
CONTINUOUS
370
    -3
390
15EB9
  0
LAYER
  5
DEB2
330
7467
100
AcDbSymbolTableRecord
100
AcDbLayerTableRecord
  2
センター
 70
     0
 62
     3
  6
CENTER
370
    -3
390
15EB9
  0
LAYER
  5
DEB3
330
7467
100
AcDbSymbolTableRecord
100
AcDbLayerTableRecord
  2
寸法
 70
     0
 62
     4
  6
CONTINUOUS
370
    -3
390
15EB9
  0
LAYER
  5
DEB4
330
7467
100
AcDbSymbolTableRecord
100
AcDbLayerTableRecord
  2
部品1
 70
     0
 62
     7
  6
CONTINUOUS
370
    -3
390
15EB9
  0
LAYER
  5
DEB5
330
7467
100
AcDbSymbolTableRecord
100
AcDbLayerTableRecord
  2
補助
 70
     0
 62
    -1
  6
CONTINUOUS
370
    -3
390
15EB9
  0
LAYER
  5
DEB6
330
7467
100
AcDbSymbolTableRecord
100
AcDbLayerTableRecord
  2
文字
 70
     0
 62
     7
  6
CONTINUOUS
370
    -3
390
15EB9
  0
LAYER
  5
F255
330
7467
100
AcDbSymbolTableRecord
100
AcDbLayerTableRecord
  2
DEFPOINTS
 70
     0
 62
     7
  6
CONTINUOUS
290
     0
370
    -3
390
15EB9
  0
LAYER
  5
10B54
330
7467
100
AcDbSymbolTableRecord
100
AcDbLayerTableRecord
  2
仕様書枠
 70
     0
 62
   230
  6
CONTINUOUS
370
    -3
390
15EB9
  0
LAYER
  5
11729
330
7467
100
AcDbSymbolTableRecord
100
AcDbLayerTableRecord
  2
Ｇ．Ｌ
 70
     0
 62
    30
  6
CONTINUOUS
370
    -3
390
15EB9
  0
LAYER
  5
1173F
330
7467
100
AcDbSymbolTableRecord
100
AcDbLayerTableRecord
  2
細線
 70
     0
 62
     5
  6
CONTINUOUS
370
    -3
390
15EB9
  0
LAYER
  5
118A1
330
7467
100
AcDbSymbolTableRecord
100
AcDbLayerTableRecord
  2
想像線
 70
     0
 62
     6
  6
PHANTOM
370
    -3
390
15EB9
  0
LAYER
  5
123C1
330
7467
100
AcDbSymbolTableRecord
100
AcDbLayerTableRecord
  2
破線
 70
     0
 62
     2
  6
HIDDEN
370
    -3
390
15EB9
  0
ENDTAB
  0
TABLE
  2
STYLE
  5
7468
330
0
100
AcDbSymbolTable
 70
     4
  0
STYLE
  5
7475
330
7468
100
AcDbSymbolTableRecord
100
AcDbTextStyleTableRecord
  2
STANDARD
 70
     0
 40
0.0
 41
1.0
 50
0.0
 71
     0
 42
4.0
  3
txt
  4
C:\AutoCAD LT\bigfont.shx
  0
STYLE
  5
F706
330
7468
100
AcDbSymbolTableRecord
100
AcDbTextStyleTableRecord
  2
STYLE1
 70
     0
 40
0.0
 41
1.0
 50
0.0
 71
     0
 42
4.0
  3
isocp.shx
  4
bigfont.shx
  0
STYLE
  5
103BF
330
7468
100
AcDbSymbolTableRecord
100
AcDbTextStyleTableRecord
  2
STYLE2
 70
     0
 40
0.0
 41
1.0
 50
0.0
 71
     0
 42
100.0
  3
MS PGothic.ttf
  4

1001
ACAD
1000
MS PGothic
1071
    32818
  0
STYLE
  5
10BAA
330
7468
100
AcDbSymbolTableRecord
100
AcDbTextStyleTableRecord
  2
STYLE3
 70
     0
 40
0.0
 41
1.0
 50
0.0
 71
     0
 42
100.0
  3

  4

1001
ACAD
1000
DFPGothic-EB
1071
    32818
  0
ENDTAB
  0
TABLE
  2
VIEW
  5
746B
330
0
100
AcDbSymbolTable
 70
     0
  0
ENDTAB
  0
TABLE
  2
UCS
  5
746C
330
0
100
AcDbSymbolTable
 70
     0
  0
ENDTAB
  0
TABLE
  2
APPID
  5
746E
330
0
100
AcDbSymbolTable
 70
     6
  0
APPID
  5
7476
330
746E
100
AcDbSymbolTableRecord
100
AcDbRegAppTableRecord
  2
ACAD
 70
     0
  0
APPID
  5
DEA9
330
746E
100
AcDbSymbolTableRecord
100
AcDbRegAppTableRecord
  2
CONTENTBLOCKICON
 70
     0
  0
APPID
  5
DEAA
330
746E
100
AcDbSymbolTableRecord
100
AcDbRegAppTableRecord
  2
CONTENTBLOCKDESCRIPTION
 70
     0
  0
APPID
  5
E71D
330
746E
100
AcDbSymbolTableRecord
100
AcDbRegAppTableRecord
  2
CONTENTTABDATA
 70
     0
  0
APPID
  5
E71E
330
746E
100
AcDbSymbolTableRecord
100
AcDbRegAppTableRecord
  2
CONTENTCURRENTTAB
 70
     0
  0
APPID
  5
F3BA
330
746E
100
AcDbSymbolTableRecord
100
AcDbRegAppTableRecord
  2
DRAWINGVARIABLESXDATA
 70
     0
  0
ENDTAB
  0
TABLE
  2
DIMSTYLE
  5
746F
330
0
100
AcDbSymbolTable
 70
     2
100
AcDbDimStyleTable
 71
     0
  0
DIMSTYLE
105
7484
330
746F
100
AcDbSymbolTableRecord
100
AcDbDimStyleTableRecord
  2
JIS
 70
     0
 41
2.5
 42
1.0
 43
7.0
 44
1.0
 73
     0
 74
     0
 77
     1
 78
     8
140
2.5
141
0.0
143
0.0394
147
0.0
172
     1
174
     1
175
     1
340
7475
  0
DIMSTYLE
105
F71F
102
{ACAD_REACTORS
330
1518D
330
1519A
330
1519B
330
1519F
330
151DF
330
151EC
330
151ED
330
151EE
330
151EF
330
151FE
330
1522E
330
15230
330
15241
330
15258
330
156D1
330
156E9
330
15ADA
330
15B19
330
15AD9
330
15C57
330
15BC8
330
15BA1
330
15BA0
330
15B9F
330
15E5B
330
15E75
330
1659B
330
165C1
330
165C2
330
165C3
330
165C4
330
165CC
330
165CD
330
165CE
330
165CF
330
16DB1
330
16DB0
330
16DAF
330
16DAE
330
16DAD
330
16E22
330
16E3A
330
16E39
330
16E38
330
16E8C
102
}
330
746F
100
AcDbSymbolTableRecord
100
AcDbDimStyleTableRecord
  2
INABA_S40G
 70
     0
 40
40.0
 41
2.5
 42
0.5
 43
7.0
 44
1.5
 73
     0
 74
     0
 77
     3
 78
     8
140
3.0
141
0.0
143
0.0394
147
1.0
172
     1
173
     1
174
     1
178
     7
271
     1
340
F706
341
F770
343
F770
344
F770
  0
ENDTAB
  0
TABLE
  2
BLOCK_RECORD
  5
7466
330
0
100
AcDbSymbolTable
 70
    47
  0
BLOCK_RECORD
  5
747D
330
7466
100
AcDbSymbolTableRecord
100
AcDbBlockTableRecord
  2
*MODEL_SPACE
340
15EBE
  0
BLOCK_RECORD
  5
747A
330
7466
100
AcDbSymbolTableRecord
100
AcDbBlockTableRecord
  2
*PAPER_SPACE
340
15EBF
  0
BLOCK_RECORD
  5
F770
330
7466
100
AcDbSymbolTableRecord
100
AcDbBlockTableRecord
  2
_DOTSMALL
340
0
102
{BLKREFS
331
16F47
331
16F48
331
16F52
331
16F53
331
16F5B
331
16F5C
331
16F64
331
16F65
331
16F6E
331
16F6F
331
16F77
331
16F78
331
16F82
331
16F83
331
16F8B
331
16F8C
331
16F94
331
16F95
331
16F9D
331
16F9E
331
16FA8
331
16FA9
331
16FB1
331
16FB2
331
16FBB
331
16FBC
331
16FC4
331
16FC5
331
16FCE
331
16FCF
331
16FD7
331
16FD8
331
16FE0
331
16FE1
331
16FE9
331
16FEA
331
16FF2
331
16FF3
331
16FFB
331
16FFC
331
17003
331
17004
331
1700C
331
1700D
331
17016
331
17017
331
1701E
331
1701F
331
17027
331
17028
331
17031
331
17032
331
17039
331
1703A
331
17043
331
17044
331
1704B
331
1704C
331
17054
331
17055
331
1705D
331
1705E
331
17066
331
17067
331
17071
331
17072
331
1707A
331
1707B
331
17083
331
17084
331
1708C
331
1708D
331
17097
331
17098
331
170A0
331
170A1
331
170AB
331
170AC
331
170B5
331
170B6
331
170BD
331
170BE
331
170C8
331
170C9
331
170D2
331
170D3
331
170DA
331
170DB
331
170E3
331
170E4
102
}
  0
BLOCK_RECORD
  5
1537F
330
7466
100
AcDbSymbolTableRecord
100
AcDbBlockTableRecord
  2
*D1
340
0
  0
BLOCK_RECORD
  5
153A3
330
7466
100
AcDbSymbolTableRecord
100
AcDbBlockTableRecord
  2
*D2
340
0
  0
BLOCK_RECORD
  5
153AF
330
7466
100
AcDbSymbolTableRecord
100
AcDbBlockTableRecord
  2
*D3
340
0
  0
BLOCK_RECORD
  5
153C7
330
7466
100
AcDbSymbolTableRecord
100
AcDbBlockTableRecord
  2
*D4
340
0
  0
BLOCK_RECORD
  5
153E1
330
7466
100
AcDbSymbolTableRecord
100
AcDbBlockTableRecord
  2
*D5
340
0
  0
BLOCK_RECORD
  5
153ED
330
7466
100
AcDbSymbolTableRecord
100
AcDbBlockTableRecord
  2
*D6
340
0
  0
BLOCK_RECORD
  5
153F9
330
7466
100
AcDbSymbolTableRecord
100
AcDbBlockTableRecord
  2
*D7
340
0
  0
BLOCK_RECORD
  5
15407
330
7466
100
AcDbSymbolTableRecord
100
AcDbBlockTableRecord
  2
*D8
340
0
  0
BLOCK_RECORD
  5
15413
330
7466
100
AcDbSymbolTableRecord
100
AcDbBlockTableRecord
  2
*D9
340
0
  0
BLOCK_RECORD
  5
15439
330
7466
100
AcDbSymbolTableRecord
100
AcDbBlockTableRecord
  2
*D10
340
0
  0
BLOCK_RECORD
  5
15445
330
7466
100
AcDbSymbolTableRecord
100
AcDbBlockTableRecord
  2
*D11
340
0
  0
BLOCK_RECORD
  5
15451
330
7466
100
AcDbSymbolTableRecord
100
AcDbBlockTableRecord
  2
*D12
340
0
  0
BLOCK_RECORD
  5
1545D
330
7466
100
AcDbSymbolTableRecord
100
AcDbBlockTableRecord
  2
*D13
340
0
  0
BLOCK_RECORD
  5
15483
330
7466
100
AcDbSymbolTableRecord
100
AcDbBlockTableRecord
  2
*D14
340
0
  0
BLOCK_RECORD
  5
156D2
330
7466
100
AcDbSymbolTableRecord
100
AcDbBlockTableRecord
  2
*D15
340
0
  0
BLOCK_RECORD
  5
156EA
330
7466
100
AcDbSymbolTableRecord
100
AcDbBlockTableRecord
  2
*D16
340
0
  0
BLOCK_RECORD
  5
15B4A
330
7466
100
AcDbSymbolTableRecord
100
AcDbBlockTableRecord
  2
*D17
340
0
  0
BLOCK_RECORD
  5
15B6E
330
7466
100
AcDbSymbolTableRecord
100
AcDbBlockTableRecord
  2
*D18
340
0
  0
BLOCK_RECORD
  5
15B7A
330
7466
100
AcDbSymbolTableRecord
100
AcDbBlockTableRecord
  2
*D19
340
0
  0
BLOCK_RECORD
  5
15CAC
330
7466
100
AcDbSymbolTableRecord
100
AcDbBlockTableRecord
  2
*D20
340
0
  0
BLOCK_RECORD
  5
15CD0
330
7466
100
AcDbSymbolTableRecord
100
AcDbBlockTableRecord
  2
*D21
340
0
  0
BLOCK_RECORD
  5
15CDC
330
7466
100
AcDbSymbolTableRecord
100
AcDbBlockTableRecord
  2
*D22
340
0
  0
BLOCK_RECORD
  5
15CE8
330
7466
100
AcDbSymbolTableRecord
100
AcDbBlockTableRecord
  2
*D23
340
0
  0
BLOCK_RECORD
  5
15CF4
330
7466
100
AcDbSymbolTableRecord
100
AcDbBlockTableRecord
  2
*D24
340
0
  0
BLOCK_RECORD
  5
15E5D
330
7466
100
AcDbSymbolTableRecord
100
AcDbBlockTableRecord
  2
*D25
340
0
  0
BLOCK_RECORD
  5
15E76
330
7466
100
AcDbSymbolTableRecord
100
AcDbBlockTableRecord
  2
*D26
340
0
  0
BLOCK_RECORD
  5
16A11
330
7466
100
AcDbSymbolTableRecord
100
AcDbBlockTableRecord
  2
*D27
340
0
  0
BLOCK_RECORD
  5
16A1E
330
7466
100
AcDbSymbolTableRecord
100
AcDbBlockTableRecord
  2
*D28
340
0
  0
BLOCK_RECORD
  5
16A2A
330
7466
100
AcDbSymbolTableRecord
100
AcDbBlockTableRecord
  2
*D29
340
0
  0
BLOCK_RECORD
  5
16A38
330
7466
100
AcDbSymbolTableRecord
100
AcDbBlockTableRecord
  2
*D30
340
0
  0
BLOCK_RECORD
  5
16A44
330
7466
100
AcDbSymbolTableRecord
100
AcDbBlockTableRecord
  2
*D31
340
0
  0
BLOCK_RECORD
  5
16A50
330
7466
100
AcDbSymbolTableRecord
100
AcDbBlockTableRecord
  2
*D32
340
0
  0
BLOCK_RECORD
  5
16A5C
330
7466
100
AcDbSymbolTableRecord
100
AcDbBlockTableRecord
  2
*D33
340
0
  0
BLOCK_RECORD
  5
16A6A
330
7466
100
AcDbSymbolTableRecord
100
AcDbBlockTableRecord
  2
*D34
340
0
  0
BLOCK_RECORD
  5
16A76
330
7466
100
AcDbSymbolTableRecord
100
AcDbBlockTableRecord
  2
*D35
340
0
  0
BLOCK_RECORD
  5
16DB7
330
7466
100
AcDbSymbolTableRecord
100
AcDbBlockTableRecord
  2
*D36
340
0
  0
BLOCK_RECORD
  5
16DC3
330
7466
100
AcDbSymbolTableRecord
100
AcDbBlockTableRecord
  2
*D37
340
0
  0
BLOCK_RECORD
  5
16DCF
330
7466
100
AcDbSymbolTableRecord
100
AcDbBlockTableRecord
  2
*D38
340
0
  0
BLOCK_RECORD
  5
16DDB
330
7466
100
AcDbSymbolTableRecord
100
AcDbBlockTableRecord
  2
*D39
340
0
  0
BLOCK_RECORD
  5
16DE7
330
7466
100
AcDbSymbolTableRecord
100
AcDbBlockTableRecord
  2
*D40
340
0
  0
BLOCK_RECORD
  5
16E23
330
7466
100
AcDbSymbolTableRecord
100
AcDbBlockTableRecord
  2
*D41
340
0
  0
BLOCK_RECORD
  5
16E49
330
7466
100
AcDbSymbolTableRecord
100
AcDbBlockTableRecord
  2
*D42
340
0
  0
BLOCK_RECORD
  5
16E57
330
7466
100
AcDbSymbolTableRecord
100
AcDbBlockTableRecord
  2
*D43
340
0
  0
BLOCK_RECORD
  5
16E63
330
7466
100
AcDbSymbolTableRecord
100
AcDbBlockTableRecord
  2
*D44
340
0
  0
BLOCK_RECORD
  5
16E97
330
7466
100
AcDbSymbolTableRecord
100
AcDbBlockTableRecord
  2
*D45
340
0
  0
BLOCK_RECORD
  5
1710A
330
7466
100
AcDbSymbolTableRecord
100
AcDbBlockTableRecord
  2
A$C04B43244
340
0
  0
ENDTAB
  0
ENDSEC
  0
SECTION
  2
BLOCKS
  0
BLOCK
  5
7489
330
747D
100
AcDbEntity
  8
0
100
AcDbBlockBegin
  2
*MODEL_SPACE
 70
     0
 10
0.0
 20
0.0
 30
0.0
  3
*MODEL_SPACE
  1

  0
ENDBLK
  5
748A
330
747D
100
AcDbEntity
  8
0
100
AcDbBlockEnd
  0
BLOCK
  5
7487
330
747A
100
AcDbEntity
 67
     1
  8
0
100
AcDbBlockBegin
  2
*PAPER_SPACE
 70
     0
 10
0.0
 20
0.0
 30
0.0
  3
*PAPER_SPACE
  1

  0
ENDBLK
  5
7488
330
747A
100
AcDbEntity
 67
     1
  8
0
100
AcDbBlockEnd
  0
BLOCK
  5
F771
330
F770
100
AcDbEntity
  8
0
 48
50.0
100
AcDbBlockBegin
  2
_DOTSMALL
 70
     0
 10
0.0
 20
0.0
 30
0.0
  3
_DOTSMALL
  1

  0
LWPOLYLINE
  5
F772
330
F770
100
AcDbEntity
  8
0
  6
ByBlock
 62
     0
 48
50.0
100
AcDbPolyline
 90
        2
 70
     1
 43
0.5
 10
-0.0625
 20
0.0
 42
1.0
 10
0.0625
 20
0.0
 42
1.0
  0
ENDBLK
  5
F776
330
F770
100
AcDbEntity
  8
0
 48
50.0
100
AcDbBlockEnd
  0
BLOCK
  5
15E32
330
1537F
100
AcDbEntity
  8
0
 48
50.0
100
AcDbBlockBegin
  2
*D1
 70
     1
 10
0.0
 20
0.0
 30
0.0
  3
*D1
  1

  0
LINE
  5
170E0
330
1537F
100
AcDbEntity
  8
寸法
 62
     0
 48
50.0
370
    -2
100
AcDbLine
 10
3979.193515933497
 20
8182.034968035031
 30
0.0
 11
3979.193515933497
 21
7154.933093175147
 31
0.0
  0
LINE
  5
170E1
330
1537F
100
AcDbEntity
  8
寸法
 62
     0
 48
50.0
370
    -2
100
AcDbLine
 10
9679.19351593348
 20
8182.034968035351
 30
0.0
 11
9679.19351593348
 21
7154.933093175147
 31
0.0
  0
LINE
  5
170E2
330
1537F
100
AcDbEntity
  8
寸法
 62
     0
 48
50.0
370
    -2
100
AcDbLine
 10
3979.193515933497
 20
7214.933093175146
 30
0.0
 11
9679.19351593348
 21
7214.933093175146
 31
0.0
  0
INSERT
  5
170E3
330
1537F
100
AcDbEntity
  8
寸法
 62
     0
 48
50.0
370
    -2
100
AcDbBlockReference
  2
_DOTSMALL
 10
3979.193515933497
 20
7214.933093175146
 30
0.0
 41
100.0
 42
100.0
 43
100.0
 50
180.0
  0
INSERT
  5
170E4
330
1537F
100
AcDbEntity
  8
寸法
 62
     0
 48
50.0
370
    -2
100
AcDbBlockReference
  2
_DOTSMALL
 10
9679.19351593348
 20
7214.933093175146
 30
0.0
 41
100.0
 42
100.0
 43
100.0
  0
MTEXT
  5
170E5
330
1537F
100
AcDbEntity
  8
寸法
 62
     7
 48
50.0
100
AcDbMText
 10
6829.193515933488
 20
7314.933093175146
 30
0.0
 40
120.0
 41
0.0
 71
     5
 72
     1
  1
\A1;5700
  7
STYLE1
 73
     1
 44
1.0
1001
ACAD
1000
MTEXTBEGIN
1070
    73
1070
     1
1070
    44
1040
1.0
1070
    74
1070
     0
1000
MTEXTEND
  0
POINT
  5
170E6
330
1537F
100
AcDbEntity
  8
DEFPOINTS
 62
     0
 48
50.0
100
AcDbPoint
 10
3979.193515933497
 20
8202.034968035031
 30
0.0
  0
POINT
  5
170E7
330
1537F
100
AcDbEntity
  8
DEFPOINTS
 62
     0
 48
50.0
100
AcDbPoint
 10
9679.19351593348
 20
8202.03496803535
 30
0.0
  0
POINT
  5
170E8
330
1537F
100
AcDbEntity
  8
DEFPOINTS
 62
     0
 48
50.0
100
AcDbPoint
 10
9679.19351593348
 20
7214.933093175146
 30
0.0
  0
ENDBLK
  5
15E3C
330
1537F
100
AcDbEntity
  8
0
 48
50.0
100
AcDbBlockEnd
  0
BLOCK
  5
154CC
330
153A3
100
AcDbEntity
  8
0
 48
50.0
100
AcDbBlockBegin
  2
*D2
 70
     1
 10
0.0
 20
0.0
 30
0.0
  3
*D2
  1

  0
LINE
  5
170D7
330
153A3
100
AcDbEntity
  8
寸法
 62
     0
 48
50.0
370
    -2
100
AcDbLine
 10
7834.193515933505
 20
9172.034968035328
 30
0.0
 11
7834.193515933505
 21
9427.843187660398
 31
0.0
  0
LINE
  5
170D8
330
153A3
100
AcDbEntity
  8
寸法
 62
     0
 48
50.0
370
    -2
100
AcDbLine
 10
8674.193515933502
 20
9172.034968035417
 30
0.0
 11
8674.193515933502
 21
9427.843187660398
 31
0.0
  0
LINE
  5
170D9
330
153A3
100
AcDbEntity
  8
寸法
 62
     0
 48
50.0
370
    -2
100
AcDbLine
 10
7834.193515933505
 20
9367.843187660398
 30
0.0
 11
8674.193515933502
 21
9367.843187660398
 31
0.0
  0
INSERT
  5
170DA
330
153A3
100
AcDbEntity
  8
寸法
 62
     0
 48
50.0
370
    -2
100
AcDbBlockReference
  2
_DOTSMALL
 10
7834.193515933505
 20
9367.843187660398
 30
0.0
 41
100.0
 42
100.0
 43
100.0
 50
180.0
  0
INSERT
  5
170DB
330
153A3
100
AcDbEntity
  8
寸法
 62
     0
 48
50.0
370
    -2
100
AcDbBlockReference
  2
_DOTSMALL
 10
8674.193515933502
 20
9367.843187660398
 30
0.0
 41
100.0
 42
100.0
 43
100.0
  0
MTEXT
  5
170DC
330
153A3
100
AcDbEntity
  8
寸法
 62
     7
 48
50.0
100
AcDbMText
 10
8254.193515933504
 20
9467.854998684019
 30
0.0
 40
120.0
 41
0.0
 71
     5
 72
     1
  1
\A1;2X420=840
  7
STYLE1
 73
     1
 44
1.0
1001
ACAD
1000
MTEXTBEGIN
1070
    73
1070
     1
1070
    44
1040
1.0
1070
    74
1070
     0
1000
MTEXTEND
  0
POINT
  5
170DD
330
153A3
100
AcDbEntity
  8
DEFPOINTS
 62
     0
 48
50.0
100
AcDbPoint
 10
7834.193515933505
 20
9152.034968035328
 30
0.0
  0
POINT
  5
170DE
330
153A3
100
AcDbEntity
  8
DEFPOINTS
 62
     0
 48
50.0
100
AcDbPoint
 10
8674.193515933502
 20
9152.034968035415
 30
0.0
  0
POINT
  5
170DF
330
153A3
100
AcDbEntity
  8
DEFPOINTS
 62
     0
 48
50.0
100
AcDbPoint
 10
8674.193515933502
 20
9367.843187660398
 30
0.0
  0
ENDBLK
  5
154D6
330
153A3
100
AcDbEntity
  8
0
 48
50.0
100
AcDbBlockEnd
  0
BLOCK
  5
154D7
330
153AF
100
AcDbEntity
  8
0
 48
50.0
100
AcDbBlockBegin
  2
*D3
 70
     1
 10
0.0
 20
0.0
 30
0.0
  3
*D3
  1

  0
LINE
  5
170CE
330
153AF
100
AcDbEntity
  8
寸法
 62
     0
 48
50.0
370
    -2
100
AcDbLine
 10
7724.193515933503
 20
9172.034968035417
 30
0.0
 11
7724.193515933503
 21
9427.843187660398
 31
0.0
  0
LINE
  5
170CF
330
153AF
100
AcDbEntity
  8
寸法
 62
     0
 48
50.0
370
    -2
100
AcDbLine
 10
7834.193515933506
 20
9172.034968035394
 30
0.0
 11
7834.193515933506
 21
9427.843187660398
 31
0.0
  0
LINE
  5
170D0
330
153AF
100
AcDbEntity
  8
寸法
 62
     0
 48
50.0
370
    -2
100
AcDbLine
 10
7724.193515933503
 20
9367.843187660398
 30
0.0
 11
7834.193515933506
 21
9367.843187660398
 31
0.0
  0
MTEXT
  5
170D1
330
153AF
100
AcDbEntity
  8
寸法
 62
     7
 48
50.0
100
AcDbMText
 10
7779.193515933504
 20
9624.7198562749
 30
0.0
 40
120.0
 41
0.0
 71
     5
 72
     1
  1
\A1;110
  7
STYLE1
 73
     1
 44
1.0
1001
ACAD
1000
MTEXTBEGIN
1070
    73
1070
     1
1070
    44
1040
1.0
1070
    74
1070
     0
1000
MTEXTEND
  0
INSERT
  5
170D2
330
153AF
100
AcDbEntity
  8
寸法
 62
     0
 48
50.0
370
    -2
100
AcDbBlockReference
  2
_DOTSMALL
 10
7724.193515933503
 20
9367.843187660398
 30
0.0
 41
100.0
 42
100.0
 43
100.0
 50
180.0
  0
INSERT
  5
170D3
330
153AF
100
AcDbEntity
  8
寸法
 62
     0
 48
50.0
370
    -2
100
AcDbBlockReference
  2
_DOTSMALL
 10
7834.193515933506
 20
9367.843187660398
 30
0.0
 41
100.0
 42
100.0
 43
100.0
  0
POINT
  5
170D4
330
153AF
100
AcDbEntity
  8
DEFPOINTS
 62
     0
 48
50.0
100
AcDbPoint
 10
7724.193515933503
 20
9152.034968035415
 30
0.0
  0
POINT
  5
170D5
330
153AF
100
AcDbEntity
  8
DEFPOINTS
 62
     0
 48
50.0
100
AcDbPoint
 10
7834.193515933506
 20
9152.034968035394
 30
0.0
  0
POINT
  5
170D6
330
153AF
100
AcDbEntity
  8
DEFPOINTS
 62
     0
 48
50.0
100
AcDbPoint
 10
7834.193515933506
 20
9367.843187660398
 30
0.0
  0
ENDBLK
  5
154E1
330
153AF
100
AcDbEntity
  8
0
 48
50.0
100
AcDbBlockEnd
  0
BLOCK
  5
154ED
330
153C7
100
AcDbEntity
  8
0
 48
50.0
100
AcDbBlockBegin
  2
*D4
 70
     1
 10
0.0
 20
0.0
 30
0.0
  3
*D4
  1

  0
LINE
  5
170C3
330
153C7
100
AcDbEntity
  8
寸法
 62
     0
 48
50.0
370
    -2
100
AcDbLine
 10
3979.193515933468
 20
9172.034968035299
 30
0.0
 11
3979.193515933468
 21
9427.843187660281
 31
0.0
  0
LINE
  5
170C4
330
153C7
100
AcDbEntity
  8
寸法
 62
     0
 48
50.0
370
    -2
100
AcDbLine
 10
4034.193515933504
 20
9172.034968035299
 30
0.0
 11
4034.193515933504
 21
9427.843187660281
 31
0.0
  0
LINE
  5
170C5
330
153C7
100
AcDbEntity
  8
寸法
 62
     0
 48
50.0
370
    -2
100
AcDbLine
 10
4034.193515933504
 20
9367.843187660282
 30
0.0
 11
4134.193515933504
 21
9367.843187660282
 31
0.0
  0
LINE
  5
170C6
330
153C7
100
AcDbEntity
  8
寸法
 62
     0
 48
50.0
370
    -2
100
AcDbLine
 10
3979.193515933468
 20
9367.843187660282
 30
0.0
 11
3562.222953184991
 21
9367.843187660282
 31
0.0
  0
LINE
  5
170C7
330
153C7
100
AcDbEntity
  8
寸法
 62
     0
 48
50.0
370
    -2
100
AcDbLine
 10
4034.193515933504
 20
9367.843187660282
 30
0.0
 11
3979.193515933468
 21
9367.843187660282
 31
0.0
  0
INSERT
  5
170C8
330
153C7
100
AcDbEntity
  8
寸法
 62
     0
 48
50.0
370
    -2
100
AcDbBlockReference
  2
_DOTSMALL
 10
4034.193515933504
 20
9367.843187660282
 30
0.0
 41
100.0
 42
100.0
 43
100.0
 50
180.0
  0
INSERT
  5
170C9
330
153C7
100
AcDbEntity
  8
寸法
 62
     0
 48
50.0
370
    -2
100
AcDbBlockReference
  2
_DOTSMALL
 10
3979.193515933468
 20
9367.843187660282
 30
0.0
 41
100.0
 42
100.0
 43
100.0
  0
MTEXT
  5
170CA
330
153C7
100
AcDbEntity
  8
寸法
 62
     7
 48
50.0
100
AcDbMText
 10
3670.70823455923
 20
9467.843187660282
 30
0.0
 40
120.0
 41
0.0
 71
     5
 72
     1
  1
\A1;55
  7
STYLE1
 73
     1
 44
1.0
1001
ACAD
1000
MTEXTBEGIN
1070
    73
1070
     1
1070
    44
1040
1.0
1070
    74
1070
     0
1000
MTEXTEND
  0
POINT
  5
170CB
330
153C7
100
AcDbEntity
  8
DEFPOINTS
 62
     0
 48
50.0
100
AcDbPoint
 10
3979.193515933468
 20
9152.0349680353
 30
0.0
  0
POINT
  5
170CC
330
153C7
100
AcDbEntity
  8
DEFPOINTS
 62
     0
 48
50.0
100
AcDbPoint
 10
4034.193515933504
 20
9152.0349680353
 30
0.0
  0
POINT
  5
170CD
330
153C7
100
AcDbEntity
  8
DEFPOINTS
 62
     0
 48
50.0
100
AcDbPoint
 10
4034.193515933504
 20
9367.843187660282
 30
0.0
  0
ENDBLK
  5
154F9
330
153C7
100
AcDbEntity
  8
0
 48
50.0
100
AcDbBlockEnd
  0
BLOCK
  5
15505
330
153E1
100
AcDbEntity
  8
0
 48
50.0
100
AcDbBlockBegin
  2
*D5
 70
     1
 10
0.0
 20
0.0
 30
0.0
  3
*D5
  1

  0
LINE
  5
170BA
330
153E1
100
AcDbEntity
  8
寸法
 62
     0
 48
50.0
370
    -2
100
AcDbLine
 10
6884.193515933505
 20
9172.034968035328
 30
0.0
 11
6884.193515933505
 21
9427.843187660398
 31
0.0
  0
LINE
  5
170BB
330
153E1
100
AcDbEntity
  8
寸法
 62
     0
 48
50.0
370
    -2
100
AcDbLine
 10
7724.193515933503
 20
9172.034968035417
 30
0.0
 11
7724.193515933503
 21
9427.843187660398
 31
0.0
  0
LINE
  5
170BC
330
153E1
100
AcDbEntity
  8
寸法
 62
     0
 48
50.0
370
    -2
100
AcDbLine
 10
6884.193515933505
 20
9367.843187660398
 30
0.0
 11
7724.193515933503
 21
9367.843187660398
 31
0.0
  0
INSERT
  5
170BD
330
153E1
100
AcDbEntity
  8
寸法
 62
     0
 48
50.0
370
    -2
100
AcDbBlockReference
  2
_DOTSMALL
 10
6884.193515933505
 20
9367.843187660398
 30
0.0
 41
100.0
 42
100.0
 43
100.0
 50
180.0
  0
INSERT
  5
170BE
330
153E1
100
AcDbEntity
  8
寸法
 62
     0
 48
50.0
370
    -2
100
AcDbBlockReference
  2
_DOTSMALL
 10
7724.193515933503
 20
9367.843187660398
 30
0.0
 41
100.0
 42
100.0
 43
100.0
  0
MTEXT
  5
170BF
330
153E1
100
AcDbEntity
  8
寸法
 62
     7
 48
50.0
100
AcDbMText
 10
7304.193515933504
 20
9467.854998684019
 30
0.0
 40
120.0
 41
0.0
 71
     5
 72
     1
  1
\A1;2X420=840
  7
STYLE1
 73
     1
 44
1.0
1001
ACAD
1000
MTEXTBEGIN
1070
    73
1070
     1
1070
    44
1040
1.0
1070
    74
1070
     0
1000
MTEXTEND
  0
POINT
  5
170C0
330
153E1
100
AcDbEntity
  8
DEFPOINTS
 62
     0
 48
50.0
100
AcDbPoint
 10
6884.193515933505
 20
9152.034968035328
 30
0.0
  0
POINT
  5
170C1
330
153E1
100
AcDbEntity
  8
DEFPOINTS
 62
     0
 48
50.0
100
AcDbPoint
 10
7724.193515933503
 20
9152.034968035415
 30
0.0
  0
POINT
  5
170C2
330
153E1
100
AcDbEntity
  8
DEFPOINTS
 62
     0
 48
50.0
100
AcDbPoint
 10
7724.193515933503
 20
9367.843187660398
 30
0.0
  0
ENDBLK
  5
1550F
330
153E1
100
AcDbEntity
  8
0
 48
50.0
100
AcDbBlockEnd
  0
BLOCK
  5
15510
330
153ED
100
AcDbEntity
  8
0
 48
50.0
100
AcDbBlockBegin
  2
*D6
 70
     1
 10
0.0
 20
0.0
 30
0.0
  3
*D6
  1

  0
LINE
  5
170B1
330
153ED
100
AcDbEntity
  8
寸法
 62
     0
 48
50.0
370
    -2
100
AcDbLine
 10
8674.193515933502
 20
9172.034968035417
 30
0.0
 11
8674.193515933502
 21
9427.843187660398
 31
0.0
  0
LINE
  5
170B2
330
153ED
100
AcDbEntity
  8
寸法
 62
     0
 48
50.0
370
    -2
100
AcDbLine
 10
8784.193515933507
 20
9172.034968035394
 30
0.0
 11
8784.193515933507
 21
9427.843187660398
 31
0.0
  0
LINE
  5
170B3
330
153ED
100
AcDbEntity
  8
寸法
 62
     0
 48
50.0
370
    -2
100
AcDbLine
 10
8674.193515933502
 20
9367.843187660398
 30
0.0
 11
8784.193515933507
 21
9367.843187660398
 31
0.0
  0
MTEXT
  5
170B4
330
153ED
100
AcDbEntity
  8
寸法
 62
     7
 48
50.0
100
AcDbMText
 10
8729.193515933504
 20
9624.7198562749
 30
0.0
 40
120.0
 41
0.0
 71
     5
 72
     1
  1
\A1;110
  7
STYLE1
 73
     1
 44
1.0
1001
ACAD
1000
MTEXTBEGIN
1070
    73
1070
     1
1070
    44
1040
1.0
1070
    74
1070
     0
1000
MTEXTEND
  0
INSERT
  5
170B5
330
153ED
100
AcDbEntity
  8
寸法
 62
     0
 48
50.0
370
    -2
100
AcDbBlockReference
  2
_DOTSMALL
 10
8674.193515933502
 20
9367.843187660398
 30
0.0
 41
100.0
 42
100.0
 43
100.0
 50
180.0
  0
INSERT
  5
170B6
330
153ED
100
AcDbEntity
  8
寸法
 62
     0
 48
50.0
370
    -2
100
AcDbBlockReference
  2
_DOTSMALL
 10
8784.193515933507
 20
9367.843187660398
 30
0.0
 41
100.0
 42
100.0
 43
100.0
  0
POINT
  5
170B7
330
153ED
100
AcDbEntity
  8
DEFPOINTS
 62
     0
 48
50.0
100
AcDbPoint
 10
8674.193515933502
 20
9152.034968035415
 30
0.0
  0
POINT
  5
170B8
330
153ED
100
AcDbEntity
  8
DEFPOINTS
 62
     0
 48
50.0
100
AcDbPoint
 10
8784.193515933507
 20
9152.034968035394
 30
0.0
  0
POINT
  5
170B9
330
153ED
100
AcDbEntity
  8
DEFPOINTS
 62
     0
 48
50.0
100
AcDbPoint
 10
8784.193515933507
 20
9367.843187660398
 30
0.0
  0
ENDBLK
  5
1551A
330
153ED
100
AcDbEntity
  8
0
 48
50.0
100
AcDbBlockEnd
  0
BLOCK
  5
1551B
330
153F9
100
AcDbEntity
  8
0
 48
50.0
100
AcDbBlockBegin
  2
*D7
 70
     1
 10
0.0
 20
0.0
 30
0.0
  3
*D7
  1

  0
LINE
  5
170A6
330
153F9
100
AcDbEntity
  8
寸法
 62
     0
 48
50.0
370
    -2
100
AcDbLine
 10
9699.193515933504
 20
9152.034968035394
 30
0.0
 11
10386.61986166791
 21
9152.034968035394
 31
0.0
  0
LINE
  5
170A7
330
153F9
100
AcDbEntity
  8
寸法
 62
     0
 48
50.0
370
    -2
100
AcDbLine
 10
9699.193515933504
 20
9097.034968035393
 30
0.0
 11
10386.61986166791
 21
9097.034968035393
 31
0.0
  0
LINE
  5
170A8
330
153F9
100
AcDbEntity
  8
寸法
 62
     0
 48
50.0
370
    -2
100
AcDbLine
 10
10326.61986166791
 20
9097.034968035393
 30
0.0
 11
10326.61986166791
 21
8997.034968035393
 31
0.0
  0
LINE
  5
170A9
330
153F9
100
AcDbEntity
  8
寸法
 62
     0
 48
50.0
370
    -2
100
AcDbLine
 10
10326.61986166791
 20
9152.034968035394
 30
0.0
 11
10326.61986166791
 21
9569.00553078387
 31
0.0
  0
LINE
  5
170AA
330
153F9
100
AcDbEntity
  8
寸法
 62
     0
 48
50.0
370
    -2
100
AcDbLine
 10
10326.61986166791
 20
9097.034968035393
 30
0.0
 11
10326.61986166791
 21
9152.034968035394
 31
0.0
  0
INSERT
  5
170AB
330
153F9
100
AcDbEntity
  8
寸法
 62
     0
 48
50.0
370
    -2
100
AcDbBlockReference
  2
_DOTSMALL
 10
10326.61986166791
 20
9097.034968035393
 30
0.0
 41
100.0
 42
100.0
 43
100.0
 50
90.0
  0
INSERT
  5
170AC
330
153F9
100
AcDbEntity
  8
寸法
 62
     0
 48
50.0
370
    -2
100
AcDbBlockReference
  2
_DOTSMALL
 10
10326.61986166791
 20
9152.034968035394
 30
0.0
 41
100.0
 42
100.0
 43
100.0
 50
270.0
  0
MTEXT
  5
170AD
330
153F9
100
AcDbEntity
  8
寸法
 62
     7
 48
50.0
100
AcDbMText
 10
10226.61986166791
 20
9460.520249409634
 30
0.0
 40
120.0
 41
0.0
 71
     5
 72
     1
  1
\A1;55
  7
STYLE1
 11
0.0000000000000001
 21
1.0
 31
0.0
 73
     1
 44
1.0
1001
ACAD
1000
MTEXTBEGIN
1070
    73
1070
     1
1070
    44
1040
1.0
1070
    74
1070
     0
1000
MTEXTEND
  0
POINT
  5
170AE
330
153F9
100
AcDbEntity
  8
DEFPOINTS
 62
     0
 48
50.0
100
AcDbPoint
 10
9679.193515933505
 20
9152.034968035394
 30
0.0
  0
POINT
  5
170AF
330
153F9
100
AcDbEntity
  8
DEFPOINTS
 62
     0
 48
50.0
100
AcDbPoint
 10
9679.193515933505
 20
9097.034968035393
 30
0.0
  0
POINT
  5
170B0
330
153F9
100
AcDbEntity
  8
DEFPOINTS
 62
     0
 48
50.0
100
AcDbPoint
 10
10326.61986166791
 20
9097.034968035393
 30
0.0
  0
ENDBLK
  5
15527
330
153F9
100
AcDbEntity
  8
0
 48
50.0
100
AcDbBlockEnd
  0
BLOCK
  5
15528
330
15407
100
AcDbEntity
  8
0
 48
50.0
100
AcDbBlockBegin
  2
*D8
 70
     1
 10
0.0
 20
0.0
 30
0.0
  3
*D8
  1

  0
LINE
  5
1709D
330
15407
100
AcDbEntity
  8
寸法
 62
     0
 48
50.0
370
    -2
100
AcDbLine
 10
9699.193515933504
 20
9152.034968035394
 30
0.0
 11
10695.73139248359
 21
9152.034968035394
 31
0.0
  0
LINE
  5
1709E
330
15407
100
AcDbEntity
  8
寸法
 62
     0
 48
50.0
370
    -2
100
AcDbLine
 10
9699.19351593348
 20
8202.034968035379
 30
0.0
 11
10695.73139248359
 21
8202.034968035379
 31
0.0
  0
LINE
  5
1709F
330
15407
100
AcDbEntity
  8
寸法
 62
     0
 48
50.0
370
    -2
100
AcDbLine
 10
10635.73139248359
 20
9152.034968035394
 30
0.0
 11
10635.73139248359
 21
8202.034968035379
 31
0.0
  0
INSERT
  5
170A0
330
15407
100
AcDbEntity
  8
寸法
 62
     0
 48
50.0
370
    -2
100
AcDbBlockReference
  2
_DOTSMALL
 10
10635.73139248359
 20
9152.034968035394
 30
0.0
 41
100.0
 42
100.0
 43
100.0
 50
90.0
  0
INSERT
  5
170A1
330
15407
100
AcDbEntity
  8
寸法
 62
     0
 48
50.0
370
    -2
100
AcDbBlockReference
  2
_DOTSMALL
 10
10635.73139248359
 20
8202.034968035379
 30
0.0
 41
100.0
 42
100.0
 43
100.0
 50
270.0
  0
MTEXT
  5
170A2
330
15407
100
AcDbEntity
  8
寸法
 62
     7
 48
50.0
100
AcDbMText
 10
10535.73139248359
 20
8676.012686594297
 30
0.0
 40
120.0
 41
0.0
 71
     5
 72
     1
  1
\A1;950
  7
STYLE1
 11
0.0000000000000001
 21
1.0
 31
0.0
 73
     1
 44
1.0
1001
ACAD
1000
MTEXTBEGIN
1070
    73
1070
     1
1070
    44
1040
1.0
1070
    74
1070
     0
1000
MTEXTEND
  0
POINT
  5
170A3
330
15407
100
AcDbEntity
  8
DEFPOINTS
 62
     0
 48
50.0
100
AcDbPoint
 10
9679.193515933505
 20
9152.034968035394
 30
0.0
  0
POINT
  5
170A4
330
15407
100
AcDbEntity
  8
DEFPOINTS
 62
     0
 48
50.0
100
AcDbPoint
 10
9679.19351593348
 20
8202.034968035379
 30
0.0
  0
POINT
  5
170A5
330
15407
100
AcDbEntity
  8
DEFPOINTS
 62
     0
 48
50.0
100
AcDbPoint
 10
10635.73139248359
 20
8202.034968035379
 30
0.0
  0
ENDBLK
  5
15532
330
15407
100
AcDbEntity
  8
0
 48
50.0
100
AcDbBlockEnd
  0
BLOCK
  5
15533
330
15413
100
AcDbEntity
  8
0
 48
50.0
100
AcDbBlockBegin
  2
*D9
 70
     1
 10
0.0
 20
0.0
 30
0.0
  3
*D9
  1

  0
LINE
  5
17092
330
15413
100
AcDbEntity
  8
寸法
 62
     0
 48
50.0
370
    -2
100
AcDbLine
 10
9699.19351593348
 20
8257.03496803538
 30
0.0
 11
10386.61986166789
 21
8257.03496803538
 31
0.0
  0
LINE
  5
17093
330
15413
100
AcDbEntity
  8
寸法
 62
     0
 48
50.0
370
    -2
100
AcDbLine
 10
9699.19351593348
 20
8202.034968035379
 30
0.0
 11
10386.61986166789
 21
8202.034968035379
 31
0.0
  0
LINE
  5
17094
330
15413
100
AcDbEntity
  8
寸法
 62
     0
 48
50.0
370
    -2
100
AcDbLine
 10
10326.61986166789
 20
8257.03496803538
 30
0.0
 11
10326.61986166789
 21
8357.03496803538
 31
0.0
  0
LINE
  5
17095
330
15413
100
AcDbEntity
  8
寸法
 62
     0
 48
50.0
370
    -2
100
AcDbLine
 10
10326.61986166789
 20
8202.034968035379
 30
0.0
 11
10326.61986166789
 21
7715.68821975628
 31
0.0
  0
LINE
  5
17096
330
15413
100
AcDbEntity
  8
寸法
 62
     0
 48
50.0
370
    -2
100
AcDbLine
 10
10326.61986166789
 20
8257.03496803538
 30
0.0
 11
10326.61986166789
 21
8202.034968035379
 31
0.0
  0
INSERT
  5
17097
330
15413
100
AcDbEntity
  8
寸法
 62
     0
 48
50.0
370
    -2
100
AcDbBlockReference
  2
_DOTSMALL
 10
10326.61986166789
 20
8257.03496803538
 30
0.0
 41
100.0
 42
100.0
 43
100.0
 50
270.0
  0
INSERT
  5
17098
330
15413
100
AcDbEntity
  8
寸法
 62
     0
 48
50.0
370
    -2
100
AcDbBlockReference
  2
_DOTSMALL
 10
10326.61986166789
 20
8202.034968035379
 30
0.0
 41
100.0
 42
100.0
 43
100.0
 50
90.0
  0
MTEXT
  5
17099
330
15413
100
AcDbEntity
  8
寸法
 62
     7
 48
50.0
100
AcDbMText
 10
10226.61986166789
 20
7824.173501130521
 30
0.0
 40
120.0
 41
0.0
 71
     5
 72
     1
  1
\A1;55
  7
STYLE1
 11
0.0000000000000001
 21
1.0
 31
0.0
 73
     1
 44
1.0
1001
ACAD
1000
MTEXTBEGIN
1070
    73
1070
     1
1070
    44
1040
1.0
1070
    74
1070
     0
1000
MTEXTEND
  0
POINT
  5
1709A
330
15413
100
AcDbEntity
  8
DEFPOINTS
 62
     0
 48
50.0
100
AcDbPoint
 10
9679.19351593348
 20
8257.03496803538
 30
0.0
  0
POINT
  5
1709B
330
15413
100
AcDbEntity
  8
DEFPOINTS
 62
     0
 48
50.0
100
AcDbPoint
 10
9679.19351593348
 20
8202.034968035379
 30
0.0
  0
POINT
  5
1709C
330
15413
100
AcDbEntity
  8
DEFPOINTS
 62
     0
 48
50.0
100
AcDbPoint
 10
10326.61986166789
 20
8202.034968035379
 30
0.0
  0
ENDBLK
  5
1553F
330
15413
100
AcDbEntity
  8
0
 48
50.0
100
AcDbBlockEnd
  0
BLOCK
  5
15556
330
15439
100
AcDbEntity
  8
0
 48
50.0
100
AcDbBlockBegin
  2
*D10
 70
     1
 10
0.0
 20
0.0
 30
0.0
  3
*D10
  1

  0
LINE
  5
17089
330
15439
100
AcDbEntity
  8
寸法
 62
     0
 48
50.0
370
    -2
100
AcDbLine
 10
8784.193515933505
 20
9172.034968035328
 30
0.0
 11
8784.193515933505
 21
9427.843187660398
 31
0.0
  0
LINE
  5
1708A
330
15439
100
AcDbEntity
  8
寸法
 62
     0
 48
50.0
370
    -2
100
AcDbLine
 10
9624.193515933503
 20
9172.034968035417
 30
0.0
 11
9624.193515933503
 21
9427.843187660398
 31
0.0
  0
LINE
  5
1708B
330
15439
100
AcDbEntity
  8
寸法
 62
     0
 48
50.0
370
    -2
100
AcDbLine
 10
8784.193515933505
 20
9367.843187660398
 30
0.0
 11
9624.193515933503
 21
9367.843187660398
 31
0.0
  0
INSERT
  5
1708C
330
15439
100
AcDbEntity
  8
寸法
 62
     0
 48
50.0
370
    -2
100
AcDbBlockReference
  2
_DOTSMALL
 10
8784.193515933505
 20
9367.843187660398
 30
0.0
 41
100.0
 42
100.0
 43
100.0
 50
180.0
  0
INSERT
  5
1708D
330
15439
100
AcDbEntity
  8
寸法
 62
     0
 48
50.0
370
    -2
100
AcDbBlockReference
  2
_DOTSMALL
 10
9624.193515933503
 20
9367.843187660398
 30
0.0
 41
100.0
 42
100.0
 43
100.0
  0
MTEXT
  5
1708E
330
15439
100
AcDbEntity
  8
寸法
 62
     7
 48
50.0
100
AcDbMText
 10
9204.193515933503
 20
9467.854998684019
 30
0.0
 40
120.0
 41
0.0
 71
     5
 72
     1
  1
\A1;2X420=840
  7
STYLE1
 73
     1
 44
1.0
1001
ACAD
1000
MTEXTBEGIN
1070
    73
1070
     1
1070
    44
1040
1.0
1070
    74
1070
     0
1000
MTEXTEND
  0
POINT
  5
1708F
330
15439
100
AcDbEntity
  8
DEFPOINTS
 62
     0
 48
50.0
100
AcDbPoint
 10
8784.193515933505
 20
9152.034968035328
 30
0.0
  0
POINT
  5
17090
330
15439
100
AcDbEntity
  8
DEFPOINTS
 62
     0
 48
50.0
100
AcDbPoint
 10
9624.193515933503
 20
9152.034968035415
 30
0.0
  0
POINT
  5
17091
330
15439
100
AcDbEntity
  8
DEFPOINTS
 62
     0
 48
50.0
100
AcDbPoint
 10
9624.193515933503
 20
9367.843187660398
 30
0.0
  0
ENDBLK
  5
15560
330
15439
100
AcDbEntity
  8
0
 48
50.0
100
AcDbBlockEnd
  0
BLOCK
  5
15561
330
15445
100
AcDbEntity
  8
0
 48
50.0
100
AcDbBlockBegin
  2
*D11
 70
     1
 10
0.0
 20
0.0
 30
0.0
  3
*D11
  1

  0
LINE
  5
17080
330
15445
100
AcDbEntity
  8
寸法
 62
     0
 48
50.0
370
    -2
100
AcDbLine
 10
9699.193515933504
 20
9097.034968035393
 30
0.0
 11
10386.61986166791
 21
9097.034968035393
 31
0.0
  0
LINE
  5
17081
330
15445
100
AcDbEntity
  8
寸法
 62
     0
 48
50.0
370
    -2
100
AcDbLine
 10
9699.19351593348
 20
8257.03496803538
 30
0.0
 11
10386.61986166791
 21
8257.03496803538
 31
0.0
  0
LINE
  5
17082
330
15445
100
AcDbEntity
  8
寸法
 62
     0
 48
50.0
370
    -2
100
AcDbLine
 10
10326.61986166791
 20
9097.034968035393
 30
0.0
 11
10326.61986166791
 21
8257.03496803538
 31
0.0
  0
INSERT
  5
17083
330
15445
100
AcDbEntity
  8
寸法
 62
     0
 48
50.0
370
    -2
100
AcDbBlockReference
  2
_DOTSMALL
 10
10326.61986166791
 20
9097.034968035393
 30
0.0
 41
100.0
 42
100.0
 43
100.0
 50
90.0
  0
INSERT
  5
17084
330
15445
100
AcDbEntity
  8
寸法
 62
     0
 48
50.0
370
    -2
100
AcDbBlockReference
  2
_DOTSMALL
 10
10326.61986166791
 20
8257.03496803538
 30
0.0
 41
100.0
 42
100.0
 43
100.0
 50
270.0
  0
MTEXT
  5
17085
330
15445
100
AcDbEntity
  8
寸法
 62
     7
 48
50.0
100
AcDbMText
 10
10226.60805064429
 20
8677.034968035389
 30
0.0
 40
120.0
 41
0.0
 71
     5
 72
     1
  1
\A1;2X420=840
  7
STYLE1
 11
0.0000000000000001
 21
1.0
 31
0.0
 73
     1
 44
1.0
1001
ACAD
1000
MTEXTBEGIN
1070
    73
1070
     1
1070
    44
1040
1.0
1070
    74
1070
     0
1000
MTEXTEND
  0
POINT
  5
17086
330
15445
100
AcDbEntity
  8
DEFPOINTS
 62
     0
 48
50.0
100
AcDbPoint
 10
9679.193515933505
 20
9097.034968035393
 30
0.0
  0
POINT
  5
17087
330
15445
100
AcDbEntity
  8
DEFPOINTS
 62
     0
 48
50.0
100
AcDbPoint
 10
9679.19351593348
 20
8257.03496803538
 30
0.0
  0
POINT
  5
17088
330
15445
100
AcDbEntity
  8
DEFPOINTS
 62
     0
 48
50.0
100
AcDbPoint
 10
10326.61986166791
 20
8257.03496803538
 30
0.0
  0
ENDBLK
  5
1556B
330
15445
100
AcDbEntity
  8
0
 48
50.0
100
AcDbBlockEnd
  0
BLOCK
  5
1556C
330
15451
100
AcDbEntity
  8
0
 48
50.0
100
AcDbBlockBegin
  2
*D12
 70
     1
 10
0.0
 20
0.0
 30
0.0
  3
*D12
  1

  0
LINE
  5
17077
330
15451
100
AcDbEntity
  8
寸法
 62
     0
 48
50.0
370
    -2
100
AcDbLine
 10
9670.193522611114
 20
9117.175984186641
 30
0.0
 11
10065.55124847314
 21
9011.240200820507
 31
0.0
  0
LINE
  5
17078
330
15451
100
AcDbEntity
  8
寸法
 62
     0
 48
50.0
370
    -2
100
AcDbLine
 10
9670.193522611123
 20
8667.175984186647
 30
0.0
 11
10065.55124847314
 21
8561.240200820515
 31
0.0
  0
LINE
  5
17079
330
15451
100
AcDbEntity
  8
寸法
 62
     0
 48
50.0
370
    -2
100
AcDbLine
 10
10005.55124847314
 20
9027.317152366373
 30
0.0
 11
10005.55124847314
 21
8577.317152366381
 31
0.0
  0
INSERT
  5
1707A
330
15451
100
AcDbEntity
  8
寸法
 62
     0
 48
50.0
370
    -2
100
AcDbBlockReference
  2
_DOTSMALL
 10
10005.55124847314
 20
9027.317152366373
 30
0.0
 41
100.0
 42
100.0
 43
100.0
 50
90.0
  0
INSERT
  5
1707B
330
15451
100
AcDbEntity
  8
寸法
 62
     0
 48
50.0
370
    -2
100
AcDbBlockReference
  2
_DOTSMALL
 10
10005.55124847314
 20
8577.317152366381
 30
0.0
 41
100.0
 42
100.0
 43
100.0
 50
270.0
  0
MTEXT
  5
1707C
330
15451
100
AcDbEntity
  8
寸法
 62
     7
 48
50.0
100
AcDbMText
 10
9905.551248473138
 20
8802.317152366377
 30
0.0
 40
120.0
 41
0.0
 71
     5
 72
     1
  1
\A1;450
  7
STYLE1
 11
0.0000000000000001
 21
1.0
 31
0.0
 73
     1
 44
1.0
1001
ACAD
1000
MTEXTBEGIN
1070
    73
1070
     1
1070
    44
1040
1.0
1070
    74
1070
     0
1000
MTEXTEND
  0
POINT
  5
1707D
330
15451
100
AcDbEntity
  8
DEFPOINTS
 62
     0
 48
50.0
100
AcDbPoint
 10
9650.193522611113
 20
9122.534968035264
 30
0.0
  0
POINT
  5
1707E
330
15451
100
AcDbEntity
  8
DEFPOINTS
 62
     0
 48
50.0
100
AcDbPoint
 10
9650.193522611125
 20
8672.53496803527
 30
0.0
  0
POINT
  5
1707F
330
15451
100
AcDbEntity
  8
DEFPOINTS
 62
     0
 48
50.0
100
AcDbPoint
 10
10005.55124847314
 20
8577.317152366381
 30
0.0
  0
ENDBLK
  5
15576
330
15451
100
AcDbEntity
  8
0
 48
50.0
100
AcDbBlockEnd
  0
BLOCK
  5
15577
330
1545D
100
AcDbEntity
  8
0
 48
50.0
100
AcDbBlockBegin
  2
*D13
 70
     1
 10
0.0
 20
0.0
 30
0.0
  3
*D13
  1

  0
LINE
  5
1706C
330
1545D
100
AcDbEntity
  8
寸法
 62
     0
 48
50.0
370
    -2
100
AcDbLine
 10
9624.193515933505
 20
9172.034968035394
 30
0.0
 11
9624.193515933505
 21
9427.843187660377
 31
0.0
  0
LINE
  5
1706D
330
1545D
100
AcDbEntity
  8
寸法
 62
     0
 48
50.0
370
    -2
100
AcDbLine
 10
9679.193515933505
 20
9172.034968035394
 30
0.0
 11
9679.193515933505
 21
9427.843187660377
 31
0.0
  0
LINE
  5
1706E
330
1545D
100
AcDbEntity
  8
寸法
 62
     0
 48
50.0
370
    -2
100
AcDbLine
 10
9624.193515933505
 20
9367.843187660374
 30
0.0
 11
9524.193515933504
 21
9367.843187660374
 31
0.0
  0
LINE
  5
1706F
330
1545D
100
AcDbEntity
  8
寸法
 62
     0
 48
50.0
370
    -2
100
AcDbLine
 10
9679.193515933505
 20
9367.843187660374
 30
0.0
 11
10096.16407868198
 21
9367.843187660374
 31
0.0
  0
LINE
  5
17070
330
1545D
100
AcDbEntity
  8
寸法
 62
     0
 48
50.0
370
    -2
100
AcDbLine
 10
9624.193515933505
 20
9367.843187660374
 30
0.0
 11
9679.193515933505
 21
9367.843187660374
 31
0.0
  0
INSERT
  5
17071
330
1545D
100
AcDbEntity
  8
寸法
 62
     0
 48
50.0
370
    -2
100
AcDbBlockReference
  2
_DOTSMALL
 10
9624.193515933505
 20
9367.843187660374
 30
0.0
 41
100.0
 42
100.0
 43
100.0
  0
INSERT
  5
17072
330
1545D
100
AcDbEntity
  8
寸法
 62
     0
 48
50.0
370
    -2
100
AcDbBlockReference
  2
_DOTSMALL
 10
9679.193515933505
 20
9367.843187660374
 30
0.0
 41
100.0
 42
100.0
 43
100.0
 50
180.0
  0
MTEXT
  5
17073
330
1545D
100
AcDbEntity
  8
寸法
 62
     7
 48
50.0
100
AcDbMText
 10
9987.678797307744
 20
9467.843187660376
 30
0.0
 40
120.0
 41
0.0
 71
     5
 72
     1
  1
\A1;55
  7
STYLE1
 73
     1
 44
1.0
1001
ACAD
1000
MTEXTBEGIN
1070
    73
1070
     1
1070
    44
1040
1.0
1070
    74
1070
     0
1000
MTEXTEND
  0
POINT
  5
17074
330
1545D
100
AcDbEntity
  8
DEFPOINTS
 62
     0
 48
50.0
100
AcDbPoint
 10
9624.193515933505
 20
9152.034968035394
 30
0.0
  0
POINT
  5
17075
330
1545D
100
AcDbEntity
  8
DEFPOINTS
 62
     0
 48
50.0
100
AcDbPoint
 10
9679.193515933505
 20
9152.034968035394
 30
0.0
  0
POINT
  5
17076
330
1545D
100
AcDbEntity
  8
DEFPOINTS
 62
     0
 48
50.0
100
AcDbPoint
 10
9679.193515933505
 20
9367.843187660374
 30
0.0
  0
ENDBLK
  5
15583
330
1545D
100
AcDbEntity
  8
0
 48
50.0
100
AcDbBlockEnd
  0
BLOCK
  5
1559A
330
15483
100
AcDbEntity
  8
0
 48
50.0
100
AcDbBlockBegin
  2
*D14
 70
     1
 10
0.0
 20
0.0
 30
0.0
  3
*D14
  1

  0
LINE
  5
16FC1
330
15483
100
AcDbEntity
  8
寸法
 62
     0
 48
50.0
370
    -2
100
AcDbLine
 10
3959.193515933498
 20
5236.746329820724
 30
0.0
 11
3601.088988325894
 21
5236.746329820724
 31
0.0
  0
LINE
  5
16FC2
330
15483
100
AcDbEntity
  8
寸法
 62
     0
 48
50.0
370
    -2
100
AcDbLine
 10
3959.193515933498
 20
3476.746329820728
 30
0.0
 11
3601.088988325894
 21
3476.746329820728
 31
0.0
  0
LINE
  5
16FC3
330
15483
100
AcDbEntity
  8
寸法
 62
     0
 48
50.0
370
    -2
100
AcDbLine
 10
3661.088988325894
 20
5236.746329820724
 30
0.0
 11
3661.088988325894
 21
3476.746329820728
 31
0.0
  0
INSERT
  5
16FC4
330
15483
100
AcDbEntity
  8
寸法
 62
     0
 48
50.0
370
    -2
100
AcDbBlockReference
  2
_DOTSMALL
 10
3661.088988325894
 20
5236.746329820724
 30
0.0
 41
100.0
 42
100.0
 43
100.0
 50
90.0
  0
INSERT
  5
16FC5
330
15483
100
AcDbEntity
  8
寸法
 62
     0
 48
50.0
370
    -2
100
AcDbBlockReference
  2
_DOTSMALL
 10
3661.088988325894
 20
3476.746329820728
 30
0.0
 41
100.0
 42
100.0
 43
100.0
 50
270.0
  0
MTEXT
  5
16FC6
330
15483
100
AcDbEntity
  8
寸法
 62
     7
 48
50.0
100
AcDbMText
 10
3561.088988325894
 20
4355.746329820726
 30
0.0
 40
120.0
 41
0.0
 71
     5
 72
     1
  1
\A1;有効開口部高サ1760
  7
STYLE1
 11
0.0000000000000001
 21
1.0
 31
0.0
 73
     1
 44
1.0
1001
ACAD
1000
MTEXTBEGIN
1070
    73
1070
     1
1070
    44
1040
1.0
1070
    74
1070
     0
1000
MTEXTEND
  0
POINT
  5
16FC7
330
15483
100
AcDbEntity
  8
DEFPOINTS
 62
     0
 48
50.0
100
AcDbPoint
 10
3979.193515933497
 20
5236.746329820724
 30
0.0
  0
POINT
  5
16FC8
330
15483
100
AcDbEntity
  8
DEFPOINTS
 62
     0
 48
50.0
100
AcDbPoint
 10
3979.193515933497
 20
3476.746329820728
 30
0.0
  0
POINT
  5
16FC9
330
15483
100
AcDbEntity
  8
DEFPOINTS
 62
     0
 48
50.0
100
AcDbPoint
 10
3661.088988325894
 20
3476.746329820728
 30
0.0
  0
ENDBLK
  5
155A4
330
15483
100
AcDbEntity
  8
0
 48
50.0
100
AcDbBlockEnd
  0
BLOCK
  5
156DE
330
156D2
100
AcDbEntity
  8
0
 48
50.0
100
AcDbBlockBegin
  2
*D15
 70
     1
 10
0.0
 20
0.0
 30
0.0
  3
*D15
  1

  0
LINE
  5
17063
330
156D2
100
AcDbEntity
  8
寸法
 62
     0
 48
50.0
370
    -2
100
AcDbLine
 10
7834.193515933501
 20
8182.034968035292
 30
0.0
 11
7834.193515933501
 21
7702.211300240215
 31
0.0
  0
LINE
  5
17064
330
156D2
100
AcDbEntity
  8
寸法
 62
     0
 48
50.0
370
    -2
100
AcDbLine
 10
8519.193515933498
 20
8182.034968035257
 30
0.0
 11
8519.193515933498
 21
7702.211300240215
 31
0.0
  0
LINE
  5
17065
330
156D2
100
AcDbEntity
  8
寸法
 62
     0
 48
50.0
370
    -2
100
AcDbLine
 10
7834.193515933501
 20
7762.211300240214
 30
0.0
 11
8519.193515933498
 21
7762.211300240214
 31
0.0
  0
INSERT
  5
17066
330
156D2
100
AcDbEntity
  8
寸法
 62
     0
 48
50.0
370
    -2
100
AcDbBlockReference
  2
_DOTSMALL
 10
7834.193515933501
 20
7762.211300240214
 30
0.0
 41
100.0
 42
100.0
 43
100.0
 50
180.0
  0
INSERT
  5
17067
330
156D2
100
AcDbEntity
  8
寸法
 62
     0
 48
50.0
370
    -2
100
AcDbBlockReference
  2
_DOTSMALL
 10
8519.193515933498
 20
7762.211300240214
 30
0.0
 41
100.0
 42
100.0
 43
100.0
  0
MTEXT
  5
17068
330
156D2
100
AcDbEntity
  8
寸法
 62
     7
 48
50.0
100
AcDbMText
 10
8176.693515933498
 20
7862.211300240215
 30
0.0
 40
120.0
 41
0.0
 71
     5
 72
     1
  1
\A1;685
  7
STYLE1
 73
     1
 44
1.0
1001
ACAD
1000
MTEXTBEGIN
1070
    73
1070
     1
1070
    44
1040
1.0
1070
    74
1070
     0
1000
MTEXTEND
  0
POINT
  5
17069
330
156D2
100
AcDbEntity
  8
DEFPOINTS
 62
     0
 48
50.0
100
AcDbPoint
 10
7834.193515933501
 20
8202.034968035292
 30
0.0
  0
POINT
  5
1706A
330
156D2
100
AcDbEntity
  8
DEFPOINTS
 62
     0
 48
50.0
100
AcDbPoint
 10
8519.193515933498
 20
8202.034968035254
 30
0.0
  0
POINT
  5
1706B
330
156D2
100
AcDbEntity
  8
DEFPOINTS
 62
     0
 48
50.0
100
AcDbPoint
 10
8519.193515933498
 20
7762.211300240214
 30
0.0
  0
ENDBLK
  5
156E8
330
156D2
100
AcDbEntity
  8
0
 48
50.0
100
AcDbBlockEnd
  0
BLOCK
  5
156EB
330
156EA
100
AcDbEntity
  8
0
 48
50.0
100
AcDbBlockBegin
  2
*D16
 70
     1
 10
0.0
 20
0.0
 30
0.0
  3
*D16
  1

  0
LINE
  5
1705A
330
156EA
100
AcDbEntity
  8
寸法
 62
     0
 48
50.0
370
    -2
100
AcDbLine
 10
6884.193515933501
 20
8182.034968035292
 30
0.0
 11
6884.193515933501
 21
7702.211300240215
 31
0.0
  0
LINE
  5
1705B
330
156EA
100
AcDbEntity
  8
寸法
 62
     0
 48
50.0
370
    -2
100
AcDbLine
 10
7569.193515933497
 20
8182.034968035257
 30
0.0
 11
7569.193515933497
 21
7702.211300240215
 31
0.0
  0
LINE
  5
1705C
330
156EA
100
AcDbEntity
  8
寸法
 62
     0
 48
50.0
370
    -2
100
AcDbLine
 10
6884.193515933501
 20
7762.211300240214
 30
0.0
 11
7569.193515933497
 21
7762.211300240214
 31
0.0
  0
INSERT
  5
1705D
330
156EA
100
AcDbEntity
  8
寸法
 62
     0
 48
50.0
370
    -2
100
AcDbBlockReference
  2
_DOTSMALL
 10
6884.193515933501
 20
7762.211300240214
 30
0.0
 41
100.0
 42
100.0
 43
100.0
 50
180.0
  0
INSERT
  5
1705E
330
156EA
100
AcDbEntity
  8
寸法
 62
     0
 48
50.0
370
    -2
100
AcDbBlockReference
  2
_DOTSMALL
 10
7569.193515933497
 20
7762.211300240214
 30
0.0
 41
100.0
 42
100.0
 43
100.0
  0
MTEXT
  5
1705F
330
156EA
100
AcDbEntity
  8
寸法
 62
     7
 48
50.0
100
AcDbMText
 10
7226.693515933499
 20
7862.211300240215
 30
0.0
 40
120.0
 41
0.0
 71
     5
 72
     1
  1
\A1;685
  7
STYLE1
 73
     1
 44
1.0
1001
ACAD
1000
MTEXTBEGIN
1070
    73
1070
     1
1070
    44
1040
1.0
1070
    74
1070
     0
1000
MTEXTEND
  0
POINT
  5
17060
330
156EA
100
AcDbEntity
  8
DEFPOINTS
 62
     0
 48
50.0
100
AcDbPoint
 10
6884.193515933501
 20
8202.034968035292
 30
0.0
  0
POINT
  5
17061
330
156EA
100
AcDbEntity
  8
DEFPOINTS
 62
     0
 48
50.0
100
AcDbPoint
 10
7569.193515933497
 20
8202.034968035254
 30
0.0
  0
POINT
  5
17062
330
156EA
100
AcDbEntity
  8
DEFPOINTS
 62
     0
 48
50.0
100
AcDbPoint
 10
7569.193515933497
 20
7762.211300240214
 30
0.0
  0
ENDBLK
  5
156F5
330
156EA
100
AcDbEntity
  8
0
 48
50.0
100
AcDbBlockEnd
  0
BLOCK
  5
15B4B
330
15B4A
100
AcDbEntity
  8
0
 48
50.0
100
AcDbBlockBegin
  2
*D17
 70
     1
 10
0.0
 20
0.0
 30
0.0
  3
*D17
  1

  0
LINE
  5
17048
330
15B4A
100
AcDbEntity
  8
寸法
 62
     0
 48
50.0
370
    -2
100
AcDbLine
 10
5934.193515933504
 20
9172.034968035328
 30
0.0
 11
5934.193515933504
 21
9427.843187660398
 31
0.0
  0
LINE
  5
17049
330
15B4A
100
AcDbEntity
  8
寸法
 62
     0
 48
50.0
370
    -2
100
AcDbLine
 10
6774.193515933503
 20
9172.034968035417
 30
0.0
 11
6774.193515933503
 21
9427.843187660398
 31
0.0
  0
LINE
  5
1704A
330
15B4A
100
AcDbEntity
  8
寸法
 62
     0
 48
50.0
370
    -2
100
AcDbLine
 10
5934.193515933504
 20
9367.843187660398
 30
0.0
 11
6774.193515933503
 21
9367.843187660398
 31
0.0
  0
INSERT
  5
1704B
330
15B4A
100
AcDbEntity
  8
寸法
 62
     0
 48
50.0
370
    -2
100
AcDbBlockReference
  2
_DOTSMALL
 10
5934.193515933504
 20
9367.843187660398
 30
0.0
 41
100.0
 42
100.0
 43
100.0
 50
180.0
  0
INSERT
  5
1704C
330
15B4A
100
AcDbEntity
  8
寸法
 62
     0
 48
50.0
370
    -2
100
AcDbBlockReference
  2
_DOTSMALL
 10
6774.193515933503
 20
9367.843187660398
 30
0.0
 41
100.0
 42
100.0
 43
100.0
  0
MTEXT
  5
1704D
330
15B4A
100
AcDbEntity
  8
寸法
 62
     7
 48
50.0
100
AcDbMText
 10
6354.193515933503
 20
9467.854998684019
 30
0.0
 40
120.0
 41
0.0
 71
     5
 72
     1
  1
\A1;2X420=840
  7
STYLE1
 73
     1
 44
1.0
1001
ACAD
1000
MTEXTBEGIN
1070
    73
1070
     1
1070
    44
1040
1.0
1070
    74
1070
     0
1000
MTEXTEND
  0
POINT
  5
1704E
330
15B4A
100
AcDbEntity
  8
DEFPOINTS
 62
     0
 48
50.0
100
AcDbPoint
 10
5934.193515933504
 20
9152.034968035328
 30
0.0
  0
POINT
  5
1704F
330
15B4A
100
AcDbEntity
  8
DEFPOINTS
 62
     0
 48
50.0
100
AcDbPoint
 10
6774.193515933503
 20
9152.034968035415
 30
0.0
  0
POINT
  5
17050
330
15B4A
100
AcDbEntity
  8
DEFPOINTS
 62
     0
 48
50.0
100
AcDbPoint
 10
6774.193515933503
 20
9367.843187660398
 30
0.0
  0
ENDBLK
  5
15B55
330
15B4A
100
AcDbEntity
  8
0
 48
50.0
100
AcDbBlockEnd
  0
BLOCK
  5
15B6F
330
15B6E
100
AcDbEntity
  8
0
 48
50.0
100
AcDbBlockBegin
  2
*D18
 70
     1
 10
0.0
 20
0.0
 30
0.0
  3
*D18
  1

  0
LINE
  5
1703F
330
15B6E
100
AcDbEntity
  8
寸法
 62
     0
 48
50.0
370
    -2
100
AcDbLine
 10
6774.193515933503
 20
9172.034968035417
 30
0.0
 11
6774.193515933503
 21
9427.843187660398
 31
0.0
  0
LINE
  5
17040
330
15B6E
100
AcDbEntity
  8
寸法
 62
     0
 48
50.0
370
    -2
100
AcDbLine
 10
6884.193515933507
 20
9172.034968035394
 30
0.0
 11
6884.193515933507
 21
9427.843187660398
 31
0.0
  0
LINE
  5
17041
330
15B6E
100
AcDbEntity
  8
寸法
 62
     0
 48
50.0
370
    -2
100
AcDbLine
 10
6774.193515933503
 20
9367.843187660398
 30
0.0
 11
6884.193515933507
 21
9367.843187660398
 31
0.0
  0
MTEXT
  5
17042
330
15B6E
100
AcDbEntity
  8
寸法
 62
     7
 48
50.0
100
AcDbMText
 10
6829.193515933503
 20
9624.7198562749
 30
0.0
 40
120.0
 41
0.0
 71
     5
 72
     1
  1
\A1;110
  7
STYLE1
 73
     1
 44
1.0
1001
ACAD
1000
MTEXTBEGIN
1070
    73
1070
     1
1070
    44
1040
1.0
1070
    74
1070
     0
1000
MTEXTEND
  0
INSERT
  5
17043
330
15B6E
100
AcDbEntity
  8
寸法
 62
     0
 48
50.0
370
    -2
100
AcDbBlockReference
  2
_DOTSMALL
 10
6774.193515933503
 20
9367.843187660398
 30
0.0
 41
100.0
 42
100.0
 43
100.0
 50
180.0
  0
INSERT
  5
17044
330
15B6E
100
AcDbEntity
  8
寸法
 62
     0
 48
50.0
370
    -2
100
AcDbBlockReference
  2
_DOTSMALL
 10
6884.193515933507
 20
9367.843187660398
 30
0.0
 41
100.0
 42
100.0
 43
100.0
  0
POINT
  5
17045
330
15B6E
100
AcDbEntity
  8
DEFPOINTS
 62
     0
 48
50.0
100
AcDbPoint
 10
6774.193515933503
 20
9152.034968035415
 30
0.0
  0
POINT
  5
17046
330
15B6E
100
AcDbEntity
  8
DEFPOINTS
 62
     0
 48
50.0
100
AcDbPoint
 10
6884.193515933507
 20
9152.034968035394
 30
0.0
  0
POINT
  5
17047
330
15B6E
100
AcDbEntity
  8
DEFPOINTS
 62
     0
 48
50.0
100
AcDbPoint
 10
6884.193515933507
 20
9367.843187660398
 30
0.0
  0
ENDBLK
  5
15B79
330
15B6E
100
AcDbEntity
  8
0
 48
50.0
100
AcDbBlockEnd
  0
BLOCK
  5
15B7B
330
15B7A
100
AcDbEntity
  8
0
 48
50.0
100
AcDbBlockBegin
  2
*D19
 70
     1
 10
0.0
 20
0.0
 30
0.0
  3
*D19
  1

  0
LINE
  5
17051
330
15B7A
100
AcDbEntity
  8
寸法
 62
     0
 48
50.0
370
    -2
100
AcDbLine
 10
5934.1935159335
 20
8182.034968035292
 30
0.0
 11
5934.1935159335
 21
7702.211300240215
 31
0.0
  0
LINE
  5
17052
330
15B7A
100
AcDbEntity
  8
寸法
 62
     0
 48
50.0
370
    -2
100
AcDbLine
 10
6619.193515933497
 20
8182.034968035257
 30
0.0
 11
6619.193515933497
 21
7702.211300240215
 31
0.0
  0
LINE
  5
17053
330
15B7A
100
AcDbEntity
  8
寸法
 62
     0
 48
50.0
370
    -2
100
AcDbLine
 10
5934.1935159335
 20
7762.211300240214
 30
0.0
 11
6619.193515933497
 21
7762.211300240214
 31
0.0
  0
INSERT
  5
17054
330
15B7A
100
AcDbEntity
  8
寸法
 62
     0
 48
50.0
370
    -2
100
AcDbBlockReference
  2
_DOTSMALL
 10
5934.1935159335
 20
7762.211300240214
 30
0.0
 41
100.0
 42
100.0
 43
100.0
 50
180.0
  0
INSERT
  5
17055
330
15B7A
100
AcDbEntity
  8
寸法
 62
     0
 48
50.0
370
    -2
100
AcDbBlockReference
  2
_DOTSMALL
 10
6619.193515933497
 20
7762.211300240214
 30
0.0
 41
100.0
 42
100.0
 43
100.0
  0
MTEXT
  5
17056
330
15B7A
100
AcDbEntity
  8
寸法
 62
     7
 48
50.0
100
AcDbMText
 10
6276.693515933499
 20
7862.211300240215
 30
0.0
 40
120.0
 41
0.0
 71
     5
 72
     1
  1
\A1;685
  7
STYLE1
 73
     1
 44
1.0
1001
ACAD
1000
MTEXTBEGIN
1070
    73
1070
     1
1070
    44
1040
1.0
1070
    74
1070
     0
1000
MTEXTEND
  0
POINT
  5
17057
330
15B7A
100
AcDbEntity
  8
DEFPOINTS
 62
     0
 48
50.0
100
AcDbPoint
 10
5934.1935159335
 20
8202.034968035292
 30
0.0
  0
POINT
  5
17058
330
15B7A
100
AcDbEntity
  8
DEFPOINTS
 62
     0
 48
50.0
100
AcDbPoint
 10
6619.193515933497
 20
8202.034968035254
 30
0.0
  0
POINT
  5
17059
330
15B7A
100
AcDbEntity
  8
DEFPOINTS
 62
     0
 48
50.0
100
AcDbPoint
 10
6619.193515933497
 20
7762.211300240214
 30
0.0
  0
ENDBLK
  5
15B85
330
15B7A
100
AcDbEntity
  8
0
 48
50.0
100
AcDbBlockEnd
  0
BLOCK
  5
15CAD
330
15CAC
100
AcDbEntity
  8
0
 48
50.0
100
AcDbBlockBegin
  2
*D20
 70
     1
 10
0.0
 20
0.0
 30
0.0
  3
*D20
  1

  0
LINE
  5
17012
330
15CAC
100
AcDbEntity
  8
寸法
 62
     0
 48
50.0
370
    -2
100
AcDbLine
 10
5824.193515933503
 20
9172.034968035417
 30
0.0
 11
5824.193515933503
 21
9427.843187660398
 31
0.0
  0
LINE
  5
17013
330
15CAC
100
AcDbEntity
  8
寸法
 62
     0
 48
50.0
370
    -2
100
AcDbLine
 10
5934.193515933507
 20
9172.034968035394
 30
0.0
 11
5934.193515933507
 21
9427.843187660398
 31
0.0
  0
LINE
  5
17014
330
15CAC
100
AcDbEntity
  8
寸法
 62
     0
 48
50.0
370
    -2
100
AcDbLine
 10
5824.193515933503
 20
9367.843187660398
 30
0.0
 11
5934.193515933507
 21
9367.843187660398
 31
0.0
  0
MTEXT
  5
17015
330
15CAC
100
AcDbEntity
  8
寸法
 62
     7
 48
50.0
100
AcDbMText
 10
5879.193515933504
 20
9624.7198562749
 30
0.0
 40
120.0
 41
0.0
 71
     5
 72
     1
  1
\A1;110
  7
STYLE1
 73
     1
 44
1.0
1001
ACAD
1000
MTEXTBEGIN
1070
    73
1070
     1
1070
    44
1040
1.0
1070
    74
1070
     0
1000
MTEXTEND
  0
INSERT
  5
17016
330
15CAC
100
AcDbEntity
  8
寸法
 62
     0
 48
50.0
370
    -2
100
AcDbBlockReference
  2
_DOTSMALL
 10
5824.193515933503
 20
9367.843187660398
 30
0.0
 41
100.0
 42
100.0
 43
100.0
 50
180.0
  0
INSERT
  5
17017
330
15CAC
100
AcDbEntity
  8
寸法
 62
     0
 48
50.0
370
    -2
100
AcDbBlockReference
  2
_DOTSMALL
 10
5934.193515933507
 20
9367.843187660398
 30
0.0
 41
100.0
 42
100.0
 43
100.0
  0
POINT
  5
17018
330
15CAC
100
AcDbEntity
  8
DEFPOINTS
 62
     0
 48
50.0
100
AcDbPoint
 10
5824.193515933503
 20
9152.034968035415
 30
0.0
  0
POINT
  5
17019
330
15CAC
100
AcDbEntity
  8
DEFPOINTS
 62
     0
 48
50.0
100
AcDbPoint
 10
5934.193515933507
 20
9152.034968035394
 30
0.0
  0
POINT
  5
1701A
330
15CAC
100
AcDbEntity
  8
DEFPOINTS
 62
     0
 48
50.0
100
AcDbPoint
 10
5934.193515933507
 20
9367.843187660398
 30
0.0
  0
ENDBLK
  5
15CB7
330
15CAC
100
AcDbEntity
  8
0
 48
50.0
100
AcDbBlockEnd
  0
BLOCK
  5
15CD1
330
15CD0
100
AcDbEntity
  8
0
 48
50.0
100
AcDbBlockBegin
  2
*D21
 70
     1
 10
0.0
 20
0.0
 30
0.0
  3
*D21
  1

  0
LINE
  5
1701B
330
15CD0
100
AcDbEntity
  8
寸法
 62
     0
 48
50.0
370
    -2
100
AcDbLine
 10
4984.193515933501
 20
8182.034968035292
 30
0.0
 11
4984.193515933501
 21
7702.211300240215
 31
0.0
  0
LINE
  5
1701C
330
15CD0
100
AcDbEntity
  8
寸法
 62
     0
 48
50.0
370
    -2
100
AcDbLine
 10
5669.193515933497
 20
8182.034968035257
 30
0.0
 11
5669.193515933497
 21
7702.211300240215
 31
0.0
  0
LINE
  5
1701D
330
15CD0
100
AcDbEntity
  8
寸法
 62
     0
 48
50.0
370
    -2
100
AcDbLine
 10
4984.193515933501
 20
7762.211300240214
 30
0.0
 11
5669.193515933497
 21
7762.211300240214
 31
0.0
  0
INSERT
  5
1701E
330
15CD0
100
AcDbEntity
  8
寸法
 62
     0
 48
50.0
370
    -2
100
AcDbBlockReference
  2
_DOTSMALL
 10
4984.193515933501
 20
7762.211300240214
 30
0.0
 41
100.0
 42
100.0
 43
100.0
 50
180.0
  0
INSERT
  5
1701F
330
15CD0
100
AcDbEntity
  8
寸法
 62
     0
 48
50.0
370
    -2
100
AcDbBlockReference
  2
_DOTSMALL
 10
5669.193515933497
 20
7762.211300240214
 30
0.0
 41
100.0
 42
100.0
 43
100.0
  0
MTEXT
  5
17020
330
15CD0
100
AcDbEntity
  8
寸法
 62
     7
 48
50.0
100
AcDbMText
 10
5326.693515933499
 20
7862.211300240215
 30
0.0
 40
120.0
 41
0.0
 71
     5
 72
     1
  1
\A1;685
  7
STYLE1
 73
     1
 44
1.0
1001
ACAD
1000
MTEXTBEGIN
1070
    73
1070
     1
1070
    44
1040
1.0
1070
    74
1070
     0
1000
MTEXTEND
  0
POINT
  5
17021
330
15CD0
100
AcDbEntity
  8
DEFPOINTS
 62
     0
 48
50.0
100
AcDbPoint
 10
4984.193515933501
 20
8202.034968035292
 30
0.0
  0
POINT
  5
17022
330
15CD0
100
AcDbEntity
  8
DEFPOINTS
 62
     0
 48
50.0
100
AcDbPoint
 10
5669.193515933497
 20
8202.034968035254
 30
0.0
  0
POINT
  5
17023
330
15CD0
100
AcDbEntity
  8
DEFPOINTS
 62
     0
 48
50.0
100
AcDbPoint
 10
5669.193515933497
 20
7762.211300240214
 30
0.0
  0
ENDBLK
  5
15CDB
330
15CD0
100
AcDbEntity
  8
0
 48
50.0
100
AcDbBlockEnd
  0
BLOCK
  5
15CDD
330
15CDC
100
AcDbEntity
  8
0
 48
50.0
100
AcDbBlockBegin
  2
*D22
 70
     1
 10
0.0
 20
0.0
 30
0.0
  3
*D22
  1

  0
LINE
  5
17024
330
15CDC
100
AcDbEntity
  8
寸法
 62
     0
 48
50.0
370
    -2
100
AcDbLine
 10
4984.193515933505
 20
9172.034968035328
 30
0.0
 11
4984.193515933505
 21
9427.843187660398
 31
0.0
  0
LINE
  5
17025
330
15CDC
100
AcDbEntity
  8
寸法
 62
     0
 48
50.0
370
    -2
100
AcDbLine
 10
5824.193515933503
 20
9172.034968035417
 30
0.0
 11
5824.193515933503
 21
9427.843187660398
 31
0.0
  0
LINE
  5
17026
330
15CDC
100
AcDbEntity
  8
寸法
 62
     0
 48
50.0
370
    -2
100
AcDbLine
 10
4984.193515933505
 20
9367.843187660398
 30
0.0
 11
5824.193515933503
 21
9367.843187660398
 31
0.0
  0
INSERT
  5
17027
330
15CDC
100
AcDbEntity
  8
寸法
 62
     0
 48
50.0
370
    -2
100
AcDbBlockReference
  2
_DOTSMALL
 10
4984.193515933505
 20
9367.843187660398
 30
0.0
 41
100.0
 42
100.0
 43
100.0
 50
180.0
  0
INSERT
  5
17028
330
15CDC
100
AcDbEntity
  8
寸法
 62
     0
 48
50.0
370
    -2
100
AcDbBlockReference
  2
_DOTSMALL
 10
5824.193515933503
 20
9367.843187660398
 30
0.0
 41
100.0
 42
100.0
 43
100.0
  0
MTEXT
  5
17029
330
15CDC
100
AcDbEntity
  8
寸法
 62
     7
 48
50.0
100
AcDbMText
 10
5404.193515933503
 20
9467.854998684019
 30
0.0
 40
120.0
 41
0.0
 71
     5
 72
     1
  1
\A1;2X420=840
  7
STYLE1
 73
     1
 44
1.0
1001
ACAD
1000
MTEXTBEGIN
1070
    73
1070
     1
1070
    44
1040
1.0
1070
    74
1070
     0
1000
MTEXTEND
  0
POINT
  5
1702A
330
15CDC
100
AcDbEntity
  8
DEFPOINTS
 62
     0
 48
50.0
100
AcDbPoint
 10
4984.193515933505
 20
9152.034968035328
 30
0.0
  0
POINT
  5
1702B
330
15CDC
100
AcDbEntity
  8
DEFPOINTS
 62
     0
 48
50.0
100
AcDbPoint
 10
5824.193515933503
 20
9152.034968035415
 30
0.0
  0
POINT
  5
1702C
330
15CDC
100
AcDbEntity
  8
DEFPOINTS
 62
     0
 48
50.0
100
AcDbPoint
 10
5824.193515933503
 20
9367.843187660398
 30
0.0
  0
ENDBLK
  5
15CE7
330
15CDC
100
AcDbEntity
  8
0
 48
50.0
100
AcDbBlockEnd
  0
BLOCK
  5
15CE9
330
15CE8
100
AcDbEntity
  8
0
 48
50.0
100
AcDbBlockBegin
  2
*D23
 70
     1
 10
0.0
 20
0.0
 30
0.0
  3
*D23
  1

  0
LINE
  5
1702D
330
15CE8
100
AcDbEntity
  8
寸法
 62
     0
 48
50.0
370
    -2
100
AcDbLine
 10
4874.193515933503
 20
9172.034968035417
 30
0.0
 11
4874.193515933503
 21
9427.843187660398
 31
0.0
  0
LINE
  5
1702E
330
15CE8
100
AcDbEntity
  8
寸法
 62
     0
 48
50.0
370
    -2
100
AcDbLine
 10
4984.193515933506
 20
9172.034968035394
 30
0.0
 11
4984.193515933506
 21
9427.843187660398
 31
0.0
  0
LINE
  5
1702F
330
15CE8
100
AcDbEntity
  8
寸法
 62
     0
 48
50.0
370
    -2
100
AcDbLine
 10
4874.193515933503
 20
9367.843187660398
 30
0.0
 11
4984.193515933506
 21
9367.843187660398
 31
0.0
  0
MTEXT
  5
17030
330
15CE8
100
AcDbEntity
  8
寸法
 62
     7
 48
50.0
100
AcDbMText
 10
4929.193515933505
 20
9624.7198562749
 30
0.0
 40
120.0
 41
0.0
 71
     5
 72
     1
  1
\A1;110
  7
STYLE1
 73
     1
 44
1.0
1001
ACAD
1000
MTEXTBEGIN
1070
    73
1070
     1
1070
    44
1040
1.0
1070
    74
1070
     0
1000
MTEXTEND
  0
INSERT
  5
17031
330
15CE8
100
AcDbEntity
  8
寸法
 62
     0
 48
50.0
370
    -2
100
AcDbBlockReference
  2
_DOTSMALL
 10
4874.193515933503
 20
9367.843187660398
 30
0.0
 41
100.0
 42
100.0
 43
100.0
 50
180.0
  0
INSERT
  5
17032
330
15CE8
100
AcDbEntity
  8
寸法
 62
     0
 48
50.0
370
    -2
100
AcDbBlockReference
  2
_DOTSMALL
 10
4984.193515933506
 20
9367.843187660398
 30
0.0
 41
100.0
 42
100.0
 43
100.0
  0
POINT
  5
17033
330
15CE8
100
AcDbEntity
  8
DEFPOINTS
 62
     0
 48
50.0
100
AcDbPoint
 10
4874.193515933503
 20
9152.034968035415
 30
0.0
  0
POINT
  5
17034
330
15CE8
100
AcDbEntity
  8
DEFPOINTS
 62
     0
 48
50.0
100
AcDbPoint
 10
4984.193515933506
 20
9152.034968035394
 30
0.0
  0
POINT
  5
17035
330
15CE8
100
AcDbEntity
  8
DEFPOINTS
 62
     0
 48
50.0
100
AcDbPoint
 10
4984.193515933506
 20
9367.843187660398
 30
0.0
  0
ENDBLK
  5
15CF3
330
15CE8
100
AcDbEntity
  8
0
 48
50.0
100
AcDbBlockEnd
  0
BLOCK
  5
15CF5
330
15CF4
100
AcDbEntity
  8
0
 48
50.0
100
AcDbBlockBegin
  2
*D24
 70
     1
 10
0.0
 20
0.0
 30
0.0
  3
*D24
  1

  0
LINE
  5
17036
330
15CF4
100
AcDbEntity
  8
寸法
 62
     0
 48
50.0
370
    -2
100
AcDbLine
 10
4034.193515933504
 20
9172.034968035328
 30
0.0
 11
4034.193515933504
 21
9427.843187660398
 31
0.0
  0
LINE
  5
17037
330
15CF4
100
AcDbEntity
  8
寸法
 62
     0
 48
50.0
370
    -2
100
AcDbLine
 10
4874.193515933503
 20
9172.034968035417
 30
0.0
 11
4874.193515933503
 21
9427.843187660398
 31
0.0
  0
LINE
  5
17038
330
15CF4
100
AcDbEntity
  8
寸法
 62
     0
 48
50.0
370
    -2
100
AcDbLine
 10
4034.193515933504
 20
9367.843187660398
 30
0.0
 11
4874.193515933503
 21
9367.843187660398
 31
0.0
  0
INSERT
  5
17039
330
15CF4
100
AcDbEntity
  8
寸法
 62
     0
 48
50.0
370
    -2
100
AcDbBlockReference
  2
_DOTSMALL
 10
4034.193515933504
 20
9367.843187660398
 30
0.0
 41
100.0
 42
100.0
 43
100.0
 50
180.0
  0
INSERT
  5
1703A
330
15CF4
100
AcDbEntity
  8
寸法
 62
     0
 48
50.0
370
    -2
100
AcDbBlockReference
  2
_DOTSMALL
 10
4874.193515933503
 20
9367.843187660398
 30
0.0
 41
100.0
 42
100.0
 43
100.0
  0
MTEXT
  5
1703B
330
15CF4
100
AcDbEntity
  8
寸法
 62
     7
 48
50.0
100
AcDbMText
 10
4454.193515933503
 20
9467.854998684019
 30
0.0
 40
120.0
 41
0.0
 71
     5
 72
     1
  1
\A1;2X420=840
  7
STYLE1
 73
     1
 44
1.0
1001
ACAD
1000
MTEXTBEGIN
1070
    73
1070
     1
1070
    44
1040
1.0
1070
    74
1070
     0
1000
MTEXTEND
  0
POINT
  5
1703C
330
15CF4
100
AcDbEntity
  8
DEFPOINTS
 62
     0
 48
50.0
100
AcDbPoint
 10
4034.193515933504
 20
9152.034968035328
 30
0.0
  0
POINT
  5
1703D
330
15CF4
100
AcDbEntity
  8
DEFPOINTS
 62
     0
 48
50.0
100
AcDbPoint
 10
4874.193515933503
 20
9152.034968035415
 30
0.0
  0
POINT
  5
1703E
330
15CF4
100
AcDbEntity
  8
DEFPOINTS
 62
     0
 48
50.0
100
AcDbPoint
 10
4874.193515933503
 20
9367.843187660398
 30
0.0
  0
ENDBLK
  5
15CFF
330
15CF4
100
AcDbEntity
  8
0
 48
50.0
100
AcDbBlockEnd
  0
BLOCK
  5
15E5E
330
15E5D
100
AcDbEntity
  8
0
 48
50.0
100
AcDbBlockBegin
  2
*D25
 70
     1
 10
0.0
 20
0.0
 30
0.0
  3
*D25
  1

  0
LINE
  5
17009
330
15E5D
100
AcDbEntity
  8
寸法
 62
     0
 48
50.0
370
    -2
100
AcDbLine
 10
8784.1935159335
 20
8182.034968035292
 30
0.0
 11
8784.1935159335
 21
7702.211300240215
 31
0.0
  0
LINE
  5
1700A
330
15E5D
100
AcDbEntity
  8
寸法
 62
     0
 48
50.0
370
    -2
100
AcDbLine
 10
9469.193515933497
 20
8182.034968035257
 30
0.0
 11
9469.193515933497
 21
7702.211300240215
 31
0.0
  0
LINE
  5
1700B
330
15E5D
100
AcDbEntity
  8
寸法
 62
     0
 48
50.0
370
    -2
100
AcDbLine
 10
8784.1935159335
 20
7762.211300240214
 30
0.0
 11
9469.193515933497
 21
7762.211300240214
 31
0.0
  0
INSERT
  5
1700C
330
15E5D
100
AcDbEntity
  8
寸法
 62
     0
 48
50.0
370
    -2
100
AcDbBlockReference
  2
_DOTSMALL
 10
8784.1935159335
 20
7762.211300240214
 30
0.0
 41
100.0
 42
100.0
 43
100.0
 50
180.0
  0
INSERT
  5
1700D
330
15E5D
100
AcDbEntity
  8
寸法
 62
     0
 48
50.0
370
    -2
100
AcDbBlockReference
  2
_DOTSMALL
 10
9469.193515933497
 20
7762.211300240214
 30
0.0
 41
100.0
 42
100.0
 43
100.0
  0
MTEXT
  5
1700E
330
15E5D
100
AcDbEntity
  8
寸法
 62
     7
 48
50.0
100
AcDbMText
 10
9126.693515933499
 20
7962.211300240214
 30
0.0
 40
120.0
 41
0.0
 71
     5
 72
     1
  1
\A1;有効開口部間口\P685
  7
STYLE1
 73
     1
 44
1.0
1001
ACAD
1000
MTEXTBEGIN
1070
    73
1070
     1
1070
    44
1040
1.0
1070
    74
1070
     0
1000
MTEXTEND
  0
POINT
  5
1700F
330
15E5D
100
AcDbEntity
  8
DEFPOINTS
 62
     0
 48
50.0
100
AcDbPoint
 10
8784.1935159335
 20
8202.034968035292
 30
0.0
  0
POINT
  5
17010
330
15E5D
100
AcDbEntity
  8
DEFPOINTS
 62
     0
 48
50.0
100
AcDbPoint
 10
9469.193515933497
 20
8202.034968035254
 30
0.0
  0
POINT
  5
17011
330
15E5D
100
AcDbEntity
  8
DEFPOINTS
 62
     0
 48
50.0
100
AcDbPoint
 10
9469.193515933497
 20
7762.211300240214
 30
0.0
  0
ENDBLK
  5
15E68
330
15E5D
100
AcDbEntity
  8
0
 48
50.0
100
AcDbBlockEnd
  0
BLOCK
  5
15E77
330
15E76
100
AcDbEntity
  8
0
 48
50.0
100
AcDbBlockBegin
  2
*D26
 70
     1
 10
0.0
 20
0.0
 30
0.0
  3
*D26
  1

  0
LINE
  5
17000
330
15E76
100
AcDbEntity
  8
寸法
 62
     0
 48
50.0
370
    -2
100
AcDbLine
 10
4034.193515933501
 20
8182.034968035292
 30
0.0
 11
4034.193515933501
 21
7702.211300240215
 31
0.0
  0
LINE
  5
17001
330
15E76
100
AcDbEntity
  8
寸法
 62
     0
 48
50.0
370
    -2
100
AcDbLine
 10
4719.193515933497
 20
8182.034968035257
 30
0.0
 11
4719.193515933497
 21
7702.211300240215
 31
0.0
  0
LINE
  5
17002
330
15E76
100
AcDbEntity
  8
寸法
 62
     0
 48
50.0
370
    -2
100
AcDbLine
 10
4034.193515933501
 20
7762.211300240214
 30
0.0
 11
4719.193515933497
 21
7762.211300240214
 31
0.0
  0
INSERT
  5
17003
330
15E76
100
AcDbEntity
  8
寸法
 62
     0
 48
50.0
370
    -2
100
AcDbBlockReference
  2
_DOTSMALL
 10
4034.193515933501
 20
7762.211300240214
 30
0.0
 41
100.0
 42
100.0
 43
100.0
 50
180.0
  0
INSERT
  5
17004
330
15E76
100
AcDbEntity
  8
寸法
 62
     0
 48
50.0
370
    -2
100
AcDbBlockReference
  2
_DOTSMALL
 10
4719.193515933497
 20
7762.211300240214
 30
0.0
 41
100.0
 42
100.0
 43
100.0
  0
MTEXT
  5
17005
330
15E76
100
AcDbEntity
  8
寸法
 62
     7
 48
50.0
100
AcDbMText
 10
4376.693515933498
 20
7862.211300240215
 30
0.0
 40
120.0
 41
0.0
 71
     5
 72
     1
  1
\A1;685
  7
STYLE1
 73
     1
 44
1.0
1001
ACAD
1000
MTEXTBEGIN
1070
    73
1070
     1
1070
    44
1040
1.0
1070
    74
1070
     0
1000
MTEXTEND
  0
POINT
  5
17006
330
15E76
100
AcDbEntity
  8
DEFPOINTS
 62
     0
 48
50.0
100
AcDbPoint
 10
4034.193515933501
 20
8202.034968035292
 30
0.0
  0
POINT
  5
17007
330
15E76
100
AcDbEntity
  8
DEFPOINTS
 62
     0
 48
50.0
100
AcDbPoint
 10
4719.193515933497
 20
8202.034968035254
 30
0.0
  0
POINT
  5
17008
330
15E76
100
AcDbEntity
  8
DEFPOINTS
 62
     0
 48
50.0
100
AcDbPoint
 10
4719.193515933497
 20
7762.211300240214
 30
0.0
  0
ENDBLK
  5
15E81
330
15E76
100
AcDbEntity
  8
0
 48
50.0
100
AcDbBlockEnd
  0
BLOCK
  5
16A1C
330
16A11
100
AcDbEntity
  8
0
 48
50.0
100
AcDbBlockBegin
  2
*D27
 70
     1
 10
0.0
 20
0.0
 30
0.0
  3
*D27
  1

  0
LINE
  5
16FB7
330
16A11
100
AcDbEntity
  8
寸法
 62
     0
 48
50.0
370
    -2
100
AcDbLine
 10
12564.99089774097
 20
5457.057009432378
 30
0.0
 11
12564.99089774097
 21
5948.903783400028
 31
0.0
  0
LINE
  5
16FB8
330
16A11
100
AcDbEntity
  8
寸法
 62
     0
 48
50.0
370
    -2
100
AcDbLine
 10
12644.99089774097
 20
5455.246329820726
 30
0.0
 11
12644.99089774097
 21
5948.903783400028
 31
0.0
  0
LINE
  5
16FB9
330
16A11
100
AcDbEntity
  8
寸法
 62
     0
 48
50.0
370
    -2
100
AcDbLine
 10
12564.99089774097
 20
5888.903783400028
 30
0.0
 11
12644.99089774097
 21
5888.903783400028
 31
0.0
  0
LINE
  5
16FBA
330
16A11
100
AcDbEntity
  8
寸法
 62
     0
 48
50.0
370
    -2
100
AcDbLine
 10
12644.99089774097
 20
5888.903783400028
 30
0.0
 11
12957.08538592995
 21
5888.903783400028
 31
0.0
  0
INSERT
  5
16FBB
330
16A11
100
AcDbEntity
  8
寸法
 62
     0
 48
50.0
370
    -2
100
AcDbBlockReference
  2
_DOTSMALL
 10
12564.99089774097
 20
5888.903783400028
 30
0.0
 41
100.0
 42
100.0
 43
100.0
 50
180.0
  0
INSERT
  5
16FBC
330
16A11
100
AcDbEntity
  8
寸法
 62
     0
 48
50.0
370
    -2
100
AcDbBlockReference
  2
_DOTSMALL
 10
12644.99089774097
 20
5888.903783400028
 30
0.0
 41
100.0
 42
100.0
 43
100.0
  0
MTEXT
  5
16FBD
330
16A11
100
AcDbEntity
  8
寸法
 62
     7
 48
50.0
100
AcDbMText
 10
12851.03814183546
 20
5988.903783400028
 30
0.0
 40
120.0
 41
0.0
 71
     5
 72
     1
  1
\A1;80
  7
STYLE1
 73
     1
 44
1.0
1001
ACAD
1000
MTEXTBEGIN
1070
    73
1070
     1
1070
    44
1040
1.0
1070
    74
1070
     0
1000
MTEXTEND
  0
POINT
  5
16FBE
330
16A11
100
AcDbEntity
  8
DEFPOINTS
 62
     0
 48
50.0
100
AcDbPoint
 10
12564.99089774097
 20
5437.057009432377
 30
0.0
  0
POINT
  5
16FBF
330
16A11
100
AcDbEntity
  8
DEFPOINTS
 62
     0
 48
50.0
100
AcDbPoint
 10
12644.99089774097
 20
5435.246329820726
 30
0.0
  0
POINT
  5
16FC0
330
16A11
100
AcDbEntity
  8
DEFPOINTS
 62
     0
 48
50.0
100
AcDbPoint
 10
12644.99089774097
 20
5888.903783400028
 30
0.0
  0
ENDBLK
  5
16A1D
330
16A11
100
AcDbEntity
  8
0
 48
50.0
100
AcDbBlockEnd
  0
BLOCK
  5
16A28
330
16A1E
100
AcDbEntity
  8
0
 48
50.0
100
AcDbBlockBegin
  2
*D28
 70
     1
 10
0.0
 20
0.0
 30
0.0
  3
*D28
  1

  0
LINE
  5
16FAE
330
16A1E
100
AcDbEntity
  8
寸法
 62
     0
 48
50.0
370
    -2
100
AcDbLine
 10
12644.99089774097
 20
5455.246329820726
 30
0.0
 11
12644.99089774097
 21
6158.497657821479
 31
0.0
  0
LINE
  5
16FAF
330
16A1E
100
AcDbEntity
  8
寸法
 62
     0
 48
50.0
370
    -2
100
AcDbLine
 10
11554.99089774098
 20
5510.24632982073
 30
0.0
 11
11554.99089774098
 21
6158.497657821479
 31
0.0
  0
LINE
  5
16FB0
330
16A1E
100
AcDbEntity
  8
寸法
 62
     0
 48
50.0
370
    -2
100
AcDbLine
 10
12644.99089774097
 20
6098.497657821479
 30
0.0
 11
11554.99089774098
 21
6098.497657821479
 31
0.0
  0
INSERT
  5
16FB1
330
16A1E
100
AcDbEntity
  8
寸法
 62
     0
 48
50.0
370
    -2
100
AcDbBlockReference
  2
_DOTSMALL
 10
12644.99089774097
 20
6098.497657821479
 30
0.0
 41
100.0
 42
100.0
 43
100.0
  0
INSERT
  5
16FB2
330
16A1E
100
AcDbEntity
  8
寸法
 62
     0
 48
50.0
370
    -2
100
AcDbBlockReference
  2
_DOTSMALL
 10
11554.99089774098
 20
6098.497657821479
 30
0.0
 41
100.0
 42
100.0
 43
100.0
 50
180.0
  0
MTEXT
  5
16FB3
330
16A1E
100
AcDbEntity
  8
寸法
 62
     7
 48
50.0
100
AcDbMText
 10
12078.1096124214
 20
6198.497657821479
 30
0.0
 40
120.0
 41
0.0
 71
     5
 72
     1
  1
\A1;1090
  7
STYLE1
 73
     1
 44
1.0
1001
ACAD
1000
MTEXTBEGIN
1070
    73
1070
     1
1070
    44
1040
1.0
1070
    74
1070
     0
1000
MTEXTEND
  0
POINT
  5
16FB4
330
16A1E
100
AcDbEntity
  8
DEFPOINTS
 62
     0
 48
50.0
100
AcDbPoint
 10
12644.99089774097
 20
5435.246329820726
 30
0.0
  0
POINT
  5
16FB5
330
16A1E
100
AcDbEntity
  8
DEFPOINTS
 62
     0
 48
50.0
100
AcDbPoint
 10
11554.99089774098
 20
5490.246329820729
 30
0.0
  0
POINT
  5
16FB6
330
16A1E
100
AcDbEntity
  8
DEFPOINTS
 62
     0
 48
50.0
100
AcDbPoint
 10
11554.99089774098
 20
6098.497657821479
 30
0.0
  0
ENDBLK
  5
16A29
330
16A1E
100
AcDbEntity
  8
0
 48
50.0
100
AcDbBlockEnd
  0
BLOCK
  5
16A36
330
16A2A
100
AcDbEntity
  8
0
 48
50.0
100
AcDbBlockBegin
  2
*D29
 70
     1
 10
0.0
 20
0.0
 30
0.0
  3
*D29
  1

  0
LINE
  5
16FA3
330
16A2A
100
AcDbEntity
  8
寸法
 62
     0
 48
50.0
370
    -2
100
AcDbLine
 10
11614.99089774098
 20
5506.247947943701
 30
0.0
 11
11614.99089774098
 21
5948.903783400028
 31
0.0
  0
LINE
  5
16FA4
330
16A2A
100
AcDbEntity
  8
寸法
 62
     0
 48
50.0
370
    -2
100
AcDbLine
 10
11554.99089774098
 20
5510.24632982073
 30
0.0
 11
11554.99089774098
 21
5948.903783400028
 31
0.0
  0
LINE
  5
16FA5
330
16A2A
100
AcDbEntity
  8
寸法
 62
     0
 48
50.0
370
    -2
100
AcDbLine
 10
11614.99089774098
 20
5888.903783400028
 30
0.0
 11
11714.99089774098
 21
5888.903783400028
 31
0.0
  0
LINE
  5
16FA6
330
16A2A
100
AcDbEntity
  8
寸法
 62
     0
 48
50.0
370
    -2
100
AcDbLine
 10
11554.99089774098
 20
5888.903783400028
 30
0.0
 11
11135.7153071898
 21
5888.903783400028
 31
0.0
  0
LINE
  5
16FA7
330
16A2A
100
AcDbEntity
  8
寸法
 62
     0
 48
50.0
370
    -2
100
AcDbLine
 10
11614.99089774098
 20
5888.903783400028
 30
0.0
 11
11554.99089774098
 21
5888.903783400028
 31
0.0
  0
INSERT
  5
16FA8
330
16A2A
100
AcDbEntity
  8
寸法
 62
     0
 48
50.0
370
    -2
100
AcDbBlockReference
  2
_DOTSMALL
 10
11614.99089774098
 20
5888.903783400028
 30
0.0
 41
100.0
 42
100.0
 43
100.0
 50
180.0
  0
INSERT
  5
16FA9
330
16A2A
100
AcDbEntity
  8
寸法
 62
     0
 48
50.0
370
    -2
100
AcDbBlockReference
  2
_DOTSMALL
 10
11554.99089774098
 20
5888.903783400028
 30
0.0
 41
100.0
 42
100.0
 43
100.0
  0
MTEXT
  5
16FAA
330
16A2A
100
AcDbEntity
  8
寸法
 62
     7
 48
50.0
100
AcDbMText
 10
11245.35310246539
 20
5988.903783400028
 30
0.0
 40
120.0
 41
0.0
 71
     5
 72
     1
  1
\A1;60
  7
STYLE1
 73
     1
 44
1.0
1001
ACAD
1000
MTEXTBEGIN
1070
    73
1070
     1
1070
    44
1040
1.0
1070
    74
1070
     0
1000
MTEXTEND
  0
POINT
  5
16FAB
330
16A2A
100
AcDbEntity
  8
DEFPOINTS
 62
     0
 48
50.0
100
AcDbPoint
 10
11614.99089774098
 20
5486.2479479437
 30
0.0
  0
POINT
  5
16FAC
330
16A2A
100
AcDbEntity
  8
DEFPOINTS
 62
     0
 48
50.0
100
AcDbPoint
 10
11554.99089774098
 20
5490.246329820729
 30
0.0
  0
POINT
  5
16FAD
330
16A2A
100
AcDbEntity
  8
DEFPOINTS
 62
     0
 48
50.0
100
AcDbPoint
 10
11554.99089774098
 20
5888.903783400028
 30
0.0
  0
ENDBLK
  5
16A37
330
16A2A
100
AcDbEntity
  8
0
 48
50.0
100
AcDbBlockEnd
  0
BLOCK
  5
16A42
330
16A38
100
AcDbEntity
  8
0
 48
50.0
100
AcDbBlockBegin
  2
*D30
 70
     1
 10
0.0
 20
0.0
 30
0.0
  3
*D30
  1

  0
LINE
  5
16F9A
330
16A38
100
AcDbEntity
  8
寸法
 62
     0
 48
50.0
370
    -2
100
AcDbLine
 10
12564.99089774097
 20
5457.057009432378
 30
0.0
 11
12564.99089774097
 21
5948.903783400028
 31
0.0
  0
LINE
  5
16F9B
330
16A38
100
AcDbEntity
  8
寸法
 62
     0
 48
50.0
370
    -2
100
AcDbLine
 10
11614.99089774098
 20
5506.247947943701
 30
0.0
 11
11614.99089774098
 21
5948.903783400028
 31
0.0
  0
LINE
  5
16F9C
330
16A38
100
AcDbEntity
  8
寸法
 62
     0
 48
50.0
370
    -2
100
AcDbLine
 10
12564.99089774097
 20
5888.903783400028
 30
0.0
 11
11614.99089774098
 21
5888.903783400028
 31
0.0
  0
INSERT
  5
16F9D
330
16A38
100
AcDbEntity
  8
寸法
 62
     0
 48
50.0
370
    -2
100
AcDbBlockReference
  2
_DOTSMALL
 10
12564.99089774097
 20
5888.903783400028
 30
0.0
 41
100.0
 42
100.0
 43
100.0
  0
INSERT
  5
16F9E
330
16A38
100
AcDbEntity
  8
寸法
 62
     0
 48
50.0
370
    -2
100
AcDbBlockReference
  2
_DOTSMALL
 10
11614.99089774098
 20
5888.903783400028
 30
0.0
 41
100.0
 42
100.0
 43
100.0
 50
180.0
  0
MTEXT
  5
16F9F
330
16A38
100
AcDbEntity
  8
寸法
 62
     7
 48
50.0
100
AcDbMText
 10
12089.99089774098
 20
5988.903783400028
 30
0.0
 40
120.0
 41
0.0
 71
     5
 72
     1
  1
\A1;柱外寸法950
  7
STYLE1
 73
     1
 44
1.0
1001
ACAD
1000
MTEXTBEGIN
1070
    73
1070
     1
1070
    44
1040
1.0
1070
    74
1070
     0
1000
MTEXTEND
  0
POINT
  5
16FA0
330
16A38
100
AcDbEntity
  8
DEFPOINTS
 62
     0
 48
50.0
100
AcDbPoint
 10
12564.99089774097
 20
5437.057009432377
 30
0.0
  0
POINT
  5
16FA1
330
16A38
100
AcDbEntity
  8
DEFPOINTS
 62
     0
 48
50.0
100
AcDbPoint
 10
11614.99089774098
 20
5486.2479479437
 30
0.0
  0
POINT
  5
16FA2
330
16A38
100
AcDbEntity
  8
DEFPOINTS
 62
     0
 48
50.0
100
AcDbPoint
 10
11614.99089774098
 20
5888.903783400028
 30
0.0
  0
ENDBLK
  5
16A43
330
16A38
100
AcDbEntity
  8
0
 48
50.0
100
AcDbBlockEnd
  0
BLOCK
  5
16A4E
330
16A44
100
AcDbEntity
  8
0
 48
50.0
100
AcDbBlockBegin
  2
*D31
 70
     1
 10
0.0
 20
0.0
 30
0.0
  3
*D31
  1

  0
LINE
  5
16F91
330
16A44
100
AcDbEntity
  8
寸法
 62
     0
 48
50.0
370
    -2
100
AcDbLine
 10
12584.99089774098
 20
3415.246329820727
 30
0.0
 11
13329.9180557131
 21
3415.246329820727
 31
0.0
  0
LINE
  5
16F92
330
16A44
100
AcDbEntity
  8
寸法
 62
     0
 48
50.0
370
    -2
100
AcDbLine
 10
12664.99089774097
 20
5435.246329820726
 30
0.0
 11
13329.9180557131
 21
5435.246329820726
 31
0.0
  0
LINE
  5
16F93
330
16A44
100
AcDbEntity
  8
寸法
 62
     0
 48
50.0
370
    -2
100
AcDbLine
 10
13269.9180557131
 20
3415.246329820727
 30
0.0
 11
13269.9180557131
 21
5435.246329820726
 31
0.0
  0
INSERT
  5
16F94
330
16A44
100
AcDbEntity
  8
寸法
 62
     0
 48
50.0
370
    -2
100
AcDbBlockReference
  2
_DOTSMALL
 10
13269.9180557131
 20
3415.246329820727
 30
0.0
 41
100.0
 42
100.0
 43
100.0
 50
270.0
  0
INSERT
  5
16F95
330
16A44
100
AcDbEntity
  8
寸法
 62
     0
 48
50.0
370
    -2
100
AcDbBlockReference
  2
_DOTSMALL
 10
13269.9180557131
 20
5435.246329820726
 30
0.0
 41
100.0
 42
100.0
 43
100.0
 50
90.0
  0
MTEXT
  5
16F96
330
16A44
100
AcDbEntity
  8
寸法
 62
     7
 48
50.0
100
AcDbMText
 10
13169.90624468948
 20
4425.246329820729
 30
0.0
 40
120.0
 41
0.0
 71
     5
 72
     1
  1
\A1;2020
  7
STYLE1
 11
0.0000000000000001
 21
1.0
 31
0.0
 73
     1
 44
1.0
1001
ACAD
1000
MTEXTBEGIN
1070
    73
1070
     1
1070
    44
1040
1.0
1070
    74
1070
     0
1000
MTEXTEND
  0
POINT
  5
16F97
330
16A44
100
AcDbEntity
  8
DEFPOINTS
 62
     0
 48
50.0
100
AcDbPoint
 10
12564.99089774098
 20
3415.246329820727
 30
0.0
  0
POINT
  5
16F98
330
16A44
100
AcDbEntity
  8
DEFPOINTS
 62
     0
 48
50.0
100
AcDbPoint
 10
12644.99089774097
 20
5435.246329820726
 30
0.0
  0
POINT
  5
16F99
330
16A44
100
AcDbEntity
  8
DEFPOINTS
 62
     0
 48
50.0
100
AcDbPoint
 10
13269.9180557131
 20
5435.246329820726
 30
0.0
  0
ENDBLK
  5
16A4F
330
16A44
100
AcDbEntity
  8
0
 48
50.0
100
AcDbBlockEnd
  0
BLOCK
  5
16A5A
330
16A50
100
AcDbEntity
  8
0
 48
50.0
100
AcDbBlockBegin
  2
*D32
 70
     1
 10
0.0
 20
0.0
 30
0.0
  3
*D32
  1

  0
LINE
  5
16F88
330
16A50
100
AcDbEntity
  8
寸法
 62
     0
 48
50.0
370
    -2
100
AcDbLine
 10
11587.9885276962
 20
5255.246329820725
 30
0.0
 11
10953.02780704878
 21
5255.246329820725
 31
0.0
  0
LINE
  5
16F89
330
16A50
100
AcDbEntity
  8
寸法
 62
     0
 48
50.0
370
    -2
100
AcDbLine
 10
11587.9885276962
 20
3465.246329820729
 30
0.0
 11
10953.02780704877
 21
3465.246329820729
 31
0.0
  0
LINE
  5
16F8A
330
16A50
100
AcDbEntity
  8
寸法
 62
     0
 48
50.0
370
    -2
100
AcDbLine
 10
11013.02780704878
 20
5255.246329820725
 30
0.0
 11
11013.02780704877
 21
3465.246329820729
 31
0.0
  0
INSERT
  5
16F8B
330
16A50
100
AcDbEntity
  8
寸法
 62
     0
 48
50.0
370
    -2
100
AcDbBlockReference
  2
_DOTSMALL
 10
11013.02780704878
 20
5255.246329820725
 30
0.0
 41
100.0
 42
100.0
 43
100.0
 50
90.0
  0
INSERT
  5
16F8C
330
16A50
100
AcDbEntity
  8
寸法
 62
     0
 48
50.0
370
    -2
100
AcDbBlockReference
  2
_DOTSMALL
 10
11013.02780704877
 20
3465.246329820729
 30
0.0
 41
100.0
 42
100.0
 43
100.0
 50
270.0
  0
MTEXT
  5
16F8D
330
16A50
100
AcDbEntity
  8
寸法
 62
     7
 48
50.0
100
AcDbMText
 10
10913.02780704877
 20
4370.28134169711
 30
0.0
 40
120.0
 41
0.0
 71
     5
 72
     1
  1
\A1;1790
  7
STYLE1
 11
0.0000000000000001
 21
1.0
 31
0.0
 73
     1
 44
1.0
1001
ACAD
1000
MTEXTBEGIN
1070
    73
1070
     1
1070
    44
1040
1.0
1070
    74
1070
     0
1000
MTEXTEND
  0
POINT
  5
16F8E
330
16A50
100
AcDbEntity
  8
DEFPOINTS
 62
     0
 48
50.0
100
AcDbPoint
 10
11607.9885276962
 20
5255.246329820725
 30
0.0
  0
POINT
  5
16F8F
330
16A50
100
AcDbEntity
  8
DEFPOINTS
 62
     0
 48
50.0
100
AcDbPoint
 10
11607.9885276962
 20
3465.246329820729
 30
0.0
  0
POINT
  5
16F90
330
16A50
100
AcDbEntity
  8
DEFPOINTS
 62
     0
 48
50.0
100
AcDbPoint
 10
11013.02780704877
 20
3465.246329820729
 30
0.0
  0
ENDBLK
  5
16A5B
330
16A50
100
AcDbEntity
  8
0
 48
50.0
100
AcDbBlockEnd
  0
BLOCK
  5
16A68
330
16A5C
100
AcDbEntity
  8
0
 48
50.0
100
AcDbBlockBegin
  2
*D33
 70
     1
 10
0.0
 20
0.0
 30
0.0
  3
*D33
  1

  0
LINE
  5
16F7D
330
16A5C
100
AcDbEntity
  8
寸法
 62
     0
 48
50.0
370
    -2
100
AcDbLine
 10
11587.9885276962
 20
3465.246329820729
 30
0.0
 11
10953.02780704877
 21
3465.246329820729
 31
0.0
  0
LINE
  5
16F7E
330
16A5C
100
AcDbEntity
  8
寸法
 62
     0
 48
50.0
370
    -2
100
AcDbLine
 10
11539.99089774098
 20
3415.246329820727
 30
0.0
 11
10953.02780704877
 21
3415.246329820727
 31
0.0
  0
LINE
  5
16F7F
330
16A5C
100
AcDbEntity
  8
寸法
 62
     0
 48
50.0
370
    -2
100
AcDbLine
 10
11013.02780704877
 20
3465.246329820729
 30
0.0
 11
11013.02780704877
 21
3565.246329820729
 31
0.0
  0
LINE
  5
16F80
330
16A5C
100
AcDbEntity
  8
寸法
 62
     0
 48
50.0
370
    -2
100
AcDbLine
 10
11013.02780704877
 20
3415.246329820727
 30
0.0
 11
11013.02780704877
 21
3003.151841631746
 31
0.0
  0
LINE
  5
16F81
330
16A5C
100
AcDbEntity
  8
寸法
 62
     0
 48
50.0
370
    -2
100
AcDbLine
 10
11013.02780704877
 20
3465.246329820729
 30
0.0
 11
11013.02780704877
 21
3415.246329820727
 31
0.0
  0
INSERT
  5
16F82
330
16A5C
100
AcDbEntity
  8
寸法
 62
     0
 48
50.0
370
    -2
100
AcDbBlockReference
  2
_DOTSMALL
 10
11013.02780704877
 20
3465.246329820729
 30
0.0
 41
100.0
 42
100.0
 43
100.0
 50
270.0
  0
INSERT
  5
16F83
330
16A5C
100
AcDbEntity
  8
寸法
 62
     0
 48
50.0
370
    -2
100
AcDbBlockReference
  2
_DOTSMALL
 10
11013.02780704877
 20
3415.246329820727
 30
0.0
 41
100.0
 42
100.0
 43
100.0
 50
90.0
  0
MTEXT
  5
16F84
330
16A5C
100
AcDbEntity
  8
寸法
 62
     7
 48
50.0
100
AcDbMText
 10
10913.02780704877
 20
3109.199085726237
 30
0.0
 40
120.0
 41
0.0
 71
     5
 72
     1
  1
\A1;50
  7
STYLE1
 11
0.0000000000000001
 21
1.0
 31
0.0
 73
     1
 44
1.0
1001
ACAD
1000
MTEXTBEGIN
1070
    73
1070
     1
1070
    44
1040
1.0
1070
    74
1070
     0
1000
MTEXTEND
  0
POINT
  5
16F85
330
16A5C
100
AcDbEntity
  8
DEFPOINTS
 62
     0
 48
50.0
100
AcDbPoint
 10
11607.9885276962
 20
3465.246329820729
 30
0.0
  0
POINT
  5
16F86
330
16A5C
100
AcDbEntity
  8
DEFPOINTS
 62
     0
 48
50.0
100
AcDbPoint
 10
11559.99089774098
 20
3415.246329820727
 30
0.0
  0
POINT
  5
16F87
330
16A5C
100
AcDbEntity
  8
DEFPOINTS
 62
     0
 48
50.0
100
AcDbPoint
 10
11013.02780704877
 20
3415.246329820727
 30
0.0
  0
ENDBLK
  5
16A69
330
16A5C
100
AcDbEntity
  8
0
 48
50.0
100
AcDbBlockEnd
  0
BLOCK
  5
16A74
330
16A6A
100
AcDbEntity
  8
0
 48
50.0
100
AcDbBlockBegin
  2
*D34
 70
     1
 10
0.0
 20
0.0
 30
0.0
  3
*D34
  1

  0
LINE
  5
16F74
330
16A6A
100
AcDbEntity
  8
寸法
 62
     0
 48
50.0
370
    -2
100
AcDbLine
 10
11594.99089774098
 20
3415.246329820727
 30
0.0
 11
10650.7190861005
 21
3415.246329820727
 31
0.0
  0
LINE
  5
16F75
330
16A6A
100
AcDbEntity
  8
寸法
 62
     0
 48
50.0
370
    -2
100
AcDbLine
 10
11534.99089774098
 20
5490.246329820728
 30
0.0
 11
10650.7190861005
 21
5490.246329820728
 31
0.0
  0
LINE
  5
16F76
330
16A6A
100
AcDbEntity
  8
寸法
 62
     0
 48
50.0
370
    -2
100
AcDbLine
 10
10710.7190861005
 20
3415.246329820727
 30
0.0
 11
10710.7190861005
 21
5490.246329820728
 31
0.0
  0
INSERT
  5
16F77
330
16A6A
100
AcDbEntity
  8
寸法
 62
     0
 48
50.0
370
    -2
100
AcDbBlockReference
  2
_DOTSMALL
 10
10710.7190861005
 20
3415.246329820727
 30
0.0
 41
100.0
 42
100.0
 43
100.0
 50
270.0
  0
INSERT
  5
16F78
330
16A6A
100
AcDbEntity
  8
寸法
 62
     0
 48
50.0
370
    -2
100
AcDbBlockReference
  2
_DOTSMALL
 10
10710.7190861005
 20
5490.246329820728
 30
0.0
 41
100.0
 42
100.0
 43
100.0
 50
90.0
  0
MTEXT
  5
16F79
330
16A6A
100
AcDbEntity
  8
寸法
 62
     7
 48
50.0
100
AcDbMText
 10
10610.70727507688
 20
4390.453320240525
 30
0.0
 40
120.0
 41
0.0
 71
     5
 72
     1
  1
\A1;2075
  7
STYLE1
 11
0.0000000000000001
 21
1.0
 31
0.0
 73
     1
 44
1.0
1001
ACAD
1000
MTEXTBEGIN
1070
    73
1070
     1
1070
    44
1040
1.0
1070
    74
1070
     0
1000
MTEXTEND
  0
POINT
  5
16F7A
330
16A6A
100
AcDbEntity
  8
DEFPOINTS
 62
     0
 48
50.0
100
AcDbPoint
 10
11614.99089774098
 20
3415.246329820727
 30
0.0
  0
POINT
  5
16F7B
330
16A6A
100
AcDbEntity
  8
DEFPOINTS
 62
     0
 48
50.0
100
AcDbPoint
 10
11554.99089774098
 20
5490.246329820728
 30
0.0
  0
POINT
  5
16F7C
330
16A6A
100
AcDbEntity
  8
DEFPOINTS
 62
     0
 48
50.0
100
AcDbPoint
 10
10710.7190861005
 20
5490.246329820728
 30
0.0
  0
ENDBLK
  5
16A75
330
16A6A
100
AcDbEntity
  8
0
 48
50.0
100
AcDbBlockEnd
  0
BLOCK
  5
16A81
330
16A76
100
AcDbEntity
  8
0
 48
50.0
100
AcDbBlockBegin
  2
*D35
 70
     1
 10
0.0
 20
0.0
 30
0.0
  3
*D35
  1

  0
LINE
  5
16F6A
330
16A76
100
AcDbEntity
  8
寸法
 62
     0
 48
50.0
370
    -2
100
AcDbLine
 10
11550.34770242848
 20
5348.781941294198
 30
0.0
 11
10897.44753213446
 21
5373.432972534176
 31
0.0
  0
LINE
  5
16F6B
330
16A76
100
AcDbEntity
  8
寸法
 62
     0
 48
50.0
370
    -2
100
AcDbLine
 10
11555.66753658043
 20
5489.681548691081
 30
0.0
 11
10902.76736628625
 21
5514.332579931068
 31
0.0
  0
LINE
  5
16F6C
330
16A76
100
AcDbEntity
  8
寸法
 62
     0
 48
50.0
370
    -2
100
AcDbLine
 10
10957.40481187781
 20
5371.169213320648
 30
0.0
 11
10962.72464602961
 21
5512.068820717538
 31
0.0
  0
LINE
  5
16F6D
330
16A76
100
AcDbEntity
  8
寸法
 62
     0
 48
50.0
370
    -2
100
AcDbLine
 10
10962.72464602961
 20
5512.068820717538
 30
0.0
 11
10976.3072013108
 21
5871.812499178373
 31
0.0
  0
INSERT
  5
16F6E
330
16A76
100
AcDbEntity
  8
寸法
 62
     0
 48
50.0
370
    -2
100
AcDbBlockReference
  2
_DOTSMALL
 10
10957.40481187781
 20
5371.169213320648
 30
0.0
 41
100.0
 42
100.0
 43
100.0
 50
267.8377559871574
  0
INSERT
  5
16F6F
330
16A76
100
AcDbEntity
  8
寸法
 62
     0
 48
50.0
370
    -2
100
AcDbBlockReference
  2
_DOTSMALL
 10
10962.72464602961
 20
5512.068820717538
 30
0.0
 41
100.0
 42
100.0
 43
100.0
 50
87.83775598715743
  0
MTEXT
  5
16F70
330
16A76
100
AcDbEntity
  8
寸法
 62
     7
 48
50.0
100
AcDbMText
 10
10871.47359010923
 20
5745.67799175698
 30
0.0
 40
120.0
 41
0.0
 71
     5
 72
     1
  1
\A1;141
  7
STYLE1
 11
0.03772932022548
 21
0.9992879957226159
 31
0.0
 73
     1
 44
1.0
1001
ACAD
1000
MTEXTBEGIN
1070
    73
1070
     1
1070
    44
1040
1.0
1070
    74
1070
     0
1000
MTEXTEND
  0
POINT
  5
16F71
330
16A76
100
AcDbEntity
  8
DEFPOINTS
 62
     0
 48
50.0
100
AcDbPoint
 10
11570.33346234293
 20
5348.027354889689
 30
0.0
  0
POINT
  5
16F72
330
16A76
100
AcDbEntity
  8
DEFPOINTS
 62
     0
 48
50.0
100
AcDbPoint
 10
11575.65329649489
 20
5488.926962286573
 30
0.0
  0
POINT
  5
16F73
330
16A76
100
AcDbEntity
  8
DEFPOINTS
 62
     0
 48
50.0
100
AcDbPoint
 10
10962.72464602961
 20
5512.068820717538
 30
0.0
  0
ENDBLK
  5
16A82
330
16A76
100
AcDbEntity
  8
0
 48
50.0
100
AcDbBlockEnd
  0
BLOCK
  5
16DC1
330
16DB7
100
AcDbEntity
  8
0
 48
50.0
100
AcDbBlockBegin
  2
*D36
 70
     1
 10
0.0
 20
0.0
 30
0.0
  3
*D36
  1

  0
LINE
  5
16FD3
330
16DB7
100
AcDbEntity
  8
寸法
 62
     0
 48
50.0
370
    -2
100
AcDbLine
 10
4002.834538762479
 20
8652.534968035269
 30
0.0
 11
3933.423074771255
 21
8393.487857792285
 31
0.0
  0
LINE
  5
16FD4
330
16DB7
100
AcDbEntity
  8
寸法
 62
     0
 48
50.0
370
    -2
100
AcDbLine
 10
4894.83453876249
 20
8652.534968035265
 30
0.0
 11
4825.423074771268
 21
8393.487857792285
 31
0.0
  0
LINE
  5
16FD5
330
16DB7
100
AcDbEntity
  8
寸法
 62
     0
 48
50.0
370
    -2
100
AcDbLine
 10
3949.500026317123
 20
8453.487857792286
 30
0.0
 11
4841.500026317135
 21
8453.487857792286
 31
0.0
  0
MTEXT
  5
16FD6
330
16DB7
100
AcDbEntity
  8
寸法
 62
     7
 48
50.0
100
AcDbMText
 10
4499.319337387023
 20
8556.771973185282
 30
0.0
 40
120.0
 41
0.0
 71
     5
 72
     1
  1
\A1;892
  7
STYLE1
 73
     1
 44
1.0
1001
ACAD
1000
MTEXTBEGIN
1070
    73
1070
     1
1070
    44
1040
1.0
1070
    74
1070
     0
1000
MTEXTEND
  0
INSERT
  5
16FD7
330
16DB7
100
AcDbEntity
  8
寸法
 62
     0
 48
50.0
370
    -2
100
AcDbBlockReference
  2
_DOTSMALL
 10
3949.500026317123
 20
8453.487857792286
 30
0.0
 41
100.0
 42
100.0
 43
100.0
 50
180.0
  0
INSERT
  5
16FD8
330
16DB7
100
AcDbEntity
  8
寸法
 62
     0
 48
50.0
370
    -2
100
AcDbBlockReference
  2
_DOTSMALL
 10
4841.500026317135
 20
8453.487857792286
 30
0.0
 41
100.0
 42
100.0
 43
100.0
  0
POINT
  5
16FD9
330
16DB7
100
AcDbEntity
  8
DEFPOINTS
 62
     0
 48
50.0
100
AcDbPoint
 10
4008.193522611102
 20
8672.534968035268
 30
0.0
  0
POINT
  5
16FDA
330
16DB7
100
AcDbEntity
  8
DEFPOINTS
 62
     0
 48
50.0
100
AcDbPoint
 10
4900.193522611113
 20
8672.534968035265
 30
0.0
  0
POINT
  5
16FDB
330
16DB7
100
AcDbEntity
  8
DEFPOINTS
 62
     0
 48
50.0
100
AcDbPoint
 10
4841.500026317135
 20
8453.487857792286
 30
0.0
  0
ENDBLK
  5
16DC2
330
16DB7
100
AcDbEntity
  8
0
 48
50.0
100
AcDbBlockEnd
  0
BLOCK
  5
16DCD
330
16DC3
100
AcDbEntity
  8
0
 48
50.0
100
AcDbBlockBegin
  2
*D37
 70
     1
 10
0.0
 20
0.0
 30
0.0
  3
*D37
  1

  0
LINE
  5
16FDC
330
16DC3
100
AcDbEntity
  8
寸法
 62
     0
 48
50.0
370
    -2
100
AcDbLine
 10
4952.83453876248
 20
8652.534968035269
 30
0.0
 11
4883.423074771255
 21
8393.487857792285
 31
0.0
  0
LINE
  5
16FDD
330
16DC3
100
AcDbEntity
  8
寸法
 62
     0
 48
50.0
370
    -2
100
AcDbLine
 10
5844.834538762491
 20
8652.534968035265
 30
0.0
 11
5775.423074771268
 21
8393.487857792285
 31
0.0
  0
LINE
  5
16FDE
330
16DC3
100
AcDbEntity
  8
寸法
 62
     0
 48
50.0
370
    -2
100
AcDbLine
 10
4899.500026317124
 20
8453.487857792286
 30
0.0
 11
5791.500026317135
 21
8453.487857792286
 31
0.0
  0
MTEXT
  5
16FDF
330
16DC3
100
AcDbEntity
  8
寸法
 62
     7
 48
50.0
100
AcDbMText
 10
5449.319337387024
 20
8556.771973185282
 30
0.0
 40
120.0
 41
0.0
 71
     5
 72
     1
  1
\A1;892
  7
STYLE1
 73
     1
 44
1.0
1001
ACAD
1000
MTEXTBEGIN
1070
    73
1070
     1
1070
    44
1040
1.0
1070
    74
1070
     0
1000
MTEXTEND
  0
INSERT
  5
16FE0
330
16DC3
100
AcDbEntity
  8
寸法
 62
     0
 48
50.0
370
    -2
100
AcDbBlockReference
  2
_DOTSMALL
 10
4899.500026317124
 20
8453.487857792286
 30
0.0
 41
100.0
 42
100.0
 43
100.0
 50
180.0
  0
INSERT
  5
16FE1
330
16DC3
100
AcDbEntity
  8
寸法
 62
     0
 48
50.0
370
    -2
100
AcDbBlockReference
  2
_DOTSMALL
 10
5791.500026317135
 20
8453.487857792286
 30
0.0
 41
100.0
 42
100.0
 43
100.0
  0
POINT
  5
16FE2
330
16DC3
100
AcDbEntity
  8
DEFPOINTS
 62
     0
 48
50.0
100
AcDbPoint
 10
4958.193522611102
 20
8672.534968035268
 30
0.0
  0
POINT
  5
16FE3
330
16DC3
100
AcDbEntity
  8
DEFPOINTS
 62
     0
 48
50.0
100
AcDbPoint
 10
5850.193522611113
 20
8672.534968035265
 30
0.0
  0
POINT
  5
16FE4
330
16DC3
100
AcDbEntity
  8
DEFPOINTS
 62
     0
 48
50.0
100
AcDbPoint
 10
5791.500026317135
 20
8453.487857792286
 30
0.0
  0
ENDBLK
  5
16DCE
330
16DC3
100
AcDbEntity
  8
0
 48
50.0
100
AcDbBlockEnd
  0
BLOCK
  5
16DD9
330
16DCF
100
AcDbEntity
  8
0
 48
50.0
100
AcDbBlockBegin
  2
*D38
 70
     1
 10
0.0
 20
0.0
 30
0.0
  3
*D38
  1

  0
LINE
  5
16FE5
330
16DCF
100
AcDbEntity
  8
寸法
 62
     0
 48
50.0
370
    -2
100
AcDbLine
 10
5902.83453876248
 20
8652.534968035269
 30
0.0
 11
5833.423074771255
 21
8393.487857792285
 31
0.0
  0
LINE
  5
16FE6
330
16DCF
100
AcDbEntity
  8
寸法
 62
     0
 48
50.0
370
    -2
100
AcDbLine
 10
6794.834538762491
 20
8652.534968035265
 30
0.0
 11
6725.423074771267
 21
8393.487857792285
 31
0.0
  0
LINE
  5
16FE7
330
16DCF
100
AcDbEntity
  8
寸法
 62
     0
 48
50.0
370
    -2
100
AcDbLine
 10
5849.500026317123
 20
8453.487857792286
 30
0.0
 11
6741.500026317135
 21
8453.487857792286
 31
0.0
  0
MTEXT
  5
16FE8
330
16DCF
100
AcDbEntity
  8
寸法
 62
     7
 48
50.0
100
AcDbMText
 10
6399.319337387023
 20
8556.771973185282
 30
0.0
 40
120.0
 41
0.0
 71
     5
 72
     1
  1
\A1;892
  7
STYLE1
 73
     1
 44
1.0
1001
ACAD
1000
MTEXTBEGIN
1070
    73
1070
     1
1070
    44
1040
1.0
1070
    74
1070
     0
1000
MTEXTEND
  0
INSERT
  5
16FE9
330
16DCF
100
AcDbEntity
  8
寸法
 62
     0
 48
50.0
370
    -2
100
AcDbBlockReference
  2
_DOTSMALL
 10
5849.500026317123
 20
8453.487857792286
 30
0.0
 41
100.0
 42
100.0
 43
100.0
 50
180.0
  0
INSERT
  5
16FEA
330
16DCF
100
AcDbEntity
  8
寸法
 62
     0
 48
50.0
370
    -2
100
AcDbBlockReference
  2
_DOTSMALL
 10
6741.500026317135
 20
8453.487857792286
 30
0.0
 41
100.0
 42
100.0
 43
100.0
  0
POINT
  5
16FEB
330
16DCF
100
AcDbEntity
  8
DEFPOINTS
 62
     0
 48
50.0
100
AcDbPoint
 10
5908.193522611102
 20
8672.534968035268
 30
0.0
  0
POINT
  5
16FEC
330
16DCF
100
AcDbEntity
  8
DEFPOINTS
 62
     0
 48
50.0
100
AcDbPoint
 10
6800.193522611113
 20
8672.534968035265
 30
0.0
  0
POINT
  5
16FED
330
16DCF
100
AcDbEntity
  8
DEFPOINTS
 62
     0
 48
50.0
100
AcDbPoint
 10
6741.500026317135
 20
8453.487857792286
 30
0.0
  0
ENDBLK
  5
16DDA
330
16DCF
100
AcDbEntity
  8
0
 48
50.0
100
AcDbBlockEnd
  0
BLOCK
  5
16DE5
330
16DDB
100
AcDbEntity
  8
0
 48
50.0
100
AcDbBlockBegin
  2
*D39
 70
     1
 10
0.0
 20
0.0
 30
0.0
  3
*D39
  1

  0
LINE
  5
16FEE
330
16DDB
100
AcDbEntity
  8
寸法
 62
     0
 48
50.0
370
    -2
100
AcDbLine
 10
6852.834538762479
 20
8652.534968035269
 30
0.0
 11
6783.423074771255
 21
8393.487857792285
 31
0.0
  0
LINE
  5
16FEF
330
16DDB
100
AcDbEntity
  8
寸法
 62
     0
 48
50.0
370
    -2
100
AcDbLine
 10
7744.834538762491
 20
8652.534968035265
 30
0.0
 11
7675.423074771266
 21
8393.487857792285
 31
0.0
  0
LINE
  5
16FF0
330
16DDB
100
AcDbEntity
  8
寸法
 62
     0
 48
50.0
370
    -2
100
AcDbLine
 10
6799.500026317123
 20
8453.487857792286
 30
0.0
 11
7691.500026317135
 21
8453.487857792286
 31
0.0
  0
MTEXT
  5
16FF1
330
16DDB
100
AcDbEntity
  8
寸法
 62
     7
 48
50.0
100
AcDbMText
 10
7342.848174492778
 20
8558.573133568813
 30
0.0
 40
120.0
 41
0.0
 71
     5
 72
     1
  1
\A1;892
  7
STYLE1
 73
     1
 44
1.0
1001
ACAD
1000
MTEXTBEGIN
1070
    73
1070
     1
1070
    44
1040
1.0
1070
    74
1070
     0
1000
MTEXTEND
  0
INSERT
  5
16FF2
330
16DDB
100
AcDbEntity
  8
寸法
 62
     0
 48
50.0
370
    -2
100
AcDbBlockReference
  2
_DOTSMALL
 10
6799.500026317123
 20
8453.487857792286
 30
0.0
 41
100.0
 42
100.0
 43
100.0
 50
180.0
  0
INSERT
  5
16FF3
330
16DDB
100
AcDbEntity
  8
寸法
 62
     0
 48
50.0
370
    -2
100
AcDbBlockReference
  2
_DOTSMALL
 10
7691.500026317135
 20
8453.487857792286
 30
0.0
 41
100.0
 42
100.0
 43
100.0
  0
POINT
  5
16FF4
330
16DDB
100
AcDbEntity
  8
DEFPOINTS
 62
     0
 48
50.0
100
AcDbPoint
 10
6858.193522611101
 20
8672.534968035268
 30
0.0
  0
POINT
  5
16FF5
330
16DDB
100
AcDbEntity
  8
DEFPOINTS
 62
     0
 48
50.0
100
AcDbPoint
 10
7750.193522611112
 20
8672.534968035265
 30
0.0
  0
POINT
  5
16FF6
330
16DDB
100
AcDbEntity
  8
DEFPOINTS
 62
     0
 48
50.0
100
AcDbPoint
 10
7691.500026317135
 20
8453.487857792286
 30
0.0
  0
ENDBLK
  5
16DE6
330
16DDB
100
AcDbEntity
  8
0
 48
50.0
100
AcDbBlockEnd
  0
BLOCK
  5
16DF1
330
16DE7
100
AcDbEntity
  8
0
 48
50.0
100
AcDbBlockBegin
  2
*D40
 70
     1
 10
0.0
 20
0.0
 30
0.0
  3
*D40
  1

  0
LINE
  5
16FF7
330
16DE7
100
AcDbEntity
  8
寸法
 62
     0
 48
50.0
370
    -2
100
AcDbLine
 10
7802.834538762479
 20
8652.534968035269
 30
0.0
 11
7733.423074771256
 21
8393.487857792285
 31
0.0
  0
LINE
  5
16FF8
330
16DE7
100
AcDbEntity
  8
寸法
 62
     0
 48
50.0
370
    -2
100
AcDbLine
 10
8694.83453876249
 20
8652.534968035265
 30
0.0
 11
8625.423074771267
 21
8393.487857792285
 31
0.0
  0
LINE
  5
16FF9
330
16DE7
100
AcDbEntity
  8
寸法
 62
     0
 48
50.0
370
    -2
100
AcDbLine
 10
7749.500026317123
 20
8453.487857792286
 30
0.0
 11
8641.500026317135
 21
8453.487857792286
 31
0.0
  0
MTEXT
  5
16FFA
330
16DE7
100
AcDbEntity
  8
寸法
 62
     7
 48
50.0
100
AcDbMText
 10
8292.848174492778
 20
8558.573133568813
 30
0.0
 40
120.0
 41
0.0
 71
     5
 72
     1
  1
\A1;892
  7
STYLE1
 73
     1
 44
1.0
1001
ACAD
1000
MTEXTBEGIN
1070
    73
1070
     1
1070
    44
1040
1.0
1070
    74
1070
     0
1000
MTEXTEND
  0
INSERT
  5
16FFB
330
16DE7
100
AcDbEntity
  8
寸法
 62
     0
 48
50.0
370
    -2
100
AcDbBlockReference
  2
_DOTSMALL
 10
7749.500026317123
 20
8453.487857792286
 30
0.0
 41
100.0
 42
100.0
 43
100.0
 50
180.0
  0
INSERT
  5
16FFC
330
16DE7
100
AcDbEntity
  8
寸法
 62
     0
 48
50.0
370
    -2
100
AcDbBlockReference
  2
_DOTSMALL
 10
8641.500026317135
 20
8453.487857792286
 30
0.0
 41
100.0
 42
100.0
 43
100.0
  0
POINT
  5
16FFD
330
16DE7
100
AcDbEntity
  8
DEFPOINTS
 62
     0
 48
50.0
100
AcDbPoint
 10
7808.193522611102
 20
8672.534968035268
 30
0.0
  0
POINT
  5
16FFE
330
16DE7
100
AcDbEntity
  8
DEFPOINTS
 62
     0
 48
50.0
100
AcDbPoint
 10
8700.193522611114
 20
8672.534968035265
 30
0.0
  0
POINT
  5
16FFF
330
16DE7
100
AcDbEntity
  8
DEFPOINTS
 62
     0
 48
50.0
100
AcDbPoint
 10
8641.500026317135
 20
8453.487857792286
 30
0.0
  0
ENDBLK
  5
16DF2
330
16DE7
100
AcDbEntity
  8
0
 48
50.0
100
AcDbBlockEnd
  0
BLOCK
  5
16E2D
330
16E23
100
AcDbEntity
  8
0
 48
50.0
100
AcDbBlockBegin
  2
*D41
 70
     1
 10
0.0
 20
0.0
 30
0.0
  3
*D41
  1

  0
LINE
  5
16FCA
330
16E23
100
AcDbEntity
  8
寸法
 62
     0
 48
50.0
370
    -2
100
AcDbLine
 10
8752.834538762479
 20
8652.534968035269
 30
0.0
 11
8683.423074771255
 21
8393.487857792285
 31
0.0
  0
LINE
  5
16FCB
330
16E23
100
AcDbEntity
  8
寸法
 62
     0
 48
50.0
370
    -2
100
AcDbLine
 10
9644.834538762491
 20
8652.534968035265
 30
0.0
 11
9575.423074771268
 21
8393.487857792285
 31
0.0
  0
LINE
  5
16FCC
330
16E23
100
AcDbEntity
  8
寸法
 62
     0
 48
50.0
370
    -2
100
AcDbLine
 10
8699.500026317123
 20
8453.487857792286
 30
0.0
 11
9591.500026317135
 21
8453.487857792286
 31
0.0
  0
MTEXT
  5
16FCD
330
16E23
100
AcDbEntity
  8
寸法
 62
     7
 48
50.0
100
AcDbMText
 10
9242.848174492777
 20
8558.573133568813
 30
0.0
 40
120.0
 41
0.0
 71
     5
 72
     1
  1
\A1;892
  7
STYLE1
 73
     1
 44
1.0
1001
ACAD
1000
MTEXTBEGIN
1070
    73
1070
     1
1070
    44
1040
1.0
1070
    74
1070
     0
1000
MTEXTEND
  0
INSERT
  5
16FCE
330
16E23
100
AcDbEntity
  8
寸法
 62
     0
 48
50.0
370
    -2
100
AcDbBlockReference
  2
_DOTSMALL
 10
8699.500026317123
 20
8453.487857792286
 30
0.0
 41
100.0
 42
100.0
 43
100.0
 50
180.0
  0
INSERT
  5
16FCF
330
16E23
100
AcDbEntity
  8
寸法
 62
     0
 48
50.0
370
    -2
100
AcDbBlockReference
  2
_DOTSMALL
 10
9591.500026317135
 20
8453.487857792286
 30
0.0
 41
100.0
 42
100.0
 43
100.0
  0
POINT
  5
16FD0
330
16E23
100
AcDbEntity
  8
DEFPOINTS
 62
     0
 48
50.0
100
AcDbPoint
 10
8758.193522611101
 20
8672.534968035268
 30
0.0
  0
POINT
  5
16FD1
330
16E23
100
AcDbEntity
  8
DEFPOINTS
 62
     0
 48
50.0
100
AcDbPoint
 10
9650.193522611113
 20
8672.534968035265
 30
0.0
  0
POINT
  5
16FD2
330
16E23
100
AcDbEntity
  8
DEFPOINTS
 62
     0
 48
50.0
100
AcDbPoint
 10
9591.500026317135
 20
8453.487857792286
 30
0.0
  0
ENDBLK
  5
16E2E
330
16E23
100
AcDbEntity
  8
0
 48
50.0
100
AcDbBlockEnd
  0
BLOCK
  5
16E55
330
16E49
100
AcDbEntity
  8
0
 48
50.0
100
AcDbBlockBegin
  2
*D42
 70
     1
 10
0.0
 20
0.0
 30
0.0
  3
*D42
  1

  0
LINE
  5
16F4D
330
16E49
100
AcDbEntity
  8
寸法
 62
     0
 48
50.0
370
    -2
100
AcDbLine
 10
3979.193515933497
 20
5510.246329820733
 30
0.0
 11
3979.193515933497
 21
5762.78791507897
 31
0.0
  0
LINE
  5
16F4E
330
16E49
100
AcDbEntity
  8
寸法
 62
     0
 48
50.0
370
    -2
100
AcDbLine
 10
3929.193515933497
 20
5510.246329820731
 30
0.0
 11
3929.193515933497
 21
5762.78791507897
 31
0.0
  0
LINE
  5
16F4F
330
16E49
100
AcDbEntity
  8
寸法
 62
     0
 48
50.0
370
    -2
100
AcDbLine
 10
3979.193515933497
 20
5702.787915078971
 30
0.0
 11
4079.193515933496
 21
5702.787915078971
 31
0.0
  0
LINE
  5
16F50
330
16E49
100
AcDbEntity
  8
寸法
 62
     0
 48
50.0
370
    -2
100
AcDbLine
 10
3929.193515933497
 20
5702.787915078971
 30
0.0
 11
3509.660990464761
 21
5702.787915078971
 31
0.0
  0
LINE
  5
16F51
330
16E49
100
AcDbEntity
  8
寸法
 62
     0
 48
50.0
370
    -2
100
AcDbLine
 10
3979.193515933497
 20
5702.787915078971
 30
0.0
 11
3929.193515933497
 21
5702.787915078971
 31
0.0
  0
INSERT
  5
16F52
330
16E49
100
AcDbEntity
  8
寸法
 62
     0
 48
50.0
370
    -2
100
AcDbBlockReference
  2
_DOTSMALL
 10
3979.193515933497
 20
5702.787915078971
 30
0.0
 41
100.0
 42
100.0
 43
100.0
 50
180.0
  0
INSERT
  5
16F53
330
16E49
100
AcDbEntity
  8
寸法
 62
     0
 48
50.0
370
    -2
100
AcDbBlockReference
  2
_DOTSMALL
 10
3929.193515933497
 20
5702.787915078971
 30
0.0
 41
100.0
 42
100.0
 43
100.0
  0
MTEXT
  5
16F54
330
16E49
100
AcDbEntity
  8
寸法
 62
     7
 48
50.0
100
AcDbMText
 10
3615.70823455925
 20
5802.787915078971
 30
0.0
 40
120.0
 41
0.0
 71
     5
 72
     1
  1
\A1;50
  7
STYLE1
 73
     1
 44
1.0
1001
ACAD
1000
MTEXTBEGIN
1070
    73
1070
     1
1070
    44
1040
1.0
1070
    74
1070
     0
1000
MTEXTEND
  0
POINT
  5
16F55
330
16E49
100
AcDbEntity
  8
DEFPOINTS
 62
     0
 48
50.0
100
AcDbPoint
 10
3979.193515933497
 20
5490.246329820733
 30
0.0
  0
POINT
  5
16F56
330
16E49
100
AcDbEntity
  8
DEFPOINTS
 62
     0
 48
50.0
100
AcDbPoint
 10
3929.193515933497
 20
5490.246329820731
 30
0.0
  0
POINT
  5
16F57
330
16E49
100
AcDbEntity
  8
DEFPOINTS
 62
     0
 48
50.0
100
AcDbPoint
 10
3929.193515933497
 20
5702.787915078971
 30
0.0
  0
ENDBLK
  5
16E56
330
16E49
100
AcDbEntity
  8
0
 48
50.0
100
AcDbBlockEnd
  0
BLOCK
  5
16E61
330
16E57
100
AcDbEntity
  8
0
 48
50.0
100
AcDbBlockBegin
  2
*D43
 70
     1
 10
0.0
 20
0.0
 30
0.0
  3
*D43
  1

  0
LINE
  5
16F58
330
16E57
100
AcDbEntity
  8
寸法
 62
     0
 48
50.0
370
    -2
100
AcDbLine
 10
3929.193515933497
 20
5510.246329820731
 30
0.0
 11
3929.193515933497
 21
5985.744893516818
 31
0.0
  0
LINE
  5
16F59
330
16E57
100
AcDbEntity
  8
寸法
 62
     0
 48
50.0
370
    -2
100
AcDbLine
 10
9729.193515933502
 20
5510.246329820726
 30
0.0
 11
9729.193515933502
 21
5985.744893516818
 31
0.0
  0
LINE
  5
16F5A
330
16E57
100
AcDbEntity
  8
寸法
 62
     0
 48
50.0
370
    -2
100
AcDbLine
 10
3929.193515933497
 20
5925.744893516817
 30
0.0
 11
9729.193515933502
 21
5925.744893516817
 31
0.0
  0
INSERT
  5
16F5B
330
16E57
100
AcDbEntity
  8
寸法
 62
     0
 48
50.0
370
    -2
100
AcDbBlockReference
  2
_DOTSMALL
 10
3929.193515933497
 20
5925.744893516817
 30
0.0
 41
100.0
 42
100.0
 43
100.0
 50
180.0
  0
INSERT
  5
16F5C
330
16E57
100
AcDbEntity
  8
寸法
 62
     0
 48
50.0
370
    -2
100
AcDbBlockReference
  2
_DOTSMALL
 10
9729.193515933502
 20
5925.744893516817
 30
0.0
 41
100.0
 42
100.0
 43
100.0
  0
MTEXT
  5
16F5D
330
16E57
100
AcDbEntity
  8
寸法
 62
     7
 48
50.0
100
AcDbMText
 10
6829.193515933488
 20
6025.744893516818
 30
0.0
 40
120.0
 41
0.0
 71
     5
 72
     1
  1
\A1;5800
  7
STYLE1
 73
     1
 44
1.0
1001
ACAD
1000
MTEXTBEGIN
1070
    73
1070
     1
1070
    44
1040
1.0
1070
    74
1070
     0
1000
MTEXTEND
  0
POINT
  5
16F5E
330
16E57
100
AcDbEntity
  8
DEFPOINTS
 62
     0
 48
50.0
100
AcDbPoint
 10
3929.193515933497
 20
5490.246329820731
 30
0.0
  0
POINT
  5
16F5F
330
16E57
100
AcDbEntity
  8
DEFPOINTS
 62
     0
 48
50.0
100
AcDbPoint
 10
9729.193515933502
 20
5490.246329820726
 30
0.0
  0
POINT
  5
16F60
330
16E57
100
AcDbEntity
  8
DEFPOINTS
 62
     0
 48
50.0
100
AcDbPoint
 10
9729.193515933502
 20
5925.744893516817
 30
0.0
  0
ENDBLK
  5
16E62
330
16E57
100
AcDbEntity
  8
0
 48
50.0
100
AcDbBlockEnd
  0
BLOCK
  5
16E6D
330
16E63
100
AcDbEntity
  8
0
 48
50.0
100
AcDbBlockBegin
  2
*D44
 70
     1
 10
0.0
 20
0.0
 30
0.0
  3
*D44
  1

  0
LINE
  5
16F61
330
16E63
100
AcDbEntity
  8
寸法
 62
     0
 48
50.0
370
    -2
100
AcDbLine
 10
9679.193515933501
 20
5510.246329820727
 30
0.0
 11
9679.193515933501
 21
5762.78791507897
 31
0.0
  0
LINE
  5
16F62
330
16E63
100
AcDbEntity
  8
寸法
 62
     0
 48
50.0
370
    -2
100
AcDbLine
 10
3979.193515933497
 20
5510.246329820733
 30
0.0
 11
3979.193515933497
 21
5762.78791507897
 31
0.0
  0
LINE
  5
16F63
330
16E63
100
AcDbEntity
  8
寸法
 62
     0
 48
50.0
370
    -2
100
AcDbLine
 10
9679.193515933501
 20
5702.787915078969
 30
0.0
 11
3979.193515933497
 21
5702.787915078969
 31
0.0
  0
INSERT
  5
16F64
330
16E63
100
AcDbEntity
  8
寸法
 62
     0
 48
50.0
370
    -2
100
AcDbBlockReference
  2
_DOTSMALL
 10
9679.193515933501
 20
5702.787915078969
 30
0.0
 41
100.0
 42
100.0
 43
100.0
  0
INSERT
  5
16F65
330
16E63
100
AcDbEntity
  8
寸法
 62
     0
 48
50.0
370
    -2
100
AcDbBlockReference
  2
_DOTSMALL
 10
3979.193515933497
 20
5702.787915078969
 30
0.0
 41
100.0
 42
100.0
 43
100.0
 50
180.0
  0
MTEXT
  5
16F66
330
16E63
100
AcDbEntity
  8
寸法
 62
     7
 48
50.0
100
AcDbMText
 10
6829.1935159335
 20
5802.787915078969
 30
0.0
 40
120.0
 41
0.0
 71
     5
 72
     1
  1
\A1;柱外寸法5700
  7
STYLE1
 73
     1
 44
1.0
1001
ACAD
1000
MTEXTBEGIN
1070
    73
1070
     1
1070
    44
1040
1.0
1070
    74
1070
     0
1000
MTEXTEND
  0
POINT
  5
16F67
330
16E63
100
AcDbEntity
  8
DEFPOINTS
 62
     0
 48
50.0
100
AcDbPoint
 10
9679.193515933501
 20
5490.246329820728
 30
0.0
  0
POINT
  5
16F68
330
16E63
100
AcDbEntity
  8
DEFPOINTS
 62
     0
 48
50.0
100
AcDbPoint
 10
3979.193515933497
 20
5490.246329820733
 30
0.0
  0
POINT
  5
16F69
330
16E63
100
AcDbEntity
  8
DEFPOINTS
 62
     0
 48
50.0
100
AcDbPoint
 10
3979.193515933497
 20
5702.787915078969
 30
0.0
  0
ENDBLK
  5
16E6E
330
16E63
100
AcDbEntity
  8
0
 48
50.0
100
AcDbBlockEnd
  0
BLOCK
  5
16EA3
330
16E97
100
AcDbEntity
  8
0
 48
50.0
100
AcDbBlockBegin
  2
*D45
 70
     1
 10
0.0
 20
0.0
 30
0.0
  3
*D45
  1

  0
LINE
  5
16F42
330
16E97
100
AcDbEntity
  8
寸法
 62
     0
 48
50.0
370
    -2
100
AcDbLine
 10
9729.193515933502
 20
5510.246329820726
 30
0.0
 11
9729.193515933502
 21
5762.787915078966
 31
0.0
  0
LINE
  5
16F43
330
16E97
100
AcDbEntity
  8
寸法
 62
     0
 48
50.0
370
    -2
100
AcDbLine
 10
9679.193515933501
 20
5510.246329820727
 30
0.0
 11
9679.193515933501
 21
5762.787915078966
 31
0.0
  0
LINE
  5
16F44
330
16E97
100
AcDbEntity
  8
寸法
 62
     0
 48
50.0
370
    -2
100
AcDbLine
 10
9679.193515933501
 20
5702.787915078967
 30
0.0
 11
9579.193515933502
 21
5702.787915078967
 31
0.0
  0
LINE
  5
16F45
330
16E97
100
AcDbEntity
  8
寸法
 62
     0
 48
50.0
370
    -2
100
AcDbLine
 10
9729.193515933502
 20
5702.787915078967
 30
0.0
 11
10148.72604140222
 21
5702.787915078967
 31
0.0
  0
LINE
  5
16F46
330
16E97
100
AcDbEntity
  8
寸法
 62
     0
 48
50.0
370
    -2
100
AcDbLine
 10
9679.193515933501
 20
5702.787915078967
 30
0.0
 11
9729.193515933502
 21
5702.787915078967
 31
0.0
  0
INSERT
  5
16F47
330
16E97
100
AcDbEntity
  8
寸法
 62
     0
 48
50.0
370
    -2
100
AcDbBlockReference
  2
_DOTSMALL
 10
9679.193515933501
 20
5702.787915078967
 30
0.0
 41
100.0
 42
100.0
 43
100.0
  0
INSERT
  5
16F48
330
16E97
100
AcDbEntity
  8
寸法
 62
     0
 48
50.0
370
    -2
100
AcDbBlockReference
  2
_DOTSMALL
 10
9729.193515933502
 20
5702.787915078967
 30
0.0
 41
100.0
 42
100.0
 43
100.0
 50
180.0
  0
MTEXT
  5
16F49
330
16E97
100
AcDbEntity
  8
寸法
 62
     7
 48
50.0
100
AcDbMText
 10
10042.67879730774
 20
5802.787915078966
 30
0.0
 40
120.0
 41
0.0
 71
     5
 72
     1
  1
\A1;50
  7
STYLE1
 73
     1
 44
1.0
1001
ACAD
1000
MTEXTBEGIN
1070
    73
1070
     1
1070
    44
1040
1.0
1070
    74
1070
     0
1000
MTEXTEND
  0
POINT
  5
16F4A
330
16E97
100
AcDbEntity
  8
DEFPOINTS
 62
     0
 48
50.0
100
AcDbPoint
 10
9729.193515933502
 20
5490.246329820726
 30
0.0
  0
POINT
  5
16F4B
330
16E97
100
AcDbEntity
  8
DEFPOINTS
 62
     0
 48
50.0
100
AcDbPoint
 10
9679.193515933501
 20
5490.246329820728
 30
0.0
  0
POINT
  5
16F4C
330
16E97
100
AcDbEntity
  8
DEFPOINTS
 62
     0
 48
50.0
100
AcDbPoint
 10
9679.193515933501
 20
5702.787915078967
 30
0.0
  0
ENDBLK
  5
16EA4
330
16E97
100
AcDbEntity
  8
0
 48
50.0
100
AcDbBlockEnd
  0
BLOCK
  5
1710F
330
1710A
100
AcDbEntity
  8
0
 48
50.0
100
AcDbBlockBegin
  2
A$C04B43244
 70
     0
 10
0.0
 20
0.0
 30
0.0
  3
A$C04B43244
  1

  0
TEXT
  5
1710B
330
1710A
100
AcDbEntity
  8
文字
 62
     7
 48
50.0
100
AcDbText
 10
455.9181901656812
 20
-139.5862541162733
 30
0.0
 40
100.0
  1
※豪雪補強
  7
STYLE1
100
AcDbText
  0
TEXT
  5
1710C
330
1710A
100
AcDbEntity
  8
文字
 62
     7
 48
50.0
100
AcDbText
 10
121.5774736644744
 20
-139.5862541162714
 30
0.0
 40
100.0
  1
15
  7
STYLE1
100
AcDbText
  0
TEXT
  5
1710D
330
1710A
100
AcDbEntity
  8
文字
 62
     7
 48
50.0
100
AcDbText
 10
1895.439654745143
 20
-139.5862541162787
 30
0.0
 40
100.0
  1
F12            1.0
  7
STYLE1
100
AcDbText
  0
TEXT
  5
1710E
330
1710A
100
AcDbEntity
  8
文字
 62
     7
 48
50.0
100
AcDbText
 10
102.6308165655355
 20
-309.5862541162733
 30
0.0
 40
100.0
  1
※豪雪補強は豪雪地型のみ取付
 41
0.9
  7
STYLE1
100
AcDbText
  0
ENDBLK
  5
17110
330
1710A
100
AcDbEntity
  8
0
 48
50.0
100
AcDbBlockEnd
  0
ENDSEC
  0
SECTION
  2
ENTITIES
  0
LINE
  5
10B56
330
747D
100
AcDbEntity
  8
補助
  6
PHANTOM
 62
   230
 48
50.0
100
AcDbLine
 10
140.0
 20
0.0
 30
0.0
 11
139.9999999999995
 21
11409.6
 31
0.0
  0
LINE
  5
10B57
330
747D
100
AcDbEntity
  8
補助
  6
PHANTOM
 62
   230
 48
50.0
100
AcDbLine
 10
139.9999999999995
 20
11409.6
 30
0.0
 11
16307.2
 21
11409.6
 31
0.0
  0
LINE
  5
10B59
330
747D
100
AcDbEntity
  8
仕様書枠
  6
Continuous
 48
50.0
100
AcDbLine
 10
13107.2
 20
1200.0
 30
0.0
 11
13107.2
 21
-0.0000000000000729
 31
0.0
  0
LINE
  5
10B5C
330
747D
100
AcDbEntity
  8
仕様書枠
 48
50.0
100
AcDbLine
 10
16307.2
 20
1200.0
 30
0.0
 11
16307.2
 21
-0.0000000000000909
 31
0.0
  0
LINE
  5
10B5D
330
747D
100
AcDbEntity
  8
仕様書枠
 48
50.0
100
AcDbLine
 10
140.0
 20
0.0
 30
0.0
 11
16307.2
 21
-0.0000000000000909
 31
0.0
  0
LINE
  5
10B5E
330
747D
100
AcDbEntity
  8
補助
  6
PHANTOM
 62
   230
 48
50.0
100
AcDbLine
 10
16307.2
 20
11409.6
 30
0.0
 11
16307.2
 21
1200.0
 31
0.0
  0
LINE
  5
10B6C
330
747D
100
AcDbEntity
  8
仕様書枠
 48
50.0
100
AcDbLine
 10
13107.2
 20
1200.0
 30
0.0
 11
16307.2
 21
1200.0
 31
0.0
  0
LINE
  5
10B6D
330
747D
100
AcDbEntity
  8
補助
  6
PHANTOM
 62
   230
 48
50.0
100
AcDbLine
 10
13107.2
 20
11409.6
 30
0.0
 11
13107.2
 21
4800.0
 31
0.0
  0
LINE
  5
10B6F
330
747D
100
AcDbEntity
  8
補助
  6
PHANTOM
 62
   230
 48
50.0
100
AcDbLine
 10
13107.2
 20
4800.0
 30
0.0
 11
16307.2
 21
4800.0
 31
0.0
  0
LINE
  5
10B72
330
747D
100
AcDbEntity
  8
文字
 62
     7
 48
50.0
100
AcDbLine
 10
13187.2
 20
400.0
 30
0.0
 11
16227.2
 21
400.0
 31
0.0
  0
TEXT
  5
10B73
330
747D
100
AcDbEntity
  8
文字
 62
     7
 48
50.0
100
AcDbText
 10
13162.9790565769
 20
895.0906074299405
 30
0.0
 40
200.0
  1
外 形 図
  7
STYLE2
100
AcDbText
  0
TEXT
  5
10B74
330
747D
100
AcDbEntity
  8
文字
 62
     7
 48
50.0
100
AcDbText
 10
13201.43669998441
 20
477.2740661031255
 30
0.0
 40
160.0
  1
機種名
  7
STYLE2
100
AcDbText
  0
TEXT
  5
10B75
330
747D
100
AcDbEntity
  8
文字
 62
     7
 48
50.0
100
AcDbText
 10
13209.4053442172
 20
228.5435242569016
 30
0.0
 40
100.0
  1
○有効開口寸法 ： 685×1760(mm)
  7
STYLE2
100
AcDbText
  0
TEXT
  5
10B76
330
747D
100
AcDbEntity
  8
文字
 62
     7
 48
50.0
100
AcDbText
 10
13209.4053442172
 20
76.09434707649343
 30
0.0
 40
100.0
  1
○床面積 ： 5.42㎡(1.64坪) 　
  7
STYLE2
100
AcDbText
  0
TEXT
  5
10B79
330
747D
100
AcDbEntity
  8
文字
 62
     7
 48
50.0
100
AcDbText
 10
14524.131837222
 20
1031.557706291228
 30
0.0
 40
100.0
  1
NO.05     <縮尺> S=1/40
  7
STYLE2
100
AcDbText
  0
LINE
  5
10B7B
330
747D
100
AcDbEntity
  8
仕様書枠
 48
50.0
100
AcDbLine
 10
13107.2
 20
800.0
 30
0.0
 11
14251.2
 21
800.0
 31
0.0
  0
LINE
  5
10B88
330
747D
100
AcDbEntity
  8
仕様書枠
  6
Continuous
 48
50.0
100
AcDbLine
 10
14251.2
 20
1200.0
 30
0.0
 11
14251.2
 21
800.0
 31
0.0
  0
TEXT
  5
13A63
330
747D
100
AcDbEntity
  8
部品1
100
AcDbText
 10
2900.917048687574
 20
3351.353233426626
 30
0.0
 40
125.0
  1
▽G.L
  7
STYLE2
100
AcDbText
  0
TEXT
  5
13B2F
330
747D
100
AcDbEntity
  8
部品1
100
AcDbText
 10
6537.377792648306
 20
6671.562750016987
 30
0.0
 40
135.0
  1
平面図
  7
STYLE2
100
AcDbText
  0
LWPOLYLINE
  5
13B30
330
747D
100
AcDbEntity
  8
部品1
100
AcDbPolyline
 90
        4
 70
     1
 43
0.0
 10
6447.458182819268
 20
6864.45627923551
 10
6447.458182819268
 20
6624.563957689978
 10
7210.928849047707
 20
6624.563957689978
 10
7210.928849047707
 20
6864.45627923551
  0
DIMENSION
  5
1518D
330
747D
100
AcDbEntity
  8
寸法
100
AcDbDimension
  2
*D1
 10
9679.19351593348
 20
7214.933093175146
 30
0.0
 11
6829.193515933488
 21
7214.933093175146
 31
0.0
 70
   160
 71
     5
 42
5699.999999999982
  3
INABA_S40G
100
AcDbAlignedDimension
 13
3979.193515933497
 23
8202.034968035031
 33
0.0
 14
9679.19351593348
 24
8202.03496803535
 34
0.0
100
AcDbRotatedDimension
1001
ACAD
1000
DSTYLE
1002
{
1002
}
  0
LINE
  5
1518E
330
747D
100
AcDbEntity
  8
破線
 48
10.0
100
AcDbLine
 10
8650.193515933491
 20
8357.034968035343
 30
0.0
 11
7858.19351593349
 21
8357.034968035328
 31
0.0
  0
LINE
  5
1518F
330
747D
100
AcDbEntity
  8
部品1
100
AcDbLine
 10
8554.193515933496
 20
8228.034968035384
 30
0.0
 11
7824.193515933497
 21
8228.034968035361
 31
0.0
  0
LINE
  5
15190
330
747D
100
AcDbEntity
  8
部品1
100
AcDbLine
 10
8673.693515933484
 20
8333.534968035342
 30
0.0
 11
7834.693022679599
 21
8333.534465837871
 31
0.0
  0
ARC
  5
15192
330
747D
100
AcDbEntity
  8
想像線
 48
10.0
100
AcDbCircle
 10
8546.841465256337
 20
8203.729861410907
 30
0.0
 40
722.6499369155582
100
AcDbArc
 50
180.1343808685487
 51
270.5829222700354
  0
LINE
  5
15193
330
747D
100
AcDbEntity
  8
部品1
100
AcDbLine
 10
7807.193515933452
 20
9124.034968035322
 30
0.0
 11
8726.574218952105
 21
9124.034968035344
 31
0.0
  0
LINE
  5
15194
330
747D
100
AcDbEntity
  8
部品1
 48
5.0
100
AcDbLine
 10
7803.193515933499
 20
8231.534968035278
 30
0.0
 11
8705.193515933499
 21
8231.534968035337
 31
0.0
  0
LINE
  5
15196
330
747D
100
AcDbEntity
  8
部品1
100
AcDbLine
 10
7808.1935226111
 20
8672.53496803527
 30
0.0
 11
8700.193522611099
 21
8672.534968035371
 31
0.0
  0
LINE
  5
15197
330
747D
100
AcDbEntity
  8
細線
 48
50.0
100
AcDbLine
 10
8700.193522611099
 20
9122.534968035372
 30
0.0
 11
7808.193522611098
 21
8672.53496803527
 31
0.0
  0
LINE
  5
15198
330
747D
100
AcDbEntity
  8
細線
 48
50.0
100
AcDbLine
 10
8700.193522611099
 20
8672.534968035371
 30
0.0
 11
7808.193522611098
 21
9122.534968035271
 31
0.0
  0
LINE
  5
15199
330
747D
100
AcDbEntity
  8
部品1
100
AcDbLine
 10
7808.193522611098
 20
9122.534968035271
 30
0.0
 11
8700.193522611099
 21
9122.534968035379
 31
0.0
  0
DIMENSION
  5
1519A
330
747D
100
AcDbEntity
  8
寸法
100
AcDbDimension
  2
*D2
 10
8674.193515933502
 20
9367.843187660398
 30
0.0
 11
8254.193515933504
 21
9367.843187660398
 31
0.0
 70
   160
  1
2X420=<>
 71
     5
 42
839.9999999999982
  3
INABA_S40G
100
AcDbAlignedDimension
 13
7834.193515933505
 23
9152.034968035328
 33
0.0
 14
8674.193515933502
 24
9152.034968035415
 34
0.0
100
AcDbRotatedDimension
1001
ACAD
1000
DSTYLE
1002
{
1002
}
  0
DIMENSION
  5
1519B
330
747D
100
AcDbEntity
  8
寸法
 48
50.0
100
AcDbDimension
  2
*D3
 10
7834.193515933506
 20
9367.843187660398
 30
0.0
 11
7779.193515933504
 21
9624.7198562749
 31
0.0
 70
   160
 71
     5
 42
110.0000000000036
  3
INABA_S40G
100
AcDbAlignedDimension
 13
7724.193515933503
 23
9152.034968035415
 33
0.0
 14
7834.193515933506
 24
9152.034968035394
 34
0.0
100
AcDbRotatedDimension
1001
ACAD
1000
DSTYLE
1002
{
1070
   279
1070
     2
1002
}
  0
ARC
  5
1519D
330
747D
100
AcDbEntity
  8
想像線
 48
10.0
100
AcDbCircle
 10
7596.841465256336
 20
8203.729861410907
 30
0.0
 40
722.649936915559
100
AcDbArc
 50
180.1343808685458
 51
270.5829222700353
  0
LINE
  5
1519E
330
747D
100
AcDbEntity
  8
想像線
 48
10.0
100
AcDbLine
 10
7604.193515933497
 20
8202.034968035336
 30
0.0
 11
7604.193515933497
 21
7481.117324379545
 31
0.0
  0
DIMENSION
  5
1519F
330
747D
100
AcDbEntity
  8
寸法
100
AcDbDimension
  2
*D4
 10
4034.193515933504
 20
9367.843187660282
 30
0.0
 11
3670.70823455923
 21
9367.843187660282
 31
0.0
 70
   160
 71
     5
 42
55.00000000003637
  3
INABA_S40G
100
AcDbAlignedDimension
 13
3979.193515933468
 23
9152.0349680353
 33
0.0
 14
4034.193515933504
 24
9152.0349680353
 34
0.0
100
AcDbRotatedDimension
1001
ACAD
1000
DSTYLE
1002
{
1002
}
  0
LINE
  5
151A0
330
747D
100
AcDbEntity
  8
部品1
 48
50.0
100
AcDbLine
 10
7750.193522611098
 20
9122.534968035372
 30
0.0
 11
7750.193522611098
 21
8672.534968035371
 31
0.0
  0
LINE
  5
151A1
330
747D
100
AcDbEntity
  8
部品1
 48
50.0
100
AcDbLine
 10
7808.193522611098
 20
9122.534968035264
 30
0.0
 11
7808.193522611098
 21
8672.53496803527
 31
0.0
  0
LINE
  5
151A2
330
747D
100
AcDbEntity
  8
部品1
 48
50.0
100
AcDbLine
 10
7807.193515933483
 20
8257.034968035336
 30
0.0
 11
7807.193515933429
 21
9152.034968035342
 31
0.0
  0
LINE
  5
151A3
330
747D
100
AcDbEntity
  8
部品1
 48
50.0
100
AcDbLine
 10
7751.193515933483
 20
8257.034968035336
 30
0.0
 11
7751.193515933429
 21
9124.034968035344
 31
0.0
  0
LINE
  5
151A4
330
747D
100
AcDbEntity
  8
部品1
 48
50.0
100
AcDbLine
 10
7779.193515933482
 20
8257.034968035336
 30
0.0
 11
7779.193515933482
 21
9097.034968035343
 31
0.0
  0
LINE
  5
151A5
330
747D
100
AcDbEntity
  8
部品1
 48
50.0
100
AcDbLine
 10
4008.193522611098
 20
9122.534968035264
 30
0.0
 11
4008.193522611098
 21
8672.53496803527
 31
0.0
  0
LINE
  5
151A6
330
747D
100
AcDbEntity
  8
部品1
100
AcDbLine
 10
4007.193515933479
 20
8257.034968035247
 30
0.0
 11
4007.193515933504
 21
9124.034968035299
 31
0.0
  0
LINE
  5
151A7
330
747D
100
AcDbEntity
  8
部品1
100
AcDbLine
 10
3979.193515933468
 20
9152.034968035263
 30
0.0
 11
3979.193515933497
 21
8202.034968035254
 31
0.0
  0
LINE
  5
151A8
330
747D
100
AcDbEntity
  8
細線
 48
50.0
100
AcDbLine
 10
7750.193522611098
 20
9122.534968035372
 30
0.0
 11
6858.193522611099
 21
8672.53496803527
 31
0.0
  0
LINE
  5
151A9
330
747D
100
AcDbEntity
  8
細線
 48
50.0
100
AcDbLine
 10
7750.193522611098
 20
8672.534968035371
 30
0.0
 11
6858.193522611099
 21
9122.534968035271
 31
0.0
  0
LINE
  5
151AA
330
747D
100
AcDbEntity
  8
破線
 48
10.0
100
AcDbLine
 10
7700.193515933491
 20
8357.034968035325
 30
0.0
 11
6909.193515933489
 21
8357.034968035305
 31
0.0
  0
LINE
  5
151AC
330
747D
100
AcDbEntity
  8
部品1
 48
5.0
100
AcDbLine
 10
6853.193515933499
 20
8231.534968035337
 30
0.0
 11
7755.193515933498
 21
8231.534968035278
 31
0.0
  0
LINE
  5
151AD
330
747D
100
AcDbEntity
  8
部品1
100
AcDbLine
 10
7604.193515933497
 20
8228.03496803535
 30
0.0
 11
6874.193515933497
 21
8228.034968035322
 31
0.0
  0
LINE
  5
151AE
330
747D
100
AcDbEntity
  8
部品1
100
AcDbLine
 10
7723.694086381661
 20
8333.534387215378
 30
0.0
 11
6885.694487359891
 21
8333.533885726858
 31
0.0
  0
LINE
  5
151AF
330
747D
100
AcDbEntity
  8
部品1
100
AcDbLine
 10
6858.1935226111
 20
8672.53496803527
 30
0.0
 11
7750.193522611098
 21
8672.534968035371
 31
0.0
  0
LINE
  5
151B1
330
747D
100
AcDbEntity
  8
破線
 48
10.0
100
AcDbLine
 10
4059.193580858205
 20
8672.534968035305
 30
0.0
 11
4059.19351593349
 21
8357.034968035305
 31
0.0
  0
LINE
  5
151B2
330
747D
100
AcDbEntity
  8
部品1
 48
5.0
100
AcDbLine
 10
4035.694487358461
 20
8333.534968035394
 30
0.0
 11
4035.693994427151
 21
8672.534968035305
 31
0.0
  0
LINE
  5
151B3
330
747D
100
AcDbEntity
  8
部品1
100
AcDbLine
 10
3979.193515933495
 20
8257.034968035219
 30
0.0
 11
3979.193515933497
 21
8202.034968035219
 31
0.0
  0
LINE
  5
151B4
330
747D
100
AcDbEntity
  8
部品1
100
AcDbLine
 10
4007.193515933495
 20
8257.034968035263
 30
0.0
 11
3979.193515933495
 21
8257.034968035263
 31
0.0
  0
LINE
  5
151B5
330
747D
100
AcDbEntity
  8
部品1
100
AcDbLine
 10
4007.193515933479
 20
8257.034968035247
 30
0.0
 11
3979.193515933495
 21
8257.034968035247
 31
0.0
  0
LINE
  5
151B6
330
747D
100
AcDbEntity
  8
部品1
100
AcDbLine
 10
4007.193515933479
 20
8257.034968035219
 30
0.0
 11
3979.193515933495
 21
8257.034968035219
 31
0.0
  0
LINE
  5
151B7
330
747D
100
AcDbEntity
  8
部品1
 48
2.83
100
AcDbLine
 10
4011.193515933497
 20
8257.034968035219
 30
0.0
 11
4034.193515933497
 21
8257.034968035219
 31
0.0
  0
LINE
  5
151B9
330
747D
100
AcDbEntity
  8
部品1
 48
2.83
100
AcDbLine
 10
3979.193515933497
 20
8257.034968035219
 30
0.0
 11
4002.193515933497
 21
8257.034968035219
 31
0.0
  0
LINE
  5
151BA
330
747D
100
AcDbEntity
  8
部品1
 48
2.83
100
AcDbLine
 10
4034.193515933497
 20
8257.034968035219
 30
0.0
 11
4034.193515933501
 21
8231.534968035219
 31
0.0
  0
LINE
  5
151BB
330
747D
100
AcDbEntity
  8
部品1
 48
2.83
100
AcDbLine
 10
4022.193515933497
 20
8231.534968035219
 30
0.0
 11
4022.193515933497
 21
8202.034968035219
 31
0.0
  0
LINE
  5
151BC
330
747D
100
AcDbEntity
  8
部品1
 48
2.83
100
AcDbLine
 10
3979.193515933497
 20
8202.034968035219
 30
0.0
 11
3979.193515933497
 21
8257.034968035219
 31
0.0
  0
LINE
  5
151BD
330
747D
100
AcDbEntity
  8
部品1
 48
50.0
100
AcDbLine
 10
4035.694487359891
 20
8333.533885726858
 30
0.0
 11
4007.193515933479
 21
8304.514714794393
 31
0.0
  0
LINE
  5
151BE
330
747D
100
AcDbEntity
  8
部品1
100
AcDbLine
 10
4024.193515933497
 20
8228.034968035357
 30
0.0
 11
4024.193515933497
 21
8202.03496803532
 31
0.0
  0
LINE
  5
151BF
330
747D
100
AcDbEntity
  8
部品1
100
AcDbLine
 10
4007.193515933479
 20
8677.034968035263
 30
0.0
 11
3979.193515933479
 21
8677.034968035263
 31
0.0
  0
LINE
  5
151C0
330
747D
100
AcDbEntity
  8
破線
 48
10.0
100
AcDbLine
 10
7858.19351593349
 20
8357.03496803535
 30
0.0
 11
7858.193503502381
 21
8672.534968035346
 31
0.0
  0
LINE
  5
151C1
330
747D
100
AcDbEntity
  8
破線
 48
10.0
100
AcDbLine
 10
7700.193515933491
 20
8357.034968035343
 30
0.0
 11
7700.193507578937
 21
8672.534968035401
 31
0.0
  0
LINE
  5
151C2
330
747D
100
AcDbEntity
  8
部品1
 48
50.0
100
AcDbLine
 10
7723.693515933483
 20
8333.534968035342
 30
0.0
 11
7723.693515933458
 21
8672.534968035401
 31
0.0
  0
LINE
  5
151C3
330
747D
100
AcDbEntity
  8
部品1
 48
50.0
100
AcDbLine
 10
7834.693509589197
 20
8333.534968060005
 30
0.0
 11
7834.693512562059
 21
8672.534968035346
 31
0.0
  0
LINE
  5
151C4
330
747D
100
AcDbEntity
  8
部品1
 48
50.0
100
AcDbLine
 10
7303.69351593349
 20
8672.534968035321
 30
0.0
 11
7303.693353061387
 21
8333.534135872124
 31
0.0
  0
LINE
  5
151C5
330
747D
100
AcDbEntity
  8
部品1
100
AcDbLine
 10
7604.193515933497
 20
8228.034968035386
 30
0.0
 11
7604.193515933497
 21
8202.034968035333
 31
0.0
  0
ARC
  5
151C6
330
747D
100
AcDbEntity
  8
部品1
 48
0.2
100
AcDbCircle
 10
7596.255963762175
 20
8203.032597990556
 30
0.0
 40
8.0
100
AcDbArc
 50
270.0
 51
352.8363522778074
  0
ARC
  5
151C7
330
747D
100
AcDbEntity
  8
部品1
 48
0.2
100
AcDbCircle
 10
7591.255963762174
 20
8203.032597990556
 30
0.0
 40
8.0
100
AcDbArc
 50
187.1636477221926
 51
269.9999999999992
  0
ARC
  5
151C8
330
747D
100
AcDbEntity
  8
細線
 48
0.2
100
AcDbCircle
 10
7596.255963762175
 20
8203.032597990556
 30
0.0
 40
4.049999999999999
100
AcDbArc
 50
194.2603506853988
 51
345.7396493146012
  0
LINE
  5
151C9
330
747D
100
AcDbEntity
  8
部品1
 48
0.2
100
AcDbLine
 10
7591.255963762174
 20
8195.032597990557
 30
0.0
 11
7596.255963762175
 21
8195.032597990557
 31
0.0
  0
LINE
  5
151CA
330
747D
100
AcDbEntity
  8
部品1
 48
5.0
100
AcDbLine
 10
7606.193515933499
 20
8231.534968035337
 30
0.0
 11
7606.193515933499
 21
8202.034968035336
 31
0.0
  0
LINE
  5
151CB
330
747D
100
AcDbEntity
  8
部品1
100
AcDbLine
 10
7824.193515933497
 20
8228.034968035357
 30
0.0
 11
7824.193515933497
 21
8202.03496803532
 31
0.0
  0
LINE
  5
151CC
330
747D
100
AcDbEntity
  8
部品1
 48
5.0
100
AcDbLine
 10
7811.193515933499
 20
8257.034968035336
 30
0.0
 11
7834.193515933499
 21
8257.034968035336
 31
0.0
  0
LINE
  5
151CD
330
747D
100
AcDbEntity
  8
部品1
 48
50.0
100
AcDbLine
 10
7834.69351593348
 20
8333.534968060009
 30
0.0
 11
7807.193515933483
 21
8305.534968035336
 31
0.0
  0
LINE
  5
151CF
330
747D
100
AcDbEntity
  8
部品1
 48
5.0
100
AcDbLine
 10
7803.1935159335
 20
8257.034968035336
 30
0.0
 11
7803.193515933499
 21
8231.534968035337
 31
0.0
  0
LINE
  5
151D0
330
747D
100
AcDbEntity
  8
部品1
100
AcDbLine
 10
7736.193515933497
 20
8231.534968035282
 30
0.0
 11
7736.193515933493
 21
8202.034968035329
 31
0.0
  0
LINE
  5
151D1
330
747D
100
AcDbEntity
  8
部品1
 48
5.0
100
AcDbLine
 10
7736.193515933499
 20
8231.534968035337
 30
0.0
 11
7736.193515933499
 21
8202.034968035336
 31
0.0
  0
LINE
  5
151D2
330
747D
100
AcDbEntity
  8
部品1
 48
5.0
100
AcDbLine
 10
7755.193515933498
 20
8257.034968035336
 30
0.0
 11
7755.193515933498
 21
8231.534968035337
 31
0.0
  0
LINE
  5
151D3
330
747D
100
AcDbEntity
  8
部品1
 48
5.0
100
AcDbLine
 10
7724.193515933499
 20
8257.034968035336
 30
0.0
 11
7724.193515933501
 21
8231.534968035337
 31
0.0
  0
LINE
  5
151D4
330
747D
100
AcDbEntity
  8
部品1
 48
5.0
100
AcDbLine
 10
7747.193515933499
 20
8257.034968035336
 30
0.0
 11
7724.193515933497
 21
8257.034968035336
 31
0.0
  0
LINE
  5
151D5
330
747D
100
AcDbEntity
  8
部品1
 48
50.0
100
AcDbLine
 10
7751.193515933483
 20
8305.534968035336
 30
0.0
 11
7723.693515933483
 21
8333.534968035342
 31
0.0
  0
LINE
  5
151D6
330
747D
100
AcDbEntity
  8
部品1
 48
5.0
100
AcDbLine
 10
7751.193515933483
 20
8257.034968035336
 30
0.0
 11
7807.193515933483
 21
8257.034968035336
 31
0.0
  0
LINE
  5
151D7
330
747D
100
AcDbEntity
  8
部品1
100
AcDbLine
 10
7822.193515933498
 20
8231.534968035289
 30
0.0
 11
7822.193515933498
 21
8202.034968035336
 31
0.0
  0
LINE
  5
151D8
330
747D
100
AcDbEntity
  8
部品1
 48
5.0
100
AcDbLine
 10
7822.193515933498
 20
8231.534968035337
 30
0.0
 11
7822.193515933498
 21
8202.034968035336
 31
0.0
  0
LINE
  5
151D9
330
747D
100
AcDbEntity
  8
部品1
 48
5.0
100
AcDbLine
 10
7834.193515933499
 20
8257.034968035336
 30
0.0
 11
7834.193515933501
 21
8231.534968035337
 31
0.0
  0
LINE
  5
151DA
330
747D
100
AcDbEntity
  8
部品1
 48
5.0
100
AcDbLine
 10
7779.193515933482
 20
8677.034968035339
 30
0.0
 11
7751.193515933431
 21
8677.034968035343
 31
0.0
  0
LINE
  5
151DB
330
747D
100
AcDbEntity
  8
部品1
 48
50.0
100
AcDbLine
 10
7779.193515933475
 20
8677.034968035343
 30
0.0
 11
7807.193515933457
 21
8677.034968035346
 31
0.0
  0
LINE
  5
151DC
330
747D
100
AcDbEntity
  8
部品1
 48
50.0
100
AcDbLine
 10
7779.193515933475
 20
8715.034968035343
 30
0.0
 11
7807.193515933457
 21
8715.034968035347
 31
0.0
  0
LINE
  5
151DD
330
747D
100
AcDbEntity
  8
部品1
100
AcDbLine
 10
6857.193515933504
 20
9124.034968035299
 30
0.0
 11
7776.574218952126
 21
9124.034968035322
 31
0.0
  0
LINE
  5
151DE
330
747D
100
AcDbEntity
  8
部品1
100
AcDbLine
 10
6858.193522611099
 20
9122.534968035271
 30
0.0
 11
7750.193522611098
 21
9122.534968035379
 31
0.0
  0
DIMENSION
  5
151DF
330
747D
100
AcDbEntity
  8
寸法
100
AcDbDimension
  2
*D5
 10
7724.193515933503
 20
9367.843187660398
 30
0.0
 11
7304.193515933504
 21
9367.843187660398
 31
0.0
 70
   160
  1
2X420=<>
 71
     5
 42
839.9999999999982
  3
INABA_S40G
100
AcDbAlignedDimension
 13
6884.193515933505
 23
9152.034968035328
 33
0.0
 14
7724.193515933503
 24
9152.034968035415
 34
0.0
100
AcDbRotatedDimension
1001
ACAD
1000
DSTYLE
1002
{
1002
}
  0
LINE
  5
151E0
330
747D
100
AcDbEntity
  8
部品1
100
AcDbLine
 10
4007.193515933471
 20
9097.03496803527
 30
0.0
 11
3979.193515933472
 21
9097.03496803527
 31
0.0
  0
LINE
  5
151E1
330
747D
100
AcDbEntity
  8
部品1
100
AcDbLine
 10
4034.193515933504
 20
9152.0349680353
 30
0.0
 11
4034.193515933504
 21
9124.034968035299
 31
0.0
  0
LINE
  5
151E2
330
747D
100
AcDbEntity
  8
部品1
100
AcDbLine
 10
4034.193515933468
 20
9152.034968035263
 30
0.0
 11
4034.193515933472
 21
9124.034968035264
 31
0.0
  0
LINE
  5
151E3
330
747D
100
AcDbEntity
  8
部品1
 48
50.0
100
AcDbLine
 10
4008.693522611093
 20
9122.534968035271
 30
0.0
 11
4007.193515933468
 21
9124.034968035264
 31
0.0
  0
LINE
  5
151E4
330
747D
100
AcDbEntity
  8
部品1
100
AcDbLine
 10
7303.693515933467
 20
9152.034968035293
 30
0.0
 11
7303.693515933467
 21
9124.034968035292
 31
0.0
  0
LINE
  5
151E5
330
747D
100
AcDbEntity
  8
部品1
100
AcDbLine
 10
7303.693515933435
 20
9152.034968035259
 30
0.0
 11
7303.693515933435
 21
9124.034968035259
 31
0.0
  0
LINE
  5
151E6
330
747D
100
AcDbEntity
  8
部品1
 48
5.0
100
AcDbLine
 10
7724.193515933501
 20
9124.034968035344
 30
0.0
 11
7724.193515933503
 21
9152.034968035342
 31
0.0
  0
LINE
  5
151E7
330
747D
100
AcDbEntity
  8
部品1
 48
5.0
100
AcDbLine
 10
7753.902790380678
 20
9152.034968035342
 30
0.0
 11
7776.574218952106
 21
9124.034968035344
 31
0.0
  0
LINE
  5
151E8
330
747D
100
AcDbEntity
  8
部品1
 48
5.0
100
AcDbLine
 10
7807.193515933431
 20
9097.034968035343
 30
0.0
 11
7751.193515933431
 21
9097.034968035343
 31
0.0
  0
LINE
  5
151E9
330
747D
100
AcDbEntity
  8
部品1
 48
5.0
100
AcDbLine
 10
7834.193515933506
 20
9152.034968035346
 30
0.0
 11
7834.193515933501
 21
9124.034968035351
 31
0.0
  0
LINE
  5
151EA
330
747D
100
AcDbEntity
  8
部品1
 48
50.0
100
AcDbLine
 10
7749.746123421521
 20
9122.534968035379
 30
0.0
 11
7751.193515933396
 21
9124.03496803531
 31
0.0
  0
LINE
  5
151EB
330
747D
100
AcDbEntity
  8
部品1
 48
50.0
100
AcDbLine
 10
7808.693522611092
 20
9122.534968035271
 30
0.0
 11
7807.193515933469
 21
9124.034968035264
 31
0.0
  0
DIMENSION
  5
151EC
330
747D
100
AcDbEntity
  8
寸法
 48
50.0
100
AcDbDimension
  2
*D6
 10
8784.193515933507
 20
9367.843187660398
 30
0.0
 11
8729.193515933504
 21
9624.7198562749
 31
0.0
 70
   160
 71
     5
 42
110.0000000000036
  3
INABA_S40G
100
AcDbAlignedDimension
 13
8674.193515933502
 23
9152.034968035415
 33
0.0
 14
8784.193515933507
 24
9152.034968035394
 34
0.0
100
AcDbRotatedDimension
1001
ACAD
1000
DSTYLE
1002
{
1070
   279
1070
     2
1002
}
  0
DIMENSION
  5
151ED
330
747D
100
AcDbEntity
  8
寸法
100
AcDbDimension
  2
*D7
 10
10326.61986166791
 20
9097.034968035393
 30
0.0
 11
10326.61986166791
 21
9460.520249409634
 31
0.0
 70
   160
 71
     5
 42
55.0
  3
INABA_S40G
100
AcDbAlignedDimension
 13
9679.193515933505
 23
9152.034968035394
 33
0.0
 14
9679.193515933505
 24
9097.034968035393
 34
0.0
 50
90.0
100
AcDbRotatedDimension
1001
ACAD
1000
DSTYLE
1002
{
1002
}
  0
DIMENSION
  5
151EE
330
747D
100
AcDbEntity
  8
寸法
100
AcDbDimension
  2
*D8
 10
10635.73139248359
 20
8202.034968035379
 30
0.0
 11
10635.73139248359
 21
8676.012686594297
 31
0.0
 70
   160
 71
     5
 42
950.0000000000145
  3
INABA_S40G
100
AcDbAlignedDimension
 13
9679.193515933505
 23
9152.034968035394
 33
0.0
 14
9679.19351593348
 24
8202.034968035379
 34
0.0
 50
90.0
100
AcDbRotatedDimension
1001
ACAD
1000
DSTYLE
1002
{
1002
}
  0
DIMENSION
  5
151EF
330
747D
100
AcDbEntity
  8
寸法
100
AcDbDimension
  2
*D9
 10
10326.61986166789
 20
8202.034968035379
 30
0.0
 11
10326.61986166789
 21
7824.173501130521
 31
0.0
 70
   160
 71
     5
 42
55.0
  3
INABA_S40G
100
AcDbAlignedDimension
 13
9679.19351593348
 23
8257.03496803538
 33
0.0
 14
9679.19351593348
 24
8202.034968035379
 34
0.0
 50
90.0
100
AcDbRotatedDimension
1001
ACAD
1000
DSTYLE
1002
{
1002
}
  0
LINE
  5
151F1
330
747D
100
AcDbEntity
  8
想像線
 48
10.0
100
AcDbLine
 10
8554.193515933496
 20
8202.034968035336
 30
0.0
 11
8554.193515933496
 21
7481.117324379545
 31
0.0
  0
LINE
  5
151F2
330
747D
100
AcDbEntity
  8
想像線
 48
10.0
100
AcDbLine
 10
9504.193515933497
 20
8202.034968035347
 30
0.0
 11
9504.193515933497
 21
7481.117324379553
 31
0.0
  0
ARC
  5
151F3
330
747D
100
AcDbEntity
  8
想像線
 48
10.0
100
AcDbCircle
 10
9496.841465256336
 20
8203.72986141092
 30
0.0
 40
722.6499369155609
100
AcDbArc
 50
180.1343808685446
 51
270.5829222700353
  0
LINE
  5
151F4
330
747D
100
AcDbEntity
  8
部品1
100
AcDbLine
 10
9504.193515933497
 20
8228.034968035386
 30
0.0
 11
8774.193515933497
 21
8228.034968035332
 31
0.0
  0
LINE
  5
151F5
330
747D
100
AcDbEntity
  8
部品1
100
AcDbLine
 10
9622.692544508689
 20
8333.535073748233
 30
0.0
 11
8784.693515933481
 21
8333.534968060009
 31
0.0
  0
LINE
  5
151F6
330
747D
100
AcDbEntity
  8
破線
 48
10.0
100
AcDbLine
 10
9599.193515933484
 20
8357.034968035387
 30
0.0
 11
8808.19351593349
 21
8357.03496803535
 31
0.0
  0
LINE
  5
151F7
330
747D
100
AcDbEntity
  8
部品1
 48
5.0
100
AcDbLine
 10
9636.193515933479
 20
8231.534968035337
 30
0.0
 11
8753.193515933499
 21
8231.534968035337
 31
0.0
  0
LINE
  5
151F8
330
747D
100
AcDbEntity
  8
部品1
100
AcDbLine
 10
8757.193515933428
 20
9124.034968035346
 30
0.0
 11
9651.193515933506
 21
9124.034968035394
 31
0.0
  0
LINE
  5
151F9
330
747D
100
AcDbEntity
  8
細線
 48
50.0
100
AcDbLine
 10
9650.193522611099
 20
8672.534968035371
 30
0.0
 11
8758.193522611099
 21
9122.534968035271
 31
0.0
  0
LINE
  5
151FA
330
747D
100
AcDbEntity
  8
細線
 48
50.0
100
AcDbLine
 10
9650.193522611099
 20
9122.534968035372
 30
0.0
 11
8758.193522611099
 21
8672.53496803527
 31
0.0
  0
LINE
  5
151FB
330
747D
100
AcDbEntity
  8
部品1
100
AcDbLine
 10
8758.193522611099
 20
8672.53496803527
 30
0.0
 11
9650.193522611099
 21
8672.534968035371
 31
0.0
  0
LINE
  5
151FD
330
747D
100
AcDbEntity
  8
部品1
100
AcDbLine
 10
8758.193522611099
 20
9122.534968035271
 30
0.0
 11
9650.193522611099
 21
9122.534968035379
 31
0.0
  0
DIMENSION
  5
151FE
330
747D
100
AcDbEntity
  8
寸法
100
AcDbDimension
  2
*D10
 10
9624.193515933503
 20
9367.843187660398
 30
0.0
 11
9204.193515933503
 21
9367.843187660398
 31
0.0
 70
   160
  1
2X420=<>
 71
     5
 42
839.9999999999982
  3
INABA_S40G
100
AcDbAlignedDimension
 13
8784.193515933505
 23
9152.034968035328
 33
0.0
 14
9624.193515933503
 24
9152.034968035415
 34
0.0
100
AcDbRotatedDimension
1001
ACAD
1000
DSTYLE
1002
{
1002
}
  0
LINE
  5
151FF
330
747D
100
AcDbEntity
  8
部品1
 48
50.0
100
AcDbLine
 10
8700.193522611099
 20
9122.534968035372
 30
0.0
 11
8700.193522611099
 21
8672.534968035371
 31
0.0
  0
LINE
  5
15200
330
747D
100
AcDbEntity
  8
部品1
 48
50.0
100
AcDbLine
 10
8758.193522611099
 20
9122.534968035264
 30
0.0
 11
8758.193522611099
 21
8672.53496803527
 31
0.0
  0
LINE
  5
15201
330
747D
100
AcDbEntity
  8
部品1
 48
50.0
100
AcDbLine
 10
8757.193515933483
 20
8257.034968035336
 30
0.0
 11
8757.193515933428
 21
9152.034968035342
 31
0.0
  0
LINE
  5
15202
330
747D
100
AcDbEntity
  8
部品1
 48
50.0
100
AcDbLine
 10
8701.193515933482
 20
8257.034968035336
 30
0.0
 11
8701.193515933431
 21
9124.034968035344
 31
0.0
  0
LINE
  5
15203
330
747D
100
AcDbEntity
  8
部品1
 48
50.0
100
AcDbLine
 10
8729.193515933483
 20
8257.034968035336
 30
0.0
 11
8729.193515933483
 21
9097.034968035343
 31
0.0
  0
LINE
  5
15204
330
747D
100
AcDbEntity
  8
部品1
 48
50.0
100
AcDbLine
 10
8253.693515933489
 20
8672.534968035321
 30
0.0
 11
8253.693353061386
 21
8333.534135872124
 31
0.0
  0
LINE
  5
15205
330
747D
100
AcDbEntity
  8
部品1
100
AcDbLine
 10
8554.193515933496
 20
8228.034968035386
 30
0.0
 11
8554.193515933496
 21
8202.034968035333
 31
0.0
  0
ARC
  5
15206
330
747D
100
AcDbEntity
  8
部品1
 48
0.2
100
AcDbCircle
 10
8546.255963762176
 20
8203.032597990556
 30
0.0
 40
8.0
100
AcDbArc
 50
270.0
 51
352.8363522778074
  0
ARC
  5
15207
330
747D
100
AcDbEntity
  8
細線
 48
0.2
100
AcDbCircle
 10
8546.255963762176
 20
8203.032597990556
 30
0.0
 40
4.049999999999999
100
AcDbArc
 50
194.2603506853988
 51
345.7396493146012
  0
LINE
  5
15208
330
747D
100
AcDbEntity
  8
部品1
 48
0.2
100
AcDbLine
 10
8541.255963762173
 20
8195.032597990557
 30
0.0
 11
8546.255963762176
 21
8195.032597990557
 31
0.0
  0
LINE
  5
15209
330
747D
100
AcDbEntity
  8
部品1
 48
5.0
100
AcDbLine
 10
8556.193515933498
 20
8231.534968035337
 30
0.0
 11
8556.193515933498
 21
8202.034968035336
 31
0.0
  0
ARC
  5
1520A
330
747D
100
AcDbEntity
  8
部品1
 48
0.2
100
AcDbCircle
 10
8541.255963762173
 20
8203.032597990556
 30
0.0
 40
8.0
100
AcDbArc
 50
187.1636477221926
 51
269.9999999999992
  0
LINE
  5
1520B
330
747D
100
AcDbEntity
  8
破線
 48
10.0
100
AcDbLine
 10
8808.19351593349
 20
8357.03496803535
 30
0.0
 11
8808.19350350238
 21
8672.534968035346
 31
0.0
  0
LINE
  5
1520C
330
747D
100
AcDbEntity
  8
破線
 48
10.0
100
AcDbLine
 10
8650.193515933491
 20
8357.034968035343
 30
0.0
 11
8650.193507578938
 21
8672.534968035401
 31
0.0
  0
LINE
  5
1520D
330
747D
100
AcDbEntity
  8
部品1
 48
50.0
100
AcDbLine
 10
8673.693515933484
 20
8333.534968035342
 30
0.0
 11
8673.693515933457
 21
8672.534968035401
 31
0.0
  0
LINE
  5
1520E
330
747D
100
AcDbEntity
  8
部品1
 48
50.0
100
AcDbLine
 10
8784.693509589196
 20
8333.534968060005
 30
0.0
 11
8784.693512562059
 21
8672.534968035346
 31
0.0
  0
LINE
  5
1520F
330
747D
100
AcDbEntity
  8
部品1
 48
50.0
100
AcDbLine
 10
9203.69351593349
 20
8672.534968035321
 30
0.0
 11
9203.693353061387
 21
8333.534135872124
 31
0.0
  0
LINE
  5
15210
330
747D
100
AcDbEntity
  8
部品1
100
AcDbLine
 10
8772.193515933498
 20
8231.534968035289
 30
0.0
 11
8772.1935159335
 21
8202.034968035336
 31
0.0
  0
LINE
  5
15211
330
747D
100
AcDbEntity
  8
部品1
100
AcDbLine
 10
8774.193515933497
 20
8228.034968035329
 30
0.0
 11
8774.193515933495
 21
8202.034968035336
 31
0.0
  0
LINE
  5
15212
330
747D
100
AcDbEntity
  8
部品1
 48
5.0
100
AcDbLine
 10
8772.1935159335
 20
8231.534968035337
 30
0.0
 11
8772.1935159335
 21
8202.034968035336
 31
0.0
  0
LINE
  5
15213
330
747D
100
AcDbEntity
  8
部品1
 48
5.0
100
AcDbLine
 10
8784.1935159335
 20
8257.034968035336
 30
0.0
 11
8784.1935159335
 21
8231.534968035337
 31
0.0
  0
LINE
  5
15214
330
747D
100
AcDbEntity
  8
部品1
 48
5.0
100
AcDbLine
 10
8753.193515933501
 20
8257.034968035336
 30
0.0
 11
8753.193515933499
 21
8231.534968035337
 31
0.0
  0
LINE
  5
15215
330
747D
100
AcDbEntity
  8
部品1
 48
5.0
100
AcDbLine
 10
8705.193515933499
 20
8257.034968035336
 30
0.0
 11
8705.193515933499
 21
8231.534968035337
 31
0.0
  0
LINE
  5
15216
330
747D
100
AcDbEntity
  8
部品1
 48
5.0
100
AcDbLine
 10
8701.193515933482
 20
8257.034968035336
 30
0.0
 11
8757.193515933483
 21
8257.034968035336
 31
0.0
  0
LINE
  5
15217
330
747D
100
AcDbEntity
  8
部品1
 48
5.0
100
AcDbLine
 10
8761.193515933499
 20
8257.034968035336
 30
0.0
 11
8784.1935159335
 21
8257.034968035336
 31
0.0
  0
LINE
  5
15218
330
747D
100
AcDbEntity
  8
部品1
 48
50.0
100
AcDbLine
 10
8784.693515933481
 20
8333.534968060009
 30
0.0
 11
8757.193515933483
 21
8305.534968035336
 31
0.0
  0
LINE
  5
15219
330
747D
100
AcDbEntity
  8
部品1
100
AcDbLine
 10
8686.193515933497
 20
8231.534968035282
 30
0.0
 11
8686.193515933494
 21
8202.034968035329
 31
0.0
  0
LINE
  5
1521A
330
747D
100
AcDbEntity
  8
部品1
 48
5.0
100
AcDbLine
 10
8686.193515933499
 20
8231.534968035337
 30
0.0
 11
8686.193515933499
 21
8202.034968035336
 31
0.0
  0
LINE
  5
1521B
330
747D
100
AcDbEntity
  8
部品1
 48
5.0
100
AcDbLine
 10
8674.193515933499
 20
8257.034968035336
 30
0.0
 11
8674.193515933501
 21
8231.534968035337
 31
0.0
  0
LINE
  5
1521D
330
747D
100
AcDbEntity
  8
部品1
 48
5.0
100
AcDbLine
 10
8697.193515933498
 20
8257.034968035336
 30
0.0
 11
8674.193515933497
 21
8257.034968035336
 31
0.0
  0
LINE
  5
1521E
330
747D
100
AcDbEntity
  8
部品1
 48
50.0
100
AcDbLine
 10
8701.193515933482
 20
8305.534968035336
 30
0.0
 11
8673.693515933484
 21
8333.534968035342
 31
0.0
  0
LINE
  5
1521F
330
747D
100
AcDbEntity
  8
部品1
 48
5.0
100
AcDbLine
 10
8729.193515933483
 20
8677.034968035339
 30
0.0
 11
8701.193515933431
 21
8677.034968035343
 31
0.0
  0
LINE
  5
15220
330
747D
100
AcDbEntity
  8
部品1
 48
50.0
100
AcDbLine
 10
8729.193515933475
 20
8677.034968035343
 30
0.0
 11
8757.193515933456
 21
8677.034968035346
 31
0.0
  0
LINE
  5
15221
330
747D
100
AcDbEntity
  8
部品1
 48
50.0
100
AcDbLine
 10
8729.193515933475
 20
8715.034968035343
 30
0.0
 11
8757.193515933456
 21
8715.034968035347
 31
0.0
  0
LINE
  5
15222
330
747D
100
AcDbEntity
  8
部品1
100
AcDbLine
 10
8253.693515933434
 20
9152.034968035227
 30
0.0
 11
8253.693515933434
 21
9124.034968035227
 31
0.0
  0
LINE
  5
15223
330
747D
100
AcDbEntity
  8
部品1
100
AcDbLine
 10
8253.693515933468
 20
9152.034968035259
 30
0.0
 11
8253.693515933468
 21
9124.034968035259
 31
0.0
  0
LINE
  5
15224
330
747D
100
AcDbEntity
  8
部品1
 48
5.0
100
AcDbLine
 10
8784.193515933507
 20
9152.034968035346
 30
0.0
 11
8784.1935159335
 21
9124.034968035351
 31
0.0
  0
LINE
  5
15225
330
747D
100
AcDbEntity
  8
部品1
 48
5.0
100
AcDbLine
 10
8703.902790380679
 20
9152.034968035342
 30
0.0
 11
8726.574218952107
 21
9124.034968035344
 31
0.0
  0
LINE
  5
15226
330
747D
100
AcDbEntity
  8
部品1
 48
5.0
100
AcDbLine
 10
8757.193515933431
 20
9097.034968035343
 30
0.0
 11
8701.193515933431
 21
9097.034968035343
 31
0.0
  0
LINE
  5
15227
330
747D
100
AcDbEntity
  8
部品1
 48
50.0
100
AcDbLine
 10
8699.746123421521
 20
9122.534968035379
 30
0.0
 11
8701.193515933395
 21
9124.03496803531
 31
0.0
  0
LINE
  5
15228
330
747D
100
AcDbEntity
  8
部品1
 48
50.0
100
AcDbLine
 10
8758.693522611093
 20
9122.534968035271
 30
0.0
 11
8757.193515933469
 21
9124.034968035264
 31
0.0
  0
LINE
  5
15229
330
747D
100
AcDbEntity
  8
部品1
 48
5.0
100
AcDbLine
 10
8674.193515933501
 20
9124.034968035344
 30
0.0
 11
8674.193515933502
 21
9152.034968035342
 31
0.0
  0
LINE
  5
1522A
330
747D
100
AcDbEntity
  8
部品1
100
AcDbLine
 10
9203.693515933467
 20
9152.034968035332
 30
0.0
 11
9203.693515933467
 21
9124.034968035331
 31
0.0
  0
LINE
  5
1522B
330
747D
100
AcDbEntity
  8
部品1
100
AcDbLine
 10
9203.693515933435
 20
9152.0349680353
 30
0.0
 11
9203.693515933435
 21
9124.034968035299
 31
0.0
  0
LINE
  5
1522C
330
747D
100
AcDbEntity
  8
部品1
 48
50.0
100
AcDbLine
 10
9650.193522611099
 20
9122.534968035372
 30
0.0
 11
9650.193522611099
 21
8672.534968035371
 31
0.0
  0
LINE
  5
1522D
330
747D
100
AcDbEntity
  8
部品1
100
AcDbLine
 10
9651.193515933506
 20
9124.034968035394
 30
0.0
 11
9651.193515933481
 21
8257.03496803538
 31
0.0
  0
DIMENSION
  5
1522E
330
747D
100
AcDbEntity
  8
寸法
100
AcDbDimension
  2
*D11
 10
10326.61986166791
 20
8257.03496803538
 30
0.0
 11
10326.61986166791
 21
8677.034968035389
 31
0.0
 70
   160
  1
2X420=<>
 71
     5
 42
840.0000000000146
  3
INABA_S40G
100
AcDbAlignedDimension
 13
9679.193515933505
 23
9097.034968035393
 33
0.0
 14
9679.19351593348
 24
8257.03496803538
 34
0.0
 50
90.0
100
AcDbRotatedDimension
1001
ACAD
1000
DSTYLE
1002
{
1002
}
  0
LINE
  5
1522F
330
747D
100
AcDbEntity
  8
部品1
100
AcDbLine
 10
9679.193515933505
 20
9152.034968035394
 30
0.0
 11
9679.19351593348
 21
8202.034968035379
 31
0.0
  0
DIMENSION
  5
15230
330
747D
100
AcDbEntity
  8
寸法
100
AcDbDimension
  2
*D12
 10
10005.55124847314
 20
8577.317152366381
 30
0.0
 11
10005.55124847313
 21
8802.317152366377
 31
0.0
 70
   160
 71
     5
 42
449.9999999999927
  3
INABA_S40G
100
AcDbAlignedDimension
 13
9650.193522611113
 23
9122.534968035264
 33
0.0
 14
9650.193522611125
 24
8672.53496803527
 34
0.0
 50
90.0
100
AcDbRotatedDimension
1001
ACAD
1000
DSTYLE
1002
{
1002
}
  0
LINE
  5
15231
330
747D
100
AcDbEntity
  8
破線
 48
10.0
100
AcDbLine
 10
9599.193580858173
 20
8672.534968035343
 30
0.0
 11
9599.193515933485
 21
8357.034968035387
 31
0.0
  0
LINE
  5
15232
330
747D
100
AcDbEntity
  8
部品1
 48
5.0
100
AcDbLine
 10
9622.692544508547
 20
8333.534968035394
 30
0.0
 11
9622.693037439859
 21
8672.534968035339
 31
0.0
  0
LINE
  5
15233
330
747D
100
AcDbEntity
  8
部品1
100
AcDbLine
 10
9504.193515933497
 20
8228.034968035386
 30
0.0
 11
9504.193515933497
 21
8202.034968035379
 31
0.0
  0
LINE
  5
15234
330
747D
100
AcDbEntity
  8
部品1
 48
0.2
100
AcDbLine
 10
9491.255963762176
 20
8195.032597990575
 30
0.0
 11
9496.255963762177
 21
8195.032597990575
 31
0.0
  0
ARC
  5
15235
330
747D
100
AcDbEntity
  8
部品1
 48
0.2
100
AcDbCircle
 10
9496.255963762177
 20
8203.032597990576
 30
0.0
 40
8.0
100
AcDbArc
 50
270.0
 51
352.8363522778074
  0
ARC
  5
15236
330
747D
100
AcDbEntity
  8
部品1
 48
0.2
100
AcDbCircle
 10
9491.255963762176
 20
8203.032597990576
 30
0.0
 40
8.0
100
AcDbArc
 50
187.1636477221926
 51
269.9999999999992
  0
ARC
  5
15237
330
747D
100
AcDbEntity
  8
細線
 48
0.2
100
AcDbCircle
 10
9496.255963762177
 20
8203.032597990576
 30
0.0
 40
4.049999999999999
100
AcDbArc
 50
194.2603506853988
 51
345.7396493146012
  0
LINE
  5
15238
330
747D
100
AcDbEntity
  8
部品1
 48
2.83
100
AcDbLine
 10
9506.19351593348
 20
8231.534968035351
 30
0.0
 11
9506.19351593348
 21
8202.03496803535
 31
0.0
  0
LINE
  5
15239
330
747D
100
AcDbEntity
  8
部品1
100
AcDbLine
 10
9651.193515933513
 20
8257.034968035394
 30
0.0
 11
9679.193515933512
 21
8257.034968035394
 31
0.0
  0
LINE
  5
1523A
330
747D
100
AcDbEntity
  8
部品1
100
AcDbLine
 10
9651.193515933481
 20
8257.03496803538
 30
0.0
 11
9679.19351593348
 21
8257.03496803538
 31
0.0
  0
LINE
  5
1523B
330
747D
100
AcDbEntity
  8
部品1
 48
2.83
100
AcDbLine
 10
9647.19351593348
 20
8257.03496803535
 30
0.0
 11
9624.193515933479
 21
8257.03496803535
 31
0.0
  0
LINE
  5
1523C
330
747D
100
AcDbEntity
  8
部品1
 48
2.83
100
AcDbLine
 10
9679.19351593348
 20
8257.03496803535
 30
0.0
 11
9656.19351593348
 21
8257.03496803535
 31
0.0
  0
LINE
  5
1523D
330
747D
100
AcDbEntity
  8
部品1
 48
2.83
100
AcDbLine
 10
9624.193515933479
 20
8257.03496803535
 30
0.0
 11
9624.193515933479
 21
8231.534968035351
 31
0.0
  0
LINE
  5
1523E
330
747D
100
AcDbEntity
  8
部品1
 48
2.83
100
AcDbLine
 10
9636.193515933479
 20
8231.534968035351
 30
0.0
 11
9636.193515933479
 21
8202.03496803535
 31
0.0
  0
LINE
  5
1523F
330
747D
100
AcDbEntity
  8
部品1
 48
50.0
100
AcDbLine
 10
9651.193515933481
 20
8304.515902842981
 30
0.0
 11
9622.692544508689
 21
8333.535073748233
 31
0.0
  0
LINE
  5
15240
330
747D
100
AcDbEntity
  8
部品1
100
AcDbLine
 10
9651.193515933506
 20
8677.034968035394
 30
0.0
 11
9679.193515933505
 21
8677.034968035394
 31
0.0
  0
DIMENSION
  5
15241
330
747D
100
AcDbEntity
  8
寸法
100
AcDbDimension
  2
*D13
 10
9679.193515933505
 20
9367.843187660374
 30
0.0
 11
9987.678797307744
 21
9367.843187660374
 31
0.0
 70
   160
 71
     5
 42
55.0
  3
INABA_S40G
100
AcDbAlignedDimension
 13
9624.193515933505
 23
9152.034968035394
 33
0.0
 14
9679.193515933505
 24
9152.034968035394
 34
0.0
100
AcDbRotatedDimension
1001
ACAD
1000
DSTYLE
1002
{
1002
}
  0
LINE
  5
15242
330
747D
100
AcDbEntity
  8
部品1
100
AcDbLine
 10
9624.193515933505
 20
9152.034968035408
 30
0.0
 11
9624.193515933505
 21
9124.034968035408
 31
0.0
  0
LINE
  5
15243
330
747D
100
AcDbEntity
  8
部品1
100
AcDbLine
 10
9624.193515933505
 20
9152.034968035394
 30
0.0
 11
9624.193515933505
 21
9124.034968035394
 31
0.0
  0
LINE
  5
15244
330
747D
100
AcDbEntity
  8
部品1
100
AcDbLine
 10
9651.193515933506
 20
9097.034968035393
 30
0.0
 11
9679.193515933505
 21
9097.034968035393
 31
0.0
  0
LINE
  5
15245
330
747D
100
AcDbEntity
  8
部品1
 48
50.0
100
AcDbLine
 10
9649.746123421522
 20
9122.534968035379
 30
0.0
 11
9651.193515933396
 21
9124.03496803531
 31
0.0
  0
LINE
  5
15246
330
747D
100
AcDbEntity
  8
部品1
100
AcDbLine
 10
7824.193515933497
 20
5252.746329820722
 30
0.0
 11
8534.131068104818
 21
5252.746329820723
 31
0.0
  0
LINE
  5
15247
330
747D
100
AcDbEntity
  8
部品1
100
AcDbLine
 10
7824.193515933497
 20
3461.746329820738
 30
0.0
 11
8534.131068104818
 21
3461.746329820743
 31
0.0
  0
LINE
  5
15251
330
747D
100
AcDbEntity
  8
部品1
100
AcDbLine
 10
7822.193515933498
 20
5255.246329820725
 30
0.0
 11
7822.193515933498
 21
3458.246329820744
 31
0.0
  0
LINE
  5
15252
330
747D
100
AcDbEntity
  8
部品1
100
AcDbLine
 10
7824.193515933497
 20
5252.746329820723
 30
0.0
 11
7824.193515933497
 21
3461.746329820738
 31
0.0
  0
LINE
  5
15253
330
747D
100
AcDbEntity
  8
部品1
100
AcDbLine
 10
4022.193515933497
 20
5255.246329820725
 30
0.0
 11
4022.193515933497
 21
3458.246329820744
 31
0.0
  0
LINE
  5
15254
330
747D
100
AcDbEntity
  8
部品1
100
AcDbLine
 10
3979.193515933497
 20
5349.246329820728
 30
0.0
 11
3979.193515933497
 21
3315.246329820725
 31
0.0
  0
LINE
  5
15255
330
747D
100
AcDbEntity
  8
部品1
100
AcDbLine
 10
4024.193515933497
 20
5252.746329820728
 30
0.0
 11
4024.193515933497
 21
3461.74632982073
 31
0.0
  0
LINE
  5
15256
330
747D
100
AcDbEntity
  8
部品1
100
AcDbLine
 10
7604.193515933495
 20
5252.746329820723
 30
0.0
 11
7604.193515933497
 21
3461.746329820745
 31
0.0
  0
LINE
  5
15257
330
747D
100
AcDbEntity
  8
部品1
100
AcDbLine
 10
7736.193515933497
 20
5255.246329820725
 30
0.0
 11
7736.193515933497
 21
3458.246329820744
 31
0.0
  0
DIMENSION
  5
15258
330
747D
100
AcDbEntity
  8
寸法
100
AcDbDimension
  2
*D14
 10
3661.088988325894
 20
3476.746329820728
 30
0.0
 11
3661.088988325893
 21
4355.746329820726
 31
0.0
 70
   160
  1
有効開口部高サ<>
 71
     5
 42
1759.999999999996
  3
INABA_S40G
100
AcDbAlignedDimension
 13
3979.193515933497
 23
5236.746329820724
 33
0.0
 14
3979.193515933497
 24
3476.746329820728
 34
0.0
 50
90.0
100
AcDbRotatedDimension
1001
ACAD
1000
DSTYLE
1002
{
1070
   288
1070
     1
1002
}
  0
LINE
  5
15259
330
747D
100
AcDbEntity
  8
部品1
100
AcDbLine
 10
7606.193515933497
 20
5255.246329820725
 30
0.0
 11
7606.193515933497
 21
3458.246329820744
 31
0.0
  0
LINE
  5
1525A
330
747D
100
AcDbEntity
  8
部品1
100
AcDbLine
 10
6874.193515933497
 20
3461.74632982073
 30
0.0
 11
7584.131068104817
 21
3461.746329820745
 31
0.0
  0
LINE
  5
1525C
330
747D
100
AcDbEntity
  8
部品1
100
AcDbLine
 10
7604.131068104816
 20
3461.746329820736
 30
0.0
 11
7604.193515933497
 21
3461.746329820736
 31
0.0
  0
LINE
  5
1525D
330
747D
100
AcDbEntity
  8
部品1
100
AcDbLine
 10
7604.131068104816
 20
3461.746329820745
 30
0.0
 11
7604.193515933497
 21
3461.746329820745
 31
0.0
  0
ARC
  5
1525E
330
747D
100
AcDbEntity
  8
細線
 48
0.2
100
AcDbCircle
 10
7601.131068104816
 20
3461.525819989495
 30
0.0
 40
1.0
100
AcDbArc
 50
286.6015495990217
 51
0.0
  0
LINE
  5
1525F
330
747D
100
AcDbEntity
  8
細線
 48
50.0
100
AcDbLine
 10
7600.118720956476
 20
3463.996329820745
 30
0.0
 11
7600.118720956476
 21
3465.996329820743
 31
0.0
  0
LINE
  5
15260
330
747D
100
AcDbEntity
  8
細線
 48
0.1
100
AcDbLine
 10
7604.131068104816
 20
3461.496329820743
 30
0.0
 11
7604.131068104816
 21
3468.496329820743
 31
0.0
  0
LINE
  5
15261
330
747D
100
AcDbEntity
  8
細線
 48
50.0
100
AcDbLine
 10
7584.131068104817
 20
3461.746329820745
 30
0.0
 11
7584.131068104817
 21
3461.496329820743
 31
0.0
  0
ARC
  5
15262
330
747D
100
AcDbEntity
  8
細線
 48
0.2
100
AcDbCircle
 10
7591.131068104816
 20
3461.525819989495
 30
0.0
 40
1.0
100
AcDbArc
 50
179.9999999999984
 51
253.3984504009775
  0
LINE
  5
15263
330
747D
100
AcDbEntity
  8
部品1
 48
50.0
100
AcDbLine
 10
7584.131068104817
 20
3468.496329820743
 30
0.0
 11
7584.131068104817
 21
3461.746329820745
 31
0.0
  0
LINE
  5
15264
330
747D
100
AcDbEntity
  8
細線
 48
50.0
100
AcDbLine
 10
7592.268310910514
 20
3463.996329820745
 30
0.0
 11
7592.268310910514
 21
3465.996329820743
 31
0.0
  0
LINE
  5
15265
330
747D
100
AcDbEntity
  8
部品1
 48
0.2
100
AcDbLine
 10
7604.131068104816
 20
3468.496329820743
 30
0.0
 11
7584.131068104817
 21
3468.496329820743
 31
0.0
  0
LINE
  5
15266
330
747D
100
AcDbEntity
  8
細線
 48
0.2
100
AcDbLine
 10
7604.131068104816
 20
3465.996329820743
 30
0.0
 11
7584.131068104817
 21
3465.996329820743
 31
0.0
  0
LINE
  5
15267
330
747D
100
AcDbEntity
  8
細線
 48
0.2
100
AcDbLine
 10
7601.815059401324
 20
3460.796329820742
 30
0.0
 11
7590.447076808311
 21
3460.796329820742
 31
0.0
  0
ARC
  5
15268
330
747D
100
AcDbEntity
  8
細線
 48
0.2
100
AcDbCircle
 10
7596.131068104816
 20
3478.29632982074
 30
0.0
 40
18.49999999999796
100
AcDbArc
 50
253.3984504009772
 51
286.6015495990217
  0
LINE
  5
15269
330
747D
100
AcDbEntity
  8
細線
 48
0.2
100
AcDbLine
 10
7604.131068104816
 20
3463.996329820743
 30
0.0
 11
7584.131068104817
 21
3463.996329820745
 31
0.0
  0
LINE
  5
1526A
330
747D
100
AcDbEntity
  8
細線
 48
0.2
100
AcDbLine
 10
7604.131068104816
 20
3461.496329820743
 30
0.0
 11
7584.131068104817
 21
3461.496329820743
 31
0.0
  0
LINE
  5
152BB
330
747D
100
AcDbEntity
  8
部品1
100
AcDbLine
 10
6874.193515933497
 20
5252.746329820726
 30
0.0
 11
7584.131068104817
 21
5252.746329820726
 31
0.0
  0
LINE
  5
152BC
330
747D
100
AcDbEntity
  8
部品1
100
AcDbLine
 10
7604.131068104816
 20
5252.746329820726
 30
0.0
 11
7604.193515933497
 21
5252.746329820723
 31
0.0
  0
ARC
  5
152BD
330
747D
100
AcDbEntity
  8
細線
 48
0.2
100
AcDbCircle
 10
7601.131068104816
 20
5252.966839651974
 30
0.0
 40
1.0
100
AcDbArc
 50
0.0
 51
73.39845040097829
  0
LINE
  5
152BE
330
747D
100
AcDbEntity
  8
細線
 48
50.0
100
AcDbLine
 10
7584.131068104817
 20
5252.746329820726
 30
0.0
 11
7584.131068104817
 21
5252.996329820725
 31
0.0
  0
ARC
  5
152BF
330
747D
100
AcDbEntity
  8
細線
 48
0.2
100
AcDbCircle
 10
7591.131068104816
 20
5252.966839651974
 30
0.0
 40
1.0
100
AcDbArc
 50
106.6015495990225
 51
180.0000000000016
  0
LINE
  5
152C0
330
747D
100
AcDbEntity
  8
細線
 48
0.2
100
AcDbLine
 10
7604.131068104816
 20
5252.996329820725
 30
0.0
 11
7584.131068104817
 21
5252.996329820725
 31
0.0
  0
LINE
  5
152C1
330
747D
100
AcDbEntity
  8
細線
 48
0.2
100
AcDbLine
 10
7604.131068104816
 20
5250.496329820726
 30
0.0
 11
7584.131068104817
 21
5250.496329820726
 31
0.0
  0
ARC
  5
152C2
330
747D
100
AcDbEntity
  8
細線
 48
0.2
100
AcDbCircle
 10
7596.131068104816
 20
5236.196329820728
 30
0.0
 40
18.49999999999796
100
AcDbArc
 50
73.39845040097829
 51
106.6015495990228
  0
LINE
  5
152C3
330
747D
100
AcDbEntity
  8
細線
 48
0.2
100
AcDbLine
 10
7601.815059401324
 20
5253.696329820726
 30
0.0
 11
7590.447076808311
 21
5253.696329820726
 31
0.0
  0
LINE
  5
152C4
330
747D
100
AcDbEntity
  8
細線
 48
0.2
100
AcDbLine
 10
7604.131068104816
 20
5248.496329820726
 30
0.0
 11
7584.131068104817
 21
5248.496329820726
 31
0.0
  0
LINE
  5
152C5
330
747D
100
AcDbEntity
  8
部品1
 48
0.2
100
AcDbLine
 10
7604.131068104816
 20
5245.996329820726
 30
0.0
 11
7584.131068104817
 21
5245.996329820726
 31
0.0
  0
LINE
  5
152C6
330
747D
100
AcDbEntity
  8
部品1
 48
50.0
100
AcDbLine
 10
7584.131068104817
 20
5245.996329820726
 30
0.0
 11
7584.131068104817
 21
5252.746329820726
 31
0.0
  0
LINE
  5
152C7
330
747D
100
AcDbEntity
  8
細線
 48
50.0
100
AcDbLine
 10
7592.268310910514
 20
5250.496329820726
 30
0.0
 11
7592.268310910514
 21
5248.496329820726
 31
0.0
  0
LINE
  5
152C8
330
747D
100
AcDbEntity
  8
細線
 48
0.1
100
AcDbLine
 10
7604.131068104816
 20
5252.996329820725
 30
0.0
 11
7604.131068104816
 21
5245.996329820726
 31
0.0
  0
LINE
  5
152C9
330
747D
100
AcDbEntity
  8
細線
 48
50.0
100
AcDbLine
 10
7600.118720956476
 20
5250.496329820726
 30
0.0
 11
7600.118720956476
 21
5248.496329820726
 31
0.0
  0
LINE
  5
152E4
330
747D
100
AcDbEntity
  8
部品1
100
AcDbLine
 10
8686.193515933497
 20
5255.246329820725
 30
0.0
 11
8686.193515933497
 21
3458.246329820744
 31
0.0
  0
LINE
  5
152E5
330
747D
100
AcDbEntity
  8
部品1
100
AcDbLine
 10
8554.193515933496
 20
5252.746329820723
 30
0.0
 11
8554.193515933496
 21
3461.746329820746
 31
0.0
  0
LINE
  5
152E6
330
747D
100
AcDbEntity
  8
部品1
100
AcDbLine
 10
8556.193515933498
 20
5255.246329820725
 30
0.0
 11
8556.193515933498
 21
3458.246329820744
 31
0.0
  0
LINE
  5
152E7
330
747D
100
AcDbEntity
  8
部品1
100
AcDbLine
 10
8772.193515933498
 20
5255.246329820725
 30
0.0
 11
8772.193515933498
 21
3458.246329820744
 31
0.0
  0
LINE
  5
152E8
330
747D
100
AcDbEntity
  8
部品1
100
AcDbLine
 10
8774.193515933497
 20
5252.746329820722
 30
0.0
 11
8774.193515933497
 21
3461.746329820738
 31
0.0
  0
LINE
  5
152E9
330
747D
100
AcDbEntity
  8
部品1
100
AcDbLine
 10
9504.193515933495
 20
5252.746329820723
 30
0.0
 11
9504.193515933497
 21
3461.746329820746
 31
0.0
  0
LINE
  5
152EA
330
747D
100
AcDbEntity
  8
部品1
100
AcDbLine
 10
9679.193515933498
 20
5349.246329820723
 30
0.0
 11
9679.193515933498
 21
3315.246329820725
 31
0.0
  0
LINE
  5
152EB
330
747D
100
AcDbEntity
  8
部品1
100
AcDbLine
 10
9636.193515933499
 20
5255.246329820725
 30
0.0
 11
9636.193515933499
 21
3458.246329820744
 31
0.0
  0
LINE
  5
152EC
330
747D
100
AcDbEntity
  8
部品1
100
AcDbLine
 10
9506.193515933498
 20
5255.246329820725
 30
0.0
 11
9506.193515933498
 21
3458.246329820744
 31
0.0
  0
LINE
  5
152ED
330
747D
100
AcDbEntity
  8
部品1
100
AcDbLine
 10
8774.193515933497
 20
3461.746329820738
 30
0.0
 11
9484.131068104817
 21
3461.746329820743
 31
0.0
  0
LINE
  5
152EF
330
747D
100
AcDbEntity
  8
細線
 48
0.2
100
AcDbLine
 10
8554.131068104815
 20
3465.996329820743
 30
0.0
 11
8534.131068104818
 21
3465.996329820743
 31
0.0
  0
LINE
  5
152F0
330
747D
100
AcDbEntity
  8
部品1
 48
0.2
100
AcDbLine
 10
8554.131068104815
 20
3468.496329820743
 30
0.0
 11
8534.131068104818
 21
3468.496329820743
 31
0.0
  0
LINE
  5
152F1
330
747D
100
AcDbEntity
  8
部品1
100
AcDbLine
 10
8554.131068104815
 20
3461.746329820745
 30
0.0
 11
8554.193515933496
 21
3461.746329820745
 31
0.0
  0
ARC
  5
152F2
330
747D
100
AcDbEntity
  8
細線
 48
0.2
100
AcDbCircle
 10
8551.131068104815
 20
3461.525819989495
 30
0.0
 40
1.0
100
AcDbArc
 50
286.6015495990217
 51
0.0
  0
LINE
  5
152F3
330
747D
100
AcDbEntity
  8
細線
 48
0.2
100
AcDbLine
 10
8554.131068104815
 20
3461.496329820743
 30
0.0
 11
8534.131068104818
 21
3461.496329820743
 31
0.0
  0
LINE
  5
152F4
330
747D
100
AcDbEntity
  8
細線
 48
0.2
100
AcDbLine
 10
8554.131068104815
 20
3463.996329820743
 30
0.0
 11
8534.131068104818
 21
3463.996329820745
 31
0.0
  0
ARC
  5
152F5
330
747D
100
AcDbEntity
  8
細線
 48
0.2
100
AcDbCircle
 10
8541.131068104816
 20
3461.525819989495
 30
0.0
 40
1.0
100
AcDbArc
 50
179.9999999999984
 51
253.3984504009775
  0
ARC
  5
152F6
330
747D
100
AcDbEntity
  8
細線
 48
0.2
100
AcDbCircle
 10
8546.131068104816
 20
3478.29632982074
 30
0.0
 40
18.49999999999796
100
AcDbArc
 50
253.3984504009772
 51
286.6015495990217
  0
LINE
  5
152F7
330
747D
100
AcDbEntity
  8
細線
 48
0.2
100
AcDbLine
 10
8551.815059401326
 20
3460.796329820742
 30
0.0
 11
8540.447076808311
 21
3460.796329820742
 31
0.0
  0
LINE
  5
152F8
330
747D
100
AcDbEntity
  8
細線
 48
50.0
100
AcDbLine
 10
8534.131068104818
 20
3461.746329820745
 30
0.0
 11
8534.131068104818
 21
3461.496329820743
 31
0.0
  0
LINE
  5
152F9
330
747D
100
AcDbEntity
  8
部品1
100
AcDbLine
 10
8554.131068104815
 20
3461.746329820745
 30
0.0
 11
8554.193515933496
 21
3461.746329820745
 31
0.0
  0
LINE
  5
152FA
330
747D
100
AcDbEntity
  8
部品1
100
AcDbLine
 10
8554.131068104815
 20
3461.746329820746
 30
0.0
 11
8554.193515933496
 21
3461.746329820746
 31
0.0
  0
LINE
  5
152FB
330
747D
100
AcDbEntity
  8
細線
 48
0.1
100
AcDbLine
 10
8554.131068104815
 20
3461.496329820743
 30
0.0
 11
8554.131068104815
 21
3468.496329820743
 31
0.0
  0
LINE
  5
152FC
330
747D
100
AcDbEntity
  8
細線
 48
50.0
100
AcDbLine
 10
8542.268310910513
 20
3463.996329820745
 30
0.0
 11
8542.268310910513
 21
3465.996329820743
 31
0.0
  0
LINE
  5
152FD
330
747D
100
AcDbEntity
  8
細線
 48
50.0
100
AcDbLine
 10
8550.118720956476
 20
3463.996329820745
 30
0.0
 11
8550.118720956476
 21
3465.996329820743
 31
0.0
  0
LINE
  5
152FE
330
747D
100
AcDbEntity
  8
部品1
 48
50.0
100
AcDbLine
 10
8534.131068104818
 20
3468.496329820743
 30
0.0
 11
8534.131068104818
 21
3461.746329820745
 31
0.0
  0
LINE
  5
15302
330
747D
100
AcDbEntity
  8
細線
 48
0.2
100
AcDbLine
 10
9504.131068104817
 20
3465.996329820743
 30
0.0
 11
9484.131068104817
 21
3465.996329820743
 31
0.0
  0
LINE
  5
15303
330
747D
100
AcDbEntity
  8
部品1
 48
0.2
100
AcDbLine
 10
9504.131068104817
 20
3468.496329820743
 30
0.0
 11
9484.131068104817
 21
3468.496329820743
 31
0.0
  0
LINE
  5
15304
330
747D
100
AcDbEntity
  8
部品1
100
AcDbLine
 10
9504.131068104817
 20
3461.746329820745
 30
0.0
 11
9504.193515933497
 21
3461.746329820745
 31
0.0
  0
ARC
  5
15305
330
747D
100
AcDbEntity
  8
細線
 48
0.2
100
AcDbCircle
 10
9501.131068104816
 20
3461.525819989495
 30
0.0
 40
1.0
100
AcDbArc
 50
286.6015495990217
 51
0.0
  0
LINE
  5
15306
330
747D
100
AcDbEntity
  8
細線
 48
0.2
100
AcDbLine
 10
9504.131068104817
 20
3461.496329820743
 30
0.0
 11
9484.131068104817
 21
3461.496329820743
 31
0.0
  0
LINE
  5
15307
330
747D
100
AcDbEntity
  8
細線
 48
0.2
100
AcDbLine
 10
9504.131068104817
 20
3463.996329820743
 30
0.0
 11
9484.131068104817
 21
3463.996329820745
 31
0.0
  0
ARC
  5
15308
330
747D
100
AcDbEntity
  8
細線
 48
0.2
100
AcDbCircle
 10
9491.131068104817
 20
3461.525819989495
 30
0.0
 40
1.0
100
AcDbArc
 50
179.9999999999984
 51
253.3984504009775
  0
ARC
  5
15309
330
747D
100
AcDbEntity
  8
細線
 48
0.2
100
AcDbCircle
 10
9496.131068104816
 20
3478.29632982074
 30
0.0
 40
18.49999999999796
100
AcDbArc
 50
253.3984504009772
 51
286.6015495990217
  0
LINE
  5
1530A
330
747D
100
AcDbEntity
  8
細線
 48
0.2
100
AcDbLine
 10
9501.815059401325
 20
3460.796329820742
 30
0.0
 11
9490.447076808312
 21
3460.796329820742
 31
0.0
  0
LINE
  5
1530B
330
747D
100
AcDbEntity
  8
細線
 48
50.0
100
AcDbLine
 10
9484.131068104817
 20
3461.746329820745
 30
0.0
 11
9484.131068104817
 21
3461.496329820743
 31
0.0
  0
LINE
  5
1530C
330
747D
100
AcDbEntity
  8
部品1
100
AcDbLine
 10
9504.131068104817
 20
3461.746329820745
 30
0.0
 11
9504.193515933497
 21
3461.746329820745
 31
0.0
  0
LINE
  5
1530D
330
747D
100
AcDbEntity
  8
部品1
100
AcDbLine
 10
9504.131068104817
 20
3461.746329820746
 30
0.0
 11
9504.193515933497
 21
3461.746329820746
 31
0.0
  0
LINE
  5
1530E
330
747D
100
AcDbEntity
  8
細線
 48
0.1
100
AcDbLine
 10
9504.131068104817
 20
3461.496329820743
 30
0.0
 11
9504.131068104817
 21
3468.496329820743
 31
0.0
  0
LINE
  5
1530F
330
747D
100
AcDbEntity
  8
細線
 48
50.0
100
AcDbLine
 10
9492.268310910514
 20
3463.996329820745
 30
0.0
 11
9492.268310910514
 21
3465.996329820743
 31
0.0
  0
LINE
  5
15310
330
747D
100
AcDbEntity
  8
細線
 48
50.0
100
AcDbLine
 10
9500.118720956477
 20
3463.996329820745
 30
0.0
 11
9500.118720956477
 21
3465.996329820743
 31
0.0
  0
LINE
  5
15311
330
747D
100
AcDbEntity
  8
部品1
 48
50.0
100
AcDbLine
 10
9484.131068104817
 20
3468.496329820743
 30
0.0
 11
9484.131068104817
 21
3461.746329820745
 31
0.0
  0
LINE
  5
15312
330
747D
100
AcDbEntity
  8
部品1
100
AcDbLine
 10
8774.193515933497
 20
5252.746329820722
 30
0.0
 11
9484.131068104817
 21
5252.746329820723
 31
0.0
  0
LINE
  5
1533A
330
747D
100
AcDbEntity
  8
部品1
100
AcDbLine
 10
8554.131068104815
 20
5252.746329820722
 30
0.0
 11
8554.193515933496
 21
5252.746329820723
 31
0.0
  0
LINE
  5
1533B
330
747D
100
AcDbEntity
  8
部品1
100
AcDbLine
 10
8554.131068104815
 20
5252.746329820726
 30
0.0
 11
8554.193515933496
 21
5252.746329820723
 31
0.0
  0
LINE
  5
1533C
330
747D
100
AcDbEntity
  8
細線
 48
50.0
100
AcDbLine
 10
8534.131068104818
 20
5252.746329820726
 30
0.0
 11
8534.131068104818
 21
5252.996329820725
 31
0.0
  0
LINE
  5
1533D
330
747D
100
AcDbEntity
  8
細線
 48
0.2
100
AcDbLine
 10
8551.815059401326
 20
5253.696329820726
 30
0.0
 11
8540.447076808311
 21
5253.696329820726
 31
0.0
  0
ARC
  5
1533E
330
747D
100
AcDbEntity
  8
細線
 48
0.2
100
AcDbCircle
 10
8546.131068104816
 20
5236.196329820728
 30
0.0
 40
18.49999999999796
100
AcDbArc
 50
73.39845040097829
 51
106.6015495990228
  0
ARC
  5
1533F
330
747D
100
AcDbEntity
  8
細線
 48
0.2
100
AcDbCircle
 10
8541.131068104816
 20
5252.966839651974
 30
0.0
 40
1.0
100
AcDbArc
 50
106.6015495990225
 51
180.0000000000016
  0
LINE
  5
15340
330
747D
100
AcDbEntity
  8
細線
 48
0.2
100
AcDbLine
 10
8554.131068104815
 20
5250.496329820726
 30
0.0
 11
8534.131068104818
 21
5250.496329820726
 31
0.0
  0
LINE
  5
15341
330
747D
100
AcDbEntity
  8
細線
 48
0.2
100
AcDbLine
 10
8554.131068104815
 20
5252.996329820725
 30
0.0
 11
8534.131068104818
 21
5252.996329820725
 31
0.0
  0
ARC
  5
15342
330
747D
100
AcDbEntity
  8
細線
 48
0.2
100
AcDbCircle
 10
8551.131068104815
 20
5252.966839651974
 30
0.0
 40
1.0
100
AcDbArc
 50
0.0
 51
73.39845040097829
  0
LINE
  5
15343
330
747D
100
AcDbEntity
  8
部品1
 48
0.2
100
AcDbLine
 10
8554.131068104815
 20
5245.996329820726
 30
0.0
 11
8534.131068104818
 21
5245.996329820726
 31
0.0
  0
LINE
  5
15344
330
747D
100
AcDbEntity
  8
細線
 48
0.2
100
AcDbLine
 10
8554.131068104815
 20
5248.496329820726
 30
0.0
 11
8534.131068104818
 21
5248.496329820726
 31
0.0
  0
LINE
  5
15345
330
747D
100
AcDbEntity
  8
部品1
 48
50.0
100
AcDbLine
 10
8534.131068104818
 20
5245.996329820726
 30
0.0
 11
8534.131068104818
 21
5252.746329820726
 31
0.0
  0
LINE
  5
15346
330
747D
100
AcDbEntity
  8
細線
 48
50.0
100
AcDbLine
 10
8550.118720956476
 20
5250.496329820726
 30
0.0
 11
8550.118720956476
 21
5248.496329820726
 31
0.0
  0
LINE
  5
15347
330
747D
100
AcDbEntity
  8
細線
 48
50.0
100
AcDbLine
 10
8542.268310910513
 20
5250.496329820726
 30
0.0
 11
8542.268310910513
 21
5248.496329820726
 31
0.0
  0
LINE
  5
15348
330
747D
100
AcDbEntity
  8
細線
 48
0.1
100
AcDbLine
 10
8554.131068104815
 20
5252.996329820725
 30
0.0
 11
8554.131068104815
 21
5245.996329820726
 31
0.0
  0
LINE
  5
15349
330
747D
100
AcDbEntity
  8
部品1
100
AcDbLine
 10
9504.131068104817
 20
5252.746329820722
 30
0.0
 11
9504.193515933497
 21
5252.746329820723
 31
0.0
  0
LINE
  5
1534A
330
747D
100
AcDbEntity
  8
部品1
100
AcDbLine
 10
9504.131068104817
 20
5252.746329820726
 30
0.0
 11
9504.193515933497
 21
5252.746329820723
 31
0.0
  0
LINE
  5
1534B
330
747D
100
AcDbEntity
  8
細線
 48
50.0
100
AcDbLine
 10
9484.131068104817
 20
5252.746329820726
 30
0.0
 11
9484.131068104817
 21
5252.996329820725
 31
0.0
  0
LINE
  5
1534C
330
747D
100
AcDbEntity
  8
細線
 48
0.2
100
AcDbLine
 10
9501.815059401325
 20
5253.696329820726
 30
0.0
 11
9490.447076808312
 21
5253.696329820726
 31
0.0
  0
ARC
  5
1534D
330
747D
100
AcDbEntity
  8
細線
 48
0.2
100
AcDbCircle
 10
9496.131068104816
 20
5236.196329820728
 30
0.0
 40
18.49999999999796
100
AcDbArc
 50
73.39845040097829
 51
106.6015495990228
  0
ARC
  5
1534E
330
747D
100
AcDbEntity
  8
細線
 48
0.2
100
AcDbCircle
 10
9491.131068104817
 20
5252.966839651974
 30
0.0
 40
1.0
100
AcDbArc
 50
106.6015495990225
 51
180.0000000000016
  0
LINE
  5
1534F
330
747D
100
AcDbEntity
  8
細線
 48
0.2
100
AcDbLine
 10
9504.131068104817
 20
5250.496329820726
 30
0.0
 11
9484.131068104817
 21
5250.496329820726
 31
0.0
  0
LINE
  5
15350
330
747D
100
AcDbEntity
  8
細線
 48
0.2
100
AcDbLine
 10
9504.131068104817
 20
5252.996329820725
 30
0.0
 11
9484.131068104817
 21
5252.996329820725
 31
0.0
  0
ARC
  5
15351
330
747D
100
AcDbEntity
  8
細線
 48
0.2
100
AcDbCircle
 10
9501.131068104816
 20
5252.966839651974
 30
0.0
 40
1.0
100
AcDbArc
 50
0.0
 51
73.39845040097829
  0
LINE
  5
15352
330
747D
100
AcDbEntity
  8
部品1
 48
0.2
100
AcDbLine
 10
9504.131068104817
 20
5245.996329820726
 30
0.0
 11
9484.131068104817
 21
5245.996329820726
 31
0.0
  0
LINE
  5
15353
330
747D
100
AcDbEntity
  8
細線
 48
0.2
100
AcDbLine
 10
9504.131068104817
 20
5248.496329820726
 30
0.0
 11
9484.131068104817
 21
5248.496329820726
 31
0.0
  0
LINE
  5
15354
330
747D
100
AcDbEntity
  8
部品1
 48
50.0
100
AcDbLine
 10
9484.131068104817
 20
5245.996329820726
 30
0.0
 11
9484.131068104817
 21
5252.746329820726
 31
0.0
  0
LINE
  5
15355
330
747D
100
AcDbEntity
  8
細線
 48
50.0
100
AcDbLine
 10
9500.118720956477
 20
5250.496329820726
 30
0.0
 11
9500.118720956477
 21
5248.496329820726
 31
0.0
  0
LINE
  5
15356
330
747D
100
AcDbEntity
  8
細線
 48
50.0
100
AcDbLine
 10
9492.268310910514
 20
5250.496329820726
 30
0.0
 11
9492.268310910514
 21
5248.496329820726
 31
0.0
  0
LINE
  5
15357
330
747D
100
AcDbEntity
  8
細線
 48
0.1
100
AcDbLine
 10
9504.131068104817
 20
5252.996329820725
 30
0.0
 11
9504.131068104817
 21
5245.996329820726
 31
0.0
  0
LINE
  5
155F2
330
747D
100
AcDbEntity
  8
細線
 48
50.0
100
AcDbLine
 10
4148.193515933497
 20
8228.034968035368
 30
0.0
 11
4148.193515933497
 21
8202.03496803532
 31
0.0
  0
LINE
  5
155F3
330
747D
100
AcDbEntity
  8
細線
 48
50.0
100
AcDbLine
 10
7224.193515933497
 20
8228.034968035357
 30
0.0
 11
7224.193515933497
 21
8202.03496803532
 31
0.0
  0
LINE
  5
155F4
330
747D
100
AcDbEntity
  8
細線
 48
50.0
100
AcDbLine
 10
7184.193515933497
 20
8228.034968035357
 30
0.0
 11
7184.193515933497
 21
8202.03496803532
 31
0.0
  0
LINE
  5
155F5
330
747D
100
AcDbEntity
  8
細線
 48
50.0
100
AcDbLine
 10
7411.193515933497
 20
8228.034968035572
 30
0.0
 11
7411.193515933497
 21
8202.034968035535
 31
0.0
  0
LINE
  5
155F6
330
747D
100
AcDbEntity
  8
細線
 48
50.0
100
AcDbLine
 10
7451.193515933496
 20
8228.034968035572
 30
0.0
 11
7451.193515933496
 21
8202.034968035535
 31
0.0
  0
LINE
  5
155F7
330
747D
100
AcDbEntity
  8
細線
 48
50.0
100
AcDbLine
 10
8134.193515933496
 20
8228.034968035357
 30
0.0
 11
8134.193515933496
 21
8202.03496803532
 31
0.0
  0
LINE
  5
155F8
330
747D
100
AcDbEntity
  8
細線
 48
50.0
100
AcDbLine
 10
8174.193515933497
 20
8228.034968035357
 30
0.0
 11
8174.193515933497
 21
8202.03496803532
 31
0.0
  0
LINE
  5
155F9
330
747D
100
AcDbEntity
  8
細線
 48
50.0
100
AcDbLine
 10
7948.193515933496
 20
8228.034968035368
 30
0.0
 11
7948.193515933496
 21
8202.03496803532
 31
0.0
  0
LINE
  5
155FA
330
747D
100
AcDbEntity
  8
細線
 48
50.0
100
AcDbLine
 10
8401.193515933497
 20
8228.034968035572
 30
0.0
 11
8401.193515933497
 21
8202.034968035535
 31
0.0
  0
LINE
  5
155FB
330
747D
100
AcDbEntity
  8
細線
 48
50.0
100
AcDbLine
 10
8361.193515933498
 20
8228.034968035572
 30
0.0
 11
8361.193515933498
 21
8202.034968035535
 31
0.0
  0
LINE
  5
155FC
330
747D
100
AcDbEntity
  8
細線
 48
50.0
100
AcDbLine
 10
8898.193515933497
 20
8228.034968035368
 30
0.0
 11
8898.193515933497
 21
8202.03496803532
 31
0.0
  0
LINE
  5
155FD
330
747D
100
AcDbEntity
  8
細線
 48
50.0
100
AcDbLine
 10
9124.193515933496
 20
8228.034968035357
 30
0.0
 11
9124.193515933496
 21
8202.03496803532
 31
0.0
  0
LINE
  5
155FE
330
747D
100
AcDbEntity
  8
細線
 48
50.0
100
AcDbLine
 10
9084.193515933497
 20
8228.034968035357
 30
0.0
 11
9084.193515933497
 21
8202.03496803532
 31
0.0
  0
LINE
  5
155FF
330
747D
100
AcDbEntity
  8
細線
 48
50.0
100
AcDbLine
 10
9311.193515933497
 20
8228.034968035572
 30
0.0
 11
9311.193515933497
 21
8202.034968035535
 31
0.0
  0
LINE
  5
15600
330
747D
100
AcDbEntity
  8
細線
 48
50.0
100
AcDbLine
 10
9351.193515933497
 20
8228.034968035572
 30
0.0
 11
9351.193515933497
 21
8202.034968035535
 31
0.0
  0
ARC
  5
15645
330
747D
100
AcDbEntity
  8
細線
100
AcDbCircle
 10
4085.193515933496
 20
4304.246329820727
 30
0.0
 40
5.5
100
AcDbArc
 50
270.0
 51
0.0
  0
ARC
  5
15646
330
747D
100
AcDbEntity
  8
部品1
100
AcDbCircle
 10
4086.193515933495
 20
4303.246329820726
 30
0.0
 40
6.0
100
AcDbArc
 50
270.0
 51
0.0
  0
ARC
  5
15647
330
747D
100
AcDbEntity
  8
細線
100
AcDbCircle
 10
4046.026897464249
 20
4304.246329820727
 30
0.0
 40
5.5
100
AcDbArc
 50
190.4214509727298
 51
269.9999999999997
  0
ARC
  5
15648
330
747D
100
AcDbEntity
  8
部品1
100
AcDbCircle
 10
4045.19524604248
 20
4303.246329820726
 30
0.0
 40
6.0
100
AcDbArc
 50
190.5838025965097
 51
270.0
  0
LINE
  5
15649
330
747D
100
AcDbEntity
  8
細線
100
AcDbLine
 10
4046.026897464249
 20
4298.746329820726
 30
0.0
 11
4085.193515933496
 21
4298.746329820726
 31
0.0
  0
LINE
  5
1564A
330
747D
100
AcDbEntity
  8
部品1
100
AcDbLine
 10
4045.19524604248
 20
4297.246329820726
 30
0.0
 11
4086.193515933495
 21
4297.246329820726
 31
0.0
  0
CIRCLE
  5
1564B
330
747D
100
AcDbEntity
  8
細線
 48
20.0
100
AcDbCircle
 10
4065.694380987988
 20
4457.746329820727
 30
0.0
 40
20.0
  0
CIRCLE
  5
1564C
330
747D
100
AcDbEntity
  8
細線
 48
20.0
100
AcDbCircle
 10
4065.694380987988
 20
4457.746329820727
 30
0.0
 40
10.0
  0
ARC
  5
1564D
330
747D
100
AcDbEntity
  8
細線
100
AcDbCircle
 10
4080.193515933495
 20
4401.246329820726
 30
0.0
 40
6.0
100
AcDbArc
 50
0.0
 51
90.0
  0
ARC
  5
1564E
330
747D
100
AcDbEntity
  8
細線
100
AcDbCircle
 10
4070.401055112241
 20
4398.246329820727
 30
0.0
 40
6.0
100
AcDbArc
 50
0.0
 51
90.0
  0
ARC
  5
1564F
330
747D
100
AcDbEntity
  8
細線
100
AcDbCircle
 10
4085.193515933496
 20
4410.246329820727
 30
0.0
 40
5.5
100
AcDbArc
 50
0.0
 51
90.0
  0
ARC
  5
15650
330
747D
100
AcDbEntity
  8
部品1
100
AcDbCircle
 10
4086.193515933495
 20
4411.246329820726
 30
0.0
 40
6.0
100
AcDbArc
 50
0.0
 51
90.0
  0
LINE
  5
15651
330
747D
100
AcDbEntity
  8
細線
100
AcDbLine
 10
4059.687939843328
 20
4401.246329820726
 30
0.0
 11
4058.193515933495
 21
4401.246329820726
 31
0.0
  0
ARC
  5
15652
330
747D
100
AcDbEntity
  8
細線
100
AcDbCircle
 10
4059.687939843328
 20
4398.246329820727
 30
0.0
 40
3.0
100
AcDbArc
 50
8.099550838277986
 51
90.0
  0
ARC
  5
15653
330
747D
100
AcDbEntity
  8
細線
100
AcDbCircle
 10
4049.574472297972
 20
4401.246329820726
 30
0.0
 40
6.0
100
AcDbArc
 50
90.0
 51
171.2120626773636
  0
LINE
  5
15654
330
747D
100
AcDbEntity
  8
細線
100
AcDbLine
 10
4058.193515933495
 20
4401.245821922163
 30
0.0
 11
4045.430188717528
 21
4401.245821922163
 31
0.0
  0
ARC
  5
15655
330
747D
100
AcDbEntity
  8
細線
100
AcDbCircle
 10
4046.026897464249
 20
4410.246329820727
 30
0.0
 40
5.5
100
AcDbArc
 50
89.99999999999969
 51
169.5785490272683
  0
ARC
  5
15656
330
747D
100
AcDbEntity
  8
部品1
100
AcDbCircle
 10
4045.19524604248
 20
4411.246329820726
 30
0.0
 40
6.0
100
AcDbArc
 50
90.0
 51
169.4161974034886
  0
LINE
  5
15657
330
747D
100
AcDbEntity
  8
細線
100
AcDbLine
 10
4085.193515933496
 20
4415.746329820726
 30
0.0
 11
4046.026897464249
 21
4415.746329820726
 31
0.0
  0
LINE
  5
15658
330
747D
100
AcDbEntity
  8
細線
100
AcDbLine
 10
4070.401055112241
 20
4404.246329820726
 30
0.0
 11
4058.193515933495
 21
4404.246329820726
 31
0.0
  0
LINE
  5
15659
330
747D
100
AcDbEntity
  8
細線
100
AcDbLine
 10
4080.193515933495
 20
4407.246329820726
 30
0.0
 11
4049.574472297972
 21
4407.246329820726
 31
0.0
  0
LINE
  5
1565A
330
747D
100
AcDbEntity
  8
部品1
100
AcDbLine
 10
4086.193515933495
 20
4417.246329820726
 30
0.0
 11
4045.19524604248
 21
4417.246329820726
 31
0.0
  0
ARC
  5
1565B
330
747D
100
AcDbEntity
  8
細線
100
AcDbCircle
 10
4080.193515933495
 20
4313.246329820727
 30
0.0
 40
6.0
100
AcDbArc
 50
270.0
 51
0.0
  0
ARC
  5
1565C
330
747D
100
AcDbEntity
  8
細線
100
AcDbCircle
 10
4070.401055112241
 20
4316.246329820727
 30
0.0
 40
6.0
100
AcDbArc
 50
270.0
 51
360.0
  0
LINE
  5
1565D
330
747D
100
AcDbEntity
  8
細線
100
AcDbLine
 10
4058.193515933495
 20
4313.246329820727
 30
0.0
 11
4059.68793984333
 21
4313.246329820727
 31
0.0
  0
ARC
  5
1565E
330
747D
100
AcDbEntity
  8
細線
100
AcDbCircle
 10
4059.68793984333
 20
4316.246329820727
 30
0.0
 40
3.0
100
AcDbArc
 50
270.0
 51
351.9004491617184
  0
ARC
  5
1565F
330
747D
100
AcDbEntity
  8
細線
100
AcDbCircle
 10
4049.574472297972
 20
4313.246329820727
 30
0.0
 40
6.0
100
AcDbArc
 50
188.7879373226349
 51
270.0
  0
LINE
  5
15660
330
747D
100
AcDbEntity
  8
細線
100
AcDbLine
 10
4058.193515933495
 20
4313.246837719288
 30
0.0
 11
4044.714811434673
 21
4313.246837719288
 31
0.0
  0
LINE
  5
15661
330
747D
100
AcDbEntity
  8
細線
100
AcDbLine
 10
4058.193515933495
 20
4310.246329820727
 30
0.0
 11
4070.401055112241
 21
4310.246329820727
 31
0.0
  0
LINE
  5
15662
330
747D
100
AcDbEntity
  8
細線
100
AcDbLine
 10
4049.574472297972
 20
4307.246329820727
 30
0.0
 11
4080.193515933495
 21
4307.246329820727
 31
0.0
  0
LINE
  5
15663
330
747D
100
AcDbEntity
  8
細線
100
AcDbLine
 10
4076.401055112241
 20
4316.246329820727
 30
0.0
 11
4076.401055112241
 21
4398.246329820727
 31
0.0
  0
LINE
  5
15664
330
747D
100
AcDbEntity
  8
細線
100
AcDbLine
 10
4086.193515933495
 20
4313.246329820727
 30
0.0
 11
4086.193515933495
 21
4401.246329820726
 31
0.0
  0
LINE
  5
15665
330
747D
100
AcDbEntity
  8
細線
100
AcDbLine
 10
4090.693515933495
 20
4304.246329820727
 30
0.0
 11
4090.693515933495
 21
4410.246329820727
 31
0.0
  0
LINE
  5
15666
330
747D
100
AcDbEntity
  8
部品1
100
AcDbLine
 10
4092.193515933495
 20
4303.246329820726
 30
0.0
 11
4092.193515933495
 21
4411.246329820726
 31
0.0
  0
LINE
  5
15667
330
747D
100
AcDbEntity
  8
細線
100
AcDbLine
 10
4058.193515933495
 20
4407.246329820726
 30
0.0
 11
4058.193515933495
 21
4307.246329820727
 31
0.0
  0
ARC
  5
15668
330
747D
100
AcDbEntity
  8
細線
100
AcDbCircle
 10
4334.193515933495
 20
4357.246329820727
 30
0.0
 40
298.5
100
AcDbArc
 50
169.578549027269
 51
190.4214509727309
  0
ARC
  5
15669
330
747D
100
AcDbEntity
  8
細線
100
AcDbCircle
 10
4334.193515933495
 20
4357.246329820727
 30
0.0
 40
294.0
100
AcDbArc
 50
171.212062677364
 51
188.7879373226359
  0
ARC
  5
1566A
330
747D
100
AcDbEntity
  8
細線
100
AcDbCircle
 10
3771.590734025571
 20
4357.246329820727
 30
0.0
 40
294.0
100
AcDbArc
 50
351.900449161722
 51
8.099550838278029
  0
ARC
  5
1566B
330
747D
100
AcDbEntity
  8
部品1
100
AcDbCircle
 10
4334.193515933495
 20
4357.246329820727
 30
0.0
 40
300.0
100
AcDbArc
 50
169.4161974034894
 51
190.5838025965105
  0
LINE
  5
1566E
330
747D
100
AcDbEntity
  8
細線
100
AcDbLine
 10
7876.401055112241
 20
4316.246329820727
 30
0.0
 11
7876.401055112241
 21
4398.246329820727
 31
0.0
  0
LINE
  5
1566F
330
747D
100
AcDbEntity
  8
細線
100
AcDbLine
 10
7886.193515933495
 20
4313.246329820727
 30
0.0
 11
7886.193515933495
 21
4401.246329820726
 31
0.0
  0
LINE
  5
15670
330
747D
100
AcDbEntity
  8
細線
100
AcDbLine
 10
7890.693515933495
 20
4304.246329820727
 30
0.0
 11
7890.693515933495
 21
4410.246329820727
 31
0.0
  0
LINE
  5
15671
330
747D
100
AcDbEntity
  8
部品1
100
AcDbLine
 10
7892.193515933495
 20
4303.246329820726
 30
0.0
 11
7892.193515933495
 21
4411.246329820726
 31
0.0
  0
LINE
  5
15672
330
747D
100
AcDbEntity
  8
細線
100
AcDbLine
 10
7858.193515933496
 20
4407.246329820726
 30
0.0
 11
7858.193515933496
 21
4307.246329820727
 31
0.0
  0
ARC
  5
15673
330
747D
100
AcDbEntity
  8
細線
100
AcDbCircle
 10
8134.193515933494
 20
4357.246329820727
 30
0.0
 40
298.5
100
AcDbArc
 50
169.578549027269
 51
190.4214509727309
  0
ARC
  5
15674
330
747D
100
AcDbEntity
  8
細線
100
AcDbCircle
 10
8134.193515933494
 20
4357.246329820727
 30
0.0
 40
294.0
100
AcDbArc
 50
171.212062677364
 51
188.7879373226359
  0
ARC
  5
15675
330
747D
100
AcDbEntity
  8
細線
100
AcDbCircle
 10
7571.590734025571
 20
4357.246329820727
 30
0.0
 40
294.0
100
AcDbArc
 50
351.900449161722
 51
8.099550838278029
  0
ARC
  5
15676
330
747D
100
AcDbEntity
  8
部品1
100
AcDbCircle
 10
8134.193515933494
 20
4357.246329820727
 30
0.0
 40
300.0
100
AcDbArc
 50
169.4161974034894
 51
190.5838025965105
  0
LINE
  5
15677
330
747D
100
AcDbEntity
  8
細線
100
AcDbLine
 10
7846.02689746425
 20
4298.746329820726
 30
0.0
 11
7885.193515933496
 21
4298.746329820726
 31
0.0
  0
ARC
  5
15678
330
747D
100
AcDbEntity
  8
細線
100
AcDbCircle
 10
7849.574472297972
 20
4313.246329820727
 30
0.0
 40
6.0
100
AcDbArc
 50
188.7879373226349
 51
270.0
  0
LINE
  5
15679
330
747D
100
AcDbEntity
  8
細線
100
AcDbLine
 10
7858.193515933496
 20
4313.246837719288
 30
0.0
 11
7844.714811434673
 21
4313.246837719288
 31
0.0
  0
LINE
  5
1567A
330
747D
100
AcDbEntity
  8
部品1
100
AcDbLine
 10
7845.19524604248
 20
4297.246329820726
 30
0.0
 11
7886.193515933495
 21
4297.246329820726
 31
0.0
  0
ARC
  5
1567B
330
747D
100
AcDbEntity
  8
細線
100
AcDbCircle
 10
7846.02689746425
 20
4304.246329820727
 30
0.0
 40
5.5
100
AcDbArc
 50
190.4214509727298
 51
269.9999999999997
  0
ARC
  5
1567C
330
747D
100
AcDbEntity
  8
部品1
100
AcDbCircle
 10
7845.19524604248
 20
4303.246329820726
 30
0.0
 40
6.0
100
AcDbArc
 50
190.5838025965097
 51
270.0
  0
ARC
  5
1567D
330
747D
100
AcDbEntity
  8
部品1
100
AcDbCircle
 10
7886.193515933495
 20
4303.246329820726
 30
0.0
 40
6.0
100
AcDbArc
 50
270.0
 51
0.0
  0
ARC
  5
1567E
330
747D
100
AcDbEntity
  8
細線
100
AcDbCircle
 10
7870.401055112241
 20
4316.246329820727
 30
0.0
 40
6.0
100
AcDbArc
 50
270.0
 51
360.0
  0
LINE
  5
1567F
330
747D
100
AcDbEntity
  8
細線
100
AcDbLine
 10
7858.193515933496
 20
4313.246329820727
 30
0.0
 11
7859.68793984333
 21
4313.246329820727
 31
0.0
  0
ARC
  5
15680
330
747D
100
AcDbEntity
  8
細線
100
AcDbCircle
 10
7859.68793984333
 20
4316.246329820727
 30
0.0
 40
3.0
100
AcDbArc
 50
270.0
 51
351.9004491617184
  0
LINE
  5
15681
330
747D
100
AcDbEntity
  8
細線
100
AcDbLine
 10
7858.193515933496
 20
4310.246329820727
 30
0.0
 11
7870.401055112241
 21
4310.246329820727
 31
0.0
  0
LINE
  5
15682
330
747D
100
AcDbEntity
  8
細線
100
AcDbLine
 10
7849.574472297972
 20
4307.246329820727
 30
0.0
 11
7880.193515933496
 21
4307.246329820727
 31
0.0
  0
ARC
  5
15683
330
747D
100
AcDbEntity
  8
細線
100
AcDbCircle
 10
7885.193515933496
 20
4304.246329820727
 30
0.0
 40
5.5
100
AcDbArc
 50
270.0
 51
0.0
  0
ARC
  5
15684
330
747D
100
AcDbEntity
  8
細線
100
AcDbCircle
 10
7880.193515933496
 20
4313.246329820727
 30
0.0
 40
6.0
100
AcDbArc
 50
270.0
 51
0.0
  0
ARC
  5
15685
330
747D
100
AcDbEntity
  8
細線
100
AcDbCircle
 10
7849.574472297972
 20
4401.246329820726
 30
0.0
 40
6.0
100
AcDbArc
 50
90.0
 51
171.2120626773636
  0
LINE
  5
15686
330
747D
100
AcDbEntity
  8
細線
100
AcDbLine
 10
7858.193515933496
 20
4401.245821922163
 30
0.0
 11
7845.430188717528
 21
4401.245821922163
 31
0.0
  0
LINE
  5
15687
330
747D
100
AcDbEntity
  8
細線
100
AcDbLine
 10
7885.193515933496
 20
4415.746329820726
 30
0.0
 11
7846.02689746425
 21
4415.746329820726
 31
0.0
  0
CIRCLE
  5
15688
330
747D
100
AcDbEntity
  8
細線
 48
20.0
100
AcDbCircle
 10
7865.694380987989
 20
4457.746329820727
 30
0.0
 40
20.0
  0
LINE
  5
15689
330
747D
100
AcDbEntity
  8
部品1
100
AcDbLine
 10
7886.193515933495
 20
4417.246329820726
 30
0.0
 11
7845.19524604248
 21
4417.246329820726
 31
0.0
  0
ARC
  5
1568A
330
747D
100
AcDbEntity
  8
細線
100
AcDbCircle
 10
7846.02689746425
 20
4410.246329820727
 30
0.0
 40
5.5
100
AcDbArc
 50
89.99999999999969
 51
169.5785490272683
  0
ARC
  5
1568B
330
747D
100
AcDbEntity
  8
部品1
100
AcDbCircle
 10
7845.19524604248
 20
4411.246329820726
 30
0.0
 40
6.0
100
AcDbArc
 50
90.0
 51
169.4161974034886
  0
ARC
  5
1568C
330
747D
100
AcDbEntity
  8
部品1
100
AcDbCircle
 10
7886.193515933495
 20
4411.246329820726
 30
0.0
 40
6.0
100
AcDbArc
 50
0.0
 51
90.0
  0
CIRCLE
  5
1568D
330
747D
100
AcDbEntity
  8
細線
 48
20.0
100
AcDbCircle
 10
7865.694380987989
 20
4457.746329820727
 30
0.0
 40
10.0
  0
ARC
  5
1568E
330
747D
100
AcDbEntity
  8
細線
100
AcDbCircle
 10
7870.401055112241
 20
4398.246329820727
 30
0.0
 40
6.0
100
AcDbArc
 50
0.0
 51
90.0
  0
LINE
  5
1568F
330
747D
100
AcDbEntity
  8
細線
100
AcDbLine
 10
7859.687939843329
 20
4401.246329820726
 30
0.0
 11
7858.193515933496
 21
4401.246329820726
 31
0.0
  0
ARC
  5
15690
330
747D
100
AcDbEntity
  8
細線
100
AcDbCircle
 10
7859.687939843329
 20
4398.246329820727
 30
0.0
 40
3.0
100
AcDbArc
 50
8.099550838277986
 51
90.0
  0
LINE
  5
15691
330
747D
100
AcDbEntity
  8
細線
100
AcDbLine
 10
7870.401055112241
 20
4404.246329820726
 30
0.0
 11
7858.193515933496
 21
4404.246329820726
 31
0.0
  0
LINE
  5
15692
330
747D
100
AcDbEntity
  8
細線
100
AcDbLine
 10
7880.193515933496
 20
4407.246329820726
 30
0.0
 11
7849.574472297972
 21
4407.246329820726
 31
0.0
  0
ARC
  5
15693
330
747D
100
AcDbEntity
  8
細線
100
AcDbCircle
 10
7880.193515933496
 20
4401.246329820726
 30
0.0
 40
6.0
100
AcDbArc
 50
0.0
 51
90.0
  0
ARC
  5
15694
330
747D
100
AcDbEntity
  8
細線
100
AcDbCircle
 10
7885.193515933496
 20
4410.246329820727
 30
0.0
 40
5.5
100
AcDbArc
 50
0.0
 51
90.0
  0
ARC
  5
15695
330
747D
100
AcDbEntity
  8
部品1
100
AcDbCircle
 10
9084.193515933495
 20
4357.246329820727
 30
0.0
 40
300.0
100
AcDbArc
 50
169.4161974034894
 51
190.5838025965105
  0
ARC
  5
15696
330
747D
100
AcDbEntity
  8
細線
100
AcDbCircle
 10
8521.59073402557
 20
4357.246329820727
 30
0.0
 40
294.0
100
AcDbArc
 50
351.900449161722
 51
8.099550838278029
  0
ARC
  5
15697
330
747D
100
AcDbEntity
  8
細線
100
AcDbCircle
 10
9084.193515933495
 20
4357.246329820727
 30
0.0
 40
294.0
100
AcDbArc
 50
171.212062677364
 51
188.7879373226359
  0
ARC
  5
15698
330
747D
100
AcDbEntity
  8
細線
100
AcDbCircle
 10
9084.193515933495
 20
4357.246329820727
 30
0.0
 40
298.5
100
AcDbArc
 50
169.578549027269
 51
190.4214509727309
  0
LINE
  5
15699
330
747D
100
AcDbEntity
  8
細線
100
AcDbLine
 10
8808.193515933496
 20
4407.246329820726
 30
0.0
 11
8808.193515933496
 21
4307.246329820727
 31
0.0
  0
LINE
  5
1569A
330
747D
100
AcDbEntity
  8
部品1
100
AcDbLine
 10
8842.193515933495
 20
4303.246329820726
 30
0.0
 11
8842.193515933495
 21
4411.246329820726
 31
0.0
  0
LINE
  5
1569B
330
747D
100
AcDbEntity
  8
細線
100
AcDbLine
 10
8840.693515933494
 20
4304.246329820727
 30
0.0
 11
8840.693515933494
 21
4410.246329820727
 31
0.0
  0
LINE
  5
1569C
330
747D
100
AcDbEntity
  8
細線
100
AcDbLine
 10
8836.193515933494
 20
4313.246329820727
 30
0.0
 11
8836.193515933494
 21
4401.246329820726
 31
0.0
  0
LINE
  5
1569D
330
747D
100
AcDbEntity
  8
細線
100
AcDbLine
 10
8826.40105511224
 20
4316.246329820727
 30
0.0
 11
8826.40105511224
 21
4398.246329820727
 31
0.0
  0
ARC
  5
1569E
330
747D
100
AcDbEntity
  8
細線
100
AcDbCircle
 10
8830.193515933496
 20
4313.246329820727
 30
0.0
 40
6.0
100
AcDbArc
 50
270.0
 51
0.0
  0
LINE
  5
1569F
330
747D
100
AcDbEntity
  8
部品1
100
AcDbLine
 10
8795.19524604248
 20
4297.246329820726
 30
0.0
 11
8836.193515933494
 21
4297.246329820726
 31
0.0
  0
LINE
  5
156A0
330
747D
100
AcDbEntity
  8
細線
100
AcDbLine
 10
8796.026897464249
 20
4298.746329820726
 30
0.0
 11
8835.193515933495
 21
4298.746329820726
 31
0.0
  0
LINE
  5
156A1
330
747D
100
AcDbEntity
  8
細線
100
AcDbLine
 10
8799.574472297972
 20
4307.246329820727
 30
0.0
 11
8830.193515933496
 21
4307.246329820727
 31
0.0
  0
LINE
  5
156A2
330
747D
100
AcDbEntity
  8
細線
100
AcDbLine
 10
8808.193515933496
 20
4310.246329820727
 30
0.0
 11
8820.40105511224
 21
4310.246329820727
 31
0.0
  0
ARC
  5
156A3
330
747D
100
AcDbEntity
  8
細線
100
AcDbCircle
 10
8809.68793984333
 20
4316.246329820727
 30
0.0
 40
3.0
100
AcDbArc
 50
270.0
 51
351.9004491617184
  0
LINE
  5
156A4
330
747D
100
AcDbEntity
  8
細線
100
AcDbLine
 10
8808.193515933496
 20
4313.246329820727
 30
0.0
 11
8809.68793984333
 21
4313.246329820727
 31
0.0
  0
ARC
  5
156A5
330
747D
100
AcDbEntity
  8
細線
100
AcDbCircle
 10
8820.40105511224
 20
4316.246329820727
 30
0.0
 40
6.0
100
AcDbArc
 50
270.0
 51
360.0
  0
ARC
  5
156A6
330
747D
100
AcDbEntity
  8
部品1
100
AcDbCircle
 10
8795.19524604248
 20
4303.246329820726
 30
0.0
 40
6.0
100
AcDbArc
 50
190.5838025965097
 51
270.0
  0
ARC
  5
156A7
330
747D
100
AcDbEntity
  8
細線
100
AcDbCircle
 10
8796.026897464249
 20
4304.246329820727
 30
0.0
 40
5.5
100
AcDbArc
 50
190.4214509727298
 51
269.9999999999997
  0
LINE
  5
156A8
330
747D
100
AcDbEntity
  8
細線
100
AcDbLine
 10
8808.193515933496
 20
4313.246837719288
 30
0.0
 11
8794.714811434673
 21
4313.246837719288
 31
0.0
  0
ARC
  5
156A9
330
747D
100
AcDbEntity
  8
細線
100
AcDbCircle
 10
8799.574472297972
 20
4313.246329820727
 30
0.0
 40
6.0
100
AcDbArc
 50
188.7879373226349
 51
270.0
  0
ARC
  5
156AA
330
747D
100
AcDbEntity
  8
細線
100
AcDbCircle
 10
8835.193515933495
 20
4304.246329820727
 30
0.0
 40
5.5
100
AcDbArc
 50
270.0
 51
0.0
  0
ARC
  5
156AB
330
747D
100
AcDbEntity
  8
部品1
100
AcDbCircle
 10
8836.193515933494
 20
4303.246329820726
 30
0.0
 40
6.0
100
AcDbArc
 50
270.0
 51
0.0
  0
ARC
  5
156AC
330
747D
100
AcDbEntity
  8
細線
100
AcDbCircle
 10
8830.193515933496
 20
4401.246329820726
 30
0.0
 40
6.0
100
AcDbArc
 50
0.0
 51
90.0
  0
LINE
  5
156AD
330
747D
100
AcDbEntity
  8
部品1
100
AcDbLine
 10
8836.193515933494
 20
4417.246329820726
 30
0.0
 11
8795.19524604248
 21
4417.246329820726
 31
0.0
  0
CIRCLE
  5
156AE
330
747D
100
AcDbEntity
  8
細線
 48
20.0
100
AcDbCircle
 10
8815.69438098799
 20
4457.746329820727
 30
0.0
 40
20.0
  0
LINE
  5
156AF
330
747D
100
AcDbEntity
  8
細線
100
AcDbLine
 10
8835.193515933495
 20
4415.746329820726
 30
0.0
 11
8796.026897464249
 21
4415.746329820726
 31
0.0
  0
LINE
  5
156B0
330
747D
100
AcDbEntity
  8
細線
100
AcDbLine
 10
8830.193515933496
 20
4407.246329820726
 30
0.0
 11
8799.574472297972
 21
4407.246329820726
 31
0.0
  0
LINE
  5
156B1
330
747D
100
AcDbEntity
  8
細線
100
AcDbLine
 10
8820.40105511224
 20
4404.246329820726
 30
0.0
 11
8808.193515933496
 21
4404.246329820726
 31
0.0
  0
ARC
  5
156B2
330
747D
100
AcDbEntity
  8
細線
100
AcDbCircle
 10
8809.687939843328
 20
4398.246329820727
 30
0.0
 40
3.0
100
AcDbArc
 50
8.099550838277986
 51
90.0
  0
LINE
  5
156B3
330
747D
100
AcDbEntity
  8
細線
100
AcDbLine
 10
8809.687939843328
 20
4401.246329820726
 30
0.0
 11
8808.193515933496
 21
4401.246329820726
 31
0.0
  0
ARC
  5
156B4
330
747D
100
AcDbEntity
  8
細線
100
AcDbCircle
 10
8820.40105511224
 20
4398.246329820727
 30
0.0
 40
6.0
100
AcDbArc
 50
0.0
 51
90.0
  0
CIRCLE
  5
156B5
330
747D
100
AcDbEntity
  8
細線
 48
20.0
100
AcDbCircle
 10
8815.69438098799
 20
4457.746329820727
 30
0.0
 40
10.0
  0
ARC
  5
156B6
330
747D
100
AcDbEntity
  8
部品1
100
AcDbCircle
 10
8795.19524604248
 20
4411.246329820726
 30
0.0
 40
6.0
100
AcDbArc
 50
90.0
 51
169.4161974034886
  0
ARC
  5
156B7
330
747D
100
AcDbEntity
  8
細線
100
AcDbCircle
 10
8796.026897464249
 20
4410.246329820727
 30
0.0
 40
5.5
100
AcDbArc
 50
89.99999999999969
 51
169.5785490272683
  0
LINE
  5
156B8
330
747D
100
AcDbEntity
  8
細線
100
AcDbLine
 10
8808.193515933496
 20
4401.245821922163
 30
0.0
 11
8795.430188717528
 21
4401.245821922163
 31
0.0
  0
ARC
  5
156B9
330
747D
100
AcDbEntity
  8
細線
100
AcDbCircle
 10
8799.574472297972
 20
4401.246329820726
 30
0.0
 40
6.0
100
AcDbArc
 50
90.0
 51
171.2120626773636
  0
ARC
  5
156BA
330
747D
100
AcDbEntity
  8
細線
100
AcDbCircle
 10
8835.193515933495
 20
4410.246329820727
 30
0.0
 40
5.5
100
AcDbArc
 50
0.0
 51
90.0
  0
ARC
  5
156BB
330
747D
100
AcDbEntity
  8
部品1
100
AcDbCircle
 10
8836.193515933494
 20
4411.246329820726
 30
0.0
 40
6.0
100
AcDbArc
 50
0.0
 51
90.0
  0
DIMENSION
  5
156D1
330
747D
100
AcDbEntity
  8
寸法
 48
50.0
100
AcDbDimension
  2
*D15
 10
8519.193515933498
 20
7762.211300240214
 30
0.0
 11
8176.693515933498
 21
7762.211300240214
 31
0.0
 70
   160
 71
     5
 42
684.9999999999964
  3
INABA_S40G
100
AcDbAlignedDimension
 13
7834.193515933501
 23
8202.034968035292
 33
0.0
 14
8519.193515933498
 24
8202.034968035254
 34
0.0
100
AcDbRotatedDimension
  0
DIMENSION
  5
156E9
330
747D
100
AcDbEntity
  8
寸法
 48
50.0
100
AcDbDimension
  2
*D16
 10
7569.193515933497
 20
7762.211300240214
 30
0.0
 11
7226.693515933499
 21
7762.211300240214
 31
0.0
 70
   160
 71
     5
 42
684.9999999999964
  3
INABA_S40G
100
AcDbAlignedDimension
 13
6884.193515933501
 23
8202.034968035292
 33
0.0
 14
7569.193515933497
 24
8202.034968035254
 34
0.0
100
AcDbRotatedDimension
  0
LINE
  5
1573A
330
747D
100
AcDbEntity
  8
部品1
100
AcDbLine
 10
5924.193515933497
 20
5252.746329820722
 30
0.0
 11
6634.131068104816
 21
5252.746329820723
 31
0.0
  0
LINE
  5
1573B
330
747D
100
AcDbEntity
  8
部品1
100
AcDbLine
 10
5924.193515933497
 20
3461.746329820738
 30
0.0
 11
6634.131068104816
 21
3461.746329820743
 31
0.0
  0
LINE
  5
1573C
330
747D
100
AcDbEntity
  8
部品1
100
AcDbLine
 10
5922.193515933497
 20
5255.246329820725
 30
0.0
 11
5922.193515933497
 21
3458.246329820744
 31
0.0
  0
LINE
  5
1573D
330
747D
100
AcDbEntity
  8
部品1
100
AcDbLine
 10
5924.193515933497
 20
5252.746329820723
 30
0.0
 11
5924.193515933497
 21
3461.746329820738
 31
0.0
  0
LINE
  5
15751
330
747D
100
AcDbEntity
  8
細線
100
AcDbLine
 10
5976.401055112241
 20
4316.246329820727
 30
0.0
 11
5976.401055112241
 21
4398.246329820727
 31
0.0
  0
LINE
  5
15752
330
747D
100
AcDbEntity
  8
細線
100
AcDbLine
 10
5986.193515933496
 20
4313.246329820727
 30
0.0
 11
5986.193515933496
 21
4401.246329820726
 31
0.0
  0
LINE
  5
15753
330
747D
100
AcDbEntity
  8
細線
100
AcDbLine
 10
5990.693515933496
 20
4304.246329820727
 30
0.0
 11
5990.693515933496
 21
4410.246329820727
 31
0.0
  0
LINE
  5
15754
330
747D
100
AcDbEntity
  8
部品1
100
AcDbLine
 10
5992.193515933496
 20
4303.246329820726
 30
0.0
 11
5992.193515933496
 21
4411.246329820726
 31
0.0
  0
LINE
  5
15755
330
747D
100
AcDbEntity
  8
細線
100
AcDbLine
 10
5958.193515933495
 20
4407.246329820726
 30
0.0
 11
5958.193515933495
 21
4307.246329820727
 31
0.0
  0
ARC
  5
15756
330
747D
100
AcDbEntity
  8
細線
100
AcDbCircle
 10
6234.193515933495
 20
4357.246329820727
 30
0.0
 40
298.5
100
AcDbArc
 50
169.578549027269
 51
190.4214509727309
  0
ARC
  5
15757
330
747D
100
AcDbEntity
  8
細線
100
AcDbCircle
 10
6234.193515933495
 20
4357.246329820727
 30
0.0
 40
294.0
100
AcDbArc
 50
171.212062677364
 51
188.7879373226359
  0
ARC
  5
15758
330
747D
100
AcDbEntity
  8
細線
100
AcDbCircle
 10
5671.590734025571
 20
4357.246329820727
 30
0.0
 40
294.0
100
AcDbArc
 50
351.900449161722
 51
8.099550838278029
  0
ARC
  5
15759
330
747D
100
AcDbEntity
  8
部品1
100
AcDbCircle
 10
6234.193515933495
 20
4357.246329820727
 30
0.0
 40
300.0
100
AcDbArc
 50
169.4161974034894
 51
190.5838025965105
  0
ARC
  5
1575A
330
747D
100
AcDbEntity
  8
細線
100
AcDbCircle
 10
5946.02689746425
 20
4304.246329820727
 30
0.0
 40
5.5
100
AcDbArc
 50
190.4214509727298
 51
269.9999999999997
  0
ARC
  5
1575B
330
747D
100
AcDbEntity
  8
部品1
100
AcDbCircle
 10
5945.19524604248
 20
4303.246329820726
 30
0.0
 40
6.0
100
AcDbArc
 50
190.5838025965097
 51
270.0
  0
ARC
  5
1575C
330
747D
100
AcDbEntity
  8
部品1
100
AcDbCircle
 10
5986.193515933496
 20
4303.246329820726
 30
0.0
 40
6.0
100
AcDbArc
 50
270.0
 51
0.0
  0
ARC
  5
1575D
330
747D
100
AcDbEntity
  8
細線
100
AcDbCircle
 10
5985.193515933495
 20
4304.246329820727
 30
0.0
 40
5.5
100
AcDbArc
 50
270.0
 51
0.0
  0
ARC
  5
1575E
330
747D
100
AcDbEntity
  8
細線
100
AcDbCircle
 10
5949.574472297973
 20
4313.246329820727
 30
0.0
 40
6.0
100
AcDbArc
 50
188.7879373226349
 51
270.0
  0
LINE
  5
1575F
330
747D
100
AcDbEntity
  8
細線
100
AcDbLine
 10
5958.193515933495
 20
4313.246837719288
 30
0.0
 11
5944.714811434673
 21
4313.246837719288
 31
0.0
  0
ARC
  5
15760
330
747D
100
AcDbEntity
  8
細線
100
AcDbCircle
 10
5970.40105511224
 20
4316.246329820727
 30
0.0
 40
6.0
100
AcDbArc
 50
270.0
 51
360.0
  0
LINE
  5
15761
330
747D
100
AcDbEntity
  8
細線
100
AcDbLine
 10
5958.193515933495
 20
4313.246329820727
 30
0.0
 11
5959.68793984333
 21
4313.246329820727
 31
0.0
  0
ARC
  5
15762
330
747D
100
AcDbEntity
  8
細線
100
AcDbCircle
 10
5959.68793984333
 20
4316.246329820727
 30
0.0
 40
3.0
100
AcDbArc
 50
270.0
 51
351.9004491617184
  0
LINE
  5
15763
330
747D
100
AcDbEntity
  8
細線
100
AcDbLine
 10
5958.193515933495
 20
4310.246329820727
 30
0.0
 11
5970.40105511224
 21
4310.246329820727
 31
0.0
  0
LINE
  5
15764
330
747D
100
AcDbEntity
  8
細線
100
AcDbLine
 10
5949.574472297973
 20
4307.246329820727
 30
0.0
 11
5980.193515933495
 21
4307.246329820727
 31
0.0
  0
LINE
  5
15765
330
747D
100
AcDbEntity
  8
細線
100
AcDbLine
 10
5946.02689746425
 20
4298.746329820726
 30
0.0
 11
5985.193515933495
 21
4298.746329820726
 31
0.0
  0
LINE
  5
15766
330
747D
100
AcDbEntity
  8
部品1
100
AcDbLine
 10
5945.19524604248
 20
4297.246329820726
 30
0.0
 11
5986.193515933496
 21
4297.246329820726
 31
0.0
  0
ARC
  5
15767
330
747D
100
AcDbEntity
  8
細線
100
AcDbCircle
 10
5980.193515933495
 20
4313.246329820727
 30
0.0
 40
6.0
100
AcDbArc
 50
270.0
 51
0.0
  0
ARC
  5
15768
330
747D
100
AcDbEntity
  8
細線
100
AcDbCircle
 10
5946.02689746425
 20
4410.246329820727
 30
0.0
 40
5.5
100
AcDbArc
 50
89.99999999999969
 51
169.5785490272683
  0
ARC
  5
15769
330
747D
100
AcDbEntity
  8
部品1
100
AcDbCircle
 10
5945.19524604248
 20
4411.246329820726
 30
0.0
 40
6.0
100
AcDbArc
 50
90.0
 51
169.4161974034886
  0
ARC
  5
1576A
330
747D
100
AcDbEntity
  8
部品1
100
AcDbCircle
 10
5986.193515933496
 20
4411.246329820726
 30
0.0
 40
6.0
100
AcDbArc
 50
0.0
 51
90.0
  0
ARC
  5
1576B
330
747D
100
AcDbEntity
  8
細線
100
AcDbCircle
 10
5985.193515933495
 20
4410.246329820727
 30
0.0
 40
5.5
100
AcDbArc
 50
0.0
 51
90.0
  0
ARC
  5
1576C
330
747D
100
AcDbEntity
  8
細線
100
AcDbCircle
 10
5949.574472297973
 20
4401.246329820726
 30
0.0
 40
6.0
100
AcDbArc
 50
90.0
 51
171.2120626773636
  0
LINE
  5
1576D
330
747D
100
AcDbEntity
  8
細線
100
AcDbLine
 10
5958.193515933495
 20
4401.245821922163
 30
0.0
 11
5945.430188717528
 21
4401.245821922163
 31
0.0
  0
CIRCLE
  5
1576E
330
747D
100
AcDbEntity
  8
細線
 48
20.0
100
AcDbCircle
 10
5965.694380987988
 20
4457.746329820727
 30
0.0
 40
10.0
  0
ARC
  5
1576F
330
747D
100
AcDbEntity
  8
細線
100
AcDbCircle
 10
5970.40105511224
 20
4398.246329820727
 30
0.0
 40
6.0
100
AcDbArc
 50
0.0
 51
90.0
  0
LINE
  5
15770
330
747D
100
AcDbEntity
  8
細線
100
AcDbLine
 10
5959.687939843329
 20
4401.246329820726
 30
0.0
 11
5958.193515933495
 21
4401.246329820726
 31
0.0
  0
ARC
  5
15771
330
747D
100
AcDbEntity
  8
細線
100
AcDbCircle
 10
5959.687939843329
 20
4398.246329820727
 30
0.0
 40
3.0
100
AcDbArc
 50
8.099550838277986
 51
90.0
  0
LINE
  5
15772
330
747D
100
AcDbEntity
  8
細線
100
AcDbLine
 10
5970.40105511224
 20
4404.246329820726
 30
0.0
 11
5958.193515933495
 21
4404.246329820726
 31
0.0
  0
LINE
  5
15773
330
747D
100
AcDbEntity
  8
細線
100
AcDbLine
 10
5980.193515933495
 20
4407.246329820726
 30
0.0
 11
5949.574472297973
 21
4407.246329820726
 31
0.0
  0
LINE
  5
15774
330
747D
100
AcDbEntity
  8
細線
100
AcDbLine
 10
5985.193515933495
 20
4415.746329820726
 30
0.0
 11
5946.02689746425
 21
4415.746329820726
 31
0.0
  0
CIRCLE
  5
15775
330
747D
100
AcDbEntity
  8
細線
 48
20.0
100
AcDbCircle
 10
5965.694380987988
 20
4457.746329820727
 30
0.0
 40
20.0
  0
LINE
  5
15776
330
747D
100
AcDbEntity
  8
部品1
100
AcDbLine
 10
5986.193515933496
 20
4417.246329820726
 30
0.0
 11
5945.19524604248
 21
4417.246329820726
 31
0.0
  0
ARC
  5
15777
330
747D
100
AcDbEntity
  8
細線
100
AcDbCircle
 10
5980.193515933495
 20
4401.246329820726
 30
0.0
 40
6.0
100
AcDbArc
 50
0.0
 51
90.0
  0
LINE
  5
15795
330
747D
100
AcDbEntity
  8
部品1
100
AcDbLine
 10
6786.193515933497
 20
5255.246329820725
 30
0.0
 11
6786.193515933497
 21
3458.246329820744
 31
0.0
  0
LINE
  5
15796
330
747D
100
AcDbEntity
  8
部品1
100
AcDbLine
 10
6654.193515933497
 20
5252.746329820723
 30
0.0
 11
6654.193515933497
 21
3461.746329820746
 31
0.0
  0
LINE
  5
15797
330
747D
100
AcDbEntity
  8
部品1
100
AcDbLine
 10
6656.193515933498
 20
5255.246329820725
 30
0.0
 11
6656.193515933498
 21
3458.246329820744
 31
0.0
  0
LINE
  5
15798
330
747D
100
AcDbEntity
  8
部品1
100
AcDbLine
 10
6872.193515933497
 20
5255.246329820725
 30
0.0
 11
6872.193515933497
 21
3458.246329820744
 31
0.0
  0
LINE
  5
15799
330
747D
100
AcDbEntity
  8
部品1
100
AcDbLine
 10
6874.193515933497
 20
5252.746329820722
 30
0.0
 11
6874.193515933497
 21
3461.746329820738
 31
0.0
  0
LINE
  5
1579A
330
747D
100
AcDbEntity
  8
細線
 48
0.1
100
AcDbLine
 10
6654.131068104816
 20
3461.496329820743
 30
0.0
 11
6654.131068104816
 21
3468.496329820743
 31
0.0
  0
LINE
  5
1579B
330
747D
100
AcDbEntity
  8
細線
 48
50.0
100
AcDbLine
 10
6642.268310910512
 20
3463.996329820745
 30
0.0
 11
6642.268310910512
 21
3465.996329820743
 31
0.0
  0
LINE
  5
1579C
330
747D
100
AcDbEntity
  8
細線
 48
50.0
100
AcDbLine
 10
6650.118720956476
 20
3463.996329820745
 30
0.0
 11
6650.118720956476
 21
3465.996329820743
 31
0.0
  0
LINE
  5
1579D
330
747D
100
AcDbEntity
  8
部品1
 48
50.0
100
AcDbLine
 10
6634.131068104816
 20
3468.496329820743
 30
0.0
 11
6634.131068104816
 21
3461.746329820745
 31
0.0
  0
LINE
  5
1579E
330
747D
100
AcDbEntity
  8
部品1
100
AcDbLine
 10
6654.131068104816
 20
3461.746329820745
 30
0.0
 11
6654.193515933497
 21
3461.746329820745
 31
0.0
  0
ARC
  5
1579F
330
747D
100
AcDbEntity
  8
細線
 48
0.2
100
AcDbCircle
 10
6651.131068104816
 20
3461.525819989495
 30
0.0
 40
1.0
100
AcDbArc
 50
286.6015495990217
 51
0.0
  0
ARC
  5
157A0
330
747D
100
AcDbEntity
  8
細線
 48
0.2
100
AcDbCircle
 10
6641.131068104816
 20
3461.525819989495
 30
0.0
 40
1.0
100
AcDbArc
 50
179.9999999999984
 51
253.3984504009775
  0
ARC
  5
157A1
330
747D
100
AcDbEntity
  8
細線
 48
0.2
100
AcDbCircle
 10
6646.131068104816
 20
3478.29632982074
 30
0.0
 40
18.49999999999796
100
AcDbArc
 50
253.3984504009772
 51
286.6015495990217
  0
LINE
  5
157A2
330
747D
100
AcDbEntity
  8
細線
 48
0.2
100
AcDbLine
 10
6651.815059401323
 20
3460.796329820742
 30
0.0
 11
6640.447076808311
 21
3460.796329820742
 31
0.0
  0
LINE
  5
157A3
330
747D
100
AcDbEntity
  8
部品1
100
AcDbLine
 10
6654.131068104816
 20
3461.746329820745
 30
0.0
 11
6654.193515933497
 21
3461.746329820745
 31
0.0
  0
LINE
  5
157A4
330
747D
100
AcDbEntity
  8
部品1
100
AcDbLine
 10
6654.131068104816
 20
3461.746329820746
 30
0.0
 11
6654.193515933497
 21
3461.746329820746
 31
0.0
  0
LINE
  5
157A5
330
747D
100
AcDbEntity
  8
細線
 48
50.0
100
AcDbLine
 10
6634.131068104816
 20
3461.746329820745
 30
0.0
 11
6634.131068104816
 21
3461.496329820743
 31
0.0
  0
LINE
  5
157A6
330
747D
100
AcDbEntity
  8
細線
 48
0.2
100
AcDbLine
 10
6654.131068104816
 20
3461.496329820743
 30
0.0
 11
6634.131068104816
 21
3461.496329820743
 31
0.0
  0
LINE
  5
157A7
330
747D
100
AcDbEntity
  8
細線
 48
0.2
100
AcDbLine
 10
6654.131068104816
 20
3463.996329820743
 30
0.0
 11
6634.131068104816
 21
3463.996329820745
 31
0.0
  0
LINE
  5
157A8
330
747D
100
AcDbEntity
  8
細線
 48
0.2
100
AcDbLine
 10
6654.131068104816
 20
3465.996329820743
 30
0.0
 11
6634.131068104816
 21
3465.996329820743
 31
0.0
  0
LINE
  5
157A9
330
747D
100
AcDbEntity
  8
部品1
 48
0.2
100
AcDbLine
 10
6654.131068104816
 20
3468.496329820743
 30
0.0
 11
6634.131068104816
 21
3468.496329820743
 31
0.0
  0
ARC
  5
157AA
330
747D
100
AcDbEntity
  8
部品1
100
AcDbCircle
 10
7184.193515933495
 20
4357.246329820727
 30
0.0
 40
300.0
100
AcDbArc
 50
169.4161974034894
 51
190.5838025965105
  0
ARC
  5
157AB
330
747D
100
AcDbEntity
  8
細線
100
AcDbCircle
 10
6621.590734025571
 20
4357.246329820727
 30
0.0
 40
294.0
100
AcDbArc
 50
351.900449161722
 51
8.099550838278029
  0
ARC
  5
157AC
330
747D
100
AcDbEntity
  8
細線
100
AcDbCircle
 10
7184.193515933495
 20
4357.246329820727
 30
0.0
 40
294.0
100
AcDbArc
 50
171.212062677364
 51
188.7879373226359
  0
ARC
  5
157AD
330
747D
100
AcDbEntity
  8
細線
100
AcDbCircle
 10
7184.193515933495
 20
4357.246329820727
 30
0.0
 40
298.5
100
AcDbArc
 50
169.578549027269
 51
190.4214509727309
  0
LINE
  5
157AE
330
747D
100
AcDbEntity
  8
細線
100
AcDbLine
 10
6908.193515933496
 20
4407.246329820726
 30
0.0
 11
6908.193515933496
 21
4307.246329820727
 31
0.0
  0
LINE
  5
157AF
330
747D
100
AcDbEntity
  8
部品1
100
AcDbLine
 10
6942.193515933495
 20
4303.246329820726
 30
0.0
 11
6942.193515933495
 21
4411.246329820726
 31
0.0
  0
LINE
  5
157B0
330
747D
100
AcDbEntity
  8
細線
100
AcDbLine
 10
6940.693515933495
 20
4304.246329820727
 30
0.0
 11
6940.693515933495
 21
4410.246329820727
 31
0.0
  0
LINE
  5
157B1
330
747D
100
AcDbEntity
  8
細線
100
AcDbLine
 10
6936.193515933495
 20
4313.246329820727
 30
0.0
 11
6936.193515933495
 21
4401.246329820726
 31
0.0
  0
LINE
  5
157B2
330
747D
100
AcDbEntity
  8
細線
100
AcDbLine
 10
6926.401055112241
 20
4316.246329820727
 30
0.0
 11
6926.401055112241
 21
4398.246329820727
 31
0.0
  0
LINE
  5
157B3
330
747D
100
AcDbEntity
  8
部品1
100
AcDbLine
 10
6895.19524604248
 20
4297.246329820726
 30
0.0
 11
6936.193515933495
 21
4297.246329820726
 31
0.0
  0
LINE
  5
157B4
330
747D
100
AcDbEntity
  8
細線
100
AcDbLine
 10
6896.02689746425
 20
4298.746329820726
 30
0.0
 11
6935.193515933495
 21
4298.746329820726
 31
0.0
  0
LINE
  5
157B5
330
747D
100
AcDbEntity
  8
細線
100
AcDbLine
 10
6899.574472297972
 20
4307.246329820727
 30
0.0
 11
6930.193515933495
 21
4307.246329820727
 31
0.0
  0
ARC
  5
157B6
330
747D
100
AcDbEntity
  8
細線
100
AcDbCircle
 10
6920.401055112241
 20
4316.246329820727
 30
0.0
 40
6.0
100
AcDbArc
 50
270.0
 51
360.0
  0
LINE
  5
157B7
330
747D
100
AcDbEntity
  8
細線
100
AcDbLine
 10
6908.193515933496
 20
4310.246329820727
 30
0.0
 11
6920.401055112241
 21
4310.246329820727
 31
0.0
  0
ARC
  5
157B8
330
747D
100
AcDbEntity
  8
細線
100
AcDbCircle
 10
6909.68793984333
 20
4316.246329820727
 30
0.0
 40
3.0
100
AcDbArc
 50
270.0
 51
351.9004491617184
  0
LINE
  5
157B9
330
747D
100
AcDbEntity
  8
細線
100
AcDbLine
 10
6908.193515933496
 20
4313.246329820727
 30
0.0
 11
6909.68793984333
 21
4313.246329820727
 31
0.0
  0
ARC
  5
157BA
330
747D
100
AcDbEntity
  8
部品1
100
AcDbCircle
 10
6895.19524604248
 20
4303.246329820726
 30
0.0
 40
6.0
100
AcDbArc
 50
190.5838025965097
 51
270.0
  0
ARC
  5
157BB
330
747D
100
AcDbEntity
  8
細線
100
AcDbCircle
 10
6896.02689746425
 20
4304.246329820727
 30
0.0
 40
5.5
100
AcDbArc
 50
190.4214509727298
 51
269.9999999999997
  0
LINE
  5
157BC
330
747D
100
AcDbEntity
  8
細線
100
AcDbLine
 10
6908.193515933496
 20
4313.246837719288
 30
0.0
 11
6894.714811434673
 21
4313.246837719288
 31
0.0
  0
ARC
  5
157BD
330
747D
100
AcDbEntity
  8
細線
100
AcDbCircle
 10
6899.574472297972
 20
4313.246329820727
 30
0.0
 40
6.0
100
AcDbArc
 50
188.7879373226349
 51
270.0
  0
ARC
  5
157BE
330
747D
100
AcDbEntity
  8
細線
100
AcDbCircle
 10
6930.193515933495
 20
4313.246329820727
 30
0.0
 40
6.0
100
AcDbArc
 50
270.0
 51
0.0
  0
ARC
  5
157BF
330
747D
100
AcDbEntity
  8
細線
100
AcDbCircle
 10
6935.193515933495
 20
4304.246329820727
 30
0.0
 40
5.5
100
AcDbArc
 50
270.0
 51
0.0
  0
ARC
  5
157C0
330
747D
100
AcDbEntity
  8
部品1
100
AcDbCircle
 10
6936.193515933495
 20
4303.246329820726
 30
0.0
 40
6.0
100
AcDbArc
 50
270.0
 51
0.0
  0
LINE
  5
157C1
330
747D
100
AcDbEntity
  8
部品1
100
AcDbLine
 10
6936.193515933495
 20
4417.246329820726
 30
0.0
 11
6895.19524604248
 21
4417.246329820726
 31
0.0
  0
CIRCLE
  5
157C2
330
747D
100
AcDbEntity
  8
細線
 48
20.0
100
AcDbCircle
 10
6915.694380987989
 20
4457.746329820727
 30
0.0
 40
20.0
  0
LINE
  5
157C3
330
747D
100
AcDbEntity
  8
細線
100
AcDbLine
 10
6935.193515933495
 20
4415.746329820726
 30
0.0
 11
6896.02689746425
 21
4415.746329820726
 31
0.0
  0
LINE
  5
157C4
330
747D
100
AcDbEntity
  8
細線
100
AcDbLine
 10
6930.193515933495
 20
4407.246329820726
 30
0.0
 11
6899.574472297972
 21
4407.246329820726
 31
0.0
  0
ARC
  5
157C5
330
747D
100
AcDbEntity
  8
細線
100
AcDbCircle
 10
6920.401055112241
 20
4398.246329820727
 30
0.0
 40
6.0
100
AcDbArc
 50
0.0
 51
90.0
  0
LINE
  5
157C6
330
747D
100
AcDbEntity
  8
細線
100
AcDbLine
 10
6920.401055112241
 20
4404.246329820726
 30
0.0
 11
6908.193515933496
 21
4404.246329820726
 31
0.0
  0
ARC
  5
157C7
330
747D
100
AcDbEntity
  8
細線
100
AcDbCircle
 10
6909.687939843329
 20
4398.246329820727
 30
0.0
 40
3.0
100
AcDbArc
 50
8.099550838277986
 51
90.0
  0
LINE
  5
157C8
330
747D
100
AcDbEntity
  8
細線
100
AcDbLine
 10
6909.687939843329
 20
4401.246329820726
 30
0.0
 11
6908.193515933496
 21
4401.246329820726
 31
0.0
  0
CIRCLE
  5
157C9
330
747D
100
AcDbEntity
  8
細線
 48
20.0
100
AcDbCircle
 10
6915.694380987989
 20
4457.746329820727
 30
0.0
 40
10.0
  0
ARC
  5
157CA
330
747D
100
AcDbEntity
  8
部品1
100
AcDbCircle
 10
6895.19524604248
 20
4411.246329820726
 30
0.0
 40
6.0
100
AcDbArc
 50
90.0
 51
169.4161974034886
  0
ARC
  5
157CB
330
747D
100
AcDbEntity
  8
細線
100
AcDbCircle
 10
6896.02689746425
 20
4410.246329820727
 30
0.0
 40
5.5
100
AcDbArc
 50
89.99999999999969
 51
169.5785490272683
  0
LINE
  5
157CC
330
747D
100
AcDbEntity
  8
細線
100
AcDbLine
 10
6908.193515933496
 20
4401.245821922163
 30
0.0
 11
6895.430188717527
 21
4401.245821922163
 31
0.0
  0
ARC
  5
157CD
330
747D
100
AcDbEntity
  8
細線
100
AcDbCircle
 10
6899.574472297972
 20
4401.246329820726
 30
0.0
 40
6.0
100
AcDbArc
 50
90.0
 51
171.2120626773636
  0
ARC
  5
157CE
330
747D
100
AcDbEntity
  8
細線
100
AcDbCircle
 10
6930.193515933495
 20
4401.246329820726
 30
0.0
 40
6.0
100
AcDbArc
 50
0.0
 51
90.0
  0
ARC
  5
157CF
330
747D
100
AcDbEntity
  8
細線
100
AcDbCircle
 10
6935.193515933495
 20
4410.246329820727
 30
0.0
 40
5.5
100
AcDbArc
 50
0.0
 51
90.0
  0
ARC
  5
157D0
330
747D
100
AcDbEntity
  8
部品1
100
AcDbCircle
 10
6936.193515933495
 20
4411.246329820726
 30
0.0
 40
6.0
100
AcDbArc
 50
0.0
 51
90.0
  0
LINE
  5
157DB
330
747D
100
AcDbEntity
  8
部品1
100
AcDbLine
 10
6654.131068104816
 20
5252.746329820722
 30
0.0
 11
6654.193515933497
 21
5252.746329820723
 31
0.0
  0
LINE
  5
157DC
330
747D
100
AcDbEntity
  8
部品1
100
AcDbLine
 10
6654.131068104816
 20
5252.746329820726
 30
0.0
 11
6654.193515933497
 21
5252.746329820723
 31
0.0
  0
LINE
  5
157DD
330
747D
100
AcDbEntity
  8
細線
 48
0.2
100
AcDbLine
 10
6651.815059401323
 20
5253.696329820726
 30
0.0
 11
6640.447076808311
 21
5253.696329820726
 31
0.0
  0
ARC
  5
157DE
330
747D
100
AcDbEntity
  8
細線
 48
0.2
100
AcDbCircle
 10
6646.131068104816
 20
5236.196329820728
 30
0.0
 40
18.49999999999796
100
AcDbArc
 50
73.39845040097829
 51
106.6015495990228
  0
ARC
  5
157DF
330
747D
100
AcDbEntity
  8
細線
 48
0.2
100
AcDbCircle
 10
6641.131068104816
 20
5252.966839651974
 30
0.0
 40
1.0
100
AcDbArc
 50
106.6015495990225
 51
180.0000000000016
  0
ARC
  5
157E0
330
747D
100
AcDbEntity
  8
細線
 48
0.2
100
AcDbCircle
 10
6651.131068104816
 20
5252.966839651974
 30
0.0
 40
1.0
100
AcDbArc
 50
0.0
 51
73.39845040097829
  0
LINE
  5
157E1
330
747D
100
AcDbEntity
  8
細線
 48
50.0
100
AcDbLine
 10
6650.118720956476
 20
5250.496329820726
 30
0.0
 11
6650.118720956476
 21
5248.496329820726
 31
0.0
  0
LINE
  5
157E2
330
747D
100
AcDbEntity
  8
細線
 48
50.0
100
AcDbLine
 10
6642.268310910512
 20
5250.496329820726
 30
0.0
 11
6642.268310910512
 21
5248.496329820726
 31
0.0
  0
LINE
  5
157E3
330
747D
100
AcDbEntity
  8
細線
 48
0.1
100
AcDbLine
 10
6654.131068104816
 20
5252.996329820725
 30
0.0
 11
6654.131068104816
 21
5245.996329820726
 31
0.0
  0
LINE
  5
157E4
330
747D
100
AcDbEntity
  8
細線
 48
50.0
100
AcDbLine
 10
6634.131068104816
 20
5252.746329820726
 30
0.0
 11
6634.131068104816
 21
5252.996329820725
 31
0.0
  0
LINE
  5
157E5
330
747D
100
AcDbEntity
  8
部品1
 48
50.0
100
AcDbLine
 10
6634.131068104816
 20
5245.996329820726
 30
0.0
 11
6634.131068104816
 21
5252.746329820726
 31
0.0
  0
LINE
  5
157E6
330
747D
100
AcDbEntity
  8
細線
 48
0.2
100
AcDbLine
 10
6654.131068104816
 20
5250.496329820726
 30
0.0
 11
6634.131068104816
 21
5250.496329820726
 31
0.0
  0
LINE
  5
157E7
330
747D
100
AcDbEntity
  8
細線
 48
0.2
100
AcDbLine
 10
6654.131068104816
 20
5252.996329820725
 30
0.0
 11
6634.131068104816
 21
5252.996329820725
 31
0.0
  0
LINE
  5
157E8
330
747D
100
AcDbEntity
  8
部品1
 48
0.2
100
AcDbLine
 10
6654.131068104816
 20
5245.996329820726
 30
0.0
 11
6634.131068104816
 21
5245.996329820726
 31
0.0
  0
LINE
  5
157E9
330
747D
100
AcDbEntity
  8
細線
 48
0.2
100
AcDbLine
 10
6654.131068104816
 20
5248.496329820726
 30
0.0
 11
6634.131068104816
 21
5248.496329820726
 31
0.0
  0
LINE
  5
157F0
330
747D
100
AcDbEntity
  8
部品1
100
AcDbLine
 10
4024.193515933497
 20
5252.746329820726
 30
0.0
 11
4734.131068104816
 21
5252.746329820726
 31
0.0
  0
LINE
  5
157F7
330
747D
100
AcDbEntity
  8
部品1
100
AcDbLine
 10
4024.193515933497
 20
3461.74632982073
 30
0.0
 11
4734.131068104816
 21
3461.746329820745
 31
0.0
  0
LINE
  5
157FC
330
747D
100
AcDbEntity
  8
部品1
100
AcDbLine
 10
4974.193515933497
 20
5252.746329820722
 30
0.0
 11
4974.193515933497
 21
3461.746329820738
 31
0.0
  0
LINE
  5
157FD
330
747D
100
AcDbEntity
  8
部品1
100
AcDbLine
 10
4972.193515933497
 20
5255.246329820725
 30
0.0
 11
4972.193515933497
 21
3458.246329820744
 31
0.0
  0
LINE
  5
15801
330
747D
100
AcDbEntity
  8
部品1
100
AcDbLine
 10
4756.193515933497
 20
5255.246329820725
 30
0.0
 11
4756.193515933497
 21
3458.246329820744
 31
0.0
  0
LINE
  5
15802
330
747D
100
AcDbEntity
  8
部品1
100
AcDbLine
 10
4886.193515933497
 20
5255.246329820725
 30
0.0
 11
4886.193515933497
 21
3458.246329820744
 31
0.0
  0
LINE
  5
15803
330
747D
100
AcDbEntity
  8
部品1
100
AcDbLine
 10
4754.193515933495
 20
5252.746329820723
 30
0.0
 11
4754.193515933496
 21
3461.746329820745
 31
0.0
  0
LINE
  5
15808
330
747D
100
AcDbEntity
  8
部品1
100
AcDbLine
 10
5704.193515933495
 20
5252.746329820723
 30
0.0
 11
5704.193515933496
 21
3461.746329820745
 31
0.0
  0
LINE
  5
1580A
330
747D
100
AcDbEntity
  8
部品1
100
AcDbLine
 10
5706.193515933497
 20
5255.246329820725
 30
0.0
 11
5706.193515933497
 21
3458.246329820744
 31
0.0
  0
LINE
  5
1580C
330
747D
100
AcDbEntity
  8
細線
 48
50.0
100
AcDbLine
 10
4742.268310910513
 20
3463.996329820745
 30
0.0
 11
4742.268310910513
 21
3465.996329820743
 31
0.0
  0
LINE
  5
1580D
330
747D
100
AcDbEntity
  8
部品1
 48
50.0
100
AcDbLine
 10
4734.131068104816
 20
3468.496329820743
 30
0.0
 11
4734.131068104816
 21
3461.746329820745
 31
0.0
  0
LINE
  5
1580E
330
747D
100
AcDbEntity
  8
細線
 48
0.1
100
AcDbLine
 10
4754.131068104817
 20
3461.496329820743
 30
0.0
 11
4754.131068104817
 21
3468.496329820743
 31
0.0
  0
LINE
  5
1580F
330
747D
100
AcDbEntity
  8
細線
 48
50.0
100
AcDbLine
 10
4750.118720956476
 20
3463.996329820745
 30
0.0
 11
4750.118720956476
 21
3465.996329820743
 31
0.0
  0
LINE
  5
15810
330
747D
100
AcDbEntity
  8
細線
 48
0.2
100
AcDbLine
 10
4754.131068104817
 20
3461.496329820743
 30
0.0
 11
4734.131068104816
 21
3461.496329820743
 31
0.0
  0
LINE
  5
15811
330
747D
100
AcDbEntity
  8
細線
 48
0.2
100
AcDbLine
 10
4754.131068104817
 20
3463.996329820743
 30
0.0
 11
4734.131068104816
 21
3463.996329820745
 31
0.0
  0
ARC
  5
15812
330
747D
100
AcDbEntity
  8
細線
 48
0.2
100
AcDbCircle
 10
4746.131068104816
 20
3478.29632982074
 30
0.0
 40
18.49999999999796
100
AcDbArc
 50
253.3984504009772
 51
286.6015495990217
  0
LINE
  5
15813
330
747D
100
AcDbEntity
  8
細線
 48
0.2
100
AcDbLine
 10
4751.815059401324
 20
3460.796329820742
 30
0.0
 11
4740.447076808312
 21
3460.796329820742
 31
0.0
  0
ARC
  5
15814
330
747D
100
AcDbEntity
  8
細線
 48
0.2
100
AcDbCircle
 10
4741.131068104816
 20
3461.525819989495
 30
0.0
 40
1.0
100
AcDbArc
 50
179.9999999999984
 51
253.3984504009775
  0
LINE
  5
15815
330
747D
100
AcDbEntity
  8
細線
 48
50.0
100
AcDbLine
 10
4734.131068104816
 20
3461.746329820745
 30
0.0
 11
4734.131068104816
 21
3461.496329820743
 31
0.0
  0
ARC
  5
15816
330
747D
100
AcDbEntity
  8
細線
 48
0.2
100
AcDbCircle
 10
4751.131068104816
 20
3461.525819989495
 30
0.0
 40
1.0
100
AcDbArc
 50
286.6015495990217
 51
0.0
  0
LINE
  5
15817
330
747D
100
AcDbEntity
  8
部品1
100
AcDbLine
 10
4754.131068104817
 20
3461.746329820745
 30
0.0
 11
4754.193515933496
 21
3461.746329820745
 31
0.0
  0
LINE
  5
15818
330
747D
100
AcDbEntity
  8
部品1
100
AcDbLine
 10
4754.131068104817
 20
3461.746329820736
 30
0.0
 11
4754.193515933496
 21
3461.746329820736
 31
0.0
  0
LINE
  5
15819
330
747D
100
AcDbEntity
  8
細線
 48
0.2
100
AcDbLine
 10
4754.131068104817
 20
3465.996329820743
 30
0.0
 11
4734.131068104816
 21
3465.996329820743
 31
0.0
  0
LINE
  5
1581A
330
747D
100
AcDbEntity
  8
部品1
 48
0.2
100
AcDbLine
 10
4754.131068104817
 20
3468.496329820743
 30
0.0
 11
4734.131068104816
 21
3468.496329820743
 31
0.0
  0
LINE
  5
1582B
330
747D
100
AcDbEntity
  8
部品1
100
AcDbLine
 10
4974.193515933497
 20
3461.74632982073
 30
0.0
 11
5684.131068104816
 21
3461.746329820745
 31
0.0
  0
LINE
  5
1582C
330
747D
100
AcDbEntity
  8
細線
 48
50.0
100
AcDbLine
 10
5700.118720956476
 20
3463.996329820745
 30
0.0
 11
5700.118720956476
 21
3465.996329820743
 31
0.0
  0
LINE
  5
1582D
330
747D
100
AcDbEntity
  8
細線
 48
0.1
100
AcDbLine
 10
5704.131068104817
 20
3461.496329820743
 30
0.0
 11
5704.131068104817
 21
3468.496329820743
 31
0.0
  0
LINE
  5
1582E
330
747D
100
AcDbEntity
  8
部品1
 48
50.0
100
AcDbLine
 10
5684.131068104816
 20
3468.496329820743
 30
0.0
 11
5684.131068104816
 21
3461.746329820745
 31
0.0
  0
LINE
  5
1582F
330
747D
100
AcDbEntity
  8
細線
 48
50.0
100
AcDbLine
 10
5692.268310910513
 20
3463.996329820745
 30
0.0
 11
5692.268310910513
 21
3465.996329820743
 31
0.0
  0
LINE
  5
15830
330
747D
100
AcDbEntity
  8
部品1
100
AcDbLine
 10
5704.131068104817
 20
3461.746329820736
 30
0.0
 11
5704.193515933496
 21
3461.746329820736
 31
0.0
  0
LINE
  5
15831
330
747D
100
AcDbEntity
  8
部品1
100
AcDbLine
 10
5704.131068104817
 20
3461.746329820745
 30
0.0
 11
5704.193515933496
 21
3461.746329820745
 31
0.0
  0
ARC
  5
15832
330
747D
100
AcDbEntity
  8
細線
 48
0.2
100
AcDbCircle
 10
5701.131068104817
 20
3461.525819989495
 30
0.0
 40
1.0
100
AcDbArc
 50
286.6015495990217
 51
0.0
  0
LINE
  5
15833
330
747D
100
AcDbEntity
  8
細線
 48
50.0
100
AcDbLine
 10
5684.131068104816
 20
3461.746329820745
 30
0.0
 11
5684.131068104816
 21
3461.496329820743
 31
0.0
  0
ARC
  5
15834
330
747D
100
AcDbEntity
  8
細線
 48
0.2
100
AcDbCircle
 10
5691.131068104816
 20
3461.525819989495
 30
0.0
 40
1.0
100
AcDbArc
 50
179.9999999999984
 51
253.3984504009775
  0
LINE
  5
15835
330
747D
100
AcDbEntity
  8
細線
 48
0.2
100
AcDbLine
 10
5701.815059401324
 20
3460.796329820742
 30
0.0
 11
5690.447076808312
 21
3460.796329820742
 31
0.0
  0
ARC
  5
15836
330
747D
100
AcDbEntity
  8
細線
 48
0.2
100
AcDbCircle
 10
5696.131068104816
 20
3478.29632982074
 30
0.0
 40
18.49999999999796
100
AcDbArc
 50
253.3984504009772
 51
286.6015495990217
  0
LINE
  5
15837
330
747D
100
AcDbEntity
  8
細線
 48
0.2
100
AcDbLine
 10
5704.131068104817
 20
3463.996329820743
 30
0.0
 11
5684.131068104816
 21
3463.996329820745
 31
0.0
  0
LINE
  5
15838
330
747D
100
AcDbEntity
  8
細線
 48
0.2
100
AcDbLine
 10
5704.131068104817
 20
3461.496329820743
 30
0.0
 11
5684.131068104816
 21
3461.496329820743
 31
0.0
  0
LINE
  5
15839
330
747D
100
AcDbEntity
  8
部品1
 48
0.2
100
AcDbLine
 10
5704.131068104817
 20
3468.496329820743
 30
0.0
 11
5684.131068104816
 21
3468.496329820743
 31
0.0
  0
LINE
  5
1583A
330
747D
100
AcDbEntity
  8
細線
 48
0.2
100
AcDbLine
 10
5704.131068104817
 20
3465.996329820743
 30
0.0
 11
5684.131068104816
 21
3465.996329820743
 31
0.0
  0
LINE
  5
15866
330
747D
100
AcDbEntity
  8
細線
 48
50.0
100
AcDbLine
 10
4750.118720956476
 20
5250.496329820726
 30
0.0
 11
4750.118720956476
 21
5248.496329820726
 31
0.0
  0
LINE
  5
15867
330
747D
100
AcDbEntity
  8
細線
 48
0.1
100
AcDbLine
 10
4754.131068104817
 20
5252.996329820725
 30
0.0
 11
4754.131068104817
 21
5245.996329820726
 31
0.0
  0
LINE
  5
15868
330
747D
100
AcDbEntity
  8
細線
 48
50.0
100
AcDbLine
 10
4742.268310910513
 20
5250.496329820726
 30
0.0
 11
4742.268310910513
 21
5248.496329820726
 31
0.0
  0
LINE
  5
15869
330
747D
100
AcDbEntity
  8
部品1
 48
50.0
100
AcDbLine
 10
4734.131068104816
 20
5245.996329820726
 30
0.0
 11
4734.131068104816
 21
5252.746329820726
 31
0.0
  0
LINE
  5
1586A
330
747D
100
AcDbEntity
  8
部品1
 48
0.2
100
AcDbLine
 10
4754.131068104817
 20
5245.996329820726
 30
0.0
 11
4734.131068104816
 21
5245.996329820726
 31
0.0
  0
LINE
  5
1586B
330
747D
100
AcDbEntity
  8
細線
 48
0.2
100
AcDbLine
 10
4754.131068104817
 20
5248.496329820726
 30
0.0
 11
4734.131068104816
 21
5248.496329820726
 31
0.0
  0
LINE
  5
1586C
330
747D
100
AcDbEntity
  8
細線
 48
0.2
100
AcDbLine
 10
4751.815059401324
 20
5253.696329820726
 30
0.0
 11
4740.447076808312
 21
5253.696329820726
 31
0.0
  0
ARC
  5
1586D
330
747D
100
AcDbEntity
  8
細線
 48
0.2
100
AcDbCircle
 10
4746.131068104816
 20
5236.196329820728
 30
0.0
 40
18.49999999999796
100
AcDbArc
 50
73.39845040097829
 51
106.6015495990228
  0
LINE
  5
1586E
330
747D
100
AcDbEntity
  8
細線
 48
0.2
100
AcDbLine
 10
4754.131068104817
 20
5250.496329820726
 30
0.0
 11
4734.131068104816
 21
5250.496329820726
 31
0.0
  0
LINE
  5
1586F
330
747D
100
AcDbEntity
  8
細線
 48
0.2
100
AcDbLine
 10
4754.131068104817
 20
5252.996329820725
 30
0.0
 11
4734.131068104816
 21
5252.996329820725
 31
0.0
  0
ARC
  5
15870
330
747D
100
AcDbEntity
  8
細線
 48
0.2
100
AcDbCircle
 10
4741.131068104816
 20
5252.966839651974
 30
0.0
 40
1.0
100
AcDbArc
 50
106.6015495990225
 51
180.0000000000016
  0
LINE
  5
15871
330
747D
100
AcDbEntity
  8
細線
 48
50.0
100
AcDbLine
 10
4734.131068104816
 20
5252.746329820726
 30
0.0
 11
4734.131068104816
 21
5252.996329820725
 31
0.0
  0
ARC
  5
15872
330
747D
100
AcDbEntity
  8
細線
 48
0.2
100
AcDbCircle
 10
4751.131068104816
 20
5252.966839651974
 30
0.0
 40
1.0
100
AcDbArc
 50
0.0
 51
73.39845040097829
  0
LINE
  5
15873
330
747D
100
AcDbEntity
  8
部品1
100
AcDbLine
 10
4754.131068104817
 20
5252.746329820726
 30
0.0
 11
4754.193515933496
 21
5252.746329820723
 31
0.0
  0
LINE
  5
15892
330
747D
100
AcDbEntity
  8
細線
100
AcDbLine
 10
5026.401055112241
 20
4316.246329820727
 30
0.0
 11
5026.401055112241
 21
4398.246329820727
 31
0.0
  0
LINE
  5
15893
330
747D
100
AcDbEntity
  8
細線
100
AcDbLine
 10
5036.193515933495
 20
4313.246329820727
 30
0.0
 11
5036.193515933495
 21
4401.246329820726
 31
0.0
  0
LINE
  5
15894
330
747D
100
AcDbEntity
  8
細線
100
AcDbLine
 10
5040.693515933496
 20
4304.246329820727
 30
0.0
 11
5040.693515933496
 21
4410.246329820727
 31
0.0
  0
LINE
  5
15895
330
747D
100
AcDbEntity
  8
部品1
100
AcDbLine
 10
5042.193515933496
 20
4303.246329820726
 30
0.0
 11
5042.193515933496
 21
4411.246329820726
 31
0.0
  0
LINE
  5
15896
330
747D
100
AcDbEntity
  8
細線
100
AcDbLine
 10
5008.193515933495
 20
4407.246329820726
 30
0.0
 11
5008.193515933495
 21
4307.246329820727
 31
0.0
  0
ARC
  5
15897
330
747D
100
AcDbEntity
  8
細線
100
AcDbCircle
 10
5284.193515933495
 20
4357.246329820727
 30
0.0
 40
298.5
100
AcDbArc
 50
169.578549027269
 51
190.4214509727309
  0
ARC
  5
15898
330
747D
100
AcDbEntity
  8
細線
100
AcDbCircle
 10
5284.193515933495
 20
4357.246329820727
 30
0.0
 40
294.0
100
AcDbArc
 50
171.212062677364
 51
188.7879373226359
  0
ARC
  5
15899
330
747D
100
AcDbEntity
  8
細線
100
AcDbCircle
 10
4721.59073402557
 20
4357.246329820727
 30
0.0
 40
294.0
100
AcDbArc
 50
351.900449161722
 51
8.099550838278029
  0
ARC
  5
1589A
330
747D
100
AcDbEntity
  8
部品1
100
AcDbCircle
 10
5284.193515933495
 20
4357.246329820727
 30
0.0
 40
300.0
100
AcDbArc
 50
169.4161974034894
 51
190.5838025965105
  0
ARC
  5
1589B
330
747D
100
AcDbEntity
  8
部品1
100
AcDbCircle
 10
5036.193515933495
 20
4303.246329820726
 30
0.0
 40
6.0
100
AcDbArc
 50
270.0
 51
0.0
  0
ARC
  5
1589C
330
747D
100
AcDbEntity
  8
細線
100
AcDbCircle
 10
5035.193515933496
 20
4304.246329820727
 30
0.0
 40
5.5
100
AcDbArc
 50
270.0
 51
0.0
  0
ARC
  5
1589D
330
747D
100
AcDbEntity
  8
細線
100
AcDbCircle
 10
5030.193515933495
 20
4313.246329820727
 30
0.0
 40
6.0
100
AcDbArc
 50
270.0
 51
0.0
  0
ARC
  5
1589E
330
747D
100
AcDbEntity
  8
細線
100
AcDbCircle
 10
4999.574472297973
 20
4313.246329820727
 30
0.0
 40
6.0
100
AcDbArc
 50
188.7879373226349
 51
270.0
  0
LINE
  5
1589F
330
747D
100
AcDbEntity
  8
細線
100
AcDbLine
 10
5008.193515933495
 20
4313.246837719288
 30
0.0
 11
4994.714811434673
 21
4313.246837719288
 31
0.0
  0
ARC
  5
158A0
330
747D
100
AcDbEntity
  8
細線
100
AcDbCircle
 10
4996.02689746425
 20
4304.246329820727
 30
0.0
 40
5.5
100
AcDbArc
 50
190.4214509727298
 51
269.9999999999997
  0
ARC
  5
158A1
330
747D
100
AcDbEntity
  8
部品1
100
AcDbCircle
 10
4995.19524604248
 20
4303.246329820726
 30
0.0
 40
6.0
100
AcDbArc
 50
190.5838025965097
 51
270.0
  0
LINE
  5
158A2
330
747D
100
AcDbEntity
  8
細線
100
AcDbLine
 10
5008.193515933495
 20
4313.246329820727
 30
0.0
 11
5009.68793984333
 21
4313.246329820727
 31
0.0
  0
ARC
  5
158A3
330
747D
100
AcDbEntity
  8
細線
100
AcDbCircle
 10
5009.68793984333
 20
4316.246329820727
 30
0.0
 40
3.0
100
AcDbArc
 50
270.0
 51
351.9004491617184
  0
LINE
  5
158A4
330
747D
100
AcDbEntity
  8
細線
100
AcDbLine
 10
5008.193515933495
 20
4310.246329820727
 30
0.0
 11
5020.401055112241
 21
4310.246329820727
 31
0.0
  0
ARC
  5
158A5
330
747D
100
AcDbEntity
  8
細線
100
AcDbCircle
 10
5020.401055112241
 20
4316.246329820727
 30
0.0
 40
6.0
100
AcDbArc
 50
270.0
 51
360.0
  0
LINE
  5
158A6
330
747D
100
AcDbEntity
  8
細線
100
AcDbLine
 10
4999.574472297973
 20
4307.246329820727
 30
0.0
 11
5030.193515933495
 21
4307.246329820727
 31
0.0
  0
LINE
  5
158A7
330
747D
100
AcDbEntity
  8
細線
100
AcDbLine
 10
4996.02689746425
 20
4298.746329820726
 30
0.0
 11
5035.193515933496
 21
4298.746329820726
 31
0.0
  0
LINE
  5
158A8
330
747D
100
AcDbEntity
  8
部品1
100
AcDbLine
 10
4995.19524604248
 20
4297.246329820726
 30
0.0
 11
5036.193515933495
 21
4297.246329820726
 31
0.0
  0
ARC
  5
158A9
330
747D
100
AcDbEntity
  8
部品1
100
AcDbCircle
 10
5036.193515933495
 20
4411.246329820726
 30
0.0
 40
6.0
100
AcDbArc
 50
0.0
 51
90.0
  0
ARC
  5
158AA
330
747D
100
AcDbEntity
  8
細線
100
AcDbCircle
 10
5035.193515933496
 20
4410.246329820727
 30
0.0
 40
5.5
100
AcDbArc
 50
0.0
 51
90.0
  0
ARC
  5
158AB
330
747D
100
AcDbEntity
  8
細線
100
AcDbCircle
 10
5030.193515933495
 20
4401.246329820726
 30
0.0
 40
6.0
100
AcDbArc
 50
0.0
 51
90.0
  0
ARC
  5
158AC
330
747D
100
AcDbEntity
  8
細線
100
AcDbCircle
 10
4999.574472297973
 20
4401.246329820726
 30
0.0
 40
6.0
100
AcDbArc
 50
90.0
 51
171.2120626773636
  0
LINE
  5
158AD
330
747D
100
AcDbEntity
  8
細線
100
AcDbLine
 10
5008.193515933495
 20
4401.245821922163
 30
0.0
 11
4995.430188717528
 21
4401.245821922163
 31
0.0
  0
ARC
  5
158AE
330
747D
100
AcDbEntity
  8
細線
100
AcDbCircle
 10
4996.02689746425
 20
4410.246329820727
 30
0.0
 40
5.5
100
AcDbArc
 50
89.99999999999969
 51
169.5785490272683
  0
ARC
  5
158AF
330
747D
100
AcDbEntity
  8
部品1
100
AcDbCircle
 10
4995.19524604248
 20
4411.246329820726
 30
0.0
 40
6.0
100
AcDbArc
 50
90.0
 51
169.4161974034886
  0
CIRCLE
  5
158B0
330
747D
100
AcDbEntity
  8
細線
 48
20.0
100
AcDbCircle
 10
5015.694380987988
 20
4457.746329820727
 30
0.0
 40
10.0
  0
LINE
  5
158B1
330
747D
100
AcDbEntity
  8
細線
100
AcDbLine
 10
5009.687939843328
 20
4401.246329820726
 30
0.0
 11
5008.193515933495
 21
4401.246329820726
 31
0.0
  0
ARC
  5
158B2
330
747D
100
AcDbEntity
  8
細線
100
AcDbCircle
 10
5009.687939843328
 20
4398.246329820727
 30
0.0
 40
3.0
100
AcDbArc
 50
8.099550838277986
 51
90.0
  0
LINE
  5
158B3
330
747D
100
AcDbEntity
  8
細線
100
AcDbLine
 10
5020.401055112241
 20
4404.246329820726
 30
0.0
 11
5008.193515933495
 21
4404.246329820726
 31
0.0
  0
ARC
  5
158B4
330
747D
100
AcDbEntity
  8
細線
100
AcDbCircle
 10
5020.401055112241
 20
4398.246329820727
 30
0.0
 40
6.0
100
AcDbArc
 50
0.0
 51
90.0
  0
LINE
  5
158B5
330
747D
100
AcDbEntity
  8
細線
100
AcDbLine
 10
5030.193515933495
 20
4407.246329820726
 30
0.0
 11
4999.574472297973
 21
4407.246329820726
 31
0.0
  0
LINE
  5
158B6
330
747D
100
AcDbEntity
  8
細線
100
AcDbLine
 10
5035.193515933496
 20
4415.746329820726
 30
0.0
 11
4996.02689746425
 21
4415.746329820726
 31
0.0
  0
CIRCLE
  5
158B7
330
747D
100
AcDbEntity
  8
細線
 48
20.0
100
AcDbCircle
 10
5015.694380987988
 20
4457.746329820727
 30
0.0
 40
20.0
  0
LINE
  5
158B8
330
747D
100
AcDbEntity
  8
部品1
100
AcDbLine
 10
5036.193515933495
 20
4417.246329820726
 30
0.0
 11
4995.19524604248
 21
4417.246329820726
 31
0.0
  0
LINE
  5
158E6
330
747D
100
AcDbEntity
  8
部品1
100
AcDbLine
 10
4974.193515933497
 20
5252.746329820726
 30
0.0
 11
5684.131068104816
 21
5252.746329820726
 31
0.0
  0
LINE
  5
158EE
330
747D
100
AcDbEntity
  8
部品1
100
AcDbLine
 10
5704.131068104817
 20
5252.746329820726
 30
0.0
 11
5704.193515933496
 21
5252.746329820723
 31
0.0
  0
ARC
  5
158EF
330
747D
100
AcDbEntity
  8
細線
 48
0.2
100
AcDbCircle
 10
5701.131068104817
 20
5252.966839651974
 30
0.0
 40
1.0
100
AcDbArc
 50
0.0
 51
73.39845040097829
  0
LINE
  5
158F0
330
747D
100
AcDbEntity
  8
細線
 48
50.0
100
AcDbLine
 10
5684.131068104816
 20
5252.746329820726
 30
0.0
 11
5684.131068104816
 21
5252.996329820725
 31
0.0
  0
ARC
  5
158F1
330
747D
100
AcDbEntity
  8
細線
 48
0.2
100
AcDbCircle
 10
5691.131068104816
 20
5252.966839651974
 30
0.0
 40
1.0
100
AcDbArc
 50
106.6015495990225
 51
180.0000000000016
  0
LINE
  5
158F2
330
747D
100
AcDbEntity
  8
細線
 48
0.2
100
AcDbLine
 10
5704.131068104817
 20
5252.996329820725
 30
0.0
 11
5684.131068104816
 21
5252.996329820725
 31
0.0
  0
LINE
  5
158F3
330
747D
100
AcDbEntity
  8
細線
 48
0.2
100
AcDbLine
 10
5704.131068104817
 20
5250.496329820726
 30
0.0
 11
5684.131068104816
 21
5250.496329820726
 31
0.0
  0
ARC
  5
158F4
330
747D
100
AcDbEntity
  8
細線
 48
0.2
100
AcDbCircle
 10
5696.131068104816
 20
5236.196329820728
 30
0.0
 40
18.49999999999796
100
AcDbArc
 50
73.39845040097829
 51
106.6015495990228
  0
LINE
  5
158F5
330
747D
100
AcDbEntity
  8
細線
 48
0.2
100
AcDbLine
 10
5701.815059401324
 20
5253.696329820726
 30
0.0
 11
5690.447076808312
 21
5253.696329820726
 31
0.0
  0
LINE
  5
158F6
330
747D
100
AcDbEntity
  8
細線
 48
0.2
100
AcDbLine
 10
5704.131068104817
 20
5248.496329820726
 30
0.0
 11
5684.131068104816
 21
5248.496329820726
 31
0.0
  0
LINE
  5
158F7
330
747D
100
AcDbEntity
  8
部品1
 48
0.2
100
AcDbLine
 10
5704.131068104817
 20
5245.996329820726
 30
0.0
 11
5684.131068104816
 21
5245.996329820726
 31
0.0
  0
LINE
  5
158F8
330
747D
100
AcDbEntity
  8
部品1
 48
50.0
100
AcDbLine
 10
5684.131068104816
 20
5245.996329820726
 30
0.0
 11
5684.131068104816
 21
5252.746329820726
 31
0.0
  0
LINE
  5
158F9
330
747D
100
AcDbEntity
  8
細線
 48
50.0
100
AcDbLine
 10
5692.268310910513
 20
5250.496329820726
 30
0.0
 11
5692.268310910513
 21
5248.496329820726
 31
0.0
  0
LINE
  5
158FA
330
747D
100
AcDbEntity
  8
細線
 48
0.1
100
AcDbLine
 10
5704.131068104817
 20
5252.996329820725
 30
0.0
 11
5704.131068104817
 21
5245.996329820726
 31
0.0
  0
LINE
  5
158FB
330
747D
100
AcDbEntity
  8
細線
 48
50.0
100
AcDbLine
 10
5700.118720956476
 20
5250.496329820726
 30
0.0
 11
5700.118720956476
 21
5248.496329820726
 31
0.0
  0
LINE
  5
158FD
330
747D
100
AcDbEntity
  8
部品1
100
AcDbLine
 10
5836.193515933497
 20
5255.246329820725
 30
0.0
 11
5836.193515933497
 21
3458.246329820744
 31
0.0
  0
LINE
  5
15A15
330
747D
100
AcDbEntity
  8
部品1
 48
50.0
100
AcDbLine
 10
6829.193515933496
 20
3458.246329820712
 30
0.0
 11
6829.193515933496
 21
3415.246329820709
 31
0.0
  0
LINE
  5
15A1C
330
747D
100
AcDbEntity
  8
細線
 48
50.0
100
AcDbLine
 10
6829.193515933496
 20
5349.246329820726
 30
0.0
 11
6829.193515933496
 21
5255.246329820708
 31
0.0
  0
LINE
  5
15A2C
330
747D
100
AcDbEntity
  8
細線
 48
50.0
100
AcDbLine
 10
6819.193515933497
 20
5349.246329820725
 30
0.0
 11
6819.193515933497
 21
5490.246329820727
 31
0.0
  0
LINE
  5
15AA9
330
747D
100
AcDbEntity
  8
部品1
100
AcDbLine
 10
3979.193515933497
 20
5255.246329820725
 30
0.0
 11
9679.193515933498
 21
5255.246329820725
 31
0.0
  0
LINE
  5
15AAA
330
747D
100
AcDbEntity
  8
Ｇ．Ｌ
100
AcDbLine
 10
2895.22185841122
 20
3315.246329820725
 30
0.0
 11
13348.66838192232
 21
3315.246329820725
 31
0.0
  0
LINE
  5
15AAB
330
747D
100
AcDbEntity
  8
部品1
100
AcDbLine
 10
3979.193515933497
 20
3415.246329820725
 30
0.0
 11
9679.193515933498
 21
3415.246329820725
 31
0.0
  0
LINE
  5
15AAD
330
747D
100
AcDbEntity
  8
部品1
100
AcDbLine
 10
3979.193515933497
 20
3458.246329820696
 30
0.0
 11
9679.193515933498
 21
3458.246329820744
 31
0.0
  0
LINE
  5
15ACF
330
747D
100
AcDbEntity
  8
破線
 48
10.0
100
AcDbLine
 10
6750.19351593349
 20
8357.034968035343
 30
0.0
 11
5958.19351593349
 21
8357.034968035328
 31
0.0
  0
LINE
  5
15AD0
330
747D
100
AcDbEntity
  8
部品1
100
AcDbLine
 10
6654.193515933497
 20
8228.034968035384
 30
0.0
 11
5924.193515933497
 21
8228.034968035361
 31
0.0
  0
LINE
  5
15AD1
330
747D
100
AcDbEntity
  8
部品1
100
AcDbLine
 10
6773.693515933482
 20
8333.534968035342
 30
0.0
 11
5934.693022679599
 21
8333.534465837871
 31
0.0
  0
ARC
  5
15AD2
330
747D
100
AcDbEntity
  8
想像線
 48
10.0
100
AcDbCircle
 10
6646.841465256336
 20
8203.729861410907
 30
0.0
 40
722.6499369155582
100
AcDbArc
 50
180.1343808685487
 51
270.5829222700354
  0
LINE
  5
15AD3
330
747D
100
AcDbEntity
  8
部品1
100
AcDbLine
 10
5907.193515933451
 20
9124.034968035322
 30
0.0
 11
6826.574218952105
 21
9124.034968035344
 31
0.0
  0
LINE
  5
15AD4
330
747D
100
AcDbEntity
  8
部品1
 48
5.0
100
AcDbLine
 10
5903.193515933499
 20
8231.534968035278
 30
0.0
 11
6805.193515933499
 21
8231.534968035337
 31
0.0
  0
LINE
  5
15AD5
330
747D
100
AcDbEntity
  8
部品1
100
AcDbLine
 10
5908.193522611099
 20
8672.53496803527
 30
0.0
 11
6800.193522611099
 21
8672.534968035371
 31
0.0
  0
LINE
  5
15AD6
330
747D
100
AcDbEntity
  8
細線
 48
50.0
100
AcDbLine
 10
6800.193522611099
 20
9122.534968035372
 30
0.0
 11
5908.193522611099
 21
8672.53496803527
 31
0.0
  0
LINE
  5
15AD7
330
747D
100
AcDbEntity
  8
細線
 48
50.0
100
AcDbLine
 10
6800.193522611099
 20
8672.534968035371
 30
0.0
 11
5908.193522611099
 21
9122.534968035271
 31
0.0
  0
LINE
  5
15AD8
330
747D
100
AcDbEntity
  8
部品1
100
AcDbLine
 10
5908.193522611099
 20
9122.534968035271
 30
0.0
 11
6800.193522611099
 21
9122.534968035379
 31
0.0
  0
DIMENSION
  5
15AD9
330
747D
100
AcDbEntity
  8
寸法
 48
50.0
100
AcDbDimension
  2
*D19
 10
6619.193515933497
 20
7762.211300240214
 30
0.0
 11
6276.693515933499
 21
7762.211300240214
 31
0.0
 70
   160
 71
     5
 42
684.9999999999964
  3
INABA_S40G
100
AcDbAlignedDimension
 13
5934.1935159335
 23
8202.034968035292
 33
0.0
 14
6619.193515933497
 24
8202.034968035254
 34
0.0
100
AcDbRotatedDimension
  0
DIMENSION
  5
15ADA
330
747D
100
AcDbEntity
  8
寸法
100
AcDbDimension
  2
*D17
 10
6774.193515933503
 20
9367.843187660398
 30
0.0
 11
6354.193515933503
 21
9367.843187660398
 31
0.0
 70
   160
  1
2X420=<>
 71
     5
 42
839.9999999999982
  3
INABA_S40G
100
AcDbAlignedDimension
 13
5934.193515933504
 23
9152.034968035328
 33
0.0
 14
6774.193515933503
 24
9152.034968035415
 34
0.0
100
AcDbRotatedDimension
1001
ACAD
1000
DSTYLE
1002
{
1002
}
  0
LINE
  5
15AFA
330
747D
100
AcDbEntity
  8
部品1
 48
5.0
100
AcDbLine
 10
3979.193515933497
 20
8202.034968035317
 30
0.0
 11
9679.19351593348
 21
8202.034968035235
 31
0.0
  0
LINE
  5
15B06
330
747D
100
AcDbEntity
  8
細線
 48
50.0
100
AcDbLine
 10
6048.193515933498
 20
8228.034968035368
 30
0.0
 11
6048.193515933498
 21
8202.03496803532
 31
0.0
  0
DIMENSION
  5
15B19
330
747D
100
AcDbEntity
  8
寸法
 48
50.0
100
AcDbDimension
  2
*D18
 10
6884.193515933507
 20
9367.843187660398
 30
0.0
 11
6829.193515933503
 21
9624.7198562749
 31
0.0
 70
   160
 71
     5
 42
110.0000000000036
  3
INABA_S40G
100
AcDbAlignedDimension
 13
6774.193515933503
 23
9152.034968035415
 33
0.0
 14
6884.193515933507
 24
9152.034968035394
 34
0.0
100
AcDbRotatedDimension
1001
ACAD
1000
DSTYLE
1002
{
1070
   279
1070
     2
1002
}
  0
LINE
  5
15B1A
330
747D
100
AcDbEntity
  8
想像線
 48
10.0
100
AcDbLine
 10
6654.193515933497
 20
8202.034968035336
 30
0.0
 11
6654.193515933497
 21
7481.117324379545
 31
0.0
  0
LINE
  5
15B1B
330
747D
100
AcDbEntity
  8
部品1
 48
50.0
100
AcDbLine
 10
6857.193515933483
 20
8257.034968035336
 30
0.0
 11
6857.193515933428
 21
9152.034968035342
 31
0.0
  0
LINE
  5
15B1C
330
747D
100
AcDbEntity
  8
部品1
 48
50.0
100
AcDbLine
 10
6801.193515933483
 20
8257.034968035336
 30
0.0
 11
6801.19351593343
 21
9124.034968035344
 31
0.0
  0
LINE
  5
15B1D
330
747D
100
AcDbEntity
  8
部品1
 48
50.0
100
AcDbLine
 10
6829.193515933482
 20
8257.034968035336
 30
0.0
 11
6829.193515933482
 21
9097.034968035343
 31
0.0
  0
LINE
  5
15B1E
330
747D
100
AcDbEntity
  8
破線
 48
10.0
100
AcDbLine
 10
6908.19351593349
 20
8357.03496803535
 30
0.0
 11
6908.19350350238
 21
8672.534968035346
 31
0.0
  0
LINE
  5
15B1F
330
747D
100
AcDbEntity
  8
破線
 48
10.0
100
AcDbLine
 10
6750.19351593349
 20
8357.034968035343
 30
0.0
 11
6750.193507578938
 21
8672.534968035401
 31
0.0
  0
LINE
  5
15B20
330
747D
100
AcDbEntity
  8
部品1
 48
50.0
100
AcDbLine
 10
6773.693515933482
 20
8333.534968035342
 30
0.0
 11
6773.693515933458
 21
8672.534968035401
 31
0.0
  0
LINE
  5
15B21
330
747D
100
AcDbEntity
  8
部品1
 48
50.0
100
AcDbLine
 10
6884.693509589197
 20
8333.534968060005
 30
0.0
 11
6884.693512562058
 21
8672.534968035346
 31
0.0
  0
LINE
  5
15B22
330
747D
100
AcDbEntity
  8
部品1
 48
50.0
100
AcDbLine
 10
6353.69351593349
 20
8672.534968035321
 30
0.0
 11
6353.693353061386
 21
8333.534135872124
 31
0.0
  0
LINE
  5
15B23
330
747D
100
AcDbEntity
  8
細線
 48
50.0
100
AcDbLine
 10
6234.193515933498
 20
8228.034968035357
 30
0.0
 11
6234.193515933498
 21
8202.03496803532
 31
0.0
  0
LINE
  5
15B24
330
747D
100
AcDbEntity
  8
細線
 48
50.0
100
AcDbLine
 10
6274.193515933497
 20
8228.034968035357
 30
0.0
 11
6274.193515933497
 21
8202.03496803532
 31
0.0
  0
LINE
  5
15B25
330
747D
100
AcDbEntity
  8
細線
 48
50.0
100
AcDbLine
 10
6501.193515933497
 20
8228.034968035572
 30
0.0
 11
6501.193515933497
 21
8202.034968035535
 31
0.0
  0
LINE
  5
15B26
330
747D
100
AcDbEntity
  8
細線
 48
50.0
100
AcDbLine
 10
6461.193515933498
 20
8228.034968035572
 30
0.0
 11
6461.193515933498
 21
8202.034968035535
 31
0.0
  0
LINE
  5
15B27
330
747D
100
AcDbEntity
  8
部品1
100
AcDbLine
 10
6654.193515933497
 20
8228.034968035386
 30
0.0
 11
6654.193515933497
 21
8202.034968035333
 31
0.0
  0
ARC
  5
15B28
330
747D
100
AcDbEntity
  8
部品1
 48
0.2
100
AcDbCircle
 10
6646.255963762175
 20
8203.032597990556
 30
0.0
 40
8.0
100
AcDbArc
 50
270.0
 51
352.8363522778074
  0
ARC
  5
15B29
330
747D
100
AcDbEntity
  8
細線
 48
0.2
100
AcDbCircle
 10
6646.255963762175
 20
8203.032597990556
 30
0.0
 40
4.049999999999999
100
AcDbArc
 50
194.2603506853988
 51
345.7396493146012
  0
LINE
  5
15B2A
330
747D
100
AcDbEntity
  8
部品1
 48
0.2
100
AcDbLine
 10
6641.255963762174
 20
8195.032597990557
 30
0.0
 11
6646.255963762175
 21
8195.032597990557
 31
0.0
  0
LINE
  5
15B2B
330
747D
100
AcDbEntity
  8
部品1
 48
5.0
100
AcDbLine
 10
6656.193515933499
 20
8231.534968035337
 30
0.0
 11
6656.193515933499
 21
8202.034968035336
 31
0.0
  0
ARC
  5
15B2C
330
747D
100
AcDbEntity
  8
部品1
 48
0.2
100
AcDbCircle
 10
6641.255963762174
 20
8203.032597990556
 30
0.0
 40
8.0
100
AcDbArc
 50
187.1636477221926
 51
269.9999999999992
  0
LINE
  5
15B2D
330
747D
100
AcDbEntity
  8
部品1
100
AcDbLine
 10
6872.193515933497
 20
8231.534968035289
 30
0.0
 11
6872.193515933499
 21
8202.034968035336
 31
0.0
  0
LINE
  5
15B2E
330
747D
100
AcDbEntity
  8
部品1
100
AcDbLine
 10
6874.193515933497
 20
8228.034968035329
 30
0.0
 11
6874.193515933495
 21
8202.034968035336
 31
0.0
  0
LINE
  5
15B2F
330
747D
100
AcDbEntity
  8
部品1
 48
5.0
100
AcDbLine
 10
6872.193515933499
 20
8231.534968035337
 30
0.0
 11
6872.193515933499
 21
8202.034968035336
 31
0.0
  0
LINE
  5
15B30
330
747D
100
AcDbEntity
  8
部品1
 48
5.0
100
AcDbLine
 10
6884.1935159335
 20
8257.034968035336
 30
0.0
 11
6884.193515933501
 21
8231.534968035337
 31
0.0
  0
LINE
  5
15B31
330
747D
100
AcDbEntity
  8
部品1
 48
5.0
100
AcDbLine
 10
6853.193515933501
 20
8257.034968035336
 30
0.0
 11
6853.193515933499
 21
8231.534968035337
 31
0.0
  0
LINE
  5
15B32
330
747D
100
AcDbEntity
  8
部品1
 48
5.0
100
AcDbLine
 10
6805.193515933499
 20
8257.034968035336
 30
0.0
 11
6805.193515933499
 21
8231.534968035337
 31
0.0
  0
LINE
  5
15B33
330
747D
100
AcDbEntity
  8
部品1
 48
5.0
100
AcDbLine
 10
6861.193515933499
 20
8257.034968035336
 30
0.0
 11
6884.1935159335
 21
8257.034968035336
 31
0.0
  0
LINE
  5
15B34
330
747D
100
AcDbEntity
  8
部品1
 48
50.0
100
AcDbLine
 10
6884.693515933481
 20
8333.534968060009
 30
0.0
 11
6857.193515933483
 21
8305.534968035336
 31
0.0
  0
LINE
  5
15B35
330
747D
100
AcDbEntity
  8
部品1
100
AcDbLine
 10
6786.193515933497
 20
8231.534968035282
 30
0.0
 11
6786.193515933494
 21
8202.034968035329
 31
0.0
  0
LINE
  5
15B36
330
747D
100
AcDbEntity
  8
部品1
 48
5.0
100
AcDbLine
 10
6786.193515933499
 20
8231.534968035337
 30
0.0
 11
6786.193515933499
 21
8202.034968035336
 31
0.0
  0
LINE
  5
15B37
330
747D
100
AcDbEntity
  8
部品1
 48
5.0
100
AcDbLine
 10
6774.193515933498
 20
8257.034968035336
 30
0.0
 11
6774.193515933501
 21
8231.534968035337
 31
0.0
  0
LINE
  5
15B38
330
747D
100
AcDbEntity
  8
部品1
 48
5.0
100
AcDbLine
 10
6797.193515933499
 20
8257.034968035336
 30
0.0
 11
6774.193515933497
 21
8257.034968035336
 31
0.0
  0
LINE
  5
15B39
330
747D
100
AcDbEntity
  8
部品1
 48
50.0
100
AcDbLine
 10
6801.193515933483
 20
8305.534968035336
 30
0.0
 11
6773.693515933482
 21
8333.534968035342
 31
0.0
  0
LINE
  5
15B3A
330
747D
100
AcDbEntity
  8
部品1
 48
5.0
100
AcDbLine
 10
6801.193515933483
 20
8257.034968035336
 30
0.0
 11
6857.193515933483
 21
8257.034968035336
 31
0.0
  0
LINE
  5
15B3C
330
747D
100
AcDbEntity
  8
細線
 48
50.0
100
AcDbLine
 10
6998.193515933497
 20
8228.034968035368
 30
0.0
 11
6998.193515933497
 21
8202.03496803532
 31
0.0
  0
LINE
  5
15B3D
330
747D
100
AcDbEntity
  8
部品1
100
AcDbLine
 10
6353.693515933436
 20
9152.034968035227
 30
0.0
 11
6353.693515933436
 21
9124.034968035227
 31
0.0
  0
LINE
  5
15B3E
330
747D
100
AcDbEntity
  8
部品1
100
AcDbLine
 10
6353.693515933468
 20
9152.034968035259
 30
0.0
 11
6353.693515933468
 21
9124.034968035259
 31
0.0
  0
LINE
  5
15B3F
330
747D
100
AcDbEntity
  8
部品1
 48
50.0
100
AcDbLine
 10
6800.193522611099
 20
9122.534968035372
 30
0.0
 11
6800.193522611099
 21
8672.534968035371
 31
0.0
  0
LINE
  5
15B40
330
747D
100
AcDbEntity
  8
部品1
 48
50.0
100
AcDbLine
 10
6858.193522611099
 20
9122.534968035264
 30
0.0
 11
6858.193522611099
 21
8672.53496803527
 31
0.0
  0
LINE
  5
15B41
330
747D
100
AcDbEntity
  8
部品1
 48
50.0
100
AcDbLine
 10
6829.193515933475
 20
8677.034968035343
 30
0.0
 11
6857.193515933457
 21
8677.034968035346
 31
0.0
  0
LINE
  5
15B42
330
747D
100
AcDbEntity
  8
部品1
 48
50.0
100
AcDbLine
 10
6829.193515933475
 20
8715.034968035343
 30
0.0
 11
6857.193515933457
 21
8715.034968035347
 31
0.0
  0
LINE
  5
15B43
330
747D
100
AcDbEntity
  8
部品1
 48
5.0
100
AcDbLine
 10
6829.193515933482
 20
8677.034968035339
 30
0.0
 11
6801.193515933431
 21
8677.034968035343
 31
0.0
  0
LINE
  5
15B44
330
747D
100
AcDbEntity
  8
部品1
 48
5.0
100
AcDbLine
 10
6884.193515933507
 20
9152.034968035346
 30
0.0
 11
6884.193515933501
 21
9124.034968035351
 31
0.0
  0
LINE
  5
15B45
330
747D
100
AcDbEntity
  8
部品1
 48
5.0
100
AcDbLine
 10
6803.902790380679
 20
9152.034968035342
 30
0.0
 11
6826.574218952107
 21
9124.034968035344
 31
0.0
  0
LINE
  5
15B46
330
747D
100
AcDbEntity
  8
部品1
 48
50.0
100
AcDbLine
 10
6858.693522611092
 20
9122.534968035271
 30
0.0
 11
6857.193515933468
 21
9124.034968035264
 31
0.0
  0
LINE
  5
15B47
330
747D
100
AcDbEntity
  8
部品1
 48
50.0
100
AcDbLine
 10
6799.74612342152
 20
9122.534968035379
 30
0.0
 11
6801.193515933396
 21
9124.03496803531
 31
0.0
  0
LINE
  5
15B48
330
747D
100
AcDbEntity
  8
部品1
 48
5.0
100
AcDbLine
 10
6774.193515933501
 20
9124.034968035344
 30
0.0
 11
6774.193515933503
 21
9152.034968035342
 31
0.0
  0
LINE
  5
15B49
330
747D
100
AcDbEntity
  8
部品1
 48
5.0
100
AcDbLine
 10
6857.193515933431
 20
9097.034968035343
 30
0.0
 11
6801.193515933431
 21
9097.034968035343
 31
0.0
  0
DIMENSION
  5
15B9F
330
747D
100
AcDbEntity
  8
寸法
100
AcDbDimension
  2
*D24
 10
4874.193515933503
 20
9367.843187660398
 30
0.0
 11
4454.193515933503
 21
9367.843187660398
 31
0.0
 70
   160
  1
2X420=<>
 71
     5
 42
839.9999999999982
  3
INABA_S40G
100
AcDbAlignedDimension
 13
4034.193515933504
 23
9152.034968035328
 33
0.0
 14
4874.193515933503
 24
9152.034968035415
 34
0.0
100
AcDbRotatedDimension
1001
ACAD
1000
DSTYLE
1002
{
1002
}
  0
DIMENSION
  5
15BA0
330
747D
100
AcDbEntity
  8
寸法
 48
50.0
100
AcDbDimension
  2
*D23
 10
4984.193515933506
 20
9367.843187660398
 30
0.0
 11
4929.193515933505
 21
9624.7198562749
 31
0.0
 70
   160
 71
     5
 42
110.0000000000036
  3
INABA_S40G
100
AcDbAlignedDimension
 13
4874.193515933503
 23
9152.034968035415
 33
0.0
 14
4984.193515933506
 24
9152.034968035394
 34
0.0
100
AcDbRotatedDimension
1001
ACAD
1000
DSTYLE
1002
{
1070
   279
1070
     2
1002
}
  0
DIMENSION
  5
15BA1
330
747D
100
AcDbEntity
  8
寸法
100
AcDbDimension
  2
*D22
 10
5824.193515933503
 20
9367.843187660398
 30
0.0
 11
5404.193515933503
 21
9367.843187660398
 31
0.0
 70
   160
  1
2X420=<>
 71
     5
 42
839.9999999999982
  3
INABA_S40G
100
AcDbAlignedDimension
 13
4984.193515933505
 23
9152.034968035328
 33
0.0
 14
5824.193515933503
 24
9152.034968035415
 34
0.0
100
AcDbRotatedDimension
1001
ACAD
1000
DSTYLE
1002
{
1002
}
  0
LINE
  5
15BA4
330
747D
100
AcDbEntity
  8
部品1
100
AcDbLine
 10
4008.193522611098
 20
9122.534968035271
 30
0.0
 11
4900.193522611098
 21
9122.534968035379
 31
0.0
  0
LINE
  5
15BA5
330
747D
100
AcDbEntity
  8
部品1
100
AcDbLine
 10
4007.193515933504
 20
9124.034968035299
 30
0.0
 11
4926.574218952126
 21
9124.034968035322
 31
0.0
  0
LINE
  5
15BA6
330
747D
100
AcDbEntity
  8
部品1
100
AcDbLine
 10
4008.1935226111
 20
8672.53496803527
 30
0.0
 11
4900.193522611098
 21
8672.534968035371
 31
0.0
  0
LINE
  5
15BA7
330
747D
100
AcDbEntity
  8
細線
 48
50.0
100
AcDbLine
 10
4900.193522611098
 20
8672.534968035371
 30
0.0
 11
4008.193522611098
 21
9122.534968035271
 31
0.0
  0
LINE
  5
15BA8
330
747D
100
AcDbEntity
  8
細線
 48
50.0
100
AcDbLine
 10
4900.193522611098
 20
9122.534968035372
 30
0.0
 11
4008.193522611098
 21
8672.53496803527
 31
0.0
  0
LINE
  5
15BAA
330
747D
100
AcDbEntity
  8
部品1
100
AcDbLine
 10
4873.694086381662
 20
8333.534387215378
 30
0.0
 11
4035.694487359891
 21
8333.533885726858
 31
0.0
  0
LINE
  5
15BAB
330
747D
100
AcDbEntity
  8
部品1
100
AcDbLine
 10
4754.193515933496
 20
8228.03496803535
 30
0.0
 11
4024.193515933497
 21
8228.034968035322
 31
0.0
  0
LINE
  5
15BAC
330
747D
100
AcDbEntity
  8
部品1
 48
5.0
100
AcDbLine
 10
4022.193515933497
 20
8231.534968035219
 30
0.0
 11
4905.193515933499
 21
8231.534968035278
 31
0.0
  0
LINE
  5
15BAE
330
747D
100
AcDbEntity
  8
破線
 48
10.0
100
AcDbLine
 10
4850.19351593349
 20
8357.034968035325
 30
0.0
 11
4059.19351593349
 21
8357.034968035305
 31
0.0
  0
ARC
  5
15BAF
330
747D
100
AcDbEntity
  8
想像線
 48
10.0
100
AcDbCircle
 10
4746.841465256337
 20
8203.729861410907
 30
0.0
 40
722.649936915559
100
AcDbArc
 50
180.1343808685458
 51
270.5829222700353
  0
LINE
  5
15BB0
330
747D
100
AcDbEntity
  8
細線
 48
50.0
100
AcDbLine
 10
4374.193515933497
 20
8228.034968035357
 30
0.0
 11
4374.193515933497
 21
8202.03496803532
 31
0.0
  0
LINE
  5
15BB1
330
747D
100
AcDbEntity
  8
細線
 48
50.0
100
AcDbLine
 10
4334.193515933497
 20
8228.034968035357
 30
0.0
 11
4334.193515933497
 21
8202.03496803532
 31
0.0
  0
LINE
  5
15BB2
330
747D
100
AcDbEntity
  8
想像線
 48
10.0
100
AcDbLine
 10
5704.193515933496
 20
8202.034968035336
 30
0.0
 11
5704.193515933496
 21
7481.117324379545
 31
0.0
  0
LINE
  5
15BB3
330
747D
100
AcDbEntity
  8
想像線
 48
10.0
100
AcDbLine
 10
4754.193515933496
 20
8202.034968035336
 30
0.0
 11
4754.193515933496
 21
7481.117324379545
 31
0.0
  0
ARC
  5
15BB4
330
747D
100
AcDbEntity
  8
想像線
 48
10.0
100
AcDbCircle
 10
5696.841465256337
 20
8203.729861410907
 30
0.0
 40
722.6499369155582
100
AcDbArc
 50
180.1343808685487
 51
270.5829222700354
  0
LINE
  5
15BB7
330
747D
100
AcDbEntity
  8
部品1
100
AcDbLine
 10
4958.193522611098
 20
9122.534968035271
 30
0.0
 11
5850.193522611098
 21
9122.534968035379
 31
0.0
  0
LINE
  5
15BB8
330
747D
100
AcDbEntity
  8
細線
 48
50.0
100
AcDbLine
 10
5850.193522611098
 20
8672.534968035371
 30
0.0
 11
4958.193522611098
 21
9122.534968035271
 31
0.0
  0
LINE
  5
15BB9
330
747D
100
AcDbEntity
  8
細線
 48
50.0
100
AcDbLine
 10
5850.193522611098
 20
9122.534968035372
 30
0.0
 11
4958.193522611098
 21
8672.53496803527
 31
0.0
  0
LINE
  5
15BBA
330
747D
100
AcDbEntity
  8
部品1
100
AcDbLine
 10
4958.1935226111
 20
8672.53496803527
 30
0.0
 11
5850.193522611098
 21
8672.534968035371
 31
0.0
  0
LINE
  5
15BBB
330
747D
100
AcDbEntity
  8
部品1
 48
5.0
100
AcDbLine
 10
4953.193515933499
 20
8231.534968035278
 30
0.0
 11
5855.193515933499
 21
8231.534968035337
 31
0.0
  0
LINE
  5
15BBC
330
747D
100
AcDbEntity
  8
部品1
100
AcDbLine
 10
4957.193515933451
 20
9124.034968035322
 30
0.0
 11
5876.574218952104
 21
9124.034968035344
 31
0.0
  0
LINE
  5
15BBD
330
747D
100
AcDbEntity
  8
部品1
100
AcDbLine
 10
5823.693515933483
 20
8333.534968035342
 30
0.0
 11
4984.6930226796
 21
8333.534465837871
 31
0.0
  0
LINE
  5
15BBE
330
747D
100
AcDbEntity
  8
破線
 48
10.0
100
AcDbLine
 10
5800.193515933489
 20
8357.034968035343
 30
0.0
 11
5008.19351593349
 21
8357.034968035328
 31
0.0
  0
LINE
  5
15BBF
330
747D
100
AcDbEntity
  8
部品1
 48
50.0
100
AcDbLine
 10
5403.69351593349
 20
8672.534968035321
 30
0.0
 11
5403.693353061385
 21
8333.534135872124
 31
0.0
  0
LINE
  5
15BC0
330
747D
100
AcDbEntity
  8
部品1
 48
50.0
100
AcDbLine
 10
4453.69351593349
 20
8672.534968035321
 30
0.0
 11
4453.693353061385
 21
8333.534135872124
 31
0.0
  0
LINE
  5
15BC1
330
747D
100
AcDbEntity
  8
部品1
 48
50.0
100
AcDbLine
 10
4984.693509589197
 20
8333.534968060005
 30
0.0
 11
4984.693512562058
 21
8672.534968035346
 31
0.0
  0
LINE
  5
15BC2
330
747D
100
AcDbEntity
  8
部品1
 48
50.0
100
AcDbLine
 10
4873.693515933482
 20
8333.534968035342
 30
0.0
 11
4873.693515933457
 21
8672.534968035401
 31
0.0
  0
LINE
  5
15BC3
330
747D
100
AcDbEntity
  8
破線
 48
10.0
100
AcDbLine
 10
4850.19351593349
 20
8357.034968035343
 30
0.0
 11
4850.193507578937
 21
8672.534968035401
 31
0.0
  0
LINE
  5
15BC4
330
747D
100
AcDbEntity
  8
破線
 48
10.0
100
AcDbLine
 10
5008.19351593349
 20
8357.03496803535
 30
0.0
 11
5008.193503502379
 21
8672.534968035346
 31
0.0
  0
LINE
  5
15BC5
330
747D
100
AcDbEntity
  8
部品1
 48
50.0
100
AcDbLine
 10
4929.193515933483
 20
8257.034968035336
 30
0.0
 11
4929.193515933483
 21
9097.034968035343
 31
0.0
  0
LINE
  5
15BC6
330
747D
100
AcDbEntity
  8
部品1
 48
50.0
100
AcDbLine
 10
4901.193515933482
 20
8257.034968035336
 30
0.0
 11
4901.19351593343
 21
9124.034968035344
 31
0.0
  0
LINE
  5
15BC7
330
747D
100
AcDbEntity
  8
部品1
 48
50.0
100
AcDbLine
 10
4957.193515933482
 20
8257.034968035336
 30
0.0
 11
4957.193515933428
 21
9152.034968035342
 31
0.0
  0
DIMENSION
  5
15BC8
330
747D
100
AcDbEntity
  8
寸法
 48
50.0
100
AcDbDimension
  2
*D21
 10
5669.193515933497
 20
7762.211300240214
 30
0.0
 11
5326.693515933499
 21
7762.211300240214
 31
0.0
 70
   160
 71
     5
 42
684.9999999999964
  3
INABA_S40G
100
AcDbAlignedDimension
 13
4984.193515933501
 23
8202.034968035292
 33
0.0
 14
5669.193515933497
 24
8202.034968035254
 34
0.0
100
AcDbRotatedDimension
  0
LINE
  5
15BC9
330
747D
100
AcDbEntity
  8
部品1
100
AcDbLine
 10
5704.193515933496
 20
8228.034968035384
 30
0.0
 11
4974.193515933497
 21
8228.034968035361
 31
0.0
  0
LINE
  5
15BCA
330
747D
100
AcDbEntity
  8
細線
 48
50.0
100
AcDbLine
 10
4561.193515933497
 20
8228.034968035572
 30
0.0
 11
4561.193515933497
 21
8202.034968035535
 31
0.0
  0
LINE
  5
15BCB
330
747D
100
AcDbEntity
  8
部品1
 48
5.0
100
AcDbLine
 10
4756.193515933499
 20
8231.534968035337
 30
0.0
 11
4756.193515933499
 21
8202.034968035336
 31
0.0
  0
LINE
  5
15BCC
330
747D
100
AcDbEntity
  8
部品1
 48
0.2
100
AcDbLine
 10
4741.255963762174
 20
8195.032597990557
 30
0.0
 11
4746.255963762174
 21
8195.032597990557
 31
0.0
  0
ARC
  5
15BCD
330
747D
100
AcDbEntity
  8
細線
 48
0.2
100
AcDbCircle
 10
4746.255963762174
 20
8203.032597990556
 30
0.0
 40
4.049999999999999
100
AcDbArc
 50
194.2603506853988
 51
345.7396493146012
  0
ARC
  5
15BCE
330
747D
100
AcDbEntity
  8
部品1
 48
0.2
100
AcDbCircle
 10
4741.255963762174
 20
8203.032597990556
 30
0.0
 40
8.0
100
AcDbArc
 50
187.1636477221926
 51
269.9999999999992
  0
ARC
  5
15BCF
330
747D
100
AcDbEntity
  8
部品1
 48
0.2
100
AcDbCircle
 10
4746.255963762174
 20
8203.032597990556
 30
0.0
 40
8.0
100
AcDbArc
 50
270.0
 51
352.8363522778074
  0
LINE
  5
15BD0
330
747D
100
AcDbEntity
  8
部品1
100
AcDbLine
 10
4754.193515933496
 20
8228.034968035386
 30
0.0
 11
4754.193515933496
 21
8202.034968035333
 31
0.0
  0
LINE
  5
15BD1
330
747D
100
AcDbEntity
  8
細線
 48
50.0
100
AcDbLine
 10
4601.193515933498
 20
8228.034968035572
 30
0.0
 11
4601.193515933498
 21
8202.034968035535
 31
0.0
  0
LINE
  5
15BD2
330
747D
100
AcDbEntity
  8
部品1
 48
5.0
100
AcDbLine
 10
4901.193515933482
 20
8257.034968035336
 30
0.0
 11
4957.193515933482
 21
8257.034968035336
 31
0.0
  0
LINE
  5
15BD4
330
747D
100
AcDbEntity
  8
部品1
 48
50.0
100
AcDbLine
 10
4901.193515933482
 20
8305.534968035336
 30
0.0
 11
4873.693515933482
 21
8333.534968035342
 31
0.0
  0
LINE
  5
15BD5
330
747D
100
AcDbEntity
  8
部品1
 48
5.0
100
AcDbLine
 10
4897.193515933499
 20
8257.034968035336
 30
0.0
 11
4874.193515933497
 21
8257.034968035336
 31
0.0
  0
LINE
  5
15BD6
330
747D
100
AcDbEntity
  8
部品1
 48
5.0
100
AcDbLine
 10
4874.193515933499
 20
8257.034968035336
 30
0.0
 11
4874.193515933501
 21
8231.534968035337
 31
0.0
  0
LINE
  5
15BD7
330
747D
100
AcDbEntity
  8
部品1
 48
5.0
100
AcDbLine
 10
4905.193515933499
 20
8257.034968035336
 30
0.0
 11
4905.193515933499
 21
8231.534968035337
 31
0.0
  0
LINE
  5
15BD8
330
747D
100
AcDbEntity
  8
部品1
 48
5.0
100
AcDbLine
 10
4886.193515933499
 20
8231.534968035337
 30
0.0
 11
4886.193515933499
 21
8202.034968035336
 31
0.0
  0
LINE
  5
15BD9
330
747D
100
AcDbEntity
  8
部品1
100
AcDbLine
 10
4886.193515933497
 20
8231.534968035282
 30
0.0
 11
4886.193515933493
 21
8202.034968035329
 31
0.0
  0
LINE
  5
15BDA
330
747D
100
AcDbEntity
  8
部品1
 48
5.0
100
AcDbLine
 10
4984.193515933498
 20
8257.034968035336
 30
0.0
 11
4984.193515933501
 21
8231.534968035337
 31
0.0
  0
LINE
  5
15BDB
330
747D
100
AcDbEntity
  8
部品1
 48
5.0
100
AcDbLine
 10
4972.193515933499
 20
8231.534968035337
 30
0.0
 11
4972.193515933499
 21
8202.034968035336
 31
0.0
  0
LINE
  5
15BDC
330
747D
100
AcDbEntity
  8
部品1
100
AcDbLine
 10
4972.193515933497
 20
8231.534968035289
 30
0.0
 11
4972.193515933499
 21
8202.034968035336
 31
0.0
  0
LINE
  5
15BDD
330
747D
100
AcDbEntity
  8
部品1
 48
5.0
100
AcDbLine
 10
4953.1935159335
 20
8257.034968035336
 30
0.0
 11
4953.193515933499
 21
8231.534968035337
 31
0.0
  0
LINE
  5
15BDE
330
747D
100
AcDbEntity
  8
部品1
 48
50.0
100
AcDbLine
 10
4984.69351593348
 20
8333.534968060009
 30
0.0
 11
4957.193515933482
 21
8305.534968035336
 31
0.0
  0
LINE
  5
15BDF
330
747D
100
AcDbEntity
  8
部品1
 48
5.0
100
AcDbLine
 10
4961.193515933499
 20
8257.034968035336
 30
0.0
 11
4984.193515933498
 21
8257.034968035336
 31
0.0
  0
LINE
  5
15BE0
330
747D
100
AcDbEntity
  8
部品1
100
AcDbLine
 10
4974.193515933497
 20
8228.034968035357
 30
0.0
 11
4974.193515933497
 21
8202.03496803532
 31
0.0
  0
LINE
  5
15BE1
330
747D
100
AcDbEntity
  8
細線
 48
50.0
100
AcDbLine
 10
5098.193515933497
 20
8228.034968035368
 30
0.0
 11
5098.193515933497
 21
8202.03496803532
 31
0.0
  0
LINE
  5
15BE2
330
747D
100
AcDbEntity
  8
細線
 48
50.0
100
AcDbLine
 10
5324.193515933497
 20
8228.034968035357
 30
0.0
 11
5324.193515933497
 21
8202.03496803532
 31
0.0
  0
LINE
  5
15BE3
330
747D
100
AcDbEntity
  8
細線
 48
50.0
100
AcDbLine
 10
5284.193515933497
 20
8228.034968035357
 30
0.0
 11
5284.193515933497
 21
8202.03496803532
 31
0.0
  0
LINE
  5
15BE4
330
747D
100
AcDbEntity
  8
細線
 48
50.0
100
AcDbLine
 10
5511.193515933497
 20
8228.034968035572
 30
0.0
 11
5511.193515933497
 21
8202.034968035535
 31
0.0
  0
LINE
  5
15BE5
330
747D
100
AcDbEntity
  8
細線
 48
50.0
100
AcDbLine
 10
5551.193515933498
 20
8228.034968035572
 30
0.0
 11
5551.193515933498
 21
8202.034968035535
 31
0.0
  0
ARC
  5
15BE6
330
747D
100
AcDbEntity
  8
部品1
 48
0.2
100
AcDbCircle
 10
5691.255963762174
 20
8203.032597990556
 30
0.0
 40
8.0
100
AcDbArc
 50
187.1636477221926
 51
269.9999999999992
  0
LINE
  5
15BE7
330
747D
100
AcDbEntity
  8
部品1
 48
5.0
100
AcDbLine
 10
5706.193515933499
 20
8231.534968035337
 30
0.0
 11
5706.193515933499
 21
8202.034968035336
 31
0.0
  0
LINE
  5
15BE8
330
747D
100
AcDbEntity
  8
部品1
 48
0.2
100
AcDbLine
 10
5691.255963762174
 20
8195.032597990557
 30
0.0
 11
5696.255963762174
 21
8195.032597990557
 31
0.0
  0
ARC
  5
15BE9
330
747D
100
AcDbEntity
  8
細線
 48
0.2
100
AcDbCircle
 10
5696.255963762174
 20
8203.032597990556
 30
0.0
 40
4.049999999999999
100
AcDbArc
 50
194.2603506853988
 51
345.7396493146012
  0
ARC
  5
15BEA
330
747D
100
AcDbEntity
  8
部品1
 48
0.2
100
AcDbCircle
 10
5696.255963762174
 20
8203.032597990556
 30
0.0
 40
8.0
100
AcDbArc
 50
270.0
 51
352.8363522778074
  0
LINE
  5
15BEB
330
747D
100
AcDbEntity
  8
部品1
100
AcDbLine
 10
5704.193515933496
 20
8228.034968035386
 30
0.0
 11
5704.193515933496
 21
8202.034968035333
 31
0.0
  0
LINE
  5
15BEC
330
747D
100
AcDbEntity
  8
部品1
 48
50.0
100
AcDbLine
 10
4958.193522611098
 20
9122.534968035264
 30
0.0
 11
4958.193522611098
 21
8672.53496803527
 31
0.0
  0
LINE
  5
15BED
330
747D
100
AcDbEntity
  8
部品1
 48
50.0
100
AcDbLine
 10
4900.193522611098
 20
9122.534968035372
 30
0.0
 11
4900.193522611098
 21
8672.534968035371
 31
0.0
  0
LINE
  5
15BEE
330
747D
100
AcDbEntity
  8
部品1
 48
5.0
100
AcDbLine
 10
4929.193515933483
 20
8677.034968035339
 30
0.0
 11
4901.193515933432
 21
8677.034968035343
 31
0.0
  0
LINE
  5
15BEF
330
747D
100
AcDbEntity
  8
部品1
 48
50.0
100
AcDbLine
 10
4929.193515933476
 20
8715.034968035343
 30
0.0
 11
4957.193515933457
 21
8715.034968035347
 31
0.0
  0
LINE
  5
15BF0
330
747D
100
AcDbEntity
  8
部品1
 48
50.0
100
AcDbLine
 10
4929.193515933476
 20
8677.034968035343
 30
0.0
 11
4957.193515933457
 21
8677.034968035346
 31
0.0
  0
LINE
  5
15BF1
330
747D
100
AcDbEntity
  8
部品1
100
AcDbLine
 10
4453.693515933435
 20
9152.034968035259
 30
0.0
 11
4453.693515933435
 21
9124.034968035259
 31
0.0
  0
LINE
  5
15BF2
330
747D
100
AcDbEntity
  8
部品1
100
AcDbLine
 10
4453.693515933468
 20
9152.034968035293
 30
0.0
 11
4453.693515933468
 21
9124.034968035292
 31
0.0
  0
LINE
  5
15BF3
330
747D
100
AcDbEntity
  8
部品1
 48
5.0
100
AcDbLine
 10
4957.193515933432
 20
9097.034968035343
 30
0.0
 11
4901.193515933432
 21
9097.034968035343
 31
0.0
  0
LINE
  5
15BF4
330
747D
100
AcDbEntity
  8
部品1
 48
5.0
100
AcDbLine
 10
4903.902790380678
 20
9152.034968035342
 30
0.0
 11
4926.574218952106
 21
9124.034968035344
 31
0.0
  0
LINE
  5
15BF5
330
747D
100
AcDbEntity
  8
部品1
 48
50.0
100
AcDbLine
 10
4899.746123421521
 20
9122.534968035379
 30
0.0
 11
4901.193515933395
 21
9124.03496803531
 31
0.0
  0
LINE
  5
15BF6
330
747D
100
AcDbEntity
  8
部品1
 48
5.0
100
AcDbLine
 10
4874.193515933501
 20
9124.034968035344
 30
0.0
 11
4874.193515933503
 21
9152.034968035342
 31
0.0
  0
LINE
  5
15BF7
330
747D
100
AcDbEntity
  8
部品1
 48
50.0
100
AcDbLine
 10
4958.693522611093
 20
9122.534968035271
 30
0.0
 11
4957.193515933468
 21
9124.034968035264
 31
0.0
  0
LINE
  5
15BF8
330
747D
100
AcDbEntity
  8
部品1
 48
5.0
100
AcDbLine
 10
4984.193515933506
 20
9152.034968035346
 30
0.0
 11
4984.193515933501
 21
9124.034968035351
 31
0.0
  0
LINE
  5
15BF9
330
747D
100
AcDbEntity
  8
部品1
100
AcDbLine
 10
5403.693515933468
 20
9152.034968035259
 30
0.0
 11
5403.693515933468
 21
9124.034968035259
 31
0.0
  0
LINE
  5
15BFA
330
747D
100
AcDbEntity
  8
部品1
100
AcDbLine
 10
5403.693515933436
 20
9152.034968035227
 30
0.0
 11
5403.693515933436
 21
9124.034968035227
 31
0.0
  0
DIMENSION
  5
15C57
330
747D
100
AcDbEntity
  8
寸法
 48
50.0
100
AcDbDimension
  2
*D20
 10
5934.193515933507
 20
9367.843187660398
 30
0.0
 11
5879.193515933504
 21
9624.7198562749
 31
0.0
 70
   160
 71
     5
 42
110.0000000000036
  3
INABA_S40G
100
AcDbAlignedDimension
 13
5824.193515933503
 23
9152.034968035415
 33
0.0
 14
5934.193515933507
 24
9152.034968035394
 34
0.0
100
AcDbRotatedDimension
1001
ACAD
1000
DSTYLE
1002
{
1070
   279
1070
     2
1002
}
  0
LINE
  5
15C59
330
747D
100
AcDbEntity
  8
部品1
 48
50.0
100
AcDbLine
 10
5907.193515933482
 20
8257.034968035336
 30
0.0
 11
5907.193515933428
 21
9152.034968035342
 31
0.0
  0
LINE
  5
15C5A
330
747D
100
AcDbEntity
  8
部品1
 48
50.0
100
AcDbLine
 10
5851.193515933482
 20
8257.034968035336
 30
0.0
 11
5851.19351593343
 21
9124.034968035344
 31
0.0
  0
LINE
  5
15C5B
330
747D
100
AcDbEntity
  8
部品1
 48
50.0
100
AcDbLine
 10
5879.193515933483
 20
8257.034968035336
 30
0.0
 11
5879.193515933483
 21
9097.034968035343
 31
0.0
  0
LINE
  5
15C5C
330
747D
100
AcDbEntity
  8
破線
 48
10.0
100
AcDbLine
 10
5958.19351593349
 20
8357.03496803535
 30
0.0
 11
5958.193503502379
 21
8672.534968035346
 31
0.0
  0
LINE
  5
15C5D
330
747D
100
AcDbEntity
  8
破線
 48
10.0
100
AcDbLine
 10
5800.193515933489
 20
8357.034968035343
 30
0.0
 11
5800.193507578937
 21
8672.534968035401
 31
0.0
  0
LINE
  5
15C5E
330
747D
100
AcDbEntity
  8
部品1
 48
50.0
100
AcDbLine
 10
5823.693515933483
 20
8333.534968035342
 30
0.0
 11
5823.693515933457
 21
8672.534968035401
 31
0.0
  0
LINE
  5
15C5F
330
747D
100
AcDbEntity
  8
部品1
 48
50.0
100
AcDbLine
 10
5934.693509589197
 20
8333.534968060005
 30
0.0
 11
5934.693512562058
 21
8672.534968035346
 31
0.0
  0
LINE
  5
15C6B
330
747D
100
AcDbEntity
  8
部品1
100
AcDbLine
 10
5922.193515933497
 20
8231.534968035289
 30
0.0
 11
5922.193515933499
 21
8202.034968035336
 31
0.0
  0
LINE
  5
15C6C
330
747D
100
AcDbEntity
  8
部品1
100
AcDbLine
 10
5924.193515933497
 20
8228.034968035329
 30
0.0
 11
5924.193515933495
 21
8202.034968035336
 31
0.0
  0
LINE
  5
15C6D
330
747D
100
AcDbEntity
  8
部品1
 48
5.0
100
AcDbLine
 10
5922.193515933499
 20
8231.534968035337
 30
0.0
 11
5922.193515933499
 21
8202.034968035336
 31
0.0
  0
LINE
  5
15C6E
330
747D
100
AcDbEntity
  8
部品1
 48
5.0
100
AcDbLine
 10
5934.193515933499
 20
8257.034968035336
 30
0.0
 11
5934.1935159335
 21
8231.534968035337
 31
0.0
  0
LINE
  5
15C6F
330
747D
100
AcDbEntity
  8
部品1
 48
5.0
100
AcDbLine
 10
5903.193515933501
 20
8257.034968035336
 30
0.0
 11
5903.193515933499
 21
8231.534968035337
 31
0.0
  0
LINE
  5
15C70
330
747D
100
AcDbEntity
  8
部品1
 48
5.0
100
AcDbLine
 10
5855.193515933499
 20
8257.034968035336
 30
0.0
 11
5855.193515933499
 21
8231.534968035337
 31
0.0
  0
LINE
  5
15C71
330
747D
100
AcDbEntity
  8
部品1
 48
5.0
100
AcDbLine
 10
5911.193515933499
 20
8257.034968035336
 30
0.0
 11
5934.193515933499
 21
8257.034968035336
 31
0.0
  0
LINE
  5
15C72
330
747D
100
AcDbEntity
  8
部品1
 48
50.0
100
AcDbLine
 10
5934.693515933481
 20
8333.534968060009
 30
0.0
 11
5907.193515933482
 21
8305.534968035336
 31
0.0
  0
LINE
  5
15C73
330
747D
100
AcDbEntity
  8
部品1
100
AcDbLine
 10
5836.193515933497
 20
8231.534968035282
 30
0.0
 11
5836.193515933493
 21
8202.034968035329
 31
0.0
  0
LINE
  5
15C74
330
747D
100
AcDbEntity
  8
部品1
 48
5.0
100
AcDbLine
 10
5836.193515933499
 20
8231.534968035337
 30
0.0
 11
5836.193515933499
 21
8202.034968035336
 31
0.0
  0
LINE
  5
15C75
330
747D
100
AcDbEntity
  8
部品1
 48
5.0
100
AcDbLine
 10
5824.193515933499
 20
8257.034968035336
 30
0.0
 11
5824.193515933501
 21
8231.534968035337
 31
0.0
  0
LINE
  5
15C76
330
747D
100
AcDbEntity
  8
部品1
 48
5.0
100
AcDbLine
 10
5847.193515933499
 20
8257.034968035336
 30
0.0
 11
5824.193515933497
 21
8257.034968035336
 31
0.0
  0
LINE
  5
15C77
330
747D
100
AcDbEntity
  8
部品1
 48
50.0
100
AcDbLine
 10
5851.193515933482
 20
8305.534968035336
 30
0.0
 11
5823.693515933483
 21
8333.534968035342
 31
0.0
  0
LINE
  5
15C78
330
747D
100
AcDbEntity
  8
部品1
 48
5.0
100
AcDbLine
 10
5851.193515933482
 20
8257.034968035336
 30
0.0
 11
5907.193515933482
 21
8257.034968035336
 31
0.0
  0
LINE
  5
15C7D
330
747D
100
AcDbEntity
  8
部品1
 48
50.0
100
AcDbLine
 10
5850.193522611098
 20
9122.534968035372
 30
0.0
 11
5850.193522611098
 21
8672.534968035371
 31
0.0
  0
LINE
  5
15C7E
330
747D
100
AcDbEntity
  8
部品1
 48
50.0
100
AcDbLine
 10
5908.193522611099
 20
9122.534968035264
 30
0.0
 11
5908.193522611099
 21
8672.53496803527
 31
0.0
  0
LINE
  5
15C7F
330
747D
100
AcDbEntity
  8
部品1
 48
50.0
100
AcDbLine
 10
5879.193515933476
 20
8677.034968035343
 30
0.0
 11
5907.193515933457
 21
8677.034968035346
 31
0.0
  0
LINE
  5
15C80
330
747D
100
AcDbEntity
  8
部品1
 48
50.0
100
AcDbLine
 10
5879.193515933476
 20
8715.034968035343
 30
0.0
 11
5907.193515933457
 21
8715.034968035347
 31
0.0
  0
LINE
  5
15C81
330
747D
100
AcDbEntity
  8
部品1
 48
5.0
100
AcDbLine
 10
5879.193515933483
 20
8677.034968035339
 30
0.0
 11
5851.193515933431
 21
8677.034968035343
 31
0.0
  0
LINE
  5
15C82
330
747D
100
AcDbEntity
  8
部品1
 48
5.0
100
AcDbLine
 10
5934.193515933507
 20
9152.034968035346
 30
0.0
 11
5934.1935159335
 21
9124.034968035351
 31
0.0
  0
LINE
  5
15C83
330
747D
100
AcDbEntity
  8
部品1
 48
5.0
100
AcDbLine
 10
5853.902790380678
 20
9152.034968035342
 30
0.0
 11
5876.574218952106
 21
9124.034968035344
 31
0.0
  0
LINE
  5
15C84
330
747D
100
AcDbEntity
  8
部品1
 48
50.0
100
AcDbLine
 10
5908.693522611093
 20
9122.534968035271
 30
0.0
 11
5907.193515933467
 21
9124.034968035264
 31
0.0
  0
LINE
  5
15C85
330
747D
100
AcDbEntity
  8
部品1
 48
50.0
100
AcDbLine
 10
5849.746123421521
 20
9122.534968035379
 30
0.0
 11
5851.193515933395
 21
9124.03496803531
 31
0.0
  0
LINE
  5
15C86
330
747D
100
AcDbEntity
  8
部品1
 48
5.0
100
AcDbLine
 10
5824.193515933501
 20
9124.034968035344
 30
0.0
 11
5824.193515933503
 21
9152.034968035342
 31
0.0
  0
LINE
  5
15C87
330
747D
100
AcDbEntity
  8
部品1
 48
5.0
100
AcDbLine
 10
5907.193515933432
 20
9097.034968035343
 30
0.0
 11
5851.193515933431
 21
9097.034968035343
 31
0.0
  0
LINE
  5
15D18
330
747D
100
AcDbEntity
  8
部品1
100
AcDbLine
 10
3979.193515933468
 20
9152.034968035122
 30
0.0
 11
9679.193515933505
 21
9152.034968035394
 31
0.0
  0
DIMENSION
  5
15E5B
330
747D
100
AcDbEntity
  8
寸法
 48
50.0
100
AcDbDimension
  2
*D25
 10
9469.193515933497
 20
7762.211300240214
 30
0.0
 11
9126.693515933499
 21
7762.211300240214
 31
0.0
 70
   160
  1
有効開口部間口\P<>
 71
     5
 42
684.9999999999964
  3
INABA_S40G
100
AcDbAlignedDimension
 13
8784.1935159335
 23
8202.034968035292
 33
0.0
 14
9469.193515933497
 24
8202.034968035254
 34
0.0
100
AcDbRotatedDimension
  0
DIMENSION
  5
15E75
330
747D
100
AcDbEntity
  8
寸法
 48
50.0
100
AcDbDimension
  2
*D26
 10
4719.193515933497
 20
7762.211300240214
 30
0.0
 11
4376.693515933498
 21
7762.211300240214
 31
0.0
 70
   160
 71
     5
 42
684.9999999999964
  3
INABA_S40G
100
AcDbAlignedDimension
 13
4034.193515933501
 23
8202.034968035292
 33
0.0
 14
4719.193515933497
 24
8202.034968035254
 34
0.0
100
AcDbRotatedDimension
  0
LINE
  5
164BA
330
747D
100
AcDbEntity
  8
細線
100
AcDbLine
 10
8254.193515933497
 20
5314.746329820722
 30
0.0
 11
8254.193515933494
 21
5291.746329820722
 31
0.0
  0
LINE
  5
164BB
330
747D
100
AcDbEntity
  8
細線
100
AcDbLine
 10
8328.193515933493
 20
5302.746329820722
 30
0.0
 11
8254.193515933497
 21
5302.746329820722
 31
0.0
  0
LINE
  5
164BC
330
747D
100
AcDbEntity
  8
細線
100
AcDbLine
 10
8328.193515933493
 20
5296.746329820722
 30
0.0
 11
8254.193515933497
 21
5296.746329820722
 31
0.0
  0
LINE
  5
164BD
330
747D
100
AcDbEntity
  8
細線
100
AcDbLine
 10
8328.193515933493
 20
5308.746329820722
 30
0.0
 11
8254.193515933497
 21
5308.746329820722
 31
0.0
  0
LINE
  5
164BE
330
747D
100
AcDbEntity
  8
細線
100
AcDbLine
 10
8180.193515933497
 20
5308.746329820722
 30
0.0
 11
8249.193515933496
 21
5308.746329820722
 31
0.0
  0
LINE
  5
164BF
330
747D
100
AcDbEntity
  8
細線
100
AcDbLine
 10
8180.193515933494
 20
5296.746329820722
 30
0.0
 11
8254.193515933497
 21
5296.746329820722
 31
0.0
  0
LINE
  5
164C0
330
747D
100
AcDbEntity
  8
細線
100
AcDbLine
 10
8180.193515933497
 20
5302.746329820722
 30
0.0
 11
8254.193515933497
 21
5302.746329820722
 31
0.0
  0
LINE
  5
164C1
330
747D
100
AcDbEntity
  8
細線
100
AcDbLine
 10
8180.193515933497
 20
5308.746329820722
 30
0.0
 11
8254.193515933497
 21
5308.746329820722
 31
0.0
  0
LINE
  5
164C2
330
747D
100
AcDbEntity
  8
部品1
 48
0.01
100
AcDbLine
 10
8342.193515933498
 20
5321.246329820723
 30
0.0
 11
8166.193515933498
 21
5321.246329820723
 31
0.0
  0
LINE
  5
164C3
330
747D
100
AcDbEntity
  8
部品1
 48
0.01
100
AcDbLine
 10
8164.193515933497
 20
5319.246329820722
 30
0.0
 11
8164.193515933497
 21
5287.746329820723
 31
0.0
  0
LINE
  5
164C4
330
747D
100
AcDbEntity
  8
部品1
 48
0.01
100
AcDbLine
 10
8166.193515933498
 20
5285.746329820722
 30
0.0
 11
8342.193515933493
 21
5285.746329820722
 31
0.0
  0
LINE
  5
164C5
330
747D
100
AcDbEntity
  8
部品1
 48
0.01
100
AcDbLine
 10
8344.193515933493
 20
5287.746329820723
 30
0.0
 11
8344.193515933497
 21
5319.246329820722
 31
0.0
  0
LINE
  5
164C6
330
747D
100
AcDbEntity
  8
細線
100
AcDbLine
 10
8180.193515933497
 20
5314.746329820722
 30
0.0
 11
8180.193515933497
 21
5291.746329820722
 31
0.0
  0
LINE
  5
164C7
330
747D
100
AcDbEntity
  8
細線
100
AcDbLine
 10
8328.193515933497
 20
5291.746329820722
 30
0.0
 11
8328.193515933497
 21
5314.746329820722
 31
0.0
  0
LINE
  5
164C8
330
747D
100
AcDbEntity
  8
細線
100
AcDbLine
 10
8328.193515933497
 20
5314.746329820722
 30
0.0
 11
8254.193515933497
 21
5314.746329820722
 31
0.0
  0
LINE
  5
164C9
330
747D
100
AcDbEntity
  8
細線
100
AcDbLine
 10
8180.193515933497
 20
5291.746329820722
 30
0.0
 11
8254.193515933497
 21
5291.746329820722
 31
0.0
  0
LINE
  5
164CA
330
747D
100
AcDbEntity
  8
細線
100
AcDbLine
 10
8254.193515933497
 20
5314.746329820722
 30
0.0
 11
8180.193515933497
 21
5314.746329820722
 31
0.0
  0
LINE
  5
164CB
330
747D
100
AcDbEntity
  8
細線
100
AcDbLine
 10
8254.193515933494
 20
5291.746329820722
 30
0.0
 11
8328.193515933497
 21
5291.746329820722
 31
0.0
  0
ARC
  5
164CC
330
747D
100
AcDbEntity
  8
部品1
 48
0.01
100
AcDbCircle
 10
8166.193515933498
 20
5319.246329820722
 30
0.0
 40
2.0
100
AcDbArc
 50
90.0
 51
180.0
  0
ARC
  5
164CD
330
747D
100
AcDbEntity
  8
部品1
 48
0.01
100
AcDbCircle
 10
8166.193515933498
 20
5287.746329820723
 30
0.0
 40
2.0
100
AcDbArc
 50
180.0
 51
270.0
  0
ARC
  5
164CE
330
747D
100
AcDbEntity
  8
部品1
 48
0.01
100
AcDbCircle
 10
8342.193515933498
 20
5319.246329820722
 30
0.0
 40
2.0
100
AcDbArc
 50
0.0
 51
90.0
  0
ARC
  5
164CF
330
747D
100
AcDbEntity
  8
部品1
 48
0.01
100
AcDbCircle
 10
8342.193515933493
 20
5287.746329820723
 30
0.0
 40
2.0
100
AcDbArc
 50
270.0
 51
0.0
  0
ARC
  5
164D0
330
747D
100
AcDbEntity
  8
部品1
 48
0.01
100
AcDbCircle
 10
7392.193515933493
 20
5287.746329820723
 30
0.0
 40
2.0
100
AcDbArc
 50
270.0
 51
0.0
  0
ARC
  5
164D1
330
747D
100
AcDbEntity
  8
部品1
 48
0.01
100
AcDbCircle
 10
7392.193515933498
 20
5319.246329820722
 30
0.0
 40
2.0
100
AcDbArc
 50
0.0
 51
90.0
  0
ARC
  5
164D2
330
747D
100
AcDbEntity
  8
部品1
 48
0.01
100
AcDbCircle
 10
7216.193515933497
 20
5287.746329820723
 30
0.0
 40
2.0
100
AcDbArc
 50
180.0
 51
270.0
  0
ARC
  5
164D3
330
747D
100
AcDbEntity
  8
部品1
 48
0.01
100
AcDbCircle
 10
7216.193515933497
 20
5319.246329820722
 30
0.0
 40
2.0
100
AcDbArc
 50
90.0
 51
180.0
  0
LINE
  5
164D4
330
747D
100
AcDbEntity
  8
細線
100
AcDbLine
 10
7304.193515933494
 20
5291.746329820722
 30
0.0
 11
7378.193515933498
 21
5291.746329820722
 31
0.0
  0
LINE
  5
164D5
330
747D
100
AcDbEntity
  8
細線
100
AcDbLine
 10
7304.193515933497
 20
5314.746329820722
 30
0.0
 11
7230.193515933497
 21
5314.746329820722
 31
0.0
  0
LINE
  5
164D6
330
747D
100
AcDbEntity
  8
細線
100
AcDbLine
 10
7230.193515933497
 20
5291.746329820722
 30
0.0
 11
7304.193515933497
 21
5291.746329820722
 31
0.0
  0
LINE
  5
164D7
330
747D
100
AcDbEntity
  8
細線
100
AcDbLine
 10
7378.193515933498
 20
5314.746329820722
 30
0.0
 11
7304.193515933497
 21
5314.746329820722
 31
0.0
  0
LINE
  5
164D8
330
747D
100
AcDbEntity
  8
細線
100
AcDbLine
 10
7378.193515933498
 20
5291.746329820722
 30
0.0
 11
7378.193515933498
 21
5314.746329820722
 31
0.0
  0
LINE
  5
164D9
330
747D
100
AcDbEntity
  8
細線
100
AcDbLine
 10
7230.193515933497
 20
5314.746329820722
 30
0.0
 11
7230.193515933497
 21
5291.746329820722
 31
0.0
  0
LINE
  5
164DA
330
747D
100
AcDbEntity
  8
部品1
 48
0.01
100
AcDbLine
 10
7394.193515933493
 20
5287.746329820723
 30
0.0
 11
7394.193515933498
 21
5319.246329820722
 31
0.0
  0
LINE
  5
164DB
330
747D
100
AcDbEntity
  8
部品1
 48
0.01
100
AcDbLine
 10
7216.193515933497
 20
5285.746329820722
 30
0.0
 11
7392.193515933493
 21
5285.746329820722
 31
0.0
  0
LINE
  5
164DC
330
747D
100
AcDbEntity
  8
部品1
 48
0.01
100
AcDbLine
 10
7214.193515933498
 20
5319.246329820722
 30
0.0
 11
7214.193515933498
 21
5287.746329820723
 31
0.0
  0
LINE
  5
164DD
330
747D
100
AcDbEntity
  8
部品1
 48
0.01
100
AcDbLine
 10
7392.193515933498
 20
5321.246329820723
 30
0.0
 11
7216.193515933497
 21
5321.246329820723
 31
0.0
  0
LINE
  5
164DE
330
747D
100
AcDbEntity
  8
細線
100
AcDbLine
 10
7230.193515933497
 20
5308.746329820722
 30
0.0
 11
7304.193515933497
 21
5308.746329820722
 31
0.0
  0
LINE
  5
164DF
330
747D
100
AcDbEntity
  8
細線
100
AcDbLine
 10
7230.193515933497
 20
5302.746329820722
 30
0.0
 11
7304.193515933497
 21
5302.746329820722
 31
0.0
  0
LINE
  5
164E0
330
747D
100
AcDbEntity
  8
細線
100
AcDbLine
 10
7230.193515933493
 20
5296.746329820722
 30
0.0
 11
7304.193515933497
 21
5296.746329820722
 31
0.0
  0
LINE
  5
164E1
330
747D
100
AcDbEntity
  8
細線
100
AcDbLine
 10
7230.193515933497
 20
5308.746329820722
 30
0.0
 11
7299.193515933497
 21
5308.746329820722
 31
0.0
  0
LINE
  5
164E2
330
747D
100
AcDbEntity
  8
細線
100
AcDbLine
 10
7378.193515933493
 20
5308.746329820722
 30
0.0
 11
7304.193515933497
 21
5308.746329820722
 31
0.0
  0
LINE
  5
164E3
330
747D
100
AcDbEntity
  8
細線
100
AcDbLine
 10
7378.193515933493
 20
5296.746329820722
 30
0.0
 11
7304.193515933497
 21
5296.746329820722
 31
0.0
  0
LINE
  5
164E4
330
747D
100
AcDbEntity
  8
細線
100
AcDbLine
 10
7378.193515933493
 20
5302.746329820722
 30
0.0
 11
7304.193515933497
 21
5302.746329820722
 31
0.0
  0
LINE
  5
164E5
330
747D
100
AcDbEntity
  8
細線
100
AcDbLine
 10
7304.193515933497
 20
5314.746329820722
 30
0.0
 11
7304.193515933494
 21
5291.746329820722
 31
0.0
  0
LINE
  5
164E6
330
747D
100
AcDbEntity
  8
細線
100
AcDbLine
 10
6354.193515933498
 20
5314.746329820722
 30
0.0
 11
6354.193515933493
 21
5291.746329820722
 31
0.0
  0
LINE
  5
164E7
330
747D
100
AcDbEntity
  8
細線
100
AcDbLine
 10
6428.193515933493
 20
5302.746329820722
 30
0.0
 11
6354.193515933498
 21
5302.746329820722
 31
0.0
  0
LINE
  5
164E8
330
747D
100
AcDbEntity
  8
細線
100
AcDbLine
 10
6428.193515933493
 20
5296.746329820722
 30
0.0
 11
6354.193515933498
 21
5296.746329820722
 31
0.0
  0
LINE
  5
164E9
330
747D
100
AcDbEntity
  8
細線
100
AcDbLine
 10
6428.193515933493
 20
5308.746329820722
 30
0.0
 11
6354.193515933498
 21
5308.746329820722
 31
0.0
  0
LINE
  5
164EA
330
747D
100
AcDbEntity
  8
細線
100
AcDbLine
 10
6280.193515933497
 20
5308.746329820722
 30
0.0
 11
6349.193515933497
 21
5308.746329820722
 31
0.0
  0
LINE
  5
164EB
330
747D
100
AcDbEntity
  8
細線
100
AcDbLine
 10
6280.193515933493
 20
5296.746329820722
 30
0.0
 11
6354.193515933498
 21
5296.746329820722
 31
0.0
  0
LINE
  5
164EC
330
747D
100
AcDbEntity
  8
細線
100
AcDbLine
 10
6280.193515933497
 20
5302.746329820722
 30
0.0
 11
6354.193515933498
 21
5302.746329820722
 31
0.0
  0
LINE
  5
164ED
330
747D
100
AcDbEntity
  8
細線
100
AcDbLine
 10
6280.193515933497
 20
5308.746329820722
 30
0.0
 11
6354.193515933498
 21
5308.746329820722
 31
0.0
  0
LINE
  5
164EE
330
747D
100
AcDbEntity
  8
部品1
 48
0.01
100
AcDbLine
 10
6442.193515933498
 20
5321.246329820723
 30
0.0
 11
6266.193515933498
 21
5321.246329820723
 31
0.0
  0
LINE
  5
164EF
330
747D
100
AcDbEntity
  8
部品1
 48
0.01
100
AcDbLine
 10
6264.193515933497
 20
5319.246329820722
 30
0.0
 11
6264.193515933497
 21
5287.746329820723
 31
0.0
  0
LINE
  5
164F0
330
747D
100
AcDbEntity
  8
部品1
 48
0.01
100
AcDbLine
 10
6266.193515933498
 20
5285.746329820722
 30
0.0
 11
6442.193515933493
 21
5285.746329820722
 31
0.0
  0
LINE
  5
164F1
330
747D
100
AcDbEntity
  8
部品1
 48
0.01
100
AcDbLine
 10
6444.193515933493
 20
5287.746329820723
 30
0.0
 11
6444.193515933497
 21
5319.246329820722
 31
0.0
  0
LINE
  5
164F2
330
747D
100
AcDbEntity
  8
細線
100
AcDbLine
 10
6280.193515933497
 20
5314.746329820722
 30
0.0
 11
6280.193515933497
 21
5291.746329820722
 31
0.0
  0
LINE
  5
164F3
330
747D
100
AcDbEntity
  8
細線
100
AcDbLine
 10
6428.193515933497
 20
5291.746329820722
 30
0.0
 11
6428.193515933497
 21
5314.746329820722
 31
0.0
  0
LINE
  5
164F4
330
747D
100
AcDbEntity
  8
細線
100
AcDbLine
 10
6428.193515933497
 20
5314.746329820722
 30
0.0
 11
6354.193515933498
 21
5314.746329820722
 31
0.0
  0
LINE
  5
164F5
330
747D
100
AcDbEntity
  8
細線
100
AcDbLine
 10
6280.193515933497
 20
5291.746329820722
 30
0.0
 11
6354.193515933498
 21
5291.746329820722
 31
0.0
  0
LINE
  5
164F6
330
747D
100
AcDbEntity
  8
細線
100
AcDbLine
 10
6354.193515933498
 20
5314.746329820722
 30
0.0
 11
6280.193515933497
 21
5314.746329820722
 31
0.0
  0
LINE
  5
164F7
330
747D
100
AcDbEntity
  8
細線
100
AcDbLine
 10
6354.193515933493
 20
5291.746329820722
 30
0.0
 11
6428.193515933497
 21
5291.746329820722
 31
0.0
  0
ARC
  5
164F8
330
747D
100
AcDbEntity
  8
部品1
 48
0.01
100
AcDbCircle
 10
6266.193515933498
 20
5319.246329820722
 30
0.0
 40
2.0
100
AcDbArc
 50
90.0
 51
180.0
  0
ARC
  5
164F9
330
747D
100
AcDbEntity
  8
部品1
 48
0.01
100
AcDbCircle
 10
6266.193515933498
 20
5287.746329820723
 30
0.0
 40
2.0
100
AcDbArc
 50
180.0
 51
270.0
  0
ARC
  5
164FA
330
747D
100
AcDbEntity
  8
部品1
 48
0.01
100
AcDbCircle
 10
6442.193515933498
 20
5319.246329820722
 30
0.0
 40
2.0
100
AcDbArc
 50
0.0
 51
90.0
  0
ARC
  5
164FB
330
747D
100
AcDbEntity
  8
部品1
 48
0.01
100
AcDbCircle
 10
6442.193515933493
 20
5287.746329820723
 30
0.0
 40
2.0
100
AcDbArc
 50
270.0
 51
0.0
  0
ARC
  5
164FC
330
747D
100
AcDbEntity
  8
部品1
 48
0.01
100
AcDbCircle
 10
5492.193515933493
 20
5287.746329820723
 30
0.0
 40
2.0
100
AcDbArc
 50
270.0
 51
0.0
  0
ARC
  5
164FD
330
747D
100
AcDbEntity
  8
部品1
 48
0.01
100
AcDbCircle
 10
5492.193515933497
 20
5319.246329820722
 30
0.0
 40
2.0
100
AcDbArc
 50
0.0
 51
90.0
  0
ARC
  5
164FE
330
747D
100
AcDbEntity
  8
部品1
 48
0.01
100
AcDbCircle
 10
5316.193515933497
 20
5287.746329820723
 30
0.0
 40
2.0
100
AcDbArc
 50
180.0
 51
270.0
  0
ARC
  5
164FF
330
747D
100
AcDbEntity
  8
部品1
 48
0.01
100
AcDbCircle
 10
5316.193515933497
 20
5319.246329820722
 30
0.0
 40
2.0
100
AcDbArc
 50
90.0
 51
180.0
  0
LINE
  5
16500
330
747D
100
AcDbEntity
  8
細線
100
AcDbLine
 10
5404.193515933493
 20
5291.746329820722
 30
0.0
 11
5478.193515933497
 21
5291.746329820722
 31
0.0
  0
LINE
  5
16501
330
747D
100
AcDbEntity
  8
細線
100
AcDbLine
 10
5404.193515933497
 20
5314.746329820722
 30
0.0
 11
5330.193515933498
 21
5314.746329820722
 31
0.0
  0
LINE
  5
16502
330
747D
100
AcDbEntity
  8
細線
100
AcDbLine
 10
5330.193515933498
 20
5291.746329820722
 30
0.0
 11
5404.193515933497
 21
5291.746329820722
 31
0.0
  0
LINE
  5
16503
330
747D
100
AcDbEntity
  8
細線
100
AcDbLine
 10
5478.193515933497
 20
5314.746329820722
 30
0.0
 11
5404.193515933497
 21
5314.746329820722
 31
0.0
  0
LINE
  5
16504
330
747D
100
AcDbEntity
  8
細線
100
AcDbLine
 10
5478.193515933497
 20
5291.746329820722
 30
0.0
 11
5478.193515933497
 21
5314.746329820722
 31
0.0
  0
LINE
  5
16505
330
747D
100
AcDbEntity
  8
細線
100
AcDbLine
 10
5330.193515933498
 20
5314.746329820722
 30
0.0
 11
5330.193515933498
 21
5291.746329820722
 31
0.0
  0
LINE
  5
16506
330
747D
100
AcDbEntity
  8
部品1
 48
0.01
100
AcDbLine
 10
5494.193515933494
 20
5287.746329820723
 30
0.0
 11
5494.193515933497
 21
5319.246329820722
 31
0.0
  0
LINE
  5
16507
330
747D
100
AcDbEntity
  8
部品1
 48
0.01
100
AcDbLine
 10
5316.193515933497
 20
5285.746329820722
 30
0.0
 11
5492.193515933493
 21
5285.746329820722
 31
0.0
  0
LINE
  5
16508
330
747D
100
AcDbEntity
  8
部品1
 48
0.01
100
AcDbLine
 10
5314.193515933497
 20
5319.246329820722
 30
0.0
 11
5314.193515933497
 21
5287.746329820723
 31
0.0
  0
LINE
  5
16509
330
747D
100
AcDbEntity
  8
部品1
 48
0.01
100
AcDbLine
 10
5492.193515933497
 20
5321.246329820723
 30
0.0
 11
5316.193515933497
 21
5321.246329820723
 31
0.0
  0
LINE
  5
1650A
330
747D
100
AcDbEntity
  8
細線
100
AcDbLine
 10
5330.193515933498
 20
5308.746329820722
 30
0.0
 11
5404.193515933497
 21
5308.746329820722
 31
0.0
  0
LINE
  5
1650B
330
747D
100
AcDbEntity
  8
細線
100
AcDbLine
 10
5330.193515933498
 20
5302.746329820722
 30
0.0
 11
5404.193515933497
 21
5302.746329820722
 31
0.0
  0
LINE
  5
1650C
330
747D
100
AcDbEntity
  8
細線
100
AcDbLine
 10
5330.193515933494
 20
5296.746329820722
 30
0.0
 11
5404.193515933497
 21
5296.746329820722
 31
0.0
  0
LINE
  5
1650D
330
747D
100
AcDbEntity
  8
細線
100
AcDbLine
 10
5330.193515933498
 20
5308.746329820722
 30
0.0
 11
5399.193515933497
 21
5308.746329820722
 31
0.0
  0
LINE
  5
1650E
330
747D
100
AcDbEntity
  8
細線
100
AcDbLine
 10
5478.193515933494
 20
5308.746329820722
 30
0.0
 11
5404.193515933497
 21
5308.746329820722
 31
0.0
  0
LINE
  5
1650F
330
747D
100
AcDbEntity
  8
細線
100
AcDbLine
 10
5478.193515933494
 20
5296.746329820722
 30
0.0
 11
5404.193515933497
 21
5296.746329820722
 31
0.0
  0
LINE
  5
16510
330
747D
100
AcDbEntity
  8
細線
100
AcDbLine
 10
5478.193515933494
 20
5302.746329820722
 30
0.0
 11
5404.193515933497
 21
5302.746329820722
 31
0.0
  0
LINE
  5
16511
330
747D
100
AcDbEntity
  8
細線
100
AcDbLine
 10
5404.193515933497
 20
5314.746329820722
 30
0.0
 11
5404.193515933493
 21
5291.746329820722
 31
0.0
  0
LINE
  5
16512
330
747D
100
AcDbEntity
  8
細線
100
AcDbLine
 10
4454.193515933496
 20
5314.746329820722
 30
0.0
 11
4454.193515933493
 21
5291.746329820722
 31
0.0
  0
LINE
  5
16513
330
747D
100
AcDbEntity
  8
細線
100
AcDbLine
 10
4528.193515933494
 20
5302.746329820722
 30
0.0
 11
4454.193515933496
 21
5302.746329820722
 31
0.0
  0
LINE
  5
16514
330
747D
100
AcDbEntity
  8
細線
100
AcDbLine
 10
4528.193515933494
 20
5296.746329820722
 30
0.0
 11
4454.193515933496
 21
5296.746329820722
 31
0.0
  0
LINE
  5
16515
330
747D
100
AcDbEntity
  8
細線
100
AcDbLine
 10
4528.193515933494
 20
5308.746329820722
 30
0.0
 11
4454.193515933496
 21
5308.746329820722
 31
0.0
  0
LINE
  5
16516
330
747D
100
AcDbEntity
  8
細線
100
AcDbLine
 10
4380.193515933497
 20
5308.746329820722
 30
0.0
 11
4449.193515933496
 21
5308.746329820722
 31
0.0
  0
LINE
  5
16517
330
747D
100
AcDbEntity
  8
細線
100
AcDbLine
 10
4380.193515933494
 20
5296.746329820722
 30
0.0
 11
4454.193515933496
 21
5296.746329820722
 31
0.0
  0
LINE
  5
16518
330
747D
100
AcDbEntity
  8
細線
100
AcDbLine
 10
4380.193515933497
 20
5302.746329820722
 30
0.0
 11
4454.193515933496
 21
5302.746329820722
 31
0.0
  0
LINE
  5
16519
330
747D
100
AcDbEntity
  8
細線
100
AcDbLine
 10
4380.193515933497
 20
5308.746329820722
 30
0.0
 11
4454.193515933496
 21
5308.746329820722
 31
0.0
  0
LINE
  5
1651A
330
747D
100
AcDbEntity
  8
部品1
 48
0.01
100
AcDbLine
 10
4542.193515933496
 20
5321.246329820723
 30
0.0
 11
4366.193515933497
 21
5321.246329820723
 31
0.0
  0
LINE
  5
1651B
330
747D
100
AcDbEntity
  8
部品1
 48
0.01
100
AcDbLine
 10
4364.193515933497
 20
5319.246329820722
 30
0.0
 11
4364.193515933497
 21
5287.746329820723
 31
0.0
  0
LINE
  5
1651C
330
747D
100
AcDbEntity
  8
部品1
 48
0.01
100
AcDbLine
 10
4366.193515933497
 20
5285.746329820722
 30
0.0
 11
4542.193515933493
 21
5285.746329820722
 31
0.0
  0
LINE
  5
1651D
330
747D
100
AcDbEntity
  8
部品1
 48
0.01
100
AcDbLine
 10
4544.193515933494
 20
5287.746329820723
 30
0.0
 11
4544.193515933497
 21
5319.246329820722
 31
0.0
  0
LINE
  5
1651E
330
747D
100
AcDbEntity
  8
細線
100
AcDbLine
 10
4380.193515933497
 20
5314.746329820722
 30
0.0
 11
4380.193515933497
 21
5291.746329820722
 31
0.0
  0
LINE
  5
1651F
330
747D
100
AcDbEntity
  8
細線
100
AcDbLine
 10
4528.193515933497
 20
5291.746329820722
 30
0.0
 11
4528.193515933497
 21
5314.746329820722
 31
0.0
  0
LINE
  5
16520
330
747D
100
AcDbEntity
  8
細線
100
AcDbLine
 10
4528.193515933497
 20
5314.746329820722
 30
0.0
 11
4454.193515933496
 21
5314.746329820722
 31
0.0
  0
LINE
  5
16521
330
747D
100
AcDbEntity
  8
細線
100
AcDbLine
 10
4380.193515933497
 20
5291.746329820722
 30
0.0
 11
4454.193515933496
 21
5291.746329820722
 31
0.0
  0
LINE
  5
16522
330
747D
100
AcDbEntity
  8
細線
100
AcDbLine
 10
4454.193515933496
 20
5314.746329820722
 30
0.0
 11
4380.193515933497
 21
5314.746329820722
 31
0.0
  0
LINE
  5
16523
330
747D
100
AcDbEntity
  8
細線
100
AcDbLine
 10
4454.193515933493
 20
5291.746329820722
 30
0.0
 11
4528.193515933497
 21
5291.746329820722
 31
0.0
  0
ARC
  5
16524
330
747D
100
AcDbEntity
  8
部品1
 48
0.01
100
AcDbCircle
 10
4366.193515933497
 20
5319.246329820722
 30
0.0
 40
2.0
100
AcDbArc
 50
90.0
 51
180.0
  0
ARC
  5
16525
330
747D
100
AcDbEntity
  8
部品1
 48
0.01
100
AcDbCircle
 10
4366.193515933497
 20
5287.746329820723
 30
0.0
 40
2.0
100
AcDbArc
 50
180.0
 51
270.0
  0
ARC
  5
16526
330
747D
100
AcDbEntity
  8
部品1
 48
0.01
100
AcDbCircle
 10
4542.193515933496
 20
5319.246329820722
 30
0.0
 40
2.0
100
AcDbArc
 50
0.0
 51
90.0
  0
ARC
  5
16527
330
747D
100
AcDbEntity
  8
部品1
 48
0.01
100
AcDbCircle
 10
4542.193515933493
 20
5287.746329820723
 30
0.0
 40
2.0
100
AcDbArc
 50
270.0
 51
0.0
  0
LWPOLYLINE
  5
1654E
330
747D
100
AcDbEntity
  8
部品1
100
AcDbPolyline
 90
        4
 70
     1
 43
0.0
 10
6447.458182819268
 20
2524.197043464284
 10
6447.458182819268
 20
2284.304721918752
 10
7210.92884904771
 20
2284.304721918752
 10
7210.92884904771
 20
2524.197043464284
  0
TEXT
  5
1654F
330
747D
100
AcDbEntity
  8
部品1
100
AcDbText
 10
6537.983586557224
 20
2331.30351424576
 30
0.0
 40
135.0
  1
正面図
  7
STYLE2
100
AcDbText
  0
LWPOLYLINE
  5
16550
330
747D
100
AcDbEntity
  8
部品1
100
AcDbPolyline
 90
        4
 70
     1
 43
0.0
 10
11708.25556462676
 20
2524.197043464284
 10
11708.25556462676
 20
2284.304721918752
 10
12471.7262308552
 20
2284.304721918752
 10
12471.7262308552
 20
2524.197043464284
  0
TEXT
  5
16551
330
747D
100
AcDbEntity
  8
部品1
100
AcDbText
 10
11797.70166605036
 20
2331.30351424576
 30
0.0
 40
135.0
  1
側面図
  7
STYLE2
100
AcDbText
  0
LINE
  5
16552
330
747D
100
AcDbEntity
  8
仕様書枠
 48
50.0
100
AcDbLine
 10
16307.2
 20
10899.6
 30
0.0
 11
13127.2
 21
10899.6
 31
0.0
  0
TEXT
  5
16553
330
747D
100
AcDbEntity
  8
文字
 62
     7
 48
50.0
100
AcDbText
 10
13583.1181901657
 20
9910.01374588373
 30
0.0
 40
100.0
  1
梁中・梁中央
 41
0.9
  7
STYLE1
100
AcDbText
  0
TEXT
  5
16554
330
747D
100
AcDbEntity
  8
文字
 62
     7
 48
50.0
100
AcDbText
 10
15022.63965474517
 20
9910.01374588373
 30
0.0
 40
100.0
  1
F12,Y10       0.7+1.0
  7
STYLE1
100
AcDbText
  0
TEXT
  5
16555
330
747D
100
AcDbEntity
  8
文字
 62
     7
 48
50.0
100
AcDbText
 10
13583.11819016567
 20
8890.013745883729
 30
0.0
 40
100.0
  1
アンカープレート
  7
STYLE1
100
AcDbText
  0
TEXT
  5
16556
330
747D
100
AcDbEntity
  8
文字
 62
     7
 48
50.0
100
AcDbText
 10
15022.63965474513
 20
8890.013745883722
 30
0.0
 40
100.0
  1
F12            2.3
  7
STYLE1
100
AcDbText
  0
LINE
  5
16557
330
747D
100
AcDbEntity
  8
仕様書枠
 48
50.0
100
AcDbLine
 10
16307.2
 20
9879.600000000001
 30
0.0
 11
13127.2
 21
9879.600000000001
 31
0.0
  0
LINE
  5
16558
330
747D
100
AcDbEntity
  8
仕様書枠
 48
50.0
100
AcDbLine
 10
16307.2
 20
11409.6
 30
0.0
 11
13127.2
 21
11409.6
 31
0.0
  0
LINE
  5
16559
330
747D
100
AcDbEntity
  8
仕様書枠
 48
50.0
100
AcDbLine
 10
16307.19999999999
 20
8179.600000000004
 30
0.0
 11
16307.2
 21
11409.6
 31
0.0
  0
LINE
  5
1655A
330
747D
100
AcDbEntity
  8
仕様書枠
 48
50.0
100
AcDbLine
 10
14785.2
 20
11409.59999999999
 30
0.0
 11
14785.19999999999
 21
8689.599999999998
 31
0.0
  0
LINE
  5
1655B
330
747D
100
AcDbEntity
  8
仕様書枠
 48
50.0
100
AcDbLine
 10
13490.2
 20
11409.6
 30
0.0
 11
13490.20000000001
 21
8689.6
 31
0.0
  0
LINE
  5
1655C
330
747D
100
AcDbEntity
  8
仕様書枠
 48
50.0
100
AcDbLine
 10
16307.2
 20
11239.6
 30
0.0
 11
13127.2
 21
11239.6
 31
0.0
  0
LINE
  5
1655D
330
747D
100
AcDbEntity
  8
仕様書枠
 48
50.0
100
AcDbLine
 10
16307.2
 20
10729.6
 30
0.0
 11
13127.2
 21
10729.6
 31
0.0
  0
LINE
  5
1655E
330
747D
100
AcDbEntity
  8
仕様書枠
 48
50.0
100
AcDbLine
 10
16307.2
 20
11069.6
 30
0.0
 11
13127.2
 21
11069.6
 31
0.0
  0
LINE
  5
1655F
330
747D
100
AcDbEntity
  8
仕様書枠
 48
50.0
100
AcDbLine
 10
16307.2
 20
10389.6
 30
0.0
 11
13127.2
 21
10389.6
 31
0.0
  0
LINE
  5
16560
330
747D
100
AcDbEntity
  8
仕様書枠
 48
50.0
100
AcDbLine
 10
16307.2
 20
10219.6
 30
0.0
 11
13127.2
 21
10219.6
 31
0.0
  0
LINE
  5
16561
330
747D
100
AcDbEntity
  8
仕様書枠
 48
50.0
100
AcDbLine
 10
16307.2
 20
10559.6
 30
0.0
 11
13127.2
 21
10559.6
 31
0.0
  0
TEXT
  5
16562
330
747D
100
AcDbEntity
  8
文字
 62
     7
 48
50.0
100
AcDbText
 10
13197.42518560407
 20
11270.01374588373
 30
0.0
 40
100.0
  1
品番
  7
STYLE1
100
AcDbText
  0
TEXT
  5
16563
330
747D
100
AcDbEntity
  8
文字
 62
     7
 48
50.0
100
AcDbText
 10
13271.19032244792
 20
11100.01374588373
 30
0.0
 40
100.0
  1
1
  7
STYLE1
100
AcDbText
  0
TEXT
  5
16564
330
747D
100
AcDbEntity
  8
文字
 62
     7
 48
50.0
100
AcDbText
 10
13271.19032244792
 20
10930.01374588373
 30
0.0
 40
100.0
  1
2
  7
STYLE1
100
AcDbText
  0
TEXT
  5
16565
330
747D
100
AcDbEntity
  8
文字
 62
     7
 48
50.0
100
AcDbText
 10
13271.19032244793
 20
10590.01374588373
 30
0.0
 40
100.0
  1
4
  7
STYLE1
100
AcDbText
  0
TEXT
  5
16566
330
747D
100
AcDbEntity
  8
文字
 62
     7
 48
50.0
100
AcDbText
 10
13271.19032244793
 20
10760.01374588373
 30
0.0
 40
100.0
  1
3
  7
STYLE1
100
AcDbText
  0
TEXT
  5
16567
330
747D
100
AcDbEntity
  8
文字
 62
     7
 48
50.0
100
AcDbText
 10
13732.03840939435
 20
11270.01374588373
 30
0.0
 40
100.0
  1
部　　品　　名
  7
STYLE1
100
AcDbText
  0
TEXT
  5
16568
330
747D
100
AcDbEntity
  8
文字
 62
     7
 48
50.0
100
AcDbText
 10
14859.79774614482
 20
11270.01374588373
 30
0.0
 40
100.0
  1
材料（材質）　　単位mm
  7
STYLE1
100
AcDbText
  0
TEXT
  5
16569
330
747D
100
AcDbEntity
  8
文字
 62
     7
 48
50.0
100
AcDbText
 10
13583.11819016569
 20
11100.01374588373
 30
0.0
 40
100.0
  1
土台枠
  7
STYLE1
100
AcDbText
  0
TEXT
  5
1656A
330
747D
100
AcDbEntity
  8
文字
 62
     7
 48
50.0
100
AcDbText
 10
13583.1181901657
 20
10930.01374588373
 30
0.0
 40
100.0
  1
柱
  7
STYLE1
100
AcDbText
  0
TEXT
  5
1656B
330
747D
100
AcDbEntity
  8
文字
 62
     7
 48
50.0
100
AcDbText
 10
13583.1181901657
 20
10590.01374588373
 30
0.0
 40
100.0
  1
鴨居
  7
STYLE1
100
AcDbText
  0
TEXT
  5
1656C
330
747D
100
AcDbEntity
  8
文字
 62
     7
 48
50.0
100
AcDbText
 10
13583.1181901657
 20
10420.01374588373
 30
0.0
 40
100.0
  1
桁後
  7
STYLE1
100
AcDbText
  0
TEXT
  5
1656D
330
747D
100
AcDbEntity
  8
文字
 62
     7
 48
50.0
100
AcDbText
 10
13271.19032244793
 20
10420.01374588373
 30
0.0
 40
100.0
  1
5
  7
STYLE1
100
AcDbText
  0
TEXT
  5
1656E
330
747D
100
AcDbEntity
  8
文字
 62
     7
 48
50.0
100
AcDbText
 10
13583.1181901657
 20
10250.01374588373
 30
0.0
 40
100.0
  1
妻板左右
  7
STYLE1
100
AcDbText
  0
TEXT
  5
1656F
330
747D
100
AcDbEntity
  8
文字
 62
     7
 48
50.0
100
AcDbText
 10
13248.77747366447
 20
9570.013745883729
 30
0.0
 40
100.0
  1
10
  7
STYLE1
100
AcDbText
  0
TEXT
  5
16570
330
747D
100
AcDbEntity
  8
文字
 62
     7
 48
50.0
100
AcDbText
 10
13583.11819016568
 20
9570.013745883729
 30
0.0
 40
100.0
  1
壁パネル
  7
STYLE1
100
AcDbText
  0
TEXT
  5
16571
330
747D
100
AcDbEntity
  8
文字
 62
     7
 48
50.0
100
AcDbText
 10
13583.11819016569
 20
9740.013745883729
 30
0.0
 40
100.0
  1
屋根パネル
  7
STYLE1
100
AcDbText
  0
TEXT
  5
16572
330
747D
100
AcDbEntity
  8
文字
 62
     7
 48
50.0
100
AcDbText
 10
13583.1181901657
 20
10080.01374588373
 30
0.0
 40
100.0
  1
鼻隠シ前後
  7
STYLE1
100
AcDbText
  0
TEXT
  5
16573
330
747D
100
AcDbEntity
  8
文字
 62
     7
 48
50.0
100
AcDbText
 10
13271.19032244793
 20
9910.01374588373
 30
0.0
 40
100.0
  1
8
  7
STYLE1
100
AcDbText
  0
TEXT
  5
16574
330
747D
100
AcDbEntity
  8
文字
 62
     7
 48
50.0
100
AcDbText
 10
13271.19032244792
 20
9740.013745883729
 30
0.0
 40
100.0
  1
9
  7
STYLE1
100
AcDbText
  0
TEXT
  5
16575
330
747D
100
AcDbEntity
  8
文字
 62
     7
 48
50.0
100
AcDbText
 10
13271.19032244793
 20
10080.01374588373
 30
0.0
 40
100.0
  1
7
  7
STYLE1
100
AcDbText
  0
TEXT
  5
16576
330
747D
100
AcDbEntity
  8
文字
 62
     7
 48
50.0
100
AcDbText
 10
13271.19032244793
 20
10250.01374588373
 30
0.0
 40
100.0
  1
6
  7
STYLE1
100
AcDbText
  0
LINE
  5
16577
330
747D
100
AcDbEntity
  8
仕様書枠
 48
50.0
100
AcDbLine
 10
16307.19999999999
 20
9369.600000000001
 30
0.0
 11
13127.19999999999
 21
9369.600000000001
 31
0.0
  0
LINE
  5
16578
330
747D
100
AcDbEntity
  8
仕様書枠
 48
50.0
100
AcDbLine
 10
16307.19999999999
 20
9029.6
 30
0.0
 11
13127.19999999999
 21
9029.6
 31
0.0
  0
LINE
  5
16579
330
747D
100
AcDbEntity
  8
仕様書枠
 48
50.0
100
AcDbLine
 10
16307.19999999999
 20
9199.600000000001
 30
0.0
 11
13127.19999999999
 21
9199.600000000001
 31
0.0
  0
LINE
  5
1657A
330
747D
100
AcDbEntity
  8
仕様書枠
 48
50.0
100
AcDbLine
 10
16307.2
 20
10049.6
 30
0.0
 11
13127.2
 21
10049.6
 31
0.0
  0
LINE
  5
1657B
330
747D
100
AcDbEntity
  8
仕様書枠
 48
50.0
100
AcDbLine
 10
16307.2
 20
9709.600000000001
 30
0.0
 11
13127.2
 21
9709.600000000001
 31
0.0
  0
TEXT
  5
1657C
330
747D
100
AcDbEntity
  8
文字
 62
     7
 48
50.0
100
AcDbText
 10
13248.77747366447
 20
9400.013745883729
 30
0.0
 40
100.0
  1
11
  7
STYLE1
100
AcDbText
  0
LINE
  5
1657D
330
747D
100
AcDbEntity
  8
仕様書枠
 48
50.0
100
AcDbLine
 10
16307.19999999999
 20
8859.6
 30
0.0
 11
13127.19999999999
 21
8859.6
 31
0.0
  0
LINE
  5
1657E
330
747D
100
AcDbEntity
  8
仕様書枠
 48
50.0
100
AcDbLine
 10
16307.19999999999
 20
8179.600000000004
 30
0.0
 11
13127.19999999999
 21
8179.600000000007
 31
0.0
  0
TEXT
  5
1657F
330
747D
100
AcDbEntity
  8
文字
 62
     7
 48
50.0
100
AcDbText
 10
13248.77747366447
 20
9060.013745883729
 30
0.0
 40
100.0
  1
13
  7
STYLE1
100
AcDbText
  0
TEXT
  5
16580
330
747D
100
AcDbEntity
  8
文字
 62
     7
 48
50.0
100
AcDbText
 10
13248.77747366447
 20
9230.013745883729
 30
0.0
 40
100.0
  1
12
  7
STYLE1
100
AcDbText
  0
TEXT
  5
16581
330
747D
100
AcDbEntity
  8
文字
 62
     7
 48
50.0
100
AcDbText
 10
15022.63965474517
 20
11100.01374588372
 30
0.0
 40
100.0
  1
F12            1.2
  7
STYLE1
100
AcDbText
  0
TEXT
  5
16582
330
747D
100
AcDbEntity
  8
文字
 62
     7
 48
50.0
100
AcDbText
 10
15022.63965474518
 20
10930.01374588372
 30
0.0
 40
100.0
  1
F12            1.0
  7
STYLE1
100
AcDbText
  0
TEXT
  5
16583
330
747D
100
AcDbEntity
  8
文字
 62
     7
 48
50.0
100
AcDbText
 10
15022.63965474517
 20
10590.01374588372
 30
0.0
 40
100.0
  1
Y10            1.0
  7
STYLE1
100
AcDbText
  0
TEXT
  5
16584
330
747D
100
AcDbEntity
  8
文字
 62
     7
 48
50.0
100
AcDbText
 10
15022.63965474517
 20
10420.01374588372
 30
0.0
 40
100.0
  1
Y10            1.0
  7
STYLE1
100
AcDbText
  0
TEXT
  5
16585
330
747D
100
AcDbEntity
  8
文字
 62
     7
 48
50.0
100
AcDbText
 10
15022.63965474517
 20
10250.01374588372
 30
0.0
 40
100.0
  1
Y10            0.7
  7
STYLE1
100
AcDbText
  0
TEXT
  5
16586
330
747D
100
AcDbEntity
  8
文字
 62
     7
 48
50.0
100
AcDbText
 10
15022.63965474517
 20
10080.01374588372
 30
0.0
 40
100.0
  1
Y10            0.7
  7
STYLE1
100
AcDbText
  0
TEXT
  5
16587
330
747D
100
AcDbEntity
  8
文字
 62
     7
 48
50.0
100
AcDbText
 10
15022.63965474516
 20
9740.013745883725
 30
0.0
 40
100.0
  1
Y10            0.5
  7
STYLE1
100
AcDbText
  0
TEXT
  5
16588
330
747D
100
AcDbEntity
  8
文字
 62
     7
 48
50.0
100
AcDbText
 10
15022.63965474515
 20
9570.013745883725
 30
0.0
 40
100.0
  1
F12            0.6
  7
STYLE1
100
AcDbText
  0
TEXT
  5
16589
330
747D
100
AcDbEntity
  8
文字
 62
     7
 48
50.0
100
AcDbText
 10
13229.83081656553
 20
8380.013745883728
 30
0.0
 40
100.0
  1
F12→溶融亜鉛めっき鋼板(JIS G 3302)
  7
STYLE1
100
AcDbText
  0
TEXT
  5
1658A
330
747D
100
AcDbEntity
  8
文字
 62
     7
 48
50.0
100
AcDbText
 10
13229.83081656553
 20
8210.013745883729
 30
0.0
 40
100.0
  1
Y10→溶融亜鉛-5％アルミニウム合金めっき鋼板(JIS G 3317)
 41
0.9
  7
STYLE1
100
AcDbText
  0
LINE
  5
1658B
330
747D
100
AcDbEntity
  8
仕様書枠
 48
50.0
100
AcDbLine
 10
13127.2
 20
11409.6
 30
0.0
 11
13127.19999999999
 21
8179.600000000005
 31
0.0
  0
LINE
  5
1658C
330
747D
100
AcDbEntity
  8
仕様書枠
 48
50.0
100
AcDbLine
 10
16307.19999999999
 20
8349.600000000004
 30
0.0
 11
13127.19999999999
 21
8349.600000000007
 31
0.0
  0
TEXT
  5
1658D
330
747D
100
AcDbEntity
  8
文字
 62
     7
 48
50.0
100
AcDbText
 10
13583.1181901657
 20
10760.01374588373
 30
0.0
 40
100.0
  1
床パネル
 41
0.9
  7
STYLE1
100
AcDbText
  0
TEXT
  5
1658E
330
747D
100
AcDbEntity
  8
文字
 62
     7
 48
50.0
100
AcDbText
 10
15022.63965474517
 20
10760.01374588372
 30
0.0
 40
100.0
  1
F12            1.0
  7
STYLE1
100
AcDbText
  0
TEXT
  5
1658F
330
747D
100
AcDbEntity
  8
文字
 62
     7
 48
50.0
100
AcDbText
 10
15022.63965474515
 20
9230.013745883725
 30
0.0
 40
100.0
  1
F12            0.8
  7
STYLE1
100
AcDbText
  0
TEXT
  5
16590
330
747D
100
AcDbEntity
  8
文字
 62
     7
 48
50.0
100
AcDbText
 10
13583.11819016568
 20
9230.013745883729
 30
0.0
 40
100.0
  1
扉
  7
STYLE1
100
AcDbText
  0
TEXT
  5
16591
330
747D
100
AcDbEntity
  8
文字
 62
     7
 48
50.0
100
AcDbText
 10
15022.63965474515
 20
9060.013745883729
 30
0.0
 40
100.0
  1
F12            0.6
  7
STYLE1
100
AcDbText
  0
TEXT
  5
16592
330
747D
100
AcDbEntity
  8
文字
 62
     7
 48
50.0
100
AcDbText
 10
13583.11819016568
 20
9060.013745883733
 30
0.0
 40
100.0
  1
棚板
  7
STYLE1
100
AcDbText
  0
TEXT
  5
16593
330
747D
100
AcDbEntity
  8
文字
 62
     7
 48
50.0
100
AcDbText
 10
14271.39351435261
 20
483.8967129911411
 30
0.0
 40
160.0
  1
ＮＸＮ－０９ＤＬ－６
  7
STYLE2
100
AcDbText
  0
LINE
  5
16594
330
747D
100
AcDbEntity
  8
仕様書枠
 48
50.0
100
AcDbLine
 10
16307.2
 20
9539.6
 30
0.0
 11
13127.2
 21
9539.6
 31
0.0
  0
TEXT
  5
16595
330
747D
100
AcDbEntity
  8
文字
 62
     7
 48
50.0
100
AcDbText
 10
13248.77747366447
 20
8890.013745883731
 30
0.0
 40
100.0
  1
14
  7
STYLE1
100
AcDbText
  0
LINE
  5
16596
330
747D
100
AcDbEntity
  8
部品1
100
AcDbLine
 10
11939.99089774099
 20
5621.114468922003
 30
0.0
 11
12239.99089774098
 21
5605.580488339481
 31
0.0
  0
TEXT
  5
16597
330
747D
100
AcDbEntity
  8
部品1
 48
50.0
100
AcDbText
 10
12403.91893800397
 20
5491.544912275806
 30
0.0
 40
120.0
  1
104
 50
90.0
  7
STYLE1
100
AcDbText
  0
TEXT
  5
16598
330
747D
100
AcDbEntity
  8
部品1
 48
50.0
100
AcDbText
 10
11928.2587329647
 20
5656.998491074437
 30
0.0
 40
120.0
  1
1000
  7
STYLE1
100
AcDbText
  0
LINE
  5
16599
330
747D
100
AcDbEntity
  8
部品1
 48
50.0
100
AcDbLine
 10
12239.99089774098
 20
5621.114468922003
 30
0.0
 11
12239.99089774098
 21
5605.580488339481
 31
0.0
  0
LINE
  5
1659A
330
747D
100
AcDbEntity
  8
部品1
 48
50.0
100
AcDbLine
 10
11939.99089774099
 20
5621.114468922003
 30
0.0
 11
12239.99089774098
 21
5621.114468922003
 31
0.0
  0
DIMENSION
  5
1659B
330
747D
100
AcDbEntity
  8
寸法
 48
50.0
100
AcDbDimension
  2
*D27
 10
12644.99089774097
 20
5888.903783400028
 30
0.0
 11
12851.03814183546
 21
5888.903783400028
 31
0.0
 70
   160
 71
     5
 42
80.0
  3
INABA_S40G
100
AcDbAlignedDimension
 13
12564.99089774097
 23
5437.057009432377
 33
0.0
 14
12644.99089774097
 24
5435.246329820726
 34
0.0
100
AcDbRotatedDimension
1001
ACAD
1000
DSTYLE
1002
{
1070
   174
1070
     0
1070
   272
1070
     1
1070
   288
1070
     0
1070
   341
1005
0
1002
}
  0
ARC
  5
1659C
330
747D
100
AcDbEntity
  8
部品1
100
AcDbCircle
 10
12630.61843355491
 20
5328.680130704941
 30
0.0
 40
0.7
100
AcDbArc
 50
275.0921697642102
 51
354.1866997666698
  0
ARC
  5
1659D
330
747D
100
AcDbEntity
  8
部品1
100
AcDbCircle
 10
12641.47777930423
 20
5405.723385522865
 30
0.0
 40
0.7
100
AcDbArc
 50
275.0921697642102
 51
354.1866997665662
  0
ARC
  5
1659E
330
747D
100
AcDbEntity
  8
部品1
100
AcDbCircle
 10
12641.80618454684
 20
5402.037988665775
 30
0.0
 40
3.0
100
AcDbArc
 50
95.09216976441896
 51
174.1866997665661
  0
ARC
  5
1659F
330
747D
100
AcDbEntity
  8
部品1
100
AcDbCircle
 10
12630.94683879751
 20
5324.994733847851
 30
0.0
 40
3.0
100
AcDbArc
 50
95.0921697642102
 51
174.1866997665661
  0
ARC
  5
165A0
330
747D
100
AcDbEntity
  8
部品1
 48
50.0
100
AcDbCircle
 10
12619.91870352241
 20
5315.403989243971
 30
0.0
 40
7.0
100
AcDbArc
 50
267.8377559871574
 51
354.1866997665662
  0
ARC
  5
165A1
330
747D
100
AcDbEntity
  8
部品1
 48
50.0
100
AcDbCircle
 10
12637.24079998692
 20
5426.306536386142
 30
0.0
 40
7.0
100
AcDbArc
 50
354.1866997665662
 51
87.03587545303976
  0
LINE
  5
165A2
330
747D
100
AcDbEntity
  8
部品1
 48
50.0
100
AcDbLine
 10
12627.9622671269
 20
5325.298595564754
 30
0.0
 11
12626.88270408716
 21
5314.694978571196
 31
0.0
  0
LINE
  5
165A3
330
747D
100
AcDbEntity
  8
部品1
 48
50.0
100
AcDbLine
 10
12638.82161287623
 20
5402.341850382678
 30
0.0
 11
12631.31483361139
 21
5328.609229637667
 31
0.0
  0
LINE
  5
165A4
330
747D
100
AcDbEntity
  8
部品1
 48
50.0
100
AcDbLine
 10
12644.20480055168
 20
5425.597525713367
 30
0.0
 11
12642.17417936071
 21
5405.652484455588
 31
0.0
  0
ARC
  5
165A5
330
747D
100
AcDbEntity
  8
部品1
100
AcDbCircle
 10
11561.02798961234
 20
5369.060488779627
 30
0.0
 40
0.7
100
AcDbArc
 50
181.0932240292114
 51
260.1877540316965
  0
ARC
  5
165A6
330
747D
100
AcDbEntity
  8
部品1
100
AcDbCircle
 10
11556.25531601473
 20
5461.926266979748
 30
0.0
 40
0.7
100
AcDbArc
 50
181.0932240292114
 51
260.1877540316965
  0
ARC
  5
165A7
330
747D
100
AcDbEntity
  8
部品1
100
AcDbCircle
 10
11555.62476161171
 20
5458.28039244235
 30
0.0
 40
3.0
100
AcDbArc
 50
1.093224029315636
 51
80.18775403169653
  0
ARC
  5
165A8
330
747D
100
AcDbEntity
  8
部品1
100
AcDbCircle
 10
11560.39743520932
 20
5365.41461424223
 30
0.0
 40
3.0
100
AcDbArc
 50
1.093224029315636
 51
80.18775403148671
  0
ARC
  5
165A9
330
747D
100
AcDbEntity
  8
部品1
 48
50.0
100
AcDbCircle
 10
11570.59756758452
 20
5355.022370859749
 30
0.0
 40
7.0
100
AcDbArc
 50
181.0932240293156
 51
267.8377559871574
  0
ARC
  5
165AA
330
747D
100
AcDbEntity
  8
部品1
 48
50.0
100
AcDbCircle
 10
11562.17390948242
 20
5481.973430392844
 30
0.0
 40
7.0
100
AcDbArc
 50
87.03587545303976
 51
181.0932240293156
  0
LINE
  5
165AB
330
747D
100
AcDbEntity
  8
部品1
 48
50.0
100
AcDbLine
 10
11563.39688913575
 20
5365.471851845414
 30
0.0
 11
11563.59884175618
 21
5354.888816452321
 31
0.0
  0
LINE
  5
165AC
330
747D
100
AcDbEntity
  8
細線
 48
50.0
100
AcDbLine
 10
11560.79079607908
 20
5368.401899964223
 30
0.0
 11
12630.79446050971
 21
5328.002624608155
 31
0.0
  0
LINE
  5
165AD
330
747D
100
AcDbEntity
  8
細線
 48
50.0
100
AcDbLine
 10
11556.03032084179
 20
5461.263411662084
 30
0.0
 11
12641.66630558696
 21
5405.049250639682
 31
0.0
  0
LINE
  5
165AE
330
747D
100
AcDbEntity
  8
部品1
 48
50.0
100
AcDbLine
 10
11558.62421553814
 20
5458.337630045533
 30
0.0
 11
11560.32811702951
 21
5369.047133338887
 31
0.0
  0
LINE
  5
165AF
330
747D
100
AcDbEntity
  8
部品1
 48
50.0
100
AcDbLine
 10
11555.17518365409
 20
5481.839875985418
 30
0.0
 11
11555.5554434319
 21
5461.912911539005
 31
0.0
  0
LINE
  5
165B0
330
747D
100
AcDbEntity
  8
細線
 48
50.0
100
AcDbLine
 10
12611.99089774098
 20
5434.623352474446
 30
0.0
 11
12607.24321485298
 21
5308.8775799837
 31
0.0
  0
LINE
  5
165B1
330
747D
100
AcDbEntity
  8
細線
 48
50.0
100
AcDbLine
 10
11587.99089774098
 20
5487.646006196128
 30
0.0
 11
11582.70179618547
 21
5347.560373568775
 31
0.0
  0
LINE
  5
165B2
330
747D
100
AcDbEntity
  8
部品1
100
AcDbLine
 10
11570.33346234293
 20
5348.027354889691
 30
0.0
 11
12619.65459828082
 21
5308.40897327391
 31
0.0
  0
LINE
  5
165B3
330
747D
100
AcDbEntity
  8
部品1
100
AcDbLine
 10
11562.53588409794
 20
5488.964065154991
 30
0.0
 11
12637.60277460244
 21
5433.297171148288
 31
0.0
  0
LINE
  5
165B4
330
747D
100
AcDbEntity
  8
細線
 48
50.0
100
AcDbLine
 10
11747.49089774098
 20
5255.246329820725
 30
0.0
 11
11747.49089774098
 21
3465.246329820725
 31
0.0
  0
LINE
  5
165B5
330
747D
100
AcDbEntity
  8
細線
 48
50.0
100
AcDbLine
 10
11732.49089774098
 20
5255.246329820725
 30
0.0
 11
11732.49089774098
 21
3465.246329820725
 31
0.0
  0
LINE
  5
165B6
330
747D
100
AcDbEntity
  8
細線
 48
50.0
100
AcDbLine
 10
11872.49089774098
 20
5255.246329820725
 30
0.0
 11
11872.49089774098
 21
3465.246329820725
 31
0.0
  0
LINE
  5
165B7
330
747D
100
AcDbEntity
  8
細線
 48
50.0
100
AcDbLine
 10
11887.49089774098
 20
5255.246329820725
 30
0.0
 11
11887.49089774098
 21
3465.246329820725
 31
0.0
  0
LINE
  5
165B8
330
747D
100
AcDbEntity
  8
細線
 48
50.0
100
AcDbLine
 10
12027.49089774098
 20
5255.246329820725
 30
0.0
 11
12027.49089774098
 21
3465.246329820725
 31
0.0
  0
LINE
  5
165B9
330
747D
100
AcDbEntity
  8
細線
 48
50.0
100
AcDbLine
 10
12012.49089774098
 20
5255.246329820725
 30
0.0
 11
12012.49089774098
 21
3465.246329820725
 31
0.0
  0
LINE
  5
165BA
330
747D
100
AcDbEntity
  8
細線
 48
50.0
100
AcDbLine
 10
12432.49089774098
 20
5255.246329820725
 30
0.0
 11
12432.49089774098
 21
3465.246329820725
 31
0.0
  0
LINE
  5
165BB
330
747D
100
AcDbEntity
  8
細線
 48
50.0
100
AcDbLine
 10
12447.49089774098
 20
5255.246329820725
 30
0.0
 11
12447.49089774098
 21
3465.246329820725
 31
0.0
  0
LINE
  5
165BC
330
747D
100
AcDbEntity
  8
細線
 48
50.0
100
AcDbLine
 10
12307.49089774098
 20
5255.246329820725
 30
0.0
 11
12307.49089774098
 21
3465.246329820725
 31
0.0
  0
LINE
  5
165BD
330
747D
100
AcDbEntity
  8
細線
 48
50.0
100
AcDbLine
 10
12292.49089774098
 20
5255.246329820725
 30
0.0
 11
12292.49089774098
 21
3465.246329820725
 31
0.0
  0
LINE
  5
165BE
330
747D
100
AcDbEntity
  8
細線
 48
50.0
100
AcDbLine
 10
12152.49089774098
 20
5255.246329820725
 30
0.0
 11
12152.49089774098
 21
3465.246329820725
 31
0.0
  0
LINE
  5
165BF
330
747D
100
AcDbEntity
  8
細線
 48
50.0
100
AcDbLine
 10
12167.49089774098
 20
5255.246329820725
 30
0.0
 11
12167.49089774098
 21
3465.246329820725
 31
0.0
  0
LINE
  5
165C0
330
747D
100
AcDbEntity
  8
部品1
100
AcDbLine
 10
11614.99089774098
 20
3415.246329820725
 30
0.0
 11
12564.99089774097
 21
3415.246329820725
 31
0.0
  0
DIMENSION
  5
165C1
330
747D
100
AcDbEntity
  8
寸法
 48
50.0
100
AcDbDimension
  2
*D28
 10
11554.99089774098
 20
6098.497657821479
 30
0.0
 11
12078.1096124214
 21
6098.497657821479
 31
0.0
 70
   160
 71
     5
 42
1089.999999999996
  3
INABA_S40G
100
AcDbAlignedDimension
 13
12644.99089774097
 23
5435.246329820726
 33
0.0
 14
11554.99089774098
 24
5490.246329820729
 34
0.0
100
AcDbRotatedDimension
1001
ACAD
1000
DSTYLE
1002
{
1070
   174
1070
     0
1070
   272
1070
     1
1070
   288
1070
     0
1070
   341
1005
0
1002
}
  0
DIMENSION
  5
165C2
330
747D
100
AcDbEntity
  8
寸法
 48
50.0
100
AcDbDimension
  2
*D29
 10
11554.99089774098
 20
5888.903783400028
 30
0.0
 11
11245.35310246539
 21
5888.903783400028
 31
0.0
 70
   160
 71
     5
 42
60.0
  3
INABA_S40G
100
AcDbAlignedDimension
 13
11614.99089774098
 23
5486.2479479437
 33
0.0
 14
11554.99089774098
 24
5490.246329820729
 34
0.0
100
AcDbRotatedDimension
1001
ACAD
1000
DSTYLE
1002
{
1070
   174
1070
     0
1070
   272
1070
     1
1070
   288
1070
     0
1070
   341
1005
0
1002
}
  0
DIMENSION
  5
165C3
330
747D
100
AcDbEntity
  8
寸法
 48
50.0
100
AcDbDimension
  2
*D30
 10
11614.99089774098
 20
5888.903783400028
 30
0.0
 11
12089.99089774098
 21
5888.903783400028
 31
0.0
 70
   160
  1
柱外寸法<>
 71
     5
 42
949.9999999999964
  3
INABA_S40G
100
AcDbAlignedDimension
 13
12564.99089774097
 23
5437.057009432377
 33
0.0
 14
11614.99089774098
 24
5486.2479479437
 34
0.0
100
AcDbRotatedDimension
1001
ACAD
1000
DSTYLE
1002
{
1070
   174
1070
     0
1070
   272
1070
     1
1070
   288
1070
     0
1070
   341
1005
0
1002
}
  0
DIMENSION
  5
165C4
330
747D
100
AcDbEntity
  8
寸法
100
AcDbDimension
  2
*D31
 10
13269.9180557131
 20
5435.246329820726
 30
0.0
 11
13169.90624468948
 21
4425.246329820729
 31
0.0
 70
    32
 71
     5
 42
2019.999999999999
  3
INABA_S40G
100
AcDbAlignedDimension
 13
12564.99089774098
 23
3415.246329820727
 33
0.0
 14
12644.99089774097
 24
5435.246329820726
 34
0.0
 50
90.0
100
AcDbRotatedDimension
1001
ACAD
1000
DSTYLE
1002
{
1070
   174
1070
     0
1070
   272
1070
     1
1070
   288
1070
     0
1070
   341
1005
0
1002
}
  0
LINE
  5
165C5
330
747D
100
AcDbEntity
  8
部品1
100
AcDbLine
 10
12509.99089774098
 20
5255.246329820725
 30
0.0
 11
12509.99089774098
 21
3465.246329820725
 31
0.0
  0
LINE
  5
165C6
330
747D
100
AcDbEntity
  8
部品1
100
AcDbLine
 10
12564.99089774097
 20
5310.472867037551
 30
0.0
 11
12564.99089774098
 21
3315.246329820725
 31
0.0
  0
LINE
  5
165C7
330
747D
100
AcDbEntity
  8
部品1
100
AcDbLine
 10
12089.99089774098
 20
5255.246329820725
 30
0.0
 11
12089.99089774098
 21
3465.246329820725
 31
0.0
  0
LINE
  5
165C8
330
747D
100
AcDbEntity
  8
部品1
100
AcDbLine
 10
11614.99089774098
 20
5346.341259702064
 30
0.0
 11
11614.99089774098
 21
3315.246329820725
 31
0.0
  0
LINE
  5
165C9
330
747D
100
AcDbEntity
  8
部品1
100
AcDbLine
 10
11669.99089774098
 20
5255.246329820725
 30
0.0
 11
11669.99089774098
 21
3465.246329820725
 31
0.0
  0
LINE
  5
165CA
330
747D
100
AcDbEntity
  8
部品1
100
AcDbLine
 10
11614.99089774098
 20
3465.246329820725
 30
0.0
 11
12564.99089774098
 21
3465.246329820725
 31
0.0
  0
LINE
  5
165CB
330
747D
100
AcDbEntity
  8
部品1
100
AcDbLine
 10
11607.9885276962
 20
5255.246329820725
 30
0.0
 11
12564.99089774098
 21
5255.246329820725
 31
0.0
  0
DIMENSION
  5
165CC
330
747D
100
AcDbEntity
  8
寸法
100
AcDbDimension
  2
*D32
 10
11013.02780704877
 20
3465.246329820729
 30
0.0
 11
11013.02780704877
 21
4370.28134169711
 31
0.0
 70
   160
 71
     5
 42
1789.999999999995
  3
INABA_S40G
100
AcDbAlignedDimension
 13
11607.9885276962
 23
5255.246329820725
 33
0.0
 14
11607.9885276962
 24
3465.246329820729
 34
0.0
 50
90.0
100
AcDbRotatedDimension
1001
ACAD
1000
DSTYLE
1002
{
1070
   288
1070
     1
1002
}
  0
DIMENSION
  5
165CD
330
747D
100
AcDbEntity
  8
寸法
100
AcDbDimension
  2
*D33
 10
11013.02780704877
 20
3415.246329820727
 30
0.0
 11
11013.02780704877
 21
3109.199085726237
 31
0.0
 70
   160
 71
     5
 42
50.00000000000182
  3
INABA_S40G
100
AcDbAlignedDimension
 13
11607.9885276962
 23
3465.246329820729
 33
0.0
 14
11559.99089774098
 24
3415.246329820727
 34
0.0
 50
90.0
100
AcDbRotatedDimension
1001
ACAD
1000
DSTYLE
1002
{
1070
   174
1070
     0
1070
   272
1070
     1
1070
   288
1070
     0
1070
   341
1005
0
1002
}
  0
DIMENSION
  5
165CE
330
747D
100
AcDbEntity
  8
寸法
100
AcDbDimension
  2
*D34
 10
10710.7190861005
 20
5490.246329820728
 30
0.0
 11
10710.7190861005
 21
4390.453320240525
 31
0.0
 70
   160
 71
     5
 42
2075.000000000001
  3
INABA_S40G
100
AcDbAlignedDimension
 13
11614.99089774098
 23
3415.246329820727
 33
0.0
 14
11554.99089774098
 24
5490.246329820728
 34
0.0
 50
90.0
100
AcDbRotatedDimension
1001
ACAD
1000
DSTYLE
1002
{
1070
   174
1070
     0
1070
   272
1070
     1
1070
   288
1070
     0
1070
   341
1005
0
1002
}
  0
DIMENSION
  5
165CF
330
747D
100
AcDbEntity
  8
寸法
 48
50.0
100
AcDbDimension
  2
*D35
 10
10962.72464602961
 20
5512.068820717538
 30
0.0
 11
10971.40238968149
 21
5741.905059734431
 31
0.0
 70
   160
 71
     5
 42
141.0000000000009
  3
INABA_S40G
100
AcDbAlignedDimension
 13
11570.33346234293
 23
5348.02735488969
 33
0.0
 14
11575.65329649489
 24
5488.926962286573
 34
0.0
 50
87.83775598715743
100
AcDbRotatedDimension
1001
ACAD
1000
DSTYLE
1002
{
1070
   174
1070
     0
1070
   272
1070
     1
1070
   288
1070
     0
1070
   341
1005
0
1002
}
  0
LINE
  5
165D0
330
747D
100
AcDbEntity
  8
部品1
 48
50.0
100
AcDbLine
 10
11607.9885276962
 20
5244.496329820722
 30
0.0
 11
11614.99089774098
 21
5244.496329820722
 31
0.0
  0
LINE
  5
165D1
330
747D
100
AcDbEntity
  8
部品1
 48
0.2
100
AcDbLine
 10
11607.9885276962
 20
5255.246329820722
 30
0.0
 11
11607.9885276962
 21
5244.496329820724
 31
0.0
  0
LINE
  5
165D2
330
747D
100
AcDbEntity
  8
部品1
 48
50.0
100
AcDbLine
 10
11607.9885276962
 20
3465.246329820727
 30
0.0
 11
11614.99089774098
 21
3465.246329820727
 31
0.0
  0
LINE
  5
165D3
330
747D
100
AcDbEntity
  8
部品1
 48
0.2
100
AcDbLine
 10
11607.9885276962
 20
3475.996329820726
 30
0.0
 11
11607.9885276962
 21
3465.246329820727
 31
0.0
  0
LINE
  5
165D4
330
747D
100
AcDbEntity
  8
部品1
 48
50.0
100
AcDbLine
 10
11607.9885276962
 20
3475.996329820726
 30
0.0
 11
11614.99089774098
 21
3475.996329820726
 31
0.0
  0
TEXT
  5
165D5
330
747D
100
AcDbEntity
  8
文字
 62
     7
 48
50.0
100
AcDbText
 10
15022.63965474514
 20
9400.013745883725
 30
0.0
 40
100.0
  1
F12            0.6
  7
STYLE1
100
AcDbText
  0
TEXT
  5
165D6
330
747D
100
AcDbEntity
  8
文字
 62
     7
 48
50.0
100
AcDbText
 10
13583.11819016567
 20
9400.013745883729
 30
0.0
 40
100.0
  1
脇パネル
  7
STYLE1
100
AcDbText
  0
DIMENSION
  5
16DAD
330
747D
100
AcDbEntity
  8
寸法
100
AcDbDimension
  2
*D40
 10
8641.500026317135
 20
8453.487857792286
 30
0.0
 11
8292.848174492778
 21
8558.573133568813
 31
0.0
 70
   160
 71
     5
 42
892.000000000011
  3
INABA_S40G
100
AcDbAlignedDimension
 13
7808.193522611102
 23
8672.534968035268
 33
0.0
 14
8700.193522611114
 24
8672.534968035265
 34
0.0
100
AcDbRotatedDimension
1001
ACAD
1000
DSTYLE
1002
{
1070
   279
1070
     2
1002
}
  0
DIMENSION
  5
16DAE
330
747D
100
AcDbEntity
  8
寸法
100
AcDbDimension
  2
*D39
 10
7691.500026317135
 20
8453.487857792286
 30
0.0
 11
7342.848174492778
 21
8558.573133568813
 31
0.0
 70
   160
 71
     5
 42
892.000000000011
  3
INABA_S40G
100
AcDbAlignedDimension
 13
6858.193522611101
 23
8672.534968035268
 33
0.0
 14
7750.193522611112
 24
8672.534968035265
 34
0.0
100
AcDbRotatedDimension
1001
ACAD
1000
DSTYLE
1002
{
1070
   279
1070
     2
1002
}
  0
DIMENSION
  5
16DAF
330
747D
100
AcDbEntity
  8
寸法
100
AcDbDimension
  2
*D38
 10
6741.500026317135
 20
8453.487857792286
 30
0.0
 11
6399.319337387023
 21
8556.771973185282
 31
0.0
 70
   160
 71
     5
 42
892.000000000011
  3
INABA_S40G
100
AcDbAlignedDimension
 13
5908.193522611102
 23
8672.534968035268
 33
0.0
 14
6800.193522611113
 24
8672.534968035265
 34
0.0
100
AcDbRotatedDimension
1001
ACAD
1000
DSTYLE
1002
{
1070
   279
1070
     2
1002
}
  0
DIMENSION
  5
16DB0
330
747D
100
AcDbEntity
  8
寸法
100
AcDbDimension
  2
*D37
 10
5791.500026317135
 20
8453.487857792286
 30
0.0
 11
5449.319337387024
 21
8556.771973185282
 31
0.0
 70
   160
 71
     5
 42
892.000000000011
  3
INABA_S40G
100
AcDbAlignedDimension
 13
4958.193522611102
 23
8672.534968035268
 33
0.0
 14
5850.193522611113
 24
8672.534968035265
 34
0.0
100
AcDbRotatedDimension
1001
ACAD
1000
DSTYLE
1002
{
1070
   279
1070
     2
1002
}
  0
DIMENSION
  5
16DB1
330
747D
100
AcDbEntity
  8
寸法
100
AcDbDimension
  2
*D36
 10
4841.500026317135
 20
8453.487857792286
 30
0.0
 11
4499.319337387023
 21
8556.771973185282
 31
0.0
 70
   160
 71
     5
 42
892.000000000011
  3
INABA_S40G
100
AcDbAlignedDimension
 13
4008.193522611102
 23
8672.534968035268
 33
0.0
 14
4900.193522611113
 24
8672.534968035265
 34
0.0
100
AcDbRotatedDimension
1001
ACAD
1000
DSTYLE
1002
{
1070
   279
1070
     2
1002
}
  0
MTEXT
  5
16DB2
330
747D
100
AcDbEntity
  8
寸法
 62
     7
 48
50.0
100
AcDbMText
 10
4468.741718776729
 20
8742.148715572568
 30
0.0
 40
96.0
 41
0.0
 71
     5
 72
     1
  1
棚 2段
  7
STYLE1
 73
     1
 44
1.0
1001
ACAD
1000
MTEXTBEGIN
1070
    73
1070
     1
1070
    44
1040
1.0
1070
    74
1070
     0
1000
MTEXTEND
  0
MTEXT
  5
16DB3
330
747D
100
AcDbEntity
  8
寸法
 62
     7
 48
50.0
100
AcDbMText
 10
5418.741718776729
 20
8742.148715572568
 30
0.0
 40
96.0
 41
0.0
 71
     5
 72
     1
  1
棚 2段
  7
STYLE1
 73
     1
 44
1.0
1001
ACAD
1000
MTEXTBEGIN
1070
    73
1070
     1
1070
    44
1040
1.0
1070
    74
1070
     0
1000
MTEXTEND
  0
MTEXT
  5
16DB4
330
747D
100
AcDbEntity
  8
寸法
 62
     7
 48
50.0
100
AcDbMText
 10
6368.741718776729
 20
8742.148715572568
 30
0.0
 40
96.0
 41
0.0
 71
     5
 72
     1
  1
棚 2段
  7
STYLE1
 73
     1
 44
1.0
1001
ACAD
1000
MTEXTBEGIN
1070
    73
1070
     1
1070
    44
1040
1.0
1070
    74
1070
     0
1000
MTEXTEND
  0
MTEXT
  5
16DB5
330
747D
100
AcDbEntity
  8
寸法
 62
     7
 48
50.0
100
AcDbMText
 10
7319.473320221738
 20
8742.148715572556
 30
0.0
 40
96.0
 41
0.0
 71
     5
 72
     1
  1
棚 2段
  7
STYLE1
 73
     1
 44
1.0
1001
ACAD
1000
MTEXTBEGIN
1070
    73
1070
     1
1070
    44
1040
1.0
1070
    74
1070
     0
1000
MTEXTEND
  0
MTEXT
  5
16DB6
330
747D
100
AcDbEntity
  8
寸法
 62
     7
 48
50.0
100
AcDbMText
 10
8269.473320221738
 20
8742.148715572556
 30
0.0
 40
96.0
 41
0.0
 71
     5
 72
     1
  1
棚 2段
  7
STYLE1
 73
     1
 44
1.0
1001
ACAD
1000
MTEXTBEGIN
1070
    73
1070
     1
1070
    44
1040
1.0
1070
    74
1070
     0
1000
MTEXTEND
  0
MTEXT
  5
16E21
330
747D
100
AcDbEntity
  8
寸法
 62
     7
 48
50.0
100
AcDbMText
 10
9219.473320221737
 20
8742.148715572556
 30
0.0
 40
96.0
 41
0.0
 71
     5
 72
     1
  1
棚 2段
  7
STYLE1
 73
     1
 44
1.0
1001
ACAD
1000
MTEXTBEGIN
1070
    73
1070
     1
1070
    44
1040
1.0
1070
    74
1070
     0
1000
MTEXTEND
  0
DIMENSION
  5
16E22
330
747D
100
AcDbEntity
  8
寸法
100
AcDbDimension
  2
*D41
 10
9591.500026317135
 20
8453.487857792286
 30
0.0
 11
9242.848174492777
 21
8558.573133568813
 31
0.0
 70
   160
 71
     5
 42
892.000000000011
  3
INABA_S40G
100
AcDbAlignedDimension
 13
8758.193522611101
 23
8672.534968035268
 33
0.0
 14
9650.193522611113
 24
8672.534968035265
 34
0.0
100
AcDbRotatedDimension
1001
ACAD
1000
DSTYLE
1002
{
1070
   279
1070
     2
1002
}
  0
DIMENSION
  5
16E38
330
747D
100
AcDbEntity
  8
寸法
 48
50.0
100
AcDbDimension
  2
*D44
 10
3979.193515933497
 20
5702.787915078969
 30
0.0
 11
6829.1935159335
 21
5702.787915078969
 31
0.0
 70
   160
  1
柱外寸法<>
 71
     5
 42
5700.000000000003
  3
INABA_S40G
100
AcDbAlignedDimension
 13
9679.193515933501
 23
5490.246329820728
 33
0.0
 14
3979.193515933497
 24
5490.246329820733
 34
0.0
100
AcDbRotatedDimension
  0
DIMENSION
  5
16E39
330
747D
100
AcDbEntity
  8
寸法
 48
50.0
100
AcDbDimension
  2
*D43
 10
9729.193515933502
 20
5925.744893516817
 30
0.0
 11
6829.193515933488
 21
5925.744893516817
 31
0.0
 70
   160
 71
     5
 42
5800.000000000004
  3
INABA_S40G
100
AcDbAlignedDimension
 13
3929.193515933497
 23
5490.246329820731
 33
0.0
 14
9729.193515933502
 24
5490.246329820726
 34
0.0
100
AcDbRotatedDimension
  0
DIMENSION
  5
16E3A
330
747D
100
AcDbEntity
  8
寸法
 48
50.0
100
AcDbDimension
  2
*D42
 10
3929.193515933497
 20
5702.787915078971
 30
0.0
 11
3615.70823455925
 21
5702.787915078971
 31
0.0
 70
   160
 71
     5
 42
50.0
  3
INABA_S40G
100
AcDbAlignedDimension
 13
3979.193515933497
 23
5490.246329820733
 33
0.0
 14
3929.193515933497
 24
5490.246329820731
 34
0.0
100
AcDbRotatedDimension
1001
ACAD
1000
DSTYLE
1002
{
1002
}
  0
LINE
  5
16E3B
330
747D
100
AcDbEntity
  8
細線
 48
50.0
100
AcDbLine
 10
3962.193515933498
 20
5490.246329820729
 30
0.0
 11
3962.193515933498
 21
5349.246329820728
 31
0.0
  0
ARC
  5
16E3C
330
747D
100
AcDbEntity
  8
部品1
100
AcDbCircle
 10
3936.601937039927
 20
5483.24632982073
 30
0.0
 40
7.0
100
AcDbArc
 50
90.0
 51
183.2473427903377
  0
ARC
  5
16E3D
330
747D
100
AcDbEntity
  8
部品1
100
AcDbCircle
 10
3949.817260500961
 20
5356.246329820731
 30
0.0
 40
7.0
100
AcDbArc
 50
183.2473427903377
 51
270.0
  0
ARC
  5
16E3E
330
747D
100
AcDbEntity
  8
部品1
 48
50.0
100
AcDbCircle
 10
3931.445450290285
 20
5462.913328982416
 30
0.0
 40
0.7
100
AcDbArc
 50
183.2473427903897
 51
262.3418727926365
  0
ARC
  5
16E3F
330
747D
100
AcDbEntity
  8
部品1
 48
50.0
100
AcDbCircle
 10
3939.681480815125
 20
5370.713328982413
 30
0.0
 40
0.7
100
AcDbArc
 50
183.2473427902987
 51
262.3418727926365
  0
ARC
  5
16E40
330
747D
100
AcDbEntity
  8
部品1
 48
50.0
100
AcDbCircle
 10
3939.188411706563
 20
5367.046329820729
 30
0.0
 40
3.0
100
AcDbArc
 50
3.247342790337682
 51
82.34187279263654
  0
ARC
  5
16E41
330
747D
100
AcDbEntity
  8
部品1
 48
50.0
100
AcDbCircle
 10
3930.95238118172
 20
5459.246329820731
 30
0.0
 40
3.0
100
AcDbArc
 50
3.247342790337682
 51
82.34187279263654
  0
LINE
  5
16E42
330
747D
100
AcDbEntity
  8
部品1
100
AcDbLine
 10
3933.947564077906
 20
5459.416269275833
 30
0.0
 11
3938.982604806017
 21
5370.67367644289
 31
0.0
  0
LINE
  5
16E43
330
747D
100
AcDbEntity
  8
部品1
100
AcDbLine
 10
3942.183594602754
 20
5367.216269275832
 30
0.0
 11
3942.828500409862
 21
5355.84980442549
 31
0.0
  0
LINE
  5
16E44
330
747D
100
AcDbEntity
  8
部品1
100
AcDbLine
 10
3929.613176948828
 20
5482.84980442549
 30
0.0
 11
3930.746574281176
 21
5462.873676442891
 31
0.0
  0
LINE
  5
16E45
330
747D
100
AcDbEntity
  8
部品1
 48
50.0
100
AcDbLine
 10
9721.785094827069
 20
5490.246329820727
 30
0.0
 11
3936.601937039927
 21
5490.246329820726
 31
0.0
  0
LINE
  5
16E46
330
747D
100
AcDbEntity
  8
細線
 48
50.0
100
AcDbLine
 10
9727.034864917987
 20
5462.219572384037
 30
0.0
 11
3931.352166943911
 21
5462.219572384725
 31
0.0
  0
LINE
  5
16E47
330
747D
100
AcDbEntity
  8
細線
 48
50.0
100
AcDbLine
 10
9718.798834393183
 20
5370.01957238404
 30
0.0
 11
3939.588197468744
 21
5370.019572384724
 31
0.0
  0
LINE
  5
16E48
330
747D
100
AcDbEntity
  8
部品1
 48
50.0
100
AcDbLine
 10
9708.569771366034
 20
5349.246329820723
 30
0.0
 11
3949.817260500961
 21
5349.246329820728
 31
0.0
  0
DIMENSION
  5
16E8C
330
747D
100
AcDbEntity
  8
寸法
 48
50.0
100
AcDbDimension
  2
*D45
 10
9679.193515933501
 20
5702.787915078967
 30
0.0
 11
10042.67879730774
 21
5702.787915078967
 31
0.0
 70
   160
 71
     5
 42
50.0
  3
INABA_S40G
100
AcDbAlignedDimension
 13
9729.193515933502
 23
5490.246329820726
 33
0.0
 14
9679.193515933501
 24
5490.246329820728
 34
0.0
100
AcDbRotatedDimension
  0
LINE
  5
16E8D
330
747D
100
AcDbEntity
  8
部品1
100
AcDbLine
 10
9728.773854918166
 20
5482.849804425486
 30
0.0
 11
9727.640457585822
 21
5462.873676442887
 31
0.0
  0
LINE
  5
16E8E
330
747D
100
AcDbEntity
  8
細線
 48
50.0
100
AcDbLine
 10
9696.193515933501
 20
5490.246329820726
 30
0.0
 11
9696.193515933501
 21
5349.246329820726
 31
0.0
  0
LINE
  5
16E8F
330
747D
100
AcDbEntity
  8
部品1
100
AcDbLine
 10
9716.203437264246
 20
5367.216269275829
 30
0.0
 11
9715.558531457133
 21
5355.849804425488
 31
0.0
  0
LINE
  5
16E90
330
747D
100
AcDbEntity
  8
部品1
100
AcDbLine
 10
9724.439467789089
 20
5459.416269275829
 30
0.0
 11
9719.404427060979
 21
5370.673676442886
 31
0.0
  0
ARC
  5
16E91
330
747D
100
AcDbEntity
  8
部品1
 48
50.0
100
AcDbCircle
 10
9727.434650685275
 20
5459.246329820728
 30
0.0
 40
3.0
100
AcDbArc
 50
97.65812720736347
 51
176.7526572096623
  0
ARC
  5
16E92
330
747D
100
AcDbEntity
  8
部品1
 48
50.0
100
AcDbCircle
 10
9719.198620160431
 20
5367.046329820725
 30
0.0
 40
3.0
100
AcDbArc
 50
97.65812720736347
 51
176.7526572096623
  0
ARC
  5
16E93
330
747D
100
AcDbEntity
  8
部品1
 48
50.0
100
AcDbCircle
 10
9718.705551051868
 20
5370.713328982408
 30
0.0
 40
0.7
100
AcDbArc
 50
277.6581272073635
 51
356.7526572097013
  0
ARC
  5
16E94
330
747D
100
AcDbEntity
  8
部品1
 48
50.0
100
AcDbCircle
 10
9726.941581576713
 20
5462.913328982413
 30
0.0
 40
0.7
100
AcDbArc
 50
277.6581272073635
 51
356.7526572096103
  0
ARC
  5
16E95
330
747D
100
AcDbEntity
  8
部品1
100
AcDbCircle
 10
9708.569771366034
 20
5356.246329820727
 30
0.0
 40
7.0
100
AcDbArc
 50
270.0
 51
356.7526572096623
  0
ARC
  5
16E96
330
747D
100
AcDbEntity
  8
部品1
100
AcDbCircle
 10
9721.785094827069
 20
5483.246329820726
 30
0.0
 40
7.0
100
AcDbArc
 50
356.7526572096623
 51
90.0
  0
ARC
  5
16F2C
330
747D
100
AcDbEntity
  8
部品1
 48
0.01
100
AcDbCircle
 10
9292.193515933494
 20
5287.746329820723
 30
0.0
 40
2.0
100
AcDbArc
 50
270.0
 51
0.0
  0
ARC
  5
16F2D
330
747D
100
AcDbEntity
  8
部品1
 48
0.01
100
AcDbCircle
 10
9292.193515933497
 20
5319.246329820722
 30
0.0
 40
2.0
100
AcDbArc
 50
0.0
 51
90.0
  0
ARC
  5
16F2E
330
747D
100
AcDbEntity
  8
部品1
 48
0.01
100
AcDbCircle
 10
9116.193515933497
 20
5287.746329820723
 30
0.0
 40
2.0
100
AcDbArc
 50
180.0
 51
270.0
  0
ARC
  5
16F2F
330
747D
100
AcDbEntity
  8
部品1
 48
0.01
100
AcDbCircle
 10
9116.193515933497
 20
5319.246329820722
 30
0.0
 40
2.0
100
AcDbArc
 50
90.0
 51
180.0
  0
LINE
  5
16F30
330
747D
100
AcDbEntity
  8
細線
100
AcDbLine
 10
9204.193515933495
 20
5291.746329820722
 30
0.0
 11
9278.193515933498
 21
5291.746329820722
 31
0.0
  0
LINE
  5
16F31
330
747D
100
AcDbEntity
  8
細線
100
AcDbLine
 10
9204.193515933496
 20
5314.746329820722
 30
0.0
 11
9130.193515933497
 21
5314.746329820722
 31
0.0
  0
LINE
  5
16F32
330
747D
100
AcDbEntity
  8
細線
100
AcDbLine
 10
9130.193515933497
 20
5291.746329820722
 30
0.0
 11
9204.193515933496
 21
5291.746329820722
 31
0.0
  0
LINE
  5
16F33
330
747D
100
AcDbEntity
  8
細線
100
AcDbLine
 10
9278.193515933498
 20
5314.746329820722
 30
0.0
 11
9204.193515933496
 21
5314.746329820722
 31
0.0
  0
LINE
  5
16F34
330
747D
100
AcDbEntity
  8
細線
100
AcDbLine
 10
9278.193515933498
 20
5291.746329820722
 30
0.0
 11
9278.193515933498
 21
5314.746329820722
 31
0.0
  0
LINE
  5
16F35
330
747D
100
AcDbEntity
  8
細線
100
AcDbLine
 10
9130.193515933497
 20
5314.746329820722
 30
0.0
 11
9130.193515933497
 21
5291.746329820722
 31
0.0
  0
LINE
  5
16F36
330
747D
100
AcDbEntity
  8
部品1
 48
0.01
100
AcDbLine
 10
9294.193515933493
 20
5287.746329820723
 30
0.0
 11
9294.193515933498
 21
5319.246329820722
 31
0.0
  0
LINE
  5
16F37
330
747D
100
AcDbEntity
  8
部品1
 48
0.01
100
AcDbLine
 10
9116.193515933497
 20
5285.746329820722
 30
0.0
 11
9292.193515933494
 21
5285.746329820722
 31
0.0
  0
LINE
  5
16F38
330
747D
100
AcDbEntity
  8
部品1
 48
0.01
100
AcDbLine
 10
9114.193515933498
 20
5319.246329820722
 30
0.0
 11
9114.193515933498
 21
5287.746329820723
 31
0.0
  0
LINE
  5
16F39
330
747D
100
AcDbEntity
  8
部品1
 48
0.01
100
AcDbLine
 10
9292.193515933497
 20
5321.246329820723
 30
0.0
 11
9116.193515933497
 21
5321.246329820723
 31
0.0
  0
LINE
  5
16F3A
330
747D
100
AcDbEntity
  8
細線
100
AcDbLine
 10
9130.193515933497
 20
5308.746329820722
 30
0.0
 11
9204.193515933496
 21
5308.746329820722
 31
0.0
  0
LINE
  5
16F3B
330
747D
100
AcDbEntity
  8
細線
100
AcDbLine
 10
9130.193515933497
 20
5302.746329820722
 30
0.0
 11
9204.193515933496
 21
5302.746329820722
 31
0.0
  0
LINE
  5
16F3C
330
747D
100
AcDbEntity
  8
細線
100
AcDbLine
 10
9130.193515933493
 20
5296.746329820722
 30
0.0
 11
9204.193515933496
 21
5296.746329820722
 31
0.0
  0
LINE
  5
16F3D
330
747D
100
AcDbEntity
  8
細線
100
AcDbLine
 10
9130.193515933497
 20
5308.746329820722
 30
0.0
 11
9199.193515933497
 21
5308.746329820722
 31
0.0
  0
LINE
  5
16F3E
330
747D
100
AcDbEntity
  8
細線
100
AcDbLine
 10
9278.193515933493
 20
5308.746329820722
 30
0.0
 11
9204.193515933496
 21
5308.746329820722
 31
0.0
  0
LINE
  5
16F3F
330
747D
100
AcDbEntity
  8
細線
100
AcDbLine
 10
9278.193515933493
 20
5296.746329820722
 30
0.0
 11
9204.193515933496
 21
5296.746329820722
 31
0.0
  0
LINE
  5
16F40
330
747D
100
AcDbEntity
  8
細線
100
AcDbLine
 10
9278.193515933493
 20
5302.746329820722
 30
0.0
 11
9204.193515933496
 21
5302.746329820722
 31
0.0
  0
LINE
  5
16F41
330
747D
100
AcDbEntity
  8
細線
100
AcDbLine
 10
9204.193515933496
 20
5314.746329820722
 30
0.0
 11
9204.193515933495
 21
5291.746329820722
 31
0.0
  0
LINE
  5
17111
330
747D
100
AcDbEntity
  8
仕様書枠
 48
50.0
100
AcDbLine
 10
16307.19999999999
 20
8519.600000000002
 30
0.0
 11
13127.19999999999
 21
8519.600000000002
 31
0.0
  0
LINE
  5
17112
330
747D
100
AcDbEntity
  8
仕様書枠
 48
50.0
100
AcDbLine
 10
16307.19999999999
 20
8689.6
 30
0.0
 11
13127.19999999999
 21
8689.6
 31
0.0
  0
TEXT
  5
1711B
330
747D
100
AcDbEntity
  8
文字
 62
     7
 48
50.0
100
AcDbText
 10
13583.11819016568
 20
8720.013745883727
 30
0.0
 40
100.0
  1
※豪雪補強
  7
STYLE1
100
AcDbText
  0
TEXT
  5
1711C
330
747D
100
AcDbEntity
  8
文字
 62
     7
 48
50.0
100
AcDbText
 10
13248.77747366447
 20
8720.013745883729
 30
0.0
 40
100.0
  1
15
  7
STYLE1
100
AcDbText
  0
TEXT
  5
1711D
330
747D
100
AcDbEntity
  8
文字
 62
     7
 48
50.0
100
AcDbText
 10
15022.63965474514
 20
8720.013745883722
 30
0.0
 40
100.0
  1
F12            1.0
  7
STYLE1
100
AcDbText
  0
TEXT
  5
1711E
330
747D
100
AcDbEntity
  8
文字
 62
     7
 48
50.0
100
AcDbText
 10
13229.83081656553
 20
8550.013745883727
 30
0.0
 40
100.0
  1
※豪雪補強は豪雪地型のみ取付
 41
0.9
  7
STYLE1
100
AcDbText
  0
TEXT
  5
1712E
330
747D
100
AcDbEntity
  8
文字
 62
     7
 48
50.0
100
AcDbText
 10
14251.2
 20
838.2527270729188
 30
0.0
 40
100.0
  1
～一般型・多雪地型・豪雪地型～
  7
STYLE2
100
AcDbText
  0
ENDSEC
  0
SECTION
  2
OBJECTS
  0
DICTIONARY
  5
7471
330
0
100
AcDbDictionary
281
     1
  3
ACAD_COLOR
350
15EBB
  3
ACAD_GROUP
350
7472
  3
ACAD_LAYOUT
350
15EBC
  3
ACAD_MATERIAL
350
15EBA
  3
ACAD_MLINESTYLE
350
7473
  3
ACAD_PLOTSETTINGS
350
15EBD
  3
ACAD_PLOTSTYLENAME
350
15EB8
  3
ACDBHEADERROUNDTRIPXREC
350
17146
  3
AcDbVariableDictionary
350
17142
  3
CONTENTDICTIONARY
350
E71C
  3
DRAWINGVARIABLESDICT
350
F3B9
  0
DICTIONARY
  5
160C5
330
7467
100
AcDbDictionary
280
     1
281
     1
  3
ACAD_LAYERSTATES
360
160C6
  0
DICTIONARY
  5
15EBB
102
{ACAD_REACTORS
330
7471
102
}
330
7471
100
AcDbDictionary
281
     1
  0
DICTIONARY
  5
7472
102
{ACAD_REACTORS
330
7471
102
}
330
7471
100
AcDbDictionary
281
     1
  0
DICTIONARY
  5
15EBC
102
{ACAD_REACTORS
330
7471
102
}
330
7471
100
AcDbDictionary
281
     1
  3
Model
350
15EBE
  3
レイアウト1
350
15EBF
  0
DICTIONARY
  5
15EBA
102
{ACAD_REACTORS
330
7471
102
}
330
7471
100
AcDbDictionary
281
     1
  0
DICTIONARY
  5
7473
102
{ACAD_REACTORS
330
7471
102
}
330
7471
100
AcDbDictionary
281
     1
  3
STANDARD
350
7480
  0
DICTIONARY
  5
15EBD
102
{ACAD_REACTORS
330
7471
102
}
330
7471
100
AcDbDictionary
281
     1
  0
ACDBDICTIONARYWDFLT
  5
15EB8
102
{ACAD_REACTORS
330
7471
102
}
330
7471
100
AcDbDictionary
281
     1
  3
Normal
350
15EB9
100
AcDbDictionaryWithDefault
340
15EB9
  0
DICTIONARY
  5
17146
102
{ACAD_REACTORS
330
7471
102
}
330
7471
100
AcDbDictionary
281
     1
  3
COLORDICT
350
17148
  3
MATERIALDICT
350
17147
  0
DICTIONARY
  5
17142
102
{ACAD_REACTORS
330
7471
102
}
330
7471
100
AcDbDictionary
281
     1
  3
DIMASSOC
350
17143
  3
PROJECTNAME
350
17144
  0
DICTIONARY
  5
E71C
102
{ACAD_REACTORS
330
7471
102
}
330
7471
100
AcDbDictionary
281
     1
  0
DICTIONARY
  5
F3B9
102
{ACAD_REACTORS
330
7471
102
}
330
7471
100
AcDbDictionary
281
     1
1001
DRAWINGVARIABLESXDATA
1000
POLARMODE
1000
1
  0
DICTIONARY
  5
160C6
102
{ACAD_REACTORS
330
160C5
102
}
330
160C5
100
AcDbDictionary
281
     1
  0
LAYOUT
  5
15EBE
102
{ACAD_XDICTIONARY
360
17149
102
}
102
{ACAD_REACTORS
330
15EBC
102
}
330
15EBC
100
AcDbPlotSettings
  1

  2
Microsoft Office Document Image Writer
  4

  6

 40
0.0
 41
0.0
 42
0.0
 43
0.0
 44
0.0
 45
0.0
 46
0.0
 47
0.0
 48
0.0
 49
0.0
140
0.0
141
0.0
142
1.0
143
1.0
 70
  1712
 72
     0
 73
     0
 74
     0
  7

 75
     0
147
1.0
148
0.0
149
0.0
100
AcDbLayout
  1
Model
 70
     1
 71
     0
 10
0.0
 20
0.0
 11
12.0
 21
9.0
 12
0.0
 22
0.0
 32
0.0
 14
0.0
 24
0.0
 34
0.0
 15
0.0
 25
0.0
 35
0.0
146
0.0
 13
0.0
 23
0.0
 33
0.0
 16
1.0
 26
0.0
 36
0.0
 17
0.0
 27
1.0
 37
0.0
 76
     0
330
747D
  0
LAYOUT
  5
15EBF
102
{ACAD_XDICTIONARY
360
1714B
102
}
102
{ACAD_REACTORS
330
15EBC
102
}
330
15EBC
100
AcDbPlotSettings
  1

  2
Microsoft Office Document Image Writer
  4

  6

 40
0.0
 41
0.0
 42
0.0
 43
0.0
 44
0.0
 45
0.0
 46
0.0
 47
0.0
 48
0.0
 49
0.0
140
0.0
141
0.0
142
1.0
143
1.0
 70
   688
 72
     0
 73
     0
 74
     5
  7

 75
    16
147
1.0
148
0.0
149
0.0
100
AcDbLayout
  1
レイアウト1
 70
     0
 71
     1
 10
0.0
 20
0.0
 11
420.0
 21
297.0
 12
0.0
 22
0.0
 32
0.0
 14
1.000000000000000E+20
 24
1.000000000000000E+20
 34
1.000000000000000E+20
 15
-1.000000000000000E+20
 25
-1.000000000000000E+20
 35
-1.000000000000000E+20
146
0.0
 13
0.0
 23
0.0
 33
0.0
 16
1.0
 26
0.0
 36
0.0
 17
0.0
 27
1.0
 37
0.0
 76
     0
330
747A
  0
MLINESTYLE
  5
7480
102
{ACAD_REACTORS
330
7473
102
}
330
7473
100
AcDbMlineStyle
  2
STANDARD
 70
     0
  3

 62
     0
 51
90.0
 52
90.0
 71
     2
 49
0.5
 62
   256
  6
BYLAYER
 49
-0.5
 62
   256
  6
BYLAYER
  0
ACDBPLACEHOLDER
  5
15EB9
102
{ACAD_REACTORS
330
15EB8
102
}
330
15EB8
  0
XRECORD
  5
17148
102
{ACAD_REACTORS
330
17146
102
}
330
17146
100
AcDbXrecord
280
     1
340
15EBB
  0
XRECORD
  5
17147
102
{ACAD_REACTORS
330
17146
102
}
330
17146
100
AcDbXrecord
280
     1
340
15EBA
  0
DICTIONARYVAR
  5
17143
102
{ACAD_REACTORS
330
17142
102
}
330
17142
100
DictionaryVariables
280
     0
  1
1
  0
DICTIONARYVAR
  5
17144
102
{ACAD_REACTORS
330
17142
102
}
330
17142
100
DictionaryVariables
280
     0
  1

  0
DICTIONARY
  5
17149
330
15EBE
100
AcDbDictionary
280
     1
281
     1
  3
ACAD_XREC_ROUNDTRIP
360
1714A
  0
DICTIONARY
  5
1714B
330
15EBF
100
AcDbDictionary
280
     1
281
     1
  3
ACAD_XREC_ROUNDTRIP
360
1714C
  0
XRECORD
  5
1714A
102
{ACAD_REACTORS
330
17149
102
}
330
17149
100
AcDbXrecord
280
     1
102
SHADEPLOT
 70
     0
102
SHADEPLOTRESLEVEL
 70
     2
102
SHADEPLOTCUSTOMDPI
 70
   300
  0
XRECORD
  5
1714C
102
{ACAD_REACTORS
330
1714B
102
}
330
1714B
100
AcDbXrecord
280
     1
102
SHADEPLOT
 70
     0
102
SHADEPLOTRESLEVEL
 70
     2
102
SHADEPLOTCUSTOMDPI
 70
   300
  0
ENDSEC
  0
EOF
