  0
SECTION
  2
HEADER
  9
$ACADVER
  1
AC1015
  9
$ACADMAINTVER
 70
    20
  9
$DWGCODEPAGE
  3
ANSI_932
  9
$INSBASE
 10
0.0
 20
0.0
 30
0.0
  9
$EXTMIN
 10
139.9999999999995
 20
-0.0000000000000909
 30
0.0
  9
$EXTMAX
 10
16307.2
 20
11409.6
 30
0.0
  9
$LIMMIN
 10
0.0
 20
0.0
  9
$LIMMAX
 10
16800.0
 20
11880.0
  9
$ORTHOMODE
 70
     0
  9
$REGENMODE
 70
     1
  9
$FILLMODE
 70
     1
  9
$QTEXTMODE
 70
     0
  9
$MIRRTEXT
 70
     1
  9
$LTSCALE
 40
20.0
  9
$ATTMODE
 70
     1
  9
$TEXTSIZE
 40
100.0
  9
$TRACEWID
 40
1.0
  9
$TEXTSTYLE
  7
STYLE3
  9
$CLAYER
  8
寸法
  9
$CELTYPE
  6
BYLAYER
  9
$CECOLOR
 62
   256
  9
$CELTSCALE
 40
50.0
  9
$DISPSILH
 70
     0
  9
$DIMSCALE
 40
40.0
  9
$DIMASZ
 40
2.5
  9
$DIMEXO
 40
0.5
  9
$DIMDLI
 40
7.0
  9
$DIMRND
 40
0.0
  9
$DIMDLE
 40
0.0
  9
$DIMEXE
 40
1.5
  9
$DIMTP
 40
0.0
  9
$DIMTM
 40
0.0
  9
$DIMTXT
 40
3.0
  9
$DIMCEN
 40
0.0
  9
$DIMTSZ
 40
0.0
  9
$DIMTOL
 70
     0
  9
$DIMLIM
 70
     0
  9
$DIMTIH
 70
     0
  9
$DIMTOH
 70
     0
  9
$DIMSE1
 70
     0
  9
$DIMSE2
 70
     0
  9
$DIMTAD
 70
     3
  9
$DIMZIN
 70
     8
  9
$DIMBLK
  1

  9
$DIMASO
 70
     1
  9
$DIMSHO
 70
     1
  9
$DIMPOST
  1

  9
$DIMAPOST
  1

  9
$DIMALT
 70
     0
  9
$DIMALTD
 70
     2
  9
$DIMALTF
 40
0.0394
  9
$DIMLFAC
 40
1.0
  9
$DIMTOFL
 70
     1
  9
$DIMTVP
 40
0.0
  9
$DIMTIX
 70
     1
  9
$DIMSOXD
 70
     0
  9
$DIMSAH
 70
     1
  9
$DIMBLK1
  1
DOTSMALL
  9
$DIMBLK2
  1
DOTSMALL
  9
$DIMSTYLE
  2
INABA_S40G
  9
$DIMCLRD
 70
     0
  9
$DIMCLRE
 70
     0
  9
$DIMCLRT
 70
     7
  9
$DIMTFAC
 40
1.0
  9
$DIMGAP
 40
1.0
  9
$DIMJUST
 70
     0
  9
$DIMSD1
 70
     0
  9
$DIMSD2
 70
     0
  9
$DIMTOLJ
 70
     1
  9
$DIMTZIN
 70
     0
  9
$DIMALTZ
 70
     0
  9
$DIMALTTZ
 70
     0
  9
$DIMUPT
 70
     0
  9
$DIMDEC
 70
     1
  9
$DIMTDEC
 70
     4
  9
$DIMALTU
 70
     2
  9
$DIMALTTD
 70
     2
  9
$DIMTXSTY
  7
STYLE1
  9
$DIMAUNIT
 70
     0
  9
$DIMADEC
 70
     0
  9
$DIMALTRND
 40
0.0
  9
$DIMAZIN
 70
     0
  9
$DIMDSEP
 70
    46
  9
$DIMATFIT
 70
     3
  9
$DIMFRAC
 70
     0
  9
$DIMLDRBLK
  1

  9
$DIMLUNIT
 70
     2
  9
$DIMLWD
 70
    -2
  9
$DIMLWE
 70
    -2
  9
$DIMTMOVE
 70
     0
  9
$LUNITS
 70
     2
  9
$LUPREC
 70
     1
  9
$SKETCHINC
 40
1.0
  9
$FILLETRAD
 40
5.0
  9
$AUNITS
 70
     0
  9
$AUPREC
 70
     0
  9
$MENU
  1
acad
  9
$ELEVATION
 40
0.0
  9
$PELEVATION
 40
0.0
  9
$THICKNESS
 40
0.0
  9
$LIMCHECK
 70
     0
  9
$CHAMFERA
 40
0.0
  9
$CHAMFERB
 40
0.0
  9
$CHAMFERC
 40
0.0
  9
$CHAMFERD
 40
0.0
  9
$SKPOLY
 70
     0
  9
$TDCREATE
 40
2452116.684896065
  9
$TDUCREATE
 40
2452116.309896065
  9
$TDUPDATE
 40
2455575.692265625
  9
$TDUUPDATE
 40
2455575.317265625
  9
$TDINDWG
 40
0.4976617361
  9
$TDUSRTIMER
 40
0.4976617361
  9
$USRTIMER
 70
     1
  9
$ANGBASE
 50
0.0
  9
$ANGDIR
 70
     0
  9
$PDMODE
 70
     3
  9
$PDSIZE
 40
2.0
  9
$PLINEWID
 40
0.0
  9
$SPLFRAME
 70
     0
  9
$SPLINETYPE
 70
     6
  9
$SPLINESEGS
 70
     8
  9
$HANDSEED
  5
16FAC
  9
$SURFTAB1
 70
     6
  9
$SURFTAB2
 70
     6
  9
$SURFTYPE
 70
     6
  9
$SURFU
 70
     6
  9
$SURFV
 70
     6
  9
$UCSBASE
  2

  9
$UCSNAME
  2

  9
$UCSORG
 10
0.0
 20
0.0
 30
0.0
  9
$UCSXDIR
 10
1.0
 20
0.0
 30
0.0
  9
$UCSYDIR
 10
0.0
 20
1.0
 30
0.0
  9
$UCSORTHOREF
  2

  9
$UCSORTHOVIEW
 70
     0
  9
$UCSORGTOP
 10
0.0
 20
0.0
 30
0.0
  9
$UCSORGBOTTOM
 10
0.0
 20
0.0
 30
0.0
  9
$UCSORGLEFT
 10
0.0
 20
0.0
 30
0.0
  9
$UCSORGRIGHT
 10
0.0
 20
0.0
 30
0.0
  9
$UCSORGFRONT
 10
0.0
 20
0.0
 30
0.0
  9
$UCSORGBACK
 10
0.0
 20
0.0
 30
0.0
  9
$PUCSBASE
  2

  9
$PUCSNAME
  2

  9
$PUCSORG
 10
0.0
 20
0.0
 30
0.0
  9
$PUCSXDIR
 10
1.0
 20
0.0
 30
0.0
  9
$PUCSYDIR
 10
0.0
 20
1.0
 30
0.0
  9
$PUCSORTHOREF
  2

  9
$PUCSORTHOVIEW
 70
     0
  9
$PUCSORGTOP
 10
0.0
 20
0.0
 30
0.0
  9
$PUCSORGBOTTOM
 10
0.0
 20
0.0
 30
0.0
  9
$PUCSORGLEFT
 10
0.0
 20
0.0
 30
0.0
  9
$PUCSORGRIGHT
 10
0.0
 20
0.0
 30
0.0
  9
$PUCSORGFRONT
 10
0.0
 20
0.0
 30
0.0
  9
$PUCSORGBACK
 10
0.0
 20
0.0
 30
0.0
  9
$USERI1
 70
     0
  9
$USERI2
 70
     0
  9
$USERI3
 70
     0
  9
$USERI4
 70
     0
  9
$USERI5
 70
     0
  9
$USERR1
 40
0.0
  9
$USERR2
 40
0.0
  9
$USERR3
 40
0.0
  9
$USERR4
 40
0.0
  9
$USERR5
 40
0.0
  9
$WORLDVIEW
 70
     1
  9
$SHADEDGE
 70
     3
  9
$SHADEDIF
 70
    70
  9
$TILEMODE
 70
     1
  9
$MAXACTVP
 70
    16
  9
$PINSBASE
 10
0.0
 20
0.0
 30
0.0
  9
$PLIMCHECK
 70
     0
  9
$PEXTMIN
 10
1.000000000000000E+20
 20
1.000000000000000E+20
 30
1.000000000000000E+20
  9
$PEXTMAX
 10
-1.000000000000000E+20
 20
-1.000000000000000E+20
 30
-1.000000000000000E+20
  9
$PLIMMIN
 10
0.0
 20
0.0
  9
$PLIMMAX
 10
420.0
 20
297.0
  9
$UNITMODE
 70
     0
  9
$VISRETAIN
 70
     0
  9
$PLINEGEN
 70
     0
  9
$PSLTSCALE
 70
     0
  9
$TREEDEPTH
 70
  3020
  9
$CMLSTYLE
  2
STANDARD
  9
$CMLJUST
 70
     0
  9
$CMLSCALE
 40
1.0
  9
$PROXYGRAPHICS
 70
     1
  9
$MEASUREMENT
 70
     1
  9
$CELWEIGHT
370
    -1
  9
$ENDCAPS
280
     0
  9
$JOINSTYLE
280
     0
  9
$LWDISPLAY
290
     0
  9
$INSUNITS
 70
     0
  9
$HYPERLINKBASE
  1

  9
$STYLESHEET
  1

  9
$XEDIT
290
     1
  9
$CEPSNTYPE
380
     0
  9
$PSTYLEMODE
290
     1
  9
$FINGERPRINTGUID
  2
{B86DE0C9-B419-43CD-AB76-12E07C045A8A}
  9
$VERSIONGUID
  2
{C284ED05-E16B-4F61-AFA4-1795673C8FA5}
  9
$EXTNAMES
290
     1
  9
$PSVPSCALE
 40
0.0
  9
$OLESTARTUP
290
     0
  0
ENDSEC
  0
SECTION
  2
CLASSES
  0
CLASS
  1
ACDBDICTIONARYWDFLT
  2
AcDbDictionaryWithDefault
  3
ObjectDBX Classes
 90
        0
280
     0
281
     0
  0
CLASS
  1
DICTIONARYVAR
  2
AcDbDictionaryVar
  3
ObjectDBX Classes
 90
        0
280
     0
281
     0
  0
CLASS
  1
ACDBPLACEHOLDER
  2
AcDbPlaceHolder
  3
ObjectDBX Classes
 90
        0
280
     0
281
     0
  0
CLASS
  1
LAYOUT
  2
AcDbLayout
  3
ObjectDBX Classes
 90
        0
280
     0
281
     0
  0
ENDSEC
  0
SECTION
  2
TABLES
  0
TABLE
  2
VPORT
  5
746D
330
0
100
AcDbSymbolTable
 70
     2
  0
VPORT
  5
16FA4
330
746D
100
AcDbSymbolTableRecord
100
AcDbViewportTableRecord
  2
*Active
 70
     0
 10
0.0
 20
0.0
 11
1.0
 21
1.0
 12
9076.91645855874
 22
6347.66611132684
 13
0.0
 23
0.0
 14
10.0
 24
10.0
 15
10.0
 25
10.0
 16
0.0
 26
0.0
 36
1.0
 17
0.0
 27
0.0
 37
0.0
 40
12783.46462244035
 41
1.525925925925925
 42
50.0
 43
0.0
 44
0.0
 50
0.0
 51
0.0
 71
     0
 72
     0
 73
     1
 74
     0
 75
     0
 76
     0
 77
     0
 78
     0
281
     0
 65
     1
110
0.0
120
0.0
130
0.0
111
1.0
121
0.0
131
0.0
112
0.0
122
1.0
132
0.0
 79
     0
146
0.0
  0
ENDTAB
  0
TABLE
  2
LTYPE
  5
746A
330
0
100
AcDbSymbolTable
 70
     4
  0
LTYPE
  5
7477
330
746A
100
AcDbSymbolTableRecord
100
AcDbLinetypeTableRecord
  2
BYBLOCK
 70
     0
  3

 72
    65
 73
     0
 40
0.0
  0
LTYPE
  5
7478
330
746A
100
AcDbSymbolTableRecord
100
AcDbLinetypeTableRecord
  2
BYLAYER
 70
     0
  3

 72
    65
 73
     0
 40
0.0
  0
LTYPE
  5
7479
330
746A
100
AcDbSymbolTableRecord
100
AcDbLinetypeTableRecord
  2
CONTINUOUS
 70
     0
  3
Solid line
 72
    65
 73
     0
 40
0.0
  0
LTYPE
  5
7816
330
746A
100
AcDbSymbolTableRecord
100
AcDbLinetypeTableRecord
  2
CENTER
 70
     0
  3
____ _ ____ _ ____ _ ____ _ ____ _ ____ _ ____ 
 72
    65
 73
     4
 40
2.0
 49
1.25
 74
     0
 49
-0.25
 74
     0
 49
0.25
 74
     0
 49
-0.25
 74
     0
  0
LTYPE
  5
781A
330
746A
100
AcDbSymbolTableRecord
100
AcDbLinetypeTableRecord
  2
HIDDEN
 70
     0
  3
__ __ __ __ __ __ __ __ __ __ __ __ __ __ __ __
 72
    65
 73
     2
 40
0.375
 49
0.25
 74
     0
 49
-0.125
 74
     0
  0
LTYPE
  5
781B
330
746A
100
AcDbSymbolTableRecord
100
AcDbLinetypeTableRecord
  2
PHANTOM
 70
     0
  3
______  __  __  ______  __  __  ______  __  __ 
 72
    65
 73
     6
 40
2.5
 49
1.25
 74
     0
 49
-0.25
 74
     0
 49
0.25
 74
     0
 49
-0.25
 74
     0
 49
0.25
 74
     0
 49
-0.25
 74
     0
  0
ENDTAB
  0
TABLE
  2
LAYER
  5
7467
102
{ACAD_XDICTIONARY
360
160CC
102
}
330
0
100
AcDbSymbolTable
 70
    12
  0
LAYER
  5
7474
330
7467
100
AcDbSymbolTableRecord
100
AcDbLayerTableRecord
  2
0
 70
     0
 62
     7
  6
CONTINUOUS
370
    -3
390
15EF0
  0
LAYER
  5
DEB2
330
7467
100
AcDbSymbolTableRecord
100
AcDbLayerTableRecord
  2
センター
 70
     0
 62
     3
  6
CENTER
370
    -3
390
15EF0
  0
LAYER
  5
DEB3
330
7467
100
AcDbSymbolTableRecord
100
AcDbLayerTableRecord
  2
寸法
 70
     0
 62
     4
  6
CONTINUOUS
370
    -3
390
15EF0
  0
LAYER
  5
DEB4
330
7467
100
AcDbSymbolTableRecord
100
AcDbLayerTableRecord
  2
部品1
 70
     0
 62
     7
  6
CONTINUOUS
370
    -3
390
15EF0
  0
LAYER
  5
DEB5
330
7467
100
AcDbSymbolTableRecord
100
AcDbLayerTableRecord
  2
補助
 70
     0
 62
    -1
  6
CONTINUOUS
370
    -3
390
15EF0
  0
LAYER
  5
DEB6
330
7467
100
AcDbSymbolTableRecord
100
AcDbLayerTableRecord
  2
文字
 70
     0
 62
     7
  6
CONTINUOUS
370
    -3
390
15EF0
  0
LAYER
  5
F255
330
7467
100
AcDbSymbolTableRecord
100
AcDbLayerTableRecord
  2
DEFPOINTS
 70
     0
 62
     7
  6
CONTINUOUS
290
     0
370
    -3
390
15EF0
  0
LAYER
  5
10B54
330
7467
100
AcDbSymbolTableRecord
100
AcDbLayerTableRecord
  2
仕様書枠
 70
     0
 62
   230
  6
CONTINUOUS
370
    -3
390
15EF0
  0
LAYER
  5
11729
330
7467
100
AcDbSymbolTableRecord
100
AcDbLayerTableRecord
  2
Ｇ．Ｌ
 70
     0
 62
    30
  6
CONTINUOUS
370
    -3
390
15EF0
  0
LAYER
  5
1173F
330
7467
100
AcDbSymbolTableRecord
100
AcDbLayerTableRecord
  2
細線
 70
     0
 62
     5
  6
CONTINUOUS
370
    -3
390
15EF0
  0
LAYER
  5
118A1
330
7467
100
AcDbSymbolTableRecord
100
AcDbLayerTableRecord
  2
想像線
 70
     0
 62
     6
  6
PHANTOM
370
    -3
390
15EF0
  0
LAYER
  5
123C1
330
7467
100
AcDbSymbolTableRecord
100
AcDbLayerTableRecord
  2
破線
 70
     0
 62
     2
  6
HIDDEN
370
    -3
390
15EF0
  0
ENDTAB
  0
TABLE
  2
STYLE
  5
7468
330
0
100
AcDbSymbolTable
 70
     4
  0
STYLE
  5
7475
330
7468
100
AcDbSymbolTableRecord
100
AcDbTextStyleTableRecord
  2
STANDARD
 70
     0
 40
0.0
 41
1.0
 50
0.0
 71
     0
 42
4.0
  3
txt
  4
C:\AutoCAD LT\bigfont.shx
  0
STYLE
  5
F706
330
7468
100
AcDbSymbolTableRecord
100
AcDbTextStyleTableRecord
  2
STYLE1
 70
     0
 40
0.0
 41
1.0
 50
0.0
 71
     0
 42
4.0
  3
isocp.shx
  4
bigfont.shx
  0
STYLE
  5
103BF
330
7468
100
AcDbSymbolTableRecord
100
AcDbTextStyleTableRecord
  2
STYLE2
 70
     0
 40
0.0
 41
1.0
 50
0.0
 71
     0
 42
100.0
  3
MS PGothic.ttf
  4

1001
ACAD
1000
MS PGothic
1071
    32818
  0
STYLE
  5
10BAA
330
7468
100
AcDbSymbolTableRecord
100
AcDbTextStyleTableRecord
  2
STYLE3
 70
     0
 40
0.0
 41
1.0
 50
0.0
 71
     0
 42
100.0
  3

  4

1001
ACAD
1000
DFPGothic-EB
1071
    32818
  0
ENDTAB
  0
TABLE
  2
VIEW
  5
746B
330
0
100
AcDbSymbolTable
 70
     0
  0
ENDTAB
  0
TABLE
  2
UCS
  5
746C
330
0
100
AcDbSymbolTable
 70
     0
  0
ENDTAB
  0
TABLE
  2
APPID
  5
746E
330
0
100
AcDbSymbolTable
 70
     6
  0
APPID
  5
7476
330
746E
100
AcDbSymbolTableRecord
100
AcDbRegAppTableRecord
  2
ACAD
 70
     0
  0
APPID
  5
DEA9
330
746E
100
AcDbSymbolTableRecord
100
AcDbRegAppTableRecord
  2
CONTENTBLOCKICON
 70
     0
  0
APPID
  5
DEAA
330
746E
100
AcDbSymbolTableRecord
100
AcDbRegAppTableRecord
  2
CONTENTBLOCKDESCRIPTION
 70
     0
  0
APPID
  5
E71D
330
746E
100
AcDbSymbolTableRecord
100
AcDbRegAppTableRecord
  2
CONTENTTABDATA
 70
     0
  0
APPID
  5
E71E
330
746E
100
AcDbSymbolTableRecord
100
AcDbRegAppTableRecord
  2
CONTENTCURRENTTAB
 70
     0
  0
APPID
  5
F3BA
330
746E
100
AcDbSymbolTableRecord
100
AcDbRegAppTableRecord
  2
DRAWINGVARIABLESXDATA
 70
     0
  0
ENDTAB
  0
TABLE
  2
DIMSTYLE
  5
746F
330
0
100
AcDbSymbolTable
 70
     2
100
AcDbDimStyleTable
 71
     0
  0
DIMSTYLE
105
7484
330
746F
100
AcDbSymbolTableRecord
100
AcDbDimStyleTableRecord
  2
JIS
 70
     0
 41
2.5
 42
1.0
 43
7.0
 44
1.0
 73
     0
 74
     0
 77
     1
 78
     8
140
2.5
141
0.0
143
0.0394
147
0.0
172
     1
174
     1
175
     1
340
7475
  0
DIMSTYLE
105
F71F
102
{ACAD_REACTORS
330
1518D
330
1519A
330
1519B
330
1519F
330
151DF
330
151EC
330
151ED
330
151EE
330
151EF
330
151FE
330
1522E
330
15230
330
15241
330
15258
330
156D1
330
156E9
330
15B19
330
15BC8
330
15BA1
330
15BA0
330
15B9F
330
15E9F
330
15EB9
330
1649D
330
1649E
330
1649F
330
164A0
330
164A8
330
164A9
330
164AA
330
164AB
330
164D1
330
16BFA
330
16BFC
330
16BFE
330
16BFF
330
16C57
330
16C6F
330
16C6D
330
16C6E
330
16CC1
102
}
330
746F
100
AcDbSymbolTableRecord
100
AcDbDimStyleTableRecord
  2
INABA_S40G
 70
     0
 40
40.0
 41
2.5
 42
0.5
 43
7.0
 44
1.5
 73
     0
 74
     0
 77
     3
 78
     8
140
3.0
141
0.0
143
0.0394
147
1.0
172
     1
173
     1
174
     1
178
     7
271
     1
340
F706
341
F770
343
F770
344
F770
  0
ENDTAB
  0
TABLE
  2
BLOCK_RECORD
  5
7466
330
0
100
AcDbSymbolTable
 70
    42
  0
BLOCK_RECORD
  5
747D
330
7466
100
AcDbSymbolTableRecord
100
AcDbBlockTableRecord
  2
*MODEL_SPACE
340
15EF5
  0
BLOCK_RECORD
  5
747A
330
7466
100
AcDbSymbolTableRecord
100
AcDbBlockTableRecord
  2
*PAPER_SPACE
340
15EF6
  0
BLOCK_RECORD
  5
F770
330
7466
100
AcDbSymbolTableRecord
100
AcDbBlockTableRecord
  2
_DOTSMALL
340
0
102
{BLKREFS
331
16DD4
331
16DD5
331
16DDF
331
16DE0
331
16DE8
331
16DE9
331
16DF1
331
16DF2
331
16DFB
331
16DFC
331
16E04
331
16E05
331
16E0D
331
16E0E
331
16E16
331
16E17
331
16E1F
331
16E20
331
16E28
331
16E29
331
16E31
331
16E32
331
16E3C
331
16E3D
331
16E45
331
16E46
331
16E4E
331
16E4F
331
16E57
331
16E58
331
16E62
331
16E63
331
16E6B
331
16E6C
331
16E75
331
16E76
331
16E7E
331
16E7F
331
16E87
331
16E88
331
16E90
331
16E91
331
16E99
331
16E9A
331
16EA3
331
16EA4
331
16EAB
331
16EAC
331
16EB5
331
16EB6
331
16EBD
331
16EBE
331
16EC6
331
16EC7
331
16ECF
331
16ED0
331
16EDA
331
16EDB
331
16EE3
331
16EE4
331
16EEC
331
16EED
331
16EF5
331
16EF6
331
16F00
331
16F01
331
16F09
331
16F0A
331
16F14
331
16F15
331
16F1E
331
16F1F
331
16F26
331
16F27
331
16F31
331
16F32
331
16F3B
331
16F3C
331
16F43
331
16F44
331
16F4C
331
16F4D
102
}
  0
BLOCK_RECORD
  5
1537F
330
7466
100
AcDbSymbolTableRecord
100
AcDbBlockTableRecord
  2
*D1
340
0
  0
BLOCK_RECORD
  5
153A3
330
7466
100
AcDbSymbolTableRecord
100
AcDbBlockTableRecord
  2
*D2
340
0
  0
BLOCK_RECORD
  5
153AF
330
7466
100
AcDbSymbolTableRecord
100
AcDbBlockTableRecord
  2
*D3
340
0
  0
BLOCK_RECORD
  5
153C7
330
7466
100
AcDbSymbolTableRecord
100
AcDbBlockTableRecord
  2
*D4
340
0
  0
BLOCK_RECORD
  5
153E1
330
7466
100
AcDbSymbolTableRecord
100
AcDbBlockTableRecord
  2
*D5
340
0
  0
BLOCK_RECORD
  5
153ED
330
7466
100
AcDbSymbolTableRecord
100
AcDbBlockTableRecord
  2
*D6
340
0
  0
BLOCK_RECORD
  5
153F9
330
7466
100
AcDbSymbolTableRecord
100
AcDbBlockTableRecord
  2
*D7
340
0
  0
BLOCK_RECORD
  5
15407
330
7466
100
AcDbSymbolTableRecord
100
AcDbBlockTableRecord
  2
*D8
340
0
  0
BLOCK_RECORD
  5
15413
330
7466
100
AcDbSymbolTableRecord
100
AcDbBlockTableRecord
  2
*D9
340
0
  0
BLOCK_RECORD
  5
15439
330
7466
100
AcDbSymbolTableRecord
100
AcDbBlockTableRecord
  2
*D10
340
0
  0
BLOCK_RECORD
  5
15445
330
7466
100
AcDbSymbolTableRecord
100
AcDbBlockTableRecord
  2
*D11
340
0
  0
BLOCK_RECORD
  5
15451
330
7466
100
AcDbSymbolTableRecord
100
AcDbBlockTableRecord
  2
*D12
340
0
  0
BLOCK_RECORD
  5
1545D
330
7466
100
AcDbSymbolTableRecord
100
AcDbBlockTableRecord
  2
*D13
340
0
  0
BLOCK_RECORD
  5
15483
330
7466
100
AcDbSymbolTableRecord
100
AcDbBlockTableRecord
  2
*D14
340
0
  0
BLOCK_RECORD
  5
156D2
330
7466
100
AcDbSymbolTableRecord
100
AcDbBlockTableRecord
  2
*D15
340
0
  0
BLOCK_RECORD
  5
156EA
330
7466
100
AcDbSymbolTableRecord
100
AcDbBlockTableRecord
  2
*D16
340
0
  0
BLOCK_RECORD
  5
15B6E
330
7466
100
AcDbSymbolTableRecord
100
AcDbBlockTableRecord
  2
*D17
340
0
  0
BLOCK_RECORD
  5
15CD0
330
7466
100
AcDbSymbolTableRecord
100
AcDbBlockTableRecord
  2
*D18
340
0
  0
BLOCK_RECORD
  5
15CDC
330
7466
100
AcDbSymbolTableRecord
100
AcDbBlockTableRecord
  2
*D19
340
0
  0
BLOCK_RECORD
  5
15CE8
330
7466
100
AcDbSymbolTableRecord
100
AcDbBlockTableRecord
  2
*D20
340
0
  0
BLOCK_RECORD
  5
15CF4
330
7466
100
AcDbSymbolTableRecord
100
AcDbBlockTableRecord
  2
*D21
340
0
  0
BLOCK_RECORD
  5
15EA1
330
7466
100
AcDbSymbolTableRecord
100
AcDbBlockTableRecord
  2
*D22
340
0
  0
BLOCK_RECORD
  5
15EBA
330
7466
100
AcDbSymbolTableRecord
100
AcDbBlockTableRecord
  2
*D23
340
0
  0
BLOCK_RECORD
  5
167AE
330
7466
100
AcDbSymbolTableRecord
100
AcDbBlockTableRecord
  2
*D24
340
0
  0
BLOCK_RECORD
  5
167BB
330
7466
100
AcDbSymbolTableRecord
100
AcDbBlockTableRecord
  2
*D25
340
0
  0
BLOCK_RECORD
  5
167C7
330
7466
100
AcDbSymbolTableRecord
100
AcDbBlockTableRecord
  2
*D26
340
0
  0
BLOCK_RECORD
  5
167D5
330
7466
100
AcDbSymbolTableRecord
100
AcDbBlockTableRecord
  2
*D27
340
0
  0
BLOCK_RECORD
  5
167E1
330
7466
100
AcDbSymbolTableRecord
100
AcDbBlockTableRecord
  2
*D28
340
0
  0
BLOCK_RECORD
  5
167ED
330
7466
100
AcDbSymbolTableRecord
100
AcDbBlockTableRecord
  2
*D29
340
0
  0
BLOCK_RECORD
  5
167F9
330
7466
100
AcDbSymbolTableRecord
100
AcDbBlockTableRecord
  2
*D30
340
0
  0
BLOCK_RECORD
  5
16807
330
7466
100
AcDbSymbolTableRecord
100
AcDbBlockTableRecord
  2
*D31
340
0
  0
BLOCK_RECORD
  5
16813
330
7466
100
AcDbSymbolTableRecord
100
AcDbBlockTableRecord
  2
*D32
340
0
  0
BLOCK_RECORD
  5
16C02
330
7466
100
AcDbSymbolTableRecord
100
AcDbBlockTableRecord
  2
*D33
340
0
  0
BLOCK_RECORD
  5
16C0E
330
7466
100
AcDbSymbolTableRecord
100
AcDbBlockTableRecord
  2
*D34
340
0
  0
BLOCK_RECORD
  5
16C1A
330
7466
100
AcDbSymbolTableRecord
100
AcDbBlockTableRecord
  2
*D35
340
0
  0
BLOCK_RECORD
  5
16C26
330
7466
100
AcDbSymbolTableRecord
100
AcDbBlockTableRecord
  2
*D36
340
0
  0
BLOCK_RECORD
  5
16C58
330
7466
100
AcDbSymbolTableRecord
100
AcDbBlockTableRecord
  2
*D37
340
0
  0
BLOCK_RECORD
  5
16C7E
330
7466
100
AcDbSymbolTableRecord
100
AcDbBlockTableRecord
  2
*D38
340
0
  0
BLOCK_RECORD
  5
16C8C
330
7466
100
AcDbSymbolTableRecord
100
AcDbBlockTableRecord
  2
*D39
340
0
  0
BLOCK_RECORD
  5
16C98
330
7466
100
AcDbSymbolTableRecord
100
AcDbBlockTableRecord
  2
*D40
340
0
  0
BLOCK_RECORD
  5
16CCC
330
7466
100
AcDbSymbolTableRecord
100
AcDbBlockTableRecord
  2
*D41
340
0
  0
ENDTAB
  0
ENDSEC
  0
SECTION
  2
BLOCKS
  0
BLOCK
  5
7489
330
747D
100
AcDbEntity
  8
0
100
AcDbBlockBegin
  2
*MODEL_SPACE
 70
     0
 10
0.0
 20
0.0
 30
0.0
  3
*MODEL_SPACE
  1

  0
ENDBLK
  5
748A
330
747D
100
AcDbEntity
  8
0
100
AcDbBlockEnd
  0
BLOCK
  5
7487
330
747A
100
AcDbEntity
 67
     1
  8
0
100
AcDbBlockBegin
  2
*PAPER_SPACE
 70
     0
 10
0.0
 20
0.0
 30
0.0
  3
*PAPER_SPACE
  1

  0
ENDBLK
  5
7488
330
747A
100
AcDbEntity
 67
     1
  8
0
100
AcDbBlockEnd
  0
BLOCK
  5
F771
330
F770
100
AcDbEntity
  8
0
 48
50.0
100
AcDbBlockBegin
  2
_DOTSMALL
 70
     0
 10
0.0
 20
0.0
 30
0.0
  3
_DOTSMALL
  1

  0
LWPOLYLINE
  5
F772
330
F770
100
AcDbEntity
  8
0
  6
ByBlock
 62
     0
 48
50.0
100
AcDbPolyline
 90
        2
 70
     1
 43
0.5
 10
-0.0625
 20
0.0
 42
1.0
 10
0.0625
 20
0.0
 42
1.0
  0
ENDBLK
  5
F776
330
F770
100
AcDbEntity
  8
0
 48
50.0
100
AcDbBlockEnd
  0
BLOCK
  5
15E76
330
1537F
100
AcDbEntity
  8
0
 48
50.0
100
AcDbBlockBegin
  2
*D1
 70
     1
 10
0.0
 20
0.0
 30
0.0
  3
*D1
  1

  0
LINE
  5
16F49
330
1537F
100
AcDbEntity
  8
寸法
 62
     0
 48
50.0
370
    -2
100
AcDbLine
 10
4133.098812926728
 20
8179.860285762584
 30
0.0
 11
4133.098812926728
 21
7152.758410902702
 31
0.0
  0
LINE
  5
16F4A
330
1537F
100
AcDbEntity
  8
寸法
 62
     0
 48
50.0
370
    -2
100
AcDbLine
 10
8883.098812926709
 20
8179.860285762904
 30
0.0
 11
8883.098812926709
 21
7152.758410902702
 31
0.0
  0
LINE
  5
16F4B
330
1537F
100
AcDbEntity
  8
寸法
 62
     0
 48
50.0
370
    -2
100
AcDbLine
 10
4133.098812926728
 20
7212.758410902701
 30
0.0
 11
8883.098812926709
 21
7212.758410902701
 31
0.0
  0
INSERT
  5
16F4C
330
1537F
100
AcDbEntity
  8
寸法
 62
     0
 48
50.0
370
    -2
100
AcDbBlockReference
  2
_DOTSMALL
 10
4133.098812926728
 20
7212.758410902701
 30
0.0
 41
100.0
 42
100.0
 43
100.0
 50
180.0
  0
INSERT
  5
16F4D
330
1537F
100
AcDbEntity
  8
寸法
 62
     0
 48
50.0
370
    -2
100
AcDbBlockReference
  2
_DOTSMALL
 10
8883.098812926709
 20
7212.758410902701
 30
0.0
 41
100.0
 42
100.0
 43
100.0
  0
MTEXT
  5
16F4E
330
1537F
100
AcDbEntity
  8
寸法
 62
     7
 48
50.0
100
AcDbMText
 10
6508.098812926718
 20
7312.758410902701
 30
0.0
 40
120.0
 41
0.0
 71
     5
 72
     1
  1
\A1;4750
  7
STYLE1
 73
     1
 44
1.0
1001
ACAD
1000
MTEXTBEGIN
1070
    73
1070
     1
1070
    44
1040
1.0
1070
    74
1070
     0
1000
MTEXTEND
  0
POINT
  5
16F4F
330
1537F
100
AcDbEntity
  8
DEFPOINTS
 62
     0
 48
50.0
100
AcDbPoint
 10
4133.098812926728
 20
8199.860285762586
 30
0.0
  0
POINT
  5
16F50
330
1537F
100
AcDbEntity
  8
DEFPOINTS
 62
     0
 48
50.0
100
AcDbPoint
 10
8883.098812926709
 20
8199.860285762905
 30
0.0
  0
POINT
  5
16F51
330
1537F
100
AcDbEntity
  8
DEFPOINTS
 62
     0
 48
50.0
100
AcDbPoint
 10
8883.098812926709
 20
7212.758410902701
 30
0.0
  0
ENDBLK
  5
15E80
330
1537F
100
AcDbEntity
  8
0
 48
50.0
100
AcDbBlockEnd
  0
BLOCK
  5
154CC
330
153A3
100
AcDbEntity
  8
0
 48
50.0
100
AcDbBlockBegin
  2
*D2
 70
     1
 10
0.0
 20
0.0
 30
0.0
  3
*D2
  1

  0
LINE
  5
16F40
330
153A3
100
AcDbEntity
  8
寸法
 62
     0
 48
50.0
370
    -2
100
AcDbLine
 10
7038.098812926735
 20
9169.860285762883
 30
0.0
 11
7038.098812926735
 21
9425.668505387951
 31
0.0
  0
LINE
  5
16F41
330
153A3
100
AcDbEntity
  8
寸法
 62
     0
 48
50.0
370
    -2
100
AcDbLine
 10
7878.098812926734
 20
9169.86028576297
 30
0.0
 11
7878.098812926734
 21
9425.668505387951
 31
0.0
  0
LINE
  5
16F42
330
153A3
100
AcDbEntity
  8
寸法
 62
     0
 48
50.0
370
    -2
100
AcDbLine
 10
7038.098812926735
 20
9365.668505387951
 30
0.0
 11
7878.098812926734
 21
9365.668505387951
 31
0.0
  0
INSERT
  5
16F43
330
153A3
100
AcDbEntity
  8
寸法
 62
     0
 48
50.0
370
    -2
100
AcDbBlockReference
  2
_DOTSMALL
 10
7038.098812926735
 20
9365.668505387951
 30
0.0
 41
100.0
 42
100.0
 43
100.0
 50
180.0
  0
INSERT
  5
16F44
330
153A3
100
AcDbEntity
  8
寸法
 62
     0
 48
50.0
370
    -2
100
AcDbBlockReference
  2
_DOTSMALL
 10
7878.098812926734
 20
9365.668505387951
 30
0.0
 41
100.0
 42
100.0
 43
100.0
  0
MTEXT
  5
16F45
330
153A3
100
AcDbEntity
  8
寸法
 62
     7
 48
50.0
100
AcDbMText
 10
7458.098812926734
 20
9465.680316411575
 30
0.0
 40
120.0
 41
0.0
 71
     5
 72
     1
  1
\A1;2X420=840
  7
STYLE1
 73
     1
 44
1.0
1001
ACAD
1000
MTEXTBEGIN
1070
    73
1070
     1
1070
    44
1040
1.0
1070
    74
1070
     0
1000
MTEXTEND
  0
POINT
  5
16F46
330
153A3
100
AcDbEntity
  8
DEFPOINTS
 62
     0
 48
50.0
100
AcDbPoint
 10
7038.098812926735
 20
9149.860285762882
 30
0.0
  0
POINT
  5
16F47
330
153A3
100
AcDbEntity
  8
DEFPOINTS
 62
     0
 48
50.0
100
AcDbPoint
 10
7878.098812926734
 20
9149.86028576297
 30
0.0
  0
POINT
  5
16F48
330
153A3
100
AcDbEntity
  8
DEFPOINTS
 62
     0
 48
50.0
100
AcDbPoint
 10
7878.098812926734
 20
9365.668505387951
 30
0.0
  0
ENDBLK
  5
154D6
330
153A3
100
AcDbEntity
  8
0
 48
50.0
100
AcDbBlockEnd
  0
BLOCK
  5
154D7
330
153AF
100
AcDbEntity
  8
0
 48
50.0
100
AcDbBlockBegin
  2
*D3
 70
     1
 10
0.0
 20
0.0
 30
0.0
  3
*D3
  1

  0
LINE
  5
16F37
330
153AF
100
AcDbEntity
  8
寸法
 62
     0
 48
50.0
370
    -2
100
AcDbLine
 10
6928.098812926734
 20
9169.86028576297
 30
0.0
 11
6928.098812926734
 21
9425.668505387951
 31
0.0
  0
LINE
  5
16F38
330
153AF
100
AcDbEntity
  8
寸法
 62
     0
 48
50.0
370
    -2
100
AcDbLine
 10
7038.098812926738
 20
9169.860285762949
 30
0.0
 11
7038.098812926738
 21
9425.668505387951
 31
0.0
  0
LINE
  5
16F39
330
153AF
100
AcDbEntity
  8
寸法
 62
     0
 48
50.0
370
    -2
100
AcDbLine
 10
6928.098812926734
 20
9365.668505387951
 30
0.0
 11
7038.098812926738
 21
9365.668505387951
 31
0.0
  0
MTEXT
  5
16F3A
330
153AF
100
AcDbEntity
  8
寸法
 62
     7
 48
50.0
100
AcDbMText
 10
6983.098812926735
 20
9622.545174002455
 30
0.0
 40
120.0
 41
0.0
 71
     5
 72
     1
  1
\A1;110
  7
STYLE1
 73
     1
 44
1.0
1001
ACAD
1000
MTEXTBEGIN
1070
    73
1070
     1
1070
    44
1040
1.0
1070
    74
1070
     0
1000
MTEXTEND
  0
INSERT
  5
16F3B
330
153AF
100
AcDbEntity
  8
寸法
 62
     0
 48
50.0
370
    -2
100
AcDbBlockReference
  2
_DOTSMALL
 10
6928.098812926734
 20
9365.668505387951
 30
0.0
 41
100.0
 42
100.0
 43
100.0
 50
180.0
  0
INSERT
  5
16F3C
330
153AF
100
AcDbEntity
  8
寸法
 62
     0
 48
50.0
370
    -2
100
AcDbBlockReference
  2
_DOTSMALL
 10
7038.098812926738
 20
9365.668505387951
 30
0.0
 41
100.0
 42
100.0
 43
100.0
  0
POINT
  5
16F3D
330
153AF
100
AcDbEntity
  8
DEFPOINTS
 62
     0
 48
50.0
100
AcDbPoint
 10
6928.098812926734
 20
9149.86028576297
 30
0.0
  0
POINT
  5
16F3E
330
153AF
100
AcDbEntity
  8
DEFPOINTS
 62
     0
 48
50.0
100
AcDbPoint
 10
7038.098812926738
 20
9149.860285762949
 30
0.0
  0
POINT
  5
16F3F
330
153AF
100
AcDbEntity
  8
DEFPOINTS
 62
     0
 48
50.0
100
AcDbPoint
 10
7038.098812926738
 20
9365.668505387951
 30
0.0
  0
ENDBLK
  5
154E1
330
153AF
100
AcDbEntity
  8
0
 48
50.0
100
AcDbBlockEnd
  0
BLOCK
  5
154ED
330
153C7
100
AcDbEntity
  8
0
 48
50.0
100
AcDbBlockBegin
  2
*D4
 70
     1
 10
0.0
 20
0.0
 30
0.0
  3
*D4
  1

  0
LINE
  5
16F2C
330
153C7
100
AcDbEntity
  8
寸法
 62
     0
 48
50.0
370
    -2
100
AcDbLine
 10
4133.098812926699
 20
9169.860285762855
 30
0.0
 11
4133.098812926699
 21
9425.668505387836
 31
0.0
  0
LINE
  5
16F2D
330
153C7
100
AcDbEntity
  8
寸法
 62
     0
 48
50.0
370
    -2
100
AcDbLine
 10
4188.098812926734
 20
9169.860285762855
 30
0.0
 11
4188.098812926734
 21
9425.668505387836
 31
0.0
  0
LINE
  5
16F2E
330
153C7
100
AcDbEntity
  8
寸法
 62
     0
 48
50.0
370
    -2
100
AcDbLine
 10
4188.098812926734
 20
9365.668505387835
 30
0.0
 11
4288.098812926735
 21
9365.668505387835
 31
0.0
  0
LINE
  5
16F2F
330
153C7
100
AcDbEntity
  8
寸法
 62
     0
 48
50.0
370
    -2
100
AcDbLine
 10
4133.098812926699
 20
9365.668505387835
 30
0.0
 11
3716.128250178222
 21
9365.668505387835
 31
0.0
  0
LINE
  5
16F30
330
153C7
100
AcDbEntity
  8
寸法
 62
     0
 48
50.0
370
    -2
100
AcDbLine
 10
4188.098812926734
 20
9365.668505387835
 30
0.0
 11
4133.098812926699
 21
9365.668505387835
 31
0.0
  0
INSERT
  5
16F31
330
153C7
100
AcDbEntity
  8
寸法
 62
     0
 48
50.0
370
    -2
100
AcDbBlockReference
  2
_DOTSMALL
 10
4188.098812926734
 20
9365.668505387835
 30
0.0
 41
100.0
 42
100.0
 43
100.0
 50
180.0
  0
INSERT
  5
16F32
330
153C7
100
AcDbEntity
  8
寸法
 62
     0
 48
50.0
370
    -2
100
AcDbBlockReference
  2
_DOTSMALL
 10
4133.098812926699
 20
9365.668505387835
 30
0.0
 41
100.0
 42
100.0
 43
100.0
  0
MTEXT
  5
16F33
330
153C7
100
AcDbEntity
  8
寸法
 62
     7
 48
50.0
100
AcDbMText
 10
3824.61353155246
 20
9465.668505387837
 30
0.0
 40
120.0
 41
0.0
 71
     5
 72
     1
  1
\A1;55
  7
STYLE1
 73
     1
 44
1.0
1001
ACAD
1000
MTEXTBEGIN
1070
    73
1070
     1
1070
    44
1040
1.0
1070
    74
1070
     0
1000
MTEXTEND
  0
POINT
  5
16F34
330
153C7
100
AcDbEntity
  8
DEFPOINTS
 62
     0
 48
50.0
100
AcDbPoint
 10
4133.098812926699
 20
9149.860285762853
 30
0.0
  0
POINT
  5
16F35
330
153C7
100
AcDbEntity
  8
DEFPOINTS
 62
     0
 48
50.0
100
AcDbPoint
 10
4188.098812926734
 20
9149.860285762853
 30
0.0
  0
POINT
  5
16F36
330
153C7
100
AcDbEntity
  8
DEFPOINTS
 62
     0
 48
50.0
100
AcDbPoint
 10
4188.098812926734
 20
9365.668505387835
 30
0.0
  0
ENDBLK
  5
154F9
330
153C7
100
AcDbEntity
  8
0
 48
50.0
100
AcDbBlockEnd
  0
BLOCK
  5
15505
330
153E1
100
AcDbEntity
  8
0
 48
50.0
100
AcDbBlockBegin
  2
*D5
 70
     1
 10
0.0
 20
0.0
 30
0.0
  3
*D5
  1

  0
LINE
  5
16F23
330
153E1
100
AcDbEntity
  8
寸法
 62
     0
 48
50.0
370
    -2
100
AcDbLine
 10
6088.098812926735
 20
9169.860285762883
 30
0.0
 11
6088.098812926735
 21
9425.668505387951
 31
0.0
  0
LINE
  5
16F24
330
153E1
100
AcDbEntity
  8
寸法
 62
     0
 48
50.0
370
    -2
100
AcDbLine
 10
6928.098812926734
 20
9169.86028576297
 30
0.0
 11
6928.098812926734
 21
9425.668505387951
 31
0.0
  0
LINE
  5
16F25
330
153E1
100
AcDbEntity
  8
寸法
 62
     0
 48
50.0
370
    -2
100
AcDbLine
 10
6088.098812926735
 20
9365.668505387951
 30
0.0
 11
6928.098812926734
 21
9365.668505387951
 31
0.0
  0
INSERT
  5
16F26
330
153E1
100
AcDbEntity
  8
寸法
 62
     0
 48
50.0
370
    -2
100
AcDbBlockReference
  2
_DOTSMALL
 10
6088.098812926735
 20
9365.668505387951
 30
0.0
 41
100.0
 42
100.0
 43
100.0
 50
180.0
  0
INSERT
  5
16F27
330
153E1
100
AcDbEntity
  8
寸法
 62
     0
 48
50.0
370
    -2
100
AcDbBlockReference
  2
_DOTSMALL
 10
6928.098812926734
 20
9365.668505387951
 30
0.0
 41
100.0
 42
100.0
 43
100.0
  0
MTEXT
  5
16F28
330
153E1
100
AcDbEntity
  8
寸法
 62
     7
 48
50.0
100
AcDbMText
 10
6508.098812926734
 20
9465.680316411575
 30
0.0
 40
120.0
 41
0.0
 71
     5
 72
     1
  1
\A1;2X420=840
  7
STYLE1
 73
     1
 44
1.0
1001
ACAD
1000
MTEXTBEGIN
1070
    73
1070
     1
1070
    44
1040
1.0
1070
    74
1070
     0
1000
MTEXTEND
  0
POINT
  5
16F29
330
153E1
100
AcDbEntity
  8
DEFPOINTS
 62
     0
 48
50.0
100
AcDbPoint
 10
6088.098812926735
 20
9149.860285762882
 30
0.0
  0
POINT
  5
16F2A
330
153E1
100
AcDbEntity
  8
DEFPOINTS
 62
     0
 48
50.0
100
AcDbPoint
 10
6928.098812926734
 20
9149.86028576297
 30
0.0
  0
POINT
  5
16F2B
330
153E1
100
AcDbEntity
  8
DEFPOINTS
 62
     0
 48
50.0
100
AcDbPoint
 10
6928.098812926734
 20
9365.668505387951
 30
0.0
  0
ENDBLK
  5
1550F
330
153E1
100
AcDbEntity
  8
0
 48
50.0
100
AcDbBlockEnd
  0
BLOCK
  5
15510
330
153ED
100
AcDbEntity
  8
0
 48
50.0
100
AcDbBlockBegin
  2
*D6
 70
     1
 10
0.0
 20
0.0
 30
0.0
  3
*D6
  1

  0
LINE
  5
16F1A
330
153ED
100
AcDbEntity
  8
寸法
 62
     0
 48
50.0
370
    -2
100
AcDbLine
 10
7878.098812926734
 20
9169.86028576297
 30
0.0
 11
7878.098812926734
 21
9425.668505387951
 31
0.0
  0
LINE
  5
16F1B
330
153ED
100
AcDbEntity
  8
寸法
 62
     0
 48
50.0
370
    -2
100
AcDbLine
 10
7988.098812926738
 20
9169.860285762949
 30
0.0
 11
7988.098812926738
 21
9425.668505387951
 31
0.0
  0
LINE
  5
16F1C
330
153ED
100
AcDbEntity
  8
寸法
 62
     0
 48
50.0
370
    -2
100
AcDbLine
 10
7878.098812926734
 20
9365.668505387951
 30
0.0
 11
7988.098812926738
 21
9365.668505387951
 31
0.0
  0
MTEXT
  5
16F1D
330
153ED
100
AcDbEntity
  8
寸法
 62
     7
 48
50.0
100
AcDbMText
 10
7933.098812926735
 20
9622.545174002455
 30
0.0
 40
120.0
 41
0.0
 71
     5
 72
     1
  1
\A1;110
  7
STYLE1
 73
     1
 44
1.0
1001
ACAD
1000
MTEXTBEGIN
1070
    73
1070
     1
1070
    44
1040
1.0
1070
    74
1070
     0
1000
MTEXTEND
  0
INSERT
  5
16F1E
330
153ED
100
AcDbEntity
  8
寸法
 62
     0
 48
50.0
370
    -2
100
AcDbBlockReference
  2
_DOTSMALL
 10
7878.098812926734
 20
9365.668505387951
 30
0.0
 41
100.0
 42
100.0
 43
100.0
 50
180.0
  0
INSERT
  5
16F1F
330
153ED
100
AcDbEntity
  8
寸法
 62
     0
 48
50.0
370
    -2
100
AcDbBlockReference
  2
_DOTSMALL
 10
7988.098812926738
 20
9365.668505387951
 30
0.0
 41
100.0
 42
100.0
 43
100.0
  0
POINT
  5
16F20
330
153ED
100
AcDbEntity
  8
DEFPOINTS
 62
     0
 48
50.0
100
AcDbPoint
 10
7878.098812926734
 20
9149.86028576297
 30
0.0
  0
POINT
  5
16F21
330
153ED
100
AcDbEntity
  8
DEFPOINTS
 62
     0
 48
50.0
100
AcDbPoint
 10
7988.098812926738
 20
9149.860285762949
 30
0.0
  0
POINT
  5
16F22
330
153ED
100
AcDbEntity
  8
DEFPOINTS
 62
     0
 48
50.0
100
AcDbPoint
 10
7988.098812926738
 20
9365.668505387951
 30
0.0
  0
ENDBLK
  5
1551A
330
153ED
100
AcDbEntity
  8
0
 48
50.0
100
AcDbBlockEnd
  0
BLOCK
  5
1551B
330
153F9
100
AcDbEntity
  8
0
 48
50.0
100
AcDbBlockBegin
  2
*D7
 70
     1
 10
0.0
 20
0.0
 30
0.0
  3
*D7
  1

  0
LINE
  5
16F0F
330
153F9
100
AcDbEntity
  8
寸法
 62
     0
 48
50.0
370
    -2
100
AcDbLine
 10
8903.098812926735
 20
9149.860285762949
 30
0.0
 11
9590.525158661147
 21
9149.860285762949
 31
0.0
  0
LINE
  5
16F10
330
153F9
100
AcDbEntity
  8
寸法
 62
     0
 48
50.0
370
    -2
100
AcDbLine
 10
8903.098812926735
 20
9094.860285762948
 30
0.0
 11
9590.525158661147
 21
9094.860285762948
 31
0.0
  0
LINE
  5
16F11
330
153F9
100
AcDbEntity
  8
寸法
 62
     0
 48
50.0
370
    -2
100
AcDbLine
 10
9530.525158661147
 20
9094.860285762948
 30
0.0
 11
9530.525158661147
 21
8994.860285762948
 31
0.0
  0
LINE
  5
16F12
330
153F9
100
AcDbEntity
  8
寸法
 62
     0
 48
50.0
370
    -2
100
AcDbLine
 10
9530.525158661147
 20
9149.860285762949
 30
0.0
 11
9530.525158661147
 21
9566.830848511425
 31
0.0
  0
LINE
  5
16F13
330
153F9
100
AcDbEntity
  8
寸法
 62
     0
 48
50.0
370
    -2
100
AcDbLine
 10
9530.525158661147
 20
9094.860285762948
 30
0.0
 11
9530.525158661147
 21
9149.860285762949
 31
0.0
  0
INSERT
  5
16F14
330
153F9
100
AcDbEntity
  8
寸法
 62
     0
 48
50.0
370
    -2
100
AcDbBlockReference
  2
_DOTSMALL
 10
9530.525158661147
 20
9094.860285762948
 30
0.0
 41
100.0
 42
100.0
 43
100.0
 50
90.0
  0
INSERT
  5
16F15
330
153F9
100
AcDbEntity
  8
寸法
 62
     0
 48
50.0
370
    -2
100
AcDbBlockReference
  2
_DOTSMALL
 10
9530.525158661147
 20
9149.860285762949
 30
0.0
 41
100.0
 42
100.0
 43
100.0
 50
270.0
  0
MTEXT
  5
16F16
330
153F9
100
AcDbEntity
  8
寸法
 62
     7
 48
50.0
100
AcDbMText
 10
9430.525158661145
 20
9458.345567137188
 30
0.0
 40
120.0
 41
0.0
 71
     5
 72
     1
  1
\A1;55
  7
STYLE1
 11
0.0000000000000001
 21
1.0
 31
0.0
 73
     1
 44
1.0
1001
ACAD
1000
MTEXTBEGIN
1070
    73
1070
     1
1070
    44
1040
1.0
1070
    74
1070
     0
1000
MTEXTEND
  0
POINT
  5
16F17
330
153F9
100
AcDbEntity
  8
DEFPOINTS
 62
     0
 48
50.0
100
AcDbPoint
 10
8883.098812926736
 20
9149.860285762949
 30
0.0
  0
POINT
  5
16F18
330
153F9
100
AcDbEntity
  8
DEFPOINTS
 62
     0
 48
50.0
100
AcDbPoint
 10
8883.098812926736
 20
9094.860285762948
 30
0.0
  0
POINT
  5
16F19
330
153F9
100
AcDbEntity
  8
DEFPOINTS
 62
     0
 48
50.0
100
AcDbPoint
 10
9530.525158661147
 20
9094.860285762948
 30
0.0
  0
ENDBLK
  5
15527
330
153F9
100
AcDbEntity
  8
0
 48
50.0
100
AcDbBlockEnd
  0
BLOCK
  5
15528
330
15407
100
AcDbEntity
  8
0
 48
50.0
100
AcDbBlockBegin
  2
*D8
 70
     1
 10
0.0
 20
0.0
 30
0.0
  3
*D8
  1

  0
LINE
  5
16F06
330
15407
100
AcDbEntity
  8
寸法
 62
     0
 48
50.0
370
    -2
100
AcDbLine
 10
8903.098812926735
 20
9149.860285762949
 30
0.0
 11
9899.636689476825
 21
9149.860285762949
 31
0.0
  0
LINE
  5
16F07
330
15407
100
AcDbEntity
  8
寸法
 62
     0
 48
50.0
370
    -2
100
AcDbLine
 10
8903.09881292671
 20
8199.860285762934
 30
0.0
 11
9899.636689476825
 21
8199.860285762934
 31
0.0
  0
LINE
  5
16F08
330
15407
100
AcDbEntity
  8
寸法
 62
     0
 48
50.0
370
    -2
100
AcDbLine
 10
9839.636689476824
 20
9149.860285762949
 30
0.0
 11
9839.636689476824
 21
8199.860285762934
 31
0.0
  0
INSERT
  5
16F09
330
15407
100
AcDbEntity
  8
寸法
 62
     0
 48
50.0
370
    -2
100
AcDbBlockReference
  2
_DOTSMALL
 10
9839.636689476824
 20
9149.860285762949
 30
0.0
 41
100.0
 42
100.0
 43
100.0
 50
90.0
  0
INSERT
  5
16F0A
330
15407
100
AcDbEntity
  8
寸法
 62
     0
 48
50.0
370
    -2
100
AcDbBlockReference
  2
_DOTSMALL
 10
9839.636689476824
 20
8199.860285762934
 30
0.0
 41
100.0
 42
100.0
 43
100.0
 50
270.0
  0
MTEXT
  5
16F0B
330
15407
100
AcDbEntity
  8
寸法
 62
     7
 48
50.0
100
AcDbMText
 10
9739.636689476823
 20
8673.838004321853
 30
0.0
 40
120.0
 41
0.0
 71
     5
 72
     1
  1
\A1;950
  7
STYLE1
 11
0.0000000000000001
 21
1.0
 31
0.0
 73
     1
 44
1.0
1001
ACAD
1000
MTEXTBEGIN
1070
    73
1070
     1
1070
    44
1040
1.0
1070
    74
1070
     0
1000
MTEXTEND
  0
POINT
  5
16F0C
330
15407
100
AcDbEntity
  8
DEFPOINTS
 62
     0
 48
50.0
100
AcDbPoint
 10
8883.098812926736
 20
9149.860285762949
 30
0.0
  0
POINT
  5
16F0D
330
15407
100
AcDbEntity
  8
DEFPOINTS
 62
     0
 48
50.0
100
AcDbPoint
 10
8883.098812926709
 20
8199.860285762934
 30
0.0
  0
POINT
  5
16F0E
330
15407
100
AcDbEntity
  8
DEFPOINTS
 62
     0
 48
50.0
100
AcDbPoint
 10
9839.636689476824
 20
8199.860285762934
 30
0.0
  0
ENDBLK
  5
15532
330
15407
100
AcDbEntity
  8
0
 48
50.0
100
AcDbBlockEnd
  0
BLOCK
  5
15533
330
15413
100
AcDbEntity
  8
0
 48
50.0
100
AcDbBlockBegin
  2
*D9
 70
     1
 10
0.0
 20
0.0
 30
0.0
  3
*D9
  1

  0
LINE
  5
16EFB
330
15413
100
AcDbEntity
  8
寸法
 62
     0
 48
50.0
370
    -2
100
AcDbLine
 10
8903.09881292671
 20
8254.860285762935
 30
0.0
 11
9590.525158661121
 21
8254.860285762935
 31
0.0
  0
LINE
  5
16EFC
330
15413
100
AcDbEntity
  8
寸法
 62
     0
 48
50.0
370
    -2
100
AcDbLine
 10
8903.09881292671
 20
8199.860285762934
 30
0.0
 11
9590.525158661121
 21
8199.860285762934
 31
0.0
  0
LINE
  5
16EFD
330
15413
100
AcDbEntity
  8
寸法
 62
     0
 48
50.0
370
    -2
100
AcDbLine
 10
9530.525158661122
 20
8254.860285762935
 30
0.0
 11
9530.525158661122
 21
8354.860285762935
 31
0.0
  0
LINE
  5
16EFE
330
15413
100
AcDbEntity
  8
寸法
 62
     0
 48
50.0
370
    -2
100
AcDbLine
 10
9530.525158661122
 20
8199.860285762934
 30
0.0
 11
9530.525158661122
 21
7713.513537483835
 31
0.0
  0
LINE
  5
16EFF
330
15413
100
AcDbEntity
  8
寸法
 62
     0
 48
50.0
370
    -2
100
AcDbLine
 10
9530.525158661122
 20
8254.860285762935
 30
0.0
 11
9530.525158661122
 21
8199.860285762934
 31
0.0
  0
INSERT
  5
16F00
330
15413
100
AcDbEntity
  8
寸法
 62
     0
 48
50.0
370
    -2
100
AcDbBlockReference
  2
_DOTSMALL
 10
9530.525158661122
 20
8254.860285762935
 30
0.0
 41
100.0
 42
100.0
 43
100.0
 50
270.0
  0
INSERT
  5
16F01
330
15413
100
AcDbEntity
  8
寸法
 62
     0
 48
50.0
370
    -2
100
AcDbBlockReference
  2
_DOTSMALL
 10
9530.525158661122
 20
8199.860285762934
 30
0.0
 41
100.0
 42
100.0
 43
100.0
 50
90.0
  0
MTEXT
  5
16F02
330
15413
100
AcDbEntity
  8
寸法
 62
     7
 48
50.0
100
AcDbMText
 10
9430.525158661119
 20
7821.998818858076
 30
0.0
 40
120.0
 41
0.0
 71
     5
 72
     1
  1
\A1;55
  7
STYLE1
 11
0.0000000000000001
 21
1.0
 31
0.0
 73
     1
 44
1.0
1001
ACAD
1000
MTEXTBEGIN
1070
    73
1070
     1
1070
    44
1040
1.0
1070
    74
1070
     0
1000
MTEXTEND
  0
POINT
  5
16F03
330
15413
100
AcDbEntity
  8
DEFPOINTS
 62
     0
 48
50.0
100
AcDbPoint
 10
8883.098812926709
 20
8254.860285762935
 30
0.0
  0
POINT
  5
16F04
330
15413
100
AcDbEntity
  8
DEFPOINTS
 62
     0
 48
50.0
100
AcDbPoint
 10
8883.098812926709
 20
8199.860285762934
 30
0.0
  0
POINT
  5
16F05
330
15413
100
AcDbEntity
  8
DEFPOINTS
 62
     0
 48
50.0
100
AcDbPoint
 10
9530.525158661122
 20
8199.860285762934
 30
0.0
  0
ENDBLK
  5
1553F
330
15413
100
AcDbEntity
  8
0
 48
50.0
100
AcDbBlockEnd
  0
BLOCK
  5
15556
330
15439
100
AcDbEntity
  8
0
 48
50.0
100
AcDbBlockBegin
  2
*D10
 70
     1
 10
0.0
 20
0.0
 30
0.0
  3
*D10
  1

  0
LINE
  5
16EF2
330
15439
100
AcDbEntity
  8
寸法
 62
     0
 48
50.0
370
    -2
100
AcDbLine
 10
7988.098812926735
 20
9169.860285762883
 30
0.0
 11
7988.098812926735
 21
9425.668505387951
 31
0.0
  0
LINE
  5
16EF3
330
15439
100
AcDbEntity
  8
寸法
 62
     0
 48
50.0
370
    -2
100
AcDbLine
 10
8828.098812926734
 20
9169.86028576297
 30
0.0
 11
8828.098812926734
 21
9425.668505387951
 31
0.0
  0
LINE
  5
16EF4
330
15439
100
AcDbEntity
  8
寸法
 62
     0
 48
50.0
370
    -2
100
AcDbLine
 10
7988.098812926735
 20
9365.668505387951
 30
0.0
 11
8828.098812926734
 21
9365.668505387951
 31
0.0
  0
INSERT
  5
16EF5
330
15439
100
AcDbEntity
  8
寸法
 62
     0
 48
50.0
370
    -2
100
AcDbBlockReference
  2
_DOTSMALL
 10
7988.098812926735
 20
9365.668505387951
 30
0.0
 41
100.0
 42
100.0
 43
100.0
 50
180.0
  0
INSERT
  5
16EF6
330
15439
100
AcDbEntity
  8
寸法
 62
     0
 48
50.0
370
    -2
100
AcDbBlockReference
  2
_DOTSMALL
 10
8828.098812926734
 20
9365.668505387951
 30
0.0
 41
100.0
 42
100.0
 43
100.0
  0
MTEXT
  5
16EF7
330
15439
100
AcDbEntity
  8
寸法
 62
     7
 48
50.0
100
AcDbMText
 10
8408.098812926736
 20
9465.680316411575
 30
0.0
 40
120.0
 41
0.0
 71
     5
 72
     1
  1
\A1;2X420=840
  7
STYLE1
 73
     1
 44
1.0
1001
ACAD
1000
MTEXTBEGIN
1070
    73
1070
     1
1070
    44
1040
1.0
1070
    74
1070
     0
1000
MTEXTEND
  0
POINT
  5
16EF8
330
15439
100
AcDbEntity
  8
DEFPOINTS
 62
     0
 48
50.0
100
AcDbPoint
 10
7988.098812926735
 20
9149.860285762882
 30
0.0
  0
POINT
  5
16EF9
330
15439
100
AcDbEntity
  8
DEFPOINTS
 62
     0
 48
50.0
100
AcDbPoint
 10
8828.098812926734
 20
9149.86028576297
 30
0.0
  0
POINT
  5
16EFA
330
15439
100
AcDbEntity
  8
DEFPOINTS
 62
     0
 48
50.0
100
AcDbPoint
 10
8828.098812926734
 20
9365.668505387951
 30
0.0
  0
ENDBLK
  5
15560
330
15439
100
AcDbEntity
  8
0
 48
50.0
100
AcDbBlockEnd
  0
BLOCK
  5
15561
330
15445
100
AcDbEntity
  8
0
 48
50.0
100
AcDbBlockBegin
  2
*D11
 70
     1
 10
0.0
 20
0.0
 30
0.0
  3
*D11
  1

  0
LINE
  5
16EE9
330
15445
100
AcDbEntity
  8
寸法
 62
     0
 48
50.0
370
    -2
100
AcDbLine
 10
8903.098812926735
 20
9094.860285762948
 30
0.0
 11
9590.525158661147
 21
9094.860285762948
 31
0.0
  0
LINE
  5
16EEA
330
15445
100
AcDbEntity
  8
寸法
 62
     0
 48
50.0
370
    -2
100
AcDbLine
 10
8903.09881292671
 20
8254.860285762935
 30
0.0
 11
9590.525158661147
 21
8254.860285762935
 31
0.0
  0
LINE
  5
16EEB
330
15445
100
AcDbEntity
  8
寸法
 62
     0
 48
50.0
370
    -2
100
AcDbLine
 10
9530.525158661147
 20
9094.860285762948
 30
0.0
 11
9530.525158661147
 21
8254.860285762935
 31
0.0
  0
INSERT
  5
16EEC
330
15445
100
AcDbEntity
  8
寸法
 62
     0
 48
50.0
370
    -2
100
AcDbBlockReference
  2
_DOTSMALL
 10
9530.525158661147
 20
9094.860285762948
 30
0.0
 41
100.0
 42
100.0
 43
100.0
 50
90.0
  0
INSERT
  5
16EED
330
15445
100
AcDbEntity
  8
寸法
 62
     0
 48
50.0
370
    -2
100
AcDbBlockReference
  2
_DOTSMALL
 10
9530.525158661147
 20
8254.860285762935
 30
0.0
 41
100.0
 42
100.0
 43
100.0
 50
270.0
  0
MTEXT
  5
16EEE
330
15445
100
AcDbEntity
  8
寸法
 62
     7
 48
50.0
100
AcDbMText
 10
9430.513347637523
 20
8674.860285762944
 30
0.0
 40
120.0
 41
0.0
 71
     5
 72
     1
  1
\A1;2X420=840
  7
STYLE1
 11
0.0000000000000001
 21
1.0
 31
0.0
 73
     1
 44
1.0
1001
ACAD
1000
MTEXTBEGIN
1070
    73
1070
     1
1070
    44
1040
1.0
1070
    74
1070
     0
1000
MTEXTEND
  0
POINT
  5
16EEF
330
15445
100
AcDbEntity
  8
DEFPOINTS
 62
     0
 48
50.0
100
AcDbPoint
 10
8883.098812926736
 20
9094.860285762948
 30
0.0
  0
POINT
  5
16EF0
330
15445
100
AcDbEntity
  8
DEFPOINTS
 62
     0
 48
50.0
100
AcDbPoint
 10
8883.098812926709
 20
8254.860285762935
 30
0.0
  0
POINT
  5
16EF1
330
15445
100
AcDbEntity
  8
DEFPOINTS
 62
     0
 48
50.0
100
AcDbPoint
 10
9530.525158661147
 20
8254.860285762935
 30
0.0
  0
ENDBLK
  5
1556B
330
15445
100
AcDbEntity
  8
0
 48
50.0
100
AcDbBlockEnd
  0
BLOCK
  5
1556C
330
15451
100
AcDbEntity
  8
0
 48
50.0
100
AcDbBlockBegin
  2
*D12
 70
     1
 10
0.0
 20
0.0
 30
0.0
  3
*D12
  1

  0
LINE
  5
16EE0
330
15451
100
AcDbEntity
  8
寸法
 62
     0
 48
50.0
370
    -2
100
AcDbLine
 10
8874.098819604343
 20
9115.001301914196
 30
0.0
 11
9269.45654546637
 21
9009.065518548061
 31
0.0
  0
LINE
  5
16EE1
330
15451
100
AcDbEntity
  8
寸法
 62
     0
 48
50.0
370
    -2
100
AcDbLine
 10
8874.098819604354
 20
8665.001301914202
 30
0.0
 11
9269.45654546637
 21
8559.06551854807
 31
0.0
  0
LINE
  5
16EE2
330
15451
100
AcDbEntity
  8
寸法
 62
     0
 48
50.0
370
    -2
100
AcDbLine
 10
9209.45654546637
 20
9025.142470093928
 30
0.0
 11
9209.45654546637
 21
8575.142470093936
 31
0.0
  0
INSERT
  5
16EE3
330
15451
100
AcDbEntity
  8
寸法
 62
     0
 48
50.0
370
    -2
100
AcDbBlockReference
  2
_DOTSMALL
 10
9209.45654546637
 20
9025.142470093928
 30
0.0
 41
100.0
 42
100.0
 43
100.0
 50
90.0
  0
INSERT
  5
16EE4
330
15451
100
AcDbEntity
  8
寸法
 62
     0
 48
50.0
370
    -2
100
AcDbBlockReference
  2
_DOTSMALL
 10
9209.45654546637
 20
8575.142470093936
 30
0.0
 41
100.0
 42
100.0
 43
100.0
 50
270.0
  0
MTEXT
  5
16EE5
330
15451
100
AcDbEntity
  8
寸法
 62
     7
 48
50.0
100
AcDbMText
 10
9109.456545466368
 20
8800.142470093931
 30
0.0
 40
120.0
 41
0.0
 71
     5
 72
     1
  1
\A1;450
  7
STYLE1
 11
0.0000000000000001
 21
1.0
 31
0.0
 73
     1
 44
1.0
1001
ACAD
1000
MTEXTBEGIN
1070
    73
1070
     1
1070
    44
1040
1.0
1070
    74
1070
     0
1000
MTEXTEND
  0
POINT
  5
16EE6
330
15451
100
AcDbEntity
  8
DEFPOINTS
 62
     0
 48
50.0
100
AcDbPoint
 10
8854.098819604343
 20
9120.360285762819
 30
0.0
  0
POINT
  5
16EE7
330
15451
100
AcDbEntity
  8
DEFPOINTS
 62
     0
 48
50.0
100
AcDbPoint
 10
8854.098819604354
 20
8670.360285762825
 30
0.0
  0
POINT
  5
16EE8
330
15451
100
AcDbEntity
  8
DEFPOINTS
 62
     0
 48
50.0
100
AcDbPoint
 10
9209.45654546637
 20
8575.142470093936
 30
0.0
  0
ENDBLK
  5
15576
330
15451
100
AcDbEntity
  8
0
 48
50.0
100
AcDbBlockEnd
  0
BLOCK
  5
15577
330
1545D
100
AcDbEntity
  8
0
 48
50.0
100
AcDbBlockBegin
  2
*D13
 70
     1
 10
0.0
 20
0.0
 30
0.0
  3
*D13
  1

  0
LINE
  5
16ED5
330
1545D
100
AcDbEntity
  8
寸法
 62
     0
 48
50.0
370
    -2
100
AcDbLine
 10
8828.098812926736
 20
9169.860285762949
 30
0.0
 11
8828.098812926736
 21
9425.66850538793
 31
0.0
  0
LINE
  5
16ED6
330
1545D
100
AcDbEntity
  8
寸法
 62
     0
 48
50.0
370
    -2
100
AcDbLine
 10
8883.098812926736
 20
9169.860285762949
 30
0.0
 11
8883.098812926736
 21
9425.66850538793
 31
0.0
  0
LINE
  5
16ED7
330
1545D
100
AcDbEntity
  8
寸法
 62
     0
 48
50.0
370
    -2
100
AcDbLine
 10
8828.098812926736
 20
9365.66850538793
 30
0.0
 11
8728.098812926736
 21
9365.66850538793
 31
0.0
  0
LINE
  5
16ED8
330
1545D
100
AcDbEntity
  8
寸法
 62
     0
 48
50.0
370
    -2
100
AcDbLine
 10
8883.098812926736
 20
9365.66850538793
 30
0.0
 11
9300.069375675212
 21
9365.66850538793
 31
0.0
  0
LINE
  5
16ED9
330
1545D
100
AcDbEntity
  8
寸法
 62
     0
 48
50.0
370
    -2
100
AcDbLine
 10
8828.098812926736
 20
9365.66850538793
 30
0.0
 11
8883.098812926736
 21
9365.66850538793
 31
0.0
  0
INSERT
  5
16EDA
330
1545D
100
AcDbEntity
  8
寸法
 62
     0
 48
50.0
370
    -2
100
AcDbBlockReference
  2
_DOTSMALL
 10
8828.098812926736
 20
9365.66850538793
 30
0.0
 41
100.0
 42
100.0
 43
100.0
  0
INSERT
  5
16EDB
330
1545D
100
AcDbEntity
  8
寸法
 62
     0
 48
50.0
370
    -2
100
AcDbBlockReference
  2
_DOTSMALL
 10
8883.098812926736
 20
9365.66850538793
 30
0.0
 41
100.0
 42
100.0
 43
100.0
 50
180.0
  0
MTEXT
  5
16EDC
330
1545D
100
AcDbEntity
  8
寸法
 62
     7
 48
50.0
100
AcDbMText
 10
9191.584094300974
 20
9465.668505387929
 30
0.0
 40
120.0
 41
0.0
 71
     5
 72
     1
  1
\A1;55
  7
STYLE1
 73
     1
 44
1.0
1001
ACAD
1000
MTEXTBEGIN
1070
    73
1070
     1
1070
    44
1040
1.0
1070
    74
1070
     0
1000
MTEXTEND
  0
POINT
  5
16EDD
330
1545D
100
AcDbEntity
  8
DEFPOINTS
 62
     0
 48
50.0
100
AcDbPoint
 10
8828.098812926736
 20
9149.860285762949
 30
0.0
  0
POINT
  5
16EDE
330
1545D
100
AcDbEntity
  8
DEFPOINTS
 62
     0
 48
50.0
100
AcDbPoint
 10
8883.098812926736
 20
9149.860285762949
 30
0.0
  0
POINT
  5
16EDF
330
1545D
100
AcDbEntity
  8
DEFPOINTS
 62
     0
 48
50.0
100
AcDbPoint
 10
8883.098812926736
 20
9365.66850538793
 30
0.0
  0
ENDBLK
  5
15583
330
1545D
100
AcDbEntity
  8
0
 48
50.0
100
AcDbBlockEnd
  0
BLOCK
  5
1559A
330
15483
100
AcDbEntity
  8
0
 48
50.0
100
AcDbBlockBegin
  2
*D14
 70
     1
 10
0.0
 20
0.0
 30
0.0
  3
*D14
  1

  0
LINE
  5
16ECC
330
15483
100
AcDbEntity
  8
寸法
 62
     0
 48
50.0
370
    -2
100
AcDbLine
 10
4113.098812926728
 20
5234.571647548278
 30
0.0
 11
3754.994285319126
 21
5234.571647548278
 31
0.0
  0
LINE
  5
16ECD
330
15483
100
AcDbEntity
  8
寸法
 62
     0
 48
50.0
370
    -2
100
AcDbLine
 10
4113.098812926728
 20
3474.571647548283
 30
0.0
 11
3754.994285319125
 21
3474.571647548283
 31
0.0
  0
LINE
  5
16ECE
330
15483
100
AcDbEntity
  8
寸法
 62
     0
 48
50.0
370
    -2
100
AcDbLine
 10
3814.994285319125
 20
5234.571647548278
 30
0.0
 11
3814.994285319125
 21
3474.571647548283
 31
0.0
  0
INSERT
  5
16ECF
330
15483
100
AcDbEntity
  8
寸法
 62
     0
 48
50.0
370
    -2
100
AcDbBlockReference
  2
_DOTSMALL
 10
3814.994285319125
 20
5234.571647548278
 30
0.0
 41
100.0
 42
100.0
 43
100.0
 50
90.0
  0
INSERT
  5
16ED0
330
15483
100
AcDbEntity
  8
寸法
 62
     0
 48
50.0
370
    -2
100
AcDbBlockReference
  2
_DOTSMALL
 10
3814.994285319125
 20
3474.571647548283
 30
0.0
 41
100.0
 42
100.0
 43
100.0
 50
270.0
  0
MTEXT
  5
16ED1
330
15483
100
AcDbEntity
  8
寸法
 62
     7
 48
50.0
100
AcDbMText
 10
3714.994285319124
 20
4353.571647548281
 30
0.0
 40
120.0
 41
0.0
 71
     5
 72
     1
  1
\A1;有効開口部高サ1760
  7
STYLE1
 11
0.0000000000000001
 21
1.0
 31
0.0
 73
     1
 44
1.0
1001
ACAD
1000
MTEXTBEGIN
1070
    73
1070
     1
1070
    44
1040
1.0
1070
    74
1070
     0
1000
MTEXTEND
  0
POINT
  5
16ED2
330
15483
100
AcDbEntity
  8
DEFPOINTS
 62
     0
 48
50.0
100
AcDbPoint
 10
4133.098812926728
 20
5234.571647548278
 30
0.0
  0
POINT
  5
16ED3
330
15483
100
AcDbEntity
  8
DEFPOINTS
 62
     0
 48
50.0
100
AcDbPoint
 10
4133.098812926728
 20
3474.571647548283
 30
0.0
  0
POINT
  5
16ED4
330
15483
100
AcDbEntity
  8
DEFPOINTS
 62
     0
 48
50.0
100
AcDbPoint
 10
3814.994285319125
 20
3474.571647548283
 30
0.0
  0
ENDBLK
  5
155A4
330
15483
100
AcDbEntity
  8
0
 48
50.0
100
AcDbBlockEnd
  0
BLOCK
  5
156DE
330
156D2
100
AcDbEntity
  8
0
 48
50.0
100
AcDbBlockBegin
  2
*D15
 70
     1
 10
0.0
 20
0.0
 30
0.0
  3
*D15
  1

  0
LINE
  5
16EC3
330
156D2
100
AcDbEntity
  8
寸法
 62
     0
 48
50.0
370
    -2
100
AcDbLine
 10
7038.098812926732
 20
8179.860285762847
 30
0.0
 11
7038.098812926732
 21
7700.03661796777
 31
0.0
  0
LINE
  5
16EC4
330
156D2
100
AcDbEntity
  8
寸法
 62
     0
 48
50.0
370
    -2
100
AcDbLine
 10
7723.098812926728
 20
8179.86028576281
 30
0.0
 11
7723.098812926728
 21
7700.03661796777
 31
0.0
  0
LINE
  5
16EC5
330
156D2
100
AcDbEntity
  8
寸法
 62
     0
 48
50.0
370
    -2
100
AcDbLine
 10
7038.098812926732
 20
7760.036617967769
 30
0.0
 11
7723.098812926728
 21
7760.036617967769
 31
0.0
  0
INSERT
  5
16EC6
330
156D2
100
AcDbEntity
  8
寸法
 62
     0
 48
50.0
370
    -2
100
AcDbBlockReference
  2
_DOTSMALL
 10
7038.098812926732
 20
7760.036617967769
 30
0.0
 41
100.0
 42
100.0
 43
100.0
 50
180.0
  0
INSERT
  5
16EC7
330
156D2
100
AcDbEntity
  8
寸法
 62
     0
 48
50.0
370
    -2
100
AcDbBlockReference
  2
_DOTSMALL
 10
7723.098812926728
 20
7760.036617967769
 30
0.0
 41
100.0
 42
100.0
 43
100.0
  0
MTEXT
  5
16EC8
330
156D2
100
AcDbEntity
  8
寸法
 62
     7
 48
50.0
100
AcDbMText
 10
7380.598812926731
 20
7860.036617967769
 30
0.0
 40
120.0
 41
0.0
 71
     5
 72
     1
  1
\A1;685
  7
STYLE1
 73
     1
 44
1.0
1001
ACAD
1000
MTEXTBEGIN
1070
    73
1070
     1
1070
    44
1040
1.0
1070
    74
1070
     0
1000
MTEXTEND
  0
POINT
  5
16EC9
330
156D2
100
AcDbEntity
  8
DEFPOINTS
 62
     0
 48
50.0
100
AcDbPoint
 10
7038.098812926732
 20
8199.860285762847
 30
0.0
  0
POINT
  5
16ECA
330
156D2
100
AcDbEntity
  8
DEFPOINTS
 62
     0
 48
50.0
100
AcDbPoint
 10
7723.098812926728
 20
8199.86028576281
 30
0.0
  0
POINT
  5
16ECB
330
156D2
100
AcDbEntity
  8
DEFPOINTS
 62
     0
 48
50.0
100
AcDbPoint
 10
7723.098812926728
 20
7760.036617967769
 30
0.0
  0
ENDBLK
  5
156E8
330
156D2
100
AcDbEntity
  8
0
 48
50.0
100
AcDbBlockEnd
  0
BLOCK
  5
156EB
330
156EA
100
AcDbEntity
  8
0
 48
50.0
100
AcDbBlockBegin
  2
*D16
 70
     1
 10
0.0
 20
0.0
 30
0.0
  3
*D16
  1

  0
LINE
  5
16EBA
330
156EA
100
AcDbEntity
  8
寸法
 62
     0
 48
50.0
370
    -2
100
AcDbLine
 10
6088.098812926731
 20
8179.860285762847
 30
0.0
 11
6088.098812926731
 21
7700.03661796777
 31
0.0
  0
LINE
  5
16EBB
330
156EA
100
AcDbEntity
  8
寸法
 62
     0
 48
50.0
370
    -2
100
AcDbLine
 10
6773.098812926727
 20
8179.86028576281
 30
0.0
 11
6773.098812926727
 21
7700.03661796777
 31
0.0
  0
LINE
  5
16EBC
330
156EA
100
AcDbEntity
  8
寸法
 62
     0
 48
50.0
370
    -2
100
AcDbLine
 10
6088.098812926731
 20
7760.036617967769
 30
0.0
 11
6773.098812926727
 21
7760.036617967769
 31
0.0
  0
INSERT
  5
16EBD
330
156EA
100
AcDbEntity
  8
寸法
 62
     0
 48
50.0
370
    -2
100
AcDbBlockReference
  2
_DOTSMALL
 10
6088.098812926731
 20
7760.036617967769
 30
0.0
 41
100.0
 42
100.0
 43
100.0
 50
180.0
  0
INSERT
  5
16EBE
330
156EA
100
AcDbEntity
  8
寸法
 62
     0
 48
50.0
370
    -2
100
AcDbBlockReference
  2
_DOTSMALL
 10
6773.098812926727
 20
7760.036617967769
 30
0.0
 41
100.0
 42
100.0
 43
100.0
  0
MTEXT
  5
16EBF
330
156EA
100
AcDbEntity
  8
寸法
 62
     7
 48
50.0
100
AcDbMText
 10
6430.598812926731
 20
7860.036617967769
 30
0.0
 40
120.0
 41
0.0
 71
     5
 72
     1
  1
\A1;685
  7
STYLE1
 73
     1
 44
1.0
1001
ACAD
1000
MTEXTBEGIN
1070
    73
1070
     1
1070
    44
1040
1.0
1070
    74
1070
     0
1000
MTEXTEND
  0
POINT
  5
16EC0
330
156EA
100
AcDbEntity
  8
DEFPOINTS
 62
     0
 48
50.0
100
AcDbPoint
 10
6088.098812926731
 20
8199.860285762847
 30
0.0
  0
POINT
  5
16EC1
330
156EA
100
AcDbEntity
  8
DEFPOINTS
 62
     0
 48
50.0
100
AcDbPoint
 10
6773.098812926727
 20
8199.86028576281
 30
0.0
  0
POINT
  5
16EC2
330
156EA
100
AcDbEntity
  8
DEFPOINTS
 62
     0
 48
50.0
100
AcDbPoint
 10
6773.098812926727
 20
7760.036617967769
 30
0.0
  0
ENDBLK
  5
156F5
330
156EA
100
AcDbEntity
  8
0
 48
50.0
100
AcDbBlockEnd
  0
BLOCK
  5
15B6F
330
15B6E
100
AcDbEntity
  8
0
 48
50.0
100
AcDbBlockBegin
  2
*D17
 70
     1
 10
0.0
 20
0.0
 30
0.0
  3
*D17
  1

  0
LINE
  5
16EB1
330
15B6E
100
AcDbEntity
  8
寸法
 62
     0
 48
50.0
370
    -2
100
AcDbLine
 10
5978.098812926734
 20
9169.86028576297
 30
0.0
 11
5978.098812926734
 21
9425.668505387951
 31
0.0
  0
LINE
  5
16EB2
330
15B6E
100
AcDbEntity
  8
寸法
 62
     0
 48
50.0
370
    -2
100
AcDbLine
 10
6088.098812926737
 20
9169.860285762949
 30
0.0
 11
6088.098812926737
 21
9425.668505387951
 31
0.0
  0
LINE
  5
16EB3
330
15B6E
100
AcDbEntity
  8
寸法
 62
     0
 48
50.0
370
    -2
100
AcDbLine
 10
5978.098812926734
 20
9365.668505387951
 30
0.0
 11
6088.098812926737
 21
9365.668505387951
 31
0.0
  0
MTEXT
  5
16EB4
330
15B6E
100
AcDbEntity
  8
寸法
 62
     7
 48
50.0
100
AcDbMText
 10
6033.098812926735
 20
9622.545174002455
 30
0.0
 40
120.0
 41
0.0
 71
     5
 72
     1
  1
\A1;110
  7
STYLE1
 73
     1
 44
1.0
1001
ACAD
1000
MTEXTBEGIN
1070
    73
1070
     1
1070
    44
1040
1.0
1070
    74
1070
     0
1000
MTEXTEND
  0
INSERT
  5
16EB5
330
15B6E
100
AcDbEntity
  8
寸法
 62
     0
 48
50.0
370
    -2
100
AcDbBlockReference
  2
_DOTSMALL
 10
5978.098812926734
 20
9365.668505387951
 30
0.0
 41
100.0
 42
100.0
 43
100.0
 50
180.0
  0
INSERT
  5
16EB6
330
15B6E
100
AcDbEntity
  8
寸法
 62
     0
 48
50.0
370
    -2
100
AcDbBlockReference
  2
_DOTSMALL
 10
6088.098812926737
 20
9365.668505387951
 30
0.0
 41
100.0
 42
100.0
 43
100.0
  0
POINT
  5
16EB7
330
15B6E
100
AcDbEntity
  8
DEFPOINTS
 62
     0
 48
50.0
100
AcDbPoint
 10
5978.098812926734
 20
9149.86028576297
 30
0.0
  0
POINT
  5
16EB8
330
15B6E
100
AcDbEntity
  8
DEFPOINTS
 62
     0
 48
50.0
100
AcDbPoint
 10
6088.098812926737
 20
9149.860285762949
 30
0.0
  0
POINT
  5
16EB9
330
15B6E
100
AcDbEntity
  8
DEFPOINTS
 62
     0
 48
50.0
100
AcDbPoint
 10
6088.098812926737
 20
9365.668505387951
 30
0.0
  0
ENDBLK
  5
15B79
330
15B6E
100
AcDbEntity
  8
0
 48
50.0
100
AcDbBlockEnd
  0
BLOCK
  5
15CD1
330
15CD0
100
AcDbEntity
  8
0
 48
50.0
100
AcDbBlockBegin
  2
*D18
 70
     1
 10
0.0
 20
0.0
 30
0.0
  3
*D18
  1

  0
LINE
  5
16E8D
330
15CD0
100
AcDbEntity
  8
寸法
 62
     0
 48
50.0
370
    -2
100
AcDbLine
 10
5138.098812926731
 20
8179.860285762847
 30
0.0
 11
5138.098812926731
 21
7700.03661796777
 31
0.0
  0
LINE
  5
16E8E
330
15CD0
100
AcDbEntity
  8
寸法
 62
     0
 48
50.0
370
    -2
100
AcDbLine
 10
5823.098812926728
 20
8179.86028576281
 30
0.0
 11
5823.098812926728
 21
7700.03661796777
 31
0.0
  0
LINE
  5
16E8F
330
15CD0
100
AcDbEntity
  8
寸法
 62
     0
 48
50.0
370
    -2
100
AcDbLine
 10
5138.098812926731
 20
7760.036617967769
 30
0.0
 11
5823.098812926728
 21
7760.036617967769
 31
0.0
  0
INSERT
  5
16E90
330
15CD0
100
AcDbEntity
  8
寸法
 62
     0
 48
50.0
370
    -2
100
AcDbBlockReference
  2
_DOTSMALL
 10
5138.098812926731
 20
7760.036617967769
 30
0.0
 41
100.0
 42
100.0
 43
100.0
 50
180.0
  0
INSERT
  5
16E91
330
15CD0
100
AcDbEntity
  8
寸法
 62
     0
 48
50.0
370
    -2
100
AcDbBlockReference
  2
_DOTSMALL
 10
5823.098812926728
 20
7760.036617967769
 30
0.0
 41
100.0
 42
100.0
 43
100.0
  0
MTEXT
  5
16E92
330
15CD0
100
AcDbEntity
  8
寸法
 62
     7
 48
50.0
100
AcDbMText
 10
5480.59881292673
 20
7860.036617967769
 30
0.0
 40
120.0
 41
0.0
 71
     5
 72
     1
  1
\A1;685
  7
STYLE1
 73
     1
 44
1.0
1001
ACAD
1000
MTEXTBEGIN
1070
    73
1070
     1
1070
    44
1040
1.0
1070
    74
1070
     0
1000
MTEXTEND
  0
POINT
  5
16E93
330
15CD0
100
AcDbEntity
  8
DEFPOINTS
 62
     0
 48
50.0
100
AcDbPoint
 10
5138.098812926731
 20
8199.860285762847
 30
0.0
  0
POINT
  5
16E94
330
15CD0
100
AcDbEntity
  8
DEFPOINTS
 62
     0
 48
50.0
100
AcDbPoint
 10
5823.098812926728
 20
8199.86028576281
 30
0.0
  0
POINT
  5
16E95
330
15CD0
100
AcDbEntity
  8
DEFPOINTS
 62
     0
 48
50.0
100
AcDbPoint
 10
5823.098812926728
 20
7760.036617967769
 30
0.0
  0
ENDBLK
  5
15CDB
330
15CD0
100
AcDbEntity
  8
0
 48
50.0
100
AcDbBlockEnd
  0
BLOCK
  5
15CDD
330
15CDC
100
AcDbEntity
  8
0
 48
50.0
100
AcDbBlockBegin
  2
*D19
 70
     1
 10
0.0
 20
0.0
 30
0.0
  3
*D19
  1

  0
LINE
  5
16E96
330
15CDC
100
AcDbEntity
  8
寸法
 62
     0
 48
50.0
370
    -2
100
AcDbLine
 10
5138.098812926735
 20
9169.860285762883
 30
0.0
 11
5138.098812926735
 21
9425.668505387951
 31
0.0
  0
LINE
  5
16E97
330
15CDC
100
AcDbEntity
  8
寸法
 62
     0
 48
50.0
370
    -2
100
AcDbLine
 10
5978.098812926734
 20
9169.86028576297
 30
0.0
 11
5978.098812926734
 21
9425.668505387951
 31
0.0
  0
LINE
  5
16E98
330
15CDC
100
AcDbEntity
  8
寸法
 62
     0
 48
50.0
370
    -2
100
AcDbLine
 10
5138.098812926735
 20
9365.668505387951
 30
0.0
 11
5978.098812926734
 21
9365.668505387951
 31
0.0
  0
INSERT
  5
16E99
330
15CDC
100
AcDbEntity
  8
寸法
 62
     0
 48
50.0
370
    -2
100
AcDbBlockReference
  2
_DOTSMALL
 10
5138.098812926735
 20
9365.668505387951
 30
0.0
 41
100.0
 42
100.0
 43
100.0
 50
180.0
  0
INSERT
  5
16E9A
330
15CDC
100
AcDbEntity
  8
寸法
 62
     0
 48
50.0
370
    -2
100
AcDbBlockReference
  2
_DOTSMALL
 10
5978.098812926734
 20
9365.668505387951
 30
0.0
 41
100.0
 42
100.0
 43
100.0
  0
MTEXT
  5
16E9B
330
15CDC
100
AcDbEntity
  8
寸法
 62
     7
 48
50.0
100
AcDbMText
 10
5558.098812926735
 20
9465.680316411575
 30
0.0
 40
120.0
 41
0.0
 71
     5
 72
     1
  1
\A1;2X420=840
  7
STYLE1
 73
     1
 44
1.0
1001
ACAD
1000
MTEXTBEGIN
1070
    73
1070
     1
1070
    44
1040
1.0
1070
    74
1070
     0
1000
MTEXTEND
  0
POINT
  5
16E9C
330
15CDC
100
AcDbEntity
  8
DEFPOINTS
 62
     0
 48
50.0
100
AcDbPoint
 10
5138.098812926735
 20
9149.860285762882
 30
0.0
  0
POINT
  5
16E9D
330
15CDC
100
AcDbEntity
  8
DEFPOINTS
 62
     0
 48
50.0
100
AcDbPoint
 10
5978.098812926734
 20
9149.86028576297
 30
0.0
  0
POINT
  5
16E9E
330
15CDC
100
AcDbEntity
  8
DEFPOINTS
 62
     0
 48
50.0
100
AcDbPoint
 10
5978.098812926734
 20
9365.668505387951
 30
0.0
  0
ENDBLK
  5
15CE7
330
15CDC
100
AcDbEntity
  8
0
 48
50.0
100
AcDbBlockEnd
  0
BLOCK
  5
15CE9
330
15CE8
100
AcDbEntity
  8
0
 48
50.0
100
AcDbBlockBegin
  2
*D20
 70
     1
 10
0.0
 20
0.0
 30
0.0
  3
*D20
  1

  0
LINE
  5
16E9F
330
15CE8
100
AcDbEntity
  8
寸法
 62
     0
 48
50.0
370
    -2
100
AcDbLine
 10
5028.098812926733
 20
9169.86028576297
 30
0.0
 11
5028.098812926733
 21
9425.668505387951
 31
0.0
  0
LINE
  5
16EA0
330
15CE8
100
AcDbEntity
  8
寸法
 62
     0
 48
50.0
370
    -2
100
AcDbLine
 10
5138.098812926737
 20
9169.860285762949
 30
0.0
 11
5138.098812926737
 21
9425.668505387951
 31
0.0
  0
LINE
  5
16EA1
330
15CE8
100
AcDbEntity
  8
寸法
 62
     0
 48
50.0
370
    -2
100
AcDbLine
 10
5028.098812926733
 20
9365.668505387951
 30
0.0
 11
5138.098812926737
 21
9365.668505387951
 31
0.0
  0
MTEXT
  5
16EA2
330
15CE8
100
AcDbEntity
  8
寸法
 62
     7
 48
50.0
100
AcDbMText
 10
5083.098812926735
 20
9622.545174002455
 30
0.0
 40
120.0
 41
0.0
 71
     5
 72
     1
  1
\A1;110
  7
STYLE1
 73
     1
 44
1.0
1001
ACAD
1000
MTEXTBEGIN
1070
    73
1070
     1
1070
    44
1040
1.0
1070
    74
1070
     0
1000
MTEXTEND
  0
INSERT
  5
16EA3
330
15CE8
100
AcDbEntity
  8
寸法
 62
     0
 48
50.0
370
    -2
100
AcDbBlockReference
  2
_DOTSMALL
 10
5028.098812926733
 20
9365.668505387951
 30
0.0
 41
100.0
 42
100.0
 43
100.0
 50
180.0
  0
INSERT
  5
16EA4
330
15CE8
100
AcDbEntity
  8
寸法
 62
     0
 48
50.0
370
    -2
100
AcDbBlockReference
  2
_DOTSMALL
 10
5138.098812926737
 20
9365.668505387951
 30
0.0
 41
100.0
 42
100.0
 43
100.0
  0
POINT
  5
16EA5
330
15CE8
100
AcDbEntity
  8
DEFPOINTS
 62
     0
 48
50.0
100
AcDbPoint
 10
5028.098812926733
 20
9149.86028576297
 30
0.0
  0
POINT
  5
16EA6
330
15CE8
100
AcDbEntity
  8
DEFPOINTS
 62
     0
 48
50.0
100
AcDbPoint
 10
5138.098812926737
 20
9149.860285762949
 30
0.0
  0
POINT
  5
16EA7
330
15CE8
100
AcDbEntity
  8
DEFPOINTS
 62
     0
 48
50.0
100
AcDbPoint
 10
5138.098812926737
 20
9365.668505387951
 30
0.0
  0
ENDBLK
  5
15CF3
330
15CE8
100
AcDbEntity
  8
0
 48
50.0
100
AcDbBlockEnd
  0
BLOCK
  5
15CF5
330
15CF4
100
AcDbEntity
  8
0
 48
50.0
100
AcDbBlockBegin
  2
*D21
 70
     1
 10
0.0
 20
0.0
 30
0.0
  3
*D21
  1

  0
LINE
  5
16EA8
330
15CF4
100
AcDbEntity
  8
寸法
 62
     0
 48
50.0
370
    -2
100
AcDbLine
 10
4188.098812926734
 20
9169.860285762883
 30
0.0
 11
4188.098812926734
 21
9425.668505387951
 31
0.0
  0
LINE
  5
16EA9
330
15CF4
100
AcDbEntity
  8
寸法
 62
     0
 48
50.0
370
    -2
100
AcDbLine
 10
5028.098812926733
 20
9169.86028576297
 30
0.0
 11
5028.098812926733
 21
9425.668505387951
 31
0.0
  0
LINE
  5
16EAA
330
15CF4
100
AcDbEntity
  8
寸法
 62
     0
 48
50.0
370
    -2
100
AcDbLine
 10
4188.098812926734
 20
9365.668505387951
 30
0.0
 11
5028.098812926733
 21
9365.668505387951
 31
0.0
  0
INSERT
  5
16EAB
330
15CF4
100
AcDbEntity
  8
寸法
 62
     0
 48
50.0
370
    -2
100
AcDbBlockReference
  2
_DOTSMALL
 10
4188.098812926734
 20
9365.668505387951
 30
0.0
 41
100.0
 42
100.0
 43
100.0
 50
180.0
  0
INSERT
  5
16EAC
330
15CF4
100
AcDbEntity
  8
寸法
 62
     0
 48
50.0
370
    -2
100
AcDbBlockReference
  2
_DOTSMALL
 10
5028.098812926733
 20
9365.668505387951
 30
0.0
 41
100.0
 42
100.0
 43
100.0
  0
MTEXT
  5
16EAD
330
15CF4
100
AcDbEntity
  8
寸法
 62
     7
 48
50.0
100
AcDbMText
 10
4608.098812926734
 20
9465.680316411575
 30
0.0
 40
120.0
 41
0.0
 71
     5
 72
     1
  1
\A1;2X420=840
  7
STYLE1
 73
     1
 44
1.0
1001
ACAD
1000
MTEXTBEGIN
1070
    73
1070
     1
1070
    44
1040
1.0
1070
    74
1070
     0
1000
MTEXTEND
  0
POINT
  5
16EAE
330
15CF4
100
AcDbEntity
  8
DEFPOINTS
 62
     0
 48
50.0
100
AcDbPoint
 10
4188.098812926734
 20
9149.860285762882
 30
0.0
  0
POINT
  5
16EAF
330
15CF4
100
AcDbEntity
  8
DEFPOINTS
 62
     0
 48
50.0
100
AcDbPoint
 10
5028.098812926733
 20
9149.86028576297
 30
0.0
  0
POINT
  5
16EB0
330
15CF4
100
AcDbEntity
  8
DEFPOINTS
 62
     0
 48
50.0
100
AcDbPoint
 10
5028.098812926733
 20
9365.668505387951
 30
0.0
  0
ENDBLK
  5
15CFF
330
15CF4
100
AcDbEntity
  8
0
 48
50.0
100
AcDbBlockEnd
  0
BLOCK
  5
15EA2
330
15EA1
100
AcDbEntity
  8
0
 48
50.0
100
AcDbBlockBegin
  2
*D22
 70
     1
 10
0.0
 20
0.0
 30
0.0
  3
*D22
  1

  0
LINE
  5
16E84
330
15EA1
100
AcDbEntity
  8
寸法
 62
     0
 48
50.0
370
    -2
100
AcDbLine
 10
7988.098812926732
 20
8179.860285762847
 30
0.0
 11
7988.098812926732
 21
7700.03661796777
 31
0.0
  0
LINE
  5
16E85
330
15EA1
100
AcDbEntity
  8
寸法
 62
     0
 48
50.0
370
    -2
100
AcDbLine
 10
8673.098812926729
 20
8179.86028576281
 30
0.0
 11
8673.098812926729
 21
7700.03661796777
 31
0.0
  0
LINE
  5
16E86
330
15EA1
100
AcDbEntity
  8
寸法
 62
     0
 48
50.0
370
    -2
100
AcDbLine
 10
7988.098812926732
 20
7760.036617967769
 30
0.0
 11
8673.098812926729
 21
7760.036617967769
 31
0.0
  0
INSERT
  5
16E87
330
15EA1
100
AcDbEntity
  8
寸法
 62
     0
 48
50.0
370
    -2
100
AcDbBlockReference
  2
_DOTSMALL
 10
7988.098812926732
 20
7760.036617967769
 30
0.0
 41
100.0
 42
100.0
 43
100.0
 50
180.0
  0
INSERT
  5
16E88
330
15EA1
100
AcDbEntity
  8
寸法
 62
     0
 48
50.0
370
    -2
100
AcDbBlockReference
  2
_DOTSMALL
 10
8673.098812926729
 20
7760.036617967769
 30
0.0
 41
100.0
 42
100.0
 43
100.0
  0
MTEXT
  5
16E89
330
15EA1
100
AcDbEntity
  8
寸法
 62
     7
 48
50.0
100
AcDbMText
 10
8330.59881292673
 20
7960.036617967769
 30
0.0
 40
120.0
 41
0.0
 71
     5
 72
     1
  1
\A1;有効開口部間口\P685
  7
STYLE1
 73
     1
 44
1.0
1001
ACAD
1000
MTEXTBEGIN
1070
    73
1070
     1
1070
    44
1040
1.0
1070
    74
1070
     0
1000
MTEXTEND
  0
POINT
  5
16E8A
330
15EA1
100
AcDbEntity
  8
DEFPOINTS
 62
     0
 48
50.0
100
AcDbPoint
 10
7988.098812926732
 20
8199.860285762847
 30
0.0
  0
POINT
  5
16E8B
330
15EA1
100
AcDbEntity
  8
DEFPOINTS
 62
     0
 48
50.0
100
AcDbPoint
 10
8673.098812926729
 20
8199.86028576281
 30
0.0
  0
POINT
  5
16E8C
330
15EA1
100
AcDbEntity
  8
DEFPOINTS
 62
     0
 48
50.0
100
AcDbPoint
 10
8673.098812926729
 20
7760.036617967769
 30
0.0
  0
ENDBLK
  5
15EAC
330
15EA1
100
AcDbEntity
  8
0
 48
50.0
100
AcDbBlockEnd
  0
BLOCK
  5
15EBB
330
15EBA
100
AcDbEntity
  8
0
 48
50.0
100
AcDbBlockBegin
  2
*D23
 70
     1
 10
0.0
 20
0.0
 30
0.0
  3
*D23
  1

  0
LINE
  5
16E7B
330
15EBA
100
AcDbEntity
  8
寸法
 62
     0
 48
50.0
370
    -2
100
AcDbLine
 10
4188.098812926731
 20
8179.860285762847
 30
0.0
 11
4188.098812926731
 21
7700.03661796777
 31
0.0
  0
LINE
  5
16E7C
330
15EBA
100
AcDbEntity
  8
寸法
 62
     0
 48
50.0
370
    -2
100
AcDbLine
 10
4873.098812926728
 20
8179.86028576281
 30
0.0
 11
4873.098812926728
 21
7700.03661796777
 31
0.0
  0
LINE
  5
16E7D
330
15EBA
100
AcDbEntity
  8
寸法
 62
     0
 48
50.0
370
    -2
100
AcDbLine
 10
4188.098812926731
 20
7760.036617967769
 30
0.0
 11
4873.098812926728
 21
7760.036617967769
 31
0.0
  0
INSERT
  5
16E7E
330
15EBA
100
AcDbEntity
  8
寸法
 62
     0
 48
50.0
370
    -2
100
AcDbBlockReference
  2
_DOTSMALL
 10
4188.098812926731
 20
7760.036617967769
 30
0.0
 41
100.0
 42
100.0
 43
100.0
 50
180.0
  0
INSERT
  5
16E7F
330
15EBA
100
AcDbEntity
  8
寸法
 62
     0
 48
50.0
370
    -2
100
AcDbBlockReference
  2
_DOTSMALL
 10
4873.098812926728
 20
7760.036617967769
 30
0.0
 41
100.0
 42
100.0
 43
100.0
  0
MTEXT
  5
16E80
330
15EBA
100
AcDbEntity
  8
寸法
 62
     7
 48
50.0
100
AcDbMText
 10
4530.598812926729
 20
7860.036617967769
 30
0.0
 40
120.0
 41
0.0
 71
     5
 72
     1
  1
\A1;685
  7
STYLE1
 73
     1
 44
1.0
1001
ACAD
1000
MTEXTBEGIN
1070
    73
1070
     1
1070
    44
1040
1.0
1070
    74
1070
     0
1000
MTEXTEND
  0
POINT
  5
16E81
330
15EBA
100
AcDbEntity
  8
DEFPOINTS
 62
     0
 48
50.0
100
AcDbPoint
 10
4188.098812926731
 20
8199.860285762847
 30
0.0
  0
POINT
  5
16E82
330
15EBA
100
AcDbEntity
  8
DEFPOINTS
 62
     0
 48
50.0
100
AcDbPoint
 10
4873.098812926728
 20
8199.86028576281
 30
0.0
  0
POINT
  5
16E83
330
15EBA
100
AcDbEntity
  8
DEFPOINTS
 62
     0
 48
50.0
100
AcDbPoint
 10
4873.098812926728
 20
7760.036617967769
 30
0.0
  0
ENDBLK
  5
15EC5
330
15EBA
100
AcDbEntity
  8
0
 48
50.0
100
AcDbBlockEnd
  0
BLOCK
  5
167B9
330
167AE
100
AcDbEntity
  8
0
 48
50.0
100
AcDbBlockBegin
  2
*D24
 70
     1
 10
0.0
 20
0.0
 30
0.0
  3
*D24
  1

  0
LINE
  5
16E71
330
167AE
100
AcDbEntity
  8
寸法
 62
     0
 48
50.0
370
    -2
100
AcDbLine
 10
10754.25299942171
 20
5346.607259021753
 30
0.0
 11
10101.35282912769
 21
5371.258290261731
 31
0.0
  0
LINE
  5
16E72
330
167AE
100
AcDbEntity
  8
寸法
 62
     0
 48
50.0
370
    -2
100
AcDbLine
 10
10759.57283357366
 20
5487.506866418637
 30
0.0
 11
10106.67266327948
 21
5512.157897658621
 31
0.0
  0
LINE
  5
16E73
330
167AE
100
AcDbEntity
  8
寸法
 62
     0
 48
50.0
370
    -2
100
AcDbLine
 10
10161.31010887104
 20
5368.994531048201
 30
0.0
 11
10166.62994302284
 21
5509.894138445091
 31
0.0
  0
LINE
  5
16E74
330
167AE
100
AcDbEntity
  8
寸法
 62
     0
 48
50.0
370
    -2
100
AcDbLine
 10
10166.62994302284
 20
5509.894138445091
 30
0.0
 11
10180.21249830403
 21
5869.637816905926
 31
0.0
  0
INSERT
  5
16E75
330
167AE
100
AcDbEntity
  8
寸法
 62
     0
 48
50.0
370
    -2
100
AcDbBlockReference
  2
_DOTSMALL
 10
10161.31010887104
 20
5368.994531048201
 30
0.0
 41
100.0
 42
100.0
 43
100.0
 50
267.8377559871574
  0
INSERT
  5
16E76
330
167AE
100
AcDbEntity
  8
寸法
 62
     0
 48
50.0
370
    -2
100
AcDbBlockReference
  2
_DOTSMALL
 10
10166.62994302284
 20
5509.894138445091
 30
0.0
 41
100.0
 42
100.0
 43
100.0
 50
87.83775598715743
  0
MTEXT
  5
16E77
330
167AE
100
AcDbEntity
  8
寸法
 62
     7
 48
50.0
100
AcDbMText
 10
10075.37888710246
 20
5743.503309484533
 30
0.0
 40
120.0
 41
0.0
 71
     5
 72
     1
  1
\A1;141
  7
STYLE1
 11
0.03772932022548
 21
0.9992879957226159
 31
0.0
 73
     1
 44
1.0
1001
ACAD
1000
MTEXTBEGIN
1070
    73
1070
     1
1070
    44
1040
1.0
1070
    74
1070
     0
1000
MTEXTEND
  0
POINT
  5
16E78
330
167AE
100
AcDbEntity
  8
DEFPOINTS
 62
     0
 48
50.0
100
AcDbPoint
 10
10774.23875933616
 20
5345.852672617243
 30
0.0
  0
POINT
  5
16E79
330
167AE
100
AcDbEntity
  8
DEFPOINTS
 62
     0
 48
50.0
100
AcDbPoint
 10
10779.55859348812
 20
5486.752280014127
 30
0.0
  0
POINT
  5
16E7A
330
167AE
100
AcDbEntity
  8
DEFPOINTS
 62
     0
 48
50.0
100
AcDbPoint
 10
10166.62994302284
 20
5509.894138445091
 30
0.0
  0
ENDBLK
  5
167BA
330
167AE
100
AcDbEntity
  8
0
 48
50.0
100
AcDbBlockEnd
  0
BLOCK
  5
167C5
330
167BB
100
AcDbEntity
  8
0
 48
50.0
100
AcDbBlockBegin
  2
*D25
 70
     1
 10
0.0
 20
0.0
 30
0.0
  3
*D25
  1

  0
LINE
  5
16E68
330
167BB
100
AcDbEntity
  8
寸法
 62
     0
 48
50.0
370
    -2
100
AcDbLine
 10
10798.89619473421
 20
3413.071647548281
 30
0.0
 11
9854.624383093732
 21
3413.071647548281
 31
0.0
  0
LINE
  5
16E69
330
167BB
100
AcDbEntity
  8
寸法
 62
     0
 48
50.0
370
    -2
100
AcDbLine
 10
10738.89619473421
 20
5488.071647548282
 30
0.0
 11
9854.624383093733
 21
5488.071647548284
 31
0.0
  0
LINE
  5
16E6A
330
167BB
100
AcDbEntity
  8
寸法
 62
     0
 48
50.0
370
    -2
100
AcDbLine
 10
9914.62438309373
 20
3413.071647548281
 30
0.0
 11
9914.624383093734
 21
5488.071647548284
 31
0.0
  0
INSERT
  5
16E6B
330
167BB
100
AcDbEntity
  8
寸法
 62
     0
 48
50.0
370
    -2
100
AcDbBlockReference
  2
_DOTSMALL
 10
9914.62438309373
 20
3413.071647548281
 30
0.0
 41
100.0
 42
100.0
 43
100.0
 50
270.0
  0
INSERT
  5
16E6C
330
167BB
100
AcDbEntity
  8
寸法
 62
     0
 48
50.0
370
    -2
100
AcDbBlockReference
  2
_DOTSMALL
 10
9914.624383093734
 20
5488.071647548284
 30
0.0
 41
100.0
 42
100.0
 43
100.0
 50
90.0
  0
MTEXT
  5
16E6D
330
167BB
100
AcDbEntity
  8
寸法
 62
     7
 48
50.0
100
AcDbMText
 10
9814.61257207011
 20
4388.27863796808
 30
0.0
 40
120.0
 41
0.0
 71
     5
 72
     1
  1
\A1;2075
  7
STYLE1
 11
0.0000000000000001
 21
1.0
 31
0.0
 73
     1
 44
1.0
1001
ACAD
1000
MTEXTBEGIN
1070
    73
1070
     1
1070
    44
1040
1.0
1070
    74
1070
     0
1000
MTEXTEND
  0
POINT
  5
16E6E
330
167BB
100
AcDbEntity
  8
DEFPOINTS
 62
     0
 48
50.0
100
AcDbPoint
 10
10818.89619473421
 20
3413.071647548281
 30
0.0
  0
POINT
  5
16E6F
330
167BB
100
AcDbEntity
  8
DEFPOINTS
 62
     0
 48
50.0
100
AcDbPoint
 10
10758.89619473421
 20
5488.071647548282
 30
0.0
  0
POINT
  5
16E70
330
167BB
100
AcDbEntity
  8
DEFPOINTS
 62
     0
 48
50.0
100
AcDbPoint
 10
9914.624383093734
 20
5488.071647548284
 30
0.0
  0
ENDBLK
  5
167C6
330
167BB
100
AcDbEntity
  8
0
 48
50.0
100
AcDbBlockEnd
  0
BLOCK
  5
167D3
330
167C7
100
AcDbEntity
  8
0
 48
50.0
100
AcDbBlockBegin
  2
*D26
 70
     1
 10
0.0
 20
0.0
 30
0.0
  3
*D26
  1

  0
LINE
  5
16E5D
330
167C7
100
AcDbEntity
  8
寸法
 62
     0
 48
50.0
370
    -2
100
AcDbLine
 10
10791.89382468943
 20
3463.071647548283
 30
0.0
 11
10156.933104042
 21
3463.071647548283
 31
0.0
  0
LINE
  5
16E5E
330
167C7
100
AcDbEntity
  8
寸法
 62
     0
 48
50.0
370
    -2
100
AcDbLine
 10
10743.89619473421
 20
3413.071647548281
 30
0.0
 11
10156.933104042
 21
3413.071647548281
 31
0.0
  0
LINE
  5
16E5F
330
167C7
100
AcDbEntity
  8
寸法
 62
     0
 48
50.0
370
    -2
100
AcDbLine
 10
10216.933104042
 20
3463.071647548283
 30
0.0
 11
10216.933104042
 21
3563.071647548283
 31
0.0
  0
LINE
  5
16E60
330
167C7
100
AcDbEntity
  8
寸法
 62
     0
 48
50.0
370
    -2
100
AcDbLine
 10
10216.933104042
 20
3413.071647548281
 30
0.0
 11
10216.933104042
 21
3000.977159359301
 31
0.0
  0
LINE
  5
16E61
330
167C7
100
AcDbEntity
  8
寸法
 62
     0
 48
50.0
370
    -2
100
AcDbLine
 10
10216.933104042
 20
3463.071647548283
 30
0.0
 11
10216.933104042
 21
3413.071647548281
 31
0.0
  0
INSERT
  5
16E62
330
167C7
100
AcDbEntity
  8
寸法
 62
     0
 48
50.0
370
    -2
100
AcDbBlockReference
  2
_DOTSMALL
 10
10216.933104042
 20
3463.071647548283
 30
0.0
 41
100.0
 42
100.0
 43
100.0
 50
270.0
  0
INSERT
  5
16E63
330
167C7
100
AcDbEntity
  8
寸法
 62
     0
 48
50.0
370
    -2
100
AcDbBlockReference
  2
_DOTSMALL
 10
10216.933104042
 20
3413.071647548281
 30
0.0
 41
100.0
 42
100.0
 43
100.0
 50
90.0
  0
MTEXT
  5
16E64
330
167C7
100
AcDbEntity
  8
寸法
 62
     7
 48
50.0
100
AcDbMText
 10
10116.933104042
 20
3107.02440345379
 30
0.0
 40
120.0
 41
0.0
 71
     5
 72
     1
  1
\A1;50
  7
STYLE1
 11
0.0000000000000001
 21
1.0
 31
0.0
 73
     1
 44
1.0
1001
ACAD
1000
MTEXTBEGIN
1070
    73
1070
     1
1070
    44
1040
1.0
1070
    74
1070
     0
1000
MTEXTEND
  0
POINT
  5
16E65
330
167C7
100
AcDbEntity
  8
DEFPOINTS
 62
     0
 48
50.0
100
AcDbPoint
 10
10811.89382468943
 20
3463.071647548283
 30
0.0
  0
POINT
  5
16E66
330
167C7
100
AcDbEntity
  8
DEFPOINTS
 62
     0
 48
50.0
100
AcDbPoint
 10
10763.89619473421
 20
3413.071647548281
 30
0.0
  0
POINT
  5
16E67
330
167C7
100
AcDbEntity
  8
DEFPOINTS
 62
     0
 48
50.0
100
AcDbPoint
 10
10216.933104042
 20
3413.071647548281
 30
0.0
  0
ENDBLK
  5
167D4
330
167C7
100
AcDbEntity
  8
0
 48
50.0
100
AcDbBlockEnd
  0
BLOCK
  5
167DF
330
167D5
100
AcDbEntity
  8
0
 48
50.0
100
AcDbBlockBegin
  2
*D27
 70
     1
 10
0.0
 20
0.0
 30
0.0
  3
*D27
  1

  0
LINE
  5
16E54
330
167D5
100
AcDbEntity
  8
寸法
 62
     0
 48
50.0
370
    -2
100
AcDbLine
 10
10791.89382468943
 20
5253.071647548279
 30
0.0
 11
10156.93310404201
 21
5253.07164754828
 31
0.0
  0
LINE
  5
16E55
330
167D5
100
AcDbEntity
  8
寸法
 62
     0
 48
50.0
370
    -2
100
AcDbLine
 10
10791.89382468943
 20
3463.071647548283
 30
0.0
 11
10156.933104042
 21
3463.071647548283
 31
0.0
  0
LINE
  5
16E56
330
167D5
100
AcDbEntity
  8
寸法
 62
     0
 48
50.0
370
    -2
100
AcDbLine
 10
10216.93310404201
 20
5253.07164754828
 30
0.0
 11
10216.933104042
 21
3463.071647548283
 31
0.0
  0
INSERT
  5
16E57
330
167D5
100
AcDbEntity
  8
寸法
 62
     0
 48
50.0
370
    -2
100
AcDbBlockReference
  2
_DOTSMALL
 10
10216.93310404201
 20
5253.07164754828
 30
0.0
 41
100.0
 42
100.0
 43
100.0
 50
90.0
  0
INSERT
  5
16E58
330
167D5
100
AcDbEntity
  8
寸法
 62
     0
 48
50.0
370
    -2
100
AcDbBlockReference
  2
_DOTSMALL
 10
10216.933104042
 20
3463.071647548283
 30
0.0
 41
100.0
 42
100.0
 43
100.0
 50
270.0
  0
MTEXT
  5
16E59
330
167D5
100
AcDbEntity
  8
寸法
 62
     7
 48
50.0
100
AcDbMText
 10
10116.933104042
 20
4368.106659424666
 30
0.0
 40
120.0
 41
0.0
 71
     5
 72
     1
  1
\A1;1790
  7
STYLE1
 11
0.0000000000000001
 21
1.0
 31
0.0
 73
     1
 44
1.0
1001
ACAD
1000
MTEXTBEGIN
1070
    73
1070
     1
1070
    44
1040
1.0
1070
    74
1070
     0
1000
MTEXTEND
  0
POINT
  5
16E5A
330
167D5
100
AcDbEntity
  8
DEFPOINTS
 62
     0
 48
50.0
100
AcDbPoint
 10
10811.89382468943
 20
5253.071647548279
 30
0.0
  0
POINT
  5
16E5B
330
167D5
100
AcDbEntity
  8
DEFPOINTS
 62
     0
 48
50.0
100
AcDbPoint
 10
10811.89382468943
 20
3463.071647548283
 30
0.0
  0
POINT
  5
16E5C
330
167D5
100
AcDbEntity
  8
DEFPOINTS
 62
     0
 48
50.0
100
AcDbPoint
 10
10216.933104042
 20
3463.071647548283
 30
0.0
  0
ENDBLK
  5
167E0
330
167D5
100
AcDbEntity
  8
0
 48
50.0
100
AcDbBlockEnd
  0
BLOCK
  5
167EB
330
167E1
100
AcDbEntity
  8
0
 48
50.0
100
AcDbBlockBegin
  2
*D28
 70
     1
 10
0.0
 20
0.0
 30
0.0
  3
*D28
  1

  0
LINE
  5
16E4B
330
167E1
100
AcDbEntity
  8
寸法
 62
     0
 48
50.0
370
    -2
100
AcDbLine
 10
11788.89619473421
 20
3413.071647548281
 30
0.0
 11
12533.82335270633
 21
3413.071647548281
 31
0.0
  0
LINE
  5
16E4C
330
167E1
100
AcDbEntity
  8
寸法
 62
     0
 48
50.0
370
    -2
100
AcDbLine
 10
11868.89619473421
 20
5433.07164754828
 30
0.0
 11
12533.82335270633
 21
5433.07164754828
 31
0.0
  0
LINE
  5
16E4D
330
167E1
100
AcDbEntity
  8
寸法
 62
     0
 48
50.0
370
    -2
100
AcDbLine
 10
12473.82335270633
 20
3413.071647548281
 30
0.0
 11
12473.82335270633
 21
5433.07164754828
 31
0.0
  0
INSERT
  5
16E4E
330
167E1
100
AcDbEntity
  8
寸法
 62
     0
 48
50.0
370
    -2
100
AcDbBlockReference
  2
_DOTSMALL
 10
12473.82335270633
 20
3413.071647548281
 30
0.0
 41
100.0
 42
100.0
 43
100.0
 50
270.0
  0
INSERT
  5
16E4F
330
167E1
100
AcDbEntity
  8
寸法
 62
     0
 48
50.0
370
    -2
100
AcDbBlockReference
  2
_DOTSMALL
 10
12473.82335270633
 20
5433.07164754828
 30
0.0
 41
100.0
 42
100.0
 43
100.0
 50
90.0
  0
MTEXT
  5
16E50
330
167E1
100
AcDbEntity
  8
寸法
 62
     7
 48
50.0
100
AcDbMText
 10
12373.81154168271
 20
4423.071647548282
 30
0.0
 40
120.0
 41
0.0
 71
     5
 72
     1
  1
\A1;2020
  7
STYLE1
 11
0.0000000000000001
 21
1.0
 31
0.0
 73
     1
 44
1.0
1001
ACAD
1000
MTEXTBEGIN
1070
    73
1070
     1
1070
    44
1040
1.0
1070
    74
1070
     0
1000
MTEXTEND
  0
POINT
  5
16E51
330
167E1
100
AcDbEntity
  8
DEFPOINTS
 62
     0
 48
50.0
100
AcDbPoint
 10
11768.89619473421
 20
3413.071647548281
 30
0.0
  0
POINT
  5
16E52
330
167E1
100
AcDbEntity
  8
DEFPOINTS
 62
     0
 48
50.0
100
AcDbPoint
 10
11848.89619473421
 20
5433.07164754828
 30
0.0
  0
POINT
  5
16E53
330
167E1
100
AcDbEntity
  8
DEFPOINTS
 62
     0
 48
50.0
100
AcDbPoint
 10
12473.82335270633
 20
5433.07164754828
 30
0.0
  0
ENDBLK
  5
167EC
330
167E1
100
AcDbEntity
  8
0
 48
50.0
100
AcDbBlockEnd
  0
BLOCK
  5
167F7
330
167ED
100
AcDbEntity
  8
0
 48
50.0
100
AcDbBlockBegin
  2
*D29
 70
     1
 10
0.0
 20
0.0
 30
0.0
  3
*D29
  1

  0
LINE
  5
16E42
330
167ED
100
AcDbEntity
  8
寸法
 62
     0
 48
50.0
370
    -2
100
AcDbLine
 10
11768.89619473421
 20
5454.882327159932
 30
0.0
 11
11768.89619473421
 21
5946.729101127584
 31
0.0
  0
LINE
  5
16E43
330
167ED
100
AcDbEntity
  8
寸法
 62
     0
 48
50.0
370
    -2
100
AcDbLine
 10
10818.89619473421
 20
5504.073265671255
 30
0.0
 11
10818.89619473421
 21
5946.729101127584
 31
0.0
  0
LINE
  5
16E44
330
167ED
100
AcDbEntity
  8
寸法
 62
     0
 48
50.0
370
    -2
100
AcDbLine
 10
11768.89619473421
 20
5886.729101127583
 30
0.0
 11
10818.89619473421
 21
5886.729101127583
 31
0.0
  0
INSERT
  5
16E45
330
167ED
100
AcDbEntity
  8
寸法
 62
     0
 48
50.0
370
    -2
100
AcDbBlockReference
  2
_DOTSMALL
 10
11768.89619473421
 20
5886.729101127583
 30
0.0
 41
100.0
 42
100.0
 43
100.0
  0
INSERT
  5
16E46
330
167ED
100
AcDbEntity
  8
寸法
 62
     0
 48
50.0
370
    -2
100
AcDbBlockReference
  2
_DOTSMALL
 10
10818.89619473421
 20
5886.729101127583
 30
0.0
 41
100.0
 42
100.0
 43
100.0
 50
180.0
  0
MTEXT
  5
16E47
330
167ED
100
AcDbEntity
  8
寸法
 62
     7
 48
50.0
100
AcDbMText
 10
11293.89619473421
 20
5986.729101127583
 30
0.0
 40
120.0
 41
0.0
 71
     5
 72
     1
  1
\A1;柱外寸法950
  7
STYLE1
 73
     1
 44
1.0
1001
ACAD
1000
MTEXTBEGIN
1070
    73
1070
     1
1070
    44
1040
1.0
1070
    74
1070
     0
1000
MTEXTEND
  0
POINT
  5
16E48
330
167ED
100
AcDbEntity
  8
DEFPOINTS
 62
     0
 48
50.0
100
AcDbPoint
 10
11768.89619473421
 20
5434.882327159932
 30
0.0
  0
POINT
  5
16E49
330
167ED
100
AcDbEntity
  8
DEFPOINTS
 62
     0
 48
50.0
100
AcDbPoint
 10
10818.89619473421
 20
5484.073265671256
 30
0.0
  0
POINT
  5
16E4A
330
167ED
100
AcDbEntity
  8
DEFPOINTS
 62
     0
 48
50.0
100
AcDbPoint
 10
10818.89619473421
 20
5886.729101127583
 30
0.0
  0
ENDBLK
  5
167F8
330
167ED
100
AcDbEntity
  8
0
 48
50.0
100
AcDbBlockEnd
  0
BLOCK
  5
16805
330
167F9
100
AcDbEntity
  8
0
 48
50.0
100
AcDbBlockBegin
  2
*D30
 70
     1
 10
0.0
 20
0.0
 30
0.0
  3
*D30
  1

  0
LINE
  5
16E37
330
167F9
100
AcDbEntity
  8
寸法
 62
     0
 48
50.0
370
    -2
100
AcDbLine
 10
10818.89619473421
 20
5504.073265671255
 30
0.0
 11
10818.89619473421
 21
5946.729101127584
 31
0.0
  0
LINE
  5
16E38
330
167F9
100
AcDbEntity
  8
寸法
 62
     0
 48
50.0
370
    -2
100
AcDbLine
 10
10758.89619473421
 20
5508.071647548284
 30
0.0
 11
10758.89619473421
 21
5946.729101127584
 31
0.0
  0
LINE
  5
16E39
330
167F9
100
AcDbEntity
  8
寸法
 62
     0
 48
50.0
370
    -2
100
AcDbLine
 10
10818.89619473421
 20
5886.729101127583
 30
0.0
 11
10918.89619473421
 21
5886.729101127583
 31
0.0
  0
LINE
  5
16E3A
330
167F9
100
AcDbEntity
  8
寸法
 62
     0
 48
50.0
370
    -2
100
AcDbLine
 10
10758.89619473421
 20
5886.729101127583
 30
0.0
 11
10339.62060418303
 21
5886.729101127583
 31
0.0
  0
LINE
  5
16E3B
330
167F9
100
AcDbEntity
  8
寸法
 62
     0
 48
50.0
370
    -2
100
AcDbLine
 10
10818.89619473421
 20
5886.729101127583
 30
0.0
 11
10758.89619473421
 21
5886.729101127583
 31
0.0
  0
INSERT
  5
16E3C
330
167F9
100
AcDbEntity
  8
寸法
 62
     0
 48
50.0
370
    -2
100
AcDbBlockReference
  2
_DOTSMALL
 10
10818.89619473421
 20
5886.729101127583
 30
0.0
 41
100.0
 42
100.0
 43
100.0
 50
180.0
  0
INSERT
  5
16E3D
330
167F9
100
AcDbEntity
  8
寸法
 62
     0
 48
50.0
370
    -2
100
AcDbBlockReference
  2
_DOTSMALL
 10
10758.89619473421
 20
5886.729101127583
 30
0.0
 41
100.0
 42
100.0
 43
100.0
  0
MTEXT
  5
16E3E
330
167F9
100
AcDbEntity
  8
寸法
 62
     7
 48
50.0
100
AcDbMText
 10
10449.25839945862
 20
5986.729101127583
 30
0.0
 40
120.0
 41
0.0
 71
     5
 72
     1
  1
\A1;60
  7
STYLE1
 73
     1
 44
1.0
1001
ACAD
1000
MTEXTBEGIN
1070
    73
1070
     1
1070
    44
1040
1.0
1070
    74
1070
     0
1000
MTEXTEND
  0
POINT
  5
16E3F
330
167F9
100
AcDbEntity
  8
DEFPOINTS
 62
     0
 48
50.0
100
AcDbPoint
 10
10818.89619473421
 20
5484.073265671256
 30
0.0
  0
POINT
  5
16E40
330
167F9
100
AcDbEntity
  8
DEFPOINTS
 62
     0
 48
50.0
100
AcDbPoint
 10
10758.89619473421
 20
5488.071647548284
 30
0.0
  0
POINT
  5
16E41
330
167F9
100
AcDbEntity
  8
DEFPOINTS
 62
     0
 48
50.0
100
AcDbPoint
 10
10758.89619473421
 20
5886.729101127583
 30
0.0
  0
ENDBLK
  5
16806
330
167F9
100
AcDbEntity
  8
0
 48
50.0
100
AcDbBlockEnd
  0
BLOCK
  5
16811
330
16807
100
AcDbEntity
  8
0
 48
50.0
100
AcDbBlockBegin
  2
*D31
 70
     1
 10
0.0
 20
0.0
 30
0.0
  3
*D31
  1

  0
LINE
  5
16E2E
330
16807
100
AcDbEntity
  8
寸法
 62
     0
 48
50.0
370
    -2
100
AcDbLine
 10
11848.89619473421
 20
5453.071647548281
 30
0.0
 11
11848.89619473421
 21
6156.322975549034
 31
0.0
  0
LINE
  5
16E2F
330
16807
100
AcDbEntity
  8
寸法
 62
     0
 48
50.0
370
    -2
100
AcDbLine
 10
10758.89619473421
 20
5508.071647548284
 30
0.0
 11
10758.89619473421
 21
6156.322975549034
 31
0.0
  0
LINE
  5
16E30
330
16807
100
AcDbEntity
  8
寸法
 62
     0
 48
50.0
370
    -2
100
AcDbLine
 10
11848.89619473421
 20
6096.322975549034
 30
0.0
 11
10758.89619473421
 21
6096.322975549034
 31
0.0
  0
INSERT
  5
16E31
330
16807
100
AcDbEntity
  8
寸法
 62
     0
 48
50.0
370
    -2
100
AcDbBlockReference
  2
_DOTSMALL
 10
11848.89619473421
 20
6096.322975549034
 30
0.0
 41
100.0
 42
100.0
 43
100.0
  0
INSERT
  5
16E32
330
16807
100
AcDbEntity
  8
寸法
 62
     0
 48
50.0
370
    -2
100
AcDbBlockReference
  2
_DOTSMALL
 10
10758.89619473421
 20
6096.322975549034
 30
0.0
 41
100.0
 42
100.0
 43
100.0
 50
180.0
  0
MTEXT
  5
16E33
330
16807
100
AcDbEntity
  8
寸法
 62
     7
 48
50.0
100
AcDbMText
 10
11282.01490941463
 20
6196.322975549033
 30
0.0
 40
120.0
 41
0.0
 71
     5
 72
     1
  1
\A1;1090
  7
STYLE1
 73
     1
 44
1.0
1001
ACAD
1000
MTEXTBEGIN
1070
    73
1070
     1
1070
    44
1040
1.0
1070
    74
1070
     0
1000
MTEXTEND
  0
POINT
  5
16E34
330
16807
100
AcDbEntity
  8
DEFPOINTS
 62
     0
 48
50.0
100
AcDbPoint
 10
11848.89619473421
 20
5433.07164754828
 30
0.0
  0
POINT
  5
16E35
330
16807
100
AcDbEntity
  8
DEFPOINTS
 62
     0
 48
50.0
100
AcDbPoint
 10
10758.89619473421
 20
5488.071647548284
 30
0.0
  0
POINT
  5
16E36
330
16807
100
AcDbEntity
  8
DEFPOINTS
 62
     0
 48
50.0
100
AcDbPoint
 10
10758.89619473421
 20
6096.322975549034
 30
0.0
  0
ENDBLK
  5
16812
330
16807
100
AcDbEntity
  8
0
 48
50.0
100
AcDbBlockEnd
  0
BLOCK
  5
1681E
330
16813
100
AcDbEntity
  8
0
 48
50.0
100
AcDbBlockBegin
  2
*D32
 70
     1
 10
0.0
 20
0.0
 30
0.0
  3
*D32
  1

  0
LINE
  5
16E24
330
16813
100
AcDbEntity
  8
寸法
 62
     0
 48
50.0
370
    -2
100
AcDbLine
 10
11768.89619473421
 20
5454.882327159932
 30
0.0
 11
11768.89619473421
 21
5946.729101127584
 31
0.0
  0
LINE
  5
16E25
330
16813
100
AcDbEntity
  8
寸法
 62
     0
 48
50.0
370
    -2
100
AcDbLine
 10
11848.89619473421
 20
5453.071647548281
 30
0.0
 11
11848.89619473421
 21
5946.729101127584
 31
0.0
  0
LINE
  5
16E26
330
16813
100
AcDbEntity
  8
寸法
 62
     0
 48
50.0
370
    -2
100
AcDbLine
 10
11768.89619473421
 20
5886.729101127583
 30
0.0
 11
11848.89619473421
 21
5886.729101127583
 31
0.0
  0
LINE
  5
16E27
330
16813
100
AcDbEntity
  8
寸法
 62
     0
 48
50.0
370
    -2
100
AcDbLine
 10
11848.89619473421
 20
5886.729101127583
 30
0.0
 11
12160.99068292318
 21
5886.729101127583
 31
0.0
  0
INSERT
  5
16E28
330
16813
100
AcDbEntity
  8
寸法
 62
     0
 48
50.0
370
    -2
100
AcDbBlockReference
  2
_DOTSMALL
 10
11768.89619473421
 20
5886.729101127583
 30
0.0
 41
100.0
 42
100.0
 43
100.0
 50
180.0
  0
INSERT
  5
16E29
330
16813
100
AcDbEntity
  8
寸法
 62
     0
 48
50.0
370
    -2
100
AcDbBlockReference
  2
_DOTSMALL
 10
11848.89619473421
 20
5886.729101127583
 30
0.0
 41
100.0
 42
100.0
 43
100.0
  0
MTEXT
  5
16E2A
330
16813
100
AcDbEntity
  8
寸法
 62
     7
 48
50.0
100
AcDbMText
 10
12054.9434388287
 20
5986.729101127583
 30
0.0
 40
120.0
 41
0.0
 71
     5
 72
     1
  1
\A1;80
  7
STYLE1
 73
     1
 44
1.0
1001
ACAD
1000
MTEXTBEGIN
1070
    73
1070
     1
1070
    44
1040
1.0
1070
    74
1070
     0
1000
MTEXTEND
  0
POINT
  5
16E2B
330
16813
100
AcDbEntity
  8
DEFPOINTS
 62
     0
 48
50.0
100
AcDbPoint
 10
11768.89619473421
 20
5434.882327159932
 30
0.0
  0
POINT
  5
16E2C
330
16813
100
AcDbEntity
  8
DEFPOINTS
 62
     0
 48
50.0
100
AcDbPoint
 10
11848.89619473421
 20
5433.07164754828
 30
0.0
  0
POINT
  5
16E2D
330
16813
100
AcDbEntity
  8
DEFPOINTS
 62
     0
 48
50.0
100
AcDbPoint
 10
11848.89619473421
 20
5886.729101127583
 30
0.0
  0
ENDBLK
  5
1681F
330
16813
100
AcDbEntity
  8
0
 48
50.0
100
AcDbBlockEnd
  0
BLOCK
  5
16C0C
330
16C02
100
AcDbEntity
  8
0
 48
50.0
100
AcDbBlockBegin
  2
*D33
 70
     1
 10
0.0
 20
0.0
 30
0.0
  3
*D33
  1

  0
LINE
  5
16E1B
330
16C02
100
AcDbEntity
  8
寸法
 62
     0
 48
50.0
370
    -2
100
AcDbLine
 10
7956.739835755711
 20
8650.360285762824
 30
0.0
 11
7887.328371764486
 21
8391.313175519838
 31
0.0
  0
LINE
  5
16E1C
330
16C02
100
AcDbEntity
  8
寸法
 62
     0
 48
50.0
370
    -2
100
AcDbLine
 10
8848.73983575572
 20
8650.36028576282
 30
0.0
 11
8779.328371764499
 21
8391.313175519838
 31
0.0
  0
LINE
  5
16E1D
330
16C02
100
AcDbEntity
  8
寸法
 62
     0
 48
50.0
370
    -2
100
AcDbLine
 10
7903.405323310355
 20
8451.313175519839
 30
0.0
 11
8795.405323310367
 21
8451.313175519839
 31
0.0
  0
MTEXT
  5
16E1E
330
16C02
100
AcDbEntity
  8
寸法
 62
     7
 48
50.0
100
AcDbMText
 10
8446.75347148601
 20
8556.398451296368
 30
0.0
 40
120.0
 41
0.0
 71
     5
 72
     1
  1
\A1;892
  7
STYLE1
 73
     1
 44
1.0
1001
ACAD
1000
MTEXTBEGIN
1070
    73
1070
     1
1070
    44
1040
1.0
1070
    74
1070
     0
1000
MTEXTEND
  0
INSERT
  5
16E1F
330
16C02
100
AcDbEntity
  8
寸法
 62
     0
 48
50.0
370
    -2
100
AcDbBlockReference
  2
_DOTSMALL
 10
7903.405323310355
 20
8451.313175519839
 30
0.0
 41
100.0
 42
100.0
 43
100.0
 50
180.0
  0
INSERT
  5
16E20
330
16C02
100
AcDbEntity
  8
寸法
 62
     0
 48
50.0
370
    -2
100
AcDbBlockReference
  2
_DOTSMALL
 10
8795.405323310367
 20
8451.313175519839
 30
0.0
 41
100.0
 42
100.0
 43
100.0
  0
POINT
  5
16E21
330
16C02
100
AcDbEntity
  8
DEFPOINTS
 62
     0
 48
50.0
100
AcDbPoint
 10
7962.098819604332
 20
8670.360285762823
 30
0.0
  0
POINT
  5
16E22
330
16C02
100
AcDbEntity
  8
DEFPOINTS
 62
     0
 48
50.0
100
AcDbPoint
 10
8854.098819604343
 20
8670.36028576282
 30
0.0
  0
POINT
  5
16E23
330
16C02
100
AcDbEntity
  8
DEFPOINTS
 62
     0
 48
50.0
100
AcDbPoint
 10
8795.405323310367
 20
8451.313175519839
 30
0.0
  0
ENDBLK
  5
16C0D
330
16C02
100
AcDbEntity
  8
0
 48
50.0
100
AcDbBlockEnd
  0
BLOCK
  5
16C18
330
16C0E
100
AcDbEntity
  8
0
 48
50.0
100
AcDbBlockBegin
  2
*D34
 70
     1
 10
0.0
 20
0.0
 30
0.0
  3
*D34
  1

  0
LINE
  5
16E12
330
16C0E
100
AcDbEntity
  8
寸法
 62
     0
 48
50.0
370
    -2
100
AcDbLine
 10
7006.739835755711
 20
8650.360285762824
 30
0.0
 11
6937.328371764486
 21
8391.313175519838
 31
0.0
  0
LINE
  5
16E13
330
16C0E
100
AcDbEntity
  8
寸法
 62
     0
 48
50.0
370
    -2
100
AcDbLine
 10
7898.739835755721
 20
8650.36028576282
 30
0.0
 11
7829.328371764498
 21
8391.313175519838
 31
0.0
  0
LINE
  5
16E14
330
16C0E
100
AcDbEntity
  8
寸法
 62
     0
 48
50.0
370
    -2
100
AcDbLine
 10
6953.405323310355
 20
8451.313175519839
 30
0.0
 11
7845.405323310366
 21
8451.313175519839
 31
0.0
  0
MTEXT
  5
16E15
330
16C0E
100
AcDbEntity
  8
寸法
 62
     7
 48
50.0
100
AcDbMText
 10
7496.753471486009
 20
8556.398451296368
 30
0.0
 40
120.0
 41
0.0
 71
     5
 72
     1
  1
\A1;892
  7
STYLE1
 73
     1
 44
1.0
1001
ACAD
1000
MTEXTBEGIN
1070
    73
1070
     1
1070
    44
1040
1.0
1070
    74
1070
     0
1000
MTEXTEND
  0
INSERT
  5
16E16
330
16C0E
100
AcDbEntity
  8
寸法
 62
     0
 48
50.0
370
    -2
100
AcDbBlockReference
  2
_DOTSMALL
 10
6953.405323310355
 20
8451.313175519839
 30
0.0
 41
100.0
 42
100.0
 43
100.0
 50
180.0
  0
INSERT
  5
16E17
330
16C0E
100
AcDbEntity
  8
寸法
 62
     0
 48
50.0
370
    -2
100
AcDbBlockReference
  2
_DOTSMALL
 10
7845.405323310366
 20
8451.313175519839
 30
0.0
 41
100.0
 42
100.0
 43
100.0
  0
POINT
  5
16E18
330
16C0E
100
AcDbEntity
  8
DEFPOINTS
 62
     0
 48
50.0
100
AcDbPoint
 10
7012.098819604332
 20
8670.360285762823
 30
0.0
  0
POINT
  5
16E19
330
16C0E
100
AcDbEntity
  8
DEFPOINTS
 62
     0
 48
50.0
100
AcDbPoint
 10
7904.098819604344
 20
8670.36028576282
 30
0.0
  0
POINT
  5
16E1A
330
16C0E
100
AcDbEntity
  8
DEFPOINTS
 62
     0
 48
50.0
100
AcDbPoint
 10
7845.405323310366
 20
8451.313175519839
 30
0.0
  0
ENDBLK
  5
16C19
330
16C0E
100
AcDbEntity
  8
0
 48
50.0
100
AcDbBlockEnd
  0
BLOCK
  5
16C24
330
16C1A
100
AcDbEntity
  8
0
 48
50.0
100
AcDbBlockBegin
  2
*D35
 70
     1
 10
0.0
 20
0.0
 30
0.0
  3
*D35
  1

  0
LINE
  5
16E09
330
16C1A
100
AcDbEntity
  8
寸法
 62
     0
 48
50.0
370
    -2
100
AcDbLine
 10
6056.73983575571
 20
8650.360285762824
 30
0.0
 11
5987.328371764487
 21
8391.313175519838
 31
0.0
  0
LINE
  5
16E0A
330
16C1A
100
AcDbEntity
  8
寸法
 62
     0
 48
50.0
370
    -2
100
AcDbLine
 10
6948.739835755721
 20
8650.36028576282
 30
0.0
 11
6879.328371764498
 21
8391.313175519838
 31
0.0
  0
LINE
  5
16E0B
330
16C1A
100
AcDbEntity
  8
寸法
 62
     0
 48
50.0
370
    -2
100
AcDbLine
 10
6003.405323310354
 20
8451.313175519839
 30
0.0
 11
6895.405323310367
 21
8451.313175519839
 31
0.0
  0
MTEXT
  5
16E0C
330
16C1A
100
AcDbEntity
  8
寸法
 62
     7
 48
50.0
100
AcDbMText
 10
6553.224634380254
 20
8554.597290912836
 30
0.0
 40
120.0
 41
0.0
 71
     5
 72
     1
  1
\A1;892
  7
STYLE1
 73
     1
 44
1.0
1001
ACAD
1000
MTEXTBEGIN
1070
    73
1070
     1
1070
    44
1040
1.0
1070
    74
1070
     0
1000
MTEXTEND
  0
INSERT
  5
16E0D
330
16C1A
100
AcDbEntity
  8
寸法
 62
     0
 48
50.0
370
    -2
100
AcDbBlockReference
  2
_DOTSMALL
 10
6003.405323310354
 20
8451.313175519839
 30
0.0
 41
100.0
 42
100.0
 43
100.0
 50
180.0
  0
INSERT
  5
16E0E
330
16C1A
100
AcDbEntity
  8
寸法
 62
     0
 48
50.0
370
    -2
100
AcDbBlockReference
  2
_DOTSMALL
 10
6895.405323310367
 20
8451.313175519839
 30
0.0
 41
100.0
 42
100.0
 43
100.0
  0
POINT
  5
16E0F
330
16C1A
100
AcDbEntity
  8
DEFPOINTS
 62
     0
 48
50.0
100
AcDbPoint
 10
6062.098819604333
 20
8670.360285762823
 30
0.0
  0
POINT
  5
16E10
330
16C1A
100
AcDbEntity
  8
DEFPOINTS
 62
     0
 48
50.0
100
AcDbPoint
 10
6954.098819604344
 20
8670.36028576282
 30
0.0
  0
POINT
  5
16E11
330
16C1A
100
AcDbEntity
  8
DEFPOINTS
 62
     0
 48
50.0
100
AcDbPoint
 10
6895.405323310367
 20
8451.313175519839
 30
0.0
  0
ENDBLK
  5
16C25
330
16C1A
100
AcDbEntity
  8
0
 48
50.0
100
AcDbBlockEnd
  0
BLOCK
  5
16C30
330
16C26
100
AcDbEntity
  8
0
 48
50.0
100
AcDbBlockBegin
  2
*D36
 70
     1
 10
0.0
 20
0.0
 30
0.0
  3
*D36
  1

  0
LINE
  5
16E00
330
16C26
100
AcDbEntity
  8
寸法
 62
     0
 48
50.0
370
    -2
100
AcDbLine
 10
5106.73983575571
 20
8650.360285762824
 30
0.0
 11
5037.328371764487
 21
8391.313175519838
 31
0.0
  0
LINE
  5
16E01
330
16C26
100
AcDbEntity
  8
寸法
 62
     0
 48
50.0
370
    -2
100
AcDbLine
 10
5998.739835755721
 20
8650.36028576282
 30
0.0
 11
5929.328371764498
 21
8391.313175519838
 31
0.0
  0
LINE
  5
16E02
330
16C26
100
AcDbEntity
  8
寸法
 62
     0
 48
50.0
370
    -2
100
AcDbLine
 10
5053.405323310354
 20
8451.313175519839
 30
0.0
 11
5945.405323310366
 21
8451.313175519839
 31
0.0
  0
MTEXT
  5
16E03
330
16C26
100
AcDbEntity
  8
寸法
 62
     7
 48
50.0
100
AcDbMText
 10
5603.224634380254
 20
8554.597290912836
 30
0.0
 40
120.0
 41
0.0
 71
     5
 72
     1
  1
\A1;892
  7
STYLE1
 73
     1
 44
1.0
1001
ACAD
1000
MTEXTBEGIN
1070
    73
1070
     1
1070
    44
1040
1.0
1070
    74
1070
     0
1000
MTEXTEND
  0
INSERT
  5
16E04
330
16C26
100
AcDbEntity
  8
寸法
 62
     0
 48
50.0
370
    -2
100
AcDbBlockReference
  2
_DOTSMALL
 10
5053.405323310354
 20
8451.313175519839
 30
0.0
 41
100.0
 42
100.0
 43
100.0
 50
180.0
  0
INSERT
  5
16E05
330
16C26
100
AcDbEntity
  8
寸法
 62
     0
 48
50.0
370
    -2
100
AcDbBlockReference
  2
_DOTSMALL
 10
5945.405323310366
 20
8451.313175519839
 30
0.0
 41
100.0
 42
100.0
 43
100.0
  0
POINT
  5
16E06
330
16C26
100
AcDbEntity
  8
DEFPOINTS
 62
     0
 48
50.0
100
AcDbPoint
 10
5112.098819604333
 20
8670.360285762823
 30
0.0
  0
POINT
  5
16E07
330
16C26
100
AcDbEntity
  8
DEFPOINTS
 62
     0
 48
50.0
100
AcDbPoint
 10
6004.098819604344
 20
8670.36028576282
 30
0.0
  0
POINT
  5
16E08
330
16C26
100
AcDbEntity
  8
DEFPOINTS
 62
     0
 48
50.0
100
AcDbPoint
 10
5945.405323310366
 20
8451.313175519839
 30
0.0
  0
ENDBLK
  5
16C31
330
16C26
100
AcDbEntity
  8
0
 48
50.0
100
AcDbBlockEnd
  0
BLOCK
  5
16C62
330
16C58
100
AcDbEntity
  8
0
 48
50.0
100
AcDbBlockBegin
  2
*D37
 70
     1
 10
0.0
 20
0.0
 30
0.0
  3
*D37
  1

  0
LINE
  5
16DF7
330
16C58
100
AcDbEntity
  8
寸法
 62
     0
 48
50.0
370
    -2
100
AcDbLine
 10
4156.73983575571
 20
8650.360285762824
 30
0.0
 11
4087.328371764487
 21
8391.313175519838
 31
0.0
  0
LINE
  5
16DF8
330
16C58
100
AcDbEntity
  8
寸法
 62
     0
 48
50.0
370
    -2
100
AcDbLine
 10
5048.739835755721
 20
8650.36028576282
 30
0.0
 11
4979.328371764498
 21
8391.313175519838
 31
0.0
  0
LINE
  5
16DF9
330
16C58
100
AcDbEntity
  8
寸法
 62
     0
 48
50.0
370
    -2
100
AcDbLine
 10
4103.405323310354
 20
8451.313175519839
 30
0.0
 11
4995.405323310365
 21
8451.313175519839
 31
0.0
  0
MTEXT
  5
16DFA
330
16C58
100
AcDbEntity
  8
寸法
 62
     7
 48
50.0
100
AcDbMText
 10
4653.224634380254
 20
8554.597290912836
 30
0.0
 40
120.0
 41
0.0
 71
     5
 72
     1
  1
\A1;892
  7
STYLE1
 73
     1
 44
1.0
1001
ACAD
1000
MTEXTBEGIN
1070
    73
1070
     1
1070
    44
1040
1.0
1070
    74
1070
     0
1000
MTEXTEND
  0
INSERT
  5
16DFB
330
16C58
100
AcDbEntity
  8
寸法
 62
     0
 48
50.0
370
    -2
100
AcDbBlockReference
  2
_DOTSMALL
 10
4103.405323310354
 20
8451.313175519839
 30
0.0
 41
100.0
 42
100.0
 43
100.0
 50
180.0
  0
INSERT
  5
16DFC
330
16C58
100
AcDbEntity
  8
寸法
 62
     0
 48
50.0
370
    -2
100
AcDbBlockReference
  2
_DOTSMALL
 10
4995.405323310365
 20
8451.313175519839
 30
0.0
 41
100.0
 42
100.0
 43
100.0
  0
POINT
  5
16DFD
330
16C58
100
AcDbEntity
  8
DEFPOINTS
 62
     0
 48
50.0
100
AcDbPoint
 10
4162.098819604333
 20
8670.360285762823
 30
0.0
  0
POINT
  5
16DFE
330
16C58
100
AcDbEntity
  8
DEFPOINTS
 62
     0
 48
50.0
100
AcDbPoint
 10
5054.098819604344
 20
8670.36028576282
 30
0.0
  0
POINT
  5
16DFF
330
16C58
100
AcDbEntity
  8
DEFPOINTS
 62
     0
 48
50.0
100
AcDbPoint
 10
4995.405323310365
 20
8451.313175519839
 30
0.0
  0
ENDBLK
  5
16C63
330
16C58
100
AcDbEntity
  8
0
 48
50.0
100
AcDbBlockEnd
  0
BLOCK
  5
16C8A
330
16C7E
100
AcDbEntity
  8
0
 48
50.0
100
AcDbBlockBegin
  2
*D38
 70
     1
 10
0.0
 20
0.0
 30
0.0
  3
*D38
  1

  0
LINE
  5
16DDA
330
16C7E
100
AcDbEntity
  8
寸法
 62
     0
 48
50.0
370
    -2
100
AcDbLine
 10
4133.098812926728
 20
5508.071647548288
 30
0.0
 11
4133.098812926728
 21
5760.613232806525
 31
0.0
  0
LINE
  5
16DDB
330
16C7E
100
AcDbEntity
  8
寸法
 62
     0
 48
50.0
370
    -2
100
AcDbLine
 10
4083.098812926728
 20
5508.071647548286
 30
0.0
 11
4083.098812926728
 21
5760.613232806525
 31
0.0
  0
LINE
  5
16DDC
330
16C7E
100
AcDbEntity
  8
寸法
 62
     0
 48
50.0
370
    -2
100
AcDbLine
 10
4133.098812926728
 20
5700.613232806524
 30
0.0
 11
4233.098812926728
 21
5700.613232806524
 31
0.0
  0
LINE
  5
16DDD
330
16C7E
100
AcDbEntity
  8
寸法
 62
     0
 48
50.0
370
    -2
100
AcDbLine
 10
4083.098812926728
 20
5700.613232806524
 30
0.0
 11
3663.566287457993
 21
5700.613232806524
 31
0.0
  0
LINE
  5
16DDE
330
16C7E
100
AcDbEntity
  8
寸法
 62
     0
 48
50.0
370
    -2
100
AcDbLine
 10
4133.098812926728
 20
5700.613232806524
 30
0.0
 11
4083.098812926728
 21
5700.613232806524
 31
0.0
  0
INSERT
  5
16DDF
330
16C7E
100
AcDbEntity
  8
寸法
 62
     0
 48
50.0
370
    -2
100
AcDbBlockReference
  2
_DOTSMALL
 10
4133.098812926728
 20
5700.613232806524
 30
0.0
 41
100.0
 42
100.0
 43
100.0
 50
180.0
  0
INSERT
  5
16DE0
330
16C7E
100
AcDbEntity
  8
寸法
 62
     0
 48
50.0
370
    -2
100
AcDbBlockReference
  2
_DOTSMALL
 10
4083.098812926728
 20
5700.613232806524
 30
0.0
 41
100.0
 42
100.0
 43
100.0
  0
MTEXT
  5
16DE1
330
16C7E
100
AcDbEntity
  8
寸法
 62
     7
 48
50.0
100
AcDbMText
 10
3769.613531552481
 20
5800.613232806525
 30
0.0
 40
120.0
 41
0.0
 71
     5
 72
     1
  1
\A1;50
  7
STYLE1
 73
     1
 44
1.0
1001
ACAD
1000
MTEXTBEGIN
1070
    73
1070
     1
1070
    44
1040
1.0
1070
    74
1070
     0
1000
MTEXTEND
  0
POINT
  5
16DE2
330
16C7E
100
AcDbEntity
  8
DEFPOINTS
 62
     0
 48
50.0
100
AcDbPoint
 10
4133.098812926728
 20
5488.071647548288
 30
0.0
  0
POINT
  5
16DE3
330
16C7E
100
AcDbEntity
  8
DEFPOINTS
 62
     0
 48
50.0
100
AcDbPoint
 10
4083.098812926728
 20
5488.071647548286
 30
0.0
  0
POINT
  5
16DE4
330
16C7E
100
AcDbEntity
  8
DEFPOINTS
 62
     0
 48
50.0
100
AcDbPoint
 10
4083.098812926728
 20
5700.613232806524
 30
0.0
  0
ENDBLK
  5
16C8B
330
16C7E
100
AcDbEntity
  8
0
 48
50.0
100
AcDbBlockEnd
  0
BLOCK
  5
16C96
330
16C8C
100
AcDbEntity
  8
0
 48
50.0
100
AcDbBlockBegin
  2
*D39
 70
     1
 10
0.0
 20
0.0
 30
0.0
  3
*D39
  1

  0
LINE
  5
16DEE
330
16C8C
100
AcDbEntity
  8
寸法
 62
     0
 48
50.0
370
    -2
100
AcDbLine
 10
8883.09881292673
 20
5508.071647548282
 30
0.0
 11
8883.09881292673
 21
5760.613232806524
 31
0.0
  0
LINE
  5
16DEF
330
16C8C
100
AcDbEntity
  8
寸法
 62
     0
 48
50.0
370
    -2
100
AcDbLine
 10
4133.098812926728
 20
5508.071647548288
 30
0.0
 11
4133.098812926728
 21
5760.613232806524
 31
0.0
  0
LINE
  5
16DF0
330
16C8C
100
AcDbEntity
  8
寸法
 62
     0
 48
50.0
370
    -2
100
AcDbLine
 10
8883.09881292673
 20
5700.613232806524
 30
0.0
 11
4133.098812926728
 21
5700.613232806524
 31
0.0
  0
INSERT
  5
16DF1
330
16C8C
100
AcDbEntity
  8
寸法
 62
     0
 48
50.0
370
    -2
100
AcDbBlockReference
  2
_DOTSMALL
 10
8883.09881292673
 20
5700.613232806524
 30
0.0
 41
100.0
 42
100.0
 43
100.0
  0
INSERT
  5
16DF2
330
16C8C
100
AcDbEntity
  8
寸法
 62
     0
 48
50.0
370
    -2
100
AcDbBlockReference
  2
_DOTSMALL
 10
4133.098812926728
 20
5700.613232806524
 30
0.0
 41
100.0
 42
100.0
 43
100.0
 50
180.0
  0
MTEXT
  5
16DF3
330
16C8C
100
AcDbEntity
  8
寸法
 62
     7
 48
50.0
100
AcDbMText
 10
6508.098812926718
 20
5800.613232806524
 30
0.0
 40
120.0
 41
0.0
 71
     5
 72
     1
  1
\A1;柱外寸法4750
  7
STYLE1
 73
     1
 44
1.0
1001
ACAD
1000
MTEXTBEGIN
1070
    73
1070
     1
1070
    44
1040
1.0
1070
    74
1070
     0
1000
MTEXTEND
  0
POINT
  5
16DF4
330
16C8C
100
AcDbEntity
  8
DEFPOINTS
 62
     0
 48
50.0
100
AcDbPoint
 10
8883.09881292673
 20
5488.071647548282
 30
0.0
  0
POINT
  5
16DF5
330
16C8C
100
AcDbEntity
  8
DEFPOINTS
 62
     0
 48
50.0
100
AcDbPoint
 10
4133.098812926728
 20
5488.071647548288
 30
0.0
  0
POINT
  5
16DF6
330
16C8C
100
AcDbEntity
  8
DEFPOINTS
 62
     0
 48
50.0
100
AcDbPoint
 10
4133.098812926728
 20
5700.613232806524
 30
0.0
  0
ENDBLK
  5
16C97
330
16C8C
100
AcDbEntity
  8
0
 48
50.0
100
AcDbBlockEnd
  0
BLOCK
  5
16CA2
330
16C98
100
AcDbEntity
  8
0
 48
50.0
100
AcDbBlockBegin
  2
*D40
 70
     1
 10
0.0
 20
0.0
 30
0.0
  3
*D40
  1

  0
LINE
  5
16DE5
330
16C98
100
AcDbEntity
  8
寸法
 62
     0
 48
50.0
370
    -2
100
AcDbLine
 10
4083.098812926728
 20
5508.071647548286
 30
0.0
 11
4083.098812926728
 21
5983.570211244373
 31
0.0
  0
LINE
  5
16DE6
330
16C98
100
AcDbEntity
  8
寸法
 62
     0
 48
50.0
370
    -2
100
AcDbLine
 10
8933.098812926731
 20
5508.07164754828
 30
0.0
 11
8933.098812926731
 21
5983.570211244373
 31
0.0
  0
LINE
  5
16DE7
330
16C98
100
AcDbEntity
  8
寸法
 62
     0
 48
50.0
370
    -2
100
AcDbLine
 10
4083.098812926728
 20
5923.570211244372
 30
0.0
 11
8933.098812926731
 21
5923.570211244372
 31
0.0
  0
INSERT
  5
16DE8
330
16C98
100
AcDbEntity
  8
寸法
 62
     0
 48
50.0
370
    -2
100
AcDbBlockReference
  2
_DOTSMALL
 10
4083.098812926728
 20
5923.570211244372
 30
0.0
 41
100.0
 42
100.0
 43
100.0
 50
180.0
  0
INSERT
  5
16DE9
330
16C98
100
AcDbEntity
  8
寸法
 62
     0
 48
50.0
370
    -2
100
AcDbBlockReference
  2
_DOTSMALL
 10
8933.098812926731
 20
5923.570211244372
 30
0.0
 41
100.0
 42
100.0
 43
100.0
  0
MTEXT
  5
16DEA
330
16C98
100
AcDbEntity
  8
寸法
 62
     7
 48
50.0
100
AcDbMText
 10
6508.098812926718
 20
6023.570211244372
 30
0.0
 40
120.0
 41
0.0
 71
     5
 72
     1
  1
\A1;4850
  7
STYLE1
 73
     1
 44
1.0
1001
ACAD
1000
MTEXTBEGIN
1070
    73
1070
     1
1070
    44
1040
1.0
1070
    74
1070
     0
1000
MTEXTEND
  0
POINT
  5
16DEB
330
16C98
100
AcDbEntity
  8
DEFPOINTS
 62
     0
 48
50.0
100
AcDbPoint
 10
4083.098812926728
 20
5488.071647548286
 30
0.0
  0
POINT
  5
16DEC
330
16C98
100
AcDbEntity
  8
DEFPOINTS
 62
     0
 48
50.0
100
AcDbPoint
 10
8933.098812926731
 20
5488.071647548281
 30
0.0
  0
POINT
  5
16DED
330
16C98
100
AcDbEntity
  8
DEFPOINTS
 62
     0
 48
50.0
100
AcDbPoint
 10
8933.098812926731
 20
5923.570211244372
 30
0.0
  0
ENDBLK
  5
16CA3
330
16C98
100
AcDbEntity
  8
0
 48
50.0
100
AcDbBlockEnd
  0
BLOCK
  5
16CD8
330
16CCC
100
AcDbEntity
  8
0
 48
50.0
100
AcDbBlockBegin
  2
*D41
 70
     1
 10
0.0
 20
0.0
 30
0.0
  3
*D41
  1

  0
LINE
  5
16DCF
330
16CCC
100
AcDbEntity
  8
寸法
 62
     0
 48
50.0
370
    -2
100
AcDbLine
 10
8933.098812926731
 20
5508.07164754828
 30
0.0
 11
8933.098812926731
 21
5760.613232806521
 31
0.0
  0
LINE
  5
16DD0
330
16CCC
100
AcDbEntity
  8
寸法
 62
     0
 48
50.0
370
    -2
100
AcDbLine
 10
8883.09881292673
 20
5508.071647548282
 30
0.0
 11
8883.09881292673
 21
5760.613232806521
 31
0.0
  0
LINE
  5
16DD1
330
16CCC
100
AcDbEntity
  8
寸法
 62
     0
 48
50.0
370
    -2
100
AcDbLine
 10
8883.09881292673
 20
5700.613232806521
 30
0.0
 11
8783.098812926731
 21
5700.613232806521
 31
0.0
  0
LINE
  5
16DD2
330
16CCC
100
AcDbEntity
  8
寸法
 62
     0
 48
50.0
370
    -2
100
AcDbLine
 10
8933.098812926731
 20
5700.613232806521
 30
0.0
 11
9352.631338395454
 21
5700.613232806521
 31
0.0
  0
LINE
  5
16DD3
330
16CCC
100
AcDbEntity
  8
寸法
 62
     0
 48
50.0
370
    -2
100
AcDbLine
 10
8883.09881292673
 20
5700.613232806521
 30
0.0
 11
8933.098812926731
 21
5700.613232806521
 31
0.0
  0
INSERT
  5
16DD4
330
16CCC
100
AcDbEntity
  8
寸法
 62
     0
 48
50.0
370
    -2
100
AcDbBlockReference
  2
_DOTSMALL
 10
8883.09881292673
 20
5700.613232806521
 30
0.0
 41
100.0
 42
100.0
 43
100.0
  0
INSERT
  5
16DD5
330
16CCC
100
AcDbEntity
  8
寸法
 62
     0
 48
50.0
370
    -2
100
AcDbBlockReference
  2
_DOTSMALL
 10
8933.098812926731
 20
5700.613232806521
 30
0.0
 41
100.0
 42
100.0
 43
100.0
 50
180.0
  0
MTEXT
  5
16DD6
330
16CCC
100
AcDbEntity
  8
寸法
 62
     7
 48
50.0
100
AcDbMText
 10
9246.584094300969
 20
5800.613232806521
 30
0.0
 40
120.0
 41
0.0
 71
     5
 72
     1
  1
\A1;50
  7
STYLE1
 73
     1
 44
1.0
1001
ACAD
1000
MTEXTBEGIN
1070
    73
1070
     1
1070
    44
1040
1.0
1070
    74
1070
     0
1000
MTEXTEND
  0
POINT
  5
16DD7
330
16CCC
100
AcDbEntity
  8
DEFPOINTS
 62
     0
 48
50.0
100
AcDbPoint
 10
8933.098812926731
 20
5488.071647548281
 30
0.0
  0
POINT
  5
16DD8
330
16CCC
100
AcDbEntity
  8
DEFPOINTS
 62
     0
 48
50.0
100
AcDbPoint
 10
8883.09881292673
 20
5488.071647548282
 30
0.0
  0
POINT
  5
16DD9
330
16CCC
100
AcDbEntity
  8
DEFPOINTS
 62
     0
 48
50.0
100
AcDbPoint
 10
8883.09881292673
 20
5700.613232806521
 30
0.0
  0
ENDBLK
  5
16CD9
330
16CCC
100
AcDbEntity
  8
0
 48
50.0
100
AcDbBlockEnd
  0
ENDSEC
  0
SECTION
  2
ENTITIES
  0
LINE
  5
10B56
330
747D
100
AcDbEntity
  8
補助
  6
PHANTOM
 62
   230
 48
50.0
100
AcDbLine
 10
140.0
 20
0.0
 30
0.0
 11
139.9999999999995
 21
11409.6
 31
0.0
  0
LINE
  5
10B57
330
747D
100
AcDbEntity
  8
補助
  6
PHANTOM
 62
   230
 48
50.0
100
AcDbLine
 10
139.9999999999995
 20
11409.6
 30
0.0
 11
16307.2
 21
11409.6
 31
0.0
  0
LINE
  5
10B59
330
747D
100
AcDbEntity
  8
仕様書枠
  6
Continuous
 48
50.0
100
AcDbLine
 10
13107.2
 20
1200.0
 30
0.0
 11
13107.2
 21
-0.0000000000000729
 31
0.0
  0
LINE
  5
10B5C
330
747D
100
AcDbEntity
  8
仕様書枠
 48
50.0
100
AcDbLine
 10
16307.2
 20
1200.0
 30
0.0
 11
16307.2
 21
-0.0000000000000909
 31
0.0
  0
LINE
  5
10B5D
330
747D
100
AcDbEntity
  8
仕様書枠
 48
50.0
100
AcDbLine
 10
140.0
 20
0.0
 30
0.0
 11
16307.2
 21
-0.0000000000000909
 31
0.0
  0
LINE
  5
10B5E
330
747D
100
AcDbEntity
  8
補助
  6
PHANTOM
 62
   230
 48
50.0
100
AcDbLine
 10
16307.2
 20
11409.6
 30
0.0
 11
16307.2
 21
1200.0
 31
0.0
  0
LINE
  5
10B6C
330
747D
100
AcDbEntity
  8
仕様書枠
 48
50.0
100
AcDbLine
 10
13107.2
 20
1200.0
 30
0.0
 11
16307.2
 21
1200.0
 31
0.0
  0
LINE
  5
10B6D
330
747D
100
AcDbEntity
  8
補助
  6
PHANTOM
 62
   230
 48
50.0
100
AcDbLine
 10
13107.2
 20
11409.6
 30
0.0
 11
13107.2
 21
4800.0
 31
0.0
  0
LINE
  5
10B6F
330
747D
100
AcDbEntity
  8
補助
  6
PHANTOM
 62
   230
 48
50.0
100
AcDbLine
 10
13107.2
 20
4800.0
 30
0.0
 11
16307.2
 21
4800.0
 31
0.0
  0
LINE
  5
10B72
330
747D
100
AcDbEntity
  8
文字
 62
     7
 48
50.0
100
AcDbLine
 10
13187.2
 20
400.0
 30
0.0
 11
16227.2
 21
400.0
 31
0.0
  0
TEXT
  5
10B73
330
747D
100
AcDbEntity
  8
文字
 62
     7
 48
50.0
100
AcDbText
 10
13162.9790565769
 20
895.0906074299405
 30
0.0
 40
200.0
  1
外 形 図
  7
STYLE2
100
AcDbText
  0
TEXT
  5
10B74
330
747D
100
AcDbEntity
  8
文字
 62
     7
 48
50.0
100
AcDbText
 10
13201.43669998441
 20
477.2740661031255
 30
0.0
 40
160.0
  1
機種名
  7
STYLE2
100
AcDbText
  0
TEXT
  5
10B75
330
747D
100
AcDbEntity
  8
文字
 62
     7
 48
50.0
100
AcDbText
 10
13209.4053442172
 20
228.5435242569016
 30
0.0
 40
100.0
  1
○有効開口寸法 ： 685×1760(mm)
  7
STYLE2
100
AcDbText
  0
TEXT
  5
10B76
330
747D
100
AcDbEntity
  8
文字
 62
     7
 48
50.0
100
AcDbText
 10
13209.4053442172
 20
76.09434707649343
 30
0.0
 40
100.0
  1
○床面積 ： 4.51㎡(1.37坪) 　
  7
STYLE2
100
AcDbText
  0
TEXT
  5
10B79
330
747D
100
AcDbEntity
  8
文字
 62
     7
 48
50.0
100
AcDbText
 10
14524.131837222
 20
1031.557706291228
 30
0.0
 40
100.0
  1
NO.04     <縮尺> S=1/40
  7
STYLE2
100
AcDbText
  0
LINE
  5
10B7B
330
747D
100
AcDbEntity
  8
仕様書枠
 48
50.0
100
AcDbLine
 10
13107.2
 20
800.0
 30
0.0
 11
14251.2
 21
800.0
 31
0.0
  0
LINE
  5
10B88
330
747D
100
AcDbEntity
  8
仕様書枠
  6
Continuous
 48
50.0
100
AcDbLine
 10
14251.2
 20
1200.0
 30
0.0
 11
14251.2
 21
800.0
 31
0.0
  0
TEXT
  5
13A63
330
747D
100
AcDbEntity
  8
部品1
100
AcDbText
 10
3054.822345680805
 20
3349.178551154181
 30
0.0
 40
125.0
  1
▽G.L
  7
STYLE2
100
AcDbText
  0
TEXT
  5
13B2F
330
747D
100
AcDbEntity
  8
部品1
100
AcDbText
 10
6216.283089641536
 20
6669.388067744542
 30
0.0
 40
135.0
  1
平面図
  7
STYLE2
100
AcDbText
  0
LWPOLYLINE
  5
13B30
330
747D
100
AcDbEntity
  8
部品1
100
AcDbPolyline
 90
        4
 70
     1
 43
0.0
 10
6126.3634798125
 20
6862.281596963065
 10
6126.3634798125
 20
6622.389275417532
 10
6889.834146040938
 20
6622.389275417532
 10
6889.834146040938
 20
6862.281596963065
  0
DIMENSION
  5
1518D
330
747D
100
AcDbEntity
  8
寸法
100
AcDbDimension
  2
*D1
 10
8883.098812926709
 20
7212.758410902701
 30
0.0
 11
6508.098812926718
 21
7212.758410902701
 31
0.0
 70
   160
 71
     5
 42
4749.999999999982
  3
INABA_S40G
100
AcDbAlignedDimension
 13
4133.098812926728
 23
8199.860285762586
 33
0.0
 14
8883.098812926709
 24
8199.860285762905
 34
0.0
100
AcDbRotatedDimension
1001
ACAD
1000
DSTYLE
1002
{
1002
}
  0
LINE
  5
1518E
330
747D
100
AcDbEntity
  8
破線
 48
10.0
100
AcDbLine
 10
7854.098812926721
 20
8354.860285762898
 30
0.0
 11
7062.09881292672
 21
8354.860285762883
 31
0.0
  0
LINE
  5
1518F
330
747D
100
AcDbEntity
  8
部品1
100
AcDbLine
 10
7758.098812926728
 20
8225.860285762939
 30
0.0
 11
7028.098812926728
 21
8225.860285762916
 31
0.0
  0
LINE
  5
15190
330
747D
100
AcDbEntity
  8
部品1
100
AcDbLine
 10
7877.598812926713
 20
8331.360285762897
 30
0.0
 11
7038.59831967283
 21
8331.359783565424
 31
0.0
  0
ARC
  5
15192
330
747D
100
AcDbEntity
  8
想像線
 48
10.0
100
AcDbCircle
 10
7750.746762249568
 20
8201.555179138463
 30
0.0
 40
722.6499369155582
100
AcDbArc
 50
180.1343808685487
 51
270.5829222700354
  0
LINE
  5
15193
330
747D
100
AcDbEntity
  8
部品1
100
AcDbLine
 10
7011.098812926682
 20
9121.860285762876
 30
0.0
 11
7930.479515945335
 21
9121.860285762897
 31
0.0
  0
LINE
  5
15194
330
747D
100
AcDbEntity
  8
部品1
 48
5.0
100
AcDbLine
 10
7007.098812926731
 20
8229.360285762833
 30
0.0
 11
7909.09881292673
 21
8229.36028576289
 31
0.0
  0
LINE
  5
15196
330
747D
100
AcDbEntity
  8
部品1
100
AcDbLine
 10
7012.098819604331
 20
8670.360285762825
 30
0.0
 11
7904.098819604328
 21
8670.360285762926
 31
0.0
  0
LINE
  5
15197
330
747D
100
AcDbEntity
  8
細線
 48
50.0
100
AcDbLine
 10
7904.098819604328
 20
9120.360285762926
 30
0.0
 11
7012.098819604329
 21
8670.360285762825
 31
0.0
  0
LINE
  5
15198
330
747D
100
AcDbEntity
  8
細線
 48
50.0
100
AcDbLine
 10
7904.098819604328
 20
8670.360285762926
 30
0.0
 11
7012.098819604329
 21
9120.360285762826
 31
0.0
  0
LINE
  5
15199
330
747D
100
AcDbEntity
  8
部品1
100
AcDbLine
 10
7012.098819604329
 20
9120.360285762826
 30
0.0
 11
7904.098819604328
 21
9120.360285762933
 31
0.0
  0
DIMENSION
  5
1519A
330
747D
100
AcDbEntity
  8
寸法
100
AcDbDimension
  2
*D2
 10
7878.098812926734
 20
9365.668505387951
 30
0.0
 11
7458.098812926734
 21
9365.668505387951
 31
0.0
 70
   160
  1
2X420=<>
 71
     5
 42
839.9999999999982
  3
INABA_S40G
100
AcDbAlignedDimension
 13
7038.098812926735
 23
9149.860285762882
 33
0.0
 14
7878.098812926734
 24
9149.86028576297
 34
0.0
100
AcDbRotatedDimension
1001
ACAD
1000
DSTYLE
1002
{
1002
}
  0
DIMENSION
  5
1519B
330
747D
100
AcDbEntity
  8
寸法
 48
50.0
100
AcDbDimension
  2
*D3
 10
7038.098812926738
 20
9365.668505387951
 30
0.0
 11
6983.098812926735
 21
9622.545174002455
 31
0.0
 70
   160
 71
     5
 42
110.0000000000036
  3
INABA_S40G
100
AcDbAlignedDimension
 13
6928.098812926734
 23
9149.86028576297
 33
0.0
 14
7038.098812926738
 24
9149.860285762949
 34
0.0
100
AcDbRotatedDimension
1001
ACAD
1000
DSTYLE
1002
{
1070
   279
1070
     2
1002
}
  0
ARC
  5
1519D
330
747D
100
AcDbEntity
  8
想像線
 48
10.0
100
AcDbCircle
 10
6800.746762249568
 20
8201.555179138463
 30
0.0
 40
722.649936915559
100
AcDbArc
 50
180.1343808685458
 51
270.5829222700353
  0
LINE
  5
1519E
330
747D
100
AcDbEntity
  8
想像線
 48
10.0
100
AcDbLine
 10
6808.098812926728
 20
8199.860285762891
 30
0.0
 11
6808.098812926728
 21
7478.942642107099
 31
0.0
  0
DIMENSION
  5
1519F
330
747D
100
AcDbEntity
  8
寸法
100
AcDbDimension
  2
*D4
 10
4188.098812926734
 20
9365.668505387835
 30
0.0
 11
3824.61353155246
 21
9365.668505387835
 31
0.0
 70
   160
 71
     5
 42
55.00000000003637
  3
INABA_S40G
100
AcDbAlignedDimension
 13
4133.098812926699
 23
9149.860285762853
 33
0.0
 14
4188.098812926734
 24
9149.860285762853
 34
0.0
100
AcDbRotatedDimension
1001
ACAD
1000
DSTYLE
1002
{
1002
}
  0
LINE
  5
151A0
330
747D
100
AcDbEntity
  8
部品1
 48
50.0
100
AcDbLine
 10
6954.098819604329
 20
9120.360285762926
 30
0.0
 11
6954.098819604329
 21
8670.360285762926
 31
0.0
  0
LINE
  5
151A1
330
747D
100
AcDbEntity
  8
部品1
 48
50.0
100
AcDbLine
 10
7012.098819604329
 20
9120.360285762819
 30
0.0
 11
7012.098819604329
 21
8670.360285762825
 31
0.0
  0
LINE
  5
151A2
330
747D
100
AcDbEntity
  8
部品1
 48
50.0
100
AcDbLine
 10
7011.098812926714
 20
8254.860285762891
 30
0.0
 11
7011.098812926658
 21
9149.860285762898
 31
0.0
  0
LINE
  5
151A3
330
747D
100
AcDbEntity
  8
部品1
 48
50.0
100
AcDbLine
 10
6955.098812926713
 20
8254.860285762891
 30
0.0
 11
6955.098812926661
 21
9121.860285762897
 31
0.0
  0
LINE
  5
151A4
330
747D
100
AcDbEntity
  8
部品1
 48
50.0
100
AcDbLine
 10
6983.098812926714
 20
8254.860285762891
 30
0.0
 11
6983.098812926714
 21
9094.860285762898
 31
0.0
  0
LINE
  5
151A5
330
747D
100
AcDbEntity
  8
部品1
 48
50.0
100
AcDbLine
 10
4162.098819604329
 20
9120.360285762819
 30
0.0
 11
4162.098819604329
 21
8670.360285762825
 31
0.0
  0
LINE
  5
151A6
330
747D
100
AcDbEntity
  8
部品1
100
AcDbLine
 10
4161.098812926709
 20
8254.860285762802
 30
0.0
 11
4161.098812926735
 21
9121.860285762855
 31
0.0
  0
LINE
  5
151A7
330
747D
100
AcDbEntity
  8
部品1
100
AcDbLine
 10
4133.098812926699
 20
9149.860285762818
 30
0.0
 11
4133.098812926728
 21
8199.86028576281
 31
0.0
  0
LINE
  5
151A8
330
747D
100
AcDbEntity
  8
細線
 48
50.0
100
AcDbLine
 10
6954.098819604329
 20
9120.360285762926
 30
0.0
 11
6062.098819604329
 21
8670.360285762825
 31
0.0
  0
LINE
  5
151A9
330
747D
100
AcDbEntity
  8
細線
 48
50.0
100
AcDbLine
 10
6954.098819604329
 20
8670.360285762926
 30
0.0
 11
6062.098819604329
 21
9120.360285762826
 31
0.0
  0
LINE
  5
151AA
330
747D
100
AcDbEntity
  8
破線
 48
10.0
100
AcDbLine
 10
6904.09881292672
 20
8354.86028576288
 30
0.0
 11
6113.098812926721
 21
8354.86028576286
 31
0.0
  0
LINE
  5
151AC
330
747D
100
AcDbEntity
  8
部品1
 48
5.0
100
AcDbLine
 10
6057.09881292673
 20
8229.36028576289
 30
0.0
 11
6959.09881292673
 21
8229.360285762833
 31
0.0
  0
LINE
  5
151AD
330
747D
100
AcDbEntity
  8
部品1
100
AcDbLine
 10
6808.098812926728
 20
8225.860285762903
 30
0.0
 11
6078.098812926728
 21
8225.860285762875
 31
0.0
  0
LINE
  5
151AE
330
747D
100
AcDbEntity
  8
部品1
100
AcDbLine
 10
6927.599383374893
 20
8331.359704942933
 30
0.0
 11
6089.599784353122
 21
8331.359203454413
 31
0.0
  0
LINE
  5
151AF
330
747D
100
AcDbEntity
  8
部品1
100
AcDbLine
 10
6062.09881960433
 20
8670.360285762825
 30
0.0
 11
6954.098819604329
 21
8670.360285762926
 31
0.0
  0
LINE
  5
151B1
330
747D
100
AcDbEntity
  8
破線
 48
10.0
100
AcDbLine
 10
4213.098877851436
 20
8670.36028576286
 30
0.0
 11
4213.098812926721
 21
8354.86028576286
 31
0.0
  0
LINE
  5
151B2
330
747D
100
AcDbEntity
  8
部品1
 48
5.0
100
AcDbLine
 10
4189.599784351692
 20
8331.360285762949
 30
0.0
 11
4189.599291420381
 21
8670.36028576286
 31
0.0
  0
LINE
  5
151B3
330
747D
100
AcDbEntity
  8
部品1
100
AcDbLine
 10
4133.098812926726
 20
8254.860285762774
 30
0.0
 11
4133.098812926728
 21
8199.860285762774
 31
0.0
  0
LINE
  5
151B4
330
747D
100
AcDbEntity
  8
部品1
100
AcDbLine
 10
4161.098812926726
 20
8254.860285762818
 30
0.0
 11
4133.098812926726
 21
8254.860285762818
 31
0.0
  0
LINE
  5
151B5
330
747D
100
AcDbEntity
  8
部品1
100
AcDbLine
 10
4161.098812926709
 20
8254.860285762802
 30
0.0
 11
4133.098812926726
 21
8254.860285762802
 31
0.0
  0
LINE
  5
151B6
330
747D
100
AcDbEntity
  8
部品1
100
AcDbLine
 10
4161.098812926709
 20
8254.860285762774
 30
0.0
 11
4133.098812926726
 21
8254.860285762774
 31
0.0
  0
LINE
  5
151B7
330
747D
100
AcDbEntity
  8
部品1
 48
2.83
100
AcDbLine
 10
4165.098812926728
 20
8254.860285762774
 30
0.0
 11
4188.098812926727
 21
8254.860285762774
 31
0.0
  0
LINE
  5
151B9
330
747D
100
AcDbEntity
  8
部品1
 48
2.83
100
AcDbLine
 10
4133.098812926728
 20
8254.860285762774
 30
0.0
 11
4156.098812926727
 21
8254.860285762774
 31
0.0
  0
LINE
  5
151BA
330
747D
100
AcDbEntity
  8
部品1
 48
2.83
100
AcDbLine
 10
4188.098812926727
 20
8254.860285762774
 30
0.0
 11
4188.098812926731
 21
8229.360285762775
 31
0.0
  0
LINE
  5
151BB
330
747D
100
AcDbEntity
  8
部品1
 48
2.83
100
AcDbLine
 10
4176.098812926728
 20
8229.360285762775
 30
0.0
 11
4176.098812926728
 21
8199.860285762774
 31
0.0
  0
LINE
  5
151BC
330
747D
100
AcDbEntity
  8
部品1
 48
2.83
100
AcDbLine
 10
4133.098812926728
 20
8199.860285762774
 30
0.0
 11
4133.098812926728
 21
8254.860285762774
 31
0.0
  0
LINE
  5
151BD
330
747D
100
AcDbEntity
  8
部品1
 48
50.0
100
AcDbLine
 10
4189.599784353123
 20
8331.359203454413
 30
0.0
 11
4161.098812926709
 21
8302.340032521948
 31
0.0
  0
LINE
  5
151BE
330
747D
100
AcDbEntity
  8
部品1
100
AcDbLine
 10
4178.098812926728
 20
8225.860285762912
 30
0.0
 11
4178.098812926728
 21
8199.860285762875
 31
0.0
  0
LINE
  5
151BF
330
747D
100
AcDbEntity
  8
部品1
100
AcDbLine
 10
4161.098812926709
 20
8674.860285762816
 30
0.0
 11
4133.09881292671
 21
8674.860285762816
 31
0.0
  0
LINE
  5
151C0
330
747D
100
AcDbEntity
  8
破線
 48
10.0
100
AcDbLine
 10
7062.09881292672
 20
8354.860285762905
 30
0.0
 11
7062.09880049561
 21
8670.360285762901
 31
0.0
  0
LINE
  5
151C1
330
747D
100
AcDbEntity
  8
破線
 48
10.0
100
AcDbLine
 10
6904.09881292672
 20
8354.860285762898
 30
0.0
 11
6904.098804572168
 21
8670.360285762956
 31
0.0
  0
LINE
  5
151C2
330
747D
100
AcDbEntity
  8
部品1
 48
50.0
100
AcDbLine
 10
6927.598812926714
 20
8331.360285762897
 30
0.0
 11
6927.598812926688
 21
8670.360285762956
 31
0.0
  0
LINE
  5
151C3
330
747D
100
AcDbEntity
  8
部品1
 48
50.0
100
AcDbLine
 10
7038.598806582427
 20
8331.360285787559
 30
0.0
 11
7038.598809555288
 21
8670.360285762901
 31
0.0
  0
LINE
  5
151C4
330
747D
100
AcDbEntity
  8
部品1
 48
50.0
100
AcDbLine
 10
6507.59881292672
 20
8670.360285762875
 30
0.0
 11
6507.598650054617
 21
8331.359453599679
 31
0.0
  0
LINE
  5
151C5
330
747D
100
AcDbEntity
  8
部品1
100
AcDbLine
 10
6808.098812926728
 20
8225.860285762941
 30
0.0
 11
6808.098812926728
 21
8199.860285762886
 31
0.0
  0
ARC
  5
151C6
330
747D
100
AcDbEntity
  8
部品1
 48
0.2
100
AcDbCircle
 10
6800.161260755405
 20
8200.857915718112
 30
0.0
 40
8.0
100
AcDbArc
 50
270.0
 51
352.8363522778074
  0
ARC
  5
151C7
330
747D
100
AcDbEntity
  8
部品1
 48
0.2
100
AcDbCircle
 10
6795.161260755405
 20
8200.857915718112
 30
0.0
 40
8.0
100
AcDbArc
 50
187.1636477221926
 51
269.9999999999992
  0
ARC
  5
151C8
330
747D
100
AcDbEntity
  8
細線
 48
0.2
100
AcDbCircle
 10
6800.161260755405
 20
8200.857915718112
 30
0.0
 40
4.049999999999999
100
AcDbArc
 50
194.2603506853988
 51
345.7396493146012
  0
LINE
  5
151C9
330
747D
100
AcDbEntity
  8
部品1
 48
0.2
100
AcDbLine
 10
6795.161260755405
 20
8192.857915718112
 30
0.0
 11
6800.161260755405
 21
8192.857915718112
 31
0.0
  0
LINE
  5
151CA
330
747D
100
AcDbEntity
  8
部品1
 48
5.0
100
AcDbLine
 10
6810.098812926729
 20
8229.36028576289
 30
0.0
 11
6810.098812926729
 21
8199.860285762891
 31
0.0
  0
LINE
  5
151CB
330
747D
100
AcDbEntity
  8
部品1
100
AcDbLine
 10
7028.098812926728
 20
8225.860285762912
 30
0.0
 11
7028.098812926728
 21
8199.860285762875
 31
0.0
  0
LINE
  5
151CC
330
747D
100
AcDbEntity
  8
部品1
 48
5.0
100
AcDbLine
 10
7015.09881292673
 20
8254.860285762891
 30
0.0
 11
7038.09881292673
 21
8254.860285762891
 31
0.0
  0
LINE
  5
151CD
330
747D
100
AcDbEntity
  8
部品1
 48
50.0
100
AcDbLine
 10
7038.598812926712
 20
8331.360285787564
 30
0.0
 11
7011.098812926714
 21
8303.36028576289
 31
0.0
  0
LINE
  5
151CF
330
747D
100
AcDbEntity
  8
部品1
 48
5.0
100
AcDbLine
 10
7007.098812926732
 20
8254.860285762891
 30
0.0
 11
7007.098812926731
 21
8229.36028576289
 31
0.0
  0
LINE
  5
151D0
330
747D
100
AcDbEntity
  8
部品1
100
AcDbLine
 10
6940.098812926727
 20
8229.360285762835
 30
0.0
 11
6940.098812926724
 21
8199.860285762882
 31
0.0
  0
LINE
  5
151D1
330
747D
100
AcDbEntity
  8
部品1
 48
5.0
100
AcDbLine
 10
6940.098812926731
 20
8229.36028576289
 30
0.0
 11
6940.098812926731
 21
8199.860285762891
 31
0.0
  0
LINE
  5
151D2
330
747D
100
AcDbEntity
  8
部品1
 48
5.0
100
AcDbLine
 10
6959.09881292673
 20
8254.860285762891
 30
0.0
 11
6959.09881292673
 21
8229.36028576289
 31
0.0
  0
LINE
  5
151D3
330
747D
100
AcDbEntity
  8
部品1
 48
5.0
100
AcDbLine
 10
6928.09881292673
 20
8254.860285762891
 30
0.0
 11
6928.098812926731
 21
8229.36028576289
 31
0.0
  0
LINE
  5
151D4
330
747D
100
AcDbEntity
  8
部品1
 48
5.0
100
AcDbLine
 10
6951.09881292673
 20
8254.860285762891
 30
0.0
 11
6928.098812926728
 21
8254.860285762891
 31
0.0
  0
LINE
  5
151D5
330
747D
100
AcDbEntity
  8
部品1
 48
50.0
100
AcDbLine
 10
6955.098812926713
 20
8303.36028576289
 30
0.0
 11
6927.598812926714
 21
8331.360285762897
 31
0.0
  0
LINE
  5
151D6
330
747D
100
AcDbEntity
  8
部品1
 48
5.0
100
AcDbLine
 10
6955.098812926713
 20
8254.860285762891
 30
0.0
 11
7011.098812926714
 21
8254.860285762891
 31
0.0
  0
LINE
  5
151D7
330
747D
100
AcDbEntity
  8
部品1
100
AcDbLine
 10
7026.098812926727
 20
8229.360285762842
 30
0.0
 11
7026.09881292673
 21
8199.860285762891
 31
0.0
  0
LINE
  5
151D8
330
747D
100
AcDbEntity
  8
部品1
 48
5.0
100
AcDbLine
 10
7026.09881292673
 20
8229.36028576289
 30
0.0
 11
7026.09881292673
 21
8199.860285762891
 31
0.0
  0
LINE
  5
151D9
330
747D
100
AcDbEntity
  8
部品1
 48
5.0
100
AcDbLine
 10
7038.09881292673
 20
8254.860285762891
 30
0.0
 11
7038.098812926732
 21
8229.36028576289
 31
0.0
  0
LINE
  5
151DA
330
747D
100
AcDbEntity
  8
部品1
 48
5.0
100
AcDbLine
 10
6983.098812926714
 20
8674.860285762894
 30
0.0
 11
6955.098812926663
 21
8674.860285762898
 31
0.0
  0
LINE
  5
151DB
330
747D
100
AcDbEntity
  8
部品1
 48
50.0
100
AcDbLine
 10
6983.098812926707
 20
8674.860285762898
 30
0.0
 11
7011.098812926689
 21
8674.860285762902
 31
0.0
  0
LINE
  5
151DC
330
747D
100
AcDbEntity
  8
部品1
 48
50.0
100
AcDbLine
 10
6983.098812926707
 20
8712.860285762898
 30
0.0
 11
7011.098812926689
 21
8712.860285762902
 31
0.0
  0
LINE
  5
151DD
330
747D
100
AcDbEntity
  8
部品1
100
AcDbLine
 10
6061.098812926736
 20
9121.860285762855
 30
0.0
 11
6980.479515945358
 21
9121.860285762876
 31
0.0
  0
LINE
  5
151DE
330
747D
100
AcDbEntity
  8
部品1
100
AcDbLine
 10
6062.098819604329
 20
9120.360285762826
 30
0.0
 11
6954.098819604329
 21
9120.360285762933
 31
0.0
  0
DIMENSION
  5
151DF
330
747D
100
AcDbEntity
  8
寸法
100
AcDbDimension
  2
*D5
 10
6928.098812926734
 20
9365.668505387951
 30
0.0
 11
6508.098812926734
 21
9365.668505387951
 31
0.0
 70
   160
  1
2X420=<>
 71
     5
 42
839.9999999999982
  3
INABA_S40G
100
AcDbAlignedDimension
 13
6088.098812926735
 23
9149.860285762882
 33
0.0
 14
6928.098812926734
 24
9149.86028576297
 34
0.0
100
AcDbRotatedDimension
1001
ACAD
1000
DSTYLE
1002
{
1002
}
  0
LINE
  5
151E0
330
747D
100
AcDbEntity
  8
部品1
100
AcDbLine
 10
4161.098812926702
 20
9094.860285762825
 30
0.0
 11
4133.098812926703
 21
9094.860285762825
 31
0.0
  0
LINE
  5
151E1
330
747D
100
AcDbEntity
  8
部品1
100
AcDbLine
 10
4188.098812926734
 20
9149.860285762853
 30
0.0
 11
4188.098812926734
 21
9121.860285762855
 31
0.0
  0
LINE
  5
151E2
330
747D
100
AcDbEntity
  8
部品1
100
AcDbLine
 10
4188.098812926699
 20
9149.860285762818
 30
0.0
 11
4188.098812926702
 21
9121.860285762817
 31
0.0
  0
LINE
  5
151E3
330
747D
100
AcDbEntity
  8
部品1
 48
50.0
100
AcDbLine
 10
4162.598819604323
 20
9120.360285762826
 30
0.0
 11
4161.098812926699
 21
9121.860285762817
 31
0.0
  0
LINE
  5
151E4
330
747D
100
AcDbEntity
  8
部品1
100
AcDbLine
 10
6507.598812926699
 20
9149.860285762846
 30
0.0
 11
6507.598812926699
 21
9121.860285762847
 31
0.0
  0
LINE
  5
151E5
330
747D
100
AcDbEntity
  8
部品1
100
AcDbLine
 10
6507.598812926666
 20
9149.860285762814
 30
0.0
 11
6507.598812926666
 21
9121.860285762814
 31
0.0
  0
LINE
  5
151E6
330
747D
100
AcDbEntity
  8
部品1
 48
5.0
100
AcDbLine
 10
6928.098812926731
 20
9121.860285762897
 30
0.0
 11
6928.098812926734
 21
9149.860285762898
 31
0.0
  0
LINE
  5
151E7
330
747D
100
AcDbEntity
  8
部品1
 48
5.0
100
AcDbLine
 10
6957.808087373909
 20
9149.860285762898
 30
0.0
 11
6980.479515945337
 21
9121.860285762897
 31
0.0
  0
LINE
  5
151E8
330
747D
100
AcDbEntity
  8
部品1
 48
5.0
100
AcDbLine
 10
7011.098812926663
 20
9094.860285762898
 30
0.0
 11
6955.098812926663
 21
9094.860285762898
 31
0.0
  0
LINE
  5
151E9
330
747D
100
AcDbEntity
  8
部品1
 48
5.0
100
AcDbLine
 10
7038.098812926738
 20
9149.860285762901
 30
0.0
 11
7038.098812926732
 21
9121.860285762904
 31
0.0
  0
LINE
  5
151EA
330
747D
100
AcDbEntity
  8
部品1
 48
50.0
100
AcDbLine
 10
6953.651420414752
 20
9120.360285762933
 30
0.0
 11
6955.098812926626
 21
9121.860285762865
 31
0.0
  0
LINE
  5
151EB
330
747D
100
AcDbEntity
  8
部品1
 48
50.0
100
AcDbLine
 10
7012.598819604324
 20
9120.360285762826
 30
0.0
 11
7011.098812926698
 21
9121.860285762817
 31
0.0
  0
DIMENSION
  5
151EC
330
747D
100
AcDbEntity
  8
寸法
 48
50.0
100
AcDbDimension
  2
*D6
 10
7988.098812926738
 20
9365.668505387951
 30
0.0
 11
7933.098812926735
 21
9622.545174002455
 31
0.0
 70
   160
 71
     5
 42
110.0000000000036
  3
INABA_S40G
100
AcDbAlignedDimension
 13
7878.098812926734
 23
9149.86028576297
 33
0.0
 14
7988.098812926738
 24
9149.860285762949
 34
0.0
100
AcDbRotatedDimension
1001
ACAD
1000
DSTYLE
1002
{
1070
   279
1070
     2
1002
}
  0
DIMENSION
  5
151ED
330
747D
100
AcDbEntity
  8
寸法
100
AcDbDimension
  2
*D7
 10
9530.525158661147
 20
9094.860285762948
 30
0.0
 11
9530.525158661145
 21
9458.345567137188
 31
0.0
 70
   160
 71
     5
 42
55.0
  3
INABA_S40G
100
AcDbAlignedDimension
 13
8883.098812926736
 23
9149.860285762949
 33
0.0
 14
8883.098812926736
 24
9094.860285762948
 34
0.0
 50
90.0
100
AcDbRotatedDimension
1001
ACAD
1000
DSTYLE
1002
{
1002
}
  0
DIMENSION
  5
151EE
330
747D
100
AcDbEntity
  8
寸法
100
AcDbDimension
  2
*D8
 10
9839.636689476824
 20
8199.860285762934
 30
0.0
 11
9839.636689476822
 21
8673.838004321853
 31
0.0
 70
   160
 71
     5
 42
950.0000000000145
  3
INABA_S40G
100
AcDbAlignedDimension
 13
8883.098812926736
 23
9149.860285762949
 33
0.0
 14
8883.098812926709
 24
8199.860285762934
 34
0.0
 50
90.0
100
AcDbRotatedDimension
1001
ACAD
1000
DSTYLE
1002
{
1002
}
  0
DIMENSION
  5
151EF
330
747D
100
AcDbEntity
  8
寸法
100
AcDbDimension
  2
*D9
 10
9530.525158661122
 20
8199.860285762934
 30
0.0
 11
9530.525158661118
 21
7821.998818858076
 31
0.0
 70
   160
 71
     5
 42
55.0
  3
INABA_S40G
100
AcDbAlignedDimension
 13
8883.098812926709
 23
8254.860285762935
 33
0.0
 14
8883.098812926709
 24
8199.860285762934
 34
0.0
 50
90.0
100
AcDbRotatedDimension
1001
ACAD
1000
DSTYLE
1002
{
1002
}
  0
LINE
  5
151F1
330
747D
100
AcDbEntity
  8
想像線
 48
10.0
100
AcDbLine
 10
7758.098812926728
 20
8199.860285762891
 30
0.0
 11
7758.098812926728
 21
7478.942642107099
 31
0.0
  0
LINE
  5
151F2
330
747D
100
AcDbEntity
  8
想像線
 48
10.0
100
AcDbLine
 10
8708.098812926728
 20
8199.8602857629
 30
0.0
 11
8708.098812926728
 21
7478.942642107107
 31
0.0
  0
ARC
  5
151F3
330
747D
100
AcDbEntity
  8
想像線
 48
10.0
100
AcDbCircle
 10
8700.746762249568
 20
8201.555179138475
 30
0.0
 40
722.6499369155609
100
AcDbArc
 50
180.1343808685446
 51
270.5829222700353
  0
LINE
  5
151F4
330
747D
100
AcDbEntity
  8
部品1
100
AcDbLine
 10
8708.098812926728
 20
8225.860285762941
 30
0.0
 11
7978.098812926728
 21
8225.860285762887
 31
0.0
  0
LINE
  5
151F5
330
747D
100
AcDbEntity
  8
部品1
100
AcDbLine
 10
8826.59784150192
 20
8331.360391475788
 30
0.0
 11
7988.598812926712
 21
8331.360285787564
 31
0.0
  0
LINE
  5
151F6
330
747D
100
AcDbEntity
  8
破線
 48
10.0
100
AcDbLine
 10
8803.098812926712
 20
8354.860285762942
 30
0.0
 11
8012.098812926721
 21
8354.860285762905
 31
0.0
  0
LINE
  5
151F7
330
747D
100
AcDbEntity
  8
部品1
 48
5.0
100
AcDbLine
 10
8840.09881292671
 20
8229.36028576289
 30
0.0
 11
7957.09881292673
 21
8229.36028576289
 31
0.0
  0
LINE
  5
151F8
330
747D
100
AcDbEntity
  8
部品1
100
AcDbLine
 10
7961.098812926659
 20
9121.860285762901
 30
0.0
 11
8855.098812926735
 21
9121.860285762949
 31
0.0
  0
LINE
  5
151F9
330
747D
100
AcDbEntity
  8
細線
 48
50.0
100
AcDbLine
 10
8854.098819604329
 20
8670.360285762926
 30
0.0
 11
7962.098819604328
 21
9120.360285762826
 31
0.0
  0
LINE
  5
151FA
330
747D
100
AcDbEntity
  8
細線
 48
50.0
100
AcDbLine
 10
8854.098819604329
 20
9120.360285762926
 30
0.0
 11
7962.098819604328
 21
8670.360285762825
 31
0.0
  0
LINE
  5
151FB
330
747D
100
AcDbEntity
  8
部品1
100
AcDbLine
 10
7962.098819604332
 20
8670.360285762825
 30
0.0
 11
8854.098819604329
 21
8670.360285762926
 31
0.0
  0
LINE
  5
151FD
330
747D
100
AcDbEntity
  8
部品1
100
AcDbLine
 10
7962.098819604328
 20
9120.360285762826
 30
0.0
 11
8854.098819604329
 21
9120.360285762933
 31
0.0
  0
DIMENSION
  5
151FE
330
747D
100
AcDbEntity
  8
寸法
100
AcDbDimension
  2
*D10
 10
8828.098812926734
 20
9365.668505387951
 30
0.0
 11
8408.098812926736
 21
9365.668505387951
 31
0.0
 70
   160
  1
2X420=<>
 71
     5
 42
839.9999999999982
  3
INABA_S40G
100
AcDbAlignedDimension
 13
7988.098812926735
 23
9149.860285762882
 33
0.0
 14
8828.098812926734
 24
9149.86028576297
 34
0.0
100
AcDbRotatedDimension
1001
ACAD
1000
DSTYLE
1002
{
1002
}
  0
LINE
  5
151FF
330
747D
100
AcDbEntity
  8
部品1
 48
50.0
100
AcDbLine
 10
7904.098819604328
 20
9120.360285762926
 30
0.0
 11
7904.098819604328
 21
8670.360285762926
 31
0.0
  0
LINE
  5
15200
330
747D
100
AcDbEntity
  8
部品1
 48
50.0
100
AcDbLine
 10
7962.098819604328
 20
9120.360285762819
 30
0.0
 11
7962.098819604328
 21
8670.360285762825
 31
0.0
  0
LINE
  5
15201
330
747D
100
AcDbEntity
  8
部品1
 48
50.0
100
AcDbLine
 10
7961.098812926714
 20
8254.860285762891
 30
0.0
 11
7961.098812926659
 21
9149.860285762898
 31
0.0
  0
LINE
  5
15202
330
747D
100
AcDbEntity
  8
部品1
 48
50.0
100
AcDbLine
 10
7905.098812926714
 20
8254.860285762891
 30
0.0
 11
7905.098812926661
 21
9121.860285762897
 31
0.0
  0
LINE
  5
15203
330
747D
100
AcDbEntity
  8
部品1
 48
50.0
100
AcDbLine
 10
7933.098812926714
 20
8254.860285762891
 30
0.0
 11
7933.098812926714
 21
9094.860285762898
 31
0.0
  0
LINE
  5
15204
330
747D
100
AcDbEntity
  8
部品1
 48
50.0
100
AcDbLine
 10
7457.59881292672
 20
8670.360285762875
 30
0.0
 11
7457.598650054617
 21
8331.359453599679
 31
0.0
  0
LINE
  5
15205
330
747D
100
AcDbEntity
  8
部品1
100
AcDbLine
 10
7758.098812926728
 20
8225.860285762941
 30
0.0
 11
7758.098812926728
 21
8199.860285762886
 31
0.0
  0
ARC
  5
15206
330
747D
100
AcDbEntity
  8
部品1
 48
0.2
100
AcDbCircle
 10
7750.161260755405
 20
8200.857915718112
 30
0.0
 40
8.0
100
AcDbArc
 50
270.0
 51
352.8363522778074
  0
ARC
  5
15207
330
747D
100
AcDbEntity
  8
細線
 48
0.2
100
AcDbCircle
 10
7750.161260755405
 20
8200.857915718112
 30
0.0
 40
4.049999999999999
100
AcDbArc
 50
194.2603506853988
 51
345.7396493146012
  0
LINE
  5
15208
330
747D
100
AcDbEntity
  8
部品1
 48
0.2
100
AcDbLine
 10
7745.161260755406
 20
8192.857915718112
 30
0.0
 11
7750.161260755405
 21
8192.857915718112
 31
0.0
  0
LINE
  5
15209
330
747D
100
AcDbEntity
  8
部品1
 48
5.0
100
AcDbLine
 10
7760.098812926729
 20
8229.36028576289
 30
0.0
 11
7760.098812926729
 21
8199.860285762891
 31
0.0
  0
ARC
  5
1520A
330
747D
100
AcDbEntity
  8
部品1
 48
0.2
100
AcDbCircle
 10
7745.161260755406
 20
8200.857915718112
 30
0.0
 40
8.0
100
AcDbArc
 50
187.1636477221926
 51
269.9999999999992
  0
LINE
  5
1520B
330
747D
100
AcDbEntity
  8
破線
 48
10.0
100
AcDbLine
 10
8012.098812926721
 20
8354.860285762905
 30
0.0
 11
8012.098800495611
 21
8670.360285762901
 31
0.0
  0
LINE
  5
1520C
330
747D
100
AcDbEntity
  8
破線
 48
10.0
100
AcDbLine
 10
7854.098812926721
 20
8354.860285762898
 30
0.0
 11
7854.098804572167
 21
8670.360285762956
 31
0.0
  0
LINE
  5
1520D
330
747D
100
AcDbEntity
  8
部品1
 48
50.0
100
AcDbLine
 10
7877.598812926713
 20
8331.360285762897
 30
0.0
 11
7877.598812926688
 21
8670.360285762956
 31
0.0
  0
LINE
  5
1520E
330
747D
100
AcDbEntity
  8
部品1
 48
50.0
100
AcDbLine
 10
7988.598806582428
 20
8331.360285787559
 30
0.0
 11
7988.598809555289
 21
8670.360285762901
 31
0.0
  0
LINE
  5
1520F
330
747D
100
AcDbEntity
  8
部品1
 48
50.0
100
AcDbLine
 10
8407.598812926719
 20
8670.360285762875
 30
0.0
 11
8407.598650054616
 21
8331.359453599679
 31
0.0
  0
LINE
  5
15210
330
747D
100
AcDbEntity
  8
部品1
100
AcDbLine
 10
7976.098812926728
 20
8229.360285762842
 30
0.0
 11
7976.09881292673
 21
8199.860285762891
 31
0.0
  0
LINE
  5
15211
330
747D
100
AcDbEntity
  8
部品1
100
AcDbLine
 10
7978.098812926728
 20
8225.860285762882
 30
0.0
 11
7978.098812926726
 21
8199.860285762891
 31
0.0
  0
LINE
  5
15212
330
747D
100
AcDbEntity
  8
部品1
 48
5.0
100
AcDbLine
 10
7976.09881292673
 20
8229.36028576289
 30
0.0
 11
7976.09881292673
 21
8199.860285762891
 31
0.0
  0
LINE
  5
15213
330
747D
100
AcDbEntity
  8
部品1
 48
5.0
100
AcDbLine
 10
7988.098812926729
 20
8254.860285762891
 30
0.0
 11
7988.098812926732
 21
8229.36028576289
 31
0.0
  0
LINE
  5
15214
330
747D
100
AcDbEntity
  8
部品1
 48
5.0
100
AcDbLine
 10
7957.098812926732
 20
8254.860285762891
 30
0.0
 11
7957.09881292673
 21
8229.36028576289
 31
0.0
  0
LINE
  5
15215
330
747D
100
AcDbEntity
  8
部品1
 48
5.0
100
AcDbLine
 10
7909.09881292673
 20
8254.860285762891
 30
0.0
 11
7909.09881292673
 21
8229.36028576289
 31
0.0
  0
LINE
  5
15216
330
747D
100
AcDbEntity
  8
部品1
 48
5.0
100
AcDbLine
 10
7905.098812926714
 20
8254.860285762891
 30
0.0
 11
7961.098812926714
 21
8254.860285762891
 31
0.0
  0
LINE
  5
15217
330
747D
100
AcDbEntity
  8
部品1
 48
5.0
100
AcDbLine
 10
7965.09881292673
 20
8254.860285762891
 30
0.0
 11
7988.098812926729
 21
8254.860285762891
 31
0.0
  0
LINE
  5
15218
330
747D
100
AcDbEntity
  8
部品1
 48
50.0
100
AcDbLine
 10
7988.598812926712
 20
8331.360285787564
 30
0.0
 11
7961.098812926714
 21
8303.36028576289
 31
0.0
  0
LINE
  5
15219
330
747D
100
AcDbEntity
  8
部品1
100
AcDbLine
 10
7890.098812926727
 20
8229.360285762835
 30
0.0
 11
7890.098812926725
 21
8199.860285762882
 31
0.0
  0
LINE
  5
1521A
330
747D
100
AcDbEntity
  8
部品1
 48
5.0
100
AcDbLine
 10
7890.09881292673
 20
8229.36028576289
 30
0.0
 11
7890.09881292673
 21
8199.860285762891
 31
0.0
  0
LINE
  5
1521B
330
747D
100
AcDbEntity
  8
部品1
 48
5.0
100
AcDbLine
 10
7878.098812926729
 20
8254.860285762891
 30
0.0
 11
7878.098812926731
 21
8229.36028576289
 31
0.0
  0
LINE
  5
1521D
330
747D
100
AcDbEntity
  8
部品1
 48
5.0
100
AcDbLine
 10
7901.09881292673
 20
8254.860285762891
 30
0.0
 11
7878.098812926729
 21
8254.860285762891
 31
0.0
  0
LINE
  5
1521E
330
747D
100
AcDbEntity
  8
部品1
 48
50.0
100
AcDbLine
 10
7905.098812926714
 20
8303.36028576289
 30
0.0
 11
7877.598812926713
 21
8331.360285762897
 31
0.0
  0
LINE
  5
1521F
330
747D
100
AcDbEntity
  8
部品1
 48
5.0
100
AcDbLine
 10
7933.098812926714
 20
8674.860285762894
 30
0.0
 11
7905.098812926663
 21
8674.860285762898
 31
0.0
  0
LINE
  5
15220
330
747D
100
AcDbEntity
  8
部品1
 48
50.0
100
AcDbLine
 10
7933.098812926707
 20
8674.860285762898
 30
0.0
 11
7961.098812926689
 21
8674.860285762902
 31
0.0
  0
LINE
  5
15221
330
747D
100
AcDbEntity
  8
部品1
 48
50.0
100
AcDbLine
 10
7933.098812926707
 20
8712.860285762898
 30
0.0
 11
7961.098812926689
 21
8712.860285762902
 31
0.0
  0
LINE
  5
15222
330
747D
100
AcDbEntity
  8
部品1
100
AcDbLine
 10
7457.598812926666
 20
9149.860285762782
 30
0.0
 11
7457.598812926666
 21
9121.860285762782
 31
0.0
  0
LINE
  5
15223
330
747D
100
AcDbEntity
  8
部品1
100
AcDbLine
 10
7457.598812926699
 20
9149.860285762814
 30
0.0
 11
7457.598812926699
 21
9121.860285762814
 31
0.0
  0
LINE
  5
15224
330
747D
100
AcDbEntity
  8
部品1
 48
5.0
100
AcDbLine
 10
7988.098812926738
 20
9149.860285762901
 30
0.0
 11
7988.098812926732
 21
9121.860285762904
 31
0.0
  0
LINE
  5
15225
330
747D
100
AcDbEntity
  8
部品1
 48
5.0
100
AcDbLine
 10
7907.80808737391
 20
9149.860285762898
 30
0.0
 11
7930.479515945338
 21
9121.860285762897
 31
0.0
  0
LINE
  5
15226
330
747D
100
AcDbEntity
  8
部品1
 48
5.0
100
AcDbLine
 10
7961.098812926663
 20
9094.860285762898
 30
0.0
 11
7905.098812926663
 21
9094.860285762898
 31
0.0
  0
LINE
  5
15227
330
747D
100
AcDbEntity
  8
部品1
 48
50.0
100
AcDbLine
 10
7903.651420414752
 20
9120.360285762933
 30
0.0
 11
7905.098812926626
 21
9121.860285762865
 31
0.0
  0
LINE
  5
15228
330
747D
100
AcDbEntity
  8
部品1
 48
50.0
100
AcDbLine
 10
7962.598819604323
 20
9120.360285762826
 30
0.0
 11
7961.098812926699
 21
9121.860285762817
 31
0.0
  0
LINE
  5
15229
330
747D
100
AcDbEntity
  8
部品1
 48
5.0
100
AcDbLine
 10
7878.098812926731
 20
9121.860285762897
 30
0.0
 11
7878.098812926734
 21
9149.860285762898
 31
0.0
  0
LINE
  5
1522A
330
747D
100
AcDbEntity
  8
部品1
100
AcDbLine
 10
8407.598812926698
 20
9149.860285762887
 30
0.0
 11
8407.598812926698
 21
9121.860285762886
 31
0.0
  0
LINE
  5
1522B
330
747D
100
AcDbEntity
  8
部品1
100
AcDbLine
 10
8407.598812926666
 20
9149.860285762853
 30
0.0
 11
8407.598812926666
 21
9121.860285762855
 31
0.0
  0
LINE
  5
1522C
330
747D
100
AcDbEntity
  8
部品1
 48
50.0
100
AcDbLine
 10
8854.098819604329
 20
9120.360285762926
 30
0.0
 11
8854.098819604329
 21
8670.360285762926
 31
0.0
  0
LINE
  5
1522D
330
747D
100
AcDbEntity
  8
部品1
100
AcDbLine
 10
8855.098812926735
 20
9121.860285762949
 30
0.0
 11
8855.09881292671
 21
8254.860285762935
 31
0.0
  0
DIMENSION
  5
1522E
330
747D
100
AcDbEntity
  8
寸法
100
AcDbDimension
  2
*D11
 10
9530.525158661147
 20
8254.860285762935
 30
0.0
 11
9530.525158661145
 21
8674.860285762944
 31
0.0
 70
   160
  1
2X420=<>
 71
     5
 42
840.0000000000146
  3
INABA_S40G
100
AcDbAlignedDimension
 13
8883.098812926736
 23
9094.860285762948
 33
0.0
 14
8883.098812926709
 24
8254.860285762935
 34
0.0
 50
90.0
100
AcDbRotatedDimension
1001
ACAD
1000
DSTYLE
1002
{
1002
}
  0
LINE
  5
1522F
330
747D
100
AcDbEntity
  8
部品1
100
AcDbLine
 10
8883.098812926736
 20
9149.860285762949
 30
0.0
 11
8883.098812926709
 21
8199.860285762934
 31
0.0
  0
DIMENSION
  5
15230
330
747D
100
AcDbEntity
  8
寸法
100
AcDbDimension
  2
*D12
 10
9209.45654546637
 20
8575.142470093936
 30
0.0
 11
9209.456545466368
 21
8800.142470093931
 31
0.0
 70
   160
 71
     5
 42
449.9999999999927
  3
INABA_S40G
100
AcDbAlignedDimension
 13
8854.098819604343
 23
9120.360285762819
 33
0.0
 14
8854.098819604354
 24
8670.360285762825
 34
0.0
 50
90.0
100
AcDbRotatedDimension
1001
ACAD
1000
DSTYLE
1002
{
1002
}
  0
LINE
  5
15231
330
747D
100
AcDbEntity
  8
破線
 48
10.0
100
AcDbLine
 10
8803.098877851404
 20
8670.360285762898
 30
0.0
 11
8803.098812926718
 21
8354.860285762942
 31
0.0
  0
LINE
  5
15232
330
747D
100
AcDbEntity
  8
部品1
 48
5.0
100
AcDbLine
 10
8826.597841501778
 20
8331.360285762949
 30
0.0
 11
8826.598334433089
 21
8670.360285762894
 31
0.0
  0
LINE
  5
15233
330
747D
100
AcDbEntity
  8
部品1
100
AcDbLine
 10
8708.098812926728
 20
8225.860285762941
 30
0.0
 11
8708.098812926728
 21
8199.860285762934
 31
0.0
  0
LINE
  5
15234
330
747D
100
AcDbEntity
  8
部品1
 48
0.2
100
AcDbLine
 10
8695.161260755407
 20
8192.85791571813
 30
0.0
 11
8700.161260755406
 21
8192.85791571813
 31
0.0
  0
ARC
  5
15235
330
747D
100
AcDbEntity
  8
部品1
 48
0.2
100
AcDbCircle
 10
8700.161260755406
 20
8200.857915718129
 30
0.0
 40
8.0
100
AcDbArc
 50
270.0
 51
352.8363522778074
  0
ARC
  5
15236
330
747D
100
AcDbEntity
  8
部品1
 48
0.2
100
AcDbCircle
 10
8695.161260755407
 20
8200.857915718129
 30
0.0
 40
8.0
100
AcDbArc
 50
187.1636477221926
 51
269.9999999999992
  0
ARC
  5
15237
330
747D
100
AcDbEntity
  8
細線
 48
0.2
100
AcDbCircle
 10
8700.161260755406
 20
8200.857915718129
 30
0.0
 40
4.049999999999999
100
AcDbArc
 50
194.2603506853988
 51
345.7396493146012
  0
LINE
  5
15238
330
747D
100
AcDbEntity
  8
部品1
 48
2.83
100
AcDbLine
 10
8710.098812926709
 20
8229.360285762906
 30
0.0
 11
8710.098812926709
 21
8199.860285762905
 31
0.0
  0
LINE
  5
15239
330
747D
100
AcDbEntity
  8
部品1
100
AcDbLine
 10
8855.098812926742
 20
8254.86028576295
 30
0.0
 11
8883.098812926743
 21
8254.86028576295
 31
0.0
  0
LINE
  5
1523A
330
747D
100
AcDbEntity
  8
部品1
100
AcDbLine
 10
8855.09881292671
 20
8254.860285762935
 30
0.0
 11
8883.098812926709
 21
8254.860285762935
 31
0.0
  0
LINE
  5
1523B
330
747D
100
AcDbEntity
  8
部品1
 48
2.83
100
AcDbLine
 10
8851.098812926711
 20
8254.860285762905
 30
0.0
 11
8828.098812926709
 21
8254.860285762905
 31
0.0
  0
LINE
  5
1523C
330
747D
100
AcDbEntity
  8
部品1
 48
2.83
100
AcDbLine
 10
8883.098812926709
 20
8254.860285762905
 30
0.0
 11
8860.098812926709
 21
8254.860285762905
 31
0.0
  0
LINE
  5
1523D
330
747D
100
AcDbEntity
  8
部品1
 48
2.83
100
AcDbLine
 10
8828.098812926709
 20
8254.860285762905
 30
0.0
 11
8828.098812926709
 21
8229.360285762906
 31
0.0
  0
LINE
  5
1523E
330
747D
100
AcDbEntity
  8
部品1
 48
2.83
100
AcDbLine
 10
8840.09881292671
 20
8229.360285762906
 30
0.0
 11
8840.09881292671
 21
8199.860285762905
 31
0.0
  0
LINE
  5
1523F
330
747D
100
AcDbEntity
  8
部品1
 48
50.0
100
AcDbLine
 10
8855.09881292671
 20
8302.341220570536
 30
0.0
 11
8826.59784150192
 21
8331.360391475788
 31
0.0
  0
LINE
  5
15240
330
747D
100
AcDbEntity
  8
部品1
100
AcDbLine
 10
8855.098812926735
 20
8674.860285762949
 30
0.0
 11
8883.098812926736
 21
8674.860285762949
 31
0.0
  0
DIMENSION
  5
15241
330
747D
100
AcDbEntity
  8
寸法
100
AcDbDimension
  2
*D13
 10
8883.098812926736
 20
9365.66850538793
 30
0.0
 11
9191.584094300974
 21
9365.66850538793
 31
0.0
 70
   160
 71
     5
 42
55.0
  3
INABA_S40G
100
AcDbAlignedDimension
 13
8828.098812926736
 23
9149.860285762949
 33
0.0
 14
8883.098812926736
 24
9149.860285762949
 34
0.0
100
AcDbRotatedDimension
1001
ACAD
1000
DSTYLE
1002
{
1002
}
  0
LINE
  5
15242
330
747D
100
AcDbEntity
  8
部品1
100
AcDbLine
 10
8828.098812926736
 20
9149.860285762963
 30
0.0
 11
8828.098812926736
 21
9121.860285762963
 31
0.0
  0
LINE
  5
15243
330
747D
100
AcDbEntity
  8
部品1
100
AcDbLine
 10
8828.098812926736
 20
9149.860285762949
 30
0.0
 11
8828.098812926736
 21
9121.860285762949
 31
0.0
  0
LINE
  5
15244
330
747D
100
AcDbEntity
  8
部品1
100
AcDbLine
 10
8855.098812926735
 20
9094.860285762948
 30
0.0
 11
8883.098812926736
 21
9094.860285762948
 31
0.0
  0
LINE
  5
15245
330
747D
100
AcDbEntity
  8
部品1
 48
50.0
100
AcDbLine
 10
8853.651420414752
 20
9120.360285762933
 30
0.0
 11
8855.098812926625
 21
9121.860285762865
 31
0.0
  0
LINE
  5
15246
330
747D
100
AcDbEntity
  8
部品1
100
AcDbLine
 10
7028.098812926728
 20
5250.571647548277
 30
0.0
 11
7738.036365098047
 21
5250.571647548278
 31
0.0
  0
LINE
  5
15247
330
747D
100
AcDbEntity
  8
部品1
100
AcDbLine
 10
7028.098812926728
 20
3459.571647548293
 30
0.0
 11
7738.036365098047
 21
3459.571647548298
 31
0.0
  0
LINE
  5
15251
330
747D
100
AcDbEntity
  8
部品1
100
AcDbLine
 10
7026.098812926727
 20
5253.071647548279
 30
0.0
 11
7026.098812926727
 21
3456.071647548299
 31
0.0
  0
LINE
  5
15252
330
747D
100
AcDbEntity
  8
部品1
100
AcDbLine
 10
7028.098812926728
 20
5250.571647548278
 30
0.0
 11
7028.098812926728
 21
3459.571647548293
 31
0.0
  0
LINE
  5
15253
330
747D
100
AcDbEntity
  8
部品1
100
AcDbLine
 10
4176.098812926728
 20
5253.071647548279
 30
0.0
 11
4176.098812926728
 21
3456.071647548299
 31
0.0
  0
LINE
  5
15254
330
747D
100
AcDbEntity
  8
部品1
100
AcDbLine
 10
4133.098812926728
 20
5347.071647548283
 30
0.0
 11
4133.098812926728
 21
3313.071647548279
 31
0.0
  0
LINE
  5
15255
330
747D
100
AcDbEntity
  8
部品1
100
AcDbLine
 10
4178.098812926728
 20
5250.571647548282
 30
0.0
 11
4178.098812926728
 21
3459.571647548284
 31
0.0
  0
LINE
  5
15256
330
747D
100
AcDbEntity
  8
部品1
100
AcDbLine
 10
6808.098812926727
 20
5250.571647548278
 30
0.0
 11
6808.098812926728
 21
3459.5716475483
 31
0.0
  0
LINE
  5
15257
330
747D
100
AcDbEntity
  8
部品1
100
AcDbLine
 10
6940.098812926727
 20
5253.071647548279
 30
0.0
 11
6940.098812926727
 21
3456.071647548299
 31
0.0
  0
DIMENSION
  5
15258
330
747D
100
AcDbEntity
  8
寸法
100
AcDbDimension
  2
*D14
 10
3814.994285319125
 20
3474.571647548283
 30
0.0
 11
3814.994285319124
 21
4353.571647548281
 31
0.0
 70
   160
  1
有効開口部高サ<>
 71
     5
 42
1759.999999999996
  3
INABA_S40G
100
AcDbAlignedDimension
 13
4133.098812926728
 23
5234.571647548278
 33
0.0
 14
4133.098812926728
 24
3474.571647548283
 34
0.0
 50
90.0
100
AcDbRotatedDimension
1001
ACAD
1000
DSTYLE
1002
{
1070
   288
1070
     1
1002
}
  0
LINE
  5
15259
330
747D
100
AcDbEntity
  8
部品1
100
AcDbLine
 10
6810.098812926728
 20
5253.071647548279
 30
0.0
 11
6810.098812926728
 21
3456.071647548299
 31
0.0
  0
LINE
  5
1525A
330
747D
100
AcDbEntity
  8
部品1
100
AcDbLine
 10
6078.098812926728
 20
3459.571647548285
 30
0.0
 11
6788.036365098047
 21
3459.5716475483
 31
0.0
  0
LINE
  5
1525C
330
747D
100
AcDbEntity
  8
部品1
100
AcDbLine
 10
6808.036365098047
 20
3459.57164754829
 30
0.0
 11
6808.098812926728
 21
3459.57164754829
 31
0.0
  0
LINE
  5
1525D
330
747D
100
AcDbEntity
  8
部品1
100
AcDbLine
 10
6808.036365098047
 20
3459.5716475483
 30
0.0
 11
6808.098812926728
 21
3459.5716475483
 31
0.0
  0
ARC
  5
1525E
330
747D
100
AcDbEntity
  8
細線
 48
0.2
100
AcDbCircle
 10
6805.036365098047
 20
3459.35113771705
 30
0.0
 40
1.0
100
AcDbArc
 50
286.6015495990217
 51
0.0
  0
LINE
  5
1525F
330
747D
100
AcDbEntity
  8
細線
 48
50.0
100
AcDbLine
 10
6804.024017949707
 20
3461.821647548299
 30
0.0
 11
6804.024017949707
 21
3463.821647548297
 31
0.0
  0
LINE
  5
15260
330
747D
100
AcDbEntity
  8
細線
 48
0.1
100
AcDbLine
 10
6808.036365098047
 20
3459.321647548298
 30
0.0
 11
6808.036365098047
 21
3466.321647548298
 31
0.0
  0
LINE
  5
15261
330
747D
100
AcDbEntity
  8
細線
 48
50.0
100
AcDbLine
 10
6788.036365098047
 20
3459.5716475483
 30
0.0
 11
6788.036365098047
 21
3459.321647548298
 31
0.0
  0
ARC
  5
15262
330
747D
100
AcDbEntity
  8
細線
 48
0.2
100
AcDbCircle
 10
6795.036365098048
 20
3459.35113771705
 30
0.0
 40
1.0
100
AcDbArc
 50
179.9999999999984
 51
253.3984504009775
  0
LINE
  5
15263
330
747D
100
AcDbEntity
  8
部品1
 48
50.0
100
AcDbLine
 10
6788.036365098047
 20
3466.321647548298
 30
0.0
 11
6788.036365098047
 21
3459.5716475483
 31
0.0
  0
LINE
  5
15264
330
747D
100
AcDbEntity
  8
細線
 48
50.0
100
AcDbLine
 10
6796.173607903743
 20
3461.821647548299
 30
0.0
 11
6796.173607903743
 21
3463.821647548297
 31
0.0
  0
LINE
  5
15265
330
747D
100
AcDbEntity
  8
部品1
 48
0.2
100
AcDbLine
 10
6808.036365098047
 20
3466.321647548298
 30
0.0
 11
6788.036365098047
 21
3466.321647548298
 31
0.0
  0
LINE
  5
15266
330
747D
100
AcDbEntity
  8
細線
 48
0.2
100
AcDbLine
 10
6808.036365098047
 20
3463.821647548297
 30
0.0
 11
6788.036365098047
 21
3463.821647548297
 31
0.0
  0
LINE
  5
15267
330
747D
100
AcDbEntity
  8
細線
 48
0.2
100
AcDbLine
 10
6805.720356394555
 20
3458.621647548297
 30
0.0
 11
6794.352373801543
 21
3458.621647548297
 31
0.0
  0
ARC
  5
15268
330
747D
100
AcDbEntity
  8
細線
 48
0.2
100
AcDbCircle
 10
6800.036365098048
 20
3476.121647548295
 30
0.0
 40
18.49999999999796
100
AcDbArc
 50
253.3984504009772
 51
286.6015495990217
  0
LINE
  5
15269
330
747D
100
AcDbEntity
  8
細線
 48
0.2
100
AcDbLine
 10
6808.036365098047
 20
3461.821647548298
 30
0.0
 11
6788.036365098047
 21
3461.821647548299
 31
0.0
  0
LINE
  5
1526A
330
747D
100
AcDbEntity
  8
細線
 48
0.2
100
AcDbLine
 10
6808.036365098047
 20
3459.321647548298
 30
0.0
 11
6788.036365098047
 21
3459.321647548298
 31
0.0
  0
LINE
  5
152BB
330
747D
100
AcDbEntity
  8
部品1
100
AcDbLine
 10
6078.098812926728
 20
5250.57164754828
 30
0.0
 11
6788.036365098047
 21
5250.57164754828
 31
0.0
  0
LINE
  5
152BC
330
747D
100
AcDbEntity
  8
部品1
100
AcDbLine
 10
6808.036365098047
 20
5250.57164754828
 30
0.0
 11
6808.098812926728
 21
5250.571647548278
 31
0.0
  0
ARC
  5
152BD
330
747D
100
AcDbEntity
  8
細線
 48
0.2
100
AcDbCircle
 10
6805.036365098047
 20
5250.792157379528
 30
0.0
 40
1.0
100
AcDbArc
 50
0.0
 51
73.39845040097829
  0
LINE
  5
152BE
330
747D
100
AcDbEntity
  8
細線
 48
50.0
100
AcDbLine
 10
6788.036365098047
 20
5250.57164754828
 30
0.0
 11
6788.036365098047
 21
5250.82164754828
 31
0.0
  0
ARC
  5
152BF
330
747D
100
AcDbEntity
  8
細線
 48
0.2
100
AcDbCircle
 10
6795.036365098048
 20
5250.792157379528
 30
0.0
 40
1.0
100
AcDbArc
 50
106.6015495990225
 51
180.0000000000016
  0
LINE
  5
152C0
330
747D
100
AcDbEntity
  8
細線
 48
0.2
100
AcDbLine
 10
6808.036365098047
 20
5250.82164754828
 30
0.0
 11
6788.036365098047
 21
5250.82164754828
 31
0.0
  0
LINE
  5
152C1
330
747D
100
AcDbEntity
  8
細線
 48
0.2
100
AcDbLine
 10
6808.036365098047
 20
5248.32164754828
 30
0.0
 11
6788.036365098047
 21
5248.32164754828
 31
0.0
  0
ARC
  5
152C2
330
747D
100
AcDbEntity
  8
細線
 48
0.2
100
AcDbCircle
 10
6800.036365098048
 20
5234.021647548283
 30
0.0
 40
18.49999999999796
100
AcDbArc
 50
73.39845040097829
 51
106.6015495990228
  0
LINE
  5
152C3
330
747D
100
AcDbEntity
  8
細線
 48
0.2
100
AcDbLine
 10
6805.720356394555
 20
5251.521647548281
 30
0.0
 11
6794.352373801543
 21
5251.521647548281
 31
0.0
  0
LINE
  5
152C4
330
747D
100
AcDbEntity
  8
細線
 48
0.2
100
AcDbLine
 10
6808.036365098047
 20
5246.32164754828
 30
0.0
 11
6788.036365098047
 21
5246.32164754828
 31
0.0
  0
LINE
  5
152C5
330
747D
100
AcDbEntity
  8
部品1
 48
0.2
100
AcDbLine
 10
6808.036365098047
 20
5243.82164754828
 30
0.0
 11
6788.036365098047
 21
5243.82164754828
 31
0.0
  0
LINE
  5
152C6
330
747D
100
AcDbEntity
  8
部品1
 48
50.0
100
AcDbLine
 10
6788.036365098047
 20
5243.82164754828
 30
0.0
 11
6788.036365098047
 21
5250.57164754828
 31
0.0
  0
LINE
  5
152C7
330
747D
100
AcDbEntity
  8
細線
 48
50.0
100
AcDbLine
 10
6796.173607903743
 20
5248.32164754828
 30
0.0
 11
6796.173607903743
 21
5246.32164754828
 31
0.0
  0
LINE
  5
152C8
330
747D
100
AcDbEntity
  8
細線
 48
0.1
100
AcDbLine
 10
6808.036365098047
 20
5250.82164754828
 30
0.0
 11
6808.036365098047
 21
5243.82164754828
 31
0.0
  0
LINE
  5
152C9
330
747D
100
AcDbEntity
  8
細線
 48
50.0
100
AcDbLine
 10
6804.024017949707
 20
5248.32164754828
 30
0.0
 11
6804.024017949707
 21
5246.32164754828
 31
0.0
  0
LINE
  5
152E4
330
747D
100
AcDbEntity
  8
部品1
100
AcDbLine
 10
7890.098812926727
 20
5253.071647548279
 30
0.0
 11
7890.098812926727
 21
3456.071647548299
 31
0.0
  0
LINE
  5
152E5
330
747D
100
AcDbEntity
  8
部品1
100
AcDbLine
 10
7758.098812926728
 20
5250.571647548278
 30
0.0
 11
7758.098812926728
 21
3459.571647548301
 31
0.0
  0
LINE
  5
152E6
330
747D
100
AcDbEntity
  8
部品1
100
AcDbLine
 10
7760.098812926727
 20
5253.071647548279
 30
0.0
 11
7760.098812926727
 21
3456.071647548299
 31
0.0
  0
LINE
  5
152E7
330
747D
100
AcDbEntity
  8
部品1
100
AcDbLine
 10
7976.098812926728
 20
5253.071647548279
 30
0.0
 11
7976.098812926728
 21
3456.071647548299
 31
0.0
  0
LINE
  5
152E8
330
747D
100
AcDbEntity
  8
部品1
100
AcDbLine
 10
7978.098812926728
 20
5250.571647548277
 30
0.0
 11
7978.098812926728
 21
3459.571647548293
 31
0.0
  0
LINE
  5
152E9
330
747D
100
AcDbEntity
  8
部品1
100
AcDbLine
 10
8708.098812926726
 20
5250.571647548278
 30
0.0
 11
8708.098812926728
 21
3459.571647548301
 31
0.0
  0
LINE
  5
152EA
330
747D
100
AcDbEntity
  8
部品1
100
AcDbLine
 10
8883.098812926728
 20
5347.071647548279
 30
0.0
 11
8883.098812926728
 21
3313.071647548279
 31
0.0
  0
LINE
  5
152EB
330
747D
100
AcDbEntity
  8
部品1
100
AcDbLine
 10
8840.098812926727
 20
5253.071647548279
 30
0.0
 11
8840.098812926727
 21
3456.071647548299
 31
0.0
  0
LINE
  5
152EC
330
747D
100
AcDbEntity
  8
部品1
100
AcDbLine
 10
8710.098812926728
 20
5253.071647548279
 30
0.0
 11
8710.098812926728
 21
3456.071647548299
 31
0.0
  0
LINE
  5
152ED
330
747D
100
AcDbEntity
  8
部品1
100
AcDbLine
 10
7978.098812926728
 20
3459.571647548293
 30
0.0
 11
8688.036365098048
 21
3459.571647548298
 31
0.0
  0
LINE
  5
152EF
330
747D
100
AcDbEntity
  8
細線
 48
0.2
100
AcDbLine
 10
7758.036365098047
 20
3463.821647548297
 30
0.0
 11
7738.036365098047
 21
3463.821647548297
 31
0.0
  0
LINE
  5
152F0
330
747D
100
AcDbEntity
  8
部品1
 48
0.2
100
AcDbLine
 10
7758.036365098047
 20
3466.321647548298
 30
0.0
 11
7738.036365098047
 21
3466.321647548298
 31
0.0
  0
LINE
  5
152F1
330
747D
100
AcDbEntity
  8
部品1
100
AcDbLine
 10
7758.036365098047
 20
3459.5716475483
 30
0.0
 11
7758.098812926728
 21
3459.5716475483
 31
0.0
  0
ARC
  5
152F2
330
747D
100
AcDbEntity
  8
細線
 48
0.2
100
AcDbCircle
 10
7755.036365098047
 20
3459.35113771705
 30
0.0
 40
1.0
100
AcDbArc
 50
286.6015495990217
 51
0.0
  0
LINE
  5
152F3
330
747D
100
AcDbEntity
  8
細線
 48
0.2
100
AcDbLine
 10
7758.036365098047
 20
3459.321647548298
 30
0.0
 11
7738.036365098047
 21
3459.321647548298
 31
0.0
  0
LINE
  5
152F4
330
747D
100
AcDbEntity
  8
細線
 48
0.2
100
AcDbLine
 10
7758.036365098047
 20
3461.821647548298
 30
0.0
 11
7738.036365098047
 21
3461.821647548299
 31
0.0
  0
ARC
  5
152F5
330
747D
100
AcDbEntity
  8
細線
 48
0.2
100
AcDbCircle
 10
7745.036365098048
 20
3459.35113771705
 30
0.0
 40
1.0
100
AcDbArc
 50
179.9999999999984
 51
253.3984504009775
  0
ARC
  5
152F6
330
747D
100
AcDbEntity
  8
細線
 48
0.2
100
AcDbCircle
 10
7750.036365098047
 20
3476.121647548295
 30
0.0
 40
18.49999999999796
100
AcDbArc
 50
253.3984504009772
 51
286.6015495990217
  0
LINE
  5
152F7
330
747D
100
AcDbEntity
  8
細線
 48
0.2
100
AcDbLine
 10
7755.720356394554
 20
3458.621647548297
 30
0.0
 11
7744.352373801543
 21
3458.621647548297
 31
0.0
  0
LINE
  5
152F8
330
747D
100
AcDbEntity
  8
細線
 48
50.0
100
AcDbLine
 10
7738.036365098047
 20
3459.5716475483
 30
0.0
 11
7738.036365098047
 21
3459.321647548298
 31
0.0
  0
LINE
  5
152F9
330
747D
100
AcDbEntity
  8
部品1
100
AcDbLine
 10
7758.036365098047
 20
3459.5716475483
 30
0.0
 11
7758.098812926728
 21
3459.5716475483
 31
0.0
  0
LINE
  5
152FA
330
747D
100
AcDbEntity
  8
部品1
100
AcDbLine
 10
7758.036365098047
 20
3459.571647548301
 30
0.0
 11
7758.098812926728
 21
3459.571647548301
 31
0.0
  0
LINE
  5
152FB
330
747D
100
AcDbEntity
  8
細線
 48
0.1
100
AcDbLine
 10
7758.036365098047
 20
3459.321647548298
 30
0.0
 11
7758.036365098047
 21
3466.321647548298
 31
0.0
  0
LINE
  5
152FC
330
747D
100
AcDbEntity
  8
細線
 48
50.0
100
AcDbLine
 10
7746.173607903743
 20
3461.821647548299
 30
0.0
 11
7746.173607903743
 21
3463.821647548297
 31
0.0
  0
LINE
  5
152FD
330
747D
100
AcDbEntity
  8
細線
 48
50.0
100
AcDbLine
 10
7754.024017949707
 20
3461.821647548299
 30
0.0
 11
7754.024017949707
 21
3463.821647548297
 31
0.0
  0
LINE
  5
152FE
330
747D
100
AcDbEntity
  8
部品1
 48
50.0
100
AcDbLine
 10
7738.036365098047
 20
3466.321647548298
 30
0.0
 11
7738.036365098047
 21
3459.5716475483
 31
0.0
  0
LINE
  5
15302
330
747D
100
AcDbEntity
  8
細線
 48
0.2
100
AcDbLine
 10
8708.036365098047
 20
3463.821647548297
 30
0.0
 11
8688.036365098048
 21
3463.821647548297
 31
0.0
  0
LINE
  5
15303
330
747D
100
AcDbEntity
  8
部品1
 48
0.2
100
AcDbLine
 10
8708.036365098047
 20
3466.321647548298
 30
0.0
 11
8688.036365098048
 21
3466.321647548298
 31
0.0
  0
LINE
  5
15304
330
747D
100
AcDbEntity
  8
部品1
100
AcDbLine
 10
8708.036365098047
 20
3459.5716475483
 30
0.0
 11
8708.098812926728
 21
3459.5716475483
 31
0.0
  0
ARC
  5
15305
330
747D
100
AcDbEntity
  8
細線
 48
0.2
100
AcDbCircle
 10
8705.036365098047
 20
3459.35113771705
 30
0.0
 40
1.0
100
AcDbArc
 50
286.6015495990217
 51
0.0
  0
LINE
  5
15306
330
747D
100
AcDbEntity
  8
細線
 48
0.2
100
AcDbLine
 10
8708.036365098047
 20
3459.321647548298
 30
0.0
 11
8688.036365098048
 21
3459.321647548298
 31
0.0
  0
LINE
  5
15307
330
747D
100
AcDbEntity
  8
細線
 48
0.2
100
AcDbLine
 10
8708.036365098047
 20
3461.821647548298
 30
0.0
 11
8688.036365098048
 21
3461.821647548299
 31
0.0
  0
ARC
  5
15308
330
747D
100
AcDbEntity
  8
細線
 48
0.2
100
AcDbCircle
 10
8695.036365098047
 20
3459.35113771705
 30
0.0
 40
1.0
100
AcDbArc
 50
179.9999999999984
 51
253.3984504009775
  0
ARC
  5
15309
330
747D
100
AcDbEntity
  8
細線
 48
0.2
100
AcDbCircle
 10
8700.036365098048
 20
3476.121647548295
 30
0.0
 40
18.49999999999796
100
AcDbArc
 50
253.3984504009772
 51
286.6015495990217
  0
LINE
  5
1530A
330
747D
100
AcDbEntity
  8
細線
 48
0.2
100
AcDbLine
 10
8705.720356394555
 20
3458.621647548297
 30
0.0
 11
8694.352373801542
 21
3458.621647548297
 31
0.0
  0
LINE
  5
1530B
330
747D
100
AcDbEntity
  8
細線
 48
50.0
100
AcDbLine
 10
8688.036365098048
 20
3459.5716475483
 30
0.0
 11
8688.036365098048
 21
3459.321647548298
 31
0.0
  0
LINE
  5
1530C
330
747D
100
AcDbEntity
  8
部品1
100
AcDbLine
 10
8708.036365098047
 20
3459.5716475483
 30
0.0
 11
8708.098812926728
 21
3459.5716475483
 31
0.0
  0
LINE
  5
1530D
330
747D
100
AcDbEntity
  8
部品1
100
AcDbLine
 10
8708.036365098047
 20
3459.571647548301
 30
0.0
 11
8708.098812926728
 21
3459.571647548301
 31
0.0
  0
LINE
  5
1530E
330
747D
100
AcDbEntity
  8
細線
 48
0.1
100
AcDbLine
 10
8708.036365098047
 20
3459.321647548298
 30
0.0
 11
8708.036365098047
 21
3466.321647548298
 31
0.0
  0
LINE
  5
1530F
330
747D
100
AcDbEntity
  8
細線
 48
50.0
100
AcDbLine
 10
8696.173607903743
 20
3461.821647548299
 30
0.0
 11
8696.173607903743
 21
3463.821647548297
 31
0.0
  0
LINE
  5
15310
330
747D
100
AcDbEntity
  8
細線
 48
50.0
100
AcDbLine
 10
8704.024017949707
 20
3461.821647548299
 30
0.0
 11
8704.024017949707
 21
3463.821647548297
 31
0.0
  0
LINE
  5
15311
330
747D
100
AcDbEntity
  8
部品1
 48
50.0
100
AcDbLine
 10
8688.036365098048
 20
3466.321647548298
 30
0.0
 11
8688.036365098048
 21
3459.5716475483
 31
0.0
  0
LINE
  5
15312
330
747D
100
AcDbEntity
  8
部品1
100
AcDbLine
 10
7978.098812926728
 20
5250.571647548277
 30
0.0
 11
8688.036365098048
 21
5250.571647548278
 31
0.0
  0
LINE
  5
1533A
330
747D
100
AcDbEntity
  8
部品1
100
AcDbLine
 10
7758.036365098047
 20
5250.571647548277
 30
0.0
 11
7758.098812926728
 21
5250.571647548278
 31
0.0
  0
LINE
  5
1533B
330
747D
100
AcDbEntity
  8
部品1
100
AcDbLine
 10
7758.036365098047
 20
5250.57164754828
 30
0.0
 11
7758.098812926728
 21
5250.571647548278
 31
0.0
  0
LINE
  5
1533C
330
747D
100
AcDbEntity
  8
細線
 48
50.0
100
AcDbLine
 10
7738.036365098047
 20
5250.57164754828
 30
0.0
 11
7738.036365098047
 21
5250.82164754828
 31
0.0
  0
LINE
  5
1533D
330
747D
100
AcDbEntity
  8
細線
 48
0.2
100
AcDbLine
 10
7755.720356394554
 20
5251.521647548281
 30
0.0
 11
7744.352373801543
 21
5251.521647548281
 31
0.0
  0
ARC
  5
1533E
330
747D
100
AcDbEntity
  8
細線
 48
0.2
100
AcDbCircle
 10
7750.036365098047
 20
5234.021647548283
 30
0.0
 40
18.49999999999796
100
AcDbArc
 50
73.39845040097829
 51
106.6015495990228
  0
ARC
  5
1533F
330
747D
100
AcDbEntity
  8
細線
 48
0.2
100
AcDbCircle
 10
7745.036365098048
 20
5250.792157379528
 30
0.0
 40
1.0
100
AcDbArc
 50
106.6015495990225
 51
180.0000000000016
  0
LINE
  5
15340
330
747D
100
AcDbEntity
  8
細線
 48
0.2
100
AcDbLine
 10
7758.036365098047
 20
5248.32164754828
 30
0.0
 11
7738.036365098047
 21
5248.32164754828
 31
0.0
  0
LINE
  5
15341
330
747D
100
AcDbEntity
  8
細線
 48
0.2
100
AcDbLine
 10
7758.036365098047
 20
5250.82164754828
 30
0.0
 11
7738.036365098047
 21
5250.82164754828
 31
0.0
  0
ARC
  5
15342
330
747D
100
AcDbEntity
  8
細線
 48
0.2
100
AcDbCircle
 10
7755.036365098047
 20
5250.792157379528
 30
0.0
 40
1.0
100
AcDbArc
 50
0.0
 51
73.39845040097829
  0
LINE
  5
15343
330
747D
100
AcDbEntity
  8
部品1
 48
0.2
100
AcDbLine
 10
7758.036365098047
 20
5243.82164754828
 30
0.0
 11
7738.036365098047
 21
5243.82164754828
 31
0.0
  0
LINE
  5
15344
330
747D
100
AcDbEntity
  8
細線
 48
0.2
100
AcDbLine
 10
7758.036365098047
 20
5246.32164754828
 30
0.0
 11
7738.036365098047
 21
5246.32164754828
 31
0.0
  0
LINE
  5
15345
330
747D
100
AcDbEntity
  8
部品1
 48
50.0
100
AcDbLine
 10
7738.036365098047
 20
5243.82164754828
 30
0.0
 11
7738.036365098047
 21
5250.57164754828
 31
0.0
  0
LINE
  5
15346
330
747D
100
AcDbEntity
  8
細線
 48
50.0
100
AcDbLine
 10
7754.024017949707
 20
5248.32164754828
 30
0.0
 11
7754.024017949707
 21
5246.32164754828
 31
0.0
  0
LINE
  5
15347
330
747D
100
AcDbEntity
  8
細線
 48
50.0
100
AcDbLine
 10
7746.173607903743
 20
5248.32164754828
 30
0.0
 11
7746.173607903743
 21
5246.32164754828
 31
0.0
  0
LINE
  5
15348
330
747D
100
AcDbEntity
  8
細線
 48
0.1
100
AcDbLine
 10
7758.036365098047
 20
5250.82164754828
 30
0.0
 11
7758.036365098047
 21
5243.82164754828
 31
0.0
  0
LINE
  5
15349
330
747D
100
AcDbEntity
  8
部品1
100
AcDbLine
 10
8708.036365098047
 20
5250.571647548277
 30
0.0
 11
8708.098812926728
 21
5250.571647548278
 31
0.0
  0
LINE
  5
1534A
330
747D
100
AcDbEntity
  8
部品1
100
AcDbLine
 10
8708.036365098047
 20
5250.57164754828
 30
0.0
 11
8708.098812926728
 21
5250.571647548278
 31
0.0
  0
LINE
  5
1534B
330
747D
100
AcDbEntity
  8
細線
 48
50.0
100
AcDbLine
 10
8688.036365098048
 20
5250.57164754828
 30
0.0
 11
8688.036365098048
 21
5250.82164754828
 31
0.0
  0
LINE
  5
1534C
330
747D
100
AcDbEntity
  8
細線
 48
0.2
100
AcDbLine
 10
8705.720356394555
 20
5251.521647548281
 30
0.0
 11
8694.352373801542
 21
5251.521647548281
 31
0.0
  0
ARC
  5
1534D
330
747D
100
AcDbEntity
  8
細線
 48
0.2
100
AcDbCircle
 10
8700.036365098048
 20
5234.021647548283
 30
0.0
 40
18.49999999999796
100
AcDbArc
 50
73.39845040097829
 51
106.6015495990228
  0
ARC
  5
1534E
330
747D
100
AcDbEntity
  8
細線
 48
0.2
100
AcDbCircle
 10
8695.036365098047
 20
5250.792157379528
 30
0.0
 40
1.0
100
AcDbArc
 50
106.6015495990225
 51
180.0000000000016
  0
LINE
  5
1534F
330
747D
100
AcDbEntity
  8
細線
 48
0.2
100
AcDbLine
 10
8708.036365098047
 20
5248.32164754828
 30
0.0
 11
8688.036365098048
 21
5248.32164754828
 31
0.0
  0
LINE
  5
15350
330
747D
100
AcDbEntity
  8
細線
 48
0.2
100
AcDbLine
 10
8708.036365098047
 20
5250.82164754828
 30
0.0
 11
8688.036365098048
 21
5250.82164754828
 31
0.0
  0
ARC
  5
15351
330
747D
100
AcDbEntity
  8
細線
 48
0.2
100
AcDbCircle
 10
8705.036365098047
 20
5250.792157379528
 30
0.0
 40
1.0
100
AcDbArc
 50
0.0
 51
73.39845040097829
  0
LINE
  5
15352
330
747D
100
AcDbEntity
  8
部品1
 48
0.2
100
AcDbLine
 10
8708.036365098047
 20
5243.82164754828
 30
0.0
 11
8688.036365098048
 21
5243.82164754828
 31
0.0
  0
LINE
  5
15353
330
747D
100
AcDbEntity
  8
細線
 48
0.2
100
AcDbLine
 10
8708.036365098047
 20
5246.32164754828
 30
0.0
 11
8688.036365098048
 21
5246.32164754828
 31
0.0
  0
LINE
  5
15354
330
747D
100
AcDbEntity
  8
部品1
 48
50.0
100
AcDbLine
 10
8688.036365098048
 20
5243.82164754828
 30
0.0
 11
8688.036365098048
 21
5250.57164754828
 31
0.0
  0
LINE
  5
15355
330
747D
100
AcDbEntity
  8
細線
 48
50.0
100
AcDbLine
 10
8704.024017949707
 20
5248.32164754828
 30
0.0
 11
8704.024017949707
 21
5246.32164754828
 31
0.0
  0
LINE
  5
15356
330
747D
100
AcDbEntity
  8
細線
 48
50.0
100
AcDbLine
 10
8696.173607903743
 20
5248.32164754828
 30
0.0
 11
8696.173607903743
 21
5246.32164754828
 31
0.0
  0
LINE
  5
15357
330
747D
100
AcDbEntity
  8
細線
 48
0.1
100
AcDbLine
 10
8708.036365098047
 20
5250.82164754828
 30
0.0
 11
8708.036365098047
 21
5243.82164754828
 31
0.0
  0
LINE
  5
155F2
330
747D
100
AcDbEntity
  8
細線
 48
50.0
100
AcDbLine
 10
4302.098812926728
 20
8225.860285762923
 30
0.0
 11
4302.098812926728
 21
8199.860285762875
 31
0.0
  0
LINE
  5
155F3
330
747D
100
AcDbEntity
  8
細線
 48
50.0
100
AcDbLine
 10
6428.098812926728
 20
8225.860285762912
 30
0.0
 11
6428.098812926728
 21
8199.860285762875
 31
0.0
  0
LINE
  5
155F4
330
747D
100
AcDbEntity
  8
細線
 48
50.0
100
AcDbLine
 10
6388.098812926727
 20
8225.860285762912
 30
0.0
 11
6388.098812926727
 21
8199.860285762875
 31
0.0
  0
LINE
  5
155F5
330
747D
100
AcDbEntity
  8
細線
 48
50.0
100
AcDbLine
 10
6615.098812926728
 20
8225.860285763127
 30
0.0
 11
6615.098812926728
 21
8199.86028576309
 31
0.0
  0
LINE
  5
155F6
330
747D
100
AcDbEntity
  8
細線
 48
50.0
100
AcDbLine
 10
6655.098812926728
 20
8225.860285763127
 30
0.0
 11
6655.098812926728
 21
8199.86028576309
 31
0.0
  0
LINE
  5
155F7
330
747D
100
AcDbEntity
  8
細線
 48
50.0
100
AcDbLine
 10
7338.098812926728
 20
8225.860285762912
 30
0.0
 11
7338.098812926728
 21
8199.860285762875
 31
0.0
  0
LINE
  5
155F8
330
747D
100
AcDbEntity
  8
細線
 48
50.0
100
AcDbLine
 10
7378.098812926729
 20
8225.860285762912
 30
0.0
 11
7378.098812926729
 21
8199.860285762875
 31
0.0
  0
LINE
  5
155F9
330
747D
100
AcDbEntity
  8
細線
 48
50.0
100
AcDbLine
 10
7152.098812926728
 20
8225.860285762923
 30
0.0
 11
7152.098812926728
 21
8199.860285762875
 31
0.0
  0
LINE
  5
155FA
330
747D
100
AcDbEntity
  8
細線
 48
50.0
100
AcDbLine
 10
7605.098812926728
 20
8225.860285763127
 30
0.0
 11
7605.098812926728
 21
8199.86028576309
 31
0.0
  0
LINE
  5
155FB
330
747D
100
AcDbEntity
  8
細線
 48
50.0
100
AcDbLine
 10
7565.098812926727
 20
8225.860285763127
 30
0.0
 11
7565.098812926727
 21
8199.86028576309
 31
0.0
  0
LINE
  5
155FC
330
747D
100
AcDbEntity
  8
細線
 48
50.0
100
AcDbLine
 10
8102.098812926728
 20
8225.860285762923
 30
0.0
 11
8102.098812926728
 21
8199.860285762875
 31
0.0
  0
LINE
  5
155FD
330
747D
100
AcDbEntity
  8
細線
 48
50.0
100
AcDbLine
 10
8328.098812926729
 20
8225.860285762912
 30
0.0
 11
8328.098812926729
 21
8199.860285762875
 31
0.0
  0
LINE
  5
155FE
330
747D
100
AcDbEntity
  8
細線
 48
50.0
100
AcDbLine
 10
8288.098812926728
 20
8225.860285762912
 30
0.0
 11
8288.098812926728
 21
8199.860285762875
 31
0.0
  0
LINE
  5
155FF
330
747D
100
AcDbEntity
  8
細線
 48
50.0
100
AcDbLine
 10
8515.098812926728
 20
8225.860285763127
 30
0.0
 11
8515.098812926728
 21
8199.86028576309
 31
0.0
  0
LINE
  5
15600
330
747D
100
AcDbEntity
  8
細線
 48
50.0
100
AcDbLine
 10
8555.098812926727
 20
8225.860285763127
 30
0.0
 11
8555.098812926727
 21
8199.86028576309
 31
0.0
  0
ARC
  5
15645
330
747D
100
AcDbEntity
  8
細線
100
AcDbCircle
 10
4239.098812926726
 20
4302.071647548281
 30
0.0
 40
5.5
100
AcDbArc
 50
270.0
 51
0.0
  0
ARC
  5
15646
330
747D
100
AcDbEntity
  8
部品1
100
AcDbCircle
 10
4240.098812926726
 20
4301.071647548281
 30
0.0
 40
6.0
100
AcDbArc
 50
270.0
 51
0.0
  0
ARC
  5
15647
330
747D
100
AcDbEntity
  8
細線
100
AcDbCircle
 10
4199.93219445748
 20
4302.071647548281
 30
0.0
 40
5.5
100
AcDbArc
 50
190.4214509727298
 51
269.9999999999997
  0
ARC
  5
15648
330
747D
100
AcDbEntity
  8
部品1
100
AcDbCircle
 10
4199.100543035711
 20
4301.071647548281
 30
0.0
 40
6.0
100
AcDbArc
 50
190.5838025965097
 51
270.0
  0
LINE
  5
15649
330
747D
100
AcDbEntity
  8
細線
100
AcDbLine
 10
4199.93219445748
 20
4296.571647548281
 30
0.0
 11
4239.098812926726
 21
4296.571647548281
 31
0.0
  0
LINE
  5
1564A
330
747D
100
AcDbEntity
  8
部品1
100
AcDbLine
 10
4199.100543035711
 20
4295.071647548281
 30
0.0
 11
4240.098812926726
 21
4295.071647548281
 31
0.0
  0
CIRCLE
  5
1564B
330
747D
100
AcDbEntity
  8
細線
 48
20.0
100
AcDbCircle
 10
4219.59967798122
 20
4455.571647548281
 30
0.0
 40
20.0
  0
CIRCLE
  5
1564C
330
747D
100
AcDbEntity
  8
細線
 48
20.0
100
AcDbCircle
 10
4219.59967798122
 20
4455.571647548281
 30
0.0
 40
10.0
  0
ARC
  5
1564D
330
747D
100
AcDbEntity
  8
細線
100
AcDbCircle
 10
4234.098812926726
 20
4399.071647548281
 30
0.0
 40
6.0
100
AcDbArc
 50
0.0
 51
90.0
  0
ARC
  5
1564E
330
747D
100
AcDbEntity
  8
細線
100
AcDbCircle
 10
4224.306352105472
 20
4396.071647548281
 30
0.0
 40
6.0
100
AcDbArc
 50
0.0
 51
90.0
  0
ARC
  5
1564F
330
747D
100
AcDbEntity
  8
細線
100
AcDbCircle
 10
4239.098812926726
 20
4408.071647548282
 30
0.0
 40
5.5
100
AcDbArc
 50
0.0
 51
90.0
  0
ARC
  5
15650
330
747D
100
AcDbEntity
  8
部品1
100
AcDbCircle
 10
4240.098812926726
 20
4409.071647548281
 30
0.0
 40
6.0
100
AcDbArc
 50
0.0
 51
90.0
  0
LINE
  5
15651
330
747D
100
AcDbEntity
  8
細線
100
AcDbLine
 10
4213.593236836559
 20
4399.071647548281
 30
0.0
 11
4212.098812926726
 21
4399.071647548281
 31
0.0
  0
ARC
  5
15652
330
747D
100
AcDbEntity
  8
細線
100
AcDbCircle
 10
4213.593236836559
 20
4396.071647548281
 30
0.0
 40
3.0
100
AcDbArc
 50
8.099550838277986
 51
90.0
  0
ARC
  5
15653
330
747D
100
AcDbEntity
  8
細線
100
AcDbCircle
 10
4203.479769291203
 20
4399.071647548281
 30
0.0
 40
6.0
100
AcDbArc
 50
90.0
 51
171.2120626773636
  0
LINE
  5
15654
330
747D
100
AcDbEntity
  8
細線
100
AcDbLine
 10
4212.098812926726
 20
4399.071139649718
 30
0.0
 11
4199.335485710759
 21
4399.071139649718
 31
0.0
  0
ARC
  5
15655
330
747D
100
AcDbEntity
  8
細線
100
AcDbCircle
 10
4199.93219445748
 20
4408.071647548282
 30
0.0
 40
5.5
100
AcDbArc
 50
89.99999999999969
 51
169.5785490272683
  0
ARC
  5
15656
330
747D
100
AcDbEntity
  8
部品1
100
AcDbCircle
 10
4199.100543035711
 20
4409.071647548281
 30
0.0
 40
6.0
100
AcDbArc
 50
90.0
 51
169.4161974034886
  0
LINE
  5
15657
330
747D
100
AcDbEntity
  8
細線
100
AcDbLine
 10
4239.098812926726
 20
4413.571647548281
 30
0.0
 11
4199.93219445748
 21
4413.571647548281
 31
0.0
  0
LINE
  5
15658
330
747D
100
AcDbEntity
  8
細線
100
AcDbLine
 10
4224.306352105472
 20
4402.071647548281
 30
0.0
 11
4212.098812926726
 21
4402.071647548281
 31
0.0
  0
LINE
  5
15659
330
747D
100
AcDbEntity
  8
細線
100
AcDbLine
 10
4234.098812926726
 20
4405.071647548282
 30
0.0
 11
4203.479769291203
 21
4405.071647548282
 31
0.0
  0
LINE
  5
1565A
330
747D
100
AcDbEntity
  8
部品1
100
AcDbLine
 10
4240.098812926726
 20
4415.071647548281
 30
0.0
 11
4199.100543035711
 21
4415.071647548281
 31
0.0
  0
ARC
  5
1565B
330
747D
100
AcDbEntity
  8
細線
100
AcDbCircle
 10
4234.098812926726
 20
4311.071647548281
 30
0.0
 40
6.0
100
AcDbArc
 50
270.0
 51
0.0
  0
ARC
  5
1565C
330
747D
100
AcDbEntity
  8
細線
100
AcDbCircle
 10
4224.306352105472
 20
4314.07164754828
 30
0.0
 40
6.0
100
AcDbArc
 50
270.0
 51
360.0
  0
LINE
  5
1565D
330
747D
100
AcDbEntity
  8
細線
100
AcDbLine
 10
4212.098812926726
 20
4311.071647548281
 30
0.0
 11
4213.593236836561
 21
4311.071647548281
 31
0.0
  0
ARC
  5
1565E
330
747D
100
AcDbEntity
  8
細線
100
AcDbCircle
 10
4213.593236836561
 20
4314.07164754828
 30
0.0
 40
3.0
100
AcDbArc
 50
270.0
 51
351.9004491617184
  0
ARC
  5
1565F
330
747D
100
AcDbEntity
  8
細線
100
AcDbCircle
 10
4203.479769291203
 20
4311.071647548281
 30
0.0
 40
6.0
100
AcDbArc
 50
188.7879373226349
 51
270.0
  0
LINE
  5
15660
330
747D
100
AcDbEntity
  8
細線
100
AcDbLine
 10
4212.098812926726
 20
4311.072155446843
 30
0.0
 11
4198.620108427904
 21
4311.072155446843
 31
0.0
  0
LINE
  5
15661
330
747D
100
AcDbEntity
  8
細線
100
AcDbLine
 10
4212.098812926726
 20
4308.071647548281
 30
0.0
 11
4224.306352105472
 21
4308.071647548281
 31
0.0
  0
LINE
  5
15662
330
747D
100
AcDbEntity
  8
細線
100
AcDbLine
 10
4203.479769291203
 20
4305.071647548281
 30
0.0
 11
4234.098812926726
 21
4305.071647548281
 31
0.0
  0
LINE
  5
15663
330
747D
100
AcDbEntity
  8
細線
100
AcDbLine
 10
4230.306352105471
 20
4314.07164754828
 30
0.0
 11
4230.306352105471
 21
4396.071647548281
 31
0.0
  0
LINE
  5
15664
330
747D
100
AcDbEntity
  8
細線
100
AcDbLine
 10
4240.098812926726
 20
4311.071647548281
 30
0.0
 11
4240.098812926726
 21
4399.071647548281
 31
0.0
  0
LINE
  5
15665
330
747D
100
AcDbEntity
  8
細線
100
AcDbLine
 10
4244.598812926726
 20
4302.071647548281
 30
0.0
 11
4244.598812926726
 21
4408.071647548282
 31
0.0
  0
LINE
  5
15666
330
747D
100
AcDbEntity
  8
部品1
100
AcDbLine
 10
4246.098812926726
 20
4301.071647548281
 30
0.0
 11
4246.098812926726
 21
4409.071647548281
 31
0.0
  0
LINE
  5
15667
330
747D
100
AcDbEntity
  8
細線
100
AcDbLine
 10
4212.098812926726
 20
4405.071647548282
 30
0.0
 11
4212.098812926726
 21
4305.071647548281
 31
0.0
  0
ARC
  5
15668
330
747D
100
AcDbEntity
  8
細線
100
AcDbCircle
 10
4488.098812926726
 20
4355.071647548281
 30
0.0
 40
298.5
100
AcDbArc
 50
169.578549027269
 51
190.4214509727309
  0
ARC
  5
15669
330
747D
100
AcDbEntity
  8
細線
100
AcDbCircle
 10
4488.098812926726
 20
4355.071647548281
 30
0.0
 40
294.0
100
AcDbArc
 50
171.212062677364
 51
188.7879373226359
  0
ARC
  5
1566A
330
747D
100
AcDbEntity
  8
細線
100
AcDbCircle
 10
3925.496031018802
 20
4355.071647548281
 30
0.0
 40
294.0
100
AcDbArc
 50
351.900449161722
 51
8.099550838278029
  0
ARC
  5
1566B
330
747D
100
AcDbEntity
  8
部品1
100
AcDbCircle
 10
4488.098812926726
 20
4355.071647548281
 30
0.0
 40
300.0
100
AcDbArc
 50
169.4161974034894
 51
190.5838025965105
  0
LINE
  5
1566E
330
747D
100
AcDbEntity
  8
細線
100
AcDbLine
 10
7080.306352105472
 20
4314.07164754828
 30
0.0
 11
7080.306352105472
 21
4396.071647548281
 31
0.0
  0
LINE
  5
1566F
330
747D
100
AcDbEntity
  8
細線
100
AcDbLine
 10
7090.098812926726
 20
4311.071647548281
 30
0.0
 11
7090.098812926726
 21
4399.071647548281
 31
0.0
  0
LINE
  5
15670
330
747D
100
AcDbEntity
  8
細線
100
AcDbLine
 10
7094.598812926726
 20
4302.071647548281
 30
0.0
 11
7094.598812926726
 21
4408.071647548282
 31
0.0
  0
LINE
  5
15671
330
747D
100
AcDbEntity
  8
部品1
100
AcDbLine
 10
7096.098812926726
 20
4301.071647548281
 30
0.0
 11
7096.098812926726
 21
4409.071647548281
 31
0.0
  0
LINE
  5
15672
330
747D
100
AcDbEntity
  8
細線
100
AcDbLine
 10
7062.098812926726
 20
4405.071647548282
 30
0.0
 11
7062.098812926726
 21
4305.071647548281
 31
0.0
  0
ARC
  5
15673
330
747D
100
AcDbEntity
  8
細線
100
AcDbCircle
 10
7338.098812926727
 20
4355.071647548281
 30
0.0
 40
298.5
100
AcDbArc
 50
169.578549027269
 51
190.4214509727309
  0
ARC
  5
15674
330
747D
100
AcDbEntity
  8
細線
100
AcDbCircle
 10
7338.098812926727
 20
4355.071647548281
 30
0.0
 40
294.0
100
AcDbArc
 50
171.212062677364
 51
188.7879373226359
  0
ARC
  5
15675
330
747D
100
AcDbEntity
  8
細線
100
AcDbCircle
 10
6775.496031018801
 20
4355.071647548281
 30
0.0
 40
294.0
100
AcDbArc
 50
351.900449161722
 51
8.099550838278029
  0
ARC
  5
15676
330
747D
100
AcDbEntity
  8
部品1
100
AcDbCircle
 10
7338.098812926727
 20
4355.071647548281
 30
0.0
 40
300.0
100
AcDbArc
 50
169.4161974034894
 51
190.5838025965105
  0
LINE
  5
15677
330
747D
100
AcDbEntity
  8
細線
100
AcDbLine
 10
7049.93219445748
 20
4296.571647548281
 30
0.0
 11
7089.098812926725
 21
4296.571647548281
 31
0.0
  0
ARC
  5
15678
330
747D
100
AcDbEntity
  8
細線
100
AcDbCircle
 10
7053.479769291204
 20
4311.071647548281
 30
0.0
 40
6.0
100
AcDbArc
 50
188.7879373226349
 51
270.0
  0
LINE
  5
15679
330
747D
100
AcDbEntity
  8
細線
100
AcDbLine
 10
7062.098812926726
 20
4311.072155446843
 30
0.0
 11
7048.620108427904
 21
4311.072155446843
 31
0.0
  0
LINE
  5
1567A
330
747D
100
AcDbEntity
  8
部品1
100
AcDbLine
 10
7049.10054303571
 20
4295.071647548281
 30
0.0
 11
7090.098812926726
 21
4295.071647548281
 31
0.0
  0
ARC
  5
1567B
330
747D
100
AcDbEntity
  8
細線
100
AcDbCircle
 10
7049.93219445748
 20
4302.071647548281
 30
0.0
 40
5.5
100
AcDbArc
 50
190.4214509727298
 51
269.9999999999997
  0
ARC
  5
1567C
330
747D
100
AcDbEntity
  8
部品1
100
AcDbCircle
 10
7049.10054303571
 20
4301.071647548281
 30
0.0
 40
6.0
100
AcDbArc
 50
190.5838025965097
 51
270.0
  0
ARC
  5
1567D
330
747D
100
AcDbEntity
  8
部品1
100
AcDbCircle
 10
7090.098812926726
 20
4301.071647548281
 30
0.0
 40
6.0
100
AcDbArc
 50
270.0
 51
0.0
  0
ARC
  5
1567E
330
747D
100
AcDbEntity
  8
細線
100
AcDbCircle
 10
7074.306352105472
 20
4314.07164754828
 30
0.0
 40
6.0
100
AcDbArc
 50
270.0
 51
360.0
  0
LINE
  5
1567F
330
747D
100
AcDbEntity
  8
細線
100
AcDbLine
 10
7062.098812926726
 20
4311.071647548281
 30
0.0
 11
7063.593236836561
 21
4311.071647548281
 31
0.0
  0
ARC
  5
15680
330
747D
100
AcDbEntity
  8
細線
100
AcDbCircle
 10
7063.593236836561
 20
4314.07164754828
 30
0.0
 40
3.0
100
AcDbArc
 50
270.0
 51
351.9004491617184
  0
LINE
  5
15681
330
747D
100
AcDbEntity
  8
細線
100
AcDbLine
 10
7062.098812926726
 20
4308.071647548281
 30
0.0
 11
7074.306352105472
 21
4308.071647548281
 31
0.0
  0
LINE
  5
15682
330
747D
100
AcDbEntity
  8
細線
100
AcDbLine
 10
7053.479769291204
 20
4305.071647548281
 30
0.0
 11
7084.098812926725
 21
4305.071647548281
 31
0.0
  0
ARC
  5
15683
330
747D
100
AcDbEntity
  8
細線
100
AcDbCircle
 10
7089.098812926725
 20
4302.071647548281
 30
0.0
 40
5.5
100
AcDbArc
 50
270.0
 51
0.0
  0
ARC
  5
15684
330
747D
100
AcDbEntity
  8
細線
100
AcDbCircle
 10
7084.098812926725
 20
4311.071647548281
 30
0.0
 40
6.0
100
AcDbArc
 50
270.0
 51
0.0
  0
ARC
  5
15685
330
747D
100
AcDbEntity
  8
細線
100
AcDbCircle
 10
7053.479769291204
 20
4399.071647548281
 30
0.0
 40
6.0
100
AcDbArc
 50
90.0
 51
171.2120626773636
  0
LINE
  5
15686
330
747D
100
AcDbEntity
  8
細線
100
AcDbLine
 10
7062.098812926726
 20
4399.071139649718
 30
0.0
 11
7049.335485710759
 21
4399.071139649718
 31
0.0
  0
LINE
  5
15687
330
747D
100
AcDbEntity
  8
細線
100
AcDbLine
 10
7089.098812926725
 20
4413.571647548281
 30
0.0
 11
7049.93219445748
 21
4413.571647548281
 31
0.0
  0
CIRCLE
  5
15688
330
747D
100
AcDbEntity
  8
細線
 48
20.0
100
AcDbCircle
 10
7069.599677981219
 20
4455.571647548281
 30
0.0
 40
20.0
  0
LINE
  5
15689
330
747D
100
AcDbEntity
  8
部品1
100
AcDbLine
 10
7090.098812926726
 20
4415.071647548281
 30
0.0
 11
7049.10054303571
 21
4415.071647548281
 31
0.0
  0
ARC
  5
1568A
330
747D
100
AcDbEntity
  8
細線
100
AcDbCircle
 10
7049.93219445748
 20
4408.071647548282
 30
0.0
 40
5.5
100
AcDbArc
 50
89.99999999999969
 51
169.5785490272683
  0
ARC
  5
1568B
330
747D
100
AcDbEntity
  8
部品1
100
AcDbCircle
 10
7049.10054303571
 20
4409.071647548281
 30
0.0
 40
6.0
100
AcDbArc
 50
90.0
 51
169.4161974034886
  0
ARC
  5
1568C
330
747D
100
AcDbEntity
  8
部品1
100
AcDbCircle
 10
7090.098812926726
 20
4409.071647548281
 30
0.0
 40
6.0
100
AcDbArc
 50
0.0
 51
90.0
  0
CIRCLE
  5
1568D
330
747D
100
AcDbEntity
  8
細線
 48
20.0
100
AcDbCircle
 10
7069.599677981219
 20
4455.571647548281
 30
0.0
 40
10.0
  0
ARC
  5
1568E
330
747D
100
AcDbEntity
  8
細線
100
AcDbCircle
 10
7074.306352105472
 20
4396.071647548281
 30
0.0
 40
6.0
100
AcDbArc
 50
0.0
 51
90.0
  0
LINE
  5
1568F
330
747D
100
AcDbEntity
  8
細線
100
AcDbLine
 10
7063.59323683656
 20
4399.071647548281
 30
0.0
 11
7062.098812926726
 21
4399.071647548281
 31
0.0
  0
ARC
  5
15690
330
747D
100
AcDbEntity
  8
細線
100
AcDbCircle
 10
7063.59323683656
 20
4396.071647548281
 30
0.0
 40
3.0
100
AcDbArc
 50
8.099550838277986
 51
90.0
  0
LINE
  5
15691
330
747D
100
AcDbEntity
  8
細線
100
AcDbLine
 10
7074.306352105472
 20
4402.071647548281
 30
0.0
 11
7062.098812926726
 21
4402.071647548281
 31
0.0
  0
LINE
  5
15692
330
747D
100
AcDbEntity
  8
細線
100
AcDbLine
 10
7084.098812926725
 20
4405.071647548282
 30
0.0
 11
7053.479769291204
 21
4405.071647548282
 31
0.0
  0
ARC
  5
15693
330
747D
100
AcDbEntity
  8
細線
100
AcDbCircle
 10
7084.098812926725
 20
4399.071647548281
 30
0.0
 40
6.0
100
AcDbArc
 50
0.0
 51
90.0
  0
ARC
  5
15694
330
747D
100
AcDbEntity
  8
細線
100
AcDbCircle
 10
7089.098812926725
 20
4408.071647548282
 30
0.0
 40
5.5
100
AcDbArc
 50
0.0
 51
90.0
  0
ARC
  5
15695
330
747D
100
AcDbEntity
  8
部品1
100
AcDbCircle
 10
8288.098812926726
 20
4355.071647548281
 30
0.0
 40
300.0
100
AcDbArc
 50
169.4161974034894
 51
190.5838025965105
  0
ARC
  5
15696
330
747D
100
AcDbEntity
  8
細線
100
AcDbCircle
 10
7725.496031018803
 20
4355.071647548281
 30
0.0
 40
294.0
100
AcDbArc
 50
351.900449161722
 51
8.099550838278029
  0
ARC
  5
15697
330
747D
100
AcDbEntity
  8
細線
100
AcDbCircle
 10
8288.098812926726
 20
4355.071647548281
 30
0.0
 40
294.0
100
AcDbArc
 50
171.212062677364
 51
188.7879373226359
  0
ARC
  5
15698
330
747D
100
AcDbEntity
  8
細線
100
AcDbCircle
 10
8288.098812926726
 20
4355.071647548281
 30
0.0
 40
298.5
100
AcDbArc
 50
169.578549027269
 51
190.4214509727309
  0
LINE
  5
15699
330
747D
100
AcDbEntity
  8
細線
100
AcDbLine
 10
8012.098812926726
 20
4405.071647548282
 30
0.0
 11
8012.098812926726
 21
4305.071647548281
 31
0.0
  0
LINE
  5
1569A
330
747D
100
AcDbEntity
  8
部品1
100
AcDbLine
 10
8046.098812926727
 20
4301.071647548281
 30
0.0
 11
8046.098812926727
 21
4409.071647548281
 31
0.0
  0
LINE
  5
1569B
330
747D
100
AcDbEntity
  8
細線
100
AcDbLine
 10
8044.598812926727
 20
4302.071647548281
 30
0.0
 11
8044.598812926727
 21
4408.071647548282
 31
0.0
  0
LINE
  5
1569C
330
747D
100
AcDbEntity
  8
細線
100
AcDbLine
 10
8040.098812926727
 20
4311.071647548281
 30
0.0
 11
8040.098812926727
 21
4399.071647548281
 31
0.0
  0
LINE
  5
1569D
330
747D
100
AcDbEntity
  8
細線
100
AcDbLine
 10
8030.306352105473
 20
4314.07164754828
 30
0.0
 11
8030.306352105473
 21
4396.071647548281
 31
0.0
  0
ARC
  5
1569E
330
747D
100
AcDbEntity
  8
細線
100
AcDbCircle
 10
8034.098812926727
 20
4311.071647548281
 30
0.0
 40
6.0
100
AcDbArc
 50
270.0
 51
0.0
  0
LINE
  5
1569F
330
747D
100
AcDbEntity
  8
部品1
100
AcDbLine
 10
7999.10054303571
 20
4295.071647548281
 30
0.0
 11
8040.098812926727
 21
4295.071647548281
 31
0.0
  0
LINE
  5
156A0
330
747D
100
AcDbEntity
  8
細線
100
AcDbLine
 10
7999.93219445748
 20
4296.571647548281
 30
0.0
 11
8039.098812926726
 21
4296.571647548281
 31
0.0
  0
LINE
  5
156A1
330
747D
100
AcDbEntity
  8
細線
100
AcDbLine
 10
8003.479769291203
 20
4305.071647548281
 30
0.0
 11
8034.098812926727
 21
4305.071647548281
 31
0.0
  0
LINE
  5
156A2
330
747D
100
AcDbEntity
  8
細線
100
AcDbLine
 10
8012.098812926726
 20
4308.071647548281
 30
0.0
 11
8024.306352105472
 21
4308.071647548281
 31
0.0
  0
ARC
  5
156A3
330
747D
100
AcDbEntity
  8
細線
100
AcDbCircle
 10
8013.593236836561
 20
4314.07164754828
 30
0.0
 40
3.0
100
AcDbArc
 50
270.0
 51
351.9004491617184
  0
LINE
  5
156A4
330
747D
100
AcDbEntity
  8
細線
100
AcDbLine
 10
8012.098812926726
 20
4311.071647548281
 30
0.0
 11
8013.593236836561
 21
4311.071647548281
 31
0.0
  0
ARC
  5
156A5
330
747D
100
AcDbEntity
  8
細線
100
AcDbCircle
 10
8024.306352105472
 20
4314.07164754828
 30
0.0
 40
6.0
100
AcDbArc
 50
270.0
 51
360.0
  0
ARC
  5
156A6
330
747D
100
AcDbEntity
  8
部品1
100
AcDbCircle
 10
7999.10054303571
 20
4301.071647548281
 30
0.0
 40
6.0
100
AcDbArc
 50
190.5838025965097
 51
270.0
  0
ARC
  5
156A7
330
747D
100
AcDbEntity
  8
細線
100
AcDbCircle
 10
7999.93219445748
 20
4302.071647548281
 30
0.0
 40
5.5
100
AcDbArc
 50
190.4214509727298
 51
269.9999999999997
  0
LINE
  5
156A8
330
747D
100
AcDbEntity
  8
細線
100
AcDbLine
 10
8012.098812926726
 20
4311.072155446843
 30
0.0
 11
7998.620108427904
 21
4311.072155446843
 31
0.0
  0
ARC
  5
156A9
330
747D
100
AcDbEntity
  8
細線
100
AcDbCircle
 10
8003.479769291203
 20
4311.071647548281
 30
0.0
 40
6.0
100
AcDbArc
 50
188.7879373226349
 51
270.0
  0
ARC
  5
156AA
330
747D
100
AcDbEntity
  8
細線
100
AcDbCircle
 10
8039.098812926726
 20
4302.071647548281
 30
0.0
 40
5.5
100
AcDbArc
 50
270.0
 51
0.0
  0
ARC
  5
156AB
330
747D
100
AcDbEntity
  8
部品1
100
AcDbCircle
 10
8040.098812926727
 20
4301.071647548281
 30
0.0
 40
6.0
100
AcDbArc
 50
270.0
 51
0.0
  0
ARC
  5
156AC
330
747D
100
AcDbEntity
  8
細線
100
AcDbCircle
 10
8034.098812926727
 20
4399.071647548281
 30
0.0
 40
6.0
100
AcDbArc
 50
0.0
 51
90.0
  0
LINE
  5
156AD
330
747D
100
AcDbEntity
  8
部品1
100
AcDbLine
 10
8040.098812926727
 20
4415.071647548281
 30
0.0
 11
7999.10054303571
 21
4415.071647548281
 31
0.0
  0
CIRCLE
  5
156AE
330
747D
100
AcDbEntity
  8
細線
 48
20.0
100
AcDbCircle
 10
8019.599677981219
 20
4455.571647548281
 30
0.0
 40
20.0
  0
LINE
  5
156AF
330
747D
100
AcDbEntity
  8
細線
100
AcDbLine
 10
8039.098812926726
 20
4413.571647548281
 30
0.0
 11
7999.93219445748
 21
4413.571647548281
 31
0.0
  0
LINE
  5
156B0
330
747D
100
AcDbEntity
  8
細線
100
AcDbLine
 10
8034.098812926727
 20
4405.071647548282
 30
0.0
 11
8003.479769291203
 21
4405.071647548282
 31
0.0
  0
LINE
  5
156B1
330
747D
100
AcDbEntity
  8
細線
100
AcDbLine
 10
8024.306352105472
 20
4402.071647548281
 30
0.0
 11
8012.098812926726
 21
4402.071647548281
 31
0.0
  0
ARC
  5
156B2
330
747D
100
AcDbEntity
  8
細線
100
AcDbCircle
 10
8013.593236836561
 20
4396.071647548281
 30
0.0
 40
3.0
100
AcDbArc
 50
8.099550838277986
 51
90.0
  0
LINE
  5
156B3
330
747D
100
AcDbEntity
  8
細線
100
AcDbLine
 10
8013.593236836561
 20
4399.071647548281
 30
0.0
 11
8012.098812926726
 21
4399.071647548281
 31
0.0
  0
ARC
  5
156B4
330
747D
100
AcDbEntity
  8
細線
100
AcDbCircle
 10
8024.306352105472
 20
4396.071647548281
 30
0.0
 40
6.0
100
AcDbArc
 50
0.0
 51
90.0
  0
CIRCLE
  5
156B5
330
747D
100
AcDbEntity
  8
細線
 48
20.0
100
AcDbCircle
 10
8019.599677981219
 20
4455.571647548281
 30
0.0
 40
10.0
  0
ARC
  5
156B6
330
747D
100
AcDbEntity
  8
部品1
100
AcDbCircle
 10
7999.10054303571
 20
4409.071647548281
 30
0.0
 40
6.0
100
AcDbArc
 50
90.0
 51
169.4161974034886
  0
ARC
  5
156B7
330
747D
100
AcDbEntity
  8
細線
100
AcDbCircle
 10
7999.93219445748
 20
4408.071647548282
 30
0.0
 40
5.5
100
AcDbArc
 50
89.99999999999969
 51
169.5785490272683
  0
LINE
  5
156B8
330
747D
100
AcDbEntity
  8
細線
100
AcDbLine
 10
8012.098812926726
 20
4399.071139649718
 30
0.0
 11
7999.335485710759
 21
4399.071139649718
 31
0.0
  0
ARC
  5
156B9
330
747D
100
AcDbEntity
  8
細線
100
AcDbCircle
 10
8003.479769291203
 20
4399.071647548281
 30
0.0
 40
6.0
100
AcDbArc
 50
90.0
 51
171.2120626773636
  0
ARC
  5
156BA
330
747D
100
AcDbEntity
  8
細線
100
AcDbCircle
 10
8039.098812926726
 20
4408.071647548282
 30
0.0
 40
5.5
100
AcDbArc
 50
0.0
 51
90.0
  0
ARC
  5
156BB
330
747D
100
AcDbEntity
  8
部品1
100
AcDbCircle
 10
8040.098812926727
 20
4409.071647548281
 30
0.0
 40
6.0
100
AcDbArc
 50
0.0
 51
90.0
  0
DIMENSION
  5
156D1
330
747D
100
AcDbEntity
  8
寸法
 48
50.0
100
AcDbDimension
  2
*D15
 10
7723.098812926728
 20
7760.036617967769
 30
0.0
 11
7380.598812926731
 21
7760.036617967769
 31
0.0
 70
   160
 71
     5
 42
684.9999999999964
  3
INABA_S40G
100
AcDbAlignedDimension
 13
7038.098812926732
 23
8199.860285762847
 33
0.0
 14
7723.098812926728
 24
8199.86028576281
 34
0.0
100
AcDbRotatedDimension
  0
DIMENSION
  5
156E9
330
747D
100
AcDbEntity
  8
寸法
 48
50.0
100
AcDbDimension
  2
*D16
 10
6773.098812926727
 20
7760.036617967769
 30
0.0
 11
6430.598812926731
 21
7760.036617967769
 31
0.0
 70
   160
 71
     5
 42
684.9999999999964
  3
INABA_S40G
100
AcDbAlignedDimension
 13
6088.098812926731
 23
8199.860285762847
 33
0.0
 14
6773.098812926727
 24
8199.86028576281
 34
0.0
100
AcDbRotatedDimension
  0
LINE
  5
1573A
330
747D
100
AcDbEntity
  8
部品1
100
AcDbLine
 10
5128.098812926728
 20
5250.571647548277
 30
0.0
 11
5838.036365098047
 21
5250.571647548278
 31
0.0
  0
LINE
  5
1573B
330
747D
100
AcDbEntity
  8
部品1
100
AcDbLine
 10
5128.098812926728
 20
3459.571647548293
 30
0.0
 11
5838.036365098047
 21
3459.571647548298
 31
0.0
  0
LINE
  5
1573C
330
747D
100
AcDbEntity
  8
部品1
100
AcDbLine
 10
5126.098812926728
 20
5253.071647548279
 30
0.0
 11
5126.098812926728
 21
3456.071647548299
 31
0.0
  0
LINE
  5
1573D
330
747D
100
AcDbEntity
  8
部品1
100
AcDbLine
 10
5128.098812926728
 20
5250.571647548278
 30
0.0
 11
5128.098812926728
 21
3459.571647548293
 31
0.0
  0
LINE
  5
15751
330
747D
100
AcDbEntity
  8
細線
100
AcDbLine
 10
5180.306352105471
 20
4314.07164754828
 30
0.0
 11
5180.306352105471
 21
4396.071647548281
 31
0.0
  0
LINE
  5
15752
330
747D
100
AcDbEntity
  8
細線
100
AcDbLine
 10
5190.098812926726
 20
4311.071647548281
 30
0.0
 11
5190.098812926726
 21
4399.071647548281
 31
0.0
  0
LINE
  5
15753
330
747D
100
AcDbEntity
  8
細線
100
AcDbLine
 10
5194.598812926726
 20
4302.071647548281
 30
0.0
 11
5194.598812926726
 21
4408.071647548282
 31
0.0
  0
LINE
  5
15754
330
747D
100
AcDbEntity
  8
部品1
100
AcDbLine
 10
5196.098812926726
 20
4301.071647548281
 30
0.0
 11
5196.098812926726
 21
4409.071647548281
 31
0.0
  0
LINE
  5
15755
330
747D
100
AcDbEntity
  8
細線
100
AcDbLine
 10
5162.098812926726
 20
4405.071647548282
 30
0.0
 11
5162.098812926726
 21
4305.071647548281
 31
0.0
  0
ARC
  5
15756
330
747D
100
AcDbEntity
  8
細線
100
AcDbCircle
 10
5438.098812926726
 20
4355.071647548281
 30
0.0
 40
298.5
100
AcDbArc
 50
169.578549027269
 51
190.4214509727309
  0
ARC
  5
15757
330
747D
100
AcDbEntity
  8
細線
100
AcDbCircle
 10
5438.098812926726
 20
4355.071647548281
 30
0.0
 40
294.0
100
AcDbArc
 50
171.212062677364
 51
188.7879373226359
  0
ARC
  5
15758
330
747D
100
AcDbEntity
  8
細線
100
AcDbCircle
 10
4875.496031018801
 20
4355.071647548281
 30
0.0
 40
294.0
100
AcDbArc
 50
351.900449161722
 51
8.099550838278029
  0
ARC
  5
15759
330
747D
100
AcDbEntity
  8
部品1
100
AcDbCircle
 10
5438.098812926726
 20
4355.071647548281
 30
0.0
 40
300.0
100
AcDbArc
 50
169.4161974034894
 51
190.5838025965105
  0
ARC
  5
1575A
330
747D
100
AcDbEntity
  8
細線
100
AcDbCircle
 10
5149.93219445748
 20
4302.071647548281
 30
0.0
 40
5.5
100
AcDbArc
 50
190.4214509727298
 51
269.9999999999997
  0
ARC
  5
1575B
330
747D
100
AcDbEntity
  8
部品1
100
AcDbCircle
 10
5149.100543035711
 20
4301.071647548281
 30
0.0
 40
6.0
100
AcDbArc
 50
190.5838025965097
 51
270.0
  0
ARC
  5
1575C
330
747D
100
AcDbEntity
  8
部品1
100
AcDbCircle
 10
5190.098812926726
 20
4301.071647548281
 30
0.0
 40
6.0
100
AcDbArc
 50
270.0
 51
0.0
  0
ARC
  5
1575D
330
747D
100
AcDbEntity
  8
細線
100
AcDbCircle
 10
5189.098812926726
 20
4302.071647548281
 30
0.0
 40
5.5
100
AcDbArc
 50
270.0
 51
0.0
  0
ARC
  5
1575E
330
747D
100
AcDbEntity
  8
細線
100
AcDbCircle
 10
5153.479769291203
 20
4311.071647548281
 30
0.0
 40
6.0
100
AcDbArc
 50
188.7879373226349
 51
270.0
  0
LINE
  5
1575F
330
747D
100
AcDbEntity
  8
細線
100
AcDbLine
 10
5162.098812926726
 20
4311.072155446843
 30
0.0
 11
5148.620108427904
 21
4311.072155446843
 31
0.0
  0
ARC
  5
15760
330
747D
100
AcDbEntity
  8
細線
100
AcDbCircle
 10
5174.306352105472
 20
4314.07164754828
 30
0.0
 40
6.0
100
AcDbArc
 50
270.0
 51
360.0
  0
LINE
  5
15761
330
747D
100
AcDbEntity
  8
細線
100
AcDbLine
 10
5162.098812926726
 20
4311.071647548281
 30
0.0
 11
5163.593236836561
 21
4311.071647548281
 31
0.0
  0
ARC
  5
15762
330
747D
100
AcDbEntity
  8
細線
100
AcDbCircle
 10
5163.593236836561
 20
4314.07164754828
 30
0.0
 40
3.0
100
AcDbArc
 50
270.0
 51
351.9004491617184
  0
LINE
  5
15763
330
747D
100
AcDbEntity
  8
細線
100
AcDbLine
 10
5162.098812926726
 20
4308.071647548281
 30
0.0
 11
5174.306352105472
 21
4308.071647548281
 31
0.0
  0
LINE
  5
15764
330
747D
100
AcDbEntity
  8
細線
100
AcDbLine
 10
5153.479769291203
 20
4305.071647548281
 30
0.0
 11
5184.098812926726
 21
4305.071647548281
 31
0.0
  0
LINE
  5
15765
330
747D
100
AcDbEntity
  8
細線
100
AcDbLine
 10
5149.93219445748
 20
4296.571647548281
 30
0.0
 11
5189.098812926726
 21
4296.571647548281
 31
0.0
  0
LINE
  5
15766
330
747D
100
AcDbEntity
  8
部品1
100
AcDbLine
 10
5149.100543035711
 20
4295.071647548281
 30
0.0
 11
5190.098812926726
 21
4295.071647548281
 31
0.0
  0
ARC
  5
15767
330
747D
100
AcDbEntity
  8
細線
100
AcDbCircle
 10
5184.098812926726
 20
4311.071647548281
 30
0.0
 40
6.0
100
AcDbArc
 50
270.0
 51
0.0
  0
ARC
  5
15768
330
747D
100
AcDbEntity
  8
細線
100
AcDbCircle
 10
5149.93219445748
 20
4408.071647548282
 30
0.0
 40
5.5
100
AcDbArc
 50
89.99999999999969
 51
169.5785490272683
  0
ARC
  5
15769
330
747D
100
AcDbEntity
  8
部品1
100
AcDbCircle
 10
5149.100543035711
 20
4409.071647548281
 30
0.0
 40
6.0
100
AcDbArc
 50
90.0
 51
169.4161974034886
  0
ARC
  5
1576A
330
747D
100
AcDbEntity
  8
部品1
100
AcDbCircle
 10
5190.098812926726
 20
4409.071647548281
 30
0.0
 40
6.0
100
AcDbArc
 50
0.0
 51
90.0
  0
ARC
  5
1576B
330
747D
100
AcDbEntity
  8
細線
100
AcDbCircle
 10
5189.098812926726
 20
4408.071647548282
 30
0.0
 40
5.5
100
AcDbArc
 50
0.0
 51
90.0
  0
ARC
  5
1576C
330
747D
100
AcDbEntity
  8
細線
100
AcDbCircle
 10
5153.479769291203
 20
4399.071647548281
 30
0.0
 40
6.0
100
AcDbArc
 50
90.0
 51
171.2120626773636
  0
LINE
  5
1576D
330
747D
100
AcDbEntity
  8
細線
100
AcDbLine
 10
5162.098812926726
 20
4399.071139649718
 30
0.0
 11
5149.335485710759
 21
4399.071139649718
 31
0.0
  0
CIRCLE
  5
1576E
330
747D
100
AcDbEntity
  8
細線
 48
20.0
100
AcDbCircle
 10
5169.59967798122
 20
4455.571647548281
 30
0.0
 40
10.0
  0
ARC
  5
1576F
330
747D
100
AcDbEntity
  8
細線
100
AcDbCircle
 10
5174.306352105472
 20
4396.071647548281
 30
0.0
 40
6.0
100
AcDbArc
 50
0.0
 51
90.0
  0
LINE
  5
15770
330
747D
100
AcDbEntity
  8
細線
100
AcDbLine
 10
5163.593236836559
 20
4399.071647548281
 30
0.0
 11
5162.098812926726
 21
4399.071647548281
 31
0.0
  0
ARC
  5
15771
330
747D
100
AcDbEntity
  8
細線
100
AcDbCircle
 10
5163.593236836559
 20
4396.071647548281
 30
0.0
 40
3.0
100
AcDbArc
 50
8.099550838277986
 51
90.0
  0
LINE
  5
15772
330
747D
100
AcDbEntity
  8
細線
100
AcDbLine
 10
5174.306352105472
 20
4402.071647548281
 30
0.0
 11
5162.098812926726
 21
4402.071647548281
 31
0.0
  0
LINE
  5
15773
330
747D
100
AcDbEntity
  8
細線
100
AcDbLine
 10
5184.098812926726
 20
4405.071647548282
 30
0.0
 11
5153.479769291203
 21
4405.071647548282
 31
0.0
  0
LINE
  5
15774
330
747D
100
AcDbEntity
  8
細線
100
AcDbLine
 10
5189.098812926726
 20
4413.571647548281
 30
0.0
 11
5149.93219445748
 21
4413.571647548281
 31
0.0
  0
CIRCLE
  5
15775
330
747D
100
AcDbEntity
  8
細線
 48
20.0
100
AcDbCircle
 10
5169.59967798122
 20
4455.571647548281
 30
0.0
 40
20.0
  0
LINE
  5
15776
330
747D
100
AcDbEntity
  8
部品1
100
AcDbLine
 10
5190.098812926726
 20
4415.071647548281
 30
0.0
 11
5149.100543035711
 21
4415.071647548281
 31
0.0
  0
ARC
  5
15777
330
747D
100
AcDbEntity
  8
細線
100
AcDbCircle
 10
5184.098812926726
 20
4399.071647548281
 30
0.0
 40
6.0
100
AcDbArc
 50
0.0
 51
90.0
  0
LINE
  5
15795
330
747D
100
AcDbEntity
  8
部品1
100
AcDbLine
 10
5990.098812926728
 20
5253.071647548279
 30
0.0
 11
5990.098812926728
 21
3456.071647548299
 31
0.0
  0
LINE
  5
15796
330
747D
100
AcDbEntity
  8
部品1
100
AcDbLine
 10
5858.098812926728
 20
5250.571647548278
 30
0.0
 11
5858.098812926728
 21
3459.571647548301
 31
0.0
  0
LINE
  5
15797
330
747D
100
AcDbEntity
  8
部品1
100
AcDbLine
 10
5860.098812926728
 20
5253.071647548279
 30
0.0
 11
5860.098812926728
 21
3456.071647548299
 31
0.0
  0
LINE
  5
15798
330
747D
100
AcDbEntity
  8
部品1
100
AcDbLine
 10
6076.098812926728
 20
5253.071647548279
 30
0.0
 11
6076.098812926728
 21
3456.071647548299
 31
0.0
  0
LINE
  5
15799
330
747D
100
AcDbEntity
  8
部品1
100
AcDbLine
 10
6078.098812926728
 20
5250.571647548277
 30
0.0
 11
6078.098812926728
 21
3459.571647548293
 31
0.0
  0
LINE
  5
1579A
330
747D
100
AcDbEntity
  8
細線
 48
0.1
100
AcDbLine
 10
5858.036365098048
 20
3459.321647548298
 30
0.0
 11
5858.036365098048
 21
3466.321647548298
 31
0.0
  0
LINE
  5
1579B
330
747D
100
AcDbEntity
  8
細線
 48
50.0
100
AcDbLine
 10
5846.173607903743
 20
3461.821647548299
 30
0.0
 11
5846.173607903743
 21
3463.821647548297
 31
0.0
  0
LINE
  5
1579C
330
747D
100
AcDbEntity
  8
細線
 48
50.0
100
AcDbLine
 10
5854.024017949707
 20
3461.821647548299
 30
0.0
 11
5854.024017949707
 21
3463.821647548297
 31
0.0
  0
LINE
  5
1579D
330
747D
100
AcDbEntity
  8
部品1
 48
50.0
100
AcDbLine
 10
5838.036365098047
 20
3466.321647548298
 30
0.0
 11
5838.036365098047
 21
3459.5716475483
 31
0.0
  0
LINE
  5
1579E
330
747D
100
AcDbEntity
  8
部品1
100
AcDbLine
 10
5858.036365098048
 20
3459.5716475483
 30
0.0
 11
5858.098812926728
 21
3459.5716475483
 31
0.0
  0
ARC
  5
1579F
330
747D
100
AcDbEntity
  8
細線
 48
0.2
100
AcDbCircle
 10
5855.036365098047
 20
3459.35113771705
 30
0.0
 40
1.0
100
AcDbArc
 50
286.6015495990217
 51
0.0
  0
ARC
  5
157A0
330
747D
100
AcDbEntity
  8
細線
 48
0.2
100
AcDbCircle
 10
5845.036365098047
 20
3459.35113771705
 30
0.0
 40
1.0
100
AcDbArc
 50
179.9999999999984
 51
253.3984504009775
  0
ARC
  5
157A1
330
747D
100
AcDbEntity
  8
細線
 48
0.2
100
AcDbCircle
 10
5850.036365098048
 20
3476.121647548295
 30
0.0
 40
18.49999999999796
100
AcDbArc
 50
253.3984504009772
 51
286.6015495990217
  0
LINE
  5
157A2
330
747D
100
AcDbEntity
  8
細線
 48
0.2
100
AcDbLine
 10
5855.720356394555
 20
3458.621647548297
 30
0.0
 11
5844.352373801543
 21
3458.621647548297
 31
0.0
  0
LINE
  5
157A3
330
747D
100
AcDbEntity
  8
部品1
100
AcDbLine
 10
5858.036365098048
 20
3459.5716475483
 30
0.0
 11
5858.098812926728
 21
3459.5716475483
 31
0.0
  0
LINE
  5
157A4
330
747D
100
AcDbEntity
  8
部品1
100
AcDbLine
 10
5858.036365098048
 20
3459.571647548301
 30
0.0
 11
5858.098812926728
 21
3459.571647548301
 31
0.0
  0
LINE
  5
157A5
330
747D
100
AcDbEntity
  8
細線
 48
50.0
100
AcDbLine
 10
5838.036365098047
 20
3459.5716475483
 30
0.0
 11
5838.036365098047
 21
3459.321647548298
 31
0.0
  0
LINE
  5
157A6
330
747D
100
AcDbEntity
  8
細線
 48
0.2
100
AcDbLine
 10
5858.036365098048
 20
3459.321647548298
 30
0.0
 11
5838.036365098047
 21
3459.321647548298
 31
0.0
  0
LINE
  5
157A7
330
747D
100
AcDbEntity
  8
細線
 48
0.2
100
AcDbLine
 10
5858.036365098048
 20
3461.821647548298
 30
0.0
 11
5838.036365098047
 21
3461.821647548299
 31
0.0
  0
LINE
  5
157A8
330
747D
100
AcDbEntity
  8
細線
 48
0.2
100
AcDbLine
 10
5858.036365098048
 20
3463.821647548297
 30
0.0
 11
5838.036365098047
 21
3463.821647548297
 31
0.0
  0
LINE
  5
157A9
330
747D
100
AcDbEntity
  8
部品1
 48
0.2
100
AcDbLine
 10
5858.036365098048
 20
3466.321647548298
 30
0.0
 11
5838.036365098047
 21
3466.321647548298
 31
0.0
  0
ARC
  5
157AA
330
747D
100
AcDbEntity
  8
部品1
100
AcDbCircle
 10
6388.098812926727
 20
4355.071647548281
 30
0.0
 40
300.0
100
AcDbArc
 50
169.4161974034894
 51
190.5838025965105
  0
ARC
  5
157AB
330
747D
100
AcDbEntity
  8
細線
100
AcDbCircle
 10
5825.496031018801
 20
4355.071647548281
 30
0.0
 40
294.0
100
AcDbArc
 50
351.900449161722
 51
8.099550838278029
  0
ARC
  5
157AC
330
747D
100
AcDbEntity
  8
細線
100
AcDbCircle
 10
6388.098812926727
 20
4355.071647548281
 30
0.0
 40
294.0
100
AcDbArc
 50
171.212062677364
 51
188.7879373226359
  0
ARC
  5
157AD
330
747D
100
AcDbEntity
  8
細線
100
AcDbCircle
 10
6388.098812926727
 20
4355.071647548281
 30
0.0
 40
298.5
100
AcDbArc
 50
169.578549027269
 51
190.4214509727309
  0
LINE
  5
157AE
330
747D
100
AcDbEntity
  8
細線
100
AcDbLine
 10
6112.098812926726
 20
4405.071647548282
 30
0.0
 11
6112.098812926726
 21
4305.071647548281
 31
0.0
  0
LINE
  5
157AF
330
747D
100
AcDbEntity
  8
部品1
100
AcDbLine
 10
6146.098812926727
 20
4301.071647548281
 30
0.0
 11
6146.098812926727
 21
4409.071647548281
 31
0.0
  0
LINE
  5
157B0
330
747D
100
AcDbEntity
  8
細線
100
AcDbLine
 10
6144.598812926727
 20
4302.071647548281
 30
0.0
 11
6144.598812926727
 21
4408.071647548282
 31
0.0
  0
LINE
  5
157B1
330
747D
100
AcDbEntity
  8
細線
100
AcDbLine
 10
6140.098812926726
 20
4311.071647548281
 30
0.0
 11
6140.098812926726
 21
4399.071647548281
 31
0.0
  0
LINE
  5
157B2
330
747D
100
AcDbEntity
  8
細線
100
AcDbLine
 10
6130.306352105471
 20
4314.07164754828
 30
0.0
 11
6130.306352105471
 21
4396.071647548281
 31
0.0
  0
LINE
  5
157B3
330
747D
100
AcDbEntity
  8
部品1
100
AcDbLine
 10
6099.100543035711
 20
4295.071647548281
 30
0.0
 11
6140.098812926726
 21
4295.071647548281
 31
0.0
  0
LINE
  5
157B4
330
747D
100
AcDbEntity
  8
細線
100
AcDbLine
 10
6099.93219445748
 20
4296.571647548281
 30
0.0
 11
6139.098812926726
 21
4296.571647548281
 31
0.0
  0
LINE
  5
157B5
330
747D
100
AcDbEntity
  8
細線
100
AcDbLine
 10
6103.479769291204
 20
4305.071647548281
 30
0.0
 11
6134.098812926726
 21
4305.071647548281
 31
0.0
  0
ARC
  5
157B6
330
747D
100
AcDbEntity
  8
細線
100
AcDbCircle
 10
6124.306352105472
 20
4314.07164754828
 30
0.0
 40
6.0
100
AcDbArc
 50
270.0
 51
360.0
  0
LINE
  5
157B7
330
747D
100
AcDbEntity
  8
細線
100
AcDbLine
 10
6112.098812926726
 20
4308.071647548281
 30
0.0
 11
6124.306352105472
 21
4308.071647548281
 31
0.0
  0
ARC
  5
157B8
330
747D
100
AcDbEntity
  8
細線
100
AcDbCircle
 10
6113.593236836561
 20
4314.07164754828
 30
0.0
 40
3.0
100
AcDbArc
 50
270.0
 51
351.9004491617184
  0
LINE
  5
157B9
330
747D
100
AcDbEntity
  8
細線
100
AcDbLine
 10
6112.098812926726
 20
4311.071647548281
 30
0.0
 11
6113.593236836561
 21
4311.071647548281
 31
0.0
  0
ARC
  5
157BA
330
747D
100
AcDbEntity
  8
部品1
100
AcDbCircle
 10
6099.100543035711
 20
4301.071647548281
 30
0.0
 40
6.0
100
AcDbArc
 50
190.5838025965097
 51
270.0
  0
ARC
  5
157BB
330
747D
100
AcDbEntity
  8
細線
100
AcDbCircle
 10
6099.93219445748
 20
4302.071647548281
 30
0.0
 40
5.5
100
AcDbArc
 50
190.4214509727298
 51
269.9999999999997
  0
LINE
  5
157BC
330
747D
100
AcDbEntity
  8
細線
100
AcDbLine
 10
6112.098812926726
 20
4311.072155446843
 30
0.0
 11
6098.620108427904
 21
4311.072155446843
 31
0.0
  0
ARC
  5
157BD
330
747D
100
AcDbEntity
  8
細線
100
AcDbCircle
 10
6103.479769291204
 20
4311.071647548281
 30
0.0
 40
6.0
100
AcDbArc
 50
188.7879373226349
 51
270.0
  0
ARC
  5
157BE
330
747D
100
AcDbEntity
  8
細線
100
AcDbCircle
 10
6134.098812926726
 20
4311.071647548281
 30
0.0
 40
6.0
100
AcDbArc
 50
270.0
 51
0.0
  0
ARC
  5
157BF
330
747D
100
AcDbEntity
  8
細線
100
AcDbCircle
 10
6139.098812926726
 20
4302.071647548281
 30
0.0
 40
5.5
100
AcDbArc
 50
270.0
 51
0.0
  0
ARC
  5
157C0
330
747D
100
AcDbEntity
  8
部品1
100
AcDbCircle
 10
6140.098812926726
 20
4301.071647548281
 30
0.0
 40
6.0
100
AcDbArc
 50
270.0
 51
0.0
  0
LINE
  5
157C1
330
747D
100
AcDbEntity
  8
部品1
100
AcDbLine
 10
6140.098812926726
 20
4415.071647548281
 30
0.0
 11
6099.100543035711
 21
4415.071647548281
 31
0.0
  0
CIRCLE
  5
157C2
330
747D
100
AcDbEntity
  8
細線
 48
20.0
100
AcDbCircle
 10
6119.59967798122
 20
4455.571647548281
 30
0.0
 40
20.0
  0
LINE
  5
157C3
330
747D
100
AcDbEntity
  8
細線
100
AcDbLine
 10
6139.098812926726
 20
4413.571647548281
 30
0.0
 11
6099.93219445748
 21
4413.571647548281
 31
0.0
  0
LINE
  5
157C4
330
747D
100
AcDbEntity
  8
細線
100
AcDbLine
 10
6134.098812926726
 20
4405.071647548282
 30
0.0
 11
6103.479769291204
 21
4405.071647548282
 31
0.0
  0
ARC
  5
157C5
330
747D
100
AcDbEntity
  8
細線
100
AcDbCircle
 10
6124.306352105472
 20
4396.071647548281
 30
0.0
 40
6.0
100
AcDbArc
 50
0.0
 51
90.0
  0
LINE
  5
157C6
330
747D
100
AcDbEntity
  8
細線
100
AcDbLine
 10
6124.306352105472
 20
4402.071647548281
 30
0.0
 11
6112.098812926726
 21
4402.071647548281
 31
0.0
  0
ARC
  5
157C7
330
747D
100
AcDbEntity
  8
細線
100
AcDbCircle
 10
6113.593236836559
 20
4396.071647548281
 30
0.0
 40
3.0
100
AcDbArc
 50
8.099550838277986
 51
90.0
  0
LINE
  5
157C8
330
747D
100
AcDbEntity
  8
細線
100
AcDbLine
 10
6113.593236836559
 20
4399.071647548281
 30
0.0
 11
6112.098812926726
 21
4399.071647548281
 31
0.0
  0
CIRCLE
  5
157C9
330
747D
100
AcDbEntity
  8
細線
 48
20.0
100
AcDbCircle
 10
6119.59967798122
 20
4455.571647548281
 30
0.0
 40
10.0
  0
ARC
  5
157CA
330
747D
100
AcDbEntity
  8
部品1
100
AcDbCircle
 10
6099.100543035711
 20
4409.071647548281
 30
0.0
 40
6.0
100
AcDbArc
 50
90.0
 51
169.4161974034886
  0
ARC
  5
157CB
330
747D
100
AcDbEntity
  8
細線
100
AcDbCircle
 10
6099.93219445748
 20
4408.071647548282
 30
0.0
 40
5.5
100
AcDbArc
 50
89.99999999999969
 51
169.5785490272683
  0
LINE
  5
157CC
330
747D
100
AcDbEntity
  8
細線
100
AcDbLine
 10
6112.098812926726
 20
4399.071139649718
 30
0.0
 11
6099.335485710759
 21
4399.071139649718
 31
0.0
  0
ARC
  5
157CD
330
747D
100
AcDbEntity
  8
細線
100
AcDbCircle
 10
6103.479769291204
 20
4399.071647548281
 30
0.0
 40
6.0
100
AcDbArc
 50
90.0
 51
171.2120626773636
  0
ARC
  5
157CE
330
747D
100
AcDbEntity
  8
細線
100
AcDbCircle
 10
6134.098812926726
 20
4399.071647548281
 30
0.0
 40
6.0
100
AcDbArc
 50
0.0
 51
90.0
  0
ARC
  5
157CF
330
747D
100
AcDbEntity
  8
細線
100
AcDbCircle
 10
6139.098812926726
 20
4408.071647548282
 30
0.0
 40
5.5
100
AcDbArc
 50
0.0
 51
90.0
  0
ARC
  5
157D0
330
747D
100
AcDbEntity
  8
部品1
100
AcDbCircle
 10
6140.098812926726
 20
4409.071647548281
 30
0.0
 40
6.0
100
AcDbArc
 50
0.0
 51
90.0
  0
LINE
  5
157DB
330
747D
100
AcDbEntity
  8
部品1
100
AcDbLine
 10
5858.036365098048
 20
5250.571647548277
 30
0.0
 11
5858.098812926728
 21
5250.571647548278
 31
0.0
  0
LINE
  5
157DC
330
747D
100
AcDbEntity
  8
部品1
100
AcDbLine
 10
5858.036365098048
 20
5250.57164754828
 30
0.0
 11
5858.098812926728
 21
5250.571647548278
 31
0.0
  0
LINE
  5
157DD
330
747D
100
AcDbEntity
  8
細線
 48
0.2
100
AcDbLine
 10
5855.720356394555
 20
5251.521647548281
 30
0.0
 11
5844.352373801543
 21
5251.521647548281
 31
0.0
  0
ARC
  5
157DE
330
747D
100
AcDbEntity
  8
細線
 48
0.2
100
AcDbCircle
 10
5850.036365098048
 20
5234.021647548283
 30
0.0
 40
18.49999999999796
100
AcDbArc
 50
73.39845040097829
 51
106.6015495990228
  0
ARC
  5
157DF
330
747D
100
AcDbEntity
  8
細線
 48
0.2
100
AcDbCircle
 10
5845.036365098047
 20
5250.792157379528
 30
0.0
 40
1.0
100
AcDbArc
 50
106.6015495990225
 51
180.0000000000016
  0
ARC
  5
157E0
330
747D
100
AcDbEntity
  8
細線
 48
0.2
100
AcDbCircle
 10
5855.036365098047
 20
5250.792157379528
 30
0.0
 40
1.0
100
AcDbArc
 50
0.0
 51
73.39845040097829
  0
LINE
  5
157E1
330
747D
100
AcDbEntity
  8
細線
 48
50.0
100
AcDbLine
 10
5854.024017949707
 20
5248.32164754828
 30
0.0
 11
5854.024017949707
 21
5246.32164754828
 31
0.0
  0
LINE
  5
157E2
330
747D
100
AcDbEntity
  8
細線
 48
50.0
100
AcDbLine
 10
5846.173607903743
 20
5248.32164754828
 30
0.0
 11
5846.173607903743
 21
5246.32164754828
 31
0.0
  0
LINE
  5
157E3
330
747D
100
AcDbEntity
  8
細線
 48
0.1
100
AcDbLine
 10
5858.036365098048
 20
5250.82164754828
 30
0.0
 11
5858.036365098048
 21
5243.82164754828
 31
0.0
  0
LINE
  5
157E4
330
747D
100
AcDbEntity
  8
細線
 48
50.0
100
AcDbLine
 10
5838.036365098047
 20
5250.57164754828
 30
0.0
 11
5838.036365098047
 21
5250.82164754828
 31
0.0
  0
LINE
  5
157E5
330
747D
100
AcDbEntity
  8
部品1
 48
50.0
100
AcDbLine
 10
5838.036365098047
 20
5243.82164754828
 30
0.0
 11
5838.036365098047
 21
5250.57164754828
 31
0.0
  0
LINE
  5
157E6
330
747D
100
AcDbEntity
  8
細線
 48
0.2
100
AcDbLine
 10
5858.036365098048
 20
5248.32164754828
 30
0.0
 11
5838.036365098047
 21
5248.32164754828
 31
0.0
  0
LINE
  5
157E7
330
747D
100
AcDbEntity
  8
細線
 48
0.2
100
AcDbLine
 10
5858.036365098048
 20
5250.82164754828
 30
0.0
 11
5838.036365098047
 21
5250.82164754828
 31
0.0
  0
LINE
  5
157E8
330
747D
100
AcDbEntity
  8
部品1
 48
0.2
100
AcDbLine
 10
5858.036365098048
 20
5243.82164754828
 30
0.0
 11
5838.036365098047
 21
5243.82164754828
 31
0.0
  0
LINE
  5
157E9
330
747D
100
AcDbEntity
  8
細線
 48
0.2
100
AcDbLine
 10
5858.036365098048
 20
5246.32164754828
 30
0.0
 11
5838.036365098047
 21
5246.32164754828
 31
0.0
  0
LINE
  5
157F0
330
747D
100
AcDbEntity
  8
部品1
100
AcDbLine
 10
4178.098812926728
 20
5250.57164754828
 30
0.0
 11
4888.036365098047
 21
5250.57164754828
 31
0.0
  0
LINE
  5
157F7
330
747D
100
AcDbEntity
  8
部品1
100
AcDbLine
 10
4178.098812926728
 20
3459.571647548285
 30
0.0
 11
4888.036365098047
 21
3459.5716475483
 31
0.0
  0
LINE
  5
15801
330
747D
100
AcDbEntity
  8
部品1
100
AcDbLine
 10
4910.098812926728
 20
5253.071647548279
 30
0.0
 11
4910.098812926728
 21
3456.071647548299
 31
0.0
  0
LINE
  5
15803
330
747D
100
AcDbEntity
  8
部品1
100
AcDbLine
 10
4908.098812926726
 20
5250.571647548278
 30
0.0
 11
4908.098812926728
 21
3459.5716475483
 31
0.0
  0
LINE
  5
1580C
330
747D
100
AcDbEntity
  8
細線
 48
50.0
100
AcDbLine
 10
4896.173607903744
 20
3461.821647548299
 30
0.0
 11
4896.173607903744
 21
3463.821647548297
 31
0.0
  0
LINE
  5
1580D
330
747D
100
AcDbEntity
  8
部品1
 48
50.0
100
AcDbLine
 10
4888.036365098047
 20
3466.321647548298
 30
0.0
 11
4888.036365098047
 21
3459.5716475483
 31
0.0
  0
LINE
  5
1580E
330
747D
100
AcDbEntity
  8
細線
 48
0.1
100
AcDbLine
 10
4908.036365098047
 20
3459.321647548298
 30
0.0
 11
4908.036365098047
 21
3466.321647548298
 31
0.0
  0
LINE
  5
1580F
330
747D
100
AcDbEntity
  8
細線
 48
50.0
100
AcDbLine
 10
4904.024017949707
 20
3461.821647548299
 30
0.0
 11
4904.024017949707
 21
3463.821647548297
 31
0.0
  0
LINE
  5
15810
330
747D
100
AcDbEntity
  8
細線
 48
0.2
100
AcDbLine
 10
4908.036365098047
 20
3459.321647548298
 30
0.0
 11
4888.036365098047
 21
3459.321647548298
 31
0.0
  0
LINE
  5
15811
330
747D
100
AcDbEntity
  8
細線
 48
0.2
100
AcDbLine
 10
4908.036365098047
 20
3461.821647548298
 30
0.0
 11
4888.036365098047
 21
3461.821647548299
 31
0.0
  0
ARC
  5
15812
330
747D
100
AcDbEntity
  8
細線
 48
0.2
100
AcDbCircle
 10
4900.036365098047
 20
3476.121647548295
 30
0.0
 40
18.49999999999796
100
AcDbArc
 50
253.3984504009772
 51
286.6015495990217
  0
LINE
  5
15813
330
747D
100
AcDbEntity
  8
細線
 48
0.2
100
AcDbLine
 10
4905.720356394555
 20
3458.621647548297
 30
0.0
 11
4894.352373801543
 21
3458.621647548297
 31
0.0
  0
ARC
  5
15814
330
747D
100
AcDbEntity
  8
細線
 48
0.2
100
AcDbCircle
 10
4895.036365098047
 20
3459.35113771705
 30
0.0
 40
1.0
100
AcDbArc
 50
179.9999999999984
 51
253.3984504009775
  0
LINE
  5
15815
330
747D
100
AcDbEntity
  8
細線
 48
50.0
100
AcDbLine
 10
4888.036365098047
 20
3459.5716475483
 30
0.0
 11
4888.036365098047
 21
3459.321647548298
 31
0.0
  0
ARC
  5
15816
330
747D
100
AcDbEntity
  8
細線
 48
0.2
100
AcDbCircle
 10
4905.036365098047
 20
3459.35113771705
 30
0.0
 40
1.0
100
AcDbArc
 50
286.6015495990217
 51
0.0
  0
LINE
  5
15817
330
747D
100
AcDbEntity
  8
部品1
100
AcDbLine
 10
4908.036365098047
 20
3459.5716475483
 30
0.0
 11
4908.098812926728
 21
3459.5716475483
 31
0.0
  0
LINE
  5
15818
330
747D
100
AcDbEntity
  8
部品1
100
AcDbLine
 10
4908.036365098047
 20
3459.57164754829
 30
0.0
 11
4908.098812926728
 21
3459.57164754829
 31
0.0
  0
LINE
  5
15819
330
747D
100
AcDbEntity
  8
細線
 48
0.2
100
AcDbLine
 10
4908.036365098047
 20
3463.821647548297
 30
0.0
 11
4888.036365098047
 21
3463.821647548297
 31
0.0
  0
LINE
  5
1581A
330
747D
100
AcDbEntity
  8
部品1
 48
0.2
100
AcDbLine
 10
4908.036365098047
 20
3466.321647548298
 30
0.0
 11
4888.036365098047
 21
3466.321647548298
 31
0.0
  0
LINE
  5
15866
330
747D
100
AcDbEntity
  8
細線
 48
50.0
100
AcDbLine
 10
4904.024017949707
 20
5248.32164754828
 30
0.0
 11
4904.024017949707
 21
5246.32164754828
 31
0.0
  0
LINE
  5
15867
330
747D
100
AcDbEntity
  8
細線
 48
0.1
100
AcDbLine
 10
4908.036365098047
 20
5250.82164754828
 30
0.0
 11
4908.036365098047
 21
5243.82164754828
 31
0.0
  0
LINE
  5
15868
330
747D
100
AcDbEntity
  8
細線
 48
50.0
100
AcDbLine
 10
4896.173607903744
 20
5248.32164754828
 30
0.0
 11
4896.173607903744
 21
5246.32164754828
 31
0.0
  0
LINE
  5
15869
330
747D
100
AcDbEntity
  8
部品1
 48
50.0
100
AcDbLine
 10
4888.036365098047
 20
5243.82164754828
 30
0.0
 11
4888.036365098047
 21
5250.57164754828
 31
0.0
  0
LINE
  5
1586A
330
747D
100
AcDbEntity
  8
部品1
 48
0.2
100
AcDbLine
 10
4908.036365098047
 20
5243.82164754828
 30
0.0
 11
4888.036365098047
 21
5243.82164754828
 31
0.0
  0
LINE
  5
1586B
330
747D
100
AcDbEntity
  8
細線
 48
0.2
100
AcDbLine
 10
4908.036365098047
 20
5246.32164754828
 30
0.0
 11
4888.036365098047
 21
5246.32164754828
 31
0.0
  0
LINE
  5
1586C
330
747D
100
AcDbEntity
  8
細線
 48
0.2
100
AcDbLine
 10
4905.720356394555
 20
5251.521647548281
 30
0.0
 11
4894.352373801543
 21
5251.521647548281
 31
0.0
  0
ARC
  5
1586D
330
747D
100
AcDbEntity
  8
細線
 48
0.2
100
AcDbCircle
 10
4900.036365098047
 20
5234.021647548283
 30
0.0
 40
18.49999999999796
100
AcDbArc
 50
73.39845040097829
 51
106.6015495990228
  0
LINE
  5
1586E
330
747D
100
AcDbEntity
  8
細線
 48
0.2
100
AcDbLine
 10
4908.036365098047
 20
5248.32164754828
 30
0.0
 11
4888.036365098047
 21
5248.32164754828
 31
0.0
  0
LINE
  5
1586F
330
747D
100
AcDbEntity
  8
細線
 48
0.2
100
AcDbLine
 10
4908.036365098047
 20
5250.82164754828
 30
0.0
 11
4888.036365098047
 21
5250.82164754828
 31
0.0
  0
ARC
  5
15870
330
747D
100
AcDbEntity
  8
細線
 48
0.2
100
AcDbCircle
 10
4895.036365098047
 20
5250.792157379528
 30
0.0
 40
1.0
100
AcDbArc
 50
106.6015495990225
 51
180.0000000000016
  0
LINE
  5
15871
330
747D
100
AcDbEntity
  8
細線
 48
50.0
100
AcDbLine
 10
4888.036365098047
 20
5250.57164754828
 30
0.0
 11
4888.036365098047
 21
5250.82164754828
 31
0.0
  0
ARC
  5
15872
330
747D
100
AcDbEntity
  8
細線
 48
0.2
100
AcDbCircle
 10
4905.036365098047
 20
5250.792157379528
 30
0.0
 40
1.0
100
AcDbArc
 50
0.0
 51
73.39845040097829
  0
LINE
  5
15873
330
747D
100
AcDbEntity
  8
部品1
100
AcDbLine
 10
4908.036365098047
 20
5250.57164754828
 30
0.0
 11
4908.098812926728
 21
5250.571647548278
 31
0.0
  0
LINE
  5
158FD
330
747D
100
AcDbEntity
  8
部品1
100
AcDbLine
 10
5040.098812926729
 20
5253.071647548279
 30
0.0
 11
5040.098812926729
 21
3456.071647548299
 31
0.0
  0
LINE
  5
15A15
330
747D
100
AcDbEntity
  8
部品1
 48
50.0
100
AcDbLine
 10
6033.098812926728
 20
3456.071647548266
 30
0.0
 11
6033.098812926728
 21
3413.071647548263
 31
0.0
  0
LINE
  5
15A1C
330
747D
100
AcDbEntity
  8
細線
 48
50.0
100
AcDbLine
 10
6033.098812926728
 20
5358.071649109384
 30
0.0
 11
6033.098812926728
 21
5253.071647548262
 31
0.0
  0
LINE
  5
15A2C
330
747D
100
AcDbEntity
  8
細線
 48
50.0
100
AcDbLine
 10
6023.098812926728
 20
5358.071649109375
 30
0.0
 11
6023.098812926728
 21
5493.071647539817
 31
0.0
  0
LINE
  5
15AA9
330
747D
100
AcDbEntity
  8
部品1
100
AcDbLine
 10
4133.098812926728
 20
5253.071647548279
 30
0.0
 11
8883.098812926728
 21
5253.071647548279
 31
0.0
  0
LINE
  5
15AAA
330
747D
100
AcDbEntity
  8
Ｇ．Ｌ
100
AcDbLine
 10
3049.127155404451
 20
3313.071647548279
 30
0.0
 11
12552.57367891555
 21
3313.071647548279
 31
0.0
  0
LINE
  5
15AAB
330
747D
100
AcDbEntity
  8
部品1
100
AcDbLine
 10
4133.098812926728
 20
3413.071647548279
 30
0.0
 11
8883.098812926728
 21
3413.071647548279
 31
0.0
  0
LINE
  5
15AAD
330
747D
100
AcDbEntity
  8
部品1
100
AcDbLine
 10
4133.098812926728
 20
3456.071647548251
 30
0.0
 11
8883.098812926728
 21
3456.071647548299
 31
0.0
  0
LINE
  5
15AFA
330
747D
100
AcDbEntity
  8
部品1
 48
5.0
100
AcDbLine
 10
4133.098812926728
 20
8199.860285762872
 30
0.0
 11
8883.098812926709
 21
8199.86028576279
 31
0.0
  0
DIMENSION
  5
15B19
330
747D
100
AcDbEntity
  8
寸法
 48
50.0
100
AcDbDimension
  2
*D17
 10
6088.098812926737
 20
9365.668505387951
 30
0.0
 11
6033.098812926735
 21
9622.545174002455
 31
0.0
 70
   160
 71
     5
 42
110.0000000000036
  3
INABA_S40G
100
AcDbAlignedDimension
 13
5978.098812926734
 23
9149.86028576297
 33
0.0
 14
6088.098812926737
 24
9149.860285762949
 34
0.0
100
AcDbRotatedDimension
1001
ACAD
1000
DSTYLE
1002
{
1070
   279
1070
     2
1002
}
  0
LINE
  5
15B1B
330
747D
100
AcDbEntity
  8
部品1
 48
50.0
100
AcDbLine
 10
6061.098812926713
 20
8254.860285762891
 30
0.0
 11
6061.098812926658
 21
9149.860285762898
 31
0.0
  0
LINE
  5
15B1C
330
747D
100
AcDbEntity
  8
部品1
 48
50.0
100
AcDbLine
 10
6005.098812926713
 20
8254.860285762891
 30
0.0
 11
6005.098812926661
 21
9121.860285762897
 31
0.0
  0
LINE
  5
15B1D
330
747D
100
AcDbEntity
  8
部品1
 48
50.0
100
AcDbLine
 10
6033.098812926713
 20
8254.860285762891
 30
0.0
 11
6033.098812926713
 21
9094.860285762898
 31
0.0
  0
LINE
  5
15B1E
330
747D
100
AcDbEntity
  8
破線
 48
10.0
100
AcDbLine
 10
6112.098812926721
 20
8354.860285762905
 30
0.0
 11
6112.098800495611
 21
8670.360285762901
 31
0.0
  0
LINE
  5
15B1F
330
747D
100
AcDbEntity
  8
破線
 48
10.0
100
AcDbLine
 10
5954.09881292672
 20
8354.860285762898
 30
0.0
 11
5954.098804572169
 21
8670.360285762956
 31
0.0
  0
LINE
  5
15B20
330
747D
100
AcDbEntity
  8
部品1
 48
50.0
100
AcDbLine
 10
5977.598812926713
 20
8331.360285762897
 30
0.0
 11
5977.598812926688
 21
8670.360285762956
 31
0.0
  0
LINE
  5
15B21
330
747D
100
AcDbEntity
  8
部品1
 48
50.0
100
AcDbLine
 10
6088.598806582428
 20
8331.360285787559
 30
0.0
 11
6088.598809555289
 21
8670.360285762901
 31
0.0
  0
LINE
  5
15B2D
330
747D
100
AcDbEntity
  8
部品1
100
AcDbLine
 10
6076.098812926728
 20
8229.360285762842
 30
0.0
 11
6076.09881292673
 21
8199.860285762891
 31
0.0
  0
LINE
  5
15B2E
330
747D
100
AcDbEntity
  8
部品1
100
AcDbLine
 10
6078.098812926728
 20
8225.860285762882
 30
0.0
 11
6078.098812926726
 21
8199.860285762891
 31
0.0
  0
LINE
  5
15B2F
330
747D
100
AcDbEntity
  8
部品1
 48
5.0
100
AcDbLine
 10
6076.09881292673
 20
8229.36028576289
 30
0.0
 11
6076.09881292673
 21
8199.860285762891
 31
0.0
  0
LINE
  5
15B30
330
747D
100
AcDbEntity
  8
部品1
 48
5.0
100
AcDbLine
 10
6088.09881292673
 20
8254.860285762891
 30
0.0
 11
6088.098812926731
 21
8229.36028576289
 31
0.0
  0
LINE
  5
15B31
330
747D
100
AcDbEntity
  8
部品1
 48
5.0
100
AcDbLine
 10
6057.098812926732
 20
8254.860285762891
 30
0.0
 11
6057.09881292673
 21
8229.36028576289
 31
0.0
  0
LINE
  5
15B32
330
747D
100
AcDbEntity
  8
部品1
 48
5.0
100
AcDbLine
 10
6009.09881292673
 20
8254.860285762891
 30
0.0
 11
6009.09881292673
 21
8229.36028576289
 31
0.0
  0
LINE
  5
15B33
330
747D
100
AcDbEntity
  8
部品1
 48
5.0
100
AcDbLine
 10
6065.09881292673
 20
8254.860285762891
 30
0.0
 11
6088.09881292673
 21
8254.860285762891
 31
0.0
  0
LINE
  5
15B34
330
747D
100
AcDbEntity
  8
部品1
 48
50.0
100
AcDbLine
 10
6088.598812926711
 20
8331.360285787564
 30
0.0
 11
6061.098812926713
 21
8303.36028576289
 31
0.0
  0
LINE
  5
15B35
330
747D
100
AcDbEntity
  8
部品1
100
AcDbLine
 10
5990.098812926728
 20
8229.360285762835
 30
0.0
 11
5990.098812926724
 21
8199.860285762882
 31
0.0
  0
LINE
  5
15B36
330
747D
100
AcDbEntity
  8
部品1
 48
5.0
100
AcDbLine
 10
5990.09881292673
 20
8229.36028576289
 30
0.0
 11
5990.09881292673
 21
8199.860285762891
 31
0.0
  0
LINE
  5
15B37
330
747D
100
AcDbEntity
  8
部品1
 48
5.0
100
AcDbLine
 10
5978.09881292673
 20
8254.860285762891
 30
0.0
 11
5978.098812926731
 21
8229.36028576289
 31
0.0
  0
LINE
  5
15B38
330
747D
100
AcDbEntity
  8
部品1
 48
5.0
100
AcDbLine
 10
6001.09881292673
 20
8254.860285762891
 30
0.0
 11
5978.098812926727
 21
8254.860285762891
 31
0.0
  0
LINE
  5
15B39
330
747D
100
AcDbEntity
  8
部品1
 48
50.0
100
AcDbLine
 10
6005.098812926713
 20
8303.36028576289
 30
0.0
 11
5977.598812926713
 21
8331.360285762897
 31
0.0
  0
LINE
  5
15B3A
330
747D
100
AcDbEntity
  8
部品1
 48
5.0
100
AcDbLine
 10
6005.098812926713
 20
8254.860285762891
 30
0.0
 11
6061.098812926713
 21
8254.860285762891
 31
0.0
  0
LINE
  5
15B3C
330
747D
100
AcDbEntity
  8
細線
 48
50.0
100
AcDbLine
 10
6202.098812926728
 20
8225.860285762923
 30
0.0
 11
6202.098812926728
 21
8199.860285762875
 31
0.0
  0
LINE
  5
15B3F
330
747D
100
AcDbEntity
  8
部品1
 48
50.0
100
AcDbLine
 10
6004.09881960433
 20
9120.360285762926
 30
0.0
 11
6004.09881960433
 21
8670.360285762926
 31
0.0
  0
LINE
  5
15B40
330
747D
100
AcDbEntity
  8
部品1
 48
50.0
100
AcDbLine
 10
6062.098819604329
 20
9120.360285762819
 30
0.0
 11
6062.098819604329
 21
8670.360285762825
 31
0.0
  0
LINE
  5
15B41
330
747D
100
AcDbEntity
  8
部品1
 48
50.0
100
AcDbLine
 10
6033.098812926706
 20
8674.860285762898
 30
0.0
 11
6061.098812926688
 21
8674.860285762902
 31
0.0
  0
LINE
  5
15B42
330
747D
100
AcDbEntity
  8
部品1
 48
50.0
100
AcDbLine
 10
6033.098812926706
 20
8712.860285762898
 30
0.0
 11
6061.098812926688
 21
8712.860285762902
 31
0.0
  0
LINE
  5
15B43
330
747D
100
AcDbEntity
  8
部品1
 48
5.0
100
AcDbLine
 10
6033.098812926713
 20
8674.860285762894
 30
0.0
 11
6005.098812926663
 21
8674.860285762898
 31
0.0
  0
LINE
  5
15B44
330
747D
100
AcDbEntity
  8
部品1
 48
5.0
100
AcDbLine
 10
6088.098812926737
 20
9149.860285762901
 30
0.0
 11
6088.098812926731
 21
9121.860285762904
 31
0.0
  0
LINE
  5
15B45
330
747D
100
AcDbEntity
  8
部品1
 48
5.0
100
AcDbLine
 10
6007.808087373909
 20
9149.860285762898
 30
0.0
 11
6030.479515945337
 21
9121.860285762897
 31
0.0
  0
LINE
  5
15B46
330
747D
100
AcDbEntity
  8
部品1
 48
50.0
100
AcDbLine
 10
6062.598819604324
 20
9120.360285762826
 30
0.0
 11
6061.098812926699
 21
9121.860285762817
 31
0.0
  0
LINE
  5
15B47
330
747D
100
AcDbEntity
  8
部品1
 48
50.0
100
AcDbLine
 10
6003.651420414751
 20
9120.360285762933
 30
0.0
 11
6005.098812926626
 21
9121.860285762865
 31
0.0
  0
LINE
  5
15B48
330
747D
100
AcDbEntity
  8
部品1
 48
5.0
100
AcDbLine
 10
5978.098812926731
 20
9121.860285762897
 30
0.0
 11
5978.098812926734
 21
9149.860285762898
 31
0.0
  0
LINE
  5
15B49
330
747D
100
AcDbEntity
  8
部品1
 48
5.0
100
AcDbLine
 10
6061.098812926662
 20
9094.860285762898
 30
0.0
 11
6005.098812926663
 21
9094.860285762898
 31
0.0
  0
DIMENSION
  5
15B9F
330
747D
100
AcDbEntity
  8
寸法
100
AcDbDimension
  2
*D21
 10
5028.098812926733
 20
9365.668505387951
 30
0.0
 11
4608.098812926734
 21
9365.668505387951
 31
0.0
 70
   160
  1
2X420=<>
 71
     5
 42
839.9999999999982
  3
INABA_S40G
100
AcDbAlignedDimension
 13
4188.098812926734
 23
9149.860285762882
 33
0.0
 14
5028.098812926733
 24
9149.86028576297
 34
0.0
100
AcDbRotatedDimension
1001
ACAD
1000
DSTYLE
1002
{
1002
}
  0
DIMENSION
  5
15BA0
330
747D
100
AcDbEntity
  8
寸法
 48
50.0
100
AcDbDimension
  2
*D20
 10
5138.098812926737
 20
9365.668505387951
 30
0.0
 11
5083.098812926735
 21
9622.545174002455
 31
0.0
 70
   160
 71
     5
 42
110.0000000000036
  3
INABA_S40G
100
AcDbAlignedDimension
 13
5028.098812926733
 23
9149.86028576297
 33
0.0
 14
5138.098812926737
 24
9149.860285762949
 34
0.0
100
AcDbRotatedDimension
1001
ACAD
1000
DSTYLE
1002
{
1070
   279
1070
     2
1002
}
  0
DIMENSION
  5
15BA1
330
747D
100
AcDbEntity
  8
寸法
100
AcDbDimension
  2
*D19
 10
5978.098812926734
 20
9365.668505387951
 30
0.0
 11
5558.098812926735
 21
9365.668505387951
 31
0.0
 70
   160
  1
2X420=<>
 71
     5
 42
839.9999999999982
  3
INABA_S40G
100
AcDbAlignedDimension
 13
5138.098812926735
 23
9149.860285762882
 33
0.0
 14
5978.098812926734
 24
9149.86028576297
 34
0.0
100
AcDbRotatedDimension
1001
ACAD
1000
DSTYLE
1002
{
1002
}
  0
LINE
  5
15BA4
330
747D
100
AcDbEntity
  8
部品1
100
AcDbLine
 10
4162.098819604329
 20
9120.360285762826
 30
0.0
 11
5054.098819604329
 21
9120.360285762933
 31
0.0
  0
LINE
  5
15BA5
330
747D
100
AcDbEntity
  8
部品1
100
AcDbLine
 10
4161.098812926735
 20
9121.860285762855
 30
0.0
 11
5080.479515945357
 21
9121.860285762876
 31
0.0
  0
LINE
  5
15BA6
330
747D
100
AcDbEntity
  8
部品1
100
AcDbLine
 10
4162.09881960433
 20
8670.360285762825
 30
0.0
 11
5054.098819604329
 21
8670.360285762926
 31
0.0
  0
LINE
  5
15BA7
330
747D
100
AcDbEntity
  8
細線
 48
50.0
100
AcDbLine
 10
5054.098819604329
 20
8670.360285762926
 30
0.0
 11
4162.098819604329
 21
9120.360285762826
 31
0.0
  0
LINE
  5
15BA8
330
747D
100
AcDbEntity
  8
細線
 48
50.0
100
AcDbLine
 10
5054.098819604329
 20
9120.360285762926
 30
0.0
 11
4162.098819604329
 21
8670.360285762825
 31
0.0
  0
LINE
  5
15BAA
330
747D
100
AcDbEntity
  8
部品1
100
AcDbLine
 10
5027.599383374893
 20
8331.359704942933
 30
0.0
 11
4189.599784353123
 21
8331.359203454413
 31
0.0
  0
LINE
  5
15BAB
330
747D
100
AcDbEntity
  8
部品1
100
AcDbLine
 10
4908.098812926728
 20
8225.860285762903
 30
0.0
 11
4178.098812926728
 21
8225.860285762875
 31
0.0
  0
LINE
  5
15BAC
330
747D
100
AcDbEntity
  8
部品1
 48
5.0
100
AcDbLine
 10
4176.098812926728
 20
8229.360285762775
 30
0.0
 11
5059.09881292673
 21
8229.360285762833
 31
0.0
  0
LINE
  5
15BAE
330
747D
100
AcDbEntity
  8
破線
 48
10.0
100
AcDbLine
 10
5004.09881292672
 20
8354.86028576288
 30
0.0
 11
4213.098812926721
 21
8354.86028576286
 31
0.0
  0
ARC
  5
15BAF
330
747D
100
AcDbEntity
  8
想像線
 48
10.0
100
AcDbCircle
 10
4900.746762249568
 20
8201.555179138463
 30
0.0
 40
722.649936915559
100
AcDbArc
 50
180.1343808685458
 51
270.5829222700353
  0
LINE
  5
15BB0
330
747D
100
AcDbEntity
  8
細線
 48
50.0
100
AcDbLine
 10
4528.098812926727
 20
8225.860285762912
 30
0.0
 11
4528.098812926727
 21
8199.860285762875
 31
0.0
  0
LINE
  5
15BB1
330
747D
100
AcDbEntity
  8
細線
 48
50.0
100
AcDbLine
 10
4488.098812926728
 20
8225.860285762912
 30
0.0
 11
4488.098812926728
 21
8199.860285762875
 31
0.0
  0
LINE
  5
15BB2
330
747D
100
AcDbEntity
  8
想像線
 48
10.0
100
AcDbLine
 10
5858.098812926728
 20
8199.860285762891
 30
0.0
 11
5858.098812926728
 21
7478.942642107099
 31
0.0
  0
LINE
  5
15BB3
330
747D
100
AcDbEntity
  8
想像線
 48
10.0
100
AcDbLine
 10
4908.098812926728
 20
8199.860285762891
 30
0.0
 11
4908.098812926728
 21
7478.942642107099
 31
0.0
  0
ARC
  5
15BB4
330
747D
100
AcDbEntity
  8
想像線
 48
10.0
100
AcDbCircle
 10
5850.746762249568
 20
8201.555179138463
 30
0.0
 40
722.6499369155582
100
AcDbArc
 50
180.1343808685487
 51
270.5829222700354
  0
LINE
  5
15BB7
330
747D
100
AcDbEntity
  8
部品1
100
AcDbLine
 10
5112.098819604329
 20
9120.360285762826
 30
0.0
 11
6004.09881960433
 21
9120.360285762933
 31
0.0
  0
LINE
  5
15BB8
330
747D
100
AcDbEntity
  8
細線
 48
50.0
100
AcDbLine
 10
6004.09881960433
 20
8670.360285762926
 30
0.0
 11
5112.098819604329
 21
9120.360285762826
 31
0.0
  0
LINE
  5
15BB9
330
747D
100
AcDbEntity
  8
細線
 48
50.0
100
AcDbLine
 10
6004.09881960433
 20
9120.360285762926
 30
0.0
 11
5112.098819604329
 21
8670.360285762825
 31
0.0
  0
LINE
  5
15BBA
330
747D
100
AcDbEntity
  8
部品1
100
AcDbLine
 10
5112.09881960433
 20
8670.360285762825
 30
0.0
 11
6004.09881960433
 21
8670.360285762926
 31
0.0
  0
LINE
  5
15BBB
330
747D
100
AcDbEntity
  8
部品1
 48
5.0
100
AcDbLine
 10
5107.09881292673
 20
8229.360285762833
 30
0.0
 11
6009.09881292673
 21
8229.36028576289
 31
0.0
  0
LINE
  5
15BBC
330
747D
100
AcDbEntity
  8
部品1
100
AcDbLine
 10
5111.098812926683
 20
9121.860285762876
 30
0.0
 11
6030.479515945335
 21
9121.860285762897
 31
0.0
  0
LINE
  5
15BBD
330
747D
100
AcDbEntity
  8
部品1
100
AcDbLine
 10
5977.598812926713
 20
8331.360285762897
 30
0.0
 11
5138.59831967283
 21
8331.359783565424
 31
0.0
  0
LINE
  5
15BBE
330
747D
100
AcDbEntity
  8
破線
 48
10.0
100
AcDbLine
 10
5954.09881292672
 20
8354.860285762898
 30
0.0
 11
5162.098812926721
 21
8354.860285762883
 31
0.0
  0
LINE
  5
15BBF
330
747D
100
AcDbEntity
  8
部品1
 48
50.0
100
AcDbLine
 10
5557.598812926721
 20
8670.360285762875
 30
0.0
 11
5557.598650054617
 21
8331.359453599679
 31
0.0
  0
LINE
  5
15BC0
330
747D
100
AcDbEntity
  8
部品1
 48
50.0
100
AcDbLine
 10
4607.59881292672
 20
8670.360285762875
 30
0.0
 11
4607.598650054617
 21
8331.359453599679
 31
0.0
  0
LINE
  5
15BC1
330
747D
100
AcDbEntity
  8
部品1
 48
50.0
100
AcDbLine
 10
5138.598806582428
 20
8331.360285787559
 30
0.0
 11
5138.59880955529
 21
8670.360285762901
 31
0.0
  0
LINE
  5
15BC2
330
747D
100
AcDbEntity
  8
部品1
 48
50.0
100
AcDbLine
 10
5027.598812926713
 20
8331.360285762897
 30
0.0
 11
5027.598812926687
 21
8670.360285762956
 31
0.0
  0
LINE
  5
15BC3
330
747D
100
AcDbEntity
  8
破線
 48
10.0
100
AcDbLine
 10
5004.09881292672
 20
8354.860285762898
 30
0.0
 11
5004.098804572168
 21
8670.360285762956
 31
0.0
  0
LINE
  5
15BC4
330
747D
100
AcDbEntity
  8
破線
 48
10.0
100
AcDbLine
 10
5162.098812926721
 20
8354.860285762905
 30
0.0
 11
5162.098800495611
 21
8670.360285762901
 31
0.0
  0
LINE
  5
15BC5
330
747D
100
AcDbEntity
  8
部品1
 48
50.0
100
AcDbLine
 10
5083.098812926714
 20
8254.860285762891
 30
0.0
 11
5083.098812926714
 21
9094.860285762898
 31
0.0
  0
LINE
  5
15BC6
330
747D
100
AcDbEntity
  8
部品1
 48
50.0
100
AcDbLine
 10
5055.098812926713
 20
8254.860285762891
 30
0.0
 11
5055.098812926661
 21
9121.860285762897
 31
0.0
  0
LINE
  5
15BC7
330
747D
100
AcDbEntity
  8
部品1
 48
50.0
100
AcDbLine
 10
5111.098812926713
 20
8254.860285762891
 30
0.0
 11
5111.098812926659
 21
9149.860285762898
 31
0.0
  0
DIMENSION
  5
15BC8
330
747D
100
AcDbEntity
  8
寸法
 48
50.0
100
AcDbDimension
  2
*D18
 10
5823.098812926728
 20
7760.036617967769
 30
0.0
 11
5480.59881292673
 21
7760.036617967769
 31
0.0
 70
   160
 71
     5
 42
684.9999999999964
  3
INABA_S40G
100
AcDbAlignedDimension
 13
5138.098812926731
 23
8199.860285762847
 33
0.0
 14
5823.098812926728
 24
8199.86028576281
 34
0.0
100
AcDbRotatedDimension
  0
LINE
  5
15BC9
330
747D
100
AcDbEntity
  8
部品1
100
AcDbLine
 10
5858.098812926728
 20
8225.860285762939
 30
0.0
 11
5128.098812926728
 21
8225.860285762916
 31
0.0
  0
LINE
  5
15BCA
330
747D
100
AcDbEntity
  8
細線
 48
50.0
100
AcDbLine
 10
4715.098812926728
 20
8225.860285763127
 30
0.0
 11
4715.098812926728
 21
8199.86028576309
 31
0.0
  0
LINE
  5
15BCB
330
747D
100
AcDbEntity
  8
部品1
 48
5.0
100
AcDbLine
 10
4910.09881292673
 20
8229.36028576289
 30
0.0
 11
4910.09881292673
 21
8199.860285762891
 31
0.0
  0
LINE
  5
15BCC
330
747D
100
AcDbEntity
  8
部品1
 48
0.2
100
AcDbLine
 10
4895.161260755405
 20
8192.857915718112
 30
0.0
 11
4900.161260755405
 21
8192.857915718112
 31
0.0
  0
ARC
  5
15BCD
330
747D
100
AcDbEntity
  8
細線
 48
0.2
100
AcDbCircle
 10
4900.161260755405
 20
8200.857915718112
 30
0.0
 40
4.049999999999999
100
AcDbArc
 50
194.2603506853988
 51
345.7396493146012
  0
ARC
  5
15BCE
330
747D
100
AcDbEntity
  8
部品1
 48
0.2
100
AcDbCircle
 10
4895.161260755405
 20
8200.857915718112
 30
0.0
 40
8.0
100
AcDbArc
 50
187.1636477221926
 51
269.9999999999992
  0
ARC
  5
15BCF
330
747D
100
AcDbEntity
  8
部品1
 48
0.2
100
AcDbCircle
 10
4900.161260755405
 20
8200.857915718112
 30
0.0
 40
8.0
100
AcDbArc
 50
270.0
 51
352.8363522778074
  0
LINE
  5
15BD0
330
747D
100
AcDbEntity
  8
部品1
100
AcDbLine
 10
4908.098812926728
 20
8225.860285762941
 30
0.0
 11
4908.098812926728
 21
8199.860285762886
 31
0.0
  0
LINE
  5
15BD1
330
747D
100
AcDbEntity
  8
細線
 48
50.0
100
AcDbLine
 10
4755.098812926727
 20
8225.860285763127
 30
0.0
 11
4755.098812926727
 21
8199.86028576309
 31
0.0
  0
LINE
  5
15BD2
330
747D
100
AcDbEntity
  8
部品1
 48
5.0
100
AcDbLine
 10
5055.098812926713
 20
8254.860285762891
 30
0.0
 11
5111.098812926713
 21
8254.860285762891
 31
0.0
  0
LINE
  5
15BD4
330
747D
100
AcDbEntity
  8
部品1
 48
50.0
100
AcDbLine
 10
5055.098812926713
 20
8303.36028576289
 30
0.0
 11
5027.598812926713
 21
8331.360285762897
 31
0.0
  0
LINE
  5
15BD5
330
747D
100
AcDbEntity
  8
部品1
 48
5.0
100
AcDbLine
 10
5051.09881292673
 20
8254.860285762891
 30
0.0
 11
5028.098812926728
 21
8254.860285762891
 31
0.0
  0
LINE
  5
15BD6
330
747D
100
AcDbEntity
  8
部品1
 48
5.0
100
AcDbLine
 10
5028.09881292673
 20
8254.860285762891
 30
0.0
 11
5028.098812926732
 21
8229.36028576289
 31
0.0
  0
LINE
  5
15BD7
330
747D
100
AcDbEntity
  8
部品1
 48
5.0
100
AcDbLine
 10
5059.09881292673
 20
8254.860285762891
 30
0.0
 11
5059.09881292673
 21
8229.36028576289
 31
0.0
  0
LINE
  5
15BD8
330
747D
100
AcDbEntity
  8
部品1
 48
5.0
100
AcDbLine
 10
5040.098812926729
 20
8229.36028576289
 30
0.0
 11
5040.098812926729
 21
8199.860285762891
 31
0.0
  0
LINE
  5
15BD9
330
747D
100
AcDbEntity
  8
部品1
100
AcDbLine
 10
5040.098812926729
 20
8229.360285762835
 30
0.0
 11
5040.098812926725
 21
8199.860285762882
 31
0.0
  0
LINE
  5
15BDA
330
747D
100
AcDbEntity
  8
部品1
 48
5.0
100
AcDbLine
 10
5138.09881292673
 20
8254.860285762891
 30
0.0
 11
5138.098812926731
 21
8229.36028576289
 31
0.0
  0
LINE
  5
15BDB
330
747D
100
AcDbEntity
  8
部品1
 48
5.0
100
AcDbLine
 10
5126.09881292673
 20
8229.36028576289
 30
0.0
 11
5126.09881292673
 21
8199.860285762891
 31
0.0
  0
LINE
  5
15BDC
330
747D
100
AcDbEntity
  8
部品1
100
AcDbLine
 10
5126.098812926728
 20
8229.360285762842
 30
0.0
 11
5126.09881292673
 21
8199.860285762891
 31
0.0
  0
LINE
  5
15BDD
330
747D
100
AcDbEntity
  8
部品1
 48
5.0
100
AcDbLine
 10
5107.098812926732
 20
8254.860285762891
 30
0.0
 11
5107.09881292673
 21
8229.36028576289
 31
0.0
  0
LINE
  5
15BDE
330
747D
100
AcDbEntity
  8
部品1
 48
50.0
100
AcDbLine
 10
5138.598812926712
 20
8331.360285787564
 30
0.0
 11
5111.098812926713
 21
8303.36028576289
 31
0.0
  0
LINE
  5
15BDF
330
747D
100
AcDbEntity
  8
部品1
 48
5.0
100
AcDbLine
 10
5115.09881292673
 20
8254.860285762891
 30
0.0
 11
5138.09881292673
 21
8254.860285762891
 31
0.0
  0
LINE
  5
15BE0
330
747D
100
AcDbEntity
  8
部品1
100
AcDbLine
 10
5128.098812926728
 20
8225.860285762912
 30
0.0
 11
5128.098812926728
 21
8199.860285762875
 31
0.0
  0
LINE
  5
15BE1
330
747D
100
AcDbEntity
  8
細線
 48
50.0
100
AcDbLine
 10
5252.098812926728
 20
8225.860285762923
 30
0.0
 11
5252.098812926728
 21
8199.860285762875
 31
0.0
  0
LINE
  5
15BE2
330
747D
100
AcDbEntity
  8
細線
 48
50.0
100
AcDbLine
 10
5478.098812926727
 20
8225.860285762912
 30
0.0
 11
5478.098812926727
 21
8199.860285762875
 31
0.0
  0
LINE
  5
15BE3
330
747D
100
AcDbEntity
  8
細線
 48
50.0
100
AcDbLine
 10
5438.098812926728
 20
8225.860285762912
 30
0.0
 11
5438.098812926728
 21
8199.860285762875
 31
0.0
  0
LINE
  5
15BE4
330
747D
100
AcDbEntity
  8
細線
 48
50.0
100
AcDbLine
 10
5665.098812926729
 20
8225.860285763127
 30
0.0
 11
5665.098812926729
 21
8199.86028576309
 31
0.0
  0
LINE
  5
15BE5
330
747D
100
AcDbEntity
  8
細線
 48
50.0
100
AcDbLine
 10
5705.098812926728
 20
8225.860285763127
 30
0.0
 11
5705.098812926728
 21
8199.86028576309
 31
0.0
  0
ARC
  5
15BE6
330
747D
100
AcDbEntity
  8
部品1
 48
0.2
100
AcDbCircle
 10
5845.161260755405
 20
8200.857915718112
 30
0.0
 40
8.0
100
AcDbArc
 50
187.1636477221926
 51
269.9999999999992
  0
LINE
  5
15BE7
330
747D
100
AcDbEntity
  8
部品1
 48
5.0
100
AcDbLine
 10
5860.09881292673
 20
8229.36028576289
 30
0.0
 11
5860.09881292673
 21
8199.860285762891
 31
0.0
  0
LINE
  5
15BE8
330
747D
100
AcDbEntity
  8
部品1
 48
0.2
100
AcDbLine
 10
5845.161260755405
 20
8192.857915718112
 30
0.0
 11
5850.161260755405
 21
8192.857915718112
 31
0.0
  0
ARC
  5
15BE9
330
747D
100
AcDbEntity
  8
細線
 48
0.2
100
AcDbCircle
 10
5850.161260755405
 20
8200.857915718112
 30
0.0
 40
4.049999999999999
100
AcDbArc
 50
194.2603506853988
 51
345.7396493146012
  0
ARC
  5
15BEA
330
747D
100
AcDbEntity
  8
部品1
 48
0.2
100
AcDbCircle
 10
5850.161260755405
 20
8200.857915718112
 30
0.0
 40
8.0
100
AcDbArc
 50
270.0
 51
352.8363522778074
  0
LINE
  5
15BEB
330
747D
100
AcDbEntity
  8
部品1
100
AcDbLine
 10
5858.098812926728
 20
8225.860285762941
 30
0.0
 11
5858.098812926728
 21
8199.860285762886
 31
0.0
  0
LINE
  5
15BEC
330
747D
100
AcDbEntity
  8
部品1
 48
50.0
100
AcDbLine
 10
5112.098819604329
 20
9120.360285762819
 30
0.0
 11
5112.098819604329
 21
8670.360285762825
 31
0.0
  0
LINE
  5
15BED
330
747D
100
AcDbEntity
  8
部品1
 48
50.0
100
AcDbLine
 10
5054.098819604329
 20
9120.360285762926
 30
0.0
 11
5054.098819604329
 21
8670.360285762926
 31
0.0
  0
LINE
  5
15BEE
330
747D
100
AcDbEntity
  8
部品1
 48
5.0
100
AcDbLine
 10
5083.098812926714
 20
8674.860285762894
 30
0.0
 11
5055.098812926662
 21
8674.860285762898
 31
0.0
  0
LINE
  5
15BEF
330
747D
100
AcDbEntity
  8
部品1
 48
50.0
100
AcDbLine
 10
5083.098812926706
 20
8712.860285762898
 30
0.0
 11
5111.098812926687
 21
8712.860285762902
 31
0.0
  0
LINE
  5
15BF0
330
747D
100
AcDbEntity
  8
部品1
 48
50.0
100
AcDbLine
 10
5083.098812926706
 20
8674.860285762898
 30
0.0
 11
5111.098812926687
 21
8674.860285762902
 31
0.0
  0
LINE
  5
15BF1
330
747D
100
AcDbEntity
  8
部品1
100
AcDbLine
 10
4607.598812926666
 20
9149.860285762814
 30
0.0
 11
4607.598812926666
 21
9121.860285762814
 31
0.0
  0
LINE
  5
15BF2
330
747D
100
AcDbEntity
  8
部品1
100
AcDbLine
 10
4607.598812926698
 20
9149.860285762846
 30
0.0
 11
4607.598812926698
 21
9121.860285762847
 31
0.0
  0
LINE
  5
15BF3
330
747D
100
AcDbEntity
  8
部品1
 48
5.0
100
AcDbLine
 10
5111.098812926663
 20
9094.860285762898
 30
0.0
 11
5055.098812926662
 21
9094.860285762898
 31
0.0
  0
LINE
  5
15BF4
330
747D
100
AcDbEntity
  8
部品1
 48
5.0
100
AcDbLine
 10
5057.808087373909
 20
9149.860285762898
 30
0.0
 11
5080.479515945337
 21
9121.860285762897
 31
0.0
  0
LINE
  5
15BF5
330
747D
100
AcDbEntity
  8
部品1
 48
50.0
100
AcDbLine
 10
5053.651420414752
 20
9120.360285762933
 30
0.0
 11
5055.098812926626
 21
9121.860285762865
 31
0.0
  0
LINE
  5
15BF6
330
747D
100
AcDbEntity
  8
部品1
 48
5.0
100
AcDbLine
 10
5028.098812926732
 20
9121.860285762897
 30
0.0
 11
5028.098812926733
 21
9149.860285762898
 31
0.0
  0
LINE
  5
15BF7
330
747D
100
AcDbEntity
  8
部品1
 48
50.0
100
AcDbLine
 10
5112.598819604324
 20
9120.360285762826
 30
0.0
 11
5111.098812926699
 21
9121.860285762817
 31
0.0
  0
LINE
  5
15BF8
330
747D
100
AcDbEntity
  8
部品1
 48
5.0
100
AcDbLine
 10
5138.098812926737
 20
9149.860285762901
 30
0.0
 11
5138.098812926731
 21
9121.860285762904
 31
0.0
  0
LINE
  5
15BF9
330
747D
100
AcDbEntity
  8
部品1
100
AcDbLine
 10
5557.598812926698
 20
9149.860285762814
 30
0.0
 11
5557.598812926698
 21
9121.860285762814
 31
0.0
  0
LINE
  5
15BFA
330
747D
100
AcDbEntity
  8
部品1
100
AcDbLine
 10
5557.598812926666
 20
9149.860285762782
 30
0.0
 11
5557.598812926666
 21
9121.860285762782
 31
0.0
  0
LINE
  5
15D18
330
747D
100
AcDbEntity
  8
部品1
100
AcDbLine
 10
4133.098812926699
 20
9149.860285762677
 30
0.0
 11
8883.098812926736
 21
9149.860285762949
 31
0.0
  0
DIMENSION
  5
15E9F
330
747D
100
AcDbEntity
  8
寸法
 48
50.0
100
AcDbDimension
  2
*D22
 10
8673.098812926729
 20
7760.036617967769
 30
0.0
 11
8330.59881292673
 21
7760.036617967769
 31
0.0
 70
   160
  1
有効開口部間口\P<>
 71
     5
 42
684.9999999999964
  3
INABA_S40G
100
AcDbAlignedDimension
 13
7988.098812926732
 23
8199.860285762847
 33
0.0
 14
8673.098812926729
 24
8199.86028576281
 34
0.0
100
AcDbRotatedDimension
  0
DIMENSION
  5
15EB9
330
747D
100
AcDbEntity
  8
寸法
 48
50.0
100
AcDbDimension
  2
*D23
 10
4873.098812926728
 20
7760.036617967769
 30
0.0
 11
4530.598812926729
 21
7760.036617967769
 31
0.0
 70
   160
 71
     5
 42
684.9999999999964
  3
INABA_S40G
100
AcDbAlignedDimension
 13
4188.098812926731
 23
8199.860285762847
 33
0.0
 14
4873.098812926728
 24
8199.86028576281
 34
0.0
100
AcDbRotatedDimension
  0
TEXT
  5
16496
330
747D
100
AcDbEntity
  8
文字
 62
     7
 48
50.0
100
AcDbText
 10
13583.11819016567
 20
9400.013745883729
 30
0.0
 40
100.0
  1
脇パネル
  7
STYLE1
100
AcDbText
  0
TEXT
  5
16497
330
747D
100
AcDbEntity
  8
文字
 62
     7
 48
50.0
100
AcDbText
 10
15022.63965474513
 20
9400.013745883725
 30
0.0
 40
100.0
  1
F12            0.6
  7
STYLE1
100
AcDbText
  0
LINE
  5
16498
330
747D
100
AcDbEntity
  8
部品1
 48
50.0
100
AcDbLine
 10
10811.89382468943
 20
3473.821647548281
 30
0.0
 11
10818.89619473421
 21
3473.821647548281
 31
0.0
  0
LINE
  5
16499
330
747D
100
AcDbEntity
  8
部品1
 48
0.2
100
AcDbLine
 10
10811.89382468943
 20
3473.821647548281
 30
0.0
 11
10811.89382468943
 21
3463.071647548281
 31
0.0
  0
LINE
  5
1649A
330
747D
100
AcDbEntity
  8
部品1
 48
50.0
100
AcDbLine
 10
10811.89382468943
 20
3463.071647548281
 30
0.0
 11
10818.89619473421
 21
3463.071647548281
 31
0.0
  0
LINE
  5
1649B
330
747D
100
AcDbEntity
  8
部品1
 48
0.2
100
AcDbLine
 10
10811.89382468943
 20
5253.071647548277
 30
0.0
 11
10811.89382468943
 21
5242.321647548279
 31
0.0
  0
LINE
  5
1649C
330
747D
100
AcDbEntity
  8
部品1
 48
50.0
100
AcDbLine
 10
10811.89382468943
 20
5242.321647548276
 30
0.0
 11
10818.89619473421
 21
5242.321647548276
 31
0.0
  0
DIMENSION
  5
1649D
330
747D
100
AcDbEntity
  8
寸法
 48
50.0
100
AcDbDimension
  2
*D24
 10
10166.62994302284
 20
5509.894138445091
 30
0.0
 11
10175.30768667473
 21
5739.730377461985
 31
0.0
 70
   160
 71
     5
 42
141.0000000000009
  3
INABA_S40G
100
AcDbAlignedDimension
 13
10774.23875933616
 23
5345.852672617244
 33
0.0
 14
10779.55859348812
 24
5486.752280014127
 34
0.0
 50
87.83775598715743
100
AcDbRotatedDimension
1001
ACAD
1000
DSTYLE
1002
{
1070
   174
1070
     0
1070
   272
1070
     1
1070
   288
1070
     0
1070
   341
1005
0
1002
}
  0
DIMENSION
  5
1649E
330
747D
100
AcDbEntity
  8
寸法
100
AcDbDimension
  2
*D25
 10
9914.624383093734
 20
5488.071647548284
 30
0.0
 11
9914.62438309373
 21
4388.27863796808
 31
0.0
 70
   160
 71
     5
 42
2075.000000000002
  3
INABA_S40G
100
AcDbAlignedDimension
 13
10818.89619473421
 23
3413.071647548281
 33
0.0
 14
10758.89619473421
 24
5488.071647548282
 34
0.0
 50
90.0
100
AcDbRotatedDimension
1001
ACAD
1000
DSTYLE
1002
{
1070
   174
1070
     0
1070
   272
1070
     1
1070
   288
1070
     0
1070
   341
1005
0
1002
}
  0
DIMENSION
  5
1649F
330
747D
100
AcDbEntity
  8
寸法
100
AcDbDimension
  2
*D26
 10
10216.933104042
 20
3413.071647548281
 30
0.0
 11
10216.933104042
 21
3107.02440345379
 31
0.0
 70
   160
 71
     5
 42
50.00000000000182
  3
INABA_S40G
100
AcDbAlignedDimension
 13
10811.89382468943
 23
3463.071647548283
 33
0.0
 14
10763.89619473421
 24
3413.071647548281
 34
0.0
 50
90.0
100
AcDbRotatedDimension
1001
ACAD
1000
DSTYLE
1002
{
1070
   174
1070
     0
1070
   272
1070
     1
1070
   288
1070
     0
1070
   341
1005
0
1002
}
  0
DIMENSION
  5
164A0
330
747D
100
AcDbEntity
  8
寸法
100
AcDbDimension
  2
*D27
 10
10216.933104042
 20
3463.071647548283
 30
0.0
 11
10216.933104042
 21
4368.106659424666
 31
0.0
 70
   160
 71
     5
 42
1789.999999999996
  3
INABA_S40G
100
AcDbAlignedDimension
 13
10811.89382468943
 23
5253.071647548279
 33
0.0
 14
10811.89382468943
 24
3463.071647548283
 34
0.0
 50
90.0
100
AcDbRotatedDimension
1001
ACAD
1000
DSTYLE
1002
{
1070
   288
1070
     1
1002
}
  0
LINE
  5
164A1
330
747D
100
AcDbEntity
  8
部品1
100
AcDbLine
 10
10811.89382468943
 20
5253.071647548279
 30
0.0
 11
11768.89619473421
 21
5253.071647548279
 31
0.0
  0
LINE
  5
164A2
330
747D
100
AcDbEntity
  8
部品1
100
AcDbLine
 10
10818.89619473421
 20
3463.071647548279
 30
0.0
 11
11768.89619473421
 21
3463.071647548279
 31
0.0
  0
LINE
  5
164A3
330
747D
100
AcDbEntity
  8
部品1
100
AcDbLine
 10
10873.89619473421
 20
5253.071647548279
 30
0.0
 11
10873.89619473421
 21
3463.071647548279
 31
0.0
  0
LINE
  5
164A4
330
747D
100
AcDbEntity
  8
部品1
100
AcDbLine
 10
10818.89619473421
 20
5344.166577429618
 30
0.0
 11
10818.89619473421
 21
3313.071647548279
 31
0.0
  0
LINE
  5
164A5
330
747D
100
AcDbEntity
  8
部品1
100
AcDbLine
 10
11293.89619473421
 20
5253.071647548279
 30
0.0
 11
11293.89619473421
 21
3463.071647548279
 31
0.0
  0
LINE
  5
164A6
330
747D
100
AcDbEntity
  8
部品1
100
AcDbLine
 10
11768.89619473421
 20
5308.298184765106
 30
0.0
 11
11768.89619473421
 21
3313.071647548279
 31
0.0
  0
LINE
  5
164A7
330
747D
100
AcDbEntity
  8
部品1
100
AcDbLine
 10
11713.89619473421
 20
5253.071647548279
 30
0.0
 11
11713.89619473421
 21
3463.071647548279
 31
0.0
  0
DIMENSION
  5
164A8
330
747D
100
AcDbEntity
  8
寸法
100
AcDbDimension
  2
*D28
 10
12473.82335270633
 20
5433.07164754828
 30
0.0
 11
12373.81154168271
 21
4423.071647548282
 31
0.0
 70
    32
 71
     5
 42
2020.0
  3
INABA_S40G
100
AcDbAlignedDimension
 13
11768.89619473421
 23
3413.071647548281
 33
0.0
 14
11848.89619473421
 24
5433.07164754828
 34
0.0
 50
90.0
100
AcDbRotatedDimension
1001
ACAD
1000
DSTYLE
1002
{
1070
   174
1070
     0
1070
   272
1070
     1
1070
   288
1070
     0
1070
   341
1005
0
1002
}
  0
DIMENSION
  5
164A9
330
747D
100
AcDbEntity
  8
寸法
 48
50.0
100
AcDbDimension
  2
*D29
 10
10818.89619473421
 20
5886.729101127583
 30
0.0
 11
11293.89619473421
 21
5886.729101127583
 31
0.0
 70
   160
  1
柱外寸法<>
 71
     5
 42
949.9999999999964
  3
INABA_S40G
100
AcDbAlignedDimension
 13
11768.89619473421
 23
5434.882327159932
 33
0.0
 14
10818.89619473421
 24
5484.073265671256
 34
0.0
100
AcDbRotatedDimension
1001
ACAD
1000
DSTYLE
1002
{
1070
   174
1070
     0
1070
   272
1070
     1
1070
   288
1070
     0
1070
   341
1005
0
1002
}
  0
DIMENSION
  5
164AA
330
747D
100
AcDbEntity
  8
寸法
 48
50.0
100
AcDbDimension
  2
*D30
 10
10758.89619473421
 20
5886.729101127583
 30
0.0
 11
10449.25839945862
 21
5886.729101127583
 31
0.0
 70
   160
 71
     5
 42
60.0
  3
INABA_S40G
100
AcDbAlignedDimension
 13
10818.89619473421
 23
5484.073265671256
 33
0.0
 14
10758.89619473421
 24
5488.071647548284
 34
0.0
100
AcDbRotatedDimension
1001
ACAD
1000
DSTYLE
1002
{
1070
   174
1070
     0
1070
   272
1070
     1
1070
   288
1070
     0
1070
   341
1005
0
1002
}
  0
DIMENSION
  5
164AB
330
747D
100
AcDbEntity
  8
寸法
 48
50.0
100
AcDbDimension
  2
*D31
 10
10758.89619473421
 20
6096.322975549034
 30
0.0
 11
11282.01490941463
 21
6096.322975549034
 31
0.0
 70
   160
 71
     5
 42
1089.999999999996
  3
INABA_S40G
100
AcDbAlignedDimension
 13
11848.89619473421
 23
5433.07164754828
 33
0.0
 14
10758.89619473421
 24
5488.071647548284
 34
0.0
100
AcDbRotatedDimension
1001
ACAD
1000
DSTYLE
1002
{
1070
   174
1070
     0
1070
   272
1070
     1
1070
   288
1070
     0
1070
   341
1005
0
1002
}
  0
LINE
  5
164AC
330
747D
100
AcDbEntity
  8
部品1
100
AcDbLine
 10
10818.89619473421
 20
3413.071647548279
 30
0.0
 11
11768.89619473421
 21
3413.071647548279
 31
0.0
  0
LINE
  5
164AD
330
747D
100
AcDbEntity
  8
細線
 48
50.0
100
AcDbLine
 10
11371.39619473421
 20
5253.071647548279
 30
0.0
 11
11371.39619473421
 21
3463.071647548279
 31
0.0
  0
LINE
  5
164AE
330
747D
100
AcDbEntity
  8
細線
 48
50.0
100
AcDbLine
 10
11356.39619473421
 20
5253.071647548279
 30
0.0
 11
11356.39619473421
 21
3463.071647548279
 31
0.0
  0
LINE
  5
164AF
330
747D
100
AcDbEntity
  8
細線
 48
50.0
100
AcDbLine
 10
11496.39619473421
 20
5253.071647548279
 30
0.0
 11
11496.39619473421
 21
3463.071647548279
 31
0.0
  0
LINE
  5
164B0
330
747D
100
AcDbEntity
  8
細線
 48
50.0
100
AcDbLine
 10
11511.39619473421
 20
5253.071647548279
 30
0.0
 11
11511.39619473421
 21
3463.071647548279
 31
0.0
  0
LINE
  5
164B1
330
747D
100
AcDbEntity
  8
細線
 48
50.0
100
AcDbLine
 10
11651.39619473421
 20
5253.071647548279
 30
0.0
 11
11651.39619473421
 21
3463.071647548279
 31
0.0
  0
LINE
  5
164B2
330
747D
100
AcDbEntity
  8
細線
 48
50.0
100
AcDbLine
 10
11636.39619473421
 20
5253.071647548279
 30
0.0
 11
11636.39619473421
 21
3463.071647548279
 31
0.0
  0
LINE
  5
164B3
330
747D
100
AcDbEntity
  8
細線
 48
50.0
100
AcDbLine
 10
11216.39619473421
 20
5253.071647548279
 30
0.0
 11
11216.39619473421
 21
3463.071647548279
 31
0.0
  0
LINE
  5
164B4
330
747D
100
AcDbEntity
  8
細線
 48
50.0
100
AcDbLine
 10
11231.39619473421
 20
5253.071647548279
 30
0.0
 11
11231.39619473421
 21
3463.071647548279
 31
0.0
  0
LINE
  5
164B5
330
747D
100
AcDbEntity
  8
細線
 48
50.0
100
AcDbLine
 10
11091.39619473421
 20
5253.071647548279
 30
0.0
 11
11091.39619473421
 21
3463.071647548279
 31
0.0
  0
LINE
  5
164B6
330
747D
100
AcDbEntity
  8
細線
 48
50.0
100
AcDbLine
 10
11076.39619473421
 20
5253.071647548279
 30
0.0
 11
11076.39619473421
 21
3463.071647548279
 31
0.0
  0
LINE
  5
164B7
330
747D
100
AcDbEntity
  8
細線
 48
50.0
100
AcDbLine
 10
10936.39619473421
 20
5253.071647548279
 30
0.0
 11
10936.39619473421
 21
3463.071647548279
 31
0.0
  0
LINE
  5
164B8
330
747D
100
AcDbEntity
  8
細線
 48
50.0
100
AcDbLine
 10
10951.39619473421
 20
5253.071647548279
 30
0.0
 11
10951.39619473421
 21
3463.071647548279
 31
0.0
  0
LINE
  5
164B9
330
747D
100
AcDbEntity
  8
部品1
100
AcDbLine
 10
10766.44118109117
 20
5486.789382882546
 30
0.0
 11
11841.50807159567
 21
5431.122488875843
 31
0.0
  0
LINE
  5
164BA
330
747D
100
AcDbEntity
  8
部品1
100
AcDbLine
 10
10774.23875933616
 20
5345.852672617246
 30
0.0
 11
11823.55989527405
 21
5306.234291001465
 31
0.0
  0
LINE
  5
164BB
330
747D
100
AcDbEntity
  8
細線
 48
50.0
100
AcDbLine
 10
10791.89619473421
 20
5485.471323923682
 30
0.0
 11
10786.6070931787
 21
5345.385691296329
 31
0.0
  0
LINE
  5
164BC
330
747D
100
AcDbEntity
  8
細線
 48
50.0
100
AcDbLine
 10
11815.89619473421
 20
5432.448670202
 30
0.0
 11
11811.14851184621
 21
5306.702897711255
 31
0.0
  0
LINE
  5
164BD
330
747D
100
AcDbEntity
  8
部品1
 48
50.0
100
AcDbLine
 10
10759.08048064732
 20
5479.665193712971
 30
0.0
 11
10759.46074042513
 21
5459.738229266559
 31
0.0
  0
LINE
  5
164BE
330
747D
100
AcDbEntity
  8
部品1
 48
50.0
100
AcDbLine
 10
10762.52951253137
 20
5456.162947773087
 30
0.0
 11
10764.23341402274
 21
5366.872451066441
 31
0.0
  0
LINE
  5
164BF
330
747D
100
AcDbEntity
  8
細線
 48
50.0
100
AcDbLine
 10
10759.93561783502
 20
5459.088729389639
 30
0.0
 11
11845.57160258019
 21
5402.874568367237
 31
0.0
  0
LINE
  5
164C0
330
747D
100
AcDbEntity
  8
細線
 48
50.0
100
AcDbLine
 10
10764.69609307231
 20
5366.227217691778
 30
0.0
 11
11834.69975750295
 21
5325.827942335709
 31
0.0
  0
LINE
  5
164C1
330
747D
100
AcDbEntity
  8
部品1
 48
50.0
100
AcDbLine
 10
10767.30218612898
 20
5363.297169572969
 30
0.0
 11
10767.50413874941
 21
5352.714134179876
 31
0.0
  0
ARC
  5
164C2
330
747D
100
AcDbEntity
  8
部品1
 48
50.0
100
AcDbCircle
 10
10766.07920647566
 20
5479.798748120398
 30
0.0
 40
7.0
100
AcDbArc
 50
87.03587545303976
 51
181.0932240293156
  0
ARC
  5
164C3
330
747D
100
AcDbEntity
  8
部品1
 48
50.0
100
AcDbCircle
 10
10774.50286457775
 20
5352.847688587304
 30
0.0
 40
7.0
100
AcDbArc
 50
181.0932240293156
 51
267.8377559871574
  0
ARC
  5
164C4
330
747D
100
AcDbEntity
  8
部品1
100
AcDbCircle
 10
10764.30273220255
 20
5363.239931969785
 30
0.0
 40
3.0
100
AcDbArc
 50
1.093224029315636
 51
80.18775403148559
  0
ARC
  5
164C5
330
747D
100
AcDbEntity
  8
部品1
100
AcDbCircle
 10
10759.53005860494
 20
5456.105710169904
 30
0.0
 40
3.0
100
AcDbArc
 50
1.093224029315636
 51
80.18775403169708
  0
ARC
  5
164C6
330
747D
100
AcDbEntity
  8
部品1
100
AcDbCircle
 10
10760.16061300796
 20
5459.751584707302
 30
0.0
 40
0.7
100
AcDbArc
 50
181.0932240292114
 51
260.1877540316971
  0
ARC
  5
164C7
330
747D
100
AcDbEntity
  8
部品1
100
AcDbCircle
 10
10764.93328660557
 20
5366.885806507181
 30
0.0
 40
0.7
100
AcDbArc
 50
181.0932240292114
 51
260.1877540316971
  0
LINE
  5
164C8
330
747D
100
AcDbEntity
  8
部品1
 48
50.0
100
AcDbLine
 10
11848.11009754491
 20
5423.422843440921
 30
0.0
 11
11846.07947635394
 21
5403.477802183143
 31
0.0
  0
LINE
  5
164C9
330
747D
100
AcDbEntity
  8
部品1
 48
50.0
100
AcDbLine
 10
11842.72690986946
 20
5400.167168110233
 30
0.0
 11
11835.22013060462
 21
5326.434547365221
 31
0.0
  0
LINE
  5
164CA
330
747D
100
AcDbEntity
  8
部品1
 48
50.0
100
AcDbLine
 10
11831.86756412013
 20
5323.12391329231
 30
0.0
 11
11830.78800108039
 21
5312.520296298751
 31
0.0
  0
ARC
  5
164CB
330
747D
100
AcDbEntity
  8
部品1
 48
50.0
100
AcDbCircle
 10
11841.14609698015
 20
5424.131854113697
 30
0.0
 40
7.0
100
AcDbArc
 50
354.1866997665565
 51
87.03587545303976
  0
ARC
  5
164CC
330
747D
100
AcDbEntity
  8
部品1
 48
50.0
100
AcDbCircle
 10
11823.82400051564
 20
5313.229306971525
 30
0.0
 40
7.0
100
AcDbArc
 50
267.8377559871574
 51
354.1866997665565
  0
ARC
  5
164CD
330
747D
100
AcDbEntity
  8
部品1
100
AcDbCircle
 10
11834.85213579074
 20
5322.820051575405
 30
0.0
 40
3.0
100
AcDbArc
 50
95.0921697642102
 51
174.1866997665564
  0
ARC
  5
164CE
330
747D
100
AcDbEntity
  8
部品1
100
AcDbCircle
 10
11845.71148154007
 20
5399.863306393331
 30
0.0
 40
3.0
100
AcDbArc
 50
95.09216976441955
 51
174.1866997665564
  0
ARC
  5
164CF
330
747D
100
AcDbEntity
  8
部品1
100
AcDbCircle
 10
11845.38307629747
 20
5403.548703250419
 30
0.0
 40
0.7
100
AcDbArc
 50
275.0921697642102
 51
354.1866997665565
  0
ARC
  5
164D0
330
747D
100
AcDbEntity
  8
部品1
100
AcDbCircle
 10
11834.52373054814
 20
5326.505448432495
 30
0.0
 40
0.7
100
AcDbArc
 50
275.0921697642102
 51
354.1866997666601
  0
DIMENSION
  5
164D1
330
747D
100
AcDbEntity
  8
寸法
 48
50.0
100
AcDbDimension
  2
*D32
 10
11848.89619473421
 20
5886.729101127583
 30
0.0
 11
12054.9434388287
 21
5886.729101127583
 31
0.0
 70
   160
 71
     5
 42
80.0
  3
INABA_S40G
100
AcDbAlignedDimension
 13
11768.89619473421
 23
5434.882327159932
 33
0.0
 14
11848.89619473421
 24
5433.07164754828
 34
0.0
100
AcDbRotatedDimension
1001
ACAD
1000
DSTYLE
1002
{
1070
   174
1070
     0
1070
   272
1070
     1
1070
   288
1070
     0
1070
   341
1005
0
1002
}
  0
LINE
  5
164D2
330
747D
100
AcDbEntity
  8
部品1
 48
50.0
100
AcDbLine
 10
11143.89619473422
 20
5618.939786649558
 30
0.0
 11
11443.89619473421
 21
5618.939786649558
 31
0.0
  0
LINE
  5
164D3
330
747D
100
AcDbEntity
  8
部品1
 48
50.0
100
AcDbLine
 10
11443.89619473421
 20
5618.939786649558
 30
0.0
 11
11443.89619473421
 21
5603.405806067036
 31
0.0
  0
TEXT
  5
164D4
330
747D
100
AcDbEntity
  8
部品1
 48
50.0
100
AcDbText
 10
11132.16402995794
 20
5654.823808801991
 30
0.0
 40
120.0
  1
1000
  7
STYLE1
100
AcDbText
  0
TEXT
  5
164D5
330
747D
100
AcDbEntity
  8
部品1
 48
50.0
100
AcDbText
 10
11607.8242349972
 20
5489.37023000336
 30
0.0
 40
120.0
  1
104
 50
90.0
  7
STYLE1
100
AcDbText
  0
LINE
  5
164D6
330
747D
100
AcDbEntity
  8
部品1
100
AcDbLine
 10
11143.89619473422
 20
5618.939786649558
 30
0.0
 11
11443.89619473421
 21
5603.405806067036
 31
0.0
  0
TEXT
  5
164D7
330
747D
100
AcDbEntity
  8
文字
 62
     7
 48
50.0
100
AcDbText
 10
13248.77747366447
 20
8890.013745883731
 30
0.0
 40
100.0
  1
14
  7
STYLE1
100
AcDbText
  0
LINE
  5
164D8
330
747D
100
AcDbEntity
  8
仕様書枠
 48
50.0
100
AcDbLine
 10
16307.2
 20
9539.6
 30
0.0
 11
13127.2
 21
9539.6
 31
0.0
  0
TEXT
  5
164D9
330
747D
100
AcDbEntity
  8
文字
 62
     7
 48
50.0
100
AcDbText
 10
14271.39351435261
 20
483.8967129911411
 30
0.0
 40
160.0
  1
ＮＸＮ－０９ＤＬ－５
  7
STYLE2
100
AcDbText
  0
TEXT
  5
164DA
330
747D
100
AcDbEntity
  8
文字
 62
     7
 48
50.0
100
AcDbText
 10
13583.11819016567
 20
9060.013745883733
 30
0.0
 40
100.0
  1
棚板
  7
STYLE1
100
AcDbText
  0
TEXT
  5
164DB
330
747D
100
AcDbEntity
  8
文字
 62
     7
 48
50.0
100
AcDbText
 10
15022.63965474514
 20
9060.013745883729
 30
0.0
 40
100.0
  1
F12            0.6
  7
STYLE1
100
AcDbText
  0
TEXT
  5
164DC
330
747D
100
AcDbEntity
  8
文字
 62
     7
 48
50.0
100
AcDbText
 10
13583.11819016567
 20
9230.013745883729
 30
0.0
 40
100.0
  1
扉
  7
STYLE1
100
AcDbText
  0
TEXT
  5
164DD
330
747D
100
AcDbEntity
  8
文字
 62
     7
 48
50.0
100
AcDbText
 10
15022.63965474514
 20
9230.013745883725
 30
0.0
 40
100.0
  1
F12            0.8
  7
STYLE1
100
AcDbText
  0
TEXT
  5
164DE
330
747D
100
AcDbEntity
  8
文字
 62
     7
 48
50.0
100
AcDbText
 10
15022.63965474517
 20
10760.01374588372
 30
0.0
 40
100.0
  1
F12            1.0
  7
STYLE1
100
AcDbText
  0
TEXT
  5
164DF
330
747D
100
AcDbEntity
  8
文字
 62
     7
 48
50.0
100
AcDbText
 10
13583.1181901657
 20
10760.01374588373
 30
0.0
 40
100.0
  1
床パネル
 41
0.9
  7
STYLE1
100
AcDbText
  0
LINE
  5
164E0
330
747D
100
AcDbEntity
  8
仕様書枠
 48
50.0
100
AcDbLine
 10
16307.19999999998
 20
8349.6
 30
0.0
 11
13127.19999999999
 21
8349.600000000004
 31
0.0
  0
LINE
  5
164E1
330
747D
100
AcDbEntity
  8
仕様書枠
 48
50.0
100
AcDbLine
 10
13127.2
 20
11409.6
 30
0.0
 11
13127.19999999999
 21
8179.600000000004
 31
0.0
  0
TEXT
  5
164E2
330
747D
100
AcDbEntity
  8
文字
 62
     7
 48
50.0
100
AcDbText
 10
13229.83081656552
 20
8210.013745883726
 30
0.0
 40
100.0
  1
Y10→溶融亜鉛-5％アルミニウム合金めっき鋼板(JIS G 3317)
 41
0.9
  7
STYLE1
100
AcDbText
  0
TEXT
  5
164E3
330
747D
100
AcDbEntity
  8
文字
 62
     7
 48
50.0
100
AcDbText
 10
13229.83081656552
 20
8380.013745883726
 30
0.0
 40
100.0
  1
F12→溶融亜鉛めっき鋼板(JIS G 3302)
  7
STYLE1
100
AcDbText
  0
TEXT
  5
164E4
330
747D
100
AcDbEntity
  8
文字
 62
     7
 48
50.0
100
AcDbText
 10
15022.63965474515
 20
9570.013745883725
 30
0.0
 40
100.0
  1
F12            0.6
  7
STYLE1
100
AcDbText
  0
TEXT
  5
164E5
330
747D
100
AcDbEntity
  8
文字
 62
     7
 48
50.0
100
AcDbText
 10
15022.63965474516
 20
9740.013745883725
 30
0.0
 40
100.0
  1
Y10            0.5
  7
STYLE1
100
AcDbText
  0
TEXT
  5
164E6
330
747D
100
AcDbEntity
  8
文字
 62
     7
 48
50.0
100
AcDbText
 10
15022.63965474516
 20
10080.01374588372
 30
0.0
 40
100.0
  1
Y10            0.7
  7
STYLE1
100
AcDbText
  0
TEXT
  5
164E7
330
747D
100
AcDbEntity
  8
文字
 62
     7
 48
50.0
100
AcDbText
 10
15022.63965474517
 20
10250.01374588372
 30
0.0
 40
100.0
  1
Y10            0.7
  7
STYLE1
100
AcDbText
  0
TEXT
  5
164E8
330
747D
100
AcDbEntity
  8
文字
 62
     7
 48
50.0
100
AcDbText
 10
15022.63965474516
 20
10420.01374588372
 30
0.0
 40
100.0
  1
Y10            1.0
  7
STYLE1
100
AcDbText
  0
TEXT
  5
164E9
330
747D
100
AcDbEntity
  8
文字
 62
     7
 48
50.0
100
AcDbText
 10
15022.63965474517
 20
10590.01374588372
 30
0.0
 40
100.0
  1
Y10            1.0
  7
STYLE1
100
AcDbText
  0
TEXT
  5
164EA
330
747D
100
AcDbEntity
  8
文字
 62
     7
 48
50.0
100
AcDbText
 10
15022.63965474517
 20
10930.01374588372
 30
0.0
 40
100.0
  1
F12            1.0
  7
STYLE1
100
AcDbText
  0
TEXT
  5
164EB
330
747D
100
AcDbEntity
  8
文字
 62
     7
 48
50.0
100
AcDbText
 10
15022.63965474517
 20
11100.01374588372
 30
0.0
 40
100.0
  1
F12            1.2
  7
STYLE1
100
AcDbText
  0
TEXT
  5
164EC
330
747D
100
AcDbEntity
  8
文字
 62
     7
 48
50.0
100
AcDbText
 10
13248.77747366447
 20
9230.013745883729
 30
0.0
 40
100.0
  1
12
  7
STYLE1
100
AcDbText
  0
TEXT
  5
164ED
330
747D
100
AcDbEntity
  8
文字
 62
     7
 48
50.0
100
AcDbText
 10
13248.77747366447
 20
9060.013745883729
 30
0.0
 40
100.0
  1
13
  7
STYLE1
100
AcDbText
  0
LINE
  5
164EE
330
747D
100
AcDbEntity
  8
仕様書枠
 48
50.0
100
AcDbLine
 10
16307.19999999998
 20
8179.6
 30
0.0
 11
13127.19999999999
 21
8179.600000000004
 31
0.0
  0
LINE
  5
164EF
330
747D
100
AcDbEntity
  8
仕様書枠
 48
50.0
100
AcDbLine
 10
16307.19999999998
 20
8859.6
 30
0.0
 11
13127.19999999999
 21
8859.6
 31
0.0
  0
TEXT
  5
164F0
330
747D
100
AcDbEntity
  8
文字
 62
     7
 48
50.0
100
AcDbText
 10
13248.77747366447
 20
9400.013745883729
 30
0.0
 40
100.0
  1
11
  7
STYLE1
100
AcDbText
  0
LINE
  5
164F1
330
747D
100
AcDbEntity
  8
仕様書枠
 48
50.0
100
AcDbLine
 10
16307.2
 20
9709.600000000001
 30
0.0
 11
13127.2
 21
9709.600000000001
 31
0.0
  0
LINE
  5
164F2
330
747D
100
AcDbEntity
  8
仕様書枠
 48
50.0
100
AcDbLine
 10
16307.2
 20
10049.6
 30
0.0
 11
13127.2
 21
10049.6
 31
0.0
  0
LINE
  5
164F3
330
747D
100
AcDbEntity
  8
仕様書枠
 48
50.0
100
AcDbLine
 10
16307.19999999998
 20
9199.600000000001
 30
0.0
 11
13127.19999999999
 21
9199.600000000001
 31
0.0
  0
LINE
  5
164F4
330
747D
100
AcDbEntity
  8
仕様書枠
 48
50.0
100
AcDbLine
 10
16307.19999999998
 20
9029.6
 30
0.0
 11
13127.19999999999
 21
9029.6
 31
0.0
  0
LINE
  5
164F5
330
747D
100
AcDbEntity
  8
仕様書枠
 48
50.0
100
AcDbLine
 10
16307.19999999998
 20
9369.600000000001
 30
0.0
 11
13127.19999999999
 21
9369.600000000001
 31
0.0
  0
TEXT
  5
164F6
330
747D
100
AcDbEntity
  8
文字
 62
     7
 48
50.0
100
AcDbText
 10
13271.19032244793
 20
10250.01374588373
 30
0.0
 40
100.0
  1
6
  7
STYLE1
100
AcDbText
  0
TEXT
  5
164F7
330
747D
100
AcDbEntity
  8
文字
 62
     7
 48
50.0
100
AcDbText
 10
13271.19032244792
 20
10080.01374588373
 30
0.0
 40
100.0
  1
7
  7
STYLE1
100
AcDbText
  0
TEXT
  5
164F8
330
747D
100
AcDbEntity
  8
文字
 62
     7
 48
50.0
100
AcDbText
 10
13271.19032244792
 20
9740.013745883729
 30
0.0
 40
100.0
  1
9
  7
STYLE1
100
AcDbText
  0
TEXT
  5
164F9
330
747D
100
AcDbEntity
  8
文字
 62
     7
 48
50.0
100
AcDbText
 10
13271.19032244792
 20
9910.01374588373
 30
0.0
 40
100.0
  1
8
  7
STYLE1
100
AcDbText
  0
TEXT
  5
164FA
330
747D
100
AcDbEntity
  8
文字
 62
     7
 48
50.0
100
AcDbText
 10
13583.11819016569
 20
10080.01374588373
 30
0.0
 40
100.0
  1
鼻隠シ前後
  7
STYLE1
100
AcDbText
  0
TEXT
  5
164FB
330
747D
100
AcDbEntity
  8
文字
 62
     7
 48
50.0
100
AcDbText
 10
13583.11819016568
 20
9740.013745883729
 30
0.0
 40
100.0
  1
屋根パネル
  7
STYLE1
100
AcDbText
  0
TEXT
  5
164FC
330
747D
100
AcDbEntity
  8
文字
 62
     7
 48
50.0
100
AcDbText
 10
13583.11819016568
 20
9570.013745883729
 30
0.0
 40
100.0
  1
壁パネル
  7
STYLE1
100
AcDbText
  0
TEXT
  5
164FD
330
747D
100
AcDbEntity
  8
文字
 62
     7
 48
50.0
100
AcDbText
 10
13248.77747366447
 20
9570.013745883729
 30
0.0
 40
100.0
  1
10
  7
STYLE1
100
AcDbText
  0
TEXT
  5
164FE
330
747D
100
AcDbEntity
  8
文字
 62
     7
 48
50.0
100
AcDbText
 10
13583.11819016569
 20
10250.01374588373
 30
0.0
 40
100.0
  1
妻板左右
  7
STYLE1
100
AcDbText
  0
TEXT
  5
164FF
330
747D
100
AcDbEntity
  8
文字
 62
     7
 48
50.0
100
AcDbText
 10
13271.19032244793
 20
10420.01374588373
 30
0.0
 40
100.0
  1
5
  7
STYLE1
100
AcDbText
  0
TEXT
  5
16500
330
747D
100
AcDbEntity
  8
文字
 62
     7
 48
50.0
100
AcDbText
 10
13583.11819016569
 20
10420.01374588373
 30
0.0
 40
100.0
  1
桁後
  7
STYLE1
100
AcDbText
  0
TEXT
  5
16501
330
747D
100
AcDbEntity
  8
文字
 62
     7
 48
50.0
100
AcDbText
 10
13583.11819016569
 20
10590.01374588373
 30
0.0
 40
100.0
  1
鴨居
  7
STYLE1
100
AcDbText
  0
TEXT
  5
16502
330
747D
100
AcDbEntity
  8
文字
 62
     7
 48
50.0
100
AcDbText
 10
13583.11819016569
 20
10930.01374588373
 30
0.0
 40
100.0
  1
柱
  7
STYLE1
100
AcDbText
  0
TEXT
  5
16503
330
747D
100
AcDbEntity
  8
文字
 62
     7
 48
50.0
100
AcDbText
 10
13583.11819016569
 20
11100.01374588373
 30
0.0
 40
100.0
  1
土台枠
  7
STYLE1
100
AcDbText
  0
TEXT
  5
16504
330
747D
100
AcDbEntity
  8
文字
 62
     7
 48
50.0
100
AcDbText
 10
14859.79774614482
 20
11270.01374588373
 30
0.0
 40
100.0
  1
材料（材質）　　単位mm
  7
STYLE1
100
AcDbText
  0
TEXT
  5
16505
330
747D
100
AcDbEntity
  8
文字
 62
     7
 48
50.0
100
AcDbText
 10
13732.03840939434
 20
11270.01374588373
 30
0.0
 40
100.0
  1
部　　品　　名
  7
STYLE1
100
AcDbText
  0
TEXT
  5
16506
330
747D
100
AcDbEntity
  8
文字
 62
     7
 48
50.0
100
AcDbText
 10
13271.19032244793
 20
10760.01374588373
 30
0.0
 40
100.0
  1
3
  7
STYLE1
100
AcDbText
  0
TEXT
  5
16507
330
747D
100
AcDbEntity
  8
文字
 62
     7
 48
50.0
100
AcDbText
 10
13271.19032244793
 20
10590.01374588373
 30
0.0
 40
100.0
  1
4
  7
STYLE1
100
AcDbText
  0
TEXT
  5
16508
330
747D
100
AcDbEntity
  8
文字
 62
     7
 48
50.0
100
AcDbText
 10
13271.19032244792
 20
10930.01374588373
 30
0.0
 40
100.0
  1
2
  7
STYLE1
100
AcDbText
  0
TEXT
  5
16509
330
747D
100
AcDbEntity
  8
文字
 62
     7
 48
50.0
100
AcDbText
 10
13271.19032244792
 20
11100.01374588373
 30
0.0
 40
100.0
  1
1
  7
STYLE1
100
AcDbText
  0
TEXT
  5
1650A
330
747D
100
AcDbEntity
  8
文字
 62
     7
 48
50.0
100
AcDbText
 10
13197.42518560407
 20
11270.01374588373
 30
0.0
 40
100.0
  1
品番
  7
STYLE1
100
AcDbText
  0
LINE
  5
1650B
330
747D
100
AcDbEntity
  8
仕様書枠
 48
50.0
100
AcDbLine
 10
16307.19999999999
 20
10559.6
 30
0.0
 11
13127.2
 21
10559.6
 31
0.0
  0
LINE
  5
1650C
330
747D
100
AcDbEntity
  8
仕様書枠
 48
50.0
100
AcDbLine
 10
16307.19999999999
 20
10219.6
 30
0.0
 11
13127.2
 21
10219.6
 31
0.0
  0
LINE
  5
1650D
330
747D
100
AcDbEntity
  8
仕様書枠
 48
50.0
100
AcDbLine
 10
16307.19999999999
 20
10389.6
 30
0.0
 11
13127.2
 21
10389.6
 31
0.0
  0
LINE
  5
1650E
330
747D
100
AcDbEntity
  8
仕様書枠
 48
50.0
100
AcDbLine
 10
16307.19999999999
 20
11069.6
 30
0.0
 11
13127.2
 21
11069.6
 31
0.0
  0
LINE
  5
1650F
330
747D
100
AcDbEntity
  8
仕様書枠
 48
50.0
100
AcDbLine
 10
16307.2
 20
10729.6
 30
0.0
 11
13127.2
 21
10729.6
 31
0.0
  0
LINE
  5
16510
330
747D
100
AcDbEntity
  8
仕様書枠
 48
50.0
100
AcDbLine
 10
16307.19999999999
 20
11239.6
 30
0.0
 11
13127.2
 21
11239.6
 31
0.0
  0
LINE
  5
16511
330
747D
100
AcDbEntity
  8
仕様書枠
 48
50.0
100
AcDbLine
 10
13490.2
 20
11409.6
 30
0.0
 11
13490.2
 21
8689.6
 31
0.0
  0
LINE
  5
16512
330
747D
100
AcDbEntity
  8
仕様書枠
 48
50.0
100
AcDbLine
 10
14785.2
 20
11409.59999999999
 30
0.0
 11
14785.19999999999
 21
8689.599999999998
 31
0.0
  0
LINE
  5
16513
330
747D
100
AcDbEntity
  8
仕様書枠
 48
50.0
100
AcDbLine
 10
16307.19999999999
 20
8179.599999999998
 30
0.0
 11
16307.2
 21
11409.6
 31
0.0
  0
LINE
  5
16514
330
747D
100
AcDbEntity
  8
仕様書枠
 48
50.0
100
AcDbLine
 10
16307.19999999999
 20
11409.6
 30
0.0
 11
13127.2
 21
11409.6
 31
0.0
  0
LINE
  5
16515
330
747D
100
AcDbEntity
  8
仕様書枠
 48
50.0
100
AcDbLine
 10
16307.2
 20
9879.600000000001
 30
0.0
 11
13127.2
 21
9879.600000000001
 31
0.0
  0
TEXT
  5
16516
330
747D
100
AcDbEntity
  8
文字
 62
     7
 48
50.0
100
AcDbText
 10
15022.63965474513
 20
8890.013745883722
 30
0.0
 40
100.0
  1
F12            2.3
  7
STYLE1
100
AcDbText
  0
TEXT
  5
16517
330
747D
100
AcDbEntity
  8
文字
 62
     7
 48
50.0
100
AcDbText
 10
13583.11819016567
 20
8890.013745883729
 30
0.0
 40
100.0
  1
アンカープレート
  7
STYLE1
100
AcDbText
  0
TEXT
  5
16518
330
747D
100
AcDbEntity
  8
文字
 62
     7
 48
50.0
100
AcDbText
 10
15022.63965474516
 20
9910.01374588373
 30
0.0
 40
100.0
  1
F12,Y10       0.7+1.0
  7
STYLE1
100
AcDbText
  0
TEXT
  5
16519
330
747D
100
AcDbEntity
  8
文字
 62
     7
 48
50.0
100
AcDbText
 10
13583.11819016569
 20
9910.01374588373
 30
0.0
 40
100.0
  1
梁中・梁中央
 41
0.9
  7
STYLE1
100
AcDbText
  0
LINE
  5
1651C
330
747D
100
AcDbEntity
  8
仕様書枠
 48
50.0
100
AcDbLine
 10
16307.2
 20
10899.6
 30
0.0
 11
13127.2
 21
10899.6
 31
0.0
  0
TEXT
  5
1651D
330
747D
100
AcDbEntity
  8
部品1
100
AcDbText
 10
11001.60696304359
 20
2329.128831973314
 30
0.0
 40
135.0
  1
側面図
  7
STYLE2
100
AcDbText
  0
LWPOLYLINE
  5
1651E
330
747D
100
AcDbEntity
  8
部品1
100
AcDbPolyline
 90
        4
 70
     1
 43
0.0
 10
10912.16086161999
 20
2522.022361191838
 10
10912.16086161999
 20
2282.130039646306
 10
11675.63152784843
 20
2282.130039646306
 10
11675.63152784843
 20
2522.022361191838
  0
TEXT
  5
1651F
330
747D
100
AcDbEntity
  8
部品1
100
AcDbText
 10
6216.888883550456
 20
2329.128831973314
 30
0.0
 40
135.0
  1
正面図
  7
STYLE2
100
AcDbText
  0
LWPOLYLINE
  5
16520
330
747D
100
AcDbEntity
  8
部品1
100
AcDbPolyline
 90
        4
 70
     1
 43
0.0
 10
6126.3634798125
 20
2522.022361191838
 10
6126.3634798125
 20
2282.130039646306
 10
6889.834146040939
 20
2282.130039646306
 10
6889.834146040939
 20
2522.022361191838
  0
DIMENSION
  5
16BFA
330
747D
100
AcDbEntity
  8
寸法
100
AcDbDimension
  2
*D33
 10
8795.405323310367
 20
8451.313175519839
 30
0.0
 11
8446.75347148601
 21
8556.398451296368
 31
0.0
 70
   160
 71
     5
 42
892.000000000011
  3
INABA_S40G
100
AcDbAlignedDimension
 13
7962.098819604332
 23
8670.360285762823
 33
0.0
 14
8854.098819604343
 24
8670.36028576282
 34
0.0
100
AcDbRotatedDimension
1001
ACAD
1000
DSTYLE
1002
{
1070
   279
1070
     2
1002
}
  0
MTEXT
  5
16BFB
330
747D
100
AcDbEntity
  8
寸法
 62
     7
 48
50.0
100
AcDbMText
 10
8423.37861721497
 20
8739.974033300111
 30
0.0
 40
96.0
 41
0.0
 71
     5
 72
     1
  1
棚 2段
  7
STYLE1
 73
     1
 44
1.0
1001
ACAD
1000
MTEXTBEGIN
1070
    73
1070
     1
1070
    44
1040
1.0
1070
    74
1070
     0
1000
MTEXTEND
  0
DIMENSION
  5
16BFC
330
747D
100
AcDbEntity
  8
寸法
100
AcDbDimension
  2
*D34
 10
7845.405323310366
 20
8451.313175519839
 30
0.0
 11
7496.753471486009
 21
8556.398451296368
 31
0.0
 70
   160
 71
     5
 42
892.000000000011
  3
INABA_S40G
100
AcDbAlignedDimension
 13
7012.098819604332
 23
8670.360285762823
 33
0.0
 14
7904.098819604344
 24
8670.36028576282
 34
0.0
100
AcDbRotatedDimension
1001
ACAD
1000
DSTYLE
1002
{
1070
   279
1070
     2
1002
}
  0
MTEXT
  5
16BFD
330
747D
100
AcDbEntity
  8
寸法
 62
     7
 48
50.0
100
AcDbMText
 10
7473.378617214969
 20
8739.974033300111
 30
0.0
 40
96.0
 41
0.0
 71
     5
 72
     1
  1
棚 2段
  7
STYLE1
 73
     1
 44
1.0
1001
ACAD
1000
MTEXTBEGIN
1070
    73
1070
     1
1070
    44
1040
1.0
1070
    74
1070
     0
1000
MTEXTEND
  0
DIMENSION
  5
16BFE
330
747D
100
AcDbEntity
  8
寸法
100
AcDbDimension
  2
*D35
 10
6895.405323310367
 20
8451.313175519839
 30
0.0
 11
6553.224634380254
 21
8554.597290912836
 31
0.0
 70
   160
 71
     5
 42
892.000000000011
  3
INABA_S40G
100
AcDbAlignedDimension
 13
6062.098819604333
 23
8670.360285762823
 33
0.0
 14
6954.098819604344
 24
8670.36028576282
 34
0.0
100
AcDbRotatedDimension
1001
ACAD
1000
DSTYLE
1002
{
1070
   279
1070
     2
1002
}
  0
DIMENSION
  5
16BFF
330
747D
100
AcDbEntity
  8
寸法
100
AcDbDimension
  2
*D36
 10
5945.405323310366
 20
8451.313175519839
 30
0.0
 11
5603.224634380254
 21
8554.597290912836
 31
0.0
 70
   160
 71
     5
 42
892.000000000011
  3
INABA_S40G
100
AcDbAlignedDimension
 13
5112.098819604333
 23
8670.360285762823
 33
0.0
 14
6004.098819604344
 24
8670.36028576282
 34
0.0
100
AcDbRotatedDimension
1001
ACAD
1000
DSTYLE
1002
{
1070
   279
1070
     2
1002
}
  0
MTEXT
  5
16C00
330
747D
100
AcDbEntity
  8
寸法
 62
     7
 48
50.0
100
AcDbMText
 10
5572.647015769961
 20
8739.974033300123
 30
0.0
 40
96.0
 41
0.0
 71
     5
 72
     1
  1
棚 2段
  7
STYLE1
 73
     1
 44
1.0
1001
ACAD
1000
MTEXTBEGIN
1070
    73
1070
     1
1070
    44
1040
1.0
1070
    74
1070
     0
1000
MTEXTEND
  0
MTEXT
  5
16C01
330
747D
100
AcDbEntity
  8
寸法
 62
     7
 48
50.0
100
AcDbMText
 10
6522.647015769961
 20
8739.974033300123
 30
0.0
 40
96.0
 41
0.0
 71
     5
 72
     1
  1
棚 2段
  7
STYLE1
 73
     1
 44
1.0
1001
ACAD
1000
MTEXTBEGIN
1070
    73
1070
     1
1070
    44
1040
1.0
1070
    74
1070
     0
1000
MTEXTEND
  0
MTEXT
  5
16C56
330
747D
100
AcDbEntity
  8
寸法
 62
     7
 48
50.0
100
AcDbMText
 10
4622.647015769961
 20
8739.974033300123
 30
0.0
 40
96.0
 41
0.0
 71
     5
 72
     1
  1
棚 2段
  7
STYLE1
 73
     1
 44
1.0
1001
ACAD
1000
MTEXTBEGIN
1070
    73
1070
     1
1070
    44
1040
1.0
1070
    74
1070
     0
1000
MTEXTEND
  0
DIMENSION
  5
16C57
330
747D
100
AcDbEntity
  8
寸法
100
AcDbDimension
  2
*D37
 10
4995.405323310365
 20
8451.313175519839
 30
0.0
 11
4653.224634380254
 21
8554.597290912836
 31
0.0
 70
   160
 71
     5
 42
892.000000000011
  3
INABA_S40G
100
AcDbAlignedDimension
 13
4162.098819604333
 23
8670.360285762823
 33
0.0
 14
5054.098819604344
 24
8670.36028576282
 34
0.0
100
AcDbRotatedDimension
1001
ACAD
1000
DSTYLE
1002
{
1070
   279
1070
     2
1002
}
  0
DIMENSION
  5
16C6D
330
747D
100
AcDbEntity
  8
寸法
 48
50.0
100
AcDbDimension
  2
*D39
 10
4133.098812926728
 20
5700.613232806524
 30
0.0
 11
6508.098812926718
 21
5700.613232806524
 31
0.0
 70
   160
  1
柱外寸法<>
 71
     5
 42
4750.000000000003
  3
INABA_S40G
100
AcDbAlignedDimension
 13
8883.09881292673
 23
5488.071647548282
 33
0.0
 14
4133.098812926728
 24
5488.071647548288
 34
0.0
100
AcDbRotatedDimension
  0
DIMENSION
  5
16C6E
330
747D
100
AcDbEntity
  8
寸法
 48
50.0
100
AcDbDimension
  2
*D40
 10
8933.098812926731
 20
5923.570211244372
 30
0.0
 11
6508.098812926718
 21
5923.570211244372
 31
0.0
 70
   160
 71
     5
 42
4850.000000000004
  3
INABA_S40G
100
AcDbAlignedDimension
 13
4083.098812926728
 23
5488.071647548286
 33
0.0
 14
8933.098812926731
 24
5488.071647548281
 34
0.0
100
AcDbRotatedDimension
  0
DIMENSION
  5
16C6F
330
747D
100
AcDbEntity
  8
寸法
 48
50.0
100
AcDbDimension
  2
*D38
 10
4083.098812926728
 20
5700.613232806524
 30
0.0
 11
3769.613531552481
 21
5700.613232806524
 31
0.0
 70
   160
 71
     5
 42
50.0
  3
INABA_S40G
100
AcDbAlignedDimension
 13
4133.098812926728
 23
5488.071647548288
 33
0.0
 14
4083.098812926728
 24
5488.071647548286
 34
0.0
100
AcDbRotatedDimension
1001
ACAD
1000
DSTYLE
1002
{
1002
}
  0
LINE
  5
16C70
330
747D
100
AcDbEntity
  8
細線
 48
50.0
100
AcDbLine
 10
4116.098812926728
 20
5488.071647548284
 30
0.0
 11
4116.098812926728
 21
5347.071647548283
 31
0.0
  0
ARC
  5
16C71
330
747D
100
AcDbEntity
  8
部品1
100
AcDbCircle
 10
4090.507234033156
 20
5481.071647548284
 30
0.0
 40
7.0
100
AcDbArc
 50
90.0
 51
183.247342790341
  0
ARC
  5
16C72
330
747D
100
AcDbEntity
  8
部品1
100
AcDbCircle
 10
4103.722557494191
 20
5354.071647548286
 30
0.0
 40
7.0
100
AcDbArc
 50
183.247342790341
 51
270.0
  0
ARC
  5
16C73
330
747D
100
AcDbEntity
  8
部品1
 48
50.0
100
AcDbCircle
 10
4085.350747283515
 20
5460.738646709971
 30
0.0
 40
0.7
100
AcDbArc
 50
183.2473427903929
 51
262.3418727926361
  0
ARC
  5
16C74
330
747D
100
AcDbEntity
  8
部品1
 48
50.0
100
AcDbCircle
 10
4093.586777808355
 20
5368.538646709967
 30
0.0
 40
0.7
100
AcDbArc
 50
183.2473427902889
 51
262.3418727926361
  0
ARC
  5
16C75
330
747D
100
AcDbEntity
  8
部品1
 48
50.0
100
AcDbCircle
 10
4093.093708699795
 20
5364.871647548284
 30
0.0
 40
3.0
100
AcDbArc
 50
3.247342790340932
 51
82.34187279263609
  0
ARC
  5
16C76
330
747D
100
AcDbEntity
  8
部品1
 48
50.0
100
AcDbCircle
 10
4084.857678174951
 20
5457.071647548286
 30
0.0
 40
3.0
100
AcDbArc
 50
3.247342790340932
 51
82.34187279263609
  0
LINE
  5
16C77
330
747D
100
AcDbEntity
  8
部品1
100
AcDbLine
 10
4087.852861071136
 20
5457.241587003387
 30
0.0
 11
4092.887901799247
 21
5368.498994170444
 31
0.0
  0
LINE
  5
16C78
330
747D
100
AcDbEntity
  8
部品1
100
AcDbLine
 10
4096.088891595984
 20
5365.041587003386
 30
0.0
 11
4096.733797403092
 21
5353.675122153045
 31
0.0
  0
LINE
  5
16C79
330
747D
100
AcDbEntity
  8
部品1
100
AcDbLine
 10
4083.518473942058
 20
5480.675122153044
 30
0.0
 11
4084.651871274407
 21
5460.698994170446
 31
0.0
  0
LINE
  5
16C7A
330
747D
100
AcDbEntity
  8
部品1
 48
50.0
100
AcDbLine
 10
8925.6903918203
 20
5488.071647548281
 30
0.0
 11
4090.507234033156
 21
5488.071647548281
 31
0.0
  0
LINE
  5
16C7B
330
747D
100
AcDbEntity
  8
細線
 48
50.0
100
AcDbLine
 10
8930.94016191206
 20
5460.044890111706
 30
0.0
 11
4085.257463937142
 21
5460.04489011228
 31
0.0
  0
LINE
  5
16C7C
330
747D
100
AcDbEntity
  8
細線
 48
50.0
100
AcDbLine
 10
8922.704131387249
 20
5367.844890111707
 30
0.0
 11
4093.493494461974
 21
5367.844890112279
 31
0.0
  0
LINE
  5
16C7D
330
747D
100
AcDbEntity
  8
部品1
 48
50.0
100
AcDbLine
 10
8912.475068359265
 20
5347.071647548279
 30
0.0
 11
4103.722557494191
 21
5347.071647548283
 31
0.0
  0
DIMENSION
  5
16CC1
330
747D
100
AcDbEntity
  8
寸法
 48
50.0
100
AcDbDimension
  2
*D41
 10
8883.09881292673
 20
5700.613232806521
 30
0.0
 11
9246.584094300969
 21
5700.613232806521
 31
0.0
 70
   160
 71
     5
 42
50.0
  3
INABA_S40G
100
AcDbAlignedDimension
 13
8933.098812926731
 23
5488.071647548281
 33
0.0
 14
8883.09881292673
 24
5488.071647548282
 34
0.0
100
AcDbRotatedDimension
  0
LINE
  5
16CC2
330
747D
100
AcDbEntity
  8
部品1
100
AcDbLine
 10
8932.679151911399
 20
5480.675122153041
 30
0.0
 11
8931.545754579053
 21
5460.698994170441
 31
0.0
  0
LINE
  5
16CC3
330
747D
100
AcDbEntity
  8
細線
 48
50.0
100
AcDbLine
 10
8900.098812926731
 20
5488.071647548281
 30
0.0
 11
8900.098812926731
 21
5347.07164754828
 31
0.0
  0
LINE
  5
16CC4
330
747D
100
AcDbEntity
  8
部品1
100
AcDbLine
 10
8920.108734257475
 20
5365.041587003383
 30
0.0
 11
8919.463828450364
 21
5353.675122153043
 31
0.0
  0
LINE
  5
16CC5
330
747D
100
AcDbEntity
  8
部品1
100
AcDbLine
 10
8928.34476478232
 20
5457.241587003384
 30
0.0
 11
8923.309724054208
 21
5368.49899417044
 31
0.0
  0
ARC
  5
16CC6
330
747D
100
AcDbEntity
  8
部品1
 48
50.0
100
AcDbCircle
 10
8931.339947678505
 20
5457.071647548282
 30
0.0
 40
3.0
100
AcDbArc
 50
97.6581272073639
 51
176.752657209659
  0
ARC
  5
16CC7
330
747D
100
AcDbEntity
  8
部品1
 48
50.0
100
AcDbCircle
 10
8923.10391715366
 20
5364.87164754828
 30
0.0
 40
3.0
100
AcDbArc
 50
97.6581272073639
 51
176.752657209659
  0
ARC
  5
16CC8
330
747D
100
AcDbEntity
  8
部品1
 48
50.0
100
AcDbCircle
 10
8922.610848045101
 20
5368.538646709963
 30
0.0
 40
0.7
100
AcDbArc
 50
277.6581272073639
 51
356.7526572097111
  0
ARC
  5
16CC9
330
747D
100
AcDbEntity
  8
部品1
 48
50.0
100
AcDbCircle
 10
8930.846878569944
 20
5460.738646709968
 30
0.0
 40
0.7
100
AcDbArc
 50
277.6581272073639
 51
356.752657209607
  0
ARC
  5
16CCA
330
747D
100
AcDbEntity
  8
部品1
100
AcDbCircle
 10
8912.475068359265
 20
5354.071647548282
 30
0.0
 40
7.0
100
AcDbArc
 50
270.0
 51
356.752657209659
  0
ARC
  5
16CCB
330
747D
100
AcDbEntity
  8
部品1
100
AcDbCircle
 10
8925.6903918203
 20
5481.07164754828
 30
0.0
 40
7.0
100
AcDbArc
 50
356.752657209659
 51
90.0
  0
ARC
  5
16CE5
330
747D
100
AcDbEntity
  8
部品1
 48
0.01
100
AcDbCircle
 10
4696.098812926724
 20
5285.571647548277
 30
0.0
 40
2.0
100
AcDbArc
 50
270.0
 51
0.0
  0
ARC
  5
16CE6
330
747D
100
AcDbEntity
  8
部品1
 48
0.01
100
AcDbCircle
 10
4696.098812926727
 20
5317.071647548277
 30
0.0
 40
2.0
100
AcDbArc
 50
0.0
 51
90.0
  0
ARC
  5
16CE7
330
747D
100
AcDbEntity
  8
部品1
 48
0.01
100
AcDbCircle
 10
4520.098812926728
 20
5285.571647548277
 30
0.0
 40
2.0
100
AcDbArc
 50
180.0
 51
270.0
  0
ARC
  5
16CE8
330
747D
100
AcDbEntity
  8
部品1
 48
0.01
100
AcDbCircle
 10
4520.098812926728
 20
5317.071647548277
 30
0.0
 40
2.0
100
AcDbArc
 50
90.0
 51
180.0
  0
LINE
  5
16CE9
330
747D
100
AcDbEntity
  8
細線
100
AcDbLine
 10
4608.098812926725
 20
5289.571647548277
 30
0.0
 11
4682.098812926727
 21
5289.571647548277
 31
0.0
  0
LINE
  5
16CEA
330
747D
100
AcDbEntity
  8
細線
100
AcDbLine
 10
4608.098812926728
 20
5312.571647548277
 30
0.0
 11
4534.098812926727
 21
5312.571647548277
 31
0.0
  0
LINE
  5
16CEB
330
747D
100
AcDbEntity
  8
細線
100
AcDbLine
 10
4534.098812926727
 20
5289.571647548277
 30
0.0
 11
4608.098812926728
 21
5289.571647548277
 31
0.0
  0
LINE
  5
16CEC
330
747D
100
AcDbEntity
  8
細線
100
AcDbLine
 10
4682.098812926727
 20
5312.571647548277
 30
0.0
 11
4608.098812926728
 21
5312.571647548277
 31
0.0
  0
LINE
  5
16CED
330
747D
100
AcDbEntity
  8
細線
100
AcDbLine
 10
4682.098812926727
 20
5289.571647548277
 30
0.0
 11
4682.098812926727
 21
5312.571647548277
 31
0.0
  0
LINE
  5
16CEE
330
747D
100
AcDbEntity
  8
細線
100
AcDbLine
 10
4534.098812926727
 20
5312.571647548277
 30
0.0
 11
4534.098812926727
 21
5289.571647548277
 31
0.0
  0
LINE
  5
16CEF
330
747D
100
AcDbEntity
  8
部品1
 48
0.01
100
AcDbLine
 10
4698.098812926724
 20
5285.571647548277
 30
0.0
 11
4698.098812926728
 21
5317.071647548277
 31
0.0
  0
LINE
  5
16CF0
330
747D
100
AcDbEntity
  8
部品1
 48
0.01
100
AcDbLine
 10
4520.098812926728
 20
5283.571647548277
 30
0.0
 11
4696.098812926724
 21
5283.571647548277
 31
0.0
  0
LINE
  5
16CF1
330
747D
100
AcDbEntity
  8
部品1
 48
0.01
100
AcDbLine
 10
4518.098812926728
 20
5317.071647548277
 30
0.0
 11
4518.098812926728
 21
5285.571647548277
 31
0.0
  0
LINE
  5
16CF2
330
747D
100
AcDbEntity
  8
部品1
 48
0.01
100
AcDbLine
 10
4696.098812926727
 20
5319.071647548277
 30
0.0
 11
4520.098812926728
 21
5319.071647548277
 31
0.0
  0
LINE
  5
16CF3
330
747D
100
AcDbEntity
  8
細線
100
AcDbLine
 10
4534.098812926727
 20
5306.571647548277
 30
0.0
 11
4608.098812926728
 21
5306.571647548277
 31
0.0
  0
LINE
  5
16CF4
330
747D
100
AcDbEntity
  8
細線
100
AcDbLine
 10
4534.098812926727
 20
5300.571647548277
 30
0.0
 11
4608.098812926728
 21
5300.571647548277
 31
0.0
  0
LINE
  5
16CF5
330
747D
100
AcDbEntity
  8
細線
100
AcDbLine
 10
4534.098812926724
 20
5294.571647548277
 30
0.0
 11
4608.098812926728
 21
5294.571647548277
 31
0.0
  0
LINE
  5
16CF6
330
747D
100
AcDbEntity
  8
細線
100
AcDbLine
 10
4534.098812926727
 20
5306.571647548277
 30
0.0
 11
4603.098812926727
 21
5306.571647548277
 31
0.0
  0
LINE
  5
16CF7
330
747D
100
AcDbEntity
  8
細線
100
AcDbLine
 10
4682.098812926724
 20
5306.571647548277
 30
0.0
 11
4608.098812926728
 21
5306.571647548277
 31
0.0
  0
LINE
  5
16CF8
330
747D
100
AcDbEntity
  8
細線
100
AcDbLine
 10
4682.098812926724
 20
5294.571647548277
 30
0.0
 11
4608.098812926728
 21
5294.571647548277
 31
0.0
  0
LINE
  5
16CF9
330
747D
100
AcDbEntity
  8
細線
100
AcDbLine
 10
4682.098812926724
 20
5300.571647548277
 30
0.0
 11
4608.098812926728
 21
5300.571647548277
 31
0.0
  0
LINE
  5
16CFA
330
747D
100
AcDbEntity
  8
細線
100
AcDbLine
 10
4608.098812926728
 20
5312.571647548277
 30
0.0
 11
4608.098812926725
 21
5289.571647548277
 31
0.0
  0
LINE
  5
16CFB
330
747D
100
AcDbEntity
  8
細線
100
AcDbLine
 10
5558.098812926728
 20
5312.571647548277
 30
0.0
 11
5558.098812926725
 21
5289.571647548277
 31
0.0
  0
LINE
  5
16CFC
330
747D
100
AcDbEntity
  8
細線
100
AcDbLine
 10
5632.098812926724
 20
5300.571647548277
 30
0.0
 11
5558.098812926728
 21
5300.571647548277
 31
0.0
  0
LINE
  5
16CFD
330
747D
100
AcDbEntity
  8
細線
100
AcDbLine
 10
5632.098812926724
 20
5294.571647548277
 30
0.0
 11
5558.098812926728
 21
5294.571647548277
 31
0.0
  0
LINE
  5
16CFE
330
747D
100
AcDbEntity
  8
細線
100
AcDbLine
 10
5632.098812926724
 20
5306.571647548277
 30
0.0
 11
5558.098812926728
 21
5306.571647548277
 31
0.0
  0
LINE
  5
16CFF
330
747D
100
AcDbEntity
  8
細線
100
AcDbLine
 10
5484.098812926728
 20
5306.571647548277
 30
0.0
 11
5553.098812926728
 21
5306.571647548277
 31
0.0
  0
LINE
  5
16D00
330
747D
100
AcDbEntity
  8
細線
100
AcDbLine
 10
5484.098812926724
 20
5294.571647548277
 30
0.0
 11
5558.098812926728
 21
5294.571647548277
 31
0.0
  0
LINE
  5
16D01
330
747D
100
AcDbEntity
  8
細線
100
AcDbLine
 10
5484.098812926728
 20
5300.571647548277
 30
0.0
 11
5558.098812926728
 21
5300.571647548277
 31
0.0
  0
LINE
  5
16D02
330
747D
100
AcDbEntity
  8
細線
100
AcDbLine
 10
5484.098812926728
 20
5306.571647548277
 30
0.0
 11
5558.098812926728
 21
5306.571647548277
 31
0.0
  0
LINE
  5
16D03
330
747D
100
AcDbEntity
  8
部品1
 48
0.01
100
AcDbLine
 10
5646.098812926727
 20
5319.071647548277
 30
0.0
 11
5470.098812926728
 21
5319.071647548277
 31
0.0
  0
LINE
  5
16D04
330
747D
100
AcDbEntity
  8
部品1
 48
0.01
100
AcDbLine
 10
5468.098812926728
 20
5317.071647548277
 30
0.0
 11
5468.098812926728
 21
5285.571647548277
 31
0.0
  0
LINE
  5
16D05
330
747D
100
AcDbEntity
  8
部品1
 48
0.01
100
AcDbLine
 10
5470.098812926728
 20
5283.571647548277
 30
0.0
 11
5646.098812926724
 21
5283.571647548277
 31
0.0
  0
LINE
  5
16D06
330
747D
100
AcDbEntity
  8
部品1
 48
0.01
100
AcDbLine
 10
5648.098812926725
 20
5285.571647548277
 30
0.0
 11
5648.098812926728
 21
5317.071647548277
 31
0.0
  0
LINE
  5
16D07
330
747D
100
AcDbEntity
  8
細線
100
AcDbLine
 10
5484.098812926728
 20
5312.571647548277
 30
0.0
 11
5484.098812926728
 21
5289.571647548277
 31
0.0
  0
LINE
  5
16D08
330
747D
100
AcDbEntity
  8
細線
100
AcDbLine
 10
5632.098812926727
 20
5289.571647548277
 30
0.0
 11
5632.098812926727
 21
5312.571647548277
 31
0.0
  0
LINE
  5
16D09
330
747D
100
AcDbEntity
  8
細線
100
AcDbLine
 10
5632.098812926727
 20
5312.571647548277
 30
0.0
 11
5558.098812926728
 21
5312.571647548277
 31
0.0
  0
LINE
  5
16D0A
330
747D
100
AcDbEntity
  8
細線
100
AcDbLine
 10
5484.098812926728
 20
5289.571647548277
 30
0.0
 11
5558.098812926728
 21
5289.571647548277
 31
0.0
  0
LINE
  5
16D0B
330
747D
100
AcDbEntity
  8
細線
100
AcDbLine
 10
5558.098812926728
 20
5312.571647548277
 30
0.0
 11
5484.098812926728
 21
5312.571647548277
 31
0.0
  0
LINE
  5
16D0C
330
747D
100
AcDbEntity
  8
細線
100
AcDbLine
 10
5558.098812926725
 20
5289.571647548277
 30
0.0
 11
5632.098812926727
 21
5289.571647548277
 31
0.0
  0
ARC
  5
16D0D
330
747D
100
AcDbEntity
  8
部品1
 48
0.01
100
AcDbCircle
 10
5470.098812926728
 20
5317.071647548277
 30
0.0
 40
2.0
100
AcDbArc
 50
90.0
 51
180.0
  0
ARC
  5
16D0E
330
747D
100
AcDbEntity
  8
部品1
 48
0.01
100
AcDbCircle
 10
5470.098812926728
 20
5285.571647548277
 30
0.0
 40
2.0
100
AcDbArc
 50
180.0
 51
270.0
  0
ARC
  5
16D0F
330
747D
100
AcDbEntity
  8
部品1
 48
0.01
100
AcDbCircle
 10
5646.098812926727
 20
5317.071647548277
 30
0.0
 40
2.0
100
AcDbArc
 50
0.0
 51
90.0
  0
ARC
  5
16D10
330
747D
100
AcDbEntity
  8
部品1
 48
0.01
100
AcDbCircle
 10
5646.098812926724
 20
5285.571647548277
 30
0.0
 40
2.0
100
AcDbArc
 50
270.0
 51
0.0
  0
ARC
  5
16D11
330
747D
100
AcDbEntity
  8
部品1
 48
0.01
100
AcDbCircle
 10
6596.098812926725
 20
5285.571647548277
 30
0.0
 40
2.0
100
AcDbArc
 50
270.0
 51
0.0
  0
ARC
  5
16D12
330
747D
100
AcDbEntity
  8
部品1
 48
0.01
100
AcDbCircle
 10
6596.098812926728
 20
5317.071647548277
 30
0.0
 40
2.0
100
AcDbArc
 50
0.0
 51
90.0
  0
ARC
  5
16D13
330
747D
100
AcDbEntity
  8
部品1
 48
0.01
100
AcDbCircle
 10
6420.098812926728
 20
5285.571647548277
 30
0.0
 40
2.0
100
AcDbArc
 50
180.0
 51
270.0
  0
ARC
  5
16D14
330
747D
100
AcDbEntity
  8
部品1
 48
0.01
100
AcDbCircle
 10
6420.098812926728
 20
5317.071647548277
 30
0.0
 40
2.0
100
AcDbArc
 50
90.0
 51
180.0
  0
LINE
  5
16D15
330
747D
100
AcDbEntity
  8
細線
100
AcDbLine
 10
6508.098812926724
 20
5289.571647548277
 30
0.0
 11
6582.098812926727
 21
5289.571647548277
 31
0.0
  0
LINE
  5
16D16
330
747D
100
AcDbEntity
  8
細線
100
AcDbLine
 10
6508.098812926728
 20
5312.571647548277
 30
0.0
 11
6434.098812926729
 21
5312.571647548277
 31
0.0
  0
LINE
  5
16D17
330
747D
100
AcDbEntity
  8
細線
100
AcDbLine
 10
6434.098812926729
 20
5289.571647548277
 30
0.0
 11
6508.098812926728
 21
5289.571647548277
 31
0.0
  0
LINE
  5
16D18
330
747D
100
AcDbEntity
  8
細線
100
AcDbLine
 10
6582.098812926727
 20
5312.571647548277
 30
0.0
 11
6508.098812926728
 21
5312.571647548277
 31
0.0
  0
LINE
  5
16D19
330
747D
100
AcDbEntity
  8
細線
100
AcDbLine
 10
6582.098812926727
 20
5289.571647548277
 30
0.0
 11
6582.098812926727
 21
5312.571647548277
 31
0.0
  0
LINE
  5
16D1A
330
747D
100
AcDbEntity
  8
細線
100
AcDbLine
 10
6434.098812926729
 20
5312.571647548277
 30
0.0
 11
6434.098812926729
 21
5289.571647548277
 31
0.0
  0
LINE
  5
16D1B
330
747D
100
AcDbEntity
  8
部品1
 48
0.01
100
AcDbLine
 10
6598.098812926725
 20
5285.571647548277
 30
0.0
 11
6598.098812926727
 21
5317.071647548277
 31
0.0
  0
LINE
  5
16D1C
330
747D
100
AcDbEntity
  8
部品1
 48
0.01
100
AcDbLine
 10
6420.098812926728
 20
5283.571647548277
 30
0.0
 11
6596.098812926725
 21
5283.571647548277
 31
0.0
  0
LINE
  5
16D1D
330
747D
100
AcDbEntity
  8
部品1
 48
0.01
100
AcDbLine
 10
6418.098812926728
 20
5317.071647548277
 30
0.0
 11
6418.098812926728
 21
5285.571647548277
 31
0.0
  0
LINE
  5
16D1E
330
747D
100
AcDbEntity
  8
部品1
 48
0.01
100
AcDbLine
 10
6596.098812926728
 20
5319.071647548277
 30
0.0
 11
6420.098812926728
 21
5319.071647548277
 31
0.0
  0
LINE
  5
16D1F
330
747D
100
AcDbEntity
  8
細線
100
AcDbLine
 10
6434.098812926729
 20
5306.571647548277
 30
0.0
 11
6508.098812926728
 21
5306.571647548277
 31
0.0
  0
LINE
  5
16D20
330
747D
100
AcDbEntity
  8
細線
100
AcDbLine
 10
6434.098812926729
 20
5300.571647548277
 30
0.0
 11
6508.098812926728
 21
5300.571647548277
 31
0.0
  0
LINE
  5
16D21
330
747D
100
AcDbEntity
  8
細線
100
AcDbLine
 10
6434.098812926724
 20
5294.571647548277
 30
0.0
 11
6508.098812926728
 21
5294.571647548277
 31
0.0
  0
LINE
  5
16D22
330
747D
100
AcDbEntity
  8
細線
100
AcDbLine
 10
6434.098812926729
 20
5306.571647548277
 30
0.0
 11
6503.098812926729
 21
5306.571647548277
 31
0.0
  0
LINE
  5
16D23
330
747D
100
AcDbEntity
  8
細線
100
AcDbLine
 10
6582.098812926725
 20
5306.571647548277
 30
0.0
 11
6508.098812926728
 21
5306.571647548277
 31
0.0
  0
LINE
  5
16D24
330
747D
100
AcDbEntity
  8
細線
100
AcDbLine
 10
6582.098812926725
 20
5294.571647548277
 30
0.0
 11
6508.098812926728
 21
5294.571647548277
 31
0.0
  0
LINE
  5
16D25
330
747D
100
AcDbEntity
  8
細線
100
AcDbLine
 10
6582.098812926725
 20
5300.571647548277
 30
0.0
 11
6508.098812926728
 21
5300.571647548277
 31
0.0
  0
LINE
  5
16D26
330
747D
100
AcDbEntity
  8
細線
100
AcDbLine
 10
6508.098812926728
 20
5312.571647548277
 30
0.0
 11
6508.098812926724
 21
5289.571647548277
 31
0.0
  0
LINE
  5
16D27
330
747D
100
AcDbEntity
  8
細線
100
AcDbLine
 10
7458.098812926728
 20
5312.571647548277
 30
0.0
 11
7458.098812926724
 21
5289.571647548277
 31
0.0
  0
LINE
  5
16D28
330
747D
100
AcDbEntity
  8
細線
100
AcDbLine
 10
7532.098812926725
 20
5300.571647548277
 30
0.0
 11
7458.098812926728
 21
5300.571647548277
 31
0.0
  0
LINE
  5
16D29
330
747D
100
AcDbEntity
  8
細線
100
AcDbLine
 10
7532.098812926725
 20
5294.571647548277
 30
0.0
 11
7458.098812926728
 21
5294.571647548277
 31
0.0
  0
LINE
  5
16D2A
330
747D
100
AcDbEntity
  8
細線
100
AcDbLine
 10
7532.098812926725
 20
5306.571647548277
 30
0.0
 11
7458.098812926728
 21
5306.571647548277
 31
0.0
  0
LINE
  5
16D2B
330
747D
100
AcDbEntity
  8
細線
100
AcDbLine
 10
7384.098812926729
 20
5306.571647548277
 30
0.0
 11
7453.098812926729
 21
5306.571647548277
 31
0.0
  0
LINE
  5
16D2C
330
747D
100
AcDbEntity
  8
細線
100
AcDbLine
 10
7384.098812926724
 20
5294.571647548277
 30
0.0
 11
7458.098812926728
 21
5294.571647548277
 31
0.0
  0
LINE
  5
16D2D
330
747D
100
AcDbEntity
  8
細線
100
AcDbLine
 10
7384.098812926729
 20
5300.571647548277
 30
0.0
 11
7458.098812926728
 21
5300.571647548277
 31
0.0
  0
LINE
  5
16D2E
330
747D
100
AcDbEntity
  8
細線
100
AcDbLine
 10
7384.098812926729
 20
5306.571647548277
 30
0.0
 11
7458.098812926728
 21
5306.571647548277
 31
0.0
  0
LINE
  5
16D2F
330
747D
100
AcDbEntity
  8
部品1
 48
0.01
100
AcDbLine
 10
7546.098812926728
 20
5319.071647548277
 30
0.0
 11
7370.098812926729
 21
5319.071647548277
 31
0.0
  0
LINE
  5
16D30
330
747D
100
AcDbEntity
  8
部品1
 48
0.01
100
AcDbLine
 10
7368.098812926728
 20
5317.071647548277
 30
0.0
 11
7368.098812926728
 21
5285.571647548277
 31
0.0
  0
LINE
  5
16D31
330
747D
100
AcDbEntity
  8
部品1
 48
0.01
100
AcDbLine
 10
7370.098812926729
 20
5283.571647548277
 30
0.0
 11
7546.098812926725
 21
5283.571647548277
 31
0.0
  0
LINE
  5
16D32
330
747D
100
AcDbEntity
  8
部品1
 48
0.01
100
AcDbLine
 10
7548.098812926724
 20
5285.571647548277
 30
0.0
 11
7548.098812926729
 21
5317.071647548277
 31
0.0
  0
LINE
  5
16D33
330
747D
100
AcDbEntity
  8
細線
100
AcDbLine
 10
7384.098812926729
 20
5312.571647548277
 30
0.0
 11
7384.098812926729
 21
5289.571647548277
 31
0.0
  0
LINE
  5
16D34
330
747D
100
AcDbEntity
  8
細線
100
AcDbLine
 10
7532.098812926728
 20
5289.571647548277
 30
0.0
 11
7532.098812926728
 21
5312.571647548277
 31
0.0
  0
LINE
  5
16D35
330
747D
100
AcDbEntity
  8
細線
100
AcDbLine
 10
7532.098812926728
 20
5312.571647548277
 30
0.0
 11
7458.098812926728
 21
5312.571647548277
 31
0.0
  0
LINE
  5
16D36
330
747D
100
AcDbEntity
  8
細線
100
AcDbLine
 10
7384.098812926729
 20
5289.571647548277
 30
0.0
 11
7458.098812926728
 21
5289.571647548277
 31
0.0
  0
LINE
  5
16D37
330
747D
100
AcDbEntity
  8
細線
100
AcDbLine
 10
7458.098812926728
 20
5312.571647548277
 30
0.0
 11
7384.098812926729
 21
5312.571647548277
 31
0.0
  0
LINE
  5
16D38
330
747D
100
AcDbEntity
  8
細線
100
AcDbLine
 10
7458.098812926724
 20
5289.571647548277
 30
0.0
 11
7532.098812926728
 21
5289.571647548277
 31
0.0
  0
ARC
  5
16D39
330
747D
100
AcDbEntity
  8
部品1
 48
0.01
100
AcDbCircle
 10
7370.098812926729
 20
5317.071647548277
 30
0.0
 40
2.0
100
AcDbArc
 50
90.0
 51
180.0
  0
ARC
  5
16D3A
330
747D
100
AcDbEntity
  8
部品1
 48
0.01
100
AcDbCircle
 10
7370.098812926729
 20
5285.571647548277
 30
0.0
 40
2.0
100
AcDbArc
 50
180.0
 51
270.0
  0
ARC
  5
16D3B
330
747D
100
AcDbEntity
  8
部品1
 48
0.01
100
AcDbCircle
 10
7546.098812926728
 20
5317.071647548277
 30
0.0
 40
2.0
100
AcDbArc
 50
0.0
 51
90.0
  0
ARC
  5
16D3C
330
747D
100
AcDbEntity
  8
部品1
 48
0.01
100
AcDbCircle
 10
7546.098812926725
 20
5285.571647548277
 30
0.0
 40
2.0
100
AcDbArc
 50
270.0
 51
0.0
  0
ARC
  5
16D62
330
747D
100
AcDbEntity
  8
部品1
 48
0.01
100
AcDbCircle
 10
8496.098812926724
 20
5285.571647548277
 30
0.0
 40
2.0
100
AcDbArc
 50
270.0
 51
0.0
  0
ARC
  5
16D63
330
747D
100
AcDbEntity
  8
部品1
 48
0.01
100
AcDbCircle
 10
8496.098812926728
 20
5317.071647548277
 30
0.0
 40
2.0
100
AcDbArc
 50
0.0
 51
90.0
  0
ARC
  5
16D64
330
747D
100
AcDbEntity
  8
部品1
 48
0.01
100
AcDbCircle
 10
8320.098812926728
 20
5285.571647548277
 30
0.0
 40
2.0
100
AcDbArc
 50
180.0
 51
270.0
  0
ARC
  5
16D65
330
747D
100
AcDbEntity
  8
部品1
 48
0.01
100
AcDbCircle
 10
8320.098812926728
 20
5317.071647548277
 30
0.0
 40
2.0
100
AcDbArc
 50
90.0
 51
180.0
  0
LINE
  5
16D66
330
747D
100
AcDbEntity
  8
細線
100
AcDbLine
 10
8408.098812926724
 20
5289.571647548277
 30
0.0
 11
8482.098812926727
 21
5289.571647548277
 31
0.0
  0
LINE
  5
16D67
330
747D
100
AcDbEntity
  8
細線
100
AcDbLine
 10
8408.098812926729
 20
5312.571647548277
 30
0.0
 11
8334.098812926729
 21
5312.571647548277
 31
0.0
  0
LINE
  5
16D68
330
747D
100
AcDbEntity
  8
細線
100
AcDbLine
 10
8334.098812926729
 20
5289.571647548277
 30
0.0
 11
8408.098812926729
 21
5289.571647548277
 31
0.0
  0
LINE
  5
16D69
330
747D
100
AcDbEntity
  8
細線
100
AcDbLine
 10
8482.098812926727
 20
5312.571647548277
 30
0.0
 11
8408.098812926729
 21
5312.571647548277
 31
0.0
  0
LINE
  5
16D6A
330
747D
100
AcDbEntity
  8
細線
100
AcDbLine
 10
8482.098812926727
 20
5289.571647548277
 30
0.0
 11
8482.098812926727
 21
5312.571647548277
 31
0.0
  0
LINE
  5
16D6B
330
747D
100
AcDbEntity
  8
細線
100
AcDbLine
 10
8334.098812926729
 20
5312.571647548277
 30
0.0
 11
8334.098812926729
 21
5289.571647548277
 31
0.0
  0
LINE
  5
16D6C
330
747D
100
AcDbEntity
  8
部品1
 48
0.01
100
AcDbLine
 10
8498.098812926725
 20
5285.571647548277
 30
0.0
 11
8498.098812926729
 21
5317.071647548277
 31
0.0
  0
LINE
  5
16D6D
330
747D
100
AcDbEntity
  8
部品1
 48
0.01
100
AcDbLine
 10
8320.098812926728
 20
5283.571647548277
 30
0.0
 11
8496.098812926724
 21
5283.571647548277
 31
0.0
  0
LINE
  5
16D6E
330
747D
100
AcDbEntity
  8
部品1
 48
0.01
100
AcDbLine
 10
8318.098812926727
 20
5317.071647548277
 30
0.0
 11
8318.098812926727
 21
5285.571647548277
 31
0.0
  0
LINE
  5
16D6F
330
747D
100
AcDbEntity
  8
部品1
 48
0.01
100
AcDbLine
 10
8496.098812926728
 20
5319.071647548277
 30
0.0
 11
8320.098812926728
 21
5319.071647548277
 31
0.0
  0
LINE
  5
16D70
330
747D
100
AcDbEntity
  8
細線
100
AcDbLine
 10
8334.098812926729
 20
5306.571647548277
 30
0.0
 11
8408.098812926729
 21
5306.571647548277
 31
0.0
  0
LINE
  5
16D71
330
747D
100
AcDbEntity
  8
細線
100
AcDbLine
 10
8334.098812926729
 20
5300.571647548277
 30
0.0
 11
8408.098812926729
 21
5300.571647548277
 31
0.0
  0
LINE
  5
16D72
330
747D
100
AcDbEntity
  8
細線
100
AcDbLine
 10
8334.098812926724
 20
5294.571647548277
 30
0.0
 11
8408.098812926729
 21
5294.571647548277
 31
0.0
  0
LINE
  5
16D73
330
747D
100
AcDbEntity
  8
細線
100
AcDbLine
 10
8334.098812926729
 20
5306.571647548277
 30
0.0
 11
8403.098812926728
 21
5306.571647548277
 31
0.0
  0
LINE
  5
16D74
330
747D
100
AcDbEntity
  8
細線
100
AcDbLine
 10
8482.098812926725
 20
5306.571647548277
 30
0.0
 11
8408.098812926729
 21
5306.571647548277
 31
0.0
  0
LINE
  5
16D75
330
747D
100
AcDbEntity
  8
細線
100
AcDbLine
 10
8482.098812926725
 20
5294.571647548277
 30
0.0
 11
8408.098812926729
 21
5294.571647548277
 31
0.0
  0
LINE
  5
16D76
330
747D
100
AcDbEntity
  8
細線
100
AcDbLine
 10
8482.098812926725
 20
5300.571647548277
 30
0.0
 11
8408.098812926729
 21
5300.571647548277
 31
0.0
  0
LINE
  5
16D77
330
747D
100
AcDbEntity
  8
細線
100
AcDbLine
 10
8408.098812926729
 20
5312.571647548277
 30
0.0
 11
8408.098812926724
 21
5289.571647548277
 31
0.0
  0
TEXT
  5
16F78
330
747D
100
AcDbEntity
  8
文字
 62
     7
 48
50.0
100
AcDbText
 10
13583.11819016567
 20
8720.013745883727
 30
0.0
 40
100.0
  1
※豪雪補強
  7
STYLE1
100
AcDbText
  0
TEXT
  5
16F79
330
747D
100
AcDbEntity
  8
文字
 62
     7
 48
50.0
100
AcDbText
 10
13248.77747366447
 20
8720.013745883729
 30
0.0
 40
100.0
  1
15
  7
STYLE1
100
AcDbText
  0
TEXT
  5
16F7A
330
747D
100
AcDbEntity
  8
文字
 62
     7
 48
50.0
100
AcDbText
 10
15022.63965474513
 20
8720.013745883722
 30
0.0
 40
100.0
  1
F12            1.0
  7
STYLE1
100
AcDbText
  0
TEXT
  5
16F7B
330
747D
100
AcDbEntity
  8
文字
 62
     7
 48
50.0
100
AcDbText
 10
13229.83081656553
 20
8550.013745883727
 30
0.0
 40
100.0
  1
※豪雪補強は豪雪地型のみ取付
 41
0.9
  7
STYLE1
100
AcDbText
  0
LINE
  5
16F7C
330
747D
100
AcDbEntity
  8
仕様書枠
 48
50.0
100
AcDbLine
 10
16307.19999999998
 20
8689.6
 30
0.0
 11
13127.19999999999
 21
8689.6
 31
0.0
  0
LINE
  5
16F7D
330
747D
100
AcDbEntity
  8
仕様書枠
 48
50.0
100
AcDbLine
 10
16307.19999999998
 20
8519.600000000002
 30
0.0
 11
13127.19999999999
 21
8519.600000000002
 31
0.0
  0
TEXT
  5
16F8D
330
747D
100
AcDbEntity
  8
文字
 62
     7
 48
50.0
100
AcDbText
 10
14251.2
 20
838.2527270729188
 30
0.0
 40
100.0
  1
～一般型・多雪地型・豪雪地型～
  7
STYLE2
100
AcDbText
  0
ENDSEC
  0
SECTION
  2
OBJECTS
  0
DICTIONARY
  5
7471
330
0
100
AcDbDictionary
281
     1
  3
ACAD_COLOR
350
15EF2
  3
ACAD_GROUP
350
7472
  3
ACAD_LAYOUT
350
15EF3
  3
ACAD_MATERIAL
350
15EF1
  3
ACAD_MLINESTYLE
350
7473
  3
ACAD_PLOTSETTINGS
350
15EF4
  3
ACAD_PLOTSTYLENAME
350
15EEF
  3
ACDBHEADERROUNDTRIPXREC
350
16FA5
  3
AcDbVariableDictionary
350
16FA1
  3
CONTENTDICTIONARY
350
E71C
  3
DRAWINGVARIABLESDICT
350
F3B9
  0
DICTIONARY
  5
160CC
330
7467
100
AcDbDictionary
280
     1
281
     1
  3
ACAD_LAYERSTATES
360
160CD
  0
DICTIONARY
  5
15EF2
102
{ACAD_REACTORS
330
7471
102
}
330
7471
100
AcDbDictionary
281
     1
  0
DICTIONARY
  5
7472
102
{ACAD_REACTORS
330
7471
102
}
330
7471
100
AcDbDictionary
281
     1
  0
DICTIONARY
  5
15EF3
102
{ACAD_REACTORS
330
7471
102
}
330
7471
100
AcDbDictionary
281
     1
  3
Model
350
15EF5
  3
レイアウト1
350
15EF6
  0
DICTIONARY
  5
15EF1
102
{ACAD_REACTORS
330
7471
102
}
330
7471
100
AcDbDictionary
281
     1
  0
DICTIONARY
  5
7473
102
{ACAD_REACTORS
330
7471
102
}
330
7471
100
AcDbDictionary
281
     1
  3
STANDARD
350
7480
  0
DICTIONARY
  5
15EF4
102
{ACAD_REACTORS
330
7471
102
}
330
7471
100
AcDbDictionary
281
     1
  0
ACDBDICTIONARYWDFLT
  5
15EEF
102
{ACAD_REACTORS
330
7471
102
}
330
7471
100
AcDbDictionary
281
     1
  3
Normal
350
15EF0
100
AcDbDictionaryWithDefault
340
15EF0
  0
DICTIONARY
  5
16FA5
102
{ACAD_REACTORS
330
7471
102
}
330
7471
100
AcDbDictionary
281
     1
  3
COLORDICT
350
16FA7
  3
MATERIALDICT
350
16FA6
  0
DICTIONARY
  5
16FA1
102
{ACAD_REACTORS
330
7471
102
}
330
7471
100
AcDbDictionary
281
     1
  3
DIMASSOC
350
16FA2
  3
PROJECTNAME
350
16FA3
  0
DICTIONARY
  5
E71C
102
{ACAD_REACTORS
330
7471
102
}
330
7471
100
AcDbDictionary
281
     1
  0
DICTIONARY
  5
F3B9
102
{ACAD_REACTORS
330
7471
102
}
330
7471
100
AcDbDictionary
281
     1
1001
DRAWINGVARIABLESXDATA
1000
POLARMODE
1000
1
  0
DICTIONARY
  5
160CD
102
{ACAD_REACTORS
330
160CC
102
}
330
160CC
100
AcDbDictionary
281
     1
  0
LAYOUT
  5
15EF5
102
{ACAD_XDICTIONARY
360
16FA8
102
}
102
{ACAD_REACTORS
330
15EF3
102
}
330
15EF3
100
AcDbPlotSettings
  1

  2
Microsoft Office Document Image Writer
  4

  6

 40
0.0
 41
0.0
 42
0.0
 43
0.0
 44
0.0
 45
0.0
 46
0.0
 47
0.0
 48
0.0
 49
0.0
140
0.0
141
0.0
142
1.0
143
1.0
 70
  1712
 72
     0
 73
     0
 74
     0
  7

 75
     0
147
1.0
148
0.0
149
0.0
100
AcDbLayout
  1
Model
 70
     1
 71
     0
 10
0.0
 20
0.0
 11
12.0
 21
9.0
 12
0.0
 22
0.0
 32
0.0
 14
0.0
 24
0.0
 34
0.0
 15
0.0
 25
0.0
 35
0.0
146
0.0
 13
0.0
 23
0.0
 33
0.0
 16
1.0
 26
0.0
 36
0.0
 17
0.0
 27
1.0
 37
0.0
 76
     0
330
747D
  0
LAYOUT
  5
15EF6
102
{ACAD_XDICTIONARY
360
16FAA
102
}
102
{ACAD_REACTORS
330
15EF3
102
}
330
15EF3
100
AcDbPlotSettings
  1

  2
Microsoft Office Document Image Writer
  4

  6

 40
0.0
 41
0.0
 42
0.0
 43
0.0
 44
0.0
 45
0.0
 46
0.0
 47
0.0
 48
0.0
 49
0.0
140
0.0
141
0.0
142
1.0
143
1.0
 70
   688
 72
     0
 73
     0
 74
     5
  7

 75
    16
147
1.0
148
0.0
149
0.0
100
AcDbLayout
  1
レイアウト1
 70
     0
 71
     1
 10
0.0
 20
0.0
 11
420.0
 21
297.0
 12
0.0
 22
0.0
 32
0.0
 14
1.000000000000000E+20
 24
1.000000000000000E+20
 34
1.000000000000000E+20
 15
-1.000000000000000E+20
 25
-1.000000000000000E+20
 35
-1.000000000000000E+20
146
0.0
 13
0.0
 23
0.0
 33
0.0
 16
1.0
 26
0.0
 36
0.0
 17
0.0
 27
1.0
 37
0.0
 76
     0
330
747A
  0
MLINESTYLE
  5
7480
102
{ACAD_REACTORS
330
7473
102
}
330
7473
100
AcDbMlineStyle
  2
STANDARD
 70
     0
  3

 62
     0
 51
90.0
 52
90.0
 71
     2
 49
0.5
 62
   256
  6
BYLAYER
 49
-0.5
 62
   256
  6
BYLAYER
  0
ACDBPLACEHOLDER
  5
15EF0
102
{ACAD_REACTORS
330
15EEF
102
}
330
15EEF
  0
XRECORD
  5
16FA7
102
{ACAD_REACTORS
330
16FA5
102
}
330
16FA5
100
AcDbXrecord
280
     1
340
15EF2
  0
XRECORD
  5
16FA6
102
{ACAD_REACTORS
330
16FA5
102
}
330
16FA5
100
AcDbXrecord
280
     1
340
15EF1
  0
DICTIONARYVAR
  5
16FA2
102
{ACAD_REACTORS
330
16FA1
102
}
330
16FA1
100
DictionaryVariables
280
     0
  1
1
  0
DICTIONARYVAR
  5
16FA3
102
{ACAD_REACTORS
330
16FA1
102
}
330
16FA1
100
DictionaryVariables
280
     0
  1

  0
DICTIONARY
  5
16FA8
330
15EF5
100
AcDbDictionary
280
     1
281
     1
  3
ACAD_XREC_ROUNDTRIP
360
16FA9
  0
DICTIONARY
  5
16FAA
330
15EF6
100
AcDbDictionary
280
     1
281
     1
  3
ACAD_XREC_ROUNDTRIP
360
16FAB
  0
XRECORD
  5
16FA9
102
{ACAD_REACTORS
330
16FA8
102
}
330
16FA8
100
AcDbXrecord
280
     1
102
SHADEPLOT
 70
     0
102
SHADEPLOTRESLEVEL
 70
     2
102
SHADEPLOTCUSTOMDPI
 70
   300
  0
XRECORD
  5
16FAB
102
{ACAD_REACTORS
330
16FAA
102
}
330
16FAA
100
AcDbXrecord
280
     1
102
SHADEPLOT
 70
     0
102
SHADEPLOTRESLEVEL
 70
     2
102
SHADEPLOTCUSTOMDPI
 70
   300
  0
ENDSEC
  0
EOF
