  0
SECTION
  2
HEADER
  9
$ACADVER
  1
AC1015
  9
$ACADMAINTVER
 70
    20
  9
$DWGCODEPAGE
  3
ANSI_932
  9
$INSBASE
 10
0.0
 20
0.0
 30
0.0
  9
$EXTMIN
 10
139.9999999999995
 20
-0.0000000000000909
 30
0.0
  9
$EXTMAX
 10
16307.2
 20
11409.6
 30
0.0
  9
$LIMMIN
 10
0.0
 20
0.0
  9
$LIMMAX
 10
16800.0
 20
11880.0
  9
$ORTHOMODE
 70
     0
  9
$REGENMODE
 70
     1
  9
$FILLMODE
 70
     1
  9
$QTEXTMODE
 70
     0
  9
$MIRRTEXT
 70
     1
  9
$LTSCALE
 40
20.0
  9
$ATTMODE
 70
     1
  9
$TEXTSIZE
 40
100.0
  9
$TRACEWID
 40
1.0
  9
$TEXTSTYLE
  7
STYLE3
  9
$CLAYER
  8
寸法
  9
$CELTYPE
  6
BYLAYER
  9
$CECOLOR
 62
   256
  9
$CELTSCALE
 40
50.0
  9
$DISPSILH
 70
     0
  9
$DIMSCALE
 40
40.0
  9
$DIMASZ
 40
2.5
  9
$DIMEXO
 40
0.5
  9
$DIMDLI
 40
7.0
  9
$DIMRND
 40
0.0
  9
$DIMDLE
 40
0.0
  9
$DIMEXE
 40
1.5
  9
$DIMTP
 40
0.0
  9
$DIMTM
 40
0.0
  9
$DIMTXT
 40
3.0
  9
$DIMCEN
 40
0.0
  9
$DIMTSZ
 40
0.0
  9
$DIMTOL
 70
     0
  9
$DIMLIM
 70
     0
  9
$DIMTIH
 70
     0
  9
$DIMTOH
 70
     0
  9
$DIMSE1
 70
     0
  9
$DIMSE2
 70
     0
  9
$DIMTAD
 70
     3
  9
$DIMZIN
 70
     8
  9
$DIMBLK
  1

  9
$DIMASO
 70
     1
  9
$DIMSHO
 70
     1
  9
$DIMPOST
  1

  9
$DIMAPOST
  1

  9
$DIMALT
 70
     0
  9
$DIMALTD
 70
     2
  9
$DIMALTF
 40
0.0394
  9
$DIMLFAC
 40
1.0
  9
$DIMTOFL
 70
     1
  9
$DIMTVP
 40
0.0
  9
$DIMTIX
 70
     1
  9
$DIMSOXD
 70
     0
  9
$DIMSAH
 70
     1
  9
$DIMBLK1
  1
DOTSMALL
  9
$DIMBLK2
  1
DOTSMALL
  9
$DIMSTYLE
  2
INABA_S40G
  9
$DIMCLRD
 70
     0
  9
$DIMCLRE
 70
     0
  9
$DIMCLRT
 70
     7
  9
$DIMTFAC
 40
1.0
  9
$DIMGAP
 40
1.0
  9
$DIMJUST
 70
     0
  9
$DIMSD1
 70
     0
  9
$DIMSD2
 70
     0
  9
$DIMTOLJ
 70
     1
  9
$DIMTZIN
 70
     0
  9
$DIMALTZ
 70
     0
  9
$DIMALTTZ
 70
     0
  9
$DIMUPT
 70
     0
  9
$DIMDEC
 70
     1
  9
$DIMTDEC
 70
     4
  9
$DIMALTU
 70
     2
  9
$DIMALTTD
 70
     2
  9
$DIMTXSTY
  7
STYLE1
  9
$DIMAUNIT
 70
     0
  9
$DIMADEC
 70
     0
  9
$DIMALTRND
 40
0.0
  9
$DIMAZIN
 70
     0
  9
$DIMDSEP
 70
    46
  9
$DIMATFIT
 70
     3
  9
$DIMFRAC
 70
     0
  9
$DIMLDRBLK
  1

  9
$DIMLUNIT
 70
     2
  9
$DIMLWD
 70
    -2
  9
$DIMLWE
 70
    -2
  9
$DIMTMOVE
 70
     0
  9
$LUNITS
 70
     2
  9
$LUPREC
 70
     1
  9
$SKETCHINC
 40
1.0
  9
$FILLETRAD
 40
5.0
  9
$AUNITS
 70
     0
  9
$AUPREC
 70
     0
  9
$MENU
  1
acad
  9
$ELEVATION
 40
0.0
  9
$PELEVATION
 40
0.0
  9
$THICKNESS
 40
0.0
  9
$LIMCHECK
 70
     0
  9
$CHAMFERA
 40
0.0
  9
$CHAMFERB
 40
0.0
  9
$CHAMFERC
 40
0.0
  9
$CHAMFERD
 40
0.0
  9
$SKPOLY
 70
     0
  9
$TDCREATE
 40
2452116.684896065
  9
$TDUCREATE
 40
2452116.309896065
  9
$TDUPDATE
 40
2455575.692235602
  9
$TDUUPDATE
 40
2455575.317235602
  9
$TDINDWG
 40
0.5046445486
  9
$TDUSRTIMER
 40
0.5046445486
  9
$USRTIMER
 70
     1
  9
$ANGBASE
 50
0.0
  9
$ANGDIR
 70
     0
  9
$PDMODE
 70
     3
  9
$PDSIZE
 40
2.0
  9
$PLINEWID
 40
0.0
  9
$SPLFRAME
 70
     0
  9
$SPLINETYPE
 70
     6
  9
$SPLINESEGS
 70
     8
  9
$HANDSEED
  5
16D85
  9
$SURFTAB1
 70
     6
  9
$SURFTAB2
 70
     6
  9
$SURFTYPE
 70
     6
  9
$SURFU
 70
     6
  9
$SURFV
 70
     6
  9
$UCSBASE
  2

  9
$UCSNAME
  2

  9
$UCSORG
 10
0.0
 20
0.0
 30
0.0
  9
$UCSXDIR
 10
1.0
 20
0.0
 30
0.0
  9
$UCSYDIR
 10
0.0
 20
1.0
 30
0.0
  9
$UCSORTHOREF
  2

  9
$UCSORTHOVIEW
 70
     0
  9
$UCSORGTOP
 10
0.0
 20
0.0
 30
0.0
  9
$UCSORGBOTTOM
 10
0.0
 20
0.0
 30
0.0
  9
$UCSORGLEFT
 10
0.0
 20
0.0
 30
0.0
  9
$UCSORGRIGHT
 10
0.0
 20
0.0
 30
0.0
  9
$UCSORGFRONT
 10
0.0
 20
0.0
 30
0.0
  9
$UCSORGBACK
 10
0.0
 20
0.0
 30
0.0
  9
$PUCSBASE
  2

  9
$PUCSNAME
  2

  9
$PUCSORG
 10
0.0
 20
0.0
 30
0.0
  9
$PUCSXDIR
 10
1.0
 20
0.0
 30
0.0
  9
$PUCSYDIR
 10
0.0
 20
1.0
 30
0.0
  9
$PUCSORTHOREF
  2

  9
$PUCSORTHOVIEW
 70
     0
  9
$PUCSORGTOP
 10
0.0
 20
0.0
 30
0.0
  9
$PUCSORGBOTTOM
 10
0.0
 20
0.0
 30
0.0
  9
$PUCSORGLEFT
 10
0.0
 20
0.0
 30
0.0
  9
$PUCSORGRIGHT
 10
0.0
 20
0.0
 30
0.0
  9
$PUCSORGFRONT
 10
0.0
 20
0.0
 30
0.0
  9
$PUCSORGBACK
 10
0.0
 20
0.0
 30
0.0
  9
$USERI1
 70
     0
  9
$USERI2
 70
     0
  9
$USERI3
 70
     0
  9
$USERI4
 70
     0
  9
$USERI5
 70
     0
  9
$USERR1
 40
0.0
  9
$USERR2
 40
0.0
  9
$USERR3
 40
0.0
  9
$USERR4
 40
0.0
  9
$USERR5
 40
0.0
  9
$WORLDVIEW
 70
     1
  9
$SHADEDGE
 70
     3
  9
$SHADEDIF
 70
    70
  9
$TILEMODE
 70
     1
  9
$MAXACTVP
 70
    16
  9
$PINSBASE
 10
0.0
 20
0.0
 30
0.0
  9
$PLIMCHECK
 70
     0
  9
$PEXTMIN
 10
1.000000000000000E+20
 20
1.000000000000000E+20
 30
1.000000000000000E+20
  9
$PEXTMAX
 10
-1.000000000000000E+20
 20
-1.000000000000000E+20
 30
-1.000000000000000E+20
  9
$PLIMMIN
 10
0.0
 20
0.0
  9
$PLIMMAX
 10
420.0
 20
297.0
  9
$UNITMODE
 70
     0
  9
$VISRETAIN
 70
     0
  9
$PLINEGEN
 70
     0
  9
$PSLTSCALE
 70
     0
  9
$TREEDEPTH
 70
  3020
  9
$CMLSTYLE
  2
STANDARD
  9
$CMLJUST
 70
     0
  9
$CMLSCALE
 40
1.0
  9
$PROXYGRAPHICS
 70
     1
  9
$MEASUREMENT
 70
     1
  9
$CELWEIGHT
370
    -1
  9
$ENDCAPS
280
     0
  9
$JOINSTYLE
280
     0
  9
$LWDISPLAY
290
     0
  9
$INSUNITS
 70
     0
  9
$HYPERLINKBASE
  1

  9
$STYLESHEET
  1

  9
$XEDIT
290
     1
  9
$CEPSNTYPE
380
     0
  9
$PSTYLEMODE
290
     1
  9
$FINGERPRINTGUID
  2
{238F91FD-A473-49AC-8FFA-1047101E5782}
  9
$VERSIONGUID
  2
{B38A9DC0-96DA-4C68-BF07-3297B90C45C0}
  9
$EXTNAMES
290
     1
  9
$PSVPSCALE
 40
0.0
  9
$OLESTARTUP
290
     0
  0
ENDSEC
  0
SECTION
  2
CLASSES
  0
CLASS
  1
ACDBDICTIONARYWDFLT
  2
AcDbDictionaryWithDefault
  3
ObjectDBX Classes
 90
        0
280
     0
281
     0
  0
CLASS
  1
DICTIONARYVAR
  2
AcDbDictionaryVar
  3
ObjectDBX Classes
 90
        0
280
     0
281
     0
  0
CLASS
  1
ACDBPLACEHOLDER
  2
AcDbPlaceHolder
  3
ObjectDBX Classes
 90
        0
280
     0
281
     0
  0
CLASS
  1
LAYOUT
  2
AcDbLayout
  3
ObjectDBX Classes
 90
        0
280
     0
281
     0
  0
ENDSEC
  0
SECTION
  2
TABLES
  0
TABLE
  2
VPORT
  5
746D
330
0
100
AcDbSymbolTable
 70
     2
  0
VPORT
  5
16D7D
330
746D
100
AcDbSymbolTableRecord
100
AcDbViewportTableRecord
  2
*Active
 70
     0
 10
0.0
 20
0.0
 11
1.0
 21
1.0
 12
9076.91645855874
 22
6347.66611132684
 13
0.0
 23
0.0
 14
10.0
 24
10.0
 15
10.0
 25
10.0
 16
0.0
 26
0.0
 36
1.0
 17
0.0
 27
0.0
 37
0.0
 40
12783.46462244035
 41
1.525925925925925
 42
50.0
 43
0.0
 44
0.0
 50
0.0
 51
0.0
 71
     0
 72
     0
 73
     1
 74
     0
 75
     0
 76
     0
 77
     0
 78
     0
281
     0
 65
     1
110
0.0
120
0.0
130
0.0
111
1.0
121
0.0
131
0.0
112
0.0
122
1.0
132
0.0
 79
     0
146
0.0
  0
ENDTAB
  0
TABLE
  2
LTYPE
  5
746A
330
0
100
AcDbSymbolTable
 70
     4
  0
LTYPE
  5
7477
330
746A
100
AcDbSymbolTableRecord
100
AcDbLinetypeTableRecord
  2
BYBLOCK
 70
     0
  3

 72
    65
 73
     0
 40
0.0
  0
LTYPE
  5
7478
330
746A
100
AcDbSymbolTableRecord
100
AcDbLinetypeTableRecord
  2
BYLAYER
 70
     0
  3

 72
    65
 73
     0
 40
0.0
  0
LTYPE
  5
7479
330
746A
100
AcDbSymbolTableRecord
100
AcDbLinetypeTableRecord
  2
CONTINUOUS
 70
     0
  3
Solid line
 72
    65
 73
     0
 40
0.0
  0
LTYPE
  5
7816
330
746A
100
AcDbSymbolTableRecord
100
AcDbLinetypeTableRecord
  2
CENTER
 70
     0
  3
____ _ ____ _ ____ _ ____ _ ____ _ ____ _ ____ 
 72
    65
 73
     4
 40
2.0
 49
1.25
 74
     0
 49
-0.25
 74
     0
 49
0.25
 74
     0
 49
-0.25
 74
     0
  0
LTYPE
  5
781A
330
746A
100
AcDbSymbolTableRecord
100
AcDbLinetypeTableRecord
  2
HIDDEN
 70
     0
  3
__ __ __ __ __ __ __ __ __ __ __ __ __ __ __ __
 72
    65
 73
     2
 40
0.375
 49
0.25
 74
     0
 49
-0.125
 74
     0
  0
LTYPE
  5
781B
330
746A
100
AcDbSymbolTableRecord
100
AcDbLinetypeTableRecord
  2
PHANTOM
 70
     0
  3
______  __  __  ______  __  __  ______  __  __ 
 72
    65
 73
     6
 40
2.5
 49
1.25
 74
     0
 49
-0.25
 74
     0
 49
0.25
 74
     0
 49
-0.25
 74
     0
 49
0.25
 74
     0
 49
-0.25
 74
     0
  0
ENDTAB
  0
TABLE
  2
LAYER
  5
7467
102
{ACAD_XDICTIONARY
360
160D3
102
}
330
0
100
AcDbSymbolTable
 70
    12
  0
LAYER
  5
7474
330
7467
100
AcDbSymbolTableRecord
100
AcDbLayerTableRecord
  2
0
 70
     0
 62
     7
  6
CONTINUOUS
370
    -3
390
15F27
  0
LAYER
  5
DEB2
330
7467
100
AcDbSymbolTableRecord
100
AcDbLayerTableRecord
  2
センター
 70
     0
 62
     3
  6
CENTER
370
    -3
390
15F27
  0
LAYER
  5
DEB3
330
7467
100
AcDbSymbolTableRecord
100
AcDbLayerTableRecord
  2
寸法
 70
     0
 62
     4
  6
CONTINUOUS
370
    -3
390
15F27
  0
LAYER
  5
DEB4
330
7467
100
AcDbSymbolTableRecord
100
AcDbLayerTableRecord
  2
部品1
 70
     0
 62
     7
  6
CONTINUOUS
370
    -3
390
15F27
  0
LAYER
  5
DEB5
330
7467
100
AcDbSymbolTableRecord
100
AcDbLayerTableRecord
  2
補助
 70
     0
 62
    -1
  6
CONTINUOUS
370
    -3
390
15F27
  0
LAYER
  5
DEB6
330
7467
100
AcDbSymbolTableRecord
100
AcDbLayerTableRecord
  2
文字
 70
     0
 62
     7
  6
CONTINUOUS
370
    -3
390
15F27
  0
LAYER
  5
F255
330
7467
100
AcDbSymbolTableRecord
100
AcDbLayerTableRecord
  2
DEFPOINTS
 70
     0
 62
     7
  6
CONTINUOUS
290
     0
370
    -3
390
15F27
  0
LAYER
  5
10B54
330
7467
100
AcDbSymbolTableRecord
100
AcDbLayerTableRecord
  2
仕様書枠
 70
     0
 62
   230
  6
CONTINUOUS
370
    -3
390
15F27
  0
LAYER
  5
11729
330
7467
100
AcDbSymbolTableRecord
100
AcDbLayerTableRecord
  2
Ｇ．Ｌ
 70
     0
 62
    30
  6
CONTINUOUS
370
    -3
390
15F27
  0
LAYER
  5
1173F
330
7467
100
AcDbSymbolTableRecord
100
AcDbLayerTableRecord
  2
細線
 70
     0
 62
     5
  6
CONTINUOUS
370
    -3
390
15F27
  0
LAYER
  5
118A1
330
7467
100
AcDbSymbolTableRecord
100
AcDbLayerTableRecord
  2
想像線
 70
     0
 62
     6
  6
PHANTOM
370
    -3
390
15F27
  0
LAYER
  5
123C1
330
7467
100
AcDbSymbolTableRecord
100
AcDbLayerTableRecord
  2
破線
 70
     0
 62
     2
  6
HIDDEN
370
    -3
390
15F27
  0
ENDTAB
  0
TABLE
  2
STYLE
  5
7468
330
0
100
AcDbSymbolTable
 70
     4
  0
STYLE
  5
7475
330
7468
100
AcDbSymbolTableRecord
100
AcDbTextStyleTableRecord
  2
STANDARD
 70
     0
 40
0.0
 41
1.0
 50
0.0
 71
     0
 42
4.0
  3
txt
  4
C:\AutoCAD LT\bigfont.shx
  0
STYLE
  5
F706
330
7468
100
AcDbSymbolTableRecord
100
AcDbTextStyleTableRecord
  2
STYLE1
 70
     0
 40
0.0
 41
1.0
 50
0.0
 71
     0
 42
4.0
  3
isocp.shx
  4
bigfont.shx
  0
STYLE
  5
103BF
330
7468
100
AcDbSymbolTableRecord
100
AcDbTextStyleTableRecord
  2
STYLE2
 70
     0
 40
0.0
 41
1.0
 50
0.0
 71
     0
 42
100.0
  3
MS PGothic.ttf
  4

1001
ACAD
1000
MS PGothic
1071
    32818
  0
STYLE
  5
10BAA
330
7468
100
AcDbSymbolTableRecord
100
AcDbTextStyleTableRecord
  2
STYLE3
 70
     0
 40
0.0
 41
1.0
 50
0.0
 71
     0
 42
100.0
  3

  4

1001
ACAD
1000
DFPGothic-EB
1071
    32818
  0
ENDTAB
  0
TABLE
  2
VIEW
  5
746B
330
0
100
AcDbSymbolTable
 70
     0
  0
ENDTAB
  0
TABLE
  2
UCS
  5
746C
330
0
100
AcDbSymbolTable
 70
     0
  0
ENDTAB
  0
TABLE
  2
APPID
  5
746E
330
0
100
AcDbSymbolTable
 70
     6
  0
APPID
  5
7476
330
746E
100
AcDbSymbolTableRecord
100
AcDbRegAppTableRecord
  2
ACAD
 70
     0
  0
APPID
  5
DEA9
330
746E
100
AcDbSymbolTableRecord
100
AcDbRegAppTableRecord
  2
CONTENTBLOCKICON
 70
     0
  0
APPID
  5
DEAA
330
746E
100
AcDbSymbolTableRecord
100
AcDbRegAppTableRecord
  2
CONTENTBLOCKDESCRIPTION
 70
     0
  0
APPID
  5
E71D
330
746E
100
AcDbSymbolTableRecord
100
AcDbRegAppTableRecord
  2
CONTENTTABDATA
 70
     0
  0
APPID
  5
E71E
330
746E
100
AcDbSymbolTableRecord
100
AcDbRegAppTableRecord
  2
CONTENTCURRENTTAB
 70
     0
  0
APPID
  5
F3BA
330
746E
100
AcDbSymbolTableRecord
100
AcDbRegAppTableRecord
  2
DRAWINGVARIABLESXDATA
 70
     0
  0
ENDTAB
  0
TABLE
  2
DIMSTYLE
  5
746F
330
0
100
AcDbSymbolTable
 70
     2
100
AcDbDimStyleTable
 71
     1
340
F71F
  0
DIMSTYLE
105
7484
330
746F
100
AcDbSymbolTableRecord
100
AcDbDimStyleTableRecord
  2
JIS
 70
     0
 41
2.5
 42
1.0
 43
7.0
 44
1.0
 73
     0
 74
     0
 77
     1
 78
     8
140
2.5
141
0.0
143
0.0394
147
0.0
172
     1
174
     1
175
     1
340
7475
  0
DIMSTYLE
105
F71F
102
{ACAD_REACTORS
330
1518D
330
1519A
330
1519B
330
1519F
330
151EC
330
151ED
330
151EE
330
151EF
330
151FE
330
1522E
330
15230
330
15241
330
15258
330
156D1
330
15BC8
330
15BA1
330
15BA0
330
15B9F
330
15EE4
330
15EFD
330
163E7
330
163E8
330
163E9
330
1643A
330
16460
330
16461
330
16462
330
16463
330
1646B
330
1646C
330
1646D
330
1646E
330
16A68
330
16A81
330
16A80
330
16A7F
330
16AD3
102
}
330
746F
100
AcDbSymbolTableRecord
100
AcDbDimStyleTableRecord
  2
INABA_S40G
 70
     0
 40
40.0
 41
2.5
 42
0.5
 43
7.0
 44
1.5
 73
     0
 74
     0
 77
     3
 78
     8
140
3.0
141
0.0
143
0.0394
147
1.0
172
     1
173
     1
174
     1
178
     7
271
     1
340
F706
341
F770
343
F770
344
F770
  0
ENDTAB
  0
TABLE
  2
BLOCK_RECORD
  5
7466
330
0
100
AcDbSymbolTable
 70
    38
  0
BLOCK_RECORD
  5
747D
330
7466
100
AcDbSymbolTableRecord
100
AcDbBlockTableRecord
  2
*MODEL_SPACE
340
15F2C
  0
BLOCK_RECORD
  5
747A
330
7466
100
AcDbSymbolTableRecord
100
AcDbBlockTableRecord
  2
*PAPER_SPACE
340
15F2D
  0
BLOCK_RECORD
  5
F770
330
7466
100
AcDbSymbolTableRecord
100
AcDbBlockTableRecord
  2
_DOTSMALL
340
0
102
{BLKREFS
331
16BD0
331
16BD1
331
16BDB
331
16BDC
331
16BE4
331
16BE5
331
16BED
331
16BEE
331
16BF7
331
16BF8
331
16C00
331
16C01
331
16C09
331
16C0A
331
16C14
331
16C15
331
16C1D
331
16C1E
331
16C26
331
16C27
331
16C2F
331
16C30
331
16C3A
331
16C3B
331
16C43
331
16C44
331
16C4D
331
16C4E
331
16C57
331
16C58
331
16C60
331
16C61
331
16C69
331
16C6A
331
16C71
331
16C72
331
16C7A
331
16C7B
331
16C83
331
16C84
331
16C8C
331
16C8D
331
16C96
331
16C97
331
16C9E
331
16C9F
331
16CA7
331
16CA8
331
16CB0
331
16CB1
331
16CBB
331
16CBC
331
16CC4
331
16CC5
331
16CCD
331
16CCE
331
16CD6
331
16CD7
331
16CE1
331
16CE2
331
16CEA
331
16CEB
331
16CF5
331
16CF6
331
16CFF
331
16D00
331
16D09
331
16D0A
331
16D13
331
16D14
331
16D1B
331
16D1C
331
16D24
331
16D25
102
}
  0
BLOCK_RECORD
  5
1537F
330
7466
100
AcDbSymbolTableRecord
100
AcDbBlockTableRecord
  2
*D1
340
0
  0
BLOCK_RECORD
  5
153A3
330
7466
100
AcDbSymbolTableRecord
100
AcDbBlockTableRecord
  2
*D2
340
0
  0
BLOCK_RECORD
  5
153AF
330
7466
100
AcDbSymbolTableRecord
100
AcDbBlockTableRecord
  2
*D3
340
0
  0
BLOCK_RECORD
  5
153C7
330
7466
100
AcDbSymbolTableRecord
100
AcDbBlockTableRecord
  2
*D4
340
0
  0
BLOCK_RECORD
  5
153ED
330
7466
100
AcDbSymbolTableRecord
100
AcDbBlockTableRecord
  2
*D5
340
0
  0
BLOCK_RECORD
  5
153F9
330
7466
100
AcDbSymbolTableRecord
100
AcDbBlockTableRecord
  2
*D6
340
0
  0
BLOCK_RECORD
  5
15407
330
7466
100
AcDbSymbolTableRecord
100
AcDbBlockTableRecord
  2
*D7
340
0
  0
BLOCK_RECORD
  5
15413
330
7466
100
AcDbSymbolTableRecord
100
AcDbBlockTableRecord
  2
*D8
340
0
  0
BLOCK_RECORD
  5
15439
330
7466
100
AcDbSymbolTableRecord
100
AcDbBlockTableRecord
  2
*D9
340
0
  0
BLOCK_RECORD
  5
15445
330
7466
100
AcDbSymbolTableRecord
100
AcDbBlockTableRecord
  2
*D10
340
0
  0
BLOCK_RECORD
  5
15451
330
7466
100
AcDbSymbolTableRecord
100
AcDbBlockTableRecord
  2
*D11
340
0
  0
BLOCK_RECORD
  5
1545D
330
7466
100
AcDbSymbolTableRecord
100
AcDbBlockTableRecord
  2
*D12
340
0
  0
BLOCK_RECORD
  5
15483
330
7466
100
AcDbSymbolTableRecord
100
AcDbBlockTableRecord
  2
*D13
340
0
  0
BLOCK_RECORD
  5
156D2
330
7466
100
AcDbSymbolTableRecord
100
AcDbBlockTableRecord
  2
*D14
340
0
  0
BLOCK_RECORD
  5
15CD0
330
7466
100
AcDbSymbolTableRecord
100
AcDbBlockTableRecord
  2
*D15
340
0
  0
BLOCK_RECORD
  5
15CDC
330
7466
100
AcDbSymbolTableRecord
100
AcDbBlockTableRecord
  2
*D16
340
0
  0
BLOCK_RECORD
  5
15CE8
330
7466
100
AcDbSymbolTableRecord
100
AcDbBlockTableRecord
  2
*D17
340
0
  0
BLOCK_RECORD
  5
15CF4
330
7466
100
AcDbSymbolTableRecord
100
AcDbBlockTableRecord
  2
*D18
340
0
  0
BLOCK_RECORD
  5
15EE5
330
7466
100
AcDbSymbolTableRecord
100
AcDbBlockTableRecord
  2
*D19
340
0
  0
BLOCK_RECORD
  5
15EFF
330
7466
100
AcDbSymbolTableRecord
100
AcDbBlockTableRecord
  2
*D20
340
0
  0
BLOCK_RECORD
  5
1666D
330
7466
100
AcDbSymbolTableRecord
100
AcDbBlockTableRecord
  2
*D21
340
0
  0
BLOCK_RECORD
  5
16679
330
7466
100
AcDbSymbolTableRecord
100
AcDbBlockTableRecord
  2
*D22
340
0
  0
BLOCK_RECORD
  5
16685
330
7466
100
AcDbSymbolTableRecord
100
AcDbBlockTableRecord
  2
*D23
340
0
  0
BLOCK_RECORD
  5
16691
330
7466
100
AcDbSymbolTableRecord
100
AcDbBlockTableRecord
  2
*D24
340
0
  0
BLOCK_RECORD
  5
1669E
330
7466
100
AcDbSymbolTableRecord
100
AcDbBlockTableRecord
  2
*D25
340
0
  0
BLOCK_RECORD
  5
166AA
330
7466
100
AcDbSymbolTableRecord
100
AcDbBlockTableRecord
  2
*D26
340
0
  0
BLOCK_RECORD
  5
166B8
330
7466
100
AcDbSymbolTableRecord
100
AcDbBlockTableRecord
  2
*D27
340
0
  0
BLOCK_RECORD
  5
166C4
330
7466
100
AcDbSymbolTableRecord
100
AcDbBlockTableRecord
  2
*D28
340
0
  0
BLOCK_RECORD
  5
166D0
330
7466
100
AcDbSymbolTableRecord
100
AcDbBlockTableRecord
  2
*D29
340
0
  0
BLOCK_RECORD
  5
166DC
330
7466
100
AcDbSymbolTableRecord
100
AcDbBlockTableRecord
  2
*D30
340
0
  0
BLOCK_RECORD
  5
166EA
330
7466
100
AcDbSymbolTableRecord
100
AcDbBlockTableRecord
  2
*D31
340
0
  0
BLOCK_RECORD
  5
166F6
330
7466
100
AcDbSymbolTableRecord
100
AcDbBlockTableRecord
  2
*D32
340
0
  0
BLOCK_RECORD
  5
16A6A
330
7466
100
AcDbSymbolTableRecord
100
AcDbBlockTableRecord
  2
*D33
340
0
  0
BLOCK_RECORD
  5
16A90
330
7466
100
AcDbSymbolTableRecord
100
AcDbBlockTableRecord
  2
*D34
340
0
  0
BLOCK_RECORD
  5
16A9E
330
7466
100
AcDbSymbolTableRecord
100
AcDbBlockTableRecord
  2
*D35
340
0
  0
BLOCK_RECORD
  5
16AAA
330
7466
100
AcDbSymbolTableRecord
100
AcDbBlockTableRecord
  2
*D36
340
0
  0
BLOCK_RECORD
  5
16ADE
330
7466
100
AcDbSymbolTableRecord
100
AcDbBlockTableRecord
  2
*D37
340
0
  0
ENDTAB
  0
ENDSEC
  0
SECTION
  2
BLOCKS
  0
BLOCK
  5
7489
330
747D
100
AcDbEntity
  8
0
100
AcDbBlockBegin
  2
*MODEL_SPACE
 70
     0
 10
0.0
 20
0.0
 30
0.0
  3
*MODEL_SPACE
  1

  0
ENDBLK
  5
748A
330
747D
100
AcDbEntity
  8
0
100
AcDbBlockEnd
  0
BLOCK
  5
7487
330
747A
100
AcDbEntity
 67
     1
  8
0
100
AcDbBlockBegin
  2
*PAPER_SPACE
 70
     0
 10
0.0
 20
0.0
 30
0.0
  3
*PAPER_SPACE
  1

  0
ENDBLK
  5
7488
330
747A
100
AcDbEntity
 67
     1
  8
0
100
AcDbBlockEnd
  0
BLOCK
  5
F771
330
F770
100
AcDbEntity
  8
0
 48
50.0
100
AcDbBlockBegin
  2
_DOTSMALL
 70
     0
 10
0.0
 20
0.0
 30
0.0
  3
_DOTSMALL
  1

  0
LWPOLYLINE
  5
F772
330
F770
100
AcDbEntity
  8
0
  6
ByBlock
 62
     0
 48
50.0
100
AcDbPolyline
 90
        2
 70
     1
 43
0.5
 10
-0.0625
 20
0.0
 42
1.0
 10
0.0625
 20
0.0
 42
1.0
  0
ENDBLK
  5
F776
330
F770
100
AcDbEntity
  8
0
 48
50.0
100
AcDbBlockEnd
  0
BLOCK
  5
15ED0
330
1537F
100
AcDbEntity
  8
0
 48
50.0
100
AcDbBlockBegin
  2
*D1
 70
     1
 10
0.0
 20
0.0
 30
0.0
  3
*D1
  1

  0
LINE
  5
16D21
330
1537F
100
AcDbEntity
  8
寸法
 62
     0
 48
50.0
370
    -2
100
AcDbLine
 10
4794.194534300615
 20
8336.365915108165
 30
0.0
 11
4794.194534300615
 21
7309.264040248283
 31
0.0
  0
LINE
  5
16D22
330
1537F
100
AcDbEntity
  8
寸法
 62
     0
 48
50.0
370
    -2
100
AcDbLine
 10
8594.194534300596
 20
8336.365915108487
 30
0.0
 11
8594.194534300596
 21
7309.264040248283
 31
0.0
  0
LINE
  5
16D23
330
1537F
100
AcDbEntity
  8
寸法
 62
     0
 48
50.0
370
    -2
100
AcDbLine
 10
4794.194534300615
 20
7369.264040248284
 30
0.0
 11
8594.194534300596
 21
7369.264040248284
 31
0.0
  0
INSERT
  5
16D24
330
1537F
100
AcDbEntity
  8
寸法
 62
     0
 48
50.0
370
    -2
100
AcDbBlockReference
  2
_DOTSMALL
 10
4794.194534300615
 20
7369.264040248284
 30
0.0
 41
100.0
 42
100.0
 43
100.0
 50
180.0
  0
INSERT
  5
16D25
330
1537F
100
AcDbEntity
  8
寸法
 62
     0
 48
50.0
370
    -2
100
AcDbBlockReference
  2
_DOTSMALL
 10
8594.194534300596
 20
7369.264040248284
 30
0.0
 41
100.0
 42
100.0
 43
100.0
  0
MTEXT
  5
16D26
330
1537F
100
AcDbEntity
  8
寸法
 62
     7
 48
50.0
100
AcDbMText
 10
6694.194534300606
 20
7469.264040248283
 30
0.0
 40
120.0
 41
0.0
 71
     5
 72
     1
  1
\A1;3800
  7
STYLE1
 73
     1
 44
1.0
1001
ACAD
1000
MTEXTBEGIN
1070
    73
1070
     1
1070
    44
1040
1.0
1070
    74
1070
     0
1000
MTEXTEND
  0
POINT
  5
16D27
330
1537F
100
AcDbEntity
  8
DEFPOINTS
 62
     0
 48
50.0
100
AcDbPoint
 10
4794.194534300615
 20
8356.365915108167
 30
0.0
  0
POINT
  5
16D28
330
1537F
100
AcDbEntity
  8
DEFPOINTS
 62
     0
 48
50.0
100
AcDbPoint
 10
8594.194534300596
 20
8356.365915108487
 30
0.0
  0
POINT
  5
16D29
330
1537F
100
AcDbEntity
  8
DEFPOINTS
 62
     0
 48
50.0
100
AcDbPoint
 10
8594.194534300596
 20
7369.264040248284
 30
0.0
  0
ENDBLK
  5
15EDA
330
1537F
100
AcDbEntity
  8
0
 48
50.0
100
AcDbBlockEnd
  0
BLOCK
  5
154CC
330
153A3
100
AcDbEntity
  8
0
 48
50.0
100
AcDbBlockBegin
  2
*D2
 70
     1
 10
0.0
 20
0.0
 30
0.0
  3
*D2
  1

  0
LINE
  5
16D18
330
153A3
100
AcDbEntity
  8
寸法
 62
     0
 48
50.0
370
    -2
100
AcDbLine
 10
6749.194534300622
 20
9326.365915108466
 30
0.0
 11
6749.194534300622
 21
9582.174134733532
 31
0.0
  0
LINE
  5
16D19
330
153A3
100
AcDbEntity
  8
寸法
 62
     0
 48
50.0
370
    -2
100
AcDbLine
 10
7589.194534300621
 20
9326.365915108551
 30
0.0
 11
7589.194534300621
 21
9582.174134733532
 31
0.0
  0
LINE
  5
16D1A
330
153A3
100
AcDbEntity
  8
寸法
 62
     0
 48
50.0
370
    -2
100
AcDbLine
 10
6749.194534300622
 20
9522.174134733534
 30
0.0
 11
7589.194534300621
 21
9522.174134733534
 31
0.0
  0
INSERT
  5
16D1B
330
153A3
100
AcDbEntity
  8
寸法
 62
     0
 48
50.0
370
    -2
100
AcDbBlockReference
  2
_DOTSMALL
 10
6749.194534300622
 20
9522.174134733534
 30
0.0
 41
100.0
 42
100.0
 43
100.0
 50
180.0
  0
INSERT
  5
16D1C
330
153A3
100
AcDbEntity
  8
寸法
 62
     0
 48
50.0
370
    -2
100
AcDbBlockReference
  2
_DOTSMALL
 10
7589.194534300621
 20
9522.174134733534
 30
0.0
 41
100.0
 42
100.0
 43
100.0
  0
MTEXT
  5
16D1D
330
153A3
100
AcDbEntity
  8
寸法
 62
     7
 48
50.0
100
AcDbMText
 10
7169.194534300622
 20
9622.185945757156
 30
0.0
 40
120.0
 41
0.0
 71
     5
 72
     1
  1
\A1;2X420=840
  7
STYLE1
 73
     1
 44
1.0
1001
ACAD
1000
MTEXTBEGIN
1070
    73
1070
     1
1070
    44
1040
1.0
1070
    74
1070
     0
1000
MTEXTEND
  0
POINT
  5
16D1E
330
153A3
100
AcDbEntity
  8
DEFPOINTS
 62
     0
 48
50.0
100
AcDbPoint
 10
6749.194534300622
 20
9306.365915108465
 30
0.0
  0
POINT
  5
16D1F
330
153A3
100
AcDbEntity
  8
DEFPOINTS
 62
     0
 48
50.0
100
AcDbPoint
 10
7589.194534300621
 20
9306.365915108552
 30
0.0
  0
POINT
  5
16D20
330
153A3
100
AcDbEntity
  8
DEFPOINTS
 62
     0
 48
50.0
100
AcDbPoint
 10
7589.194534300621
 20
9522.174134733534
 30
0.0
  0
ENDBLK
  5
154D6
330
153A3
100
AcDbEntity
  8
0
 48
50.0
100
AcDbBlockEnd
  0
BLOCK
  5
154D7
330
153AF
100
AcDbEntity
  8
0
 48
50.0
100
AcDbBlockBegin
  2
*D3
 70
     1
 10
0.0
 20
0.0
 30
0.0
  3
*D3
  1

  0
LINE
  5
16D0F
330
153AF
100
AcDbEntity
  8
寸法
 62
     0
 48
50.0
370
    -2
100
AcDbLine
 10
6639.194534300621
 20
9326.365915108551
 30
0.0
 11
6639.194534300621
 21
9582.174134733532
 31
0.0
  0
LINE
  5
16D10
330
153AF
100
AcDbEntity
  8
寸法
 62
     0
 48
50.0
370
    -2
100
AcDbLine
 10
6749.194534300625
 20
9326.36591510853
 30
0.0
 11
6749.194534300625
 21
9582.174134733532
 31
0.0
  0
LINE
  5
16D11
330
153AF
100
AcDbEntity
  8
寸法
 62
     0
 48
50.0
370
    -2
100
AcDbLine
 10
6639.194534300621
 20
9522.174134733534
 30
0.0
 11
6749.194534300625
 21
9522.174134733534
 31
0.0
  0
MTEXT
  5
16D12
330
153AF
100
AcDbEntity
  8
寸法
 62
     7
 48
50.0
100
AcDbMText
 10
6694.194534300622
 20
9779.050803348036
 30
0.0
 40
120.0
 41
0.0
 71
     5
 72
     1
  1
\A1;110
  7
STYLE1
 73
     1
 44
1.0
1001
ACAD
1000
MTEXTBEGIN
1070
    73
1070
     1
1070
    44
1040
1.0
1070
    74
1070
     0
1000
MTEXTEND
  0
INSERT
  5
16D13
330
153AF
100
AcDbEntity
  8
寸法
 62
     0
 48
50.0
370
    -2
100
AcDbBlockReference
  2
_DOTSMALL
 10
6639.194534300621
 20
9522.174134733534
 30
0.0
 41
100.0
 42
100.0
 43
100.0
 50
180.0
  0
INSERT
  5
16D14
330
153AF
100
AcDbEntity
  8
寸法
 62
     0
 48
50.0
370
    -2
100
AcDbBlockReference
  2
_DOTSMALL
 10
6749.194534300625
 20
9522.174134733534
 30
0.0
 41
100.0
 42
100.0
 43
100.0
  0
POINT
  5
16D15
330
153AF
100
AcDbEntity
  8
DEFPOINTS
 62
     0
 48
50.0
100
AcDbPoint
 10
6639.194534300621
 20
9306.365915108552
 30
0.0
  0
POINT
  5
16D16
330
153AF
100
AcDbEntity
  8
DEFPOINTS
 62
     0
 48
50.0
100
AcDbPoint
 10
6749.194534300625
 20
9306.36591510853
 30
0.0
  0
POINT
  5
16D17
330
153AF
100
AcDbEntity
  8
DEFPOINTS
 62
     0
 48
50.0
100
AcDbPoint
 10
6749.194534300625
 20
9522.174134733534
 30
0.0
  0
ENDBLK
  5
154E1
330
153AF
100
AcDbEntity
  8
0
 48
50.0
100
AcDbBlockEnd
  0
BLOCK
  5
154ED
330
153C7
100
AcDbEntity
  8
0
 48
50.0
100
AcDbBlockBegin
  2
*D4
 70
     1
 10
0.0
 20
0.0
 30
0.0
  3
*D4
  1

  0
LINE
  5
16D04
330
153C7
100
AcDbEntity
  8
寸法
 62
     0
 48
50.0
370
    -2
100
AcDbLine
 10
4794.194534300586
 20
9326.365915108436
 30
0.0
 11
4794.194534300586
 21
9582.174134733419
 31
0.0
  0
LINE
  5
16D05
330
153C7
100
AcDbEntity
  8
寸法
 62
     0
 48
50.0
370
    -2
100
AcDbLine
 10
4849.194534300623
 20
9326.365915108436
 30
0.0
 11
4849.194534300623
 21
9582.174134733419
 31
0.0
  0
LINE
  5
16D06
330
153C7
100
AcDbEntity
  8
寸法
 62
     0
 48
50.0
370
    -2
100
AcDbLine
 10
4849.194534300623
 20
9522.174134733417
 30
0.0
 11
4949.194534300623
 21
9522.174134733417
 31
0.0
  0
LINE
  5
16D07
330
153C7
100
AcDbEntity
  8
寸法
 62
     0
 48
50.0
370
    -2
100
AcDbLine
 10
4794.194534300586
 20
9522.174134733417
 30
0.0
 11
4377.223971552108
 21
9522.174134733417
 31
0.0
  0
LINE
  5
16D08
330
153C7
100
AcDbEntity
  8
寸法
 62
     0
 48
50.0
370
    -2
100
AcDbLine
 10
4849.194534300623
 20
9522.174134733417
 30
0.0
 11
4794.194534300586
 21
9522.174134733417
 31
0.0
  0
INSERT
  5
16D09
330
153C7
100
AcDbEntity
  8
寸法
 62
     0
 48
50.0
370
    -2
100
AcDbBlockReference
  2
_DOTSMALL
 10
4849.194534300623
 20
9522.174134733417
 30
0.0
 41
100.0
 42
100.0
 43
100.0
 50
180.0
  0
INSERT
  5
16D0A
330
153C7
100
AcDbEntity
  8
寸法
 62
     0
 48
50.0
370
    -2
100
AcDbBlockReference
  2
_DOTSMALL
 10
4794.194534300586
 20
9522.174134733417
 30
0.0
 41
100.0
 42
100.0
 43
100.0
  0
MTEXT
  5
16D0B
330
153C7
100
AcDbEntity
  8
寸法
 62
     7
 48
50.0
100
AcDbMText
 10
4485.709252926348
 20
9622.174134733418
 30
0.0
 40
120.0
 41
0.0
 71
     5
 72
     1
  1
\A1;55
  7
STYLE1
 73
     1
 44
1.0
1001
ACAD
1000
MTEXTBEGIN
1070
    73
1070
     1
1070
    44
1040
1.0
1070
    74
1070
     0
1000
MTEXTEND
  0
POINT
  5
16D0C
330
153C7
100
AcDbEntity
  8
DEFPOINTS
 62
     0
 48
50.0
100
AcDbPoint
 10
4794.194534300586
 20
9306.365915108436
 30
0.0
  0
POINT
  5
16D0D
330
153C7
100
AcDbEntity
  8
DEFPOINTS
 62
     0
 48
50.0
100
AcDbPoint
 10
4849.194534300623
 20
9306.365915108436
 30
0.0
  0
POINT
  5
16D0E
330
153C7
100
AcDbEntity
  8
DEFPOINTS
 62
     0
 48
50.0
100
AcDbPoint
 10
4849.194534300623
 20
9522.174134733417
 30
0.0
  0
ENDBLK
  5
154F9
330
153C7
100
AcDbEntity
  8
0
 48
50.0
100
AcDbBlockEnd
  0
BLOCK
  5
15510
330
153ED
100
AcDbEntity
  8
0
 48
50.0
100
AcDbBlockBegin
  2
*D5
 70
     1
 10
0.0
 20
0.0
 30
0.0
  3
*D5
  1

  0
LINE
  5
16CFB
330
153ED
100
AcDbEntity
  8
寸法
 62
     0
 48
50.0
370
    -2
100
AcDbLine
 10
7589.194534300621
 20
9326.365915108551
 30
0.0
 11
7589.194534300621
 21
9582.174134733532
 31
0.0
  0
LINE
  5
16CFC
330
153ED
100
AcDbEntity
  8
寸法
 62
     0
 48
50.0
370
    -2
100
AcDbLine
 10
7699.194534300625
 20
9326.36591510853
 30
0.0
 11
7699.194534300625
 21
9582.174134733532
 31
0.0
  0
LINE
  5
16CFD
330
153ED
100
AcDbEntity
  8
寸法
 62
     0
 48
50.0
370
    -2
100
AcDbLine
 10
7589.194534300621
 20
9522.174134733534
 30
0.0
 11
7699.194534300625
 21
9522.174134733534
 31
0.0
  0
MTEXT
  5
16CFE
330
153ED
100
AcDbEntity
  8
寸法
 62
     7
 48
50.0
100
AcDbMText
 10
7644.194534300623
 20
9779.050803348036
 30
0.0
 40
120.0
 41
0.0
 71
     5
 72
     1
  1
\A1;110
  7
STYLE1
 73
     1
 44
1.0
1001
ACAD
1000
MTEXTBEGIN
1070
    73
1070
     1
1070
    44
1040
1.0
1070
    74
1070
     0
1000
MTEXTEND
  0
INSERT
  5
16CFF
330
153ED
100
AcDbEntity
  8
寸法
 62
     0
 48
50.0
370
    -2
100
AcDbBlockReference
  2
_DOTSMALL
 10
7589.194534300621
 20
9522.174134733534
 30
0.0
 41
100.0
 42
100.0
 43
100.0
 50
180.0
  0
INSERT
  5
16D00
330
153ED
100
AcDbEntity
  8
寸法
 62
     0
 48
50.0
370
    -2
100
AcDbBlockReference
  2
_DOTSMALL
 10
7699.194534300625
 20
9522.174134733534
 30
0.0
 41
100.0
 42
100.0
 43
100.0
  0
POINT
  5
16D01
330
153ED
100
AcDbEntity
  8
DEFPOINTS
 62
     0
 48
50.0
100
AcDbPoint
 10
7589.194534300621
 20
9306.365915108552
 30
0.0
  0
POINT
  5
16D02
330
153ED
100
AcDbEntity
  8
DEFPOINTS
 62
     0
 48
50.0
100
AcDbPoint
 10
7699.194534300625
 20
9306.36591510853
 30
0.0
  0
POINT
  5
16D03
330
153ED
100
AcDbEntity
  8
DEFPOINTS
 62
     0
 48
50.0
100
AcDbPoint
 10
7699.194534300625
 20
9522.174134733534
 30
0.0
  0
ENDBLK
  5
1551A
330
153ED
100
AcDbEntity
  8
0
 48
50.0
100
AcDbBlockEnd
  0
BLOCK
  5
1551B
330
153F9
100
AcDbEntity
  8
0
 48
50.0
100
AcDbBlockBegin
  2
*D6
 70
     1
 10
0.0
 20
0.0
 30
0.0
  3
*D6
  1

  0
LINE
  5
16CF0
330
153F9
100
AcDbEntity
  8
寸法
 62
     0
 48
50.0
370
    -2
100
AcDbLine
 10
8614.194534300622
 20
9306.36591510853
 30
0.0
 11
9301.620880035034
 21
9306.36591510853
 31
0.0
  0
LINE
  5
16CF1
330
153F9
100
AcDbEntity
  8
寸法
 62
     0
 48
50.0
370
    -2
100
AcDbLine
 10
8614.194534300622
 20
9251.365915108531
 30
0.0
 11
9301.620880035034
 21
9251.365915108531
 31
0.0
  0
LINE
  5
16CF2
330
153F9
100
AcDbEntity
  8
寸法
 62
     0
 48
50.0
370
    -2
100
AcDbLine
 10
9241.620880035034
 20
9251.365915108531
 30
0.0
 11
9241.620880035034
 21
9151.365915108531
 31
0.0
  0
LINE
  5
16CF3
330
153F9
100
AcDbEntity
  8
寸法
 62
     0
 48
50.0
370
    -2
100
AcDbLine
 10
9241.620880035034
 20
9306.36591510853
 30
0.0
 11
9241.620880035034
 21
9723.336477857007
 31
0.0
  0
LINE
  5
16CF4
330
153F9
100
AcDbEntity
  8
寸法
 62
     0
 48
50.0
370
    -2
100
AcDbLine
 10
9241.620880035034
 20
9251.365915108531
 30
0.0
 11
9241.620880035034
 21
9306.36591510853
 31
0.0
  0
INSERT
  5
16CF5
330
153F9
100
AcDbEntity
  8
寸法
 62
     0
 48
50.0
370
    -2
100
AcDbBlockReference
  2
_DOTSMALL
 10
9241.620880035034
 20
9251.365915108531
 30
0.0
 41
100.0
 42
100.0
 43
100.0
 50
90.0
  0
INSERT
  5
16CF6
330
153F9
100
AcDbEntity
  8
寸法
 62
     0
 48
50.0
370
    -2
100
AcDbBlockReference
  2
_DOTSMALL
 10
9241.620880035034
 20
9306.36591510853
 30
0.0
 41
100.0
 42
100.0
 43
100.0
 50
270.0
  0
MTEXT
  5
16CF7
330
153F9
100
AcDbEntity
  8
寸法
 62
     7
 48
50.0
100
AcDbMText
 10
9141.620880035032
 20
9614.851196482771
 30
0.0
 40
120.0
 41
0.0
 71
     5
 72
     1
  1
\A1;55
  7
STYLE1
 11
0.0000000000000001
 21
1.0
 31
0.0
 73
     1
 44
1.0
1001
ACAD
1000
MTEXTBEGIN
1070
    73
1070
     1
1070
    44
1040
1.0
1070
    74
1070
     0
1000
MTEXTEND
  0
POINT
  5
16CF8
330
153F9
100
AcDbEntity
  8
DEFPOINTS
 62
     0
 48
50.0
100
AcDbPoint
 10
8594.194534300623
 20
9306.36591510853
 30
0.0
  0
POINT
  5
16CF9
330
153F9
100
AcDbEntity
  8
DEFPOINTS
 62
     0
 48
50.0
100
AcDbPoint
 10
8594.194534300623
 20
9251.365915108531
 30
0.0
  0
POINT
  5
16CFA
330
153F9
100
AcDbEntity
  8
DEFPOINTS
 62
     0
 48
50.0
100
AcDbPoint
 10
9241.620880035034
 20
9251.365915108531
 30
0.0
  0
ENDBLK
  5
15527
330
153F9
100
AcDbEntity
  8
0
 48
50.0
100
AcDbBlockEnd
  0
BLOCK
  5
15528
330
15407
100
AcDbEntity
  8
0
 48
50.0
100
AcDbBlockBegin
  2
*D7
 70
     1
 10
0.0
 20
0.0
 30
0.0
  3
*D7
  1

  0
LINE
  5
16CE7
330
15407
100
AcDbEntity
  8
寸法
 62
     0
 48
50.0
370
    -2
100
AcDbLine
 10
8614.194534300622
 20
9306.36591510853
 30
0.0
 11
9610.732410850712
 21
9306.36591510853
 31
0.0
  0
LINE
  5
16CE8
330
15407
100
AcDbEntity
  8
寸法
 62
     0
 48
50.0
370
    -2
100
AcDbLine
 10
8614.194534300597
 20
8356.365915108517
 30
0.0
 11
9610.732410850712
 21
8356.365915108517
 31
0.0
  0
LINE
  5
16CE9
330
15407
100
AcDbEntity
  8
寸法
 62
     0
 48
50.0
370
    -2
100
AcDbLine
 10
9550.732410850711
 20
9306.36591510853
 30
0.0
 11
9550.732410850711
 21
8356.365915108517
 31
0.0
  0
INSERT
  5
16CEA
330
15407
100
AcDbEntity
  8
寸法
 62
     0
 48
50.0
370
    -2
100
AcDbBlockReference
  2
_DOTSMALL
 10
9550.732410850711
 20
9306.36591510853
 30
0.0
 41
100.0
 42
100.0
 43
100.0
 50
90.0
  0
INSERT
  5
16CEB
330
15407
100
AcDbEntity
  8
寸法
 62
     0
 48
50.0
370
    -2
100
AcDbBlockReference
  2
_DOTSMALL
 10
9550.732410850711
 20
8356.365915108517
 30
0.0
 41
100.0
 42
100.0
 43
100.0
 50
270.0
  0
MTEXT
  5
16CEC
330
15407
100
AcDbEntity
  8
寸法
 62
     7
 48
50.0
100
AcDbMText
 10
9450.73241085071
 20
8830.343633667435
 30
0.0
 40
120.0
 41
0.0
 71
     5
 72
     1
  1
\A1;950
  7
STYLE1
 11
0.0000000000000001
 21
1.0
 31
0.0
 73
     1
 44
1.0
1001
ACAD
1000
MTEXTBEGIN
1070
    73
1070
     1
1070
    44
1040
1.0
1070
    74
1070
     0
1000
MTEXTEND
  0
POINT
  5
16CED
330
15407
100
AcDbEntity
  8
DEFPOINTS
 62
     0
 48
50.0
100
AcDbPoint
 10
8594.194534300623
 20
9306.36591510853
 30
0.0
  0
POINT
  5
16CEE
330
15407
100
AcDbEntity
  8
DEFPOINTS
 62
     0
 48
50.0
100
AcDbPoint
 10
8594.194534300596
 20
8356.365915108517
 30
0.0
  0
POINT
  5
16CEF
330
15407
100
AcDbEntity
  8
DEFPOINTS
 62
     0
 48
50.0
100
AcDbPoint
 10
9550.732410850711
 20
8356.365915108517
 30
0.0
  0
ENDBLK
  5
15532
330
15407
100
AcDbEntity
  8
0
 48
50.0
100
AcDbBlockEnd
  0
BLOCK
  5
15533
330
15413
100
AcDbEntity
  8
0
 48
50.0
100
AcDbBlockBegin
  2
*D8
 70
     1
 10
0.0
 20
0.0
 30
0.0
  3
*D8
  1

  0
LINE
  5
16CDC
330
15413
100
AcDbEntity
  8
寸法
 62
     0
 48
50.0
370
    -2
100
AcDbLine
 10
8614.194534300597
 20
8411.365915108516
 30
0.0
 11
9301.620880035008
 21
8411.365915108516
 31
0.0
  0
LINE
  5
16CDD
330
15413
100
AcDbEntity
  8
寸法
 62
     0
 48
50.0
370
    -2
100
AcDbLine
 10
8614.194534300597
 20
8356.365915108517
 30
0.0
 11
9301.620880035008
 21
8356.365915108517
 31
0.0
  0
LINE
  5
16CDE
330
15413
100
AcDbEntity
  8
寸法
 62
     0
 48
50.0
370
    -2
100
AcDbLine
 10
9241.620880035009
 20
8411.365915108516
 30
0.0
 11
9241.620880035009
 21
8511.365915108516
 31
0.0
  0
LINE
  5
16CDF
330
15413
100
AcDbEntity
  8
寸法
 62
     0
 48
50.0
370
    -2
100
AcDbLine
 10
9241.620880035009
 20
8356.365915108517
 30
0.0
 11
9241.620880035009
 21
7870.019166829418
 31
0.0
  0
LINE
  5
16CE0
330
15413
100
AcDbEntity
  8
寸法
 62
     0
 48
50.0
370
    -2
100
AcDbLine
 10
9241.620880035009
 20
8411.365915108516
 30
0.0
 11
9241.620880035009
 21
8356.365915108517
 31
0.0
  0
INSERT
  5
16CE1
330
15413
100
AcDbEntity
  8
寸法
 62
     0
 48
50.0
370
    -2
100
AcDbBlockReference
  2
_DOTSMALL
 10
9241.620880035009
 20
8411.365915108516
 30
0.0
 41
100.0
 42
100.0
 43
100.0
 50
270.0
  0
INSERT
  5
16CE2
330
15413
100
AcDbEntity
  8
寸法
 62
     0
 48
50.0
370
    -2
100
AcDbBlockReference
  2
_DOTSMALL
 10
9241.620880035009
 20
8356.365915108517
 30
0.0
 41
100.0
 42
100.0
 43
100.0
 50
90.0
  0
MTEXT
  5
16CE3
330
15413
100
AcDbEntity
  8
寸法
 62
     7
 48
50.0
100
AcDbMText
 10
9141.620880035008
 20
7978.504448203658
 30
0.0
 40
120.0
 41
0.0
 71
     5
 72
     1
  1
\A1;55
  7
STYLE1
 11
0.0000000000000001
 21
1.0
 31
0.0
 73
     1
 44
1.0
1001
ACAD
1000
MTEXTBEGIN
1070
    73
1070
     1
1070
    44
1040
1.0
1070
    74
1070
     0
1000
MTEXTEND
  0
POINT
  5
16CE4
330
15413
100
AcDbEntity
  8
DEFPOINTS
 62
     0
 48
50.0
100
AcDbPoint
 10
8594.194534300596
 20
8411.365915108516
 30
0.0
  0
POINT
  5
16CE5
330
15413
100
AcDbEntity
  8
DEFPOINTS
 62
     0
 48
50.0
100
AcDbPoint
 10
8594.194534300596
 20
8356.365915108517
 30
0.0
  0
POINT
  5
16CE6
330
15413
100
AcDbEntity
  8
DEFPOINTS
 62
     0
 48
50.0
100
AcDbPoint
 10
9241.620880035009
 20
8356.365915108517
 30
0.0
  0
ENDBLK
  5
1553F
330
15413
100
AcDbEntity
  8
0
 48
50.0
100
AcDbBlockEnd
  0
BLOCK
  5
15556
330
15439
100
AcDbEntity
  8
0
 48
50.0
100
AcDbBlockBegin
  2
*D9
 70
     1
 10
0.0
 20
0.0
 30
0.0
  3
*D9
  1

  0
LINE
  5
16CD3
330
15439
100
AcDbEntity
  8
寸法
 62
     0
 48
50.0
370
    -2
100
AcDbLine
 10
7699.194534300623
 20
9326.365915108466
 30
0.0
 11
7699.194534300623
 21
9582.174134733532
 31
0.0
  0
LINE
  5
16CD4
330
15439
100
AcDbEntity
  8
寸法
 62
     0
 48
50.0
370
    -2
100
AcDbLine
 10
8539.194534300621
 20
9326.365915108551
 30
0.0
 11
8539.194534300621
 21
9582.174134733532
 31
0.0
  0
LINE
  5
16CD5
330
15439
100
AcDbEntity
  8
寸法
 62
     0
 48
50.0
370
    -2
100
AcDbLine
 10
7699.194534300623
 20
9522.174134733534
 30
0.0
 11
8539.194534300621
 21
9522.174134733534
 31
0.0
  0
INSERT
  5
16CD6
330
15439
100
AcDbEntity
  8
寸法
 62
     0
 48
50.0
370
    -2
100
AcDbBlockReference
  2
_DOTSMALL
 10
7699.194534300623
 20
9522.174134733534
 30
0.0
 41
100.0
 42
100.0
 43
100.0
 50
180.0
  0
INSERT
  5
16CD7
330
15439
100
AcDbEntity
  8
寸法
 62
     0
 48
50.0
370
    -2
100
AcDbBlockReference
  2
_DOTSMALL
 10
8539.194534300621
 20
9522.174134733534
 30
0.0
 41
100.0
 42
100.0
 43
100.0
  0
MTEXT
  5
16CD8
330
15439
100
AcDbEntity
  8
寸法
 62
     7
 48
50.0
100
AcDbMText
 10
8119.194534300623
 20
9622.185945757156
 30
0.0
 40
120.0
 41
0.0
 71
     5
 72
     1
  1
\A1;2X420=840
  7
STYLE1
 73
     1
 44
1.0
1001
ACAD
1000
MTEXTBEGIN
1070
    73
1070
     1
1070
    44
1040
1.0
1070
    74
1070
     0
1000
MTEXTEND
  0
POINT
  5
16CD9
330
15439
100
AcDbEntity
  8
DEFPOINTS
 62
     0
 48
50.0
100
AcDbPoint
 10
7699.194534300623
 20
9306.365915108465
 30
0.0
  0
POINT
  5
16CDA
330
15439
100
AcDbEntity
  8
DEFPOINTS
 62
     0
 48
50.0
100
AcDbPoint
 10
8539.194534300621
 20
9306.365915108552
 30
0.0
  0
POINT
  5
16CDB
330
15439
100
AcDbEntity
  8
DEFPOINTS
 62
     0
 48
50.0
100
AcDbPoint
 10
8539.194534300621
 20
9522.174134733534
 30
0.0
  0
ENDBLK
  5
15560
330
15439
100
AcDbEntity
  8
0
 48
50.0
100
AcDbBlockEnd
  0
BLOCK
  5
15561
330
15445
100
AcDbEntity
  8
0
 48
50.0
100
AcDbBlockBegin
  2
*D10
 70
     1
 10
0.0
 20
0.0
 30
0.0
  3
*D10
  1

  0
LINE
  5
16CCA
330
15445
100
AcDbEntity
  8
寸法
 62
     0
 48
50.0
370
    -2
100
AcDbLine
 10
8614.194534300622
 20
9251.365915108531
 30
0.0
 11
9301.620880035034
 21
9251.365915108531
 31
0.0
  0
LINE
  5
16CCB
330
15445
100
AcDbEntity
  8
寸法
 62
     0
 48
50.0
370
    -2
100
AcDbLine
 10
8614.194534300597
 20
8411.365915108516
 30
0.0
 11
9301.620880035034
 21
8411.365915108516
 31
0.0
  0
LINE
  5
16CCC
330
15445
100
AcDbEntity
  8
寸法
 62
     0
 48
50.0
370
    -2
100
AcDbLine
 10
9241.620880035034
 20
9251.365915108531
 30
0.0
 11
9241.620880035034
 21
8411.365915108516
 31
0.0
  0
INSERT
  5
16CCD
330
15445
100
AcDbEntity
  8
寸法
 62
     0
 48
50.0
370
    -2
100
AcDbBlockReference
  2
_DOTSMALL
 10
9241.620880035034
 20
9251.365915108531
 30
0.0
 41
100.0
 42
100.0
 43
100.0
 50
90.0
  0
INSERT
  5
16CCE
330
15445
100
AcDbEntity
  8
寸法
 62
     0
 48
50.0
370
    -2
100
AcDbBlockReference
  2
_DOTSMALL
 10
9241.620880035034
 20
8411.365915108516
 30
0.0
 41
100.0
 42
100.0
 43
100.0
 50
270.0
  0
MTEXT
  5
16CCF
330
15445
100
AcDbEntity
  8
寸法
 62
     7
 48
50.0
100
AcDbMText
 10
9141.60906901141
 20
8831.365915108525
 30
0.0
 40
120.0
 41
0.0
 71
     5
 72
     1
  1
\A1;2X420=840
  7
STYLE1
 11
0.0000000000000001
 21
1.0
 31
0.0
 73
     1
 44
1.0
1001
ACAD
1000
MTEXTBEGIN
1070
    73
1070
     1
1070
    44
1040
1.0
1070
    74
1070
     0
1000
MTEXTEND
  0
POINT
  5
16CD0
330
15445
100
AcDbEntity
  8
DEFPOINTS
 62
     0
 48
50.0
100
AcDbPoint
 10
8594.194534300623
 20
9251.365915108531
 30
0.0
  0
POINT
  5
16CD1
330
15445
100
AcDbEntity
  8
DEFPOINTS
 62
     0
 48
50.0
100
AcDbPoint
 10
8594.194534300596
 20
8411.365915108516
 30
0.0
  0
POINT
  5
16CD2
330
15445
100
AcDbEntity
  8
DEFPOINTS
 62
     0
 48
50.0
100
AcDbPoint
 10
9241.620880035034
 20
8411.365915108516
 30
0.0
  0
ENDBLK
  5
1556B
330
15445
100
AcDbEntity
  8
0
 48
50.0
100
AcDbBlockEnd
  0
BLOCK
  5
1556C
330
15451
100
AcDbEntity
  8
0
 48
50.0
100
AcDbBlockBegin
  2
*D11
 70
     1
 10
0.0
 20
0.0
 30
0.0
  3
*D11
  1

  0
LINE
  5
16CC1
330
15451
100
AcDbEntity
  8
寸法
 62
     0
 48
50.0
370
    -2
100
AcDbLine
 10
8585.194540978232
 20
9271.506931259777
 30
0.0
 11
8980.552266840257
 21
9165.571147893642
 31
0.0
  0
LINE
  5
16CC2
330
15451
100
AcDbEntity
  8
寸法
 62
     0
 48
50.0
370
    -2
100
AcDbLine
 10
8585.194540978241
 20
8821.506931259785
 30
0.0
 11
8980.552266840257
 21
8715.571147893653
 31
0.0
  0
LINE
  5
16CC3
330
15451
100
AcDbEntity
  8
寸法
 62
     0
 48
50.0
370
    -2
100
AcDbLine
 10
8920.552266840259
 20
9181.648099439509
 30
0.0
 11
8920.552266840259
 21
8731.648099439519
 31
0.0
  0
INSERT
  5
16CC4
330
15451
100
AcDbEntity
  8
寸法
 62
     0
 48
50.0
370
    -2
100
AcDbBlockReference
  2
_DOTSMALL
 10
8920.552266840259
 20
9181.648099439509
 30
0.0
 41
100.0
 42
100.0
 43
100.0
 50
90.0
  0
INSERT
  5
16CC5
330
15451
100
AcDbEntity
  8
寸法
 62
     0
 48
50.0
370
    -2
100
AcDbBlockReference
  2
_DOTSMALL
 10
8920.552266840259
 20
8731.648099439519
 30
0.0
 41
100.0
 42
100.0
 43
100.0
 50
270.0
  0
MTEXT
  5
16CC6
330
15451
100
AcDbEntity
  8
寸法
 62
     7
 48
50.0
100
AcDbMText
 10
8820.552266840255
 20
8956.648099439513
 30
0.0
 40
120.0
 41
0.0
 71
     5
 72
     1
  1
\A1;450
  7
STYLE1
 11
0.0000000000000001
 21
1.0
 31
0.0
 73
     1
 44
1.0
1001
ACAD
1000
MTEXTBEGIN
1070
    73
1070
     1
1070
    44
1040
1.0
1070
    74
1070
     0
1000
MTEXTEND
  0
POINT
  5
16CC7
330
15451
100
AcDbEntity
  8
DEFPOINTS
 62
     0
 48
50.0
100
AcDbPoint
 10
8565.194540978231
 20
9276.8659151084
 30
0.0
  0
POINT
  5
16CC8
330
15451
100
AcDbEntity
  8
DEFPOINTS
 62
     0
 48
50.0
100
AcDbPoint
 10
8565.194540978243
 20
8826.865915108406
 30
0.0
  0
POINT
  5
16CC9
330
15451
100
AcDbEntity
  8
DEFPOINTS
 62
     0
 48
50.0
100
AcDbPoint
 10
8920.552266840259
 20
8731.648099439519
 30
0.0
  0
ENDBLK
  5
15576
330
15451
100
AcDbEntity
  8
0
 48
50.0
100
AcDbBlockEnd
  0
BLOCK
  5
15577
330
1545D
100
AcDbEntity
  8
0
 48
50.0
100
AcDbBlockBegin
  2
*D12
 70
     1
 10
0.0
 20
0.0
 30
0.0
  3
*D12
  1

  0
LINE
  5
16CB6
330
1545D
100
AcDbEntity
  8
寸法
 62
     0
 48
50.0
370
    -2
100
AcDbLine
 10
8539.194534300623
 20
9326.36591510853
 30
0.0
 11
8539.194534300623
 21
9582.174134733511
 31
0.0
  0
LINE
  5
16CB7
330
1545D
100
AcDbEntity
  8
寸法
 62
     0
 48
50.0
370
    -2
100
AcDbLine
 10
8594.194534300623
 20
9326.36591510853
 30
0.0
 11
8594.194534300623
 21
9582.174134733511
 31
0.0
  0
LINE
  5
16CB8
330
1545D
100
AcDbEntity
  8
寸法
 62
     0
 48
50.0
370
    -2
100
AcDbLine
 10
8539.194534300623
 20
9522.174134733512
 30
0.0
 11
8439.194534300623
 21
9522.174134733512
 31
0.0
  0
LINE
  5
16CB9
330
1545D
100
AcDbEntity
  8
寸法
 62
     0
 48
50.0
370
    -2
100
AcDbLine
 10
8594.194534300623
 20
9522.174134733512
 30
0.0
 11
9011.165097049099
 21
9522.174134733512
 31
0.0
  0
LINE
  5
16CBA
330
1545D
100
AcDbEntity
  8
寸法
 62
     0
 48
50.0
370
    -2
100
AcDbLine
 10
8539.194534300623
 20
9522.174134733512
 30
0.0
 11
8594.194534300623
 21
9522.174134733512
 31
0.0
  0
INSERT
  5
16CBB
330
1545D
100
AcDbEntity
  8
寸法
 62
     0
 48
50.0
370
    -2
100
AcDbBlockReference
  2
_DOTSMALL
 10
8539.194534300623
 20
9522.174134733512
 30
0.0
 41
100.0
 42
100.0
 43
100.0
  0
INSERT
  5
16CBC
330
1545D
100
AcDbEntity
  8
寸法
 62
     0
 48
50.0
370
    -2
100
AcDbBlockReference
  2
_DOTSMALL
 10
8594.194534300623
 20
9522.174134733512
 30
0.0
 41
100.0
 42
100.0
 43
100.0
 50
180.0
  0
MTEXT
  5
16CBD
330
1545D
100
AcDbEntity
  8
寸法
 62
     7
 48
50.0
100
AcDbMText
 10
8902.679815674861
 20
9622.174134733512
 30
0.0
 40
120.0
 41
0.0
 71
     5
 72
     1
  1
\A1;55
  7
STYLE1
 73
     1
 44
1.0
1001
ACAD
1000
MTEXTBEGIN
1070
    73
1070
     1
1070
    44
1040
1.0
1070
    74
1070
     0
1000
MTEXTEND
  0
POINT
  5
16CBE
330
1545D
100
AcDbEntity
  8
DEFPOINTS
 62
     0
 48
50.0
100
AcDbPoint
 10
8539.194534300623
 20
9306.36591510853
 30
0.0
  0
POINT
  5
16CBF
330
1545D
100
AcDbEntity
  8
DEFPOINTS
 62
     0
 48
50.0
100
AcDbPoint
 10
8594.194534300623
 20
9306.36591510853
 30
0.0
  0
POINT
  5
16CC0
330
1545D
100
AcDbEntity
  8
DEFPOINTS
 62
     0
 48
50.0
100
AcDbPoint
 10
8594.194534300623
 20
9522.174134733512
 30
0.0
  0
ENDBLK
  5
15583
330
1545D
100
AcDbEntity
  8
0
 48
50.0
100
AcDbBlockEnd
  0
BLOCK
  5
1559A
330
15483
100
AcDbEntity
  8
0
 48
50.0
100
AcDbBlockBegin
  2
*D13
 70
     1
 10
0.0
 20
0.0
 30
0.0
  3
*D13
  1

  0
LINE
  5
16CAD
330
15483
100
AcDbEntity
  8
寸法
 62
     0
 48
50.0
370
    -2
100
AcDbLine
 10
4774.194534300615
 20
5391.07727689386
 30
0.0
 11
4416.090006693012
 21
5391.07727689386
 31
0.0
  0
LINE
  5
16CAE
330
15483
100
AcDbEntity
  8
寸法
 62
     0
 48
50.0
370
    -2
100
AcDbLine
 10
4774.194534300615
 20
3631.077276893865
 30
0.0
 11
4416.090006693012
 21
3631.077276893865
 31
0.0
  0
LINE
  5
16CAF
330
15483
100
AcDbEntity
  8
寸法
 62
     0
 48
50.0
370
    -2
100
AcDbLine
 10
4476.090006693012
 20
5391.07727689386
 30
0.0
 11
4476.090006693012
 21
3631.077276893865
 31
0.0
  0
INSERT
  5
16CB0
330
15483
100
AcDbEntity
  8
寸法
 62
     0
 48
50.0
370
    -2
100
AcDbBlockReference
  2
_DOTSMALL
 10
4476.090006693012
 20
5391.07727689386
 30
0.0
 41
100.0
 42
100.0
 43
100.0
 50
90.0
  0
INSERT
  5
16CB1
330
15483
100
AcDbEntity
  8
寸法
 62
     0
 48
50.0
370
    -2
100
AcDbBlockReference
  2
_DOTSMALL
 10
4476.090006693012
 20
3631.077276893865
 30
0.0
 41
100.0
 42
100.0
 43
100.0
 50
270.0
  0
MTEXT
  5
16CB2
330
15483
100
AcDbEntity
  8
寸法
 62
     7
 48
50.0
100
AcDbMText
 10
4376.090006693011
 20
4510.077276893862
 30
0.0
 40
120.0
 41
0.0
 71
     5
 72
     1
  1
\A1;有効開口部高サ1760
  7
STYLE1
 11
0.0000000000000001
 21
1.0
 31
0.0
 73
     1
 44
1.0
1001
ACAD
1000
MTEXTBEGIN
1070
    73
1070
     1
1070
    44
1040
1.0
1070
    74
1070
     0
1000
MTEXTEND
  0
POINT
  5
16CB3
330
15483
100
AcDbEntity
  8
DEFPOINTS
 62
     0
 48
50.0
100
AcDbPoint
 10
4794.194534300615
 20
5391.07727689386
 30
0.0
  0
POINT
  5
16CB4
330
15483
100
AcDbEntity
  8
DEFPOINTS
 62
     0
 48
50.0
100
AcDbPoint
 10
4794.194534300615
 20
3631.077276893865
 30
0.0
  0
POINT
  5
16CB5
330
15483
100
AcDbEntity
  8
DEFPOINTS
 62
     0
 48
50.0
100
AcDbPoint
 10
4476.090006693012
 20
3631.077276893865
 30
0.0
  0
ENDBLK
  5
155A4
330
15483
100
AcDbEntity
  8
0
 48
50.0
100
AcDbBlockEnd
  0
BLOCK
  5
156DE
330
156D2
100
AcDbEntity
  8
0
 48
50.0
100
AcDbBlockBegin
  2
*D14
 70
     1
 10
0.0
 20
0.0
 30
0.0
  3
*D14
  1

  0
LINE
  5
16CA4
330
156D2
100
AcDbEntity
  8
寸法
 62
     0
 48
50.0
370
    -2
100
AcDbLine
 10
6749.194534300619
 20
8336.365915108428
 30
0.0
 11
6749.194534300619
 21
7856.542247313351
 31
0.0
  0
LINE
  5
16CA5
330
156D2
100
AcDbEntity
  8
寸法
 62
     0
 48
50.0
370
    -2
100
AcDbLine
 10
7434.194534300615
 20
8336.365915108393
 30
0.0
 11
7434.194534300615
 21
7856.542247313351
 31
0.0
  0
LINE
  5
16CA6
330
156D2
100
AcDbEntity
  8
寸法
 62
     0
 48
50.0
370
    -2
100
AcDbLine
 10
6749.194534300619
 20
7916.542247313351
 30
0.0
 11
7434.194534300615
 21
7916.542247313351
 31
0.0
  0
INSERT
  5
16CA7
330
156D2
100
AcDbEntity
  8
寸法
 62
     0
 48
50.0
370
    -2
100
AcDbBlockReference
  2
_DOTSMALL
 10
6749.194534300619
 20
7916.542247313351
 30
0.0
 41
100.0
 42
100.0
 43
100.0
 50
180.0
  0
INSERT
  5
16CA8
330
156D2
100
AcDbEntity
  8
寸法
 62
     0
 48
50.0
370
    -2
100
AcDbBlockReference
  2
_DOTSMALL
 10
7434.194534300615
 20
7916.542247313351
 30
0.0
 41
100.0
 42
100.0
 43
100.0
  0
MTEXT
  5
16CA9
330
156D2
100
AcDbEntity
  8
寸法
 62
     7
 48
50.0
100
AcDbMText
 10
7091.694534300618
 20
8016.542247313351
 30
0.0
 40
120.0
 41
0.0
 71
     5
 72
     1
  1
\A1;685
  7
STYLE1
 73
     1
 44
1.0
1001
ACAD
1000
MTEXTBEGIN
1070
    73
1070
     1
1070
    44
1040
1.0
1070
    74
1070
     0
1000
MTEXTEND
  0
POINT
  5
16CAA
330
156D2
100
AcDbEntity
  8
DEFPOINTS
 62
     0
 48
50.0
100
AcDbPoint
 10
6749.194534300619
 20
8356.365915108428
 30
0.0
  0
POINT
  5
16CAB
330
156D2
100
AcDbEntity
  8
DEFPOINTS
 62
     0
 48
50.0
100
AcDbPoint
 10
7434.194534300615
 20
8356.365915108392
 30
0.0
  0
POINT
  5
16CAC
330
156D2
100
AcDbEntity
  8
DEFPOINTS
 62
     0
 48
50.0
100
AcDbPoint
 10
7434.194534300615
 20
7916.542247313351
 30
0.0
  0
ENDBLK
  5
156E8
330
156D2
100
AcDbEntity
  8
0
 48
50.0
100
AcDbBlockEnd
  0
BLOCK
  5
15CD1
330
15CD0
100
AcDbEntity
  8
0
 48
50.0
100
AcDbBlockBegin
  2
*D15
 70
     1
 10
0.0
 20
0.0
 30
0.0
  3
*D15
  1

  0
LINE
  5
16C80
330
15CD0
100
AcDbEntity
  8
寸法
 62
     0
 48
50.0
370
    -2
100
AcDbLine
 10
5799.194534300619
 20
8336.365915108428
 30
0.0
 11
5799.194534300619
 21
7856.542247313351
 31
0.0
  0
LINE
  5
16C81
330
15CD0
100
AcDbEntity
  8
寸法
 62
     0
 48
50.0
370
    -2
100
AcDbLine
 10
6484.194534300616
 20
8336.365915108393
 30
0.0
 11
6484.194534300616
 21
7856.542247313351
 31
0.0
  0
LINE
  5
16C82
330
15CD0
100
AcDbEntity
  8
寸法
 62
     0
 48
50.0
370
    -2
100
AcDbLine
 10
5799.194534300619
 20
7916.542247313351
 30
0.0
 11
6484.194534300616
 21
7916.542247313351
 31
0.0
  0
INSERT
  5
16C83
330
15CD0
100
AcDbEntity
  8
寸法
 62
     0
 48
50.0
370
    -2
100
AcDbBlockReference
  2
_DOTSMALL
 10
5799.194534300619
 20
7916.542247313351
 30
0.0
 41
100.0
 42
100.0
 43
100.0
 50
180.0
  0
INSERT
  5
16C84
330
15CD0
100
AcDbEntity
  8
寸法
 62
     0
 48
50.0
370
    -2
100
AcDbBlockReference
  2
_DOTSMALL
 10
6484.194534300616
 20
7916.542247313351
 30
0.0
 41
100.0
 42
100.0
 43
100.0
  0
MTEXT
  5
16C85
330
15CD0
100
AcDbEntity
  8
寸法
 62
     7
 48
50.0
100
AcDbMText
 10
6141.694534300618
 20
8016.542247313351
 30
0.0
 40
120.0
 41
0.0
 71
     5
 72
     1
  1
\A1;685
  7
STYLE1
 73
     1
 44
1.0
1001
ACAD
1000
MTEXTBEGIN
1070
    73
1070
     1
1070
    44
1040
1.0
1070
    74
1070
     0
1000
MTEXTEND
  0
POINT
  5
16C86
330
15CD0
100
AcDbEntity
  8
DEFPOINTS
 62
     0
 48
50.0
100
AcDbPoint
 10
5799.194534300619
 20
8356.365915108428
 30
0.0
  0
POINT
  5
16C87
330
15CD0
100
AcDbEntity
  8
DEFPOINTS
 62
     0
 48
50.0
100
AcDbPoint
 10
6484.194534300616
 20
8356.365915108392
 30
0.0
  0
POINT
  5
16C88
330
15CD0
100
AcDbEntity
  8
DEFPOINTS
 62
     0
 48
50.0
100
AcDbPoint
 10
6484.194534300616
 20
7916.542247313351
 30
0.0
  0
ENDBLK
  5
15CDB
330
15CD0
100
AcDbEntity
  8
0
 48
50.0
100
AcDbBlockEnd
  0
BLOCK
  5
15CDD
330
15CDC
100
AcDbEntity
  8
0
 48
50.0
100
AcDbBlockBegin
  2
*D16
 70
     1
 10
0.0
 20
0.0
 30
0.0
  3
*D16
  1

  0
LINE
  5
16C89
330
15CDC
100
AcDbEntity
  8
寸法
 62
     0
 48
50.0
370
    -2
100
AcDbLine
 10
5799.194534300623
 20
9326.365915108466
 30
0.0
 11
5799.194534300623
 21
9582.174134733532
 31
0.0
  0
LINE
  5
16C8A
330
15CDC
100
AcDbEntity
  8
寸法
 62
     0
 48
50.0
370
    -2
100
AcDbLine
 10
6639.194534300621
 20
9326.365915108551
 30
0.0
 11
6639.194534300621
 21
9582.174134733532
 31
0.0
  0
LINE
  5
16C8B
330
15CDC
100
AcDbEntity
  8
寸法
 62
     0
 48
50.0
370
    -2
100
AcDbLine
 10
5799.194534300623
 20
9522.174134733534
 30
0.0
 11
6639.194534300621
 21
9522.174134733534
 31
0.0
  0
INSERT
  5
16C8C
330
15CDC
100
AcDbEntity
  8
寸法
 62
     0
 48
50.0
370
    -2
100
AcDbBlockReference
  2
_DOTSMALL
 10
5799.194534300623
 20
9522.174134733534
 30
0.0
 41
100.0
 42
100.0
 43
100.0
 50
180.0
  0
INSERT
  5
16C8D
330
15CDC
100
AcDbEntity
  8
寸法
 62
     0
 48
50.0
370
    -2
100
AcDbBlockReference
  2
_DOTSMALL
 10
6639.194534300621
 20
9522.174134733534
 30
0.0
 41
100.0
 42
100.0
 43
100.0
  0
MTEXT
  5
16C8E
330
15CDC
100
AcDbEntity
  8
寸法
 62
     7
 48
50.0
100
AcDbMText
 10
6219.194534300622
 20
9622.185945757156
 30
0.0
 40
120.0
 41
0.0
 71
     5
 72
     1
  1
\A1;2X420=840
  7
STYLE1
 73
     1
 44
1.0
1001
ACAD
1000
MTEXTBEGIN
1070
    73
1070
     1
1070
    44
1040
1.0
1070
    74
1070
     0
1000
MTEXTEND
  0
POINT
  5
16C8F
330
15CDC
100
AcDbEntity
  8
DEFPOINTS
 62
     0
 48
50.0
100
AcDbPoint
 10
5799.194534300623
 20
9306.365915108465
 30
0.0
  0
POINT
  5
16C90
330
15CDC
100
AcDbEntity
  8
DEFPOINTS
 62
     0
 48
50.0
100
AcDbPoint
 10
6639.194534300621
 20
9306.365915108552
 30
0.0
  0
POINT
  5
16C91
330
15CDC
100
AcDbEntity
  8
DEFPOINTS
 62
     0
 48
50.0
100
AcDbPoint
 10
6639.194534300621
 20
9522.174134733534
 30
0.0
  0
ENDBLK
  5
15CE7
330
15CDC
100
AcDbEntity
  8
0
 48
50.0
100
AcDbBlockEnd
  0
BLOCK
  5
15CE9
330
15CE8
100
AcDbEntity
  8
0
 48
50.0
100
AcDbBlockBegin
  2
*D17
 70
     1
 10
0.0
 20
0.0
 30
0.0
  3
*D17
  1

  0
LINE
  5
16C92
330
15CE8
100
AcDbEntity
  8
寸法
 62
     0
 48
50.0
370
    -2
100
AcDbLine
 10
5689.194534300622
 20
9326.365915108551
 30
0.0
 11
5689.194534300622
 21
9582.174134733532
 31
0.0
  0
LINE
  5
16C93
330
15CE8
100
AcDbEntity
  8
寸法
 62
     0
 48
50.0
370
    -2
100
AcDbLine
 10
5799.194534300625
 20
9326.36591510853
 30
0.0
 11
5799.194534300625
 21
9582.174134733532
 31
0.0
  0
LINE
  5
16C94
330
15CE8
100
AcDbEntity
  8
寸法
 62
     0
 48
50.0
370
    -2
100
AcDbLine
 10
5689.194534300622
 20
9522.174134733534
 30
0.0
 11
5799.194534300625
 21
9522.174134733534
 31
0.0
  0
MTEXT
  5
16C95
330
15CE8
100
AcDbEntity
  8
寸法
 62
     7
 48
50.0
100
AcDbMText
 10
5744.194534300623
 20
9779.050803348036
 30
0.0
 40
120.0
 41
0.0
 71
     5
 72
     1
  1
\A1;110
  7
STYLE1
 73
     1
 44
1.0
1001
ACAD
1000
MTEXTBEGIN
1070
    73
1070
     1
1070
    44
1040
1.0
1070
    74
1070
     0
1000
MTEXTEND
  0
INSERT
  5
16C96
330
15CE8
100
AcDbEntity
  8
寸法
 62
     0
 48
50.0
370
    -2
100
AcDbBlockReference
  2
_DOTSMALL
 10
5689.194534300622
 20
9522.174134733534
 30
0.0
 41
100.0
 42
100.0
 43
100.0
 50
180.0
  0
INSERT
  5
16C97
330
15CE8
100
AcDbEntity
  8
寸法
 62
     0
 48
50.0
370
    -2
100
AcDbBlockReference
  2
_DOTSMALL
 10
5799.194534300625
 20
9522.174134733534
 30
0.0
 41
100.0
 42
100.0
 43
100.0
  0
POINT
  5
16C98
330
15CE8
100
AcDbEntity
  8
DEFPOINTS
 62
     0
 48
50.0
100
AcDbPoint
 10
5689.194534300622
 20
9306.365915108552
 30
0.0
  0
POINT
  5
16C99
330
15CE8
100
AcDbEntity
  8
DEFPOINTS
 62
     0
 48
50.0
100
AcDbPoint
 10
5799.194534300625
 20
9306.36591510853
 30
0.0
  0
POINT
  5
16C9A
330
15CE8
100
AcDbEntity
  8
DEFPOINTS
 62
     0
 48
50.0
100
AcDbPoint
 10
5799.194534300625
 20
9522.174134733534
 30
0.0
  0
ENDBLK
  5
15CF3
330
15CE8
100
AcDbEntity
  8
0
 48
50.0
100
AcDbBlockEnd
  0
BLOCK
  5
15CF5
330
15CF4
100
AcDbEntity
  8
0
 48
50.0
100
AcDbBlockBegin
  2
*D18
 70
     1
 10
0.0
 20
0.0
 30
0.0
  3
*D18
  1

  0
LINE
  5
16C9B
330
15CF4
100
AcDbEntity
  8
寸法
 62
     0
 48
50.0
370
    -2
100
AcDbLine
 10
4849.194534300623
 20
9326.365915108466
 30
0.0
 11
4849.194534300623
 21
9582.174134733532
 31
0.0
  0
LINE
  5
16C9C
330
15CF4
100
AcDbEntity
  8
寸法
 62
     0
 48
50.0
370
    -2
100
AcDbLine
 10
5689.194534300622
 20
9326.365915108551
 30
0.0
 11
5689.194534300622
 21
9582.174134733532
 31
0.0
  0
LINE
  5
16C9D
330
15CF4
100
AcDbEntity
  8
寸法
 62
     0
 48
50.0
370
    -2
100
AcDbLine
 10
4849.194534300623
 20
9522.174134733534
 30
0.0
 11
5689.194534300622
 21
9522.174134733534
 31
0.0
  0
INSERT
  5
16C9E
330
15CF4
100
AcDbEntity
  8
寸法
 62
     0
 48
50.0
370
    -2
100
AcDbBlockReference
  2
_DOTSMALL
 10
4849.194534300623
 20
9522.174134733534
 30
0.0
 41
100.0
 42
100.0
 43
100.0
 50
180.0
  0
INSERT
  5
16C9F
330
15CF4
100
AcDbEntity
  8
寸法
 62
     0
 48
50.0
370
    -2
100
AcDbBlockReference
  2
_DOTSMALL
 10
5689.194534300622
 20
9522.174134733534
 30
0.0
 41
100.0
 42
100.0
 43
100.0
  0
MTEXT
  5
16CA0
330
15CF4
100
AcDbEntity
  8
寸法
 62
     7
 48
50.0
100
AcDbMText
 10
5269.194534300622
 20
9622.185945757156
 30
0.0
 40
120.0
 41
0.0
 71
     5
 72
     1
  1
\A1;2X420=840
  7
STYLE1
 73
     1
 44
1.0
1001
ACAD
1000
MTEXTBEGIN
1070
    73
1070
     1
1070
    44
1040
1.0
1070
    74
1070
     0
1000
MTEXTEND
  0
POINT
  5
16CA1
330
15CF4
100
AcDbEntity
  8
DEFPOINTS
 62
     0
 48
50.0
100
AcDbPoint
 10
4849.194534300623
 20
9306.365915108465
 30
0.0
  0
POINT
  5
16CA2
330
15CF4
100
AcDbEntity
  8
DEFPOINTS
 62
     0
 48
50.0
100
AcDbPoint
 10
5689.194534300622
 20
9306.365915108552
 30
0.0
  0
POINT
  5
16CA3
330
15CF4
100
AcDbEntity
  8
DEFPOINTS
 62
     0
 48
50.0
100
AcDbPoint
 10
5689.194534300622
 20
9522.174134733534
 30
0.0
  0
ENDBLK
  5
15CFF
330
15CF4
100
AcDbEntity
  8
0
 48
50.0
100
AcDbBlockEnd
  0
BLOCK
  5
15EE6
330
15EE5
100
AcDbEntity
  8
0
 48
50.0
100
AcDbBlockBegin
  2
*D19
 70
     1
 10
0.0
 20
0.0
 30
0.0
  3
*D19
  1

  0
LINE
  5
16C77
330
15EE5
100
AcDbEntity
  8
寸法
 62
     0
 48
50.0
370
    -2
100
AcDbLine
 10
7699.19453430062
 20
8336.365915108428
 30
0.0
 11
7699.19453430062
 21
7856.542247313351
 31
0.0
  0
LINE
  5
16C78
330
15EE5
100
AcDbEntity
  8
寸法
 62
     0
 48
50.0
370
    -2
100
AcDbLine
 10
8384.194534300617
 20
8336.365915108393
 30
0.0
 11
8384.194534300617
 21
7856.542247313351
 31
0.0
  0
LINE
  5
16C79
330
15EE5
100
AcDbEntity
  8
寸法
 62
     0
 48
50.0
370
    -2
100
AcDbLine
 10
7699.19453430062
 20
7916.542247313351
 30
0.0
 11
8384.194534300617
 21
7916.542247313351
 31
0.0
  0
INSERT
  5
16C7A
330
15EE5
100
AcDbEntity
  8
寸法
 62
     0
 48
50.0
370
    -2
100
AcDbBlockReference
  2
_DOTSMALL
 10
7699.19453430062
 20
7916.542247313351
 30
0.0
 41
100.0
 42
100.0
 43
100.0
 50
180.0
  0
INSERT
  5
16C7B
330
15EE5
100
AcDbEntity
  8
寸法
 62
     0
 48
50.0
370
    -2
100
AcDbBlockReference
  2
_DOTSMALL
 10
8384.194534300617
 20
7916.542247313351
 30
0.0
 41
100.0
 42
100.0
 43
100.0
  0
MTEXT
  5
16C7C
330
15EE5
100
AcDbEntity
  8
寸法
 62
     7
 48
50.0
100
AcDbMText
 10
8041.694534300617
 20
8116.542247313352
 30
0.0
 40
120.0
 41
0.0
 71
     5
 72
     1
  1
\A1;有効開口部間口\P685
  7
STYLE1
 73
     1
 44
1.0
1001
ACAD
1000
MTEXTBEGIN
1070
    73
1070
     1
1070
    44
1040
1.0
1070
    74
1070
     0
1000
MTEXTEND
  0
POINT
  5
16C7D
330
15EE5
100
AcDbEntity
  8
DEFPOINTS
 62
     0
 48
50.0
100
AcDbPoint
 10
7699.19453430062
 20
8356.365915108428
 30
0.0
  0
POINT
  5
16C7E
330
15EE5
100
AcDbEntity
  8
DEFPOINTS
 62
     0
 48
50.0
100
AcDbPoint
 10
8384.194534300617
 20
8356.365915108392
 30
0.0
  0
POINT
  5
16C7F
330
15EE5
100
AcDbEntity
  8
DEFPOINTS
 62
     0
 48
50.0
100
AcDbPoint
 10
8384.194534300617
 20
7916.542247313351
 30
0.0
  0
ENDBLK
  5
15EF0
330
15EE5
100
AcDbEntity
  8
0
 48
50.0
100
AcDbBlockEnd
  0
BLOCK
  5
15F00
330
15EFF
100
AcDbEntity
  8
0
 48
50.0
100
AcDbBlockBegin
  2
*D20
 70
     1
 10
0.0
 20
0.0
 30
0.0
  3
*D20
  1

  0
LINE
  5
16C6E
330
15EFF
100
AcDbEntity
  8
寸法
 62
     0
 48
50.0
370
    -2
100
AcDbLine
 10
4849.194534300619
 20
8336.365915108428
 30
0.0
 11
4849.194534300619
 21
7856.542247313351
 31
0.0
  0
LINE
  5
16C6F
330
15EFF
100
AcDbEntity
  8
寸法
 62
     0
 48
50.0
370
    -2
100
AcDbLine
 10
5534.194534300616
 20
8336.365915108393
 30
0.0
 11
5534.194534300616
 21
7856.542247313351
 31
0.0
  0
LINE
  5
16C70
330
15EFF
100
AcDbEntity
  8
寸法
 62
     0
 48
50.0
370
    -2
100
AcDbLine
 10
4849.194534300619
 20
7916.542247313351
 30
0.0
 11
5534.194534300616
 21
7916.542247313351
 31
0.0
  0
INSERT
  5
16C71
330
15EFF
100
AcDbEntity
  8
寸法
 62
     0
 48
50.0
370
    -2
100
AcDbBlockReference
  2
_DOTSMALL
 10
4849.194534300619
 20
7916.542247313351
 30
0.0
 41
100.0
 42
100.0
 43
100.0
 50
180.0
  0
INSERT
  5
16C72
330
15EFF
100
AcDbEntity
  8
寸法
 62
     0
 48
50.0
370
    -2
100
AcDbBlockReference
  2
_DOTSMALL
 10
5534.194534300616
 20
7916.542247313351
 30
0.0
 41
100.0
 42
100.0
 43
100.0
  0
MTEXT
  5
16C73
330
15EFF
100
AcDbEntity
  8
寸法
 62
     7
 48
50.0
100
AcDbMText
 10
5191.694534300618
 20
8016.542247313351
 30
0.0
 40
120.0
 41
0.0
 71
     5
 72
     1
  1
\A1;685
  7
STYLE1
 73
     1
 44
1.0
1001
ACAD
1000
MTEXTBEGIN
1070
    73
1070
     1
1070
    44
1040
1.0
1070
    74
1070
     0
1000
MTEXTEND
  0
POINT
  5
16C74
330
15EFF
100
AcDbEntity
  8
DEFPOINTS
 62
     0
 48
50.0
100
AcDbPoint
 10
4849.194534300619
 20
8356.365915108428
 30
0.0
  0
POINT
  5
16C75
330
15EFF
100
AcDbEntity
  8
DEFPOINTS
 62
     0
 48
50.0
100
AcDbPoint
 10
5534.194534300616
 20
8356.365915108392
 30
0.0
  0
POINT
  5
16C76
330
15EFF
100
AcDbEntity
  8
DEFPOINTS
 62
     0
 48
50.0
100
AcDbPoint
 10
5534.194534300616
 20
7916.542247313351
 30
0.0
  0
ENDBLK
  5
15F0A
330
15EFF
100
AcDbEntity
  8
0
 48
50.0
100
AcDbBlockEnd
  0
BLOCK
  5
16677
330
1666D
100
AcDbEntity
  8
0
 48
50.0
100
AcDbBlockBegin
  2
*D21
 70
     1
 10
0.0
 20
0.0
 30
0.0
  3
*D21
  1

  0
LINE
  5
16C65
330
1666D
100
AcDbEntity
  8
寸法
 62
     0
 48
50.0
370
    -2
100
AcDbLine
 10
4817.835557129598
 20
8806.865915108405
 30
0.0
 11
4748.424093138374
 21
8547.818804865421
 31
0.0
  0
LINE
  5
16C66
330
1666D
100
AcDbEntity
  8
寸法
 62
     0
 48
50.0
370
    -2
100
AcDbLine
 10
5709.835557129609
 20
8806.865915108401
 30
0.0
 11
5640.424093138386
 21
8547.818804865421
 31
0.0
  0
LINE
  5
16C67
330
1666D
100
AcDbEntity
  8
寸法
 62
     0
 48
50.0
370
    -2
100
AcDbLine
 10
4764.501044684242
 20
8607.818804865422
 30
0.0
 11
5656.501044684254
 21
8607.818804865422
 31
0.0
  0
MTEXT
  5
16C68
330
1666D
100
AcDbEntity
  8
寸法
 62
     7
 48
50.0
100
AcDbMText
 10
5314.320355754142
 20
8711.102920258417
 30
0.0
 40
120.0
 41
0.0
 71
     5
 72
     1
  1
\A1;892
  7
STYLE1
 73
     1
 44
1.0
1001
ACAD
1000
MTEXTBEGIN
1070
    73
1070
     1
1070
    44
1040
1.0
1070
    74
1070
     0
1000
MTEXTEND
  0
INSERT
  5
16C69
330
1666D
100
AcDbEntity
  8
寸法
 62
     0
 48
50.0
370
    -2
100
AcDbBlockReference
  2
_DOTSMALL
 10
4764.501044684242
 20
8607.818804865422
 30
0.0
 41
100.0
 42
100.0
 43
100.0
 50
180.0
  0
INSERT
  5
16C6A
330
1666D
100
AcDbEntity
  8
寸法
 62
     0
 48
50.0
370
    -2
100
AcDbBlockReference
  2
_DOTSMALL
 10
5656.501044684254
 20
8607.818804865422
 30
0.0
 41
100.0
 42
100.0
 43
100.0
  0
POINT
  5
16C6B
330
1666D
100
AcDbEntity
  8
DEFPOINTS
 62
     0
 48
50.0
100
AcDbPoint
 10
4823.194540978221
 20
8826.865915108404
 30
0.0
  0
POINT
  5
16C6C
330
1666D
100
AcDbEntity
  8
DEFPOINTS
 62
     0
 48
50.0
100
AcDbPoint
 10
5715.194540978231
 20
8826.865915108401
 30
0.0
  0
POINT
  5
16C6D
330
1666D
100
AcDbEntity
  8
DEFPOINTS
 62
     0
 48
50.0
100
AcDbPoint
 10
5656.501044684254
 20
8607.818804865422
 30
0.0
  0
ENDBLK
  5
16678
330
1666D
100
AcDbEntity
  8
0
 48
50.0
100
AcDbBlockEnd
  0
BLOCK
  5
16683
330
16679
100
AcDbEntity
  8
0
 48
50.0
100
AcDbBlockBegin
  2
*D22
 70
     1
 10
0.0
 20
0.0
 30
0.0
  3
*D22
  1

  0
LINE
  5
16C5C
330
16679
100
AcDbEntity
  8
寸法
 62
     0
 48
50.0
370
    -2
100
AcDbLine
 10
5767.835557129598
 20
8806.865915108405
 30
0.0
 11
5698.424093138374
 21
8547.818804865421
 31
0.0
  0
LINE
  5
16C5D
330
16679
100
AcDbEntity
  8
寸法
 62
     0
 48
50.0
370
    -2
100
AcDbLine
 10
6659.835557129608
 20
8806.865915108401
 30
0.0
 11
6590.424093138385
 21
8547.818804865421
 31
0.0
  0
LINE
  5
16C5E
330
16679
100
AcDbEntity
  8
寸法
 62
     0
 48
50.0
370
    -2
100
AcDbLine
 10
5714.501044684242
 20
8607.818804865422
 30
0.0
 11
6606.501044684254
 21
8607.818804865422
 31
0.0
  0
MTEXT
  5
16C5F
330
16679
100
AcDbEntity
  8
寸法
 62
     7
 48
50.0
100
AcDbMText
 10
6264.320355754142
 20
8711.102920258417
 30
0.0
 40
120.0
 41
0.0
 71
     5
 72
     1
  1
\A1;892
  7
STYLE1
 73
     1
 44
1.0
1001
ACAD
1000
MTEXTBEGIN
1070
    73
1070
     1
1070
    44
1040
1.0
1070
    74
1070
     0
1000
MTEXTEND
  0
INSERT
  5
16C60
330
16679
100
AcDbEntity
  8
寸法
 62
     0
 48
50.0
370
    -2
100
AcDbBlockReference
  2
_DOTSMALL
 10
5714.501044684242
 20
8607.818804865422
 30
0.0
 41
100.0
 42
100.0
 43
100.0
 50
180.0
  0
INSERT
  5
16C61
330
16679
100
AcDbEntity
  8
寸法
 62
     0
 48
50.0
370
    -2
100
AcDbBlockReference
  2
_DOTSMALL
 10
6606.501044684254
 20
8607.818804865422
 30
0.0
 41
100.0
 42
100.0
 43
100.0
  0
POINT
  5
16C62
330
16679
100
AcDbEntity
  8
DEFPOINTS
 62
     0
 48
50.0
100
AcDbPoint
 10
5773.19454097822
 20
8826.865915108404
 30
0.0
  0
POINT
  5
16C63
330
16679
100
AcDbEntity
  8
DEFPOINTS
 62
     0
 48
50.0
100
AcDbPoint
 10
6665.194540978231
 20
8826.865915108401
 30
0.0
  0
POINT
  5
16C64
330
16679
100
AcDbEntity
  8
DEFPOINTS
 62
     0
 48
50.0
100
AcDbPoint
 10
6606.501044684254
 20
8607.818804865422
 30
0.0
  0
ENDBLK
  5
16684
330
16679
100
AcDbEntity
  8
0
 48
50.0
100
AcDbBlockEnd
  0
BLOCK
  5
1668F
330
16685
100
AcDbEntity
  8
0
 48
50.0
100
AcDbBlockBegin
  2
*D23
 70
     1
 10
0.0
 20
0.0
 30
0.0
  3
*D23
  1

  0
LINE
  5
16C53
330
16685
100
AcDbEntity
  8
寸法
 62
     0
 48
50.0
370
    -2
100
AcDbLine
 10
6717.835557129598
 20
8806.865915108405
 30
0.0
 11
6648.424093138373
 21
8547.818804865421
 31
0.0
  0
LINE
  5
16C54
330
16685
100
AcDbEntity
  8
寸法
 62
     0
 48
50.0
370
    -2
100
AcDbLine
 10
7609.83555712961
 20
8806.865915108401
 30
0.0
 11
7540.424093138385
 21
8547.818804865421
 31
0.0
  0
LINE
  5
16C55
330
16685
100
AcDbEntity
  8
寸法
 62
     0
 48
50.0
370
    -2
100
AcDbLine
 10
6664.501044684242
 20
8607.818804865422
 30
0.0
 11
7556.501044684253
 21
8607.818804865422
 31
0.0
  0
MTEXT
  5
16C56
330
16685
100
AcDbEntity
  8
寸法
 62
     7
 48
50.0
100
AcDbMText
 10
7207.849192859896
 20
8712.904080641951
 30
0.0
 40
120.0
 41
0.0
 71
     5
 72
     1
  1
\A1;892
  7
STYLE1
 73
     1
 44
1.0
1001
ACAD
1000
MTEXTBEGIN
1070
    73
1070
     1
1070
    44
1040
1.0
1070
    74
1070
     0
1000
MTEXTEND
  0
INSERT
  5
16C57
330
16685
100
AcDbEntity
  8
寸法
 62
     0
 48
50.0
370
    -2
100
AcDbBlockReference
  2
_DOTSMALL
 10
6664.501044684242
 20
8607.818804865422
 30
0.0
 41
100.0
 42
100.0
 43
100.0
 50
180.0
  0
INSERT
  5
16C58
330
16685
100
AcDbEntity
  8
寸法
 62
     0
 48
50.0
370
    -2
100
AcDbBlockReference
  2
_DOTSMALL
 10
7556.501044684253
 20
8607.818804865422
 30
0.0
 41
100.0
 42
100.0
 43
100.0
  0
POINT
  5
16C59
330
16685
100
AcDbEntity
  8
DEFPOINTS
 62
     0
 48
50.0
100
AcDbPoint
 10
6723.194540978219
 20
8826.865915108404
 30
0.0
  0
POINT
  5
16C5A
330
16685
100
AcDbEntity
  8
DEFPOINTS
 62
     0
 48
50.0
100
AcDbPoint
 10
7615.194540978231
 20
8826.865915108401
 30
0.0
  0
POINT
  5
16C5B
330
16685
100
AcDbEntity
  8
DEFPOINTS
 62
     0
 48
50.0
100
AcDbPoint
 10
7556.501044684253
 20
8607.818804865422
 30
0.0
  0
ENDBLK
  5
16690
330
16685
100
AcDbEntity
  8
0
 48
50.0
100
AcDbBlockEnd
  0
BLOCK
  5
1669C
330
16691
100
AcDbEntity
  8
0
 48
50.0
100
AcDbBlockBegin
  2
*D24
 70
     1
 10
0.0
 20
0.0
 30
0.0
  3
*D24
  1

  0
LINE
  5
16C49
330
16691
100
AcDbEntity
  8
寸法
 62
     0
 48
50.0
370
    -2
100
AcDbLine
 10
11479.99191610809
 20
5611.387956505514
 30
0.0
 11
11479.99191610809
 21
6103.234730473165
 31
0.0
  0
LINE
  5
16C4A
330
16691
100
AcDbEntity
  8
寸法
 62
     0
 48
50.0
370
    -2
100
AcDbLine
 10
11559.99191610809
 20
5609.577276893862
 30
0.0
 11
11559.99191610809
 21
6103.234730473165
 31
0.0
  0
LINE
  5
16C4B
330
16691
100
AcDbEntity
  8
寸法
 62
     0
 48
50.0
370
    -2
100
AcDbLine
 10
11479.99191610809
 20
6043.234730473165
 30
0.0
 11
11559.99191610809
 21
6043.234730473165
 31
0.0
  0
LINE
  5
16C4C
330
16691
100
AcDbEntity
  8
寸法
 62
     0
 48
50.0
370
    -2
100
AcDbLine
 10
11559.99191610809
 20
6043.234730473165
 30
0.0
 11
11872.08640429707
 21
6043.234730473165
 31
0.0
  0
INSERT
  5
16C4D
330
16691
100
AcDbEntity
  8
寸法
 62
     0
 48
50.0
370
    -2
100
AcDbBlockReference
  2
_DOTSMALL
 10
11479.99191610809
 20
6043.234730473165
 30
0.0
 41
100.0
 42
100.0
 43
100.0
 50
180.0
  0
INSERT
  5
16C4E
330
16691
100
AcDbEntity
  8
寸法
 62
     0
 48
50.0
370
    -2
100
AcDbBlockReference
  2
_DOTSMALL
 10
11559.99191610809
 20
6043.234730473165
 30
0.0
 41
100.0
 42
100.0
 43
100.0
  0
MTEXT
  5
16C4F
330
16691
100
AcDbEntity
  8
寸法
 62
     7
 48
50.0
100
AcDbMText
 10
11766.03916020258
 20
6143.234730473165
 30
0.0
 40
120.0
 41
0.0
 71
     5
 72
     1
  1
\A1;80
  7
STYLE1
 73
     1
 44
1.0
1001
ACAD
1000
MTEXTBEGIN
1070
    73
1070
     1
1070
    44
1040
1.0
1070
    74
1070
     0
1000
MTEXTEND
  0
POINT
  5
16C50
330
16691
100
AcDbEntity
  8
DEFPOINTS
 62
     0
 48
50.0
100
AcDbPoint
 10
11479.99191610809
 20
5591.387956505514
 30
0.0
  0
POINT
  5
16C51
330
16691
100
AcDbEntity
  8
DEFPOINTS
 62
     0
 48
50.0
100
AcDbPoint
 10
11559.99191610809
 20
5589.577276893862
 30
0.0
  0
POINT
  5
16C52
330
16691
100
AcDbEntity
  8
DEFPOINTS
 62
     0
 48
50.0
100
AcDbPoint
 10
11559.99191610809
 20
6043.234730473165
 30
0.0
  0
ENDBLK
  5
1669D
330
16691
100
AcDbEntity
  8
0
 48
50.0
100
AcDbBlockEnd
  0
BLOCK
  5
166A8
330
1669E
100
AcDbEntity
  8
0
 48
50.0
100
AcDbBlockBegin
  2
*D25
 70
     1
 10
0.0
 20
0.0
 30
0.0
  3
*D25
  1

  0
LINE
  5
16C40
330
1669E
100
AcDbEntity
  8
寸法
 62
     0
 48
50.0
370
    -2
100
AcDbLine
 10
11559.99191610809
 20
5609.577276893862
 30
0.0
 11
11559.99191610809
 21
6312.828604894615
 31
0.0
  0
LINE
  5
16C41
330
1669E
100
AcDbEntity
  8
寸法
 62
     0
 48
50.0
370
    -2
100
AcDbLine
 10
10469.9919161081
 20
5664.577276893866
 30
0.0
 11
10469.9919161081
 21
6312.828604894615
 31
0.0
  0
LINE
  5
16C42
330
1669E
100
AcDbEntity
  8
寸法
 62
     0
 48
50.0
370
    -2
100
AcDbLine
 10
11559.99191610809
 20
6252.828604894616
 30
0.0
 11
10469.9919161081
 21
6252.828604894616
 31
0.0
  0
INSERT
  5
16C43
330
1669E
100
AcDbEntity
  8
寸法
 62
     0
 48
50.0
370
    -2
100
AcDbBlockReference
  2
_DOTSMALL
 10
11559.99191610809
 20
6252.828604894616
 30
0.0
 41
100.0
 42
100.0
 43
100.0
  0
INSERT
  5
16C44
330
1669E
100
AcDbEntity
  8
寸法
 62
     0
 48
50.0
370
    -2
100
AcDbBlockReference
  2
_DOTSMALL
 10
10469.9919161081
 20
6252.828604894616
 30
0.0
 41
100.0
 42
100.0
 43
100.0
 50
180.0
  0
MTEXT
  5
16C45
330
1669E
100
AcDbEntity
  8
寸法
 62
     7
 48
50.0
100
AcDbMText
 10
10993.11063078852
 20
6352.828604894615
 30
0.0
 40
120.0
 41
0.0
 71
     5
 72
     1
  1
\A1;1090
  7
STYLE1
 73
     1
 44
1.0
1001
ACAD
1000
MTEXTBEGIN
1070
    73
1070
     1
1070
    44
1040
1.0
1070
    74
1070
     0
1000
MTEXTEND
  0
POINT
  5
16C46
330
1669E
100
AcDbEntity
  8
DEFPOINTS
 62
     0
 48
50.0
100
AcDbPoint
 10
11559.99191610809
 20
5589.577276893862
 30
0.0
  0
POINT
  5
16C47
330
1669E
100
AcDbEntity
  8
DEFPOINTS
 62
     0
 48
50.0
100
AcDbPoint
 10
10469.9919161081
 20
5644.577276893866
 30
0.0
  0
POINT
  5
16C48
330
1669E
100
AcDbEntity
  8
DEFPOINTS
 62
     0
 48
50.0
100
AcDbPoint
 10
10469.9919161081
 20
6252.828604894616
 30
0.0
  0
ENDBLK
  5
166A9
330
1669E
100
AcDbEntity
  8
0
 48
50.0
100
AcDbBlockEnd
  0
BLOCK
  5
166B6
330
166AA
100
AcDbEntity
  8
0
 48
50.0
100
AcDbBlockBegin
  2
*D26
 70
     1
 10
0.0
 20
0.0
 30
0.0
  3
*D26
  1

  0
LINE
  5
16C35
330
166AA
100
AcDbEntity
  8
寸法
 62
     0
 48
50.0
370
    -2
100
AcDbLine
 10
10529.9919161081
 20
5660.578895016837
 30
0.0
 11
10529.9919161081
 21
6103.234730473165
 31
0.0
  0
LINE
  5
16C36
330
166AA
100
AcDbEntity
  8
寸法
 62
     0
 48
50.0
370
    -2
100
AcDbLine
 10
10469.9919161081
 20
5664.577276893866
 30
0.0
 11
10469.9919161081
 21
6103.234730473165
 31
0.0
  0
LINE
  5
16C37
330
166AA
100
AcDbEntity
  8
寸法
 62
     0
 48
50.0
370
    -2
100
AcDbLine
 10
10529.9919161081
 20
6043.234730473165
 30
0.0
 11
10629.9919161081
 21
6043.234730473165
 31
0.0
  0
LINE
  5
16C38
330
166AA
100
AcDbEntity
  8
寸法
 62
     0
 48
50.0
370
    -2
100
AcDbLine
 10
10469.9919161081
 20
6043.234730473165
 30
0.0
 11
10050.71632555692
 21
6043.234730473165
 31
0.0
  0
LINE
  5
16C39
330
166AA
100
AcDbEntity
  8
寸法
 62
     0
 48
50.0
370
    -2
100
AcDbLine
 10
10529.9919161081
 20
6043.234730473165
 30
0.0
 11
10469.9919161081
 21
6043.234730473165
 31
0.0
  0
INSERT
  5
16C3A
330
166AA
100
AcDbEntity
  8
寸法
 62
     0
 48
50.0
370
    -2
100
AcDbBlockReference
  2
_DOTSMALL
 10
10529.9919161081
 20
6043.234730473165
 30
0.0
 41
100.0
 42
100.0
 43
100.0
 50
180.0
  0
INSERT
  5
16C3B
330
166AA
100
AcDbEntity
  8
寸法
 62
     0
 48
50.0
370
    -2
100
AcDbBlockReference
  2
_DOTSMALL
 10
10469.9919161081
 20
6043.234730473165
 30
0.0
 41
100.0
 42
100.0
 43
100.0
  0
MTEXT
  5
16C3C
330
166AA
100
AcDbEntity
  8
寸法
 62
     7
 48
50.0
100
AcDbMText
 10
10160.35412083251
 20
6143.234730473165
 30
0.0
 40
120.0
 41
0.0
 71
     5
 72
     1
  1
\A1;60
  7
STYLE1
 73
     1
 44
1.0
1001
ACAD
1000
MTEXTBEGIN
1070
    73
1070
     1
1070
    44
1040
1.0
1070
    74
1070
     0
1000
MTEXTEND
  0
POINT
  5
16C3D
330
166AA
100
AcDbEntity
  8
DEFPOINTS
 62
     0
 48
50.0
100
AcDbPoint
 10
10529.9919161081
 20
5640.578895016837
 30
0.0
  0
POINT
  5
16C3E
330
166AA
100
AcDbEntity
  8
DEFPOINTS
 62
     0
 48
50.0
100
AcDbPoint
 10
10469.9919161081
 20
5644.577276893866
 30
0.0
  0
POINT
  5
16C3F
330
166AA
100
AcDbEntity
  8
DEFPOINTS
 62
     0
 48
50.0
100
AcDbPoint
 10
10469.9919161081
 20
6043.234730473165
 30
0.0
  0
ENDBLK
  5
166B7
330
166AA
100
AcDbEntity
  8
0
 48
50.0
100
AcDbBlockEnd
  0
BLOCK
  5
166C2
330
166B8
100
AcDbEntity
  8
0
 48
50.0
100
AcDbBlockBegin
  2
*D27
 70
     1
 10
0.0
 20
0.0
 30
0.0
  3
*D27
  1

  0
LINE
  5
16C2C
330
166B8
100
AcDbEntity
  8
寸法
 62
     0
 48
50.0
370
    -2
100
AcDbLine
 10
11479.99191610809
 20
5611.387956505514
 30
0.0
 11
11479.99191610809
 21
6103.234730473165
 31
0.0
  0
LINE
  5
16C2D
330
166B8
100
AcDbEntity
  8
寸法
 62
     0
 48
50.0
370
    -2
100
AcDbLine
 10
10529.9919161081
 20
5660.578895016837
 30
0.0
 11
10529.9919161081
 21
6103.234730473165
 31
0.0
  0
LINE
  5
16C2E
330
166B8
100
AcDbEntity
  8
寸法
 62
     0
 48
50.0
370
    -2
100
AcDbLine
 10
11479.99191610809
 20
6043.234730473165
 30
0.0
 11
10529.9919161081
 21
6043.234730473165
 31
0.0
  0
INSERT
  5
16C2F
330
166B8
100
AcDbEntity
  8
寸法
 62
     0
 48
50.0
370
    -2
100
AcDbBlockReference
  2
_DOTSMALL
 10
11479.99191610809
 20
6043.234730473165
 30
0.0
 41
100.0
 42
100.0
 43
100.0
  0
INSERT
  5
16C30
330
166B8
100
AcDbEntity
  8
寸法
 62
     0
 48
50.0
370
    -2
100
AcDbBlockReference
  2
_DOTSMALL
 10
10529.9919161081
 20
6043.234730473165
 30
0.0
 41
100.0
 42
100.0
 43
100.0
 50
180.0
  0
MTEXT
  5
16C31
330
166B8
100
AcDbEntity
  8
寸法
 62
     7
 48
50.0
100
AcDbMText
 10
11004.9919161081
 20
6143.234730473165
 30
0.0
 40
120.0
 41
0.0
 71
     5
 72
     1
  1
\A1;柱外寸法950
  7
STYLE1
 73
     1
 44
1.0
1001
ACAD
1000
MTEXTBEGIN
1070
    73
1070
     1
1070
    44
1040
1.0
1070
    74
1070
     0
1000
MTEXTEND
  0
POINT
  5
16C32
330
166B8
100
AcDbEntity
  8
DEFPOINTS
 62
     0
 48
50.0
100
AcDbPoint
 10
11479.99191610809
 20
5591.387956505514
 30
0.0
  0
POINT
  5
16C33
330
166B8
100
AcDbEntity
  8
DEFPOINTS
 62
     0
 48
50.0
100
AcDbPoint
 10
10529.9919161081
 20
5640.578895016837
 30
0.0
  0
POINT
  5
16C34
330
166B8
100
AcDbEntity
  8
DEFPOINTS
 62
     0
 48
50.0
100
AcDbPoint
 10
10529.9919161081
 20
6043.234730473165
 30
0.0
  0
ENDBLK
  5
166C3
330
166B8
100
AcDbEntity
  8
0
 48
50.0
100
AcDbBlockEnd
  0
BLOCK
  5
166CE
330
166C4
100
AcDbEntity
  8
0
 48
50.0
100
AcDbBlockBegin
  2
*D28
 70
     1
 10
0.0
 20
0.0
 30
0.0
  3
*D28
  1

  0
LINE
  5
16C23
330
166C4
100
AcDbEntity
  8
寸法
 62
     0
 48
50.0
370
    -2
100
AcDbLine
 10
11499.9919161081
 20
3569.577276893862
 30
0.0
 11
12244.91907408022
 21
3569.577276893862
 31
0.0
  0
LINE
  5
16C24
330
166C4
100
AcDbEntity
  8
寸法
 62
     0
 48
50.0
370
    -2
100
AcDbLine
 10
11579.99191610809
 20
5589.577276893862
 30
0.0
 11
12244.91907408022
 21
5589.577276893862
 31
0.0
  0
LINE
  5
16C25
330
166C4
100
AcDbEntity
  8
寸法
 62
     0
 48
50.0
370
    -2
100
AcDbLine
 10
12184.91907408022
 20
3569.577276893862
 30
0.0
 11
12184.91907408022
 21
5589.577276893862
 31
0.0
  0
INSERT
  5
16C26
330
166C4
100
AcDbEntity
  8
寸法
 62
     0
 48
50.0
370
    -2
100
AcDbBlockReference
  2
_DOTSMALL
 10
12184.91907408022
 20
3569.577276893862
 30
0.0
 41
100.0
 42
100.0
 43
100.0
 50
270.0
  0
INSERT
  5
16C27
330
166C4
100
AcDbEntity
  8
寸法
 62
     0
 48
50.0
370
    -2
100
AcDbBlockReference
  2
_DOTSMALL
 10
12184.91907408022
 20
5589.577276893862
 30
0.0
 41
100.0
 42
100.0
 43
100.0
 50
90.0
  0
MTEXT
  5
16C28
330
166C4
100
AcDbEntity
  8
寸法
 62
     7
 48
50.0
100
AcDbMText
 10
12084.9072630566
 20
4579.577276893863
 30
0.0
 40
120.0
 41
0.0
 71
     5
 72
     1
  1
\A1;2020
  7
STYLE1
 11
0.0000000000000001
 21
1.0
 31
0.0
 73
     1
 44
1.0
1001
ACAD
1000
MTEXTBEGIN
1070
    73
1070
     1
1070
    44
1040
1.0
1070
    74
1070
     0
1000
MTEXTEND
  0
POINT
  5
16C29
330
166C4
100
AcDbEntity
  8
DEFPOINTS
 62
     0
 48
50.0
100
AcDbPoint
 10
11479.9919161081
 20
3569.577276893862
 30
0.0
  0
POINT
  5
16C2A
330
166C4
100
AcDbEntity
  8
DEFPOINTS
 62
     0
 48
50.0
100
AcDbPoint
 10
11559.99191610809
 20
5589.577276893862
 30
0.0
  0
POINT
  5
16C2B
330
166C4
100
AcDbEntity
  8
DEFPOINTS
 62
     0
 48
50.0
100
AcDbPoint
 10
12184.91907408022
 20
5589.577276893862
 30
0.0
  0
ENDBLK
  5
166CF
330
166C4
100
AcDbEntity
  8
0
 48
50.0
100
AcDbBlockEnd
  0
BLOCK
  5
166DA
330
166D0
100
AcDbEntity
  8
0
 48
50.0
100
AcDbBlockBegin
  2
*D29
 70
     1
 10
0.0
 20
0.0
 30
0.0
  3
*D29
  1

  0
LINE
  5
16C1A
330
166D0
100
AcDbEntity
  8
寸法
 62
     0
 48
50.0
370
    -2
100
AcDbLine
 10
10502.98954606332
 20
5409.577276893861
 30
0.0
 11
9868.028825415898
 21
5409.577276893862
 31
0.0
  0
LINE
  5
16C1B
330
166D0
100
AcDbEntity
  8
寸法
 62
     0
 48
50.0
370
    -2
100
AcDbLine
 10
10502.98954606332
 20
3619.577276893864
 30
0.0
 11
9868.028825415896
 21
3619.577276893864
 31
0.0
  0
LINE
  5
16C1C
330
166D0
100
AcDbEntity
  8
寸法
 62
     0
 48
50.0
370
    -2
100
AcDbLine
 10
9928.028825415898
 20
5409.577276893862
 30
0.0
 11
9928.028825415895
 21
3619.577276893864
 31
0.0
  0
INSERT
  5
16C1D
330
166D0
100
AcDbEntity
  8
寸法
 62
     0
 48
50.0
370
    -2
100
AcDbBlockReference
  2
_DOTSMALL
 10
9928.028825415898
 20
5409.577276893862
 30
0.0
 41
100.0
 42
100.0
 43
100.0
 50
90.0
  0
INSERT
  5
16C1E
330
166D0
100
AcDbEntity
  8
寸法
 62
     0
 48
50.0
370
    -2
100
AcDbBlockReference
  2
_DOTSMALL
 10
9928.028825415895
 20
3619.577276893864
 30
0.0
 41
100.0
 42
100.0
 43
100.0
 50
270.0
  0
MTEXT
  5
16C1F
330
166D0
100
AcDbEntity
  8
寸法
 62
     7
 48
50.0
100
AcDbMText
 10
9828.028825415895
 20
4524.612288770248
 30
0.0
 40
120.0
 41
0.0
 71
     5
 72
     1
  1
\A1;1790
  7
STYLE1
 11
0.0000000000000001
 21
1.0
 31
0.0
 73
     1
 44
1.0
1001
ACAD
1000
MTEXTBEGIN
1070
    73
1070
     1
1070
    44
1040
1.0
1070
    74
1070
     0
1000
MTEXTEND
  0
POINT
  5
16C20
330
166D0
100
AcDbEntity
  8
DEFPOINTS
 62
     0
 48
50.0
100
AcDbPoint
 10
10522.98954606332
 20
5409.577276893861
 30
0.0
  0
POINT
  5
16C21
330
166D0
100
AcDbEntity
  8
DEFPOINTS
 62
     0
 48
50.0
100
AcDbPoint
 10
10522.98954606332
 20
3619.577276893864
 30
0.0
  0
POINT
  5
16C22
330
166D0
100
AcDbEntity
  8
DEFPOINTS
 62
     0
 48
50.0
100
AcDbPoint
 10
9928.028825415895
 20
3619.577276893864
 30
0.0
  0
ENDBLK
  5
166DB
330
166D0
100
AcDbEntity
  8
0
 48
50.0
100
AcDbBlockEnd
  0
BLOCK
  5
166E8
330
166DC
100
AcDbEntity
  8
0
 48
50.0
100
AcDbBlockBegin
  2
*D30
 70
     1
 10
0.0
 20
0.0
 30
0.0
  3
*D30
  1

  0
LINE
  5
16C0F
330
166DC
100
AcDbEntity
  8
寸法
 62
     0
 48
50.0
370
    -2
100
AcDbLine
 10
10502.98954606332
 20
3619.577276893864
 30
0.0
 11
9868.028825415896
 21
3619.577276893864
 31
0.0
  0
LINE
  5
16C10
330
166DC
100
AcDbEntity
  8
寸法
 62
     0
 48
50.0
370
    -2
100
AcDbLine
 10
10454.9919161081
 20
3569.577276893862
 30
0.0
 11
9868.028825415896
 21
3569.577276893862
 31
0.0
  0
LINE
  5
16C11
330
166DC
100
AcDbEntity
  8
寸法
 62
     0
 48
50.0
370
    -2
100
AcDbLine
 10
9928.028825415895
 20
3619.577276893864
 30
0.0
 11
9928.028825415895
 21
3719.577276893864
 31
0.0
  0
LINE
  5
16C12
330
166DC
100
AcDbEntity
  8
寸法
 62
     0
 48
50.0
370
    -2
100
AcDbLine
 10
9928.028825415895
 20
3569.577276893862
 30
0.0
 11
9928.028825415895
 21
3157.482788704882
 31
0.0
  0
LINE
  5
16C13
330
166DC
100
AcDbEntity
  8
寸法
 62
     0
 48
50.0
370
    -2
100
AcDbLine
 10
9928.028825415895
 20
3619.577276893864
 30
0.0
 11
9928.028825415895
 21
3569.577276893862
 31
0.0
  0
INSERT
  5
16C14
330
166DC
100
AcDbEntity
  8
寸法
 62
     0
 48
50.0
370
    -2
100
AcDbBlockReference
  2
_DOTSMALL
 10
9928.028825415895
 20
3619.577276893864
 30
0.0
 41
100.0
 42
100.0
 43
100.0
 50
270.0
  0
INSERT
  5
16C15
330
166DC
100
AcDbEntity
  8
寸法
 62
     0
 48
50.0
370
    -2
100
AcDbBlockReference
  2
_DOTSMALL
 10
9928.028825415895
 20
3569.577276893862
 30
0.0
 41
100.0
 42
100.0
 43
100.0
 50
90.0
  0
MTEXT
  5
16C16
330
166DC
100
AcDbEntity
  8
寸法
 62
     7
 48
50.0
100
AcDbMText
 10
9828.028825415895
 20
3263.530032799372
 30
0.0
 40
120.0
 41
0.0
 71
     5
 72
     1
  1
\A1;50
  7
STYLE1
 11
0.0000000000000001
 21
1.0
 31
0.0
 73
     1
 44
1.0
1001
ACAD
1000
MTEXTBEGIN
1070
    73
1070
     1
1070
    44
1040
1.0
1070
    74
1070
     0
1000
MTEXTEND
  0
POINT
  5
16C17
330
166DC
100
AcDbEntity
  8
DEFPOINTS
 62
     0
 48
50.0
100
AcDbPoint
 10
10522.98954606332
 20
3619.577276893864
 30
0.0
  0
POINT
  5
16C18
330
166DC
100
AcDbEntity
  8
DEFPOINTS
 62
     0
 48
50.0
100
AcDbPoint
 10
10474.9919161081
 20
3569.577276893862
 30
0.0
  0
POINT
  5
16C19
330
166DC
100
AcDbEntity
  8
DEFPOINTS
 62
     0
 48
50.0
100
AcDbPoint
 10
9928.028825415895
 20
3569.577276893862
 30
0.0
  0
ENDBLK
  5
166E9
330
166DC
100
AcDbEntity
  8
0
 48
50.0
100
AcDbBlockEnd
  0
BLOCK
  5
166F4
330
166EA
100
AcDbEntity
  8
0
 48
50.0
100
AcDbBlockBegin
  2
*D31
 70
     1
 10
0.0
 20
0.0
 30
0.0
  3
*D31
  1

  0
LINE
  5
16C06
330
166EA
100
AcDbEntity
  8
寸法
 62
     0
 48
50.0
370
    -2
100
AcDbLine
 10
10509.9919161081
 20
3569.577276893862
 30
0.0
 11
9565.720104467619
 21
3569.577276893862
 31
0.0
  0
LINE
  5
16C07
330
166EA
100
AcDbEntity
  8
寸法
 62
     0
 48
50.0
370
    -2
100
AcDbLine
 10
10449.9919161081
 20
5644.577276893864
 30
0.0
 11
9565.72010446762
 21
5644.577276893866
 31
0.0
  0
LINE
  5
16C08
330
166EA
100
AcDbEntity
  8
寸法
 62
     0
 48
50.0
370
    -2
100
AcDbLine
 10
9625.720104467619
 20
3569.577276893862
 30
0.0
 11
9625.720104467621
 21
5644.577276893866
 31
0.0
  0
INSERT
  5
16C09
330
166EA
100
AcDbEntity
  8
寸法
 62
     0
 48
50.0
370
    -2
100
AcDbBlockReference
  2
_DOTSMALL
 10
9625.720104467619
 20
3569.577276893862
 30
0.0
 41
100.0
 42
100.0
 43
100.0
 50
270.0
  0
INSERT
  5
16C0A
330
166EA
100
AcDbEntity
  8
寸法
 62
     0
 48
50.0
370
    -2
100
AcDbBlockReference
  2
_DOTSMALL
 10
9625.720104467621
 20
5644.577276893866
 30
0.0
 41
100.0
 42
100.0
 43
100.0
 50
90.0
  0
MTEXT
  5
16C0B
330
166EA
100
AcDbEntity
  8
寸法
 62
     7
 48
50.0
100
AcDbMText
 10
9525.708293443996
 20
4544.784267313661
 30
0.0
 40
120.0
 41
0.0
 71
     5
 72
     1
  1
\A1;2075
  7
STYLE1
 11
0.0000000000000001
 21
1.0
 31
0.0
 73
     1
 44
1.0
1001
ACAD
1000
MTEXTBEGIN
1070
    73
1070
     1
1070
    44
1040
1.0
1070
    74
1070
     0
1000
MTEXTEND
  0
POINT
  5
16C0C
330
166EA
100
AcDbEntity
  8
DEFPOINTS
 62
     0
 48
50.0
100
AcDbPoint
 10
10529.9919161081
 20
3569.577276893862
 30
0.0
  0
POINT
  5
16C0D
330
166EA
100
AcDbEntity
  8
DEFPOINTS
 62
     0
 48
50.0
100
AcDbPoint
 10
10469.9919161081
 20
5644.577276893864
 30
0.0
  0
POINT
  5
16C0E
330
166EA
100
AcDbEntity
  8
DEFPOINTS
 62
     0
 48
50.0
100
AcDbPoint
 10
9625.720104467621
 20
5644.577276893866
 30
0.0
  0
ENDBLK
  5
166F5
330
166EA
100
AcDbEntity
  8
0
 48
50.0
100
AcDbBlockEnd
  0
BLOCK
  5
16701
330
166F6
100
AcDbEntity
  8
0
 48
50.0
100
AcDbBlockBegin
  2
*D32
 70
     1
 10
0.0
 20
0.0
 30
0.0
  3
*D32
  1

  0
LINE
  5
16BFC
330
166F6
100
AcDbEntity
  8
寸法
 62
     0
 48
50.0
370
    -2
100
AcDbLine
 10
10465.3487207956
 20
5503.112888367335
 30
0.0
 11
9812.448550501574
 21
5527.763919607313
 31
0.0
  0
LINE
  5
16BFD
330
166F6
100
AcDbEntity
  8
寸法
 62
     0
 48
50.0
370
    -2
100
AcDbLine
 10
10470.66855494755
 20
5644.012495764219
 30
0.0
 11
9817.768384653369
 21
5668.663527004202
 31
0.0
  0
LINE
  5
16BFE
330
166F6
100
AcDbEntity
  8
寸法
 62
     0
 48
50.0
370
    -2
100
AcDbLine
 10
9872.405830244932
 20
5525.500160393784
 30
0.0
 11
9877.725664396725
 21
5666.399767790673
 31
0.0
  0
LINE
  5
16BFF
330
166F6
100
AcDbEntity
  8
寸法
 62
     0
 48
50.0
370
    -2
100
AcDbLine
 10
9877.725664396725
 20
5666.399767790673
 30
0.0
 11
9891.308219677926
 21
6026.143446251508
 31
0.0
  0
INSERT
  5
16C00
330
166F6
100
AcDbEntity
  8
寸法
 62
     0
 48
50.0
370
    -2
100
AcDbBlockReference
  2
_DOTSMALL
 10
9872.405830244932
 20
5525.500160393784
 30
0.0
 41
100.0
 42
100.0
 43
100.0
 50
267.8377559871574
  0
INSERT
  5
16C01
330
166F6
100
AcDbEntity
  8
寸法
 62
     0
 48
50.0
370
    -2
100
AcDbBlockReference
  2
_DOTSMALL
 10
9877.725664396725
 20
5666.399767790673
 30
0.0
 41
100.0
 42
100.0
 43
100.0
 50
87.83775598715742
  0
MTEXT
  5
16C02
330
166F6
100
AcDbEntity
  8
寸法
 62
     7
 48
50.0
100
AcDbMText
 10
9786.474608476352
 20
5900.008938830115
 30
0.0
 40
120.0
 41
0.0
 71
     5
 72
     1
  1
\A1;141
  7
STYLE1
 11
0.0377293202254805
 21
0.9992879957226159
 31
0.0
 73
     1
 44
1.0
1001
ACAD
1000
MTEXTBEGIN
1070
    73
1070
     1
1070
    44
1040
1.0
1070
    74
1070
     0
1000
MTEXTEND
  0
POINT
  5
16C03
330
166F6
100
AcDbEntity
  8
DEFPOINTS
 62
     0
 48
50.0
100
AcDbPoint
 10
10485.33448071005
 20
5502.358301962825
 30
0.0
  0
POINT
  5
16C04
330
166F6
100
AcDbEntity
  8
DEFPOINTS
 62
     0
 48
50.0
100
AcDbPoint
 10
10490.65431486201
 20
5643.257909359709
 30
0.0
  0
POINT
  5
16C05
330
166F6
100
AcDbEntity
  8
DEFPOINTS
 62
     0
 48
50.0
100
AcDbPoint
 10
9877.725664396725
 20
5666.399767790673
 30
0.0
  0
ENDBLK
  5
16702
330
166F6
100
AcDbEntity
  8
0
 48
50.0
100
AcDbBlockEnd
  0
BLOCK
  5
16A74
330
16A6A
100
AcDbEntity
  8
0
 48
50.0
100
AcDbBlockBegin
  2
*D33
 70
     1
 10
0.0
 20
0.0
 30
0.0
  3
*D33
  1

  0
LINE
  5
16BF3
330
16A6A
100
AcDbEntity
  8
寸法
 62
     0
 48
50.0
370
    -2
100
AcDbLine
 10
7667.835557129598
 20
8806.865915108405
 30
0.0
 11
7598.424093138373
 21
8547.818804865421
 31
0.0
  0
LINE
  5
16BF4
330
16A6A
100
AcDbEntity
  8
寸法
 62
     0
 48
50.0
370
    -2
100
AcDbLine
 10
8559.835557129609
 20
8806.865915108401
 30
0.0
 11
8490.424093138386
 21
8547.818804865421
 31
0.0
  0
LINE
  5
16BF5
330
16A6A
100
AcDbEntity
  8
寸法
 62
     0
 48
50.0
370
    -2
100
AcDbLine
 10
7614.501044684242
 20
8607.818804865422
 30
0.0
 11
8506.501044684254
 21
8607.818804865422
 31
0.0
  0
MTEXT
  5
16BF6
330
16A6A
100
AcDbEntity
  8
寸法
 62
     7
 48
50.0
100
AcDbMText
 10
8157.849192859897
 20
8712.904080641951
 30
0.0
 40
120.0
 41
0.0
 71
     5
 72
     1
  1
\A1;892
  7
STYLE1
 73
     1
 44
1.0
1001
ACAD
1000
MTEXTBEGIN
1070
    73
1070
     1
1070
    44
1040
1.0
1070
    74
1070
     0
1000
MTEXTEND
  0
INSERT
  5
16BF7
330
16A6A
100
AcDbEntity
  8
寸法
 62
     0
 48
50.0
370
    -2
100
AcDbBlockReference
  2
_DOTSMALL
 10
7614.501044684242
 20
8607.818804865422
 30
0.0
 41
100.0
 42
100.0
 43
100.0
 50
180.0
  0
INSERT
  5
16BF8
330
16A6A
100
AcDbEntity
  8
寸法
 62
     0
 48
50.0
370
    -2
100
AcDbBlockReference
  2
_DOTSMALL
 10
8506.501044684254
 20
8607.818804865422
 30
0.0
 41
100.0
 42
100.0
 43
100.0
  0
POINT
  5
16BF9
330
16A6A
100
AcDbEntity
  8
DEFPOINTS
 62
     0
 48
50.0
100
AcDbPoint
 10
7673.19454097822
 20
8826.865915108404
 30
0.0
  0
POINT
  5
16BFA
330
16A6A
100
AcDbEntity
  8
DEFPOINTS
 62
     0
 48
50.0
100
AcDbPoint
 10
8565.194540978231
 20
8826.865915108401
 30
0.0
  0
POINT
  5
16BFB
330
16A6A
100
AcDbEntity
  8
DEFPOINTS
 62
     0
 48
50.0
100
AcDbPoint
 10
8506.501044684254
 20
8607.818804865422
 30
0.0
  0
ENDBLK
  5
16A75
330
16A6A
100
AcDbEntity
  8
0
 48
50.0
100
AcDbBlockEnd
  0
BLOCK
  5
16A9C
330
16A90
100
AcDbEntity
  8
0
 48
50.0
100
AcDbBlockBegin
  2
*D34
 70
     1
 10
0.0
 20
0.0
 30
0.0
  3
*D34
  1

  0
LINE
  5
16BD6
330
16A90
100
AcDbEntity
  8
寸法
 62
     0
 48
50.0
370
    -2
100
AcDbLine
 10
4794.194534300615
 20
5664.57727689387
 30
0.0
 11
4794.194534300615
 21
5917.118862152107
 31
0.0
  0
LINE
  5
16BD7
330
16A90
100
AcDbEntity
  8
寸法
 62
     0
 48
50.0
370
    -2
100
AcDbLine
 10
4744.194534300615
 20
5664.577276893868
 30
0.0
 11
4744.194534300615
 21
5917.118862152107
 31
0.0
  0
LINE
  5
16BD8
330
16A90
100
AcDbEntity
  8
寸法
 62
     0
 48
50.0
370
    -2
100
AcDbLine
 10
4794.194534300615
 20
5857.118862152106
 30
0.0
 11
4894.194534300615
 21
5857.118862152106
 31
0.0
  0
LINE
  5
16BD9
330
16A90
100
AcDbEntity
  8
寸法
 62
     0
 48
50.0
370
    -2
100
AcDbLine
 10
4744.194534300615
 20
5857.118862152106
 30
0.0
 11
4324.662008831881
 21
5857.118862152106
 31
0.0
  0
LINE
  5
16BDA
330
16A90
100
AcDbEntity
  8
寸法
 62
     0
 48
50.0
370
    -2
100
AcDbLine
 10
4794.194534300615
 20
5857.118862152106
 30
0.0
 11
4744.194534300615
 21
5857.118862152106
 31
0.0
  0
INSERT
  5
16BDB
330
16A90
100
AcDbEntity
  8
寸法
 62
     0
 48
50.0
370
    -2
100
AcDbBlockReference
  2
_DOTSMALL
 10
4794.194534300615
 20
5857.118862152106
 30
0.0
 41
100.0
 42
100.0
 43
100.0
 50
180.0
  0
INSERT
  5
16BDC
330
16A90
100
AcDbEntity
  8
寸法
 62
     0
 48
50.0
370
    -2
100
AcDbBlockReference
  2
_DOTSMALL
 10
4744.194534300615
 20
5857.118862152106
 30
0.0
 41
100.0
 42
100.0
 43
100.0
  0
MTEXT
  5
16BDD
330
16A90
100
AcDbEntity
  8
寸法
 62
     7
 48
50.0
100
AcDbMText
 10
4430.709252926368
 20
5957.118862152107
 30
0.0
 40
120.0
 41
0.0
 71
     5
 72
     1
  1
\A1;50
  7
STYLE1
 73
     1
 44
1.0
1001
ACAD
1000
MTEXTBEGIN
1070
    73
1070
     1
1070
    44
1040
1.0
1070
    74
1070
     0
1000
MTEXTEND
  0
POINT
  5
16BDE
330
16A90
100
AcDbEntity
  8
DEFPOINTS
 62
     0
 48
50.0
100
AcDbPoint
 10
4794.194534300615
 20
5644.577276893869
 30
0.0
  0
POINT
  5
16BDF
330
16A90
100
AcDbEntity
  8
DEFPOINTS
 62
     0
 48
50.0
100
AcDbPoint
 10
4744.194534300615
 20
5644.577276893868
 30
0.0
  0
POINT
  5
16BE0
330
16A90
100
AcDbEntity
  8
DEFPOINTS
 62
     0
 48
50.0
100
AcDbPoint
 10
4744.194534300615
 20
5857.118862152106
 30
0.0
  0
ENDBLK
  5
16A9D
330
16A90
100
AcDbEntity
  8
0
 48
50.0
100
AcDbBlockEnd
  0
BLOCK
  5
16AA8
330
16A9E
100
AcDbEntity
  8
0
 48
50.0
100
AcDbBlockBegin
  2
*D35
 70
     1
 10
0.0
 20
0.0
 30
0.0
  3
*D35
  1

  0
LINE
  5
16BE1
330
16A9E
100
AcDbEntity
  8
寸法
 62
     0
 48
50.0
370
    -2
100
AcDbLine
 10
8594.194534300619
 20
5664.577276893864
 30
0.0
 11
8594.194534300619
 21
5917.118862152106
 31
0.0
  0
LINE
  5
16BE2
330
16A9E
100
AcDbEntity
  8
寸法
 62
     0
 48
50.0
370
    -2
100
AcDbLine
 10
4794.194534300615
 20
5664.57727689387
 30
0.0
 11
4794.194534300615
 21
5917.118862152106
 31
0.0
  0
LINE
  5
16BE3
330
16A9E
100
AcDbEntity
  8
寸法
 62
     0
 48
50.0
370
    -2
100
AcDbLine
 10
8594.194534300619
 20
5857.118862152105
 30
0.0
 11
4794.194534300615
 21
5857.118862152105
 31
0.0
  0
INSERT
  5
16BE4
330
16A9E
100
AcDbEntity
  8
寸法
 62
     0
 48
50.0
370
    -2
100
AcDbBlockReference
  2
_DOTSMALL
 10
8594.194534300619
 20
5857.118862152105
 30
0.0
 41
100.0
 42
100.0
 43
100.0
  0
INSERT
  5
16BE5
330
16A9E
100
AcDbEntity
  8
寸法
 62
     0
 48
50.0
370
    -2
100
AcDbBlockReference
  2
_DOTSMALL
 10
4794.194534300615
 20
5857.118862152105
 30
0.0
 41
100.0
 42
100.0
 43
100.0
 50
180.0
  0
MTEXT
  5
16BE6
330
16A9E
100
AcDbEntity
  8
寸法
 62
     7
 48
50.0
100
AcDbMText
 10
6694.194534300606
 20
5957.118862152106
 30
0.0
 40
120.0
 41
0.0
 71
     5
 72
     1
  1
\A1;柱外寸法3800
  7
STYLE1
 73
     1
 44
1.0
1001
ACAD
1000
MTEXTBEGIN
1070
    73
1070
     1
1070
    44
1040
1.0
1070
    74
1070
     0
1000
MTEXTEND
  0
POINT
  5
16BE7
330
16A9E
100
AcDbEntity
  8
DEFPOINTS
 62
     0
 48
50.0
100
AcDbPoint
 10
8594.194534300619
 20
5644.577276893864
 30
0.0
  0
POINT
  5
16BE8
330
16A9E
100
AcDbEntity
  8
DEFPOINTS
 62
     0
 48
50.0
100
AcDbPoint
 10
4794.194534300615
 20
5644.577276893869
 30
0.0
  0
POINT
  5
16BE9
330
16A9E
100
AcDbEntity
  8
DEFPOINTS
 62
     0
 48
50.0
100
AcDbPoint
 10
4794.194534300615
 20
5857.118862152105
 30
0.0
  0
ENDBLK
  5
16AA9
330
16A9E
100
AcDbEntity
  8
0
 48
50.0
100
AcDbBlockEnd
  0
BLOCK
  5
16AB4
330
16AAA
100
AcDbEntity
  8
0
 48
50.0
100
AcDbBlockBegin
  2
*D36
 70
     1
 10
0.0
 20
0.0
 30
0.0
  3
*D36
  1

  0
LINE
  5
16BEA
330
16AAA
100
AcDbEntity
  8
寸法
 62
     0
 48
50.0
370
    -2
100
AcDbLine
 10
4744.194534300615
 20
5664.577276893868
 30
0.0
 11
4744.194534300615
 21
6140.075840589954
 31
0.0
  0
LINE
  5
16BEB
330
16AAA
100
AcDbEntity
  8
寸法
 62
     0
 48
50.0
370
    -2
100
AcDbLine
 10
8644.19453430062
 20
5664.577276893862
 30
0.0
 11
8644.19453430062
 21
6140.075840589954
 31
0.0
  0
LINE
  5
16BEC
330
16AAA
100
AcDbEntity
  8
寸法
 62
     0
 48
50.0
370
    -2
100
AcDbLine
 10
4744.194534300615
 20
6080.075840589954
 30
0.0
 11
8644.19453430062
 21
6080.075840589954
 31
0.0
  0
INSERT
  5
16BED
330
16AAA
100
AcDbEntity
  8
寸法
 62
     0
 48
50.0
370
    -2
100
AcDbBlockReference
  2
_DOTSMALL
 10
4744.194534300615
 20
6080.075840589954
 30
0.0
 41
100.0
 42
100.0
 43
100.0
 50
180.0
  0
INSERT
  5
16BEE
330
16AAA
100
AcDbEntity
  8
寸法
 62
     0
 48
50.0
370
    -2
100
AcDbBlockReference
  2
_DOTSMALL
 10
8644.19453430062
 20
6080.075840589954
 30
0.0
 41
100.0
 42
100.0
 43
100.0
  0
MTEXT
  5
16BEF
330
16AAA
100
AcDbEntity
  8
寸法
 62
     7
 48
50.0
100
AcDbMText
 10
6694.194534300617
 20
6180.075840589954
 30
0.0
 40
120.0
 41
0.0
 71
     5
 72
     1
  1
\A1;3900
  7
STYLE1
 73
     1
 44
1.0
1001
ACAD
1000
MTEXTBEGIN
1070
    73
1070
     1
1070
    44
1040
1.0
1070
    74
1070
     0
1000
MTEXTEND
  0
POINT
  5
16BF0
330
16AAA
100
AcDbEntity
  8
DEFPOINTS
 62
     0
 48
50.0
100
AcDbPoint
 10
4744.194534300615
 20
5644.577276893868
 30
0.0
  0
POINT
  5
16BF1
330
16AAA
100
AcDbEntity
  8
DEFPOINTS
 62
     0
 48
50.0
100
AcDbPoint
 10
8644.19453430062
 20
5644.577276893862
 30
0.0
  0
POINT
  5
16BF2
330
16AAA
100
AcDbEntity
  8
DEFPOINTS
 62
     0
 48
50.0
100
AcDbPoint
 10
8644.19453430062
 20
6080.075840589954
 30
0.0
  0
ENDBLK
  5
16AB5
330
16AAA
100
AcDbEntity
  8
0
 48
50.0
100
AcDbBlockEnd
  0
BLOCK
  5
16AEA
330
16ADE
100
AcDbEntity
  8
0
 48
50.0
100
AcDbBlockBegin
  2
*D37
 70
     1
 10
0.0
 20
0.0
 30
0.0
  3
*D37
  1

  0
LINE
  5
16BCB
330
16ADE
100
AcDbEntity
  8
寸法
 62
     0
 48
50.0
370
    -2
100
AcDbLine
 10
8644.19453430062
 20
5664.577276893862
 30
0.0
 11
8644.19453430062
 21
5917.118862152103
 31
0.0
  0
LINE
  5
16BCC
330
16ADE
100
AcDbEntity
  8
寸法
 62
     0
 48
50.0
370
    -2
100
AcDbLine
 10
8594.194534300619
 20
5664.577276893864
 30
0.0
 11
8594.194534300619
 21
5917.118862152103
 31
0.0
  0
LINE
  5
16BCD
330
16ADE
100
AcDbEntity
  8
寸法
 62
     0
 48
50.0
370
    -2
100
AcDbLine
 10
8594.194534300619
 20
5857.118862152103
 30
0.0
 11
8494.194534300619
 21
5857.118862152103
 31
0.0
  0
LINE
  5
16BCE
330
16ADE
100
AcDbEntity
  8
寸法
 62
     0
 48
50.0
370
    -2
100
AcDbLine
 10
8644.19453430062
 20
5857.118862152103
 30
0.0
 11
9063.727059769343
 21
5857.118862152103
 31
0.0
  0
LINE
  5
16BCF
330
16ADE
100
AcDbEntity
  8
寸法
 62
     0
 48
50.0
370
    -2
100
AcDbLine
 10
8594.194534300619
 20
5857.118862152103
 30
0.0
 11
8644.19453430062
 21
5857.118862152103
 31
0.0
  0
INSERT
  5
16BD0
330
16ADE
100
AcDbEntity
  8
寸法
 62
     0
 48
50.0
370
    -2
100
AcDbBlockReference
  2
_DOTSMALL
 10
8594.194534300619
 20
5857.118862152103
 30
0.0
 41
100.0
 42
100.0
 43
100.0
  0
INSERT
  5
16BD1
330
16ADE
100
AcDbEntity
  8
寸法
 62
     0
 48
50.0
370
    -2
100
AcDbBlockReference
  2
_DOTSMALL
 10
8644.19453430062
 20
5857.118862152103
 30
0.0
 41
100.0
 42
100.0
 43
100.0
 50
180.0
  0
MTEXT
  5
16BD2
330
16ADE
100
AcDbEntity
  8
寸法
 62
     7
 48
50.0
100
AcDbMText
 10
8957.679815674856
 20
5957.118862152103
 30
0.0
 40
120.0
 41
0.0
 71
     5
 72
     1
  1
\A1;50
  7
STYLE1
 73
     1
 44
1.0
1001
ACAD
1000
MTEXTBEGIN
1070
    73
1070
     1
1070
    44
1040
1.0
1070
    74
1070
     0
1000
MTEXTEND
  0
POINT
  5
16BD3
330
16ADE
100
AcDbEntity
  8
DEFPOINTS
 62
     0
 48
50.0
100
AcDbPoint
 10
8644.19453430062
 20
5644.577276893862
 30
0.0
  0
POINT
  5
16BD4
330
16ADE
100
AcDbEntity
  8
DEFPOINTS
 62
     0
 48
50.0
100
AcDbPoint
 10
8594.194534300619
 20
5644.577276893864
 30
0.0
  0
POINT
  5
16BD5
330
16ADE
100
AcDbEntity
  8
DEFPOINTS
 62
     0
 48
50.0
100
AcDbPoint
 10
8594.194534300619
 20
5857.118862152103
 30
0.0
  0
ENDBLK
  5
16AEB
330
16ADE
100
AcDbEntity
  8
0
 48
50.0
100
AcDbBlockEnd
  0
ENDSEC
  0
SECTION
  2
ENTITIES
  0
LINE
  5
10B56
330
747D
100
AcDbEntity
  8
補助
  6
PHANTOM
 62
   230
 48
50.0
100
AcDbLine
 10
140.0
 20
0.0
 30
0.0
 11
139.9999999999995
 21
11409.6
 31
0.0
  0
LINE
  5
10B57
330
747D
100
AcDbEntity
  8
補助
  6
PHANTOM
 62
   230
 48
50.0
100
AcDbLine
 10
139.9999999999995
 20
11409.6
 30
0.0
 11
16307.2
 21
11409.6
 31
0.0
  0
LINE
  5
10B59
330
747D
100
AcDbEntity
  8
仕様書枠
  6
Continuous
 48
50.0
100
AcDbLine
 10
13107.2
 20
1200.0
 30
0.0
 11
13107.2
 21
-0.0000000000000729
 31
0.0
  0
LINE
  5
10B5C
330
747D
100
AcDbEntity
  8
仕様書枠
 48
50.0
100
AcDbLine
 10
16307.2
 20
1200.0
 30
0.0
 11
16307.2
 21
-0.0000000000000909
 31
0.0
  0
LINE
  5
10B5D
330
747D
100
AcDbEntity
  8
仕様書枠
 48
50.0
100
AcDbLine
 10
140.0
 20
0.0
 30
0.0
 11
16307.2
 21
-0.0000000000000909
 31
0.0
  0
LINE
  5
10B5E
330
747D
100
AcDbEntity
  8
補助
  6
PHANTOM
 62
   230
 48
50.0
100
AcDbLine
 10
16307.2
 20
11409.6
 30
0.0
 11
16307.2
 21
1200.0
 31
0.0
  0
LINE
  5
10B6C
330
747D
100
AcDbEntity
  8
仕様書枠
 48
50.0
100
AcDbLine
 10
13107.2
 20
1200.0
 30
0.0
 11
16307.2
 21
1200.0
 31
0.0
  0
LINE
  5
10B6D
330
747D
100
AcDbEntity
  8
補助
  6
PHANTOM
 62
   230
 48
50.0
100
AcDbLine
 10
13107.2
 20
11409.6
 30
0.0
 11
13107.2
 21
4800.0
 31
0.0
  0
LINE
  5
10B6F
330
747D
100
AcDbEntity
  8
補助
  6
PHANTOM
 62
   230
 48
50.0
100
AcDbLine
 10
13107.2
 20
4800.0
 30
0.0
 11
16307.2
 21
4800.0
 31
0.0
  0
LINE
  5
10B72
330
747D
100
AcDbEntity
  8
文字
 62
     7
 48
50.0
100
AcDbLine
 10
13187.2
 20
400.0
 30
0.0
 11
16227.2
 21
400.0
 31
0.0
  0
TEXT
  5
10B73
330
747D
100
AcDbEntity
  8
文字
 62
     7
 48
50.0
100
AcDbText
 10
13162.9790565769
 20
895.0906074299405
 30
0.0
 40
200.0
  1
外 形 図
  7
STYLE2
100
AcDbText
  0
TEXT
  5
10B74
330
747D
100
AcDbEntity
  8
文字
 62
     7
 48
50.0
100
AcDbText
 10
13201.43669998441
 20
477.2740661031255
 30
0.0
 40
160.0
  1
機種名
  7
STYLE2
100
AcDbText
  0
TEXT
  5
10B75
330
747D
100
AcDbEntity
  8
文字
 62
     7
 48
50.0
100
AcDbText
 10
13209.4053442172
 20
228.5435242569016
 30
0.0
 40
100.0
  1
○有効開口寸法 ： 685×1760(mm)
  7
STYLE2
100
AcDbText
  0
TEXT
  5
10B76
330
747D
100
AcDbEntity
  8
文字
 62
     7
 48
50.0
100
AcDbText
 10
13209.4053442172
 20
76.09434707649343
 30
0.0
 40
100.0
  1
○床面積 ： 3.61㎡(1.09坪) 　
  7
STYLE2
100
AcDbText
  0
TEXT
  5
10B79
330
747D
100
AcDbEntity
  8
文字
 62
     7
 48
50.0
100
AcDbText
 10
14524.131837222
 20
1031.557706291228
 30
0.0
 40
100.0
  1
NO.03     <縮尺> S=1/40
  7
STYLE2
100
AcDbText
  0
LINE
  5
10B7B
330
747D
100
AcDbEntity
  8
仕様書枠
 48
50.0
100
AcDbLine
 10
13107.2
 20
800.0
 30
0.0
 11
14251.2
 21
800.0
 31
0.0
  0
LINE
  5
10B88
330
747D
100
AcDbEntity
  8
仕様書枠
  6
Continuous
 48
50.0
100
AcDbLine
 10
14251.2
 20
1200.0
 30
0.0
 11
14251.2
 21
800.0
 31
0.0
  0
TEXT
  5
13A63
330
747D
100
AcDbEntity
  8
部品1
100
AcDbText
 10
3715.918067054693
 20
3505.684180499763
 30
0.0
 40
125.0
  1
▽G.L
  7
STYLE2
100
AcDbText
  0
TEXT
  5
13B2F
330
747D
100
AcDbEntity
  8
部品1
100
AcDbText
 10
6402.378811015424
 20
6825.893697090123
 30
0.0
 40
135.0
  1
平面図
  7
STYLE2
100
AcDbText
  0
LWPOLYLINE
  5
13B30
330
747D
100
AcDbEntity
  8
部品1
100
AcDbPolyline
 90
        4
 70
     1
 43
0.0
 10
6312.459201186387
 20
7018.787226308646
 10
6312.459201186387
 20
6778.894904763113
 10
7075.929867414825
 20
6778.894904763113
 10
7075.929867414825
 20
7018.787226308646
  0
DIMENSION
  5
1518D
330
747D
100
AcDbEntity
  8
寸法
100
AcDbDimension
  2
*D1
 10
8594.194534300596
 20
7369.264040248284
 30
0.0
 11
6694.194534300606
 21
7369.264040248284
 31
0.0
 70
   160
 71
     5
 42
3799.999999999982
  3
INABA_S40G
100
AcDbAlignedDimension
 13
4794.194534300615
 23
8356.365915108167
 33
0.0
 14
8594.194534300596
 24
8356.365915108487
 34
0.0
100
AcDbRotatedDimension
1001
ACAD
1000
DSTYLE
1002
{
1002
}
  0
LINE
  5
1518E
330
747D
100
AcDbEntity
  8
破線
 48
10.0
100
AcDbLine
 10
7565.194534300609
 20
8511.365915108479
 30
0.0
 11
6773.194534300609
 21
8511.365915108465
 31
0.0
  0
LINE
  5
1518F
330
747D
100
AcDbEntity
  8
部品1
100
AcDbLine
 10
7469.194534300616
 20
8382.36591510852
 30
0.0
 11
6739.194534300615
 21
8382.365915108499
 31
0.0
  0
LINE
  5
15190
330
747D
100
AcDbEntity
  8
部品1
100
AcDbLine
 10
7588.6945343006
 20
8487.865915108478
 30
0.0
 11
6749.694041046717
 21
8487.865412911007
 31
0.0
  0
ARC
  5
15192
330
747D
100
AcDbEntity
  8
想像線
 48
10.0
100
AcDbCircle
 10
7461.842483623455
 20
8358.060808484045
 30
0.0
 40
722.6499369155582
100
AcDbArc
 50
180.1343808685487
 51
270.5829222700354
  0
LINE
  5
15193
330
747D
100
AcDbEntity
  8
部品1
100
AcDbLine
 10
6722.19453430057
 20
9278.365915108457
 30
0.0
 11
7641.575237319223
 21
9278.365915108478
 31
0.0
  0
LINE
  5
15194
330
747D
100
AcDbEntity
  8
部品1
 48
5.0
100
AcDbLine
 10
6718.194534300618
 20
8385.865915108414
 30
0.0
 11
7620.194534300617
 21
8385.865915108473
 31
0.0
  0
LINE
  5
15196
330
747D
100
AcDbEntity
  8
部品1
100
AcDbLine
 10
6723.194540978219
 20
8826.865915108406
 30
0.0
 11
7615.194540978217
 21
8826.865915108509
 31
0.0
  0
LINE
  5
15197
330
747D
100
AcDbEntity
  8
細線
 48
50.0
100
AcDbLine
 10
7615.194540978217
 20
9276.865915108508
 30
0.0
 11
6723.194540978217
 21
8826.865915108406
 31
0.0
  0
LINE
  5
15198
330
747D
100
AcDbEntity
  8
細線
 48
50.0
100
AcDbLine
 10
7615.194540978217
 20
8826.865915108509
 30
0.0
 11
6723.194540978217
 21
9276.865915108407
 31
0.0
  0
LINE
  5
15199
330
747D
100
AcDbEntity
  8
部品1
100
AcDbLine
 10
6723.194540978217
 20
9276.865915108407
 30
0.0
 11
7615.194540978217
 21
9276.865915108515
 31
0.0
  0
DIMENSION
  5
1519A
330
747D
100
AcDbEntity
  8
寸法
100
AcDbDimension
  2
*D2
 10
7589.194534300621
 20
9522.174134733534
 30
0.0
 11
7169.194534300622
 21
9522.174134733534
 31
0.0
 70
   160
  1
2X420=<>
 71
     5
 42
839.9999999999982
  3
INABA_S40G
100
AcDbAlignedDimension
 13
6749.194534300622
 23
9306.365915108465
 33
0.0
 14
7589.194534300621
 24
9306.365915108552
 34
0.0
100
AcDbRotatedDimension
1001
ACAD
1000
DSTYLE
1002
{
1002
}
  0
DIMENSION
  5
1519B
330
747D
100
AcDbEntity
  8
寸法
 48
50.0
100
AcDbDimension
  2
*D3
 10
6749.194534300625
 20
9522.174134733534
 30
0.0
 11
6694.194534300622
 21
9779.050803348036
 31
0.0
 70
   160
 71
     5
 42
110.0000000000036
  3
INABA_S40G
100
AcDbAlignedDimension
 13
6639.194534300621
 23
9306.365915108552
 33
0.0
 14
6749.194534300625
 24
9306.36591510853
 34
0.0
100
AcDbRotatedDimension
1001
ACAD
1000
DSTYLE
1002
{
1070
   279
1070
     2
1002
}
  0
DIMENSION
  5
1519F
330
747D
100
AcDbEntity
  8
寸法
100
AcDbDimension
  2
*D4
 10
4849.194534300623
 20
9522.174134733417
 30
0.0
 11
4485.709252926348
 21
9522.174134733417
 31
0.0
 70
   160
 71
     5
 42
55.00000000003637
  3
INABA_S40G
100
AcDbAlignedDimension
 13
4794.194534300586
 23
9306.365915108436
 33
0.0
 14
4849.194534300623
 24
9306.365915108436
 34
0.0
100
AcDbRotatedDimension
1001
ACAD
1000
DSTYLE
1002
{
1002
}
  0
LINE
  5
151A0
330
747D
100
AcDbEntity
  8
部品1
 48
50.0
100
AcDbLine
 10
6665.194540978217
 20
9276.865915108508
 30
0.0
 11
6665.194540978217
 21
8826.865915108509
 31
0.0
  0
LINE
  5
151A1
330
747D
100
AcDbEntity
  8
部品1
 48
50.0
100
AcDbLine
 10
6723.194540978217
 20
9276.8659151084
 30
0.0
 11
6723.194540978217
 21
8826.865915108406
 31
0.0
  0
LINE
  5
151A2
330
747D
100
AcDbEntity
  8
部品1
 48
50.0
100
AcDbLine
 10
6722.194534300601
 20
8411.365915108472
 30
0.0
 11
6722.194534300546
 21
9306.365915108479
 31
0.0
  0
LINE
  5
151A3
330
747D
100
AcDbEntity
  8
部品1
 48
50.0
100
AcDbLine
 10
6666.194534300601
 20
8411.365915108472
 30
0.0
 11
6666.194534300548
 21
9278.365915108478
 31
0.0
  0
LINE
  5
151A4
330
747D
100
AcDbEntity
  8
部品1
 48
50.0
100
AcDbLine
 10
6694.194534300601
 20
8411.365915108472
 30
0.0
 11
6694.194534300601
 21
9251.365915108479
 31
0.0
  0
LINE
  5
151A5
330
747D
100
AcDbEntity
  8
部品1
 48
50.0
100
AcDbLine
 10
4823.194540978216
 20
9276.8659151084
 30
0.0
 11
4823.194540978216
 21
8826.865915108406
 31
0.0
  0
LINE
  5
151A6
330
747D
100
AcDbEntity
  8
部品1
100
AcDbLine
 10
4822.194534300598
 20
8411.365915108385
 30
0.0
 11
4822.194534300622
 21
9278.365915108436
 31
0.0
  0
LINE
  5
151A7
330
747D
100
AcDbEntity
  8
部品1
100
AcDbLine
 10
4794.194534300586
 20
9306.365915108399
 30
0.0
 11
4794.194534300615
 21
8356.365915108392
 31
0.0
  0
LINE
  5
151B1
330
747D
100
AcDbEntity
  8
破線
 48
10.0
100
AcDbLine
 10
4874.194599225324
 20
8826.865915108443
 30
0.0
 11
4874.194534300608
 21
8511.365915108443
 31
0.0
  0
LINE
  5
151B2
330
747D
100
AcDbEntity
  8
部品1
 48
5.0
100
AcDbLine
 10
4850.69550572558
 20
8487.86591510853
 30
0.0
 11
4850.695012794269
 21
8826.865915108443
 31
0.0
  0
LINE
  5
151B3
330
747D
100
AcDbEntity
  8
部品1
100
AcDbLine
 10
4794.194534300614
 20
8411.365915108355
 30
0.0
 11
4794.194534300615
 21
8356.365915108355
 31
0.0
  0
LINE
  5
151B4
330
747D
100
AcDbEntity
  8
部品1
100
AcDbLine
 10
4822.194534300614
 20
8411.365915108399
 30
0.0
 11
4794.194534300614
 21
8411.365915108399
 31
0.0
  0
LINE
  5
151B5
330
747D
100
AcDbEntity
  8
部品1
100
AcDbLine
 10
4822.194534300598
 20
8411.365915108385
 30
0.0
 11
4794.194534300614
 21
8411.365915108385
 31
0.0
  0
LINE
  5
151B6
330
747D
100
AcDbEntity
  8
部品1
100
AcDbLine
 10
4822.194534300598
 20
8411.365915108355
 30
0.0
 11
4794.194534300614
 21
8411.365915108355
 31
0.0
  0
LINE
  5
151B7
330
747D
100
AcDbEntity
  8
部品1
 48
2.83
100
AcDbLine
 10
4826.194534300615
 20
8411.365915108355
 30
0.0
 11
4849.194534300615
 21
8411.365915108355
 31
0.0
  0
LINE
  5
151B9
330
747D
100
AcDbEntity
  8
部品1
 48
2.83
100
AcDbLine
 10
4794.194534300615
 20
8411.365915108355
 30
0.0
 11
4817.194534300615
 21
8411.365915108355
 31
0.0
  0
LINE
  5
151BA
330
747D
100
AcDbEntity
  8
部品1
 48
2.83
100
AcDbLine
 10
4849.194534300615
 20
8411.365915108355
 30
0.0
 11
4849.194534300619
 21
8385.865915108356
 31
0.0
  0
LINE
  5
151BB
330
747D
100
AcDbEntity
  8
部品1
 48
2.83
100
AcDbLine
 10
4837.194534300615
 20
8385.865915108356
 30
0.0
 11
4837.194534300615
 21
8356.365915108355
 31
0.0
  0
LINE
  5
151BC
330
747D
100
AcDbEntity
  8
部品1
 48
2.83
100
AcDbLine
 10
4794.194534300615
 20
8356.365915108355
 30
0.0
 11
4794.194534300615
 21
8411.365915108355
 31
0.0
  0
LINE
  5
151BD
330
747D
100
AcDbEntity
  8
部品1
 48
50.0
100
AcDbLine
 10
4850.69550572701
 20
8487.864832799994
 30
0.0
 11
4822.194534300598
 21
8458.845661867529
 31
0.0
  0
LINE
  5
151BE
330
747D
100
AcDbEntity
  8
部品1
100
AcDbLine
 10
4839.194534300616
 20
8382.365915108493
 30
0.0
 11
4839.194534300616
 21
8356.365915108458
 31
0.0
  0
LINE
  5
151BF
330
747D
100
AcDbEntity
  8
部品1
100
AcDbLine
 10
4822.194534300598
 20
8831.365915108399
 30
0.0
 11
4794.194534300597
 21
8831.365915108399
 31
0.0
  0
LINE
  5
151C0
330
747D
100
AcDbEntity
  8
破線
 48
10.0
100
AcDbLine
 10
6773.194534300609
 20
8511.365915108488
 30
0.0
 11
6773.194521869498
 21
8826.865915108482
 31
0.0
  0
LINE
  5
151C1
330
747D
100
AcDbEntity
  8
破線
 48
10.0
100
AcDbLine
 10
6615.194534300607
 20
8511.365915108479
 30
0.0
 11
6615.194525946056
 21
8826.865915108538
 31
0.0
  0
LINE
  5
151C2
330
747D
100
AcDbEntity
  8
部品1
 48
50.0
100
AcDbLine
 10
6638.694534300601
 20
8487.865915108478
 30
0.0
 11
6638.694534300575
 21
8826.865915108538
 31
0.0
  0
LINE
  5
151C3
330
747D
100
AcDbEntity
  8
部品1
 48
50.0
100
AcDbLine
 10
6749.694527956314
 20
8487.865915133141
 30
0.0
 11
6749.694530929177
 21
8826.865915108482
 31
0.0
  0
LINE
  5
151CB
330
747D
100
AcDbEntity
  8
部品1
100
AcDbLine
 10
6739.194534300615
 20
8382.365915108493
 30
0.0
 11
6739.194534300615
 21
8356.365915108458
 31
0.0
  0
LINE
  5
151CC
330
747D
100
AcDbEntity
  8
部品1
 48
5.0
100
AcDbLine
 10
6726.194534300617
 20
8411.365915108472
 30
0.0
 11
6749.194534300618
 21
8411.365915108472
 31
0.0
  0
LINE
  5
151CD
330
747D
100
AcDbEntity
  8
部品1
 48
50.0
100
AcDbLine
 10
6749.694534300599
 20
8487.865915133145
 30
0.0
 11
6722.194534300601
 21
8459.865915108471
 31
0.0
  0
LINE
  5
151CF
330
747D
100
AcDbEntity
  8
部品1
 48
5.0
100
AcDbLine
 10
6718.194534300619
 20
8411.365915108472
 30
0.0
 11
6718.194534300618
 21
8385.865915108473
 31
0.0
  0
LINE
  5
151D0
330
747D
100
AcDbEntity
  8
部品1
100
AcDbLine
 10
6651.194534300616
 20
8385.865915108418
 30
0.0
 11
6651.194534300612
 21
8356.365915108465
 31
0.0
  0
LINE
  5
151D1
330
747D
100
AcDbEntity
  8
部品1
 48
5.0
100
AcDbLine
 10
6651.194534300618
 20
8385.865915108473
 30
0.0
 11
6651.194534300618
 21
8356.365915108472
 31
0.0
  0
LINE
  5
151D2
330
747D
100
AcDbEntity
  8
部品1
 48
5.0
100
AcDbLine
 10
6670.194534300617
 20
8411.365915108472
 30
0.0
 11
6670.194534300617
 21
8385.865915108473
 31
0.0
  0
LINE
  5
151D3
330
747D
100
AcDbEntity
  8
部品1
 48
5.0
100
AcDbLine
 10
6639.194534300617
 20
8411.365915108472
 30
0.0
 11
6639.19453430062
 21
8385.865915108473
 31
0.0
  0
LINE
  5
151D4
330
747D
100
AcDbEntity
  8
部品1
 48
5.0
100
AcDbLine
 10
6662.194534300617
 20
8411.365915108472
 30
0.0
 11
6639.194534300616
 21
8411.365915108472
 31
0.0
  0
LINE
  5
151D5
330
747D
100
AcDbEntity
  8
部品1
 48
50.0
100
AcDbLine
 10
6666.194534300601
 20
8459.865915108471
 30
0.0
 11
6638.694534300601
 21
8487.865915108478
 31
0.0
  0
LINE
  5
151D6
330
747D
100
AcDbEntity
  8
部品1
 48
5.0
100
AcDbLine
 10
6666.194534300601
 20
8411.365915108472
 30
0.0
 11
6722.194534300601
 21
8411.365915108472
 31
0.0
  0
LINE
  5
151D7
330
747D
100
AcDbEntity
  8
部品1
100
AcDbLine
 10
6737.194534300616
 20
8385.865915108425
 30
0.0
 11
6737.194534300617
 21
8356.365915108472
 31
0.0
  0
LINE
  5
151D8
330
747D
100
AcDbEntity
  8
部品1
 48
5.0
100
AcDbLine
 10
6737.194534300617
 20
8385.865915108473
 30
0.0
 11
6737.194534300617
 21
8356.365915108472
 31
0.0
  0
LINE
  5
151D9
330
747D
100
AcDbEntity
  8
部品1
 48
5.0
100
AcDbLine
 10
6749.194534300618
 20
8411.365915108472
 30
0.0
 11
6749.194534300619
 21
8385.865915108473
 31
0.0
  0
LINE
  5
151DA
330
747D
100
AcDbEntity
  8
部品1
 48
5.0
100
AcDbLine
 10
6694.194534300601
 20
8831.365915108476
 30
0.0
 11
6666.19453430055
 21
8831.365915108479
 31
0.0
  0
LINE
  5
151DB
330
747D
100
AcDbEntity
  8
部品1
 48
50.0
100
AcDbLine
 10
6694.194534300594
 20
8831.365915108479
 30
0.0
 11
6722.194534300576
 21
8831.365915108483
 31
0.0
  0
LINE
  5
151DC
330
747D
100
AcDbEntity
  8
部品1
 48
50.0
100
AcDbLine
 10
6694.194534300594
 20
8869.365915108479
 30
0.0
 11
6722.194534300576
 21
8869.365915108483
 31
0.0
  0
LINE
  5
151E0
330
747D
100
AcDbEntity
  8
部品1
100
AcDbLine
 10
4822.19453430059
 20
9251.365915108406
 30
0.0
 11
4794.194534300589
 21
9251.365915108406
 31
0.0
  0
LINE
  5
151E1
330
747D
100
AcDbEntity
  8
部品1
100
AcDbLine
 10
4849.194534300623
 20
9306.365915108436
 30
0.0
 11
4849.194534300623
 21
9278.365915108436
 31
0.0
  0
LINE
  5
151E2
330
747D
100
AcDbEntity
  8
部品1
100
AcDbLine
 10
4849.194534300586
 20
9306.365915108399
 30
0.0
 11
4849.19453430059
 21
9278.3659151084
 31
0.0
  0
LINE
  5
151E3
330
747D
100
AcDbEntity
  8
部品1
 48
50.0
100
AcDbLine
 10
4823.694540978211
 20
9276.865915108407
 30
0.0
 11
4822.194534300586
 21
9278.3659151084
 31
0.0
  0
LINE
  5
151E6
330
747D
100
AcDbEntity
  8
部品1
 48
5.0
100
AcDbLine
 10
6639.19453430062
 20
9278.365915108478
 30
0.0
 11
6639.194534300621
 21
9306.365915108479
 31
0.0
  0
LINE
  5
151E7
330
747D
100
AcDbEntity
  8
部品1
 48
5.0
100
AcDbLine
 10
6668.903808747796
 20
9306.365915108479
 30
0.0
 11
6691.575237319224
 21
9278.365915108478
 31
0.0
  0
LINE
  5
151E8
330
747D
100
AcDbEntity
  8
部品1
 48
5.0
100
AcDbLine
 10
6722.19453430055
 20
9251.365915108479
 30
0.0
 11
6666.19453430055
 21
9251.365915108479
 31
0.0
  0
LINE
  5
151E9
330
747D
100
AcDbEntity
  8
部品1
 48
5.0
100
AcDbLine
 10
6749.194534300625
 20
9306.365915108484
 30
0.0
 11
6749.194534300619
 21
9278.365915108485
 31
0.0
  0
LINE
  5
151EA
330
747D
100
AcDbEntity
  8
部品1
 48
50.0
100
AcDbLine
 10
6664.747141788639
 20
9276.865915108515
 30
0.0
 11
6666.194534300514
 21
9278.365915108446
 31
0.0
  0
LINE
  5
151EB
330
747D
100
AcDbEntity
  8
部品1
 48
50.0
100
AcDbLine
 10
6723.694540978211
 20
9276.865915108407
 30
0.0
 11
6722.194534300587
 21
9278.3659151084
 31
0.0
  0
DIMENSION
  5
151EC
330
747D
100
AcDbEntity
  8
寸法
 48
50.0
100
AcDbDimension
  2
*D5
 10
7699.194534300625
 20
9522.174134733534
 30
0.0
 11
7644.194534300623
 21
9779.050803348036
 31
0.0
 70
   160
 71
     5
 42
110.0000000000036
  3
INABA_S40G
100
AcDbAlignedDimension
 13
7589.194534300621
 23
9306.365915108552
 33
0.0
 14
7699.194534300625
 24
9306.36591510853
 34
0.0
100
AcDbRotatedDimension
1001
ACAD
1000
DSTYLE
1002
{
1070
   279
1070
     2
1002
}
  0
DIMENSION
  5
151ED
330
747D
100
AcDbEntity
  8
寸法
100
AcDbDimension
  2
*D6
 10
9241.620880035034
 20
9251.365915108531
 30
0.0
 11
9241.620880035032
 21
9614.851196482771
 31
0.0
 70
   160
 71
     5
 42
55.0
  3
INABA_S40G
100
AcDbAlignedDimension
 13
8594.194534300623
 23
9306.36591510853
 33
0.0
 14
8594.194534300623
 24
9251.365915108531
 34
0.0
 50
90.0
100
AcDbRotatedDimension
1001
ACAD
1000
DSTYLE
1002
{
1002
}
  0
DIMENSION
  5
151EE
330
747D
100
AcDbEntity
  8
寸法
100
AcDbDimension
  2
*D7
 10
9550.732410850711
 20
8356.365915108517
 30
0.0
 11
9550.732410850709
 21
8830.343633667435
 31
0.0
 70
   160
 71
     5
 42
950.0000000000145
  3
INABA_S40G
100
AcDbAlignedDimension
 13
8594.194534300623
 23
9306.36591510853
 33
0.0
 14
8594.194534300596
 24
8356.365915108517
 34
0.0
 50
90.0
100
AcDbRotatedDimension
1001
ACAD
1000
DSTYLE
1002
{
1002
}
  0
DIMENSION
  5
151EF
330
747D
100
AcDbEntity
  8
寸法
100
AcDbDimension
  2
*D8
 10
9241.620880035009
 20
8356.365915108517
 30
0.0
 11
9241.620880035007
 21
7978.504448203658
 31
0.0
 70
   160
 71
     5
 42
55.0
  3
INABA_S40G
100
AcDbAlignedDimension
 13
8594.194534300596
 23
8411.365915108516
 33
0.0
 14
8594.194534300596
 24
8356.365915108517
 34
0.0
 50
90.0
100
AcDbRotatedDimension
1001
ACAD
1000
DSTYLE
1002
{
1002
}
  0
LINE
  5
151F1
330
747D
100
AcDbEntity
  8
想像線
 48
10.0
100
AcDbLine
 10
7469.194534300616
 20
8356.365915108472
 30
0.0
 11
7469.194534300616
 21
7635.448271452682
 31
0.0
  0
LINE
  5
151F2
330
747D
100
AcDbEntity
  8
想像線
 48
10.0
100
AcDbLine
 10
8419.194534300615
 20
8356.365915108483
 30
0.0
 11
8419.194534300615
 21
7635.448271452689
 31
0.0
  0
ARC
  5
151F3
330
747D
100
AcDbEntity
  8
想像線
 48
10.0
100
AcDbCircle
 10
8411.842483623455
 20
8358.060808484058
 30
0.0
 40
722.6499369155609
100
AcDbArc
 50
180.1343808685446
 51
270.5829222700353
  0
LINE
  5
151F4
330
747D
100
AcDbEntity
  8
部品1
100
AcDbLine
 10
8419.194534300615
 20
8382.365915108524
 30
0.0
 11
7689.194534300615
 21
8382.365915108469
 31
0.0
  0
LINE
  5
151F5
330
747D
100
AcDbEntity
  8
部品1
100
AcDbLine
 10
8537.693562875807
 20
8487.866020821369
 30
0.0
 11
7699.694534300599
 21
8487.865915133145
 31
0.0
  0
LINE
  5
151F6
330
747D
100
AcDbEntity
  8
破線
 48
10.0
100
AcDbLine
 10
8514.194534300601
 20
8511.365915108523
 30
0.0
 11
7723.194534300609
 21
8511.365915108488
 31
0.0
  0
LINE
  5
151F7
330
747D
100
AcDbEntity
  8
部品1
 48
5.0
100
AcDbLine
 10
8551.194534300597
 20
8385.865915108473
 30
0.0
 11
7668.194534300617
 21
8385.865915108473
 31
0.0
  0
LINE
  5
151F8
330
747D
100
AcDbEntity
  8
部品1
100
AcDbLine
 10
7672.194534300546
 20
9278.365915108484
 30
0.0
 11
8566.194534300622
 21
9278.36591510853
 31
0.0
  0
LINE
  5
151F9
330
747D
100
AcDbEntity
  8
細線
 48
50.0
100
AcDbLine
 10
8565.194540978216
 20
8826.865915108509
 30
0.0
 11
7673.194540978217
 21
9276.865915108407
 31
0.0
  0
LINE
  5
151FA
330
747D
100
AcDbEntity
  8
細線
 48
50.0
100
AcDbLine
 10
8565.194540978216
 20
9276.865915108508
 30
0.0
 11
7673.194540978217
 21
8826.865915108406
 31
0.0
  0
LINE
  5
151FB
330
747D
100
AcDbEntity
  8
部品1
100
AcDbLine
 10
7673.194540978219
 20
8826.865915108406
 30
0.0
 11
8565.194540978216
 21
8826.865915108509
 31
0.0
  0
LINE
  5
151FD
330
747D
100
AcDbEntity
  8
部品1
100
AcDbLine
 10
7673.194540978217
 20
9276.865915108407
 30
0.0
 11
8565.194540978216
 21
9276.865915108515
 31
0.0
  0
DIMENSION
  5
151FE
330
747D
100
AcDbEntity
  8
寸法
100
AcDbDimension
  2
*D9
 10
8539.194534300621
 20
9522.174134733534
 30
0.0
 11
8119.194534300623
 21
9522.174134733534
 31
0.0
 70
   160
  1
2X420=<>
 71
     5
 42
839.9999999999982
  3
INABA_S40G
100
AcDbAlignedDimension
 13
7699.194534300623
 23
9306.365915108465
 33
0.0
 14
8539.194534300621
 24
9306.365915108552
 34
0.0
100
AcDbRotatedDimension
1001
ACAD
1000
DSTYLE
1002
{
1002
}
  0
LINE
  5
151FF
330
747D
100
AcDbEntity
  8
部品1
 48
50.0
100
AcDbLine
 10
7615.194540978217
 20
9276.865915108508
 30
0.0
 11
7615.194540978217
 21
8826.865915108509
 31
0.0
  0
LINE
  5
15200
330
747D
100
AcDbEntity
  8
部品1
 48
50.0
100
AcDbLine
 10
7673.194540978217
 20
9276.8659151084
 30
0.0
 11
7673.194540978217
 21
8826.865915108406
 31
0.0
  0
LINE
  5
15201
330
747D
100
AcDbEntity
  8
部品1
 48
50.0
100
AcDbLine
 10
7672.194534300601
 20
8411.365915108472
 30
0.0
 11
7672.194534300546
 21
9306.365915108479
 31
0.0
  0
LINE
  5
15202
330
747D
100
AcDbEntity
  8
部品1
 48
50.0
100
AcDbLine
 10
7616.194534300601
 20
8411.365915108472
 30
0.0
 11
7616.194534300548
 21
9278.365915108478
 31
0.0
  0
LINE
  5
15203
330
747D
100
AcDbEntity
  8
部品1
 48
50.0
100
AcDbLine
 10
7644.194534300601
 20
8411.365915108472
 30
0.0
 11
7644.194534300601
 21
9251.365915108479
 31
0.0
  0
LINE
  5
15204
330
747D
100
AcDbEntity
  8
部品1
 48
50.0
100
AcDbLine
 10
7168.694534300609
 20
8826.865915108458
 30
0.0
 11
7168.694371428505
 21
8487.86508294526
 31
0.0
  0
LINE
  5
15205
330
747D
100
AcDbEntity
  8
部品1
100
AcDbLine
 10
7469.194534300616
 20
8382.365915108524
 30
0.0
 11
7469.194534300616
 21
8356.365915108469
 31
0.0
  0
ARC
  5
15206
330
747D
100
AcDbEntity
  8
部品1
 48
0.2
100
AcDbCircle
 10
7461.256982129292
 20
8357.363545063694
 30
0.0
 40
8.0
100
AcDbArc
 50
270.0
 51
352.8363522778074
  0
ARC
  5
15207
330
747D
100
AcDbEntity
  8
細線
 48
0.2
100
AcDbCircle
 10
7461.256982129292
 20
8357.363545063694
 30
0.0
 40
4.049999999999999
100
AcDbArc
 50
194.2603506853988
 51
345.7396493146012
  0
LINE
  5
15208
330
747D
100
AcDbEntity
  8
部品1
 48
0.2
100
AcDbLine
 10
7456.256982129293
 20
8349.363545063694
 30
0.0
 11
7461.256982129292
 21
8349.363545063694
 31
0.0
  0
LINE
  5
15209
330
747D
100
AcDbEntity
  8
部品1
 48
5.0
100
AcDbLine
 10
7471.194534300618
 20
8385.865915108473
 30
0.0
 11
7471.194534300618
 21
8356.365915108472
 31
0.0
  0
ARC
  5
1520A
330
747D
100
AcDbEntity
  8
部品1
 48
0.2
100
AcDbCircle
 10
7456.256982129293
 20
8357.363545063694
 30
0.0
 40
8.0
100
AcDbArc
 50
187.1636477221926
 51
269.9999999999992
  0
LINE
  5
1520B
330
747D
100
AcDbEntity
  8
破線
 48
10.0
100
AcDbLine
 10
7723.194534300609
 20
8511.365915108488
 30
0.0
 11
7723.194521869499
 21
8826.865915108482
 31
0.0
  0
LINE
  5
1520C
330
747D
100
AcDbEntity
  8
破線
 48
10.0
100
AcDbLine
 10
7565.194534300609
 20
8511.365915108479
 30
0.0
 11
7565.194525946056
 21
8826.865915108538
 31
0.0
  0
LINE
  5
1520D
330
747D
100
AcDbEntity
  8
部品1
 48
50.0
100
AcDbLine
 10
7588.6945343006
 20
8487.865915108478
 30
0.0
 11
7588.694534300576
 21
8826.865915108538
 31
0.0
  0
LINE
  5
1520E
330
747D
100
AcDbEntity
  8
部品1
 48
50.0
100
AcDbLine
 10
7699.694527956315
 20
8487.865915133141
 30
0.0
 11
7699.694530929177
 21
8826.865915108482
 31
0.0
  0
LINE
  5
1520F
330
747D
100
AcDbEntity
  8
部品1
 48
50.0
100
AcDbLine
 10
8118.694534300608
 20
8826.865915108458
 30
0.0
 11
8118.694371428505
 21
8487.86508294526
 31
0.0
  0
LINE
  5
15210
330
747D
100
AcDbEntity
  8
部品1
100
AcDbLine
 10
7687.194534300616
 20
8385.865915108425
 30
0.0
 11
7687.194534300617
 21
8356.365915108472
 31
0.0
  0
LINE
  5
15211
330
747D
100
AcDbEntity
  8
部品1
100
AcDbLine
 10
7689.194534300615
 20
8382.365915108465
 30
0.0
 11
7689.194534300614
 21
8356.365915108472
 31
0.0
  0
LINE
  5
15212
330
747D
100
AcDbEntity
  8
部品1
 48
5.0
100
AcDbLine
 10
7687.194534300617
 20
8385.865915108473
 30
0.0
 11
7687.194534300617
 21
8356.365915108472
 31
0.0
  0
LINE
  5
15213
330
747D
100
AcDbEntity
  8
部品1
 48
5.0
100
AcDbLine
 10
7699.194534300618
 20
8411.365915108472
 30
0.0
 11
7699.19453430062
 21
8385.865915108473
 31
0.0
  0
LINE
  5
15214
330
747D
100
AcDbEntity
  8
部品1
 48
5.0
100
AcDbLine
 10
7668.194534300619
 20
8411.365915108472
 30
0.0
 11
7668.194534300617
 21
8385.865915108473
 31
0.0
  0
LINE
  5
15215
330
747D
100
AcDbEntity
  8
部品1
 48
5.0
100
AcDbLine
 10
7620.194534300617
 20
8411.365915108472
 30
0.0
 11
7620.194534300617
 21
8385.865915108473
 31
0.0
  0
LINE
  5
15216
330
747D
100
AcDbEntity
  8
部品1
 48
5.0
100
AcDbLine
 10
7616.194534300601
 20
8411.365915108472
 30
0.0
 11
7672.194534300601
 21
8411.365915108472
 31
0.0
  0
LINE
  5
15217
330
747D
100
AcDbEntity
  8
部品1
 48
5.0
100
AcDbLine
 10
7676.194534300617
 20
8411.365915108472
 30
0.0
 11
7699.194534300618
 21
8411.365915108472
 31
0.0
  0
LINE
  5
15218
330
747D
100
AcDbEntity
  8
部品1
 48
50.0
100
AcDbLine
 10
7699.694534300599
 20
8487.865915133145
 30
0.0
 11
7672.194534300601
 21
8459.865915108471
 31
0.0
  0
LINE
  5
15219
330
747D
100
AcDbEntity
  8
部品1
100
AcDbLine
 10
7601.194534300616
 20
8385.865915108418
 30
0.0
 11
7601.194534300612
 21
8356.365915108465
 31
0.0
  0
LINE
  5
1521A
330
747D
100
AcDbEntity
  8
部品1
 48
5.0
100
AcDbLine
 10
7601.194534300617
 20
8385.865915108473
 30
0.0
 11
7601.194534300617
 21
8356.365915108472
 31
0.0
  0
LINE
  5
1521B
330
747D
100
AcDbEntity
  8
部品1
 48
5.0
100
AcDbLine
 10
7589.194534300617
 20
8411.365915108472
 30
0.0
 11
7589.19453430062
 21
8385.865915108473
 31
0.0
  0
LINE
  5
1521D
330
747D
100
AcDbEntity
  8
部品1
 48
5.0
100
AcDbLine
 10
7612.194534300617
 20
8411.365915108472
 30
0.0
 11
7589.194534300616
 21
8411.365915108472
 31
0.0
  0
LINE
  5
1521E
330
747D
100
AcDbEntity
  8
部品1
 48
50.0
100
AcDbLine
 10
7616.194534300601
 20
8459.865915108471
 30
0.0
 11
7588.6945343006
 21
8487.865915108478
 31
0.0
  0
LINE
  5
1521F
330
747D
100
AcDbEntity
  8
部品1
 48
5.0
100
AcDbLine
 10
7644.194534300601
 20
8831.365915108476
 30
0.0
 11
7616.19453430055
 21
8831.365915108479
 31
0.0
  0
LINE
  5
15220
330
747D
100
AcDbEntity
  8
部品1
 48
50.0
100
AcDbLine
 10
7644.194534300594
 20
8831.365915108479
 30
0.0
 11
7672.194534300576
 21
8831.365915108483
 31
0.0
  0
LINE
  5
15221
330
747D
100
AcDbEntity
  8
部品1
 48
50.0
100
AcDbLine
 10
7644.194534300594
 20
8869.365915108479
 30
0.0
 11
7672.194534300576
 21
8869.365915108483
 31
0.0
  0
LINE
  5
15222
330
747D
100
AcDbEntity
  8
部品1
100
AcDbLine
 10
7168.694534300553
 20
9306.365915108363
 30
0.0
 11
7168.694534300553
 21
9278.365915108363
 31
0.0
  0
LINE
  5
15223
330
747D
100
AcDbEntity
  8
部品1
100
AcDbLine
 10
7168.694534300586
 20
9306.365915108395
 30
0.0
 11
7168.694534300586
 21
9278.365915108395
 31
0.0
  0
LINE
  5
15224
330
747D
100
AcDbEntity
  8
部品1
 48
5.0
100
AcDbLine
 10
7699.194534300625
 20
9306.365915108484
 30
0.0
 11
7699.19453430062
 21
9278.365915108485
 31
0.0
  0
LINE
  5
15225
330
747D
100
AcDbEntity
  8
部品1
 48
5.0
100
AcDbLine
 10
7618.903808747797
 20
9306.365915108479
 30
0.0
 11
7641.575237319225
 21
9278.365915108478
 31
0.0
  0
LINE
  5
15226
330
747D
100
AcDbEntity
  8
部品1
 48
5.0
100
AcDbLine
 10
7672.19453430055
 20
9251.365915108479
 30
0.0
 11
7616.19453430055
 21
9251.365915108479
 31
0.0
  0
LINE
  5
15227
330
747D
100
AcDbEntity
  8
部品1
 48
50.0
100
AcDbLine
 10
7614.747141788639
 20
9276.865915108515
 30
0.0
 11
7616.194534300515
 21
9278.365915108446
 31
0.0
  0
LINE
  5
15228
330
747D
100
AcDbEntity
  8
部品1
 48
50.0
100
AcDbLine
 10
7673.69454097821
 20
9276.865915108407
 30
0.0
 11
7672.194534300587
 21
9278.3659151084
 31
0.0
  0
LINE
  5
15229
330
747D
100
AcDbEntity
  8
部品1
 48
5.0
100
AcDbLine
 10
7589.19453430062
 20
9278.365915108478
 30
0.0
 11
7589.194534300621
 21
9306.365915108479
 31
0.0
  0
LINE
  5
1522A
330
747D
100
AcDbEntity
  8
部品1
100
AcDbLine
 10
8118.694534300585
 20
9306.36591510847
 30
0.0
 11
8118.694534300585
 21
9278.365915108469
 31
0.0
  0
LINE
  5
1522B
330
747D
100
AcDbEntity
  8
部品1
100
AcDbLine
 10
8118.694534300553
 20
9306.365915108436
 30
0.0
 11
8118.694534300553
 21
9278.365915108436
 31
0.0
  0
LINE
  5
1522C
330
747D
100
AcDbEntity
  8
部品1
 48
50.0
100
AcDbLine
 10
8565.194540978216
 20
9276.865915108508
 30
0.0
 11
8565.194540978216
 21
8826.865915108509
 31
0.0
  0
LINE
  5
1522D
330
747D
100
AcDbEntity
  8
部品1
100
AcDbLine
 10
8566.194534300622
 20
9278.36591510853
 30
0.0
 11
8566.194534300599
 21
8411.365915108516
 31
0.0
  0
DIMENSION
  5
1522E
330
747D
100
AcDbEntity
  8
寸法
100
AcDbDimension
  2
*D10
 10
9241.620880035034
 20
8411.365915108516
 30
0.0
 11
9241.620880035032
 21
8831.365915108525
 31
0.0
 70
   160
  1
2X420=<>
 71
     5
 42
840.0000000000146
  3
INABA_S40G
100
AcDbAlignedDimension
 13
8594.194534300623
 23
9251.365915108531
 33
0.0
 14
8594.194534300596
 24
8411.365915108516
 34
0.0
 50
90.0
100
AcDbRotatedDimension
1001
ACAD
1000
DSTYLE
1002
{
1002
}
  0
LINE
  5
1522F
330
747D
100
AcDbEntity
  8
部品1
100
AcDbLine
 10
8594.194534300623
 20
9306.36591510853
 30
0.0
 11
8594.194534300596
 21
8356.365915108517
 31
0.0
  0
DIMENSION
  5
15230
330
747D
100
AcDbEntity
  8
寸法
100
AcDbDimension
  2
*D11
 10
8920.552266840259
 20
8731.648099439519
 30
0.0
 11
8920.552266840255
 21
8956.648099439513
 31
0.0
 70
   160
 71
     5
 42
449.9999999999927
  3
INABA_S40G
100
AcDbAlignedDimension
 13
8565.194540978231
 23
9276.8659151084
 33
0.0
 14
8565.194540978243
 24
8826.865915108406
 34
0.0
 50
90.0
100
AcDbRotatedDimension
1001
ACAD
1000
DSTYLE
1002
{
1002
}
  0
LINE
  5
15231
330
747D
100
AcDbEntity
  8
破線
 48
10.0
100
AcDbLine
 10
8514.194599225291
 20
8826.865915108479
 30
0.0
 11
8514.194534300605
 21
8511.365915108523
 31
0.0
  0
LINE
  5
15232
330
747D
100
AcDbEntity
  8
部品1
 48
5.0
100
AcDbLine
 10
8537.693562875665
 20
8487.86591510853
 30
0.0
 11
8537.694055806976
 21
8826.865915108475
 31
0.0
  0
LINE
  5
15233
330
747D
100
AcDbEntity
  8
部品1
100
AcDbLine
 10
8419.194534300615
 20
8382.365915108524
 30
0.0
 11
8419.194534300615
 21
8356.365915108517
 31
0.0
  0
LINE
  5
15234
330
747D
100
AcDbEntity
  8
部品1
 48
0.2
100
AcDbLine
 10
8406.256982129296
 20
8349.363545063713
 30
0.0
 11
8411.256982129295
 21
8349.363545063713
 31
0.0
  0
ARC
  5
15235
330
747D
100
AcDbEntity
  8
部品1
 48
0.2
100
AcDbCircle
 10
8411.256982129295
 20
8357.363545063712
 30
0.0
 40
8.0
100
AcDbArc
 50
270.0
 51
352.8363522778074
  0
ARC
  5
15236
330
747D
100
AcDbEntity
  8
部品1
 48
0.2
100
AcDbCircle
 10
8406.256982129296
 20
8357.363545063712
 30
0.0
 40
8.0
100
AcDbArc
 50
187.1636477221926
 51
269.9999999999992
  0
ARC
  5
15237
330
747D
100
AcDbEntity
  8
細線
 48
0.2
100
AcDbCircle
 10
8411.256982129295
 20
8357.363545063712
 30
0.0
 40
4.049999999999999
100
AcDbArc
 50
194.2603506853988
 51
345.7396493146012
  0
LINE
  5
15238
330
747D
100
AcDbEntity
  8
部品1
 48
2.83
100
AcDbLine
 10
8421.194534300598
 20
8385.865915108487
 30
0.0
 11
8421.194534300598
 21
8356.365915108487
 31
0.0
  0
LINE
  5
15239
330
747D
100
AcDbEntity
  8
部品1
100
AcDbLine
 10
8566.194534300631
 20
8411.365915108531
 30
0.0
 11
8594.19453430063
 21
8411.365915108531
 31
0.0
  0
LINE
  5
1523A
330
747D
100
AcDbEntity
  8
部品1
100
AcDbLine
 10
8566.194534300599
 20
8411.365915108516
 30
0.0
 11
8594.194534300596
 21
8411.365915108516
 31
0.0
  0
LINE
  5
1523B
330
747D
100
AcDbEntity
  8
部品1
 48
2.83
100
AcDbLine
 10
8562.194534300598
 20
8411.365915108488
 30
0.0
 11
8539.194534300596
 21
8411.365915108488
 31
0.0
  0
LINE
  5
1523C
330
747D
100
AcDbEntity
  8
部品1
 48
2.83
100
AcDbLine
 10
8594.194534300596
 20
8411.365915108488
 30
0.0
 11
8571.194534300598
 21
8411.365915108488
 31
0.0
  0
LINE
  5
1523D
330
747D
100
AcDbEntity
  8
部品1
 48
2.83
100
AcDbLine
 10
8539.194534300596
 20
8411.365915108488
 30
0.0
 11
8539.194534300596
 21
8385.865915108487
 31
0.0
  0
LINE
  5
1523E
330
747D
100
AcDbEntity
  8
部品1
 48
2.83
100
AcDbLine
 10
8551.194534300597
 20
8385.865915108487
 30
0.0
 11
8551.194534300597
 21
8356.365915108487
 31
0.0
  0
LINE
  5
1523F
330
747D
100
AcDbEntity
  8
部品1
 48
50.0
100
AcDbLine
 10
8566.194534300599
 20
8458.846849916119
 30
0.0
 11
8537.693562875807
 21
8487.866020821369
 31
0.0
  0
LINE
  5
15240
330
747D
100
AcDbEntity
  8
部品1
100
AcDbLine
 10
8566.194534300622
 20
8831.365915108531
 30
0.0
 11
8594.194534300623
 21
8831.365915108531
 31
0.0
  0
DIMENSION
  5
15241
330
747D
100
AcDbEntity
  8
寸法
100
AcDbDimension
  2
*D12
 10
8594.194534300623
 20
9522.174134733512
 30
0.0
 11
8902.679815674861
 21
9522.174134733512
 31
0.0
 70
   160
 71
     5
 42
55.0
  3
INABA_S40G
100
AcDbAlignedDimension
 13
8539.194534300623
 23
9306.36591510853
 33
0.0
 14
8594.194534300623
 24
9306.36591510853
 34
0.0
100
AcDbRotatedDimension
1001
ACAD
1000
DSTYLE
1002
{
1002
}
  0
LINE
  5
15242
330
747D
100
AcDbEntity
  8
部品1
100
AcDbLine
 10
8539.194534300623
 20
9306.365915108544
 30
0.0
 11
8539.194534300623
 21
9278.365915108544
 31
0.0
  0
LINE
  5
15243
330
747D
100
AcDbEntity
  8
部品1
100
AcDbLine
 10
8539.194534300623
 20
9306.36591510853
 30
0.0
 11
8539.194534300623
 21
9278.36591510853
 31
0.0
  0
LINE
  5
15244
330
747D
100
AcDbEntity
  8
部品1
100
AcDbLine
 10
8566.194534300622
 20
9251.365915108531
 30
0.0
 11
8594.194534300623
 21
9251.365915108531
 31
0.0
  0
LINE
  5
15245
330
747D
100
AcDbEntity
  8
部品1
 48
50.0
100
AcDbLine
 10
8564.74714178864
 20
9276.865915108515
 30
0.0
 11
8566.194534300514
 21
9278.365915108446
 31
0.0
  0
LINE
  5
15246
330
747D
100
AcDbEntity
  8
部品1
100
AcDbLine
 10
6739.194534300615
 20
5407.077276893859
 30
0.0
 11
7449.132086471934
 21
5407.07727689386
 31
0.0
  0
LINE
  5
15247
330
747D
100
AcDbEntity
  8
部品1
100
AcDbLine
 10
6739.194534300615
 20
3616.077276893874
 30
0.0
 11
7449.132086471934
 21
3616.077276893879
 31
0.0
  0
LINE
  5
15251
330
747D
100
AcDbEntity
  8
部品1
100
AcDbLine
 10
6737.194534300616
 20
5409.577276893861
 30
0.0
 11
6737.194534300616
 21
3612.577276893881
 31
0.0
  0
LINE
  5
15252
330
747D
100
AcDbEntity
  8
部品1
100
AcDbLine
 10
6739.194534300615
 20
5407.07727689386
 30
0.0
 11
6739.194534300615
 21
3616.077276893875
 31
0.0
  0
LINE
  5
15253
330
747D
100
AcDbEntity
  8
部品1
100
AcDbLine
 10
4837.194534300615
 20
5409.577276893861
 30
0.0
 11
4837.194534300615
 21
3612.577276893881
 31
0.0
  0
LINE
  5
15254
330
747D
100
AcDbEntity
  8
部品1
100
AcDbLine
 10
4794.194534300615
 20
5503.577276893864
 30
0.0
 11
4794.194534300615
 21
3469.577276893861
 31
0.0
  0
LINE
  5
15255
330
747D
100
AcDbEntity
  8
部品1
100
AcDbLine
 10
4839.194534300616
 20
5407.077276893864
 30
0.0
 11
4839.194534300616
 21
3616.077276893867
 31
0.0
  0
LINE
  5
15256
330
747D
100
AcDbEntity
  8
部品1
100
AcDbLine
 10
6519.194534300614
 20
5407.07727689386
 30
0.0
 11
6519.194534300615
 21
3616.077276893881
 31
0.0
  0
LINE
  5
15257
330
747D
100
AcDbEntity
  8
部品1
100
AcDbLine
 10
6651.194534300616
 20
5409.577276893861
 30
0.0
 11
6651.194534300616
 21
3612.577276893881
 31
0.0
  0
DIMENSION
  5
15258
330
747D
100
AcDbEntity
  8
寸法
100
AcDbDimension
  2
*D13
 10
4476.090006693012
 20
3631.077276893865
 30
0.0
 11
4476.090006693012
 21
4510.077276893862
 31
0.0
 70
   160
  1
有効開口部高サ<>
 71
     5
 42
1759.999999999996
  3
INABA_S40G
100
AcDbAlignedDimension
 13
4794.194534300615
 23
5391.07727689386
 33
0.0
 14
4794.194534300615
 24
3631.077276893865
 34
0.0
 50
90.0
100
AcDbRotatedDimension
1001
ACAD
1000
DSTYLE
1002
{
1070
   288
1070
     1
1002
}
  0
LINE
  5
15259
330
747D
100
AcDbEntity
  8
部品1
100
AcDbLine
 10
6521.194534300615
 20
5409.577276893861
 30
0.0
 11
6521.194534300615
 21
3612.577276893881
 31
0.0
  0
LINE
  5
1525A
330
747D
100
AcDbEntity
  8
部品1
100
AcDbLine
 10
5789.194534300616
 20
3616.077276893867
 30
0.0
 11
6499.132086471934
 21
3616.077276893881
 31
0.0
  0
LINE
  5
1525C
330
747D
100
AcDbEntity
  8
部品1
100
AcDbLine
 10
6519.132086471934
 20
3616.077276893872
 30
0.0
 11
6519.194534300615
 21
3616.077276893872
 31
0.0
  0
LINE
  5
1525D
330
747D
100
AcDbEntity
  8
部品1
100
AcDbLine
 10
6519.132086471934
 20
3616.077276893881
 30
0.0
 11
6519.194534300615
 21
3616.077276893881
 31
0.0
  0
ARC
  5
1525E
330
747D
100
AcDbEntity
  8
細線
 48
0.2
100
AcDbCircle
 10
6516.132086471934
 20
3615.856767062631
 30
0.0
 40
1.0
100
AcDbArc
 50
286.6015495990217
 51
0.0
  0
LINE
  5
1525F
330
747D
100
AcDbEntity
  8
細線
 48
50.0
100
AcDbLine
 10
6515.119739323594
 20
3618.327276893881
 30
0.0
 11
6515.119739323594
 21
3620.32727689388
 31
0.0
  0
LINE
  5
15260
330
747D
100
AcDbEntity
  8
細線
 48
0.1
100
AcDbLine
 10
6519.132086471934
 20
3615.82727689388
 30
0.0
 11
6519.132086471934
 21
3622.827276893879
 31
0.0
  0
LINE
  5
15261
330
747D
100
AcDbEntity
  8
細線
 48
50.0
100
AcDbLine
 10
6499.132086471934
 20
3616.077276893881
 30
0.0
 11
6499.132086471934
 21
3615.82727689388
 31
0.0
  0
ARC
  5
15262
330
747D
100
AcDbEntity
  8
細線
 48
0.2
100
AcDbCircle
 10
6506.132086471935
 20
3615.856767062631
 30
0.0
 40
1.0
100
AcDbArc
 50
179.9999999999984
 51
253.3984504009775
  0
LINE
  5
15263
330
747D
100
AcDbEntity
  8
部品1
 48
50.0
100
AcDbLine
 10
6499.132086471934
 20
3622.827276893879
 30
0.0
 11
6499.132086471934
 21
3616.077276893881
 31
0.0
  0
LINE
  5
15264
330
747D
100
AcDbEntity
  8
細線
 48
50.0
100
AcDbLine
 10
6507.26932927763
 20
3618.327276893881
 30
0.0
 11
6507.26932927763
 21
3620.32727689388
 31
0.0
  0
LINE
  5
15265
330
747D
100
AcDbEntity
  8
部品1
 48
0.2
100
AcDbLine
 10
6519.132086471934
 20
3622.827276893879
 30
0.0
 11
6499.132086471934
 21
3622.827276893879
 31
0.0
  0
LINE
  5
15266
330
747D
100
AcDbEntity
  8
細線
 48
0.2
100
AcDbLine
 10
6519.132086471934
 20
3620.32727689388
 30
0.0
 11
6499.132086471934
 21
3620.32727689388
 31
0.0
  0
LINE
  5
15267
330
747D
100
AcDbEntity
  8
細線
 48
0.2
100
AcDbLine
 10
6516.816077768442
 20
3615.127276893878
 30
0.0
 11
6505.44809517543
 21
3615.127276893878
 31
0.0
  0
ARC
  5
15268
330
747D
100
AcDbEntity
  8
細線
 48
0.2
100
AcDbCircle
 10
6511.132086471935
 20
3632.627276893876
 30
0.0
 40
18.49999999999796
100
AcDbArc
 50
253.3984504009772
 51
286.6015495990217
  0
LINE
  5
15269
330
747D
100
AcDbEntity
  8
細線
 48
0.2
100
AcDbLine
 10
6519.132086471934
 20
3618.327276893879
 30
0.0
 11
6499.132086471934
 21
3618.327276893881
 31
0.0
  0
LINE
  5
1526A
330
747D
100
AcDbEntity
  8
細線
 48
0.2
100
AcDbLine
 10
6519.132086471934
 20
3615.82727689388
 30
0.0
 11
6499.132086471934
 21
3615.82727689388
 31
0.0
  0
LINE
  5
152BB
330
747D
100
AcDbEntity
  8
部品1
100
AcDbLine
 10
5789.194534300616
 20
5407.077276893862
 30
0.0
 11
6499.132086471934
 21
5407.077276893862
 31
0.0
  0
LINE
  5
152BC
330
747D
100
AcDbEntity
  8
部品1
100
AcDbLine
 10
6519.132086471934
 20
5407.077276893862
 30
0.0
 11
6519.194534300615
 21
5407.07727689386
 31
0.0
  0
ARC
  5
152BD
330
747D
100
AcDbEntity
  8
細線
 48
0.2
100
AcDbCircle
 10
6516.132086471934
 20
5407.29778672511
 30
0.0
 40
1.0
100
AcDbArc
 50
0.0
 51
73.39845040097829
  0
LINE
  5
152BE
330
747D
100
AcDbEntity
  8
細線
 48
50.0
100
AcDbLine
 10
6499.132086471934
 20
5407.077276893862
 30
0.0
 11
6499.132086471934
 21
5407.327276893862
 31
0.0
  0
ARC
  5
152BF
330
747D
100
AcDbEntity
  8
細線
 48
0.2
100
AcDbCircle
 10
6506.132086471935
 20
5407.29778672511
 30
0.0
 40
1.0
100
AcDbArc
 50
106.6015495990225
 51
180.0000000000016
  0
LINE
  5
152C0
330
747D
100
AcDbEntity
  8
細線
 48
0.2
100
AcDbLine
 10
6519.132086471934
 20
5407.327276893862
 30
0.0
 11
6499.132086471934
 21
5407.327276893862
 31
0.0
  0
LINE
  5
152C1
330
747D
100
AcDbEntity
  8
細線
 48
0.2
100
AcDbLine
 10
6519.132086471934
 20
5404.827276893862
 30
0.0
 11
6499.132086471934
 21
5404.827276893862
 31
0.0
  0
ARC
  5
152C2
330
747D
100
AcDbEntity
  8
細線
 48
0.2
100
AcDbCircle
 10
6511.132086471935
 20
5390.527276893865
 30
0.0
 40
18.49999999999796
100
AcDbArc
 50
73.39845040097829
 51
106.6015495990228
  0
LINE
  5
152C3
330
747D
100
AcDbEntity
  8
細線
 48
0.2
100
AcDbLine
 10
6516.816077768442
 20
5408.027276893863
 30
0.0
 11
6505.44809517543
 21
5408.027276893863
 31
0.0
  0
LINE
  5
152C4
330
747D
100
AcDbEntity
  8
細線
 48
0.2
100
AcDbLine
 10
6519.132086471934
 20
5402.827276893862
 30
0.0
 11
6499.132086471934
 21
5402.827276893862
 31
0.0
  0
LINE
  5
152C5
330
747D
100
AcDbEntity
  8
部品1
 48
0.2
100
AcDbLine
 10
6519.132086471934
 20
5400.327276893862
 30
0.0
 11
6499.132086471934
 21
5400.327276893862
 31
0.0
  0
LINE
  5
152C6
330
747D
100
AcDbEntity
  8
部品1
 48
50.0
100
AcDbLine
 10
6499.132086471934
 20
5400.327276893862
 30
0.0
 11
6499.132086471934
 21
5407.077276893862
 31
0.0
  0
LINE
  5
152C7
330
747D
100
AcDbEntity
  8
細線
 48
50.0
100
AcDbLine
 10
6507.26932927763
 20
5404.827276893862
 30
0.0
 11
6507.26932927763
 21
5402.827276893862
 31
0.0
  0
LINE
  5
152C8
330
747D
100
AcDbEntity
  8
細線
 48
0.1
100
AcDbLine
 10
6519.132086471934
 20
5407.327276893862
 30
0.0
 11
6519.132086471934
 21
5400.327276893862
 31
0.0
  0
LINE
  5
152C9
330
747D
100
AcDbEntity
  8
細線
 48
50.0
100
AcDbLine
 10
6515.119739323594
 20
5404.827276893862
 30
0.0
 11
6515.119739323594
 21
5402.827276893862
 31
0.0
  0
LINE
  5
152E4
330
747D
100
AcDbEntity
  8
部品1
100
AcDbLine
 10
7601.194534300616
 20
5409.577276893861
 30
0.0
 11
7601.194534300616
 21
3612.577276893881
 31
0.0
  0
LINE
  5
152E5
330
747D
100
AcDbEntity
  8
部品1
100
AcDbLine
 10
7469.194534300616
 20
5407.07727689386
 30
0.0
 11
7469.194534300616
 21
3616.077276893883
 31
0.0
  0
LINE
  5
152E6
330
747D
100
AcDbEntity
  8
部品1
100
AcDbLine
 10
7471.194534300614
 20
5409.577276893861
 30
0.0
 11
7471.194534300614
 21
3612.577276893881
 31
0.0
  0
LINE
  5
152E7
330
747D
100
AcDbEntity
  8
部品1
100
AcDbLine
 10
7687.194534300616
 20
5409.577276893861
 30
0.0
 11
7687.194534300616
 21
3612.577276893881
 31
0.0
  0
LINE
  5
152E8
330
747D
100
AcDbEntity
  8
部品1
100
AcDbLine
 10
7689.194534300615
 20
5407.077276893859
 30
0.0
 11
7689.194534300615
 21
3616.077276893875
 31
0.0
  0
LINE
  5
152E9
330
747D
100
AcDbEntity
  8
部品1
100
AcDbLine
 10
8419.194534300613
 20
5407.07727689386
 30
0.0
 11
8419.194534300615
 21
3616.077276893883
 31
0.0
  0
LINE
  5
152EA
330
747D
100
AcDbEntity
  8
部品1
100
AcDbLine
 10
8594.194534300616
 20
5503.57727689386
 30
0.0
 11
8594.194534300616
 21
3469.577276893861
 31
0.0
  0
LINE
  5
152EB
330
747D
100
AcDbEntity
  8
部品1
100
AcDbLine
 10
8551.194534300616
 20
5409.577276893861
 30
0.0
 11
8551.194534300616
 21
3612.577276893881
 31
0.0
  0
LINE
  5
152EC
330
747D
100
AcDbEntity
  8
部品1
100
AcDbLine
 10
8421.194534300616
 20
5409.577276893861
 30
0.0
 11
8421.194534300616
 21
3612.577276893881
 31
0.0
  0
LINE
  5
152ED
330
747D
100
AcDbEntity
  8
部品1
100
AcDbLine
 10
7689.194534300615
 20
3616.077276893874
 30
0.0
 11
8399.132086471935
 21
3616.077276893879
 31
0.0
  0
LINE
  5
152EF
330
747D
100
AcDbEntity
  8
細線
 48
0.2
100
AcDbLine
 10
7469.132086471934
 20
3620.32727689388
 30
0.0
 11
7449.132086471934
 21
3620.32727689388
 31
0.0
  0
LINE
  5
152F0
330
747D
100
AcDbEntity
  8
部品1
 48
0.2
100
AcDbLine
 10
7469.132086471934
 20
3622.827276893879
 30
0.0
 11
7449.132086471934
 21
3622.827276893879
 31
0.0
  0
LINE
  5
152F1
330
747D
100
AcDbEntity
  8
部品1
100
AcDbLine
 10
7469.132086471934
 20
3616.077276893881
 30
0.0
 11
7469.194534300616
 21
3616.077276893881
 31
0.0
  0
ARC
  5
152F2
330
747D
100
AcDbEntity
  8
細線
 48
0.2
100
AcDbCircle
 10
7466.132086471934
 20
3615.856767062631
 30
0.0
 40
1.0
100
AcDbArc
 50
286.6015495990217
 51
0.0
  0
LINE
  5
152F3
330
747D
100
AcDbEntity
  8
細線
 48
0.2
100
AcDbLine
 10
7469.132086471934
 20
3615.82727689388
 30
0.0
 11
7449.132086471934
 21
3615.82727689388
 31
0.0
  0
LINE
  5
152F4
330
747D
100
AcDbEntity
  8
細線
 48
0.2
100
AcDbLine
 10
7469.132086471934
 20
3618.327276893879
 30
0.0
 11
7449.132086471934
 21
3618.327276893881
 31
0.0
  0
ARC
  5
152F5
330
747D
100
AcDbEntity
  8
細線
 48
0.2
100
AcDbCircle
 10
7456.132086471935
 20
3615.856767062631
 30
0.0
 40
1.0
100
AcDbArc
 50
179.9999999999984
 51
253.3984504009775
  0
ARC
  5
152F6
330
747D
100
AcDbEntity
  8
細線
 48
0.2
100
AcDbCircle
 10
7461.132086471934
 20
3632.627276893876
 30
0.0
 40
18.49999999999796
100
AcDbArc
 50
253.3984504009772
 51
286.6015495990217
  0
LINE
  5
152F7
330
747D
100
AcDbEntity
  8
細線
 48
0.2
100
AcDbLine
 10
7466.816077768442
 20
3615.127276893878
 30
0.0
 11
7455.44809517543
 21
3615.127276893878
 31
0.0
  0
LINE
  5
152F8
330
747D
100
AcDbEntity
  8
細線
 48
50.0
100
AcDbLine
 10
7449.132086471934
 20
3616.077276893881
 30
0.0
 11
7449.132086471934
 21
3615.82727689388
 31
0.0
  0
LINE
  5
152F9
330
747D
100
AcDbEntity
  8
部品1
100
AcDbLine
 10
7469.132086471934
 20
3616.077276893881
 30
0.0
 11
7469.194534300616
 21
3616.077276893881
 31
0.0
  0
LINE
  5
152FA
330
747D
100
AcDbEntity
  8
部品1
100
AcDbLine
 10
7469.132086471934
 20
3616.077276893883
 30
0.0
 11
7469.194534300616
 21
3616.077276893883
 31
0.0
  0
LINE
  5
152FB
330
747D
100
AcDbEntity
  8
細線
 48
0.1
100
AcDbLine
 10
7469.132086471934
 20
3615.82727689388
 30
0.0
 11
7469.132086471934
 21
3622.827276893879
 31
0.0
  0
LINE
  5
152FC
330
747D
100
AcDbEntity
  8
細線
 48
50.0
100
AcDbLine
 10
7457.269329277631
 20
3618.327276893881
 30
0.0
 11
7457.269329277631
 21
3620.32727689388
 31
0.0
  0
LINE
  5
152FD
330
747D
100
AcDbEntity
  8
細線
 48
50.0
100
AcDbLine
 10
7465.119739323594
 20
3618.327276893881
 30
0.0
 11
7465.119739323594
 21
3620.32727689388
 31
0.0
  0
LINE
  5
152FE
330
747D
100
AcDbEntity
  8
部品1
 48
50.0
100
AcDbLine
 10
7449.132086471934
 20
3622.827276893879
 30
0.0
 11
7449.132086471934
 21
3616.077276893881
 31
0.0
  0
LINE
  5
15302
330
747D
100
AcDbEntity
  8
細線
 48
0.2
100
AcDbLine
 10
8419.132086471934
 20
3620.32727689388
 30
0.0
 11
8399.132086471935
 21
3620.32727689388
 31
0.0
  0
LINE
  5
15303
330
747D
100
AcDbEntity
  8
部品1
 48
0.2
100
AcDbLine
 10
8419.132086471934
 20
3622.827276893879
 30
0.0
 11
8399.132086471935
 21
3622.827276893879
 31
0.0
  0
LINE
  5
15304
330
747D
100
AcDbEntity
  8
部品1
100
AcDbLine
 10
8419.132086471934
 20
3616.077276893881
 30
0.0
 11
8419.194534300615
 21
3616.077276893881
 31
0.0
  0
ARC
  5
15305
330
747D
100
AcDbEntity
  8
細線
 48
0.2
100
AcDbCircle
 10
8416.132086471934
 20
3615.856767062631
 30
0.0
 40
1.0
100
AcDbArc
 50
286.6015495990217
 51
0.0
  0
LINE
  5
15306
330
747D
100
AcDbEntity
  8
細線
 48
0.2
100
AcDbLine
 10
8419.132086471934
 20
3615.82727689388
 30
0.0
 11
8399.132086471935
 21
3615.82727689388
 31
0.0
  0
LINE
  5
15307
330
747D
100
AcDbEntity
  8
細線
 48
0.2
100
AcDbLine
 10
8419.132086471934
 20
3618.327276893879
 30
0.0
 11
8399.132086471935
 21
3618.327276893881
 31
0.0
  0
ARC
  5
15308
330
747D
100
AcDbEntity
  8
細線
 48
0.2
100
AcDbCircle
 10
8406.132086471934
 20
3615.856767062631
 30
0.0
 40
1.0
100
AcDbArc
 50
179.9999999999984
 51
253.3984504009775
  0
ARC
  5
15309
330
747D
100
AcDbEntity
  8
細線
 48
0.2
100
AcDbCircle
 10
8411.132086471935
 20
3632.627276893876
 30
0.0
 40
18.49999999999796
100
AcDbArc
 50
253.3984504009772
 51
286.6015495990217
  0
LINE
  5
1530A
330
747D
100
AcDbEntity
  8
細線
 48
0.2
100
AcDbLine
 10
8416.816077768443
 20
3615.127276893878
 30
0.0
 11
8405.44809517543
 21
3615.127276893878
 31
0.0
  0
LINE
  5
1530B
330
747D
100
AcDbEntity
  8
細線
 48
50.0
100
AcDbLine
 10
8399.132086471935
 20
3616.077276893881
 30
0.0
 11
8399.132086471935
 21
3615.82727689388
 31
0.0
  0
LINE
  5
1530C
330
747D
100
AcDbEntity
  8
部品1
100
AcDbLine
 10
8419.132086471934
 20
3616.077276893881
 30
0.0
 11
8419.194534300615
 21
3616.077276893881
 31
0.0
  0
LINE
  5
1530D
330
747D
100
AcDbEntity
  8
部品1
100
AcDbLine
 10
8419.132086471934
 20
3616.077276893883
 30
0.0
 11
8419.194534300615
 21
3616.077276893883
 31
0.0
  0
LINE
  5
1530E
330
747D
100
AcDbEntity
  8
細線
 48
0.1
100
AcDbLine
 10
8419.132086471934
 20
3615.82727689388
 30
0.0
 11
8419.132086471934
 21
3622.827276893879
 31
0.0
  0
LINE
  5
1530F
330
747D
100
AcDbEntity
  8
細線
 48
50.0
100
AcDbLine
 10
8407.26932927763
 20
3618.327276893881
 30
0.0
 11
8407.26932927763
 21
3620.32727689388
 31
0.0
  0
LINE
  5
15310
330
747D
100
AcDbEntity
  8
細線
 48
50.0
100
AcDbLine
 10
8415.119739323595
 20
3618.327276893881
 30
0.0
 11
8415.119739323595
 21
3620.32727689388
 31
0.0
  0
LINE
  5
15311
330
747D
100
AcDbEntity
  8
部品1
 48
50.0
100
AcDbLine
 10
8399.132086471935
 20
3622.827276893879
 30
0.0
 11
8399.132086471935
 21
3616.077276893881
 31
0.0
  0
LINE
  5
15312
330
747D
100
AcDbEntity
  8
部品1
100
AcDbLine
 10
7689.194534300615
 20
5407.077276893859
 30
0.0
 11
8399.132086471935
 21
5407.07727689386
 31
0.0
  0
LINE
  5
1533A
330
747D
100
AcDbEntity
  8
部品1
100
AcDbLine
 10
7469.132086471934
 20
5407.077276893859
 30
0.0
 11
7469.194534300616
 21
5407.07727689386
 31
0.0
  0
LINE
  5
1533B
330
747D
100
AcDbEntity
  8
部品1
100
AcDbLine
 10
7469.132086471934
 20
5407.077276893862
 30
0.0
 11
7469.194534300616
 21
5407.07727689386
 31
0.0
  0
LINE
  5
1533C
330
747D
100
AcDbEntity
  8
細線
 48
50.0
100
AcDbLine
 10
7449.132086471934
 20
5407.077276893862
 30
0.0
 11
7449.132086471934
 21
5407.327276893862
 31
0.0
  0
LINE
  5
1533D
330
747D
100
AcDbEntity
  8
細線
 48
0.2
100
AcDbLine
 10
7466.816077768442
 20
5408.027276893863
 30
0.0
 11
7455.44809517543
 21
5408.027276893863
 31
0.0
  0
ARC
  5
1533E
330
747D
100
AcDbEntity
  8
細線
 48
0.2
100
AcDbCircle
 10
7461.132086471934
 20
5390.527276893865
 30
0.0
 40
18.49999999999796
100
AcDbArc
 50
73.39845040097829
 51
106.6015495990228
  0
ARC
  5
1533F
330
747D
100
AcDbEntity
  8
細線
 48
0.2
100
AcDbCircle
 10
7456.132086471935
 20
5407.29778672511
 30
0.0
 40
1.0
100
AcDbArc
 50
106.6015495990225
 51
180.0000000000016
  0
LINE
  5
15340
330
747D
100
AcDbEntity
  8
細線
 48
0.2
100
AcDbLine
 10
7469.132086471934
 20
5404.827276893862
 30
0.0
 11
7449.132086471934
 21
5404.827276893862
 31
0.0
  0
LINE
  5
15341
330
747D
100
AcDbEntity
  8
細線
 48
0.2
100
AcDbLine
 10
7469.132086471934
 20
5407.327276893862
 30
0.0
 11
7449.132086471934
 21
5407.327276893862
 31
0.0
  0
ARC
  5
15342
330
747D
100
AcDbEntity
  8
細線
 48
0.2
100
AcDbCircle
 10
7466.132086471934
 20
5407.29778672511
 30
0.0
 40
1.0
100
AcDbArc
 50
0.0
 51
73.39845040097829
  0
LINE
  5
15343
330
747D
100
AcDbEntity
  8
部品1
 48
0.2
100
AcDbLine
 10
7469.132086471934
 20
5400.327276893862
 30
0.0
 11
7449.132086471934
 21
5400.327276893862
 31
0.0
  0
LINE
  5
15344
330
747D
100
AcDbEntity
  8
細線
 48
0.2
100
AcDbLine
 10
7469.132086471934
 20
5402.827276893862
 30
0.0
 11
7449.132086471934
 21
5402.827276893862
 31
0.0
  0
LINE
  5
15345
330
747D
100
AcDbEntity
  8
部品1
 48
50.0
100
AcDbLine
 10
7449.132086471934
 20
5400.327276893862
 30
0.0
 11
7449.132086471934
 21
5407.077276893862
 31
0.0
  0
LINE
  5
15346
330
747D
100
AcDbEntity
  8
細線
 48
50.0
100
AcDbLine
 10
7465.119739323594
 20
5404.827276893862
 30
0.0
 11
7465.119739323594
 21
5402.827276893862
 31
0.0
  0
LINE
  5
15347
330
747D
100
AcDbEntity
  8
細線
 48
50.0
100
AcDbLine
 10
7457.269329277631
 20
5404.827276893862
 30
0.0
 11
7457.269329277631
 21
5402.827276893862
 31
0.0
  0
LINE
  5
15348
330
747D
100
AcDbEntity
  8
細線
 48
0.1
100
AcDbLine
 10
7469.132086471934
 20
5407.327276893862
 30
0.0
 11
7469.132086471934
 21
5400.327276893862
 31
0.0
  0
LINE
  5
15349
330
747D
100
AcDbEntity
  8
部品1
100
AcDbLine
 10
8419.132086471934
 20
5407.077276893859
 30
0.0
 11
8419.194534300615
 21
5407.07727689386
 31
0.0
  0
LINE
  5
1534A
330
747D
100
AcDbEntity
  8
部品1
100
AcDbLine
 10
8419.132086471934
 20
5407.077276893862
 30
0.0
 11
8419.194534300615
 21
5407.07727689386
 31
0.0
  0
LINE
  5
1534B
330
747D
100
AcDbEntity
  8
細線
 48
50.0
100
AcDbLine
 10
8399.132086471935
 20
5407.077276893862
 30
0.0
 11
8399.132086471935
 21
5407.327276893862
 31
0.0
  0
LINE
  5
1534C
330
747D
100
AcDbEntity
  8
細線
 48
0.2
100
AcDbLine
 10
8416.816077768443
 20
5408.027276893863
 30
0.0
 11
8405.44809517543
 21
5408.027276893863
 31
0.0
  0
ARC
  5
1534D
330
747D
100
AcDbEntity
  8
細線
 48
0.2
100
AcDbCircle
 10
8411.132086471935
 20
5390.527276893865
 30
0.0
 40
18.49999999999796
100
AcDbArc
 50
73.39845040097829
 51
106.6015495990228
  0
ARC
  5
1534E
330
747D
100
AcDbEntity
  8
細線
 48
0.2
100
AcDbCircle
 10
8406.132086471934
 20
5407.29778672511
 30
0.0
 40
1.0
100
AcDbArc
 50
106.6015495990225
 51
180.0000000000016
  0
LINE
  5
1534F
330
747D
100
AcDbEntity
  8
細線
 48
0.2
100
AcDbLine
 10
8419.132086471934
 20
5404.827276893862
 30
0.0
 11
8399.132086471935
 21
5404.827276893862
 31
0.0
  0
LINE
  5
15350
330
747D
100
AcDbEntity
  8
細線
 48
0.2
100
AcDbLine
 10
8419.132086471934
 20
5407.327276893862
 30
0.0
 11
8399.132086471935
 21
5407.327276893862
 31
0.0
  0
ARC
  5
15351
330
747D
100
AcDbEntity
  8
細線
 48
0.2
100
AcDbCircle
 10
8416.132086471934
 20
5407.29778672511
 30
0.0
 40
1.0
100
AcDbArc
 50
0.0
 51
73.39845040097829
  0
LINE
  5
15352
330
747D
100
AcDbEntity
  8
部品1
 48
0.2
100
AcDbLine
 10
8419.132086471934
 20
5400.327276893862
 30
0.0
 11
8399.132086471935
 21
5400.327276893862
 31
0.0
  0
LINE
  5
15353
330
747D
100
AcDbEntity
  8
細線
 48
0.2
100
AcDbLine
 10
8419.132086471934
 20
5402.827276893862
 30
0.0
 11
8399.132086471935
 21
5402.827276893862
 31
0.0
  0
LINE
  5
15354
330
747D
100
AcDbEntity
  8
部品1
 48
50.0
100
AcDbLine
 10
8399.132086471935
 20
5400.327276893862
 30
0.0
 11
8399.132086471935
 21
5407.077276893862
 31
0.0
  0
LINE
  5
15355
330
747D
100
AcDbEntity
  8
細線
 48
50.0
100
AcDbLine
 10
8415.119739323595
 20
5404.827276893862
 30
0.0
 11
8415.119739323595
 21
5402.827276893862
 31
0.0
  0
LINE
  5
15356
330
747D
100
AcDbEntity
  8
細線
 48
50.0
100
AcDbLine
 10
8407.26932927763
 20
5404.827276893862
 30
0.0
 11
8407.26932927763
 21
5402.827276893862
 31
0.0
  0
LINE
  5
15357
330
747D
100
AcDbEntity
  8
細線
 48
0.1
100
AcDbLine
 10
8419.132086471934
 20
5407.327276893862
 30
0.0
 11
8419.132086471934
 21
5400.327276893862
 31
0.0
  0
LINE
  5
155F2
330
747D
100
AcDbEntity
  8
細線
 48
50.0
100
AcDbLine
 10
4963.194534300615
 20
8382.365915108506
 30
0.0
 11
4963.194534300615
 21
8356.365915108458
 31
0.0
  0
LINE
  5
155F7
330
747D
100
AcDbEntity
  8
細線
 48
50.0
100
AcDbLine
 10
7049.194534300615
 20
8382.365915108493
 30
0.0
 11
7049.194534300615
 21
8356.365915108458
 31
0.0
  0
LINE
  5
155F8
330
747D
100
AcDbEntity
  8
細線
 48
50.0
100
AcDbLine
 10
7089.194534300616
 20
8382.365915108493
 30
0.0
 11
7089.194534300616
 21
8356.365915108458
 31
0.0
  0
LINE
  5
155F9
330
747D
100
AcDbEntity
  8
細線
 48
50.0
100
AcDbLine
 10
6863.194534300615
 20
8382.365915108506
 30
0.0
 11
6863.194534300615
 21
8356.365915108458
 31
0.0
  0
LINE
  5
155FA
330
747D
100
AcDbEntity
  8
細線
 48
50.0
100
AcDbLine
 10
7316.194534300615
 20
8382.365915108708
 30
0.0
 11
7316.194534300615
 21
8356.365915108673
 31
0.0
  0
LINE
  5
155FB
330
747D
100
AcDbEntity
  8
細線
 48
50.0
100
AcDbLine
 10
7276.194534300616
 20
8382.365915108708
 30
0.0
 11
7276.194534300616
 21
8356.365915108673
 31
0.0
  0
LINE
  5
155FC
330
747D
100
AcDbEntity
  8
細線
 48
50.0
100
AcDbLine
 10
7813.194534300615
 20
8382.365915108506
 30
0.0
 11
7813.194534300615
 21
8356.365915108458
 31
0.0
  0
LINE
  5
155FD
330
747D
100
AcDbEntity
  8
細線
 48
50.0
100
AcDbLine
 10
8039.194534300616
 20
8382.365915108493
 30
0.0
 11
8039.194534300616
 21
8356.365915108458
 31
0.0
  0
LINE
  5
155FE
330
747D
100
AcDbEntity
  8
細線
 48
50.0
100
AcDbLine
 10
7999.194534300615
 20
8382.365915108493
 30
0.0
 11
7999.194534300615
 21
8356.365915108458
 31
0.0
  0
LINE
  5
155FF
330
747D
100
AcDbEntity
  8
細線
 48
50.0
100
AcDbLine
 10
8226.194534300615
 20
8382.365915108708
 30
0.0
 11
8226.194534300615
 21
8356.365915108673
 31
0.0
  0
LINE
  5
15600
330
747D
100
AcDbEntity
  8
細線
 48
50.0
100
AcDbLine
 10
8266.194534300614
 20
8382.365915108708
 30
0.0
 11
8266.194534300614
 21
8356.365915108673
 31
0.0
  0
ARC
  5
15645
330
747D
100
AcDbEntity
  8
細線
100
AcDbCircle
 10
4900.194534300613
 20
4458.577276893863
 30
0.0
 40
5.5
100
AcDbArc
 50
270.0
 51
0.0
  0
ARC
  5
15646
330
747D
100
AcDbEntity
  8
部品1
100
AcDbCircle
 10
4901.194534300614
 20
4457.577276893863
 30
0.0
 40
6.0
100
AcDbArc
 50
270.0
 51
0.0
  0
ARC
  5
15647
330
747D
100
AcDbEntity
  8
細線
100
AcDbCircle
 10
4861.027915831368
 20
4458.577276893863
 30
0.0
 40
5.5
100
AcDbArc
 50
190.4214509727298
 51
269.9999999999997
  0
ARC
  5
15648
330
747D
100
AcDbEntity
  8
部品1
100
AcDbCircle
 10
4860.196264409598
 20
4457.577276893863
 30
0.0
 40
6.0
100
AcDbArc
 50
190.5838025965097
 51
270.0
  0
LINE
  5
15649
330
747D
100
AcDbEntity
  8
細線
100
AcDbLine
 10
4861.027915831368
 20
4453.077276893863
 30
0.0
 11
4900.194534300613
 21
4453.077276893863
 31
0.0
  0
LINE
  5
1564A
330
747D
100
AcDbEntity
  8
部品1
100
AcDbLine
 10
4860.196264409598
 20
4451.577276893863
 30
0.0
 11
4901.194534300614
 21
4451.577276893863
 31
0.0
  0
CIRCLE
  5
1564B
330
747D
100
AcDbEntity
  8
細線
 48
20.0
100
AcDbCircle
 10
4880.695399355107
 20
4612.077276893863
 30
0.0
 40
20.0
  0
CIRCLE
  5
1564C
330
747D
100
AcDbEntity
  8
細線
 48
20.0
100
AcDbCircle
 10
4880.695399355107
 20
4612.077276893863
 30
0.0
 40
10.0
  0
ARC
  5
1564D
330
747D
100
AcDbEntity
  8
細線
100
AcDbCircle
 10
4895.194534300614
 20
4555.577276893862
 30
0.0
 40
6.0
100
AcDbArc
 50
0.0
 51
90.0
  0
ARC
  5
1564E
330
747D
100
AcDbEntity
  8
細線
100
AcDbCircle
 10
4885.402073479359
 20
4552.577276893862
 30
0.0
 40
6.0
100
AcDbArc
 50
0.0
 51
90.0
  0
ARC
  5
1564F
330
747D
100
AcDbEntity
  8
細線
100
AcDbCircle
 10
4900.194534300613
 20
4564.577276893863
 30
0.0
 40
5.5
100
AcDbArc
 50
0.0
 51
90.0
  0
ARC
  5
15650
330
747D
100
AcDbEntity
  8
部品1
100
AcDbCircle
 10
4901.194534300614
 20
4565.577276893863
 30
0.0
 40
6.0
100
AcDbArc
 50
0.0
 51
90.0
  0
LINE
  5
15651
330
747D
100
AcDbEntity
  8
細線
100
AcDbLine
 10
4874.688958210447
 20
4555.577276893862
 30
0.0
 11
4873.194534300614
 21
4555.577276893862
 31
0.0
  0
ARC
  5
15652
330
747D
100
AcDbEntity
  8
細線
100
AcDbCircle
 10
4874.688958210447
 20
4552.577276893862
 30
0.0
 40
3.0
100
AcDbArc
 50
8.099550838277986
 51
90.0
  0
ARC
  5
15653
330
747D
100
AcDbEntity
  8
細線
100
AcDbCircle
 10
4864.575490665091
 20
4555.577276893862
 30
0.0
 40
6.0
100
AcDbArc
 50
90.0
 51
171.2120626773636
  0
LINE
  5
15654
330
747D
100
AcDbEntity
  8
細線
100
AcDbLine
 10
4873.194534300614
 20
4555.5767689953
 30
0.0
 11
4860.431207084646
 21
4555.5767689953
 31
0.0
  0
ARC
  5
15655
330
747D
100
AcDbEntity
  8
細線
100
AcDbCircle
 10
4861.027915831368
 20
4564.577276893863
 30
0.0
 40
5.5
100
AcDbArc
 50
89.99999999999969
 51
169.5785490272683
  0
ARC
  5
15656
330
747D
100
AcDbEntity
  8
部品1
100
AcDbCircle
 10
4860.196264409598
 20
4565.577276893863
 30
0.0
 40
6.0
100
AcDbArc
 50
90.0
 51
169.4161974034886
  0
LINE
  5
15657
330
747D
100
AcDbEntity
  8
細線
100
AcDbLine
 10
4900.194534300613
 20
4570.077276893863
 30
0.0
 11
4861.027915831368
 21
4570.077276893863
 31
0.0
  0
LINE
  5
15658
330
747D
100
AcDbEntity
  8
細線
100
AcDbLine
 10
4885.402073479359
 20
4558.577276893863
 30
0.0
 11
4873.194534300614
 21
4558.577276893863
 31
0.0
  0
LINE
  5
15659
330
747D
100
AcDbEntity
  8
細線
100
AcDbLine
 10
4895.194534300614
 20
4561.577276893863
 30
0.0
 11
4864.575490665091
 21
4561.577276893863
 31
0.0
  0
LINE
  5
1565A
330
747D
100
AcDbEntity
  8
部品1
100
AcDbLine
 10
4901.194534300614
 20
4571.577276893863
 30
0.0
 11
4860.196264409598
 21
4571.577276893863
 31
0.0
  0
ARC
  5
1565B
330
747D
100
AcDbEntity
  8
細線
100
AcDbCircle
 10
4895.194534300614
 20
4467.577276893863
 30
0.0
 40
6.0
100
AcDbArc
 50
270.0
 51
0.0
  0
ARC
  5
1565C
330
747D
100
AcDbEntity
  8
細線
100
AcDbCircle
 10
4885.402073479359
 20
4470.577276893862
 30
0.0
 40
6.0
100
AcDbArc
 50
270.0
 51
360.0
  0
LINE
  5
1565D
330
747D
100
AcDbEntity
  8
細線
100
AcDbLine
 10
4873.194534300614
 20
4467.577276893863
 30
0.0
 11
4874.688958210448
 21
4467.577276893863
 31
0.0
  0
ARC
  5
1565E
330
747D
100
AcDbEntity
  8
細線
100
AcDbCircle
 10
4874.688958210448
 20
4470.577276893862
 30
0.0
 40
3.0
100
AcDbArc
 50
270.0
 51
351.9004491617184
  0
ARC
  5
1565F
330
747D
100
AcDbEntity
  8
細線
100
AcDbCircle
 10
4864.575490665091
 20
4467.577276893863
 30
0.0
 40
6.0
100
AcDbArc
 50
188.7879373226349
 51
270.0
  0
LINE
  5
15660
330
747D
100
AcDbEntity
  8
細線
100
AcDbLine
 10
4873.194534300614
 20
4467.577784792424
 30
0.0
 11
4859.715829801792
 21
4467.577784792424
 31
0.0
  0
LINE
  5
15661
330
747D
100
AcDbEntity
  8
細線
100
AcDbLine
 10
4873.194534300614
 20
4464.577276893863
 30
0.0
 11
4885.402073479359
 21
4464.577276893863
 31
0.0
  0
LINE
  5
15662
330
747D
100
AcDbEntity
  8
細線
100
AcDbLine
 10
4864.575490665091
 20
4461.577276893863
 30
0.0
 11
4895.194534300614
 21
4461.577276893863
 31
0.0
  0
LINE
  5
15663
330
747D
100
AcDbEntity
  8
細線
100
AcDbLine
 10
4891.402073479359
 20
4470.577276893862
 30
0.0
 11
4891.402073479359
 21
4552.577276893862
 31
0.0
  0
LINE
  5
15664
330
747D
100
AcDbEntity
  8
細線
100
AcDbLine
 10
4901.194534300614
 20
4467.577276893863
 30
0.0
 11
4901.194534300614
 21
4555.577276893862
 31
0.0
  0
LINE
  5
15665
330
747D
100
AcDbEntity
  8
細線
100
AcDbLine
 10
4905.694534300613
 20
4458.577276893863
 30
0.0
 11
4905.694534300613
 21
4564.577276893863
 31
0.0
  0
LINE
  5
15666
330
747D
100
AcDbEntity
  8
部品1
100
AcDbLine
 10
4907.194534300614
 20
4457.577276893863
 30
0.0
 11
4907.194534300614
 21
4565.577276893863
 31
0.0
  0
LINE
  5
15667
330
747D
100
AcDbEntity
  8
細線
100
AcDbLine
 10
4873.194534300614
 20
4561.577276893863
 30
0.0
 11
4873.194534300614
 21
4461.577276893863
 31
0.0
  0
ARC
  5
15668
330
747D
100
AcDbEntity
  8
細線
100
AcDbCircle
 10
5149.194534300614
 20
4511.577276893863
 30
0.0
 40
298.5
100
AcDbArc
 50
169.578549027269
 51
190.4214509727309
  0
ARC
  5
15669
330
747D
100
AcDbEntity
  8
細線
100
AcDbCircle
 10
5149.194534300614
 20
4511.577276893863
 30
0.0
 40
294.0
100
AcDbArc
 50
171.212062677364
 51
188.7879373226359
  0
ARC
  5
1566A
330
747D
100
AcDbEntity
  8
細線
100
AcDbCircle
 10
4586.591752392688
 20
4511.577276893863
 30
0.0
 40
294.0
100
AcDbArc
 50
351.900449161722
 51
8.099550838278029
  0
ARC
  5
1566B
330
747D
100
AcDbEntity
  8
部品1
100
AcDbCircle
 10
5149.194534300614
 20
4511.577276893863
 30
0.0
 40
300.0
100
AcDbArc
 50
169.4161974034894
 51
190.5838025965105
  0
LINE
  5
1566E
330
747D
100
AcDbEntity
  8
細線
100
AcDbLine
 10
6791.40207347936
 20
4470.577276893862
 30
0.0
 11
6791.40207347936
 21
4552.577276893862
 31
0.0
  0
LINE
  5
1566F
330
747D
100
AcDbEntity
  8
細線
100
AcDbLine
 10
6801.194534300613
 20
4467.577276893863
 30
0.0
 11
6801.194534300613
 21
4555.577276893862
 31
0.0
  0
LINE
  5
15670
330
747D
100
AcDbEntity
  8
細線
100
AcDbLine
 10
6805.694534300613
 20
4458.577276893863
 30
0.0
 11
6805.694534300613
 21
4564.577276893863
 31
0.0
  0
LINE
  5
15671
330
747D
100
AcDbEntity
  8
部品1
100
AcDbLine
 10
6807.194534300613
 20
4457.577276893863
 30
0.0
 11
6807.194534300613
 21
4565.577276893863
 31
0.0
  0
LINE
  5
15672
330
747D
100
AcDbEntity
  8
細線
100
AcDbLine
 10
6773.194534300613
 20
4561.577276893863
 30
0.0
 11
6773.194534300613
 21
4461.577276893863
 31
0.0
  0
ARC
  5
15673
330
747D
100
AcDbEntity
  8
細線
100
AcDbCircle
 10
7049.194534300614
 20
4511.577276893863
 30
0.0
 40
298.5
100
AcDbArc
 50
169.578549027269
 51
190.4214509727309
  0
ARC
  5
15674
330
747D
100
AcDbEntity
  8
細線
100
AcDbCircle
 10
7049.194534300614
 20
4511.577276893863
 30
0.0
 40
294.0
100
AcDbArc
 50
171.212062677364
 51
188.7879373226359
  0
ARC
  5
15675
330
747D
100
AcDbEntity
  8
細線
100
AcDbCircle
 10
6486.59175239269
 20
4511.577276893863
 30
0.0
 40
294.0
100
AcDbArc
 50
351.900449161722
 51
8.099550838278029
  0
ARC
  5
15676
330
747D
100
AcDbEntity
  8
部品1
100
AcDbCircle
 10
7049.194534300614
 20
4511.577276893863
 30
0.0
 40
300.0
100
AcDbArc
 50
169.4161974034894
 51
190.5838025965105
  0
LINE
  5
15677
330
747D
100
AcDbEntity
  8
細線
100
AcDbLine
 10
6761.027915831367
 20
4453.077276893863
 30
0.0
 11
6800.194534300614
 21
4453.077276893863
 31
0.0
  0
ARC
  5
15678
330
747D
100
AcDbEntity
  8
細線
100
AcDbCircle
 10
6764.575490665091
 20
4467.577276893863
 30
0.0
 40
6.0
100
AcDbArc
 50
188.7879373226349
 51
270.0
  0
LINE
  5
15679
330
747D
100
AcDbEntity
  8
細線
100
AcDbLine
 10
6773.194534300613
 20
4467.577784792424
 30
0.0
 11
6759.715829801791
 21
4467.577784792424
 31
0.0
  0
LINE
  5
1567A
330
747D
100
AcDbEntity
  8
部品1
100
AcDbLine
 10
6760.196264409599
 20
4451.577276893863
 30
0.0
 11
6801.194534300613
 21
4451.577276893863
 31
0.0
  0
ARC
  5
1567B
330
747D
100
AcDbEntity
  8
細線
100
AcDbCircle
 10
6761.027915831367
 20
4458.577276893863
 30
0.0
 40
5.5
100
AcDbArc
 50
190.4214509727298
 51
269.9999999999997
  0
ARC
  5
1567C
330
747D
100
AcDbEntity
  8
部品1
100
AcDbCircle
 10
6760.196264409599
 20
4457.577276893863
 30
0.0
 40
6.0
100
AcDbArc
 50
190.5838025965097
 51
270.0
  0
ARC
  5
1567D
330
747D
100
AcDbEntity
  8
部品1
100
AcDbCircle
 10
6801.194534300613
 20
4457.577276893863
 30
0.0
 40
6.0
100
AcDbArc
 50
270.0
 51
0.0
  0
ARC
  5
1567E
330
747D
100
AcDbEntity
  8
細線
100
AcDbCircle
 10
6785.402073479359
 20
4470.577276893862
 30
0.0
 40
6.0
100
AcDbArc
 50
270.0
 51
360.0
  0
LINE
  5
1567F
330
747D
100
AcDbEntity
  8
細線
100
AcDbLine
 10
6773.194534300613
 20
4467.577276893863
 30
0.0
 11
6774.688958210449
 21
4467.577276893863
 31
0.0
  0
ARC
  5
15680
330
747D
100
AcDbEntity
  8
細線
100
AcDbCircle
 10
6774.688958210449
 20
4470.577276893862
 30
0.0
 40
3.0
100
AcDbArc
 50
270.0
 51
351.9004491617184
  0
LINE
  5
15681
330
747D
100
AcDbEntity
  8
細線
100
AcDbLine
 10
6773.194534300613
 20
4464.577276893863
 30
0.0
 11
6785.402073479359
 21
4464.577276893863
 31
0.0
  0
LINE
  5
15682
330
747D
100
AcDbEntity
  8
細線
100
AcDbLine
 10
6764.575490665091
 20
4461.577276893863
 30
0.0
 11
6795.194534300614
 21
4461.577276893863
 31
0.0
  0
ARC
  5
15683
330
747D
100
AcDbEntity
  8
細線
100
AcDbCircle
 10
6800.194534300614
 20
4458.577276893863
 30
0.0
 40
5.5
100
AcDbArc
 50
270.0
 51
0.0
  0
ARC
  5
15684
330
747D
100
AcDbEntity
  8
細線
100
AcDbCircle
 10
6795.194534300614
 20
4467.577276893863
 30
0.0
 40
6.0
100
AcDbArc
 50
270.0
 51
0.0
  0
ARC
  5
15685
330
747D
100
AcDbEntity
  8
細線
100
AcDbCircle
 10
6764.575490665091
 20
4555.577276893862
 30
0.0
 40
6.0
100
AcDbArc
 50
90.0
 51
171.2120626773636
  0
LINE
  5
15686
330
747D
100
AcDbEntity
  8
細線
100
AcDbLine
 10
6773.194534300613
 20
4555.5767689953
 30
0.0
 11
6760.431207084646
 21
4555.5767689953
 31
0.0
  0
LINE
  5
15687
330
747D
100
AcDbEntity
  8
細線
100
AcDbLine
 10
6800.194534300614
 20
4570.077276893863
 30
0.0
 11
6761.027915831367
 21
4570.077276893863
 31
0.0
  0
CIRCLE
  5
15688
330
747D
100
AcDbEntity
  8
細線
 48
20.0
100
AcDbCircle
 10
6780.695399355107
 20
4612.077276893863
 30
0.0
 40
20.0
  0
LINE
  5
15689
330
747D
100
AcDbEntity
  8
部品1
100
AcDbLine
 10
6801.194534300613
 20
4571.577276893863
 30
0.0
 11
6760.196264409599
 21
4571.577276893863
 31
0.0
  0
ARC
  5
1568A
330
747D
100
AcDbEntity
  8
細線
100
AcDbCircle
 10
6761.027915831367
 20
4564.577276893863
 30
0.0
 40
5.5
100
AcDbArc
 50
89.99999999999969
 51
169.5785490272683
  0
ARC
  5
1568B
330
747D
100
AcDbEntity
  8
部品1
100
AcDbCircle
 10
6760.196264409599
 20
4565.577276893863
 30
0.0
 40
6.0
100
AcDbArc
 50
90.0
 51
169.4161974034886
  0
ARC
  5
1568C
330
747D
100
AcDbEntity
  8
部品1
100
AcDbCircle
 10
6801.194534300613
 20
4565.577276893863
 30
0.0
 40
6.0
100
AcDbArc
 50
0.0
 51
90.0
  0
CIRCLE
  5
1568D
330
747D
100
AcDbEntity
  8
細線
 48
20.0
100
AcDbCircle
 10
6780.695399355107
 20
4612.077276893863
 30
0.0
 40
10.0
  0
ARC
  5
1568E
330
747D
100
AcDbEntity
  8
細線
100
AcDbCircle
 10
6785.402073479359
 20
4552.577276893862
 30
0.0
 40
6.0
100
AcDbArc
 50
0.0
 51
90.0
  0
LINE
  5
1568F
330
747D
100
AcDbEntity
  8
細線
100
AcDbLine
 10
6774.688958210447
 20
4555.577276893862
 30
0.0
 11
6773.194534300613
 21
4555.577276893862
 31
0.0
  0
ARC
  5
15690
330
747D
100
AcDbEntity
  8
細線
100
AcDbCircle
 10
6774.688958210447
 20
4552.577276893862
 30
0.0
 40
3.0
100
AcDbArc
 50
8.099550838277986
 51
90.0
  0
LINE
  5
15691
330
747D
100
AcDbEntity
  8
細線
100
AcDbLine
 10
6785.402073479359
 20
4558.577276893863
 30
0.0
 11
6773.194534300613
 21
4558.577276893863
 31
0.0
  0
LINE
  5
15692
330
747D
100
AcDbEntity
  8
細線
100
AcDbLine
 10
6795.194534300614
 20
4561.577276893863
 30
0.0
 11
6764.575490665091
 21
4561.577276893863
 31
0.0
  0
ARC
  5
15693
330
747D
100
AcDbEntity
  8
細線
100
AcDbCircle
 10
6795.194534300614
 20
4555.577276893862
 30
0.0
 40
6.0
100
AcDbArc
 50
0.0
 51
90.0
  0
ARC
  5
15694
330
747D
100
AcDbEntity
  8
細線
100
AcDbCircle
 10
6800.194534300614
 20
4564.577276893863
 30
0.0
 40
5.5
100
AcDbArc
 50
0.0
 51
90.0
  0
ARC
  5
15695
330
747D
100
AcDbEntity
  8
部品1
100
AcDbCircle
 10
7999.194534300613
 20
4511.577276893863
 30
0.0
 40
300.0
100
AcDbArc
 50
169.4161974034894
 51
190.5838025965105
  0
ARC
  5
15696
330
747D
100
AcDbEntity
  8
細線
100
AcDbCircle
 10
7436.59175239269
 20
4511.577276893863
 30
0.0
 40
294.0
100
AcDbArc
 50
351.900449161722
 51
8.099550838278029
  0
ARC
  5
15697
330
747D
100
AcDbEntity
  8
細線
100
AcDbCircle
 10
7999.194534300613
 20
4511.577276893863
 30
0.0
 40
294.0
100
AcDbArc
 50
171.212062677364
 51
188.7879373226359
  0
ARC
  5
15698
330
747D
100
AcDbEntity
  8
細線
100
AcDbCircle
 10
7999.194534300613
 20
4511.577276893863
 30
0.0
 40
298.5
100
AcDbArc
 50
169.578549027269
 51
190.4214509727309
  0
LINE
  5
15699
330
747D
100
AcDbEntity
  8
細線
100
AcDbLine
 10
7723.194534300613
 20
4561.577276893863
 30
0.0
 11
7723.194534300613
 21
4461.577276893863
 31
0.0
  0
LINE
  5
1569A
330
747D
100
AcDbEntity
  8
部品1
100
AcDbLine
 10
7757.194534300613
 20
4457.577276893863
 30
0.0
 11
7757.194534300613
 21
4565.577276893863
 31
0.0
  0
LINE
  5
1569B
330
747D
100
AcDbEntity
  8
細線
100
AcDbLine
 10
7755.694534300613
 20
4458.577276893863
 30
0.0
 11
7755.694534300613
 21
4564.577276893863
 31
0.0
  0
LINE
  5
1569C
330
747D
100
AcDbEntity
  8
細線
100
AcDbLine
 10
7751.194534300613
 20
4467.577276893863
 30
0.0
 11
7751.194534300613
 21
4555.577276893862
 31
0.0
  0
LINE
  5
1569D
330
747D
100
AcDbEntity
  8
細線
100
AcDbLine
 10
7741.40207347936
 20
4470.577276893862
 30
0.0
 11
7741.40207347936
 21
4552.577276893862
 31
0.0
  0
ARC
  5
1569E
330
747D
100
AcDbEntity
  8
細線
100
AcDbCircle
 10
7745.194534300614
 20
4467.577276893863
 30
0.0
 40
6.0
100
AcDbArc
 50
270.0
 51
0.0
  0
LINE
  5
1569F
330
747D
100
AcDbEntity
  8
部品1
100
AcDbLine
 10
7710.196264409599
 20
4451.577276893863
 30
0.0
 11
7751.194534300613
 21
4451.577276893863
 31
0.0
  0
LINE
  5
156A0
330
747D
100
AcDbEntity
  8
細線
100
AcDbLine
 10
7711.027915831367
 20
4453.077276893863
 30
0.0
 11
7750.194534300614
 21
4453.077276893863
 31
0.0
  0
LINE
  5
156A1
330
747D
100
AcDbEntity
  8
細線
100
AcDbLine
 10
7714.57549066509
 20
4461.577276893863
 30
0.0
 11
7745.194534300614
 21
4461.577276893863
 31
0.0
  0
LINE
  5
156A2
330
747D
100
AcDbEntity
  8
細線
100
AcDbLine
 10
7723.194534300613
 20
4464.577276893863
 30
0.0
 11
7735.40207347936
 21
4464.577276893863
 31
0.0
  0
ARC
  5
156A3
330
747D
100
AcDbEntity
  8
細線
100
AcDbCircle
 10
7724.688958210449
 20
4470.577276893862
 30
0.0
 40
3.0
100
AcDbArc
 50
270.0
 51
351.9004491617184
  0
LINE
  5
156A4
330
747D
100
AcDbEntity
  8
細線
100
AcDbLine
 10
7723.194534300613
 20
4467.577276893863
 30
0.0
 11
7724.688958210449
 21
4467.577276893863
 31
0.0
  0
ARC
  5
156A5
330
747D
100
AcDbEntity
  8
細線
100
AcDbCircle
 10
7735.40207347936
 20
4470.577276893862
 30
0.0
 40
6.0
100
AcDbArc
 50
270.0
 51
360.0
  0
ARC
  5
156A6
330
747D
100
AcDbEntity
  8
部品1
100
AcDbCircle
 10
7710.196264409599
 20
4457.577276893863
 30
0.0
 40
6.0
100
AcDbArc
 50
190.5838025965097
 51
270.0
  0
ARC
  5
156A7
330
747D
100
AcDbEntity
  8
細線
100
AcDbCircle
 10
7711.027915831367
 20
4458.577276893863
 30
0.0
 40
5.5
100
AcDbArc
 50
190.4214509727298
 51
269.9999999999997
  0
LINE
  5
156A8
330
747D
100
AcDbEntity
  8
細線
100
AcDbLine
 10
7723.194534300613
 20
4467.577784792424
 30
0.0
 11
7709.715829801791
 21
4467.577784792424
 31
0.0
  0
ARC
  5
156A9
330
747D
100
AcDbEntity
  8
細線
100
AcDbCircle
 10
7714.57549066509
 20
4467.577276893863
 30
0.0
 40
6.0
100
AcDbArc
 50
188.7879373226349
 51
270.0
  0
ARC
  5
156AA
330
747D
100
AcDbEntity
  8
細線
100
AcDbCircle
 10
7750.194534300614
 20
4458.577276893863
 30
0.0
 40
5.5
100
AcDbArc
 50
270.0
 51
0.0
  0
ARC
  5
156AB
330
747D
100
AcDbEntity
  8
部品1
100
AcDbCircle
 10
7751.194534300613
 20
4457.577276893863
 30
0.0
 40
6.0
100
AcDbArc
 50
270.0
 51
0.0
  0
ARC
  5
156AC
330
747D
100
AcDbEntity
  8
細線
100
AcDbCircle
 10
7745.194534300614
 20
4555.577276893862
 30
0.0
 40
6.0
100
AcDbArc
 50
0.0
 51
90.0
  0
LINE
  5
156AD
330
747D
100
AcDbEntity
  8
部品1
100
AcDbLine
 10
7751.194534300613
 20
4571.577276893863
 30
0.0
 11
7710.196264409599
 21
4571.577276893863
 31
0.0
  0
CIRCLE
  5
156AE
330
747D
100
AcDbEntity
  8
細線
 48
20.0
100
AcDbCircle
 10
7730.695399355107
 20
4612.077276893863
 30
0.0
 40
20.0
  0
LINE
  5
156AF
330
747D
100
AcDbEntity
  8
細線
100
AcDbLine
 10
7750.194534300614
 20
4570.077276893863
 30
0.0
 11
7711.027915831367
 21
4570.077276893863
 31
0.0
  0
LINE
  5
156B0
330
747D
100
AcDbEntity
  8
細線
100
AcDbLine
 10
7745.194534300614
 20
4561.577276893863
 30
0.0
 11
7714.57549066509
 21
4561.577276893863
 31
0.0
  0
LINE
  5
156B1
330
747D
100
AcDbEntity
  8
細線
100
AcDbLine
 10
7735.40207347936
 20
4558.577276893863
 30
0.0
 11
7723.194534300613
 21
4558.577276893863
 31
0.0
  0
ARC
  5
156B2
330
747D
100
AcDbEntity
  8
細線
100
AcDbCircle
 10
7724.688958210447
 20
4552.577276893862
 30
0.0
 40
3.0
100
AcDbArc
 50
8.099550838277986
 51
90.0
  0
LINE
  5
156B3
330
747D
100
AcDbEntity
  8
細線
100
AcDbLine
 10
7724.688958210447
 20
4555.577276893862
 30
0.0
 11
7723.194534300613
 21
4555.577276893862
 31
0.0
  0
ARC
  5
156B4
330
747D
100
AcDbEntity
  8
細線
100
AcDbCircle
 10
7735.40207347936
 20
4552.577276893862
 30
0.0
 40
6.0
100
AcDbArc
 50
0.0
 51
90.0
  0
CIRCLE
  5
156B5
330
747D
100
AcDbEntity
  8
細線
 48
20.0
100
AcDbCircle
 10
7730.695399355107
 20
4612.077276893863
 30
0.0
 40
10.0
  0
ARC
  5
156B6
330
747D
100
AcDbEntity
  8
部品1
100
AcDbCircle
 10
7710.196264409599
 20
4565.577276893863
 30
0.0
 40
6.0
100
AcDbArc
 50
90.0
 51
169.4161974034886
  0
ARC
  5
156B7
330
747D
100
AcDbEntity
  8
細線
100
AcDbCircle
 10
7711.027915831367
 20
4564.577276893863
 30
0.0
 40
5.5
100
AcDbArc
 50
89.99999999999969
 51
169.5785490272683
  0
LINE
  5
156B8
330
747D
100
AcDbEntity
  8
細線
100
AcDbLine
 10
7723.194534300613
 20
4555.5767689953
 30
0.0
 11
7710.431207084646
 21
4555.5767689953
 31
0.0
  0
ARC
  5
156B9
330
747D
100
AcDbEntity
  8
細線
100
AcDbCircle
 10
7714.57549066509
 20
4555.577276893862
 30
0.0
 40
6.0
100
AcDbArc
 50
90.0
 51
171.2120626773636
  0
ARC
  5
156BA
330
747D
100
AcDbEntity
  8
細線
100
AcDbCircle
 10
7750.194534300614
 20
4564.577276893863
 30
0.0
 40
5.5
100
AcDbArc
 50
0.0
 51
90.0
  0
ARC
  5
156BB
330
747D
100
AcDbEntity
  8
部品1
100
AcDbCircle
 10
7751.194534300613
 20
4565.577276893863
 30
0.0
 40
6.0
100
AcDbArc
 50
0.0
 51
90.0
  0
DIMENSION
  5
156D1
330
747D
100
AcDbEntity
  8
寸法
 48
50.0
100
AcDbDimension
  2
*D14
 10
7434.194534300615
 20
7916.542247313351
 30
0.0
 11
7091.694534300618
 21
7916.542247313351
 31
0.0
 70
   160
 71
     5
 42
684.9999999999964
  3
INABA_S40G
100
AcDbAlignedDimension
 13
6749.194534300619
 23
8356.365915108428
 33
0.0
 14
7434.194534300615
 24
8356.365915108392
 34
0.0
100
AcDbRotatedDimension
  0
LINE
  5
15795
330
747D
100
AcDbEntity
  8
部品1
100
AcDbLine
 10
5701.194534300615
 20
5409.577276893861
 30
0.0
 11
5701.194534300615
 21
3612.577276893881
 31
0.0
  0
LINE
  5
15798
330
747D
100
AcDbEntity
  8
部品1
100
AcDbLine
 10
5787.194534300615
 20
5409.577276893861
 30
0.0
 11
5787.194534300615
 21
3612.577276893881
 31
0.0
  0
LINE
  5
15799
330
747D
100
AcDbEntity
  8
部品1
100
AcDbLine
 10
5789.194534300616
 20
5407.077276893859
 30
0.0
 11
5789.194534300616
 21
3616.077276893875
 31
0.0
  0
ARC
  5
157AA
330
747D
100
AcDbEntity
  8
部品1
100
AcDbCircle
 10
6099.194534300614
 20
4511.577276893863
 30
0.0
 40
300.0
100
AcDbArc
 50
169.4161974034894
 51
190.5838025965105
  0
ARC
  5
157AB
330
747D
100
AcDbEntity
  8
細線
100
AcDbCircle
 10
5536.591752392689
 20
4511.577276893863
 30
0.0
 40
294.0
100
AcDbArc
 50
351.900449161722
 51
8.099550838278029
  0
ARC
  5
157AC
330
747D
100
AcDbEntity
  8
細線
100
AcDbCircle
 10
6099.194534300614
 20
4511.577276893863
 30
0.0
 40
294.0
100
AcDbArc
 50
171.212062677364
 51
188.7879373226359
  0
ARC
  5
157AD
330
747D
100
AcDbEntity
  8
細線
100
AcDbCircle
 10
6099.194534300614
 20
4511.577276893863
 30
0.0
 40
298.5
100
AcDbArc
 50
169.578549027269
 51
190.4214509727309
  0
LINE
  5
157AE
330
747D
100
AcDbEntity
  8
細線
100
AcDbLine
 10
5823.194534300614
 20
4561.577276893863
 30
0.0
 11
5823.194534300614
 21
4461.577276893863
 31
0.0
  0
LINE
  5
157AF
330
747D
100
AcDbEntity
  8
部品1
100
AcDbLine
 10
5857.194534300614
 20
4457.577276893863
 30
0.0
 11
5857.194534300614
 21
4565.577276893863
 31
0.0
  0
LINE
  5
157B0
330
747D
100
AcDbEntity
  8
細線
100
AcDbLine
 10
5855.694534300614
 20
4458.577276893863
 30
0.0
 11
5855.694534300614
 21
4564.577276893863
 31
0.0
  0
LINE
  5
157B1
330
747D
100
AcDbEntity
  8
細線
100
AcDbLine
 10
5851.194534300613
 20
4467.577276893863
 30
0.0
 11
5851.194534300613
 21
4555.577276893862
 31
0.0
  0
LINE
  5
157B2
330
747D
100
AcDbEntity
  8
細線
100
AcDbLine
 10
5841.402073479359
 20
4470.577276893862
 30
0.0
 11
5841.402073479359
 21
4552.577276893862
 31
0.0
  0
LINE
  5
157B3
330
747D
100
AcDbEntity
  8
部品1
100
AcDbLine
 10
5810.196264409598
 20
4451.577276893863
 30
0.0
 11
5851.194534300613
 21
4451.577276893863
 31
0.0
  0
LINE
  5
157B4
330
747D
100
AcDbEntity
  8
細線
100
AcDbLine
 10
5811.027915831368
 20
4453.077276893863
 30
0.0
 11
5850.194534300613
 21
4453.077276893863
 31
0.0
  0
LINE
  5
157B5
330
747D
100
AcDbEntity
  8
細線
100
AcDbLine
 10
5814.575490665091
 20
4461.577276893863
 30
0.0
 11
5845.194534300613
 21
4461.577276893863
 31
0.0
  0
ARC
  5
157B6
330
747D
100
AcDbEntity
  8
細線
100
AcDbCircle
 10
5835.402073479359
 20
4470.577276893862
 30
0.0
 40
6.0
100
AcDbArc
 50
270.0
 51
360.0
  0
LINE
  5
157B7
330
747D
100
AcDbEntity
  8
細線
100
AcDbLine
 10
5823.194534300614
 20
4464.577276893863
 30
0.0
 11
5835.402073479359
 21
4464.577276893863
 31
0.0
  0
ARC
  5
157B8
330
747D
100
AcDbEntity
  8
細線
100
AcDbCircle
 10
5824.688958210448
 20
4470.577276893862
 30
0.0
 40
3.0
100
AcDbArc
 50
270.0
 51
351.9004491617184
  0
LINE
  5
157B9
330
747D
100
AcDbEntity
  8
細線
100
AcDbLine
 10
5823.194534300614
 20
4467.577276893863
 30
0.0
 11
5824.688958210448
 21
4467.577276893863
 31
0.0
  0
ARC
  5
157BA
330
747D
100
AcDbEntity
  8
部品1
100
AcDbCircle
 10
5810.196264409598
 20
4457.577276893863
 30
0.0
 40
6.0
100
AcDbArc
 50
190.5838025965097
 51
270.0
  0
ARC
  5
157BB
330
747D
100
AcDbEntity
  8
細線
100
AcDbCircle
 10
5811.027915831368
 20
4458.577276893863
 30
0.0
 40
5.5
100
AcDbArc
 50
190.4214509727298
 51
269.9999999999997
  0
LINE
  5
157BC
330
747D
100
AcDbEntity
  8
細線
100
AcDbLine
 10
5823.194534300614
 20
4467.577784792424
 30
0.0
 11
5809.715829801792
 21
4467.577784792424
 31
0.0
  0
ARC
  5
157BD
330
747D
100
AcDbEntity
  8
細線
100
AcDbCircle
 10
5814.575490665091
 20
4467.577276893863
 30
0.0
 40
6.0
100
AcDbArc
 50
188.7879373226349
 51
270.0
  0
ARC
  5
157BE
330
747D
100
AcDbEntity
  8
細線
100
AcDbCircle
 10
5845.194534300613
 20
4467.577276893863
 30
0.0
 40
6.0
100
AcDbArc
 50
270.0
 51
0.0
  0
ARC
  5
157BF
330
747D
100
AcDbEntity
  8
細線
100
AcDbCircle
 10
5850.194534300613
 20
4458.577276893863
 30
0.0
 40
5.5
100
AcDbArc
 50
270.0
 51
0.0
  0
ARC
  5
157C0
330
747D
100
AcDbEntity
  8
部品1
100
AcDbCircle
 10
5851.194534300613
 20
4457.577276893863
 30
0.0
 40
6.0
100
AcDbArc
 50
270.0
 51
0.0
  0
LINE
  5
157C1
330
747D
100
AcDbEntity
  8
部品1
100
AcDbLine
 10
5851.194534300613
 20
4571.577276893863
 30
0.0
 11
5810.196264409598
 21
4571.577276893863
 31
0.0
  0
CIRCLE
  5
157C2
330
747D
100
AcDbEntity
  8
細線
 48
20.0
100
AcDbCircle
 10
5830.695399355107
 20
4612.077276893863
 30
0.0
 40
20.0
  0
LINE
  5
157C3
330
747D
100
AcDbEntity
  8
細線
100
AcDbLine
 10
5850.194534300613
 20
4570.077276893863
 30
0.0
 11
5811.027915831368
 21
4570.077276893863
 31
0.0
  0
LINE
  5
157C4
330
747D
100
AcDbEntity
  8
細線
100
AcDbLine
 10
5845.194534300613
 20
4561.577276893863
 30
0.0
 11
5814.575490665091
 21
4561.577276893863
 31
0.0
  0
ARC
  5
157C5
330
747D
100
AcDbEntity
  8
細線
100
AcDbCircle
 10
5835.402073479359
 20
4552.577276893862
 30
0.0
 40
6.0
100
AcDbArc
 50
0.0
 51
90.0
  0
LINE
  5
157C6
330
747D
100
AcDbEntity
  8
細線
100
AcDbLine
 10
5835.402073479359
 20
4558.577276893863
 30
0.0
 11
5823.194534300614
 21
4558.577276893863
 31
0.0
  0
ARC
  5
157C7
330
747D
100
AcDbEntity
  8
細線
100
AcDbCircle
 10
5824.688958210447
 20
4552.577276893862
 30
0.0
 40
3.0
100
AcDbArc
 50
8.099550838277986
 51
90.0
  0
LINE
  5
157C8
330
747D
100
AcDbEntity
  8
細線
100
AcDbLine
 10
5824.688958210447
 20
4555.577276893862
 30
0.0
 11
5823.194534300614
 21
4555.577276893862
 31
0.0
  0
CIRCLE
  5
157C9
330
747D
100
AcDbEntity
  8
細線
 48
20.0
100
AcDbCircle
 10
5830.695399355107
 20
4612.077276893863
 30
0.0
 40
10.0
  0
ARC
  5
157CA
330
747D
100
AcDbEntity
  8
部品1
100
AcDbCircle
 10
5810.196264409598
 20
4565.577276893863
 30
0.0
 40
6.0
100
AcDbArc
 50
90.0
 51
169.4161974034886
  0
ARC
  5
157CB
330
747D
100
AcDbEntity
  8
細線
100
AcDbCircle
 10
5811.027915831368
 20
4564.577276893863
 30
0.0
 40
5.5
100
AcDbArc
 50
89.99999999999969
 51
169.5785490272683
  0
LINE
  5
157CC
330
747D
100
AcDbEntity
  8
細線
100
AcDbLine
 10
5823.194534300614
 20
4555.5767689953
 30
0.0
 11
5810.431207084646
 21
4555.5767689953
 31
0.0
  0
ARC
  5
157CD
330
747D
100
AcDbEntity
  8
細線
100
AcDbCircle
 10
5814.575490665091
 20
4555.577276893862
 30
0.0
 40
6.0
100
AcDbArc
 50
90.0
 51
171.2120626773636
  0
ARC
  5
157CE
330
747D
100
AcDbEntity
  8
細線
100
AcDbCircle
 10
5845.194534300613
 20
4555.577276893862
 30
0.0
 40
6.0
100
AcDbArc
 50
0.0
 51
90.0
  0
ARC
  5
157CF
330
747D
100
AcDbEntity
  8
細線
100
AcDbCircle
 10
5850.194534300613
 20
4564.577276893863
 30
0.0
 40
5.5
100
AcDbArc
 50
0.0
 51
90.0
  0
ARC
  5
157D0
330
747D
100
AcDbEntity
  8
部品1
100
AcDbCircle
 10
5851.194534300613
 20
4565.577276893863
 30
0.0
 40
6.0
100
AcDbArc
 50
0.0
 51
90.0
  0
LINE
  5
157F0
330
747D
100
AcDbEntity
  8
部品1
100
AcDbLine
 10
4839.194534300616
 20
5407.077276893862
 30
0.0
 11
5549.132086471935
 21
5407.077276893862
 31
0.0
  0
LINE
  5
157F7
330
747D
100
AcDbEntity
  8
部品1
100
AcDbLine
 10
4839.194534300616
 20
3616.077276893867
 30
0.0
 11
5549.132086471935
 21
3616.077276893881
 31
0.0
  0
LINE
  5
15801
330
747D
100
AcDbEntity
  8
部品1
100
AcDbLine
 10
5571.194534300616
 20
5409.577276893861
 30
0.0
 11
5571.194534300616
 21
3612.577276893881
 31
0.0
  0
LINE
  5
15803
330
747D
100
AcDbEntity
  8
部品1
100
AcDbLine
 10
5569.194534300613
 20
5407.07727689386
 30
0.0
 11
5569.194534300615
 21
3616.077276893881
 31
0.0
  0
LINE
  5
1580C
330
747D
100
AcDbEntity
  8
細線
 48
50.0
100
AcDbLine
 10
5557.269329277631
 20
3618.327276893881
 30
0.0
 11
5557.269329277631
 21
3620.32727689388
 31
0.0
  0
LINE
  5
1580D
330
747D
100
AcDbEntity
  8
部品1
 48
50.0
100
AcDbLine
 10
5549.132086471935
 20
3622.827276893879
 30
0.0
 11
5549.132086471935
 21
3616.077276893881
 31
0.0
  0
LINE
  5
1580E
330
747D
100
AcDbEntity
  8
細線
 48
0.1
100
AcDbLine
 10
5569.132086471935
 20
3615.82727689388
 30
0.0
 11
5569.132086471935
 21
3622.827276893879
 31
0.0
  0
LINE
  5
1580F
330
747D
100
AcDbEntity
  8
細線
 48
50.0
100
AcDbLine
 10
5565.119739323595
 20
3618.327276893881
 30
0.0
 11
5565.119739323595
 21
3620.32727689388
 31
0.0
  0
LINE
  5
15810
330
747D
100
AcDbEntity
  8
細線
 48
0.2
100
AcDbLine
 10
5569.132086471935
 20
3615.82727689388
 30
0.0
 11
5549.132086471935
 21
3615.82727689388
 31
0.0
  0
LINE
  5
15811
330
747D
100
AcDbEntity
  8
細線
 48
0.2
100
AcDbLine
 10
5569.132086471935
 20
3618.327276893879
 30
0.0
 11
5549.132086471935
 21
3618.327276893881
 31
0.0
  0
ARC
  5
15812
330
747D
100
AcDbEntity
  8
細線
 48
0.2
100
AcDbCircle
 10
5561.132086471935
 20
3632.627276893876
 30
0.0
 40
18.49999999999796
100
AcDbArc
 50
253.3984504009772
 51
286.6015495990217
  0
LINE
  5
15813
330
747D
100
AcDbEntity
  8
細線
 48
0.2
100
AcDbLine
 10
5566.816077768443
 20
3615.127276893878
 30
0.0
 11
5555.448095175431
 21
3615.127276893878
 31
0.0
  0
ARC
  5
15814
330
747D
100
AcDbEntity
  8
細線
 48
0.2
100
AcDbCircle
 10
5556.132086471935
 20
3615.856767062631
 30
0.0
 40
1.0
100
AcDbArc
 50
179.9999999999984
 51
253.3984504009775
  0
LINE
  5
15815
330
747D
100
AcDbEntity
  8
細線
 48
50.0
100
AcDbLine
 10
5549.132086471935
 20
3616.077276893881
 30
0.0
 11
5549.132086471935
 21
3615.82727689388
 31
0.0
  0
ARC
  5
15816
330
747D
100
AcDbEntity
  8
細線
 48
0.2
100
AcDbCircle
 10
5566.132086471935
 20
3615.856767062631
 30
0.0
 40
1.0
100
AcDbArc
 50
286.6015495990217
 51
0.0
  0
LINE
  5
15817
330
747D
100
AcDbEntity
  8
部品1
100
AcDbLine
 10
5569.132086471935
 20
3616.077276893881
 30
0.0
 11
5569.194534300615
 21
3616.077276893881
 31
0.0
  0
LINE
  5
15818
330
747D
100
AcDbEntity
  8
部品1
100
AcDbLine
 10
5569.132086471935
 20
3616.077276893872
 30
0.0
 11
5569.194534300615
 21
3616.077276893872
 31
0.0
  0
LINE
  5
15819
330
747D
100
AcDbEntity
  8
細線
 48
0.2
100
AcDbLine
 10
5569.132086471935
 20
3620.32727689388
 30
0.0
 11
5549.132086471935
 21
3620.32727689388
 31
0.0
  0
LINE
  5
1581A
330
747D
100
AcDbEntity
  8
部品1
 48
0.2
100
AcDbLine
 10
5569.132086471935
 20
3622.827276893879
 30
0.0
 11
5549.132086471935
 21
3622.827276893879
 31
0.0
  0
LINE
  5
15866
330
747D
100
AcDbEntity
  8
細線
 48
50.0
100
AcDbLine
 10
5565.119739323595
 20
5404.827276893862
 30
0.0
 11
5565.119739323595
 21
5402.827276893862
 31
0.0
  0
LINE
  5
15867
330
747D
100
AcDbEntity
  8
細線
 48
0.1
100
AcDbLine
 10
5569.132086471935
 20
5407.327276893862
 30
0.0
 11
5569.132086471935
 21
5400.327276893862
 31
0.0
  0
LINE
  5
15868
330
747D
100
AcDbEntity
  8
細線
 48
50.0
100
AcDbLine
 10
5557.269329277631
 20
5404.827276893862
 30
0.0
 11
5557.269329277631
 21
5402.827276893862
 31
0.0
  0
LINE
  5
15869
330
747D
100
AcDbEntity
  8
部品1
 48
50.0
100
AcDbLine
 10
5549.132086471935
 20
5400.327276893862
 30
0.0
 11
5549.132086471935
 21
5407.077276893862
 31
0.0
  0
LINE
  5
1586A
330
747D
100
AcDbEntity
  8
部品1
 48
0.2
100
AcDbLine
 10
5569.132086471935
 20
5400.327276893862
 30
0.0
 11
5549.132086471935
 21
5400.327276893862
 31
0.0
  0
LINE
  5
1586B
330
747D
100
AcDbEntity
  8
細線
 48
0.2
100
AcDbLine
 10
5569.132086471935
 20
5402.827276893862
 30
0.0
 11
5549.132086471935
 21
5402.827276893862
 31
0.0
  0
LINE
  5
1586C
330
747D
100
AcDbEntity
  8
細線
 48
0.2
100
AcDbLine
 10
5566.816077768443
 20
5408.027276893863
 30
0.0
 11
5555.448095175431
 21
5408.027276893863
 31
0.0
  0
ARC
  5
1586D
330
747D
100
AcDbEntity
  8
細線
 48
0.2
100
AcDbCircle
 10
5561.132086471935
 20
5390.527276893865
 30
0.0
 40
18.49999999999796
100
AcDbArc
 50
73.39845040097829
 51
106.6015495990228
  0
LINE
  5
1586E
330
747D
100
AcDbEntity
  8
細線
 48
0.2
100
AcDbLine
 10
5569.132086471935
 20
5404.827276893862
 30
0.0
 11
5549.132086471935
 21
5404.827276893862
 31
0.0
  0
LINE
  5
1586F
330
747D
100
AcDbEntity
  8
細線
 48
0.2
100
AcDbLine
 10
5569.132086471935
 20
5407.327276893862
 30
0.0
 11
5549.132086471935
 21
5407.327276893862
 31
0.0
  0
ARC
  5
15870
330
747D
100
AcDbEntity
  8
細線
 48
0.2
100
AcDbCircle
 10
5556.132086471935
 20
5407.29778672511
 30
0.0
 40
1.0
100
AcDbArc
 50
106.6015495990225
 51
180.0000000000016
  0
LINE
  5
15871
330
747D
100
AcDbEntity
  8
細線
 48
50.0
100
AcDbLine
 10
5549.132086471935
 20
5407.077276893862
 30
0.0
 11
5549.132086471935
 21
5407.327276893862
 31
0.0
  0
ARC
  5
15872
330
747D
100
AcDbEntity
  8
細線
 48
0.2
100
AcDbCircle
 10
5566.132086471935
 20
5407.29778672511
 30
0.0
 40
1.0
100
AcDbArc
 50
0.0
 51
73.39845040097829
  0
LINE
  5
15873
330
747D
100
AcDbEntity
  8
部品1
100
AcDbLine
 10
5569.132086471935
 20
5407.077276893862
 30
0.0
 11
5569.194534300615
 21
5407.07727689386
 31
0.0
  0
LINE
  5
15A15
330
747D
100
AcDbEntity
  8
部品1
 48
50.0
100
AcDbLine
 10
6694.194534300615
 20
3612.577276893848
 30
0.0
 11
6694.194534300615
 21
3569.577276893845
 31
0.0
  0
LINE
  5
15A1C
330
747D
100
AcDbEntity
  8
細線
 48
50.0
100
AcDbLine
 10
6694.194534300617
 20
5503.577276893864
 30
0.0
 11
6694.194534300615
 21
5409.577276893845
 31
0.0
  0
LINE
  5
15A2C
330
747D
100
AcDbEntity
  8
細線
 48
50.0
100
AcDbLine
 10
6684.194534300615
 20
5503.577276893862
 30
0.0
 11
6684.194534300615
 21
5644.577276893862
 31
0.0
  0
LINE
  5
15AA9
330
747D
100
AcDbEntity
  8
部品1
100
AcDbLine
 10
4794.194534300615
 20
5409.577276893861
 30
0.0
 11
8594.194534300616
 21
5409.577276893861
 31
0.0
  0
LINE
  5
15AAA
330
747D
100
AcDbEntity
  8
Ｇ．Ｌ
100
AcDbLine
 10
3710.222876778338
 20
3469.577276893861
 30
0.0
 11
12263.66940028943
 21
3469.577276893861
 31
0.0
  0
LINE
  5
15AAB
330
747D
100
AcDbEntity
  8
部品1
100
AcDbLine
 10
4794.194534300615
 20
3569.577276893861
 30
0.0
 11
8594.194534300616
 21
3569.577276893861
 31
0.0
  0
LINE
  5
15AAD
330
747D
100
AcDbEntity
  8
部品1
100
AcDbLine
 10
4794.194534300615
 20
3612.577276893833
 30
0.0
 11
8594.194534300616
 21
3612.577276893881
 31
0.0
  0
LINE
  5
15AFA
330
747D
100
AcDbEntity
  8
部品1
 48
5.0
100
AcDbLine
 10
4794.194534300615
 20
8356.365915108453
 30
0.0
 11
8594.194534300596
 21
8356.365915108373
 31
0.0
  0
DIMENSION
  5
15B9F
330
747D
100
AcDbEntity
  8
寸法
100
AcDbDimension
  2
*D18
 10
5689.194534300622
 20
9522.174134733534
 30
0.0
 11
5269.194534300622
 21
9522.174134733534
 31
0.0
 70
   160
  1
2X420=<>
 71
     5
 42
839.9999999999982
  3
INABA_S40G
100
AcDbAlignedDimension
 13
4849.194534300623
 23
9306.365915108465
 33
0.0
 14
5689.194534300622
 24
9306.365915108552
 34
0.0
100
AcDbRotatedDimension
1001
ACAD
1000
DSTYLE
1002
{
1002
}
  0
DIMENSION
  5
15BA0
330
747D
100
AcDbEntity
  8
寸法
 48
50.0
100
AcDbDimension
  2
*D17
 10
5799.194534300625
 20
9522.174134733534
 30
0.0
 11
5744.194534300623
 21
9779.050803348036
 31
0.0
 70
   160
 71
     5
 42
110.0000000000036
  3
INABA_S40G
100
AcDbAlignedDimension
 13
5689.194534300622
 23
9306.365915108552
 33
0.0
 14
5799.194534300625
 24
9306.36591510853
 34
0.0
100
AcDbRotatedDimension
1001
ACAD
1000
DSTYLE
1002
{
1070
   279
1070
     2
1002
}
  0
DIMENSION
  5
15BA1
330
747D
100
AcDbEntity
  8
寸法
100
AcDbDimension
  2
*D16
 10
6639.194534300621
 20
9522.174134733534
 30
0.0
 11
6219.194534300622
 21
9522.174134733534
 31
0.0
 70
   160
  1
2X420=<>
 71
     5
 42
839.9999999999982
  3
INABA_S40G
100
AcDbAlignedDimension
 13
5799.194534300623
 23
9306.365915108465
 33
0.0
 14
6639.194534300621
 24
9306.365915108552
 34
0.0
100
AcDbRotatedDimension
1001
ACAD
1000
DSTYLE
1002
{
1002
}
  0
LINE
  5
15BA4
330
747D
100
AcDbEntity
  8
部品1
100
AcDbLine
 10
4823.194540978216
 20
9276.865915108407
 30
0.0
 11
5715.194540978217
 21
9276.865915108515
 31
0.0
  0
LINE
  5
15BA5
330
747D
100
AcDbEntity
  8
部品1
100
AcDbLine
 10
4822.194534300622
 20
9278.365915108436
 30
0.0
 11
5741.575237319245
 21
9278.365915108457
 31
0.0
  0
LINE
  5
15BA6
330
747D
100
AcDbEntity
  8
部品1
100
AcDbLine
 10
4823.194540978218
 20
8826.865915108406
 30
0.0
 11
5715.194540978217
 21
8826.865915108509
 31
0.0
  0
LINE
  5
15BA7
330
747D
100
AcDbEntity
  8
細線
 48
50.0
100
AcDbLine
 10
5715.194540978217
 20
8826.865915108509
 30
0.0
 11
4823.194540978216
 21
9276.865915108407
 31
0.0
  0
LINE
  5
15BA8
330
747D
100
AcDbEntity
  8
細線
 48
50.0
100
AcDbLine
 10
5715.194540978217
 20
9276.865915108508
 30
0.0
 11
4823.194540978216
 21
8826.865915108406
 31
0.0
  0
LINE
  5
15BAA
330
747D
100
AcDbEntity
  8
部品1
100
AcDbLine
 10
5688.69510474878
 20
8487.865334288516
 30
0.0
 11
4850.69550572701
 21
8487.864832799994
 31
0.0
  0
LINE
  5
15BAB
330
747D
100
AcDbEntity
  8
部品1
100
AcDbLine
 10
5569.194534300615
 20
8382.365915108486
 30
0.0
 11
4839.194534300616
 21
8382.365915108458
 31
0.0
  0
LINE
  5
15BAC
330
747D
100
AcDbEntity
  8
部品1
 48
5.0
100
AcDbLine
 10
4837.194534300615
 20
8385.865915108356
 30
0.0
 11
5720.194534300617
 21
8385.865915108414
 31
0.0
  0
LINE
  5
15BAE
330
747D
100
AcDbEntity
  8
破線
 48
10.0
100
AcDbLine
 10
5665.194534300608
 20
8511.365915108461
 30
0.0
 11
4874.194534300608
 21
8511.365915108443
 31
0.0
  0
ARC
  5
15BAF
330
747D
100
AcDbEntity
  8
想像線
 48
10.0
100
AcDbCircle
 10
5561.842483623455
 20
8358.060808484045
 30
0.0
 40
722.649936915559
100
AcDbArc
 50
180.1343808685458
 51
270.5829222700353
  0
LINE
  5
15BB0
330
747D
100
AcDbEntity
  8
細線
 48
50.0
100
AcDbLine
 10
5189.194534300615
 20
8382.365915108493
 30
0.0
 11
5189.194534300615
 21
8356.365915108458
 31
0.0
  0
LINE
  5
15BB1
330
747D
100
AcDbEntity
  8
細線
 48
50.0
100
AcDbLine
 10
5149.194534300615
 20
8382.365915108493
 30
0.0
 11
5149.194534300615
 21
8356.365915108458
 31
0.0
  0
LINE
  5
15BB2
330
747D
100
AcDbEntity
  8
想像線
 48
10.0
100
AcDbLine
 10
6519.194534300615
 20
8356.365915108472
 30
0.0
 11
6519.194534300615
 21
7635.448271452682
 31
0.0
  0
LINE
  5
15BB3
330
747D
100
AcDbEntity
  8
想像線
 48
10.0
100
AcDbLine
 10
5569.194534300615
 20
8356.365915108472
 30
0.0
 11
5569.194534300615
 21
7635.448271452682
 31
0.0
  0
ARC
  5
15BB4
330
747D
100
AcDbEntity
  8
想像線
 48
10.0
100
AcDbCircle
 10
6511.842483623455
 20
8358.060808484045
 30
0.0
 40
722.6499369155582
100
AcDbArc
 50
180.1343808685487
 51
270.5829222700354
  0
LINE
  5
15BB7
330
747D
100
AcDbEntity
  8
部品1
100
AcDbLine
 10
5773.194540978217
 20
9276.865915108407
 30
0.0
 11
6665.194540978217
 21
9276.865915108515
 31
0.0
  0
LINE
  5
15BB8
330
747D
100
AcDbEntity
  8
細線
 48
50.0
100
AcDbLine
 10
6665.194540978217
 20
8826.865915108509
 30
0.0
 11
5773.194540978217
 21
9276.865915108407
 31
0.0
  0
LINE
  5
15BB9
330
747D
100
AcDbEntity
  8
細線
 48
50.0
100
AcDbLine
 10
6665.194540978217
 20
9276.865915108508
 30
0.0
 11
5773.194540978217
 21
8826.865915108406
 31
0.0
  0
LINE
  5
15BBA
330
747D
100
AcDbEntity
  8
部品1
100
AcDbLine
 10
5773.194540978218
 20
8826.865915108406
 30
0.0
 11
6665.194540978217
 21
8826.865915108509
 31
0.0
  0
LINE
  5
15BBB
330
747D
100
AcDbEntity
  8
部品1
 48
5.0
100
AcDbLine
 10
5768.194534300618
 20
8385.865915108414
 30
0.0
 11
6670.194534300617
 21
8385.865915108473
 31
0.0
  0
LINE
  5
15BBC
330
747D
100
AcDbEntity
  8
部品1
100
AcDbLine
 10
5772.19453430057
 20
9278.365915108457
 30
0.0
 11
6691.575237319224
 21
9278.365915108478
 31
0.0
  0
LINE
  5
15BBD
330
747D
100
AcDbEntity
  8
部品1
100
AcDbLine
 10
6638.694534300601
 20
8487.865915108478
 30
0.0
 11
5799.694041046717
 21
8487.865412911007
 31
0.0
  0
LINE
  5
15BBE
330
747D
100
AcDbEntity
  8
破線
 48
10.0
100
AcDbLine
 10
6615.194534300607
 20
8511.365915108479
 30
0.0
 11
5823.194534300608
 21
8511.365915108465
 31
0.0
  0
LINE
  5
15BBF
330
747D
100
AcDbEntity
  8
部品1
 48
50.0
100
AcDbLine
 10
6218.694534300608
 20
8826.865915108458
 30
0.0
 11
6218.694371428505
 21
8487.86508294526
 31
0.0
  0
LINE
  5
15BC0
330
747D
100
AcDbEntity
  8
部品1
 48
50.0
100
AcDbLine
 10
5268.694534300608
 20
8826.865915108458
 30
0.0
 11
5268.694371428504
 21
8487.86508294526
 31
0.0
  0
LINE
  5
15BC1
330
747D
100
AcDbEntity
  8
部品1
 48
50.0
100
AcDbLine
 10
5799.694527956315
 20
8487.865915133141
 30
0.0
 11
5799.694530929176
 21
8826.865915108482
 31
0.0
  0
LINE
  5
15BC2
330
747D
100
AcDbEntity
  8
部品1
 48
50.0
100
AcDbLine
 10
5688.694534300601
 20
8487.865915108478
 30
0.0
 11
5688.694534300576
 21
8826.865915108538
 31
0.0
  0
LINE
  5
15BC3
330
747D
100
AcDbEntity
  8
破線
 48
10.0
100
AcDbLine
 10
5665.194534300608
 20
8511.365915108479
 30
0.0
 11
5665.194525946056
 21
8826.865915108538
 31
0.0
  0
LINE
  5
15BC4
330
747D
100
AcDbEntity
  8
破線
 48
10.0
100
AcDbLine
 10
5823.194534300608
 20
8511.365915108488
 30
0.0
 11
5823.194521869498
 21
8826.865915108482
 31
0.0
  0
LINE
  5
15BC5
330
747D
100
AcDbEntity
  8
部品1
 48
50.0
100
AcDbLine
 10
5744.194534300601
 20
8411.365915108472
 30
0.0
 11
5744.194534300601
 21
9251.365915108479
 31
0.0
  0
LINE
  5
15BC6
330
747D
100
AcDbEntity
  8
部品1
 48
50.0
100
AcDbLine
 10
5716.194534300601
 20
8411.365915108472
 30
0.0
 11
5716.194534300548
 21
9278.365915108478
 31
0.0
  0
LINE
  5
15BC7
330
747D
100
AcDbEntity
  8
部品1
 48
50.0
100
AcDbLine
 10
5772.194534300601
 20
8411.365915108472
 30
0.0
 11
5772.194534300546
 21
9306.365915108479
 31
0.0
  0
DIMENSION
  5
15BC8
330
747D
100
AcDbEntity
  8
寸法
 48
50.0
100
AcDbDimension
  2
*D15
 10
6484.194534300616
 20
7916.542247313351
 30
0.0
 11
6141.694534300618
 21
7916.542247313351
 31
0.0
 70
   160
 71
     5
 42
684.9999999999964
  3
INABA_S40G
100
AcDbAlignedDimension
 13
5799.194534300619
 23
8356.365915108428
 33
0.0
 14
6484.194534300616
 24
8356.365915108392
 34
0.0
100
AcDbRotatedDimension
  0
LINE
  5
15BC9
330
747D
100
AcDbEntity
  8
部品1
100
AcDbLine
 10
6519.194534300615
 20
8382.36591510852
 30
0.0
 11
5789.194534300616
 21
8382.365915108499
 31
0.0
  0
LINE
  5
15BCA
330
747D
100
AcDbEntity
  8
細線
 48
50.0
100
AcDbLine
 10
5376.194534300616
 20
8382.365915108708
 30
0.0
 11
5376.194534300616
 21
8356.365915108673
 31
0.0
  0
LINE
  5
15BCB
330
747D
100
AcDbEntity
  8
部品1
 48
5.0
100
AcDbLine
 10
5571.194534300617
 20
8385.865915108473
 30
0.0
 11
5571.194534300617
 21
8356.365915108472
 31
0.0
  0
LINE
  5
15BCC
330
747D
100
AcDbEntity
  8
部品1
 48
0.2
100
AcDbLine
 10
5556.256982129292
 20
8349.363545063694
 30
0.0
 11
5561.256982129293
 21
8349.363545063694
 31
0.0
  0
ARC
  5
15BCD
330
747D
100
AcDbEntity
  8
細線
 48
0.2
100
AcDbCircle
 10
5561.256982129293
 20
8357.363545063694
 30
0.0
 40
4.049999999999999
100
AcDbArc
 50
194.2603506853988
 51
345.7396493146012
  0
ARC
  5
15BCE
330
747D
100
AcDbEntity
  8
部品1
 48
0.2
100
AcDbCircle
 10
5556.256982129292
 20
8357.363545063694
 30
0.0
 40
8.0
100
AcDbArc
 50
187.1636477221926
 51
269.9999999999992
  0
ARC
  5
15BCF
330
747D
100
AcDbEntity
  8
部品1
 48
0.2
100
AcDbCircle
 10
5561.256982129293
 20
8357.363545063694
 30
0.0
 40
8.0
100
AcDbArc
 50
270.0
 51
352.8363522778074
  0
LINE
  5
15BD0
330
747D
100
AcDbEntity
  8
部品1
100
AcDbLine
 10
5569.194534300615
 20
8382.365915108524
 30
0.0
 11
5569.194534300615
 21
8356.365915108469
 31
0.0
  0
LINE
  5
15BD1
330
747D
100
AcDbEntity
  8
細線
 48
50.0
100
AcDbLine
 10
5416.194534300615
 20
8382.365915108708
 30
0.0
 11
5416.194534300615
 21
8356.365915108673
 31
0.0
  0
LINE
  5
15BD2
330
747D
100
AcDbEntity
  8
部品1
 48
5.0
100
AcDbLine
 10
5716.194534300601
 20
8411.365915108472
 30
0.0
 11
5772.194534300601
 21
8411.365915108472
 31
0.0
  0
LINE
  5
15BD4
330
747D
100
AcDbEntity
  8
部品1
 48
50.0
100
AcDbLine
 10
5716.194534300601
 20
8459.865915108471
 30
0.0
 11
5688.694534300601
 21
8487.865915108478
 31
0.0
  0
LINE
  5
15BD5
330
747D
100
AcDbEntity
  8
部品1
 48
5.0
100
AcDbLine
 10
5712.194534300618
 20
8411.365915108472
 30
0.0
 11
5689.194534300615
 21
8411.365915108472
 31
0.0
  0
LINE
  5
15BD6
330
747D
100
AcDbEntity
  8
部品1
 48
5.0
100
AcDbLine
 10
5689.194534300617
 20
8411.365915108472
 30
0.0
 11
5689.194534300619
 21
8385.865915108473
 31
0.0
  0
LINE
  5
15BD7
330
747D
100
AcDbEntity
  8
部品1
 48
5.0
100
AcDbLine
 10
5720.194534300617
 20
8411.365915108472
 30
0.0
 11
5720.194534300617
 21
8385.865915108473
 31
0.0
  0
LINE
  5
15BD8
330
747D
100
AcDbEntity
  8
部品1
 48
5.0
100
AcDbLine
 10
5701.194534300618
 20
8385.865915108473
 30
0.0
 11
5701.194534300618
 21
8356.365915108472
 31
0.0
  0
LINE
  5
15BD9
330
747D
100
AcDbEntity
  8
部品1
100
AcDbLine
 10
5701.194534300615
 20
8385.865915108418
 30
0.0
 11
5701.194534300611
 21
8356.365915108465
 31
0.0
  0
LINE
  5
15BDA
330
747D
100
AcDbEntity
  8
部品1
 48
5.0
100
AcDbLine
 10
5799.194534300617
 20
8411.365915108472
 30
0.0
 11
5799.194534300619
 21
8385.865915108473
 31
0.0
  0
LINE
  5
15BDB
330
747D
100
AcDbEntity
  8
部品1
 48
5.0
100
AcDbLine
 10
5787.194534300617
 20
8385.865915108473
 30
0.0
 11
5787.194534300617
 21
8356.365915108472
 31
0.0
  0
LINE
  5
15BDC
330
747D
100
AcDbEntity
  8
部品1
100
AcDbLine
 10
5787.194534300615
 20
8385.865915108425
 30
0.0
 11
5787.194534300617
 21
8356.365915108472
 31
0.0
  0
LINE
  5
15BDD
330
747D
100
AcDbEntity
  8
部品1
 48
5.0
100
AcDbLine
 10
5768.194534300619
 20
8411.365915108472
 30
0.0
 11
5768.194534300618
 21
8385.865915108473
 31
0.0
  0
LINE
  5
15BDE
330
747D
100
AcDbEntity
  8
部品1
 48
50.0
100
AcDbLine
 10
5799.694534300599
 20
8487.865915133145
 30
0.0
 11
5772.194534300601
 21
8459.865915108471
 31
0.0
  0
LINE
  5
15BDF
330
747D
100
AcDbEntity
  8
部品1
 48
5.0
100
AcDbLine
 10
5776.194534300618
 20
8411.365915108472
 30
0.0
 11
5799.194534300617
 21
8411.365915108472
 31
0.0
  0
LINE
  5
15BE0
330
747D
100
AcDbEntity
  8
部品1
100
AcDbLine
 10
5789.194534300616
 20
8382.365915108493
 30
0.0
 11
5789.194534300616
 21
8356.365915108458
 31
0.0
  0
LINE
  5
15BE1
330
747D
100
AcDbEntity
  8
細線
 48
50.0
100
AcDbLine
 10
5913.194534300616
 20
8382.365915108506
 30
0.0
 11
5913.194534300616
 21
8356.365915108458
 31
0.0
  0
LINE
  5
15BE2
330
747D
100
AcDbEntity
  8
細線
 48
50.0
100
AcDbLine
 10
6139.194534300616
 20
8382.365915108493
 30
0.0
 11
6139.194534300616
 21
8356.365915108458
 31
0.0
  0
LINE
  5
15BE3
330
747D
100
AcDbEntity
  8
細線
 48
50.0
100
AcDbLine
 10
6099.194534300615
 20
8382.365915108493
 30
0.0
 11
6099.194534300615
 21
8356.365915108458
 31
0.0
  0
LINE
  5
15BE4
330
747D
100
AcDbEntity
  8
細線
 48
50.0
100
AcDbLine
 10
6326.194534300615
 20
8382.365915108708
 30
0.0
 11
6326.194534300615
 21
8356.365915108673
 31
0.0
  0
LINE
  5
15BE5
330
747D
100
AcDbEntity
  8
細線
 48
50.0
100
AcDbLine
 10
6366.194534300616
 20
8382.365915108708
 30
0.0
 11
6366.194534300616
 21
8356.365915108673
 31
0.0
  0
ARC
  5
15BE6
330
747D
100
AcDbEntity
  8
部品1
 48
0.2
100
AcDbCircle
 10
6506.256982129293
 20
8357.363545063694
 30
0.0
 40
8.0
100
AcDbArc
 50
187.1636477221926
 51
269.9999999999992
  0
LINE
  5
15BE7
330
747D
100
AcDbEntity
  8
部品1
 48
5.0
100
AcDbLine
 10
6521.194534300618
 20
8385.865915108473
 30
0.0
 11
6521.194534300618
 21
8356.365915108472
 31
0.0
  0
LINE
  5
15BE8
330
747D
100
AcDbEntity
  8
部品1
 48
0.2
100
AcDbLine
 10
6506.256982129293
 20
8349.363545063694
 30
0.0
 11
6511.256982129292
 21
8349.363545063694
 31
0.0
  0
ARC
  5
15BE9
330
747D
100
AcDbEntity
  8
細線
 48
0.2
100
AcDbCircle
 10
6511.256982129292
 20
8357.363545063694
 30
0.0
 40
4.049999999999999
100
AcDbArc
 50
194.2603506853988
 51
345.7396493146012
  0
ARC
  5
15BEA
330
747D
100
AcDbEntity
  8
部品1
 48
0.2
100
AcDbCircle
 10
6511.256982129292
 20
8357.363545063694
 30
0.0
 40
8.0
100
AcDbArc
 50
270.0
 51
352.8363522778074
  0
LINE
  5
15BEB
330
747D
100
AcDbEntity
  8
部品1
100
AcDbLine
 10
6519.194534300615
 20
8382.365915108524
 30
0.0
 11
6519.194534300615
 21
8356.365915108469
 31
0.0
  0
LINE
  5
15BEC
330
747D
100
AcDbEntity
  8
部品1
 48
50.0
100
AcDbLine
 10
5773.194540978217
 20
9276.8659151084
 30
0.0
 11
5773.194540978217
 21
8826.865915108406
 31
0.0
  0
LINE
  5
15BED
330
747D
100
AcDbEntity
  8
部品1
 48
50.0
100
AcDbLine
 10
5715.194540978217
 20
9276.865915108508
 30
0.0
 11
5715.194540978217
 21
8826.865915108509
 31
0.0
  0
LINE
  5
15BEE
330
747D
100
AcDbEntity
  8
部品1
 48
5.0
100
AcDbLine
 10
5744.194534300601
 20
8831.365915108476
 30
0.0
 11
5716.19453430055
 21
8831.365915108479
 31
0.0
  0
LINE
  5
15BEF
330
747D
100
AcDbEntity
  8
部品1
 48
50.0
100
AcDbLine
 10
5744.194534300594
 20
8869.365915108479
 30
0.0
 11
5772.194534300576
 21
8869.365915108483
 31
0.0
  0
LINE
  5
15BF0
330
747D
100
AcDbEntity
  8
部品1
 48
50.0
100
AcDbLine
 10
5744.194534300594
 20
8831.365915108479
 30
0.0
 11
5772.194534300576
 21
8831.365915108483
 31
0.0
  0
LINE
  5
15BF1
330
747D
100
AcDbEntity
  8
部品1
100
AcDbLine
 10
5268.694534300554
 20
9306.365915108395
 30
0.0
 11
5268.694534300554
 21
9278.365915108395
 31
0.0
  0
LINE
  5
15BF2
330
747D
100
AcDbEntity
  8
部品1
100
AcDbLine
 10
5268.694534300586
 20
9306.365915108427
 30
0.0
 11
5268.694534300586
 21
9278.365915108429
 31
0.0
  0
LINE
  5
15BF3
330
747D
100
AcDbEntity
  8
部品1
 48
5.0
100
AcDbLine
 10
5772.19453430055
 20
9251.365915108479
 30
0.0
 11
5716.19453430055
 21
9251.365915108479
 31
0.0
  0
LINE
  5
15BF4
330
747D
100
AcDbEntity
  8
部品1
 48
5.0
100
AcDbLine
 10
5718.903808747796
 20
9306.365915108479
 30
0.0
 11
5741.575237319224
 21
9278.365915108478
 31
0.0
  0
LINE
  5
15BF5
330
747D
100
AcDbEntity
  8
部品1
 48
50.0
100
AcDbLine
 10
5714.747141788639
 20
9276.865915108515
 30
0.0
 11
5716.194534300513
 21
9278.365915108446
 31
0.0
  0
LINE
  5
15BF6
330
747D
100
AcDbEntity
  8
部品1
 48
5.0
100
AcDbLine
 10
5689.194534300619
 20
9278.365915108478
 30
0.0
 11
5689.194534300622
 21
9306.365915108479
 31
0.0
  0
LINE
  5
15BF7
330
747D
100
AcDbEntity
  8
部品1
 48
50.0
100
AcDbLine
 10
5773.694540978211
 20
9276.865915108407
 30
0.0
 11
5772.194534300586
 21
9278.3659151084
 31
0.0
  0
LINE
  5
15BF8
330
747D
100
AcDbEntity
  8
部品1
 48
5.0
100
AcDbLine
 10
5799.194534300625
 20
9306.365915108484
 30
0.0
 11
5799.194534300619
 21
9278.365915108485
 31
0.0
  0
LINE
  5
15BF9
330
747D
100
AcDbEntity
  8
部品1
100
AcDbLine
 10
6218.694534300587
 20
9306.365915108395
 30
0.0
 11
6218.694534300587
 21
9278.365915108395
 31
0.0
  0
LINE
  5
15BFA
330
747D
100
AcDbEntity
  8
部品1
100
AcDbLine
 10
6218.694534300554
 20
9306.365915108363
 30
0.0
 11
6218.694534300554
 21
9278.365915108363
 31
0.0
  0
LINE
  5
15D18
330
747D
100
AcDbEntity
  8
部品1
100
AcDbLine
 10
4794.194534300586
 20
9306.365915108258
 30
0.0
 11
8594.194534300623
 21
9306.36591510853
 31
0.0
  0
DIMENSION
  5
15EE4
330
747D
100
AcDbEntity
  8
寸法
 48
50.0
100
AcDbDimension
  2
*D19
 10
8384.194534300617
 20
7916.542247313351
 30
0.0
 11
8041.694534300617
 21
7916.542247313351
 31
0.0
 70
   160
  1
有効開口部間口\P<>
 71
     5
 42
684.9999999999964
  3
INABA_S40G
100
AcDbAlignedDimension
 13
7699.19453430062
 23
8356.365915108428
 33
0.0
 14
8384.194534300617
 24
8356.365915108392
 34
0.0
100
AcDbRotatedDimension
  0
DIMENSION
  5
15EFD
330
747D
100
AcDbEntity
  8
寸法
 48
50.0
100
AcDbDimension
  2
*D20
 10
5534.194534300616
 20
7916.542247313351
 30
0.0
 11
5191.694534300618
 21
7916.542247313351
 31
0.0
 70
   160
 71
     5
 42
684.9999999999964
  3
INABA_S40G
100
AcDbAlignedDimension
 13
4849.194534300619
 23
8356.365915108428
 33
0.0
 14
5534.194534300616
 24
8356.365915108392
 34
0.0
100
AcDbRotatedDimension
  0
DIMENSION
  5
163E7
330
747D
100
AcDbEntity
  8
寸法
100
AcDbDimension
  2
*D21
 10
5656.501044684254
 20
8607.818804865422
 30
0.0
 11
5314.320355754142
 21
8711.102920258417
 31
0.0
 70
   160
 71
     5
 42
892.000000000011
  3
INABA_S40G
100
AcDbAlignedDimension
 13
4823.194540978221
 23
8826.865915108404
 33
0.0
 14
5715.194540978231
 24
8826.865915108401
 34
0.0
100
AcDbRotatedDimension
1001
ACAD
1000
DSTYLE
1002
{
1070
   279
1070
     2
1002
}
  0
DIMENSION
  5
163E8
330
747D
100
AcDbEntity
  8
寸法
100
AcDbDimension
  2
*D22
 10
6606.501044684254
 20
8607.818804865422
 30
0.0
 11
6264.320355754142
 21
8711.102920258417
 31
0.0
 70
   160
 71
     5
 42
892.000000000011
  3
INABA_S40G
100
AcDbAlignedDimension
 13
5773.19454097822
 23
8826.865915108404
 33
0.0
 14
6665.194540978231
 24
8826.865915108401
 34
0.0
100
AcDbRotatedDimension
1001
ACAD
1000
DSTYLE
1002
{
1070
   279
1070
     2
1002
}
  0
DIMENSION
  5
163E9
330
747D
100
AcDbEntity
  8
寸法
100
AcDbDimension
  2
*D23
 10
7556.501044684253
 20
8607.818804865422
 30
0.0
 11
7207.849192859896
 21
8712.904080641951
 31
0.0
 70
   160
 71
     5
 42
892.000000000011
  3
INABA_S40G
100
AcDbAlignedDimension
 13
6723.194540978219
 23
8826.865915108404
 33
0.0
 14
7615.194540978231
 24
8826.865915108401
 34
0.0
100
AcDbRotatedDimension
1001
ACAD
1000
DSTYLE
1002
{
1070
   279
1070
     2
1002
}
  0
MTEXT
  5
163EA
330
747D
100
AcDbEntity
  8
寸法
 62
     7
 48
50.0
100
AcDbMText
 10
5283.742737143848
 20
8896.479662645704
 30
0.0
 40
96.0
 41
0.0
 71
     5
 72
     1
  1
棚 2段
  7
STYLE1
 73
     1
 44
1.0
1001
ACAD
1000
MTEXTBEGIN
1070
    73
1070
     1
1070
    44
1040
1.0
1070
    74
1070
     0
1000
MTEXTEND
  0
LWPOLYLINE
  5
163EB
330
747D
100
AcDbEntity
  8
部品1
100
AcDbPolyline
 90
        4
 70
     1
 43
0.0
 10
6312.459201186386
 20
2678.52799053742
 10
6312.459201186386
 20
2438.635668991887
 10
7075.929867414827
 20
2438.635668991887
 10
7075.929867414827
 20
2678.52799053742
  0
TEXT
  5
163EC
330
747D
100
AcDbEntity
  8
部品1
100
AcDbText
 10
6402.984604924343
 20
2485.634461318896
 30
0.0
 40
135.0
  1
正面図
  7
STYLE2
100
AcDbText
  0
LWPOLYLINE
  5
163ED
330
747D
100
AcDbEntity
  8
部品1
100
AcDbPolyline
 90
        4
 70
     1
 43
0.0
 10
10623.25658299388
 20
2678.52799053742
 10
10623.25658299388
 20
2438.635668991887
 10
11386.72724922231
 20
2438.635668991887
 10
11386.72724922231
 20
2678.52799053742
  0
TEXT
  5
163EE
330
747D
100
AcDbEntity
  8
部品1
100
AcDbText
 10
10712.70268441748
 20
2485.634461318896
 30
0.0
 40
135.0
  1
側面図
  7
STYLE2
100
AcDbText
  0
LINE
  5
163EF
330
747D
100
AcDbEntity
  8
仕様書枠
 48
50.0
100
AcDbLine
 10
16307.2
 20
10899.6
 30
0.0
 11
13127.2
 21
10899.6
 31
0.0
  0
MTEXT
  5
163F0
330
747D
100
AcDbEntity
  8
寸法
 62
     7
 48
50.0
100
AcDbMText
 10
7184.474338588856
 20
8896.479662645692
 30
0.0
 40
96.0
 41
0.0
 71
     5
 72
     1
  1
棚 2段
  7
STYLE1
 73
     1
 44
1.0
1001
ACAD
1000
MTEXTBEGIN
1070
    73
1070
     1
1070
    44
1040
1.0
1070
    74
1070
     0
1000
MTEXTEND
  0
MTEXT
  5
163F1
330
747D
100
AcDbEntity
  8
寸法
 62
     7
 48
50.0
100
AcDbMText
 10
6233.742737143848
 20
8896.479662645704
 30
0.0
 40
96.0
 41
0.0
 71
     5
 72
     1
  1
棚 2段
  7
STYLE1
 73
     1
 44
1.0
1001
ACAD
1000
MTEXTBEGIN
1070
    73
1070
     1
1070
    44
1040
1.0
1070
    74
1070
     0
1000
MTEXTEND
  0
TEXT
  5
163F2
330
747D
100
AcDbEntity
  8
文字
 62
     7
 48
50.0
100
AcDbText
 10
13583.1181901657
 20
9910.01374588373
 30
0.0
 40
100.0
  1
梁中・梁中央
 41
0.9
  7
STYLE1
100
AcDbText
  0
TEXT
  5
163F3
330
747D
100
AcDbEntity
  8
文字
 62
     7
 48
50.0
100
AcDbText
 10
15022.63965474517
 20
9910.01374588373
 30
0.0
 40
100.0
  1
F12,Y10       0.7+1.0
  7
STYLE1
100
AcDbText
  0
TEXT
  5
163F4
330
747D
100
AcDbEntity
  8
文字
 62
     7
 48
50.0
100
AcDbText
 10
13583.11819016567
 20
8890.013745883729
 30
0.0
 40
100.0
  1
アンカープレート
  7
STYLE1
100
AcDbText
  0
TEXT
  5
163F5
330
747D
100
AcDbEntity
  8
文字
 62
     7
 48
50.0
100
AcDbText
 10
15022.63965474513
 20
8890.013745883722
 30
0.0
 40
100.0
  1
F12            2.3
  7
STYLE1
100
AcDbText
  0
LINE
  5
163F6
330
747D
100
AcDbEntity
  8
仕様書枠
 48
50.0
100
AcDbLine
 10
16307.2
 20
9879.600000000001
 30
0.0
 11
13127.2
 21
9879.600000000001
 31
0.0
  0
LINE
  5
163F7
330
747D
100
AcDbEntity
  8
仕様書枠
 48
50.0
100
AcDbLine
 10
16307.2
 20
11409.6
 30
0.0
 11
13127.2
 21
11409.6
 31
0.0
  0
LINE
  5
163F8
330
747D
100
AcDbEntity
  8
仕様書枠
 48
50.0
100
AcDbLine
 10
16307.19999999999
 20
8179.599999999998
 30
0.0
 11
16307.2
 21
11409.6
 31
0.0
  0
LINE
  5
163F9
330
747D
100
AcDbEntity
  8
仕様書枠
 48
50.0
100
AcDbLine
 10
14785.2
 20
11409.59999999999
 30
0.0
 11
14785.19999999999
 21
8689.599999999998
 31
0.0
  0
LINE
  5
163FA
330
747D
100
AcDbEntity
  8
仕様書枠
 48
50.0
100
AcDbLine
 10
13490.2
 20
11409.6
 30
0.0
 11
13490.20000000001
 21
8689.6
 31
0.0
  0
LINE
  5
163FB
330
747D
100
AcDbEntity
  8
仕様書枠
 48
50.0
100
AcDbLine
 10
16307.2
 20
11239.6
 30
0.0
 11
13127.2
 21
11239.6
 31
0.0
  0
LINE
  5
163FC
330
747D
100
AcDbEntity
  8
仕様書枠
 48
50.0
100
AcDbLine
 10
16307.2
 20
10729.6
 30
0.0
 11
13127.2
 21
10729.6
 31
0.0
  0
LINE
  5
163FD
330
747D
100
AcDbEntity
  8
仕様書枠
 48
50.0
100
AcDbLine
 10
16307.2
 20
11069.6
 30
0.0
 11
13127.2
 21
11069.6
 31
0.0
  0
LINE
  5
163FE
330
747D
100
AcDbEntity
  8
仕様書枠
 48
50.0
100
AcDbLine
 10
16307.2
 20
10389.6
 30
0.0
 11
13127.2
 21
10389.6
 31
0.0
  0
LINE
  5
163FF
330
747D
100
AcDbEntity
  8
仕様書枠
 48
50.0
100
AcDbLine
 10
16307.2
 20
10219.6
 30
0.0
 11
13127.2
 21
10219.6
 31
0.0
  0
LINE
  5
16400
330
747D
100
AcDbEntity
  8
仕様書枠
 48
50.0
100
AcDbLine
 10
16307.2
 20
10559.6
 30
0.0
 11
13127.2
 21
10559.6
 31
0.0
  0
TEXT
  5
16401
330
747D
100
AcDbEntity
  8
文字
 62
     7
 48
50.0
100
AcDbText
 10
13197.42518560407
 20
11270.01374588373
 30
0.0
 40
100.0
  1
品番
  7
STYLE1
100
AcDbText
  0
TEXT
  5
16402
330
747D
100
AcDbEntity
  8
文字
 62
     7
 48
50.0
100
AcDbText
 10
13271.19032244792
 20
11100.01374588373
 30
0.0
 40
100.0
  1
1
  7
STYLE1
100
AcDbText
  0
TEXT
  5
16403
330
747D
100
AcDbEntity
  8
文字
 62
     7
 48
50.0
100
AcDbText
 10
13271.19032244792
 20
10930.01374588373
 30
0.0
 40
100.0
  1
2
  7
STYLE1
100
AcDbText
  0
TEXT
  5
16404
330
747D
100
AcDbEntity
  8
文字
 62
     7
 48
50.0
100
AcDbText
 10
13271.19032244793
 20
10590.01374588373
 30
0.0
 40
100.0
  1
4
  7
STYLE1
100
AcDbText
  0
TEXT
  5
16405
330
747D
100
AcDbEntity
  8
文字
 62
     7
 48
50.0
100
AcDbText
 10
13271.19032244793
 20
10760.01374588373
 30
0.0
 40
100.0
  1
3
  7
STYLE1
100
AcDbText
  0
TEXT
  5
16406
330
747D
100
AcDbEntity
  8
文字
 62
     7
 48
50.0
100
AcDbText
 10
13732.03840939435
 20
11270.01374588373
 30
0.0
 40
100.0
  1
部　　品　　名
  7
STYLE1
100
AcDbText
  0
TEXT
  5
16407
330
747D
100
AcDbEntity
  8
文字
 62
     7
 48
50.0
100
AcDbText
 10
14859.79774614482
 20
11270.01374588373
 30
0.0
 40
100.0
  1
材料（材質）　　単位mm
  7
STYLE1
100
AcDbText
  0
TEXT
  5
16408
330
747D
100
AcDbEntity
  8
文字
 62
     7
 48
50.0
100
AcDbText
 10
13583.11819016569
 20
11100.01374588373
 30
0.0
 40
100.0
  1
土台枠
  7
STYLE1
100
AcDbText
  0
TEXT
  5
16409
330
747D
100
AcDbEntity
  8
文字
 62
     7
 48
50.0
100
AcDbText
 10
13583.1181901657
 20
10930.01374588373
 30
0.0
 40
100.0
  1
柱
  7
STYLE1
100
AcDbText
  0
TEXT
  5
1640A
330
747D
100
AcDbEntity
  8
文字
 62
     7
 48
50.0
100
AcDbText
 10
13583.1181901657
 20
10590.01374588373
 30
0.0
 40
100.0
  1
鴨居
  7
STYLE1
100
AcDbText
  0
TEXT
  5
1640B
330
747D
100
AcDbEntity
  8
文字
 62
     7
 48
50.0
100
AcDbText
 10
13583.1181901657
 20
10420.01374588373
 30
0.0
 40
100.0
  1
桁後
  7
STYLE1
100
AcDbText
  0
TEXT
  5
1640C
330
747D
100
AcDbEntity
  8
文字
 62
     7
 48
50.0
100
AcDbText
 10
13271.19032244793
 20
10420.01374588373
 30
0.0
 40
100.0
  1
5
  7
STYLE1
100
AcDbText
  0
TEXT
  5
1640D
330
747D
100
AcDbEntity
  8
文字
 62
     7
 48
50.0
100
AcDbText
 10
13583.1181901657
 20
10250.01374588373
 30
0.0
 40
100.0
  1
妻板左右
  7
STYLE1
100
AcDbText
  0
TEXT
  5
1640E
330
747D
100
AcDbEntity
  8
文字
 62
     7
 48
50.0
100
AcDbText
 10
13248.77747366447
 20
9570.013745883729
 30
0.0
 40
100.0
  1
10
  7
STYLE1
100
AcDbText
  0
TEXT
  5
1640F
330
747D
100
AcDbEntity
  8
文字
 62
     7
 48
50.0
100
AcDbText
 10
13583.11819016568
 20
9570.013745883729
 30
0.0
 40
100.0
  1
壁パネル
  7
STYLE1
100
AcDbText
  0
TEXT
  5
16410
330
747D
100
AcDbEntity
  8
文字
 62
     7
 48
50.0
100
AcDbText
 10
13583.11819016569
 20
9740.013745883729
 30
0.0
 40
100.0
  1
屋根パネル
  7
STYLE1
100
AcDbText
  0
TEXT
  5
16411
330
747D
100
AcDbEntity
  8
文字
 62
     7
 48
50.0
100
AcDbText
 10
13583.1181901657
 20
10080.01374588373
 30
0.0
 40
100.0
  1
鼻隠シ前後
  7
STYLE1
100
AcDbText
  0
TEXT
  5
16412
330
747D
100
AcDbEntity
  8
文字
 62
     7
 48
50.0
100
AcDbText
 10
13271.19032244793
 20
9910.01374588373
 30
0.0
 40
100.0
  1
8
  7
STYLE1
100
AcDbText
  0
TEXT
  5
16413
330
747D
100
AcDbEntity
  8
文字
 62
     7
 48
50.0
100
AcDbText
 10
13271.19032244792
 20
9740.013745883729
 30
0.0
 40
100.0
  1
9
  7
STYLE1
100
AcDbText
  0
TEXT
  5
16414
330
747D
100
AcDbEntity
  8
文字
 62
     7
 48
50.0
100
AcDbText
 10
13271.19032244793
 20
10080.01374588373
 30
0.0
 40
100.0
  1
7
  7
STYLE1
100
AcDbText
  0
TEXT
  5
16415
330
747D
100
AcDbEntity
  8
文字
 62
     7
 48
50.0
100
AcDbText
 10
13271.19032244793
 20
10250.01374588373
 30
0.0
 40
100.0
  1
6
  7
STYLE1
100
AcDbText
  0
LINE
  5
16416
330
747D
100
AcDbEntity
  8
仕様書枠
 48
50.0
100
AcDbLine
 10
16307.19999999999
 20
9369.600000000001
 30
0.0
 11
13127.19999999999
 21
9369.600000000001
 31
0.0
  0
LINE
  5
16417
330
747D
100
AcDbEntity
  8
仕様書枠
 48
50.0
100
AcDbLine
 10
16307.19999999999
 20
9029.6
 30
0.0
 11
13127.19999999999
 21
9029.6
 31
0.0
  0
LINE
  5
16418
330
747D
100
AcDbEntity
  8
仕様書枠
 48
50.0
100
AcDbLine
 10
16307.19999999999
 20
9199.600000000001
 30
0.0
 11
13127.19999999999
 21
9199.600000000001
 31
0.0
  0
LINE
  5
16419
330
747D
100
AcDbEntity
  8
仕様書枠
 48
50.0
100
AcDbLine
 10
16307.2
 20
10049.6
 30
0.0
 11
13127.2
 21
10049.6
 31
0.0
  0
LINE
  5
1641A
330
747D
100
AcDbEntity
  8
仕様書枠
 48
50.0
100
AcDbLine
 10
16307.2
 20
9709.600000000001
 30
0.0
 11
13127.2
 21
9709.600000000001
 31
0.0
  0
TEXT
  5
1641B
330
747D
100
AcDbEntity
  8
文字
 62
     7
 48
50.0
100
AcDbText
 10
13248.77747366447
 20
9400.013745883729
 30
0.0
 40
100.0
  1
11
  7
STYLE1
100
AcDbText
  0
LINE
  5
1641C
330
747D
100
AcDbEntity
  8
仕様書枠
 48
50.0
100
AcDbLine
 10
16307.19999999999
 20
8859.6
 30
0.0
 11
13127.19999999999
 21
8859.6
 31
0.0
  0
LINE
  5
1641D
330
747D
100
AcDbEntity
  8
仕様書枠
 48
50.0
100
AcDbLine
 10
16307.19999999999
 20
8179.6
 30
0.0
 11
13127.19999999999
 21
8179.600000000004
 31
0.0
  0
TEXT
  5
1641E
330
747D
100
AcDbEntity
  8
文字
 62
     7
 48
50.0
100
AcDbText
 10
13248.77747366447
 20
9060.013745883729
 30
0.0
 40
100.0
  1
13
  7
STYLE1
100
AcDbText
  0
TEXT
  5
1641F
330
747D
100
AcDbEntity
  8
文字
 62
     7
 48
50.0
100
AcDbText
 10
13248.77747366447
 20
9230.013745883729
 30
0.0
 40
100.0
  1
12
  7
STYLE1
100
AcDbText
  0
TEXT
  5
16420
330
747D
100
AcDbEntity
  8
文字
 62
     7
 48
50.0
100
AcDbText
 10
15022.63965474517
 20
11100.01374588372
 30
0.0
 40
100.0
  1
F12            1.2
  7
STYLE1
100
AcDbText
  0
TEXT
  5
16421
330
747D
100
AcDbEntity
  8
文字
 62
     7
 48
50.0
100
AcDbText
 10
15022.63965474518
 20
10930.01374588372
 30
0.0
 40
100.0
  1
F12            1.0
  7
STYLE1
100
AcDbText
  0
TEXT
  5
16422
330
747D
100
AcDbEntity
  8
文字
 62
     7
 48
50.0
100
AcDbText
 10
15022.63965474517
 20
10590.01374588372
 30
0.0
 40
100.0
  1
Y10            1.0
  7
STYLE1
100
AcDbText
  0
TEXT
  5
16423
330
747D
100
AcDbEntity
  8
文字
 62
     7
 48
50.0
100
AcDbText
 10
15022.63965474517
 20
10420.01374588372
 30
0.0
 40
100.0
  1
Y10            1.0
  7
STYLE1
100
AcDbText
  0
TEXT
  5
16424
330
747D
100
AcDbEntity
  8
文字
 62
     7
 48
50.0
100
AcDbText
 10
15022.63965474517
 20
10250.01374588372
 30
0.0
 40
100.0
  1
Y10            0.7
  7
STYLE1
100
AcDbText
  0
TEXT
  5
16425
330
747D
100
AcDbEntity
  8
文字
 62
     7
 48
50.0
100
AcDbText
 10
15022.63965474517
 20
10080.01374588372
 30
0.0
 40
100.0
  1
Y10            0.7
  7
STYLE1
100
AcDbText
  0
TEXT
  5
16426
330
747D
100
AcDbEntity
  8
文字
 62
     7
 48
50.0
100
AcDbText
 10
15022.63965474516
 20
9740.013745883725
 30
0.0
 40
100.0
  1
Y10            0.5
  7
STYLE1
100
AcDbText
  0
TEXT
  5
16427
330
747D
100
AcDbEntity
  8
文字
 62
     7
 48
50.0
100
AcDbText
 10
15022.63965474515
 20
9570.013745883725
 30
0.0
 40
100.0
  1
F12            0.6
  7
STYLE1
100
AcDbText
  0
TEXT
  5
16428
330
747D
100
AcDbEntity
  8
文字
 62
     7
 48
50.0
100
AcDbText
 10
13229.83081656553
 20
8380.013745883726
 30
0.0
 40
100.0
  1
F12→溶融亜鉛めっき鋼板(JIS G 3302)
  7
STYLE1
100
AcDbText
  0
TEXT
  5
16429
330
747D
100
AcDbEntity
  8
文字
 62
     7
 48
50.0
100
AcDbText
 10
13229.83081656553
 20
8210.013745883726
 30
0.0
 40
100.0
  1
Y10→溶融亜鉛-5％アルミニウム合金めっき鋼板(JIS G 3317)
 41
0.9
  7
STYLE1
100
AcDbText
  0
LINE
  5
1642A
330
747D
100
AcDbEntity
  8
仕様書枠
 48
50.0
100
AcDbLine
 10
13127.2
 20
11409.6
 30
0.0
 11
13127.19999999999
 21
8179.600000000004
 31
0.0
  0
LINE
  5
1642B
330
747D
100
AcDbEntity
  8
仕様書枠
 48
50.0
100
AcDbLine
 10
16307.19999999999
 20
8349.6
 30
0.0
 11
13127.19999999999
 21
8349.600000000004
 31
0.0
  0
TEXT
  5
1642C
330
747D
100
AcDbEntity
  8
文字
 62
     7
 48
50.0
100
AcDbText
 10
13583.1181901657
 20
10760.01374588373
 30
0.0
 40
100.0
  1
床パネル
 41
0.9
  7
STYLE1
100
AcDbText
  0
TEXT
  5
1642D
330
747D
100
AcDbEntity
  8
文字
 62
     7
 48
50.0
100
AcDbText
 10
15022.63965474517
 20
10760.01374588372
 30
0.0
 40
100.0
  1
F12            1.0
  7
STYLE1
100
AcDbText
  0
TEXT
  5
1642E
330
747D
100
AcDbEntity
  8
文字
 62
     7
 48
50.0
100
AcDbText
 10
15022.63965474515
 20
9230.013745883725
 30
0.0
 40
100.0
  1
F12            0.8
  7
STYLE1
100
AcDbText
  0
TEXT
  5
1642F
330
747D
100
AcDbEntity
  8
文字
 62
     7
 48
50.0
100
AcDbText
 10
13583.11819016568
 20
9230.013745883729
 30
0.0
 40
100.0
  1
扉
  7
STYLE1
100
AcDbText
  0
TEXT
  5
16430
330
747D
100
AcDbEntity
  8
文字
 62
     7
 48
50.0
100
AcDbText
 10
15022.63965474515
 20
9060.013745883729
 30
0.0
 40
100.0
  1
F12            0.6
  7
STYLE1
100
AcDbText
  0
TEXT
  5
16431
330
747D
100
AcDbEntity
  8
文字
 62
     7
 48
50.0
100
AcDbText
 10
13583.11819016568
 20
9060.013745883733
 30
0.0
 40
100.0
  1
棚板
  7
STYLE1
100
AcDbText
  0
TEXT
  5
16432
330
747D
100
AcDbEntity
  8
文字
 62
     7
 48
50.0
100
AcDbText
 10
14271.39351435261
 20
483.8967129911411
 30
0.0
 40
160.0
  1
ＮＸＮ－０９ＤＬ－４
  7
STYLE2
100
AcDbText
  0
LINE
  5
16433
330
747D
100
AcDbEntity
  8
仕様書枠
 48
50.0
100
AcDbLine
 10
16307.2
 20
9539.6
 30
0.0
 11
13127.2
 21
9539.6
 31
0.0
  0
TEXT
  5
16434
330
747D
100
AcDbEntity
  8
文字
 62
     7
 48
50.0
100
AcDbText
 10
13248.77747366447
 20
8890.013745883731
 30
0.0
 40
100.0
  1
14
  7
STYLE1
100
AcDbText
  0
LINE
  5
16435
330
747D
100
AcDbEntity
  8
部品1
100
AcDbLine
 10
10854.99191610811
 20
5775.44541599514
 30
0.0
 11
11154.9919161081
 21
5759.911435412618
 31
0.0
  0
TEXT
  5
16436
330
747D
100
AcDbEntity
  8
部品1
 48
50.0
100
AcDbText
 10
11318.91995637109
 20
5645.875859348942
 30
0.0
 40
120.0
  1
104
 50
90.0
  7
STYLE1
100
AcDbText
  0
TEXT
  5
16437
330
747D
100
AcDbEntity
  8
部品1
 48
50.0
100
AcDbText
 10
10843.25975133182
 20
5811.329438147573
 30
0.0
 40
120.0
  1
1000
  7
STYLE1
100
AcDbText
  0
LINE
  5
16438
330
747D
100
AcDbEntity
  8
部品1
 48
50.0
100
AcDbLine
 10
11154.9919161081
 20
5775.44541599514
 30
0.0
 11
11154.9919161081
 21
5759.911435412618
 31
0.0
  0
LINE
  5
16439
330
747D
100
AcDbEntity
  8
部品1
 48
50.0
100
AcDbLine
 10
10854.99191610811
 20
5775.44541599514
 30
0.0
 11
11154.9919161081
 21
5775.44541599514
 31
0.0
  0
DIMENSION
  5
1643A
330
747D
100
AcDbEntity
  8
寸法
 48
50.0
100
AcDbDimension
  2
*D24
 10
11559.99191610809
 20
6043.234730473165
 30
0.0
 11
11766.03916020258
 21
6043.234730473165
 31
0.0
 70
   160
 71
     5
 42
80.0
  3
INABA_S40G
100
AcDbAlignedDimension
 13
11479.99191610809
 23
5591.387956505514
 33
0.0
 14
11559.99191610809
 24
5589.577276893862
 34
0.0
100
AcDbRotatedDimension
1001
ACAD
1000
DSTYLE
1002
{
1070
   174
1070
     0
1070
   272
1070
     1
1070
   288
1070
     0
1070
   341
1005
0
1002
}
  0
ARC
  5
1643B
330
747D
100
AcDbEntity
  8
部品1
100
AcDbCircle
 10
11545.61945192203
 20
5483.011077778077
 30
0.0
 40
0.7
100
AcDbArc
 50
275.0921697642102
 51
354.1866997666569
  0
ARC
  5
1643C
330
747D
100
AcDbEntity
  8
部品1
100
AcDbCircle
 10
11556.47879767135
 20
5560.054332596001
 30
0.0
 40
0.7
100
AcDbArc
 50
275.0921697642102
 51
354.1866997665532
  0
ARC
  5
1643D
330
747D
100
AcDbEntity
  8
部品1
100
AcDbCircle
 10
11556.80720291396
 20
5556.368935738912
 30
0.0
 40
3.0
100
AcDbArc
 50
95.09216976442012
 51
174.1866997665532
  0
ARC
  5
1643E
330
747D
100
AcDbEntity
  8
部品1
100
AcDbCircle
 10
11545.94785716463
 20
5479.325680920987
 30
0.0
 40
3.0
100
AcDbArc
 50
95.0921697642102
 51
174.1866997665532
  0
ARC
  5
1643F
330
747D
100
AcDbEntity
  8
部品1
 48
50.0
100
AcDbCircle
 10
11534.91972188953
 20
5469.734936317107
 30
0.0
 40
7.0
100
AcDbArc
 50
267.8377559871574
 51
354.1866997665532
  0
ARC
  5
16440
330
747D
100
AcDbEntity
  8
部品1
 48
50.0
100
AcDbCircle
 10
11552.24181835404
 20
5580.637483459279
 30
0.0
 40
7.0
100
AcDbArc
 50
354.1866997665532
 51
87.03587545303909
  0
LINE
  5
16441
330
747D
100
AcDbEntity
  8
部品1
 48
50.0
100
AcDbLine
 10
11542.96328549402
 20
5479.629542637891
 30
0.0
 11
11541.88372245428
 21
5469.025925644333
 31
0.0
  0
LINE
  5
16442
330
747D
100
AcDbEntity
  8
部品1
 48
50.0
100
AcDbLine
 10
11553.82263124334
 20
5556.672797455814
 30
0.0
 11
11546.31585197851
 21
5482.940176710803
 31
0.0
  0
LINE
  5
16443
330
747D
100
AcDbEntity
  8
部品1
 48
50.0
100
AcDbLine
 10
11559.2058189188
 20
5579.928472786503
 30
0.0
 11
11557.17519772783
 21
5559.983431528724
 31
0.0
  0
ARC
  5
16444
330
747D
100
AcDbEntity
  8
部品1
100
AcDbCircle
 10
10476.02900797946
 20
5523.391435852763
 30
0.0
 40
0.7
100
AcDbArc
 50
181.0932240292114
 51
260.1877540316988
  0
ARC
  5
16445
330
747D
100
AcDbEntity
  8
部品1
100
AcDbCircle
 10
10471.25633438185
 20
5616.257214052884
 30
0.0
 40
0.7
100
AcDbArc
 50
181.0932240292114
 51
260.1877540316988
  0
ARC
  5
16446
330
747D
100
AcDbEntity
  8
部品1
100
AcDbCircle
 10
10470.62577997883
 20
5612.611339515486
 30
0.0
 40
3.0
100
AcDbArc
 50
1.093224029315636
 51
80.18775403169875
  0
ARC
  5
16447
330
747D
100
AcDbEntity
  8
部品1
100
AcDbCircle
 10
10475.39845357644
 20
5519.745561315367
 30
0.0
 40
3.0
100
AcDbArc
 50
1.093224029315636
 51
80.18775403148449
  0
ARC
  5
16448
330
747D
100
AcDbEntity
  8
部品1
 48
50.0
100
AcDbCircle
 10
10485.59858595164
 20
5509.353317932886
 30
0.0
 40
7.0
100
AcDbArc
 50
181.0932240293156
 51
267.8377559871574
  0
ARC
  5
16449
330
747D
100
AcDbEntity
  8
部品1
 48
50.0
100
AcDbCircle
 10
10477.17492784954
 20
5636.30437746598
 30
0.0
 40
7.0
100
AcDbArc
 50
87.03587545303909
 51
181.0932240293156
  0
LINE
  5
1644A
330
747D
100
AcDbEntity
  8
部品1
 48
50.0
100
AcDbLine
 10
10478.39790750287
 20
5519.802798918551
 30
0.0
 11
10478.5998601233
 21
5509.219763525457
 31
0.0
  0
LINE
  5
1644B
330
747D
100
AcDbEntity
  8
細線
 48
50.0
100
AcDbLine
 10
10475.7918144462
 20
5522.73284703736
 30
0.0
 11
11545.79547887683
 21
5482.333571681291
 31
0.0
  0
LINE
  5
1644C
330
747D
100
AcDbEntity
  8
細線
 48
50.0
100
AcDbLine
 10
10471.03133920891
 20
5615.594358735221
 30
0.0
 11
11556.66732395408
 21
5559.380197712819
 31
0.0
  0
LINE
  5
1644D
330
747D
100
AcDbEntity
  8
部品1
 48
50.0
100
AcDbLine
 10
10473.62523390526
 20
5612.668577118669
 30
0.0
 11
10475.32913539663
 21
5523.378080412023
 31
0.0
  0
LINE
  5
1644E
330
747D
100
AcDbEntity
  8
部品1
 48
50.0
100
AcDbLine
 10
10470.1762020212
 20
5636.170823058553
 30
0.0
 11
10470.55646179902
 21
5616.243858612141
 31
0.0
  0
LINE
  5
1644F
330
747D
100
AcDbEntity
  8
細線
 48
50.0
100
AcDbLine
 10
11526.9919161081
 20
5588.954299547582
 30
0.0
 11
11522.2442332201
 21
5463.208527056837
 31
0.0
  0
LINE
  5
16450
330
747D
100
AcDbEntity
  8
細線
 48
50.0
100
AcDbLine
 10
10502.9919161081
 20
5641.976953269264
 30
0.0
 11
10497.70281455259
 21
5501.891320641911
 31
0.0
  0
LINE
  5
16451
330
747D
100
AcDbEntity
  8
部品1
100
AcDbLine
 10
10485.33448071005
 20
5502.358301962828
 30
0.0
 11
11534.65561664794
 21
5462.739920347047
 31
0.0
  0
LINE
  5
16452
330
747D
100
AcDbEntity
  8
部品1
100
AcDbLine
 10
10477.53690246506
 20
5643.295012228128
 30
0.0
 11
11552.60379296956
 21
5587.628118221424
 31
0.0
  0
LINE
  5
16453
330
747D
100
AcDbEntity
  8
細線
 48
50.0
100
AcDbLine
 10
10662.4919161081
 20
5409.577276893861
 30
0.0
 11
10662.4919161081
 21
3619.577276893861
 31
0.0
  0
LINE
  5
16454
330
747D
100
AcDbEntity
  8
細線
 48
50.0
100
AcDbLine
 10
10647.4919161081
 20
5409.577276893861
 30
0.0
 11
10647.4919161081
 21
3619.577276893861
 31
0.0
  0
LINE
  5
16455
330
747D
100
AcDbEntity
  8
細線
 48
50.0
100
AcDbLine
 10
10787.4919161081
 20
5409.577276893861
 30
0.0
 11
10787.4919161081
 21
3619.577276893861
 31
0.0
  0
LINE
  5
16456
330
747D
100
AcDbEntity
  8
細線
 48
50.0
100
AcDbLine
 10
10802.4919161081
 20
5409.577276893861
 30
0.0
 11
10802.4919161081
 21
3619.577276893861
 31
0.0
  0
LINE
  5
16457
330
747D
100
AcDbEntity
  8
細線
 48
50.0
100
AcDbLine
 10
10942.4919161081
 20
5409.577276893861
 30
0.0
 11
10942.4919161081
 21
3619.577276893861
 31
0.0
  0
LINE
  5
16458
330
747D
100
AcDbEntity
  8
細線
 48
50.0
100
AcDbLine
 10
10927.4919161081
 20
5409.577276893861
 30
0.0
 11
10927.4919161081
 21
3619.577276893861
 31
0.0
  0
LINE
  5
16459
330
747D
100
AcDbEntity
  8
細線
 48
50.0
100
AcDbLine
 10
11347.4919161081
 20
5409.577276893861
 30
0.0
 11
11347.4919161081
 21
3619.577276893861
 31
0.0
  0
LINE
  5
1645A
330
747D
100
AcDbEntity
  8
細線
 48
50.0
100
AcDbLine
 10
11362.4919161081
 20
5409.577276893861
 30
0.0
 11
11362.4919161081
 21
3619.577276893861
 31
0.0
  0
LINE
  5
1645B
330
747D
100
AcDbEntity
  8
細線
 48
50.0
100
AcDbLine
 10
11222.4919161081
 20
5409.577276893861
 30
0.0
 11
11222.4919161081
 21
3619.577276893861
 31
0.0
  0
LINE
  5
1645C
330
747D
100
AcDbEntity
  8
細線
 48
50.0
100
AcDbLine
 10
11207.4919161081
 20
5409.577276893861
 30
0.0
 11
11207.4919161081
 21
3619.577276893861
 31
0.0
  0
LINE
  5
1645D
330
747D
100
AcDbEntity
  8
細線
 48
50.0
100
AcDbLine
 10
11067.4919161081
 20
5409.577276893861
 30
0.0
 11
11067.4919161081
 21
3619.577276893861
 31
0.0
  0
LINE
  5
1645E
330
747D
100
AcDbEntity
  8
細線
 48
50.0
100
AcDbLine
 10
11082.4919161081
 20
5409.577276893861
 30
0.0
 11
11082.4919161081
 21
3619.577276893861
 31
0.0
  0
LINE
  5
1645F
330
747D
100
AcDbEntity
  8
部品1
100
AcDbLine
 10
10529.9919161081
 20
3569.577276893861
 30
0.0
 11
11479.99191610809
 21
3569.577276893861
 31
0.0
  0
DIMENSION
  5
16460
330
747D
100
AcDbEntity
  8
寸法
 48
50.0
100
AcDbDimension
  2
*D25
 10
10469.9919161081
 20
6252.828604894616
 30
0.0
 11
10993.11063078852
 21
6252.828604894616
 31
0.0
 70
   160
 71
     5
 42
1089.999999999996
  3
INABA_S40G
100
AcDbAlignedDimension
 13
11559.99191610809
 23
5589.577276893862
 33
0.0
 14
10469.9919161081
 24
5644.577276893866
 34
0.0
100
AcDbRotatedDimension
1001
ACAD
1000
DSTYLE
1002
{
1070
   174
1070
     0
1070
   272
1070
     1
1070
   288
1070
     0
1070
   341
1005
0
1002
}
  0
DIMENSION
  5
16461
330
747D
100
AcDbEntity
  8
寸法
 48
50.0
100
AcDbDimension
  2
*D26
 10
10469.9919161081
 20
6043.234730473165
 30
0.0
 11
10160.35412083251
 21
6043.234730473165
 31
0.0
 70
   160
 71
     5
 42
60.0
  3
INABA_S40G
100
AcDbAlignedDimension
 13
10529.9919161081
 23
5640.578895016837
 33
0.0
 14
10469.9919161081
 24
5644.577276893866
 34
0.0
100
AcDbRotatedDimension
1001
ACAD
1000
DSTYLE
1002
{
1070
   174
1070
     0
1070
   272
1070
     1
1070
   288
1070
     0
1070
   341
1005
0
1002
}
  0
DIMENSION
  5
16462
330
747D
100
AcDbEntity
  8
寸法
 48
50.0
100
AcDbDimension
  2
*D27
 10
10529.9919161081
 20
6043.234730473165
 30
0.0
 11
11004.9919161081
 21
6043.234730473165
 31
0.0
 70
   160
  1
柱外寸法<>
 71
     5
 42
949.9999999999964
  3
INABA_S40G
100
AcDbAlignedDimension
 13
11479.99191610809
 23
5591.387956505514
 33
0.0
 14
10529.9919161081
 24
5640.578895016837
 34
0.0
100
AcDbRotatedDimension
1001
ACAD
1000
DSTYLE
1002
{
1070
   174
1070
     0
1070
   272
1070
     1
1070
   288
1070
     0
1070
   341
1005
0
1002
}
  0
DIMENSION
  5
16463
330
747D
100
AcDbEntity
  8
寸法
100
AcDbDimension
  2
*D28
 10
12184.91907408022
 20
5589.577276893862
 30
0.0
 11
12084.9072630566
 21
4579.577276893863
 31
0.0
 70
    32
 71
     5
 42
2020.000000000001
  3
INABA_S40G
100
AcDbAlignedDimension
 13
11479.9919161081
 23
3569.577276893862
 33
0.0
 14
11559.99191610809
 24
5589.577276893862
 34
0.0
 50
90.0
100
AcDbRotatedDimension
1001
ACAD
1000
DSTYLE
1002
{
1070
   174
1070
     0
1070
   272
1070
     1
1070
   288
1070
     0
1070
   341
1005
0
1002
}
  0
LINE
  5
16464
330
747D
100
AcDbEntity
  8
部品1
100
AcDbLine
 10
11424.9919161081
 20
5409.577276893861
 30
0.0
 11
11424.9919161081
 21
3619.577276893861
 31
0.0
  0
LINE
  5
16465
330
747D
100
AcDbEntity
  8
部品1
100
AcDbLine
 10
11479.99191610809
 20
5464.803814110688
 30
0.0
 11
11479.9919161081
 21
3469.577276893861
 31
0.0
  0
LINE
  5
16466
330
747D
100
AcDbEntity
  8
部品1
100
AcDbLine
 10
11004.9919161081
 20
5409.577276893861
 30
0.0
 11
11004.9919161081
 21
3619.577276893861
 31
0.0
  0
LINE
  5
16467
330
747D
100
AcDbEntity
  8
部品1
100
AcDbLine
 10
10529.9919161081
 20
5500.6722067752
 30
0.0
 11
10529.9919161081
 21
3469.577276893861
 31
0.0
  0
LINE
  5
16468
330
747D
100
AcDbEntity
  8
部品1
100
AcDbLine
 10
10584.99191610809
 20
5409.577276893861
 30
0.0
 11
10584.99191610809
 21
3619.577276893861
 31
0.0
  0
LINE
  5
16469
330
747D
100
AcDbEntity
  8
部品1
100
AcDbLine
 10
10529.9919161081
 20
3619.577276893861
 30
0.0
 11
11479.9919161081
 21
3619.577276893861
 31
0.0
  0
LINE
  5
1646A
330
747D
100
AcDbEntity
  8
部品1
100
AcDbLine
 10
10522.98954606332
 20
5409.577276893861
 30
0.0
 11
11479.9919161081
 21
5409.577276893861
 31
0.0
  0
DIMENSION
  5
1646B
330
747D
100
AcDbEntity
  8
寸法
100
AcDbDimension
  2
*D29
 10
9928.028825415895
 20
3619.577276893864
 30
0.0
 11
9928.028825415895
 21
4524.612288770248
 31
0.0
 70
   160
 71
     5
 42
1789.999999999997
  3
INABA_S40G
100
AcDbAlignedDimension
 13
10522.98954606332
 23
5409.577276893861
 33
0.0
 14
10522.98954606332
 24
3619.577276893864
 34
0.0
 50
90.0
100
AcDbRotatedDimension
1001
ACAD
1000
DSTYLE
1002
{
1070
   288
1070
     1
1002
}
  0
DIMENSION
  5
1646C
330
747D
100
AcDbEntity
  8
寸法
100
AcDbDimension
  2
*D30
 10
9928.028825415895
 20
3569.577276893862
 30
0.0
 11
9928.028825415895
 21
3263.530032799372
 31
0.0
 70
   160
 71
     5
 42
50.00000000000182
  3
INABA_S40G
100
AcDbAlignedDimension
 13
10522.98954606332
 23
3619.577276893864
 33
0.0
 14
10474.9919161081
 24
3569.577276893862
 34
0.0
 50
90.0
100
AcDbRotatedDimension
1001
ACAD
1000
DSTYLE
1002
{
1070
   174
1070
     0
1070
   272
1070
     1
1070
   288
1070
     0
1070
   341
1005
0
1002
}
  0
DIMENSION
  5
1646D
330
747D
100
AcDbEntity
  8
寸法
100
AcDbDimension
  2
*D31
 10
9625.720104467621
 20
5644.577276893866
 30
0.0
 11
9625.720104467619
 21
4544.784267313661
 31
0.0
 70
   160
 71
     5
 42
2075.000000000003
  3
INABA_S40G
100
AcDbAlignedDimension
 13
10529.9919161081
 23
3569.577276893862
 33
0.0
 14
10469.9919161081
 24
5644.577276893864
 34
0.0
 50
90.0
100
AcDbRotatedDimension
1001
ACAD
1000
DSTYLE
1002
{
1070
   174
1070
     0
1070
   272
1070
     1
1070
   288
1070
     0
1070
   341
1005
0
1002
}
  0
DIMENSION
  5
1646E
330
747D
100
AcDbEntity
  8
寸法
 48
50.0
100
AcDbDimension
  2
*D32
 10
9877.725664396725
 20
5666.399767790673
 30
0.0
 11
9886.403408048614
 21
5896.236006807567
 31
0.0
 70
   160
 71
     5
 42
141.0
  3
INABA_S40G
100
AcDbAlignedDimension
 13
10485.33448071005
 23
5502.358301962826
 33
0.0
 14
10490.65431486201
 24
5643.257909359709
 34
0.0
 50
87.83775598715742
100
AcDbRotatedDimension
1001
ACAD
1000
DSTYLE
1002
{
1070
   174
1070
     0
1070
   272
1070
     1
1070
   288
1070
     0
1070
   341
1005
0
1002
}
  0
LINE
  5
1646F
330
747D
100
AcDbEntity
  8
部品1
 48
50.0
100
AcDbLine
 10
10522.98954606332
 20
5398.827276893858
 30
0.0
 11
10529.9919161081
 21
5398.827276893858
 31
0.0
  0
LINE
  5
16470
330
747D
100
AcDbEntity
  8
部品1
 48
0.2
100
AcDbLine
 10
10522.98954606332
 20
5409.577276893859
 30
0.0
 11
10522.98954606332
 21
5398.827276893861
 31
0.0
  0
LINE
  5
16471
330
747D
100
AcDbEntity
  8
部品1
 48
50.0
100
AcDbLine
 10
10522.98954606332
 20
3619.577276893863
 30
0.0
 11
10529.9919161081
 21
3619.577276893863
 31
0.0
  0
LINE
  5
16472
330
747D
100
AcDbEntity
  8
部品1
 48
0.2
100
AcDbLine
 10
10522.98954606332
 20
3630.327276893863
 30
0.0
 11
10522.98954606332
 21
3619.577276893863
 31
0.0
  0
LINE
  5
16473
330
747D
100
AcDbEntity
  8
部品1
 48
50.0
100
AcDbLine
 10
10522.98954606332
 20
3630.327276893863
 30
0.0
 11
10529.9919161081
 21
3630.327276893863
 31
0.0
  0
TEXT
  5
16474
330
747D
100
AcDbEntity
  8
文字
 62
     7
 48
50.0
100
AcDbText
 10
15022.63965474514
 20
9400.013745883725
 30
0.0
 40
100.0
  1
F12            0.6
  7
STYLE1
100
AcDbText
  0
TEXT
  5
16475
330
747D
100
AcDbEntity
  8
文字
 62
     7
 48
50.0
100
AcDbText
 10
13583.11819016567
 20
9400.013745883729
 30
0.0
 40
100.0
  1
脇パネル
  7
STYLE1
100
AcDbText
  0
DIMENSION
  5
16A68
330
747D
100
AcDbEntity
  8
寸法
100
AcDbDimension
  2
*D33
 10
8506.501044684254
 20
8607.818804865422
 30
0.0
 11
8157.849192859897
 21
8712.904080641951
 31
0.0
 70
   160
 71
     5
 42
892.000000000011
  3
INABA_S40G
100
AcDbAlignedDimension
 13
7673.19454097822
 23
8826.865915108404
 33
0.0
 14
8565.194540978231
 24
8826.865915108401
 34
0.0
100
AcDbRotatedDimension
1001
ACAD
1000
DSTYLE
1002
{
1070
   279
1070
     2
1002
}
  0
MTEXT
  5
16A69
330
747D
100
AcDbEntity
  8
寸法
 62
     7
 48
50.0
100
AcDbMText
 10
8134.474338588857
 20
8896.479662645692
 30
0.0
 40
96.0
 41
0.0
 71
     5
 72
     1
  1
棚 2段
  7
STYLE1
 73
     1
 44
1.0
1001
ACAD
1000
MTEXTBEGIN
1070
    73
1070
     1
1070
    44
1040
1.0
1070
    74
1070
     0
1000
MTEXTEND
  0
DIMENSION
  5
16A7F
330
747D
100
AcDbEntity
  8
寸法
 48
50.0
100
AcDbDimension
  2
*D36
 10
8644.19453430062
 20
6080.075840589954
 30
0.0
 11
6694.194534300617
 21
6080.075840589954
 31
0.0
 70
   160
 71
     5
 42
3900.000000000004
  3
INABA_S40G
100
AcDbAlignedDimension
 13
4744.194534300615
 23
5644.577276893868
 33
0.0
 14
8644.19453430062
 24
5644.577276893862
 34
0.0
100
AcDbRotatedDimension
  0
DIMENSION
  5
16A80
330
747D
100
AcDbEntity
  8
寸法
 48
50.0
100
AcDbDimension
  2
*D35
 10
4794.194534300615
 20
5857.118862152105
 30
0.0
 11
6694.194534300606
 21
5857.118862152105
 31
0.0
 70
   160
  1
柱外寸法<>
 71
     5
 42
3800.000000000004
  3
INABA_S40G
100
AcDbAlignedDimension
 13
8594.194534300619
 23
5644.577276893864
 33
0.0
 14
4794.194534300615
 24
5644.577276893869
 34
0.0
100
AcDbRotatedDimension
  0
DIMENSION
  5
16A81
330
747D
100
AcDbEntity
  8
寸法
 48
50.0
100
AcDbDimension
  2
*D34
 10
4744.194534300615
 20
5857.118862152106
 30
0.0
 11
4430.709252926368
 21
5857.118862152106
 31
0.0
 70
   160
 71
     5
 42
50.0
  3
INABA_S40G
100
AcDbAlignedDimension
 13
4794.194534300615
 23
5644.577276893869
 33
0.0
 14
4744.194534300615
 24
5644.577276893868
 34
0.0
100
AcDbRotatedDimension
1001
ACAD
1000
DSTYLE
1002
{
1002
}
  0
LINE
  5
16A82
330
747D
100
AcDbEntity
  8
細線
 48
50.0
100
AcDbLine
 10
4777.194534300615
 20
5644.577276893866
 30
0.0
 11
4777.194534300615
 21
5503.577276893864
 31
0.0
  0
ARC
  5
16A83
330
747D
100
AcDbEntity
  8
部品1
100
AcDbCircle
 10
4751.602955407045
 20
5637.577276893866
 30
0.0
 40
7.0
100
AcDbArc
 50
90.0
 51
183.2473427903377
  0
ARC
  5
16A84
330
747D
100
AcDbEntity
  8
部品1
100
AcDbCircle
 10
4764.818278868079
 20
5510.577276893868
 30
0.0
 40
7.0
100
AcDbArc
 50
183.2473427903377
 51
270.0
  0
ARC
  5
16A85
330
747D
100
AcDbEntity
  8
部品1
 48
50.0
100
AcDbCircle
 10
4746.446468657403
 20
5617.244276055553
 30
0.0
 40
0.7
100
AcDbArc
 50
183.2473427903897
 51
262.3418727926349
  0
ARC
  5
16A86
330
747D
100
AcDbEntity
  8
部品1
 48
50.0
100
AcDbCircle
 10
4754.682499182243
 20
5525.044276055549
 30
0.0
 40
0.7
100
AcDbArc
 50
183.2473427902856
 51
262.3418727926349
  0
ARC
  5
16A87
330
747D
100
AcDbEntity
  8
部品1
 48
50.0
100
AcDbCircle
 10
4754.189430073682
 20
5521.377276893865
 30
0.0
 40
3.0
100
AcDbArc
 50
3.247342790337682
 51
82.3418727926348
  0
ARC
  5
16A88
330
747D
100
AcDbEntity
  8
部品1
 48
50.0
100
AcDbCircle
 10
4745.953399548838
 20
5613.577276893868
 30
0.0
 40
3.0
100
AcDbArc
 50
3.247342790337682
 51
82.3418727926348
  0
LINE
  5
16A89
330
747D
100
AcDbEntity
  8
部品1
100
AcDbLine
 10
4748.948582445024
 20
5613.747216348969
 30
0.0
 11
4753.983623173135
 21
5525.004623516026
 31
0.0
  0
LINE
  5
16A8A
330
747D
100
AcDbEntity
  8
部品1
100
AcDbLine
 10
4757.184612969871
 20
5521.547216348968
 30
0.0
 11
4757.82951877698
 21
5510.180751498626
 31
0.0
  0
LINE
  5
16A8B
330
747D
100
AcDbEntity
  8
部品1
100
AcDbLine
 10
4744.614195315945
 20
5637.180751498626
 30
0.0
 11
4745.747592648295
 21
5617.204623516027
 31
0.0
  0
LINE
  5
16A8C
330
747D
100
AcDbEntity
  8
部品1
 48
50.0
100
AcDbLine
 10
8636.786113194187
 20
5644.577276893863
 30
0.0
 11
4751.602955407045
 21
5644.577276893862
 31
0.0
  0
LINE
  5
16A8D
330
747D
100
AcDbEntity
  8
細線
 48
50.0
100
AcDbLine
 10
8642.035883286782
 20
5616.550519457399
 30
0.0
 11
4746.353185311028
 21
5616.550519457862
 31
0.0
  0
LINE
  5
16A8E
330
747D
100
AcDbEntity
  8
細線
 48
50.0
100
AcDbLine
 10
8633.799852761987
 20
5524.350519457403
 30
0.0
 11
4754.589215835862
 21
5524.350519457861
 31
0.0
  0
LINE
  5
16A8F
330
747D
100
AcDbEntity
  8
部品1
 48
50.0
100
AcDbLine
 10
8623.570789733152
 20
5503.57727689386
 30
0.0
 11
4764.818278868079
 21
5503.577276893864
 31
0.0
  0
DIMENSION
  5
16AD3
330
747D
100
AcDbEntity
  8
寸法
 48
50.0
100
AcDbDimension
  2
*D37
 10
8594.194534300619
 20
5857.118862152103
 30
0.0
 11
8957.679815674856
 21
5857.118862152103
 31
0.0
 70
   160
 71
     5
 42
50.0
  3
INABA_S40G
100
AcDbAlignedDimension
 13
8644.19453430062
 23
5644.577276893862
 33
0.0
 14
8594.194534300619
 24
5644.577276893864
 34
0.0
100
AcDbRotatedDimension
  0
LINE
  5
16AD4
330
747D
100
AcDbEntity
  8
部品1
100
AcDbLine
 10
8643.774873285286
 20
5637.180751498623
 30
0.0
 11
8642.64147595294
 21
5617.204623516023
 31
0.0
  0
LINE
  5
16AD5
330
747D
100
AcDbEntity
  8
細線
 48
50.0
100
AcDbLine
 10
8611.19453430062
 20
5644.577276893862
 30
0.0
 11
8611.19453430062
 21
5503.577276893862
 31
0.0
  0
LINE
  5
16AD6
330
747D
100
AcDbEntity
  8
部品1
100
AcDbLine
 10
8631.204455631364
 20
5521.547216348965
 30
0.0
 11
8630.559549824251
 21
5510.180751498625
 31
0.0
  0
LINE
  5
16AD7
330
747D
100
AcDbEntity
  8
部品1
100
AcDbLine
 10
8639.440486156207
 20
5613.747216348965
 30
0.0
 11
8634.405445428097
 21
5525.004623516022
 31
0.0
  0
ARC
  5
16AD8
330
747D
100
AcDbEntity
  8
部品1
 48
50.0
100
AcDbCircle
 10
8642.435669052394
 20
5613.577276893864
 30
0.0
 40
3.0
100
AcDbArc
 50
97.65812720736519
 51
176.7526572096623
  0
ARC
  5
16AD9
330
747D
100
AcDbEntity
  8
部品1
 48
50.0
100
AcDbCircle
 10
8634.199638527549
 20
5521.377276893861
 30
0.0
 40
3.0
100
AcDbArc
 50
97.65812720736519
 51
176.7526572096623
  0
ARC
  5
16ADA
330
747D
100
AcDbEntity
  8
部品1
 48
50.0
100
AcDbCircle
 10
8633.706569418988
 20
5525.044276055545
 30
0.0
 40
0.7
100
AcDbArc
 50
277.6581272073652
 51
356.7526572097143
  0
ARC
  5
16ADB
330
747D
100
AcDbEntity
  8
部品1
 48
50.0
100
AcDbCircle
 10
8641.942599943831
 20
5617.24427605555
 30
0.0
 40
0.7
100
AcDbArc
 50
277.6581272073652
 51
356.7526572096103
  0
ARC
  5
16ADC
330
747D
100
AcDbEntity
  8
部品1
100
AcDbCircle
 10
8623.570789733152
 20
5510.577276893864
 30
0.0
 40
7.0
100
AcDbArc
 50
270.0
 51
356.7526572096623
  0
ARC
  5
16ADD
330
747D
100
AcDbEntity
  8
部品1
100
AcDbCircle
 10
8636.786113194187
 20
5637.577276893862
 30
0.0
 40
7.0
100
AcDbArc
 50
356.7526572096623
 51
90.0
  0
ARC
  5
16B1C
330
747D
100
AcDbEntity
  8
部品1
 48
0.01
100
AcDbCircle
 10
5357.194534300612
 20
5442.077276893859
 30
0.0
 40
2.0
100
AcDbArc
 50
270.0
 51
0.0
  0
ARC
  5
16B1D
330
747D
100
AcDbEntity
  8
部品1
 48
0.01
100
AcDbCircle
 10
5357.194534300615
 20
5473.577276893859
 30
0.0
 40
2.0
100
AcDbArc
 50
0.0
 51
90.0
  0
ARC
  5
16B1E
330
747D
100
AcDbEntity
  8
部品1
 48
0.01
100
AcDbCircle
 10
5181.194534300615
 20
5442.077276893859
 30
0.0
 40
2.0
100
AcDbArc
 50
180.0
 51
270.0
  0
ARC
  5
16B1F
330
747D
100
AcDbEntity
  8
部品1
 48
0.01
100
AcDbCircle
 10
5181.194534300615
 20
5473.577276893859
 30
0.0
 40
2.0
100
AcDbArc
 50
90.0
 51
180.0
  0
LINE
  5
16B20
330
747D
100
AcDbEntity
  8
細線
100
AcDbLine
 10
5269.194534300612
 20
5446.077276893859
 30
0.0
 11
5343.194534300615
 21
5446.077276893859
 31
0.0
  0
LINE
  5
16B21
330
747D
100
AcDbEntity
  8
細線
100
AcDbLine
 10
5269.194534300615
 20
5469.077276893859
 30
0.0
 11
5195.194534300616
 21
5469.077276893859
 31
0.0
  0
LINE
  5
16B22
330
747D
100
AcDbEntity
  8
細線
100
AcDbLine
 10
5195.194534300616
 20
5446.077276893859
 30
0.0
 11
5269.194534300615
 21
5446.077276893859
 31
0.0
  0
LINE
  5
16B23
330
747D
100
AcDbEntity
  8
細線
100
AcDbLine
 10
5343.194534300615
 20
5469.077276893859
 30
0.0
 11
5269.194534300615
 21
5469.077276893859
 31
0.0
  0
LINE
  5
16B24
330
747D
100
AcDbEntity
  8
細線
100
AcDbLine
 10
5343.194534300615
 20
5446.077276893859
 30
0.0
 11
5343.194534300615
 21
5469.077276893859
 31
0.0
  0
LINE
  5
16B25
330
747D
100
AcDbEntity
  8
細線
100
AcDbLine
 10
5195.194534300616
 20
5469.077276893859
 30
0.0
 11
5195.194534300616
 21
5446.077276893859
 31
0.0
  0
LINE
  5
16B26
330
747D
100
AcDbEntity
  8
部品1
 48
0.01
100
AcDbLine
 10
5359.194534300612
 20
5442.077276893859
 30
0.0
 11
5359.194534300616
 21
5473.577276893859
 31
0.0
  0
LINE
  5
16B27
330
747D
100
AcDbEntity
  8
部品1
 48
0.01
100
AcDbLine
 10
5181.194534300615
 20
5440.077276893859
 30
0.0
 11
5357.194534300612
 21
5440.077276893859
 31
0.0
  0
LINE
  5
16B28
330
747D
100
AcDbEntity
  8
部品1
 48
0.01
100
AcDbLine
 10
5179.194534300616
 20
5473.577276893859
 30
0.0
 11
5179.194534300616
 21
5442.077276893859
 31
0.0
  0
LINE
  5
16B29
330
747D
100
AcDbEntity
  8
部品1
 48
0.01
100
AcDbLine
 10
5357.194534300615
 20
5475.577276893858
 30
0.0
 11
5181.194534300615
 21
5475.577276893858
 31
0.0
  0
LINE
  5
16B2A
330
747D
100
AcDbEntity
  8
細線
100
AcDbLine
 10
5195.194534300616
 20
5463.077276893859
 30
0.0
 11
5269.194534300615
 21
5463.077276893859
 31
0.0
  0
LINE
  5
16B2B
330
747D
100
AcDbEntity
  8
細線
100
AcDbLine
 10
5195.194534300616
 20
5457.077276893858
 30
0.0
 11
5269.194534300615
 21
5457.077276893858
 31
0.0
  0
LINE
  5
16B2C
330
747D
100
AcDbEntity
  8
細線
100
AcDbLine
 10
5195.194534300611
 20
5451.077276893858
 30
0.0
 11
5269.194534300615
 21
5451.077276893858
 31
0.0
  0
LINE
  5
16B2D
330
747D
100
AcDbEntity
  8
細線
100
AcDbLine
 10
5195.194534300616
 20
5463.077276893859
 30
0.0
 11
5264.194534300616
 21
5463.077276893859
 31
0.0
  0
LINE
  5
16B2E
330
747D
100
AcDbEntity
  8
細線
100
AcDbLine
 10
5343.194534300612
 20
5463.077276893859
 30
0.0
 11
5269.194534300615
 21
5463.077276893859
 31
0.0
  0
LINE
  5
16B2F
330
747D
100
AcDbEntity
  8
細線
100
AcDbLine
 10
5343.194534300612
 20
5451.077276893858
 30
0.0
 11
5269.194534300615
 21
5451.077276893858
 31
0.0
  0
LINE
  5
16B30
330
747D
100
AcDbEntity
  8
細線
100
AcDbLine
 10
5343.194534300612
 20
5457.077276893858
 30
0.0
 11
5269.194534300615
 21
5457.077276893858
 31
0.0
  0
LINE
  5
16B31
330
747D
100
AcDbEntity
  8
細線
100
AcDbLine
 10
5269.194534300615
 20
5469.077276893859
 30
0.0
 11
5269.194534300612
 21
5446.077276893859
 31
0.0
  0
LINE
  5
16B32
330
747D
100
AcDbEntity
  8
細線
100
AcDbLine
 10
6219.194534300616
 20
5469.077276893859
 30
0.0
 11
6219.194534300612
 21
5446.077276893859
 31
0.0
  0
LINE
  5
16B33
330
747D
100
AcDbEntity
  8
細線
100
AcDbLine
 10
6293.194534300612
 20
5457.077276893858
 30
0.0
 11
6219.194534300616
 21
5457.077276893858
 31
0.0
  0
LINE
  5
16B34
330
747D
100
AcDbEntity
  8
細線
100
AcDbLine
 10
6293.194534300612
 20
5451.077276893858
 30
0.0
 11
6219.194534300616
 21
5451.077276893858
 31
0.0
  0
LINE
  5
16B35
330
747D
100
AcDbEntity
  8
細線
100
AcDbLine
 10
6293.194534300612
 20
5463.077276893859
 30
0.0
 11
6219.194534300616
 21
5463.077276893859
 31
0.0
  0
LINE
  5
16B36
330
747D
100
AcDbEntity
  8
細線
100
AcDbLine
 10
6145.194534300616
 20
5463.077276893859
 30
0.0
 11
6214.194534300616
 21
5463.077276893859
 31
0.0
  0
LINE
  5
16B37
330
747D
100
AcDbEntity
  8
細線
100
AcDbLine
 10
6145.194534300612
 20
5451.077276893858
 30
0.0
 11
6219.194534300616
 21
5451.077276893858
 31
0.0
  0
LINE
  5
16B38
330
747D
100
AcDbEntity
  8
細線
100
AcDbLine
 10
6145.194534300616
 20
5457.077276893858
 30
0.0
 11
6219.194534300616
 21
5457.077276893858
 31
0.0
  0
LINE
  5
16B39
330
747D
100
AcDbEntity
  8
細線
100
AcDbLine
 10
6145.194534300616
 20
5463.077276893859
 30
0.0
 11
6219.194534300616
 21
5463.077276893859
 31
0.0
  0
LINE
  5
16B3A
330
747D
100
AcDbEntity
  8
部品1
 48
0.01
100
AcDbLine
 10
6307.194534300616
 20
5475.577276893858
 30
0.0
 11
6131.194534300616
 21
5475.577276893858
 31
0.0
  0
LINE
  5
16B3B
330
747D
100
AcDbEntity
  8
部品1
 48
0.01
100
AcDbLine
 10
6129.194534300616
 20
5473.577276893859
 30
0.0
 11
6129.194534300616
 21
5442.077276893859
 31
0.0
  0
LINE
  5
16B3C
330
747D
100
AcDbEntity
  8
部品1
 48
0.01
100
AcDbLine
 10
6131.194534300616
 20
5440.077276893859
 30
0.0
 11
6307.194534300612
 21
5440.077276893859
 31
0.0
  0
LINE
  5
16B3D
330
747D
100
AcDbEntity
  8
部品1
 48
0.01
100
AcDbLine
 10
6309.194534300612
 20
5442.077276893859
 30
0.0
 11
6309.194534300615
 21
5473.577276893859
 31
0.0
  0
LINE
  5
16B3E
330
747D
100
AcDbEntity
  8
細線
100
AcDbLine
 10
6145.194534300616
 20
5469.077276893859
 30
0.0
 11
6145.194534300616
 21
5446.077276893859
 31
0.0
  0
LINE
  5
16B3F
330
747D
100
AcDbEntity
  8
細線
100
AcDbLine
 10
6293.194534300615
 20
5446.077276893859
 30
0.0
 11
6293.194534300615
 21
5469.077276893859
 31
0.0
  0
LINE
  5
16B40
330
747D
100
AcDbEntity
  8
細線
100
AcDbLine
 10
6293.194534300615
 20
5469.077276893859
 30
0.0
 11
6219.194534300616
 21
5469.077276893859
 31
0.0
  0
LINE
  5
16B41
330
747D
100
AcDbEntity
  8
細線
100
AcDbLine
 10
6145.194534300616
 20
5446.077276893859
 30
0.0
 11
6219.194534300616
 21
5446.077276893859
 31
0.0
  0
LINE
  5
16B42
330
747D
100
AcDbEntity
  8
細線
100
AcDbLine
 10
6219.194534300616
 20
5469.077276893859
 30
0.0
 11
6145.194534300616
 21
5469.077276893859
 31
0.0
  0
LINE
  5
16B43
330
747D
100
AcDbEntity
  8
細線
100
AcDbLine
 10
6219.194534300612
 20
5446.077276893859
 30
0.0
 11
6293.194534300615
 21
5446.077276893859
 31
0.0
  0
ARC
  5
16B44
330
747D
100
AcDbEntity
  8
部品1
 48
0.01
100
AcDbCircle
 10
6131.194534300616
 20
5473.577276893859
 30
0.0
 40
2.0
100
AcDbArc
 50
90.0
 51
180.0
  0
ARC
  5
16B45
330
747D
100
AcDbEntity
  8
部品1
 48
0.01
100
AcDbCircle
 10
6131.194534300616
 20
5442.077276893859
 30
0.0
 40
2.0
100
AcDbArc
 50
180.0
 51
270.0
  0
ARC
  5
16B46
330
747D
100
AcDbEntity
  8
部品1
 48
0.01
100
AcDbCircle
 10
6307.194534300616
 20
5473.577276893859
 30
0.0
 40
2.0
100
AcDbArc
 50
0.0
 51
90.0
  0
ARC
  5
16B47
330
747D
100
AcDbEntity
  8
部品1
 48
0.01
100
AcDbCircle
 10
6307.194534300612
 20
5442.077276893859
 30
0.0
 40
2.0
100
AcDbArc
 50
270.0
 51
0.0
  0
ARC
  5
16B48
330
747D
100
AcDbEntity
  8
部品1
 48
0.01
100
AcDbCircle
 10
7257.194534300612
 20
5442.077276893859
 30
0.0
 40
2.0
100
AcDbArc
 50
270.0
 51
0.0
  0
ARC
  5
16B49
330
747D
100
AcDbEntity
  8
部品1
 48
0.01
100
AcDbCircle
 10
7257.194534300616
 20
5473.577276893859
 30
0.0
 40
2.0
100
AcDbArc
 50
0.0
 51
90.0
  0
ARC
  5
16B4A
330
747D
100
AcDbEntity
  8
部品1
 48
0.01
100
AcDbCircle
 10
7081.194534300616
 20
5442.077276893859
 30
0.0
 40
2.0
100
AcDbArc
 50
180.0
 51
270.0
  0
ARC
  5
16B4B
330
747D
100
AcDbEntity
  8
部品1
 48
0.01
100
AcDbCircle
 10
7081.194534300616
 20
5473.577276893859
 30
0.0
 40
2.0
100
AcDbArc
 50
90.0
 51
180.0
  0
LINE
  5
16B4C
330
747D
100
AcDbEntity
  8
細線
100
AcDbLine
 10
7169.194534300612
 20
5446.077276893859
 30
0.0
 11
7243.194534300616
 21
5446.077276893859
 31
0.0
  0
LINE
  5
16B4D
330
747D
100
AcDbEntity
  8
細線
100
AcDbLine
 10
7169.194534300615
 20
5469.077276893859
 30
0.0
 11
7095.194534300616
 21
5469.077276893859
 31
0.0
  0
LINE
  5
16B4E
330
747D
100
AcDbEntity
  8
細線
100
AcDbLine
 10
7095.194534300616
 20
5446.077276893859
 30
0.0
 11
7169.194534300615
 21
5446.077276893859
 31
0.0
  0
LINE
  5
16B4F
330
747D
100
AcDbEntity
  8
細線
100
AcDbLine
 10
7243.194534300616
 20
5469.077276893859
 30
0.0
 11
7169.194534300615
 21
5469.077276893859
 31
0.0
  0
LINE
  5
16B50
330
747D
100
AcDbEntity
  8
細線
100
AcDbLine
 10
7243.194534300616
 20
5446.077276893859
 30
0.0
 11
7243.194534300616
 21
5469.077276893859
 31
0.0
  0
LINE
  5
16B51
330
747D
100
AcDbEntity
  8
細線
100
AcDbLine
 10
7095.194534300616
 20
5469.077276893859
 30
0.0
 11
7095.194534300616
 21
5446.077276893859
 31
0.0
  0
LINE
  5
16B52
330
747D
100
AcDbEntity
  8
部品1
 48
0.01
100
AcDbLine
 10
7259.194534300611
 20
5442.077276893859
 30
0.0
 11
7259.194534300616
 21
5473.577276893859
 31
0.0
  0
LINE
  5
16B53
330
747D
100
AcDbEntity
  8
部品1
 48
0.01
100
AcDbLine
 10
7081.194534300616
 20
5440.077276893859
 30
0.0
 11
7257.194534300612
 21
5440.077276893859
 31
0.0
  0
LINE
  5
16B54
330
747D
100
AcDbEntity
  8
部品1
 48
0.01
100
AcDbLine
 10
7079.194534300616
 20
5473.577276893859
 30
0.0
 11
7079.194534300616
 21
5442.077276893859
 31
0.0
  0
LINE
  5
16B55
330
747D
100
AcDbEntity
  8
部品1
 48
0.01
100
AcDbLine
 10
7257.194534300616
 20
5475.577276893858
 30
0.0
 11
7081.194534300616
 21
5475.577276893858
 31
0.0
  0
LINE
  5
16B56
330
747D
100
AcDbEntity
  8
細線
100
AcDbLine
 10
7095.194534300616
 20
5463.077276893859
 30
0.0
 11
7169.194534300615
 21
5463.077276893859
 31
0.0
  0
LINE
  5
16B57
330
747D
100
AcDbEntity
  8
細線
100
AcDbLine
 10
7095.194534300616
 20
5457.077276893858
 30
0.0
 11
7169.194534300615
 21
5457.077276893858
 31
0.0
  0
LINE
  5
16B58
330
747D
100
AcDbEntity
  8
細線
100
AcDbLine
 10
7095.194534300611
 20
5451.077276893858
 30
0.0
 11
7169.194534300615
 21
5451.077276893858
 31
0.0
  0
LINE
  5
16B59
330
747D
100
AcDbEntity
  8
細線
100
AcDbLine
 10
7095.194534300616
 20
5463.077276893859
 30
0.0
 11
7164.194534300616
 21
5463.077276893859
 31
0.0
  0
LINE
  5
16B5A
330
747D
100
AcDbEntity
  8
細線
100
AcDbLine
 10
7243.194534300612
 20
5463.077276893859
 30
0.0
 11
7169.194534300615
 21
5463.077276893859
 31
0.0
  0
LINE
  5
16B5B
330
747D
100
AcDbEntity
  8
細線
100
AcDbLine
 10
7243.194534300612
 20
5451.077276893858
 30
0.0
 11
7169.194534300615
 21
5451.077276893858
 31
0.0
  0
LINE
  5
16B5C
330
747D
100
AcDbEntity
  8
細線
100
AcDbLine
 10
7243.194534300612
 20
5457.077276893858
 30
0.0
 11
7169.194534300615
 21
5457.077276893858
 31
0.0
  0
LINE
  5
16B5D
330
747D
100
AcDbEntity
  8
細線
100
AcDbLine
 10
7169.194534300615
 20
5469.077276893859
 30
0.0
 11
7169.194534300612
 21
5446.077276893859
 31
0.0
  0
LINE
  5
16B5E
330
747D
100
AcDbEntity
  8
細線
100
AcDbLine
 10
8119.194534300616
 20
5469.077276893859
 30
0.0
 11
8119.194534300612
 21
5446.077276893859
 31
0.0
  0
LINE
  5
16B5F
330
747D
100
AcDbEntity
  8
細線
100
AcDbLine
 10
8193.194534300612
 20
5457.077276893858
 30
0.0
 11
8119.194534300616
 21
5457.077276893858
 31
0.0
  0
LINE
  5
16B60
330
747D
100
AcDbEntity
  8
細線
100
AcDbLine
 10
8193.194534300612
 20
5451.077276893858
 30
0.0
 11
8119.194534300616
 21
5451.077276893858
 31
0.0
  0
LINE
  5
16B61
330
747D
100
AcDbEntity
  8
細線
100
AcDbLine
 10
8193.194534300612
 20
5463.077276893859
 30
0.0
 11
8119.194534300616
 21
5463.077276893859
 31
0.0
  0
LINE
  5
16B62
330
747D
100
AcDbEntity
  8
細線
100
AcDbLine
 10
8045.194534300616
 20
5463.077276893859
 30
0.0
 11
8114.194534300615
 21
5463.077276893859
 31
0.0
  0
LINE
  5
16B63
330
747D
100
AcDbEntity
  8
細線
100
AcDbLine
 10
8045.194534300611
 20
5451.077276893858
 30
0.0
 11
8119.194534300616
 21
5451.077276893858
 31
0.0
  0
LINE
  5
16B64
330
747D
100
AcDbEntity
  8
細線
100
AcDbLine
 10
8045.194534300616
 20
5457.077276893858
 30
0.0
 11
8119.194534300616
 21
5457.077276893858
 31
0.0
  0
LINE
  5
16B65
330
747D
100
AcDbEntity
  8
細線
100
AcDbLine
 10
8045.194534300616
 20
5463.077276893859
 30
0.0
 11
8119.194534300616
 21
5463.077276893859
 31
0.0
  0
LINE
  5
16B66
330
747D
100
AcDbEntity
  8
部品1
 48
0.01
100
AcDbLine
 10
8207.194534300617
 20
5475.577276893858
 30
0.0
 11
8031.194534300615
 21
5475.577276893858
 31
0.0
  0
LINE
  5
16B67
330
747D
100
AcDbEntity
  8
部品1
 48
0.01
100
AcDbLine
 10
8029.194534300616
 20
5473.577276893859
 30
0.0
 11
8029.194534300616
 21
5442.077276893859
 31
0.0
  0
LINE
  5
16B68
330
747D
100
AcDbEntity
  8
部品1
 48
0.01
100
AcDbLine
 10
8031.194534300615
 20
5440.077276893859
 30
0.0
 11
8207.194534300612
 21
5440.077276893859
 31
0.0
  0
LINE
  5
16B69
330
747D
100
AcDbEntity
  8
部品1
 48
0.01
100
AcDbLine
 10
8209.194534300612
 20
5442.077276893859
 30
0.0
 11
8209.194534300616
 21
5473.577276893859
 31
0.0
  0
LINE
  5
16B6A
330
747D
100
AcDbEntity
  8
細線
100
AcDbLine
 10
8045.194534300616
 20
5469.077276893859
 30
0.0
 11
8045.194534300616
 21
5446.077276893859
 31
0.0
  0
LINE
  5
16B6B
330
747D
100
AcDbEntity
  8
細線
100
AcDbLine
 10
8193.194534300616
 20
5446.077276893859
 30
0.0
 11
8193.194534300616
 21
5469.077276893859
 31
0.0
  0
LINE
  5
16B6C
330
747D
100
AcDbEntity
  8
細線
100
AcDbLine
 10
8193.194534300616
 20
5469.077276893859
 30
0.0
 11
8119.194534300616
 21
5469.077276893859
 31
0.0
  0
LINE
  5
16B6D
330
747D
100
AcDbEntity
  8
細線
100
AcDbLine
 10
8045.194534300616
 20
5446.077276893859
 30
0.0
 11
8119.194534300616
 21
5446.077276893859
 31
0.0
  0
LINE
  5
16B6E
330
747D
100
AcDbEntity
  8
細線
100
AcDbLine
 10
8119.194534300616
 20
5469.077276893859
 30
0.0
 11
8045.194534300616
 21
5469.077276893859
 31
0.0
  0
LINE
  5
16B6F
330
747D
100
AcDbEntity
  8
細線
100
AcDbLine
 10
8119.194534300612
 20
5446.077276893859
 30
0.0
 11
8193.194534300616
 21
5446.077276893859
 31
0.0
  0
ARC
  5
16B70
330
747D
100
AcDbEntity
  8
部品1
 48
0.01
100
AcDbCircle
 10
8031.194534300615
 20
5473.577276893859
 30
0.0
 40
2.0
100
AcDbArc
 50
90.0
 51
180.0
  0
ARC
  5
16B71
330
747D
100
AcDbEntity
  8
部品1
 48
0.01
100
AcDbCircle
 10
8031.194534300615
 20
5442.077276893859
 30
0.0
 40
2.0
100
AcDbArc
 50
180.0
 51
270.0
  0
ARC
  5
16B72
330
747D
100
AcDbEntity
  8
部品1
 48
0.01
100
AcDbCircle
 10
8207.194534300617
 20
5473.577276893859
 30
0.0
 40
2.0
100
AcDbArc
 50
0.0
 51
90.0
  0
ARC
  5
16B73
330
747D
100
AcDbEntity
  8
部品1
 48
0.01
100
AcDbCircle
 10
8207.194534300612
 20
5442.077276893859
 30
0.0
 40
2.0
100
AcDbArc
 50
270.0
 51
0.0
  0
TEXT
  5
16D51
330
747D
100
AcDbEntity
  8
文字
 62
     7
 48
50.0
100
AcDbText
 10
13583.11819016568
 20
8720.013745883727
 30
0.0
 40
100.0
  1
※豪雪補強
  7
STYLE1
100
AcDbText
  0
TEXT
  5
16D52
330
747D
100
AcDbEntity
  8
文字
 62
     7
 48
50.0
100
AcDbText
 10
13248.77747366447
 20
8720.013745883729
 30
0.0
 40
100.0
  1
15
  7
STYLE1
100
AcDbText
  0
TEXT
  5
16D53
330
747D
100
AcDbEntity
  8
文字
 62
     7
 48
50.0
100
AcDbText
 10
15022.63965474514
 20
8720.013745883722
 30
0.0
 40
100.0
  1
F12            1.0
  7
STYLE1
100
AcDbText
  0
TEXT
  5
16D54
330
747D
100
AcDbEntity
  8
文字
 62
     7
 48
50.0
100
AcDbText
 10
13229.83081656553
 20
8550.013745883727
 30
0.0
 40
100.0
  1
※豪雪補強は豪雪地型のみ取付
 41
0.9
  7
STYLE1
100
AcDbText
  0
LINE
  5
16D55
330
747D
100
AcDbEntity
  8
仕様書枠
 48
50.0
100
AcDbLine
 10
16307.19999999999
 20
8689.6
 30
0.0
 11
13127.19999999999
 21
8689.6
 31
0.0
  0
LINE
  5
16D56
330
747D
100
AcDbEntity
  8
仕様書枠
 48
50.0
100
AcDbLine
 10
16307.19999999999
 20
8519.600000000002
 30
0.0
 11
13127.19999999999
 21
8519.600000000002
 31
0.0
  0
TEXT
  5
16D66
330
747D
100
AcDbEntity
  8
文字
 62
     7
 48
50.0
100
AcDbText
 10
14251.2
 20
838.2527270729188
 30
0.0
 40
100.0
  1
～一般型・多雪地型・豪雪地型～
  7
STYLE2
100
AcDbText
  0
ENDSEC
  0
SECTION
  2
OBJECTS
  0
DICTIONARY
  5
7471
330
0
100
AcDbDictionary
281
     1
  3
ACAD_COLOR
350
15F29
  3
ACAD_GROUP
350
7472
  3
ACAD_LAYOUT
350
15F2A
  3
ACAD_MATERIAL
350
15F28
  3
ACAD_MLINESTYLE
350
7473
  3
ACAD_PLOTSETTINGS
350
15F2B
  3
ACAD_PLOTSTYLENAME
350
15F26
  3
ACDBHEADERROUNDTRIPXREC
350
16D7E
  3
AcDbVariableDictionary
350
16D7A
  3
CONTENTDICTIONARY
350
E71C
  3
DRAWINGVARIABLESDICT
350
F3B9
  0
DICTIONARY
  5
160D3
330
7467
100
AcDbDictionary
280
     1
281
     1
  3
ACAD_LAYERSTATES
360
160D4
  0
DICTIONARY
  5
15F29
102
{ACAD_REACTORS
330
7471
102
}
330
7471
100
AcDbDictionary
281
     1
  0
DICTIONARY
  5
7472
102
{ACAD_REACTORS
330
7471
102
}
330
7471
100
AcDbDictionary
281
     1
  0
DICTIONARY
  5
15F2A
102
{ACAD_REACTORS
330
7471
102
}
330
7471
100
AcDbDictionary
281
     1
  3
Model
350
15F2C
  3
レイアウト1
350
15F2D
  0
DICTIONARY
  5
15F28
102
{ACAD_REACTORS
330
7471
102
}
330
7471
100
AcDbDictionary
281
     1
  0
DICTIONARY
  5
7473
102
{ACAD_REACTORS
330
7471
102
}
330
7471
100
AcDbDictionary
281
     1
  3
STANDARD
350
7480
  0
DICTIONARY
  5
15F2B
102
{ACAD_REACTORS
330
7471
102
}
330
7471
100
AcDbDictionary
281
     1
  0
ACDBDICTIONARYWDFLT
  5
15F26
102
{ACAD_REACTORS
330
7471
102
}
330
7471
100
AcDbDictionary
281
     1
  3
Normal
350
15F27
100
AcDbDictionaryWithDefault
340
15F27
  0
DICTIONARY
  5
16D7E
102
{ACAD_REACTORS
330
7471
102
}
330
7471
100
AcDbDictionary
281
     1
  3
COLORDICT
350
16D80
  3
MATERIALDICT
350
16D7F
  0
DICTIONARY
  5
16D7A
102
{ACAD_REACTORS
330
7471
102
}
330
7471
100
AcDbDictionary
281
     1
  3
DIMASSOC
350
16D7B
  3
PROJECTNAME
350
16D7C
  0
DICTIONARY
  5
E71C
102
{ACAD_REACTORS
330
7471
102
}
330
7471
100
AcDbDictionary
281
     1
  0
DICTIONARY
  5
F3B9
102
{ACAD_REACTORS
330
7471
102
}
330
7471
100
AcDbDictionary
281
     1
1001
DRAWINGVARIABLESXDATA
1000
POLARMODE
1000
1
  0
DICTIONARY
  5
160D4
102
{ACAD_REACTORS
330
160D3
102
}
330
160D3
100
AcDbDictionary
281
     1
  0
LAYOUT
  5
15F2C
102
{ACAD_XDICTIONARY
360
16D81
102
}
102
{ACAD_REACTORS
330
15F2A
102
}
330
15F2A
100
AcDbPlotSettings
  1

  2
Microsoft Office Document Image Writer
  4

  6

 40
0.0
 41
0.0
 42
0.0
 43
0.0
 44
0.0
 45
0.0
 46
0.0
 47
0.0
 48
0.0
 49
0.0
140
0.0
141
0.0
142
1.0
143
1.0
 70
  1712
 72
     0
 73
     0
 74
     0
  7

 75
     0
147
1.0
148
0.0
149
0.0
100
AcDbLayout
  1
Model
 70
     1
 71
     0
 10
0.0
 20
0.0
 11
12.0
 21
9.0
 12
0.0
 22
0.0
 32
0.0
 14
0.0
 24
0.0
 34
0.0
 15
0.0
 25
0.0
 35
0.0
146
0.0
 13
0.0
 23
0.0
 33
0.0
 16
1.0
 26
0.0
 36
0.0
 17
0.0
 27
1.0
 37
0.0
 76
     0
330
747D
  0
LAYOUT
  5
15F2D
102
{ACAD_XDICTIONARY
360
16D83
102
}
102
{ACAD_REACTORS
330
15F2A
102
}
330
15F2A
100
AcDbPlotSettings
  1

  2
Microsoft Office Document Image Writer
  4

  6

 40
0.0
 41
0.0
 42
0.0
 43
0.0
 44
0.0
 45
0.0
 46
0.0
 47
0.0
 48
0.0
 49
0.0
140
0.0
141
0.0
142
1.0
143
1.0
 70
   688
 72
     0
 73
     0
 74
     5
  7

 75
    16
147
1.0
148
0.0
149
0.0
100
AcDbLayout
  1
レイアウト1
 70
     0
 71
     1
 10
0.0
 20
0.0
 11
420.0
 21
297.0
 12
0.0
 22
0.0
 32
0.0
 14
1.000000000000000E+20
 24
1.000000000000000E+20
 34
1.000000000000000E+20
 15
-1.000000000000000E+20
 25
-1.000000000000000E+20
 35
-1.000000000000000E+20
146
0.0
 13
0.0
 23
0.0
 33
0.0
 16
1.0
 26
0.0
 36
0.0
 17
0.0
 27
1.0
 37
0.0
 76
     0
330
747A
  0
MLINESTYLE
  5
7480
102
{ACAD_REACTORS
330
7473
102
}
330
7473
100
AcDbMlineStyle
  2
STANDARD
 70
     0
  3

 62
     0
 51
90.0
 52
90.0
 71
     2
 49
0.5
 62
   256
  6
BYLAYER
 49
-0.5
 62
   256
  6
BYLAYER
  0
ACDBPLACEHOLDER
  5
15F27
102
{ACAD_REACTORS
330
15F26
102
}
330
15F26
  0
XRECORD
  5
16D80
102
{ACAD_REACTORS
330
16D7E
102
}
330
16D7E
100
AcDbXrecord
280
     1
340
15F29
  0
XRECORD
  5
16D7F
102
{ACAD_REACTORS
330
16D7E
102
}
330
16D7E
100
AcDbXrecord
280
     1
340
15F28
  0
DICTIONARYVAR
  5
16D7B
102
{ACAD_REACTORS
330
16D7A
102
}
330
16D7A
100
DictionaryVariables
280
     0
  1
1
  0
DICTIONARYVAR
  5
16D7C
102
{ACAD_REACTORS
330
16D7A
102
}
330
16D7A
100
DictionaryVariables
280
     0
  1

  0
DICTIONARY
  5
16D81
330
15F2C
100
AcDbDictionary
280
     1
281
     1
  3
ACAD_XREC_ROUNDTRIP
360
16D82
  0
DICTIONARY
  5
16D83
330
15F2D
100
AcDbDictionary
280
     1
281
     1
  3
ACAD_XREC_ROUNDTRIP
360
16D84
  0
XRECORD
  5
16D82
102
{ACAD_REACTORS
330
16D81
102
}
330
16D81
100
AcDbXrecord
280
     1
102
SHADEPLOT
 70
     0
102
SHADEPLOTRESLEVEL
 70
     2
102
SHADEPLOTCUSTOMDPI
 70
   300
  0
XRECORD
  5
16D84
102
{ACAD_REACTORS
330
16D83
102
}
330
16D83
100
AcDbXrecord
280
     1
102
SHADEPLOT
 70
     0
102
SHADEPLOTRESLEVEL
 70
     2
102
SHADEPLOTCUSTOMDPI
 70
   300
  0
ENDSEC
  0
EOF
