  0
SECTION
  2
HEADER
  9
$ACADVER
  1
AC1015
  9
$ACADMAINTVER
 70
    20
  9
$DWGCODEPAGE
  3
ANSI_932
  9
$INSBASE
 10
0.0
 20
0.0
 30
0.0
  9
$EXTMIN
 10
139.9999999999995
 20
-0.0000000000000909
 30
0.0
  9
$EXTMAX
 10
16307.2
 20
11409.6
 30
0.0
  9
$LIMMIN
 10
0.0
 20
0.0
  9
$LIMMAX
 10
16800.0
 20
11880.0
  9
$ORTHOMODE
 70
     0
  9
$REGENMODE
 70
     1
  9
$FILLMODE
 70
     1
  9
$QTEXTMODE
 70
     0
  9
$MIRRTEXT
 70
     1
  9
$LTSCALE
 40
20.0
  9
$ATTMODE
 70
     1
  9
$TEXTSIZE
 40
100.0
  9
$TRACEWID
 40
1.0
  9
$TEXTSTYLE
  7
STYLE3
  9
$CLAYER
  8
寸法
  9
$CELTYPE
  6
BYLAYER
  9
$CECOLOR
 62
   256
  9
$CELTSCALE
 40
50.0
  9
$DISPSILH
 70
     0
  9
$DIMSCALE
 40
40.0
  9
$DIMASZ
 40
2.5
  9
$DIMEXO
 40
0.5
  9
$DIMDLI
 40
7.0
  9
$DIMRND
 40
0.0
  9
$DIMDLE
 40
0.0
  9
$DIMEXE
 40
1.5
  9
$DIMTP
 40
0.0
  9
$DIMTM
 40
0.0
  9
$DIMTXT
 40
3.0
  9
$DIMCEN
 40
0.0
  9
$DIMTSZ
 40
0.0
  9
$DIMTOL
 70
     0
  9
$DIMLIM
 70
     0
  9
$DIMTIH
 70
     0
  9
$DIMTOH
 70
     0
  9
$DIMSE1
 70
     0
  9
$DIMSE2
 70
     0
  9
$DIMTAD
 70
     3
  9
$DIMZIN
 70
     8
  9
$DIMBLK
  1

  9
$DIMASO
 70
     1
  9
$DIMSHO
 70
     1
  9
$DIMPOST
  1

  9
$DIMAPOST
  1

  9
$DIMALT
 70
     0
  9
$DIMALTD
 70
     2
  9
$DIMALTF
 40
0.0394
  9
$DIMLFAC
 40
1.0
  9
$DIMTOFL
 70
     1
  9
$DIMTVP
 40
0.0
  9
$DIMTIX
 70
     1
  9
$DIMSOXD
 70
     0
  9
$DIMSAH
 70
     1
  9
$DIMBLK1
  1
DOTSMALL
  9
$DIMBLK2
  1
DOTSMALL
  9
$DIMSTYLE
  2
INABA_S40G
  9
$DIMCLRD
 70
     0
  9
$DIMCLRE
 70
     0
  9
$DIMCLRT
 70
     7
  9
$DIMTFAC
 40
1.0
  9
$DIMGAP
 40
1.0
  9
$DIMJUST
 70
     0
  9
$DIMSD1
 70
     0
  9
$DIMSD2
 70
     0
  9
$DIMTOLJ
 70
     1
  9
$DIMTZIN
 70
     0
  9
$DIMALTZ
 70
     0
  9
$DIMALTTZ
 70
     0
  9
$DIMUPT
 70
     0
  9
$DIMDEC
 70
     1
  9
$DIMTDEC
 70
     4
  9
$DIMALTU
 70
     2
  9
$DIMALTTD
 70
     2
  9
$DIMTXSTY
  7
STYLE1
  9
$DIMAUNIT
 70
     0
  9
$DIMADEC
 70
     0
  9
$DIMALTRND
 40
0.0
  9
$DIMAZIN
 70
     0
  9
$DIMDSEP
 70
    46
  9
$DIMATFIT
 70
     3
  9
$DIMFRAC
 70
     0
  9
$DIMLDRBLK
  1

  9
$DIMLUNIT
 70
     2
  9
$DIMLWD
 70
    -2
  9
$DIMLWE
 70
    -2
  9
$DIMTMOVE
 70
     0
  9
$LUNITS
 70
     2
  9
$LUPREC
 70
     1
  9
$SKETCHINC
 40
1.0
  9
$FILLETRAD
 40
5.0
  9
$AUNITS
 70
     0
  9
$AUPREC
 70
     0
  9
$MENU
  1
acad
  9
$ELEVATION
 40
0.0
  9
$PELEVATION
 40
0.0
  9
$THICKNESS
 40
0.0
  9
$LIMCHECK
 70
     0
  9
$CHAMFERA
 40
0.0
  9
$CHAMFERB
 40
0.0
  9
$CHAMFERC
 40
0.0
  9
$CHAMFERD
 40
0.0
  9
$SKPOLY
 70
     0
  9
$TDCREATE
 40
2452116.684896065
  9
$TDUCREATE
 40
2452116.309896065
  9
$TDUPDATE
 40
2455575.692204861
  9
$TDUUPDATE
 40
2455575.317204861
  9
$TDINDWG
 40
0.4463454282
  9
$TDUSRTIMER
 40
0.4463454282
  9
$USRTIMER
 70
     1
  9
$ANGBASE
 50
0.0
  9
$ANGDIR
 70
     0
  9
$PDMODE
 70
     3
  9
$PDSIZE
 40
2.0
  9
$PLINEWID
 40
0.0
  9
$SPLFRAME
 70
     0
  9
$SPLINETYPE
 70
     6
  9
$SPLINESEGS
 70
     8
  9
$HANDSEED
  5
1639D
  9
$SURFTAB1
 70
     6
  9
$SURFTAB2
 70
     6
  9
$SURFTYPE
 70
     6
  9
$SURFU
 70
     6
  9
$SURFV
 70
     6
  9
$UCSBASE
  2

  9
$UCSNAME
  2

  9
$UCSORG
 10
0.0
 20
0.0
 30
0.0
  9
$UCSXDIR
 10
1.0
 20
0.0
 30
0.0
  9
$UCSYDIR
 10
0.0
 20
1.0
 30
0.0
  9
$UCSORTHOREF
  2

  9
$UCSORTHOVIEW
 70
     0
  9
$UCSORGTOP
 10
0.0
 20
0.0
 30
0.0
  9
$UCSORGBOTTOM
 10
0.0
 20
0.0
 30
0.0
  9
$UCSORGLEFT
 10
0.0
 20
0.0
 30
0.0
  9
$UCSORGRIGHT
 10
0.0
 20
0.0
 30
0.0
  9
$UCSORGFRONT
 10
0.0
 20
0.0
 30
0.0
  9
$UCSORGBACK
 10
0.0
 20
0.0
 30
0.0
  9
$PUCSBASE
  2

  9
$PUCSNAME
  2

  9
$PUCSORG
 10
0.0
 20
0.0
 30
0.0
  9
$PUCSXDIR
 10
1.0
 20
0.0
 30
0.0
  9
$PUCSYDIR
 10
0.0
 20
1.0
 30
0.0
  9
$PUCSORTHOREF
  2

  9
$PUCSORTHOVIEW
 70
     0
  9
$PUCSORGTOP
 10
0.0
 20
0.0
 30
0.0
  9
$PUCSORGBOTTOM
 10
0.0
 20
0.0
 30
0.0
  9
$PUCSORGLEFT
 10
0.0
 20
0.0
 30
0.0
  9
$PUCSORGRIGHT
 10
0.0
 20
0.0
 30
0.0
  9
$PUCSORGFRONT
 10
0.0
 20
0.0
 30
0.0
  9
$PUCSORGBACK
 10
0.0
 20
0.0
 30
0.0
  9
$USERI1
 70
     0
  9
$USERI2
 70
     0
  9
$USERI3
 70
     0
  9
$USERI4
 70
     0
  9
$USERI5
 70
     0
  9
$USERR1
 40
0.0
  9
$USERR2
 40
0.0
  9
$USERR3
 40
0.0
  9
$USERR4
 40
0.0
  9
$USERR5
 40
0.0
  9
$WORLDVIEW
 70
     1
  9
$SHADEDGE
 70
     3
  9
$SHADEDIF
 70
    70
  9
$TILEMODE
 70
     1
  9
$MAXACTVP
 70
    16
  9
$PINSBASE
 10
0.0
 20
0.0
 30
0.0
  9
$PLIMCHECK
 70
     0
  9
$PEXTMIN
 10
1.000000000000000E+20
 20
1.000000000000000E+20
 30
1.000000000000000E+20
  9
$PEXTMAX
 10
-1.000000000000000E+20
 20
-1.000000000000000E+20
 30
-1.000000000000000E+20
  9
$PLIMMIN
 10
0.0
 20
0.0
  9
$PLIMMAX
 10
420.0
 20
297.0
  9
$UNITMODE
 70
     0
  9
$VISRETAIN
 70
     0
  9
$PLINEGEN
 70
     0
  9
$PSLTSCALE
 70
     0
  9
$TREEDEPTH
 70
  3020
  9
$CMLSTYLE
  2
STANDARD
  9
$CMLJUST
 70
     0
  9
$CMLSCALE
 40
1.0
  9
$PROXYGRAPHICS
 70
     1
  9
$MEASUREMENT
 70
     1
  9
$CELWEIGHT
370
    -1
  9
$ENDCAPS
280
     0
  9
$JOINSTYLE
280
     0
  9
$LWDISPLAY
290
     0
  9
$INSUNITS
 70
     0
  9
$HYPERLINKBASE
  1

  9
$STYLESHEET
  1

  9
$XEDIT
290
     1
  9
$CEPSNTYPE
380
     0
  9
$PSTYLEMODE
290
     1
  9
$FINGERPRINTGUID
  2
{664AA1B4-70FD-4913-88BE-AB9249D50576}
  9
$VERSIONGUID
  2
{4A1011E6-9DAA-48DA-9BBD-63AB4BEE24F8}
  9
$EXTNAMES
290
     1
  9
$PSVPSCALE
 40
0.0
  9
$OLESTARTUP
290
     0
  0
ENDSEC
  0
SECTION
  2
CLASSES
  0
CLASS
  1
ACDBDICTIONARYWDFLT
  2
AcDbDictionaryWithDefault
  3
ObjectDBX Classes
 90
        0
280
     0
281
     0
  0
CLASS
  1
DICTIONARYVAR
  2
AcDbDictionaryVar
  3
ObjectDBX Classes
 90
        0
280
     0
281
     0
  0
CLASS
  1
ACDBPLACEHOLDER
  2
AcDbPlaceHolder
  3
ObjectDBX Classes
 90
        0
280
     0
281
     0
  0
CLASS
  1
LAYOUT
  2
AcDbLayout
  3
ObjectDBX Classes
 90
        0
280
     0
281
     0
  0
ENDSEC
  0
SECTION
  2
TABLES
  0
TABLE
  2
VPORT
  5
746D
330
0
100
AcDbSymbolTable
 70
     2
  0
VPORT
  5
16395
330
746D
100
AcDbSymbolTableRecord
100
AcDbViewportTableRecord
  2
*Active
 70
     0
 10
0.0
 20
0.0
 11
1.0
 21
1.0
 12
9076.91645855874
 22
6347.66611132684
 13
0.0
 23
0.0
 14
10.0
 24
10.0
 15
10.0
 25
10.0
 16
0.0
 26
0.0
 36
1.0
 17
0.0
 27
0.0
 37
0.0
 40
12783.46462244035
 41
1.525925925925925
 42
50.0
 43
0.0
 44
0.0
 50
0.0
 51
0.0
 71
     0
 72
     0
 73
     1
 74
     0
 75
     0
 76
     0
 77
     0
 78
     0
281
     0
 65
     1
110
0.0
120
0.0
130
0.0
111
1.0
121
0.0
131
0.0
112
0.0
122
1.0
132
0.0
 79
     0
146
0.0
  0
ENDTAB
  0
TABLE
  2
LTYPE
  5
746A
330
0
100
AcDbSymbolTable
 70
     4
  0
LTYPE
  5
7477
330
746A
100
AcDbSymbolTableRecord
100
AcDbLinetypeTableRecord
  2
BYBLOCK
 70
     0
  3

 72
    65
 73
     0
 40
0.0
  0
LTYPE
  5
7478
330
746A
100
AcDbSymbolTableRecord
100
AcDbLinetypeTableRecord
  2
BYLAYER
 70
     0
  3

 72
    65
 73
     0
 40
0.0
  0
LTYPE
  5
7479
330
746A
100
AcDbSymbolTableRecord
100
AcDbLinetypeTableRecord
  2
CONTINUOUS
 70
     0
  3
Solid line
 72
    65
 73
     0
 40
0.0
  0
LTYPE
  5
7816
330
746A
100
AcDbSymbolTableRecord
100
AcDbLinetypeTableRecord
  2
CENTER
 70
     0
  3
____ _ ____ _ ____ _ ____ _ ____ _ ____ _ ____ 
 72
    65
 73
     4
 40
2.0
 49
1.25
 74
     0
 49
-0.25
 74
     0
 49
0.25
 74
     0
 49
-0.25
 74
     0
  0
LTYPE
  5
781A
330
746A
100
AcDbSymbolTableRecord
100
AcDbLinetypeTableRecord
  2
HIDDEN
 70
     0
  3
__ __ __ __ __ __ __ __ __ __ __ __ __ __ __ __
 72
    65
 73
     2
 40
0.375
 49
0.25
 74
     0
 49
-0.125
 74
     0
  0
LTYPE
  5
781B
330
746A
100
AcDbSymbolTableRecord
100
AcDbLinetypeTableRecord
  2
PHANTOM
 70
     0
  3
______  __  __  ______  __  __  ______  __  __ 
 72
    65
 73
     6
 40
2.5
 49
1.25
 74
     0
 49
-0.25
 74
     0
 49
0.25
 74
     0
 49
-0.25
 74
     0
 49
0.25
 74
     0
 49
-0.25
 74
     0
  0
ENDTAB
  0
TABLE
  2
LAYER
  5
7467
102
{ACAD_XDICTIONARY
360
158BD
102
}
330
0
100
AcDbSymbolTable
 70
    12
  0
LAYER
  5
7474
330
7467
100
AcDbSymbolTableRecord
100
AcDbLayerTableRecord
  2
0
 70
     0
 62
     7
  6
CONTINUOUS
370
    -3
390
15741
  0
LAYER
  5
DEB2
330
7467
100
AcDbSymbolTableRecord
100
AcDbLayerTableRecord
  2
センター
 70
     0
 62
     3
  6
CENTER
370
    -3
390
15741
  0
LAYER
  5
DEB3
330
7467
100
AcDbSymbolTableRecord
100
AcDbLayerTableRecord
  2
寸法
 70
     0
 62
     4
  6
CONTINUOUS
370
    -3
390
15741
  0
LAYER
  5
DEB4
330
7467
100
AcDbSymbolTableRecord
100
AcDbLayerTableRecord
  2
部品1
 70
     0
 62
     7
  6
CONTINUOUS
370
    -3
390
15741
  0
LAYER
  5
DEB5
330
7467
100
AcDbSymbolTableRecord
100
AcDbLayerTableRecord
  2
補助
 70
     0
 62
    -1
  6
CONTINUOUS
370
    -3
390
15741
  0
LAYER
  5
DEB6
330
7467
100
AcDbSymbolTableRecord
100
AcDbLayerTableRecord
  2
文字
 70
     0
 62
     7
  6
CONTINUOUS
370
    -3
390
15741
  0
LAYER
  5
F255
330
7467
100
AcDbSymbolTableRecord
100
AcDbLayerTableRecord
  2
DEFPOINTS
 70
     0
 62
     7
  6
CONTINUOUS
290
     0
370
    -3
390
15741
  0
LAYER
  5
10B54
330
7467
100
AcDbSymbolTableRecord
100
AcDbLayerTableRecord
  2
仕様書枠
 70
     0
 62
   230
  6
CONTINUOUS
370
    -3
390
15741
  0
LAYER
  5
11729
330
7467
100
AcDbSymbolTableRecord
100
AcDbLayerTableRecord
  2
Ｇ．Ｌ
 70
     0
 62
    30
  6
CONTINUOUS
370
    -3
390
15741
  0
LAYER
  5
1173F
330
7467
100
AcDbSymbolTableRecord
100
AcDbLayerTableRecord
  2
細線
 70
     0
 62
     5
  6
CONTINUOUS
370
    -3
390
15741
  0
LAYER
  5
118A1
330
7467
100
AcDbSymbolTableRecord
100
AcDbLayerTableRecord
  2
想像線
 70
     0
 62
     6
  6
PHANTOM
370
    -3
390
15741
  0
LAYER
  5
123C1
330
7467
100
AcDbSymbolTableRecord
100
AcDbLayerTableRecord
  2
破線
 70
     0
 62
     2
  6
HIDDEN
370
    -3
390
15741
  0
ENDTAB
  0
TABLE
  2
STYLE
  5
7468
330
0
100
AcDbSymbolTable
 70
     4
  0
STYLE
  5
7475
330
7468
100
AcDbSymbolTableRecord
100
AcDbTextStyleTableRecord
  2
STANDARD
 70
     0
 40
0.0
 41
1.0
 50
0.0
 71
     0
 42
4.0
  3
txt
  4
C:\AutoCAD LT\bigfont.shx
  0
STYLE
  5
F706
330
7468
100
AcDbSymbolTableRecord
100
AcDbTextStyleTableRecord
  2
STYLE1
 70
     0
 40
0.0
 41
1.0
 50
0.0
 71
     0
 42
4.0
  3
isocp.shx
  4
bigfont.shx
  0
STYLE
  5
103BF
330
7468
100
AcDbSymbolTableRecord
100
AcDbTextStyleTableRecord
  2
STYLE2
 70
     0
 40
0.0
 41
1.0
 50
0.0
 71
     0
 42
100.0
  3
MS PGothic.ttf
  4

1001
ACAD
1000
MS PGothic
1071
    32818
  0
STYLE
  5
10BAA
330
7468
100
AcDbSymbolTableRecord
100
AcDbTextStyleTableRecord
  2
STYLE3
 70
     0
 40
0.0
 41
1.0
 50
0.0
 71
     0
 42
100.0
  3

  4

1001
ACAD
1000
DFPGothic-EB
1071
    32818
  0
ENDTAB
  0
TABLE
  2
VIEW
  5
746B
330
0
100
AcDbSymbolTable
 70
     0
  0
ENDTAB
  0
TABLE
  2
UCS
  5
746C
330
0
100
AcDbSymbolTable
 70
     0
  0
ENDTAB
  0
TABLE
  2
APPID
  5
746E
330
0
100
AcDbSymbolTable
 70
     6
  0
APPID
  5
7476
330
746E
100
AcDbSymbolTableRecord
100
AcDbRegAppTableRecord
  2
ACAD
 70
     0
  0
APPID
  5
DEA9
330
746E
100
AcDbSymbolTableRecord
100
AcDbRegAppTableRecord
  2
CONTENTBLOCKICON
 70
     0
  0
APPID
  5
DEAA
330
746E
100
AcDbSymbolTableRecord
100
AcDbRegAppTableRecord
  2
CONTENTBLOCKDESCRIPTION
 70
     0
  0
APPID
  5
E71D
330
746E
100
AcDbSymbolTableRecord
100
AcDbRegAppTableRecord
  2
CONTENTTABDATA
 70
     0
  0
APPID
  5
E71E
330
746E
100
AcDbSymbolTableRecord
100
AcDbRegAppTableRecord
  2
CONTENTCURRENTTAB
 70
     0
  0
APPID
  5
F3BA
330
746E
100
AcDbSymbolTableRecord
100
AcDbRegAppTableRecord
  2
DRAWINGVARIABLESXDATA
 70
     0
  0
ENDTAB
  0
TABLE
  2
DIMSTYLE
  5
746F
330
0
100
AcDbSymbolTable
 70
     2
100
AcDbDimStyleTable
 71
     0
  0
DIMSTYLE
105
7484
330
746F
100
AcDbSymbolTableRecord
100
AcDbDimStyleTableRecord
  2
JIS
 70
     0
 41
2.5
 42
1.0
 43
7.0
 44
1.0
 73
     0
 74
     0
 77
     1
 78
     8
140
2.5
141
0.0
143
0.0394
147
0.0
172
     1
174
     1
175
     1
340
7475
  0
DIMSTYLE
105
F71F
102
{ACAD_REACTORS
330
1518D
330
1519A
330
1519B
330
1519C
330
1519F
330
151DF
330
151EC
330
151ED
330
151EE
330
151EF
330
151FE
330
1522E
330
15230
330
15241
330
15258
330
156D1
330
156E9
330
15B29
330
15B2A
330
15B2B
330
15B2C
330
15B34
330
15B35
330
15B36
330
15B37
330
15B5D
330
1608E
330
1608F
330
160BA
330
160D2
330
160D1
330
160D0
330
16150
102
}
330
746F
100
AcDbSymbolTableRecord
100
AcDbDimStyleTableRecord
  2
INABA_S40G
 70
     0
 40
40.0
 41
2.5
 42
0.5
 43
7.0
 44
1.5
 73
     0
 74
     0
 77
     3
 78
     8
140
3.0
141
0.0
143
0.0394
147
1.0
172
     1
173
     1
174
     1
178
     7
271
     1
340
F706
341
F770
343
F770
344
F770
  0
ENDTAB
  0
TABLE
  2
BLOCK_RECORD
  5
7466
330
0
100
AcDbSymbolTable
 70
    34
  0
BLOCK_RECORD
  5
747D
330
7466
100
AcDbSymbolTableRecord
100
AcDbBlockTableRecord
  2
*MODEL_SPACE
340
15746
  0
BLOCK_RECORD
  5
747A
330
7466
100
AcDbSymbolTableRecord
100
AcDbBlockTableRecord
  2
*PAPER_SPACE
340
15747
  0
BLOCK_RECORD
  5
F770
330
7466
100
AcDbSymbolTableRecord
100
AcDbBlockTableRecord
  2
_DOTSMALL
340
0
102
{BLKREFS
331
1620B
331
1620C
331
16216
331
16217
331
1621F
331
16220
331
16228
331
16229
331
16232
331
16233
331
1623B
331
1623C
331
16244
331
16245
331
1624D
331
1624E
331
16256
331
16257
331
16261
331
16262
331
1626A
331
1626B
331
16273
331
16274
331
1627C
331
1627D
331
16287
331
16288
331
16290
331
16291
331
1629A
331
1629B
331
162A3
331
162A4
331
162AC
331
162AD
331
162B5
331
162B6
331
162C0
331
162C1
331
162C9
331
162CA
331
162D2
331
162D3
331
162DB
331
162DC
331
162E6
331
162E7
331
162EF
331
162F0
331
162FA
331
162FB
331
16304
331
16305
331
1630C
331
1630D
331
16317
331
16318
331
16320
331
16321
331
1632A
331
1632B
331
16332
331
16333
331
1633B
331
1633C
102
}
  0
BLOCK_RECORD
  5
1537F
330
7466
100
AcDbSymbolTableRecord
100
AcDbBlockTableRecord
  2
*D1
340
0
  0
BLOCK_RECORD
  5
153A3
330
7466
100
AcDbSymbolTableRecord
100
AcDbBlockTableRecord
  2
*D2
340
0
  0
BLOCK_RECORD
  5
153AF
330
7466
100
AcDbSymbolTableRecord
100
AcDbBlockTableRecord
  2
*D3
340
0
  0
BLOCK_RECORD
  5
153BB
330
7466
100
AcDbSymbolTableRecord
100
AcDbBlockTableRecord
  2
*D4
340
0
  0
BLOCK_RECORD
  5
153C7
330
7466
100
AcDbSymbolTableRecord
100
AcDbBlockTableRecord
  2
*D5
340
0
  0
BLOCK_RECORD
  5
153E1
330
7466
100
AcDbSymbolTableRecord
100
AcDbBlockTableRecord
  2
*D6
340
0
  0
BLOCK_RECORD
  5
153ED
330
7466
100
AcDbSymbolTableRecord
100
AcDbBlockTableRecord
  2
*D7
340
0
  0
BLOCK_RECORD
  5
153F9
330
7466
100
AcDbSymbolTableRecord
100
AcDbBlockTableRecord
  2
*D8
340
0
  0
BLOCK_RECORD
  5
15407
330
7466
100
AcDbSymbolTableRecord
100
AcDbBlockTableRecord
  2
*D9
340
0
  0
BLOCK_RECORD
  5
15413
330
7466
100
AcDbSymbolTableRecord
100
AcDbBlockTableRecord
  2
*D10
340
0
  0
BLOCK_RECORD
  5
15439
330
7466
100
AcDbSymbolTableRecord
100
AcDbBlockTableRecord
  2
*D11
340
0
  0
BLOCK_RECORD
  5
15445
330
7466
100
AcDbSymbolTableRecord
100
AcDbBlockTableRecord
  2
*D12
340
0
  0
BLOCK_RECORD
  5
15451
330
7466
100
AcDbSymbolTableRecord
100
AcDbBlockTableRecord
  2
*D13
340
0
  0
BLOCK_RECORD
  5
1545D
330
7466
100
AcDbSymbolTableRecord
100
AcDbBlockTableRecord
  2
*D14
340
0
  0
BLOCK_RECORD
  5
15483
330
7466
100
AcDbSymbolTableRecord
100
AcDbBlockTableRecord
  2
*D15
340
0
  0
BLOCK_RECORD
  5
156D2
330
7466
100
AcDbSymbolTableRecord
100
AcDbBlockTableRecord
  2
*D16
340
0
  0
BLOCK_RECORD
  5
156EA
330
7466
100
AcDbSymbolTableRecord
100
AcDbBlockTableRecord
  2
*D17
340
0
  0
BLOCK_RECORD
  5
15D61
330
7466
100
AcDbSymbolTableRecord
100
AcDbBlockTableRecord
  2
*D18
340
0
  0
BLOCK_RECORD
  5
15D6E
330
7466
100
AcDbSymbolTableRecord
100
AcDbBlockTableRecord
  2
*D19
340
0
  0
BLOCK_RECORD
  5
15D7A
330
7466
100
AcDbSymbolTableRecord
100
AcDbBlockTableRecord
  2
*D20
340
0
  0
BLOCK_RECORD
  5
15D88
330
7466
100
AcDbSymbolTableRecord
100
AcDbBlockTableRecord
  2
*D21
340
0
  0
BLOCK_RECORD
  5
15D94
330
7466
100
AcDbSymbolTableRecord
100
AcDbBlockTableRecord
  2
*D22
340
0
  0
BLOCK_RECORD
  5
15DA0
330
7466
100
AcDbSymbolTableRecord
100
AcDbBlockTableRecord
  2
*D23
340
0
  0
BLOCK_RECORD
  5
15DAC
330
7466
100
AcDbSymbolTableRecord
100
AcDbBlockTableRecord
  2
*D24
340
0
  0
BLOCK_RECORD
  5
15DBA
330
7466
100
AcDbSymbolTableRecord
100
AcDbBlockTableRecord
  2
*D25
340
0
  0
BLOCK_RECORD
  5
15DC6
330
7466
100
AcDbSymbolTableRecord
100
AcDbBlockTableRecord
  2
*D26
340
0
  0
BLOCK_RECORD
  5
16090
330
7466
100
AcDbSymbolTableRecord
100
AcDbBlockTableRecord
  2
*D27
340
0
  0
BLOCK_RECORD
  5
1609C
330
7466
100
AcDbSymbolTableRecord
100
AcDbBlockTableRecord
  2
*D28
340
0
  0
BLOCK_RECORD
  5
160BB
330
7466
100
AcDbSymbolTableRecord
100
AcDbBlockTableRecord
  2
*D29
340
0
  0
BLOCK_RECORD
  5
1610D
330
7466
100
AcDbSymbolTableRecord
100
AcDbBlockTableRecord
  2
*D30
340
0
  0
BLOCK_RECORD
  5
1611B
330
7466
100
AcDbSymbolTableRecord
100
AcDbBlockTableRecord
  2
*D31
340
0
  0
BLOCK_RECORD
  5
16127
330
7466
100
AcDbSymbolTableRecord
100
AcDbBlockTableRecord
  2
*D32
340
0
  0
BLOCK_RECORD
  5
1615B
330
7466
100
AcDbSymbolTableRecord
100
AcDbBlockTableRecord
  2
*D33
340
0
  0
ENDTAB
  0
ENDSEC
  0
SECTION
  2
BLOCKS
  0
BLOCK
  5
7489
330
747D
100
AcDbEntity
  8
0
100
AcDbBlockBegin
  2
*MODEL_SPACE
 70
     0
 10
0.0
 20
0.0
 30
0.0
  3
*MODEL_SPACE
  1

  0
ENDBLK
  5
748A
330
747D
100
AcDbEntity
  8
0
100
AcDbBlockEnd
  0
BLOCK
  5
7487
330
747A
100
AcDbEntity
 67
     1
  8
0
100
AcDbBlockBegin
  2
*PAPER_SPACE
 70
     0
 10
0.0
 20
0.0
 30
0.0
  3
*PAPER_SPACE
  1

  0
ENDBLK
  5
7488
330
747A
100
AcDbEntity
 67
     1
  8
0
100
AcDbBlockEnd
  0
BLOCK
  5
F771
330
F770
100
AcDbEntity
  8
0
 48
50.0
100
AcDbBlockBegin
  2
_DOTSMALL
 70
     0
 10
0.0
 20
0.0
 30
0.0
  3
_DOTSMALL
  1

  0
LWPOLYLINE
  5
F772
330
F770
100
AcDbEntity
  8
0
  6
ByBlock
 62
     0
 48
50.0
100
AcDbPolyline
 90
        2
 70
     1
 43
0.5
 10
-0.0625
 20
0.0
 42
1.0
 10
0.0625
 20
0.0
 42
1.0
  0
ENDBLK
  5
F776
330
F770
100
AcDbEntity
  8
0
 48
50.0
100
AcDbBlockEnd
  0
BLOCK
  5
154AB
330
1537F
100
AcDbEntity
  8
0
 48
50.0
100
AcDbBlockBegin
  2
*D1
 70
     1
 10
0.0
 20
0.0
 30
0.0
  3
*D1
  1

  0
LINE
  5
16338
330
1537F
100
AcDbEntity
  8
寸法
 62
     0
 48
50.0
370
    -2
100
AcDbLine
 10
5012.843210305117
 20
8336.365915108356
 30
0.0
 11
5012.843210305117
 21
7309.264040248283
 31
0.0
  0
LINE
  5
16339
330
1537F
100
AcDbEntity
  8
寸法
 62
     0
 48
50.0
370
    -2
100
AcDbLine
 10
7862.843210305098
 20
8336.365915108487
 30
0.0
 11
7862.843210305098
 21
7309.264040248283
 31
0.0
  0
LINE
  5
1633A
330
1537F
100
AcDbEntity
  8
寸法
 62
     0
 48
50.0
370
    -2
100
AcDbLine
 10
5012.843210305117
 20
7369.264040248284
 30
0.0
 11
7862.843210305098
 21
7369.264040248284
 31
0.0
  0
INSERT
  5
1633B
330
1537F
100
AcDbEntity
  8
寸法
 62
     0
 48
50.0
370
    -2
100
AcDbBlockReference
  2
_DOTSMALL
 10
5012.843210305117
 20
7369.264040248284
 30
0.0
 41
100.0
 42
100.0
 43
100.0
 50
180.0
  0
INSERT
  5
1633C
330
1537F
100
AcDbEntity
  8
寸法
 62
     0
 48
50.0
370
    -2
100
AcDbBlockReference
  2
_DOTSMALL
 10
7862.843210305098
 20
7369.264040248284
 30
0.0
 41
100.0
 42
100.0
 43
100.0
  0
MTEXT
  5
1633D
330
1537F
100
AcDbEntity
  8
寸法
 62
     7
 48
50.0
100
AcDbMText
 10
6372.843210305108
 20
7469.275851271905
 30
0.0
 40
120.0
 41
0.0
 71
     5
 72
     1
  1
\A1;2850
  7
STYLE1
 73
     1
 44
1.0
1001
ACAD
1000
MTEXTBEGIN
1070
    73
1070
     1
1070
    44
1040
1.0
1070
    74
1070
     0
1000
MTEXTEND
  0
POINT
  5
1633E
330
1537F
100
AcDbEntity
  8
DEFPOINTS
 62
     0
 48
50.0
100
AcDbPoint
 10
5012.843210305117
 20
8356.365915108355
 30
0.0
  0
POINT
  5
1633F
330
1537F
100
AcDbEntity
  8
DEFPOINTS
 62
     0
 48
50.0
100
AcDbPoint
 10
7862.843210305098
 20
8356.365915108487
 30
0.0
  0
POINT
  5
16340
330
1537F
100
AcDbEntity
  8
DEFPOINTS
 62
     0
 48
50.0
100
AcDbPoint
 10
7862.843210305098
 20
7369.264040248284
 30
0.0
  0
ENDBLK
  5
154B5
330
1537F
100
AcDbEntity
  8
0
 48
50.0
100
AcDbBlockEnd
  0
BLOCK
  5
154CC
330
153A3
100
AcDbEntity
  8
0
 48
50.0
100
AcDbBlockBegin
  2
*D2
 70
     1
 10
0.0
 20
0.0
 30
0.0
  3
*D2
  1

  0
LINE
  5
1632F
330
153A3
100
AcDbEntity
  8
寸法
 62
     0
 48
50.0
370
    -2
100
AcDbLine
 10
6017.843210305123
 20
9326.365915108466
 30
0.0
 11
6017.843210305123
 21
9582.174134733532
 31
0.0
  0
LINE
  5
16330
330
153A3
100
AcDbEntity
  8
寸法
 62
     0
 48
50.0
370
    -2
100
AcDbLine
 10
6857.843210305121
 20
9326.365915108551
 30
0.0
 11
6857.843210305121
 21
9582.174134733532
 31
0.0
  0
LINE
  5
16331
330
153A3
100
AcDbEntity
  8
寸法
 62
     0
 48
50.0
370
    -2
100
AcDbLine
 10
6017.843210305123
 20
9522.174134733534
 30
0.0
 11
6857.843210305121
 21
9522.174134733534
 31
0.0
  0
INSERT
  5
16332
330
153A3
100
AcDbEntity
  8
寸法
 62
     0
 48
50.0
370
    -2
100
AcDbBlockReference
  2
_DOTSMALL
 10
6017.843210305123
 20
9522.174134733534
 30
0.0
 41
100.0
 42
100.0
 43
100.0
 50
180.0
  0
INSERT
  5
16333
330
153A3
100
AcDbEntity
  8
寸法
 62
     0
 48
50.0
370
    -2
100
AcDbBlockReference
  2
_DOTSMALL
 10
6857.843210305121
 20
9522.174134733534
 30
0.0
 41
100.0
 42
100.0
 43
100.0
  0
MTEXT
  5
16334
330
153A3
100
AcDbEntity
  8
寸法
 62
     7
 48
50.0
100
AcDbMText
 10
6437.843210305122
 20
9622.185945757156
 30
0.0
 40
120.0
 41
0.0
 71
     5
 72
     1
  1
\A1;2X420=840
  7
STYLE1
 73
     1
 44
1.0
1001
ACAD
1000
MTEXTBEGIN
1070
    73
1070
     1
1070
    44
1040
1.0
1070
    74
1070
     0
1000
MTEXTEND
  0
POINT
  5
16335
330
153A3
100
AcDbEntity
  8
DEFPOINTS
 62
     0
 48
50.0
100
AcDbPoint
 10
6017.843210305123
 20
9306.365915108465
 30
0.0
  0
POINT
  5
16336
330
153A3
100
AcDbEntity
  8
DEFPOINTS
 62
     0
 48
50.0
100
AcDbPoint
 10
6857.843210305121
 20
9306.365915108552
 30
0.0
  0
POINT
  5
16337
330
153A3
100
AcDbEntity
  8
DEFPOINTS
 62
     0
 48
50.0
100
AcDbPoint
 10
6857.843210305121
 20
9522.174134733534
 30
0.0
  0
ENDBLK
  5
154D6
330
153A3
100
AcDbEntity
  8
0
 48
50.0
100
AcDbBlockEnd
  0
BLOCK
  5
154D7
330
153AF
100
AcDbEntity
  8
0
 48
50.0
100
AcDbBlockBegin
  2
*D3
 70
     1
 10
0.0
 20
0.0
 30
0.0
  3
*D3
  1

  0
LINE
  5
16326
330
153AF
100
AcDbEntity
  8
寸法
 62
     0
 48
50.0
370
    -2
100
AcDbLine
 10
5907.843210305122
 20
9326.365915108551
 30
0.0
 11
5907.843210305122
 21
9582.174134733532
 31
0.0
  0
LINE
  5
16327
330
153AF
100
AcDbEntity
  8
寸法
 62
     0
 48
50.0
370
    -2
100
AcDbLine
 10
6017.843210305126
 20
9326.36591510853
 30
0.0
 11
6017.843210305126
 21
9582.174134733532
 31
0.0
  0
LINE
  5
16328
330
153AF
100
AcDbEntity
  8
寸法
 62
     0
 48
50.0
370
    -2
100
AcDbLine
 10
5907.843210305122
 20
9522.174134733534
 30
0.0
 11
6017.843210305126
 21
9522.174134733534
 31
0.0
  0
MTEXT
  5
16329
330
153AF
100
AcDbEntity
  8
寸法
 62
     7
 48
50.0
100
AcDbMText
 10
5962.843210305123
 20
9779.050803348036
 30
0.0
 40
120.0
 41
0.0
 71
     5
 72
     1
  1
\A1;110
  7
STYLE1
 73
     1
 44
1.0
1001
ACAD
1000
MTEXTBEGIN
1070
    73
1070
     1
1070
    44
1040
1.0
1070
    74
1070
     0
1000
MTEXTEND
  0
INSERT
  5
1632A
330
153AF
100
AcDbEntity
  8
寸法
 62
     0
 48
50.0
370
    -2
100
AcDbBlockReference
  2
_DOTSMALL
 10
5907.843210305122
 20
9522.174134733534
 30
0.0
 41
100.0
 42
100.0
 43
100.0
 50
180.0
  0
INSERT
  5
1632B
330
153AF
100
AcDbEntity
  8
寸法
 62
     0
 48
50.0
370
    -2
100
AcDbBlockReference
  2
_DOTSMALL
 10
6017.843210305126
 20
9522.174134733534
 30
0.0
 41
100.0
 42
100.0
 43
100.0
  0
POINT
  5
1632C
330
153AF
100
AcDbEntity
  8
DEFPOINTS
 62
     0
 48
50.0
100
AcDbPoint
 10
5907.843210305122
 20
9306.365915108552
 30
0.0
  0
POINT
  5
1632D
330
153AF
100
AcDbEntity
  8
DEFPOINTS
 62
     0
 48
50.0
100
AcDbPoint
 10
6017.843210305126
 20
9306.36591510853
 30
0.0
  0
POINT
  5
1632E
330
153AF
100
AcDbEntity
  8
DEFPOINTS
 62
     0
 48
50.0
100
AcDbPoint
 10
6017.843210305126
 20
9522.174134733534
 30
0.0
  0
ENDBLK
  5
154E1
330
153AF
100
AcDbEntity
  8
0
 48
50.0
100
AcDbBlockEnd
  0
BLOCK
  5
154E2
330
153BB
100
AcDbEntity
  8
0
 48
50.0
100
AcDbBlockBegin
  2
*D4
 70
     1
 10
0.0
 20
0.0
 30
0.0
  3
*D4
  1

  0
LINE
  5
1631D
330
153BB
100
AcDbEntity
  8
寸法
 62
     0
 48
50.0
370
    -2
100
AcDbLine
 10
6967.843210305121
 20
8336.365915108428
 30
0.0
 11
6967.843210305121
 21
7856.542247313351
 31
0.0
  0
LINE
  5
1631E
330
153BB
100
AcDbEntity
  8
寸法
 62
     0
 48
50.0
370
    -2
100
AcDbLine
 10
7652.843210305116
 20
8336.365915108393
 30
0.0
 11
7652.843210305116
 21
7856.542247313351
 31
0.0
  0
LINE
  5
1631F
330
153BB
100
AcDbEntity
  8
寸法
 62
     0
 48
50.0
370
    -2
100
AcDbLine
 10
6967.843210305121
 20
7916.542247313351
 30
0.0
 11
7652.843210305116
 21
7916.542247313351
 31
0.0
  0
INSERT
  5
16320
330
153BB
100
AcDbEntity
  8
寸法
 62
     0
 48
50.0
370
    -2
100
AcDbBlockReference
  2
_DOTSMALL
 10
6967.843210305121
 20
7916.542247313351
 30
0.0
 41
100.0
 42
100.0
 43
100.0
 50
180.0
  0
INSERT
  5
16321
330
153BB
100
AcDbEntity
  8
寸法
 62
     0
 48
50.0
370
    -2
100
AcDbBlockReference
  2
_DOTSMALL
 10
7652.843210305116
 20
7916.542247313351
 30
0.0
 41
100.0
 42
100.0
 43
100.0
  0
MTEXT
  5
16322
330
153BB
100
AcDbEntity
  8
寸法
 62
     7
 48
50.0
100
AcDbMText
 10
7310.343210305119
 20
8116.542247313352
 30
0.0
 40
120.0
 41
0.0
 71
     5
 72
     1
  1
\A1;有効開口部間口\P685
  7
STYLE1
 73
     1
 44
1.0
1001
ACAD
1000
MTEXTBEGIN
1070
    73
1070
     1
1070
    44
1040
1.0
1070
    74
1070
     0
1000
MTEXTEND
  0
POINT
  5
16323
330
153BB
100
AcDbEntity
  8
DEFPOINTS
 62
     0
 48
50.0
100
AcDbPoint
 10
6967.843210305121
 20
8356.365915108428
 30
0.0
  0
POINT
  5
16324
330
153BB
100
AcDbEntity
  8
DEFPOINTS
 62
     0
 48
50.0
100
AcDbPoint
 10
7652.843210305116
 20
8356.365915108392
 30
0.0
  0
POINT
  5
16325
330
153BB
100
AcDbEntity
  8
DEFPOINTS
 62
     0
 48
50.0
100
AcDbPoint
 10
7652.843210305116
 20
7916.542247313351
 30
0.0
  0
ENDBLK
  5
154EC
330
153BB
100
AcDbEntity
  8
0
 48
50.0
100
AcDbBlockEnd
  0
BLOCK
  5
154ED
330
153C7
100
AcDbEntity
  8
0
 48
50.0
100
AcDbBlockBegin
  2
*D5
 70
     1
 10
0.0
 20
0.0
 30
0.0
  3
*D5
  1

  0
LINE
  5
16312
330
153C7
100
AcDbEntity
  8
寸法
 62
     0
 48
50.0
370
    -2
100
AcDbLine
 10
5012.843210305089
 20
9326.365915108436
 30
0.0
 11
5012.843210305089
 21
9582.174134733419
 31
0.0
  0
LINE
  5
16313
330
153C7
100
AcDbEntity
  8
寸法
 62
     0
 48
50.0
370
    -2
100
AcDbLine
 10
5067.843210305123
 20
9326.365915108436
 30
0.0
 11
5067.843210305123
 21
9582.174134733419
 31
0.0
  0
LINE
  5
16314
330
153C7
100
AcDbEntity
  8
寸法
 62
     0
 48
50.0
370
    -2
100
AcDbLine
 10
5067.843210305123
 20
9522.174134733417
 30
0.0
 11
5167.843210305123
 21
9522.174134733417
 31
0.0
  0
LINE
  5
16315
330
153C7
100
AcDbEntity
  8
寸法
 62
     0
 48
50.0
370
    -2
100
AcDbLine
 10
5012.843210305089
 20
9522.174134733417
 30
0.0
 11
4595.87264755661
 21
9522.174134733417
 31
0.0
  0
LINE
  5
16316
330
153C7
100
AcDbEntity
  8
寸法
 62
     0
 48
50.0
370
    -2
100
AcDbLine
 10
5067.843210305123
 20
9522.174134733417
 30
0.0
 11
5012.843210305089
 21
9522.174134733417
 31
0.0
  0
INSERT
  5
16317
330
153C7
100
AcDbEntity
  8
寸法
 62
     0
 48
50.0
370
    -2
100
AcDbBlockReference
  2
_DOTSMALL
 10
5067.843210305123
 20
9522.174134733417
 30
0.0
 41
100.0
 42
100.0
 43
100.0
 50
180.0
  0
INSERT
  5
16318
330
153C7
100
AcDbEntity
  8
寸法
 62
     0
 48
50.0
370
    -2
100
AcDbBlockReference
  2
_DOTSMALL
 10
5012.843210305089
 20
9522.174134733417
 30
0.0
 41
100.0
 42
100.0
 43
100.0
  0
MTEXT
  5
16319
330
153C7
100
AcDbEntity
  8
寸法
 62
     7
 48
50.0
100
AcDbMText
 10
4704.357928930849
 20
9622.174134733418
 30
0.0
 40
120.0
 41
0.0
 71
     5
 72
     1
  1
\A1;55
  7
STYLE1
 73
     1
 44
1.0
1001
ACAD
1000
MTEXTBEGIN
1070
    73
1070
     1
1070
    44
1040
1.0
1070
    74
1070
     0
1000
MTEXTEND
  0
POINT
  5
1631A
330
153C7
100
AcDbEntity
  8
DEFPOINTS
 62
     0
 48
50.0
100
AcDbPoint
 10
5012.843210305089
 20
9306.365915108436
 30
0.0
  0
POINT
  5
1631B
330
153C7
100
AcDbEntity
  8
DEFPOINTS
 62
     0
 48
50.0
100
AcDbPoint
 10
5067.843210305123
 20
9306.365915108436
 30
0.0
  0
POINT
  5
1631C
330
153C7
100
AcDbEntity
  8
DEFPOINTS
 62
     0
 48
50.0
100
AcDbPoint
 10
5067.843210305123
 20
9522.174134733417
 30
0.0
  0
ENDBLK
  5
154F9
330
153C7
100
AcDbEntity
  8
0
 48
50.0
100
AcDbBlockEnd
  0
BLOCK
  5
15505
330
153E1
100
AcDbEntity
  8
0
 48
50.0
100
AcDbBlockBegin
  2
*D6
 70
     1
 10
0.0
 20
0.0
 30
0.0
  3
*D6
  1

  0
LINE
  5
16309
330
153E1
100
AcDbEntity
  8
寸法
 62
     0
 48
50.0
370
    -2
100
AcDbLine
 10
5067.843210305123
 20
9326.365915108466
 30
0.0
 11
5067.843210305123
 21
9582.174134733532
 31
0.0
  0
LINE
  5
1630A
330
153E1
100
AcDbEntity
  8
寸法
 62
     0
 48
50.0
370
    -2
100
AcDbLine
 10
5907.843210305122
 20
9326.365915108551
 30
0.0
 11
5907.843210305122
 21
9582.174134733532
 31
0.0
  0
LINE
  5
1630B
330
153E1
100
AcDbEntity
  8
寸法
 62
     0
 48
50.0
370
    -2
100
AcDbLine
 10
5067.843210305123
 20
9522.174134733534
 30
0.0
 11
5907.843210305122
 21
9522.174134733534
 31
0.0
  0
INSERT
  5
1630C
330
153E1
100
AcDbEntity
  8
寸法
 62
     0
 48
50.0
370
    -2
100
AcDbBlockReference
  2
_DOTSMALL
 10
5067.843210305123
 20
9522.174134733534
 30
0.0
 41
100.0
 42
100.0
 43
100.0
 50
180.0
  0
INSERT
  5
1630D
330
153E1
100
AcDbEntity
  8
寸法
 62
     0
 48
50.0
370
    -2
100
AcDbBlockReference
  2
_DOTSMALL
 10
5907.843210305122
 20
9522.174134733534
 30
0.0
 41
100.0
 42
100.0
 43
100.0
  0
MTEXT
  5
1630E
330
153E1
100
AcDbEntity
  8
寸法
 62
     7
 48
50.0
100
AcDbMText
 10
5487.843210305122
 20
9622.185945757156
 30
0.0
 40
120.0
 41
0.0
 71
     5
 72
     1
  1
\A1;2X420=840
  7
STYLE1
 73
     1
 44
1.0
1001
ACAD
1000
MTEXTBEGIN
1070
    73
1070
     1
1070
    44
1040
1.0
1070
    74
1070
     0
1000
MTEXTEND
  0
POINT
  5
1630F
330
153E1
100
AcDbEntity
  8
DEFPOINTS
 62
     0
 48
50.0
100
AcDbPoint
 10
5067.843210305123
 20
9306.365915108465
 30
0.0
  0
POINT
  5
16310
330
153E1
100
AcDbEntity
  8
DEFPOINTS
 62
     0
 48
50.0
100
AcDbPoint
 10
5907.843210305122
 20
9306.365915108552
 30
0.0
  0
POINT
  5
16311
330
153E1
100
AcDbEntity
  8
DEFPOINTS
 62
     0
 48
50.0
100
AcDbPoint
 10
5907.843210305122
 20
9522.174134733534
 30
0.0
  0
ENDBLK
  5
1550F
330
153E1
100
AcDbEntity
  8
0
 48
50.0
100
AcDbBlockEnd
  0
BLOCK
  5
15510
330
153ED
100
AcDbEntity
  8
0
 48
50.0
100
AcDbBlockBegin
  2
*D7
 70
     1
 10
0.0
 20
0.0
 30
0.0
  3
*D7
  1

  0
LINE
  5
16300
330
153ED
100
AcDbEntity
  8
寸法
 62
     0
 48
50.0
370
    -2
100
AcDbLine
 10
6857.843210305121
 20
9326.365915108551
 30
0.0
 11
6857.843210305121
 21
9582.174134733532
 31
0.0
  0
LINE
  5
16301
330
153ED
100
AcDbEntity
  8
寸法
 62
     0
 48
50.0
370
    -2
100
AcDbLine
 10
6967.843210305125
 20
9326.36591510853
 30
0.0
 11
6967.843210305125
 21
9582.174134733532
 31
0.0
  0
LINE
  5
16302
330
153ED
100
AcDbEntity
  8
寸法
 62
     0
 48
50.0
370
    -2
100
AcDbLine
 10
6857.843210305121
 20
9522.174134733534
 30
0.0
 11
6967.843210305125
 21
9522.174134733534
 31
0.0
  0
MTEXT
  5
16303
330
153ED
100
AcDbEntity
  8
寸法
 62
     7
 48
50.0
100
AcDbMText
 10
6912.843210305124
 20
9779.050803348036
 30
0.0
 40
120.0
 41
0.0
 71
     5
 72
     1
  1
\A1;110
  7
STYLE1
 73
     1
 44
1.0
1001
ACAD
1000
MTEXTBEGIN
1070
    73
1070
     1
1070
    44
1040
1.0
1070
    74
1070
     0
1000
MTEXTEND
  0
INSERT
  5
16304
330
153ED
100
AcDbEntity
  8
寸法
 62
     0
 48
50.0
370
    -2
100
AcDbBlockReference
  2
_DOTSMALL
 10
6857.843210305121
 20
9522.174134733534
 30
0.0
 41
100.0
 42
100.0
 43
100.0
 50
180.0
  0
INSERT
  5
16305
330
153ED
100
AcDbEntity
  8
寸法
 62
     0
 48
50.0
370
    -2
100
AcDbBlockReference
  2
_DOTSMALL
 10
6967.843210305125
 20
9522.174134733534
 30
0.0
 41
100.0
 42
100.0
 43
100.0
  0
POINT
  5
16306
330
153ED
100
AcDbEntity
  8
DEFPOINTS
 62
     0
 48
50.0
100
AcDbPoint
 10
6857.843210305121
 20
9306.365915108552
 30
0.0
  0
POINT
  5
16307
330
153ED
100
AcDbEntity
  8
DEFPOINTS
 62
     0
 48
50.0
100
AcDbPoint
 10
6967.843210305125
 20
9306.36591510853
 30
0.0
  0
POINT
  5
16308
330
153ED
100
AcDbEntity
  8
DEFPOINTS
 62
     0
 48
50.0
100
AcDbPoint
 10
6967.843210305125
 20
9522.174134733534
 30
0.0
  0
ENDBLK
  5
1551A
330
153ED
100
AcDbEntity
  8
0
 48
50.0
100
AcDbBlockEnd
  0
BLOCK
  5
1551B
330
153F9
100
AcDbEntity
  8
0
 48
50.0
100
AcDbBlockBegin
  2
*D8
 70
     1
 10
0.0
 20
0.0
 30
0.0
  3
*D8
  1

  0
LINE
  5
162F5
330
153F9
100
AcDbEntity
  8
寸法
 62
     0
 48
50.0
370
    -2
100
AcDbLine
 10
7882.843210305124
 20
9306.36591510853
 30
0.0
 11
8570.269556039535
 21
9306.36591510853
 31
0.0
  0
LINE
  5
162F6
330
153F9
100
AcDbEntity
  8
寸法
 62
     0
 48
50.0
370
    -2
100
AcDbLine
 10
7882.843210305124
 20
9251.365915108531
 30
0.0
 11
8570.269556039535
 21
9251.365915108531
 31
0.0
  0
LINE
  5
162F7
330
153F9
100
AcDbEntity
  8
寸法
 62
     0
 48
50.0
370
    -2
100
AcDbLine
 10
8510.269556039535
 20
9251.365915108531
 30
0.0
 11
8510.269556039535
 21
9151.365915108531
 31
0.0
  0
LINE
  5
162F8
330
153F9
100
AcDbEntity
  8
寸法
 62
     0
 48
50.0
370
    -2
100
AcDbLine
 10
8510.269556039535
 20
9306.36591510853
 30
0.0
 11
8510.269556039535
 21
9723.336477857007
 31
0.0
  0
LINE
  5
162F9
330
153F9
100
AcDbEntity
  8
寸法
 62
     0
 48
50.0
370
    -2
100
AcDbLine
 10
8510.269556039535
 20
9251.365915108531
 30
0.0
 11
8510.269556039535
 21
9306.36591510853
 31
0.0
  0
INSERT
  5
162FA
330
153F9
100
AcDbEntity
  8
寸法
 62
     0
 48
50.0
370
    -2
100
AcDbBlockReference
  2
_DOTSMALL
 10
8510.269556039535
 20
9251.365915108531
 30
0.0
 41
100.0
 42
100.0
 43
100.0
 50
90.0
  0
INSERT
  5
162FB
330
153F9
100
AcDbEntity
  8
寸法
 62
     0
 48
50.0
370
    -2
100
AcDbBlockReference
  2
_DOTSMALL
 10
8510.269556039535
 20
9306.36591510853
 30
0.0
 41
100.0
 42
100.0
 43
100.0
 50
270.0
  0
MTEXT
  5
162FC
330
153F9
100
AcDbEntity
  8
寸法
 62
     7
 48
50.0
100
AcDbMText
 10
8410.269556039533
 20
9614.851196482771
 30
0.0
 40
120.0
 41
0.0
 71
     5
 72
     1
  1
\A1;55
  7
STYLE1
 11
0.0000000000000001
 21
1.0
 31
0.0
 73
     1
 44
1.0
1001
ACAD
1000
MTEXTBEGIN
1070
    73
1070
     1
1070
    44
1040
1.0
1070
    74
1070
     0
1000
MTEXTEND
  0
POINT
  5
162FD
330
153F9
100
AcDbEntity
  8
DEFPOINTS
 62
     0
 48
50.0
100
AcDbPoint
 10
7862.843210305124
 20
9306.36591510853
 30
0.0
  0
POINT
  5
162FE
330
153F9
100
AcDbEntity
  8
DEFPOINTS
 62
     0
 48
50.0
100
AcDbPoint
 10
7862.843210305124
 20
9251.365915108531
 30
0.0
  0
POINT
  5
162FF
330
153F9
100
AcDbEntity
  8
DEFPOINTS
 62
     0
 48
50.0
100
AcDbPoint
 10
8510.269556039535
 20
9251.365915108531
 30
0.0
  0
ENDBLK
  5
15527
330
153F9
100
AcDbEntity
  8
0
 48
50.0
100
AcDbBlockEnd
  0
BLOCK
  5
15528
330
15407
100
AcDbEntity
  8
0
 48
50.0
100
AcDbBlockBegin
  2
*D9
 70
     1
 10
0.0
 20
0.0
 30
0.0
  3
*D9
  1

  0
LINE
  5
162EC
330
15407
100
AcDbEntity
  8
寸法
 62
     0
 48
50.0
370
    -2
100
AcDbLine
 10
7882.843210305124
 20
9306.36591510853
 30
0.0
 11
8879.381086855211
 21
9306.36591510853
 31
0.0
  0
LINE
  5
162ED
330
15407
100
AcDbEntity
  8
寸法
 62
     0
 48
50.0
370
    -2
100
AcDbLine
 10
7882.843210305098
 20
8356.365915108517
 30
0.0
 11
8879.381086855211
 21
8356.365915108517
 31
0.0
  0
LINE
  5
162EE
330
15407
100
AcDbEntity
  8
寸法
 62
     0
 48
50.0
370
    -2
100
AcDbLine
 10
8819.381086855212
 20
9306.36591510853
 30
0.0
 11
8819.381086855212
 21
8356.365915108517
 31
0.0
  0
INSERT
  5
162EF
330
15407
100
AcDbEntity
  8
寸法
 62
     0
 48
50.0
370
    -2
100
AcDbBlockReference
  2
_DOTSMALL
 10
8819.381086855212
 20
9306.36591510853
 30
0.0
 41
100.0
 42
100.0
 43
100.0
 50
90.0
  0
INSERT
  5
162F0
330
15407
100
AcDbEntity
  8
寸法
 62
     0
 48
50.0
370
    -2
100
AcDbBlockReference
  2
_DOTSMALL
 10
8819.381086855212
 20
8356.365915108517
 30
0.0
 41
100.0
 42
100.0
 43
100.0
 50
270.0
  0
MTEXT
  5
162F1
330
15407
100
AcDbEntity
  8
寸法
 62
     7
 48
50.0
100
AcDbMText
 10
8719.381086855211
 20
8830.343633667435
 30
0.0
 40
120.0
 41
0.0
 71
     5
 72
     1
  1
\A1;950
  7
STYLE1
 11
0.0000000000000001
 21
1.0
 31
0.0
 73
     1
 44
1.0
1001
ACAD
1000
MTEXTBEGIN
1070
    73
1070
     1
1070
    44
1040
1.0
1070
    74
1070
     0
1000
MTEXTEND
  0
POINT
  5
162F2
330
15407
100
AcDbEntity
  8
DEFPOINTS
 62
     0
 48
50.0
100
AcDbPoint
 10
7862.843210305124
 20
9306.36591510853
 30
0.0
  0
POINT
  5
162F3
330
15407
100
AcDbEntity
  8
DEFPOINTS
 62
     0
 48
50.0
100
AcDbPoint
 10
7862.843210305098
 20
8356.365915108517
 30
0.0
  0
POINT
  5
162F4
330
15407
100
AcDbEntity
  8
DEFPOINTS
 62
     0
 48
50.0
100
AcDbPoint
 10
8819.381086855212
 20
8356.365915108517
 30
0.0
  0
ENDBLK
  5
15532
330
15407
100
AcDbEntity
  8
0
 48
50.0
100
AcDbBlockEnd
  0
BLOCK
  5
15533
330
15413
100
AcDbEntity
  8
0
 48
50.0
100
AcDbBlockBegin
  2
*D10
 70
     1
 10
0.0
 20
0.0
 30
0.0
  3
*D10
  1

  0
LINE
  5
162E1
330
15413
100
AcDbEntity
  8
寸法
 62
     0
 48
50.0
370
    -2
100
AcDbLine
 10
7882.843210305098
 20
8411.365915108516
 30
0.0
 11
8570.269556039511
 21
8411.365915108516
 31
0.0
  0
LINE
  5
162E2
330
15413
100
AcDbEntity
  8
寸法
 62
     0
 48
50.0
370
    -2
100
AcDbLine
 10
7882.843210305098
 20
8356.365915108517
 30
0.0
 11
8570.269556039511
 21
8356.365915108517
 31
0.0
  0
LINE
  5
162E3
330
15413
100
AcDbEntity
  8
寸法
 62
     0
 48
50.0
370
    -2
100
AcDbLine
 10
8510.269556039508
 20
8411.365915108516
 30
0.0
 11
8510.269556039508
 21
8511.365915108516
 31
0.0
  0
LINE
  5
162E4
330
15413
100
AcDbEntity
  8
寸法
 62
     0
 48
50.0
370
    -2
100
AcDbLine
 10
8510.269556039508
 20
8356.365915108517
 30
0.0
 11
8510.269556039508
 21
7870.019166829418
 31
0.0
  0
LINE
  5
162E5
330
15413
100
AcDbEntity
  8
寸法
 62
     0
 48
50.0
370
    -2
100
AcDbLine
 10
8510.269556039508
 20
8411.365915108516
 30
0.0
 11
8510.269556039508
 21
8356.365915108517
 31
0.0
  0
INSERT
  5
162E6
330
15413
100
AcDbEntity
  8
寸法
 62
     0
 48
50.0
370
    -2
100
AcDbBlockReference
  2
_DOTSMALL
 10
8510.269556039508
 20
8411.365915108516
 30
0.0
 41
100.0
 42
100.0
 43
100.0
 50
270.0
  0
INSERT
  5
162E7
330
15413
100
AcDbEntity
  8
寸法
 62
     0
 48
50.0
370
    -2
100
AcDbBlockReference
  2
_DOTSMALL
 10
8510.269556039508
 20
8356.365915108517
 30
0.0
 41
100.0
 42
100.0
 43
100.0
 50
90.0
  0
MTEXT
  5
162E8
330
15413
100
AcDbEntity
  8
寸法
 62
     7
 48
50.0
100
AcDbMText
 10
8410.269556039507
 20
7978.504448203658
 30
0.0
 40
120.0
 41
0.0
 71
     5
 72
     1
  1
\A1;55
  7
STYLE1
 11
0.0000000000000001
 21
1.0
 31
0.0
 73
     1
 44
1.0
1001
ACAD
1000
MTEXTBEGIN
1070
    73
1070
     1
1070
    44
1040
1.0
1070
    74
1070
     0
1000
MTEXTEND
  0
POINT
  5
162E9
330
15413
100
AcDbEntity
  8
DEFPOINTS
 62
     0
 48
50.0
100
AcDbPoint
 10
7862.843210305098
 20
8411.365915108516
 30
0.0
  0
POINT
  5
162EA
330
15413
100
AcDbEntity
  8
DEFPOINTS
 62
     0
 48
50.0
100
AcDbPoint
 10
7862.843210305098
 20
8356.365915108517
 30
0.0
  0
POINT
  5
162EB
330
15413
100
AcDbEntity
  8
DEFPOINTS
 62
     0
 48
50.0
100
AcDbPoint
 10
8510.269556039508
 20
8356.365915108517
 30
0.0
  0
ENDBLK
  5
1553F
330
15413
100
AcDbEntity
  8
0
 48
50.0
100
AcDbBlockEnd
  0
BLOCK
  5
15556
330
15439
100
AcDbEntity
  8
0
 48
50.0
100
AcDbBlockBegin
  2
*D11
 70
     1
 10
0.0
 20
0.0
 30
0.0
  3
*D11
  1

  0
LINE
  5
162D8
330
15439
100
AcDbEntity
  8
寸法
 62
     0
 48
50.0
370
    -2
100
AcDbLine
 10
6967.843210305123
 20
9326.365915108466
 30
0.0
 11
6967.843210305123
 21
9582.174134733532
 31
0.0
  0
LINE
  5
162D9
330
15439
100
AcDbEntity
  8
寸法
 62
     0
 48
50.0
370
    -2
100
AcDbLine
 10
7807.843210305121
 20
9326.365915108551
 30
0.0
 11
7807.843210305121
 21
9582.174134733532
 31
0.0
  0
LINE
  5
162DA
330
15439
100
AcDbEntity
  8
寸法
 62
     0
 48
50.0
370
    -2
100
AcDbLine
 10
6967.843210305123
 20
9522.174134733534
 30
0.0
 11
7807.843210305121
 21
9522.174134733534
 31
0.0
  0
INSERT
  5
162DB
330
15439
100
AcDbEntity
  8
寸法
 62
     0
 48
50.0
370
    -2
100
AcDbBlockReference
  2
_DOTSMALL
 10
6967.843210305123
 20
9522.174134733534
 30
0.0
 41
100.0
 42
100.0
 43
100.0
 50
180.0
  0
INSERT
  5
162DC
330
15439
100
AcDbEntity
  8
寸法
 62
     0
 48
50.0
370
    -2
100
AcDbBlockReference
  2
_DOTSMALL
 10
7807.843210305121
 20
9522.174134733534
 30
0.0
 41
100.0
 42
100.0
 43
100.0
  0
MTEXT
  5
162DD
330
15439
100
AcDbEntity
  8
寸法
 62
     7
 48
50.0
100
AcDbMText
 10
7387.843210305122
 20
9622.185945757156
 30
0.0
 40
120.0
 41
0.0
 71
     5
 72
     1
  1
\A1;2X420=840
  7
STYLE1
 73
     1
 44
1.0
1001
ACAD
1000
MTEXTBEGIN
1070
    73
1070
     1
1070
    44
1040
1.0
1070
    74
1070
     0
1000
MTEXTEND
  0
POINT
  5
162DE
330
15439
100
AcDbEntity
  8
DEFPOINTS
 62
     0
 48
50.0
100
AcDbPoint
 10
6967.843210305123
 20
9306.365915108465
 30
0.0
  0
POINT
  5
162DF
330
15439
100
AcDbEntity
  8
DEFPOINTS
 62
     0
 48
50.0
100
AcDbPoint
 10
7807.843210305121
 20
9306.365915108552
 30
0.0
  0
POINT
  5
162E0
330
15439
100
AcDbEntity
  8
DEFPOINTS
 62
     0
 48
50.0
100
AcDbPoint
 10
7807.843210305121
 20
9522.174134733534
 30
0.0
  0
ENDBLK
  5
15560
330
15439
100
AcDbEntity
  8
0
 48
50.0
100
AcDbBlockEnd
  0
BLOCK
  5
15561
330
15445
100
AcDbEntity
  8
0
 48
50.0
100
AcDbBlockBegin
  2
*D12
 70
     1
 10
0.0
 20
0.0
 30
0.0
  3
*D12
  1

  0
LINE
  5
162CF
330
15445
100
AcDbEntity
  8
寸法
 62
     0
 48
50.0
370
    -2
100
AcDbLine
 10
7882.843210305124
 20
9251.365915108531
 30
0.0
 11
8570.269556039535
 21
9251.365915108531
 31
0.0
  0
LINE
  5
162D0
330
15445
100
AcDbEntity
  8
寸法
 62
     0
 48
50.0
370
    -2
100
AcDbLine
 10
7882.843210305098
 20
8411.365915108516
 30
0.0
 11
8570.269556039535
 21
8411.365915108516
 31
0.0
  0
LINE
  5
162D1
330
15445
100
AcDbEntity
  8
寸法
 62
     0
 48
50.0
370
    -2
100
AcDbLine
 10
8510.269556039535
 20
9251.365915108531
 30
0.0
 11
8510.269556039535
 21
8411.365915108516
 31
0.0
  0
INSERT
  5
162D2
330
15445
100
AcDbEntity
  8
寸法
 62
     0
 48
50.0
370
    -2
100
AcDbBlockReference
  2
_DOTSMALL
 10
8510.269556039535
 20
9251.365915108531
 30
0.0
 41
100.0
 42
100.0
 43
100.0
 50
90.0
  0
INSERT
  5
162D3
330
15445
100
AcDbEntity
  8
寸法
 62
     0
 48
50.0
370
    -2
100
AcDbBlockReference
  2
_DOTSMALL
 10
8510.269556039535
 20
8411.365915108516
 30
0.0
 41
100.0
 42
100.0
 43
100.0
 50
270.0
  0
MTEXT
  5
162D4
330
15445
100
AcDbEntity
  8
寸法
 62
     7
 48
50.0
100
AcDbMText
 10
8410.257745015911
 20
8831.365915108525
 30
0.0
 40
120.0
 41
0.0
 71
     5
 72
     1
  1
\A1;2X420=840
  7
STYLE1
 11
0.0000000000000001
 21
1.0
 31
0.0
 73
     1
 44
1.0
1001
ACAD
1000
MTEXTBEGIN
1070
    73
1070
     1
1070
    44
1040
1.0
1070
    74
1070
     0
1000
MTEXTEND
  0
POINT
  5
162D5
330
15445
100
AcDbEntity
  8
DEFPOINTS
 62
     0
 48
50.0
100
AcDbPoint
 10
7862.843210305124
 20
9251.365915108531
 30
0.0
  0
POINT
  5
162D6
330
15445
100
AcDbEntity
  8
DEFPOINTS
 62
     0
 48
50.0
100
AcDbPoint
 10
7862.843210305098
 20
8411.365915108516
 30
0.0
  0
POINT
  5
162D7
330
15445
100
AcDbEntity
  8
DEFPOINTS
 62
     0
 48
50.0
100
AcDbPoint
 10
8510.269556039535
 20
8411.365915108516
 30
0.0
  0
ENDBLK
  5
1556B
330
15445
100
AcDbEntity
  8
0
 48
50.0
100
AcDbBlockEnd
  0
BLOCK
  5
1556C
330
15451
100
AcDbEntity
  8
0
 48
50.0
100
AcDbBlockBegin
  2
*D13
 70
     1
 10
0.0
 20
0.0
 30
0.0
  3
*D13
  1

  0
LINE
  5
162C6
330
15451
100
AcDbEntity
  8
寸法
 62
     0
 48
50.0
370
    -2
100
AcDbLine
 10
7853.843216982731
 20
9271.506931259777
 30
0.0
 11
8249.200942844758
 21
9165.571147893642
 31
0.0
  0
LINE
  5
162C7
330
15451
100
AcDbEntity
  8
寸法
 62
     0
 48
50.0
370
    -2
100
AcDbLine
 10
7853.843216982742
 20
8821.506931259785
 30
0.0
 11
8249.200942844758
 21
8715.571147893653
 31
0.0
  0
LINE
  5
162C8
330
15451
100
AcDbEntity
  8
寸法
 62
     0
 48
50.0
370
    -2
100
AcDbLine
 10
8189.200942844758
 20
9181.648099439509
 30
0.0
 11
8189.200942844758
 21
8731.648099439519
 31
0.0
  0
INSERT
  5
162C9
330
15451
100
AcDbEntity
  8
寸法
 62
     0
 48
50.0
370
    -2
100
AcDbBlockReference
  2
_DOTSMALL
 10
8189.200942844758
 20
9181.648099439509
 30
0.0
 41
100.0
 42
100.0
 43
100.0
 50
90.0
  0
INSERT
  5
162CA
330
15451
100
AcDbEntity
  8
寸法
 62
     0
 48
50.0
370
    -2
100
AcDbBlockReference
  2
_DOTSMALL
 10
8189.200942844758
 20
8731.648099439519
 30
0.0
 41
100.0
 42
100.0
 43
100.0
 50
270.0
  0
MTEXT
  5
162CB
330
15451
100
AcDbEntity
  8
寸法
 62
     7
 48
50.0
100
AcDbMText
 10
8089.200942844758
 20
8956.648099439513
 30
0.0
 40
120.0
 41
0.0
 71
     5
 72
     1
  1
\A1;450
  7
STYLE1
 11
0.0000000000000001
 21
1.0
 31
0.0
 73
     1
 44
1.0
1001
ACAD
1000
MTEXTBEGIN
1070
    73
1070
     1
1070
    44
1040
1.0
1070
    74
1070
     0
1000
MTEXTEND
  0
POINT
  5
162CC
330
15451
100
AcDbEntity
  8
DEFPOINTS
 62
     0
 48
50.0
100
AcDbPoint
 10
7833.843216982732
 20
9276.8659151084
 30
0.0
  0
POINT
  5
162CD
330
15451
100
AcDbEntity
  8
DEFPOINTS
 62
     0
 48
50.0
100
AcDbPoint
 10
7833.843216982742
 20
8826.865915108406
 30
0.0
  0
POINT
  5
162CE
330
15451
100
AcDbEntity
  8
DEFPOINTS
 62
     0
 48
50.0
100
AcDbPoint
 10
8189.200942844758
 20
8731.648099439519
 30
0.0
  0
ENDBLK
  5
15576
330
15451
100
AcDbEntity
  8
0
 48
50.0
100
AcDbBlockEnd
  0
BLOCK
  5
15577
330
1545D
100
AcDbEntity
  8
0
 48
50.0
100
AcDbBlockBegin
  2
*D14
 70
     1
 10
0.0
 20
0.0
 30
0.0
  3
*D14
  1

  0
LINE
  5
162BB
330
1545D
100
AcDbEntity
  8
寸法
 62
     0
 48
50.0
370
    -2
100
AcDbLine
 10
7807.843210305124
 20
9326.36591510853
 30
0.0
 11
7807.843210305124
 21
9582.174134733511
 31
0.0
  0
LINE
  5
162BC
330
1545D
100
AcDbEntity
  8
寸法
 62
     0
 48
50.0
370
    -2
100
AcDbLine
 10
7862.843210305124
 20
9326.36591510853
 30
0.0
 11
7862.843210305124
 21
9582.174134733511
 31
0.0
  0
LINE
  5
162BD
330
1545D
100
AcDbEntity
  8
寸法
 62
     0
 48
50.0
370
    -2
100
AcDbLine
 10
7807.843210305124
 20
9522.174134733512
 30
0.0
 11
7707.843210305124
 21
9522.174134733512
 31
0.0
  0
LINE
  5
162BE
330
1545D
100
AcDbEntity
  8
寸法
 62
     0
 48
50.0
370
    -2
100
AcDbLine
 10
7862.843210305124
 20
9522.174134733512
 30
0.0
 11
8279.8137730536
 21
9522.174134733512
 31
0.0
  0
LINE
  5
162BF
330
1545D
100
AcDbEntity
  8
寸法
 62
     0
 48
50.0
370
    -2
100
AcDbLine
 10
7807.843210305124
 20
9522.174134733512
 30
0.0
 11
7862.843210305124
 21
9522.174134733512
 31
0.0
  0
INSERT
  5
162C0
330
1545D
100
AcDbEntity
  8
寸法
 62
     0
 48
50.0
370
    -2
100
AcDbBlockReference
  2
_DOTSMALL
 10
7807.843210305124
 20
9522.174134733512
 30
0.0
 41
100.0
 42
100.0
 43
100.0
  0
INSERT
  5
162C1
330
1545D
100
AcDbEntity
  8
寸法
 62
     0
 48
50.0
370
    -2
100
AcDbBlockReference
  2
_DOTSMALL
 10
7862.843210305124
 20
9522.174134733512
 30
0.0
 41
100.0
 42
100.0
 43
100.0
 50
180.0
  0
MTEXT
  5
162C2
330
1545D
100
AcDbEntity
  8
寸法
 62
     7
 48
50.0
100
AcDbMText
 10
8171.328491679362
 20
9622.174134733512
 30
0.0
 40
120.0
 41
0.0
 71
     5
 72
     1
  1
\A1;55
  7
STYLE1
 73
     1
 44
1.0
1001
ACAD
1000
MTEXTBEGIN
1070
    73
1070
     1
1070
    44
1040
1.0
1070
    74
1070
     0
1000
MTEXTEND
  0
POINT
  5
162C3
330
1545D
100
AcDbEntity
  8
DEFPOINTS
 62
     0
 48
50.0
100
AcDbPoint
 10
7807.843210305124
 20
9306.36591510853
 30
0.0
  0
POINT
  5
162C4
330
1545D
100
AcDbEntity
  8
DEFPOINTS
 62
     0
 48
50.0
100
AcDbPoint
 10
7862.843210305124
 20
9306.36591510853
 30
0.0
  0
POINT
  5
162C5
330
1545D
100
AcDbEntity
  8
DEFPOINTS
 62
     0
 48
50.0
100
AcDbPoint
 10
7862.843210305124
 20
9522.174134733512
 30
0.0
  0
ENDBLK
  5
15583
330
1545D
100
AcDbEntity
  8
0
 48
50.0
100
AcDbBlockEnd
  0
BLOCK
  5
1559A
330
15483
100
AcDbEntity
  8
0
 48
50.0
100
AcDbBlockBegin
  2
*D15
 70
     1
 10
0.0
 20
0.0
 30
0.0
  3
*D15
  1

  0
LINE
  5
162B2
330
15483
100
AcDbEntity
  8
寸法
 62
     0
 48
50.0
370
    -2
100
AcDbLine
 10
4992.843210305117
 20
5391.07727689386
 30
0.0
 11
4634.738682697513
 21
5391.07727689386
 31
0.0
  0
LINE
  5
162B3
330
15483
100
AcDbEntity
  8
寸法
 62
     0
 48
50.0
370
    -2
100
AcDbLine
 10
4992.843210305117
 20
3631.077276893865
 30
0.0
 11
4634.738682697513
 21
3631.077276893865
 31
0.0
  0
LINE
  5
162B4
330
15483
100
AcDbEntity
  8
寸法
 62
     0
 48
50.0
370
    -2
100
AcDbLine
 10
4694.738682697513
 20
5391.07727689386
 30
0.0
 11
4694.738682697513
 21
3631.077276893865
 31
0.0
  0
INSERT
  5
162B5
330
15483
100
AcDbEntity
  8
寸法
 62
     0
 48
50.0
370
    -2
100
AcDbBlockReference
  2
_DOTSMALL
 10
4694.738682697513
 20
5391.07727689386
 30
0.0
 41
100.0
 42
100.0
 43
100.0
 50
90.0
  0
INSERT
  5
162B6
330
15483
100
AcDbEntity
  8
寸法
 62
     0
 48
50.0
370
    -2
100
AcDbBlockReference
  2
_DOTSMALL
 10
4694.738682697513
 20
3631.077276893865
 30
0.0
 41
100.0
 42
100.0
 43
100.0
 50
270.0
  0
MTEXT
  5
162B7
330
15483
100
AcDbEntity
  8
寸法
 62
     7
 48
50.0
100
AcDbMText
 10
4594.738682697513
 20
4510.077276893862
 30
0.0
 40
120.0
 41
0.0
 71
     5
 72
     1
  1
\A1;有効開口部高サ1760
  7
STYLE1
 11
0.0000000000000001
 21
1.0
 31
0.0
 73
     1
 44
1.0
1001
ACAD
1000
MTEXTBEGIN
1070
    73
1070
     1
1070
    44
1040
1.0
1070
    74
1070
     0
1000
MTEXTEND
  0
POINT
  5
162B8
330
15483
100
AcDbEntity
  8
DEFPOINTS
 62
     0
 48
50.0
100
AcDbPoint
 10
5012.843210305117
 20
5391.07727689386
 30
0.0
  0
POINT
  5
162B9
330
15483
100
AcDbEntity
  8
DEFPOINTS
 62
     0
 48
50.0
100
AcDbPoint
 10
5012.843210305117
 20
3631.077276893865
 30
0.0
  0
POINT
  5
162BA
330
15483
100
AcDbEntity
  8
DEFPOINTS
 62
     0
 48
50.0
100
AcDbPoint
 10
4694.738682697513
 20
3631.077276893865
 30
0.0
  0
ENDBLK
  5
155A4
330
15483
100
AcDbEntity
  8
0
 48
50.0
100
AcDbBlockEnd
  0
BLOCK
  5
156DE
330
156D2
100
AcDbEntity
  8
0
 48
50.0
100
AcDbBlockBegin
  2
*D16
 70
     1
 10
0.0
 20
0.0
 30
0.0
  3
*D16
  1

  0
LINE
  5
162A9
330
156D2
100
AcDbEntity
  8
寸法
 62
     0
 48
50.0
370
    -2
100
AcDbLine
 10
6017.84321030512
 20
8336.365915108428
 30
0.0
 11
6017.84321030512
 21
7856.542247313351
 31
0.0
  0
LINE
  5
162AA
330
156D2
100
AcDbEntity
  8
寸法
 62
     0
 48
50.0
370
    -2
100
AcDbLine
 10
6702.843210305116
 20
8336.365915108393
 30
0.0
 11
6702.843210305116
 21
7856.542247313351
 31
0.0
  0
LINE
  5
162AB
330
156D2
100
AcDbEntity
  8
寸法
 62
     0
 48
50.0
370
    -2
100
AcDbLine
 10
6017.84321030512
 20
7916.542247313351
 30
0.0
 11
6702.843210305116
 21
7916.542247313351
 31
0.0
  0
INSERT
  5
162AC
330
156D2
100
AcDbEntity
  8
寸法
 62
     0
 48
50.0
370
    -2
100
AcDbBlockReference
  2
_DOTSMALL
 10
6017.84321030512
 20
7916.542247313351
 30
0.0
 41
100.0
 42
100.0
 43
100.0
 50
180.0
  0
INSERT
  5
162AD
330
156D2
100
AcDbEntity
  8
寸法
 62
     0
 48
50.0
370
    -2
100
AcDbBlockReference
  2
_DOTSMALL
 10
6702.843210305116
 20
7916.542247313351
 30
0.0
 41
100.0
 42
100.0
 43
100.0
  0
MTEXT
  5
162AE
330
156D2
100
AcDbEntity
  8
寸法
 62
     7
 48
50.0
100
AcDbMText
 10
6360.343210305118
 20
8016.542247313351
 30
0.0
 40
120.0
 41
0.0
 71
     5
 72
     1
  1
\A1;685
  7
STYLE1
 73
     1
 44
1.0
1001
ACAD
1000
MTEXTBEGIN
1070
    73
1070
     1
1070
    44
1040
1.0
1070
    74
1070
     0
1000
MTEXTEND
  0
POINT
  5
162AF
330
156D2
100
AcDbEntity
  8
DEFPOINTS
 62
     0
 48
50.0
100
AcDbPoint
 10
6017.84321030512
 20
8356.365915108428
 30
0.0
  0
POINT
  5
162B0
330
156D2
100
AcDbEntity
  8
DEFPOINTS
 62
     0
 48
50.0
100
AcDbPoint
 10
6702.843210305116
 20
8356.365915108392
 30
0.0
  0
POINT
  5
162B1
330
156D2
100
AcDbEntity
  8
DEFPOINTS
 62
     0
 48
50.0
100
AcDbPoint
 10
6702.843210305116
 20
7916.542247313351
 30
0.0
  0
ENDBLK
  5
156E8
330
156D2
100
AcDbEntity
  8
0
 48
50.0
100
AcDbBlockEnd
  0
BLOCK
  5
156EB
330
156EA
100
AcDbEntity
  8
0
 48
50.0
100
AcDbBlockBegin
  2
*D17
 70
     1
 10
0.0
 20
0.0
 30
0.0
  3
*D17
  1

  0
LINE
  5
162A0
330
156EA
100
AcDbEntity
  8
寸法
 62
     0
 48
50.0
370
    -2
100
AcDbLine
 10
5067.84321030512
 20
8336.365915108428
 30
0.0
 11
5067.84321030512
 21
7856.542247313351
 31
0.0
  0
LINE
  5
162A1
330
156EA
100
AcDbEntity
  8
寸法
 62
     0
 48
50.0
370
    -2
100
AcDbLine
 10
5752.843210305115
 20
8336.365915108393
 30
0.0
 11
5752.843210305115
 21
7856.542247313351
 31
0.0
  0
LINE
  5
162A2
330
156EA
100
AcDbEntity
  8
寸法
 62
     0
 48
50.0
370
    -2
100
AcDbLine
 10
5067.84321030512
 20
7916.542247313351
 30
0.0
 11
5752.843210305115
 21
7916.542247313351
 31
0.0
  0
INSERT
  5
162A3
330
156EA
100
AcDbEntity
  8
寸法
 62
     0
 48
50.0
370
    -2
100
AcDbBlockReference
  2
_DOTSMALL
 10
5067.84321030512
 20
7916.542247313351
 30
0.0
 41
100.0
 42
100.0
 43
100.0
 50
180.0
  0
INSERT
  5
162A4
330
156EA
100
AcDbEntity
  8
寸法
 62
     0
 48
50.0
370
    -2
100
AcDbBlockReference
  2
_DOTSMALL
 10
5752.843210305115
 20
7916.542247313351
 30
0.0
 41
100.0
 42
100.0
 43
100.0
  0
MTEXT
  5
162A5
330
156EA
100
AcDbEntity
  8
寸法
 62
     7
 48
50.0
100
AcDbMText
 10
5410.343210305118
 20
8016.542247313351
 30
0.0
 40
120.0
 41
0.0
 71
     5
 72
     1
  1
\A1;685
  7
STYLE1
 73
     1
 44
1.0
1001
ACAD
1000
MTEXTBEGIN
1070
    73
1070
     1
1070
    44
1040
1.0
1070
    74
1070
     0
1000
MTEXTEND
  0
POINT
  5
162A6
330
156EA
100
AcDbEntity
  8
DEFPOINTS
 62
     0
 48
50.0
100
AcDbPoint
 10
5067.84321030512
 20
8356.365915108428
 30
0.0
  0
POINT
  5
162A7
330
156EA
100
AcDbEntity
  8
DEFPOINTS
 62
     0
 48
50.0
100
AcDbPoint
 10
5752.843210305115
 20
8356.365915108392
 30
0.0
  0
POINT
  5
162A8
330
156EA
100
AcDbEntity
  8
DEFPOINTS
 62
     0
 48
50.0
100
AcDbPoint
 10
5752.843210305115
 20
7916.542247313351
 30
0.0
  0
ENDBLK
  5
156F5
330
156EA
100
AcDbEntity
  8
0
 48
50.0
100
AcDbBlockEnd
  0
BLOCK
  5
15D6C
330
15D61
100
AcDbEntity
  8
0
 48
50.0
100
AcDbBlockBegin
  2
*D18
 70
     1
 10
0.0
 20
0.0
 30
0.0
  3
*D18
  1

  0
LINE
  5
16296
330
15D61
100
AcDbEntity
  8
寸法
 62
     0
 48
50.0
370
    -2
100
AcDbLine
 10
9733.997396800102
 20
5503.112888367335
 30
0.0
 11
9081.097226506074
 21
5527.763919607313
 31
0.0
  0
LINE
  5
16297
330
15D61
100
AcDbEntity
  8
寸法
 62
     0
 48
50.0
370
    -2
100
AcDbLine
 10
9739.317230952057
 20
5644.012495764218
 30
0.0
 11
9086.417060657867
 21
5668.663527004202
 31
0.0
  0
LINE
  5
16298
330
15D61
100
AcDbEntity
  8
寸法
 62
     0
 48
50.0
370
    -2
100
AcDbLine
 10
9141.05450624943
 20
5525.500160393784
 30
0.0
 11
9146.374340401223
 21
5666.399767790673
 31
0.0
  0
LINE
  5
16299
330
15D61
100
AcDbEntity
  8
寸法
 62
     0
 48
50.0
370
    -2
100
AcDbLine
 10
9146.374340401223
 20
5666.399767790673
 30
0.0
 11
9159.956895682425
 21
6026.143446251506
 31
0.0
  0
INSERT
  5
1629A
330
15D61
100
AcDbEntity
  8
寸法
 62
     0
 48
50.0
370
    -2
100
AcDbBlockReference
  2
_DOTSMALL
 10
9141.05450624943
 20
5525.500160393784
 30
0.0
 41
100.0
 42
100.0
 43
100.0
 50
267.8377559871574
  0
INSERT
  5
1629B
330
15D61
100
AcDbEntity
  8
寸法
 62
     0
 48
50.0
370
    -2
100
AcDbBlockReference
  2
_DOTSMALL
 10
9146.374340401223
 20
5666.399767790673
 30
0.0
 41
100.0
 42
100.0
 43
100.0
 50
87.83775598715742
  0
MTEXT
  5
1629C
330
15D61
100
AcDbEntity
  8
寸法
 62
     7
 48
50.0
100
AcDbMText
 10
9055.123284480849
 20
5900.008938830114
 30
0.0
 40
120.0
 41
0.0
 71
     5
 72
     1
  1
\A1;141
  7
STYLE1
 11
0.0377293202254805
 21
0.9992879957226159
 31
0.0
 73
     1
 44
1.0
1001
ACAD
1000
MTEXTBEGIN
1070
    73
1070
     1
1070
    44
1040
1.0
1070
    74
1070
     0
1000
MTEXTEND
  0
POINT
  5
1629D
330
15D61
100
AcDbEntity
  8
DEFPOINTS
 62
     0
 48
50.0
100
AcDbPoint
 10
9753.983156714554
 20
5502.358301962825
 30
0.0
  0
POINT
  5
1629E
330
15D61
100
AcDbEntity
  8
DEFPOINTS
 62
     0
 48
50.0
100
AcDbPoint
 10
9759.302990866508
 20
5643.257909359707
 30
0.0
  0
POINT
  5
1629F
330
15D61
100
AcDbEntity
  8
DEFPOINTS
 62
     0
 48
50.0
100
AcDbPoint
 10
9146.374340401223
 20
5666.399767790673
 30
0.0
  0
ENDBLK
  5
15D6D
330
15D61
100
AcDbEntity
  8
0
 48
50.0
100
AcDbBlockEnd
  0
BLOCK
  5
15D78
330
15D6E
100
AcDbEntity
  8
0
 48
50.0
100
AcDbBlockBegin
  2
*D19
 70
     1
 10
0.0
 20
0.0
 30
0.0
  3
*D19
  1

  0
LINE
  5
1628D
330
15D6E
100
AcDbEntity
  8
寸法
 62
     0
 48
50.0
370
    -2
100
AcDbLine
 10
9778.6405921126
 20
3569.577276893862
 30
0.0
 11
8834.36878047212
 21
3569.577276893862
 31
0.0
  0
LINE
  5
1628E
330
15D6E
100
AcDbEntity
  8
寸法
 62
     0
 48
50.0
370
    -2
100
AcDbLine
 10
9718.640592112601
 20
5644.577276893864
 30
0.0
 11
8834.368780472122
 21
5644.577276893864
 31
0.0
  0
LINE
  5
1628F
330
15D6E
100
AcDbEntity
  8
寸法
 62
     0
 48
50.0
370
    -2
100
AcDbLine
 10
8894.368780472118
 20
3569.577276893862
 30
0.0
 11
8894.36878047212
 21
5644.577276893864
 31
0.0
  0
INSERT
  5
16290
330
15D6E
100
AcDbEntity
  8
寸法
 62
     0
 48
50.0
370
    -2
100
AcDbBlockReference
  2
_DOTSMALL
 10
8894.368780472118
 20
3569.577276893862
 30
0.0
 41
100.0
 42
100.0
 43
100.0
 50
270.0
  0
INSERT
  5
16291
330
15D6E
100
AcDbEntity
  8
寸法
 62
     0
 48
50.0
370
    -2
100
AcDbBlockReference
  2
_DOTSMALL
 10
8894.36878047212
 20
5644.577276893864
 30
0.0
 41
100.0
 42
100.0
 43
100.0
 50
90.0
  0
MTEXT
  5
16292
330
15D6E
100
AcDbEntity
  8
寸法
 62
     7
 48
50.0
100
AcDbMText
 10
8794.356969448498
 20
4544.784267313661
 30
0.0
 40
120.0
 41
0.0
 71
     5
 72
     1
  1
\A1;2075
  7
STYLE1
 11
0.0000000000000001
 21
1.0
 31
0.0
 73
     1
 44
1.0
1001
ACAD
1000
MTEXTBEGIN
1070
    73
1070
     1
1070
    44
1040
1.0
1070
    74
1070
     0
1000
MTEXTEND
  0
POINT
  5
16293
330
15D6E
100
AcDbEntity
  8
DEFPOINTS
 62
     0
 48
50.0
100
AcDbPoint
 10
9798.640592112599
 20
3569.577276893862
 30
0.0
  0
POINT
  5
16294
330
15D6E
100
AcDbEntity
  8
DEFPOINTS
 62
     0
 48
50.0
100
AcDbPoint
 10
9738.640592112602
 20
5644.577276893864
 30
0.0
  0
POINT
  5
16295
330
15D6E
100
AcDbEntity
  8
DEFPOINTS
 62
     0
 48
50.0
100
AcDbPoint
 10
8894.36878047212
 20
5644.577276893864
 30
0.0
  0
ENDBLK
  5
15D79
330
15D6E
100
AcDbEntity
  8
0
 48
50.0
100
AcDbBlockEnd
  0
BLOCK
  5
15D86
330
15D7A
100
AcDbEntity
  8
0
 48
50.0
100
AcDbBlockBegin
  2
*D20
 70
     1
 10
0.0
 20
0.0
 30
0.0
  3
*D20
  1

  0
LINE
  5
16282
330
15D7A
100
AcDbEntity
  8
寸法
 62
     0
 48
50.0
370
    -2
100
AcDbLine
 10
9771.638222067823
 20
3619.577276893863
 30
0.0
 11
9136.677501420397
 21
3619.577276893864
 31
0.0
  0
LINE
  5
16283
330
15D7A
100
AcDbEntity
  8
寸法
 62
     0
 48
50.0
370
    -2
100
AcDbLine
 10
9723.6405921126
 20
3569.577276893862
 30
0.0
 11
9136.677501420397
 21
3569.577276893862
 31
0.0
  0
LINE
  5
16284
330
15D7A
100
AcDbEntity
  8
寸法
 62
     0
 48
50.0
370
    -2
100
AcDbLine
 10
9196.677501420396
 20
3619.577276893864
 30
0.0
 11
9196.677501420396
 21
3719.577276893864
 31
0.0
  0
LINE
  5
16285
330
15D7A
100
AcDbEntity
  8
寸法
 62
     0
 48
50.0
370
    -2
100
AcDbLine
 10
9196.677501420396
 20
3569.577276893862
 30
0.0
 11
9196.677501420396
 21
3157.482788704882
 31
0.0
  0
LINE
  5
16286
330
15D7A
100
AcDbEntity
  8
寸法
 62
     0
 48
50.0
370
    -2
100
AcDbLine
 10
9196.677501420396
 20
3619.577276893864
 30
0.0
 11
9196.677501420396
 21
3569.577276893862
 31
0.0
  0
INSERT
  5
16287
330
15D7A
100
AcDbEntity
  8
寸法
 62
     0
 48
50.0
370
    -2
100
AcDbBlockReference
  2
_DOTSMALL
 10
9196.677501420396
 20
3619.577276893864
 30
0.0
 41
100.0
 42
100.0
 43
100.0
 50
270.0
  0
INSERT
  5
16288
330
15D7A
100
AcDbEntity
  8
寸法
 62
     0
 48
50.0
370
    -2
100
AcDbBlockReference
  2
_DOTSMALL
 10
9196.677501420396
 20
3569.577276893862
 30
0.0
 41
100.0
 42
100.0
 43
100.0
 50
90.0
  0
MTEXT
  5
16289
330
15D7A
100
AcDbEntity
  8
寸法
 62
     7
 48
50.0
100
AcDbMText
 10
9096.677501420396
 20
3263.530032799371
 30
0.0
 40
120.0
 41
0.0
 71
     5
 72
     1
  1
\A1;50
  7
STYLE1
 11
0.0000000000000001
 21
1.0
 31
0.0
 73
     1
 44
1.0
1001
ACAD
1000
MTEXTBEGIN
1070
    73
1070
     1
1070
    44
1040
1.0
1070
    74
1070
     0
1000
MTEXTEND
  0
POINT
  5
1628A
330
15D7A
100
AcDbEntity
  8
DEFPOINTS
 62
     0
 48
50.0
100
AcDbPoint
 10
9791.638222067824
 20
3619.577276893863
 30
0.0
  0
POINT
  5
1628B
330
15D7A
100
AcDbEntity
  8
DEFPOINTS
 62
     0
 48
50.0
100
AcDbPoint
 10
9743.640592112599
 20
3569.577276893862
 30
0.0
  0
POINT
  5
1628C
330
15D7A
100
AcDbEntity
  8
DEFPOINTS
 62
     0
 48
50.0
100
AcDbPoint
 10
9196.677501420396
 20
3569.577276893862
 30
0.0
  0
ENDBLK
  5
15D87
330
15D7A
100
AcDbEntity
  8
0
 48
50.0
100
AcDbBlockEnd
  0
BLOCK
  5
15D92
330
15D88
100
AcDbEntity
  8
0
 48
50.0
100
AcDbBlockBegin
  2
*D21
 70
     1
 10
0.0
 20
0.0
 30
0.0
  3
*D21
  1

  0
LINE
  5
16279
330
15D88
100
AcDbEntity
  8
寸法
 62
     0
 48
50.0
370
    -2
100
AcDbLine
 10
9771.638222067823
 20
5409.577276893861
 30
0.0
 11
9136.677501420399
 21
5409.577276893861
 31
0.0
  0
LINE
  5
1627A
330
15D88
100
AcDbEntity
  8
寸法
 62
     0
 48
50.0
370
    -2
100
AcDbLine
 10
9771.638222067823
 20
3619.577276893863
 30
0.0
 11
9136.677501420397
 21
3619.577276893864
 31
0.0
  0
LINE
  5
1627B
330
15D88
100
AcDbEntity
  8
寸法
 62
     0
 48
50.0
370
    -2
100
AcDbLine
 10
9196.677501420397
 20
5409.577276893861
 30
0.0
 11
9196.677501420396
 21
3619.577276893864
 31
0.0
  0
INSERT
  5
1627C
330
15D88
100
AcDbEntity
  8
寸法
 62
     0
 48
50.0
370
    -2
100
AcDbBlockReference
  2
_DOTSMALL
 10
9196.677501420397
 20
5409.577276893861
 30
0.0
 41
100.0
 42
100.0
 43
100.0
 50
90.0
  0
INSERT
  5
1627D
330
15D88
100
AcDbEntity
  8
寸法
 62
     0
 48
50.0
370
    -2
100
AcDbBlockReference
  2
_DOTSMALL
 10
9196.677501420396
 20
3619.577276893864
 30
0.0
 41
100.0
 42
100.0
 43
100.0
 50
270.0
  0
MTEXT
  5
1627E
330
15D88
100
AcDbEntity
  8
寸法
 62
     7
 48
50.0
100
AcDbMText
 10
9096.677501420396
 20
4524.612288770248
 30
0.0
 40
120.0
 41
0.0
 71
     5
 72
     1
  1
\A1;1790
  7
STYLE1
 11
0.0000000000000001
 21
1.0
 31
0.0
 73
     1
 44
1.0
1001
ACAD
1000
MTEXTBEGIN
1070
    73
1070
     1
1070
    44
1040
1.0
1070
    74
1070
     0
1000
MTEXTEND
  0
POINT
  5
1627F
330
15D88
100
AcDbEntity
  8
DEFPOINTS
 62
     0
 48
50.0
100
AcDbPoint
 10
9791.638222067824
 20
5409.577276893861
 30
0.0
  0
POINT
  5
16280
330
15D88
100
AcDbEntity
  8
DEFPOINTS
 62
     0
 48
50.0
100
AcDbPoint
 10
9791.638222067824
 20
3619.577276893863
 30
0.0
  0
POINT
  5
16281
330
15D88
100
AcDbEntity
  8
DEFPOINTS
 62
     0
 48
50.0
100
AcDbPoint
 10
9196.677501420396
 20
3619.577276893864
 30
0.0
  0
ENDBLK
  5
15D93
330
15D88
100
AcDbEntity
  8
0
 48
50.0
100
AcDbBlockEnd
  0
BLOCK
  5
15D9E
330
15D94
100
AcDbEntity
  8
0
 48
50.0
100
AcDbBlockBegin
  2
*D22
 70
     1
 10
0.0
 20
0.0
 30
0.0
  3
*D22
  1

  0
LINE
  5
16270
330
15D94
100
AcDbEntity
  8
寸法
 62
     0
 48
50.0
370
    -2
100
AcDbLine
 10
10768.6405921126
 20
3569.577276893862
 30
0.0
 11
11513.56775008472
 21
3569.577276893861
 31
0.0
  0
LINE
  5
16271
330
15D94
100
AcDbEntity
  8
寸法
 62
     0
 48
50.0
370
    -2
100
AcDbLine
 10
10848.64059211259
 20
5589.577276893862
 30
0.0
 11
11513.56775008472
 21
5589.577276893862
 31
0.0
  0
LINE
  5
16272
330
15D94
100
AcDbEntity
  8
寸法
 62
     0
 48
50.0
370
    -2
100
AcDbLine
 10
11453.56775008472
 20
3569.577276893861
 30
0.0
 11
11453.56775008472
 21
5589.577276893862
 31
0.0
  0
INSERT
  5
16273
330
15D94
100
AcDbEntity
  8
寸法
 62
     0
 48
50.0
370
    -2
100
AcDbBlockReference
  2
_DOTSMALL
 10
11453.56775008472
 20
3569.577276893861
 30
0.0
 41
100.0
 42
100.0
 43
100.0
 50
270.0
  0
INSERT
  5
16274
330
15D94
100
AcDbEntity
  8
寸法
 62
     0
 48
50.0
370
    -2
100
AcDbBlockReference
  2
_DOTSMALL
 10
11453.56775008472
 20
5589.577276893862
 30
0.0
 41
100.0
 42
100.0
 43
100.0
 50
90.0
  0
MTEXT
  5
16275
330
15D94
100
AcDbEntity
  8
寸法
 62
     7
 48
50.0
100
AcDbMText
 10
11353.5559390611
 20
4579.577276893863
 30
0.0
 40
120.0
 41
0.0
 71
     5
 72
     1
  1
\A1;2020
  7
STYLE1
 11
0.0000000000000001
 21
1.0
 31
0.0
 73
     1
 44
1.0
1001
ACAD
1000
MTEXTBEGIN
1070
    73
1070
     1
1070
    44
1040
1.0
1070
    74
1070
     0
1000
MTEXTEND
  0
POINT
  5
16276
330
15D94
100
AcDbEntity
  8
DEFPOINTS
 62
     0
 48
50.0
100
AcDbPoint
 10
10748.6405921126
 20
3569.577276893862
 30
0.0
  0
POINT
  5
16277
330
15D94
100
AcDbEntity
  8
DEFPOINTS
 62
     0
 48
50.0
100
AcDbPoint
 10
10828.64059211259
 20
5589.577276893862
 30
0.0
  0
POINT
  5
16278
330
15D94
100
AcDbEntity
  8
DEFPOINTS
 62
     0
 48
50.0
100
AcDbPoint
 10
11453.56775008472
 20
5589.577276893862
 30
0.0
  0
ENDBLK
  5
15D9F
330
15D94
100
AcDbEntity
  8
0
 48
50.0
100
AcDbBlockEnd
  0
BLOCK
  5
15DAA
330
15DA0
100
AcDbEntity
  8
0
 48
50.0
100
AcDbBlockBegin
  2
*D23
 70
     1
 10
0.0
 20
0.0
 30
0.0
  3
*D23
  1

  0
LINE
  5
16267
330
15DA0
100
AcDbEntity
  8
寸法
 62
     0
 48
50.0
370
    -2
100
AcDbLine
 10
10748.64059211259
 20
5611.387956505514
 30
0.0
 11
10748.64059211259
 21
6103.234730473165
 31
0.0
  0
LINE
  5
16268
330
15DA0
100
AcDbEntity
  8
寸法
 62
     0
 48
50.0
370
    -2
100
AcDbLine
 10
9798.640592112601
 20
5660.578895016837
 30
0.0
 11
9798.640592112601
 21
6103.234730473165
 31
0.0
  0
LINE
  5
16269
330
15DA0
100
AcDbEntity
  8
寸法
 62
     0
 48
50.0
370
    -2
100
AcDbLine
 10
10748.64059211259
 20
6043.234730473165
 30
0.0
 11
9798.640592112601
 21
6043.234730473165
 31
0.0
  0
INSERT
  5
1626A
330
15DA0
100
AcDbEntity
  8
寸法
 62
     0
 48
50.0
370
    -2
100
AcDbBlockReference
  2
_DOTSMALL
 10
10748.64059211259
 20
6043.234730473165
 30
0.0
 41
100.0
 42
100.0
 43
100.0
  0
INSERT
  5
1626B
330
15DA0
100
AcDbEntity
  8
寸法
 62
     0
 48
50.0
370
    -2
100
AcDbBlockReference
  2
_DOTSMALL
 10
9798.640592112601
 20
6043.234730473165
 30
0.0
 41
100.0
 42
100.0
 43
100.0
 50
180.0
  0
MTEXT
  5
1626C
330
15DA0
100
AcDbEntity
  8
寸法
 62
     7
 48
50.0
100
AcDbMText
 10
10273.6405921126
 20
6143.234730473165
 30
0.0
 40
120.0
 41
0.0
 71
     5
 72
     1
  1
\A1;柱外寸法950
  7
STYLE1
 73
     1
 44
1.0
1001
ACAD
1000
MTEXTBEGIN
1070
    73
1070
     1
1070
    44
1040
1.0
1070
    74
1070
     0
1000
MTEXTEND
  0
POINT
  5
1626D
330
15DA0
100
AcDbEntity
  8
DEFPOINTS
 62
     0
 48
50.0
100
AcDbPoint
 10
10748.64059211259
 20
5591.387956505514
 30
0.0
  0
POINT
  5
1626E
330
15DA0
100
AcDbEntity
  8
DEFPOINTS
 62
     0
 48
50.0
100
AcDbPoint
 10
9798.640592112601
 20
5640.578895016837
 30
0.0
  0
POINT
  5
1626F
330
15DA0
100
AcDbEntity
  8
DEFPOINTS
 62
     0
 48
50.0
100
AcDbPoint
 10
9798.640592112601
 20
6043.234730473165
 30
0.0
  0
ENDBLK
  5
15DAB
330
15DA0
100
AcDbEntity
  8
0
 48
50.0
100
AcDbBlockEnd
  0
BLOCK
  5
15DB8
330
15DAC
100
AcDbEntity
  8
0
 48
50.0
100
AcDbBlockBegin
  2
*D24
 70
     1
 10
0.0
 20
0.0
 30
0.0
  3
*D24
  1

  0
LINE
  5
1625C
330
15DAC
100
AcDbEntity
  8
寸法
 62
     0
 48
50.0
370
    -2
100
AcDbLine
 10
9798.640592112601
 20
5660.578895016837
 30
0.0
 11
9798.640592112601
 21
6103.234730473165
 31
0.0
  0
LINE
  5
1625D
330
15DAC
100
AcDbEntity
  8
寸法
 62
     0
 48
50.0
370
    -2
100
AcDbLine
 10
9738.640592112602
 20
5664.577276893866
 30
0.0
 11
9738.640592112602
 21
6103.234730473165
 31
0.0
  0
LINE
  5
1625E
330
15DAC
100
AcDbEntity
  8
寸法
 62
     0
 48
50.0
370
    -2
100
AcDbLine
 10
9798.640592112601
 20
6043.234730473165
 30
0.0
 11
9898.640592112601
 21
6043.234730473165
 31
0.0
  0
LINE
  5
1625F
330
15DAC
100
AcDbEntity
  8
寸法
 62
     0
 48
50.0
370
    -2
100
AcDbLine
 10
9738.640592112602
 20
6043.234730473165
 30
0.0
 11
9319.36500156142
 21
6043.234730473165
 31
0.0
  0
LINE
  5
16260
330
15DAC
100
AcDbEntity
  8
寸法
 62
     0
 48
50.0
370
    -2
100
AcDbLine
 10
9798.640592112601
 20
6043.234730473165
 30
0.0
 11
9738.640592112602
 21
6043.234730473165
 31
0.0
  0
INSERT
  5
16261
330
15DAC
100
AcDbEntity
  8
寸法
 62
     0
 48
50.0
370
    -2
100
AcDbBlockReference
  2
_DOTSMALL
 10
9798.640592112601
 20
6043.234730473165
 30
0.0
 41
100.0
 42
100.0
 43
100.0
 50
180.0
  0
INSERT
  5
16262
330
15DAC
100
AcDbEntity
  8
寸法
 62
     0
 48
50.0
370
    -2
100
AcDbBlockReference
  2
_DOTSMALL
 10
9738.640592112602
 20
6043.234730473165
 30
0.0
 41
100.0
 42
100.0
 43
100.0
  0
MTEXT
  5
16263
330
15DAC
100
AcDbEntity
  8
寸法
 62
     7
 48
50.0
100
AcDbMText
 10
9429.002796837011
 20
6143.234730473165
 30
0.0
 40
120.0
 41
0.0
 71
     5
 72
     1
  1
\A1;60
  7
STYLE1
 73
     1
 44
1.0
1001
ACAD
1000
MTEXTBEGIN
1070
    73
1070
     1
1070
    44
1040
1.0
1070
    74
1070
     0
1000
MTEXTEND
  0
POINT
  5
16264
330
15DAC
100
AcDbEntity
  8
DEFPOINTS
 62
     0
 48
50.0
100
AcDbPoint
 10
9798.640592112601
 20
5640.578895016837
 30
0.0
  0
POINT
  5
16265
330
15DAC
100
AcDbEntity
  8
DEFPOINTS
 62
     0
 48
50.0
100
AcDbPoint
 10
9738.640592112602
 20
5644.577276893866
 30
0.0
  0
POINT
  5
16266
330
15DAC
100
AcDbEntity
  8
DEFPOINTS
 62
     0
 48
50.0
100
AcDbPoint
 10
9738.640592112602
 20
6043.234730473165
 30
0.0
  0
ENDBLK
  5
15DB9
330
15DAC
100
AcDbEntity
  8
0
 48
50.0
100
AcDbBlockEnd
  0
BLOCK
  5
15DC4
330
15DBA
100
AcDbEntity
  8
0
 48
50.0
100
AcDbBlockBegin
  2
*D25
 70
     1
 10
0.0
 20
0.0
 30
0.0
  3
*D25
  1

  0
LINE
  5
16253
330
15DBA
100
AcDbEntity
  8
寸法
 62
     0
 48
50.0
370
    -2
100
AcDbLine
 10
10828.64059211259
 20
5609.577276893862
 30
0.0
 11
10828.64059211259
 21
6312.828604894615
 31
0.0
  0
LINE
  5
16254
330
15DBA
100
AcDbEntity
  8
寸法
 62
     0
 48
50.0
370
    -2
100
AcDbLine
 10
9738.640592112602
 20
5664.577276893866
 30
0.0
 11
9738.640592112602
 21
6312.828604894615
 31
0.0
  0
LINE
  5
16255
330
15DBA
100
AcDbEntity
  8
寸法
 62
     0
 48
50.0
370
    -2
100
AcDbLine
 10
10828.64059211259
 20
6252.828604894616
 30
0.0
 11
9738.640592112602
 21
6252.828604894616
 31
0.0
  0
INSERT
  5
16256
330
15DBA
100
AcDbEntity
  8
寸法
 62
     0
 48
50.0
370
    -2
100
AcDbBlockReference
  2
_DOTSMALL
 10
10828.64059211259
 20
6252.828604894616
 30
0.0
 41
100.0
 42
100.0
 43
100.0
  0
INSERT
  5
16257
330
15DBA
100
AcDbEntity
  8
寸法
 62
     0
 48
50.0
370
    -2
100
AcDbBlockReference
  2
_DOTSMALL
 10
9738.640592112602
 20
6252.828604894616
 30
0.0
 41
100.0
 42
100.0
 43
100.0
 50
180.0
  0
MTEXT
  5
16258
330
15DBA
100
AcDbEntity
  8
寸法
 62
     7
 48
50.0
100
AcDbMText
 10
10261.75930679302
 20
6352.828604894615
 30
0.0
 40
120.0
 41
0.0
 71
     5
 72
     1
  1
\A1;1090
  7
STYLE1
 73
     1
 44
1.0
1001
ACAD
1000
MTEXTBEGIN
1070
    73
1070
     1
1070
    44
1040
1.0
1070
    74
1070
     0
1000
MTEXTEND
  0
POINT
  5
16259
330
15DBA
100
AcDbEntity
  8
DEFPOINTS
 62
     0
 48
50.0
100
AcDbPoint
 10
10828.64059211259
 20
5589.577276893862
 30
0.0
  0
POINT
  5
1625A
330
15DBA
100
AcDbEntity
  8
DEFPOINTS
 62
     0
 48
50.0
100
AcDbPoint
 10
9738.640592112602
 20
5644.577276893866
 30
0.0
  0
POINT
  5
1625B
330
15DBA
100
AcDbEntity
  8
DEFPOINTS
 62
     0
 48
50.0
100
AcDbPoint
 10
9738.640592112602
 20
6252.828604894616
 30
0.0
  0
ENDBLK
  5
15DC5
330
15DBA
100
AcDbEntity
  8
0
 48
50.0
100
AcDbBlockEnd
  0
BLOCK
  5
15DD1
330
15DC6
100
AcDbEntity
  8
0
 48
50.0
100
AcDbBlockBegin
  2
*D26
 70
     1
 10
0.0
 20
0.0
 30
0.0
  3
*D26
  1

  0
LINE
  5
16249
330
15DC6
100
AcDbEntity
  8
寸法
 62
     0
 48
50.0
370
    -2
100
AcDbLine
 10
10748.64059211259
 20
5611.387956505514
 30
0.0
 11
10748.64059211259
 21
6103.234730473165
 31
0.0
  0
LINE
  5
1624A
330
15DC6
100
AcDbEntity
  8
寸法
 62
     0
 48
50.0
370
    -2
100
AcDbLine
 10
10828.64059211259
 20
5609.577276893862
 30
0.0
 11
10828.64059211259
 21
6103.234730473165
 31
0.0
  0
LINE
  5
1624B
330
15DC6
100
AcDbEntity
  8
寸法
 62
     0
 48
50.0
370
    -2
100
AcDbLine
 10
10748.64059211259
 20
6043.234730473165
 30
0.0
 11
10828.64059211259
 21
6043.234730473165
 31
0.0
  0
LINE
  5
1624C
330
15DC6
100
AcDbEntity
  8
寸法
 62
     0
 48
50.0
370
    -2
100
AcDbLine
 10
10828.64059211259
 20
6043.234730473165
 30
0.0
 11
11140.73508030157
 21
6043.234730473165
 31
0.0
  0
INSERT
  5
1624D
330
15DC6
100
AcDbEntity
  8
寸法
 62
     0
 48
50.0
370
    -2
100
AcDbBlockReference
  2
_DOTSMALL
 10
10748.64059211259
 20
6043.234730473165
 30
0.0
 41
100.0
 42
100.0
 43
100.0
 50
180.0
  0
INSERT
  5
1624E
330
15DC6
100
AcDbEntity
  8
寸法
 62
     0
 48
50.0
370
    -2
100
AcDbBlockReference
  2
_DOTSMALL
 10
10828.64059211259
 20
6043.234730473165
 30
0.0
 41
100.0
 42
100.0
 43
100.0
  0
MTEXT
  5
1624F
330
15DC6
100
AcDbEntity
  8
寸法
 62
     7
 48
50.0
100
AcDbMText
 10
11034.68783620708
 20
6143.234730473165
 30
0.0
 40
120.0
 41
0.0
 71
     5
 72
     1
  1
\A1;80
  7
STYLE1
 73
     1
 44
1.0
1001
ACAD
1000
MTEXTBEGIN
1070
    73
1070
     1
1070
    44
1040
1.0
1070
    74
1070
     0
1000
MTEXTEND
  0
POINT
  5
16250
330
15DC6
100
AcDbEntity
  8
DEFPOINTS
 62
     0
 48
50.0
100
AcDbPoint
 10
10748.64059211259
 20
5591.387956505514
 30
0.0
  0
POINT
  5
16251
330
15DC6
100
AcDbEntity
  8
DEFPOINTS
 62
     0
 48
50.0
100
AcDbPoint
 10
10828.64059211259
 20
5589.577276893862
 30
0.0
  0
POINT
  5
16252
330
15DC6
100
AcDbEntity
  8
DEFPOINTS
 62
     0
 48
50.0
100
AcDbPoint
 10
10828.64059211259
 20
6043.234730473165
 30
0.0
  0
ENDBLK
  5
15DD2
330
15DC6
100
AcDbEntity
  8
0
 48
50.0
100
AcDbBlockEnd
  0
BLOCK
  5
1609A
330
16090
100
AcDbEntity
  8
0
 48
50.0
100
AcDbBlockBegin
  2
*D27
 70
     1
 10
0.0
 20
0.0
 30
0.0
  3
*D27
  1

  0
LINE
  5
16240
330
16090
100
AcDbEntity
  8
寸法
 62
     0
 48
50.0
370
    -2
100
AcDbLine
 10
6936.484233134099
 20
8806.865915108405
 30
0.0
 11
6867.072769142875
 21
8547.818804865421
 31
0.0
  0
LINE
  5
16241
330
16090
100
AcDbEntity
  8
寸法
 62
     0
 48
50.0
370
    -2
100
AcDbLine
 10
7828.484233134109
 20
8806.865915108401
 30
0.0
 11
7759.072769142886
 21
8547.818804865421
 31
0.0
  0
LINE
  5
16242
330
16090
100
AcDbEntity
  8
寸法
 62
     0
 48
50.0
370
    -2
100
AcDbLine
 10
6883.149720688741
 20
8607.818804865422
 30
0.0
 11
7775.149720688755
 21
8607.818804865422
 31
0.0
  0
MTEXT
  5
16243
330
16090
100
AcDbEntity
  8
寸法
 62
     7
 48
50.0
100
AcDbMText
 10
7426.497868864396
 20
8712.904080641951
 30
0.0
 40
120.0
 41
0.0
 71
     5
 72
     1
  1
\A1;892
  7
STYLE1
 73
     1
 44
1.0
1001
ACAD
1000
MTEXTBEGIN
1070
    73
1070
     1
1070
    44
1040
1.0
1070
    74
1070
     0
1000
MTEXTEND
  0
INSERT
  5
16244
330
16090
100
AcDbEntity
  8
寸法
 62
     0
 48
50.0
370
    -2
100
AcDbBlockReference
  2
_DOTSMALL
 10
6883.149720688741
 20
8607.818804865422
 30
0.0
 41
100.0
 42
100.0
 43
100.0
 50
180.0
  0
INSERT
  5
16245
330
16090
100
AcDbEntity
  8
寸法
 62
     0
 48
50.0
370
    -2
100
AcDbBlockReference
  2
_DOTSMALL
 10
7775.149720688755
 20
8607.818804865422
 30
0.0
 41
100.0
 42
100.0
 43
100.0
  0
POINT
  5
16246
330
16090
100
AcDbEntity
  8
DEFPOINTS
 62
     0
 48
50.0
100
AcDbPoint
 10
6941.843216982721
 20
8826.865915108404
 30
0.0
  0
POINT
  5
16247
330
16090
100
AcDbEntity
  8
DEFPOINTS
 62
     0
 48
50.0
100
AcDbPoint
 10
7833.843216982733
 20
8826.865915108401
 30
0.0
  0
POINT
  5
16248
330
16090
100
AcDbEntity
  8
DEFPOINTS
 62
     0
 48
50.0
100
AcDbPoint
 10
7775.149720688755
 20
8607.818804865422
 30
0.0
  0
ENDBLK
  5
1609B
330
16090
100
AcDbEntity
  8
0
 48
50.0
100
AcDbBlockEnd
  0
BLOCK
  5
160A6
330
1609C
100
AcDbEntity
  8
0
 48
50.0
100
AcDbBlockBegin
  2
*D28
 70
     1
 10
0.0
 20
0.0
 30
0.0
  3
*D28
  1

  0
LINE
  5
16237
330
1609C
100
AcDbEntity
  8
寸法
 62
     0
 48
50.0
370
    -2
100
AcDbLine
 10
5986.484233134099
 20
8806.865915108405
 30
0.0
 11
5917.072769142874
 21
8547.818804865421
 31
0.0
  0
LINE
  5
16238
330
1609C
100
AcDbEntity
  8
寸法
 62
     0
 48
50.0
370
    -2
100
AcDbLine
 10
6878.484233134109
 20
8806.865915108401
 30
0.0
 11
6809.072769142886
 21
8547.818804865421
 31
0.0
  0
LINE
  5
16239
330
1609C
100
AcDbEntity
  8
寸法
 62
     0
 48
50.0
370
    -2
100
AcDbLine
 10
5933.149720688742
 20
8607.818804865422
 30
0.0
 11
6825.149720688755
 21
8607.818804865422
 31
0.0
  0
MTEXT
  5
1623A
330
1609C
100
AcDbEntity
  8
寸法
 62
     7
 48
50.0
100
AcDbMText
 10
6482.969031758642
 20
8711.102920258417
 30
0.0
 40
120.0
 41
0.0
 71
     5
 72
     1
  1
\A1;892
  7
STYLE1
 73
     1
 44
1.0
1001
ACAD
1000
MTEXTBEGIN
1070
    73
1070
     1
1070
    44
1040
1.0
1070
    74
1070
     0
1000
MTEXTEND
  0
INSERT
  5
1623B
330
1609C
100
AcDbEntity
  8
寸法
 62
     0
 48
50.0
370
    -2
100
AcDbBlockReference
  2
_DOTSMALL
 10
5933.149720688742
 20
8607.818804865422
 30
0.0
 41
100.0
 42
100.0
 43
100.0
 50
180.0
  0
INSERT
  5
1623C
330
1609C
100
AcDbEntity
  8
寸法
 62
     0
 48
50.0
370
    -2
100
AcDbBlockReference
  2
_DOTSMALL
 10
6825.149720688755
 20
8607.818804865422
 30
0.0
 41
100.0
 42
100.0
 43
100.0
  0
POINT
  5
1623D
330
1609C
100
AcDbEntity
  8
DEFPOINTS
 62
     0
 48
50.0
100
AcDbPoint
 10
5991.843216982721
 20
8826.865915108404
 30
0.0
  0
POINT
  5
1623E
330
1609C
100
AcDbEntity
  8
DEFPOINTS
 62
     0
 48
50.0
100
AcDbPoint
 10
6883.843216982732
 20
8826.865915108401
 30
0.0
  0
POINT
  5
1623F
330
1609C
100
AcDbEntity
  8
DEFPOINTS
 62
     0
 48
50.0
100
AcDbPoint
 10
6825.149720688755
 20
8607.818804865422
 30
0.0
  0
ENDBLK
  5
160A7
330
1609C
100
AcDbEntity
  8
0
 48
50.0
100
AcDbBlockEnd
  0
BLOCK
  5
160C5
330
160BB
100
AcDbEntity
  8
0
 48
50.0
100
AcDbBlockBegin
  2
*D29
 70
     1
 10
0.0
 20
0.0
 30
0.0
  3
*D29
  1

  0
LINE
  5
1622E
330
160BB
100
AcDbEntity
  8
寸法
 62
     0
 48
50.0
370
    -2
100
AcDbLine
 10
5036.484233134098
 20
8806.865915108405
 30
0.0
 11
4967.072769142873
 21
8547.818804865421
 31
0.0
  0
LINE
  5
1622F
330
160BB
100
AcDbEntity
  8
寸法
 62
     0
 48
50.0
370
    -2
100
AcDbLine
 10
5928.484233134109
 20
8806.865915108401
 30
0.0
 11
5859.072769142886
 21
8547.818804865421
 31
0.0
  0
LINE
  5
16230
330
160BB
100
AcDbEntity
  8
寸法
 62
     0
 48
50.0
370
    -2
100
AcDbLine
 10
4983.149720688742
 20
8607.818804865422
 30
0.0
 11
5875.149720688753
 21
8607.818804865422
 31
0.0
  0
MTEXT
  5
16231
330
160BB
100
AcDbEntity
  8
寸法
 62
     7
 48
50.0
100
AcDbMText
 10
5532.969031758642
 20
8711.102920258417
 30
0.0
 40
120.0
 41
0.0
 71
     5
 72
     1
  1
\A1;892
  7
STYLE1
 73
     1
 44
1.0
1001
ACAD
1000
MTEXTBEGIN
1070
    73
1070
     1
1070
    44
1040
1.0
1070
    74
1070
     0
1000
MTEXTEND
  0
INSERT
  5
16232
330
160BB
100
AcDbEntity
  8
寸法
 62
     0
 48
50.0
370
    -2
100
AcDbBlockReference
  2
_DOTSMALL
 10
4983.149720688742
 20
8607.818804865422
 30
0.0
 41
100.0
 42
100.0
 43
100.0
 50
180.0
  0
INSERT
  5
16233
330
160BB
100
AcDbEntity
  8
寸法
 62
     0
 48
50.0
370
    -2
100
AcDbBlockReference
  2
_DOTSMALL
 10
5875.149720688753
 20
8607.818804865422
 30
0.0
 41
100.0
 42
100.0
 43
100.0
  0
POINT
  5
16234
330
160BB
100
AcDbEntity
  8
DEFPOINTS
 62
     0
 48
50.0
100
AcDbPoint
 10
5041.84321698272
 20
8826.865915108404
 30
0.0
  0
POINT
  5
16235
330
160BB
100
AcDbEntity
  8
DEFPOINTS
 62
     0
 48
50.0
100
AcDbPoint
 10
5933.843216982731
 20
8826.865915108401
 30
0.0
  0
POINT
  5
16236
330
160BB
100
AcDbEntity
  8
DEFPOINTS
 62
     0
 48
50.0
100
AcDbPoint
 10
5875.149720688753
 20
8607.818804865422
 30
0.0
  0
ENDBLK
  5
160C6
330
160BB
100
AcDbEntity
  8
0
 48
50.0
100
AcDbBlockEnd
  0
BLOCK
  5
16119
330
1610D
100
AcDbEntity
  8
0
 48
50.0
100
AcDbBlockBegin
  2
*D30
 70
     1
 10
0.0
 20
0.0
 30
0.0
  3
*D30
  1

  0
LINE
  5
16211
330
1610D
100
AcDbEntity
  8
寸法
 62
     0
 48
50.0
370
    -2
100
AcDbLine
 10
5012.843210305117
 20
5664.57727689387
 30
0.0
 11
5012.843210305117
 21
5917.118862152107
 31
0.0
  0
LINE
  5
16212
330
1610D
100
AcDbEntity
  8
寸法
 62
     0
 48
50.0
370
    -2
100
AcDbLine
 10
4962.843210305116
 20
5664.577276893868
 30
0.0
 11
4962.843210305116
 21
5917.118862152107
 31
0.0
  0
LINE
  5
16213
330
1610D
100
AcDbEntity
  8
寸法
 62
     0
 48
50.0
370
    -2
100
AcDbLine
 10
5012.843210305117
 20
5857.118862152106
 30
0.0
 11
5112.843210305117
 21
5857.118862152106
 31
0.0
  0
LINE
  5
16214
330
1610D
100
AcDbEntity
  8
寸法
 62
     0
 48
50.0
370
    -2
100
AcDbLine
 10
4962.843210305116
 20
5857.118862152106
 30
0.0
 11
4543.310684836381
 21
5857.118862152106
 31
0.0
  0
LINE
  5
16215
330
1610D
100
AcDbEntity
  8
寸法
 62
     0
 48
50.0
370
    -2
100
AcDbLine
 10
5012.843210305117
 20
5857.118862152106
 30
0.0
 11
4962.843210305116
 21
5857.118862152106
 31
0.0
  0
INSERT
  5
16216
330
1610D
100
AcDbEntity
  8
寸法
 62
     0
 48
50.0
370
    -2
100
AcDbBlockReference
  2
_DOTSMALL
 10
5012.843210305117
 20
5857.118862152106
 30
0.0
 41
100.0
 42
100.0
 43
100.0
 50
180.0
  0
INSERT
  5
16217
330
1610D
100
AcDbEntity
  8
寸法
 62
     0
 48
50.0
370
    -2
100
AcDbBlockReference
  2
_DOTSMALL
 10
4962.843210305116
 20
5857.118862152106
 30
0.0
 41
100.0
 42
100.0
 43
100.0
  0
MTEXT
  5
16218
330
1610D
100
AcDbEntity
  8
寸法
 62
     7
 48
50.0
100
AcDbMText
 10
4649.357928930869
 20
5957.118862152107
 30
0.0
 40
120.0
 41
0.0
 71
     5
 72
     1
  1
\A1;50
  7
STYLE1
 73
     1
 44
1.0
1001
ACAD
1000
MTEXTBEGIN
1070
    73
1070
     1
1070
    44
1040
1.0
1070
    74
1070
     0
1000
MTEXTEND
  0
POINT
  5
16219
330
1610D
100
AcDbEntity
  8
DEFPOINTS
 62
     0
 48
50.0
100
AcDbPoint
 10
5012.843210305117
 20
5644.577276893869
 30
0.0
  0
POINT
  5
1621A
330
1610D
100
AcDbEntity
  8
DEFPOINTS
 62
     0
 48
50.0
100
AcDbPoint
 10
4962.843210305116
 20
5644.577276893868
 30
0.0
  0
POINT
  5
1621B
330
1610D
100
AcDbEntity
  8
DEFPOINTS
 62
     0
 48
50.0
100
AcDbPoint
 10
4962.843210305116
 20
5857.118862152106
 30
0.0
  0
ENDBLK
  5
1611A
330
1610D
100
AcDbEntity
  8
0
 48
50.0
100
AcDbBlockEnd
  0
BLOCK
  5
16125
330
1611B
100
AcDbEntity
  8
0
 48
50.0
100
AcDbBlockBegin
  2
*D31
 70
     1
 10
0.0
 20
0.0
 30
0.0
  3
*D31
  1

  0
LINE
  5
1621C
330
1611B
100
AcDbEntity
  8
寸法
 62
     0
 48
50.0
370
    -2
100
AcDbLine
 10
7862.843210305119
 20
5664.577276893864
 30
0.0
 11
7862.843210305119
 21
5917.118862152106
 31
0.0
  0
LINE
  5
1621D
330
1611B
100
AcDbEntity
  8
寸法
 62
     0
 48
50.0
370
    -2
100
AcDbLine
 10
5012.843210305117
 20
5664.57727689387
 30
0.0
 11
5012.843210305117
 21
5917.118862152106
 31
0.0
  0
LINE
  5
1621E
330
1611B
100
AcDbEntity
  8
寸法
 62
     0
 48
50.0
370
    -2
100
AcDbLine
 10
7862.843210305119
 20
5857.118862152105
 30
0.0
 11
5012.843210305117
 21
5857.118862152105
 31
0.0
  0
INSERT
  5
1621F
330
1611B
100
AcDbEntity
  8
寸法
 62
     0
 48
50.0
370
    -2
100
AcDbBlockReference
  2
_DOTSMALL
 10
7862.843210305119
 20
5857.118862152105
 30
0.0
 41
100.0
 42
100.0
 43
100.0
  0
INSERT
  5
16220
330
1611B
100
AcDbEntity
  8
寸法
 62
     0
 48
50.0
370
    -2
100
AcDbBlockReference
  2
_DOTSMALL
 10
5012.843210305117
 20
5857.118862152105
 30
0.0
 41
100.0
 42
100.0
 43
100.0
 50
180.0
  0
MTEXT
  5
16221
330
1611B
100
AcDbEntity
  8
寸法
 62
     7
 48
50.0
100
AcDbMText
 10
6437.843210305107
 20
5957.130673175727
 30
0.0
 40
120.0
 41
0.0
 71
     5
 72
     1
  1
\A1;柱外寸法2850
  7
STYLE1
 73
     1
 44
1.0
1001
ACAD
1000
MTEXTBEGIN
1070
    73
1070
     1
1070
    44
1040
1.0
1070
    74
1070
     0
1000
MTEXTEND
  0
POINT
  5
16222
330
1611B
100
AcDbEntity
  8
DEFPOINTS
 62
     0
 48
50.0
100
AcDbPoint
 10
7862.843210305119
 20
5644.577276893864
 30
0.0
  0
POINT
  5
16223
330
1611B
100
AcDbEntity
  8
DEFPOINTS
 62
     0
 48
50.0
100
AcDbPoint
 10
5012.843210305117
 20
5644.577276893869
 30
0.0
  0
POINT
  5
16224
330
1611B
100
AcDbEntity
  8
DEFPOINTS
 62
     0
 48
50.0
100
AcDbPoint
 10
5012.843210305117
 20
5857.118862152105
 30
0.0
  0
ENDBLK
  5
16126
330
1611B
100
AcDbEntity
  8
0
 48
50.0
100
AcDbBlockEnd
  0
BLOCK
  5
16131
330
16127
100
AcDbEntity
  8
0
 48
50.0
100
AcDbBlockBegin
  2
*D32
 70
     1
 10
0.0
 20
0.0
 30
0.0
  3
*D32
  1

  0
LINE
  5
16225
330
16127
100
AcDbEntity
  8
寸法
 62
     0
 48
50.0
370
    -2
100
AcDbLine
 10
4962.843210305116
 20
5664.577276893868
 30
0.0
 11
4962.843210305116
 21
6140.075840589954
 31
0.0
  0
LINE
  5
16226
330
16127
100
AcDbEntity
  8
寸法
 62
     0
 48
50.0
370
    -2
100
AcDbLine
 10
7912.843210305119
 20
5664.577276893862
 30
0.0
 11
7912.843210305119
 21
6140.075840589954
 31
0.0
  0
LINE
  5
16227
330
16127
100
AcDbEntity
  8
寸法
 62
     0
 48
50.0
370
    -2
100
AcDbLine
 10
4962.843210305116
 20
6080.075840589954
 30
0.0
 11
7912.843210305119
 21
6080.075840589954
 31
0.0
  0
INSERT
  5
16228
330
16127
100
AcDbEntity
  8
寸法
 62
     0
 48
50.0
370
    -2
100
AcDbBlockReference
  2
_DOTSMALL
 10
4962.843210305116
 20
6080.075840589954
 30
0.0
 41
100.0
 42
100.0
 43
100.0
 50
180.0
  0
INSERT
  5
16229
330
16127
100
AcDbEntity
  8
寸法
 62
     0
 48
50.0
370
    -2
100
AcDbBlockReference
  2
_DOTSMALL
 10
7912.843210305119
 20
6080.075840589954
 30
0.0
 41
100.0
 42
100.0
 43
100.0
  0
MTEXT
  5
1622A
330
16127
100
AcDbEntity
  8
寸法
 62
     7
 48
50.0
100
AcDbMText
 10
6437.843210305107
 20
6180.087651613575
 30
0.0
 40
120.0
 41
0.0
 71
     5
 72
     1
  1
\A1;2950
  7
STYLE1
 73
     1
 44
1.0
1001
ACAD
1000
MTEXTBEGIN
1070
    73
1070
     1
1070
    44
1040
1.0
1070
    74
1070
     0
1000
MTEXTEND
  0
POINT
  5
1622B
330
16127
100
AcDbEntity
  8
DEFPOINTS
 62
     0
 48
50.0
100
AcDbPoint
 10
4962.843210305116
 20
5644.577276893868
 30
0.0
  0
POINT
  5
1622C
330
16127
100
AcDbEntity
  8
DEFPOINTS
 62
     0
 48
50.0
100
AcDbPoint
 10
7912.843210305119
 20
5644.577276893862
 30
0.0
  0
POINT
  5
1622D
330
16127
100
AcDbEntity
  8
DEFPOINTS
 62
     0
 48
50.0
100
AcDbPoint
 10
7912.843210305119
 20
6080.075840589954
 30
0.0
  0
ENDBLK
  5
16132
330
16127
100
AcDbEntity
  8
0
 48
50.0
100
AcDbBlockEnd
  0
BLOCK
  5
16167
330
1615B
100
AcDbEntity
  8
0
 48
50.0
100
AcDbBlockBegin
  2
*D33
 70
     1
 10
0.0
 20
0.0
 30
0.0
  3
*D33
  1

  0
LINE
  5
16206
330
1615B
100
AcDbEntity
  8
寸法
 62
     0
 48
50.0
370
    -2
100
AcDbLine
 10
7912.843210305119
 20
5664.577276893862
 30
0.0
 11
7912.843210305119
 21
5917.118862152103
 31
0.0
  0
LINE
  5
16207
330
1615B
100
AcDbEntity
  8
寸法
 62
     0
 48
50.0
370
    -2
100
AcDbLine
 10
7862.843210305119
 20
5664.577276893864
 30
0.0
 11
7862.843210305119
 21
5917.118862152103
 31
0.0
  0
LINE
  5
16208
330
1615B
100
AcDbEntity
  8
寸法
 62
     0
 48
50.0
370
    -2
100
AcDbLine
 10
7862.843210305119
 20
5857.118862152103
 30
0.0
 11
7762.84321030512
 21
5857.118862152103
 31
0.0
  0
LINE
  5
16209
330
1615B
100
AcDbEntity
  8
寸法
 62
     0
 48
50.0
370
    -2
100
AcDbLine
 10
7912.843210305119
 20
5857.118862152103
 30
0.0
 11
8332.375735773842
 21
5857.118862152103
 31
0.0
  0
LINE
  5
1620A
330
1615B
100
AcDbEntity
  8
寸法
 62
     0
 48
50.0
370
    -2
100
AcDbLine
 10
7862.843210305119
 20
5857.118862152103
 30
0.0
 11
7912.843210305119
 21
5857.118862152103
 31
0.0
  0
INSERT
  5
1620B
330
1615B
100
AcDbEntity
  8
寸法
 62
     0
 48
50.0
370
    -2
100
AcDbBlockReference
  2
_DOTSMALL
 10
7862.843210305119
 20
5857.118862152103
 30
0.0
 41
100.0
 42
100.0
 43
100.0
  0
INSERT
  5
1620C
330
1615B
100
AcDbEntity
  8
寸法
 62
     0
 48
50.0
370
    -2
100
AcDbBlockReference
  2
_DOTSMALL
 10
7912.843210305119
 20
5857.118862152103
 30
0.0
 41
100.0
 42
100.0
 43
100.0
 50
180.0
  0
MTEXT
  5
1620D
330
1615B
100
AcDbEntity
  8
寸法
 62
     7
 48
50.0
100
AcDbMText
 10
8226.328491679357
 20
5957.118862152103
 30
0.0
 40
120.0
 41
0.0
 71
     5
 72
     1
  1
\A1;50
  7
STYLE1
 73
     1
 44
1.0
1001
ACAD
1000
MTEXTBEGIN
1070
    73
1070
     1
1070
    44
1040
1.0
1070
    74
1070
     0
1000
MTEXTEND
  0
POINT
  5
1620E
330
1615B
100
AcDbEntity
  8
DEFPOINTS
 62
     0
 48
50.0
100
AcDbPoint
 10
7912.843210305119
 20
5644.577276893862
 30
0.0
  0
POINT
  5
1620F
330
1615B
100
AcDbEntity
  8
DEFPOINTS
 62
     0
 48
50.0
100
AcDbPoint
 10
7862.843210305119
 20
5644.577276893864
 30
0.0
  0
POINT
  5
16210
330
1615B
100
AcDbEntity
  8
DEFPOINTS
 62
     0
 48
50.0
100
AcDbPoint
 10
7862.843210305119
 20
5857.118862152103
 30
0.0
  0
ENDBLK
  5
16168
330
1615B
100
AcDbEntity
  8
0
 48
50.0
100
AcDbBlockEnd
  0
ENDSEC
  0
SECTION
  2
ENTITIES
  0
LINE
  5
10B56
330
747D
100
AcDbEntity
  8
補助
  6
PHANTOM
 62
   230
 48
50.0
100
AcDbLine
 10
140.0
 20
0.0
 30
0.0
 11
139.9999999999995
 21
11409.6
 31
0.0
  0
LINE
  5
10B57
330
747D
100
AcDbEntity
  8
補助
  6
PHANTOM
 62
   230
 48
50.0
100
AcDbLine
 10
139.9999999999995
 20
11409.6
 30
0.0
 11
16307.2
 21
11409.6
 31
0.0
  0
LINE
  5
10B59
330
747D
100
AcDbEntity
  8
仕様書枠
  6
Continuous
 48
50.0
100
AcDbLine
 10
13107.2
 20
1200.0
 30
0.0
 11
13107.2
 21
-0.0000000000000729
 31
0.0
  0
LINE
  5
10B5C
330
747D
100
AcDbEntity
  8
仕様書枠
 48
50.0
100
AcDbLine
 10
16307.2
 20
1200.0
 30
0.0
 11
16307.2
 21
-0.0000000000000909
 31
0.0
  0
LINE
  5
10B5D
330
747D
100
AcDbEntity
  8
仕様書枠
 48
50.0
100
AcDbLine
 10
140.0
 20
0.0
 30
0.0
 11
16307.2
 21
-0.0000000000000909
 31
0.0
  0
LINE
  5
10B5E
330
747D
100
AcDbEntity
  8
補助
  6
PHANTOM
 62
   230
 48
50.0
100
AcDbLine
 10
16307.2
 20
11409.6
 30
0.0
 11
16307.2
 21
1200.0
 31
0.0
  0
LINE
  5
10B6C
330
747D
100
AcDbEntity
  8
仕様書枠
 48
50.0
100
AcDbLine
 10
13107.2
 20
1200.0
 30
0.0
 11
16307.2
 21
1200.0
 31
0.0
  0
LINE
  5
10B6D
330
747D
100
AcDbEntity
  8
補助
  6
PHANTOM
 62
   230
 48
50.0
100
AcDbLine
 10
13107.2
 20
11409.6
 30
0.0
 11
13107.2
 21
4800.0
 31
0.0
  0
LINE
  5
10B6F
330
747D
100
AcDbEntity
  8
補助
  6
PHANTOM
 62
   230
 48
50.0
100
AcDbLine
 10
13107.2
 20
4800.0
 30
0.0
 11
16307.2
 21
4800.0
 31
0.0
  0
LINE
  5
10B72
330
747D
100
AcDbEntity
  8
文字
 62
     7
 48
50.0
100
AcDbLine
 10
13187.2
 20
400.0
 30
0.0
 11
16227.2
 21
400.0
 31
0.0
  0
TEXT
  5
10B73
330
747D
100
AcDbEntity
  8
文字
 62
     7
 48
50.0
100
AcDbText
 10
13162.9790565769
 20
895.0906074299405
 30
0.0
 40
200.0
  1
外 形 図
  7
STYLE2
100
AcDbText
  0
TEXT
  5
10B74
330
747D
100
AcDbEntity
  8
文字
 62
     7
 48
50.0
100
AcDbText
 10
13201.43669998441
 20
477.2740661031255
 30
0.0
 40
160.0
  1
機種名
  7
STYLE2
100
AcDbText
  0
TEXT
  5
10B75
330
747D
100
AcDbEntity
  8
文字
 62
     7
 48
50.0
100
AcDbText
 10
13209.4053442172
 20
228.5435242569016
 30
0.0
 40
100.0
  1
○有効開口寸法 ： 685×1760(mm)
  7
STYLE2
100
AcDbText
  0
TEXT
  5
10B76
330
747D
100
AcDbEntity
  8
文字
 62
     7
 48
50.0
100
AcDbText
 10
13209.4053442172
 20
76.09434707649343
 30
0.0
 40
100.0
  1
○床面積 ： 2.71㎡(0.82坪) 　
  7
STYLE2
100
AcDbText
  0
TEXT
  5
10B79
330
747D
100
AcDbEntity
  8
文字
 62
     7
 48
50.0
100
AcDbText
 10
14524.131837222
 20
1031.557706291228
 30
0.0
 40
100.0
  1
NO.02     <縮尺> S=1/40
  7
STYLE2
100
AcDbText
  0
LINE
  5
10B7B
330
747D
100
AcDbEntity
  8
仕様書枠
 48
50.0
100
AcDbLine
 10
13107.2
 20
800.0
 30
0.0
 11
14251.2
 21
800.0
 31
0.0
  0
LINE
  5
10B88
330
747D
100
AcDbEntity
  8
仕様書枠
  6
Continuous
 48
50.0
100
AcDbLine
 10
14251.2
 20
1200.0
 30
0.0
 11
14251.2
 21
800.0
 31
0.0
  0
LINE
  5
13A41
330
747D
100
AcDbEntity
  8
Ｇ．Ｌ
100
AcDbLine
 10
3928.871552782839
 20
3469.57727689386
 30
0.0
 11
11532.31807629393
 21
3469.57727689386
 31
0.0
  0
TEXT
  5
13A63
330
747D
100
AcDbEntity
  8
部品1
100
AcDbText
 10
3934.566743059193
 20
3505.684180499763
 30
0.0
 40
125.0
  1
▽G.L
  7
STYLE2
100
AcDbText
  0
TEXT
  5
13B2F
330
747D
100
AcDbEntity
  8
部品1
100
AcDbText
 10
6146.027487165564
 20
6825.893697090123
 30
0.0
 40
135.0
  1
平面図
  7
STYLE2
100
AcDbText
  0
LWPOLYLINE
  5
13B30
330
747D
100
AcDbEntity
  8
部品1
100
AcDbPolyline
 90
        4
 70
     1
 43
0.0
 10
6056.107877336526
 20
7018.787226308646
 10
6056.107877336526
 20
6778.894904763113
 10
6819.578543564965
 20
6778.894904763113
 10
6819.578543564965
 20
7018.787226308646
  0
LINE
  5
1518B
330
747D
100
AcDbEntity
  8
部品1
100
AcDbLine
 10
5012.843210305123
 20
9306.365915108436
 30
0.0
 11
7862.843210305124
 21
9306.36591510853
 31
0.0
  0
LINE
  5
1518C
330
747D
100
AcDbEntity
  8
部品1
100
AcDbLine
 10
7862.843210305098
 20
8356.365915108517
 30
0.0
 11
5012.843210305117
 21
8356.365915108421
 31
0.0
  0
DIMENSION
  5
1518D
330
747D
100
AcDbEntity
  8
寸法
100
AcDbDimension
  2
*D1
 10
7862.843210305098
 20
7369.264040248284
 30
0.0
 11
6372.843210305108
 21
7369.264040248284
 31
0.0
 70
   160
 71
     5
 42
2849.999999999982
  3
INABA_S40G
100
AcDbAlignedDimension
 13
5012.843210305117
 23
8356.365915108355
 33
0.0
 14
7862.843210305098
 24
8356.365915108487
 34
0.0
100
AcDbRotatedDimension
1001
ACAD
1000
DSTYLE
1002
{
1002
}
  0
LINE
  5
1518E
330
747D
100
AcDbEntity
  8
破線
 48
10.0
100
AcDbLine
 10
6833.84321030511
 20
8511.365915108479
 30
0.0
 11
6041.843210305109
 21
8511.365915108465
 31
0.0
  0
LINE
  5
1518F
330
747D
100
AcDbEntity
  8
部品1
100
AcDbLine
 10
6737.843210305115
 20
8382.36591510852
 30
0.0
 11
6007.843210305116
 21
8382.365915108499
 31
0.0
  0
LINE
  5
15190
330
747D
100
AcDbEntity
  8
部品1
100
AcDbLine
 10
6857.3432103051
 20
8487.865915108478
 30
0.0
 11
6018.342717051218
 21
8487.865412911007
 31
0.0
  0
ARC
  5
15192
330
747D
100
AcDbEntity
  8
想像線
 48
10.0
100
AcDbCircle
 10
6730.491159627956
 20
8358.060808484045
 30
0.0
 40
722.6499369155582
100
AcDbArc
 50
180.1343808685487
 51
270.5829222700354
  0
LINE
  5
15193
330
747D
100
AcDbEntity
  8
部品1
100
AcDbLine
 10
5990.843210305071
 20
9278.365915108457
 30
0.0
 11
6910.223913323725
 21
9278.365915108478
 31
0.0
  0
LINE
  5
15194
330
747D
100
AcDbEntity
  8
部品1
 48
5.0
100
AcDbLine
 10
5986.843210305118
 20
8385.865915108414
 30
0.0
 11
6888.843210305118
 21
8385.865915108473
 31
0.0
  0
LINE
  5
15196
330
747D
100
AcDbEntity
  8
部品1
100
AcDbLine
 10
5991.843216982719
 20
8826.865915108406
 30
0.0
 11
6883.843216982717
 21
8826.865915108509
 31
0.0
  0
LINE
  5
15197
330
747D
100
AcDbEntity
  8
細線
 48
50.0
100
AcDbLine
 10
6883.843216982718
 20
9276.865915108508
 30
0.0
 11
5991.843216982719
 21
8826.865915108406
 31
0.0
  0
LINE
  5
15198
330
747D
100
AcDbEntity
  8
細線
 48
50.0
100
AcDbLine
 10
6883.843216982717
 20
8826.865915108509
 30
0.0
 11
5991.843216982718
 21
9276.865915108407
 31
0.0
  0
LINE
  5
15199
330
747D
100
AcDbEntity
  8
部品1
100
AcDbLine
 10
5991.843216982718
 20
9276.865915108407
 30
0.0
 11
6883.843216982718
 21
9276.865915108515
 31
0.0
  0
DIMENSION
  5
1519A
330
747D
100
AcDbEntity
  8
寸法
100
AcDbDimension
  2
*D2
 10
6857.843210305121
 20
9522.174134733534
 30
0.0
 11
6437.843210305122
 21
9522.174134733534
 31
0.0
 70
   160
  1
2X420=<>
 71
     5
 42
839.9999999999991
  3
INABA_S40G
100
AcDbAlignedDimension
 13
6017.843210305123
 23
9306.365915108465
 33
0.0
 14
6857.843210305121
 24
9306.365915108552
 34
0.0
100
AcDbRotatedDimension
1001
ACAD
1000
DSTYLE
1002
{
1002
}
  0
DIMENSION
  5
1519B
330
747D
100
AcDbEntity
  8
寸法
 48
50.0
100
AcDbDimension
  2
*D3
 10
6017.843210305126
 20
9522.174134733534
 30
0.0
 11
5962.843210305123
 21
9779.050803348036
 31
0.0
 70
   160
 71
     5
 42
110.0000000000036
  3
INABA_S40G
100
AcDbAlignedDimension
 13
5907.843210305122
 23
9306.365915108552
 33
0.0
 14
6017.843210305126
 24
9306.36591510853
 34
0.0
100
AcDbRotatedDimension
1001
ACAD
1000
DSTYLE
1002
{
1070
   279
1070
     2
1002
}
  0
DIMENSION
  5
1519C
330
747D
100
AcDbEntity
  8
寸法
 48
50.0
100
AcDbDimension
  2
*D4
 10
7652.843210305116
 20
7916.542247313351
 30
0.0
 11
7310.343210305119
 21
7916.542247313351
 31
0.0
 70
   160
  1
有効開口部間口\P<>
 71
     5
 42
684.9999999999954
  3
INABA_S40G
100
AcDbAlignedDimension
 13
6967.843210305121
 23
8356.365915108428
 33
0.0
 14
7652.843210305116
 24
8356.365915108392
 34
0.0
100
AcDbRotatedDimension
  0
ARC
  5
1519D
330
747D
100
AcDbEntity
  8
想像線
 48
10.0
100
AcDbCircle
 10
5780.491159627957
 20
8358.060808484045
 30
0.0
 40
722.649936915559
100
AcDbArc
 50
180.1343808685458
 51
270.5829222700353
  0
LINE
  5
1519E
330
747D
100
AcDbEntity
  8
想像線
 48
10.0
100
AcDbLine
 10
5787.843210305116
 20
8356.365915108472
 30
0.0
 11
5787.843210305116
 21
7635.448271452682
 31
0.0
  0
DIMENSION
  5
1519F
330
747D
100
AcDbEntity
  8
寸法
100
AcDbDimension
  2
*D5
 10
5067.843210305123
 20
9522.174134733417
 30
0.0
 11
4704.357928930849
 21
9522.174134733417
 31
0.0
 70
   160
 71
     5
 42
55.00000000003456
  3
INABA_S40G
100
AcDbAlignedDimension
 13
5012.843210305089
 23
9306.365915108436
 33
0.0
 14
5067.843210305123
 24
9306.365915108436
 34
0.0
100
AcDbRotatedDimension
1001
ACAD
1000
DSTYLE
1002
{
1002
}
  0
LINE
  5
151A0
330
747D
100
AcDbEntity
  8
部品1
 48
50.0
100
AcDbLine
 10
5933.843216982719
 20
9276.865915108508
 30
0.0
 11
5933.843216982719
 21
8826.865915108509
 31
0.0
  0
LINE
  5
151A1
330
747D
100
AcDbEntity
  8
部品1
 48
50.0
100
AcDbLine
 10
5991.843216982718
 20
9276.8659151084
 30
0.0
 11
5991.843216982719
 21
8826.865915108406
 31
0.0
  0
LINE
  5
151A2
330
747D
100
AcDbEntity
  8
部品1
 48
50.0
100
AcDbLine
 10
5990.843210305103
 20
8411.365915108472
 30
0.0
 11
5990.843210305047
 21
9306.365915108479
 31
0.0
  0
LINE
  5
151A3
330
747D
100
AcDbEntity
  8
部品1
 48
50.0
100
AcDbLine
 10
5934.843210305103
 20
8411.365915108472
 30
0.0
 11
5934.843210305049
 21
9278.365915108478
 31
0.0
  0
LINE
  5
151A4
330
747D
100
AcDbEntity
  8
部品1
 48
50.0
100
AcDbLine
 10
5962.843210305102
 20
8411.365915108472
 30
0.0
 11
5962.843210305102
 21
9251.365915108479
 31
0.0
  0
LINE
  5
151A5
330
747D
100
AcDbEntity
  8
部品1
 48
50.0
100
AcDbLine
 10
5041.843216982718
 20
9276.8659151084
 30
0.0
 11
5041.843216982718
 21
8826.865915108406
 31
0.0
  0
LINE
  5
151A6
330
747D
100
AcDbEntity
  8
部品1
100
AcDbLine
 10
5040.843210305098
 20
8411.365915108385
 30
0.0
 11
5040.843210305123
 21
9278.365915108436
 31
0.0
  0
LINE
  5
151A7
330
747D
100
AcDbEntity
  8
部品1
100
AcDbLine
 10
5012.843210305089
 20
9306.365915108399
 30
0.0
 11
5012.843210305117
 21
8356.365915108392
 31
0.0
  0
LINE
  5
151A8
330
747D
100
AcDbEntity
  8
細線
 48
50.0
100
AcDbLine
 10
5933.843216982719
 20
9276.865915108508
 30
0.0
 11
5041.843216982718
 21
8826.865915108406
 31
0.0
  0
LINE
  5
151A9
330
747D
100
AcDbEntity
  8
細線
 48
50.0
100
AcDbLine
 10
5933.843216982717
 20
8826.865915108509
 30
0.0
 11
5041.843216982718
 21
9276.865915108407
 31
0.0
  0
LINE
  5
151AA
330
747D
100
AcDbEntity
  8
破線
 48
10.0
100
AcDbLine
 10
5883.84321030511
 20
8511.365915108461
 30
0.0
 11
5092.84321030511
 21
8511.365915108443
 31
0.0
  0
LINE
  5
151AB
330
747D
100
AcDbEntity
  8
部品1
100
AcDbLine
 10
6013.843210305116
 20
8356.365915108421
 30
0.0
 11
5012.843210305117
 21
8356.365915108392
 31
0.0
  0
LINE
  5
151AC
330
747D
100
AcDbEntity
  8
部品1
 48
5.0
100
AcDbLine
 10
5055.843210305117
 20
8385.865915108356
 30
0.0
 11
5938.843210305118
 21
8385.865915108414
 31
0.0
  0
LINE
  5
151AD
330
747D
100
AcDbEntity
  8
部品1
100
AcDbLine
 10
5787.843210305116
 20
8382.365915108486
 30
0.0
 11
5057.843210305116
 21
8382.365915108458
 31
0.0
  0
LINE
  5
151AE
330
747D
100
AcDbEntity
  8
部品1
100
AcDbLine
 10
5907.343780753281
 20
8487.865334288516
 30
0.0
 11
5069.34418173151
 21
8487.864832799994
 31
0.0
  0
LINE
  5
151AF
330
747D
100
AcDbEntity
  8
部品1
100
AcDbLine
 10
5041.843216982719
 20
8826.865915108406
 30
0.0
 11
5933.843216982717
 21
8826.865915108509
 31
0.0
  0
LINE
  5
151B1
330
747D
100
AcDbEntity
  8
破線
 48
10.0
100
AcDbLine
 10
5092.843275229824
 20
8826.865915108443
 30
0.0
 11
5092.84321030511
 21
8511.365915108443
 31
0.0
  0
LINE
  5
151B2
330
747D
100
AcDbEntity
  8
部品1
 48
5.0
100
AcDbLine
 10
5069.34418173008
 20
8487.86591510853
 30
0.0
 11
5069.343688798769
 21
8826.865915108443
 31
0.0
  0
LINE
  5
151B3
330
747D
100
AcDbEntity
  8
部品1
100
AcDbLine
 10
5012.843210305114
 20
8411.365915108355
 30
0.0
 11
5012.843210305117
 21
8356.365915108355
 31
0.0
  0
LINE
  5
151B4
330
747D
100
AcDbEntity
  8
部品1
100
AcDbLine
 10
5040.843210305115
 20
8411.365915108399
 30
0.0
 11
5012.843210305114
 21
8411.365915108399
 31
0.0
  0
LINE
  5
151B5
330
747D
100
AcDbEntity
  8
部品1
100
AcDbLine
 10
5040.843210305098
 20
8411.365915108385
 30
0.0
 11
5012.843210305114
 21
8411.365915108385
 31
0.0
  0
LINE
  5
151B6
330
747D
100
AcDbEntity
  8
部品1
100
AcDbLine
 10
5040.843210305098
 20
8411.365915108355
 30
0.0
 11
5012.843210305114
 21
8411.365915108355
 31
0.0
  0
LINE
  5
151B7
330
747D
100
AcDbEntity
  8
部品1
 48
2.83
100
AcDbLine
 10
5044.843210305117
 20
8411.365915108355
 30
0.0
 11
5067.843210305117
 21
8411.365915108355
 31
0.0
  0
LINE
  5
151B8
330
747D
100
AcDbEntity
  8
部品1
 48
2.83
100
AcDbLine
 10
5055.843210305117
 20
8356.365915108355
 30
0.0
 11
5012.843210305117
 21
8356.365915108355
 31
0.0
  0
LINE
  5
151B9
330
747D
100
AcDbEntity
  8
部品1
 48
2.83
100
AcDbLine
 10
5012.843210305117
 20
8411.365915108355
 30
0.0
 11
5035.843210305117
 21
8411.365915108355
 31
0.0
  0
LINE
  5
151BA
330
747D
100
AcDbEntity
  8
部品1
 48
2.83
100
AcDbLine
 10
5067.843210305117
 20
8411.365915108355
 30
0.0
 11
5067.843210305119
 21
8385.865915108356
 31
0.0
  0
LINE
  5
151BB
330
747D
100
AcDbEntity
  8
部品1
 48
2.83
100
AcDbLine
 10
5055.843210305117
 20
8385.865915108356
 30
0.0
 11
5055.843210305117
 21
8356.365915108355
 31
0.0
  0
LINE
  5
151BC
330
747D
100
AcDbEntity
  8
部品1
 48
2.83
100
AcDbLine
 10
5012.843210305117
 20
8356.365915108355
 30
0.0
 11
5012.843210305117
 21
8411.365915108355
 31
0.0
  0
LINE
  5
151BD
330
747D
100
AcDbEntity
  8
部品1
 48
50.0
100
AcDbLine
 10
5069.34418173151
 20
8487.864832799994
 30
0.0
 11
5040.843210305099
 21
8458.845661867529
 31
0.0
  0
LINE
  5
151BE
330
747D
100
AcDbEntity
  8
部品1
100
AcDbLine
 10
5057.843210305116
 20
8382.365915108493
 30
0.0
 11
5057.843210305116
 21
8356.365915108458
 31
0.0
  0
LINE
  5
151BF
330
747D
100
AcDbEntity
  8
部品1
100
AcDbLine
 10
5040.843210305098
 20
8831.365915108399
 30
0.0
 11
5012.843210305097
 21
8831.365915108399
 31
0.0
  0
LINE
  5
151C0
330
747D
100
AcDbEntity
  8
破線
 48
10.0
100
AcDbLine
 10
6041.843210305109
 20
8511.365915108488
 30
0.0
 11
6041.843197873999
 21
8826.865915108482
 31
0.0
  0
LINE
  5
151C1
330
747D
100
AcDbEntity
  8
破線
 48
10.0
100
AcDbLine
 10
5883.84321030511
 20
8511.365915108479
 30
0.0
 11
5883.843201950558
 21
8826.865915108538
 31
0.0
  0
LINE
  5
151C2
330
747D
100
AcDbEntity
  8
部品1
 48
50.0
100
AcDbLine
 10
5907.343210305101
 20
8487.865915108478
 30
0.0
 11
5907.343210305078
 21
8826.865915108538
 31
0.0
  0
LINE
  5
151C3
330
747D
100
AcDbEntity
  8
部品1
 48
50.0
100
AcDbLine
 10
6018.343203960815
 20
8487.865915133141
 30
0.0
 11
6018.343206933678
 21
8826.865915108482
 31
0.0
  0
LINE
  5
151C4
330
747D
100
AcDbEntity
  8
部品1
 48
50.0
100
AcDbLine
 10
5487.343210305109
 20
8826.865915108458
 30
0.0
 11
5487.343047433006
 21
8487.86508294526
 31
0.0
  0
LINE
  5
151C5
330
747D
100
AcDbEntity
  8
部品1
100
AcDbLine
 10
5787.843210305116
 20
8382.365915108524
 30
0.0
 11
5787.843210305116
 21
8356.365915108469
 31
0.0
  0
ARC
  5
151C6
330
747D
100
AcDbEntity
  8
部品1
 48
0.2
100
AcDbCircle
 10
5779.905658133794
 20
8357.363545063694
 30
0.0
 40
8.0
100
AcDbArc
 50
270.0
 51
352.8363522778074
  0
ARC
  5
151C7
330
747D
100
AcDbEntity
  8
部品1
 48
0.2
100
AcDbCircle
 10
5774.905658133794
 20
8357.363545063694
 30
0.0
 40
8.0
100
AcDbArc
 50
187.1636477221926
 51
269.9999999999992
  0
ARC
  5
151C8
330
747D
100
AcDbEntity
  8
細線
 48
0.2
100
AcDbCircle
 10
5779.905658133794
 20
8357.363545063694
 30
0.0
 40
4.049999999999999
100
AcDbArc
 50
194.2603506853988
 51
345.7396493146012
  0
LINE
  5
151C9
330
747D
100
AcDbEntity
  8
部品1
 48
0.2
100
AcDbLine
 10
5774.905658133794
 20
8349.363545063694
 30
0.0
 11
5779.905658133794
 21
8349.363545063694
 31
0.0
  0
LINE
  5
151CA
330
747D
100
AcDbEntity
  8
部品1
 48
5.0
100
AcDbLine
 10
5789.843210305118
 20
8385.865915108473
 30
0.0
 11
5789.843210305118
 21
8356.365915108472
 31
0.0
  0
LINE
  5
151CB
330
747D
100
AcDbEntity
  8
部品1
100
AcDbLine
 10
6007.843210305116
 20
8382.365915108493
 30
0.0
 11
6007.843210305116
 21
8356.365915108458
 31
0.0
  0
LINE
  5
151CC
330
747D
100
AcDbEntity
  8
部品1
 48
5.0
100
AcDbLine
 10
5994.843210305118
 20
8411.365915108472
 30
0.0
 11
6017.843210305119
 21
8411.365915108472
 31
0.0
  0
LINE
  5
151CD
330
747D
100
AcDbEntity
  8
部品1
 48
50.0
100
AcDbLine
 10
6018.343210305101
 20
8487.865915133145
 30
0.0
 11
5990.843210305103
 21
8459.865915108471
 31
0.0
  0
LINE
  5
151CE
330
747D
100
AcDbEntity
  8
部品1
 48
5.0
100
AcDbLine
 10
5919.843210305118
 20
8356.365915108472
 30
0.0
 11
6005.843210305118
 21
8356.365915108472
 31
0.0
  0
LINE
  5
151CF
330
747D
100
AcDbEntity
  8
部品1
 48
5.0
100
AcDbLine
 10
5986.843210305119
 20
8411.365915108472
 30
0.0
 11
5986.843210305118
 21
8385.865915108473
 31
0.0
  0
LINE
  5
151D0
330
747D
100
AcDbEntity
  8
部品1
100
AcDbLine
 10
5919.843210305115
 20
8385.865915108418
 30
0.0
 11
5919.843210305113
 21
8356.365915108465
 31
0.0
  0
LINE
  5
151D1
330
747D
100
AcDbEntity
  8
部品1
 48
5.0
100
AcDbLine
 10
5919.843210305118
 20
8385.865915108473
 30
0.0
 11
5919.843210305118
 21
8356.365915108472
 31
0.0
  0
LINE
  5
151D2
330
747D
100
AcDbEntity
  8
部品1
 48
5.0
100
AcDbLine
 10
5938.843210305118
 20
8411.365915108472
 30
0.0
 11
5938.843210305118
 21
8385.865915108473
 31
0.0
  0
LINE
  5
151D3
330
747D
100
AcDbEntity
  8
部品1
 48
5.0
100
AcDbLine
 10
5907.843210305118
 20
8411.365915108472
 30
0.0
 11
5907.843210305119
 21
8385.865915108473
 31
0.0
  0
LINE
  5
151D4
330
747D
100
AcDbEntity
  8
部品1
 48
5.0
100
AcDbLine
 10
5930.843210305118
 20
8411.365915108472
 30
0.0
 11
5907.843210305117
 21
8411.365915108472
 31
0.0
  0
LINE
  5
151D5
330
747D
100
AcDbEntity
  8
部品1
 48
50.0
100
AcDbLine
 10
5934.843210305103
 20
8459.865915108471
 30
0.0
 11
5907.343210305101
 21
8487.865915108478
 31
0.0
  0
LINE
  5
151D6
330
747D
100
AcDbEntity
  8
部品1
 48
5.0
100
AcDbLine
 10
5934.843210305103
 20
8411.365915108472
 30
0.0
 11
5990.843210305103
 21
8411.365915108472
 31
0.0
  0
LINE
  5
151D7
330
747D
100
AcDbEntity
  8
部品1
100
AcDbLine
 10
6005.843210305117
 20
8385.865915108425
 30
0.0
 11
6005.843210305118
 21
8356.365915108472
 31
0.0
  0
LINE
  5
151D8
330
747D
100
AcDbEntity
  8
部品1
 48
5.0
100
AcDbLine
 10
6005.843210305118
 20
8385.865915108473
 30
0.0
 11
6005.843210305118
 21
8356.365915108472
 31
0.0
  0
LINE
  5
151D9
330
747D
100
AcDbEntity
  8
部品1
 48
5.0
100
AcDbLine
 10
6017.843210305119
 20
8411.365915108472
 30
0.0
 11
6017.84321030512
 21
8385.865915108473
 31
0.0
  0
LINE
  5
151DA
330
747D
100
AcDbEntity
  8
部品1
 48
5.0
100
AcDbLine
 10
5962.843210305102
 20
8831.365915108476
 30
0.0
 11
5934.84321030505
 21
8831.365915108479
 31
0.0
  0
LINE
  5
151DB
330
747D
100
AcDbEntity
  8
部品1
 48
50.0
100
AcDbLine
 10
5962.843210305094
 20
8831.365915108479
 30
0.0
 11
5990.843210305077
 21
8831.365915108483
 31
0.0
  0
LINE
  5
151DC
330
747D
100
AcDbEntity
  8
部品1
 48
50.0
100
AcDbLine
 10
5962.843210305094
 20
8869.365915108479
 30
0.0
 11
5990.843210305077
 21
8869.365915108483
 31
0.0
  0
LINE
  5
151DD
330
747D
100
AcDbEntity
  8
部品1
100
AcDbLine
 10
5040.843210305123
 20
9278.365915108436
 30
0.0
 11
5960.223913323745
 21
9278.365915108457
 31
0.0
  0
LINE
  5
151DE
330
747D
100
AcDbEntity
  8
部品1
100
AcDbLine
 10
5041.843216982718
 20
9276.865915108407
 30
0.0
 11
5933.843216982719
 21
9276.865915108515
 31
0.0
  0
DIMENSION
  5
151DF
330
747D
100
AcDbEntity
  8
寸法
100
AcDbDimension
  2
*D6
 10
5907.843210305122
 20
9522.174134733534
 30
0.0
 11
5487.843210305122
 21
9522.174134733534
 31
0.0
 70
   160
  1
2X420=<>
 71
     5
 42
839.9999999999991
  3
INABA_S40G
100
AcDbAlignedDimension
 13
5067.843210305123
 23
9306.365915108465
 33
0.0
 14
5907.843210305122
 24
9306.365915108552
 34
0.0
100
AcDbRotatedDimension
1001
ACAD
1000
DSTYLE
1002
{
1002
}
  0
LINE
  5
151E0
330
747D
100
AcDbEntity
  8
部品1
100
AcDbLine
 10
5040.84321030509
 20
9251.365915108406
 30
0.0
 11
5012.843210305089
 21
9251.365915108406
 31
0.0
  0
LINE
  5
151E1
330
747D
100
AcDbEntity
  8
部品1
100
AcDbLine
 10
5067.843210305123
 20
9306.365915108436
 30
0.0
 11
5067.843210305123
 21
9278.365915108436
 31
0.0
  0
LINE
  5
151E2
330
747D
100
AcDbEntity
  8
部品1
100
AcDbLine
 10
5067.843210305088
 20
9306.365915108399
 30
0.0
 11
5067.84321030509
 21
9278.3659151084
 31
0.0
  0
LINE
  5
151E3
330
747D
100
AcDbEntity
  8
部品1
 48
50.0
100
AcDbLine
 10
5042.343216982712
 20
9276.865915108407
 30
0.0
 11
5040.843210305088
 21
9278.3659151084
 31
0.0
  0
LINE
  5
151E4
330
747D
100
AcDbEntity
  8
部品1
100
AcDbLine
 10
5487.343210305088
 20
9306.365915108427
 30
0.0
 11
5487.343210305088
 21
9278.365915108429
 31
0.0
  0
LINE
  5
151E5
330
747D
100
AcDbEntity
  8
部品1
100
AcDbLine
 10
5487.343210305054
 20
9306.365915108395
 30
0.0
 11
5487.343210305056
 21
9278.365915108395
 31
0.0
  0
LINE
  5
151E6
330
747D
100
AcDbEntity
  8
部品1
 48
5.0
100
AcDbLine
 10
5907.843210305121
 20
9278.365915108478
 30
0.0
 11
5907.843210305122
 21
9306.365915108479
 31
0.0
  0
LINE
  5
151E7
330
747D
100
AcDbEntity
  8
部品1
 48
5.0
100
AcDbLine
 10
5937.552484752297
 20
9306.365915108479
 30
0.0
 11
5960.223913323726
 21
9278.365915108478
 31
0.0
  0
LINE
  5
151E8
330
747D
100
AcDbEntity
  8
部品1
 48
5.0
100
AcDbLine
 10
5990.843210305051
 20
9251.365915108479
 30
0.0
 11
5934.84321030505
 21
9251.365915108479
 31
0.0
  0
LINE
  5
151E9
330
747D
100
AcDbEntity
  8
部品1
 48
5.0
100
AcDbLine
 10
6017.843210305126
 20
9306.365915108484
 30
0.0
 11
6017.84321030512
 21
9278.365915108485
 31
0.0
  0
LINE
  5
151EA
330
747D
100
AcDbEntity
  8
部品1
 48
50.0
100
AcDbLine
 10
5933.39581779314
 20
9276.865915108515
 30
0.0
 11
5934.843210305015
 21
9278.365915108446
 31
0.0
  0
LINE
  5
151EB
330
747D
100
AcDbEntity
  8
部品1
 48
50.0
100
AcDbLine
 10
5992.343216982712
 20
9276.865915108407
 30
0.0
 11
5990.843210305088
 21
9278.3659151084
 31
0.0
  0
DIMENSION
  5
151EC
330
747D
100
AcDbEntity
  8
寸法
 48
50.0
100
AcDbDimension
  2
*D7
 10
6967.843210305125
 20
9522.174134733534
 30
0.0
 11
6912.843210305124
 21
9779.050803348036
 31
0.0
 70
   160
 71
     5
 42
110.0000000000036
  3
INABA_S40G
100
AcDbAlignedDimension
 13
6857.843210305121
 23
9306.365915108552
 33
0.0
 14
6967.843210305125
 24
9306.36591510853
 34
0.0
100
AcDbRotatedDimension
1001
ACAD
1000
DSTYLE
1002
{
1070
   279
1070
     2
1002
}
  0
DIMENSION
  5
151ED
330
747D
100
AcDbEntity
  8
寸法
100
AcDbDimension
  2
*D8
 10
8510.269556039535
 20
9251.365915108531
 30
0.0
 11
8510.269556039533
 21
9614.851196482771
 31
0.0
 70
   160
 71
     5
 42
55.0
  3
INABA_S40G
100
AcDbAlignedDimension
 13
7862.843210305124
 23
9306.36591510853
 33
0.0
 14
7862.843210305124
 24
9251.365915108531
 34
0.0
 50
90.0
100
AcDbRotatedDimension
1001
ACAD
1000
DSTYLE
1002
{
1002
}
  0
DIMENSION
  5
151EE
330
747D
100
AcDbEntity
  8
寸法
100
AcDbDimension
  2
*D9
 10
8819.381086855212
 20
8356.365915108517
 30
0.0
 11
8819.38108685521
 21
8830.343633667435
 31
0.0
 70
   160
 71
     5
 42
950.0000000000145
  3
INABA_S40G
100
AcDbAlignedDimension
 13
7862.843210305124
 23
9306.36591510853
 33
0.0
 14
7862.843210305098
 24
8356.365915108517
 34
0.0
 50
90.0
100
AcDbRotatedDimension
1001
ACAD
1000
DSTYLE
1002
{
1002
}
  0
DIMENSION
  5
151EF
330
747D
100
AcDbEntity
  8
寸法
100
AcDbDimension
  2
*D10
 10
8510.269556039508
 20
8356.365915108517
 30
0.0
 11
8510.269556039508
 21
7978.504448203658
 31
0.0
 70
   160
 71
     5
 42
55.0
  3
INABA_S40G
100
AcDbAlignedDimension
 13
7862.843210305098
 23
8411.365915108516
 33
0.0
 14
7862.843210305098
 24
8356.365915108517
 34
0.0
 50
90.0
100
AcDbRotatedDimension
1001
ACAD
1000
DSTYLE
1002
{
1002
}
  0
LINE
  5
151F1
330
747D
100
AcDbEntity
  8
想像線
 48
10.0
100
AcDbLine
 10
6737.843210305115
 20
8356.365915108472
 30
0.0
 11
6737.843210305115
 21
7635.448271452682
 31
0.0
  0
LINE
  5
151F2
330
747D
100
AcDbEntity
  8
想像線
 48
10.0
100
AcDbLine
 10
7687.843210305115
 20
8356.365915108483
 30
0.0
 11
7687.843210305115
 21
7635.448271452689
 31
0.0
  0
ARC
  5
151F3
330
747D
100
AcDbEntity
  8
想像線
 48
10.0
100
AcDbCircle
 10
7680.491159627957
 20
8358.060808484058
 30
0.0
 40
722.6499369155609
100
AcDbArc
 50
180.1343808685446
 51
270.5829222700353
  0
LINE
  5
151F4
330
747D
100
AcDbEntity
  8
部品1
100
AcDbLine
 10
7687.843210305115
 20
8382.365915108524
 30
0.0
 11
6957.843210305115
 21
8382.365915108469
 31
0.0
  0
LINE
  5
151F5
330
747D
100
AcDbEntity
  8
部品1
100
AcDbLine
 10
7806.342238880308
 20
8487.866020821369
 30
0.0
 11
6968.3432103051
 21
8487.865915133145
 31
0.0
  0
LINE
  5
151F6
330
747D
100
AcDbEntity
  8
破線
 48
10.0
100
AcDbLine
 10
7782.843210305101
 20
8511.365915108523
 30
0.0
 11
6991.843210305109
 21
8511.365915108488
 31
0.0
  0
LINE
  5
151F7
330
747D
100
AcDbEntity
  8
部品1
 48
5.0
100
AcDbLine
 10
7819.843210305098
 20
8385.865915108473
 30
0.0
 11
6936.843210305117
 21
8385.865915108473
 31
0.0
  0
LINE
  5
151F8
330
747D
100
AcDbEntity
  8
部品1
100
AcDbLine
 10
6940.843210305047
 20
9278.365915108484
 30
0.0
 11
7834.843210305123
 21
9278.36591510853
 31
0.0
  0
LINE
  5
151F9
330
747D
100
AcDbEntity
  8
細線
 48
50.0
100
AcDbLine
 10
7833.843216982717
 20
8826.865915108509
 30
0.0
 11
6941.843216982717
 21
9276.865915108407
 31
0.0
  0
LINE
  5
151FA
330
747D
100
AcDbEntity
  8
細線
 48
50.0
100
AcDbLine
 10
7833.843216982718
 20
9276.865915108508
 30
0.0
 11
6941.843216982718
 21
8826.865915108406
 31
0.0
  0
LINE
  5
151FB
330
747D
100
AcDbEntity
  8
部品1
100
AcDbLine
 10
6941.84321698272
 20
8826.865915108406
 30
0.0
 11
7833.843216982717
 21
8826.865915108509
 31
0.0
  0
LINE
  5
151FD
330
747D
100
AcDbEntity
  8
部品1
100
AcDbLine
 10
6941.843216982717
 20
9276.865915108407
 30
0.0
 11
7833.843216982718
 21
9276.865915108515
 31
0.0
  0
DIMENSION
  5
151FE
330
747D
100
AcDbEntity
  8
寸法
100
AcDbDimension
  2
*D11
 10
7807.843210305121
 20
9522.174134733534
 30
0.0
 11
7387.843210305122
 21
9522.174134733534
 31
0.0
 70
   160
  1
2X420=<>
 71
     5
 42
839.9999999999991
  3
INABA_S40G
100
AcDbAlignedDimension
 13
6967.843210305123
 23
9306.365915108465
 33
0.0
 14
7807.843210305121
 24
9306.365915108552
 34
0.0
100
AcDbRotatedDimension
1001
ACAD
1000
DSTYLE
1002
{
1002
}
  0
LINE
  5
151FF
330
747D
100
AcDbEntity
  8
部品1
 48
50.0
100
AcDbLine
 10
6883.843216982718
 20
9276.865915108508
 30
0.0
 11
6883.843216982718
 21
8826.865915108509
 31
0.0
  0
LINE
  5
15200
330
747D
100
AcDbEntity
  8
部品1
 48
50.0
100
AcDbLine
 10
6941.843216982717
 20
9276.8659151084
 30
0.0
 11
6941.843216982718
 21
8826.865915108406
 31
0.0
  0
LINE
  5
15201
330
747D
100
AcDbEntity
  8
部品1
 48
50.0
100
AcDbLine
 10
6940.843210305103
 20
8411.365915108472
 30
0.0
 11
6940.843210305047
 21
9306.365915108479
 31
0.0
  0
LINE
  5
15202
330
747D
100
AcDbEntity
  8
部品1
 48
50.0
100
AcDbLine
 10
6884.843210305103
 20
8411.365915108472
 30
0.0
 11
6884.843210305049
 21
9278.365915108478
 31
0.0
  0
LINE
  5
15203
330
747D
100
AcDbEntity
  8
部品1
 48
50.0
100
AcDbLine
 10
6912.843210305102
 20
8411.365915108472
 30
0.0
 11
6912.843210305102
 21
9251.365915108479
 31
0.0
  0
LINE
  5
15204
330
747D
100
AcDbEntity
  8
部品1
 48
50.0
100
AcDbLine
 10
6437.343210305108
 20
8826.865915108458
 30
0.0
 11
6437.343047433005
 21
8487.86508294526
 31
0.0
  0
LINE
  5
15205
330
747D
100
AcDbEntity
  8
部品1
100
AcDbLine
 10
6737.843210305115
 20
8382.365915108524
 30
0.0
 11
6737.843210305115
 21
8356.365915108469
 31
0.0
  0
ARC
  5
15206
330
747D
100
AcDbEntity
  8
部品1
 48
0.2
100
AcDbCircle
 10
6729.905658133795
 20
8357.363545063694
 30
0.0
 40
8.0
100
AcDbArc
 50
270.0
 51
352.8363522778074
  0
ARC
  5
15207
330
747D
100
AcDbEntity
  8
細線
 48
0.2
100
AcDbCircle
 10
6729.905658133795
 20
8357.363545063694
 30
0.0
 40
4.049999999999999
100
AcDbArc
 50
194.2603506853988
 51
345.7396493146012
  0
LINE
  5
15208
330
747D
100
AcDbEntity
  8
部品1
 48
0.2
100
AcDbLine
 10
6724.905658133796
 20
8349.363545063694
 30
0.0
 11
6729.905658133795
 21
8349.363545063694
 31
0.0
  0
LINE
  5
15209
330
747D
100
AcDbEntity
  8
部品1
 48
5.0
100
AcDbLine
 10
6739.843210305117
 20
8385.865915108473
 30
0.0
 11
6739.843210305117
 21
8356.365915108472
 31
0.0
  0
ARC
  5
1520A
330
747D
100
AcDbEntity
  8
部品1
 48
0.2
100
AcDbCircle
 10
6724.905658133796
 20
8357.363545063694
 30
0.0
 40
8.0
100
AcDbArc
 50
187.1636477221926
 51
269.9999999999992
  0
LINE
  5
1520B
330
747D
100
AcDbEntity
  8
破線
 48
10.0
100
AcDbLine
 10
6991.843210305109
 20
8511.365915108488
 30
0.0
 11
6991.843197873999
 21
8826.865915108482
 31
0.0
  0
LINE
  5
1520C
330
747D
100
AcDbEntity
  8
破線
 48
10.0
100
AcDbLine
 10
6833.84321030511
 20
8511.365915108479
 30
0.0
 11
6833.843201950557
 21
8826.865915108538
 31
0.0
  0
LINE
  5
1520D
330
747D
100
AcDbEntity
  8
部品1
 48
50.0
100
AcDbLine
 10
6857.3432103051
 20
8487.865915108478
 30
0.0
 11
6857.343210305078
 21
8826.865915108538
 31
0.0
  0
LINE
  5
1520E
330
747D
100
AcDbEntity
  8
部品1
 48
50.0
100
AcDbLine
 10
6968.343203960815
 20
8487.865915133141
 30
0.0
 11
6968.343206933679
 21
8826.865915108482
 31
0.0
  0
LINE
  5
1520F
330
747D
100
AcDbEntity
  8
部品1
 48
50.0
100
AcDbLine
 10
7387.343210305108
 20
8826.865915108458
 30
0.0
 11
7387.343047433005
 21
8487.86508294526
 31
0.0
  0
LINE
  5
15210
330
747D
100
AcDbEntity
  8
部品1
100
AcDbLine
 10
6955.843210305117
 20
8385.865915108425
 30
0.0
 11
6955.843210305118
 21
8356.365915108472
 31
0.0
  0
LINE
  5
15211
330
747D
100
AcDbEntity
  8
部品1
100
AcDbLine
 10
6957.843210305115
 20
8382.365915108465
 30
0.0
 11
6957.843210305114
 21
8356.365915108472
 31
0.0
  0
LINE
  5
15212
330
747D
100
AcDbEntity
  8
部品1
 48
5.0
100
AcDbLine
 10
6955.843210305118
 20
8385.865915108473
 30
0.0
 11
6955.843210305118
 21
8356.365915108472
 31
0.0
  0
LINE
  5
15213
330
747D
100
AcDbEntity
  8
部品1
 48
5.0
100
AcDbLine
 10
6967.843210305118
 20
8411.365915108472
 30
0.0
 11
6967.843210305119
 21
8385.865915108473
 31
0.0
  0
LINE
  5
15214
330
747D
100
AcDbEntity
  8
部品1
 48
5.0
100
AcDbLine
 10
6936.843210305119
 20
8411.365915108472
 30
0.0
 11
6936.843210305117
 21
8385.865915108473
 31
0.0
  0
LINE
  5
15215
330
747D
100
AcDbEntity
  8
部品1
 48
5.0
100
AcDbLine
 10
6888.843210305118
 20
8411.365915108472
 30
0.0
 11
6888.843210305118
 21
8385.865915108473
 31
0.0
  0
LINE
  5
15216
330
747D
100
AcDbEntity
  8
部品1
 48
5.0
100
AcDbLine
 10
6884.843210305103
 20
8411.365915108472
 30
0.0
 11
6940.843210305103
 21
8411.365915108472
 31
0.0
  0
LINE
  5
15217
330
747D
100
AcDbEntity
  8
部品1
 48
5.0
100
AcDbLine
 10
6944.843210305119
 20
8411.365915108472
 30
0.0
 11
6967.843210305118
 21
8411.365915108472
 31
0.0
  0
LINE
  5
15218
330
747D
100
AcDbEntity
  8
部品1
 48
50.0
100
AcDbLine
 10
6968.3432103051
 20
8487.865915133145
 30
0.0
 11
6940.843210305103
 21
8459.865915108471
 31
0.0
  0
LINE
  5
15219
330
747D
100
AcDbEntity
  8
部品1
100
AcDbLine
 10
6869.843210305116
 20
8385.865915108418
 30
0.0
 11
6869.843210305113
 21
8356.365915108465
 31
0.0
  0
LINE
  5
1521A
330
747D
100
AcDbEntity
  8
部品1
 48
5.0
100
AcDbLine
 10
6869.843210305119
 20
8385.865915108473
 30
0.0
 11
6869.843210305119
 21
8356.365915108472
 31
0.0
  0
LINE
  5
1521B
330
747D
100
AcDbEntity
  8
部品1
 48
5.0
100
AcDbLine
 10
6857.843210305119
 20
8411.365915108472
 30
0.0
 11
6857.843210305119
 21
8385.865915108473
 31
0.0
  0
LINE
  5
1521C
330
747D
100
AcDbEntity
  8
部品1
 48
5.0
100
AcDbLine
 10
6869.843210305119
 20
8356.365915108472
 30
0.0
 11
6955.843210305118
 21
8356.365915108472
 31
0.0
  0
LINE
  5
1521D
330
747D
100
AcDbEntity
  8
部品1
 48
5.0
100
AcDbLine
 10
6880.843210305119
 20
8411.365915108472
 30
0.0
 11
6857.843210305117
 21
8411.365915108472
 31
0.0
  0
LINE
  5
1521E
330
747D
100
AcDbEntity
  8
部品1
 48
50.0
100
AcDbLine
 10
6884.843210305103
 20
8459.865915108471
 30
0.0
 11
6857.3432103051
 21
8487.865915108478
 31
0.0
  0
LINE
  5
1521F
330
747D
100
AcDbEntity
  8
部品1
 48
5.0
100
AcDbLine
 10
6912.843210305102
 20
8831.365915108476
 30
0.0
 11
6884.843210305049
 21
8831.365915108479
 31
0.0
  0
LINE
  5
15220
330
747D
100
AcDbEntity
  8
部品1
 48
50.0
100
AcDbLine
 10
6912.843210305094
 20
8831.365915108479
 30
0.0
 11
6940.843210305077
 21
8831.365915108483
 31
0.0
  0
LINE
  5
15221
330
747D
100
AcDbEntity
  8
部品1
 48
50.0
100
AcDbLine
 10
6912.843210305094
 20
8869.365915108479
 30
0.0
 11
6940.843210305077
 21
8869.365915108483
 31
0.0
  0
LINE
  5
15222
330
747D
100
AcDbEntity
  8
部品1
100
AcDbLine
 10
6437.343210305053
 20
9306.365915108363
 30
0.0
 11
6437.343210305056
 21
9278.365915108363
 31
0.0
  0
LINE
  5
15223
330
747D
100
AcDbEntity
  8
部品1
100
AcDbLine
 10
6437.343210305089
 20
9306.365915108395
 30
0.0
 11
6437.343210305089
 21
9278.365915108395
 31
0.0
  0
LINE
  5
15224
330
747D
100
AcDbEntity
  8
部品1
 48
5.0
100
AcDbLine
 10
6967.843210305125
 20
9306.365915108484
 30
0.0
 11
6967.843210305121
 21
9278.365915108485
 31
0.0
  0
LINE
  5
15225
330
747D
100
AcDbEntity
  8
部品1
 48
5.0
100
AcDbLine
 10
6887.552484752297
 20
9306.365915108479
 30
0.0
 11
6910.223913323726
 21
9278.365915108478
 31
0.0
  0
LINE
  5
15226
330
747D
100
AcDbEntity
  8
部品1
 48
5.0
100
AcDbLine
 10
6940.843210305051
 20
9251.365915108479
 30
0.0
 11
6884.843210305049
 21
9251.365915108479
 31
0.0
  0
LINE
  5
15227
330
747D
100
AcDbEntity
  8
部品1
 48
50.0
100
AcDbLine
 10
6883.39581779314
 20
9276.865915108515
 30
0.0
 11
6884.843210305014
 21
9278.365915108446
 31
0.0
  0
LINE
  5
15228
330
747D
100
AcDbEntity
  8
部品1
 48
50.0
100
AcDbLine
 10
6942.343216982712
 20
9276.865915108407
 30
0.0
 11
6940.843210305088
 21
9278.3659151084
 31
0.0
  0
LINE
  5
15229
330
747D
100
AcDbEntity
  8
部品1
 48
5.0
100
AcDbLine
 10
6857.843210305121
 20
9278.365915108478
 30
0.0
 11
6857.843210305121
 21
9306.365915108479
 31
0.0
  0
LINE
  5
1522A
330
747D
100
AcDbEntity
  8
部品1
100
AcDbLine
 10
7387.343210305089
 20
9306.36591510847
 30
0.0
 11
7387.343210305089
 21
9278.365915108469
 31
0.0
  0
LINE
  5
1522B
330
747D
100
AcDbEntity
  8
部品1
100
AcDbLine
 10
7387.343210305053
 20
9306.365915108436
 30
0.0
 11
7387.343210305056
 21
9278.365915108436
 31
0.0
  0
LINE
  5
1522C
330
747D
100
AcDbEntity
  8
部品1
 48
50.0
100
AcDbLine
 10
7833.843216982718
 20
9276.865915108508
 30
0.0
 11
7833.843216982718
 21
8826.865915108509
 31
0.0
  0
LINE
  5
1522D
330
747D
100
AcDbEntity
  8
部品1
100
AcDbLine
 10
7834.843210305123
 20
9278.36591510853
 30
0.0
 11
7834.843210305099
 21
8411.365915108516
 31
0.0
  0
DIMENSION
  5
1522E
330
747D
100
AcDbEntity
  8
寸法
100
AcDbDimension
  2
*D12
 10
8510.269556039535
 20
8411.365915108516
 30
0.0
 11
8510.269556039533
 21
8831.365915108525
 31
0.0
 70
   160
  1
2X420=<>
 71
     5
 42
840.0000000000146
  3
INABA_S40G
100
AcDbAlignedDimension
 13
7862.843210305124
 23
9251.365915108531
 33
0.0
 14
7862.843210305098
 24
8411.365915108516
 34
0.0
 50
90.0
100
AcDbRotatedDimension
1001
ACAD
1000
DSTYLE
1002
{
1002
}
  0
LINE
  5
1522F
330
747D
100
AcDbEntity
  8
部品1
100
AcDbLine
 10
7862.843210305124
 20
9306.36591510853
 30
0.0
 11
7862.843210305098
 21
8356.365915108517
 31
0.0
  0
DIMENSION
  5
15230
330
747D
100
AcDbEntity
  8
寸法
100
AcDbDimension
  2
*D13
 10
8189.200942844758
 20
8731.648099439519
 30
0.0
 11
8189.200942844758
 21
8956.648099439513
 31
0.0
 70
   160
 71
     5
 42
449.9999999999927
  3
INABA_S40G
100
AcDbAlignedDimension
 13
7833.843216982732
 23
9276.8659151084
 33
0.0
 14
7833.843216982742
 24
8826.865915108406
 34
0.0
 50
90.0
100
AcDbRotatedDimension
1001
ACAD
1000
DSTYLE
1002
{
1002
}
  0
LINE
  5
15231
330
747D
100
AcDbEntity
  8
破線
 48
10.0
100
AcDbLine
 10
7782.843275229791
 20
8826.865915108479
 30
0.0
 11
7782.843210305106
 21
8511.365915108523
 31
0.0
  0
LINE
  5
15232
330
747D
100
AcDbEntity
  8
部品1
 48
5.0
100
AcDbLine
 10
7806.342238880167
 20
8487.86591510853
 30
0.0
 11
7806.342731811479
 21
8826.865915108475
 31
0.0
  0
LINE
  5
15233
330
747D
100
AcDbEntity
  8
部品1
100
AcDbLine
 10
7687.843210305115
 20
8382.365915108524
 30
0.0
 11
7687.843210305117
 21
8356.365915108517
 31
0.0
  0
LINE
  5
15234
330
747D
100
AcDbEntity
  8
部品1
 48
0.2
100
AcDbLine
 10
7674.905658133795
 20
8349.363545063713
 30
0.0
 11
7679.905658133795
 21
8349.363545063713
 31
0.0
  0
ARC
  5
15235
330
747D
100
AcDbEntity
  8
部品1
 48
0.2
100
AcDbCircle
 10
7679.905658133795
 20
8357.363545063712
 30
0.0
 40
8.0
100
AcDbArc
 50
270.0
 51
352.8363522778074
  0
ARC
  5
15236
330
747D
100
AcDbEntity
  8
部品1
 48
0.2
100
AcDbCircle
 10
7674.905658133795
 20
8357.363545063712
 30
0.0
 40
8.0
100
AcDbArc
 50
187.1636477221926
 51
269.9999999999992
  0
ARC
  5
15237
330
747D
100
AcDbEntity
  8
細線
 48
0.2
100
AcDbCircle
 10
7679.905658133795
 20
8357.363545063712
 30
0.0
 40
4.049999999999999
100
AcDbArc
 50
194.2603506853988
 51
345.7396493146012
  0
LINE
  5
15238
330
747D
100
AcDbEntity
  8
部品1
 48
2.83
100
AcDbLine
 10
7689.843210305098
 20
8385.865915108487
 30
0.0
 11
7689.843210305098
 21
8356.365915108487
 31
0.0
  0
LINE
  5
15239
330
747D
100
AcDbEntity
  8
部品1
100
AcDbLine
 10
7834.84321030513
 20
8411.365915108531
 30
0.0
 11
7862.843210305131
 21
8411.365915108531
 31
0.0
  0
LINE
  5
1523A
330
747D
100
AcDbEntity
  8
部品1
100
AcDbLine
 10
7834.843210305099
 20
8411.365915108516
 30
0.0
 11
7862.843210305098
 21
8411.365915108516
 31
0.0
  0
LINE
  5
1523B
330
747D
100
AcDbEntity
  8
部品1
 48
2.83
100
AcDbLine
 10
7830.843210305097
 20
8411.365915108488
 30
0.0
 11
7807.843210305097
 21
8411.365915108488
 31
0.0
  0
LINE
  5
1523C
330
747D
100
AcDbEntity
  8
部品1
 48
2.83
100
AcDbLine
 10
7862.843210305097
 20
8411.365915108488
 30
0.0
 11
7839.843210305097
 21
8411.365915108488
 31
0.0
  0
LINE
  5
1523D
330
747D
100
AcDbEntity
  8
部品1
 48
2.83
100
AcDbLine
 10
7807.843210305098
 20
8411.365915108488
 30
0.0
 11
7807.843210305097
 21
8385.865915108487
 31
0.0
  0
LINE
  5
1523E
330
747D
100
AcDbEntity
  8
部品1
 48
2.83
100
AcDbLine
 10
7819.843210305098
 20
8385.865915108487
 30
0.0
 11
7819.843210305098
 21
8356.365915108487
 31
0.0
  0
LINE
  5
1523F
330
747D
100
AcDbEntity
  8
部品1
 48
50.0
100
AcDbLine
 10
7834.843210305099
 20
8458.846849916119
 30
0.0
 11
7806.342238880308
 21
8487.866020821369
 31
0.0
  0
LINE
  5
15240
330
747D
100
AcDbEntity
  8
部品1
100
AcDbLine
 10
7834.843210305123
 20
8831.365915108531
 30
0.0
 11
7862.843210305124
 21
8831.365915108531
 31
0.0
  0
DIMENSION
  5
15241
330
747D
100
AcDbEntity
  8
寸法
100
AcDbDimension
  2
*D14
 10
7862.843210305124
 20
9522.174134733512
 30
0.0
 11
8171.328491679362
 21
9522.174134733512
 31
0.0
 70
   160
 71
     5
 42
55.0
  3
INABA_S40G
100
AcDbAlignedDimension
 13
7807.843210305124
 23
9306.36591510853
 33
0.0
 14
7862.843210305124
 24
9306.36591510853
 34
0.0
100
AcDbRotatedDimension
1001
ACAD
1000
DSTYLE
1002
{
1002
}
  0
LINE
  5
15242
330
747D
100
AcDbEntity
  8
部品1
100
AcDbLine
 10
7807.843210305124
 20
9306.365915108544
 30
0.0
 11
7807.843210305124
 21
9278.365915108544
 31
0.0
  0
LINE
  5
15243
330
747D
100
AcDbEntity
  8
部品1
100
AcDbLine
 10
7807.843210305124
 20
9306.36591510853
 30
0.0
 11
7807.843210305124
 21
9278.36591510853
 31
0.0
  0
LINE
  5
15244
330
747D
100
AcDbEntity
  8
部品1
100
AcDbLine
 10
7834.843210305123
 20
9251.365915108531
 30
0.0
 11
7862.843210305124
 21
9251.365915108531
 31
0.0
  0
LINE
  5
15245
330
747D
100
AcDbEntity
  8
部品1
 48
50.0
100
AcDbLine
 10
7833.395817793141
 20
9276.865915108515
 30
0.0
 11
7834.843210305014
 21
9278.365915108446
 31
0.0
  0
LINE
  5
15246
330
747D
100
AcDbEntity
  8
部品1
100
AcDbLine
 10
6007.843210305115
 20
5407.077276893859
 30
0.0
 11
6717.780762476434
 21
5407.07727689386
 31
0.0
  0
LINE
  5
15247
330
747D
100
AcDbEntity
  8
部品1
100
AcDbLine
 10
6007.843210305116
 20
3616.077276893874
 30
0.0
 11
6717.780762476434
 21
3616.077276893879
 31
0.0
  0
LINE
  5
15248
330
747D
100
AcDbEntity
  8
部品1
100
AcDbLine
 10
5012.843210305117
 20
5409.577276893861
 30
0.0
 11
7862.843210305117
 21
5409.577276893861
 31
0.0
  0
LINE
  5
1524F
330
747D
100
AcDbEntity
  8
部品1
100
AcDbLine
 10
5012.843210305117
 20
3569.57727689386
 30
0.0
 11
7862.843210305117
 21
3569.57727689386
 31
0.0
  0
LINE
  5
15250
330
747D
100
AcDbEntity
  8
部品1
100
AcDbLine
 10
5012.843210305117
 20
3612.577276893864
 30
0.0
 11
7862.843210305117
 21
3612.577276893881
 31
0.0
  0
LINE
  5
15251
330
747D
100
AcDbEntity
  8
部品1
100
AcDbLine
 10
6005.843210305116
 20
5409.577276893861
 30
0.0
 11
6005.843210305116
 21
3612.577276893881
 31
0.0
  0
LINE
  5
15252
330
747D
100
AcDbEntity
  8
部品1
100
AcDbLine
 10
6007.843210305115
 20
5407.07727689386
 30
0.0
 11
6007.843210305116
 21
3616.077276893875
 31
0.0
  0
LINE
  5
15253
330
747D
100
AcDbEntity
  8
部品1
100
AcDbLine
 10
5055.843210305116
 20
5409.577276893861
 30
0.0
 11
5055.843210305116
 21
3612.577276893881
 31
0.0
  0
LINE
  5
15254
330
747D
100
AcDbEntity
  8
部品1
100
AcDbLine
 10
5012.843210305117
 20
5503.577276893864
 30
0.0
 11
5012.843210305117
 21
3469.57727689386
 31
0.0
  0
LINE
  5
15255
330
747D
100
AcDbEntity
  8
部品1
100
AcDbLine
 10
5057.843210305116
 20
5407.077276893864
 30
0.0
 11
5057.843210305116
 21
3616.077276893867
 31
0.0
  0
LINE
  5
15256
330
747D
100
AcDbEntity
  8
部品1
100
AcDbLine
 10
5787.843210305115
 20
5407.07727689386
 30
0.0
 11
5787.843210305117
 21
3616.077276893881
 31
0.0
  0
LINE
  5
15257
330
747D
100
AcDbEntity
  8
部品1
100
AcDbLine
 10
5919.843210305117
 20
5409.577276893861
 30
0.0
 11
5919.843210305117
 21
3612.577276893881
 31
0.0
  0
DIMENSION
  5
15258
330
747D
100
AcDbEntity
  8
寸法
100
AcDbDimension
  2
*D15
 10
4694.738682697513
 20
3631.077276893865
 30
0.0
 11
4694.738682697512
 21
4510.077276893862
 31
0.0
 70
   160
  1
有効開口部高サ<>
 71
     5
 42
1759.999999999996
  3
INABA_S40G
100
AcDbAlignedDimension
 13
5012.843210305117
 23
5391.07727689386
 33
0.0
 14
5012.843210305117
 24
3631.077276893865
 34
0.0
 50
90.0
100
AcDbRotatedDimension
1001
ACAD
1000
DSTYLE
1002
{
1070
   288
1070
     1
1002
}
  0
LINE
  5
15259
330
747D
100
AcDbEntity
  8
部品1
100
AcDbLine
 10
5789.843210305116
 20
5409.577276893861
 30
0.0
 11
5789.843210305116
 21
3612.577276893881
 31
0.0
  0
LINE
  5
1525A
330
747D
100
AcDbEntity
  8
部品1
100
AcDbLine
 10
5057.843210305116
 20
3616.077276893867
 30
0.0
 11
5767.780762476435
 21
3616.077276893881
 31
0.0
  0
LINE
  5
1525C
330
747D
100
AcDbEntity
  8
部品1
100
AcDbLine
 10
5787.780762476436
 20
3616.077276893872
 30
0.0
 11
5787.843210305116
 21
3616.077276893872
 31
0.0
  0
LINE
  5
1525D
330
747D
100
AcDbEntity
  8
部品1
100
AcDbLine
 10
5787.780762476436
 20
3616.077276893881
 30
0.0
 11
5787.843210305116
 21
3616.077276893881
 31
0.0
  0
ARC
  5
1525E
330
747D
100
AcDbEntity
  8
細線
 48
0.2
100
AcDbCircle
 10
5784.780762476435
 20
3615.856767062631
 30
0.0
 40
1.0
100
AcDbArc
 50
286.6015495990217
 51
0.0
  0
LINE
  5
1525F
330
747D
100
AcDbEntity
  8
細線
 48
50.0
100
AcDbLine
 10
5783.768415328095
 20
3618.327276893881
 30
0.0
 11
5783.768415328095
 21
3620.327276893879
 31
0.0
  0
LINE
  5
15260
330
747D
100
AcDbEntity
  8
細線
 48
0.1
100
AcDbLine
 10
5787.780762476434
 20
3615.827276893879
 30
0.0
 11
5787.780762476434
 21
3622.827276893879
 31
0.0
  0
LINE
  5
15261
330
747D
100
AcDbEntity
  8
細線
 48
50.0
100
AcDbLine
 10
5767.780762476435
 20
3616.077276893881
 30
0.0
 11
5767.780762476435
 21
3615.827276893879
 31
0.0
  0
ARC
  5
15262
330
747D
100
AcDbEntity
  8
細線
 48
0.2
100
AcDbCircle
 10
5774.780762476435
 20
3615.856767062631
 30
0.0
 40
1.0
100
AcDbArc
 50
179.9999999999984
 51
253.3984504009775
  0
LINE
  5
15263
330
747D
100
AcDbEntity
  8
部品1
 48
50.0
100
AcDbLine
 10
5767.780762476435
 20
3622.827276893879
 30
0.0
 11
5767.780762476435
 21
3616.077276893881
 31
0.0
  0
LINE
  5
15264
330
747D
100
AcDbEntity
  8
細線
 48
50.0
100
AcDbLine
 10
5775.918005282131
 20
3618.327276893881
 30
0.0
 11
5775.918005282132
 21
3620.327276893879
 31
0.0
  0
LINE
  5
15265
330
747D
100
AcDbEntity
  8
部品1
 48
0.2
100
AcDbLine
 10
5787.780762476434
 20
3622.827276893879
 30
0.0
 11
5767.780762476435
 21
3622.827276893879
 31
0.0
  0
LINE
  5
15266
330
747D
100
AcDbEntity
  8
細線
 48
0.2
100
AcDbLine
 10
5787.780762476434
 20
3620.327276893879
 30
0.0
 11
5767.780762476435
 21
3620.327276893879
 31
0.0
  0
LINE
  5
15267
330
747D
100
AcDbEntity
  8
細線
 48
0.2
100
AcDbLine
 10
5785.464753772942
 20
3615.127276893878
 30
0.0
 11
5774.09677117993
 21
3615.127276893878
 31
0.0
  0
ARC
  5
15268
330
747D
100
AcDbEntity
  8
細線
 48
0.2
100
AcDbCircle
 10
5779.780762476434
 20
3632.627276893876
 30
0.0
 40
18.49999999999796
100
AcDbArc
 50
253.3984504009772
 51
286.6015495990217
  0
LINE
  5
15269
330
747D
100
AcDbEntity
  8
細線
 48
0.2
100
AcDbLine
 10
5787.780762476434
 20
3618.327276893879
 30
0.0
 11
5767.780762476435
 21
3618.327276893881
 31
0.0
  0
LINE
  5
1526A
330
747D
100
AcDbEntity
  8
細線
 48
0.2
100
AcDbLine
 10
5787.780762476434
 20
3615.827276893879
 30
0.0
 11
5767.780762476435
 21
3615.827276893879
 31
0.0
  0
LINE
  5
152BB
330
747D
100
AcDbEntity
  8
部品1
100
AcDbLine
 10
5057.843210305116
 20
5407.077276893862
 30
0.0
 11
5767.780762476435
 21
5407.077276893862
 31
0.0
  0
LINE
  5
152BC
330
747D
100
AcDbEntity
  8
部品1
100
AcDbLine
 10
5787.780762476436
 20
5407.077276893862
 30
0.0
 11
5787.843210305116
 21
5407.07727689386
 31
0.0
  0
ARC
  5
152BD
330
747D
100
AcDbEntity
  8
細線
 48
0.2
100
AcDbCircle
 10
5784.780762476435
 20
5407.29778672511
 30
0.0
 40
1.0
100
AcDbArc
 50
0.0
 51
73.39845040097829
  0
LINE
  5
152BE
330
747D
100
AcDbEntity
  8
細線
 48
50.0
100
AcDbLine
 10
5767.780762476435
 20
5407.077276893862
 30
0.0
 11
5767.780762476435
 21
5407.327276893862
 31
0.0
  0
ARC
  5
152BF
330
747D
100
AcDbEntity
  8
細線
 48
0.2
100
AcDbCircle
 10
5774.780762476435
 20
5407.29778672511
 30
0.0
 40
1.0
100
AcDbArc
 50
106.6015495990225
 51
180.0000000000016
  0
LINE
  5
152C0
330
747D
100
AcDbEntity
  8
細線
 48
0.2
100
AcDbLine
 10
5787.780762476434
 20
5407.327276893862
 30
0.0
 11
5767.780762476435
 21
5407.327276893862
 31
0.0
  0
LINE
  5
152C1
330
747D
100
AcDbEntity
  8
細線
 48
0.2
100
AcDbLine
 10
5787.780762476434
 20
5404.827276893862
 30
0.0
 11
5767.780762476435
 21
5404.827276893862
 31
0.0
  0
ARC
  5
152C2
330
747D
100
AcDbEntity
  8
細線
 48
0.2
100
AcDbCircle
 10
5779.780762476434
 20
5390.527276893865
 30
0.0
 40
18.49999999999796
100
AcDbArc
 50
73.39845040097829
 51
106.6015495990228
  0
LINE
  5
152C3
330
747D
100
AcDbEntity
  8
細線
 48
0.2
100
AcDbLine
 10
5785.464753772942
 20
5408.027276893863
 30
0.0
 11
5774.09677117993
 21
5408.027276893863
 31
0.0
  0
LINE
  5
152C4
330
747D
100
AcDbEntity
  8
細線
 48
0.2
100
AcDbLine
 10
5787.780762476434
 20
5402.827276893862
 30
0.0
 11
5767.780762476435
 21
5402.827276893862
 31
0.0
  0
LINE
  5
152C5
330
747D
100
AcDbEntity
  8
部品1
 48
0.2
100
AcDbLine
 10
5787.780762476434
 20
5400.327276893862
 30
0.0
 11
5767.780762476435
 21
5400.327276893862
 31
0.0
  0
LINE
  5
152C6
330
747D
100
AcDbEntity
  8
部品1
 48
50.0
100
AcDbLine
 10
5767.780762476435
 20
5400.327276893862
 30
0.0
 11
5767.780762476435
 21
5407.077276893862
 31
0.0
  0
LINE
  5
152C7
330
747D
100
AcDbEntity
  8
細線
 48
50.0
100
AcDbLine
 10
5775.918005282131
 20
5404.827276893862
 30
0.0
 11
5775.918005282132
 21
5402.827276893862
 31
0.0
  0
LINE
  5
152C8
330
747D
100
AcDbEntity
  8
細線
 48
0.1
100
AcDbLine
 10
5787.780762476434
 20
5407.327276893862
 30
0.0
 11
5787.780762476434
 21
5400.327276893862
 31
0.0
  0
LINE
  5
152C9
330
747D
100
AcDbEntity
  8
細線
 48
50.0
100
AcDbLine
 10
5783.768415328095
 20
5404.827276893862
 30
0.0
 11
5783.768415328095
 21
5402.827276893862
 31
0.0
  0
LINE
  5
152E4
330
747D
100
AcDbEntity
  8
部品1
100
AcDbLine
 10
6869.843210305116
 20
5409.577276893861
 30
0.0
 11
6869.843210305116
 21
3612.577276893881
 31
0.0
  0
LINE
  5
152E5
330
747D
100
AcDbEntity
  8
部品1
100
AcDbLine
 10
6737.843210305115
 20
5407.07727689386
 30
0.0
 11
6737.843210305117
 21
3616.077276893883
 31
0.0
  0
LINE
  5
152E6
330
747D
100
AcDbEntity
  8
部品1
100
AcDbLine
 10
6739.843210305116
 20
5409.577276893861
 30
0.0
 11
6739.843210305116
 21
3612.577276893881
 31
0.0
  0
LINE
  5
152E7
330
747D
100
AcDbEntity
  8
部品1
100
AcDbLine
 10
6955.843210305116
 20
5409.577276893861
 30
0.0
 11
6955.843210305116
 21
3612.577276893881
 31
0.0
  0
LINE
  5
152E8
330
747D
100
AcDbEntity
  8
部品1
100
AcDbLine
 10
6957.843210305117
 20
5407.077276893859
 30
0.0
 11
6957.843210305117
 21
3616.077276893875
 31
0.0
  0
LINE
  5
152E9
330
747D
100
AcDbEntity
  8
部品1
100
AcDbLine
 10
7687.843210305115
 20
5407.07727689386
 30
0.0
 11
7687.843210305117
 21
3616.077276893883
 31
0.0
  0
LINE
  5
152EA
330
747D
100
AcDbEntity
  8
部品1
100
AcDbLine
 10
7862.843210305115
 20
5503.577276893862
 30
0.0
 11
7862.843210305117
 21
3469.57727689386
 31
0.0
  0
LINE
  5
152EB
330
747D
100
AcDbEntity
  8
部品1
100
AcDbLine
 10
7819.843210305116
 20
5409.577276893861
 30
0.0
 11
7819.843210305116
 21
3612.577276893881
 31
0.0
  0
LINE
  5
152EC
330
747D
100
AcDbEntity
  8
部品1
100
AcDbLine
 10
7689.843210305117
 20
5409.577276893861
 30
0.0
 11
7689.843210305117
 21
3612.577276893881
 31
0.0
  0
LINE
  5
152ED
330
747D
100
AcDbEntity
  8
部品1
100
AcDbLine
 10
6957.843210305117
 20
3616.077276893874
 30
0.0
 11
7667.780762476434
 21
3616.077276893879
 31
0.0
  0
LINE
  5
152EF
330
747D
100
AcDbEntity
  8
細線
 48
0.2
100
AcDbLine
 10
6737.780762476434
 20
3620.327276893879
 30
0.0
 11
6717.780762476436
 21
3620.327276893879
 31
0.0
  0
LINE
  5
152F0
330
747D
100
AcDbEntity
  8
部品1
 48
0.2
100
AcDbLine
 10
6737.780762476434
 20
3622.827276893879
 30
0.0
 11
6717.780762476434
 21
3622.827276893879
 31
0.0
  0
LINE
  5
152F1
330
747D
100
AcDbEntity
  8
部品1
100
AcDbLine
 10
6737.780762476436
 20
3616.077276893881
 30
0.0
 11
6737.843210305115
 21
3616.077276893881
 31
0.0
  0
ARC
  5
152F2
330
747D
100
AcDbEntity
  8
細線
 48
0.2
100
AcDbCircle
 10
6734.780762476434
 20
3615.856767062631
 30
0.0
 40
1.0
100
AcDbArc
 50
286.6015495990217
 51
0.0
  0
LINE
  5
152F3
330
747D
100
AcDbEntity
  8
細線
 48
0.2
100
AcDbLine
 10
6737.780762476434
 20
3615.827276893879
 30
0.0
 11
6717.780762476436
 21
3615.827276893879
 31
0.0
  0
LINE
  5
152F4
330
747D
100
AcDbEntity
  8
細線
 48
0.2
100
AcDbLine
 10
6737.780762476434
 20
3618.327276893879
 30
0.0
 11
6717.780762476436
 21
3618.327276893881
 31
0.0
  0
ARC
  5
152F5
330
747D
100
AcDbEntity
  8
細線
 48
0.2
100
AcDbCircle
 10
6724.780762476434
 20
3615.856767062631
 30
0.0
 40
1.0
100
AcDbArc
 50
179.9999999999984
 51
253.3984504009775
  0
ARC
  5
152F6
330
747D
100
AcDbEntity
  8
細線
 48
0.2
100
AcDbCircle
 10
6729.780762476434
 20
3632.627276893876
 30
0.0
 40
18.49999999999796
100
AcDbArc
 50
253.3984504009772
 51
286.6015495990217
  0
LINE
  5
152F7
330
747D
100
AcDbEntity
  8
細線
 48
0.2
100
AcDbLine
 10
6735.464753772942
 20
3615.127276893878
 30
0.0
 11
6724.096771179929
 21
3615.127276893878
 31
0.0
  0
LINE
  5
152F8
330
747D
100
AcDbEntity
  8
細線
 48
50.0
100
AcDbLine
 10
6717.780762476434
 20
3616.077276893881
 30
0.0
 11
6717.780762476434
 21
3615.827276893879
 31
0.0
  0
LINE
  5
152F9
330
747D
100
AcDbEntity
  8
部品1
100
AcDbLine
 10
6737.780762476436
 20
3616.077276893881
 30
0.0
 11
6737.843210305117
 21
3616.077276893881
 31
0.0
  0
LINE
  5
152FA
330
747D
100
AcDbEntity
  8
部品1
100
AcDbLine
 10
6737.780762476436
 20
3616.077276893883
 30
0.0
 11
6737.843210305117
 21
3616.077276893883
 31
0.0
  0
LINE
  5
152FB
330
747D
100
AcDbEntity
  8
細線
 48
0.1
100
AcDbLine
 10
6737.780762476434
 20
3615.827276893879
 30
0.0
 11
6737.780762476434
 21
3622.827276893879
 31
0.0
  0
LINE
  5
152FC
330
747D
100
AcDbEntity
  8
細線
 48
50.0
100
AcDbLine
 10
6725.918005282131
 20
3618.327276893881
 30
0.0
 11
6725.918005282132
 21
3620.327276893879
 31
0.0
  0
LINE
  5
152FD
330
747D
100
AcDbEntity
  8
細線
 48
50.0
100
AcDbLine
 10
6733.768415328095
 20
3618.327276893881
 30
0.0
 11
6733.768415328095
 21
3620.327276893879
 31
0.0
  0
LINE
  5
152FE
330
747D
100
AcDbEntity
  8
部品1
 48
50.0
100
AcDbLine
 10
6717.780762476434
 20
3622.827276893879
 30
0.0
 11
6717.780762476434
 21
3616.077276893881
 31
0.0
  0
LINE
  5
15302
330
747D
100
AcDbEntity
  8
細線
 48
0.2
100
AcDbLine
 10
7687.780762476434
 20
3620.327276893879
 30
0.0
 11
7667.780762476436
 21
3620.327276893879
 31
0.0
  0
LINE
  5
15303
330
747D
100
AcDbEntity
  8
部品1
 48
0.2
100
AcDbLine
 10
7687.780762476434
 20
3622.827276893879
 30
0.0
 11
7667.780762476434
 21
3622.827276893879
 31
0.0
  0
LINE
  5
15304
330
747D
100
AcDbEntity
  8
部品1
100
AcDbLine
 10
7687.780762476435
 20
3616.077276893881
 30
0.0
 11
7687.843210305115
 21
3616.077276893881
 31
0.0
  0
ARC
  5
15305
330
747D
100
AcDbEntity
  8
細線
 48
0.2
100
AcDbCircle
 10
7684.780762476434
 20
3615.856767062631
 30
0.0
 40
1.0
100
AcDbArc
 50
286.6015495990217
 51
0.0
  0
LINE
  5
15306
330
747D
100
AcDbEntity
  8
細線
 48
0.2
100
AcDbLine
 10
7687.780762476434
 20
3615.827276893879
 30
0.0
 11
7667.780762476436
 21
3615.827276893879
 31
0.0
  0
LINE
  5
15307
330
747D
100
AcDbEntity
  8
細線
 48
0.2
100
AcDbLine
 10
7687.780762476434
 20
3618.327276893879
 30
0.0
 11
7667.780762476436
 21
3618.327276893881
 31
0.0
  0
ARC
  5
15308
330
747D
100
AcDbEntity
  8
細線
 48
0.2
100
AcDbCircle
 10
7674.780762476435
 20
3615.856767062631
 30
0.0
 40
1.0
100
AcDbArc
 50
179.9999999999984
 51
253.3984504009775
  0
ARC
  5
15309
330
747D
100
AcDbEntity
  8
細線
 48
0.2
100
AcDbCircle
 10
7679.780762476434
 20
3632.627276893876
 30
0.0
 40
18.49999999999796
100
AcDbArc
 50
253.3984504009772
 51
286.6015495990217
  0
LINE
  5
1530A
330
747D
100
AcDbEntity
  8
細線
 48
0.2
100
AcDbLine
 10
7685.464753772942
 20
3615.127276893878
 30
0.0
 11
7674.09677117993
 21
3615.127276893878
 31
0.0
  0
LINE
  5
1530B
330
747D
100
AcDbEntity
  8
細線
 48
50.0
100
AcDbLine
 10
7667.780762476434
 20
3616.077276893881
 30
0.0
 11
7667.780762476434
 21
3615.827276893879
 31
0.0
  0
LINE
  5
1530C
330
747D
100
AcDbEntity
  8
部品1
100
AcDbLine
 10
7687.780762476435
 20
3616.077276893881
 30
0.0
 11
7687.843210305117
 21
3616.077276893881
 31
0.0
  0
LINE
  5
1530D
330
747D
100
AcDbEntity
  8
部品1
100
AcDbLine
 10
7687.780762476435
 20
3616.077276893883
 30
0.0
 11
7687.843210305117
 21
3616.077276893883
 31
0.0
  0
LINE
  5
1530E
330
747D
100
AcDbEntity
  8
細線
 48
0.1
100
AcDbLine
 10
7687.780762476434
 20
3615.827276893879
 30
0.0
 11
7687.780762476434
 21
3622.827276893879
 31
0.0
  0
LINE
  5
1530F
330
747D
100
AcDbEntity
  8
細線
 48
50.0
100
AcDbLine
 10
7675.918005282131
 20
3618.327276893881
 30
0.0
 11
7675.918005282132
 21
3620.327276893879
 31
0.0
  0
LINE
  5
15310
330
747D
100
AcDbEntity
  8
細線
 48
50.0
100
AcDbLine
 10
7683.768415328096
 20
3618.327276893881
 30
0.0
 11
7683.768415328096
 21
3620.327276893879
 31
0.0
  0
LINE
  5
15311
330
747D
100
AcDbEntity
  8
部品1
 48
50.0
100
AcDbLine
 10
7667.780762476434
 20
3622.827276893879
 30
0.0
 11
7667.780762476434
 21
3616.077276893881
 31
0.0
  0
LINE
  5
15312
330
747D
100
AcDbEntity
  8
部品1
100
AcDbLine
 10
6957.843210305117
 20
5407.077276893859
 30
0.0
 11
7667.780762476434
 21
5407.07727689386
 31
0.0
  0
LINE
  5
1533A
330
747D
100
AcDbEntity
  8
部品1
100
AcDbLine
 10
6737.780762476436
 20
5407.077276893859
 30
0.0
 11
6737.843210305117
 21
5407.07727689386
 31
0.0
  0
LINE
  5
1533B
330
747D
100
AcDbEntity
  8
部品1
100
AcDbLine
 10
6737.780762476436
 20
5407.077276893862
 30
0.0
 11
6737.843210305117
 21
5407.07727689386
 31
0.0
  0
LINE
  5
1533C
330
747D
100
AcDbEntity
  8
細線
 48
50.0
100
AcDbLine
 10
6717.780762476434
 20
5407.077276893862
 30
0.0
 11
6717.780762476434
 21
5407.327276893862
 31
0.0
  0
LINE
  5
1533D
330
747D
100
AcDbEntity
  8
細線
 48
0.2
100
AcDbLine
 10
6735.464753772942
 20
5408.027276893863
 30
0.0
 11
6724.096771179929
 21
5408.027276893863
 31
0.0
  0
ARC
  5
1533E
330
747D
100
AcDbEntity
  8
細線
 48
0.2
100
AcDbCircle
 10
6729.780762476434
 20
5390.527276893865
 30
0.0
 40
18.49999999999796
100
AcDbArc
 50
73.39845040097829
 51
106.6015495990228
  0
ARC
  5
1533F
330
747D
100
AcDbEntity
  8
細線
 48
0.2
100
AcDbCircle
 10
6724.780762476434
 20
5407.29778672511
 30
0.0
 40
1.0
100
AcDbArc
 50
106.6015495990225
 51
180.0000000000016
  0
LINE
  5
15340
330
747D
100
AcDbEntity
  8
細線
 48
0.2
100
AcDbLine
 10
6737.780762476434
 20
5404.827276893862
 30
0.0
 11
6717.780762476436
 21
5404.827276893862
 31
0.0
  0
LINE
  5
15341
330
747D
100
AcDbEntity
  8
細線
 48
0.2
100
AcDbLine
 10
6737.780762476434
 20
5407.327276893862
 30
0.0
 11
6717.780762476436
 21
5407.327276893862
 31
0.0
  0
ARC
  5
15342
330
747D
100
AcDbEntity
  8
細線
 48
0.2
100
AcDbCircle
 10
6734.780762476434
 20
5407.29778672511
 30
0.0
 40
1.0
100
AcDbArc
 50
0.0
 51
73.39845040097829
  0
LINE
  5
15343
330
747D
100
AcDbEntity
  8
部品1
 48
0.2
100
AcDbLine
 10
6737.780762476434
 20
5400.327276893862
 30
0.0
 11
6717.780762476434
 21
5400.327276893862
 31
0.0
  0
LINE
  5
15344
330
747D
100
AcDbEntity
  8
細線
 48
0.2
100
AcDbLine
 10
6737.780762476434
 20
5402.827276893862
 30
0.0
 11
6717.780762476436
 21
5402.827276893862
 31
0.0
  0
LINE
  5
15345
330
747D
100
AcDbEntity
  8
部品1
 48
50.0
100
AcDbLine
 10
6717.780762476434
 20
5400.327276893862
 30
0.0
 11
6717.780762476434
 21
5407.077276893862
 31
0.0
  0
LINE
  5
15346
330
747D
100
AcDbEntity
  8
細線
 48
50.0
100
AcDbLine
 10
6733.768415328095
 20
5404.827276893862
 30
0.0
 11
6733.768415328095
 21
5402.827276893862
 31
0.0
  0
LINE
  5
15347
330
747D
100
AcDbEntity
  8
細線
 48
50.0
100
AcDbLine
 10
6725.918005282131
 20
5404.827276893862
 30
0.0
 11
6725.918005282132
 21
5402.827276893862
 31
0.0
  0
LINE
  5
15348
330
747D
100
AcDbEntity
  8
細線
 48
0.1
100
AcDbLine
 10
6737.780762476434
 20
5407.327276893862
 30
0.0
 11
6737.780762476434
 21
5400.327276893862
 31
0.0
  0
LINE
  5
15349
330
747D
100
AcDbEntity
  8
部品1
100
AcDbLine
 10
7687.780762476435
 20
5407.077276893859
 30
0.0
 11
7687.843210305117
 21
5407.07727689386
 31
0.0
  0
LINE
  5
1534A
330
747D
100
AcDbEntity
  8
部品1
100
AcDbLine
 10
7687.780762476435
 20
5407.077276893862
 30
0.0
 11
7687.843210305117
 21
5407.07727689386
 31
0.0
  0
LINE
  5
1534B
330
747D
100
AcDbEntity
  8
細線
 48
50.0
100
AcDbLine
 10
7667.780762476434
 20
5407.077276893862
 30
0.0
 11
7667.780762476434
 21
5407.327276893862
 31
0.0
  0
LINE
  5
1534C
330
747D
100
AcDbEntity
  8
細線
 48
0.2
100
AcDbLine
 10
7685.464753772942
 20
5408.027276893863
 30
0.0
 11
7674.09677117993
 21
5408.027276893863
 31
0.0
  0
ARC
  5
1534D
330
747D
100
AcDbEntity
  8
細線
 48
0.2
100
AcDbCircle
 10
7679.780762476434
 20
5390.527276893865
 30
0.0
 40
18.49999999999796
100
AcDbArc
 50
73.39845040097829
 51
106.6015495990228
  0
ARC
  5
1534E
330
747D
100
AcDbEntity
  8
細線
 48
0.2
100
AcDbCircle
 10
7674.780762476435
 20
5407.29778672511
 30
0.0
 40
1.0
100
AcDbArc
 50
106.6015495990225
 51
180.0000000000016
  0
LINE
  5
1534F
330
747D
100
AcDbEntity
  8
細線
 48
0.2
100
AcDbLine
 10
7687.780762476434
 20
5404.827276893862
 30
0.0
 11
7667.780762476436
 21
5404.827276893862
 31
0.0
  0
LINE
  5
15350
330
747D
100
AcDbEntity
  8
細線
 48
0.2
100
AcDbLine
 10
7687.780762476434
 20
5407.327276893862
 30
0.0
 11
7667.780762476436
 21
5407.327276893862
 31
0.0
  0
ARC
  5
15351
330
747D
100
AcDbEntity
  8
細線
 48
0.2
100
AcDbCircle
 10
7684.780762476434
 20
5407.29778672511
 30
0.0
 40
1.0
100
AcDbArc
 50
0.0
 51
73.39845040097829
  0
LINE
  5
15352
330
747D
100
AcDbEntity
  8
部品1
 48
0.2
100
AcDbLine
 10
7687.780762476434
 20
5400.327276893862
 30
0.0
 11
7667.780762476434
 21
5400.327276893862
 31
0.0
  0
LINE
  5
15353
330
747D
100
AcDbEntity
  8
細線
 48
0.2
100
AcDbLine
 10
7687.780762476434
 20
5402.827276893862
 30
0.0
 11
7667.780762476436
 21
5402.827276893862
 31
0.0
  0
LINE
  5
15354
330
747D
100
AcDbEntity
  8
部品1
 48
50.0
100
AcDbLine
 10
7667.780762476434
 20
5400.327276893862
 30
0.0
 11
7667.780762476434
 21
5407.077276893862
 31
0.0
  0
LINE
  5
15355
330
747D
100
AcDbEntity
  8
細線
 48
50.0
100
AcDbLine
 10
7683.768415328096
 20
5404.827276893862
 30
0.0
 11
7683.768415328096
 21
5402.827276893862
 31
0.0
  0
LINE
  5
15356
330
747D
100
AcDbEntity
  8
細線
 48
50.0
100
AcDbLine
 10
7675.918005282131
 20
5404.827276893862
 30
0.0
 11
7675.918005282132
 21
5402.827276893862
 31
0.0
  0
LINE
  5
15357
330
747D
100
AcDbEntity
  8
細線
 48
0.1
100
AcDbLine
 10
7687.780762476434
 20
5407.327276893862
 30
0.0
 11
7687.780762476434
 21
5400.327276893862
 31
0.0
  0
LINE
  5
155F2
330
747D
100
AcDbEntity
  8
細線
 48
50.0
100
AcDbLine
 10
5181.843210305116
 20
8382.365915108506
 30
0.0
 11
5181.843210305116
 21
8356.365915108458
 31
0.0
  0
LINE
  5
155F3
330
747D
100
AcDbEntity
  8
細線
 48
50.0
100
AcDbLine
 10
5407.843210305116
 20
8382.365915108493
 30
0.0
 11
5407.843210305116
 21
8356.365915108458
 31
0.0
  0
LINE
  5
155F4
330
747D
100
AcDbEntity
  8
細線
 48
50.0
100
AcDbLine
 10
5367.843210305116
 20
8382.365915108493
 30
0.0
 11
5367.843210305116
 21
8356.365915108458
 31
0.0
  0
LINE
  5
155F5
330
747D
100
AcDbEntity
  8
細線
 48
50.0
100
AcDbLine
 10
5594.843210305115
 20
8382.365915108708
 30
0.0
 11
5594.843210305115
 21
8356.365915108673
 31
0.0
  0
LINE
  5
155F6
330
747D
100
AcDbEntity
  8
細線
 48
50.0
100
AcDbLine
 10
5634.843210305115
 20
8382.365915108708
 30
0.0
 11
5634.843210305115
 21
8356.365915108673
 31
0.0
  0
LINE
  5
155F7
330
747D
100
AcDbEntity
  8
細線
 48
50.0
100
AcDbLine
 10
6317.843210305116
 20
8382.365915108493
 30
0.0
 11
6317.843210305116
 21
8356.365915108458
 31
0.0
  0
LINE
  5
155F8
330
747D
100
AcDbEntity
  8
細線
 48
50.0
100
AcDbLine
 10
6357.843210305116
 20
8382.365915108493
 30
0.0
 11
6357.843210305116
 21
8356.365915108458
 31
0.0
  0
LINE
  5
155F9
330
747D
100
AcDbEntity
  8
細線
 48
50.0
100
AcDbLine
 10
6131.843210305116
 20
8382.365915108506
 30
0.0
 11
6131.843210305116
 21
8356.365915108458
 31
0.0
  0
LINE
  5
155FA
330
747D
100
AcDbEntity
  8
細線
 48
50.0
100
AcDbLine
 10
6584.843210305115
 20
8382.365915108708
 30
0.0
 11
6584.843210305115
 21
8356.365915108673
 31
0.0
  0
LINE
  5
155FB
330
747D
100
AcDbEntity
  8
細線
 48
50.0
100
AcDbLine
 10
6544.843210305116
 20
8382.365915108708
 30
0.0
 11
6544.843210305116
 21
8356.365915108673
 31
0.0
  0
LINE
  5
155FC
330
747D
100
AcDbEntity
  8
細線
 48
50.0
100
AcDbLine
 10
7081.843210305115
 20
8382.365915108506
 30
0.0
 11
7081.843210305115
 21
8356.365915108458
 31
0.0
  0
LINE
  5
155FD
330
747D
100
AcDbEntity
  8
細線
 48
50.0
100
AcDbLine
 10
7307.843210305115
 20
8382.365915108493
 30
0.0
 11
7307.843210305115
 21
8356.365915108458
 31
0.0
  0
LINE
  5
155FE
330
747D
100
AcDbEntity
  8
細線
 48
50.0
100
AcDbLine
 10
7267.843210305115
 20
8382.365915108493
 30
0.0
 11
7267.843210305115
 21
8356.365915108458
 31
0.0
  0
LINE
  5
155FF
330
747D
100
AcDbEntity
  8
細線
 48
50.0
100
AcDbLine
 10
7494.843210305116
 20
8382.365915108708
 30
0.0
 11
7494.843210305116
 21
8356.365915108673
 31
0.0
  0
LINE
  5
15600
330
747D
100
AcDbEntity
  8
細線
 48
50.0
100
AcDbLine
 10
7534.843210305115
 20
8382.365915108708
 30
0.0
 11
7534.843210305115
 21
8356.365915108673
 31
0.0
  0
ARC
  5
15645
330
747D
100
AcDbEntity
  8
細線
100
AcDbCircle
 10
5118.843210305115
 20
4458.577276893862
 30
0.0
 40
5.5
100
AcDbArc
 50
270.0
 51
0.0
  0
ARC
  5
15646
330
747D
100
AcDbEntity
  8
部品1
100
AcDbCircle
 10
5119.843210305115
 20
4457.577276893863
 30
0.0
 40
6.0
100
AcDbArc
 50
270.0
 51
0.0
  0
ARC
  5
15647
330
747D
100
AcDbEntity
  8
細線
100
AcDbCircle
 10
5079.676591835869
 20
4458.577276893862
 30
0.0
 40
5.5
100
AcDbArc
 50
190.4214509727298
 51
269.9999999999997
  0
ARC
  5
15648
330
747D
100
AcDbEntity
  8
部品1
100
AcDbCircle
 10
5078.844940414099
 20
4457.577276893863
 30
0.0
 40
6.0
100
AcDbArc
 50
190.5838025965097
 51
270.0
  0
LINE
  5
15649
330
747D
100
AcDbEntity
  8
細線
100
AcDbLine
 10
5079.676591835869
 20
4453.077276893862
 30
0.0
 11
5118.843210305115
 21
4453.077276893862
 31
0.0
  0
LINE
  5
1564A
330
747D
100
AcDbEntity
  8
部品1
100
AcDbLine
 10
5078.844940414099
 20
4451.577276893862
 30
0.0
 11
5119.843210305115
 21
4451.577276893862
 31
0.0
  0
CIRCLE
  5
1564B
330
747D
100
AcDbEntity
  8
細線
 48
20.0
100
AcDbCircle
 10
5099.344075359607
 20
4612.077276893862
 30
0.0
 40
20.0
  0
CIRCLE
  5
1564C
330
747D
100
AcDbEntity
  8
細線
 48
20.0
100
AcDbCircle
 10
5099.344075359607
 20
4612.077276893862
 30
0.0
 40
10.0
  0
ARC
  5
1564D
330
747D
100
AcDbEntity
  8
細線
100
AcDbCircle
 10
5113.843210305114
 20
4555.577276893862
 30
0.0
 40
6.0
100
AcDbArc
 50
0.0
 51
90.0
  0
ARC
  5
1564E
330
747D
100
AcDbEntity
  8
細線
100
AcDbCircle
 10
5104.05074948386
 20
4552.577276893862
 30
0.0
 40
6.0
100
AcDbArc
 50
0.0
 51
90.0
  0
ARC
  5
1564F
330
747D
100
AcDbEntity
  8
細線
100
AcDbCircle
 10
5118.843210305115
 20
4564.577276893862
 30
0.0
 40
5.5
100
AcDbArc
 50
0.0
 51
90.0
  0
ARC
  5
15650
330
747D
100
AcDbEntity
  8
部品1
100
AcDbCircle
 10
5119.843210305115
 20
4565.577276893862
 30
0.0
 40
6.0
100
AcDbArc
 50
0.0
 51
90.0
  0
LINE
  5
15651
330
747D
100
AcDbEntity
  8
細線
100
AcDbLine
 10
5093.337634214948
 20
4555.577276893862
 30
0.0
 11
5091.843210305114
 21
4555.577276893862
 31
0.0
  0
ARC
  5
15652
330
747D
100
AcDbEntity
  8
細線
100
AcDbCircle
 10
5093.337634214948
 20
4552.577276893862
 30
0.0
 40
3.0
100
AcDbArc
 50
8.099550838277986
 51
90.0
  0
ARC
  5
15653
330
747D
100
AcDbEntity
  8
細線
100
AcDbCircle
 10
5083.224166669592
 20
4555.577276893862
 30
0.0
 40
6.0
100
AcDbArc
 50
90.0
 51
171.2120626773636
  0
LINE
  5
15654
330
747D
100
AcDbEntity
  8
細線
100
AcDbLine
 10
5091.843210305114
 20
4555.576768995299
 30
0.0
 11
5079.079883089147
 21
4555.576768995299
 31
0.0
  0
ARC
  5
15655
330
747D
100
AcDbEntity
  8
細線
100
AcDbCircle
 10
5079.676591835869
 20
4564.577276893862
 30
0.0
 40
5.5
100
AcDbArc
 50
89.99999999999969
 51
169.5785490272683
  0
ARC
  5
15656
330
747D
100
AcDbEntity
  8
部品1
100
AcDbCircle
 10
5078.844940414099
 20
4565.577276893862
 30
0.0
 40
6.0
100
AcDbArc
 50
90.0
 51
169.4161974034886
  0
LINE
  5
15657
330
747D
100
AcDbEntity
  8
細線
100
AcDbLine
 10
5118.843210305115
 20
4570.077276893862
 30
0.0
 11
5079.676591835869
 21
4570.077276893862
 31
0.0
  0
LINE
  5
15658
330
747D
100
AcDbEntity
  8
細線
100
AcDbLine
 10
5104.05074948386
 20
4558.577276893863
 30
0.0
 11
5091.843210305114
 21
4558.577276893863
 31
0.0
  0
LINE
  5
15659
330
747D
100
AcDbEntity
  8
細線
100
AcDbLine
 10
5113.843210305114
 20
4561.577276893863
 30
0.0
 11
5083.224166669592
 21
4561.577276893863
 31
0.0
  0
LINE
  5
1565A
330
747D
100
AcDbEntity
  8
部品1
100
AcDbLine
 10
5119.843210305115
 20
4571.577276893862
 30
0.0
 11
5078.844940414099
 21
4571.577276893862
 31
0.0
  0
ARC
  5
1565B
330
747D
100
AcDbEntity
  8
細線
100
AcDbCircle
 10
5113.843210305114
 20
4467.577276893861
 30
0.0
 40
6.0
100
AcDbArc
 50
270.0
 51
0.0
  0
ARC
  5
1565C
330
747D
100
AcDbEntity
  8
細線
100
AcDbCircle
 10
5104.05074948386
 20
4470.577276893862
 30
0.0
 40
6.0
100
AcDbArc
 50
270.0
 51
360.0
  0
LINE
  5
1565D
330
747D
100
AcDbEntity
  8
細線
100
AcDbLine
 10
5091.843210305114
 20
4467.577276893861
 30
0.0
 11
5093.337634214949
 21
4467.577276893861
 31
0.0
  0
ARC
  5
1565E
330
747D
100
AcDbEntity
  8
細線
100
AcDbCircle
 10
5093.337634214949
 20
4470.577276893862
 30
0.0
 40
3.0
100
AcDbArc
 50
270.0
 51
351.9004491617184
  0
ARC
  5
1565F
330
747D
100
AcDbEntity
  8
細線
100
AcDbCircle
 10
5083.224166669592
 20
4467.577276893861
 30
0.0
 40
6.0
100
AcDbArc
 50
188.7879373226349
 51
270.0
  0
LINE
  5
15660
330
747D
100
AcDbEntity
  8
細線
100
AcDbLine
 10
5091.843210305114
 20
4467.577784792426
 30
0.0
 11
5078.364505806292
 21
4467.577784792426
 31
0.0
  0
LINE
  5
15661
330
747D
100
AcDbEntity
  8
細線
100
AcDbLine
 10
5091.843210305114
 20
4464.577276893861
 30
0.0
 11
5104.05074948386
 21
4464.577276893861
 31
0.0
  0
LINE
  5
15662
330
747D
100
AcDbEntity
  8
細線
100
AcDbLine
 10
5083.224166669592
 20
4461.577276893862
 30
0.0
 11
5113.843210305114
 21
4461.577276893862
 31
0.0
  0
LINE
  5
15663
330
747D
100
AcDbEntity
  8
細線
100
AcDbLine
 10
5110.05074948386
 20
4470.577276893862
 30
0.0
 11
5110.05074948386
 21
4552.577276893862
 31
0.0
  0
LINE
  5
15664
330
747D
100
AcDbEntity
  8
細線
100
AcDbLine
 10
5119.843210305115
 20
4467.577276893861
 30
0.0
 11
5119.843210305115
 21
4555.577276893862
 31
0.0
  0
LINE
  5
15665
330
747D
100
AcDbEntity
  8
細線
100
AcDbLine
 10
5124.343210305115
 20
4458.577276893862
 30
0.0
 11
5124.343210305115
 21
4564.577276893862
 31
0.0
  0
LINE
  5
15666
330
747D
100
AcDbEntity
  8
部品1
100
AcDbLine
 10
5125.843210305115
 20
4457.577276893863
 30
0.0
 11
5125.843210305115
 21
4565.577276893862
 31
0.0
  0
LINE
  5
15667
330
747D
100
AcDbEntity
  8
細線
100
AcDbLine
 10
5091.843210305114
 20
4561.577276893863
 30
0.0
 11
5091.843210305114
 21
4461.577276893862
 31
0.0
  0
ARC
  5
15668
330
747D
100
AcDbEntity
  8
細線
100
AcDbCircle
 10
5367.843210305114
 20
4511.577276893862
 30
0.0
 40
298.5
100
AcDbArc
 50
169.578549027269
 51
190.4214509727309
  0
ARC
  5
15669
330
747D
100
AcDbEntity
  8
細線
100
AcDbCircle
 10
5367.843210305114
 20
4511.577276893862
 30
0.0
 40
294.0
100
AcDbArc
 50
171.212062677364
 51
188.7879373226359
  0
ARC
  5
1566A
330
747D
100
AcDbEntity
  8
細線
100
AcDbCircle
 10
4805.240428397191
 20
4511.577276893862
 30
0.0
 40
294.0
100
AcDbArc
 50
351.900449161722
 51
8.099550838278029
  0
ARC
  5
1566B
330
747D
100
AcDbEntity
  8
部品1
100
AcDbCircle
 10
5367.843210305114
 20
4511.577276893862
 30
0.0
 40
300.0
100
AcDbArc
 50
169.4161974034894
 51
190.5838025965105
  0
LINE
  5
1566E
330
747D
100
AcDbEntity
  8
細線
100
AcDbLine
 10
6060.05074948386
 20
4470.577276893862
 30
0.0
 11
6060.05074948386
 21
4552.577276893862
 31
0.0
  0
LINE
  5
1566F
330
747D
100
AcDbEntity
  8
細線
100
AcDbLine
 10
6069.843210305115
 20
4467.577276893861
 30
0.0
 11
6069.843210305115
 21
4555.577276893862
 31
0.0
  0
LINE
  5
15670
330
747D
100
AcDbEntity
  8
細線
100
AcDbLine
 10
6074.343210305115
 20
4458.577276893862
 30
0.0
 11
6074.343210305115
 21
4564.577276893862
 31
0.0
  0
LINE
  5
15671
330
747D
100
AcDbEntity
  8
部品1
100
AcDbLine
 10
6075.843210305115
 20
4457.577276893863
 30
0.0
 11
6075.843210305115
 21
4565.577276893862
 31
0.0
  0
LINE
  5
15672
330
747D
100
AcDbEntity
  8
細線
100
AcDbLine
 10
6041.843210305114
 20
4561.577276893863
 30
0.0
 11
6041.843210305114
 21
4461.577276893862
 31
0.0
  0
ARC
  5
15673
330
747D
100
AcDbEntity
  8
細線
100
AcDbCircle
 10
6317.843210305114
 20
4511.577276893862
 30
0.0
 40
298.5
100
AcDbArc
 50
169.578549027269
 51
190.4214509727309
  0
ARC
  5
15674
330
747D
100
AcDbEntity
  8
細線
100
AcDbCircle
 10
6317.843210305114
 20
4511.577276893862
 30
0.0
 40
294.0
100
AcDbArc
 50
171.212062677364
 51
188.7879373226359
  0
ARC
  5
15675
330
747D
100
AcDbEntity
  8
細線
100
AcDbCircle
 10
5755.24042839719
 20
4511.577276893862
 30
0.0
 40
294.0
100
AcDbArc
 50
351.900449161722
 51
8.099550838278029
  0
ARC
  5
15676
330
747D
100
AcDbEntity
  8
部品1
100
AcDbCircle
 10
6317.843210305114
 20
4511.577276893862
 30
0.0
 40
300.0
100
AcDbArc
 50
169.4161974034894
 51
190.5838025965105
  0
LINE
  5
15677
330
747D
100
AcDbEntity
  8
細線
100
AcDbLine
 10
6029.676591835869
 20
4453.077276893862
 30
0.0
 11
6068.843210305114
 21
4453.077276893862
 31
0.0
  0
ARC
  5
15678
330
747D
100
AcDbEntity
  8
細線
100
AcDbCircle
 10
6033.224166669592
 20
4467.577276893861
 30
0.0
 40
6.0
100
AcDbArc
 50
188.7879373226349
 51
270.0
  0
LINE
  5
15679
330
747D
100
AcDbEntity
  8
細線
100
AcDbLine
 10
6041.843210305114
 20
4467.577784792426
 30
0.0
 11
6028.364505806292
 21
4467.577784792426
 31
0.0
  0
LINE
  5
1567A
330
747D
100
AcDbEntity
  8
部品1
100
AcDbLine
 10
6028.844940414099
 20
4451.577276893862
 30
0.0
 11
6069.843210305115
 21
4451.577276893862
 31
0.0
  0
ARC
  5
1567B
330
747D
100
AcDbEntity
  8
細線
100
AcDbCircle
 10
6029.676591835869
 20
4458.577276893862
 30
0.0
 40
5.5
100
AcDbArc
 50
190.4214509727298
 51
269.9999999999997
  0
ARC
  5
1567C
330
747D
100
AcDbEntity
  8
部品1
100
AcDbCircle
 10
6028.844940414099
 20
4457.577276893863
 30
0.0
 40
6.0
100
AcDbArc
 50
190.5838025965097
 51
270.0
  0
ARC
  5
1567D
330
747D
100
AcDbEntity
  8
部品1
100
AcDbCircle
 10
6069.843210305115
 20
4457.577276893863
 30
0.0
 40
6.0
100
AcDbArc
 50
270.0
 51
0.0
  0
ARC
  5
1567E
330
747D
100
AcDbEntity
  8
細線
100
AcDbCircle
 10
6054.05074948386
 20
4470.577276893862
 30
0.0
 40
6.0
100
AcDbArc
 50
270.0
 51
360.0
  0
LINE
  5
1567F
330
747D
100
AcDbEntity
  8
細線
100
AcDbLine
 10
6041.843210305114
 20
4467.577276893861
 30
0.0
 11
6043.33763421495
 21
4467.577276893861
 31
0.0
  0
ARC
  5
15680
330
747D
100
AcDbEntity
  8
細線
100
AcDbCircle
 10
6043.33763421495
 20
4470.577276893862
 30
0.0
 40
3.0
100
AcDbArc
 50
270.0
 51
351.9004491617184
  0
LINE
  5
15681
330
747D
100
AcDbEntity
  8
細線
100
AcDbLine
 10
6041.843210305114
 20
4464.577276893861
 30
0.0
 11
6054.05074948386
 21
4464.577276893861
 31
0.0
  0
LINE
  5
15682
330
747D
100
AcDbEntity
  8
細線
100
AcDbLine
 10
6033.224166669592
 20
4461.577276893862
 30
0.0
 11
6063.843210305114
 21
4461.577276893862
 31
0.0
  0
ARC
  5
15683
330
747D
100
AcDbEntity
  8
細線
100
AcDbCircle
 10
6068.843210305114
 20
4458.577276893862
 30
0.0
 40
5.5
100
AcDbArc
 50
270.0
 51
0.0
  0
ARC
  5
15684
330
747D
100
AcDbEntity
  8
細線
100
AcDbCircle
 10
6063.843210305114
 20
4467.577276893861
 30
0.0
 40
6.0
100
AcDbArc
 50
270.0
 51
0.0
  0
ARC
  5
15685
330
747D
100
AcDbEntity
  8
細線
100
AcDbCircle
 10
6033.224166669592
 20
4555.577276893862
 30
0.0
 40
6.0
100
AcDbArc
 50
90.0
 51
171.2120626773636
  0
LINE
  5
15686
330
747D
100
AcDbEntity
  8
細線
100
AcDbLine
 10
6041.843210305114
 20
4555.576768995299
 30
0.0
 11
6029.079883089147
 21
4555.576768995299
 31
0.0
  0
LINE
  5
15687
330
747D
100
AcDbEntity
  8
細線
100
AcDbLine
 10
6068.843210305114
 20
4570.077276893862
 30
0.0
 11
6029.676591835869
 21
4570.077276893862
 31
0.0
  0
CIRCLE
  5
15688
330
747D
100
AcDbEntity
  8
細線
 48
20.0
100
AcDbCircle
 10
6049.344075359607
 20
4612.077276893862
 30
0.0
 40
20.0
  0
LINE
  5
15689
330
747D
100
AcDbEntity
  8
部品1
100
AcDbLine
 10
6069.843210305115
 20
4571.577276893862
 30
0.0
 11
6028.844940414099
 21
4571.577276893862
 31
0.0
  0
ARC
  5
1568A
330
747D
100
AcDbEntity
  8
細線
100
AcDbCircle
 10
6029.676591835869
 20
4564.577276893862
 30
0.0
 40
5.5
100
AcDbArc
 50
89.99999999999969
 51
169.5785490272683
  0
ARC
  5
1568B
330
747D
100
AcDbEntity
  8
部品1
100
AcDbCircle
 10
6028.844940414099
 20
4565.577276893862
 30
0.0
 40
6.0
100
AcDbArc
 50
90.0
 51
169.4161974034886
  0
ARC
  5
1568C
330
747D
100
AcDbEntity
  8
部品1
100
AcDbCircle
 10
6069.843210305115
 20
4565.577276893862
 30
0.0
 40
6.0
100
AcDbArc
 50
0.0
 51
90.0
  0
CIRCLE
  5
1568D
330
747D
100
AcDbEntity
  8
細線
 48
20.0
100
AcDbCircle
 10
6049.344075359607
 20
4612.077276893862
 30
0.0
 40
10.0
  0
ARC
  5
1568E
330
747D
100
AcDbEntity
  8
細線
100
AcDbCircle
 10
6054.05074948386
 20
4552.577276893862
 30
0.0
 40
6.0
100
AcDbArc
 50
0.0
 51
90.0
  0
LINE
  5
1568F
330
747D
100
AcDbEntity
  8
細線
100
AcDbLine
 10
6043.337634214948
 20
4555.577276893862
 30
0.0
 11
6041.843210305114
 21
4555.577276893862
 31
0.0
  0
ARC
  5
15690
330
747D
100
AcDbEntity
  8
細線
100
AcDbCircle
 10
6043.337634214948
 20
4552.577276893862
 30
0.0
 40
3.0
100
AcDbArc
 50
8.099550838277986
 51
90.0
  0
LINE
  5
15691
330
747D
100
AcDbEntity
  8
細線
100
AcDbLine
 10
6054.05074948386
 20
4558.577276893863
 30
0.0
 11
6041.843210305114
 21
4558.577276893863
 31
0.0
  0
LINE
  5
15692
330
747D
100
AcDbEntity
  8
細線
100
AcDbLine
 10
6063.843210305114
 20
4561.577276893863
 30
0.0
 11
6033.224166669592
 21
4561.577276893863
 31
0.0
  0
ARC
  5
15693
330
747D
100
AcDbEntity
  8
細線
100
AcDbCircle
 10
6063.843210305114
 20
4555.577276893862
 30
0.0
 40
6.0
100
AcDbArc
 50
0.0
 51
90.0
  0
ARC
  5
15694
330
747D
100
AcDbEntity
  8
細線
100
AcDbCircle
 10
6068.843210305114
 20
4564.577276893862
 30
0.0
 40
5.5
100
AcDbArc
 50
0.0
 51
90.0
  0
ARC
  5
15695
330
747D
100
AcDbEntity
  8
部品1
100
AcDbCircle
 10
7267.843210305115
 20
4511.577276893862
 30
0.0
 40
300.0
100
AcDbArc
 50
169.4161974034894
 51
190.5838025965105
  0
ARC
  5
15696
330
747D
100
AcDbEntity
  8
細線
100
AcDbCircle
 10
6705.240428397189
 20
4511.577276893862
 30
0.0
 40
294.0
100
AcDbArc
 50
351.900449161722
 51
8.099550838278029
  0
ARC
  5
15697
330
747D
100
AcDbEntity
  8
細線
100
AcDbCircle
 10
7267.843210305115
 20
4511.577276893862
 30
0.0
 40
294.0
100
AcDbArc
 50
171.212062677364
 51
188.7879373226359
  0
ARC
  5
15698
330
747D
100
AcDbEntity
  8
細線
100
AcDbCircle
 10
7267.843210305115
 20
4511.577276893862
 30
0.0
 40
298.5
100
AcDbArc
 50
169.578549027269
 51
190.4214509727309
  0
LINE
  5
15699
330
747D
100
AcDbEntity
  8
細線
100
AcDbLine
 10
6991.843210305114
 20
4561.577276893863
 30
0.0
 11
6991.843210305114
 21
4461.577276893862
 31
0.0
  0
LINE
  5
1569A
330
747D
100
AcDbEntity
  8
部品1
100
AcDbLine
 10
7025.843210305115
 20
4457.577276893863
 30
0.0
 11
7025.843210305115
 21
4565.577276893862
 31
0.0
  0
LINE
  5
1569B
330
747D
100
AcDbEntity
  8
細線
100
AcDbLine
 10
7024.343210305115
 20
4458.577276893862
 30
0.0
 11
7024.343210305115
 21
4564.577276893862
 31
0.0
  0
LINE
  5
1569C
330
747D
100
AcDbEntity
  8
細線
100
AcDbLine
 10
7019.843210305115
 20
4467.577276893861
 30
0.0
 11
7019.843210305115
 21
4555.577276893862
 31
0.0
  0
LINE
  5
1569D
330
747D
100
AcDbEntity
  8
細線
100
AcDbLine
 10
7010.050749483861
 20
4470.577276893862
 30
0.0
 11
7010.050749483861
 21
4552.577276893862
 31
0.0
  0
ARC
  5
1569E
330
747D
100
AcDbEntity
  8
細線
100
AcDbCircle
 10
7013.843210305115
 20
4467.577276893861
 30
0.0
 40
6.0
100
AcDbArc
 50
270.0
 51
0.0
  0
LINE
  5
1569F
330
747D
100
AcDbEntity
  8
部品1
100
AcDbLine
 10
6978.844940414099
 20
4451.577276893862
 30
0.0
 11
7019.843210305115
 21
4451.577276893862
 31
0.0
  0
LINE
  5
156A0
330
747D
100
AcDbEntity
  8
細線
100
AcDbLine
 10
6979.676591835868
 20
4453.077276893862
 30
0.0
 11
7018.843210305114
 21
4453.077276893862
 31
0.0
  0
LINE
  5
156A1
330
747D
100
AcDbEntity
  8
細線
100
AcDbLine
 10
6983.224166669592
 20
4461.577276893862
 30
0.0
 11
7013.843210305115
 21
4461.577276893862
 31
0.0
  0
LINE
  5
156A2
330
747D
100
AcDbEntity
  8
細線
100
AcDbLine
 10
6991.843210305114
 20
4464.577276893861
 30
0.0
 11
7004.050749483861
 21
4464.577276893861
 31
0.0
  0
ARC
  5
156A3
330
747D
100
AcDbEntity
  8
細線
100
AcDbCircle
 10
6993.33763421495
 20
4470.577276893862
 30
0.0
 40
3.0
100
AcDbArc
 50
270.0
 51
351.9004491617184
  0
LINE
  5
156A4
330
747D
100
AcDbEntity
  8
細線
100
AcDbLine
 10
6991.843210305114
 20
4467.577276893861
 30
0.0
 11
6993.33763421495
 21
4467.577276893861
 31
0.0
  0
ARC
  5
156A5
330
747D
100
AcDbEntity
  8
細線
100
AcDbCircle
 10
7004.050749483861
 20
4470.577276893862
 30
0.0
 40
6.0
100
AcDbArc
 50
270.0
 51
360.0
  0
ARC
  5
156A6
330
747D
100
AcDbEntity
  8
部品1
100
AcDbCircle
 10
6978.844940414099
 20
4457.577276893863
 30
0.0
 40
6.0
100
AcDbArc
 50
190.5838025965097
 51
270.0
  0
ARC
  5
156A7
330
747D
100
AcDbEntity
  8
細線
100
AcDbCircle
 10
6979.676591835868
 20
4458.577276893862
 30
0.0
 40
5.5
100
AcDbArc
 50
190.4214509727298
 51
269.9999999999997
  0
LINE
  5
156A8
330
747D
100
AcDbEntity
  8
細線
100
AcDbLine
 10
6991.843210305114
 20
4467.577784792426
 30
0.0
 11
6978.364505806291
 21
4467.577784792426
 31
0.0
  0
ARC
  5
156A9
330
747D
100
AcDbEntity
  8
細線
100
AcDbCircle
 10
6983.224166669592
 20
4467.577276893861
 30
0.0
 40
6.0
100
AcDbArc
 50
188.7879373226349
 51
270.0
  0
ARC
  5
156AA
330
747D
100
AcDbEntity
  8
細線
100
AcDbCircle
 10
7018.843210305114
 20
4458.577276893862
 30
0.0
 40
5.5
100
AcDbArc
 50
270.0
 51
0.0
  0
ARC
  5
156AB
330
747D
100
AcDbEntity
  8
部品1
100
AcDbCircle
 10
7019.843210305115
 20
4457.577276893863
 30
0.0
 40
6.0
100
AcDbArc
 50
270.0
 51
0.0
  0
ARC
  5
156AC
330
747D
100
AcDbEntity
  8
細線
100
AcDbCircle
 10
7013.843210305115
 20
4555.577276893862
 30
0.0
 40
6.0
100
AcDbArc
 50
0.0
 51
90.0
  0
LINE
  5
156AD
330
747D
100
AcDbEntity
  8
部品1
100
AcDbLine
 10
7019.843210305115
 20
4571.577276893862
 30
0.0
 11
6978.844940414099
 21
4571.577276893862
 31
0.0
  0
CIRCLE
  5
156AE
330
747D
100
AcDbEntity
  8
細線
 48
20.0
100
AcDbCircle
 10
6999.344075359608
 20
4612.077276893862
 30
0.0
 40
20.0
  0
LINE
  5
156AF
330
747D
100
AcDbEntity
  8
細線
100
AcDbLine
 10
7018.843210305114
 20
4570.077276893862
 30
0.0
 11
6979.676591835868
 21
4570.077276893862
 31
0.0
  0
LINE
  5
156B0
330
747D
100
AcDbEntity
  8
細線
100
AcDbLine
 10
7013.843210305115
 20
4561.577276893863
 30
0.0
 11
6983.224166669592
 21
4561.577276893863
 31
0.0
  0
LINE
  5
156B1
330
747D
100
AcDbEntity
  8
細線
100
AcDbLine
 10
7004.050749483861
 20
4558.577276893863
 30
0.0
 11
6991.843210305114
 21
4558.577276893863
 31
0.0
  0
ARC
  5
156B2
330
747D
100
AcDbEntity
  8
細線
100
AcDbCircle
 10
6993.337634214947
 20
4552.577276893862
 30
0.0
 40
3.0
100
AcDbArc
 50
8.099550838277986
 51
90.0
  0
LINE
  5
156B3
330
747D
100
AcDbEntity
  8
細線
100
AcDbLine
 10
6993.337634214947
 20
4555.577276893862
 30
0.0
 11
6991.843210305114
 21
4555.577276893862
 31
0.0
  0
ARC
  5
156B4
330
747D
100
AcDbEntity
  8
細線
100
AcDbCircle
 10
7004.050749483861
 20
4552.577276893862
 30
0.0
 40
6.0
100
AcDbArc
 50
0.0
 51
90.0
  0
CIRCLE
  5
156B5
330
747D
100
AcDbEntity
  8
細線
 48
20.0
100
AcDbCircle
 10
6999.344075359608
 20
4612.077276893862
 30
0.0
 40
10.0
  0
ARC
  5
156B6
330
747D
100
AcDbEntity
  8
部品1
100
AcDbCircle
 10
6978.844940414099
 20
4565.577276893862
 30
0.0
 40
6.0
100
AcDbArc
 50
90.0
 51
169.4161974034886
  0
ARC
  5
156B7
330
747D
100
AcDbEntity
  8
細線
100
AcDbCircle
 10
6979.676591835868
 20
4564.577276893862
 30
0.0
 40
5.5
100
AcDbArc
 50
89.99999999999969
 51
169.5785490272683
  0
LINE
  5
156B8
330
747D
100
AcDbEntity
  8
細線
100
AcDbLine
 10
6991.843210305114
 20
4555.576768995299
 30
0.0
 11
6979.079883089148
 21
4555.576768995299
 31
0.0
  0
ARC
  5
156B9
330
747D
100
AcDbEntity
  8
細線
100
AcDbCircle
 10
6983.224166669592
 20
4555.577276893862
 30
0.0
 40
6.0
100
AcDbArc
 50
90.0
 51
171.2120626773636
  0
ARC
  5
156BA
330
747D
100
AcDbEntity
  8
細線
100
AcDbCircle
 10
7018.843210305114
 20
4564.577276893862
 30
0.0
 40
5.5
100
AcDbArc
 50
0.0
 51
90.0
  0
ARC
  5
156BB
330
747D
100
AcDbEntity
  8
部品1
100
AcDbCircle
 10
7019.843210305115
 20
4565.577276893862
 30
0.0
 40
6.0
100
AcDbArc
 50
0.0
 51
90.0
  0
DIMENSION
  5
156D1
330
747D
100
AcDbEntity
  8
寸法
 48
50.0
100
AcDbDimension
  2
*D16
 10
6702.843210305116
 20
7916.542247313351
 30
0.0
 11
6360.343210305118
 21
7916.542247313351
 31
0.0
 70
   160
 71
     5
 42
684.9999999999954
  3
INABA_S40G
100
AcDbAlignedDimension
 13
6017.84321030512
 23
8356.365915108428
 33
0.0
 14
6702.843210305116
 24
8356.365915108392
 34
0.0
100
AcDbRotatedDimension
  0
DIMENSION
  5
156E9
330
747D
100
AcDbEntity
  8
寸法
 48
50.0
100
AcDbDimension
  2
*D17
 10
5752.843210305115
 20
7916.542247313351
 30
0.0
 11
5410.343210305118
 21
7916.542247313351
 31
0.0
 70
   160
 71
     5
 42
684.9999999999954
  3
INABA_S40G
100
AcDbAlignedDimension
 13
5067.84321030512
 23
8356.365915108428
 33
0.0
 14
5752.843210305115
 24
8356.365915108392
 34
0.0
100
AcDbRotatedDimension
  0
TEXT
  5
15ADA
330
747D
100
AcDbEntity
  8
文字
 62
     7
 48
50.0
100
AcDbText
 10
13583.11819016567
 20
9400.013745883729
 30
0.0
 40
100.0
  1
脇パネル
  7
STYLE1
100
AcDbText
  0
TEXT
  5
15ADB
330
747D
100
AcDbEntity
  8
文字
 62
     7
 48
50.0
100
AcDbText
 10
15022.63965474513
 20
9400.013745883725
 30
0.0
 40
100.0
  1
F12            0.6
  7
STYLE1
100
AcDbText
  0
LINE
  5
15B24
330
747D
100
AcDbEntity
  8
部品1
 48
50.0
100
AcDbLine
 10
9791.638222067824
 20
3630.327276893863
 30
0.0
 11
9798.640592112599
 21
3630.327276893863
 31
0.0
  0
LINE
  5
15B25
330
747D
100
AcDbEntity
  8
部品1
 48
0.2
100
AcDbLine
 10
9791.638222067824
 20
3630.327276893863
 30
0.0
 11
9791.638222067824
 21
3619.577276893862
 31
0.0
  0
LINE
  5
15B26
330
747D
100
AcDbEntity
  8
部品1
 48
50.0
100
AcDbLine
 10
9791.638222067824
 20
3619.577276893862
 30
0.0
 11
9798.640592112599
 21
3619.577276893862
 31
0.0
  0
LINE
  5
15B27
330
747D
100
AcDbEntity
  8
部品1
 48
0.2
100
AcDbLine
 10
9791.638222067824
 20
5409.577276893859
 30
0.0
 11
9791.638222067824
 21
5398.827276893861
 31
0.0
  0
LINE
  5
15B28
330
747D
100
AcDbEntity
  8
部品1
 48
50.0
100
AcDbLine
 10
9791.638222067824
 20
5398.827276893858
 30
0.0
 11
9798.640592112599
 21
5398.827276893858
 31
0.0
  0
DIMENSION
  5
15B29
330
747D
100
AcDbEntity
  8
寸法
 48
50.0
100
AcDbDimension
  2
*D18
 10
9146.374340401223
 20
5666.399767790673
 30
0.0
 11
9155.052084053112
 21
5896.236006807566
 31
0.0
 70
   160
 71
     5
 42
141.0
  3
INABA_S40G
100
AcDbAlignedDimension
 13
9753.983156714554
 23
5502.358301962826
 33
0.0
 14
9759.302990866508
 24
5643.257909359709
 34
0.0
 50
87.83775598715742
100
AcDbRotatedDimension
1001
ACAD
1000
DSTYLE
1002
{
1070
   174
1070
     0
1070
   272
1070
     1
1070
   288
1070
     0
1070
   341
1005
0
1002
}
  0
DIMENSION
  5
15B2A
330
747D
100
AcDbEntity
  8
寸法
100
AcDbDimension
  2
*D19
 10
8894.36878047212
 20
5644.577276893864
 30
0.0
 11
8894.368780472118
 21
4544.784267313661
 31
0.0
 70
   160
 71
     5
 42
2075.000000000002
  3
INABA_S40G
100
AcDbAlignedDimension
 13
9798.640592112599
 23
3569.577276893862
 33
0.0
 14
9738.640592112602
 24
5644.577276893864
 34
0.0
 50
90.0
100
AcDbRotatedDimension
1001
ACAD
1000
DSTYLE
1002
{
1070
   174
1070
     0
1070
   272
1070
     1
1070
   288
1070
     0
1070
   341
1005
0
1002
}
  0
DIMENSION
  5
15B2B
330
747D
100
AcDbEntity
  8
寸法
100
AcDbDimension
  2
*D20
 10
9196.677501420396
 20
3569.577276893862
 30
0.0
 11
9196.677501420396
 21
3263.530032799371
 31
0.0
 70
   160
 71
     5
 42
50.00000000000182
  3
INABA_S40G
100
AcDbAlignedDimension
 13
9791.638222067824
 23
3619.577276893863
 33
0.0
 14
9743.640592112599
 24
3569.577276893862
 34
0.0
 50
90.0
100
AcDbRotatedDimension
1001
ACAD
1000
DSTYLE
1002
{
1070
   174
1070
     0
1070
   272
1070
     1
1070
   288
1070
     0
1070
   341
1005
0
1002
}
  0
DIMENSION
  5
15B2C
330
747D
100
AcDbEntity
  8
寸法
100
AcDbDimension
  2
*D21
 10
9196.677501420396
 20
3619.577276893864
 30
0.0
 11
9196.677501420396
 21
4524.612288770248
 31
0.0
 70
   160
 71
     5
 42
1789.999999999997
  3
INABA_S40G
100
AcDbAlignedDimension
 13
9791.638222067824
 23
5409.577276893861
 33
0.0
 14
9791.638222067824
 24
3619.577276893863
 34
0.0
 50
90.0
100
AcDbRotatedDimension
1001
ACAD
1000
DSTYLE
1002
{
1070
   288
1070
     1
1002
}
  0
LINE
  5
15B2D
330
747D
100
AcDbEntity
  8
部品1
100
AcDbLine
 10
9791.638222067824
 20
5409.577276893861
 30
0.0
 11
10748.6405921126
 21
5409.577276893861
 31
0.0
  0
LINE
  5
15B2E
330
747D
100
AcDbEntity
  8
部品1
100
AcDbLine
 10
9798.640592112599
 20
3619.57727689386
 30
0.0
 11
10748.6405921126
 21
3619.57727689386
 31
0.0
  0
LINE
  5
15B2F
330
747D
100
AcDbEntity
  8
部品1
100
AcDbLine
 10
9853.640592112599
 20
5409.577276893861
 30
0.0
 11
9853.640592112599
 21
3619.57727689386
 31
0.0
  0
LINE
  5
15B30
330
747D
100
AcDbEntity
  8
部品1
100
AcDbLine
 10
9798.640592112601
 20
5500.6722067752
 30
0.0
 11
9798.640592112599
 21
3469.57727689386
 31
0.0
  0
LINE
  5
15B31
330
747D
100
AcDbEntity
  8
部品1
100
AcDbLine
 10
10273.6405921126
 20
5409.577276893861
 30
0.0
 11
10273.6405921126
 21
3619.57727689386
 31
0.0
  0
LINE
  5
15B32
330
747D
100
AcDbEntity
  8
部品1
100
AcDbLine
 10
10748.64059211259
 20
5464.803814110688
 30
0.0
 11
10748.6405921126
 21
3469.57727689386
 31
0.0
  0
LINE
  5
15B33
330
747D
100
AcDbEntity
  8
部品1
100
AcDbLine
 10
10693.6405921126
 20
5409.577276893861
 30
0.0
 11
10693.6405921126
 21
3619.57727689386
 31
0.0
  0
DIMENSION
  5
15B34
330
747D
100
AcDbEntity
  8
寸法
100
AcDbDimension
  2
*D22
 10
11453.56775008472
 20
5589.577276893862
 30
0.0
 11
11353.5559390611
 21
4579.577276893863
 31
0.0
 70
    32
 71
     5
 42
2020.000000000001
  3
INABA_S40G
100
AcDbAlignedDimension
 13
10748.6405921126
 23
3569.577276893862
 33
0.0
 14
10828.64059211259
 24
5589.577276893862
 34
0.0
 50
90.0
100
AcDbRotatedDimension
1001
ACAD
1000
DSTYLE
1002
{
1070
   174
1070
     0
1070
   272
1070
     1
1070
   288
1070
     0
1070
   341
1005
0
1002
}
  0
DIMENSION
  5
15B35
330
747D
100
AcDbEntity
  8
寸法
 48
50.0
100
AcDbDimension
  2
*D23
 10
9798.640592112601
 20
6043.234730473165
 30
0.0
 11
10273.6405921126
 21
6043.234730473165
 31
0.0
 70
   160
  1
柱外寸法<>
 71
     5
 42
949.9999999999964
  3
INABA_S40G
100
AcDbAlignedDimension
 13
10748.64059211259
 23
5591.387956505514
 33
0.0
 14
9798.640592112601
 24
5640.578895016837
 34
0.0
100
AcDbRotatedDimension
1001
ACAD
1000
DSTYLE
1002
{
1070
   174
1070
     0
1070
   272
1070
     1
1070
   288
1070
     0
1070
   341
1005
0
1002
}
  0
DIMENSION
  5
15B36
330
747D
100
AcDbEntity
  8
寸法
 48
50.0
100
AcDbDimension
  2
*D24
 10
9738.640592112602
 20
6043.234730473165
 30
0.0
 11
9429.002796837011
 21
6043.234730473165
 31
0.0
 70
   160
 71
     5
 42
60.0
  3
INABA_S40G
100
AcDbAlignedDimension
 13
9798.640592112601
 23
5640.578895016837
 33
0.0
 14
9738.640592112602
 24
5644.577276893866
 34
0.0
100
AcDbRotatedDimension
1001
ACAD
1000
DSTYLE
1002
{
1070
   174
1070
     0
1070
   272
1070
     1
1070
   288
1070
     0
1070
   341
1005
0
1002
}
  0
DIMENSION
  5
15B37
330
747D
100
AcDbEntity
  8
寸法
 48
50.0
100
AcDbDimension
  2
*D25
 10
9738.640592112602
 20
6252.828604894616
 30
0.0
 11
10261.75930679302
 21
6252.828604894616
 31
0.0
 70
   160
 71
     5
 42
1089.999999999996
  3
INABA_S40G
100
AcDbAlignedDimension
 13
10828.64059211259
 23
5589.577276893862
 33
0.0
 14
9738.640592112602
 24
5644.577276893866
 34
0.0
100
AcDbRotatedDimension
1001
ACAD
1000
DSTYLE
1002
{
1070
   174
1070
     0
1070
   272
1070
     1
1070
   288
1070
     0
1070
   341
1005
0
1002
}
  0
LINE
  5
15B38
330
747D
100
AcDbEntity
  8
部品1
100
AcDbLine
 10
9798.640592112599
 20
3569.57727689386
 30
0.0
 11
10748.64059211259
 21
3569.57727689386
 31
0.0
  0
LINE
  5
15B39
330
747D
100
AcDbEntity
  8
細線
 48
50.0
100
AcDbLine
 10
10351.1405921126
 20
5409.577276893861
 30
0.0
 11
10351.1405921126
 21
3619.57727689386
 31
0.0
  0
LINE
  5
15B3A
330
747D
100
AcDbEntity
  8
細線
 48
50.0
100
AcDbLine
 10
10336.1405921126
 20
5409.577276893861
 30
0.0
 11
10336.1405921126
 21
3619.57727689386
 31
0.0
  0
LINE
  5
15B3B
330
747D
100
AcDbEntity
  8
細線
 48
50.0
100
AcDbLine
 10
10476.1405921126
 20
5409.577276893861
 30
0.0
 11
10476.1405921126
 21
3619.57727689386
 31
0.0
  0
LINE
  5
15B3C
330
747D
100
AcDbEntity
  8
細線
 48
50.0
100
AcDbLine
 10
10491.1405921126
 20
5409.577276893861
 30
0.0
 11
10491.1405921126
 21
3619.57727689386
 31
0.0
  0
LINE
  5
15B3D
330
747D
100
AcDbEntity
  8
細線
 48
50.0
100
AcDbLine
 10
10631.1405921126
 20
5409.577276893861
 30
0.0
 11
10631.1405921126
 21
3619.57727689386
 31
0.0
  0
LINE
  5
15B3E
330
747D
100
AcDbEntity
  8
細線
 48
50.0
100
AcDbLine
 10
10616.1405921126
 20
5409.577276893861
 30
0.0
 11
10616.1405921126
 21
3619.57727689386
 31
0.0
  0
LINE
  5
15B3F
330
747D
100
AcDbEntity
  8
細線
 48
50.0
100
AcDbLine
 10
10196.1405921126
 20
5409.577276893861
 30
0.0
 11
10196.1405921126
 21
3619.57727689386
 31
0.0
  0
LINE
  5
15B40
330
747D
100
AcDbEntity
  8
細線
 48
50.0
100
AcDbLine
 10
10211.1405921126
 20
5409.577276893861
 30
0.0
 11
10211.1405921126
 21
3619.57727689386
 31
0.0
  0
LINE
  5
15B41
330
747D
100
AcDbEntity
  8
細線
 48
50.0
100
AcDbLine
 10
10071.1405921126
 20
5409.577276893861
 30
0.0
 11
10071.1405921126
 21
3619.57727689386
 31
0.0
  0
LINE
  5
15B42
330
747D
100
AcDbEntity
  8
細線
 48
50.0
100
AcDbLine
 10
10056.1405921126
 20
5409.577276893861
 30
0.0
 11
10056.1405921126
 21
3619.57727689386
 31
0.0
  0
LINE
  5
15B43
330
747D
100
AcDbEntity
  8
細線
 48
50.0
100
AcDbLine
 10
9916.140592112599
 20
5409.577276893861
 30
0.0
 11
9916.140592112599
 21
3619.57727689386
 31
0.0
  0
LINE
  5
15B44
330
747D
100
AcDbEntity
  8
細線
 48
50.0
100
AcDbLine
 10
9931.140592112599
 20
5409.577276893861
 30
0.0
 11
9931.140592112599
 21
3619.57727689386
 31
0.0
  0
LINE
  5
15B45
330
747D
100
AcDbEntity
  8
部品1
100
AcDbLine
 10
9746.185578469562
 20
5643.295012228128
 30
0.0
 11
10821.25246897406
 21
5587.628118221424
 31
0.0
  0
LINE
  5
15B46
330
747D
100
AcDbEntity
  8
部品1
100
AcDbLine
 10
9753.983156714554
 20
5502.358301962828
 30
0.0
 11
10803.30429265244
 21
5462.739920347047
 31
0.0
  0
LINE
  5
15B47
330
747D
100
AcDbEntity
  8
細線
 48
50.0
100
AcDbLine
 10
9771.640592112602
 20
5641.976953269264
 30
0.0
 11
9766.351490557092
 21
5501.891320641911
 31
0.0
  0
LINE
  5
15B48
330
747D
100
AcDbEntity
  8
細線
 48
50.0
100
AcDbLine
 10
10795.6405921126
 20
5588.954299547582
 30
0.0
 11
10790.8929092246
 21
5463.208527056837
 31
0.0
  0
LINE
  5
15B49
330
747D
100
AcDbEntity
  8
部品1
 48
50.0
100
AcDbLine
 10
9738.824878025708
 20
5636.170823058553
 30
0.0
 11
9739.205137803519
 21
5616.243858612141
 31
0.0
  0
LINE
  5
15B4A
330
747D
100
AcDbEntity
  8
部品1
 48
50.0
100
AcDbLine
 10
9742.273909909764
 20
5612.668577118669
 30
0.0
 11
9743.97781140113
 21
5523.378080412023
 31
0.0
  0
LINE
  5
15B4B
330
747D
100
AcDbEntity
  8
細線
 48
50.0
100
AcDbLine
 10
9739.680015213414
 20
5615.594358735221
 30
0.0
 11
10825.31599995858
 21
5559.380197712819
 31
0.0
  0
LINE
  5
15B4C
330
747D
100
AcDbEntity
  8
細線
 48
50.0
100
AcDbLine
 10
9744.440490450699
 20
5522.73284703736
 30
0.0
 11
10814.44415488133
 21
5482.333571681291
 31
0.0
  0
LINE
  5
15B4D
330
747D
100
AcDbEntity
  8
部品1
 48
50.0
100
AcDbLine
 10
9747.046583507369
 20
5519.802798918551
 30
0.0
 11
9747.248536127804
 21
5509.219763525457
 31
0.0
  0
ARC
  5
15B4E
330
747D
100
AcDbEntity
  8
部品1
 48
50.0
100
AcDbCircle
 10
9745.823603854047
 20
5636.30437746598
 30
0.0
 40
7.0
100
AcDbArc
 50
87.03587545303976
 51
181.0932240293156
  0
ARC
  5
15B4F
330
747D
100
AcDbEntity
  8
部品1
 48
50.0
100
AcDbCircle
 10
9754.247261956141
 20
5509.353317932886
 30
0.0
 40
7.0
100
AcDbArc
 50
181.0932240293156
 51
267.8377559871574
  0
ARC
  5
15B50
330
747D
100
AcDbEntity
  8
部品1
100
AcDbCircle
 10
9744.047129580939
 20
5519.745561315367
 30
0.0
 40
3.0
100
AcDbArc
 50
1.093224029315636
 51
80.18775403148559
  0
ARC
  5
15B51
330
747D
100
AcDbEntity
  8
部品1
100
AcDbCircle
 10
9739.274455983334
 20
5612.611339515486
 30
0.0
 40
3.0
100
AcDbArc
 50
1.093224029315636
 51
80.18775403169653
  0
ARC
  5
15B52
330
747D
100
AcDbEntity
  8
部品1
100
AcDbCircle
 10
9739.905010386356
 20
5616.257214052884
 30
0.0
 40
0.7
100
AcDbArc
 50
181.0932240292114
 51
260.1877540316965
  0
ARC
  5
15B53
330
747D
100
AcDbEntity
  8
部品1
100
AcDbCircle
 10
9744.677683983965
 20
5523.391435852763
 30
0.0
 40
0.7
100
AcDbArc
 50
181.0932240292114
 51
260.1877540316965
  0
LINE
  5
15B54
330
747D
100
AcDbEntity
  8
部品1
 48
50.0
100
AcDbLine
 10
10827.8544949233
 20
5579.928472786503
 30
0.0
 11
10825.82387373233
 21
5559.983431528724
 31
0.0
  0
LINE
  5
15B55
330
747D
100
AcDbEntity
  8
部品1
 48
50.0
100
AcDbLine
 10
10822.47130724785
 20
5556.672797455814
 30
0.0
 11
10814.96452798301
 21
5482.940176710803
 31
0.0
  0
LINE
  5
15B56
330
747D
100
AcDbEntity
  8
部品1
 48
50.0
100
AcDbLine
 10
10811.61196149852
 20
5479.629542637891
 30
0.0
 11
10810.53239845878
 21
5469.025925644333
 31
0.0
  0
ARC
  5
15B57
330
747D
100
AcDbEntity
  8
部品1
 48
50.0
100
AcDbCircle
 10
10820.89049435854
 20
5580.637483459279
 30
0.0
 40
7.0
100
AcDbArc
 50
354.1866997665596
 51
87.03587545303976
  0
ARC
  5
15B58
330
747D
100
AcDbEntity
  8
部品1
 48
50.0
100
AcDbCircle
 10
10803.56839789403
 20
5469.734936317107
 30
0.0
 40
7.0
100
AcDbArc
 50
267.8377559871574
 51
354.1866997665596
  0
ARC
  5
15B59
330
747D
100
AcDbEntity
  8
部品1
100
AcDbCircle
 10
10814.59653316913
 20
5479.325680920987
 30
0.0
 40
3.0
100
AcDbArc
 50
95.0921697642102
 51
174.1866997665596
  0
ARC
  5
15B5A
330
747D
100
AcDbEntity
  8
部品1
100
AcDbCircle
 10
10825.45587891846
 20
5556.368935738912
 30
0.0
 40
3.0
100
AcDbArc
 50
95.09216976441955
 51
174.1866997665596
  0
ARC
  5
15B5B
330
747D
100
AcDbEntity
  8
部品1
100
AcDbCircle
 10
10825.12747367585
 20
5560.054332596001
 30
0.0
 40
0.7
100
AcDbArc
 50
275.0921697642102
 51
354.1866997665596
  0
ARC
  5
15B5C
330
747D
100
AcDbEntity
  8
部品1
100
AcDbCircle
 10
10814.26812792653
 20
5483.011077778077
 30
0.0
 40
0.7
100
AcDbArc
 50
275.0921697642102
 51
354.1866997666634
  0
DIMENSION
  5
15B5D
330
747D
100
AcDbEntity
  8
寸法
 48
50.0
100
AcDbDimension
  2
*D26
 10
10828.64059211259
 20
6043.234730473165
 30
0.0
 11
11034.68783620708
 21
6043.234730473165
 31
0.0
 70
   160
 71
     5
 42
80.0
  3
INABA_S40G
100
AcDbAlignedDimension
 13
10748.64059211259
 23
5591.387956505514
 33
0.0
 14
10828.64059211259
 24
5589.577276893862
 34
0.0
100
AcDbRotatedDimension
1001
ACAD
1000
DSTYLE
1002
{
1070
   174
1070
     0
1070
   272
1070
     1
1070
   288
1070
     0
1070
   341
1005
0
1002
}
  0
LINE
  5
15B5E
330
747D
100
AcDbEntity
  8
部品1
 48
50.0
100
AcDbLine
 10
10123.64059211261
 20
5775.44541599514
 30
0.0
 11
10423.6405921126
 21
5775.44541599514
 31
0.0
  0
LINE
  5
15B5F
330
747D
100
AcDbEntity
  8
部品1
 48
50.0
100
AcDbLine
 10
10423.6405921126
 20
5775.44541599514
 30
0.0
 11
10423.6405921126
 21
5759.911435412618
 31
0.0
  0
TEXT
  5
15B60
330
747D
100
AcDbEntity
  8
部品1
 48
50.0
100
AcDbText
 10
10111.90842733632
 20
5811.329438147573
 30
0.0
 40
120.0
  1
1000
  7
STYLE1
100
AcDbText
  0
TEXT
  5
15B61
330
747D
100
AcDbEntity
  8
部品1
 48
50.0
100
AcDbText
 10
10587.56863237559
 20
5645.875859348942
 30
0.0
 40
120.0
  1
104
 50
90.0
  7
STYLE1
100
AcDbText
  0
LINE
  5
15B62
330
747D
100
AcDbEntity
  8
部品1
100
AcDbLine
 10
10123.64059211261
 20
5775.44541599514
 30
0.0
 11
10423.6405921126
 21
5759.911435412618
 31
0.0
  0
TEXT
  5
15B63
330
747D
100
AcDbEntity
  8
文字
 62
     7
 48
50.0
100
AcDbText
 10
13248.77747366447
 20
8890.013745883731
 30
0.0
 40
100.0
  1
14
  7
STYLE1
100
AcDbText
  0
LINE
  5
15B64
330
747D
100
AcDbEntity
  8
仕様書枠
 48
50.0
100
AcDbLine
 10
16307.2
 20
9539.6
 30
0.0
 11
13127.2
 21
9539.6
 31
0.0
  0
TEXT
  5
15B65
330
747D
100
AcDbEntity
  8
文字
 62
     7
 48
50.0
100
AcDbText
 10
14271.39351435261
 20
483.8967129911411
 30
0.0
 40
160.0
  1
ＮＸＮ－０９ＤＬ－３
  7
STYLE2
100
AcDbText
  0
TEXT
  5
15B66
330
747D
100
AcDbEntity
  8
文字
 62
     7
 48
50.0
100
AcDbText
 10
13583.11819016567
 20
9060.013745883733
 30
0.0
 40
100.0
  1
棚板
  7
STYLE1
100
AcDbText
  0
TEXT
  5
15B67
330
747D
100
AcDbEntity
  8
文字
 62
     7
 48
50.0
100
AcDbText
 10
15022.63965474514
 20
9060.013745883729
 30
0.0
 40
100.0
  1
F12            0.6
  7
STYLE1
100
AcDbText
  0
TEXT
  5
15B68
330
747D
100
AcDbEntity
  8
文字
 62
     7
 48
50.0
100
AcDbText
 10
13583.11819016567
 20
9230.013745883729
 30
0.0
 40
100.0
  1
扉
  7
STYLE1
100
AcDbText
  0
TEXT
  5
15B69
330
747D
100
AcDbEntity
  8
文字
 62
     7
 48
50.0
100
AcDbText
 10
15022.63965474514
 20
9230.013745883725
 30
0.0
 40
100.0
  1
F12            0.8
  7
STYLE1
100
AcDbText
  0
TEXT
  5
15B6A
330
747D
100
AcDbEntity
  8
文字
 62
     7
 48
50.0
100
AcDbText
 10
15022.63965474517
 20
10760.01374588372
 30
0.0
 40
100.0
  1
F12            1.0
  7
STYLE1
100
AcDbText
  0
TEXT
  5
15B6B
330
747D
100
AcDbEntity
  8
文字
 62
     7
 48
50.0
100
AcDbText
 10
13583.1181901657
 20
10760.01374588373
 30
0.0
 40
100.0
  1
床パネル
 41
0.9
  7
STYLE1
100
AcDbText
  0
LINE
  5
15B6C
330
747D
100
AcDbEntity
  8
仕様書枠
 48
50.0
100
AcDbLine
 10
16307.19999999998
 20
8349.6
 30
0.0
 11
13127.19999999999
 21
8349.600000000004
 31
0.0
  0
LINE
  5
15B6D
330
747D
100
AcDbEntity
  8
仕様書枠
 48
50.0
100
AcDbLine
 10
13127.2
 20
11409.6
 30
0.0
 11
13127.19999999999
 21
8179.600000000004
 31
0.0
  0
TEXT
  5
15B6E
330
747D
100
AcDbEntity
  8
文字
 62
     7
 48
50.0
100
AcDbText
 10
13229.83081656552
 20
8210.013745883726
 30
0.0
 40
100.0
  1
Y10→溶融亜鉛-5％アルミニウム合金めっき鋼板(JIS G 3317)
 41
0.9
  7
STYLE1
100
AcDbText
  0
TEXT
  5
15B6F
330
747D
100
AcDbEntity
  8
文字
 62
     7
 48
50.0
100
AcDbText
 10
13229.83081656552
 20
8380.013745883726
 30
0.0
 40
100.0
  1
F12→溶融亜鉛めっき鋼板(JIS G 3302)
  7
STYLE1
100
AcDbText
  0
TEXT
  5
15B70
330
747D
100
AcDbEntity
  8
文字
 62
     7
 48
50.0
100
AcDbText
 10
15022.63965474515
 20
9570.013745883725
 30
0.0
 40
100.0
  1
F12            0.6
  7
STYLE1
100
AcDbText
  0
TEXT
  5
15B71
330
747D
100
AcDbEntity
  8
文字
 62
     7
 48
50.0
100
AcDbText
 10
15022.63965474516
 20
9740.013745883725
 30
0.0
 40
100.0
  1
Y10            0.5
  7
STYLE1
100
AcDbText
  0
TEXT
  5
15B72
330
747D
100
AcDbEntity
  8
文字
 62
     7
 48
50.0
100
AcDbText
 10
15022.63965474516
 20
10080.01374588372
 30
0.0
 40
100.0
  1
Y10            0.7
  7
STYLE1
100
AcDbText
  0
TEXT
  5
15B73
330
747D
100
AcDbEntity
  8
文字
 62
     7
 48
50.0
100
AcDbText
 10
15022.63965474517
 20
10250.01374588372
 30
0.0
 40
100.0
  1
Y10            0.7
  7
STYLE1
100
AcDbText
  0
TEXT
  5
15B74
330
747D
100
AcDbEntity
  8
文字
 62
     7
 48
50.0
100
AcDbText
 10
15022.63965474516
 20
10420.01374588372
 30
0.0
 40
100.0
  1
Y10            1.0
  7
STYLE1
100
AcDbText
  0
TEXT
  5
15B75
330
747D
100
AcDbEntity
  8
文字
 62
     7
 48
50.0
100
AcDbText
 10
15022.63965474517
 20
10590.01374588372
 30
0.0
 40
100.0
  1
Y10            1.0
  7
STYLE1
100
AcDbText
  0
TEXT
  5
15B76
330
747D
100
AcDbEntity
  8
文字
 62
     7
 48
50.0
100
AcDbText
 10
15022.63965474517
 20
10930.01374588372
 30
0.0
 40
100.0
  1
F12            1.0
  7
STYLE1
100
AcDbText
  0
TEXT
  5
15B77
330
747D
100
AcDbEntity
  8
文字
 62
     7
 48
50.0
100
AcDbText
 10
15022.63965474517
 20
11100.01374588372
 30
0.0
 40
100.0
  1
F12            1.2
  7
STYLE1
100
AcDbText
  0
TEXT
  5
15B78
330
747D
100
AcDbEntity
  8
文字
 62
     7
 48
50.0
100
AcDbText
 10
13248.77747366447
 20
9230.013745883729
 30
0.0
 40
100.0
  1
12
  7
STYLE1
100
AcDbText
  0
TEXT
  5
15B79
330
747D
100
AcDbEntity
  8
文字
 62
     7
 48
50.0
100
AcDbText
 10
13248.77747366447
 20
9060.013745883729
 30
0.0
 40
100.0
  1
13
  7
STYLE1
100
AcDbText
  0
LINE
  5
15B7A
330
747D
100
AcDbEntity
  8
仕様書枠
 48
50.0
100
AcDbLine
 10
16307.19999999998
 20
8179.6
 30
0.0
 11
13127.19999999999
 21
8179.600000000004
 31
0.0
  0
LINE
  5
15B7B
330
747D
100
AcDbEntity
  8
仕様書枠
 48
50.0
100
AcDbLine
 10
16307.19999999998
 20
8859.6
 30
0.0
 11
13127.19999999999
 21
8859.6
 31
0.0
  0
TEXT
  5
15B7C
330
747D
100
AcDbEntity
  8
文字
 62
     7
 48
50.0
100
AcDbText
 10
13248.77747366447
 20
9400.013745883729
 30
0.0
 40
100.0
  1
11
  7
STYLE1
100
AcDbText
  0
LINE
  5
15B7D
330
747D
100
AcDbEntity
  8
仕様書枠
 48
50.0
100
AcDbLine
 10
16307.2
 20
9709.600000000001
 30
0.0
 11
13127.2
 21
9709.600000000001
 31
0.0
  0
LINE
  5
15B7E
330
747D
100
AcDbEntity
  8
仕様書枠
 48
50.0
100
AcDbLine
 10
16307.2
 20
10049.6
 30
0.0
 11
13127.2
 21
10049.6
 31
0.0
  0
LINE
  5
15B7F
330
747D
100
AcDbEntity
  8
仕様書枠
 48
50.0
100
AcDbLine
 10
16307.19999999998
 20
9199.600000000001
 30
0.0
 11
13127.19999999999
 21
9199.600000000001
 31
0.0
  0
LINE
  5
15B80
330
747D
100
AcDbEntity
  8
仕様書枠
 48
50.0
100
AcDbLine
 10
16307.19999999998
 20
9029.6
 30
0.0
 11
13127.19999999999
 21
9029.6
 31
0.0
  0
LINE
  5
15B81
330
747D
100
AcDbEntity
  8
仕様書枠
 48
50.0
100
AcDbLine
 10
16307.19999999998
 20
9369.600000000001
 30
0.0
 11
13127.19999999999
 21
9369.600000000001
 31
0.0
  0
TEXT
  5
15B82
330
747D
100
AcDbEntity
  8
文字
 62
     7
 48
50.0
100
AcDbText
 10
13271.19032244793
 20
10250.01374588373
 30
0.0
 40
100.0
  1
6
  7
STYLE1
100
AcDbText
  0
TEXT
  5
15B83
330
747D
100
AcDbEntity
  8
文字
 62
     7
 48
50.0
100
AcDbText
 10
13271.19032244792
 20
10080.01374588373
 30
0.0
 40
100.0
  1
7
  7
STYLE1
100
AcDbText
  0
TEXT
  5
15B84
330
747D
100
AcDbEntity
  8
文字
 62
     7
 48
50.0
100
AcDbText
 10
13271.19032244792
 20
9740.013745883729
 30
0.0
 40
100.0
  1
9
  7
STYLE1
100
AcDbText
  0
TEXT
  5
15B85
330
747D
100
AcDbEntity
  8
文字
 62
     7
 48
50.0
100
AcDbText
 10
13271.19032244792
 20
9910.01374588373
 30
0.0
 40
100.0
  1
8
  7
STYLE1
100
AcDbText
  0
TEXT
  5
15B86
330
747D
100
AcDbEntity
  8
文字
 62
     7
 48
50.0
100
AcDbText
 10
13583.11819016569
 20
10080.01374588373
 30
0.0
 40
100.0
  1
鼻隠シ前後
  7
STYLE1
100
AcDbText
  0
TEXT
  5
15B87
330
747D
100
AcDbEntity
  8
文字
 62
     7
 48
50.0
100
AcDbText
 10
13583.11819016568
 20
9740.013745883729
 30
0.0
 40
100.0
  1
屋根パネル
  7
STYLE1
100
AcDbText
  0
TEXT
  5
15B88
330
747D
100
AcDbEntity
  8
文字
 62
     7
 48
50.0
100
AcDbText
 10
13583.11819016568
 20
9570.013745883729
 30
0.0
 40
100.0
  1
壁パネル
  7
STYLE1
100
AcDbText
  0
TEXT
  5
15B89
330
747D
100
AcDbEntity
  8
文字
 62
     7
 48
50.0
100
AcDbText
 10
13248.77747366447
 20
9570.013745883729
 30
0.0
 40
100.0
  1
10
  7
STYLE1
100
AcDbText
  0
TEXT
  5
15B8A
330
747D
100
AcDbEntity
  8
文字
 62
     7
 48
50.0
100
AcDbText
 10
13583.11819016569
 20
10250.01374588373
 30
0.0
 40
100.0
  1
妻板左右
  7
STYLE1
100
AcDbText
  0
TEXT
  5
15B8B
330
747D
100
AcDbEntity
  8
文字
 62
     7
 48
50.0
100
AcDbText
 10
13271.19032244793
 20
10420.01374588373
 30
0.0
 40
100.0
  1
5
  7
STYLE1
100
AcDbText
  0
TEXT
  5
15B8C
330
747D
100
AcDbEntity
  8
文字
 62
     7
 48
50.0
100
AcDbText
 10
13583.11819016569
 20
10420.01374588373
 30
0.0
 40
100.0
  1
桁後
  7
STYLE1
100
AcDbText
  0
TEXT
  5
15B8D
330
747D
100
AcDbEntity
  8
文字
 62
     7
 48
50.0
100
AcDbText
 10
13583.11819016569
 20
10590.01374588373
 30
0.0
 40
100.0
  1
鴨居
  7
STYLE1
100
AcDbText
  0
TEXT
  5
15B8E
330
747D
100
AcDbEntity
  8
文字
 62
     7
 48
50.0
100
AcDbText
 10
13583.11819016569
 20
10930.01374588373
 30
0.0
 40
100.0
  1
柱
  7
STYLE1
100
AcDbText
  0
TEXT
  5
15B8F
330
747D
100
AcDbEntity
  8
文字
 62
     7
 48
50.0
100
AcDbText
 10
13583.11819016569
 20
11100.01374588373
 30
0.0
 40
100.0
  1
土台枠
  7
STYLE1
100
AcDbText
  0
TEXT
  5
15B90
330
747D
100
AcDbEntity
  8
文字
 62
     7
 48
50.0
100
AcDbText
 10
14859.79774614482
 20
11270.01374588373
 30
0.0
 40
100.0
  1
材料（材質）　　単位mm
  7
STYLE1
100
AcDbText
  0
TEXT
  5
15B91
330
747D
100
AcDbEntity
  8
文字
 62
     7
 48
50.0
100
AcDbText
 10
13732.03840939434
 20
11270.01374588373
 30
0.0
 40
100.0
  1
部　　品　　名
  7
STYLE1
100
AcDbText
  0
TEXT
  5
15B92
330
747D
100
AcDbEntity
  8
文字
 62
     7
 48
50.0
100
AcDbText
 10
13271.19032244793
 20
10760.01374588373
 30
0.0
 40
100.0
  1
3
  7
STYLE1
100
AcDbText
  0
TEXT
  5
15B93
330
747D
100
AcDbEntity
  8
文字
 62
     7
 48
50.0
100
AcDbText
 10
13271.19032244793
 20
10590.01374588373
 30
0.0
 40
100.0
  1
4
  7
STYLE1
100
AcDbText
  0
TEXT
  5
15B94
330
747D
100
AcDbEntity
  8
文字
 62
     7
 48
50.0
100
AcDbText
 10
13271.19032244792
 20
10930.01374588373
 30
0.0
 40
100.0
  1
2
  7
STYLE1
100
AcDbText
  0
TEXT
  5
15B95
330
747D
100
AcDbEntity
  8
文字
 62
     7
 48
50.0
100
AcDbText
 10
13271.19032244792
 20
11100.01374588373
 30
0.0
 40
100.0
  1
1
  7
STYLE1
100
AcDbText
  0
TEXT
  5
15B96
330
747D
100
AcDbEntity
  8
文字
 62
     7
 48
50.0
100
AcDbText
 10
13197.42518560407
 20
11270.01374588373
 30
0.0
 40
100.0
  1
品番
  7
STYLE1
100
AcDbText
  0
LINE
  5
15B97
330
747D
100
AcDbEntity
  8
仕様書枠
 48
50.0
100
AcDbLine
 10
16307.19999999999
 20
10559.6
 30
0.0
 11
13127.2
 21
10559.6
 31
0.0
  0
LINE
  5
15B98
330
747D
100
AcDbEntity
  8
仕様書枠
 48
50.0
100
AcDbLine
 10
16307.19999999999
 20
10219.6
 30
0.0
 11
13127.2
 21
10219.6
 31
0.0
  0
LINE
  5
15B99
330
747D
100
AcDbEntity
  8
仕様書枠
 48
50.0
100
AcDbLine
 10
16307.19999999999
 20
10389.6
 30
0.0
 11
13127.2
 21
10389.6
 31
0.0
  0
LINE
  5
15B9A
330
747D
100
AcDbEntity
  8
仕様書枠
 48
50.0
100
AcDbLine
 10
16307.19999999999
 20
11069.6
 30
0.0
 11
13127.2
 21
11069.6
 31
0.0
  0
LINE
  5
15B9B
330
747D
100
AcDbEntity
  8
仕様書枠
 48
50.0
100
AcDbLine
 10
16307.2
 20
10729.6
 30
0.0
 11
13127.2
 21
10729.6
 31
0.0
  0
LINE
  5
15B9C
330
747D
100
AcDbEntity
  8
仕様書枠
 48
50.0
100
AcDbLine
 10
16307.19999999999
 20
11239.6
 30
0.0
 11
13127.2
 21
11239.6
 31
0.0
  0
LINE
  5
15B9D
330
747D
100
AcDbEntity
  8
仕様書枠
 48
50.0
100
AcDbLine
 10
13490.2
 20
11409.6
 30
0.0
 11
13490.2
 21
8689.6
 31
0.0
  0
LINE
  5
15B9E
330
747D
100
AcDbEntity
  8
仕様書枠
 48
50.0
100
AcDbLine
 10
14785.2
 20
11409.59999999999
 30
0.0
 11
14785.19999999999
 21
8689.599999999998
 31
0.0
  0
LINE
  5
15B9F
330
747D
100
AcDbEntity
  8
仕様書枠
 48
50.0
100
AcDbLine
 10
16307.19999999999
 20
8179.599999999998
 30
0.0
 11
16307.2
 21
11409.6
 31
0.0
  0
LINE
  5
15BA0
330
747D
100
AcDbEntity
  8
仕様書枠
 48
50.0
100
AcDbLine
 10
16307.19999999999
 20
11409.6
 30
0.0
 11
13127.2
 21
11409.6
 31
0.0
  0
LINE
  5
15BA1
330
747D
100
AcDbEntity
  8
仕様書枠
 48
50.0
100
AcDbLine
 10
16307.2
 20
9879.600000000001
 30
0.0
 11
13127.2
 21
9879.600000000001
 31
0.0
  0
TEXT
  5
15BA2
330
747D
100
AcDbEntity
  8
文字
 62
     7
 48
50.0
100
AcDbText
 10
15022.63965474513
 20
8890.013745883722
 30
0.0
 40
100.0
  1
F12            2.3
  7
STYLE1
100
AcDbText
  0
TEXT
  5
15BA3
330
747D
100
AcDbEntity
  8
文字
 62
     7
 48
50.0
100
AcDbText
 10
13583.11819016567
 20
8890.013745883729
 30
0.0
 40
100.0
  1
アンカープレート
  7
STYLE1
100
AcDbText
  0
TEXT
  5
15BA4
330
747D
100
AcDbEntity
  8
文字
 62
     7
 48
50.0
100
AcDbText
 10
15022.63965474516
 20
9910.01374588373
 30
0.0
 40
100.0
  1
F12,Y10       0.7+1.0
  7
STYLE1
100
AcDbText
  0
TEXT
  5
15BA5
330
747D
100
AcDbEntity
  8
文字
 62
     7
 48
50.0
100
AcDbText
 10
13583.11819016569
 20
9910.01374588373
 30
0.0
 40
100.0
  1
梁中央
 41
0.9
  7
STYLE1
100
AcDbText
  0
MTEXT
  5
15BA6
330
747D
100
AcDbEntity
  8
寸法
 62
     7
 48
50.0
100
AcDbMText
 10
6452.391413148349
 20
8896.479662645704
 30
0.0
 40
96.0
 41
0.0
 71
     5
 72
     1
  1
棚 2段
  7
STYLE1
 73
     1
 44
1.0
1001
ACAD
1000
MTEXTBEGIN
1070
    73
1070
     1
1070
    44
1040
1.0
1070
    74
1070
     0
1000
MTEXTEND
  0
MTEXT
  5
15BA7
330
747D
100
AcDbEntity
  8
寸法
 62
     7
 48
50.0
100
AcDbMText
 10
7403.123014593358
 20
8896.479662645692
 30
0.0
 40
96.0
 41
0.0
 71
     5
 72
     1
  1
棚 2段
  7
STYLE1
 73
     1
 44
1.0
1001
ACAD
1000
MTEXTBEGIN
1070
    73
1070
     1
1070
    44
1040
1.0
1070
    74
1070
     0
1000
MTEXTEND
  0
LINE
  5
15BA8
330
747D
100
AcDbEntity
  8
仕様書枠
 48
50.0
100
AcDbLine
 10
16307.2
 20
10899.6
 30
0.0
 11
13127.2
 21
10899.6
 31
0.0
  0
TEXT
  5
15CDE
330
747D
100
AcDbEntity
  8
部品1
100
AcDbText
 10
9981.351360421987
 20
2485.634461318896
 30
0.0
 40
135.0
  1
側面図
  7
STYLE2
100
AcDbText
  0
LWPOLYLINE
  5
15CDF
330
747D
100
AcDbEntity
  8
部品1
100
AcDbPolyline
 90
        4
 70
     1
 43
0.0
 10
9891.905258998379
 20
2678.527990537419
 10
9891.905258998379
 20
2438.635668991887
 10
10655.37592522681
 20
2438.635668991887
 10
10655.37592522681
 20
2678.527990537419
  0
TEXT
  5
15CE0
330
747D
100
AcDbEntity
  8
部品1
100
AcDbText
 10
6146.633280928845
 20
2485.634461318896
 30
0.0
 40
135.0
  1
正面図
  7
STYLE2
100
AcDbText
  0
LWPOLYLINE
  5
15CE1
330
747D
100
AcDbEntity
  8
部品1
100
AcDbPolyline
 90
        4
 70
     1
 43
0.0
 10
6056.107877190888
 20
2678.527990537419
 10
6056.107877190888
 20
2438.635668991887
 10
6819.578543419327
 20
2438.635668991887
 10
6819.578543419327
 20
2678.527990537419
  0
MTEXT
  5
1608D
330
747D
100
AcDbEntity
  8
寸法
 62
     7
 48
50.0
100
AcDbMText
 10
5502.391413148348
 20
8896.479662645704
 30
0.0
 40
96.0
 41
0.0
 71
     5
 72
     1
  1
棚 2段
  7
STYLE1
 73
     1
 44
1.0
1001
ACAD
1000
MTEXTBEGIN
1070
    73
1070
     1
1070
    44
1040
1.0
1070
    74
1070
     0
1000
MTEXTEND
  0
DIMENSION
  5
1608E
330
747D
100
AcDbEntity
  8
寸法
100
AcDbDimension
  2
*D27
 10
7775.149720688755
 20
8607.818804865422
 30
0.0
 11
7426.497868864396
 21
8712.904080641951
 31
0.0
 70
   160
 71
     5
 42
892.000000000011
  3
INABA_S40G
100
AcDbAlignedDimension
 13
6941.843216982721
 23
8826.865915108404
 33
0.0
 14
7833.843216982733
 24
8826.865915108401
 34
0.0
100
AcDbRotatedDimension
1001
ACAD
1000
DSTYLE
1002
{
1070
   279
1070
     2
1002
}
  0
DIMENSION
  5
1608F
330
747D
100
AcDbEntity
  8
寸法
100
AcDbDimension
  2
*D28
 10
6825.149720688755
 20
8607.818804865422
 30
0.0
 11
6482.969031758642
 21
8711.102920258417
 31
0.0
 70
   160
 71
     5
 42
892.000000000011
  3
INABA_S40G
100
AcDbAlignedDimension
 13
5991.843216982721
 23
8826.865915108404
 33
0.0
 14
6883.843216982732
 24
8826.865915108401
 34
0.0
100
AcDbRotatedDimension
1001
ACAD
1000
DSTYLE
1002
{
1070
   279
1070
     2
1002
}
  0
DIMENSION
  5
160BA
330
747D
100
AcDbEntity
  8
寸法
100
AcDbDimension
  2
*D29
 10
5875.149720688753
 20
8607.818804865422
 30
0.0
 11
5532.969031758642
 21
8711.102920258417
 31
0.0
 70
   160
 71
     5
 42
892.000000000011
  3
INABA_S40G
100
AcDbAlignedDimension
 13
5041.84321698272
 23
8826.865915108404
 33
0.0
 14
5933.843216982731
 24
8826.865915108401
 34
0.0
100
AcDbRotatedDimension
1001
ACAD
1000
DSTYLE
1002
{
1070
   279
1070
     2
1002
}
  0
DIMENSION
  5
160D0
330
747D
100
AcDbEntity
  8
寸法
 48
50.0
100
AcDbDimension
  2
*D32
 10
7912.843210305119
 20
6080.075840589954
 30
0.0
 11
6437.843210305107
 21
6080.075840589954
 31
0.0
 70
   160
 71
     5
 42
2950.000000000004
  3
INABA_S40G
100
AcDbAlignedDimension
 13
4962.843210305116
 23
5644.577276893868
 33
0.0
 14
7912.843210305119
 24
5644.577276893862
 34
0.0
100
AcDbRotatedDimension
  0
DIMENSION
  5
160D1
330
747D
100
AcDbEntity
  8
寸法
 48
50.0
100
AcDbDimension
  2
*D31
 10
5012.843210305117
 20
5857.118862152105
 30
0.0
 11
6437.843210305107
 21
5857.118862152105
 31
0.0
 70
   160
  1
柱外寸法<>
 71
     5
 42
2850.000000000004
  3
INABA_S40G
100
AcDbAlignedDimension
 13
7862.843210305119
 23
5644.577276893864
 33
0.0
 14
5012.843210305117
 24
5644.577276893869
 34
0.0
100
AcDbRotatedDimension
  0
DIMENSION
  5
160D2
330
747D
100
AcDbEntity
  8
寸法
 48
50.0
100
AcDbDimension
  2
*D30
 10
4962.843210305116
 20
5857.118862152106
 30
0.0
 11
4649.357928930869
 21
5857.118862152106
 31
0.0
 70
   160
 71
     5
 42
50.0
  3
INABA_S40G
100
AcDbAlignedDimension
 13
5012.843210305117
 23
5644.577276893869
 33
0.0
 14
4962.843210305116
 24
5644.577276893868
 34
0.0
100
AcDbRotatedDimension
1001
ACAD
1000
DSTYLE
1002
{
1002
}
  0
LINE
  5
160D3
330
747D
100
AcDbEntity
  8
細線
 48
50.0
100
AcDbLine
 10
4995.843210305117
 20
5644.577276893866
 30
0.0
 11
4995.843210305117
 21
5503.577276893864
 31
0.0
  0
ARC
  5
160D4
330
747D
100
AcDbEntity
  8
部品1
100
AcDbCircle
 10
4970.251631411546
 20
5637.577276893866
 30
0.0
 40
7.0
100
AcDbArc
 50
90.0
 51
183.2473427903377
  0
ARC
  5
160D5
330
747D
100
AcDbEntity
  8
部品1
100
AcDbCircle
 10
4983.46695487258
 20
5510.577276893868
 30
0.0
 40
7.0
100
AcDbArc
 50
183.2473427903377
 51
270.0
  0
ARC
  5
160D6
330
747D
100
AcDbEntity
  8
部品1
 48
50.0
100
AcDbCircle
 10
4965.095144661904
 20
5617.244276055553
 30
0.0
 40
0.7
100
AcDbArc
 50
183.2473427903897
 51
262.3418727926365
  0
ARC
  5
160D7
330
747D
100
AcDbEntity
  8
部品1
 48
50.0
100
AcDbCircle
 10
4973.331175186744
 20
5525.044276055549
 30
0.0
 40
0.7
100
AcDbArc
 50
183.2473427902922
 51
262.3418727926365
  0
ARC
  5
160D8
330
747D
100
AcDbEntity
  8
部品1
 48
50.0
100
AcDbCircle
 10
4972.838106078182
 20
5521.377276893865
 30
0.0
 40
3.0
100
AcDbArc
 50
3.247342790337682
 51
82.34187279263654
  0
ARC
  5
160D9
330
747D
100
AcDbEntity
  8
部品1
 48
50.0
100
AcDbCircle
 10
4964.602075553339
 20
5613.577276893868
 30
0.0
 40
3.0
100
AcDbArc
 50
3.247342790337682
 51
82.34187279263654
  0
LINE
  5
160DA
330
747D
100
AcDbEntity
  8
部品1
100
AcDbLine
 10
4967.597258449525
 20
5613.747216348969
 30
0.0
 11
4972.632299177636
 21
5525.004623516026
 31
0.0
  0
LINE
  5
160DB
330
747D
100
AcDbEntity
  8
部品1
100
AcDbLine
 10
4975.833288974373
 20
5521.547216348968
 30
0.0
 11
4976.478194781481
 21
5510.180751498626
 31
0.0
  0
LINE
  5
160DC
330
747D
100
AcDbEntity
  8
部品1
100
AcDbLine
 10
4963.262871320447
 20
5637.180751498626
 30
0.0
 11
4964.396268652795
 21
5617.204623516027
 31
0.0
  0
LINE
  5
160DD
330
747D
100
AcDbEntity
  8
部品1
 48
50.0
100
AcDbLine
 10
7905.434789198688
 20
5644.577276893862
 30
0.0
 11
4970.251631411546
 21
5644.577276893862
 31
0.0
  0
LINE
  5
160DE
330
747D
100
AcDbEntity
  8
細線
 48
50.0
100
AcDbLine
 10
7910.684559292133
 20
5616.550519457513
 30
0.0
 11
4965.00186131553
 21
5616.550519457862
 31
0.0
  0
LINE
  5
160DF
330
747D
100
AcDbEntity
  8
細線
 48
50.0
100
AcDbLine
 10
7902.448528767336
 20
5524.350519457517
 30
0.0
 11
4973.237891840363
 21
5524.350519457861
 31
0.0
  0
LINE
  5
160E0
330
747D
100
AcDbEntity
  8
部品1
 48
50.0
100
AcDbLine
 10
7892.219465737653
 20
5503.577276893862
 30
0.0
 11
4983.46695487258
 21
5503.577276893864
 31
0.0
  0
ARC
  5
160E1
330
747D
100
AcDbEntity
  8
部品1
 48
0.01
100
AcDbCircle
 10
5575.843210305112
 20
5442.077276893859
 30
0.0
 40
2.0
100
AcDbArc
 50
270.0
 51
0.0
  0
ARC
  5
160E2
330
747D
100
AcDbEntity
  8
部品1
 48
0.01
100
AcDbCircle
 10
5575.843210305116
 20
5473.577276893859
 30
0.0
 40
2.0
100
AcDbArc
 50
0.0
 51
90.0
  0
ARC
  5
160E3
330
747D
100
AcDbEntity
  8
部品1
 48
0.01
100
AcDbCircle
 10
5399.843210305117
 20
5442.077276893859
 30
0.0
 40
2.0
100
AcDbArc
 50
180.0
 51
270.0
  0
ARC
  5
160E4
330
747D
100
AcDbEntity
  8
部品1
 48
0.01
100
AcDbCircle
 10
5399.843210305117
 20
5473.577276893859
 30
0.0
 40
2.0
100
AcDbArc
 50
90.0
 51
180.0
  0
LINE
  5
160E5
330
747D
100
AcDbEntity
  8
細線
100
AcDbLine
 10
5487.843210305112
 20
5446.077276893859
 30
0.0
 11
5561.843210305116
 21
5446.077276893859
 31
0.0
  0
LINE
  5
160E6
330
747D
100
AcDbEntity
  8
細線
100
AcDbLine
 10
5487.843210305117
 20
5469.077276893859
 30
0.0
 11
5413.843210305117
 21
5469.077276893859
 31
0.0
  0
LINE
  5
160E7
330
747D
100
AcDbEntity
  8
細線
100
AcDbLine
 10
5413.843210305117
 20
5446.077276893859
 30
0.0
 11
5487.843210305117
 21
5446.077276893859
 31
0.0
  0
LINE
  5
160E8
330
747D
100
AcDbEntity
  8
細線
100
AcDbLine
 10
5561.843210305116
 20
5469.077276893859
 30
0.0
 11
5487.843210305117
 21
5469.077276893859
 31
0.0
  0
LINE
  5
160E9
330
747D
100
AcDbEntity
  8
細線
100
AcDbLine
 10
5561.843210305116
 20
5446.077276893859
 30
0.0
 11
5561.843210305116
 21
5469.077276893859
 31
0.0
  0
LINE
  5
160EA
330
747D
100
AcDbEntity
  8
細線
100
AcDbLine
 10
5413.843210305117
 20
5469.077276893859
 30
0.0
 11
5413.843210305117
 21
5446.077276893859
 31
0.0
  0
LINE
  5
160EB
330
747D
100
AcDbEntity
  8
部品1
 48
0.01
100
AcDbLine
 10
5577.843210305113
 20
5442.077276893859
 30
0.0
 11
5577.843210305116
 21
5473.577276893859
 31
0.0
  0
LINE
  5
160EC
330
747D
100
AcDbEntity
  8
部品1
 48
0.01
100
AcDbLine
 10
5399.843210305117
 20
5440.077276893859
 30
0.0
 11
5575.843210305112
 21
5440.077276893859
 31
0.0
  0
LINE
  5
160ED
330
747D
100
AcDbEntity
  8
部品1
 48
0.01
100
AcDbLine
 10
5397.843210305116
 20
5473.577276893859
 30
0.0
 11
5397.843210305116
 21
5442.077276893859
 31
0.0
  0
LINE
  5
160EE
330
747D
100
AcDbEntity
  8
部品1
 48
0.01
100
AcDbLine
 10
5575.843210305116
 20
5475.577276893858
 30
0.0
 11
5399.843210305117
 21
5475.577276893858
 31
0.0
  0
LINE
  5
160EF
330
747D
100
AcDbEntity
  8
細線
100
AcDbLine
 10
5413.843210305117
 20
5463.077276893859
 30
0.0
 11
5487.843210305117
 21
5463.077276893859
 31
0.0
  0
LINE
  5
160F0
330
747D
100
AcDbEntity
  8
細線
100
AcDbLine
 10
5413.843210305117
 20
5457.077276893858
 30
0.0
 11
5487.843210305117
 21
5457.077276893858
 31
0.0
  0
LINE
  5
160F1
330
747D
100
AcDbEntity
  8
細線
100
AcDbLine
 10
5413.843210305113
 20
5451.077276893858
 30
0.0
 11
5487.843210305117
 21
5451.077276893858
 31
0.0
  0
LINE
  5
160F2
330
747D
100
AcDbEntity
  8
細線
100
AcDbLine
 10
5413.843210305117
 20
5463.077276893859
 30
0.0
 11
5482.843210305116
 21
5463.077276893859
 31
0.0
  0
LINE
  5
160F3
330
747D
100
AcDbEntity
  8
細線
100
AcDbLine
 10
5561.843210305113
 20
5463.077276893859
 30
0.0
 11
5487.843210305117
 21
5463.077276893859
 31
0.0
  0
LINE
  5
160F4
330
747D
100
AcDbEntity
  8
細線
100
AcDbLine
 10
5561.843210305113
 20
5451.077276893858
 30
0.0
 11
5487.843210305117
 21
5451.077276893858
 31
0.0
  0
LINE
  5
160F5
330
747D
100
AcDbEntity
  8
細線
100
AcDbLine
 10
5561.843210305113
 20
5457.077276893858
 30
0.0
 11
5487.843210305117
 21
5457.077276893858
 31
0.0
  0
LINE
  5
160F6
330
747D
100
AcDbEntity
  8
細線
100
AcDbLine
 10
5487.843210305117
 20
5469.077276893859
 30
0.0
 11
5487.843210305112
 21
5446.077276893859
 31
0.0
  0
LINE
  5
160F7
330
747D
100
AcDbEntity
  8
細線
100
AcDbLine
 10
6437.843210305117
 20
5469.077276893859
 30
0.0
 11
6437.843210305112
 21
5446.077276893859
 31
0.0
  0
LINE
  5
160F8
330
747D
100
AcDbEntity
  8
細線
100
AcDbLine
 10
6511.843210305113
 20
5457.077276893858
 30
0.0
 11
6437.843210305117
 21
5457.077276893858
 31
0.0
  0
LINE
  5
160F9
330
747D
100
AcDbEntity
  8
細線
100
AcDbLine
 10
6511.843210305113
 20
5451.077276893858
 30
0.0
 11
6437.843210305117
 21
5451.077276893858
 31
0.0
  0
LINE
  5
160FA
330
747D
100
AcDbEntity
  8
細線
100
AcDbLine
 10
6511.843210305113
 20
5463.077276893859
 30
0.0
 11
6437.843210305117
 21
5463.077276893859
 31
0.0
  0
LINE
  5
160FB
330
747D
100
AcDbEntity
  8
細線
100
AcDbLine
 10
6363.843210305116
 20
5463.077276893859
 30
0.0
 11
6432.843210305117
 21
5463.077276893859
 31
0.0
  0
LINE
  5
160FC
330
747D
100
AcDbEntity
  8
細線
100
AcDbLine
 10
6363.843210305113
 20
5451.077276893858
 30
0.0
 11
6437.843210305117
 21
5451.077276893858
 31
0.0
  0
LINE
  5
160FD
330
747D
100
AcDbEntity
  8
細線
100
AcDbLine
 10
6363.843210305116
 20
5457.077276893858
 30
0.0
 11
6437.843210305117
 21
5457.077276893858
 31
0.0
  0
LINE
  5
160FE
330
747D
100
AcDbEntity
  8
細線
100
AcDbLine
 10
6363.843210305116
 20
5463.077276893859
 30
0.0
 11
6437.843210305117
 21
5463.077276893859
 31
0.0
  0
LINE
  5
160FF
330
747D
100
AcDbEntity
  8
部品1
 48
0.01
100
AcDbLine
 10
6525.843210305116
 20
5475.577276893858
 30
0.0
 11
6349.843210305117
 21
5475.577276893858
 31
0.0
  0
LINE
  5
16100
330
747D
100
AcDbEntity
  8
部品1
 48
0.01
100
AcDbLine
 10
6347.843210305116
 20
5473.577276893859
 30
0.0
 11
6347.843210305116
 21
5442.077276893859
 31
0.0
  0
LINE
  5
16101
330
747D
100
AcDbEntity
  8
部品1
 48
0.01
100
AcDbLine
 10
6349.843210305117
 20
5440.077276893859
 30
0.0
 11
6525.843210305113
 21
5440.077276893859
 31
0.0
  0
LINE
  5
16102
330
747D
100
AcDbEntity
  8
部品1
 48
0.01
100
AcDbLine
 10
6527.843210305113
 20
5442.077276893859
 30
0.0
 11
6527.843210305116
 21
5473.577276893859
 31
0.0
  0
LINE
  5
16103
330
747D
100
AcDbEntity
  8
細線
100
AcDbLine
 10
6363.843210305116
 20
5469.077276893859
 30
0.0
 11
6363.843210305116
 21
5446.077276893859
 31
0.0
  0
LINE
  5
16104
330
747D
100
AcDbEntity
  8
細線
100
AcDbLine
 10
6511.843210305116
 20
5446.077276893859
 30
0.0
 11
6511.843210305116
 21
5469.077276893859
 31
0.0
  0
LINE
  5
16105
330
747D
100
AcDbEntity
  8
細線
100
AcDbLine
 10
6511.843210305116
 20
5469.077276893859
 30
0.0
 11
6437.843210305117
 21
5469.077276893859
 31
0.0
  0
LINE
  5
16106
330
747D
100
AcDbEntity
  8
細線
100
AcDbLine
 10
6363.843210305116
 20
5446.077276893859
 30
0.0
 11
6437.843210305117
 21
5446.077276893859
 31
0.0
  0
LINE
  5
16107
330
747D
100
AcDbEntity
  8
細線
100
AcDbLine
 10
6437.843210305117
 20
5469.077276893859
 30
0.0
 11
6363.843210305116
 21
5469.077276893859
 31
0.0
  0
LINE
  5
16108
330
747D
100
AcDbEntity
  8
細線
100
AcDbLine
 10
6437.843210305112
 20
5446.077276893859
 30
0.0
 11
6511.843210305116
 21
5446.077276893859
 31
0.0
  0
ARC
  5
16109
330
747D
100
AcDbEntity
  8
部品1
 48
0.01
100
AcDbCircle
 10
6349.843210305117
 20
5473.577276893859
 30
0.0
 40
2.0
100
AcDbArc
 50
90.0
 51
180.0
  0
ARC
  5
1610A
330
747D
100
AcDbEntity
  8
部品1
 48
0.01
100
AcDbCircle
 10
6349.843210305117
 20
5442.077276893859
 30
0.0
 40
2.0
100
AcDbArc
 50
180.0
 51
270.0
  0
ARC
  5
1610B
330
747D
100
AcDbEntity
  8
部品1
 48
0.01
100
AcDbCircle
 10
6525.843210305116
 20
5473.577276893859
 30
0.0
 40
2.0
100
AcDbArc
 50
0.0
 51
90.0
  0
ARC
  5
1610C
330
747D
100
AcDbEntity
  8
部品1
 48
0.01
100
AcDbCircle
 10
6525.843210305113
 20
5442.077276893859
 30
0.0
 40
2.0
100
AcDbArc
 50
270.0
 51
0.0
  0
DIMENSION
  5
16150
330
747D
100
AcDbEntity
  8
寸法
 48
50.0
100
AcDbDimension
  2
*D33
 10
7862.843210305119
 20
5857.118862152103
 30
0.0
 11
8226.328491679357
 21
5857.118862152103
 31
0.0
 70
   160
 71
     5
 42
50.0
  3
INABA_S40G
100
AcDbAlignedDimension
 13
7912.843210305119
 23
5644.577276893862
 33
0.0
 14
7862.843210305119
 24
5644.577276893864
 34
0.0
100
AcDbRotatedDimension
  0
LINE
  5
16151
330
747D
100
AcDbEntity
  8
部品1
100
AcDbLine
 10
7912.423549289787
 20
5637.180751498623
 30
0.0
 11
7911.290151957441
 21
5617.204623516023
 31
0.0
  0
LINE
  5
16152
330
747D
100
AcDbEntity
  8
細線
 48
50.0
100
AcDbLine
 10
7879.84321030512
 20
5644.577276893862
 30
0.0
 11
7879.84321030512
 21
5503.577276893862
 31
0.0
  0
LINE
  5
16153
330
747D
100
AcDbEntity
  8
部品1
100
AcDbLine
 10
7899.853131635864
 20
5521.547216348965
 30
0.0
 11
7899.208225828752
 21
5510.180751498625
 31
0.0
  0
LINE
  5
16154
330
747D
100
AcDbEntity
  8
部品1
100
AcDbLine
 10
7908.089162160708
 20
5613.747216348965
 30
0.0
 11
7903.054121432596
 21
5525.004623516022
 31
0.0
  0
ARC
  5
16155
330
747D
100
AcDbEntity
  8
部品1
 48
50.0
100
AcDbCircle
 10
7911.084345056893
 20
5613.577276893864
 30
0.0
 40
3.0
100
AcDbArc
 50
97.65812720736347
 51
176.7526572096623
  0
ARC
  5
16156
330
747D
100
AcDbEntity
  8
部品1
 48
50.0
100
AcDbCircle
 10
7902.848314532049
 20
5521.377276893861
 30
0.0
 40
3.0
100
AcDbArc
 50
97.65812720736347
 51
176.7526572096623
  0
ARC
  5
16157
330
747D
100
AcDbEntity
  8
部品1
 48
50.0
100
AcDbCircle
 10
7902.355245423489
 20
5525.044276055545
 30
0.0
 40
0.7
100
AcDbArc
 50
277.6581272073635
 51
356.7526572097079
  0
ARC
  5
16158
330
747D
100
AcDbEntity
  8
部品1
 48
50.0
100
AcDbCircle
 10
7910.591275948333
 20
5617.24427605555
 30
0.0
 40
0.7
100
AcDbArc
 50
277.6581272073635
 51
356.7526572096103
  0
ARC
  5
16159
330
747D
100
AcDbEntity
  8
部品1
100
AcDbCircle
 10
7892.219465737653
 20
5510.577276893864
 30
0.0
 40
7.0
100
AcDbArc
 50
270.0
 51
356.7526572096623
  0
ARC
  5
1615A
330
747D
100
AcDbEntity
  8
部品1
100
AcDbCircle
 10
7905.434789198688
 20
5637.577276893862
 30
0.0
 40
7.0
100
AcDbArc
 50
356.7526572096623
 51
90.0
  0
ARC
  5
16199
330
747D
100
AcDbEntity
  8
部品1
 48
0.01
100
AcDbCircle
 10
7475.843210305114
 20
5442.077276893859
 30
0.0
 40
2.0
100
AcDbArc
 50
270.0
 51
0.0
  0
ARC
  5
1619A
330
747D
100
AcDbEntity
  8
部品1
 48
0.01
100
AcDbCircle
 10
7475.843210305116
 20
5473.577276893859
 30
0.0
 40
2.0
100
AcDbArc
 50
0.0
 51
90.0
  0
ARC
  5
1619B
330
747D
100
AcDbEntity
  8
部品1
 48
0.01
100
AcDbCircle
 10
7299.843210305117
 20
5442.077276893859
 30
0.0
 40
2.0
100
AcDbArc
 50
180.0
 51
270.0
  0
ARC
  5
1619C
330
747D
100
AcDbEntity
  8
部品1
 48
0.01
100
AcDbCircle
 10
7299.843210305117
 20
5473.577276893859
 30
0.0
 40
2.0
100
AcDbArc
 50
90.0
 51
180.0
  0
LINE
  5
1619D
330
747D
100
AcDbEntity
  8
細線
100
AcDbLine
 10
7387.843210305113
 20
5446.077276893859
 30
0.0
 11
7461.843210305116
 21
5446.077276893859
 31
0.0
  0
LINE
  5
1619E
330
747D
100
AcDbEntity
  8
細線
100
AcDbLine
 10
7387.843210305117
 20
5469.077276893859
 30
0.0
 11
7313.843210305115
 21
5469.077276893859
 31
0.0
  0
LINE
  5
1619F
330
747D
100
AcDbEntity
  8
細線
100
AcDbLine
 10
7313.843210305115
 20
5446.077276893859
 30
0.0
 11
7387.843210305117
 21
5446.077276893859
 31
0.0
  0
LINE
  5
161A0
330
747D
100
AcDbEntity
  8
細線
100
AcDbLine
 10
7461.843210305116
 20
5469.077276893859
 30
0.0
 11
7387.843210305117
 21
5469.077276893859
 31
0.0
  0
LINE
  5
161A1
330
747D
100
AcDbEntity
  8
細線
100
AcDbLine
 10
7461.843210305116
 20
5446.077276893859
 30
0.0
 11
7461.843210305116
 21
5469.077276893859
 31
0.0
  0
LINE
  5
161A2
330
747D
100
AcDbEntity
  8
細線
100
AcDbLine
 10
7313.843210305115
 20
5469.077276893859
 30
0.0
 11
7313.843210305115
 21
5446.077276893859
 31
0.0
  0
LINE
  5
161A3
330
747D
100
AcDbEntity
  8
部品1
 48
0.01
100
AcDbLine
 10
7477.843210305113
 20
5442.077276893859
 30
0.0
 11
7477.843210305116
 21
5473.577276893859
 31
0.0
  0
LINE
  5
161A4
330
747D
100
AcDbEntity
  8
部品1
 48
0.01
100
AcDbLine
 10
7299.843210305117
 20
5440.077276893859
 30
0.0
 11
7475.843210305114
 21
5440.077276893859
 31
0.0
  0
LINE
  5
161A5
330
747D
100
AcDbEntity
  8
部品1
 48
0.01
100
AcDbLine
 10
7297.843210305116
 20
5473.577276893859
 30
0.0
 11
7297.843210305116
 21
5442.077276893859
 31
0.0
  0
LINE
  5
161A6
330
747D
100
AcDbEntity
  8
部品1
 48
0.01
100
AcDbLine
 10
7475.843210305116
 20
5475.577276893858
 30
0.0
 11
7299.843210305117
 21
5475.577276893858
 31
0.0
  0
LINE
  5
161A7
330
747D
100
AcDbEntity
  8
細線
100
AcDbLine
 10
7313.843210305115
 20
5463.077276893859
 30
0.0
 11
7387.843210305117
 21
5463.077276893859
 31
0.0
  0
LINE
  5
161A8
330
747D
100
AcDbEntity
  8
細線
100
AcDbLine
 10
7313.843210305115
 20
5457.077276893858
 30
0.0
 11
7387.843210305117
 21
5457.077276893858
 31
0.0
  0
LINE
  5
161A9
330
747D
100
AcDbEntity
  8
細線
100
AcDbLine
 10
7313.843210305113
 20
5451.077276893858
 30
0.0
 11
7387.843210305117
 21
5451.077276893858
 31
0.0
  0
LINE
  5
161AA
330
747D
100
AcDbEntity
  8
細線
100
AcDbLine
 10
7313.843210305115
 20
5463.077276893859
 30
0.0
 11
7382.843210305117
 21
5463.077276893859
 31
0.0
  0
LINE
  5
161AB
330
747D
100
AcDbEntity
  8
細線
100
AcDbLine
 10
7461.843210305113
 20
5463.077276893859
 30
0.0
 11
7387.843210305117
 21
5463.077276893859
 31
0.0
  0
LINE
  5
161AC
330
747D
100
AcDbEntity
  8
細線
100
AcDbLine
 10
7461.843210305113
 20
5451.077276893858
 30
0.0
 11
7387.843210305117
 21
5451.077276893858
 31
0.0
  0
LINE
  5
161AD
330
747D
100
AcDbEntity
  8
細線
100
AcDbLine
 10
7461.843210305113
 20
5457.077276893858
 30
0.0
 11
7387.843210305117
 21
5457.077276893858
 31
0.0
  0
LINE
  5
161AE
330
747D
100
AcDbEntity
  8
細線
100
AcDbLine
 10
7387.843210305117
 20
5469.077276893859
 30
0.0
 11
7387.843210305113
 21
5446.077276893859
 31
0.0
  0
TEXT
  5
16369
330
747D
100
AcDbEntity
  8
文字
 62
     7
 48
50.0
100
AcDbText
 10
13583.11819016567
 20
8720.013745883727
 30
0.0
 40
100.0
  1
※豪雪補強
  7
STYLE1
100
AcDbText
  0
TEXT
  5
1636A
330
747D
100
AcDbEntity
  8
文字
 62
     7
 48
50.0
100
AcDbText
 10
13248.77747366447
 20
8720.013745883729
 30
0.0
 40
100.0
  1
15
  7
STYLE1
100
AcDbText
  0
TEXT
  5
1636B
330
747D
100
AcDbEntity
  8
文字
 62
     7
 48
50.0
100
AcDbText
 10
15022.63965474513
 20
8720.013745883722
 30
0.0
 40
100.0
  1
F12            1.0
  7
STYLE1
100
AcDbText
  0
TEXT
  5
1636C
330
747D
100
AcDbEntity
  8
文字
 62
     7
 48
50.0
100
AcDbText
 10
13229.83081656553
 20
8550.013745883727
 30
0.0
 40
100.0
  1
※豪雪補強は豪雪地型のみ取付
 41
0.9
  7
STYLE1
100
AcDbText
  0
LINE
  5
1636D
330
747D
100
AcDbEntity
  8
仕様書枠
 48
50.0
100
AcDbLine
 10
16307.19999999998
 20
8519.600000000002
 30
0.0
 11
13127.19999999999
 21
8519.600000000002
 31
0.0
  0
LINE
  5
1636E
330
747D
100
AcDbEntity
  8
仕様書枠
 48
50.0
100
AcDbLine
 10
16307.19999999998
 20
8689.6
 30
0.0
 11
13127.19999999999
 21
8689.6
 31
0.0
  0
TEXT
  5
1637E
330
747D
100
AcDbEntity
  8
文字
 62
     7
 48
50.0
100
AcDbText
 10
14251.2
 20
838.2527270729188
 30
0.0
 40
100.0
  1
～一般型・多雪地型・豪雪地型～
  7
STYLE2
100
AcDbText
  0
ENDSEC
  0
SECTION
  2
OBJECTS
  0
DICTIONARY
  5
7471
330
0
100
AcDbDictionary
281
     1
  3
ACAD_COLOR
350
15743
  3
ACAD_GROUP
350
7472
  3
ACAD_LAYOUT
350
15744
  3
ACAD_MATERIAL
350
15742
  3
ACAD_MLINESTYLE
350
7473
  3
ACAD_PLOTSETTINGS
350
15745
  3
ACAD_PLOTSTYLENAME
350
15740
  3
ACDBHEADERROUNDTRIPXREC
350
16396
  3
AcDbVariableDictionary
350
16392
  3
CONTENTDICTIONARY
350
E71C
  3
DRAWINGVARIABLESDICT
350
F3B9
  0
DICTIONARY
  5
158BD
330
7467
100
AcDbDictionary
280
     1
281
     1
  3
ACAD_LAYERSTATES
360
158BE
  0
DICTIONARY
  5
15743
102
{ACAD_REACTORS
330
7471
102
}
330
7471
100
AcDbDictionary
281
     1
  0
DICTIONARY
  5
7472
102
{ACAD_REACTORS
330
7471
102
}
330
7471
100
AcDbDictionary
281
     1
  0
DICTIONARY
  5
15744
102
{ACAD_REACTORS
330
7471
102
}
330
7471
100
AcDbDictionary
281
     1
  3
Model
350
15746
  3
レイアウト1
350
15747
  0
DICTIONARY
  5
15742
102
{ACAD_REACTORS
330
7471
102
}
330
7471
100
AcDbDictionary
281
     1
  0
DICTIONARY
  5
7473
102
{ACAD_REACTORS
330
7471
102
}
330
7471
100
AcDbDictionary
281
     1
  3
STANDARD
350
7480
  0
DICTIONARY
  5
15745
102
{ACAD_REACTORS
330
7471
102
}
330
7471
100
AcDbDictionary
281
     1
  0
ACDBDICTIONARYWDFLT
  5
15740
102
{ACAD_REACTORS
330
7471
102
}
330
7471
100
AcDbDictionary
281
     1
  3
Normal
350
15741
100
AcDbDictionaryWithDefault
340
15741
  0
DICTIONARY
  5
16396
102
{ACAD_REACTORS
330
7471
102
}
330
7471
100
AcDbDictionary
281
     1
  3
COLORDICT
350
16398
  3
MATERIALDICT
350
16397
  0
DICTIONARY
  5
16392
102
{ACAD_REACTORS
330
7471
102
}
330
7471
100
AcDbDictionary
281
     1
  3
DIMASSOC
350
16393
  3
PROJECTNAME
350
16394
  0
DICTIONARY
  5
E71C
102
{ACAD_REACTORS
330
7471
102
}
330
7471
100
AcDbDictionary
281
     1
  0
DICTIONARY
  5
F3B9
102
{ACAD_REACTORS
330
7471
102
}
330
7471
100
AcDbDictionary
281
     1
1001
DRAWINGVARIABLESXDATA
1000
POLARMODE
1000
1
  0
DICTIONARY
  5
158BE
102
{ACAD_REACTORS
330
158BD
102
}
330
158BD
100
AcDbDictionary
281
     1
  0
LAYOUT
  5
15746
102
{ACAD_XDICTIONARY
360
16399
102
}
102
{ACAD_REACTORS
330
15744
102
}
330
15744
100
AcDbPlotSettings
  1

  2
Microsoft Office Document Image Writer
  4

  6

 40
0.0
 41
0.0
 42
0.0
 43
0.0
 44
0.0
 45
0.0
 46
0.0
 47
0.0
 48
0.0
 49
0.0
140
0.0
141
0.0
142
1.0
143
1.0
 70
  1712
 72
     0
 73
     0
 74
     0
  7

 75
     0
147
1.0
148
0.0
149
0.0
100
AcDbLayout
  1
Model
 70
     1
 71
     0
 10
0.0
 20
0.0
 11
12.0
 21
9.0
 12
0.0
 22
0.0
 32
0.0
 14
0.0
 24
0.0
 34
0.0
 15
0.0
 25
0.0
 35
0.0
146
0.0
 13
0.0
 23
0.0
 33
0.0
 16
1.0
 26
0.0
 36
0.0
 17
0.0
 27
1.0
 37
0.0
 76
     0
330
747D
  0
LAYOUT
  5
15747
102
{ACAD_XDICTIONARY
360
1639B
102
}
102
{ACAD_REACTORS
330
15744
102
}
330
15744
100
AcDbPlotSettings
  1

  2
Microsoft Office Document Image Writer
  4

  6

 40
0.0
 41
0.0
 42
0.0
 43
0.0
 44
0.0
 45
0.0
 46
0.0
 47
0.0
 48
0.0
 49
0.0
140
0.0
141
0.0
142
1.0
143
1.0
 70
   688
 72
     0
 73
     0
 74
     5
  7

 75
    16
147
1.0
148
0.0
149
0.0
100
AcDbLayout
  1
レイアウト1
 70
     0
 71
     1
 10
0.0
 20
0.0
 11
420.0
 21
297.0
 12
0.0
 22
0.0
 32
0.0
 14
1.000000000000000E+20
 24
1.000000000000000E+20
 34
1.000000000000000E+20
 15
-1.000000000000000E+20
 25
-1.000000000000000E+20
 35
-1.000000000000000E+20
146
0.0
 13
0.0
 23
0.0
 33
0.0
 16
1.0
 26
0.0
 36
0.0
 17
0.0
 27
1.0
 37
0.0
 76
     0
330
747A
  0
MLINESTYLE
  5
7480
102
{ACAD_REACTORS
330
7473
102
}
330
7473
100
AcDbMlineStyle
  2
STANDARD
 70
     0
  3

 62
     0
 51
90.0
 52
90.0
 71
     2
 49
0.5
 62
   256
  6
BYLAYER
 49
-0.5
 62
   256
  6
BYLAYER
  0
ACDBPLACEHOLDER
  5
15741
102
{ACAD_REACTORS
330
15740
102
}
330
15740
  0
XRECORD
  5
16398
102
{ACAD_REACTORS
330
16396
102
}
330
16396
100
AcDbXrecord
280
     1
340
15743
  0
XRECORD
  5
16397
102
{ACAD_REACTORS
330
16396
102
}
330
16396
100
AcDbXrecord
280
     1
340
15742
  0
DICTIONARYVAR
  5
16393
102
{ACAD_REACTORS
330
16392
102
}
330
16392
100
DictionaryVariables
280
     0
  1
1
  0
DICTIONARYVAR
  5
16394
102
{ACAD_REACTORS
330
16392
102
}
330
16392
100
DictionaryVariables
280
     0
  1

  0
DICTIONARY
  5
16399
330
15746
100
AcDbDictionary
280
     1
281
     1
  3
ACAD_XREC_ROUNDTRIP
360
1639A
  0
DICTIONARY
  5
1639B
330
15747
100
AcDbDictionary
280
     1
281
     1
  3
ACAD_XREC_ROUNDTRIP
360
1639C
  0
XRECORD
  5
1639A
102
{ACAD_REACTORS
330
16399
102
}
330
16399
100
AcDbXrecord
280
     1
102
SHADEPLOT
 70
     0
102
SHADEPLOTRESLEVEL
 70
     2
102
SHADEPLOTCUSTOMDPI
 70
   300
  0
XRECORD
  5
1639C
102
{ACAD_REACTORS
330
1639B
102
}
330
1639B
100
AcDbXrecord
280
     1
102
SHADEPLOT
 70
     0
102
SHADEPLOTRESLEVEL
 70
     2
102
SHADEPLOTCUSTOMDPI
 70
   300
  0
ENDSEC
  0
EOF
