  0
SECTION
  2
HEADER
  9
$ACADVER
  1
AC1015
  9
$ACADMAINTVER
 70
    20
  9
$DWGCODEPAGE
  3
ANSI_932
  9
$INSBASE
 10
0.0
 20
0.0
 30
0.0
  9
$EXTMIN
 10
139.9999999999995
 20
-0.0000000000000909
 30
0.0
  9
$EXTMAX
 10
16307.2
 20
11409.6
 30
0.0
  9
$LIMMIN
 10
0.0
 20
0.0
  9
$LIMMAX
 10
16800.0
 20
11880.0
  9
$ORTHOMODE
 70
     0
  9
$REGENMODE
 70
     1
  9
$FILLMODE
 70
     1
  9
$QTEXTMODE
 70
     0
  9
$MIRRTEXT
 70
     1
  9
$LTSCALE
 40
20.0
  9
$ATTMODE
 70
     1
  9
$TEXTSIZE
 40
100.0
  9
$TRACEWID
 40
1.0
  9
$TEXTSTYLE
  7
STYLE3
  9
$CLAYER
  8
寸法
  9
$CELTYPE
  6
BYLAYER
  9
$CECOLOR
 62
   256
  9
$CELTSCALE
 40
50.0
  9
$DISPSILH
 70
     0
  9
$DIMSCALE
 40
40.0
  9
$DIMASZ
 40
2.5
  9
$DIMEXO
 40
0.5
  9
$DIMDLI
 40
7.0
  9
$DIMRND
 40
0.0
  9
$DIMDLE
 40
0.0
  9
$DIMEXE
 40
1.5
  9
$DIMTP
 40
0.0
  9
$DIMTM
 40
0.0
  9
$DIMTXT
 40
3.0
  9
$DIMCEN
 40
0.0
  9
$DIMTSZ
 40
0.0
  9
$DIMTOL
 70
     0
  9
$DIMLIM
 70
     0
  9
$DIMTIH
 70
     0
  9
$DIMTOH
 70
     0
  9
$DIMSE1
 70
     0
  9
$DIMSE2
 70
     0
  9
$DIMTAD
 70
     3
  9
$DIMZIN
 70
     8
  9
$DIMBLK
  1

  9
$DIMASO
 70
     1
  9
$DIMSHO
 70
     1
  9
$DIMPOST
  1

  9
$DIMAPOST
  1

  9
$DIMALT
 70
     0
  9
$DIMALTD
 70
     2
  9
$DIMALTF
 40
0.0394
  9
$DIMLFAC
 40
1.0
  9
$DIMTOFL
 70
     1
  9
$DIMTVP
 40
0.0
  9
$DIMTIX
 70
     1
  9
$DIMSOXD
 70
     0
  9
$DIMSAH
 70
     1
  9
$DIMBLK1
  1
DOTSMALL
  9
$DIMBLK2
  1
DOTSMALL
  9
$DIMSTYLE
  2
INABA_S40G
  9
$DIMCLRD
 70
     0
  9
$DIMCLRE
 70
     0
  9
$DIMCLRT
 70
     7
  9
$DIMTFAC
 40
1.0
  9
$DIMGAP
 40
1.0
  9
$DIMJUST
 70
     0
  9
$DIMSD1
 70
     0
  9
$DIMSD2
 70
     0
  9
$DIMTOLJ
 70
     1
  9
$DIMTZIN
 70
     0
  9
$DIMALTZ
 70
     0
  9
$DIMALTTZ
 70
     0
  9
$DIMUPT
 70
     1
  9
$DIMDEC
 70
     1
  9
$DIMTDEC
 70
     4
  9
$DIMALTU
 70
     2
  9
$DIMALTTD
 70
     2
  9
$DIMTXSTY
  7
STYLE1
  9
$DIMAUNIT
 70
     0
  9
$DIMADEC
 70
     0
  9
$DIMALTRND
 40
0.0
  9
$DIMAZIN
 70
     0
  9
$DIMDSEP
 70
    46
  9
$DIMATFIT
 70
     3
  9
$DIMFRAC
 70
     0
  9
$DIMLDRBLK
  1

  9
$DIMLUNIT
 70
     2
  9
$DIMLWD
 70
    -2
  9
$DIMLWE
 70
    -2
  9
$DIMTMOVE
 70
     0
  9
$LUNITS
 70
     2
  9
$LUPREC
 70
     1
  9
$SKETCHINC
 40
1.0
  9
$FILLETRAD
 40
5.0
  9
$AUNITS
 70
     0
  9
$AUPREC
 70
     0
  9
$MENU
  1
acad
  9
$ELEVATION
 40
0.0
  9
$PELEVATION
 40
0.0
  9
$THICKNESS
 40
0.0
  9
$LIMCHECK
 70
     0
  9
$CHAMFERA
 40
0.0
  9
$CHAMFERB
 40
0.0
  9
$CHAMFERC
 40
0.0
  9
$CHAMFERD
 40
0.0
  9
$SKPOLY
 70
     0
  9
$TDCREATE
 40
2452116.684896065
  9
$TDUCREATE
 40
2452116.309896065
  9
$TDUPDATE
 40
2455575.689571030
  9
$TDUUPDATE
 40
2455575.314571030
  9
$TDINDWG
 40
0.5833050579
  9
$TDUSRTIMER
 40
0.5833050579
  9
$USRTIMER
 70
     1
  9
$ANGBASE
 50
0.0
  9
$ANGDIR
 70
     0
  9
$PDMODE
 70
     3
  9
$PDSIZE
 40
2.0
  9
$PLINEWID
 40
0.0
  9
$SPLFRAME
 70
     0
  9
$SPLINETYPE
 70
     6
  9
$SPLINESEGS
 70
     8
  9
$HANDSEED
  5
16742
  9
$SURFTAB1
 70
     6
  9
$SURFTAB2
 70
     6
  9
$SURFTYPE
 70
     6
  9
$SURFU
 70
     6
  9
$SURFV
 70
     6
  9
$UCSBASE
  2

  9
$UCSNAME
  2

  9
$UCSORG
 10
0.0
 20
0.0
 30
0.0
  9
$UCSXDIR
 10
1.0
 20
0.0
 30
0.0
  9
$UCSYDIR
 10
0.0
 20
1.0
 30
0.0
  9
$UCSORTHOREF
  2

  9
$UCSORTHOVIEW
 70
     0
  9
$UCSORGTOP
 10
0.0
 20
0.0
 30
0.0
  9
$UCSORGBOTTOM
 10
0.0
 20
0.0
 30
0.0
  9
$UCSORGLEFT
 10
0.0
 20
0.0
 30
0.0
  9
$UCSORGRIGHT
 10
0.0
 20
0.0
 30
0.0
  9
$UCSORGFRONT
 10
0.0
 20
0.0
 30
0.0
  9
$UCSORGBACK
 10
0.0
 20
0.0
 30
0.0
  9
$PUCSBASE
  2

  9
$PUCSNAME
  2

  9
$PUCSORG
 10
0.0
 20
0.0
 30
0.0
  9
$PUCSXDIR
 10
1.0
 20
0.0
 30
0.0
  9
$PUCSYDIR
 10
0.0
 20
1.0
 30
0.0
  9
$PUCSORTHOREF
  2

  9
$PUCSORTHOVIEW
 70
     0
  9
$PUCSORGTOP
 10
0.0
 20
0.0
 30
0.0
  9
$PUCSORGBOTTOM
 10
0.0
 20
0.0
 30
0.0
  9
$PUCSORGLEFT
 10
0.0
 20
0.0
 30
0.0
  9
$PUCSORGRIGHT
 10
0.0
 20
0.0
 30
0.0
  9
$PUCSORGFRONT
 10
0.0
 20
0.0
 30
0.0
  9
$PUCSORGBACK
 10
0.0
 20
0.0
 30
0.0
  9
$USERI1
 70
     0
  9
$USERI2
 70
     0
  9
$USERI3
 70
     0
  9
$USERI4
 70
     0
  9
$USERI5
 70
     0
  9
$USERR1
 40
0.0
  9
$USERR2
 40
0.0
  9
$USERR3
 40
0.0
  9
$USERR4
 40
0.0
  9
$USERR5
 40
0.0
  9
$WORLDVIEW
 70
     1
  9
$SHADEDGE
 70
     3
  9
$SHADEDIF
 70
    70
  9
$TILEMODE
 70
     1
  9
$MAXACTVP
 70
    16
  9
$PINSBASE
 10
0.0
 20
0.0
 30
0.0
  9
$PLIMCHECK
 70
     0
  9
$PEXTMIN
 10
1.000000000000000E+20
 20
1.000000000000000E+20
 30
1.000000000000000E+20
  9
$PEXTMAX
 10
-1.000000000000000E+20
 20
-1.000000000000000E+20
 30
-1.000000000000000E+20
  9
$PLIMMIN
 10
0.0
 20
0.0
  9
$PLIMMAX
 10
420.0
 20
297.0
  9
$UNITMODE
 70
     0
  9
$VISRETAIN
 70
     0
  9
$PLINEGEN
 70
     0
  9
$PSLTSCALE
 70
     0
  9
$TREEDEPTH
 70
  3020
  9
$CMLSTYLE
  2
STANDARD
  9
$CMLJUST
 70
     0
  9
$CMLSCALE
 40
1.0
  9
$PROXYGRAPHICS
 70
     1
  9
$MEASUREMENT
 70
     1
  9
$CELWEIGHT
370
    -1
  9
$ENDCAPS
280
     0
  9
$JOINSTYLE
280
     0
  9
$LWDISPLAY
290
     0
  9
$INSUNITS
 70
     0
  9
$HYPERLINKBASE
  1

  9
$STYLESHEET
  1

  9
$XEDIT
290
     1
  9
$CEPSNTYPE
380
     0
  9
$PSTYLEMODE
290
     1
  9
$FINGERPRINTGUID
  2
{029CF4AE-E049-4114-B57F-528F6083B8E3}
  9
$VERSIONGUID
  2
{945AF251-1396-4E85-B264-6C9A220F61A5}
  9
$EXTNAMES
290
     1
  9
$PSVPSCALE
 40
0.0
  9
$OLESTARTUP
290
     0
  0
ENDSEC
  0
SECTION
  2
CLASSES
  0
CLASS
  1
ACDBDICTIONARYWDFLT
  2
AcDbDictionaryWithDefault
  3
ObjectDBX Classes
 90
        0
280
     0
281
     0
  0
CLASS
  1
DICTIONARYVAR
  2
AcDbDictionaryVar
  3
ObjectDBX Classes
 90
        0
280
     0
281
     0
  0
CLASS
  1
ACDBPLACEHOLDER
  2
AcDbPlaceHolder
  3
ObjectDBX Classes
 90
        0
280
     0
281
     0
  0
CLASS
  1
LAYOUT
  2
AcDbLayout
  3
ObjectDBX Classes
 90
        0
280
     0
281
     0
  0
ENDSEC
  0
SECTION
  2
TABLES
  0
TABLE
  2
VPORT
  5
746D
330
0
100
AcDbSymbolTable
 70
     2
  0
VPORT
  5
1673A
330
746D
100
AcDbSymbolTableRecord
100
AcDbViewportTableRecord
  2
*Active
 70
     0
 10
0.0
 20
0.0
 11
1.0
 21
1.0
 12
8223.761025238502
 22
6348.749332123478
 13
0.0
 23
0.0
 14
10.0
 24
10.0
 15
10.0
 25
10.0
 16
0.0
 26
0.0
 36
1.0
 17
0.0
 27
0.0
 37
0.0
 40
12805.41355679434
 41
1.525925925925925
 42
50.0
 43
0.0
 44
0.0
 50
0.0
 51
0.0
 71
     0
 72
     0
 73
     1
 74
     0
 75
     0
 76
     0
 77
     0
 78
     0
281
     0
 65
     1
110
0.0
120
0.0
130
0.0
111
1.0
121
0.0
131
0.0
112
0.0
122
1.0
132
0.0
 79
     0
146
0.0
  0
ENDTAB
  0
TABLE
  2
LTYPE
  5
746A
330
0
100
AcDbSymbolTable
 70
     4
  0
LTYPE
  5
7477
330
746A
100
AcDbSymbolTableRecord
100
AcDbLinetypeTableRecord
  2
BYBLOCK
 70
     0
  3

 72
    65
 73
     0
 40
0.0
  0
LTYPE
  5
7478
330
746A
100
AcDbSymbolTableRecord
100
AcDbLinetypeTableRecord
  2
BYLAYER
 70
     0
  3

 72
    65
 73
     0
 40
0.0
  0
LTYPE
  5
7479
330
746A
100
AcDbSymbolTableRecord
100
AcDbLinetypeTableRecord
  2
CONTINUOUS
 70
     0
  3
Solid line
 72
    65
 73
     0
 40
0.0
  0
LTYPE
  5
7816
330
746A
100
AcDbSymbolTableRecord
100
AcDbLinetypeTableRecord
  2
CENTER
 70
     0
  3
____ _ ____ _ ____ _ ____ _ ____ _ ____ _ ____ 
 72
    65
 73
     4
 40
2.0
 49
1.25
 74
     0
 49
-0.25
 74
     0
 49
0.25
 74
     0
 49
-0.25
 74
     0
  0
LTYPE
  5
781A
330
746A
100
AcDbSymbolTableRecord
100
AcDbLinetypeTableRecord
  2
HIDDEN
 70
     0
  3
__ __ __ __ __ __ __ __ __ __ __ __ __ __ __ __
 72
    65
 73
     2
 40
0.375
 49
0.25
 74
     0
 49
-0.125
 74
     0
  0
LTYPE
  5
781B
330
746A
100
AcDbSymbolTableRecord
100
AcDbLinetypeTableRecord
  2
PHANTOM
 70
     0
  3
______  __  __  ______  __  __  ______  __  __ 
 72
    65
 73
     6
 40
2.5
 49
1.25
 74
     0
 49
-0.25
 74
     0
 49
0.25
 74
     0
 49
-0.25
 74
     0
 49
0.25
 74
     0
 49
-0.25
 74
     0
  0
ENDTAB
  0
TABLE
  2
LAYER
  5
7467
102
{ACAD_XDICTIONARY
360
15116
102
}
330
0
100
AcDbSymbolTable
 70
    12
  0
LAYER
  5
7474
330
7467
100
AcDbSymbolTableRecord
100
AcDbLayerTableRecord
  2
0
 70
     0
 62
     7
  6
CONTINUOUS
370
    -3
390
14F02
  0
LAYER
  5
DEB2
330
7467
100
AcDbSymbolTableRecord
100
AcDbLayerTableRecord
  2
センター
 70
     0
 62
     3
  6
CENTER
370
    -3
390
14F02
  0
LAYER
  5
DEB3
330
7467
100
AcDbSymbolTableRecord
100
AcDbLayerTableRecord
  2
寸法
 70
     0
 62
     4
  6
CONTINUOUS
370
    -3
390
14F02
  0
LAYER
  5
DEB4
330
7467
100
AcDbSymbolTableRecord
100
AcDbLayerTableRecord
  2
部品1
 70
     0
 62
     7
  6
CONTINUOUS
370
    -3
390
14F02
  0
LAYER
  5
DEB5
330
7467
100
AcDbSymbolTableRecord
100
AcDbLayerTableRecord
  2
補助
 70
     0
 62
    -1
  6
CONTINUOUS
370
    -3
390
14F02
  0
LAYER
  5
DEB6
330
7467
100
AcDbSymbolTableRecord
100
AcDbLayerTableRecord
  2
文字
 70
     0
 62
     7
  6
CONTINUOUS
370
    -3
390
14F02
  0
LAYER
  5
F255
330
7467
100
AcDbSymbolTableRecord
100
AcDbLayerTableRecord
  2
DEFPOINTS
 70
     0
 62
     7
  6
CONTINUOUS
290
     0
370
    -3
390
14F02
  0
LAYER
  5
10B54
330
7467
100
AcDbSymbolTableRecord
100
AcDbLayerTableRecord
  2
仕様書枠
 70
     0
 62
   230
  6
CONTINUOUS
370
    -3
390
14F02
  0
LAYER
  5
11729
330
7467
100
AcDbSymbolTableRecord
100
AcDbLayerTableRecord
  2
Ｇ．Ｌ
 70
     0
 62
    30
  6
CONTINUOUS
370
    -3
390
14F02
  0
LAYER
  5
1173F
330
7467
100
AcDbSymbolTableRecord
100
AcDbLayerTableRecord
  2
細線
 70
     0
 62
     5
  6
CONTINUOUS
370
    -3
390
14F02
  0
LAYER
  5
118A1
330
7467
100
AcDbSymbolTableRecord
100
AcDbLayerTableRecord
  2
想像線
 70
     0
 62
     6
  6
PHANTOM
370
    -3
390
14F02
  0
LAYER
  5
123C1
330
7467
100
AcDbSymbolTableRecord
100
AcDbLayerTableRecord
  2
破線
 70
     0
 62
     2
  6
HIDDEN
370
    -3
390
14F02
  0
ENDTAB
  0
TABLE
  2
STYLE
  5
7468
330
0
100
AcDbSymbolTable
 70
     4
  0
STYLE
  5
7475
330
7468
100
AcDbSymbolTableRecord
100
AcDbTextStyleTableRecord
  2
STANDARD
 70
     0
 40
0.0
 41
1.0
 50
0.0
 71
     0
 42
4.0
  3
txt
  4
C:\AutoCAD LT\bigfont.shx
  0
STYLE
  5
F706
330
7468
100
AcDbSymbolTableRecord
100
AcDbTextStyleTableRecord
  2
STYLE1
 70
     0
 40
0.0
 41
1.0
 50
0.0
 71
     0
 42
4.0
  3
isocp.shx
  4
bigfont.shx
  0
STYLE
  5
103BF
330
7468
100
AcDbSymbolTableRecord
100
AcDbTextStyleTableRecord
  2
STYLE2
 70
     0
 40
0.0
 41
1.0
 50
0.0
 71
     0
 42
100.0
  3
MS PGothic.ttf
  4

1001
ACAD
1000
MS PGothic
1071
    32818
  0
STYLE
  5
10BAA
330
7468
100
AcDbSymbolTableRecord
100
AcDbTextStyleTableRecord
  2
STYLE3
 70
     0
 40
0.0
 41
1.0
 50
0.0
 71
     0
 42
100.0
  3

  4

1001
ACAD
1000
DFPGothic-EB
1071
    32818
  0
ENDTAB
  0
TABLE
  2
VIEW
  5
746B
330
0
100
AcDbSymbolTable
 70
     0
  0
ENDTAB
  0
TABLE
  2
UCS
  5
746C
330
0
100
AcDbSymbolTable
 70
     0
  0
ENDTAB
  0
TABLE
  2
APPID
  5
746E
330
0
100
AcDbSymbolTable
 70
     6
  0
APPID
  5
7476
330
746E
100
AcDbSymbolTableRecord
100
AcDbRegAppTableRecord
  2
ACAD
 70
     0
  0
APPID
  5
DEA9
330
746E
100
AcDbSymbolTableRecord
100
AcDbRegAppTableRecord
  2
CONTENTBLOCKICON
 70
     0
  0
APPID
  5
DEAA
330
746E
100
AcDbSymbolTableRecord
100
AcDbRegAppTableRecord
  2
CONTENTBLOCKDESCRIPTION
 70
     0
  0
APPID
  5
E71D
330
746E
100
AcDbSymbolTableRecord
100
AcDbRegAppTableRecord
  2
CONTENTTABDATA
 70
     0
  0
APPID
  5
E71E
330
746E
100
AcDbSymbolTableRecord
100
AcDbRegAppTableRecord
  2
CONTENTCURRENTTAB
 70
     0
  0
APPID
  5
F3BA
330
746E
100
AcDbSymbolTableRecord
100
AcDbRegAppTableRecord
  2
DRAWINGVARIABLESXDATA
 70
     0
  0
ENDTAB
  0
TABLE
  2
DIMSTYLE
  5
746F
330
0
100
AcDbSymbolTable
 70
     3
100
AcDbDimStyleTable
 71
     1
340
F71F
  0
DIMSTYLE
105
7484
330
746F
100
AcDbSymbolTableRecord
100
AcDbDimStyleTableRecord
  2
JIS
 70
     0
 41
2.5
 42
1.0
 43
7.0
 44
1.0
 73
     0
 74
     0
 77
     1
 78
     8
140
2.5
141
0.0
143
0.0394
147
0.0
172
     1
174
     1
175
     1
340
7475
  0
DIMSTYLE
105
F71F
102
{ACAD_REACTORS
330
13ACA
330
13B15
330
13B17
330
13B23
330
13B9A
330
13BA6
330
13BA9
330
13BAE
330
13EA2
330
13EA3
330
13EBD
330
14548
330
14562
330
149C8
330
14978
330
14951
330
149C7
330
149C6
330
1497C
330
14A13
330
14A22
330
14A2F
330
14A61
330
14C2C
330
14C24
330
14C99
330
14E5B
330
14E64
330
14E55
330
14E54
330
14EF2
330
1460F
330
15DD5
330
15DD3
330
15DD4
330
15E27
330
16339
330
16357
330
16358
330
16359
330
1635A
330
1635B
330
16371
330
16372
102
}
330
746F
100
AcDbSymbolTableRecord
100
AcDbDimStyleTableRecord
  2
INABA_S40G
 70
     0
 40
40.0
 41
2.5
 42
0.5
 43
7.0
 44
1.5
 73
     0
 74
     0
 77
     3
 78
     8
140
3.0
141
0.0
143
0.0394
147
1.0
172
     1
173
     1
174
     1
178
     7
271
     1
340
F706
341
F770
343
F770
344
F770
  0
DIMSTYLE
105
15115
102
{ACAD_REACTORS
330
16370
102
}
330
746F
100
AcDbSymbolTableRecord
100
AcDbDimStyleTableRecord
  2
INABA_S40
 70
     0
 40
40.0
 41
2.5
 42
0.5
 43
7.0
 44
1.5
 73
     0
 74
     0
 77
     3
 78
     8
140
3.0
141
0.0
143
0.0394
147
1.0
172
     1
173
     1
174
     1
175
     1
178
     7
289
     0
340
7475
341
15070
343
15070
344
15070
  0
ENDTAB
  0
TABLE
  2
BLOCK_RECORD
  5
7466
330
0
100
AcDbSymbolTable
 70
    48
  0
BLOCK_RECORD
  5
747D
330
7466
100
AcDbSymbolTableRecord
100
AcDbBlockTableRecord
  2
*MODEL_SPACE
340
14F07
  0
BLOCK_RECORD
  5
747A
330
7466
100
AcDbSymbolTableRecord
100
AcDbBlockTableRecord
  2
*PAPER_SPACE
340
14F08
  0
BLOCK_RECORD
  5
F770
330
7466
100
AcDbSymbolTableRecord
100
AcDbBlockTableRecord
  2
_DOTSMALL
340
0
102
{BLKREFS
331
15F48
331
15F49
331
15F53
331
15F54
331
15F5C
331
15F5D
331
15F65
331
15F66
331
15FBC
331
15FBD
331
15FC5
331
15FC6
331
15FCE
331
15FCF
331
15FD7
331
15FD8
331
15FE2
331
15FE3
331
15FED
331
15FEE
331
15FF6
331
15FF7
331
15FFF
331
16000
331
1600A
331
1600B
331
16013
331
16014
331
1601C
331
1601D
331
16027
331
16028
331
16030
331
16031
331
1603B
331
1603C
331
16044
331
16045
331
1604D
331
1604E
331
16056
331
16057
331
1605F
331
16060
331
16068
331
16069
331
16071
331
16072
331
1607C
331
1607D
331
16085
331
16086
331
1608E
331
1608F
331
16097
331
16098
331
160A2
331
160A3
331
160AB
331
160AC
331
160B4
331
160B5
331
160BF
331
160C0
331
160C8
331
160C9
331
160D3
331
160D4
331
160DC
331
160DD
331
160E5
331
160E6
331
16601
331
16602
331
1660A
331
1660B
331
1661D
331
1661E
331
16626
331
16627
331
1662F
331
16630
331
1663A
331
1663B
331
16644
331
16645
331
1664D
331
1664E
102
}
  0
BLOCK_RECORD
  5
13C12
330
7466
100
AcDbSymbolTableRecord
100
AcDbBlockTableRecord
  2
*D1
340
0
  0
BLOCK_RECORD
  5
13C5D
330
7466
100
AcDbSymbolTableRecord
100
AcDbBlockTableRecord
  2
*D2
340
0
  0
BLOCK_RECORD
  5
13C69
330
7466
100
AcDbSymbolTableRecord
100
AcDbBlockTableRecord
  2
*D3
340
0
  0
BLOCK_RECORD
  5
13C83
330
7466
100
AcDbSymbolTableRecord
100
AcDbBlockTableRecord
  2
*D4
340
0
  0
BLOCK_RECORD
  5
13CDD
330
7466
100
AcDbSymbolTableRecord
100
AcDbBlockTableRecord
  2
*D5
340
0
  0
BLOCK_RECORD
  5
13CF8
330
7466
100
AcDbSymbolTableRecord
100
AcDbBlockTableRecord
  2
*D6
340
0
  0
BLOCK_RECORD
  5
13D10
330
7466
100
AcDbSymbolTableRecord
100
AcDbBlockTableRecord
  2
*D7
340
0
  0
BLOCK_RECORD
  5
13D1C
330
7466
100
AcDbSymbolTableRecord
100
AcDbBlockTableRecord
  2
*D8
340
0
  0
BLOCK_RECORD
  5
13EC4
330
7466
100
AcDbSymbolTableRecord
100
AcDbBlockTableRecord
  2
*D9
340
0
  0
BLOCK_RECORD
  5
13ED0
330
7466
100
AcDbSymbolTableRecord
100
AcDbBlockTableRecord
  2
*D10
340
0
  0
BLOCK_RECORD
  5
13EDC
330
7466
100
AcDbSymbolTableRecord
100
AcDbBlockTableRecord
  2
*D11
340
0
  0
BLOCK_RECORD
  5
1453A
330
7466
100
AcDbSymbolTableRecord
100
AcDbBlockTableRecord
  2
*D12
340
0
  0
BLOCK_RECORD
  5
14556
330
7466
100
AcDbSymbolTableRecord
100
AcDbBlockTableRecord
  2
*D13
340
0
  0
BLOCK_RECORD
  5
14610
330
7466
100
AcDbSymbolTableRecord
100
AcDbBlockTableRecord
  2
*D14
340
0
  0
BLOCK_RECORD
  5
149C9
330
7466
100
AcDbSymbolTableRecord
100
AcDbBlockTableRecord
  2
*D15
340
0
  0
BLOCK_RECORD
  5
149D5
330
7466
100
AcDbSymbolTableRecord
100
AcDbBlockTableRecord
  2
*D16
340
0
  0
BLOCK_RECORD
  5
149E1
330
7466
100
AcDbSymbolTableRecord
100
AcDbBlockTableRecord
  2
*D17
340
0
  0
BLOCK_RECORD
  5
149ED
330
7466
100
AcDbSymbolTableRecord
100
AcDbBlockTableRecord
  2
*D18
340
0
  0
BLOCK_RECORD
  5
149FB
330
7466
100
AcDbSymbolTableRecord
100
AcDbBlockTableRecord
  2
*D19
340
0
  0
BLOCK_RECORD
  5
14A07
330
7466
100
AcDbSymbolTableRecord
100
AcDbBlockTableRecord
  2
*D20
340
0
  0
BLOCK_RECORD
  5
14A14
330
7466
100
AcDbSymbolTableRecord
100
AcDbBlockTableRecord
  2
*D21
340
0
  0
BLOCK_RECORD
  5
14A23
330
7466
100
AcDbSymbolTableRecord
100
AcDbBlockTableRecord
  2
*D22
340
0
  0
BLOCK_RECORD
  5
14A30
330
7466
100
AcDbSymbolTableRecord
100
AcDbBlockTableRecord
  2
*D23
340
0
  0
BLOCK_RECORD
  5
14A53
330
7466
100
AcDbSymbolTableRecord
100
AcDbBlockTableRecord
  2
*D24
340
0
  0
BLOCK_RECORD
  5
14C5F
330
7466
100
AcDbSymbolTableRecord
100
AcDbBlockTableRecord
  2
*D25
340
0
  0
BLOCK_RECORD
  5
14C6B
330
7466
100
AcDbSymbolTableRecord
100
AcDbBlockTableRecord
  2
*D26
340
0
  0
BLOCK_RECORD
  5
14C9A
330
7466
100
AcDbSymbolTableRecord
100
AcDbBlockTableRecord
  2
*D27
340
0
  0
BLOCK_RECORD
  5
14E91
330
7466
100
AcDbSymbolTableRecord
100
AcDbBlockTableRecord
  2
*D28
340
0
  0
BLOCK_RECORD
  5
14E9D
330
7466
100
AcDbSymbolTableRecord
100
AcDbBlockTableRecord
  2
*D29
340
0
  0
BLOCK_RECORD
  5
14EA9
330
7466
100
AcDbSymbolTableRecord
100
AcDbBlockTableRecord
  2
*D30
340
0
  0
BLOCK_RECORD
  5
14EB5
330
7466
100
AcDbSymbolTableRecord
100
AcDbBlockTableRecord
  2
*D31
340
0
  0
BLOCK_RECORD
  5
14EF3
330
7466
100
AcDbSymbolTableRecord
100
AcDbBlockTableRecord
  2
*D32
340
0
  0
BLOCK_RECORD
  5
15070
330
7466
100
AcDbSymbolTableRecord
100
AcDbBlockTableRecord
  2
_OPEN
340
0
  0
BLOCK_RECORD
  5
15076
330
7466
100
AcDbSymbolTableRecord
100
AcDbBlockTableRecord
  2
_DOT
340
0
102
{BLKREFS
331
16613
331
16614
102
}
  0
BLOCK_RECORD
  5
15DE4
330
7466
100
AcDbSymbolTableRecord
100
AcDbBlockTableRecord
  2
*D35
340
0
  0
BLOCK_RECORD
  5
15DF2
330
7466
100
AcDbSymbolTableRecord
100
AcDbBlockTableRecord
  2
*D36
340
0
  0
BLOCK_RECORD
  5
15DFE
330
7466
100
AcDbSymbolTableRecord
100
AcDbBlockTableRecord
  2
*D37
340
0
  0
BLOCK_RECORD
  5
15E32
330
7466
100
AcDbSymbolTableRecord
100
AcDbBlockTableRecord
  2
*D38
340
0
  0
BLOCK_RECORD
  5
164CE
330
7466
100
AcDbSymbolTableRecord
100
AcDbBlockTableRecord
  2
*D39
340
0
  0
BLOCK_RECORD
  5
164DA
330
7466
100
AcDbSymbolTableRecord
100
AcDbBlockTableRecord
  2
*D40
340
0
  0
BLOCK_RECORD
  5
164E7
330
7466
100
AcDbSymbolTableRecord
100
AcDbBlockTableRecord
  2
*D41
340
0
  0
BLOCK_RECORD
  5
164F5
330
7466
100
AcDbSymbolTableRecord
100
AcDbBlockTableRecord
  2
*D42
340
0
  0
BLOCK_RECORD
  5
16501
330
7466
100
AcDbSymbolTableRecord
100
AcDbBlockTableRecord
  2
*D43
340
0
  0
BLOCK_RECORD
  5
1650D
330
7466
100
AcDbSymbolTableRecord
100
AcDbBlockTableRecord
  2
*D44
340
0
  0
BLOCK_RECORD
  5
1651A
330
7466
100
AcDbSymbolTableRecord
100
AcDbBlockTableRecord
  2
*D45
340
0
  0
BLOCK_RECORD
  5
16526
330
7466
100
AcDbSymbolTableRecord
100
AcDbBlockTableRecord
  2
*D46
340
0
  0
BLOCK_RECORD
  5
16532
330
7466
100
AcDbSymbolTableRecord
100
AcDbBlockTableRecord
  2
*D47
340
0
  0
ENDTAB
  0
ENDSEC
  0
SECTION
  2
BLOCKS
  0
BLOCK
  5
7489
330
747D
100
AcDbEntity
  8
0
100
AcDbBlockBegin
  2
*MODEL_SPACE
 70
     0
 10
0.0
 20
0.0
 30
0.0
  3
*MODEL_SPACE
  1

  0
ENDBLK
  5
748A
330
747D
100
AcDbEntity
  8
0
100
AcDbBlockEnd
  0
BLOCK
  5
7487
330
747A
100
AcDbEntity
 67
     1
  8
0
100
AcDbBlockBegin
  2
*PAPER_SPACE
 70
     0
 10
0.0
 20
0.0
 30
0.0
  3
*PAPER_SPACE
  1

  0
ENDBLK
  5
7488
330
747A
100
AcDbEntity
 67
     1
  8
0
100
AcDbBlockEnd
  0
BLOCK
  5
F771
330
F770
100
AcDbEntity
  8
0
 48
50.0
100
AcDbBlockBegin
  2
_DOTSMALL
 70
     0
 10
0.0
 20
0.0
 30
0.0
  3
_DOTSMALL
  1

  0
LWPOLYLINE
  5
F772
330
F770
100
AcDbEntity
  8
0
  6
ByBlock
 62
     0
 48
50.0
100
AcDbPolyline
 90
        2
 70
     1
 43
0.5
 10
-0.0625
 20
0.0
 42
1.0
 10
0.0625
 20
0.0
 42
1.0
  0
ENDBLK
  5
F776
330
F770
100
AcDbEntity
  8
0
 48
50.0
100
AcDbBlockEnd
  0
BLOCK
  5
1488F
330
13C12
100
AcDbEntity
  8
0
 48
50.0
100
AcDbBlockBegin
  2
*D1
 70
     1
 10
0.0
 20
0.0
 30
0.0
  3
*D1
  1

  0
LINE
  5
160E2
330
13C12
100
AcDbEntity
  8
寸法
 62
     0
 48
50.0
370
    -2
100
AcDbLine
 10
3454.50286090681
 20
5391.07727689386
 30
0.0
 11
3096.398333299207
 21
5391.07727689386
 31
0.0
  0
LINE
  5
160E3
330
13C12
100
AcDbEntity
  8
寸法
 62
     0
 48
50.0
370
    -2
100
AcDbLine
 10
3454.50286090681
 20
3631.077276893865
 30
0.0
 11
3096.398333299207
 21
3631.077276893865
 31
0.0
  0
LINE
  5
160E4
330
13C12
100
AcDbEntity
  8
寸法
 62
     0
 48
50.0
370
    -2
100
AcDbLine
 10
3156.398333299208
 20
5391.07727689386
 30
0.0
 11
3156.398333299207
 21
3631.077276893865
 31
0.0
  0
INSERT
  5
160E5
330
13C12
100
AcDbEntity
  8
寸法
 62
     0
 48
50.0
370
    -2
100
AcDbBlockReference
  2
_DOTSMALL
 10
3156.398333299208
 20
5391.07727689386
 30
0.0
 41
100.0
 42
100.0
 43
100.0
 50
90.0
  0
INSERT
  5
160E6
330
13C12
100
AcDbEntity
  8
寸法
 62
     0
 48
50.0
370
    -2
100
AcDbBlockReference
  2
_DOTSMALL
 10
3156.398333299207
 20
3631.077276893865
 30
0.0
 41
100.0
 42
100.0
 43
100.0
 50
270.0
  0
MTEXT
  5
160E7
330
13C12
100
AcDbEntity
  8
寸法
 62
     7
 48
50.0
100
AcDbMText
 10
3056.398333299207
 20
4510.077276893862
 30
0.0
 40
120.0
 41
0.0
 71
     5
 72
     1
  1
\A1;有効開口部高サ1760
  7
STYLE1
 11
0.0000000000000001
 21
1.0
 31
0.0
 73
     1
 44
1.0
1001
ACAD
1000
MTEXTBEGIN
1070
    73
1070
     1
1070
    44
1040
1.0
1070
    74
1070
     0
1000
MTEXTEND
  0
POINT
  5
160E8
330
13C12
100
AcDbEntity
  8
DEFPOINTS
 62
     0
 48
50.0
100
AcDbPoint
 10
3474.502860906811
 20
5391.07727689386
 30
0.0
  0
POINT
  5
160E9
330
13C12
100
AcDbEntity
  8
DEFPOINTS
 62
     0
 48
50.0
100
AcDbPoint
 10
3474.502860906811
 20
3631.077276893865
 30
0.0
  0
POINT
  5
160EA
330
13C12
100
AcDbEntity
  8
DEFPOINTS
 62
     0
 48
50.0
100
AcDbPoint
 10
3156.398333299207
 20
3631.077276893865
 30
0.0
  0
ENDBLK
  5
14899
330
13C12
100
AcDbEntity
  8
0
 48
50.0
100
AcDbBlockEnd
  0
BLOCK
  5
14695
330
13C5D
100
AcDbEntity
  8
0
 48
50.0
100
AcDbBlockBegin
  2
*D2
 70
     1
 10
0.0
 20
0.0
 30
0.0
  3
*D2
  1

  0
LINE
  5
160D9
330
13C5D
100
AcDbEntity
  8
寸法
 62
     0
 48
50.0
370
    -2
100
AcDbLine
 10
5989.502860906817
 20
9326.365915108434
 30
0.0
 11
5989.502860906817
 21
9582.174134733532
 31
0.0
  0
LINE
  5
160DA
330
13C5D
100
AcDbEntity
  8
寸法
 62
     0
 48
50.0
370
    -2
100
AcDbLine
 10
6699.502860906815
 20
9326.365915108555
 30
0.0
 11
6699.502860906815
 21
9582.174134733532
 31
0.0
  0
LINE
  5
160DB
330
13C5D
100
AcDbEntity
  8
寸法
 62
     0
 48
50.0
370
    -2
100
AcDbLine
 10
5989.502860906817
 20
9522.174134733532
 30
0.0
 11
6699.502860906815
 21
9522.174134733532
 31
0.0
  0
INSERT
  5
160DC
330
13C5D
100
AcDbEntity
  8
寸法
 62
     0
 48
50.0
370
    -2
100
AcDbBlockReference
  2
_DOTSMALL
 10
5989.502860906817
 20
9522.174134733532
 30
0.0
 41
100.0
 42
100.0
 43
100.0
 50
180.0
  0
INSERT
  5
160DD
330
13C5D
100
AcDbEntity
  8
寸法
 62
     0
 48
50.0
370
    -2
100
AcDbBlockReference
  2
_DOTSMALL
 10
6699.502860906815
 20
9522.174134733532
 30
0.0
 41
100.0
 42
100.0
 43
100.0
  0
MTEXT
  5
160DE
330
13C5D
100
AcDbEntity
  8
寸法
 62
     7
 48
50.0
100
AcDbMText
 10
6344.752860906815
 20
9622.174134733533
 30
0.0
 40
120.0
 41
0.0
 71
     5
 72
     1
  1
\A1;710
  7
STYLE1
 73
     1
 44
1.0
1001
ACAD
1000
MTEXTBEGIN
1070
    73
1070
     1
1070
    44
1040
1.0
1070
    74
1070
     0
1000
MTEXTEND
  0
POINT
  5
160DF
330
13C5D
100
AcDbEntity
  8
DEFPOINTS
 62
     0
 48
50.0
100
AcDbPoint
 10
5989.502860906817
 20
9306.365915108434
 30
0.0
  0
POINT
  5
160E0
330
13C5D
100
AcDbEntity
  8
DEFPOINTS
 62
     0
 48
50.0
100
AcDbPoint
 10
6699.502860906815
 20
9306.365915108555
 30
0.0
  0
POINT
  5
160E1
330
13C5D
100
AcDbEntity
  8
DEFPOINTS
 62
     0
 48
50.0
100
AcDbPoint
 10
6699.502860906815
 20
9522.174134733532
 30
0.0
  0
ENDBLK
  5
1469F
330
13C5D
100
AcDbEntity
  8
0
 48
50.0
100
AcDbBlockEnd
  0
BLOCK
  5
13DD4
330
13C69
100
AcDbEntity
  8
0
 48
50.0
100
AcDbBlockBegin
  2
*D3
 70
     1
 10
0.0
 20
0.0
 30
0.0
  3
*D3
  1

  0
LINE
  5
160CE
330
13C69
100
AcDbEntity
  8
寸法
 62
     0
 48
50.0
370
    -2
100
AcDbLine
 10
8339.502860906817
 20
9326.36591510853
 30
0.0
 11
8339.502860906817
 21
9582.174134733511
 31
0.0
  0
LINE
  5
160CF
330
13C69
100
AcDbEntity
  8
寸法
 62
     0
 48
50.0
370
    -2
100
AcDbLine
 10
8394.502860906817
 20
9326.36591510853
 30
0.0
 11
8394.502860906817
 21
9582.174134733511
 31
0.0
  0
LINE
  5
160D0
330
13C69
100
AcDbEntity
  8
寸法
 62
     0
 48
50.0
370
    -2
100
AcDbLine
 10
8339.502860906817
 20
9522.174134733509
 30
0.0
 11
8239.502860906817
 21
9522.174134733509
 31
0.0
  0
LINE
  5
160D1
330
13C69
100
AcDbEntity
  8
寸法
 62
     0
 48
50.0
370
    -2
100
AcDbLine
 10
8394.502860906817
 20
9522.174134733509
 30
0.0
 11
8811.473423655295
 21
9522.174134733509
 31
0.0
  0
LINE
  5
160D2
330
13C69
100
AcDbEntity
  8
寸法
 62
     0
 48
50.0
370
    -2
100
AcDbLine
 10
8339.502860906817
 20
9522.174134733509
 30
0.0
 11
8394.502860906817
 21
9522.174134733509
 31
0.0
  0
INSERT
  5
160D3
330
13C69
100
AcDbEntity
  8
寸法
 62
     0
 48
50.0
370
    -2
100
AcDbBlockReference
  2
_DOTSMALL
 10
8339.502860906817
 20
9522.174134733509
 30
0.0
 41
100.0
 42
100.0
 43
100.0
  0
INSERT
  5
160D4
330
13C69
100
AcDbEntity
  8
寸法
 62
     0
 48
50.0
370
    -2
100
AcDbBlockReference
  2
_DOTSMALL
 10
8394.502860906817
 20
9522.174134733509
 30
0.0
 41
100.0
 42
100.0
 43
100.0
 50
180.0
  0
MTEXT
  5
160D5
330
13C69
100
AcDbEntity
  8
寸法
 62
     7
 48
50.0
100
AcDbMText
 10
8702.988142281055
 20
9622.17413473351
 30
0.0
 40
120.0
 41
0.0
 71
     5
 72
     1
  1
\A1;55
  7
STYLE1
 73
     1
 44
1.0
1001
ACAD
1000
MTEXTBEGIN
1070
    73
1070
     1
1070
    44
1040
1.0
1070
    74
1070
     0
1000
MTEXTEND
  0
POINT
  5
160D6
330
13C69
100
AcDbEntity
  8
DEFPOINTS
 62
     0
 48
50.0
100
AcDbPoint
 10
8339.502860906817
 20
9306.365915108528
 30
0.0
  0
POINT
  5
160D7
330
13C69
100
AcDbEntity
  8
DEFPOINTS
 62
     0
 48
50.0
100
AcDbPoint
 10
8394.502860906817
 20
9306.365915108528
 30
0.0
  0
POINT
  5
160D8
330
13C69
100
AcDbEntity
  8
DEFPOINTS
 62
     0
 48
50.0
100
AcDbPoint
 10
8394.502860906817
 20
9522.174134733509
 30
0.0
  0
ENDBLK
  5
13DE0
330
13C69
100
AcDbEntity
  8
0
 48
50.0
100
AcDbBlockEnd
  0
BLOCK
  5
14EC3
330
13C83
100
AcDbEntity
  8
0
 48
50.0
100
AcDbBlockBegin
  2
*D4
 70
     1
 10
0.0
 20
0.0
 30
0.0
  3
*D4
  1

  0
LINE
  5
160C5
330
13C83
100
AcDbEntity
  8
寸法
 62
     0
 48
50.0
370
    -2
100
AcDbLine
 10
3474.502860906811
 20
8336.365915108272
 30
0.0
 11
3474.502860906811
 21
7309.264040248283
 31
0.0
  0
LINE
  5
160C6
330
13C83
100
AcDbEntity
  8
寸法
 62
     0
 48
50.0
370
    -2
100
AcDbLine
 10
8394.502860906792
 20
8336.365915108464
 30
0.0
 11
8394.502860906792
 21
7309.264040248283
 31
0.0
  0
LINE
  5
160C7
330
13C83
100
AcDbEntity
  8
寸法
 62
     0
 48
50.0
370
    -2
100
AcDbLine
 10
3474.502860906811
 20
7369.264040248284
 30
0.0
 11
8394.502860906792
 21
7369.264040248284
 31
0.0
  0
INSERT
  5
160C8
330
13C83
100
AcDbEntity
  8
寸法
 62
     0
 48
50.0
370
    -2
100
AcDbBlockReference
  2
_DOTSMALL
 10
3474.502860906811
 20
7369.264040248284
 30
0.0
 41
100.0
 42
100.0
 43
100.0
 50
180.0
  0
INSERT
  5
160C9
330
13C83
100
AcDbEntity
  8
寸法
 62
     0
 48
50.0
370
    -2
100
AcDbBlockReference
  2
_DOTSMALL
 10
8394.502860906792
 20
7369.264040248284
 30
0.0
 41
100.0
 42
100.0
 43
100.0
  0
MTEXT
  5
160CA
330
13C83
100
AcDbEntity
  8
寸法
 62
     7
 48
50.0
100
AcDbMText
 10
5934.502860906802
 20
7469.304852813087
 30
0.0
 40
120.0
 41
0.0
 71
     5
 72
     1
  1
\A1;4920
  7
STYLE1
 73
     1
 44
1.0
1001
ACAD
1000
MTEXTBEGIN
1070
    73
1070
     1
1070
    44
1040
1.0
1070
    74
1070
     0
1000
MTEXTEND
  0
POINT
  5
160CB
330
13C83
100
AcDbEntity
  8
DEFPOINTS
 62
     0
 48
50.0
100
AcDbPoint
 10
3474.502860906811
 20
8356.365915108272
 30
0.0
  0
POINT
  5
160CC
330
13C83
100
AcDbEntity
  8
DEFPOINTS
 62
     0
 48
50.0
100
AcDbPoint
 10
8394.502860906792
 20
8356.365915108463
 30
0.0
  0
POINT
  5
160CD
330
13C83
100
AcDbEntity
  8
DEFPOINTS
 62
     0
 48
50.0
100
AcDbPoint
 10
8394.502860906792
 20
7369.264040248284
 30
0.0
  0
ENDBLK
  5
14ECD
330
13C83
100
AcDbEntity
  8
0
 48
50.0
100
AcDbBlockEnd
  0
BLOCK
  5
13E3F
330
13CDD
100
AcDbEntity
  8
0
 48
50.0
100
AcDbBlockBegin
  2
*D5
 70
     1
 10
0.0
 20
0.0
 30
0.0
  3
*D5
  1

  0
LINE
  5
160BA
330
13CDD
100
AcDbEntity
  8
寸法
 62
     0
 48
50.0
370
    -2
100
AcDbLine
 10
8414.502860906791
 20
8411.365915108515
 30
0.0
 11
9101.929206641203
 21
8411.365915108515
 31
0.0
  0
LINE
  5
160BB
330
13CDD
100
AcDbEntity
  8
寸法
 62
     0
 48
50.0
370
    -2
100
AcDbLine
 10
8414.502860906791
 20
8356.365915108517
 30
0.0
 11
9101.929206641203
 21
8356.365915108517
 31
0.0
  0
LINE
  5
160BC
330
13CDD
100
AcDbEntity
  8
寸法
 62
     0
 48
50.0
370
    -2
100
AcDbLine
 10
9041.929206641205
 20
8411.365915108515
 30
0.0
 11
9041.929206641205
 21
8511.365915108514
 31
0.0
  0
LINE
  5
160BD
330
13CDD
100
AcDbEntity
  8
寸法
 62
     0
 48
50.0
370
    -2
100
AcDbLine
 10
9041.929206641205
 20
8356.365915108517
 30
0.0
 11
9041.929206641205
 21
7870.019166829418
 31
0.0
  0
LINE
  5
160BE
330
13CDD
100
AcDbEntity
  8
寸法
 62
     0
 48
50.0
370
    -2
100
AcDbLine
 10
9041.929206641205
 20
8411.365915108515
 30
0.0
 11
9041.929206641205
 21
8356.365915108517
 31
0.0
  0
INSERT
  5
160BF
330
13CDD
100
AcDbEntity
  8
寸法
 62
     0
 48
50.0
370
    -2
100
AcDbBlockReference
  2
_DOTSMALL
 10
9041.929206641205
 20
8411.365915108515
 30
0.0
 41
100.0
 42
100.0
 43
100.0
 50
270.0
  0
INSERT
  5
160C0
330
13CDD
100
AcDbEntity
  8
寸法
 62
     0
 48
50.0
370
    -2
100
AcDbBlockReference
  2
_DOTSMALL
 10
9041.929206641205
 20
8356.365915108517
 30
0.0
 41
100.0
 42
100.0
 43
100.0
 50
90.0
  0
MTEXT
  5
160C1
330
13CDD
100
AcDbEntity
  8
寸法
 62
     7
 48
50.0
100
AcDbMText
 10
8941.929206641201
 20
7978.504448203658
 30
0.0
 40
120.0
 41
0.0
 71
     5
 72
     1
  1
\A1;55
  7
STYLE1
 11
0.0000000000000001
 21
1.0
 31
0.0
 73
     1
 44
1.0
1001
ACAD
1000
MTEXTBEGIN
1070
    73
1070
     1
1070
    44
1040
1.0
1070
    74
1070
     0
1000
MTEXTEND
  0
POINT
  5
160C2
330
13CDD
100
AcDbEntity
  8
DEFPOINTS
 62
     0
 48
50.0
100
AcDbPoint
 10
8394.502860906792
 20
8411.365915108515
 30
0.0
  0
POINT
  5
160C3
330
13CDD
100
AcDbEntity
  8
DEFPOINTS
 62
     0
 48
50.0
100
AcDbPoint
 10
8394.502860906792
 20
8356.365915108517
 30
0.0
  0
POINT
  5
160C4
330
13CDD
100
AcDbEntity
  8
DEFPOINTS
 62
     0
 48
50.0
100
AcDbPoint
 10
9041.929206641205
 20
8356.365915108517
 30
0.0
  0
ENDBLK
  5
13E4B
330
13CDD
100
AcDbEntity
  8
0
 48
50.0
100
AcDbBlockEnd
  0
BLOCK
  5
13E58
330
13CF8
100
AcDbEntity
  8
0
 48
50.0
100
AcDbBlockBegin
  2
*D6
 70
     1
 10
0.0
 20
0.0
 30
0.0
  3
*D6
  1

  0
LINE
  5
160B1
330
13CF8
100
AcDbEntity
  8
寸法
 62
     0
 48
50.0
370
    -2
100
AcDbLine
 10
8414.502860906818
 20
9251.365915108532
 30
0.0
 11
9101.929206641228
 21
9251.365915108532
 31
0.0
  0
LINE
  5
160B2
330
13CF8
100
AcDbEntity
  8
寸法
 62
     0
 48
50.0
370
    -2
100
AcDbLine
 10
8414.502860906791
 20
8411.365915108515
 30
0.0
 11
9101.929206641228
 21
8411.365915108515
 31
0.0
  0
LINE
  5
160B3
330
13CF8
100
AcDbEntity
  8
寸法
 62
     0
 48
50.0
370
    -2
100
AcDbLine
 10
9041.92920664123
 20
9251.365915108532
 30
0.0
 11
9041.92920664123
 21
8411.365915108515
 31
0.0
  0
INSERT
  5
160B4
330
13CF8
100
AcDbEntity
  8
寸法
 62
     0
 48
50.0
370
    -2
100
AcDbBlockReference
  2
_DOTSMALL
 10
9041.92920664123
 20
9251.365915108532
 30
0.0
 41
100.0
 42
100.0
 43
100.0
 50
90.0
  0
INSERT
  5
160B5
330
13CF8
100
AcDbEntity
  8
寸法
 62
     0
 48
50.0
370
    -2
100
AcDbBlockReference
  2
_DOTSMALL
 10
9041.92920664123
 20
8411.365915108515
 30
0.0
 41
100.0
 42
100.0
 43
100.0
 50
270.0
  0
MTEXT
  5
160B6
330
13CF8
100
AcDbEntity
  8
寸法
 62
     7
 48
50.0
100
AcDbMText
 10
8941.917395617606
 20
8831.365915108525
 30
0.0
 40
120.0
 41
0.0
 71
     5
 72
     1
  1
\A1;2X420=840
  7
STYLE1
 11
0.0000000000000001
 21
1.0
 31
0.0
 73
     1
 44
1.0
1001
ACAD
1000
MTEXTBEGIN
1070
    73
1070
     1
1070
    44
1040
1.0
1070
    74
1070
     0
1000
MTEXTEND
  0
POINT
  5
160B7
330
13CF8
100
AcDbEntity
  8
DEFPOINTS
 62
     0
 48
50.0
100
AcDbPoint
 10
8394.502860906817
 20
9251.365915108532
 30
0.0
  0
POINT
  5
160B8
330
13CF8
100
AcDbEntity
  8
DEFPOINTS
 62
     0
 48
50.0
100
AcDbPoint
 10
8394.502860906792
 20
8411.365915108515
 30
0.0
  0
POINT
  5
160B9
330
13CF8
100
AcDbEntity
  8
DEFPOINTS
 62
     0
 48
50.0
100
AcDbPoint
 10
9041.92920664123
 20
8411.365915108515
 30
0.0
  0
ENDBLK
  5
13E62
330
13CF8
100
AcDbEntity
  8
0
 48
50.0
100
AcDbBlockEnd
  0
BLOCK
  5
13E6E
330
13D10
100
AcDbEntity
  8
0
 48
50.0
100
AcDbBlockBegin
  2
*D7
 70
     1
 10
0.0
 20
0.0
 30
0.0
  3
*D7
  1

  0
LINE
  5
160A8
330
13D10
100
AcDbEntity
  8
寸法
 62
     0
 48
50.0
370
    -2
100
AcDbLine
 10
8414.502860906818
 20
9306.365915108528
 30
0.0
 11
9411.040737456906
 21
9306.365915108528
 31
0.0
  0
LINE
  5
160A9
330
13D10
100
AcDbEntity
  8
寸法
 62
     0
 48
50.0
370
    -2
100
AcDbLine
 10
8414.502860906791
 20
8356.365915108517
 30
0.0
 11
9411.040737456906
 21
8356.365915108517
 31
0.0
  0
LINE
  5
160AA
330
13D10
100
AcDbEntity
  8
寸法
 62
     0
 48
50.0
370
    -2
100
AcDbLine
 10
9351.040737456905
 20
9306.365915108528
 30
0.0
 11
9351.040737456905
 21
8356.365915108517
 31
0.0
  0
INSERT
  5
160AB
330
13D10
100
AcDbEntity
  8
寸法
 62
     0
 48
50.0
370
    -2
100
AcDbBlockReference
  2
_DOTSMALL
 10
9351.040737456905
 20
9306.365915108528
 30
0.0
 41
100.0
 42
100.0
 43
100.0
 50
90.0
  0
INSERT
  5
160AC
330
13D10
100
AcDbEntity
  8
寸法
 62
     0
 48
50.0
370
    -2
100
AcDbBlockReference
  2
_DOTSMALL
 10
9351.040737456905
 20
8356.365915108517
 30
0.0
 41
100.0
 42
100.0
 43
100.0
 50
270.0
  0
MTEXT
  5
160AD
330
13D10
100
AcDbEntity
  8
寸法
 62
     7
 48
50.0
100
AcDbMText
 10
9251.040737456904
 20
8830.343633667437
 30
0.0
 40
120.0
 41
0.0
 71
     5
 72
     1
  1
\A1;950
  7
STYLE1
 11
0.0000000000000001
 21
1.0
 31
0.0
 73
     1
 44
1.0
1001
ACAD
1000
MTEXTBEGIN
1070
    73
1070
     1
1070
    44
1040
1.0
1070
    74
1070
     0
1000
MTEXTEND
  0
POINT
  5
160AE
330
13D10
100
AcDbEntity
  8
DEFPOINTS
 62
     0
 48
50.0
100
AcDbPoint
 10
8394.502860906817
 20
9306.365915108528
 30
0.0
  0
POINT
  5
160AF
330
13D10
100
AcDbEntity
  8
DEFPOINTS
 62
     0
 48
50.0
100
AcDbPoint
 10
8394.502860906792
 20
8356.365915108517
 30
0.0
  0
POINT
  5
160B0
330
13D10
100
AcDbEntity
  8
DEFPOINTS
 62
     0
 48
50.0
100
AcDbPoint
 10
9351.040737456905
 20
8356.365915108517
 30
0.0
  0
ENDBLK
  5
13E78
330
13D10
100
AcDbEntity
  8
0
 48
50.0
100
AcDbBlockEnd
  0
BLOCK
  5
13E79
330
13D1C
100
AcDbEntity
  8
0
 48
50.0
100
AcDbBlockBegin
  2
*D8
 70
     1
 10
0.0
 20
0.0
 30
0.0
  3
*D8
  1

  0
LINE
  5
1609D
330
13D1C
100
AcDbEntity
  8
寸法
 62
     0
 48
50.0
370
    -2
100
AcDbLine
 10
8414.502860906818
 20
9306.365915108528
 30
0.0
 11
9101.929206641228
 21
9306.365915108528
 31
0.0
  0
LINE
  5
1609E
330
13D1C
100
AcDbEntity
  8
寸法
 62
     0
 48
50.0
370
    -2
100
AcDbLine
 10
8414.502860906818
 20
9251.365915108532
 30
0.0
 11
9101.929206641228
 21
9251.365915108532
 31
0.0
  0
LINE
  5
1609F
330
13D1C
100
AcDbEntity
  8
寸法
 62
     0
 48
50.0
370
    -2
100
AcDbLine
 10
9041.92920664123
 20
9251.365915108532
 30
0.0
 11
9041.92920664123
 21
9151.365915108533
 31
0.0
  0
LINE
  5
160A0
330
13D1C
100
AcDbEntity
  8
寸法
 62
     0
 48
50.0
370
    -2
100
AcDbLine
 10
9041.92920664123
 20
9306.365915108528
 30
0.0
 11
9041.92920664123
 21
9723.336477857005
 31
0.0
  0
LINE
  5
160A1
330
13D1C
100
AcDbEntity
  8
寸法
 62
     0
 48
50.0
370
    -2
100
AcDbLine
 10
9041.92920664123
 20
9251.365915108532
 30
0.0
 11
9041.92920664123
 21
9306.365915108528
 31
0.0
  0
INSERT
  5
160A2
330
13D1C
100
AcDbEntity
  8
寸法
 62
     0
 48
50.0
370
    -2
100
AcDbBlockReference
  2
_DOTSMALL
 10
9041.92920664123
 20
9251.365915108532
 30
0.0
 41
100.0
 42
100.0
 43
100.0
 50
90.0
  0
INSERT
  5
160A3
330
13D1C
100
AcDbEntity
  8
寸法
 62
     0
 48
50.0
370
    -2
100
AcDbBlockReference
  2
_DOTSMALL
 10
9041.92920664123
 20
9306.365915108528
 30
0.0
 41
100.0
 42
100.0
 43
100.0
 50
270.0
  0
MTEXT
  5
160A4
330
13D1C
100
AcDbEntity
  8
寸法
 62
     7
 48
50.0
100
AcDbMText
 10
8941.929206641226
 20
9614.851196482769
 30
0.0
 40
120.0
 41
0.0
 71
     5
 72
     1
  1
\A1;55
  7
STYLE1
 11
0.0000000000000001
 21
1.0
 31
0.0
 73
     1
 44
1.0
1001
ACAD
1000
MTEXTBEGIN
1070
    73
1070
     1
1070
    44
1040
1.0
1070
    74
1070
     0
1000
MTEXTEND
  0
POINT
  5
160A5
330
13D1C
100
AcDbEntity
  8
DEFPOINTS
 62
     0
 48
50.0
100
AcDbPoint
 10
8394.502860906817
 20
9306.365915108528
 30
0.0
  0
POINT
  5
160A6
330
13D1C
100
AcDbEntity
  8
DEFPOINTS
 62
     0
 48
50.0
100
AcDbPoint
 10
8394.502860906817
 20
9251.365915108532
 30
0.0
  0
POINT
  5
160A7
330
13D1C
100
AcDbEntity
  8
DEFPOINTS
 62
     0
 48
50.0
100
AcDbPoint
 10
9041.92920664123
 20
9251.365915108532
 30
0.0
  0
ENDBLK
  5
13E85
330
13D1C
100
AcDbEntity
  8
0
 48
50.0
100
AcDbBlockEnd
  0
BLOCK
  5
140CC
330
13EC4
100
AcDbEntity
  8
0
 48
50.0
100
AcDbBlockBegin
  2
*D9
 70
     1
 10
0.0
 20
0.0
 30
0.0
  3
*D9
  1

  0
LINE
  5
16094
330
13EC4
100
AcDbEntity
  8
寸法
 62
     0
 48
50.0
370
    -2
100
AcDbLine
 10
6778.643877058127
 20
8806.865915108483
 30
0.0
 11
6709.232413066903
 21
8547.818804865499
 31
0.0
  0
LINE
  5
16095
330
13EC4
100
AcDbEntity
  8
寸法
 62
     0
 48
50.0
370
    -2
100
AcDbLine
 10
7539.643877058139
 20
8806.865915108479
 30
0.0
 11
7470.232413066915
 21
8547.818804865499
 31
0.0
  0
LINE
  5
16096
330
13EC4
100
AcDbEntity
  8
寸法
 62
     0
 48
50.0
370
    -2
100
AcDbLine
 10
6725.309364612771
 20
8607.8188048655
 30
0.0
 11
7486.309364612783
 21
8607.8188048655
 31
0.0
  0
INSERT
  5
16097
330
13EC4
100
AcDbEntity
  8
寸法
 62
     0
 48
50.0
370
    -2
100
AcDbBlockReference
  2
_DOTSMALL
 10
6725.309364612771
 20
8607.8188048655
 30
0.0
 41
100.0
 42
100.0
 43
100.0
 50
180.0
  0
INSERT
  5
16098
330
13EC4
100
AcDbEntity
  8
寸法
 62
     0
 48
50.0
370
    -2
100
AcDbBlockReference
  2
_DOTSMALL
 10
7486.309364612783
 20
8607.8188048655
 30
0.0
 41
100.0
 42
100.0
 43
100.0
  0
MTEXT
  5
16099
330
13EC4
100
AcDbEntity
  8
寸法
 62
     7
 48
50.0
100
AcDbMText
 10
7163.349923025018
 20
8707.8188048655
 30
0.0
 40
120.0
 41
0.0
 71
     5
 72
     1
  1
\A1;761
  7
STYLE1
 73
     1
 44
1.0
1001
ACAD
1000
MTEXTBEGIN
1070
    73
1070
     1
1070
    44
1040
1.0
1070
    74
1070
     0
1000
MTEXTEND
  0
POINT
  5
1609A
330
13EC4
100
AcDbEntity
  8
DEFPOINTS
 62
     0
 48
50.0
100
AcDbPoint
 10
6784.00286090675
 20
8826.865915108482
 30
0.0
  0
POINT
  5
1609B
330
13EC4
100
AcDbEntity
  8
DEFPOINTS
 62
     0
 48
50.0
100
AcDbPoint
 10
7545.002860906762
 20
8826.865915108479
 30
0.0
  0
POINT
  5
1609C
330
13EC4
100
AcDbEntity
  8
DEFPOINTS
 62
     0
 48
50.0
100
AcDbPoint
 10
7486.309364612783
 20
8607.8188048655
 30
0.0
  0
ENDBLK
  5
140D6
330
13EC4
100
AcDbEntity
  8
0
 48
50.0
100
AcDbBlockEnd
  0
BLOCK
  5
140C1
330
13ED0
100
AcDbEntity
  8
0
 48
50.0
100
AcDbBlockBegin
  2
*D10
 70
     1
 10
0.0
 20
0.0
 30
0.0
  3
*D10
  1

  0
LINE
  5
1608B
330
13ED0
100
AcDbEntity
  8
寸法
 62
     0
 48
50.0
370
    -2
100
AcDbLine
 10
5958.643883735827
 20
8806.865915108437
 30
0.0
 11
5889.232419744602
 21
8547.818804865455
 31
0.0
  0
LINE
  5
1608C
330
13ED0
100
AcDbEntity
  8
寸法
 62
     0
 48
50.0
370
    -2
100
AcDbLine
 10
6719.643883735838
 20
8806.865915108435
 30
0.0
 11
6650.232419744615
 21
8547.818804865455
 31
0.0
  0
LINE
  5
1608D
330
13ED0
100
AcDbEntity
  8
寸法
 62
     0
 48
50.0
370
    -2
100
AcDbLine
 10
5905.309371290471
 20
8607.818804865454
 30
0.0
 11
6666.309371290482
 21
8607.818804865454
 31
0.0
  0
INSERT
  5
1608E
330
13ED0
100
AcDbEntity
  8
寸法
 62
     0
 48
50.0
370
    -2
100
AcDbBlockReference
  2
_DOTSMALL
 10
5905.309371290471
 20
8607.818804865454
 30
0.0
 41
100.0
 42
100.0
 43
100.0
 50
180.0
  0
INSERT
  5
1608F
330
13ED0
100
AcDbEntity
  8
寸法
 62
     0
 48
50.0
370
    -2
100
AcDbBlockReference
  2
_DOTSMALL
 10
6666.309371290482
 20
8607.818804865454
 30
0.0
 41
100.0
 42
100.0
 43
100.0
  0
MTEXT
  5
16090
330
13ED0
100
AcDbEntity
  8
寸法
 62
     7
 48
50.0
100
AcDbMText
 10
6285.809371290477
 20
8707.818804865453
 30
0.0
 40
120.0
 41
0.0
 71
     5
 72
     1
  1
\A1;761
  7
STYLE1
 73
     1
 44
1.0
1001
ACAD
1000
MTEXTBEGIN
1070
    73
1070
     1
1070
    44
1040
1.0
1070
    74
1070
     0
1000
MTEXTEND
  0
POINT
  5
16091
330
13ED0
100
AcDbEntity
  8
DEFPOINTS
 62
     0
 48
50.0
100
AcDbPoint
 10
5964.002867584449
 20
8826.865915108438
 30
0.0
  0
POINT
  5
16092
330
13ED0
100
AcDbEntity
  8
DEFPOINTS
 62
     0
 48
50.0
100
AcDbPoint
 10
6725.002867584461
 20
8826.865915108433
 30
0.0
  0
POINT
  5
16093
330
13ED0
100
AcDbEntity
  8
DEFPOINTS
 62
     0
 48
50.0
100
AcDbPoint
 10
6666.309371290482
 20
8607.818804865454
 30
0.0
  0
ENDBLK
  5
140CB
330
13ED0
100
AcDbEntity
  8
0
 48
50.0
100
AcDbBlockEnd
  0
BLOCK
  5
13EDD
330
13EDC
100
AcDbEntity
  8
0
 48
50.0
100
AcDbBlockBegin
  2
*D11
 70
     1
 10
0.0
 20
0.0
 30
0.0
  3
*D11
  1

  0
LINE
  5
16082
330
13EDC
100
AcDbEntity
  8
寸法
 62
     0
 48
50.0
370
    -2
100
AcDbLine
 10
8385.00286090675
 20
9271.506931259853
 30
0.0
 11
8780.360586768775
 21
9165.57114789372
 31
0.0
  0
LINE
  5
16083
330
13EDC
100
AcDbEntity
  8
寸法
 62
     0
 48
50.0
370
    -2
100
AcDbLine
 10
8385.00286090675
 20
8821.506931259852
 30
0.0
 11
8780.360586768775
 21
8715.571147893719
 31
0.0
  0
LINE
  5
16084
330
13EDC
100
AcDbEntity
  8
寸法
 62
     0
 48
50.0
370
    -2
100
AcDbLine
 10
8720.360586768775
 20
9181.648099439586
 30
0.0
 11
8720.360586768775
 21
8731.648099439587
 31
0.0
  0
INSERT
  5
16085
330
13EDC
100
AcDbEntity
  8
寸法
 62
     0
 48
50.0
370
    -2
100
AcDbBlockReference
  2
_DOTSMALL
 10
8720.360586768775
 20
9181.648099439586
 30
0.0
 41
100.0
 42
100.0
 43
100.0
 50
90.0
  0
INSERT
  5
16086
330
13EDC
100
AcDbEntity
  8
寸法
 62
     0
 48
50.0
370
    -2
100
AcDbBlockReference
  2
_DOTSMALL
 10
8720.360586768775
 20
8731.648099439587
 30
0.0
 41
100.0
 42
100.0
 43
100.0
 50
270.0
  0
MTEXT
  5
16087
330
13EDC
100
AcDbEntity
  8
寸法
 62
     7
 48
50.0
100
AcDbMText
 10
8620.360586768773
 20
8956.648099439588
 30
0.0
 40
120.0
 41
0.0
 71
     5
 72
     1
  1
\A1;450
  7
STYLE1
 11
0.0000000000000001
 21
1.0
 31
0.0
 73
     1
 44
1.0
1001
ACAD
1000
MTEXTBEGIN
1070
    73
1070
     1
1070
    44
1040
1.0
1070
    74
1070
     0
1000
MTEXTEND
  0
POINT
  5
16088
330
13EDC
100
AcDbEntity
  8
DEFPOINTS
 62
     0
 48
50.0
100
AcDbPoint
 10
8365.00286090675
 20
9276.865915108476
 30
0.0
  0
POINT
  5
16089
330
13EDC
100
AcDbEntity
  8
DEFPOINTS
 62
     0
 48
50.0
100
AcDbPoint
 10
8365.00286090675
 20
8826.865915108475
 30
0.0
  0
POINT
  5
1608A
330
13EDC
100
AcDbEntity
  8
DEFPOINTS
 62
     0
 48
50.0
100
AcDbPoint
 10
8720.360586768775
 20
8731.648099439587
 30
0.0
  0
ENDBLK
  5
13EE7
330
13EDC
100
AcDbEntity
  8
0
 48
50.0
100
AcDbBlockEnd
  0
BLOCK
  5
146AB
330
1453A
100
AcDbEntity
  8
0
 48
50.0
100
AcDbBlockBegin
  2
*D12
 70
     1
 10
0.0
 20
0.0
 30
0.0
  3
*D12
  1

  0
LINE
  5
16077
330
1453A
100
AcDbEntity
  8
寸法
 62
     0
 48
50.0
370
    -2
100
AcDbLine
 10
6699.502860906815
 20
9326.365915108555
 30
0.0
 11
6699.502860906815
 21
9582.174134733532
 31
0.0
  0
LINE
  5
16078
330
1453A
100
AcDbEntity
  8
寸法
 62
     0
 48
50.0
370
    -2
100
AcDbLine
 10
6809.502860906819
 20
9326.365915108532
 30
0.0
 11
6809.502860906819
 21
9582.174134733532
 31
0.0
  0
LINE
  5
16079
330
1453A
100
AcDbEntity
  8
寸法
 62
     0
 48
50.0
370
    -2
100
AcDbLine
 10
6699.502860906815
 20
9522.174134733532
 30
0.0
 11
6599.502860906816
 21
9522.174134733532
 31
0.0
  0
LINE
  5
1607A
330
1453A
100
AcDbEntity
  8
寸法
 62
     0
 48
50.0
370
    -2
100
AcDbLine
 10
6809.502860906819
 20
9522.174134733532
 30
0.0
 11
6909.502860906819
 21
9522.174134733532
 31
0.0
  0
LINE
  5
1607B
330
1453A
100
AcDbEntity
  8
寸法
 62
     0
 48
50.0
370
    -2
100
AcDbLine
 10
6699.502860906815
 20
9522.174134733532
 30
0.0
 11
6809.502860906819
 21
9522.174134733532
 31
0.0
  0
INSERT
  5
1607C
330
1453A
100
AcDbEntity
  8
寸法
 62
     0
 48
50.0
370
    -2
100
AcDbBlockReference
  2
_DOTSMALL
 10
6699.502860906815
 20
9522.174134733532
 30
0.0
 41
100.0
 42
100.0
 43
100.0
  0
INSERT
  5
1607D
330
1453A
100
AcDbEntity
  8
寸法
 62
     0
 48
50.0
370
    -2
100
AcDbBlockReference
  2
_DOTSMALL
 10
6809.502860906819
 20
9522.174134733532
 30
0.0
 41
100.0
 42
100.0
 43
100.0
 50
180.0
  0
MTEXT
  5
1607E
330
1453A
100
AcDbEntity
  8
寸法
 62
     7
 48
50.0
100
AcDbMText
 10
6754.502860906818
 20
9622.174134733533
 30
0.0
 40
120.0
 41
0.0
 71
     5
 72
     1
  1
\A1;110
  7
STYLE1
 73
     1
 44
1.0
1001
ACAD
1000
MTEXTBEGIN
1070
    73
1070
     1
1070
    44
1040
1.0
1070
    74
1070
     0
1000
MTEXTEND
  0
POINT
  5
1607F
330
1453A
100
AcDbEntity
  8
DEFPOINTS
 62
     0
 48
50.0
100
AcDbPoint
 10
6699.502860906815
 20
9306.365915108555
 30
0.0
  0
POINT
  5
16080
330
1453A
100
AcDbEntity
  8
DEFPOINTS
 62
     0
 48
50.0
100
AcDbPoint
 10
6809.502860906819
 20
9306.365915108532
 30
0.0
  0
POINT
  5
16081
330
1453A
100
AcDbEntity
  8
DEFPOINTS
 62
     0
 48
50.0
100
AcDbPoint
 10
6809.502860906819
 20
9522.174134733532
 30
0.0
  0
ENDBLK
  5
146B7
330
1453A
100
AcDbEntity
  8
0
 48
50.0
100
AcDbBlockEnd
  0
BLOCK
  5
146A0
330
14556
100
AcDbEntity
  8
0
 48
50.0
100
AcDbBlockBegin
  2
*D13
 70
     1
 10
0.0
 20
0.0
 30
0.0
  3
*D13
  1

  0
LINE
  5
1606E
330
14556
100
AcDbEntity
  8
寸法
 62
     0
 48
50.0
370
    -2
100
AcDbLine
 10
7519.502860906817
 20
9326.365915108546
 30
0.0
 11
7519.502860906817
 21
9582.174134733532
 31
0.0
  0
LINE
  5
1606F
330
14556
100
AcDbEntity
  8
寸法
 62
     0
 48
50.0
370
    -2
100
AcDbLine
 10
6809.502860906819
 20
9326.365915108532
 30
0.0
 11
6809.502860906819
 21
9582.174134733532
 31
0.0
  0
LINE
  5
16070
330
14556
100
AcDbEntity
  8
寸法
 62
     0
 48
50.0
370
    -2
100
AcDbLine
 10
7519.502860906817
 20
9522.174134733532
 30
0.0
 11
6809.502860906819
 21
9522.174134733532
 31
0.0
  0
INSERT
  5
16071
330
14556
100
AcDbEntity
  8
寸法
 62
     0
 48
50.0
370
    -2
100
AcDbBlockReference
  2
_DOTSMALL
 10
7519.502860906817
 20
9522.174134733532
 30
0.0
 41
100.0
 42
100.0
 43
100.0
  0
INSERT
  5
16072
330
14556
100
AcDbEntity
  8
寸法
 62
     0
 48
50.0
370
    -2
100
AcDbBlockReference
  2
_DOTSMALL
 10
6809.502860906819
 20
9522.174134733532
 30
0.0
 41
100.0
 42
100.0
 43
100.0
 50
180.0
  0
MTEXT
  5
16073
330
14556
100
AcDbEntity
  8
寸法
 62
     7
 48
50.0
100
AcDbMText
 10
7164.502860906819
 20
9622.174134733533
 30
0.0
 40
120.0
 41
0.0
 71
     5
 72
     1
  1
\A1;710
  7
STYLE1
 73
     1
 44
1.0
1001
ACAD
1000
MTEXTBEGIN
1070
    73
1070
     1
1070
    44
1040
1.0
1070
    74
1070
     0
1000
MTEXTEND
  0
POINT
  5
16074
330
14556
100
AcDbEntity
  8
DEFPOINTS
 62
     0
 48
50.0
100
AcDbPoint
 10
7519.502860906817
 20
9306.365915108548
 30
0.0
  0
POINT
  5
16075
330
14556
100
AcDbEntity
  8
DEFPOINTS
 62
     0
 48
50.0
100
AcDbPoint
 10
6809.502860906819
 20
9306.365915108532
 30
0.0
  0
POINT
  5
16076
330
14556
100
AcDbEntity
  8
DEFPOINTS
 62
     0
 48
50.0
100
AcDbPoint
 10
6809.502860906819
 20
9522.174134733532
 30
0.0
  0
ENDBLK
  5
146AA
330
14556
100
AcDbEntity
  8
0
 48
50.0
100
AcDbBlockEnd
  0
BLOCK
  5
1472B
330
14610
100
AcDbEntity
  8
0
 48
50.0
100
AcDbBlockBegin
  2
*D14
 70
     1
 10
0.0
 20
0.0
 30
0.0
  3
*D14
  1

  0
LINE
  5
16065
330
14610
100
AcDbEntity
  8
寸法
 62
     0
 48
50.0
370
    -2
100
AcDbLine
 10
6809.502860906814
 20
8336.365915108471
 30
0.0
 11
6809.502860906814
 21
7856.542247313349
 31
0.0
  0
LINE
  5
16066
330
14610
100
AcDbEntity
  8
寸法
 62
     0
 48
50.0
370
    -2
100
AcDbLine
 10
7494.50286090681
 20
8336.365915108626
 30
0.0
 11
7494.50286090681
 21
7856.542247313349
 31
0.0
  0
LINE
  5
16067
330
14610
100
AcDbEntity
  8
寸法
 62
     0
 48
50.0
370
    -2
100
AcDbLine
 10
6809.502860906814
 20
7916.542247313349
 30
0.0
 11
7494.50286090681
 21
7916.542247313349
 31
0.0
  0
INSERT
  5
16068
330
14610
100
AcDbEntity
  8
寸法
 62
     0
 48
50.0
370
    -2
100
AcDbBlockReference
  2
_DOTSMALL
 10
6809.502860906814
 20
7916.542247313349
 30
0.0
 41
100.0
 42
100.0
 43
100.0
 50
180.0
  0
INSERT
  5
16069
330
14610
100
AcDbEntity
  8
寸法
 62
     0
 48
50.0
370
    -2
100
AcDbBlockReference
  2
_DOTSMALL
 10
7494.50286090681
 20
7916.542247313349
 30
0.0
 41
100.0
 42
100.0
 43
100.0
  0
MTEXT
  5
1606A
330
14610
100
AcDbEntity
  8
寸法
 62
     7
 48
50.0
100
AcDbMText
 10
7152.002860906812
 20
8016.542247313349
 30
0.0
 40
120.0
 41
0.0
 71
     5
 72
     1
  1
\A1;685
  7
STYLE1
 73
     1
 44
1.0
1001
ACAD
1000
MTEXTBEGIN
1070
    73
1070
     1
1070
    44
1040
1.0
1070
    74
1070
     0
1000
MTEXTEND
  0
POINT
  5
1606B
330
14610
100
AcDbEntity
  8
DEFPOINTS
 62
     0
 48
50.0
100
AcDbPoint
 10
6809.502860906814
 20
8356.365915108472
 30
0.0
  0
POINT
  5
1606C
330
14610
100
AcDbEntity
  8
DEFPOINTS
 62
     0
 48
50.0
100
AcDbPoint
 10
7494.50286090681
 20
8356.365915108625
 30
0.0
  0
POINT
  5
1606D
330
14610
100
AcDbEntity
  8
DEFPOINTS
 62
     0
 48
50.0
100
AcDbPoint
 10
7494.50286090681
 20
7916.542247313349
 30
0.0
  0
ENDBLK
  5
14735
330
14610
100
AcDbEntity
  8
0
 48
50.0
100
AcDbBlockEnd
  0
BLOCK
  5
149CA
330
149C9
100
AcDbEntity
  8
0
 48
50.0
100
AcDbBlockBegin
  2
*D15
 70
     1
 10
0.0
 20
0.0
 30
0.0
  3
*D15
  1

  0
LINE
  5
1602D
330
149C9
100
AcDbEntity
  8
寸法
 62
     0
 48
50.0
370
    -2
100
AcDbLine
 10
3529.502860906817
 20
9326.365915108434
 30
0.0
 11
3529.502860906817
 21
9582.174134733532
 31
0.0
  0
LINE
  5
1602E
330
149C9
100
AcDbEntity
  8
寸法
 62
     0
 48
50.0
370
    -2
100
AcDbLine
 10
4239.502860906815
 20
9326.365915108555
 30
0.0
 11
4239.502860906815
 21
9582.174134733532
 31
0.0
  0
LINE
  5
1602F
330
149C9
100
AcDbEntity
  8
寸法
 62
     0
 48
50.0
370
    -2
100
AcDbLine
 10
3529.502860906817
 20
9522.174134733532
 30
0.0
 11
4239.502860906815
 21
9522.174134733532
 31
0.0
  0
INSERT
  5
16030
330
149C9
100
AcDbEntity
  8
寸法
 62
     0
 48
50.0
370
    -2
100
AcDbBlockReference
  2
_DOTSMALL
 10
3529.502860906817
 20
9522.174134733532
 30
0.0
 41
100.0
 42
100.0
 43
100.0
 50
180.0
  0
INSERT
  5
16031
330
149C9
100
AcDbEntity
  8
寸法
 62
     0
 48
50.0
370
    -2
100
AcDbBlockReference
  2
_DOTSMALL
 10
4239.502860906815
 20
9522.174134733532
 30
0.0
 41
100.0
 42
100.0
 43
100.0
  0
MTEXT
  5
16032
330
149C9
100
AcDbEntity
  8
寸法
 62
     7
 48
50.0
100
AcDbMText
 10
3884.752860906816
 20
9622.174134733533
 30
0.0
 40
120.0
 41
0.0
 71
     5
 72
     1
  1
\A1;710
  7
STYLE1
 73
     1
 44
1.0
1001
ACAD
1000
MTEXTBEGIN
1070
    73
1070
     1
1070
    44
1040
1.0
1070
    74
1070
     0
1000
MTEXTEND
  0
POINT
  5
16033
330
149C9
100
AcDbEntity
  8
DEFPOINTS
 62
     0
 48
50.0
100
AcDbPoint
 10
3529.502860906817
 20
9306.365915108434
 30
0.0
  0
POINT
  5
16034
330
149C9
100
AcDbEntity
  8
DEFPOINTS
 62
     0
 48
50.0
100
AcDbPoint
 10
4239.502860906815
 20
9306.365915108555
 30
0.0
  0
POINT
  5
16035
330
149C9
100
AcDbEntity
  8
DEFPOINTS
 62
     0
 48
50.0
100
AcDbPoint
 10
4239.502860906815
 20
9522.174134733532
 30
0.0
  0
ENDBLK
  5
149D4
330
149C9
100
AcDbEntity
  8
0
 48
50.0
100
AcDbBlockEnd
  0
BLOCK
  5
149D6
330
149D5
100
AcDbEntity
  8
0
 48
50.0
100
AcDbBlockBegin
  2
*D16
 70
     1
 10
0.0
 20
0.0
 30
0.0
  3
*D16
  1

  0
LINE
  5
16053
330
149D5
100
AcDbEntity
  8
寸法
 62
     0
 48
50.0
370
    -2
100
AcDbLine
 10
5138.643877058127
 20
8806.865915108483
 30
0.0
 11
5069.232413066902
 21
8547.818804865499
 31
0.0
  0
LINE
  5
16054
330
149D5
100
AcDbEntity
  8
寸法
 62
     0
 48
50.0
370
    -2
100
AcDbLine
 10
5899.643877058139
 20
8806.865915108479
 30
0.0
 11
5830.232413066916
 21
8547.818804865499
 31
0.0
  0
LINE
  5
16055
330
149D5
100
AcDbEntity
  8
寸法
 62
     0
 48
50.0
370
    -2
100
AcDbLine
 10
5085.309364612771
 20
8607.8188048655
 30
0.0
 11
5846.309364612784
 21
8607.8188048655
 31
0.0
  0
INSERT
  5
16056
330
149D5
100
AcDbEntity
  8
寸法
 62
     0
 48
50.0
370
    -2
100
AcDbBlockReference
  2
_DOTSMALL
 10
5085.309364612771
 20
8607.8188048655
 30
0.0
 41
100.0
 42
100.0
 43
100.0
 50
180.0
  0
INSERT
  5
16057
330
149D5
100
AcDbEntity
  8
寸法
 62
     0
 48
50.0
370
    -2
100
AcDbBlockReference
  2
_DOTSMALL
 10
5846.309364612784
 20
8607.8188048655
 30
0.0
 41
100.0
 42
100.0
 43
100.0
  0
MTEXT
  5
16058
330
149D5
100
AcDbEntity
  8
寸法
 62
     7
 48
50.0
100
AcDbMText
 10
5523.349923025018
 20
8707.8188048655
 30
0.0
 40
120.0
 41
0.0
 71
     5
 72
     1
  1
\A1;761
  7
STYLE1
 73
     1
 44
1.0
1001
ACAD
1000
MTEXTBEGIN
1070
    73
1070
     1
1070
    44
1040
1.0
1070
    74
1070
     0
1000
MTEXTEND
  0
POINT
  5
16059
330
149D5
100
AcDbEntity
  8
DEFPOINTS
 62
     0
 48
50.0
100
AcDbPoint
 10
5144.002860906749
 20
8826.865915108482
 30
0.0
  0
POINT
  5
1605A
330
149D5
100
AcDbEntity
  8
DEFPOINTS
 62
     0
 48
50.0
100
AcDbPoint
 10
5905.002860906762
 20
8826.865915108479
 30
0.0
  0
POINT
  5
1605B
330
149D5
100
AcDbEntity
  8
DEFPOINTS
 62
     0
 48
50.0
100
AcDbPoint
 10
5846.309364612784
 20
8607.8188048655
 30
0.0
  0
ENDBLK
  5
149E0
330
149D5
100
AcDbEntity
  8
0
 48
50.0
100
AcDbBlockEnd
  0
BLOCK
  5
149E2
330
149E1
100
AcDbEntity
  8
0
 48
50.0
100
AcDbBlockBegin
  2
*D17
 70
     1
 10
0.0
 20
0.0
 30
0.0
  3
*D17
  1

  0
LINE
  5
1605C
330
149E1
100
AcDbEntity
  8
寸法
 62
     0
 48
50.0
370
    -2
100
AcDbLine
 10
3498.643883735827
 20
8806.865915108437
 30
0.0
 11
3429.232419744602
 21
8547.818804865455
 31
0.0
  0
LINE
  5
1605D
330
149E1
100
AcDbEntity
  8
寸法
 62
     0
 48
50.0
370
    -2
100
AcDbLine
 10
4259.643883735838
 20
8806.865915108435
 30
0.0
 11
4190.232419744615
 21
8547.818804865455
 31
0.0
  0
LINE
  5
1605E
330
149E1
100
AcDbEntity
  8
寸法
 62
     0
 48
50.0
370
    -2
100
AcDbLine
 10
3445.30937129047
 20
8607.818804865454
 30
0.0
 11
4206.309371290482
 21
8607.818804865454
 31
0.0
  0
INSERT
  5
1605F
330
149E1
100
AcDbEntity
  8
寸法
 62
     0
 48
50.0
370
    -2
100
AcDbBlockReference
  2
_DOTSMALL
 10
3445.30937129047
 20
8607.818804865454
 30
0.0
 41
100.0
 42
100.0
 43
100.0
 50
180.0
  0
INSERT
  5
16060
330
149E1
100
AcDbEntity
  8
寸法
 62
     0
 48
50.0
370
    -2
100
AcDbBlockReference
  2
_DOTSMALL
 10
4206.309371290482
 20
8607.818804865454
 30
0.0
 41
100.0
 42
100.0
 43
100.0
  0
MTEXT
  5
16061
330
149E1
100
AcDbEntity
  8
寸法
 62
     7
 48
50.0
100
AcDbMText
 10
3825.809371290477
 20
8707.818804865453
 30
0.0
 40
120.0
 41
0.0
 71
     5
 72
     1
  1
\A1;761
  7
STYLE1
 73
     1
 44
1.0
1001
ACAD
1000
MTEXTBEGIN
1070
    73
1070
     1
1070
    44
1040
1.0
1070
    74
1070
     0
1000
MTEXTEND
  0
POINT
  5
16062
330
149E1
100
AcDbEntity
  8
DEFPOINTS
 62
     0
 48
50.0
100
AcDbPoint
 10
3504.002867584449
 20
8826.865915108438
 30
0.0
  0
POINT
  5
16063
330
149E1
100
AcDbEntity
  8
DEFPOINTS
 62
     0
 48
50.0
100
AcDbPoint
 10
4265.002867584461
 20
8826.865915108433
 30
0.0
  0
POINT
  5
16064
330
149E1
100
AcDbEntity
  8
DEFPOINTS
 62
     0
 48
50.0
100
AcDbPoint
 10
4206.309371290482
 20
8607.818804865454
 30
0.0
  0
ENDBLK
  5
149EC
330
149E1
100
AcDbEntity
  8
0
 48
50.0
100
AcDbBlockEnd
  0
BLOCK
  5
149EE
330
149ED
100
AcDbEntity
  8
0
 48
50.0
100
AcDbBlockBegin
  2
*D18
 70
     1
 10
0.0
 20
0.0
 30
0.0
  3
*D18
  1

  0
LINE
  5
16036
330
149ED
100
AcDbEntity
  8
寸法
 62
     0
 48
50.0
370
    -2
100
AcDbLine
 10
4239.502860906815
 20
9326.365915108555
 30
0.0
 11
4239.502860906815
 21
9582.174134733532
 31
0.0
  0
LINE
  5
16037
330
149ED
100
AcDbEntity
  8
寸法
 62
     0
 48
50.0
370
    -2
100
AcDbLine
 10
4349.502860906819
 20
9326.365915108532
 30
0.0
 11
4349.502860906819
 21
9582.174134733532
 31
0.0
  0
LINE
  5
16038
330
149ED
100
AcDbEntity
  8
寸法
 62
     0
 48
50.0
370
    -2
100
AcDbLine
 10
4239.502860906815
 20
9522.174134733532
 30
0.0
 11
4139.502860906815
 21
9522.174134733532
 31
0.0
  0
LINE
  5
16039
330
149ED
100
AcDbEntity
  8
寸法
 62
     0
 48
50.0
370
    -2
100
AcDbLine
 10
4349.502860906819
 20
9522.174134733532
 30
0.0
 11
4449.502860906819
 21
9522.174134733532
 31
0.0
  0
LINE
  5
1603A
330
149ED
100
AcDbEntity
  8
寸法
 62
     0
 48
50.0
370
    -2
100
AcDbLine
 10
4239.502860906815
 20
9522.174134733532
 30
0.0
 11
4349.502860906819
 21
9522.174134733532
 31
0.0
  0
INSERT
  5
1603B
330
149ED
100
AcDbEntity
  8
寸法
 62
     0
 48
50.0
370
    -2
100
AcDbBlockReference
  2
_DOTSMALL
 10
4239.502860906815
 20
9522.174134733532
 30
0.0
 41
100.0
 42
100.0
 43
100.0
  0
INSERT
  5
1603C
330
149ED
100
AcDbEntity
  8
寸法
 62
     0
 48
50.0
370
    -2
100
AcDbBlockReference
  2
_DOTSMALL
 10
4349.502860906819
 20
9522.174134733532
 30
0.0
 41
100.0
 42
100.0
 43
100.0
 50
180.0
  0
MTEXT
  5
1603D
330
149ED
100
AcDbEntity
  8
寸法
 62
     7
 48
50.0
100
AcDbMText
 10
4294.502860906817
 20
9622.174134733533
 30
0.0
 40
120.0
 41
0.0
 71
     5
 72
     1
  1
\A1;110
  7
STYLE1
 73
     1
 44
1.0
1001
ACAD
1000
MTEXTBEGIN
1070
    73
1070
     1
1070
    44
1040
1.0
1070
    74
1070
     0
1000
MTEXTEND
  0
POINT
  5
1603E
330
149ED
100
AcDbEntity
  8
DEFPOINTS
 62
     0
 48
50.0
100
AcDbPoint
 10
4239.502860906815
 20
9306.365915108555
 30
0.0
  0
POINT
  5
1603F
330
149ED
100
AcDbEntity
  8
DEFPOINTS
 62
     0
 48
50.0
100
AcDbPoint
 10
4349.502860906819
 20
9306.365915108532
 30
0.0
  0
POINT
  5
16040
330
149ED
100
AcDbEntity
  8
DEFPOINTS
 62
     0
 48
50.0
100
AcDbPoint
 10
4349.502860906819
 20
9522.174134733532
 30
0.0
  0
ENDBLK
  5
149FA
330
149ED
100
AcDbEntity
  8
0
 48
50.0
100
AcDbBlockEnd
  0
BLOCK
  5
149FC
330
149FB
100
AcDbEntity
  8
0
 48
50.0
100
AcDbBlockBegin
  2
*D19
 70
     1
 10
0.0
 20
0.0
 30
0.0
  3
*D19
  1

  0
LINE
  5
16041
330
149FB
100
AcDbEntity
  8
寸法
 62
     0
 48
50.0
370
    -2
100
AcDbLine
 10
5879.502860906818
 20
9326.365915108546
 30
0.0
 11
5879.502860906818
 21
9582.174134733532
 31
0.0
  0
LINE
  5
16042
330
149FB
100
AcDbEntity
  8
寸法
 62
     0
 48
50.0
370
    -2
100
AcDbLine
 10
5169.50286090682
 20
9326.365915108532
 30
0.0
 11
5169.50286090682
 21
9582.174134733532
 31
0.0
  0
LINE
  5
16043
330
149FB
100
AcDbEntity
  8
寸法
 62
     0
 48
50.0
370
    -2
100
AcDbLine
 10
5879.502860906818
 20
9522.174134733532
 30
0.0
 11
5169.50286090682
 21
9522.174134733532
 31
0.0
  0
INSERT
  5
16044
330
149FB
100
AcDbEntity
  8
寸法
 62
     0
 48
50.0
370
    -2
100
AcDbBlockReference
  2
_DOTSMALL
 10
5879.502860906818
 20
9522.174134733532
 30
0.0
 41
100.0
 42
100.0
 43
100.0
  0
INSERT
  5
16045
330
149FB
100
AcDbEntity
  8
寸法
 62
     0
 48
50.0
370
    -2
100
AcDbBlockReference
  2
_DOTSMALL
 10
5169.50286090682
 20
9522.174134733532
 30
0.0
 41
100.0
 42
100.0
 43
100.0
 50
180.0
  0
MTEXT
  5
16046
330
149FB
100
AcDbEntity
  8
寸法
 62
     7
 48
50.0
100
AcDbMText
 10
5524.502860906818
 20
9622.174134733533
 30
0.0
 40
120.0
 41
0.0
 71
     5
 72
     1
  1
\A1;710
  7
STYLE1
 73
     1
 44
1.0
1001
ACAD
1000
MTEXTBEGIN
1070
    73
1070
     1
1070
    44
1040
1.0
1070
    74
1070
     0
1000
MTEXTEND
  0
POINT
  5
16047
330
149FB
100
AcDbEntity
  8
DEFPOINTS
 62
     0
 48
50.0
100
AcDbPoint
 10
5879.502860906818
 20
9306.365915108548
 30
0.0
  0
POINT
  5
16048
330
149FB
100
AcDbEntity
  8
DEFPOINTS
 62
     0
 48
50.0
100
AcDbPoint
 10
5169.50286090682
 20
9306.365915108532
 30
0.0
  0
POINT
  5
16049
330
149FB
100
AcDbEntity
  8
DEFPOINTS
 62
     0
 48
50.0
100
AcDbPoint
 10
5169.50286090682
 20
9522.174134733532
 30
0.0
  0
ENDBLK
  5
14A06
330
149FB
100
AcDbEntity
  8
0
 48
50.0
100
AcDbBlockEnd
  0
BLOCK
  5
14A08
330
14A07
100
AcDbEntity
  8
0
 48
50.0
100
AcDbBlockBegin
  2
*D20
 70
     1
 10
0.0
 20
0.0
 30
0.0
  3
*D20
  1

  0
LINE
  5
1604A
330
14A07
100
AcDbEntity
  8
寸法
 62
     0
 48
50.0
370
    -2
100
AcDbLine
 10
5169.502860906813
 20
8336.365915108471
 30
0.0
 11
5169.502860906813
 21
7856.542247313349
 31
0.0
  0
LINE
  5
1604B
330
14A07
100
AcDbEntity
  8
寸法
 62
     0
 48
50.0
370
    -2
100
AcDbLine
 10
5854.50286090681
 20
8336.365915108626
 30
0.0
 11
5854.50286090681
 21
7856.542247313349
 31
0.0
  0
LINE
  5
1604C
330
14A07
100
AcDbEntity
  8
寸法
 62
     0
 48
50.0
370
    -2
100
AcDbLine
 10
5169.502860906813
 20
7916.542247313349
 30
0.0
 11
5854.50286090681
 21
7916.542247313349
 31
0.0
  0
INSERT
  5
1604D
330
14A07
100
AcDbEntity
  8
寸法
 62
     0
 48
50.0
370
    -2
100
AcDbBlockReference
  2
_DOTSMALL
 10
5169.502860906813
 20
7916.542247313349
 30
0.0
 41
100.0
 42
100.0
 43
100.0
 50
180.0
  0
INSERT
  5
1604E
330
14A07
100
AcDbEntity
  8
寸法
 62
     0
 48
50.0
370
    -2
100
AcDbBlockReference
  2
_DOTSMALL
 10
5854.50286090681
 20
7916.542247313349
 30
0.0
 41
100.0
 42
100.0
 43
100.0
  0
MTEXT
  5
1604F
330
14A07
100
AcDbEntity
  8
寸法
 62
     7
 48
50.0
100
AcDbMText
 10
5512.002860906812
 20
8016.542247313349
 30
0.0
 40
120.0
 41
0.0
 71
     5
 72
     1
  1
\A1;685
  7
STYLE1
 73
     1
 44
1.0
1001
ACAD
1000
MTEXTBEGIN
1070
    73
1070
     1
1070
    44
1040
1.0
1070
    74
1070
     0
1000
MTEXTEND
  0
POINT
  5
16050
330
14A07
100
AcDbEntity
  8
DEFPOINTS
 62
     0
 48
50.0
100
AcDbPoint
 10
5169.502860906813
 20
8356.365915108472
 30
0.0
  0
POINT
  5
16051
330
14A07
100
AcDbEntity
  8
DEFPOINTS
 62
     0
 48
50.0
100
AcDbPoint
 10
5854.50286090681
 20
8356.365915108625
 30
0.0
  0
POINT
  5
16052
330
14A07
100
AcDbEntity
  8
DEFPOINTS
 62
     0
 48
50.0
100
AcDbPoint
 10
5854.50286090681
 20
7916.542247313349
 30
0.0
  0
ENDBLK
  5
14A12
330
14A07
100
AcDbEntity
  8
0
 48
50.0
100
AcDbBlockEnd
  0
BLOCK
  5
14A15
330
14A14
100
AcDbEntity
  8
0
 48
50.0
100
AcDbBlockBegin
  2
*D21
 70
     1
 10
0.0
 20
0.0
 30
0.0
  3
*D21
  1

  0
LINE
  5
16022
330
14A14
100
AcDbEntity
  8
寸法
 62
     0
 48
50.0
370
    -2
100
AcDbLine
 10
5879.502860906816
 20
9326.365915108555
 30
0.0
 11
5879.502860906816
 21
9582.174134733532
 31
0.0
  0
LINE
  5
16023
330
14A14
100
AcDbEntity
  8
寸法
 62
     0
 48
50.0
370
    -2
100
AcDbLine
 10
5989.50286090682
 20
9326.365915108532
 30
0.0
 11
5989.50286090682
 21
9582.174134733532
 31
0.0
  0
LINE
  5
16024
330
14A14
100
AcDbEntity
  8
寸法
 62
     0
 48
50.0
370
    -2
100
AcDbLine
 10
5879.502860906816
 20
9522.174134733532
 30
0.0
 11
5779.502860906816
 21
9522.174134733532
 31
0.0
  0
LINE
  5
16025
330
14A14
100
AcDbEntity
  8
寸法
 62
     0
 48
50.0
370
    -2
100
AcDbLine
 10
5989.50286090682
 20
9522.174134733532
 30
0.0
 11
6089.50286090682
 21
9522.174134733532
 31
0.0
  0
LINE
  5
16026
330
14A14
100
AcDbEntity
  8
寸法
 62
     0
 48
50.0
370
    -2
100
AcDbLine
 10
5879.502860906816
 20
9522.174134733532
 30
0.0
 11
5989.50286090682
 21
9522.174134733532
 31
0.0
  0
INSERT
  5
16027
330
14A14
100
AcDbEntity
  8
寸法
 62
     0
 48
50.0
370
    -2
100
AcDbBlockReference
  2
_DOTSMALL
 10
5879.502860906816
 20
9522.174134733532
 30
0.0
 41
100.0
 42
100.0
 43
100.0
  0
INSERT
  5
16028
330
14A14
100
AcDbEntity
  8
寸法
 62
     0
 48
50.0
370
    -2
100
AcDbBlockReference
  2
_DOTSMALL
 10
5989.50286090682
 20
9522.174134733532
 30
0.0
 41
100.0
 42
100.0
 43
100.0
 50
180.0
  0
MTEXT
  5
16029
330
14A14
100
AcDbEntity
  8
寸法
 62
     7
 48
50.0
100
AcDbMText
 10
5934.502860906818
 20
9622.174134733533
 30
0.0
 40
120.0
 41
0.0
 71
     5
 72
     1
  1
\A1;110
  7
STYLE1
 73
     1
 44
1.0
1001
ACAD
1000
MTEXTBEGIN
1070
    73
1070
     1
1070
    44
1040
1.0
1070
    74
1070
     0
1000
MTEXTEND
  0
POINT
  5
1602A
330
14A14
100
AcDbEntity
  8
DEFPOINTS
 62
     0
 48
50.0
100
AcDbPoint
 10
5879.502860906816
 20
9306.365915108555
 30
0.0
  0
POINT
  5
1602B
330
14A14
100
AcDbEntity
  8
DEFPOINTS
 62
     0
 48
50.0
100
AcDbPoint
 10
5989.50286090682
 20
9306.365915108532
 30
0.0
  0
POINT
  5
1602C
330
14A14
100
AcDbEntity
  8
DEFPOINTS
 62
     0
 48
50.0
100
AcDbPoint
 10
5989.50286090682
 20
9522.174134733532
 30
0.0
  0
ENDBLK
  5
14A21
330
14A14
100
AcDbEntity
  8
0
 48
50.0
100
AcDbBlockEnd
  0
BLOCK
  5
14A24
330
14A23
100
AcDbEntity
  8
0
 48
50.0
100
AcDbBlockBegin
  2
*D22
 70
     1
 10
0.0
 20
0.0
 30
0.0
  3
*D22
  1

  0
LINE
  5
16019
330
14A23
100
AcDbEntity
  8
寸法
 62
     0
 48
50.0
370
    -2
100
AcDbLine
 10
7629.502860906815
 20
8336.365915108427
 30
0.0
 11
7629.502860906815
 21
7856.542247313349
 31
0.0
  0
LINE
  5
1601A
330
14A23
100
AcDbEntity
  8
寸法
 62
     0
 48
50.0
370
    -2
100
AcDbLine
 10
8314.502860906811
 20
8336.365915108391
 30
0.0
 11
8314.502860906811
 21
7856.542247313349
 31
0.0
  0
LINE
  5
1601B
330
14A23
100
AcDbEntity
  8
寸法
 62
     0
 48
50.0
370
    -2
100
AcDbLine
 10
7629.502860906815
 20
7916.542247313349
 30
0.0
 11
8314.502860906811
 21
7916.542247313349
 31
0.0
  0
INSERT
  5
1601C
330
14A23
100
AcDbEntity
  8
寸法
 62
     0
 48
50.0
370
    -2
100
AcDbBlockReference
  2
_DOTSMALL
 10
7629.502860906815
 20
7916.542247313349
 30
0.0
 41
100.0
 42
100.0
 43
100.0
 50
180.0
  0
INSERT
  5
1601D
330
14A23
100
AcDbEntity
  8
寸法
 62
     0
 48
50.0
370
    -2
100
AcDbBlockReference
  2
_DOTSMALL
 10
8314.502860906811
 20
7916.542247313349
 30
0.0
 41
100.0
 42
100.0
 43
100.0
  0
MTEXT
  5
1601E
330
14A23
100
AcDbEntity
  8
寸法
 62
     7
 48
50.0
100
AcDbMText
 10
7972.002860906812
 20
8116.542247313349
 30
0.0
 40
120.0
 41
0.0
 71
     5
 72
     1
  1
\A1;有効開口部間口\P685
  7
STYLE1
 73
     1
 44
1.0
1001
ACAD
1000
MTEXTBEGIN
1070
    73
1070
     1
1070
    44
1040
1.0
1070
    74
1070
     0
1000
MTEXTEND
  0
POINT
  5
1601F
330
14A23
100
AcDbEntity
  8
DEFPOINTS
 62
     0
 48
50.0
100
AcDbPoint
 10
7629.502860906815
 20
8356.365915108426
 30
0.0
  0
POINT
  5
16020
330
14A23
100
AcDbEntity
  8
DEFPOINTS
 62
     0
 48
50.0
100
AcDbPoint
 10
8314.502860906811
 20
8356.365915108391
 30
0.0
  0
POINT
  5
16021
330
14A23
100
AcDbEntity
  8
DEFPOINTS
 62
     0
 48
50.0
100
AcDbPoint
 10
8314.502860906811
 20
7916.542247313349
 30
0.0
  0
ENDBLK
  5
14A2E
330
14A23
100
AcDbEntity
  8
0
 48
50.0
100
AcDbBlockEnd
  0
BLOCK
  5
14A31
330
14A30
100
AcDbEntity
  8
0
 48
50.0
100
AcDbBlockBegin
  2
*D23
 70
     1
 10
0.0
 20
0.0
 30
0.0
  3
*D23
  1

  0
LINE
  5
16010
330
14A30
100
AcDbEntity
  8
寸法
 62
     0
 48
50.0
370
    -2
100
AcDbLine
 10
5989.502860906814
 20
8336.365915108471
 30
0.0
 11
5989.502860906814
 21
7856.542247313349
 31
0.0
  0
LINE
  5
16011
330
14A30
100
AcDbEntity
  8
寸法
 62
     0
 48
50.0
370
    -2
100
AcDbLine
 10
6674.50286090681
 20
8336.365915108626
 30
0.0
 11
6674.50286090681
 21
7856.542247313349
 31
0.0
  0
LINE
  5
16012
330
14A30
100
AcDbEntity
  8
寸法
 62
     0
 48
50.0
370
    -2
100
AcDbLine
 10
5989.502860906814
 20
7916.542247313349
 30
0.0
 11
6674.50286090681
 21
7916.542247313349
 31
0.0
  0
INSERT
  5
16013
330
14A30
100
AcDbEntity
  8
寸法
 62
     0
 48
50.0
370
    -2
100
AcDbBlockReference
  2
_DOTSMALL
 10
5989.502860906814
 20
7916.542247313349
 30
0.0
 41
100.0
 42
100.0
 43
100.0
 50
180.0
  0
INSERT
  5
16014
330
14A30
100
AcDbEntity
  8
寸法
 62
     0
 48
50.0
370
    -2
100
AcDbBlockReference
  2
_DOTSMALL
 10
6674.50286090681
 20
7916.542247313349
 30
0.0
 41
100.0
 42
100.0
 43
100.0
  0
MTEXT
  5
16015
330
14A30
100
AcDbEntity
  8
寸法
 62
     7
 48
50.0
100
AcDbMText
 10
6332.002860906812
 20
8016.542247313349
 30
0.0
 40
120.0
 41
0.0
 71
     5
 72
     1
  1
\A1;685
  7
STYLE1
 73
     1
 44
1.0
1001
ACAD
1000
MTEXTBEGIN
1070
    73
1070
     1
1070
    44
1040
1.0
1070
    74
1070
     0
1000
MTEXTEND
  0
POINT
  5
16016
330
14A30
100
AcDbEntity
  8
DEFPOINTS
 62
     0
 48
50.0
100
AcDbPoint
 10
5989.502860906814
 20
8356.365915108472
 30
0.0
  0
POINT
  5
16017
330
14A30
100
AcDbEntity
  8
DEFPOINTS
 62
     0
 48
50.0
100
AcDbPoint
 10
6674.50286090681
 20
8356.365915108625
 30
0.0
  0
POINT
  5
16018
330
14A30
100
AcDbEntity
  8
DEFPOINTS
 62
     0
 48
50.0
100
AcDbPoint
 10
6674.50286090681
 20
7916.542247313349
 30
0.0
  0
ENDBLK
  5
14A3B
330
14A30
100
AcDbEntity
  8
0
 48
50.0
100
AcDbBlockEnd
  0
BLOCK
  5
14A62
330
14A53
100
AcDbEntity
  8
0
 48
50.0
100
AcDbBlockBegin
  2
*D24
 70
     1
 10
0.0
 20
0.0
 30
0.0
  3
*D24
  1

  0
LINE
  5
16005
330
14A53
100
AcDbEntity
  8
寸法
 62
     0
 48
50.0
370
    -2
100
AcDbLine
 10
3529.502860906817
 20
9326.365915108437
 30
0.0
 11
3529.502860906817
 21
9582.174134733532
 31
0.0
  0
LINE
  5
16006
330
14A53
100
AcDbEntity
  8
寸法
 62
     0
 48
50.0
370
    -2
100
AcDbLine
 10
3474.502860906817
 20
9326.365915108434
 30
0.0
 11
3474.502860906817
 21
9582.174134733532
 31
0.0
  0
LINE
  5
16007
330
14A53
100
AcDbEntity
  8
寸法
 62
     0
 48
50.0
370
    -2
100
AcDbLine
 10
3529.502860906817
 20
9522.174134733532
 30
0.0
 11
3629.502860906817
 21
9522.174134733532
 31
0.0
  0
LINE
  5
16008
330
14A53
100
AcDbEntity
  8
寸法
 62
     0
 48
50.0
370
    -2
100
AcDbLine
 10
3474.502860906817
 20
9522.174134733532
 30
0.0
 11
3057.532298158339
 21
9522.174134733532
 31
0.0
  0
LINE
  5
16009
330
14A53
100
AcDbEntity
  8
寸法
 62
     0
 48
50.0
370
    -2
100
AcDbLine
 10
3529.502860906817
 20
9522.174134733532
 30
0.0
 11
3474.502860906817
 21
9522.174134733532
 31
0.0
  0
INSERT
  5
1600A
330
14A53
100
AcDbEntity
  8
寸法
 62
     0
 48
50.0
370
    -2
100
AcDbBlockReference
  2
_DOTSMALL
 10
3529.502860906817
 20
9522.174134733532
 30
0.0
 41
100.0
 42
100.0
 43
100.0
 50
180.0
  0
INSERT
  5
1600B
330
14A53
100
AcDbEntity
  8
寸法
 62
     0
 48
50.0
370
    -2
100
AcDbBlockReference
  2
_DOTSMALL
 10
3474.502860906817
 20
9522.174134733532
 30
0.0
 41
100.0
 42
100.0
 43
100.0
  0
MTEXT
  5
1600C
330
14A53
100
AcDbEntity
  8
寸法
 62
     7
 48
50.0
100
AcDbMText
 10
3166.017579532578
 20
9622.174134733533
 30
0.0
 40
120.0
 41
0.0
 71
     5
 72
     1
  1
\A1;55
  7
STYLE1
 73
     1
 44
1.0
1001
ACAD
1000
MTEXTBEGIN
1070
    73
1070
     1
1070
    44
1040
1.0
1070
    74
1070
     0
1000
MTEXTEND
  0
POINT
  5
1600D
330
14A53
100
AcDbEntity
  8
DEFPOINTS
 62
     0
 48
50.0
100
AcDbPoint
 10
3529.502860906817
 20
9306.365915108438
 30
0.0
  0
POINT
  5
1600E
330
14A53
100
AcDbEntity
  8
DEFPOINTS
 62
     0
 48
50.0
100
AcDbPoint
 10
3474.502860906817
 20
9306.365915108434
 30
0.0
  0
POINT
  5
1600F
330
14A53
100
AcDbEntity
  8
DEFPOINTS
 62
     0
 48
50.0
100
AcDbPoint
 10
3474.502860906817
 20
9522.174134733532
 30
0.0
  0
ENDBLK
  5
14A6E
330
14A53
100
AcDbEntity
  8
0
 48
50.0
100
AcDbBlockEnd
  0
BLOCK
  5
14C60
330
14C5F
100
AcDbEntity
  8
0
 48
50.0
100
AcDbBlockBegin
  2
*D25
 70
     1
 10
0.0
 20
0.0
 30
0.0
  3
*D25
  1

  0
LINE
  5
15FF3
330
14C5F
100
AcDbEntity
  8
寸法
 62
     0
 48
50.0
370
    -2
100
AcDbLine
 10
7598.643877058127
 20
8806.865915108483
 30
0.0
 11
7529.232413066903
 21
8547.818804865499
 31
0.0
  0
LINE
  5
15FF4
330
14C5F
100
AcDbEntity
  8
寸法
 62
     0
 48
50.0
370
    -2
100
AcDbLine
 10
8359.643877058138
 20
8806.865915108479
 30
0.0
 11
8290.232413066917
 21
8547.818804865499
 31
0.0
  0
LINE
  5
15FF5
330
14C5F
100
AcDbEntity
  8
寸法
 62
     0
 48
50.0
370
    -2
100
AcDbLine
 10
7545.309364612771
 20
8607.8188048655
 30
0.0
 11
8306.309364612785
 21
8607.8188048655
 31
0.0
  0
INSERT
  5
15FF6
330
14C5F
100
AcDbEntity
  8
寸法
 62
     0
 48
50.0
370
    -2
100
AcDbBlockReference
  2
_DOTSMALL
 10
7545.309364612771
 20
8607.8188048655
 30
0.0
 41
100.0
 42
100.0
 43
100.0
 50
180.0
  0
INSERT
  5
15FF7
330
14C5F
100
AcDbEntity
  8
寸法
 62
     0
 48
50.0
370
    -2
100
AcDbBlockReference
  2
_DOTSMALL
 10
8306.309364612785
 20
8607.8188048655
 30
0.0
 41
100.0
 42
100.0
 43
100.0
  0
MTEXT
  5
15FF8
330
14C5F
100
AcDbEntity
  8
寸法
 62
     7
 48
50.0
100
AcDbMText
 10
7983.349923025018
 20
8707.8188048655
 30
0.0
 40
120.0
 41
0.0
 71
     5
 72
     1
  1
\A1;761
  7
STYLE1
 73
     1
 44
1.0
1001
ACAD
1000
MTEXTBEGIN
1070
    73
1070
     1
1070
    44
1040
1.0
1070
    74
1070
     0
1000
MTEXTEND
  0
POINT
  5
15FF9
330
14C5F
100
AcDbEntity
  8
DEFPOINTS
 62
     0
 48
50.0
100
AcDbPoint
 10
7604.002860906749
 20
8826.865915108482
 30
0.0
  0
POINT
  5
15FFA
330
14C5F
100
AcDbEntity
  8
DEFPOINTS
 62
     0
 48
50.0
100
AcDbPoint
 10
8365.002860906761
 20
8826.865915108479
 30
0.0
  0
POINT
  5
15FFB
330
14C5F
100
AcDbEntity
  8
DEFPOINTS
 62
     0
 48
50.0
100
AcDbPoint
 10
8306.309364612785
 20
8607.8188048655
 30
0.0
  0
ENDBLK
  5
14C6A
330
14C5F
100
AcDbEntity
  8
0
 48
50.0
100
AcDbBlockEnd
  0
BLOCK
  5
14C6C
330
14C6B
100
AcDbEntity
  8
0
 48
50.0
100
AcDbBlockBegin
  2
*D26
 70
     1
 10
0.0
 20
0.0
 30
0.0
  3
*D26
  1

  0
LINE
  5
15FFC
330
14C6B
100
AcDbEntity
  8
寸法
 62
     0
 48
50.0
370
    -2
100
AcDbLine
 10
8339.502860906817
 20
9326.365915108546
 30
0.0
 11
8339.502860906817
 21
9582.174134733532
 31
0.0
  0
LINE
  5
15FFD
330
14C6B
100
AcDbEntity
  8
寸法
 62
     0
 48
50.0
370
    -2
100
AcDbLine
 10
7629.50286090682
 20
9326.365915108532
 30
0.0
 11
7629.50286090682
 21
9582.174134733532
 31
0.0
  0
LINE
  5
15FFE
330
14C6B
100
AcDbEntity
  8
寸法
 62
     0
 48
50.0
370
    -2
100
AcDbLine
 10
8339.502860906817
 20
9522.174134733532
 30
0.0
 11
7629.50286090682
 21
9522.174134733532
 31
0.0
  0
INSERT
  5
15FFF
330
14C6B
100
AcDbEntity
  8
寸法
 62
     0
 48
50.0
370
    -2
100
AcDbBlockReference
  2
_DOTSMALL
 10
8339.502860906817
 20
9522.174134733532
 30
0.0
 41
100.0
 42
100.0
 43
100.0
  0
INSERT
  5
16000
330
14C6B
100
AcDbEntity
  8
寸法
 62
     0
 48
50.0
370
    -2
100
AcDbBlockReference
  2
_DOTSMALL
 10
7629.50286090682
 20
9522.174134733532
 30
0.0
 41
100.0
 42
100.0
 43
100.0
 50
180.0
  0
MTEXT
  5
16001
330
14C6B
100
AcDbEntity
  8
寸法
 62
     7
 48
50.0
100
AcDbMText
 10
7984.502860906819
 20
9622.174134733533
 30
0.0
 40
120.0
 41
0.0
 71
     5
 72
     1
  1
\A1;710
  7
STYLE1
 73
     1
 44
1.0
1001
ACAD
1000
MTEXTBEGIN
1070
    73
1070
     1
1070
    44
1040
1.0
1070
    74
1070
     0
1000
MTEXTEND
  0
POINT
  5
16002
330
14C6B
100
AcDbEntity
  8
DEFPOINTS
 62
     0
 48
50.0
100
AcDbPoint
 10
8339.502860906817
 20
9306.365915108548
 30
0.0
  0
POINT
  5
16003
330
14C6B
100
AcDbEntity
  8
DEFPOINTS
 62
     0
 48
50.0
100
AcDbPoint
 10
7629.50286090682
 20
9306.365915108532
 30
0.0
  0
POINT
  5
16004
330
14C6B
100
AcDbEntity
  8
DEFPOINTS
 62
     0
 48
50.0
100
AcDbPoint
 10
7629.50286090682
 20
9522.174134733532
 30
0.0
  0
ENDBLK
  5
14C76
330
14C6B
100
AcDbEntity
  8
0
 48
50.0
100
AcDbBlockEnd
  0
BLOCK
  5
14C9B
330
14C9A
100
AcDbEntity
  8
0
 48
50.0
100
AcDbBlockBegin
  2
*D27
 70
     1
 10
0.0
 20
0.0
 30
0.0
  3
*D27
  1

  0
LINE
  5
15FE8
330
14C9A
100
AcDbEntity
  8
寸法
 62
     0
 48
50.0
370
    -2
100
AcDbLine
 10
7519.502860906816
 20
9326.365915108555
 30
0.0
 11
7519.502860906816
 21
9582.174134733532
 31
0.0
  0
LINE
  5
15FE9
330
14C9A
100
AcDbEntity
  8
寸法
 62
     0
 48
50.0
370
    -2
100
AcDbLine
 10
7629.50286090682
 20
9326.365915108532
 30
0.0
 11
7629.50286090682
 21
9582.174134733532
 31
0.0
  0
LINE
  5
15FEA
330
14C9A
100
AcDbEntity
  8
寸法
 62
     0
 48
50.0
370
    -2
100
AcDbLine
 10
7519.502860906816
 20
9522.174134733532
 30
0.0
 11
7419.502860906816
 21
9522.174134733532
 31
0.0
  0
LINE
  5
15FEB
330
14C9A
100
AcDbEntity
  8
寸法
 62
     0
 48
50.0
370
    -2
100
AcDbLine
 10
7629.50286090682
 20
9522.174134733532
 30
0.0
 11
7729.502860906819
 21
9522.174134733532
 31
0.0
  0
LINE
  5
15FEC
330
14C9A
100
AcDbEntity
  8
寸法
 62
     0
 48
50.0
370
    -2
100
AcDbLine
 10
7519.502860906816
 20
9522.174134733532
 30
0.0
 11
7629.50286090682
 21
9522.174134733532
 31
0.0
  0
INSERT
  5
15FED
330
14C9A
100
AcDbEntity
  8
寸法
 62
     0
 48
50.0
370
    -2
100
AcDbBlockReference
  2
_DOTSMALL
 10
7519.502860906816
 20
9522.174134733532
 30
0.0
 41
100.0
 42
100.0
 43
100.0
  0
INSERT
  5
15FEE
330
14C9A
100
AcDbEntity
  8
寸法
 62
     0
 48
50.0
370
    -2
100
AcDbBlockReference
  2
_DOTSMALL
 10
7629.50286090682
 20
9522.174134733532
 30
0.0
 41
100.0
 42
100.0
 43
100.0
 50
180.0
  0
MTEXT
  5
15FEF
330
14C9A
100
AcDbEntity
  8
寸法
 62
     7
 48
50.0
100
AcDbMText
 10
7574.502860906817
 20
9622.174134733533
 30
0.0
 40
120.0
 41
0.0
 71
     5
 72
     1
  1
\A1;110
  7
STYLE1
 73
     1
 44
1.0
1001
ACAD
1000
MTEXTBEGIN
1070
    73
1070
     1
1070
    44
1040
1.0
1070
    74
1070
     0
1000
MTEXTEND
  0
POINT
  5
15FF0
330
14C9A
100
AcDbEntity
  8
DEFPOINTS
 62
     0
 48
50.0
100
AcDbPoint
 10
7519.502860906816
 20
9306.365915108555
 30
0.0
  0
POINT
  5
15FF1
330
14C9A
100
AcDbEntity
  8
DEFPOINTS
 62
     0
 48
50.0
100
AcDbPoint
 10
7629.50286090682
 20
9306.365915108532
 30
0.0
  0
POINT
  5
15FF2
330
14C9A
100
AcDbEntity
  8
DEFPOINTS
 62
     0
 48
50.0
100
AcDbPoint
 10
7629.50286090682
 20
9522.174134733532
 30
0.0
  0
ENDBLK
  5
14CA7
330
14C9A
100
AcDbEntity
  8
0
 48
50.0
100
AcDbBlockEnd
  0
BLOCK
  5
14E92
330
14E91
100
AcDbEntity
  8
0
 48
50.0
100
AcDbBlockBegin
  2
*D28
 70
     1
 10
0.0
 20
0.0
 30
0.0
  3
*D28
  1

  0
LINE
  5
15FCB
330
14E91
100
AcDbEntity
  8
寸法
 62
     0
 48
50.0
370
    -2
100
AcDbLine
 10
4318.643877058127
 20
8806.865915108483
 30
0.0
 11
4249.232413066903
 21
8547.818804865499
 31
0.0
  0
LINE
  5
15FCC
330
14E91
100
AcDbEntity
  8
寸法
 62
     0
 48
50.0
370
    -2
100
AcDbLine
 10
5079.643877058138
 20
8806.865915108479
 30
0.0
 11
5010.232413066916
 21
8547.818804865499
 31
0.0
  0
LINE
  5
15FCD
330
14E91
100
AcDbEntity
  8
寸法
 62
     0
 48
50.0
370
    -2
100
AcDbLine
 10
4265.309364612771
 20
8607.8188048655
 30
0.0
 11
5026.309364612783
 21
8607.8188048655
 31
0.0
  0
INSERT
  5
15FCE
330
14E91
100
AcDbEntity
  8
寸法
 62
     0
 48
50.0
370
    -2
100
AcDbBlockReference
  2
_DOTSMALL
 10
4265.309364612771
 20
8607.8188048655
 30
0.0
 41
100.0
 42
100.0
 43
100.0
 50
180.0
  0
INSERT
  5
15FCF
330
14E91
100
AcDbEntity
  8
寸法
 62
     0
 48
50.0
370
    -2
100
AcDbBlockReference
  2
_DOTSMALL
 10
5026.309364612783
 20
8607.8188048655
 30
0.0
 41
100.0
 42
100.0
 43
100.0
  0
MTEXT
  5
15FD0
330
14E91
100
AcDbEntity
  8
寸法
 62
     7
 48
50.0
100
AcDbMText
 10
4703.349923025018
 20
8707.8188048655
 30
0.0
 40
120.0
 41
0.0
 71
     5
 72
     1
  1
\A1;761
  7
STYLE1
 73
     1
 44
1.0
1001
ACAD
1000
MTEXTBEGIN
1070
    73
1070
     1
1070
    44
1040
1.0
1070
    74
1070
     0
1000
MTEXTEND
  0
POINT
  5
15FD1
330
14E91
100
AcDbEntity
  8
DEFPOINTS
 62
     0
 48
50.0
100
AcDbPoint
 10
4324.002860906749
 20
8826.865915108482
 30
0.0
  0
POINT
  5
15FD2
330
14E91
100
AcDbEntity
  8
DEFPOINTS
 62
     0
 48
50.0
100
AcDbPoint
 10
5085.002860906762
 20
8826.865915108479
 30
0.0
  0
POINT
  5
15FD3
330
14E91
100
AcDbEntity
  8
DEFPOINTS
 62
     0
 48
50.0
100
AcDbPoint
 10
5026.309364612783
 20
8607.8188048655
 30
0.0
  0
ENDBLK
  5
14E9C
330
14E91
100
AcDbEntity
  8
0
 48
50.0
100
AcDbBlockEnd
  0
BLOCK
  5
14E9E
330
14E9D
100
AcDbEntity
  8
0
 48
50.0
100
AcDbBlockBegin
  2
*D29
 70
     1
 10
0.0
 20
0.0
 30
0.0
  3
*D29
  1

  0
LINE
  5
15FC2
330
14E9D
100
AcDbEntity
  8
寸法
 62
     0
 48
50.0
370
    -2
100
AcDbLine
 10
4349.502860906812
 20
8336.365915108471
 30
0.0
 11
4349.502860906812
 21
7856.542247313349
 31
0.0
  0
LINE
  5
15FC3
330
14E9D
100
AcDbEntity
  8
寸法
 62
     0
 48
50.0
370
    -2
100
AcDbLine
 10
5034.50286090681
 20
8336.365915108626
 30
0.0
 11
5034.50286090681
 21
7856.542247313349
 31
0.0
  0
LINE
  5
15FC4
330
14E9D
100
AcDbEntity
  8
寸法
 62
     0
 48
50.0
370
    -2
100
AcDbLine
 10
4349.502860906812
 20
7916.542247313349
 30
0.0
 11
5034.50286090681
 21
7916.542247313349
 31
0.0
  0
INSERT
  5
15FC5
330
14E9D
100
AcDbEntity
  8
寸法
 62
     0
 48
50.0
370
    -2
100
AcDbBlockReference
  2
_DOTSMALL
 10
4349.502860906812
 20
7916.542247313349
 30
0.0
 41
100.0
 42
100.0
 43
100.0
 50
180.0
  0
INSERT
  5
15FC6
330
14E9D
100
AcDbEntity
  8
寸法
 62
     0
 48
50.0
370
    -2
100
AcDbBlockReference
  2
_DOTSMALL
 10
5034.50286090681
 20
7916.542247313349
 30
0.0
 41
100.0
 42
100.0
 43
100.0
  0
MTEXT
  5
15FC7
330
14E9D
100
AcDbEntity
  8
寸法
 62
     7
 48
50.0
100
AcDbMText
 10
4692.002860906812
 20
8016.542247313349
 30
0.0
 40
120.0
 41
0.0
 71
     5
 72
     1
  1
\A1;685
  7
STYLE1
 73
     1
 44
1.0
1001
ACAD
1000
MTEXTBEGIN
1070
    73
1070
     1
1070
    44
1040
1.0
1070
    74
1070
     0
1000
MTEXTEND
  0
POINT
  5
15FC8
330
14E9D
100
AcDbEntity
  8
DEFPOINTS
 62
     0
 48
50.0
100
AcDbPoint
 10
4349.502860906812
 20
8356.365915108472
 30
0.0
  0
POINT
  5
15FC9
330
14E9D
100
AcDbEntity
  8
DEFPOINTS
 62
     0
 48
50.0
100
AcDbPoint
 10
5034.50286090681
 20
8356.365915108625
 30
0.0
  0
POINT
  5
15FCA
330
14E9D
100
AcDbEntity
  8
DEFPOINTS
 62
     0
 48
50.0
100
AcDbPoint
 10
5034.50286090681
 20
7916.542247313349
 30
0.0
  0
ENDBLK
  5
14EA8
330
14E9D
100
AcDbEntity
  8
0
 48
50.0
100
AcDbBlockEnd
  0
BLOCK
  5
14EAA
330
14EA9
100
AcDbEntity
  8
0
 48
50.0
100
AcDbBlockBegin
  2
*D30
 70
     1
 10
0.0
 20
0.0
 30
0.0
  3
*D30
  1

  0
LINE
  5
15FD4
330
14EA9
100
AcDbEntity
  8
寸法
 62
     0
 48
50.0
370
    -2
100
AcDbLine
 10
5059.502860906818
 20
9326.365915108546
 30
0.0
 11
5059.502860906818
 21
9582.174134733532
 31
0.0
  0
LINE
  5
15FD5
330
14EA9
100
AcDbEntity
  8
寸法
 62
     0
 48
50.0
370
    -2
100
AcDbLine
 10
4349.502860906819
 20
9326.365915108532
 30
0.0
 11
4349.502860906819
 21
9582.174134733532
 31
0.0
  0
LINE
  5
15FD6
330
14EA9
100
AcDbEntity
  8
寸法
 62
     0
 48
50.0
370
    -2
100
AcDbLine
 10
5059.502860906818
 20
9522.174134733532
 30
0.0
 11
4349.502860906819
 21
9522.174134733532
 31
0.0
  0
INSERT
  5
15FD7
330
14EA9
100
AcDbEntity
  8
寸法
 62
     0
 48
50.0
370
    -2
100
AcDbBlockReference
  2
_DOTSMALL
 10
5059.502860906818
 20
9522.174134733532
 30
0.0
 41
100.0
 42
100.0
 43
100.0
  0
INSERT
  5
15FD8
330
14EA9
100
AcDbEntity
  8
寸法
 62
     0
 48
50.0
370
    -2
100
AcDbBlockReference
  2
_DOTSMALL
 10
4349.502860906819
 20
9522.174134733532
 30
0.0
 41
100.0
 42
100.0
 43
100.0
 50
180.0
  0
MTEXT
  5
15FD9
330
14EA9
100
AcDbEntity
  8
寸法
 62
     7
 48
50.0
100
AcDbMText
 10
4704.502860906819
 20
9622.174134733533
 30
0.0
 40
120.0
 41
0.0
 71
     5
 72
     1
  1
\A1;710
  7
STYLE1
 73
     1
 44
1.0
1001
ACAD
1000
MTEXTBEGIN
1070
    73
1070
     1
1070
    44
1040
1.0
1070
    74
1070
     0
1000
MTEXTEND
  0
POINT
  5
15FDA
330
14EA9
100
AcDbEntity
  8
DEFPOINTS
 62
     0
 48
50.0
100
AcDbPoint
 10
5059.502860906818
 20
9306.365915108548
 30
0.0
  0
POINT
  5
15FDB
330
14EA9
100
AcDbEntity
  8
DEFPOINTS
 62
     0
 48
50.0
100
AcDbPoint
 10
4349.502860906819
 20
9306.365915108532
 30
0.0
  0
POINT
  5
15FDC
330
14EA9
100
AcDbEntity
  8
DEFPOINTS
 62
     0
 48
50.0
100
AcDbPoint
 10
4349.502860906819
 20
9522.174134733532
 30
0.0
  0
ENDBLK
  5
14EB4
330
14EA9
100
AcDbEntity
  8
0
 48
50.0
100
AcDbBlockEnd
  0
BLOCK
  5
14EB6
330
14EB5
100
AcDbEntity
  8
0
 48
50.0
100
AcDbBlockBegin
  2
*D31
 70
     1
 10
0.0
 20
0.0
 30
0.0
  3
*D31
  1

  0
LINE
  5
15FDD
330
14EB5
100
AcDbEntity
  8
寸法
 62
     0
 48
50.0
370
    -2
100
AcDbLine
 10
5059.502860906816
 20
9326.365915108555
 30
0.0
 11
5059.502860906816
 21
9582.174134733532
 31
0.0
  0
LINE
  5
15FDE
330
14EB5
100
AcDbEntity
  8
寸法
 62
     0
 48
50.0
370
    -2
100
AcDbLine
 10
5169.50286090682
 20
9326.365915108532
 30
0.0
 11
5169.50286090682
 21
9582.174134733532
 31
0.0
  0
LINE
  5
15FDF
330
14EB5
100
AcDbEntity
  8
寸法
 62
     0
 48
50.0
370
    -2
100
AcDbLine
 10
5059.502860906816
 20
9522.174134733532
 30
0.0
 11
4959.502860906816
 21
9522.174134733532
 31
0.0
  0
LINE
  5
15FE0
330
14EB5
100
AcDbEntity
  8
寸法
 62
     0
 48
50.0
370
    -2
100
AcDbLine
 10
5169.50286090682
 20
9522.174134733532
 30
0.0
 11
5269.502860906819
 21
9522.174134733532
 31
0.0
  0
LINE
  5
15FE1
330
14EB5
100
AcDbEntity
  8
寸法
 62
     0
 48
50.0
370
    -2
100
AcDbLine
 10
5059.502860906816
 20
9522.174134733532
 30
0.0
 11
5169.50286090682
 21
9522.174134733532
 31
0.0
  0
INSERT
  5
15FE2
330
14EB5
100
AcDbEntity
  8
寸法
 62
     0
 48
50.0
370
    -2
100
AcDbBlockReference
  2
_DOTSMALL
 10
5059.502860906816
 20
9522.174134733532
 30
0.0
 41
100.0
 42
100.0
 43
100.0
  0
INSERT
  5
15FE3
330
14EB5
100
AcDbEntity
  8
寸法
 62
     0
 48
50.0
370
    -2
100
AcDbBlockReference
  2
_DOTSMALL
 10
5169.50286090682
 20
9522.174134733532
 30
0.0
 41
100.0
 42
100.0
 43
100.0
 50
180.0
  0
MTEXT
  5
15FE4
330
14EB5
100
AcDbEntity
  8
寸法
 62
     7
 48
50.0
100
AcDbMText
 10
5114.502860906817
 20
9622.174134733533
 30
0.0
 40
120.0
 41
0.0
 71
     5
 72
     1
  1
\A1;110
  7
STYLE1
 73
     1
 44
1.0
1001
ACAD
1000
MTEXTBEGIN
1070
    73
1070
     1
1070
    44
1040
1.0
1070
    74
1070
     0
1000
MTEXTEND
  0
POINT
  5
15FE5
330
14EB5
100
AcDbEntity
  8
DEFPOINTS
 62
     0
 48
50.0
100
AcDbPoint
 10
5059.502860906816
 20
9306.365915108555
 30
0.0
  0
POINT
  5
15FE6
330
14EB5
100
AcDbEntity
  8
DEFPOINTS
 62
     0
 48
50.0
100
AcDbPoint
 10
5169.50286090682
 20
9306.365915108532
 30
0.0
  0
POINT
  5
15FE7
330
14EB5
100
AcDbEntity
  8
DEFPOINTS
 62
     0
 48
50.0
100
AcDbPoint
 10
5169.50286090682
 20
9522.174134733532
 30
0.0
  0
ENDBLK
  5
14EC2
330
14EB5
100
AcDbEntity
  8
0
 48
50.0
100
AcDbBlockEnd
  0
BLOCK
  5
14EF4
330
14EF3
100
AcDbEntity
  8
0
 48
50.0
100
AcDbBlockBegin
  2
*D32
 70
     1
 10
0.0
 20
0.0
 30
0.0
  3
*D32
  1

  0
LINE
  5
15FB9
330
14EF3
100
AcDbEntity
  8
寸法
 62
     0
 48
50.0
370
    -2
100
AcDbLine
 10
3529.502860906813
 20
8336.365915108471
 30
0.0
 11
3529.502860906813
 21
7856.542247313349
 31
0.0
  0
LINE
  5
15FBA
330
14EF3
100
AcDbEntity
  8
寸法
 62
     0
 48
50.0
370
    -2
100
AcDbLine
 10
4214.502860906811
 20
8336.365915108626
 30
0.0
 11
4214.502860906811
 21
7856.542247313349
 31
0.0
  0
LINE
  5
15FBB
330
14EF3
100
AcDbEntity
  8
寸法
 62
     0
 48
50.0
370
    -2
100
AcDbLine
 10
3529.502860906813
 20
7916.542247313349
 30
0.0
 11
4214.502860906811
 21
7916.542247313349
 31
0.0
  0
INSERT
  5
15FBC
330
14EF3
100
AcDbEntity
  8
寸法
 62
     0
 48
50.0
370
    -2
100
AcDbBlockReference
  2
_DOTSMALL
 10
3529.502860906813
 20
7916.542247313349
 30
0.0
 41
100.0
 42
100.0
 43
100.0
 50
180.0
  0
INSERT
  5
15FBD
330
14EF3
100
AcDbEntity
  8
寸法
 62
     0
 48
50.0
370
    -2
100
AcDbBlockReference
  2
_DOTSMALL
 10
4214.502860906811
 20
7916.542247313349
 30
0.0
 41
100.0
 42
100.0
 43
100.0
  0
MTEXT
  5
15FBE
330
14EF3
100
AcDbEntity
  8
寸法
 62
     7
 48
50.0
100
AcDbMText
 10
3872.002860906812
 20
8016.542247313349
 30
0.0
 40
120.0
 41
0.0
 71
     5
 72
     1
  1
\A1;685
  7
STYLE1
 73
     1
 44
1.0
1001
ACAD
1000
MTEXTBEGIN
1070
    73
1070
     1
1070
    44
1040
1.0
1070
    74
1070
     0
1000
MTEXTEND
  0
POINT
  5
15FBF
330
14EF3
100
AcDbEntity
  8
DEFPOINTS
 62
     0
 48
50.0
100
AcDbPoint
 10
3529.502860906813
 20
8356.365915108472
 30
0.0
  0
POINT
  5
15FC0
330
14EF3
100
AcDbEntity
  8
DEFPOINTS
 62
     0
 48
50.0
100
AcDbPoint
 10
4214.502860906811
 20
8356.365915108625
 30
0.0
  0
POINT
  5
15FC1
330
14EF3
100
AcDbEntity
  8
DEFPOINTS
 62
     0
 48
50.0
100
AcDbPoint
 10
4214.502860906811
 20
7916.542247313349
 30
0.0
  0
ENDBLK
  5
14EFE
330
14EF3
100
AcDbEntity
  8
0
 48
50.0
100
AcDbBlockEnd
  0
BLOCK
  5
15071
330
15070
100
AcDbEntity
  8
0
100
AcDbBlockBegin
  2
_OPEN
 70
     0
 10
0.0
 20
0.0
 30
0.0
  3
_OPEN
  1

  0
LINE
  5
15072
330
15070
100
AcDbEntity
  8
0
  6
ByBlock
 62
     0
100
AcDbLine
 10
-1.0
 20
0.1666666666666666
 30
0.0
 11
0.0
 21
0.0
 31
0.0
  0
LINE
  5
15073
330
15070
100
AcDbEntity
  8
0
  6
ByBlock
 62
     0
100
AcDbLine
 10
0.0
 20
0.0
 30
0.0
 11
-1.0
 21
-0.1666666666666666
 31
0.0
  0
LINE
  5
15074
330
15070
100
AcDbEntity
  8
0
  6
ByBlock
 62
     0
100
AcDbLine
 10
0.0
 20
0.0
 30
0.0
 11
-1.0
 21
0.0
 31
0.0
  0
ENDBLK
  5
15075
330
15070
100
AcDbEntity
  8
0
100
AcDbBlockEnd
  0
BLOCK
  5
15077
330
15076
100
AcDbEntity
  8
0
 48
50.0
100
AcDbBlockBegin
  2
_DOT
 70
     0
 10
0.0
 20
0.0
 30
0.0
  3
_DOT
  1

  0
LWPOLYLINE
  5
15078
330
15076
100
AcDbEntity
  8
0
  6
ByBlock
 62
     0
 48
50.0
100
AcDbPolyline
 90
        2
 70
     1
 43
0.5
 10
-0.25
 20
0.0
 42
1.0
 10
0.25
 20
0.0
 42
1.0
  0
LINE
  5
15079
330
15076
100
AcDbEntity
  8
0
  6
ByBlock
 62
     0
 48
50.0
100
AcDbLine
 10
-0.5
 20
0.0
 30
0.0
 11
-1.0
 21
0.0
 31
0.0
  0
ENDBLK
  5
1507A
330
15076
100
AcDbEntity
  8
0
 48
50.0
100
AcDbBlockEnd
  0
BLOCK
  5
15DF0
330
15DE4
100
AcDbEntity
  8
0
 48
50.0
100
AcDbBlockBegin
  2
*D35
 70
     1
 10
0.0
 20
0.0
 30
0.0
  3
*D35
  1

  0
LINE
  5
15F4E
330
15DE4
100
AcDbEntity
  8
寸法
 62
     0
 48
50.0
370
    -2
100
AcDbLine
 10
3474.502860906811
 20
5664.577276893868
 30
0.0
 11
3474.502860906811
 21
5917.118862152105
 31
0.0
  0
LINE
  5
15F4F
330
15DE4
100
AcDbEntity
  8
寸法
 62
     0
 48
50.0
370
    -2
100
AcDbLine
 10
3424.502860906811
 20
5664.577276893866
 30
0.0
 11
3424.502860906811
 21
5917.118862152105
 31
0.0
  0
LINE
  5
15F50
330
15DE4
100
AcDbEntity
  8
寸法
 62
     0
 48
50.0
370
    -2
100
AcDbLine
 10
3474.502860906811
 20
5857.118862152105
 30
0.0
 11
3574.502860906811
 21
5857.118862152105
 31
0.0
  0
LINE
  5
15F51
330
15DE4
100
AcDbEntity
  8
寸法
 62
     0
 48
50.0
370
    -2
100
AcDbLine
 10
3424.502860906811
 20
5857.118862152105
 30
0.0
 11
3004.970335438075
 21
5857.118862152105
 31
0.0
  0
LINE
  5
15F52
330
15DE4
100
AcDbEntity
  8
寸法
 62
     0
 48
50.0
370
    -2
100
AcDbLine
 10
3474.502860906811
 20
5857.118862152105
 30
0.0
 11
3424.502860906811
 21
5857.118862152105
 31
0.0
  0
INSERT
  5
15F53
330
15DE4
100
AcDbEntity
  8
寸法
 62
     0
 48
50.0
370
    -2
100
AcDbBlockReference
  2
_DOTSMALL
 10
3474.502860906811
 20
5857.118862152105
 30
0.0
 41
100.0
 42
100.0
 43
100.0
 50
180.0
  0
INSERT
  5
15F54
330
15DE4
100
AcDbEntity
  8
寸法
 62
     0
 48
50.0
370
    -2
100
AcDbBlockReference
  2
_DOTSMALL
 10
3424.502860906811
 20
5857.118862152105
 30
0.0
 41
100.0
 42
100.0
 43
100.0
  0
MTEXT
  5
15F55
330
15DE4
100
AcDbEntity
  8
寸法
 62
     7
 48
50.0
100
AcDbMText
 10
3111.017579532563
 20
5957.118862152105
 30
0.0
 40
120.0
 41
0.0
 71
     5
 72
     1
  1
\A1;50
  7
STYLE1
 73
     1
 44
1.0
1001
ACAD
1000
MTEXTBEGIN
1070
    73
1070
     1
1070
    44
1040
1.0
1070
    74
1070
     0
1000
MTEXTEND
  0
POINT
  5
15F56
330
15DE4
100
AcDbEntity
  8
DEFPOINTS
 62
     0
 48
50.0
100
AcDbPoint
 10
3474.502860906811
 20
5644.577276893868
 30
0.0
  0
POINT
  5
15F57
330
15DE4
100
AcDbEntity
  8
DEFPOINTS
 62
     0
 48
50.0
100
AcDbPoint
 10
3424.502860906811
 20
5644.577276893866
 30
0.0
  0
POINT
  5
15F58
330
15DE4
100
AcDbEntity
  8
DEFPOINTS
 62
     0
 48
50.0
100
AcDbPoint
 10
3424.502860906811
 20
5857.118862152105
 30
0.0
  0
ENDBLK
  5
15DF1
330
15DE4
100
AcDbEntity
  8
0
 48
50.0
100
AcDbBlockEnd
  0
BLOCK
  5
15DFC
330
15DF2
100
AcDbEntity
  8
0
 48
50.0
100
AcDbBlockBegin
  2
*D36
 70
     1
 10
0.0
 20
0.0
 30
0.0
  3
*D36
  1

  0
LINE
  5
15F62
330
15DF2
100
AcDbEntity
  8
寸法
 62
     0
 48
50.0
370
    -2
100
AcDbLine
 10
8394.502860906815
 20
5664.577276893864
 30
0.0
 11
8394.502860906815
 21
5917.118862152105
 31
0.0
  0
LINE
  5
15F63
330
15DF2
100
AcDbEntity
  8
寸法
 62
     0
 48
50.0
370
    -2
100
AcDbLine
 10
3474.502860906811
 20
5664.577276893868
 30
0.0
 11
3474.502860906811
 21
5917.118862152105
 31
0.0
  0
LINE
  5
15F64
330
15DF2
100
AcDbEntity
  8
寸法
 62
     0
 48
50.0
370
    -2
100
AcDbLine
 10
8394.502860906815
 20
5857.118862152105
 30
0.0
 11
3474.502860906811
 21
5857.118862152105
 31
0.0
  0
INSERT
  5
15F65
330
15DF2
100
AcDbEntity
  8
寸法
 62
     0
 48
50.0
370
    -2
100
AcDbBlockReference
  2
_DOTSMALL
 10
8394.502860906815
 20
5857.118862152105
 30
0.0
 41
100.0
 42
100.0
 43
100.0
  0
INSERT
  5
15F66
330
15DF2
100
AcDbEntity
  8
寸法
 62
     0
 48
50.0
370
    -2
100
AcDbBlockReference
  2
_DOTSMALL
 10
3474.502860906811
 20
5857.118862152105
 30
0.0
 41
100.0
 42
100.0
 43
100.0
 50
180.0
  0
MTEXT
  5
15F67
330
15DF2
100
AcDbEntity
  8
寸法
 62
     7
 48
50.0
100
AcDbMText
 10
5934.502860906812
 20
5957.159674716908
 30
0.0
 40
120.0
 41
0.0
 71
     5
 72
     1
  1
\A1;柱外寸法4920
  7
STYLE1
 73
     1
 44
1.0
1001
ACAD
1000
MTEXTBEGIN
1070
    73
1070
     1
1070
    44
1040
1.0
1070
    74
1070
     0
1000
MTEXTEND
  0
POINT
  5
15F68
330
15DF2
100
AcDbEntity
  8
DEFPOINTS
 62
     0
 48
50.0
100
AcDbPoint
 10
8394.502860906815
 20
5644.577276893864
 30
0.0
  0
POINT
  5
15F69
330
15DF2
100
AcDbEntity
  8
DEFPOINTS
 62
     0
 48
50.0
100
AcDbPoint
 10
3474.502860906811
 20
5644.577276893868
 30
0.0
  0
POINT
  5
15F6A
330
15DF2
100
AcDbEntity
  8
DEFPOINTS
 62
     0
 48
50.0
100
AcDbPoint
 10
3474.502860906811
 20
5857.118862152105
 30
0.0
  0
ENDBLK
  5
15DFD
330
15DF2
100
AcDbEntity
  8
0
 48
50.0
100
AcDbBlockEnd
  0
BLOCK
  5
15E08
330
15DFE
100
AcDbEntity
  8
0
 48
50.0
100
AcDbBlockBegin
  2
*D37
 70
     1
 10
0.0
 20
0.0
 30
0.0
  3
*D37
  1

  0
LINE
  5
15F59
330
15DFE
100
AcDbEntity
  8
寸法
 62
     0
 48
50.0
370
    -2
100
AcDbLine
 10
3424.502860906811
 20
5664.577276893866
 30
0.0
 11
3424.502860906811
 21
6140.075840589954
 31
0.0
  0
LINE
  5
15F5A
330
15DFE
100
AcDbEntity
  8
寸法
 62
     0
 48
50.0
370
    -2
100
AcDbLine
 10
8444.502860906814
 20
5664.577276893862
 30
0.0
 11
8444.502860906814
 21
6140.075840589954
 31
0.0
  0
LINE
  5
15F5B
330
15DFE
100
AcDbEntity
  8
寸法
 62
     0
 48
50.0
370
    -2
100
AcDbLine
 10
3424.502860906811
 20
6080.075840589954
 30
0.0
 11
8444.502860906814
 21
6080.075840589954
 31
0.0
  0
INSERT
  5
15F5C
330
15DFE
100
AcDbEntity
  8
寸法
 62
     0
 48
50.0
370
    -2
100
AcDbBlockReference
  2
_DOTSMALL
 10
3424.502860906811
 20
6080.075840589954
 30
0.0
 41
100.0
 42
100.0
 43
100.0
 50
180.0
  0
INSERT
  5
15F5D
330
15DFE
100
AcDbEntity
  8
寸法
 62
     0
 48
50.0
370
    -2
100
AcDbBlockReference
  2
_DOTSMALL
 10
8444.502860906814
 20
6080.075840589954
 30
0.0
 41
100.0
 42
100.0
 43
100.0
  0
MTEXT
  5
15F5E
330
15DFE
100
AcDbEntity
  8
寸法
 62
     7
 48
50.0
100
AcDbMText
 10
5934.502860906812
 20
6180.087651613575
 30
0.0
 40
120.0
 41
0.0
 71
     5
 72
     1
  1
\A1;5020
  7
STYLE1
 73
     1
 44
1.0
1001
ACAD
1000
MTEXTBEGIN
1070
    73
1070
     1
1070
    44
1040
1.0
1070
    74
1070
     0
1000
MTEXTEND
  0
POINT
  5
15F5F
330
15DFE
100
AcDbEntity
  8
DEFPOINTS
 62
     0
 48
50.0
100
AcDbPoint
 10
3424.502860906811
 20
5644.577276893866
 30
0.0
  0
POINT
  5
15F60
330
15DFE
100
AcDbEntity
  8
DEFPOINTS
 62
     0
 48
50.0
100
AcDbPoint
 10
8444.502860906814
 20
5644.577276893862
 30
0.0
  0
POINT
  5
15F61
330
15DFE
100
AcDbEntity
  8
DEFPOINTS
 62
     0
 48
50.0
100
AcDbPoint
 10
8444.502860906814
 20
6080.075840589954
 30
0.0
  0
ENDBLK
  5
15E09
330
15DFE
100
AcDbEntity
  8
0
 48
50.0
100
AcDbBlockEnd
  0
BLOCK
  5
15E3E
330
15E32
100
AcDbEntity
  8
0
 48
50.0
100
AcDbBlockBegin
  2
*D38
 70
     1
 10
0.0
 20
0.0
 30
0.0
  3
*D38
  1

  0
LINE
  5
15F43
330
15E32
100
AcDbEntity
  8
寸法
 62
     0
 48
50.0
370
    -2
100
AcDbLine
 10
8444.502860906814
 20
5664.577276893862
 30
0.0
 11
8444.502860906814
 21
5917.118862152103
 31
0.0
  0
LINE
  5
15F44
330
15E32
100
AcDbEntity
  8
寸法
 62
     0
 48
50.0
370
    -2
100
AcDbLine
 10
8394.502860906815
 20
5664.577276893864
 30
0.0
 11
8394.502860906815
 21
5917.118862152103
 31
0.0
  0
LINE
  5
15F45
330
15E32
100
AcDbEntity
  8
寸法
 62
     0
 48
50.0
370
    -2
100
AcDbLine
 10
8394.502860906815
 20
5857.118862152103
 30
0.0
 11
8294.502860906815
 21
5857.118862152103
 31
0.0
  0
LINE
  5
15F46
330
15E32
100
AcDbEntity
  8
寸法
 62
     0
 48
50.0
370
    -2
100
AcDbLine
 10
8444.502860906814
 20
5857.118862152103
 30
0.0
 11
8864.035386375539
 21
5857.118862152103
 31
0.0
  0
LINE
  5
15F47
330
15E32
100
AcDbEntity
  8
寸法
 62
     0
 48
50.0
370
    -2
100
AcDbLine
 10
8394.502860906815
 20
5857.118862152103
 30
0.0
 11
8444.502860906814
 21
5857.118862152103
 31
0.0
  0
INSERT
  5
15F48
330
15E32
100
AcDbEntity
  8
寸法
 62
     0
 48
50.0
370
    -2
100
AcDbBlockReference
  2
_DOTSMALL
 10
8394.502860906815
 20
5857.118862152103
 30
0.0
 41
100.0
 42
100.0
 43
100.0
  0
INSERT
  5
15F49
330
15E32
100
AcDbEntity
  8
寸法
 62
     0
 48
50.0
370
    -2
100
AcDbBlockReference
  2
_DOTSMALL
 10
8444.502860906814
 20
5857.118862152103
 30
0.0
 41
100.0
 42
100.0
 43
100.0
 50
180.0
  0
MTEXT
  5
15F4A
330
15E32
100
AcDbEntity
  8
寸法
 62
     7
 48
50.0
100
AcDbMText
 10
8757.98814228105
 20
5957.118862152103
 30
0.0
 40
120.0
 41
0.0
 71
     5
 72
     1
  1
\A1;50
  7
STYLE1
 73
     1
 44
1.0
1001
ACAD
1000
MTEXTBEGIN
1070
    73
1070
     1
1070
    44
1040
1.0
1070
    74
1070
     0
1000
MTEXTEND
  0
POINT
  5
15F4B
330
15E32
100
AcDbEntity
  8
DEFPOINTS
 62
     0
 48
50.0
100
AcDbPoint
 10
8444.502860906814
 20
5644.577276893862
 30
0.0
  0
POINT
  5
15F4C
330
15E32
100
AcDbEntity
  8
DEFPOINTS
 62
     0
 48
50.0
100
AcDbPoint
 10
8394.502860906815
 20
5644.577276893864
 30
0.0
  0
POINT
  5
15F4D
330
15E32
100
AcDbEntity
  8
DEFPOINTS
 62
     0
 48
50.0
100
AcDbPoint
 10
8394.502860906815
 20
5857.118862152103
 30
0.0
  0
ENDBLK
  5
15E3F
330
15E32
100
AcDbEntity
  8
0
 48
50.0
100
AcDbBlockEnd
  0
BLOCK
  5
164D8
330
164CE
100
AcDbEntity
  8
0
 48
50.0
100
AcDbBlockBegin
  2
*D39
 70
     1
 10
0.0
 20
0.0
 30
0.0
  3
*D39
  1

  0
LINE
  5
1664A
330
164CE
100
AcDbEntity
  8
寸法
 62
     0
 48
50.0
370
    -2
100
AcDbLine
 10
10761.37477346719
 20
3569.57727689386
 30
0.0
 11
9859.780895311903
 21
3569.57727689386
 31
0.0
  0
LINE
  5
1664B
330
164CE
100
AcDbEntity
  8
寸法
 62
     0
 48
50.0
370
    -2
100
AcDbLine
 10
10701.37477346719
 20
5644.577276893866
 30
0.0
 11
9859.780895311905
 21
5644.577276893866
 31
0.0
  0
LINE
  5
1664C
330
164CE
100
AcDbEntity
  8
寸法
 62
     0
 48
50.0
370
    -2
100
AcDbLine
 10
9919.780895311902
 20
3569.57727689386
 30
0.0
 11
9919.780895311903
 21
5644.577276893866
 31
0.0
  0
INSERT
  5
1664D
330
164CE
100
AcDbEntity
  8
寸法
 62
     0
 48
50.0
370
    -2
100
AcDbBlockReference
  2
_DOTSMALL
 10
9919.780895311902
 20
3569.57727689386
 30
0.0
 41
100.0
 42
100.0
 43
100.0
 50
270.0
  0
INSERT
  5
1664E
330
164CE
100
AcDbEntity
  8
寸法
 62
     0
 48
50.0
370
    -2
100
AcDbBlockReference
  2
_DOTSMALL
 10
9919.780895311903
 20
5644.577276893866
 30
0.0
 41
100.0
 42
100.0
 43
100.0
 50
90.0
  0
MTEXT
  5
1664F
330
164CE
100
AcDbEntity
  8
寸法
 62
     7
 48
50.0
100
AcDbMText
 10
9819.769084288282
 20
4597.155906173022
 30
0.0
 40
120.0
 41
0.0
 71
     5
 72
     1
  1
\A1;2075
  7
STYLE1
 11
0.0000000000000001
 21
1.0
 31
0.0
 73
     1
 44
1.0
1001
ACAD
1000
MTEXTBEGIN
1070
    73
1070
     1
1070
    44
1040
1.0
1070
    74
1070
     0
1000
MTEXTEND
  0
POINT
  5
16650
330
164CE
100
AcDbEntity
  8
DEFPOINTS
 62
     0
 48
50.0
100
AcDbPoint
 10
10781.37477346719
 20
3569.57727689386
 30
0.0
  0
POINT
  5
16651
330
164CE
100
AcDbEntity
  8
DEFPOINTS
 62
     0
 48
50.0
100
AcDbPoint
 10
10721.37477346719
 20
5644.577276893866
 30
0.0
  0
POINT
  5
16652
330
164CE
100
AcDbEntity
  8
DEFPOINTS
 62
     0
 48
50.0
100
AcDbPoint
 10
9919.780895311903
 20
5644.577276893866
 30
0.0
  0
ENDBLK
  5
164D9
330
164CE
100
AcDbEntity
  8
0
 48
50.0
100
AcDbBlockEnd
  0
BLOCK
  5
164E5
330
164DA
100
AcDbEntity
  8
0
 48
50.0
100
AcDbBlockBegin
  2
*D40
 70
     1
 10
0.0
 20
0.0
 30
0.0
  3
*D40
  1

  0
LINE
  5
16640
330
164DA
100
AcDbEntity
  8
寸法
 62
     0
 48
50.0
370
    -2
100
AcDbLine
 10
10720.77905975829
 20
5643.874983963523
 30
0.0
 11
10104.84462065301
 21
5661.589134237853
 31
0.0
  0
LINE
  5
16641
330
164DA
100
AcDbEntity
  8
寸法
 62
     0
 48
50.0
370
    -2
100
AcDbLine
 10
10716.72560420167
 20
5502.93326019781
 30
0.0
 11
10100.79116509639
 21
5520.64741047214
 31
0.0
  0
LINE
  5
16642
330
164DA
100
AcDbEntity
  8
寸法
 62
     0
 48
50.0
370
    -2
100
AcDbLine
 10
10160.76636669882
 20
5518.922535767192
 30
0.0
 11
10164.81982225545
 21
5659.864259532905
 31
0.0
  0
LINE
  5
16643
330
164DA
100
AcDbEntity
  8
寸法
 62
     0
 48
50.0
370
    -2
100
AcDbLine
 10
10164.81982225545
 20
5659.864259532905
 30
0.0
 11
10175.16907048513
 21
6019.71546914749
 31
0.0
  0
INSERT
  5
16644
330
164DA
100
AcDbEntity
  8
寸法
 62
     0
 48
50.0
370
    -2
100
AcDbBlockReference
  2
_DOTSMALL
 10
10160.76636669882
 20
5518.922535767192
 30
0.0
 41
100.0
 42
100.0
 43
100.0
 50
268.3526390256378
  0
INSERT
  5
16645
330
164DA
100
AcDbEntity
  8
寸法
 62
     0
 48
50.0
370
    -2
100
AcDbBlockReference
  2
_DOTSMALL
 10
10164.81982225545
 20
5659.864259532905
 30
0.0
 41
100.0
 42
100.0
 43
100.0
 50
88.35263902563776
  0
MTEXT
  5
16646
330
164DA
100
AcDbEntity
  8
寸法
 62
     7
 48
50.0
100
AcDbMText
 10
10071.47317262036
 20
5892.643990183803
 30
0.0
 40
120.0
 41
0.0
 71
     5
 72
     1
  1
\A1;141
  7
STYLE1
 11
0.0287479117491237
 21
0.9995866933738488
 31
0.0
 73
     1
 44
1.0
1001
ACAD
1000
MTEXTBEGIN
1070
    73
1070
     1
1070
    44
1040
1.0
1070
    74
1070
     0
1000
MTEXTEND
  0
POINT
  5
16647
330
164DA
100
AcDbEntity
  8
DEFPOINTS
 62
     0
 48
50.0
100
AcDbPoint
 10
10740.77079362577
 20
5643.300025728541
 30
0.0
  0
POINT
  5
16648
330
164DA
100
AcDbEntity
  8
DEFPOINTS
 62
     0
 48
50.0
100
AcDbPoint
 10
10736.71733806914
 20
5502.358301962827
 30
0.0
  0
POINT
  5
16649
330
164DA
100
AcDbEntity
  8
DEFPOINTS
 62
     0
 48
50.0
100
AcDbPoint
 10
10160.76636669882
 20
5518.922535767192
 30
0.0
  0
ENDBLK
  5
164E6
330
164DA
100
AcDbEntity
  8
0
 48
50.0
100
AcDbBlockEnd
  0
BLOCK
  5
164F3
330
164E7
100
AcDbEntity
  8
0
 48
50.0
100
AcDbBlockBegin
  2
*D41
 70
     1
 10
0.0
 20
0.0
 30
0.0
  3
*D41
  1

  0
LINE
  5
16635
330
164E7
100
AcDbEntity
  8
寸法
 62
     0
 48
50.0
370
    -2
100
AcDbLine
 10
10781.37477346719
 20
5660.578895016837
 30
0.0
 11
10781.37477346719
 21
6103.234730473165
 31
0.0
  0
LINE
  5
16636
330
164E7
100
AcDbEntity
  8
寸法
 62
     0
 48
50.0
370
    -2
100
AcDbLine
 10
10721.37477346719
 20
5664.577276893866
 30
0.0
 11
10721.37477346719
 21
6103.234730473165
 31
0.0
  0
LINE
  5
16637
330
164E7
100
AcDbEntity
  8
寸法
 62
     0
 48
50.0
370
    -2
100
AcDbLine
 10
10781.37477346719
 20
6043.234730473165
 30
0.0
 11
10881.37477346719
 21
6043.234730473165
 31
0.0
  0
LINE
  5
16638
330
164E7
100
AcDbEntity
  8
寸法
 62
     0
 48
50.0
370
    -2
100
AcDbLine
 10
10721.37477346719
 20
6043.234730473165
 30
0.0
 11
10302.09918291601
 21
6043.234730473165
 31
0.0
  0
LINE
  5
16639
330
164E7
100
AcDbEntity
  8
寸法
 62
     0
 48
50.0
370
    -2
100
AcDbLine
 10
10781.37477346719
 20
6043.234730473165
 30
0.0
 11
10721.37477346719
 21
6043.234730473165
 31
0.0
  0
INSERT
  5
1663A
330
164E7
100
AcDbEntity
  8
寸法
 62
     0
 48
50.0
370
    -2
100
AcDbBlockReference
  2
_DOTSMALL
 10
10781.37477346719
 20
6043.234730473165
 30
0.0
 41
100.0
 42
100.0
 43
100.0
 50
180.0
  0
INSERT
  5
1663B
330
164E7
100
AcDbEntity
  8
寸法
 62
     0
 48
50.0
370
    -2
100
AcDbBlockReference
  2
_DOTSMALL
 10
10721.37477346719
 20
6043.234730473165
 30
0.0
 41
100.0
 42
100.0
 43
100.0
  0
MTEXT
  5
1663C
330
164E7
100
AcDbEntity
  8
寸法
 62
     7
 48
50.0
100
AcDbMText
 10
10411.7369781916
 20
6143.234730473165
 30
0.0
 40
120.0
 41
0.0
 71
     5
 72
     1
  1
\A1;60
  7
STYLE1
 73
     1
 44
1.0
1001
ACAD
1000
MTEXTBEGIN
1070
    73
1070
     1
1070
    44
1040
1.0
1070
    74
1070
     0
1000
MTEXTEND
  0
POINT
  5
1663D
330
164E7
100
AcDbEntity
  8
DEFPOINTS
 62
     0
 48
50.0
100
AcDbPoint
 10
10781.37477346719
 20
5640.578895016837
 30
0.0
  0
POINT
  5
1663E
330
164E7
100
AcDbEntity
  8
DEFPOINTS
 62
     0
 48
50.0
100
AcDbPoint
 10
10721.37477346719
 20
5644.577276893866
 30
0.0
  0
POINT
  5
1663F
330
164E7
100
AcDbEntity
  8
DEFPOINTS
 62
     0
 48
50.0
100
AcDbPoint
 10
10721.37477346719
 20
6043.234730473165
 30
0.0
  0
ENDBLK
  5
164F4
330
164E7
100
AcDbEntity
  8
0
 48
50.0
100
AcDbBlockEnd
  0
BLOCK
  5
164FF
330
164F5
100
AcDbEntity
  8
0
 48
50.0
100
AcDbBlockBegin
  2
*D42
 70
     1
 10
0.0
 20
0.0
 30
0.0
  3
*D42
  1

  0
LINE
  5
1662C
330
164F5
100
AcDbEntity
  8
寸法
 62
     0
 48
50.0
370
    -2
100
AcDbLine
 10
11731.37477346719
 20
5611.387956505514
 30
0.0
 11
11731.37477346719
 21
6103.234730473165
 31
0.0
  0
LINE
  5
1662D
330
164F5
100
AcDbEntity
  8
寸法
 62
     0
 48
50.0
370
    -2
100
AcDbLine
 10
10781.37477346719
 20
5660.578895016837
 30
0.0
 11
10781.37477346719
 21
6103.234730473165
 31
0.0
  0
LINE
  5
1662E
330
164F5
100
AcDbEntity
  8
寸法
 62
     0
 48
50.0
370
    -2
100
AcDbLine
 10
11731.37477346719
 20
6043.234730473165
 30
0.0
 11
10781.37477346719
 21
6043.234730473165
 31
0.0
  0
INSERT
  5
1662F
330
164F5
100
AcDbEntity
  8
寸法
 62
     0
 48
50.0
370
    -2
100
AcDbBlockReference
  2
_DOTSMALL
 10
11731.37477346719
 20
6043.234730473165
 30
0.0
 41
100.0
 42
100.0
 43
100.0
  0
INSERT
  5
16630
330
164F5
100
AcDbEntity
  8
寸法
 62
     0
 48
50.0
370
    -2
100
AcDbBlockReference
  2
_DOTSMALL
 10
10781.37477346719
 20
6043.234730473165
 30
0.0
 41
100.0
 42
100.0
 43
100.0
 50
180.0
  0
MTEXT
  5
16631
330
164F5
100
AcDbEntity
  8
寸法
 62
     7
 48
50.0
100
AcDbMText
 10
11278.08657569808
 20
6143.234730473165
 30
0.0
 40
120.0
 41
0.0
 71
     5
 72
     1
  1
\A1;柱外寸法950
  7
STYLE1
 73
     1
 44
1.0
1001
ACAD
1000
MTEXTBEGIN
1070
    73
1070
     1
1070
    44
1040
1.0
1070
    74
1070
     0
1000
MTEXTEND
  0
POINT
  5
16632
330
164F5
100
AcDbEntity
  8
DEFPOINTS
 62
     0
 48
50.0
100
AcDbPoint
 10
11731.37477346719
 20
5591.387956505514
 30
0.0
  0
POINT
  5
16633
330
164F5
100
AcDbEntity
  8
DEFPOINTS
 62
     0
 48
50.0
100
AcDbPoint
 10
10781.37477346719
 20
5640.578895016837
 30
0.0
  0
POINT
  5
16634
330
164F5
100
AcDbEntity
  8
DEFPOINTS
 62
     0
 48
50.0
100
AcDbPoint
 10
10781.37477346719
 20
6043.234730473165
 30
0.0
  0
ENDBLK
  5
16500
330
164F5
100
AcDbEntity
  8
0
 48
50.0
100
AcDbBlockEnd
  0
BLOCK
  5
1650B
330
16501
100
AcDbEntity
  8
0
 48
50.0
100
AcDbBlockBegin
  2
*D43
 70
     1
 10
0.0
 20
0.0
 30
0.0
  3
*D43
  1

  0
LINE
  5
16623
330
16501
100
AcDbEntity
  8
寸法
 62
     0
 48
50.0
370
    -2
100
AcDbLine
 10
11811.37477346719
 20
5609.577276893862
 30
0.0
 11
11811.37477346719
 21
6337.937939113255
 31
0.0
  0
LINE
  5
16624
330
16501
100
AcDbEntity
  8
寸法
 62
     0
 48
50.0
370
    -2
100
AcDbLine
 10
10721.37477346719
 20
5664.577276893866
 30
0.0
 11
10721.37477346719
 21
6337.937939113255
 31
0.0
  0
LINE
  5
16625
330
16501
100
AcDbEntity
  8
寸法
 62
     0
 48
50.0
370
    -2
100
AcDbLine
 10
11811.37477346719
 20
6277.937939113255
 30
0.0
 11
10721.37477346719
 21
6277.937939113255
 31
0.0
  0
INSERT
  5
16626
330
16501
100
AcDbEntity
  8
寸法
 62
     0
 48
50.0
370
    -2
100
AcDbBlockReference
  2
_DOTSMALL
 10
11811.37477346719
 20
6277.937939113255
 30
0.0
 41
100.0
 42
100.0
 43
100.0
  0
INSERT
  5
16627
330
16501
100
AcDbEntity
  8
寸法
 62
     0
 48
50.0
370
    -2
100
AcDbBlockReference
  2
_DOTSMALL
 10
10721.37477346719
 20
6277.937939113255
 30
0.0
 41
100.0
 42
100.0
 43
100.0
 50
180.0
  0
MTEXT
  5
16628
330
16501
100
AcDbEntity
  8
寸法
 62
     7
 48
50.0
100
AcDbMText
 10
11268.29173388155
 20
6377.937939113255
 30
0.0
 40
120.0
 41
0.0
 71
     5
 72
     1
  1
\A1;1090
  7
STYLE1
 73
     1
 44
1.0
1001
ACAD
1000
MTEXTBEGIN
1070
    73
1070
     1
1070
    44
1040
1.0
1070
    74
1070
     0
1000
MTEXTEND
  0
POINT
  5
16629
330
16501
100
AcDbEntity
  8
DEFPOINTS
 62
     0
 48
50.0
100
AcDbPoint
 10
11811.37477346719
 20
5589.577276893862
 30
0.0
  0
POINT
  5
1662A
330
16501
100
AcDbEntity
  8
DEFPOINTS
 62
     0
 48
50.0
100
AcDbPoint
 10
10721.37477346719
 20
5644.577276893866
 30
0.0
  0
POINT
  5
1662B
330
16501
100
AcDbEntity
  8
DEFPOINTS
 62
     0
 48
50.0
100
AcDbPoint
 10
10721.37477346719
 20
6277.937939113255
 30
0.0
  0
ENDBLK
  5
1650C
330
16501
100
AcDbEntity
  8
0
 48
50.0
100
AcDbBlockEnd
  0
BLOCK
  5
16518
330
1650D
100
AcDbEntity
  8
0
 48
50.0
100
AcDbBlockBegin
  2
*D44
 70
     1
 10
0.0
 20
0.0
 30
0.0
  3
*D44
  1

  0
LINE
  5
16619
330
1650D
100
AcDbEntity
  8
寸法
 62
     0
 48
50.0
370
    -2
100
AcDbLine
 10
11731.37477346719
 20
5611.387956505514
 30
0.0
 11
11731.37477346719
 21
6103.234730473165
 31
0.0
  0
LINE
  5
1661A
330
1650D
100
AcDbEntity
  8
寸法
 62
     0
 48
50.0
370
    -2
100
AcDbLine
 10
11811.37477346719
 20
5609.577276893862
 30
0.0
 11
11811.37477346719
 21
6103.234730473165
 31
0.0
  0
LINE
  5
1661B
330
1650D
100
AcDbEntity
  8
寸法
 62
     0
 48
50.0
370
    -2
100
AcDbLine
 10
11731.37477346719
 20
6043.234730473165
 30
0.0
 11
11811.37477346719
 21
6043.234730473165
 31
0.0
  0
LINE
  5
1661C
330
1650D
100
AcDbEntity
  8
寸法
 62
     0
 48
50.0
370
    -2
100
AcDbLine
 10
11811.37477346719
 20
6043.234730473165
 30
0.0
 11
12123.46926165617
 21
6043.234730473165
 31
0.0
  0
INSERT
  5
1661D
330
1650D
100
AcDbEntity
  8
寸法
 62
     0
 48
50.0
370
    -2
100
AcDbBlockReference
  2
_DOTSMALL
 10
11731.37477346719
 20
6043.234730473165
 30
0.0
 41
100.0
 42
100.0
 43
100.0
 50
180.0
  0
INSERT
  5
1661E
330
1650D
100
AcDbEntity
  8
寸法
 62
     0
 48
50.0
370
    -2
100
AcDbBlockReference
  2
_DOTSMALL
 10
11811.37477346719
 20
6043.234730473165
 30
0.0
 41
100.0
 42
100.0
 43
100.0
  0
MTEXT
  5
1661F
330
1650D
100
AcDbEntity
  8
寸法
 62
     7
 48
50.0
100
AcDbMText
 10
12017.42201756168
 20
6143.234730473165
 30
0.0
 40
120.0
 41
0.0
 71
     5
 72
     1
  1
\A1;80
  7
STYLE1
 73
     1
 44
1.0
1001
ACAD
1000
MTEXTBEGIN
1070
    73
1070
     1
1070
    44
1040
1.0
1070
    74
1070
     0
1000
MTEXTEND
  0
POINT
  5
16620
330
1650D
100
AcDbEntity
  8
DEFPOINTS
 62
     0
 48
50.0
100
AcDbPoint
 10
11731.37477346719
 20
5591.387956505514
 30
0.0
  0
POINT
  5
16621
330
1650D
100
AcDbEntity
  8
DEFPOINTS
 62
     0
 48
50.0
100
AcDbPoint
 10
11811.37477346719
 20
5589.577276893862
 30
0.0
  0
POINT
  5
16622
330
1650D
100
AcDbEntity
  8
DEFPOINTS
 62
     0
 48
50.0
100
AcDbPoint
 10
11811.37477346719
 20
6043.234730473165
 30
0.0
  0
ENDBLK
  5
16519
330
1650D
100
AcDbEntity
  8
0
 48
50.0
100
AcDbBlockEnd
  0
BLOCK
  5
16524
330
1651A
100
AcDbEntity
  8
0
 48
50.0
100
AcDbBlockBegin
  2
*D45
 70
     1
 10
0.0
 20
0.0
 30
0.0
  3
*D45
  1

  0
LINE
  5
16610
330
1651A
100
AcDbEntity
  8
寸法
 62
     0
 48
50.0
370
    -2
100
AcDbLine
 10
11751.37477346719
 20
3569.57727689386
 30
0.0
 11
12301.78331140102
 21
3569.57727689386
 31
0.0
  0
LINE
  5
16611
330
1651A
100
AcDbEntity
  8
寸法
 62
     0
 48
50.0
370
    -2
100
AcDbLine
 10
11831.3747734672
 20
5589.57727689386
 30
0.0
 11
12301.78331140102
 21
5589.57727689386
 31
0.0
  0
LINE
  5
16612
330
1651A
100
AcDbEntity
  8
寸法
 62
     0
 48
50.0
370
    -2
100
AcDbLine
 10
12261.78331140102
 20
3589.577276893861
 30
0.0
 11
12261.78331140102
 21
5569.57727689386
 31
0.0
  0
INSERT
  5
16613
330
1651A
100
AcDbEntity
  8
寸法
 62
     0
 48
50.0
370
    -2
100
AcDbBlockReference
  2
_DOT
 10
12261.78331140102
 20
3569.57727689386
 30
0.0
 41
20.0
 42
20.0
 43
20.0
 50
270.0
  0
INSERT
  5
16614
330
1651A
100
AcDbEntity
  8
寸法
 62
     0
 48
50.0
370
    -2
100
AcDbBlockReference
  2
_DOT
 10
12261.78331140102
 20
5589.57727689386
 30
0.0
 41
20.0
 42
20.0
 43
20.0
 50
90.0
  0
MTEXT
  5
16615
330
1651A
100
AcDbEntity
  8
寸法
 62
     7
 48
50.0
100
AcDbMText
 10
12169.7715003774
 20
4521.501672958286
 30
0.0
 40
120.0
 41
0.0
 71
     5
 72
     1
  1
\A1;2020
  7
STYLE1
 11
0.0000000000000001
 21
1.0
 31
0.0
 73
     1
 44
1.0
1001
ACAD
1000
MTEXTBEGIN
1070
    73
1070
     1
1070
    44
1040
1.0
1070
    74
1070
     0
1000
MTEXTEND
  0
POINT
  5
16616
330
1651A
100
AcDbEntity
  8
DEFPOINTS
 62
     0
 48
50.0
100
AcDbPoint
 10
11731.37477346719
 20
3569.57727689386
 30
0.0
  0
POINT
  5
16617
330
1651A
100
AcDbEntity
  8
DEFPOINTS
 62
     0
 48
50.0
100
AcDbPoint
 10
11811.3747734672
 20
5589.57727689386
 30
0.0
  0
POINT
  5
16618
330
1651A
100
AcDbEntity
  8
DEFPOINTS
 62
     0
 48
50.0
100
AcDbPoint
 10
12261.78331140102
 20
5589.57727689386
 30
0.0
  0
ENDBLK
  5
16525
330
1651A
100
AcDbEntity
  8
0
 48
50.0
100
AcDbBlockEnd
  0
BLOCK
  5
16530
330
16526
100
AcDbEntity
  8
0
 48
50.0
100
AcDbBlockBegin
  2
*D46
 70
     1
 10
0.0
 20
0.0
 30
0.0
  3
*D46
  1

  0
LINE
  5
16607
330
16526
100
AcDbEntity
  8
寸法
 62
     0
 48
50.0
370
    -2
100
AcDbLine
 10
10754.37240342241
 20
5409.577276893862
 30
0.0
 11
10119.41168277499
 21
5409.577276893863
 31
0.0
  0
LINE
  5
16608
330
16526
100
AcDbEntity
  8
寸法
 62
     0
 48
50.0
370
    -2
100
AcDbLine
 10
10754.37240342241
 20
3619.577276893864
 30
0.0
 11
10119.41168277499
 21
3619.577276893864
 31
0.0
  0
LINE
  5
16609
330
16526
100
AcDbEntity
  8
寸法
 62
     0
 48
50.0
370
    -2
100
AcDbLine
 10
10179.41168277499
 20
5409.577276893863
 30
0.0
 11
10179.41168277499
 21
3619.577276893864
 31
0.0
  0
INSERT
  5
1660A
330
16526
100
AcDbEntity
  8
寸法
 62
     0
 48
50.0
370
    -2
100
AcDbBlockReference
  2
_DOTSMALL
 10
10179.41168277499
 20
5409.577276893863
 30
0.0
 41
100.0
 42
100.0
 43
100.0
 50
90.0
  0
INSERT
  5
1660B
330
16526
100
AcDbEntity
  8
寸法
 62
     0
 48
50.0
370
    -2
100
AcDbBlockReference
  2
_DOTSMALL
 10
10179.41168277499
 20
3619.577276893864
 30
0.0
 41
100.0
 42
100.0
 43
100.0
 50
270.0
  0
MTEXT
  5
1660C
330
16526
100
AcDbEntity
  8
寸法
 62
     7
 48
50.0
100
AcDbMText
 10
10079.41168277499
 20
4524.612288770249
 30
0.0
 40
120.0
 41
0.0
 71
     5
 72
     1
  1
\A1;1790
  7
STYLE1
 11
0.0000000000000001
 21
1.0
 31
0.0
 73
     1
 44
1.0
1001
ACAD
1000
MTEXTBEGIN
1070
    73
1070
     1
1070
    44
1040
1.0
1070
    74
1070
     0
1000
MTEXTEND
  0
POINT
  5
1660D
330
16526
100
AcDbEntity
  8
DEFPOINTS
 62
     0
 48
50.0
100
AcDbPoint
 10
10774.37240342241
 20
5409.577276893862
 30
0.0
  0
POINT
  5
1660E
330
16526
100
AcDbEntity
  8
DEFPOINTS
 62
     0
 48
50.0
100
AcDbPoint
 10
10774.37240342241
 20
3619.577276893864
 30
0.0
  0
POINT
  5
1660F
330
16526
100
AcDbEntity
  8
DEFPOINTS
 62
     0
 48
50.0
100
AcDbPoint
 10
10179.41168277499
 20
3619.577276893864
 30
0.0
  0
ENDBLK
  5
16531
330
16526
100
AcDbEntity
  8
0
 48
50.0
100
AcDbBlockEnd
  0
BLOCK
  5
1653E
330
16532
100
AcDbEntity
  8
0
 48
50.0
100
AcDbBlockBegin
  2
*D47
 70
     1
 10
0.0
 20
0.0
 30
0.0
  3
*D47
  1

  0
LINE
  5
165FC
330
16532
100
AcDbEntity
  8
寸法
 62
     0
 48
50.0
370
    -2
100
AcDbLine
 10
10754.37240342241
 20
3619.577276893864
 30
0.0
 11
10119.41168277499
 21
3619.577276893864
 31
0.0
  0
LINE
  5
165FD
330
16532
100
AcDbEntity
  8
寸法
 62
     0
 48
50.0
370
    -2
100
AcDbLine
 10
10706.37477346719
 20
3569.577276893863
 30
0.0
 11
10119.41168277499
 21
3569.577276893863
 31
0.0
  0
LINE
  5
165FE
330
16532
100
AcDbEntity
  8
寸法
 62
     0
 48
50.0
370
    -2
100
AcDbLine
 10
10179.41168277499
 20
3619.577276893864
 30
0.0
 11
10179.41168277499
 21
3719.577276893864
 31
0.0
  0
LINE
  5
165FF
330
16532
100
AcDbEntity
  8
寸法
 62
     0
 48
50.0
370
    -2
100
AcDbLine
 10
10179.41168277499
 20
3569.577276893863
 30
0.0
 11
10179.41168277499
 21
3157.482788704882
 31
0.0
  0
LINE
  5
16600
330
16532
100
AcDbEntity
  8
寸法
 62
     0
 48
50.0
370
    -2
100
AcDbLine
 10
10179.41168277499
 20
3619.577276893864
 30
0.0
 11
10179.41168277499
 21
3569.577276893863
 31
0.0
  0
INSERT
  5
16601
330
16532
100
AcDbEntity
  8
寸法
 62
     0
 48
50.0
370
    -2
100
AcDbBlockReference
  2
_DOTSMALL
 10
10179.41168277499
 20
3619.577276893864
 30
0.0
 41
100.0
 42
100.0
 43
100.0
 50
270.0
  0
INSERT
  5
16602
330
16532
100
AcDbEntity
  8
寸法
 62
     0
 48
50.0
370
    -2
100
AcDbBlockReference
  2
_DOTSMALL
 10
10179.41168277499
 20
3569.577276893863
 30
0.0
 41
100.0
 42
100.0
 43
100.0
 50
90.0
  0
MTEXT
  5
16603
330
16532
100
AcDbEntity
  8
寸法
 62
     7
 48
50.0
100
AcDbMText
 10
10079.41168277499
 20
3263.530032799372
 30
0.0
 40
120.0
 41
0.0
 71
     5
 72
     1
  1
\A1;50
  7
STYLE1
 11
0.0000000000000001
 21
1.0
 31
0.0
 73
     1
 44
1.0
1001
ACAD
1000
MTEXTBEGIN
1070
    73
1070
     1
1070
    44
1040
1.0
1070
    74
1070
     0
1000
MTEXTEND
  0
POINT
  5
16604
330
16532
100
AcDbEntity
  8
DEFPOINTS
 62
     0
 48
50.0
100
AcDbPoint
 10
10774.37240342241
 20
3619.577276893864
 30
0.0
  0
POINT
  5
16605
330
16532
100
AcDbEntity
  8
DEFPOINTS
 62
     0
 48
50.0
100
AcDbPoint
 10
10726.37477346719
 20
3569.577276893863
 30
0.0
  0
POINT
  5
16606
330
16532
100
AcDbEntity
  8
DEFPOINTS
 62
     0
 48
50.0
100
AcDbPoint
 10
10179.41168277499
 20
3569.577276893863
 30
0.0
  0
ENDBLK
  5
1653F
330
16532
100
AcDbEntity
  8
0
 48
50.0
100
AcDbBlockEnd
  0
ENDSEC
  0
SECTION
  2
ENTITIES
  0
LINE
  5
10B56
330
747D
100
AcDbEntity
  8
補助
  6
PHANTOM
 62
   230
 48
50.0
100
AcDbLine
 10
140.0
 20
0.0
 30
0.0
 11
139.9999999999995
 21
11409.6
 31
0.0
  0
LINE
  5
10B57
330
747D
100
AcDbEntity
  8
補助
  6
PHANTOM
 62
   230
 48
50.0
100
AcDbLine
 10
139.9999999999995
 20
11409.6
 30
0.0
 11
16307.2
 21
11409.6
 31
0.0
  0
LINE
  5
10B59
330
747D
100
AcDbEntity
  8
仕様書枠
  6
Continuous
 48
50.0
100
AcDbLine
 10
13107.2
 20
1200.0
 30
0.0
 11
13107.2
 21
-0.0000000000000729
 31
0.0
  0
LINE
  5
10B5C
330
747D
100
AcDbEntity
  8
仕様書枠
 48
50.0
100
AcDbLine
 10
16307.2
 20
1200.0
 30
0.0
 11
16307.2
 21
-0.0000000000000909
 31
0.0
  0
LINE
  5
10B5D
330
747D
100
AcDbEntity
  8
仕様書枠
 48
50.0
100
AcDbLine
 10
140.0
 20
0.0
 30
0.0
 11
16307.2
 21
-0.0000000000000909
 31
0.0
  0
LINE
  5
10B5E
330
747D
100
AcDbEntity
  8
補助
  6
PHANTOM
 62
   230
 48
50.0
100
AcDbLine
 10
16307.2
 20
11409.6
 30
0.0
 11
16307.2
 21
1200.0
 31
0.0
  0
LINE
  5
10B6C
330
747D
100
AcDbEntity
  8
仕様書枠
 48
50.0
100
AcDbLine
 10
13107.2
 20
1200.0
 30
0.0
 11
16307.2
 21
1200.0
 31
0.0
  0
LINE
  5
10B6D
330
747D
100
AcDbEntity
  8
補助
  6
PHANTOM
 62
   230
 48
50.0
100
AcDbLine
 10
13107.2
 20
11409.6
 30
0.0
 11
13107.2
 21
4800.0
 31
0.0
  0
LINE
  5
10B6F
330
747D
100
AcDbEntity
  8
補助
  6
PHANTOM
 62
   230
 48
50.0
100
AcDbLine
 10
13107.2
 20
4800.0
 30
0.0
 11
16307.2
 21
4800.0
 31
0.0
  0
LINE
  5
10B72
330
747D
100
AcDbEntity
  8
文字
 62
     7
 48
50.0
100
AcDbLine
 10
13187.2
 20
400.0
 30
0.0
 11
16227.2
 21
400.0
 31
0.0
  0
TEXT
  5
10B73
330
747D
100
AcDbEntity
  8
文字
 62
     7
 48
50.0
100
AcDbText
 10
13162.9790565769
 20
895.0906074299405
 30
0.0
 40
200.0
  1
外 形 図
  7
STYLE2
100
AcDbText
  0
TEXT
  5
10B74
330
747D
100
AcDbEntity
  8
文字
 62
     7
 48
50.0
100
AcDbText
 10
13201.43669998441
 20
477.2740661031255
 30
0.0
 40
160.0
  1
機種名
  7
STYLE2
100
AcDbText
  0
TEXT
  5
10B75
330
747D
100
AcDbEntity
  8
文字
 62
     7
 48
50.0
100
AcDbText
 10
13209.4053442172
 20
228.5435242569016
 30
0.0
 40
100.0
  1
○有効開口寸法 ： 685×1760(mm)
  7
STYLE2
100
AcDbText
  0
TEXT
  5
10B76
330
747D
100
AcDbEntity
  8
文字
 62
     7
 48
50.0
100
AcDbText
 10
13209.4053442172
 20
76.09434707649343
 30
0.0
 40
100.0
  1
○床面積 ： 4.67㎡(1.42坪) 　
  7
STYLE2
100
AcDbText
  0
TEXT
  5
10B79
330
747D
100
AcDbEntity
  8
文字
 62
     7
 48
50.0
100
AcDbText
 10
14524.131837222
 20
1031.557706291228
 30
0.0
 40
100.0
  1
NO.05     <縮尺> S=1/40
  7
STYLE2
100
AcDbText
  0
LINE
  5
10B7B
330
747D
100
AcDbEntity
  8
仕様書枠
 48
50.0
100
AcDbLine
 10
13107.2
 20
800.0
 30
0.0
 11
14251.2
 21
800.0
 31
0.0
  0
LINE
  5
10B88
330
747D
100
AcDbEntity
  8
仕様書枠
  6
Continuous
 48
50.0
100
AcDbLine
 10
14251.2
 20
1200.0
 30
0.0
 11
14251.2
 21
800.0
 31
0.0
  0
TEXT
  5
10EA8
330
747D
100
AcDbEntity
  8
文字
 62
     7
 48
50.0
100
AcDbText
 10
14251.2
 20
838.2527270729188
 30
0.0
 40
100.0
  1
～一般型・多雪地型・豪雪地型～
  7
STYLE2
100
AcDbText
  0
LINE
  5
13A41
330
747D
100
AcDbEntity
  8
Ｇ．Ｌ
100
AcDbLine
 10
2386.236258236328
 20
3469.577276893861
 30
0.0
 11
12451.80051016732
 21
3469.577276893861
 31
0.0
  0
LINE
  5
13A4F
330
747D
100
AcDbEntity
  8
部品1
100
AcDbLine
 10
3474.502860906811
 20
3612.577276893849
 30
0.0
 11
8394.502860906809
 21
3612.577276893889
 31
0.0
  0
LINE
  5
13A54
330
747D
100
AcDbEntity
  8
部品1
100
AcDbLine
 10
3474.502860906811
 20
5409.577276893859
 30
0.0
 11
8394.502860906809
 21
5409.577276893861
 31
0.0
  0
LINE
  5
13A55
330
747D
100
AcDbEntity
  8
部品1
100
AcDbLine
 10
3474.502860906811
 20
3569.57727689386
 30
0.0
 11
8394.502860906809
 21
3569.577276893861
 31
0.0
  0
LINE
  5
13A5E
330
747D
100
AcDbEntity
  8
部品1
100
AcDbLine
 10
5979.50286090681
 20
5407.077276893864
 30
0.0
 11
5979.502860906809
 21
3616.077276893866
 31
0.0
  0
LINE
  5
13A5F
330
747D
100
AcDbEntity
  8
部品1
100
AcDbLine
 10
7531.502860906811
 20
5409.577276893861
 30
0.0
 11
7531.502860906811
 21
3612.577276893881
 31
0.0
  0
LINE
  5
13A60
330
747D
100
AcDbEntity
  8
部品1
100
AcDbLine
 10
3474.50286090681
 20
5503.577276893864
 30
0.0
 11
3474.502860906811
 21
3469.577276893861
 31
0.0
  0
TEXT
  5
13A63
330
747D
100
AcDbEntity
  8
部品1
100
AcDbText
 10
2405.714347607151
 20
3505.684180499763
 30
0.0
 40
125.0
  1
▽G.L
  7
STYLE2
100
AcDbText
  0
LINE
  5
13AB6
330
747D
100
AcDbEntity
  8
部品1
100
AcDbLine
 10
8394.502860906809
 20
5503.577276893858
 30
0.0
 11
8394.502860906809
 21
3469.577276893861
 31
0.0
  0
DIMENSION
  5
13ACA
330
747D
100
AcDbEntity
  8
寸法
100
AcDbDimension
  2
*D1
 10
3156.398333299207
 20
3631.077276893865
 30
0.0
 11
3156.398333299207
 21
4510.077276893862
 31
0.0
 70
   160
  1
有効開口部高サ<>
 71
     5
 42
1759.999999999996
  3
INABA_S40G
100
AcDbAlignedDimension
 13
3474.502860906811
 23
5391.07727689386
 33
0.0
 14
3474.502860906811
 24
3631.077276893865
 34
0.0
 50
90.0
100
AcDbRotatedDimension
1001
ACAD
1000
DSTYLE
1002
{
1070
   288
1070
     1
1002
}
  0
DIMENSION
  5
13B15
330
747D
100
AcDbEntity
  8
寸法
100
AcDbDimension
  2
*D2
 10
6699.502860906815
 20
9522.174134733532
 30
0.0
 11
6344.752860906815
 21
9522.174134733532
 31
0.0
 70
   160
 71
     5
 42
709.999999999999
  3
INABA_S40G
100
AcDbAlignedDimension
 13
5989.502860906817
 23
9306.365915108434
 33
0.0
 14
6699.502860906815
 24
9306.365915108555
 34
0.0
100
AcDbRotatedDimension
1001
ACAD
1000
DSTYLE
1002
{
1002
}
  0
LINE
  5
13B16
330
747D
100
AcDbEntity
  8
部品1
100
AcDbLine
 10
3474.502860906817
 20
9306.365915108434
 30
0.0
 11
8394.502860906817
 21
9306.365915108528
 31
0.0
  0
DIMENSION
  5
13B17
330
747D
100
AcDbEntity
  8
寸法
100
AcDbDimension
  2
*D3
 10
8394.502860906817
 20
9522.174134733509
 30
0.0
 11
8702.988142281055
 21
9522.174134733509
 31
0.0
 70
   160
 71
     5
 42
55.0
  3
INABA_S40G
100
AcDbAlignedDimension
 13
8339.502860906817
 23
9306.365915108528
 33
0.0
 14
8394.502860906817
 24
9306.365915108528
 34
0.0
100
AcDbRotatedDimension
1001
ACAD
1000
DSTYLE
1002
{
1002
}
  0
LINE
  5
13B18
330
747D
100
AcDbEntity
  8
部品1
100
AcDbLine
 10
5962.502860906816
 20
9278.365915108434
 30
0.0
 11
6751.883563925419
 21
9278.365915108482
 31
0.0
  0
LINE
  5
13B20
330
747D
100
AcDbEntity
  8
部品1
100
AcDbLine
 10
8394.502860906792
 20
8356.365915108463
 30
0.0
 11
3474.502860906811
 21
8356.365915108272
 31
0.0
  0
LINE
  5
13B22
330
747D
100
AcDbEntity
  8
部品1
100
AcDbLine
 10
7518.001889482
 20
8487.866020821368
 30
0.0
 11
6810.002860906795
 21
8487.865915133143
 31
0.0
  0
DIMENSION
  5
13B23
330
747D
100
AcDbEntity
  8
寸法
100
AcDbDimension
  2
*D4
 10
8394.502860906792
 20
7369.264040248284
 30
0.0
 11
5934.502860906802
 21
7369.264040248284
 31
0.0
 70
   160
 71
     5
 42
4919.999999999982
  3
INABA_S40G
100
AcDbAlignedDimension
 13
3474.502860906811
 23
8356.365915108272
 33
0.0
 14
8394.502860906792
 24
8356.365915108463
 34
0.0
100
AcDbRotatedDimension
1001
ACAD
1000
DSTYLE
1002
{
1002
}
  0
TEXT
  5
13B2F
330
747D
100
AcDbEntity
  8
部品1
100
AcDbText
 10
5642.68713762162
 20
6825.893697090123
 30
0.0
 40
135.0
  1
平面図
  7
STYLE2
100
AcDbText
  0
LWPOLYLINE
  5
13B30
330
747D
100
AcDbEntity
  8
部品1
100
AcDbPolyline
 90
        4
 70
     1
 43
0.0
 10
5552.767527792582
 20
7018.787226308646
 10
5552.767527792582
 20
6778.894904763113
 10
6316.238194021021
 20
6778.894904763113
 10
6316.238194021021
 20
7018.787226308646
  0
LINE
  5
13B3E
330
747D
100
AcDbEntity
  8
部品1
100
AcDbLine
 10
5962.502860906792
 20
8411.365915108387
 30
0.0
 11
5962.502860906816
 21
9306.365915108459
 31
0.0
  0
LINE
  5
13B48
330
747D
100
AcDbEntity
  8
部品1
100
AcDbLine
 10
5962.502860906809
 20
8411.365915108401
 30
0.0
 11
5906.502860906794
 21
8411.365915108401
 31
0.0
  0
LINE
  5
13B4B
330
747D
100
AcDbEntity
  8
部品1
100
AcDbLine
 10
5985.502860906811
 20
8356.365915108391
 30
0.0
 11
5934.50286090681
 21
8356.365915108391
 31
0.0
  0
LINE
  5
13B4D
330
747D
100
AcDbEntity
  8
部品1
100
AcDbLine
 10
5962.502860906791
 20
8831.365915108401
 30
0.0
 11
5906.502860906805
 21
8831.365915108401
 31
0.0
  0
LINE
  5
13B4E
330
747D
100
AcDbEntity
  8
部品1
100
AcDbLine
 10
5962.502860906784
 20
9251.365915108406
 30
0.0
 11
5906.502860906817
 21
9251.365915108406
 31
0.0
  0
LINE
  5
13B4F
330
747D
100
AcDbEntity
  8
部品1
100
AcDbLine
 10
5989.502860906817
 20
9306.365915108434
 30
0.0
 11
5989.502860906817
 21
9278.365915108434
 31
0.0
  0
LINE
  5
13B50
330
747D
100
AcDbEntity
  8
部品1
100
AcDbLine
 10
5989.502860906782
 20
9306.365915108401
 30
0.0
 11
5989.502860906784
 21
9278.3659151084
 31
0.0
  0
LINE
  5
13B59
330
747D
100
AcDbEntity
  8
破線
 48
10.0
100
AcDbLine
 10
6014.502925831518
 20
8826.865915108443
 30
0.0
 11
6014.502860906804
 21
8511.365915108443
 31
0.0
  0
LINE
  5
13B74
330
747D
100
AcDbEntity
  8
破線
 48
10.0
100
AcDbLine
 10
8314.502925831487
 20
8826.865915108477
 30
0.0
 11
8314.502860906799
 21
8511.365915108525
 31
0.0
  0
LINE
  5
13B77
330
747D
100
AcDbEntity
  8
破線
 48
10.0
100
AcDbLine
 10
7494.502860906795
 20
8511.365915108525
 30
0.0
 11
6833.502860906803
 21
8511.365915108489
 31
0.0
  0
LINE
  5
13B98
330
747D
100
AcDbEntity
  8
部品1
100
AcDbLine
 10
8339.502860906817
 20
9306.365915108548
 30
0.0
 11
8339.502860906817
 21
9278.365915108548
 31
0.0
  0
LINE
  5
13B99
330
747D
100
AcDbEntity
  8
部品1
100
AcDbLine
 10
8339.502860906817
 20
9306.365915108528
 30
0.0
 11
8339.502860906817
 21
9278.365915108528
 31
0.0
  0
DIMENSION
  5
13B9A
330
747D
100
AcDbEntity
  8
寸法
100
AcDbDimension
  2
*D5
 10
9041.929206641205
 20
8356.365915108517
 30
0.0
 11
9041.929206641201
 21
7978.504448203658
 31
0.0
 70
   160
 71
     5
 42
54.99999999999636
  3
INABA_S40G
100
AcDbAlignedDimension
 13
8394.502860906792
 23
8411.365915108515
 33
0.0
 14
8394.502860906792
 24
8356.365915108517
 34
0.0
 50
90.0
100
AcDbRotatedDimension
1001
ACAD
1000
DSTYLE
1002
{
1002
}
  0
LINE
  5
13BA5
330
747D
100
AcDbEntity
  8
部品1
100
AcDbLine
 10
8366.502860906818
 20
9278.365915108528
 30
0.0
 11
8366.502860906795
 21
8411.365915108515
 31
0.0
  0
DIMENSION
  5
13BA6
330
747D
100
AcDbEntity
  8
寸法
100
AcDbDimension
  2
*D6
 10
9041.92920664123
 20
8411.365915108515
 30
0.0
 11
9041.929206641226
 21
8831.365915108525
 31
0.0
 70
   160
  1
2X420=<>
 71
     5
 42
840.0000000000181
  3
INABA_S40G
100
AcDbAlignedDimension
 13
8394.502860906817
 23
9251.365915108532
 33
0.0
 14
8394.502860906792
 24
8411.365915108515
 34
0.0
 50
90.0
100
AcDbRotatedDimension
1001
ACAD
1000
DSTYLE
1002
{
1002
}
  0
LINE
  5
13BA8
330
747D
100
AcDbEntity
  8
部品1
100
AcDbLine
 10
8394.502860906817
 20
9306.365915108528
 30
0.0
 11
8394.502860906792
 21
8356.365915108517
 31
0.0
  0
DIMENSION
  5
13BA9
330
747D
100
AcDbEntity
  8
寸法
100
AcDbDimension
  2
*D7
 10
9351.040737456905
 20
8356.365915108517
 30
0.0
 11
9351.040737456903
 21
8830.343633667437
 31
0.0
 70
   160
 71
     5
 42
950.000000000011
  3
INABA_S40G
100
AcDbAlignedDimension
 13
8394.502860906817
 23
9306.365915108528
 33
0.0
 14
8394.502860906792
 24
8356.365915108517
 34
0.0
 50
90.0
100
AcDbRotatedDimension
1001
ACAD
1000
DSTYLE
1002
{
1002
}
  0
LINE
  5
13BAA
330
747D
100
AcDbEntity
  8
部品1
100
AcDbLine
 10
8366.502860906825
 20
8411.365915108532
 30
0.0
 11
8394.502860906824
 21
8411.365915108532
 31
0.0
  0
LINE
  5
13BAB
330
747D
100
AcDbEntity
  8
部品1
100
AcDbLine
 10
8366.502860906795
 20
8411.365915108515
 30
0.0
 11
8394.502860906792
 21
8411.365915108515
 31
0.0
  0
LINE
  5
13BAD
330
747D
100
AcDbEntity
  8
部品1
100
AcDbLine
 10
8366.502860906818
 20
8831.365915108532
 30
0.0
 11
8394.502860906817
 21
8831.365915108532
 31
0.0
  0
DIMENSION
  5
13BAE
330
747D
100
AcDbEntity
  8
寸法
100
AcDbDimension
  2
*D8
 10
9041.92920664123
 20
9251.365915108532
 30
0.0
 11
9041.929206641226
 21
9614.851196482769
 31
0.0
 70
   160
 71
     5
 42
54.99999999999636
  3
INABA_S40G
100
AcDbAlignedDimension
 13
8394.502860906817
 23
9306.365915108528
 33
0.0
 14
8394.502860906817
 24
9251.365915108532
 34
0.0
 50
90.0
100
AcDbRotatedDimension
1001
ACAD
1000
DSTYLE
1002
{
1002
}
  0
LINE
  5
13BAF
330
747D
100
AcDbEntity
  8
部品1
100
AcDbLine
 10
8366.502860906818
 20
9251.365915108532
 30
0.0
 11
8394.502860906817
 21
9251.365915108532
 31
0.0
  0
LINE
  5
13E9E
330
747D
100
AcDbEntity
  8
部品1
100
AcDbLine
 10
6784.00286090675
 20
9276.865915108484
 30
0.0
 11
7545.00286090675
 21
9276.865915108476
 31
0.0
  0
LINE
  5
13E9F
330
747D
100
AcDbEntity
  8
細線
 48
50.0
100
AcDbLine
 10
7545.00286090675
 20
8826.865915108475
 30
0.0
 11
6784.00286090675
 21
9276.865915108478
 31
0.0
  0
LINE
  5
13EA0
330
747D
100
AcDbEntity
  8
細線
 48
50.0
100
AcDbLine
 10
7545.00286090675
 20
9276.865915108476
 30
0.0
 11
6784.002860906749
 21
8826.865915108482
 31
0.0
  0
LINE
  5
13EA1
330
747D
100
AcDbEntity
  8
部品1
100
AcDbLine
 10
6784.002860906749
 20
8826.865915108482
 30
0.0
 11
7545.00286090675
 21
8826.865915108475
 31
0.0
  0
DIMENSION
  5
13EA2
330
747D
100
AcDbEntity
  8
寸法
100
AcDbDimension
  2
*D9
 10
7486.309364612783
 20
8607.8188048655
 30
0.0
 11
7163.349923025018
 21
8607.8188048655
 31
0.0
 70
   160
 71
     5
 42
761.0000000000118
  3
INABA_S40G
100
AcDbAlignedDimension
 13
6784.00286090675
 23
8826.865915108482
 33
0.0
 14
7545.002860906762
 24
8826.865915108479
 34
0.0
100
AcDbRotatedDimension
1001
ACAD
1000
DSTYLE
1002
{
1002
}
  0
DIMENSION
  5
13EA3
330
747D
100
AcDbEntity
  8
寸法
100
AcDbDimension
  2
*D10
 10
6666.309371290482
 20
8607.818804865454
 30
0.0
 11
6285.809371290477
 21
8607.818804865454
 31
0.0
 70
   160
 71
     5
 42
761.0000000000118
  3
INABA_S40G
100
AcDbAlignedDimension
 13
5964.002867584449
 23
8826.865915108438
 33
0.0
 14
6725.002867584461
 24
8826.865915108433
 34
0.0
100
AcDbRotatedDimension
1001
ACAD
1000
DSTYLE
1002
{
1002
}
  0
LINE
  5
13EA5
330
747D
100
AcDbEntity
  8
部品1
100
AcDbLine
 10
5964.002867584446
 20
9276.865915108441
 30
0.0
 11
6725.002867584447
 21
9276.865915108547
 31
0.0
  0
LINE
  5
13EA6
330
747D
100
AcDbEntity
  8
部品1
100
AcDbLine
 10
5964.002867584447
 20
8826.865915108438
 30
0.0
 11
6725.002867584446
 21
8826.865915108543
 31
0.0
  0
LINE
  5
13EA7
330
747D
100
AcDbEntity
  8
細線
 48
50.0
100
AcDbLine
 10
6725.002867584446
 20
8826.865915108543
 30
0.0
 11
5964.002867584446
 21
9276.865915108441
 31
0.0
  0
LINE
  5
13EA8
330
747D
100
AcDbEntity
  8
細線
 48
50.0
100
AcDbLine
 10
6725.002867584447
 20
9276.865915108542
 30
0.0
 11
5964.002867584447
 21
8826.865915108438
 31
0.0
  0
LINE
  5
13EA9
330
747D
100
AcDbEntity
  8
部品1
 48
50.0
100
AcDbLine
 10
5964.002867584446
 20
9276.865915108434
 30
0.0
 11
5964.002867584447
 21
8826.865915108438
 31
0.0
  0
LINE
  5
13EB4
330
747D
100
AcDbEntity
  8
部品1
 48
50.0
100
AcDbLine
 10
6725.002867584447
 20
9276.865915108542
 30
0.0
 11
6725.002867584447
 21
8826.865915108543
 31
0.0
  0
LINE
  5
13EB5
330
747D
100
AcDbEntity
  8
部品1
 48
50.0
100
AcDbLine
 10
6784.00286090675
 20
9276.865915108478
 30
0.0
 11
6784.00286090675
 21
8826.865915108482
 31
0.0
  0
DIMENSION
  5
13EBD
330
747D
100
AcDbEntity
  8
寸法
100
AcDbDimension
  2
*D11
 10
8720.360586768775
 20
8731.648099439587
 30
0.0
 11
8620.360586768773
 21
8956.648099439588
 31
0.0
 70
    32
 71
     5
 42
450.0
  3
INABA_S40G
100
AcDbAlignedDimension
 13
8365.00286090675
 23
9276.865915108476
 33
0.0
 14
8365.00286090675
 24
8826.865915108475
 34
0.0
 50
90.0
100
AcDbRotatedDimension
1001
ACAD
1000
DSTYLE
1002
{
1002
}
  0
LINE
  5
13EBE
330
747D
100
AcDbEntity
  8
部品1
100
AcDbLine
 10
8365.00286090675
 20
9276.865915108476
 30
0.0
 11
8365.00286090675
 21
8826.865915108475
 31
0.0
  0
LINE
  5
13F15
330
747D
100
AcDbEntity
  8
部品1
100
AcDbLine
 10
7529.502860906809
 20
5407.07727689386
 30
0.0
 11
7529.502860906811
 21
3616.077276893882
 31
0.0
  0
LINE
  5
13F16
330
747D
100
AcDbEntity
  8
部品1
100
AcDbLine
 10
6799.50286090681
 20
5407.077276893857
 30
0.0
 11
6799.50286090681
 21
3616.077276893875
 31
0.0
  0
LINE
  5
13F17
330
747D
100
AcDbEntity
  8
部品1
100
AcDbLine
 10
6797.50286090681
 20
5409.577276893861
 30
0.0
 11
6797.50286090681
 21
3612.577276893881
 31
0.0
  0
LINE
  5
13F18
330
747D
100
AcDbEntity
  8
部品1
100
AcDbLine
 10
6711.502860906811
 20
5409.577276893861
 30
0.0
 11
6711.502860906811
 21
3612.577276893881
 31
0.0
  0
LINE
  5
13F19
330
747D
100
AcDbEntity
  8
部品1
100
AcDbLine
 10
6709.502860906808
 20
5407.07727689386
 30
0.0
 11
6709.502860906813
 21
3616.077276893881
 31
0.0
  0
LINE
  5
13F1A
330
747D
100
AcDbEntity
  8
部品1
100
AcDbLine
 10
5977.50286090681
 20
5409.577276893861
 30
0.0
 11
5977.50286090681
 21
3612.577276893881
 31
0.0
  0
LINE
  5
13FFF
330
747D
100
AcDbEntity
  8
部品1
100
AcDbLine
 10
5979.50286090681
 20
3616.077276893866
 30
0.0
 11
6689.44041307813
 21
3616.077276893872
 31
0.0
  0
LINE
  5
14000
330
747D
100
AcDbEntity
  8
部品1
100
AcDbLine
 10
6799.50286090681
 20
3616.077276893875
 30
0.0
 11
7509.44041307813
 21
3616.07727689388
 31
0.0
  0
LINE
  5
14001
330
747D
100
AcDbEntity
  8
部品1
100
AcDbLine
 10
5979.50286090681
 20
5407.077276893864
 30
0.0
 11
6689.44041307813
 21
5407.077276893862
 31
0.0
  0
LINE
  5
14002
330
747D
100
AcDbEntity
  8
部品1
100
AcDbLine
 10
6799.50286090681
 20
5407.077276893857
 30
0.0
 11
7509.440413078128
 21
5407.07727689386
 31
0.0
  0
LINE
  5
14026
330
747D
100
AcDbEntity
  8
破線
 48
10.0
100
AcDbLine
 10
6833.502860906803
 20
8511.365915108489
 30
0.0
 11
6833.502848475693
 21
8826.865915108482
 31
0.0
  0
LINE
  5
14027
330
747D
100
AcDbEntity
  8
破線
 48
10.0
100
AcDbLine
 10
6675.502860906803
 20
8511.365915108479
 30
0.0
 11
6675.502852552252
 21
8826.865915108536
 31
0.0
  0
LINE
  5
14028
330
747D
100
AcDbEntity
  8
破線
 48
10.0
100
AcDbLine
 10
6675.502860906803
 20
8511.365915108482
 30
0.0
 11
6014.502860906804
 21
8511.365915108443
 31
0.0
  0
LINE
  5
1402D
330
747D
100
AcDbEntity
  8
部品1
100
AcDbLine
 10
7529.502860906809
 20
8382.365915108525
 30
0.0
 11
6799.50286090681
 21
8382.365915108463
 31
0.0
  0
LINE
  5
1409C
330
747D
100
AcDbEntity
  8
部品1
 48
2.83
100
AcDbLine
 10
8362.502860906792
 20
8411.365915108488
 30
0.0
 11
8339.502860906792
 21
8411.365915108484
 31
0.0
  0
LINE
  5
1409F
330
747D
100
AcDbEntity
  8
部品1
 48
2.83
100
AcDbLine
 10
8394.502860906792
 20
8411.365915108484
 30
0.0
 11
8371.502860906792
 21
8411.365915108488
 31
0.0
  0
LINE
  5
140A0
330
747D
100
AcDbEntity
  8
部品1
 48
2.83
100
AcDbLine
 10
8339.502860906792
 20
8411.365915108484
 30
0.0
 11
8339.502860906792
 21
8385.865915108487
 31
0.0
  0
LINE
  5
140A1
330
747D
100
AcDbEntity
  8
部品1
 48
2.83
100
AcDbLine
 10
8351.502860906792
 20
8385.865915108487
 30
0.0
 11
8351.502860906792
 21
8356.365915108487
 31
0.0
  0
LINE
  5
140A3
330
747D
100
AcDbEntity
  8
部品1
 48
2.83
100
AcDbLine
 10
5966.502860906811
 20
8411.365915108355
 30
0.0
 11
5989.502860906811
 21
8411.365915108353
 31
0.0
  0
LINE
  5
140A5
330
747D
100
AcDbEntity
  8
部品1
 48
2.83
100
AcDbLine
 10
5977.502860906811
 20
8356.365915108355
 30
0.0
 11
5934.50286090681
 21
8356.365915108353
 31
0.0
  0
LINE
  5
140A7
330
747D
100
AcDbEntity
  8
部品1
 48
2.83
100
AcDbLine
 10
5989.50286090681
 20
8411.365915108353
 30
0.0
 11
5989.502860906814
 21
8385.865915108356
 31
0.0
  0
LINE
  5
140A8
330
747D
100
AcDbEntity
  8
部品1
 48
2.83
100
AcDbLine
 10
5977.502860906811
 20
8385.865915108356
 30
0.0
 11
5977.502860906811
 21
8356.365915108355
 31
0.0
  0
LINE
  5
140AA
330
747D
100
AcDbEntity
  8
部品1
 48
50.0
100
AcDbLine
 10
6782.502860906797
 20
8411.365915108472
 30
0.0
 11
6782.502860906742
 21
9306.365915108482
 31
0.0
  0
LINE
  5
140AB
330
747D
100
AcDbEntity
  8
部品1
 48
50.0
100
AcDbLine
 10
6726.502860906797
 20
8411.365915108472
 30
0.0
 11
6726.502860906743
 21
9278.365915108482
 31
0.0
  0
LINE
  5
140D8
330
747D
100
AcDbEntity
  8
部品1
100
AcDbLine
 10
6709.502860906809
 20
8382.365915108525
 30
0.0
 11
6709.502860906809
 21
8356.365915108469
 31
0.0
  0
LINE
  5
140D9
330
747D
100
AcDbEntity
  8
部品1
100
AcDbLine
 10
6711.502860906809
 20
8385.865915108418
 30
0.0
 11
6711.502860906808
 21
8356.365915108467
 31
0.0
  0
LINE
  5
140DA
330
747D
100
AcDbEntity
  8
部品1
100
AcDbLine
 10
6797.502860906812
 20
8385.865915108425
 30
0.0
 11
6797.502860906812
 21
8356.365915108472
 31
0.0
  0
LINE
  5
140DB
330
747D
100
AcDbEntity
  8
部品1
100
AcDbLine
 10
6799.50286090681
 20
8382.365915108463
 30
0.0
 11
6799.502860906809
 21
8356.365915108474
 31
0.0
  0
LINE
  5
140DC
330
747D
100
AcDbEntity
  8
部品1
100
AcDbLine
 10
8349.50286090681
 20
8382.365915108525
 30
0.0
 11
8349.50286090681
 21
8356.365915108517
 31
0.0
  0
LINE
  5
140E0
330
747D
100
AcDbEntity
  8
部品1
100
AcDbLine
 10
5979.50286090681
 20
8382.365915108461
 30
0.0
 11
5979.50286090681
 21
8356.365915108424
 31
0.0
  0
LINE
  5
140EC
330
747D
100
AcDbEntity
  8
部品1
 48
5.0
100
AcDbLine
 10
6797.502860906812
 20
8385.865915108473
 30
0.0
 11
6797.502860906812
 21
8356.365915108472
 31
0.0
  0
LINE
  5
140EF
330
747D
100
AcDbEntity
  8
部品1
 48
5.0
100
AcDbLine
 10
6711.502860906811
 20
8385.865915108473
 30
0.0
 11
6711.502860906811
 21
8356.365915108472
 31
0.0
  0
LINE
  5
1411A
330
747D
100
AcDbEntity
  8
部品1
 48
5.0
100
AcDbLine
 10
6809.502860906812
 20
8411.365915108472
 30
0.0
 11
6809.502860906814
 21
8385.865915108473
 31
0.0
  0
LINE
  5
14127
330
747D
100
AcDbEntity
  8
部品1
 48
5.0
100
AcDbLine
 10
6778.502860906813
 20
8411.365915108472
 30
0.0
 11
6778.502860906812
 21
8385.865915108473
 31
0.0
  0
LINE
  5
14130
330
747D
100
AcDbEntity
  8
部品1
 48
5.0
100
AcDbLine
 10
6730.502860906812
 20
8411.365915108472
 30
0.0
 11
6730.502860906812
 21
8385.865915108473
 31
0.0
  0
LINE
  5
14139
330
747D
100
AcDbEntity
  8
部品1
 48
5.0
100
AcDbLine
 10
6699.502860906813
 20
8411.365915108474
 30
0.0
 11
6699.502860906813
 21
8385.865915108473
 31
0.0
  0
LINE
  5
1413B
330
747D
100
AcDbEntity
  8
部品1
 48
5.0
100
AcDbLine
 10
5958.502860906812
 20
8385.865915108356
 30
0.0
 11
6730.502860906812
 21
8385.865915108473
 31
0.0
  0
LINE
  5
14151
330
747D
100
AcDbEntity
  8
部品1
 48
5.0
100
AcDbLine
 10
6722.502860906812
 20
8411.365915108472
 30
0.0
 11
6699.50286090681
 21
8411.365915108472
 31
0.0
  0
LINE
  5
14156
330
747D
100
AcDbEntity
  8
部品1
 48
5.0
100
AcDbLine
 10
6726.502860906797
 20
8411.365915108472
 30
0.0
 11
6782.502860906797
 21
8411.365915108472
 31
0.0
  0
LINE
  5
1415B
330
747D
100
AcDbEntity
  8
部品1
 48
5.0
100
AcDbLine
 10
6786.502860906812
 20
8411.365915108472
 30
0.0
 11
6809.502860906812
 21
8411.365915108472
 31
0.0
  0
LINE
  5
1415F
330
747D
100
AcDbEntity
  8
部品1
 48
5.0
100
AcDbLine
 10
7550.502860906812
 20
8385.865915108473
 30
0.0
 11
6778.502860906812
 21
8385.865915108473
 31
0.0
  0
LINE
  5
14186
330
747D
100
AcDbEntity
  8
部品1
100
AcDbLine
 10
6709.502860906809
 20
8382.365915108525
 30
0.0
 11
5979.50286090681
 21
8382.365915108461
 31
0.0
  0
ARC
  5
142A6
330
747D
100
AcDbEntity
  8
部品1
 48
0.2
100
AcDbCircle
 10
6701.565308735489
 20
8357.363545063693
 30
0.0
 40
8.0
100
AcDbArc
 50
270.0
 51
352.8363522778074
  0
ARC
  5
142AA
330
747D
100
AcDbEntity
  8
部品1
 48
0.2
100
AcDbCircle
 10
6696.565308735488
 20
8357.363545063693
 30
0.0
 40
8.0
100
AcDbArc
 50
187.1636477221926
 51
269.9999999999992
  0
ARC
  5
142AB
330
747D
100
AcDbEntity
  8
細線
 48
0.2
100
AcDbCircle
 10
6701.565308735489
 20
8357.363545063693
 30
0.0
 40
4.049999999999999
100
AcDbArc
 50
194.2603506853988
 51
345.7396493146012
  0
LINE
  5
142AD
330
747D
100
AcDbEntity
  8
部品1
 48
0.2
100
AcDbLine
 10
6696.565308735488
 20
8349.363545063692
 30
0.0
 11
6701.565308735489
 21
8349.363545063692
 31
0.0
  0
LINE
  5
142D9
330
747D
100
AcDbEntity
  8
部品1
 48
0.2
100
AcDbLine
 10
8336.56530873549
 20
8349.363545063713
 30
0.0
 11
8341.565308735489
 21
8349.363545063713
 31
0.0
  0
ARC
  5
142DA
330
747D
100
AcDbEntity
  8
部品1
 48
0.2
100
AcDbCircle
 10
8341.565308735489
 20
8357.363545063712
 30
0.0
 40
8.0
100
AcDbArc
 50
270.0
 51
352.8363522778074
  0
ARC
  5
142DB
330
747D
100
AcDbEntity
  8
部品1
 48
0.2
100
AcDbCircle
 10
8336.56530873549
 20
8357.363545063712
 30
0.0
 40
8.0
100
AcDbArc
 50
187.1636477221926
 51
269.9999999999992
  0
ARC
  5
142DC
330
747D
100
AcDbEntity
  8
細線
 48
0.2
100
AcDbCircle
 10
8341.565308735489
 20
8357.363545063712
 30
0.0
 40
4.049999999999999
100
AcDbArc
 50
194.2603506853988
 51
345.7396493146012
  0
LINE
  5
142DF
330
747D
100
AcDbEntity
  8
細線
 48
50.0
100
AcDbLine
 10
6705.428065929789
 20
5404.827276893862
 30
0.0
 11
6705.428065929789
 21
5402.827276893862
 31
0.0
  0
LINE
  5
142E0
330
747D
100
AcDbEntity
  8
細線
 48
50.0
100
AcDbLine
 10
6697.577655883825
 20
5404.827276893862
 30
0.0
 11
6697.577655883826
 21
5402.827276893862
 31
0.0
  0
LINE
  5
142E1
330
747D
100
AcDbEntity
  8
細線
 48
0.2
100
AcDbLine
 10
6707.124404374636
 20
5408.027276893863
 30
0.0
 11
6695.756421781624
 21
5408.027276893863
 31
0.0
  0
ARC
  5
142E2
330
747D
100
AcDbEntity
  8
細線
 48
0.2
100
AcDbCircle
 10
6701.440413078128
 20
5390.527276893865
 30
0.0
 40
18.49999999999796
100
AcDbArc
 50
73.39845040097829
 51
106.6015495990228
  0
LINE
  5
142E5
330
747D
100
AcDbEntity
  8
細線
 48
0.1
100
AcDbLine
 10
6709.440413078128
 20
5407.327276893862
 30
0.0
 11
6709.440413078128
 21
5400.327276893862
 31
0.0
  0
ARC
  5
142E7
330
747D
100
AcDbEntity
  8
細線
 48
0.2
100
AcDbCircle
 10
6706.440413078128
 20
5407.29778672511
 30
0.0
 40
1.0
100
AcDbArc
 50
0.0
 51
73.39845040097829
  0
ARC
  5
142E9
330
747D
100
AcDbEntity
  8
細線
 48
0.2
100
AcDbCircle
 10
6696.440413078128
 20
5407.29778672511
 30
0.0
 40
1.0
100
AcDbArc
 50
106.6015495990225
 51
180.0000000000016
  0
LINE
  5
142EC
330
747D
100
AcDbEntity
  8
部品1
 48
0.2
100
AcDbLine
 10
6709.440413078128
 20
5400.327276893862
 30
0.0
 11
6689.440413078128
 21
5400.327276893862
 31
0.0
  0
LINE
  5
142ED
330
747D
100
AcDbEntity
  8
細線
 48
0.2
100
AcDbLine
 10
6709.440413078128
 20
5404.827276893862
 30
0.0
 11
6689.44041307813
 21
5404.827276893862
 31
0.0
  0
LINE
  5
142EE
330
747D
100
AcDbEntity
  8
細線
 48
0.2
100
AcDbLine
 10
6709.440413078128
 20
5402.827276893862
 30
0.0
 11
6689.44041307813
 21
5402.827276893862
 31
0.0
  0
LINE
  5
142EF
330
747D
100
AcDbEntity
  8
細線
 48
0.2
100
AcDbLine
 10
6709.440413078128
 20
5407.327276893862
 30
0.0
 11
6689.44041307813
 21
5407.327276893862
 31
0.0
  0
LINE
  5
14328
330
747D
100
AcDbEntity
  8
部品1
 48
50.0
100
AcDbLine
 10
6689.440413078128
 20
5400.327276893862
 30
0.0
 11
6689.440413078128
 21
5407.077276893862
 31
0.0
  0
LINE
  5
14329
330
747D
100
AcDbEntity
  8
部品1
100
AcDbLine
 10
6709.44041307813
 20
5407.077276893862
 30
0.0
 11
6709.502860906811
 21
5407.07727689386
 31
0.0
  0
LINE
  5
1432A
330
747D
100
AcDbEntity
  8
細線
 48
50.0
100
AcDbLine
 10
6689.440413078128
 20
5407.077276893862
 30
0.0
 11
6689.440413078128
 21
5407.327276893862
 31
0.0
  0
ARC
  5
1432B
330
747D
100
AcDbEntity
  8
細線
 48
0.2
100
AcDbCircle
 10
7526.440413078129
 20
5407.29778672511
 30
0.0
 40
1.0
100
AcDbArc
 50
0.0
 51
73.39845040097829
  0
LINE
  5
1432C
330
747D
100
AcDbEntity
  8
細線
 48
0.1
100
AcDbLine
 10
7529.440413078129
 20
5407.327276893862
 30
0.0
 11
7529.440413078129
 21
5400.327276893862
 31
0.0
  0
LINE
  5
1432D
330
747D
100
AcDbEntity
  8
細線
 48
50.0
100
AcDbLine
 10
7517.577655883825
 20
5404.827276893862
 30
0.0
 11
7517.577655883826
 21
5402.827276893862
 31
0.0
  0
LINE
  5
1432E
330
747D
100
AcDbEntity
  8
細線
 48
50.0
100
AcDbLine
 10
7525.428065929789
 20
5404.827276893862
 30
0.0
 11
7525.428065929789
 21
5402.827276893862
 31
0.0
  0
LINE
  5
1432F
330
747D
100
AcDbEntity
  8
細線
 48
0.2
100
AcDbLine
 10
7529.440413078129
 20
5407.327276893862
 30
0.0
 11
7509.44041307813
 21
5407.327276893862
 31
0.0
  0
LINE
  5
14330
330
747D
100
AcDbEntity
  8
細線
 48
0.2
100
AcDbLine
 10
7529.440413078129
 20
5402.827276893862
 30
0.0
 11
7509.44041307813
 21
5402.827276893862
 31
0.0
  0
LINE
  5
14331
330
747D
100
AcDbEntity
  8
細線
 48
0.2
100
AcDbLine
 10
7529.440413078129
 20
5404.827276893862
 30
0.0
 11
7509.44041307813
 21
5404.827276893862
 31
0.0
  0
ARC
  5
14332
330
747D
100
AcDbEntity
  8
細線
 48
0.2
100
AcDbCircle
 10
7516.440413078129
 20
5407.29778672511
 30
0.0
 40
1.0
100
AcDbArc
 50
106.6015495990225
 51
180.0000000000016
  0
ARC
  5
14333
330
747D
100
AcDbEntity
  8
細線
 48
0.2
100
AcDbCircle
 10
7521.440413078129
 20
5390.527276893865
 30
0.0
 40
18.49999999999796
100
AcDbArc
 50
73.39845040097829
 51
106.6015495990228
  0
LINE
  5
14334
330
747D
100
AcDbEntity
  8
細線
 48
0.2
100
AcDbLine
 10
7527.124404374636
 20
5408.027276893863
 30
0.0
 11
7515.756421781624
 21
5408.027276893863
 31
0.0
  0
LINE
  5
14335
330
747D
100
AcDbEntity
  8
細線
 48
50.0
100
AcDbLine
 10
7509.440413078128
 20
5407.077276893862
 30
0.0
 11
7509.440413078128
 21
5407.327276893862
 31
0.0
  0
LINE
  5
14336
330
747D
100
AcDbEntity
  8
部品1
 48
50.0
100
AcDbLine
 10
7509.440413078128
 20
5400.327276893862
 30
0.0
 11
7509.440413078128
 21
5407.077276893862
 31
0.0
  0
LINE
  5
14337
330
747D
100
AcDbEntity
  8
部品1
100
AcDbLine
 10
7529.44041307813
 20
5407.077276893862
 30
0.0
 11
7529.502860906811
 21
5407.07727689386
 31
0.0
  0
LINE
  5
14338
330
747D
100
AcDbEntity
  8
部品1
 48
0.2
100
AcDbLine
 10
7529.440413078129
 20
5400.327276893862
 30
0.0
 11
7509.440413078128
 21
5400.327276893862
 31
0.0
  0
LINE
  5
14339
330
747D
100
AcDbEntity
  8
部品1
100
AcDbLine
 10
7529.44041307813
 20
5407.077276893859
 30
0.0
 11
7529.502860906811
 21
5407.07727689386
 31
0.0
  0
ARC
  5
1433A
330
747D
100
AcDbEntity
  8
細線
 48
0.2
100
AcDbCircle
 10
6706.440413078128
 20
3615.856767062631
 30
0.0
 40
1.0
100
AcDbArc
 50
286.6015495990217
 51
0.0
  0
LINE
  5
1433B
330
747D
100
AcDbEntity
  8
細線
 48
0.1
100
AcDbLine
 10
6709.440413078128
 20
3615.82727689388
 30
0.0
 11
6709.440413078128
 21
3622.827276893879
 31
0.0
  0
LINE
  5
1433C
330
747D
100
AcDbEntity
  8
細線
 48
50.0
100
AcDbLine
 10
6697.577655883825
 20
3618.32727689388
 30
0.0
 11
6697.577655883826
 21
3620.32727689388
 31
0.0
  0
LINE
  5
1433D
330
747D
100
AcDbEntity
  8
細線
 48
50.0
100
AcDbLine
 10
6705.428065929789
 20
3618.32727689388
 30
0.0
 11
6705.428065929789
 21
3620.32727689388
 31
0.0
  0
LINE
  5
1433E
330
747D
100
AcDbEntity
  8
細線
 48
0.2
100
AcDbLine
 10
6709.440413078128
 20
3615.82727689388
 30
0.0
 11
6689.44041307813
 21
3615.82727689388
 31
0.0
  0
LINE
  5
1433F
330
747D
100
AcDbEntity
  8
細線
 48
0.2
100
AcDbLine
 10
6709.440413078128
 20
3620.32727689388
 30
0.0
 11
6689.44041307813
 21
3620.32727689388
 31
0.0
  0
LINE
  5
14340
330
747D
100
AcDbEntity
  8
細線
 48
0.2
100
AcDbLine
 10
6709.440413078128
 20
3618.327276893879
 30
0.0
 11
6689.44041307813
 21
3618.32727689388
 31
0.0
  0
ARC
  5
14341
330
747D
100
AcDbEntity
  8
細線
 48
0.2
100
AcDbCircle
 10
6696.440413078128
 20
3615.856767062631
 30
0.0
 40
1.0
100
AcDbArc
 50
179.9999999999984
 51
253.3984504009775
  0
ARC
  5
14342
330
747D
100
AcDbEntity
  8
細線
 48
0.2
100
AcDbCircle
 10
6701.440413078128
 20
3632.627276893876
 30
0.0
 40
18.49999999999796
100
AcDbArc
 50
253.3984504009772
 51
286.6015495990217
  0
LINE
  5
14343
330
747D
100
AcDbEntity
  8
細線
 48
0.2
100
AcDbLine
 10
6707.124404374636
 20
3615.127276893878
 30
0.0
 11
6695.756421781624
 21
3615.127276893878
 31
0.0
  0
LINE
  5
14344
330
747D
100
AcDbEntity
  8
細線
 48
50.0
100
AcDbLine
 10
6689.440413078128
 20
3616.07727689388
 30
0.0
 11
6689.440413078128
 21
3615.82727689388
 31
0.0
  0
LINE
  5
14345
330
747D
100
AcDbEntity
  8
部品1
 48
50.0
100
AcDbLine
 10
6689.440413078128
 20
3622.827276893879
 30
0.0
 11
6689.440413078128
 21
3616.07727689388
 31
0.0
  0
LINE
  5
14346
330
747D
100
AcDbEntity
  8
部品1
100
AcDbLine
 10
6709.44041307813
 20
3616.07727689388
 30
0.0
 11
6709.502860906811
 21
3616.077276893881
 31
0.0
  0
LINE
  5
14347
330
747D
100
AcDbEntity
  8
部品1
 48
0.2
100
AcDbLine
 10
6709.440413078128
 20
3622.827276893879
 30
0.0
 11
6689.440413078128
 21
3622.827276893879
 31
0.0
  0
LINE
  5
14348
330
747D
100
AcDbEntity
  8
部品1
100
AcDbLine
 10
7529.44041307813
 20
3616.077276893883
 30
0.0
 11
7529.502860906811
 21
3616.077276893882
 31
0.0
  0
LINE
  5
14349
330
747D
100
AcDbEntity
  8
部品1
 48
0.2
100
AcDbLine
 10
7529.440413078129
 20
3622.827276893879
 30
0.0
 11
7509.440413078128
 21
3622.827276893879
 31
0.0
  0
LINE
  5
1434A
330
747D
100
AcDbEntity
  8
部品1
100
AcDbLine
 10
7529.44041307813
 20
3616.07727689388
 30
0.0
 11
7529.502860906811
 21
3616.077276893881
 31
0.0
  0
LINE
  5
1434B
330
747D
100
AcDbEntity
  8
部品1
 48
50.0
100
AcDbLine
 10
7509.440413078128
 20
3622.827276893879
 30
0.0
 11
7509.440413078128
 21
3616.07727689388
 31
0.0
  0
LINE
  5
1434C
330
747D
100
AcDbEntity
  8
細線
 48
50.0
100
AcDbLine
 10
7509.440413078128
 20
3616.07727689388
 30
0.0
 11
7509.440413078128
 21
3615.82727689388
 31
0.0
  0
LINE
  5
1434D
330
747D
100
AcDbEntity
  8
細線
 48
0.2
100
AcDbLine
 10
7527.124404374636
 20
3615.127276893878
 30
0.0
 11
7515.756421781624
 21
3615.127276893878
 31
0.0
  0
ARC
  5
1434E
330
747D
100
AcDbEntity
  8
細線
 48
0.2
100
AcDbCircle
 10
7521.440413078129
 20
3632.627276893876
 30
0.0
 40
18.49999999999796
100
AcDbArc
 50
253.3984504009772
 51
286.6015495990217
  0
ARC
  5
1434F
330
747D
100
AcDbEntity
  8
細線
 48
0.2
100
AcDbCircle
 10
7516.440413078129
 20
3615.856767062631
 30
0.0
 40
1.0
100
AcDbArc
 50
179.9999999999984
 51
253.3984504009775
  0
LINE
  5
14350
330
747D
100
AcDbEntity
  8
細線
 48
0.2
100
AcDbLine
 10
7529.440413078129
 20
3618.327276893879
 30
0.0
 11
7509.44041307813
 21
3618.32727689388
 31
0.0
  0
LINE
  5
14351
330
747D
100
AcDbEntity
  8
細線
 48
0.2
100
AcDbLine
 10
7529.440413078129
 20
3620.32727689388
 30
0.0
 11
7509.44041307813
 21
3620.32727689388
 31
0.0
  0
LINE
  5
14352
330
747D
100
AcDbEntity
  8
細線
 48
0.2
100
AcDbLine
 10
7529.440413078129
 20
3615.82727689388
 30
0.0
 11
7509.44041307813
 21
3615.82727689388
 31
0.0
  0
LINE
  5
14353
330
747D
100
AcDbEntity
  8
細線
 48
50.0
100
AcDbLine
 10
7525.428065929789
 20
3618.32727689388
 30
0.0
 11
7525.428065929789
 21
3620.32727689388
 31
0.0
  0
LINE
  5
14354
330
747D
100
AcDbEntity
  8
細線
 48
50.0
100
AcDbLine
 10
7517.577655883825
 20
3618.32727689388
 30
0.0
 11
7517.577655883826
 21
3620.32727689388
 31
0.0
  0
LINE
  5
14355
330
747D
100
AcDbEntity
  8
細線
 48
0.1
100
AcDbLine
 10
7529.440413078129
 20
3615.82727689388
 30
0.0
 11
7529.440413078129
 21
3622.827276893879
 31
0.0
  0
ARC
  5
14356
330
747D
100
AcDbEntity
  8
細線
 48
0.2
100
AcDbCircle
 10
7526.440413078129
 20
3615.856767062631
 30
0.0
 40
1.0
100
AcDbArc
 50
286.6015495990217
 51
0.0
  0
LINE
  5
14357
330
747D
100
AcDbEntity
  8
部品1
100
AcDbLine
 10
6709.44041307813
 20
3616.077276893872
 30
0.0
 11
6709.502860906811
 21
3616.077276893872
 31
0.0
  0
LINE
  5
14358
330
747D
100
AcDbEntity
  8
部品1
100
AcDbLine
 10
7529.44041307813
 20
3616.07727689388
 30
0.0
 11
7529.502860906809
 21
3616.07727689388
 31
0.0
  0
LINE
  5
1439F
330
747D
100
AcDbEntity
  8
部品1
 48
5.0
100
AcDbLine
 10
8338.00188948186
 20
8487.86591510853
 30
0.0
 11
8338.00238241317
 21
8826.865915108475
 31
0.0
  0
LINE
  5
143A0
330
747D
100
AcDbEntity
  8
部品1
 48
5.0
100
AcDbLine
 10
5991.003832331774
 20
8487.86591510853
 30
0.0
 11
5991.003339400464
 21
8826.865915108443
 31
0.0
  0
LINE
  5
143A2
330
747D
100
AcDbEntity
  8
部品1
 48
50.0
100
AcDbLine
 10
6810.002860906795
 20
8487.865915133143
 30
0.0
 11
6782.502860906797
 21
8459.865915108471
 31
0.0
  0
LINE
  5
143A3
330
747D
100
AcDbEntity
  8
部品1
 48
50.0
100
AcDbLine
 10
6726.502860906797
 20
8459.865915108471
 30
0.0
 11
6699.002860906794
 21
8487.865915108482
 31
0.0
  0
LINE
  5
143A4
330
747D
100
AcDbEntity
  8
部品1
100
AcDbLine
 10
6699.002860906794
 20
8487.865915108482
 30
0.0
 11
5991.003832333205
 21
8487.864832799994
 31
0.0
  0
LINE
  5
14407
330
747D
100
AcDbEntity
  8
部品1
 48
50.0
100
AcDbLine
 10
6699.002860906794
 20
8487.865915108482
 30
0.0
 11
6699.00286090677
 21
8826.865915108538
 31
0.0
  0
LINE
  5
14408
330
747D
100
AcDbEntity
  8
部品1
 48
50.0
100
AcDbLine
 10
6810.002854562509
 20
8487.865915133141
 30
0.0
 11
6810.002857535373
 21
8826.865915108482
 31
0.0
  0
LINE
  5
14409
330
747D
100
AcDbEntity
  8
部品1
 48
50.0
100
AcDbLine
 10
8366.502860906795
 20
8458.846849916119
 30
0.0
 11
8338.001889482002
 21
8487.866020821368
 31
0.0
  0
LINE
  5
1440A
330
747D
100
AcDbEntity
  8
部品1
 48
50.0
100
AcDbLine
 10
5991.003832333205
 20
8487.864832799994
 30
0.0
 11
5962.502860906793
 21
8458.845661867529
 31
0.0
  0
LINE
  5
1440B
330
747D
100
AcDbEntity
  8
部品1
 48
50.0
100
AcDbLine
 10
8365.002854229143
 20
9276.865915108478
 30
0.0
 11
8366.502860906818
 21
9278.365915108528
 31
0.0
  0
LINE
  5
1440C
330
747D
100
AcDbEntity
  8
部品1
 48
50.0
100
AcDbLine
 10
6784.00286090675
 20
9276.81139358822
 30
0.0
 11
6782.502860906743
 21
9278.365915108482
 31
0.0
  0
LINE
  5
1440D
330
747D
100
AcDbEntity
  8
部品1
 48
50.0
100
AcDbLine
 10
6725.002867584447
 20
9276.811402448727
 30
0.0
 11
6726.502860906743
 21
9278.365915108478
 31
0.0
  0
LINE
  5
1440E
330
747D
100
AcDbEntity
  8
部品1
 48
50.0
100
AcDbLine
 10
5964.00286758444
 20
9276.865915108441
 30
0.0
 11
5962.502860906816
 21
9278.365915108434
 31
0.0
  0
LINE
  5
144C7
330
747D
100
AcDbEntity
  8
部品1
 48
5.0
100
AcDbLine
 10
6809.502860906819
 20
9306.365915108484
 30
0.0
 11
6809.502860906814
 21
9278.365915108485
 31
0.0
  0
LINE
  5
144D0
330
747D
100
AcDbEntity
  8
部品1
 48
5.0
100
AcDbLine
 10
6699.502860906815
 20
9278.365915108478
 30
0.0
 11
6699.502860906815
 21
9306.365915108477
 31
0.0
  0
LINE
  5
144D2
330
747D
100
AcDbEntity
  8
部品1
 48
5.0
100
AcDbLine
 10
6729.212135353991
 20
9306.365915108477
 30
0.0
 11
6751.883563925419
 21
9278.365915108482
 31
0.0
  0
LINE
  5
144D8
330
747D
100
AcDbEntity
  8
部品1
 48
5.0
100
AcDbLine
 10
6782.502860906745
 20
9251.365915108481
 30
0.0
 11
6726.502860906744
 21
9251.365915108481
 31
0.0
  0
LINE
  5
144E9
330
747D
100
AcDbEntity
  8
部品1
 48
50.0
100
AcDbLine
 10
6754.502860906796
 20
8411.365915108472
 30
0.0
 11
6754.502860906796
 21
9251.365915108481
 31
0.0
  0
LINE
  5
144EA
330
747D
100
AcDbEntity
  8
部品1
100
AcDbLine
 10
6782.502860906742
 20
9278.365915108484
 30
0.0
 11
7571.883563925419
 21
9278.365915108482
 31
0.0
  0
DIMENSION
  5
14548
330
747D
100
AcDbEntity
  8
寸法
 48
50.0
100
AcDbDimension
  2
*D12
 10
6809.502860906819
 20
9522.174134733532
 30
0.0
 11
6754.502860906818
 21
9622.174134733533
 31
0.0
 70
    32
 71
     5
 42
110.0000000000036
  3
INABA_S40G
100
AcDbAlignedDimension
 13
6699.502860906815
 23
9306.365915108555
 33
0.0
 14
6809.502860906819
 24
9306.365915108532
 34
0.0
100
AcDbRotatedDimension
  0
DIMENSION
  5
14562
330
747D
100
AcDbEntity
  8
寸法
 48
50.0
100
AcDbDimension
  2
*D13
 10
6809.502860906819
 20
9522.174134733532
 30
0.0
 11
7164.502860906819
 21
9622.174134733533
 31
0.0
 70
    32
 71
     5
 42
709.9999999999981
  3
INABA_S40G
100
AcDbAlignedDimension
 13
7519.502860906817
 23
9306.365915108548
 33
0.0
 14
6809.502860906819
 24
9306.365915108532
 34
0.0
100
AcDbRotatedDimension
  0
LINE
  5
1456D
330
747D
100
AcDbEntity
  8
部品1
 48
5.0
100
AcDbLine
 10
6754.502860906796
 20
8831.365915108476
 30
0.0
 11
6726.502860906744
 21
8831.365915108483
 31
0.0
  0
DIMENSION
  5
1460F
330
747D
100
AcDbEntity
  8
寸法
 48
50.0
100
AcDbDimension
  2
*D14
 10
7494.50286090681
 20
7916.542247313349
 30
0.0
 11
7152.002860906812
 21
8016.542247313349
 31
0.0
 70
    32
 71
     5
 42
684.9999999999972
  3
INABA_S40G
100
AcDbAlignedDimension
 13
6809.502860906814
 23
8356.365915108472
 33
0.0
 14
7494.50286090681
 24
8356.365915108625
 34
0.0
100
AcDbRotatedDimension
  0
LINE
  5
146C2
330
747D
100
AcDbEntity
  8
部品1
 48
50.0
100
AcDbLine
 10
6754.502860906788
 20
8831.365915108483
 30
0.0
 11
6782.502860906771
 21
8831.365915108483
 31
0.0
  0
LINE
  5
146C3
330
747D
100
AcDbEntity
  8
部品1
 48
50.0
100
AcDbLine
 10
6754.502860906788
 20
8869.365915108481
 30
0.0
 11
6782.502860906771
 21
8869.365915108483
 31
0.0
  0
ARC
  5
1475B
330
747D
100
AcDbEntity
  8
想像線
 48
10.0
100
AcDbCircle
 10
6702.15081022965
 20
8358.060808484042
 30
0.0
 40
722.6499369155593
100
AcDbArc
 50
180.1343808685509
 51
270.5829222700353
  0
LINE
  5
1475C
330
747D
100
AcDbEntity
  8
想像線
 48
10.0
100
AcDbLine
 10
6709.502860906809
 20
8356.365915108472
 30
0.0
 11
6709.502860906809
 21
7635.448271452681
 31
0.0
  0
LINE
  5
14760
330
747D
100
AcDbEntity
  8
想像線
 48
10.0
100
AcDbLine
 10
7529.502860906809
 20
8356.365915108483
 30
0.0
 11
7529.502860906809
 21
7635.448271452691
 31
0.0
  0
ARC
  5
14761
330
747D
100
AcDbEntity
  8
想像線
 48
10.0
100
AcDbCircle
 10
7522.150810229651
 20
8358.06080848406
 30
0.0
 40
722.6499369155619
100
AcDbArc
 50
180.1343808685487
 51
270.5829222700353
  0
LINE
  5
148D5
330
747D
100
AcDbEntity
  8
細線
 48
50.0
100
AcDbLine
 10
6374.502860906819
 20
9284.865915108465
 30
0.0
 11
6314.502860906817
 21
9284.86591510846
 31
0.0
  0
LINE
  5
148D6
330
747D
100
AcDbEntity
  8
細線
 48
50.0
100
AcDbLine
 10
6314.502860906818
 20
9284.865915108461
 30
0.0
 11
6314.502860906817
 21
9306.365915108459
 31
0.0
  0
LINE
  5
148D7
330
747D
100
AcDbEntity
  8
細線
 48
50.0
100
AcDbLine
 10
6374.502860906819
 20
9284.865915108465
 30
0.0
 11
6374.502860906815
 21
9306.365915108466
 31
0.0
  0
LINE
  5
148D8
330
747D
100
AcDbEntity
  8
細線
 48
50.0
100
AcDbLine
 10
7194.502860906819
 20
9284.865915108545
 30
0.0
 11
7134.502860906818
 21
9284.865915108541
 31
0.0
  0
LINE
  5
148D9
330
747D
100
AcDbEntity
  8
細線
 48
50.0
100
AcDbLine
 10
7194.502860906819
 20
9284.865915108545
 30
0.0
 11
7194.502860906816
 21
9306.365915108548
 31
0.0
  0
LINE
  5
148DA
330
747D
100
AcDbEntity
  8
細線
 48
50.0
100
AcDbLine
 10
7134.502860906819
 20
9284.865915108543
 30
0.0
 11
7134.502860906817
 21
9306.365915108541
 31
0.0
  0
LINE
  5
14933
330
747D
100
AcDbEntity
  8
細線
 48
50.0
100
AcDbLine
 10
6103.502860906811
 20
8382.365915108437
 30
0.0
 11
6103.502860906811
 21
8356.365915108391
 31
0.0
  0
LINE
  5
14934
330
747D
100
AcDbEntity
  8
細線
 48
50.0
100
AcDbLine
 10
6289.502860906811
 20
8382.365915108428
 30
0.0
 11
6289.502860906811
 21
8356.365915108391
 31
0.0
  0
LINE
  5
14935
330
747D
100
AcDbEntity
  8
細線
 48
50.0
100
AcDbLine
 10
6329.50286090681
 20
8382.365915108428
 30
0.0
 11
6329.50286090681
 21
8356.365915108391
 31
0.0
  0
LINE
  5
14936
330
747D
100
AcDbEntity
  8
細線
 48
50.0
100
AcDbLine
 10
6556.50286090681
 20
8382.365915108641
 30
0.0
 11
6556.50286090681
 21
8356.365915108602
 31
0.0
  0
LINE
  5
14937
330
747D
100
AcDbEntity
  8
細線
 48
50.0
100
AcDbLine
 10
6516.50286090681
 20
8382.365915108641
 30
0.0
 11
6516.50286090681
 21
8356.365915108602
 31
0.0
  0
LINE
  5
14938
330
747D
100
AcDbEntity
  8
細線
 48
50.0
100
AcDbLine
 10
6923.502860906811
 20
8382.365915108437
 30
0.0
 11
6923.502860906811
 21
8356.365915108391
 31
0.0
  0
LINE
  5
14939
330
747D
100
AcDbEntity
  8
細線
 48
50.0
100
AcDbLine
 10
7149.50286090681
 20
8382.365915108428
 30
0.0
 11
7149.50286090681
 21
8356.365915108391
 31
0.0
  0
LINE
  5
1493A
330
747D
100
AcDbEntity
  8
細線
 48
50.0
100
AcDbLine
 10
7109.502860906811
 20
8382.365915108428
 30
0.0
 11
7109.502860906811
 21
8356.365915108391
 31
0.0
  0
LINE
  5
1493B
330
747D
100
AcDbEntity
  8
細線
 48
50.0
100
AcDbLine
 10
7336.502860906811
 20
8382.365915108641
 30
0.0
 11
7336.502860906811
 21
8356.365915108602
 31
0.0
  0
LINE
  5
1493C
330
747D
100
AcDbEntity
  8
細線
 48
50.0
100
AcDbLine
 10
7376.502860906811
 20
8382.365915108641
 30
0.0
 11
7376.502860906811
 21
8356.365915108602
 31
0.0
  0
ARC
  5
14948
330
747D
100
AcDbEntity
  8
想像線
 48
10.0
100
AcDbCircle
 10
4242.150810229651
 20
8358.060808484042
 30
0.0
 40
722.6499369155593
100
AcDbArc
 50
180.1343808685509
 51
270.5829222700353
  0
LINE
  5
14949
330
747D
100
AcDbEntity
  8
部品1
100
AcDbLine
 10
4239.002860906794
 20
8487.865915108482
 30
0.0
 11
3531.003832333205
 21
8487.864832799994
 31
0.0
  0
LINE
  5
1494A
330
747D
100
AcDbEntity
  8
部品1
100
AcDbLine
 10
4249.502860906809
 20
8382.365915108525
 30
0.0
 11
3519.50286090681
 21
8382.365915108461
 31
0.0
  0
LINE
  5
1494B
330
747D
100
AcDbEntity
  8
部品1
 48
5.0
100
AcDbLine
 10
3517.502860906811
 20
8385.865915108356
 30
0.0
 11
4270.502860906812
 21
8385.865915108473
 31
0.0
  0
LINE
  5
1494C
330
747D
100
AcDbEntity
  8
破線
 48
10.0
100
AcDbLine
 10
4215.502860906804
 20
8511.365915108482
 30
0.0
 11
3554.502860906804
 21
8511.365915108443
 31
0.0
  0
LINE
  5
1494D
330
747D
100
AcDbEntity
  8
細線
 48
50.0
100
AcDbLine
 10
4265.002867584446
 20
9276.865915108542
 30
0.0
 11
3504.002867584447
 21
8826.865915108438
 31
0.0
  0
LINE
  5
1494E
330
747D
100
AcDbEntity
  8
細線
 48
50.0
100
AcDbLine
 10
4265.002867584446
 20
8826.865915108543
 30
0.0
 11
3504.002867584446
 21
9276.865915108441
 31
0.0
  0
LINE
  5
1494F
330
747D
100
AcDbEntity
  8
部品1
100
AcDbLine
 10
3504.002867584449
 20
8826.865915108438
 30
0.0
 11
4265.002867584446
 21
8826.865915108543
 31
0.0
  0
LINE
  5
14950
330
747D
100
AcDbEntity
  8
部品1
100
AcDbLine
 10
3504.002867584446
 20
9276.865915108441
 30
0.0
 11
4265.002867584446
 21
9276.865915108547
 31
0.0
  0
DIMENSION
  5
14951
330
747D
100
AcDbEntity
  8
寸法
100
AcDbDimension
  2
*D17
 10
4206.309371290482
 20
8607.818804865454
 30
0.0
 11
3825.809371290477
 21
8607.818804865454
 31
0.0
 70
   160
 71
     5
 42
761.0000000000118
  3
INABA_S40G
100
AcDbAlignedDimension
 13
3504.002867584449
 23
8826.865915108438
 33
0.0
 14
4265.002867584461
 24
8826.865915108433
 34
0.0
100
AcDbRotatedDimension
1001
ACAD
1000
DSTYLE
1002
{
1002
}
  0
LINE
  5
14953
330
747D
100
AcDbEntity
  8
部品1
100
AcDbLine
 10
3502.502860906817
 20
9278.365915108434
 30
0.0
 11
4291.883563925418
 21
9278.365915108482
 31
0.0
  0
LINE
  5
14955
330
747D
100
AcDbEntity
  8
部品1
 48
5.0
100
AcDbLine
 10
3531.003832331774
 20
8487.86591510853
 30
0.0
 11
3531.003339400463
 21
8826.865915108443
 31
0.0
  0
LINE
  5
14956
330
747D
100
AcDbEntity
  8
破線
 48
10.0
100
AcDbLine
 10
3554.502925831518
 20
8826.865915108443
 30
0.0
 11
3554.502860906804
 21
8511.365915108443
 31
0.0
  0
LINE
  5
14957
330
747D
100
AcDbEntity
  8
部品1
100
AcDbLine
 10
3474.502860906782
 20
9306.365915108401
 30
0.0
 11
3474.502860906811
 21
8356.365915108391
 31
0.0
  0
LINE
  5
14958
330
747D
100
AcDbEntity
  8
部品1
100
AcDbLine
 10
3502.502860906793
 20
8411.365915108387
 30
0.0
 11
3502.502860906817
 21
9278.365915108434
 31
0.0
  0
LINE
  5
14959
330
747D
100
AcDbEntity
  8
部品1
 48
2.83
100
AcDbLine
 10
3474.502860906812
 20
8411.365915108353
 30
0.0
 11
3497.502860906811
 21
8411.365915108355
 31
0.0
  0
LINE
  5
1495C
330
747D
100
AcDbEntity
  8
部品1
100
AcDbLine
 10
3502.502860906793
 20
8411.365915108353
 30
0.0
 11
3474.502860906809
 21
8411.365915108353
 31
0.0
  0
LINE
  5
1495D
330
747D
100
AcDbEntity
  8
部品1
100
AcDbLine
 10
3502.502860906793
 20
8411.365915108387
 30
0.0
 11
3474.502860906809
 21
8411.365915108387
 31
0.0
  0
LINE
  5
1495E
330
747D
100
AcDbEntity
  8
部品1
100
AcDbLine
 10
3502.502860906809
 20
8411.365915108401
 30
0.0
 11
3474.502860906809
 21
8411.365915108401
 31
0.0
  0
LINE
  5
1495F
330
747D
100
AcDbEntity
  8
部品1
 48
2.83
100
AcDbLine
 10
3474.502860906811
 20
8356.365915108353
 30
0.0
 11
3474.502860906812
 21
8411.365915108353
 31
0.0
  0
LINE
  5
14960
330
747D
100
AcDbEntity
  8
部品1
100
AcDbLine
 10
3474.502860906809
 20
8411.365915108353
 30
0.0
 11
3474.502860906811
 21
8356.365915108353
 31
0.0
  0
LINE
  5
14961
330
747D
100
AcDbEntity
  8
細線
 48
50.0
100
AcDbLine
 10
3643.50286090681
 20
8382.365915108437
 30
0.0
 11
3643.50286090681
 21
8356.365915108391
 31
0.0
  0
LINE
  5
14962
330
747D
100
AcDbEntity
  8
部品1
 48
50.0
100
AcDbLine
 10
3531.003832333205
 20
8487.864832799994
 30
0.0
 11
3502.502860906793
 21
8458.845661867529
 31
0.0
  0
LINE
  5
14963
330
747D
100
AcDbEntity
  8
部品1
100
AcDbLine
 10
3519.50286090681
 20
8382.365915108461
 30
0.0
 11
3519.50286090681
 21
8356.365915108424
 31
0.0
  0
LINE
  5
14964
330
747D
100
AcDbEntity
  8
部品1
 48
2.83
100
AcDbLine
 10
3517.502860906811
 20
8385.865915108356
 30
0.0
 11
3517.502860906811
 21
8356.365915108355
 31
0.0
  0
LINE
  5
14965
330
747D
100
AcDbEntity
  8
部品1
 48
2.83
100
AcDbLine
 10
3529.502860906811
 20
8411.365915108353
 30
0.0
 11
3529.502860906813
 21
8385.865915108356
 31
0.0
  0
LINE
  5
14966
330
747D
100
AcDbEntity
  8
部品1
 48
2.83
100
AcDbLine
 10
3506.502860906812
 20
8411.365915108355
 30
0.0
 11
3529.502860906811
 21
8411.365915108353
 31
0.0
  0
LINE
  5
14967
330
747D
100
AcDbEntity
  8
部品1
 48
50.0
100
AcDbLine
 10
3504.002867584446
 20
9276.865915108434
 30
0.0
 11
3504.002867584447
 21
8826.865915108438
 31
0.0
  0
LINE
  5
14968
330
747D
100
AcDbEntity
  8
部品1
100
AcDbLine
 10
3502.502860906792
 20
8831.365915108401
 30
0.0
 11
3474.502860906792
 21
8831.365915108401
 31
0.0
  0
LINE
  5
14969
330
747D
100
AcDbEntity
  8
部品1
100
AcDbLine
 10
3502.502860906784
 20
9251.365915108406
 30
0.0
 11
3474.502860906784
 21
9251.365915108406
 31
0.0
  0
LINE
  5
1496A
330
747D
100
AcDbEntity
  8
部品1
 48
50.0
100
AcDbLine
 10
3504.002867584441
 20
9276.865915108441
 30
0.0
 11
3502.502860906817
 21
9278.365915108434
 31
0.0
  0
LINE
  5
1496B
330
747D
100
AcDbEntity
  8
部品1
100
AcDbLine
 10
3529.502860906782
 20
9306.365915108401
 30
0.0
 11
3529.502860906784
 21
9278.3659151084
 31
0.0
  0
LINE
  5
1496C
330
747D
100
AcDbEntity
  8
部品1
100
AcDbLine
 10
3529.502860906817
 20
9306.365915108434
 30
0.0
 11
3529.502860906817
 21
9278.365915108434
 31
0.0
  0
ARC
  5
1496D
330
747D
100
AcDbEntity
  8
想像線
 48
10.0
100
AcDbCircle
 10
5882.150810229651
 20
8358.06080848406
 30
0.0
 40
722.6499369155619
100
AcDbArc
 50
180.1343808685487
 51
270.5829222700353
  0
LINE
  5
1496E
330
747D
100
AcDbEntity
  8
想像線
 48
10.0
100
AcDbLine
 10
5889.50286090681
 20
8356.365915108483
 30
0.0
 11
5889.50286090681
 21
7635.448271452691
 31
0.0
  0
LINE
  5
1496F
330
747D
100
AcDbEntity
  8
想像線
 48
10.0
100
AcDbLine
 10
4249.502860906809
 20
8356.365915108472
 30
0.0
 11
4249.502860906809
 21
7635.448271452681
 31
0.0
  0
LINE
  5
14970
330
747D
100
AcDbEntity
  8
部品1
 48
50.0
100
AcDbLine
 10
4294.502860906797
 20
8411.365915108472
 30
0.0
 11
4294.502860906797
 21
9251.365915108481
 31
0.0
  0
LINE
  5
14971
330
747D
100
AcDbEntity
  8
部品1
 48
50.0
100
AcDbLine
 10
4350.002854562509
 20
8487.865915133141
 30
0.0
 11
4350.002857535372
 21
8826.865915108482
 31
0.0
  0
LINE
  5
14972
330
747D
100
AcDbEntity
  8
部品1
 48
50.0
100
AcDbLine
 10
4239.002860906794
 20
8487.865915108482
 30
0.0
 11
4239.002860906771
 21
8826.865915108538
 31
0.0
  0
LINE
  5
14973
330
747D
100
AcDbEntity
  8
部品1
 48
5.0
100
AcDbLine
 10
5878.001889481861
 20
8487.86591510853
 30
0.0
 11
5878.002382413172
 21
8826.865915108475
 31
0.0
  0
LINE
  5
14974
330
747D
100
AcDbEntity
  8
部品1
 48
50.0
100
AcDbLine
 10
4266.502860906796
 20
8411.365915108472
 30
0.0
 11
4266.502860906743
 21
9278.365915108482
 31
0.0
  0
LINE
  5
14975
330
747D
100
AcDbEntity
  8
部品1
 48
50.0
100
AcDbLine
 10
4322.502860906797
 20
8411.365915108472
 30
0.0
 11
4322.502860906741
 21
9306.365915108482
 31
0.0
  0
LINE
  5
14976
330
747D
100
AcDbEntity
  8
破線
 48
10.0
100
AcDbLine
 10
4215.502860906804
 20
8511.365915108479
 30
0.0
 11
4215.50285255225
 21
8826.865915108536
 31
0.0
  0
LINE
  5
14977
330
747D
100
AcDbEntity
  8
破線
 48
10.0
100
AcDbLine
 10
4373.502860906802
 20
8511.365915108489
 30
0.0
 11
4373.502848475693
 21
8826.865915108482
 31
0.0
  0
DIMENSION
  5
14978
330
747D
100
AcDbEntity
  8
寸法
100
AcDbDimension
  2
*D16
 10
5846.309364612784
 20
8607.8188048655
 30
0.0
 11
5523.349923025018
 21
8607.8188048655
 31
0.0
 70
   160
 71
     5
 42
761.0000000000118
  3
INABA_S40G
100
AcDbAlignedDimension
 13
5144.002860906749
 23
8826.865915108482
 33
0.0
 14
5905.002860906762
 24
8826.865915108479
 34
0.0
100
AcDbRotatedDimension
1001
ACAD
1000
DSTYLE
1002
{
1002
}
  0
LINE
  5
1497A
330
747D
100
AcDbEntity
  8
部品1
100
AcDbLine
 10
5906.502860906818
 20
9278.365915108528
 30
0.0
 11
5906.502860906794
 21
8411.365915108515
 31
0.0
  0
LINE
  5
1497B
330
747D
100
AcDbEntity
  8
破線
 48
10.0
100
AcDbLine
 10
5854.502925831486
 20
8826.865915108477
 30
0.0
 11
5854.5028609068
 21
8511.365915108525
 31
0.0
  0
DIMENSION
  5
1497C
330
747D
100
AcDbEntity
  8
寸法
 48
50.0
100
AcDbDimension
  2
*D20
 10
5854.50286090681
 20
7916.542247313349
 30
0.0
 11
5512.002860906812
 21
8016.542247313349
 31
0.0
 70
    32
 71
     5
 42
684.9999999999972
  3
INABA_S40G
100
AcDbAlignedDimension
 13
5169.502860906813
 23
8356.365915108472
 33
0.0
 14
5854.50286090681
 24
8356.365915108625
 34
0.0
100
AcDbRotatedDimension
  0
LINE
  5
1497D
330
747D
100
AcDbEntity
  8
部品1
 48
5.0
100
AcDbLine
 10
5910.502860906812
 20
8385.865915108473
 30
0.0
 11
5138.502860906812
 21
8385.865915108473
 31
0.0
  0
LINE
  5
1497E
330
747D
100
AcDbEntity
  8
部品1
100
AcDbLine
 10
5889.50286090681
 20
8382.365915108525
 30
0.0
 11
5159.502860906809
 21
8382.365915108463
 31
0.0
  0
LINE
  5
1497F
330
747D
100
AcDbEntity
  8
破線
 48
10.0
100
AcDbLine
 10
5854.502860906794
 20
8511.365915108525
 30
0.0
 11
5193.502860906804
 21
8511.365915108489
 31
0.0
  0
LINE
  5
14980
330
747D
100
AcDbEntity
  8
部品1
100
AcDbLine
 10
5878.001889482002
 20
8487.866020821368
 30
0.0
 11
5170.002860906794
 21
8487.865915133143
 31
0.0
  0
LINE
  5
14981
330
747D
100
AcDbEntity
  8
細線
 48
50.0
100
AcDbLine
 10
3869.502860906811
 20
8382.365915108428
 30
0.0
 11
3869.502860906811
 21
8356.365915108391
 31
0.0
  0
LINE
  5
14982
330
747D
100
AcDbEntity
  8
細線
 48
50.0
100
AcDbLine
 10
3829.50286090681
 20
8382.365915108428
 30
0.0
 11
3829.50286090681
 21
8356.365915108391
 31
0.0
  0
LINE
  5
14983
330
747D
100
AcDbEntity
  8
細線
 48
50.0
100
AcDbLine
 10
4056.50286090681
 20
8382.365915108641
 30
0.0
 11
4056.50286090681
 21
8356.365915108602
 31
0.0
  0
LINE
  5
14984
330
747D
100
AcDbEntity
  8
細線
 48
50.0
100
AcDbLine
 10
4096.50286090681
 20
8382.365915108641
 30
0.0
 11
4096.50286090681
 21
8356.365915108602
 31
0.0
  0
LINE
  5
14985
330
747D
100
AcDbEntity
  8
部品1
 48
5.0
100
AcDbLine
 10
4266.502860906796
 20
8411.365915108472
 30
0.0
 11
4322.502860906797
 21
8411.365915108472
 31
0.0
  0
LINE
  5
14987
330
747D
100
AcDbEntity
  8
部品1
 48
50.0
100
AcDbLine
 10
4266.502860906796
 20
8459.865915108471
 30
0.0
 11
4239.002860906794
 21
8487.865915108482
 31
0.0
  0
LINE
  5
14988
330
747D
100
AcDbEntity
  8
部品1
 48
0.2
100
AcDbLine
 10
4236.565308735488
 20
8349.363545063692
 30
0.0
 11
4241.565308735488
 21
8349.363545063692
 31
0.0
  0
ARC
  5
14989
330
747D
100
AcDbEntity
  8
細線
 48
0.2
100
AcDbCircle
 10
4241.565308735488
 20
8357.363545063693
 30
0.0
 40
4.049999999999999
100
AcDbArc
 50
194.2603506853988
 51
345.7396493146012
  0
ARC
  5
1498A
330
747D
100
AcDbEntity
  8
部品1
 48
0.2
100
AcDbCircle
 10
4236.565308735488
 20
8357.363545063693
 30
0.0
 40
8.0
100
AcDbArc
 50
187.1636477221926
 51
269.9999999999992
  0
ARC
  5
1498B
330
747D
100
AcDbEntity
  8
部品1
 48
0.2
100
AcDbCircle
 10
4241.565308735488
 20
8357.363545063693
 30
0.0
 40
8.0
100
AcDbArc
 50
270.0
 51
352.8363522778074
  0
LINE
  5
1498C
330
747D
100
AcDbEntity
  8
部品1
 48
5.0
100
AcDbLine
 10
4262.502860906812
 20
8411.365915108472
 30
0.0
 11
4239.50286090681
 21
8411.365915108472
 31
0.0
  0
LINE
  5
1498D
330
747D
100
AcDbEntity
  8
部品1
 48
5.0
100
AcDbLine
 10
4239.502860906812
 20
8411.365915108474
 30
0.0
 11
4239.502860906813
 21
8385.865915108473
 31
0.0
  0
LINE
  5
1498E
330
747D
100
AcDbEntity
  8
部品1
 48
5.0
100
AcDbLine
 10
4270.502860906812
 20
8411.365915108472
 30
0.0
 11
4270.502860906812
 21
8385.865915108473
 31
0.0
  0
LINE
  5
1498F
330
747D
100
AcDbEntity
  8
部品1
 48
5.0
100
AcDbLine
 10
4251.502860906812
 20
8385.865915108473
 30
0.0
 11
4251.502860906812
 21
8356.365915108472
 31
0.0
  0
LINE
  5
14990
330
747D
100
AcDbEntity
  8
部品1
100
AcDbLine
 10
4251.50286090681
 20
8385.865915108418
 30
0.0
 11
4251.502860906807
 21
8356.365915108467
 31
0.0
  0
LINE
  5
14991
330
747D
100
AcDbEntity
  8
部品1
100
AcDbLine
 10
4249.502860906809
 20
8382.365915108525
 30
0.0
 11
4249.502860906809
 21
8356.365915108469
 31
0.0
  0
LINE
  5
14992
330
747D
100
AcDbEntity
  8
細線
 48
50.0
100
AcDbLine
 10
4463.50286090681
 20
8382.365915108437
 30
0.0
 11
4463.50286090681
 21
8356.365915108391
 31
0.0
  0
LINE
  5
14993
330
747D
100
AcDbEntity
  8
部品1
 48
50.0
100
AcDbLine
 10
4350.002860906793
 20
8487.865915133143
 30
0.0
 11
4322.502860906797
 21
8459.865915108471
 31
0.0
  0
LINE
  5
14994
330
747D
100
AcDbEntity
  8
部品1
 48
5.0
100
AcDbLine
 10
4326.502860906813
 20
8411.365915108472
 30
0.0
 11
4349.502860906812
 21
8411.365915108472
 31
0.0
  0
LINE
  5
14995
330
747D
100
AcDbEntity
  8
部品1
 48
5.0
100
AcDbLine
 10
4318.502860906813
 20
8411.365915108472
 30
0.0
 11
4318.502860906812
 21
8385.865915108473
 31
0.0
  0
LINE
  5
14996
330
747D
100
AcDbEntity
  8
部品1
 48
5.0
100
AcDbLine
 10
4349.502860906812
 20
8411.365915108472
 30
0.0
 11
4349.502860906812
 21
8385.865915108473
 31
0.0
  0
LINE
  5
14997
330
747D
100
AcDbEntity
  8
部品1
 48
5.0
100
AcDbLine
 10
4337.502860906812
 20
8385.865915108473
 30
0.0
 11
4337.502860906812
 21
8356.365915108472
 31
0.0
  0
LINE
  5
14998
330
747D
100
AcDbEntity
  8
部品1
100
AcDbLine
 10
4339.50286090681
 20
8382.365915108463
 30
0.0
 11
4339.502860906808
 21
8356.365915108474
 31
0.0
  0
LINE
  5
14999
330
747D
100
AcDbEntity
  8
部品1
100
AcDbLine
 10
4337.502860906812
 20
8385.865915108425
 30
0.0
 11
4337.502860906812
 21
8356.365915108472
 31
0.0
  0
LINE
  5
1499A
330
747D
100
AcDbEntity
  8
細線
 48
50.0
100
AcDbLine
 10
5469.502860906811
 20
8382.365915108428
 30
0.0
 11
5469.502860906811
 21
8356.365915108391
 31
0.0
  0
LINE
  5
1499B
330
747D
100
AcDbEntity
  8
細線
 48
50.0
100
AcDbLine
 10
5509.50286090681
 20
8382.365915108428
 30
0.0
 11
5509.50286090681
 21
8356.365915108391
 31
0.0
  0
LINE
  5
1499C
330
747D
100
AcDbEntity
  8
細線
 48
50.0
100
AcDbLine
 10
5736.50286090681
 20
8382.365915108641
 30
0.0
 11
5736.50286090681
 21
8356.365915108602
 31
0.0
  0
LINE
  5
1499D
330
747D
100
AcDbEntity
  8
細線
 48
50.0
100
AcDbLine
 10
5696.502860906811
 20
8382.365915108641
 30
0.0
 11
5696.502860906811
 21
8356.365915108602
 31
0.0
  0
LINE
  5
1499E
330
747D
100
AcDbEntity
  8
部品1
 48
50.0
100
AcDbLine
 10
5906.502860906794
 20
8458.846849916119
 30
0.0
 11
5878.001889482002
 21
8487.866020821368
 31
0.0
  0
ARC
  5
1499F
330
747D
100
AcDbEntity
  8
細線
 48
0.2
100
AcDbCircle
 10
5881.565308735489
 20
8357.363545063712
 30
0.0
 40
4.049999999999999
100
AcDbArc
 50
194.2603506853988
 51
345.7396493146012
  0
ARC
  5
149A0
330
747D
100
AcDbEntity
  8
部品1
 48
0.2
100
AcDbCircle
 10
5876.565308735489
 20
8357.363545063712
 30
0.0
 40
8.0
100
AcDbArc
 50
187.1636477221926
 51
269.9999999999992
  0
ARC
  5
149A1
330
747D
100
AcDbEntity
  8
部品1
 48
0.2
100
AcDbCircle
 10
5881.565308735489
 20
8357.363545063712
 30
0.0
 40
8.0
100
AcDbArc
 50
270.0
 51
352.8363522778074
  0
LINE
  5
149A2
330
747D
100
AcDbEntity
  8
部品1
 48
0.2
100
AcDbLine
 10
5876.565308735489
 20
8349.363545063713
 30
0.0
 11
5881.565308735489
 21
8349.363545063713
 31
0.0
  0
LINE
  5
149A3
330
747D
100
AcDbEntity
  8
部品1
100
AcDbLine
 10
5889.50286090681
 20
8382.365915108525
 30
0.0
 11
5889.50286090681
 21
8356.365915108517
 31
0.0
  0
LINE
  5
149A4
330
747D
100
AcDbEntity
  8
部品1
 48
2.83
100
AcDbLine
 10
5891.502860906792
 20
8385.865915108487
 30
0.0
 11
5891.502860906792
 21
8356.365915108487
 31
0.0
  0
LINE
  5
149A5
330
747D
100
AcDbEntity
  8
部品1
 48
2.83
100
AcDbLine
 10
5879.502860906792
 20
8411.365915108484
 30
0.0
 11
5879.502860906791
 21
8385.865915108487
 31
0.0
  0
LINE
  5
149A7
330
747D
100
AcDbEntity
  8
部品1
 48
2.83
100
AcDbLine
 10
5902.502860906792
 20
8411.365915108488
 30
0.0
 11
5879.502860906791
 21
8411.365915108484
 31
0.0
  0
LINE
  5
149AA
330
747D
100
AcDbEntity
  8
部品1
100
AcDbLine
 10
5142.502860906741
 20
9278.365915108484
 30
0.0
 11
5931.88356392542
 21
9278.365915108482
 31
0.0
  0
LINE
  5
149AB
330
747D
100
AcDbEntity
  8
部品1
100
AcDbLine
 10
5144.002860906748
 20
8826.865915108482
 30
0.0
 11
5905.00286090675
 21
8826.865915108475
 31
0.0
  0
LINE
  5
149AC
330
747D
100
AcDbEntity
  8
細線
 48
50.0
100
AcDbLine
 10
5905.00286090675
 20
9276.865915108476
 30
0.0
 11
5144.002860906748
 21
8826.865915108482
 31
0.0
  0
LINE
  5
149AD
330
747D
100
AcDbEntity
  8
細線
 48
50.0
100
AcDbLine
 10
5905.00286090675
 20
8826.865915108475
 30
0.0
 11
5144.002860906749
 21
9276.865915108478
 31
0.0
  0
LINE
  5
149AE
330
747D
100
AcDbEntity
  8
部品1
100
AcDbLine
 10
5144.002860906749
 20
9276.865915108484
 30
0.0
 11
5905.00286090675
 21
9276.865915108476
 31
0.0
  0
LINE
  5
149AF
330
747D
100
AcDbEntity
  8
部品1
 48
50.0
100
AcDbLine
 10
4324.002860906749
 20
9276.865915108478
 30
0.0
 11
4324.002860906749
 21
8826.865915108482
 31
0.0
  0
LINE
  5
149B0
330
747D
100
AcDbEntity
  8
部品1
 48
50.0
100
AcDbLine
 10
4265.002867584446
 20
9276.865915108542
 30
0.0
 11
4265.002867584446
 21
8826.865915108543
 31
0.0
  0
LINE
  5
149B1
330
747D
100
AcDbEntity
  8
部品1
 48
50.0
100
AcDbLine
 10
4294.502860906788
 20
8869.365915108481
 30
0.0
 11
4322.502860906771
 21
8869.365915108483
 31
0.0
  0
LINE
  5
149B2
330
747D
100
AcDbEntity
  8
部品1
 48
50.0
100
AcDbLine
 10
4294.502860906788
 20
8831.365915108483
 30
0.0
 11
4322.502860906771
 21
8831.365915108483
 31
0.0
  0
LINE
  5
149B3
330
747D
100
AcDbEntity
  8
部品1
 48
5.0
100
AcDbLine
 10
4294.502860906797
 20
8831.365915108476
 30
0.0
 11
4266.502860906744
 21
8831.365915108483
 31
0.0
  0
LINE
  5
149B4
330
747D
100
AcDbEntity
  8
細線
 48
50.0
100
AcDbLine
 10
3914.502860906818
 20
9284.865915108465
 30
0.0
 11
3914.502860906816
 21
9306.365915108466
 31
0.0
  0
LINE
  5
149B5
330
747D
100
AcDbEntity
  8
細線
 48
50.0
100
AcDbLine
 10
3854.502860906819
 20
9284.865915108461
 30
0.0
 11
3854.502860906816
 21
9306.365915108459
 31
0.0
  0
LINE
  5
149B6
330
747D
100
AcDbEntity
  8
細線
 48
50.0
100
AcDbLine
 10
3914.502860906818
 20
9284.865915108465
 30
0.0
 11
3854.502860906818
 21
9284.86591510846
 31
0.0
  0
LINE
  5
149B7
330
747D
100
AcDbEntity
  8
部品1
 48
5.0
100
AcDbLine
 10
4322.502860906745
 20
9251.365915108481
 30
0.0
 11
4266.502860906744
 21
9251.365915108481
 31
0.0
  0
LINE
  5
149B8
330
747D
100
AcDbEntity
  8
部品1
 48
5.0
100
AcDbLine
 10
4269.21213535399
 20
9306.365915108477
 30
0.0
 11
4291.883563925419
 21
9278.365915108482
 31
0.0
  0
LINE
  5
149B9
330
747D
100
AcDbEntity
  8
部品1
 48
5.0
100
AcDbLine
 10
4239.502860906815
 20
9278.365915108478
 30
0.0
 11
4239.502860906815
 21
9306.365915108477
 31
0.0
  0
LINE
  5
149BA
330
747D
100
AcDbEntity
  8
部品1
 48
50.0
100
AcDbLine
 10
4265.002867584448
 20
9276.811402448727
 30
0.0
 11
4266.502860906743
 21
9278.365915108478
 31
0.0
  0
LINE
  5
149BB
330
747D
100
AcDbEntity
  8
部品1
 48
5.0
100
AcDbLine
 10
4349.502860906819
 20
9306.365915108484
 30
0.0
 11
4349.502860906814
 21
9278.365915108485
 31
0.0
  0
LINE
  5
149BC
330
747D
100
AcDbEntity
  8
部品1
 48
50.0
100
AcDbLine
 10
4324.002860906749
 20
9276.81139358822
 30
0.0
 11
4322.502860906743
 21
9278.365915108482
 31
0.0
  0
LINE
  5
149BD
330
747D
100
AcDbEntity
  8
部品1
100
AcDbLine
 10
5905.00286090675
 20
9276.865915108476
 30
0.0
 11
5905.00286090675
 21
8826.865915108475
 31
0.0
  0
LINE
  5
149BF
330
747D
100
AcDbEntity
  8
細線
 48
50.0
100
AcDbLine
 10
5494.502860906819
 20
9284.865915108543
 30
0.0
 11
5494.502860906816
 21
9306.365915108541
 31
0.0
  0
LINE
  5
149C0
330
747D
100
AcDbEntity
  8
細線
 48
50.0
100
AcDbLine
 10
5554.502860906818
 20
9284.865915108545
 30
0.0
 11
5554.502860906816
 21
9306.365915108548
 31
0.0
  0
LINE
  5
149C1
330
747D
100
AcDbEntity
  8
細線
 48
50.0
100
AcDbLine
 10
5554.502860906818
 20
9284.865915108545
 30
0.0
 11
5494.502860906817
 21
9284.865915108541
 31
0.0
  0
LINE
  5
149C2
330
747D
100
AcDbEntity
  8
部品1
 48
50.0
100
AcDbLine
 10
5905.002854229142
 20
9276.865915108478
 30
0.0
 11
5906.502860906818
 21
9278.365915108528
 31
0.0
  0
LINE
  5
149C4
330
747D
100
AcDbEntity
  8
部品1
100
AcDbLine
 10
5879.502860906818
 20
9306.365915108528
 30
0.0
 11
5879.502860906818
 21
9278.365915108528
 31
0.0
  0
LINE
  5
149C5
330
747D
100
AcDbEntity
  8
部品1
100
AcDbLine
 10
5879.502860906818
 20
9306.365915108548
 30
0.0
 11
5879.502860906818
 21
9278.365915108548
 31
0.0
  0
DIMENSION
  5
149C6
330
747D
100
AcDbEntity
  8
寸法
 48
50.0
100
AcDbDimension
  2
*D19
 10
5169.50286090682
 20
9522.174134733532
 30
0.0
 11
5524.502860906818
 21
9622.174134733533
 31
0.0
 70
    32
 71
     5
 42
709.9999999999981
  3
INABA_S40G
100
AcDbAlignedDimension
 13
5879.502860906818
 23
9306.365915108548
 33
0.0
 14
5169.50286090682
 24
9306.365915108532
 34
0.0
100
AcDbRotatedDimension
  0
DIMENSION
  5
149C7
330
747D
100
AcDbEntity
  8
寸法
 48
50.0
100
AcDbDimension
  2
*D18
 10
4349.502860906819
 20
9522.174134733532
 30
0.0
 11
4294.502860906817
 21
9622.174134733533
 31
0.0
 70
    32
 71
     5
 42
110.0000000000036
  3
INABA_S40G
100
AcDbAlignedDimension
 13
4239.502860906815
 23
9306.365915108555
 33
0.0
 14
4349.502860906819
 24
9306.365915108532
 34
0.0
100
AcDbRotatedDimension
  0
DIMENSION
  5
149C8
330
747D
100
AcDbEntity
  8
寸法
100
AcDbDimension
  2
*D15
 10
4239.502860906815
 20
9522.174134733532
 30
0.0
 11
3884.752860906816
 21
9522.174134733532
 31
0.0
 70
   160
 71
     5
 42
709.999999999999
  3
INABA_S40G
100
AcDbAlignedDimension
 13
3529.502860906817
 23
9306.365915108434
 33
0.0
 14
4239.502860906815
 24
9306.365915108555
 34
0.0
100
AcDbRotatedDimension
1001
ACAD
1000
DSTYLE
1002
{
1002
}
  0
DIMENSION
  5
14A13
330
747D
100
AcDbEntity
  8
寸法
 48
50.0
100
AcDbDimension
  2
*D21
 10
5989.50286090682
 20
9522.174134733532
 30
0.0
 11
5934.502860906818
 21
9622.174134733533
 31
0.0
 70
    32
 71
     5
 42
110.0000000000036
  3
INABA_S40G
100
AcDbAlignedDimension
 13
5879.502860906816
 23
9306.365915108555
 33
0.0
 14
5989.50286090682
 24
9306.365915108532
 34
0.0
100
AcDbRotatedDimension
  0
DIMENSION
  5
14A22
330
747D
100
AcDbEntity
  8
寸法
 48
50.0
100
AcDbDimension
  2
*D22
 10
8314.502860906811
 20
7916.542247313349
 30
0.0
 11
7972.002860906812
 21
7916.542247313349
 31
0.0
 70
   160
  1
有効開口部間口\P<>
 71
     5
 42
684.9999999999954
  3
INABA_S40G
100
AcDbAlignedDimension
 13
7629.502860906815
 23
8356.365915108426
 33
0.0
 14
8314.502860906811
 24
8356.365915108391
 34
0.0
100
AcDbRotatedDimension
  0
DIMENSION
  5
14A2F
330
747D
100
AcDbEntity
  8
寸法
 48
50.0
100
AcDbDimension
  2
*D23
 10
6674.50286090681
 20
7916.542247313349
 30
0.0
 11
6332.002860906812
 21
8016.542247313349
 31
0.0
 70
    32
 71
     5
 42
684.9999999999972
  3
INABA_S40G
100
AcDbAlignedDimension
 13
5989.502860906814
 23
8356.365915108472
 33
0.0
 14
6674.50286090681
 24
8356.365915108625
 34
0.0
100
AcDbRotatedDimension
  0
DIMENSION
  5
14A61
330
747D
100
AcDbEntity
  8
寸法
 48
50.0
100
AcDbDimension
  2
*D24
 10
3474.502860906817
 20
9522.174134733532
 30
0.0
 11
3166.017579532578
 21
9522.174134733532
 31
0.0
 70
   160
 71
     5
 42
55.0
  3
INABA_S40G
100
AcDbAlignedDimension
 13
3529.502860906817
 23
9306.365915108438
 33
0.0
 14
3474.502860906817
 24
9306.365915108434
 34
0.0
100
AcDbRotatedDimension
  0
LINE
  5
14A6F
330
747D
100
AcDbEntity
  8
部品1
 48
5.0
100
AcDbLine
 10
5909.212135353991
 20
9306.365915108477
 30
0.0
 11
5931.88356392542
 21
9278.365915108482
 31
0.0
  0
LINE
  5
14A70
330
747D
100
AcDbEntity
  8
部品1
 48
50.0
100
AcDbLine
 10
5934.502860906787
 20
8869.365915108481
 30
0.0
 11
5962.502860906771
 21
8869.365915108483
 31
0.0
  0
LINE
  5
14A71
330
747D
100
AcDbEntity
  8
部品1
 48
50.0
100
AcDbLine
 10
5934.502860906796
 20
8411.365915108472
 30
0.0
 11
5934.502860906796
 21
9251.365915108481
 31
0.0
  0
LINE
  5
14A72
330
747D
100
AcDbEntity
  8
部品1
 48
5.0
100
AcDbLine
 10
5910.502860906812
 20
8411.365915108472
 30
0.0
 11
5910.502860906812
 21
8385.865915108473
 31
0.0
  0
LINE
  5
14A73
330
747D
100
AcDbEntity
  8
部品1
 48
5.0
100
AcDbLine
 10
5958.502860906813
 20
8411.365915108472
 30
0.0
 11
5958.502860906812
 21
8385.865915108473
 31
0.0
  0
LINE
  5
14AAB
330
747D
100
AcDbEntity
  8
細線
 48
50.0
100
AcDbLine
 10
5049.440413078128
 20
5407.077276893862
 30
0.0
 11
5049.440413078128
 21
5407.327276893862
 31
0.0
  0
LINE
  5
14AAC
330
747D
100
AcDbEntity
  8
部品1
100
AcDbLine
 10
5069.44041307813
 20
5407.077276893862
 30
0.0
 11
5069.50286090681
 21
5407.07727689386
 31
0.0
  0
LINE
  5
14AAD
330
747D
100
AcDbEntity
  8
部品1
 48
50.0
100
AcDbLine
 10
5049.440413078128
 20
5400.327276893862
 30
0.0
 11
5049.440413078128
 21
5407.077276893862
 31
0.0
  0
LINE
  5
14AAE
330
747D
100
AcDbEntity
  8
細線
 48
0.2
100
AcDbLine
 10
5069.440413078129
 20
5407.327276893862
 30
0.0
 11
5049.44041307813
 21
5407.327276893862
 31
0.0
  0
LINE
  5
14AAF
330
747D
100
AcDbEntity
  8
細線
 48
0.2
100
AcDbLine
 10
5069.440413078129
 20
5402.827276893862
 30
0.0
 11
5049.44041307813
 21
5402.827276893862
 31
0.0
  0
LINE
  5
14AB0
330
747D
100
AcDbEntity
  8
細線
 48
0.2
100
AcDbLine
 10
5069.440413078129
 20
5404.827276893862
 30
0.0
 11
5049.44041307813
 21
5404.827276893862
 31
0.0
  0
LINE
  5
14AB1
330
747D
100
AcDbEntity
  8
部品1
 48
0.2
100
AcDbLine
 10
5069.440413078129
 20
5400.327276893862
 30
0.0
 11
5049.440413078128
 21
5400.327276893862
 31
0.0
  0
ARC
  5
14AB2
330
747D
100
AcDbEntity
  8
細線
 48
0.2
100
AcDbCircle
 10
5056.440413078128
 20
5407.29778672511
 30
0.0
 40
1.0
100
AcDbArc
 50
106.6015495990225
 51
180.0000000000016
  0
ARC
  5
14AB3
330
747D
100
AcDbEntity
  8
細線
 48
0.2
100
AcDbCircle
 10
5066.440413078129
 20
5407.29778672511
 30
0.0
 40
1.0
100
AcDbArc
 50
0.0
 51
73.39845040097829
  0
LINE
  5
14AB4
330
747D
100
AcDbEntity
  8
細線
 48
0.1
100
AcDbLine
 10
5069.440413078129
 20
5407.327276893862
 30
0.0
 11
5069.440413078129
 21
5400.327276893862
 31
0.0
  0
ARC
  5
14AB5
330
747D
100
AcDbEntity
  8
細線
 48
0.2
100
AcDbCircle
 10
5061.440413078129
 20
5390.527276893865
 30
0.0
 40
18.49999999999796
100
AcDbArc
 50
73.39845040097829
 51
106.6015495990228
  0
LINE
  5
14AB6
330
747D
100
AcDbEntity
  8
細線
 48
0.2
100
AcDbLine
 10
5067.124404374636
 20
5408.027276893863
 30
0.0
 11
5055.756421781624
 21
5408.027276893863
 31
0.0
  0
LINE
  5
14AB7
330
747D
100
AcDbEntity
  8
細線
 48
50.0
100
AcDbLine
 10
5057.577655883825
 20
5404.827276893862
 30
0.0
 11
5057.577655883826
 21
5402.827276893862
 31
0.0
  0
LINE
  5
14AB8
330
747D
100
AcDbEntity
  8
細線
 48
50.0
100
AcDbLine
 10
5065.42806592979
 20
5404.827276893862
 30
0.0
 11
5065.42806592979
 21
5402.827276893862
 31
0.0
  0
LINE
  5
14ACA
330
747D
100
AcDbEntity
  8
部品1
100
AcDbLine
 10
4339.502860906811
 20
5407.077276893864
 30
0.0
 11
5049.44041307813
 21
5407.077276893862
 31
0.0
  0
LINE
  5
14ACB
330
747D
100
AcDbEntity
  8
部品1
100
AcDbLine
 10
4339.502860906811
 20
3616.077276893866
 30
0.0
 11
5049.44041307813
 21
3616.077276893872
 31
0.0
  0
LINE
  5
14ACC
330
747D
100
AcDbEntity
  8
部品1
100
AcDbLine
 10
3517.502860906811
 20
5409.577276893861
 30
0.0
 11
3517.502860906811
 21
3612.577276893881
 31
0.0
  0
LINE
  5
14ACD
330
747D
100
AcDbEntity
  8
部品1
100
AcDbLine
 10
3519.50286090681
 20
5407.077276893864
 30
0.0
 11
3519.50286090681
 21
3616.077276893866
 31
0.0
  0
LINE
  5
14AF5
330
747D
100
AcDbEntity
  8
部品1
100
AcDbLine
 10
5069.502860906808
 20
5407.07727689386
 30
0.0
 11
5069.502860906812
 21
3616.077276893881
 31
0.0
  0
LINE
  5
14AF6
330
747D
100
AcDbEntity
  8
部品1
100
AcDbLine
 10
5071.502860906811
 20
5409.577276893861
 30
0.0
 11
5071.502860906811
 21
3612.577276893881
 31
0.0
  0
LINE
  5
14AF7
330
747D
100
AcDbEntity
  8
部品1
100
AcDbLine
 10
5157.50286090681
 20
5409.577276893861
 30
0.0
 11
5157.50286090681
 21
3612.577276893881
 31
0.0
  0
LINE
  5
14AF8
330
747D
100
AcDbEntity
  8
部品1
100
AcDbLine
 10
5159.502860906809
 20
5407.077276893857
 30
0.0
 11
5159.50286090681
 21
3616.077276893875
 31
0.0
  0
LINE
  5
14AF9
330
747D
100
AcDbEntity
  8
部品1
100
AcDbLine
 10
5889.50286090681
 20
5407.07727689386
 30
0.0
 11
5889.502860906811
 21
3616.077276893882
 31
0.0
  0
LINE
  5
14AFA
330
747D
100
AcDbEntity
  8
部品1
100
AcDbLine
 10
5891.50286090681
 20
5409.577276893861
 30
0.0
 11
5891.50286090681
 21
3612.577276893881
 31
0.0
  0
LINE
  5
14AFB
330
747D
100
AcDbEntity
  8
部品1
100
AcDbLine
 10
5159.50286090681
 20
3616.077276893875
 30
0.0
 11
5869.440413078129
 21
3616.07727689388
 31
0.0
  0
LINE
  5
14AFC
330
747D
100
AcDbEntity
  8
部品1
 48
50.0
100
AcDbLine
 10
5049.440413078128
 20
3622.827276893879
 30
0.0
 11
5049.440413078128
 21
3616.07727689388
 31
0.0
  0
LINE
  5
14AFD
330
747D
100
AcDbEntity
  8
細線
 48
50.0
100
AcDbLine
 10
5065.42806592979
 20
3618.32727689388
 30
0.0
 11
5065.42806592979
 21
3620.32727689388
 31
0.0
  0
LINE
  5
14AFE
330
747D
100
AcDbEntity
  8
細線
 48
50.0
100
AcDbLine
 10
5057.577655883825
 20
3618.32727689388
 30
0.0
 11
5057.577655883826
 21
3620.32727689388
 31
0.0
  0
LINE
  5
14AFF
330
747D
100
AcDbEntity
  8
細線
 48
0.1
100
AcDbLine
 10
5069.440413078129
 20
3615.82727689388
 30
0.0
 11
5069.440413078129
 21
3622.827276893879
 31
0.0
  0
LINE
  5
14B00
330
747D
100
AcDbEntity
  8
部品1
100
AcDbLine
 10
5069.44041307813
 20
3616.077276893872
 30
0.0
 11
5069.50286090681
 21
3616.077276893872
 31
0.0
  0
LINE
  5
14B01
330
747D
100
AcDbEntity
  8
部品1
100
AcDbLine
 10
5069.44041307813
 20
3616.07727689388
 30
0.0
 11
5069.50286090681
 21
3616.077276893881
 31
0.0
  0
LINE
  5
14B02
330
747D
100
AcDbEntity
  8
細線
 48
50.0
100
AcDbLine
 10
5049.440413078128
 20
3616.07727689388
 30
0.0
 11
5049.440413078128
 21
3615.82727689388
 31
0.0
  0
LINE
  5
14B03
330
747D
100
AcDbEntity
  8
細線
 48
0.2
100
AcDbLine
 10
5067.124404374636
 20
3615.127276893878
 30
0.0
 11
5055.756421781624
 21
3615.127276893878
 31
0.0
  0
ARC
  5
14B04
330
747D
100
AcDbEntity
  8
細線
 48
0.2
100
AcDbCircle
 10
5061.440413078129
 20
3632.627276893876
 30
0.0
 40
18.49999999999796
100
AcDbArc
 50
253.3984504009772
 51
286.6015495990217
  0
ARC
  5
14B05
330
747D
100
AcDbEntity
  8
細線
 48
0.2
100
AcDbCircle
 10
5056.440413078128
 20
3615.856767062631
 30
0.0
 40
1.0
100
AcDbArc
 50
179.9999999999984
 51
253.3984504009775
  0
LINE
  5
14B06
330
747D
100
AcDbEntity
  8
細線
 48
0.2
100
AcDbLine
 10
5069.440413078129
 20
3618.327276893879
 30
0.0
 11
5049.44041307813
 21
3618.32727689388
 31
0.0
  0
LINE
  5
14B07
330
747D
100
AcDbEntity
  8
細線
 48
0.2
100
AcDbLine
 10
5069.440413078129
 20
3615.82727689388
 30
0.0
 11
5049.44041307813
 21
3615.82727689388
 31
0.0
  0
ARC
  5
14B08
330
747D
100
AcDbEntity
  8
細線
 48
0.2
100
AcDbCircle
 10
5066.440413078129
 20
3615.856767062631
 30
0.0
 40
1.0
100
AcDbArc
 50
286.6015495990217
 51
0.0
  0
LINE
  5
14B09
330
747D
100
AcDbEntity
  8
部品1
 48
0.2
100
AcDbLine
 10
5069.440413078129
 20
3622.827276893879
 30
0.0
 11
5049.440413078128
 21
3622.827276893879
 31
0.0
  0
LINE
  5
14B0A
330
747D
100
AcDbEntity
  8
細線
 48
0.2
100
AcDbLine
 10
5069.440413078129
 20
3620.32727689388
 30
0.0
 11
5049.44041307813
 21
3620.32727689388
 31
0.0
  0
LINE
  5
14B0B
330
747D
100
AcDbEntity
  8
細線
 48
0.1
100
AcDbLine
 10
5889.440413078129
 20
3615.82727689388
 30
0.0
 11
5889.440413078129
 21
3622.827276893879
 31
0.0
  0
LINE
  5
14B0C
330
747D
100
AcDbEntity
  8
細線
 48
50.0
100
AcDbLine
 10
5877.577655883825
 20
3618.32727689388
 30
0.0
 11
5877.577655883825
 21
3620.32727689388
 31
0.0
  0
LINE
  5
14B0D
330
747D
100
AcDbEntity
  8
細線
 48
50.0
100
AcDbLine
 10
5885.428065929789
 20
3618.32727689388
 30
0.0
 11
5885.428065929789
 21
3620.32727689388
 31
0.0
  0
LINE
  5
14B0E
330
747D
100
AcDbEntity
  8
部品1
 48
50.0
100
AcDbLine
 10
5869.440413078129
 20
3622.827276893879
 30
0.0
 11
5869.440413078129
 21
3616.07727689388
 31
0.0
  0
LINE
  5
14B0F
330
747D
100
AcDbEntity
  8
部品1
100
AcDbLine
 10
5889.44041307813
 20
3616.07727689388
 30
0.0
 11
5889.50286090681
 21
3616.07727689388
 31
0.0
  0
ARC
  5
14B10
330
747D
100
AcDbEntity
  8
細線
 48
0.2
100
AcDbCircle
 10
5886.440413078129
 20
3615.856767062631
 30
0.0
 40
1.0
100
AcDbArc
 50
286.6015495990217
 51
0.0
  0
LINE
  5
14B11
330
747D
100
AcDbEntity
  8
細線
 48
0.2
100
AcDbLine
 10
5889.440413078129
 20
3615.82727689388
 30
0.0
 11
5869.440413078129
 21
3615.82727689388
 31
0.0
  0
LINE
  5
14B12
330
747D
100
AcDbEntity
  8
細線
 48
0.2
100
AcDbLine
 10
5889.440413078129
 20
3618.327276893879
 30
0.0
 11
5869.440413078129
 21
3618.32727689388
 31
0.0
  0
ARC
  5
14B13
330
747D
100
AcDbEntity
  8
細線
 48
0.2
100
AcDbCircle
 10
5876.440413078128
 20
3615.856767062631
 30
0.0
 40
1.0
100
AcDbArc
 50
179.9999999999984
 51
253.3984504009775
  0
ARC
  5
14B14
330
747D
100
AcDbEntity
  8
細線
 48
0.2
100
AcDbCircle
 10
5881.440413078128
 20
3632.627276893876
 30
0.0
 40
18.49999999999796
100
AcDbArc
 50
253.3984504009772
 51
286.6015495990217
  0
LINE
  5
14B15
330
747D
100
AcDbEntity
  8
細線
 48
0.2
100
AcDbLine
 10
5887.124404374636
 20
3615.127276893878
 30
0.0
 11
5875.756421781624
 21
3615.127276893878
 31
0.0
  0
LINE
  5
14B16
330
747D
100
AcDbEntity
  8
細線
 48
50.0
100
AcDbLine
 10
5869.440413078129
 20
3616.07727689388
 30
0.0
 11
5869.440413078129
 21
3615.82727689388
 31
0.0
  0
LINE
  5
14B17
330
747D
100
AcDbEntity
  8
部品1
100
AcDbLine
 10
5889.44041307813
 20
3616.07727689388
 30
0.0
 11
5889.50286090681
 21
3616.077276893881
 31
0.0
  0
LINE
  5
14B18
330
747D
100
AcDbEntity
  8
部品1
100
AcDbLine
 10
5889.44041307813
 20
3616.077276893883
 30
0.0
 11
5889.50286090681
 21
3616.077276893882
 31
0.0
  0
LINE
  5
14B19
330
747D
100
AcDbEntity
  8
細線
 48
0.2
100
AcDbLine
 10
5889.440413078129
 20
3620.32727689388
 30
0.0
 11
5869.440413078129
 21
3620.32727689388
 31
0.0
  0
LINE
  5
14B1A
330
747D
100
AcDbEntity
  8
部品1
 48
0.2
100
AcDbLine
 10
5889.440413078129
 20
3622.827276893879
 30
0.0
 11
5869.440413078129
 21
3622.827276893879
 31
0.0
  0
LINE
  5
14B42
330
747D
100
AcDbEntity
  8
部品1
100
AcDbLine
 10
5159.502860906809
 20
5407.077276893857
 30
0.0
 11
5869.440413078129
 21
5407.07727689386
 31
0.0
  0
LINE
  5
14B43
330
747D
100
AcDbEntity
  8
部品1
100
AcDbLine
 10
5889.44041307813
 20
5407.077276893859
 30
0.0
 11
5889.50286090681
 21
5407.07727689386
 31
0.0
  0
LINE
  5
14B44
330
747D
100
AcDbEntity
  8
部品1
 48
0.2
100
AcDbLine
 10
5889.440413078129
 20
5400.327276893862
 30
0.0
 11
5869.440413078129
 21
5400.327276893862
 31
0.0
  0
LINE
  5
14B45
330
747D
100
AcDbEntity
  8
部品1
100
AcDbLine
 10
5889.44041307813
 20
5407.077276893862
 30
0.0
 11
5889.50286090681
 21
5407.07727689386
 31
0.0
  0
LINE
  5
14B46
330
747D
100
AcDbEntity
  8
部品1
 48
50.0
100
AcDbLine
 10
5869.440413078129
 20
5400.327276893862
 30
0.0
 11
5869.440413078129
 21
5407.077276893862
 31
0.0
  0
LINE
  5
14B47
330
747D
100
AcDbEntity
  8
細線
 48
50.0
100
AcDbLine
 10
5869.440413078129
 20
5407.077276893862
 30
0.0
 11
5869.440413078129
 21
5407.327276893862
 31
0.0
  0
LINE
  5
14B48
330
747D
100
AcDbEntity
  8
細線
 48
0.2
100
AcDbLine
 10
5887.124404374636
 20
5408.027276893863
 30
0.0
 11
5875.756421781624
 21
5408.027276893863
 31
0.0
  0
ARC
  5
14B49
330
747D
100
AcDbEntity
  8
細線
 48
0.2
100
AcDbCircle
 10
5881.440413078128
 20
5390.527276893865
 30
0.0
 40
18.49999999999796
100
AcDbArc
 50
73.39845040097829
 51
106.6015495990228
  0
ARC
  5
14B4A
330
747D
100
AcDbEntity
  8
細線
 48
0.2
100
AcDbCircle
 10
5876.440413078128
 20
5407.29778672511
 30
0.0
 40
1.0
100
AcDbArc
 50
106.6015495990225
 51
180.0000000000016
  0
LINE
  5
14B4B
330
747D
100
AcDbEntity
  8
細線
 48
0.2
100
AcDbLine
 10
5889.440413078129
 20
5404.827276893862
 30
0.0
 11
5869.440413078129
 21
5404.827276893862
 31
0.0
  0
LINE
  5
14B4C
330
747D
100
AcDbEntity
  8
細線
 48
0.2
100
AcDbLine
 10
5889.440413078129
 20
5402.827276893862
 30
0.0
 11
5869.440413078129
 21
5402.827276893862
 31
0.0
  0
LINE
  5
14B4D
330
747D
100
AcDbEntity
  8
細線
 48
0.2
100
AcDbLine
 10
5889.440413078129
 20
5407.327276893862
 30
0.0
 11
5869.440413078129
 21
5407.327276893862
 31
0.0
  0
LINE
  5
14B4E
330
747D
100
AcDbEntity
  8
細線
 48
50.0
100
AcDbLine
 10
5885.428065929789
 20
5404.827276893862
 30
0.0
 11
5885.428065929789
 21
5402.827276893862
 31
0.0
  0
LINE
  5
14B4F
330
747D
100
AcDbEntity
  8
細線
 48
50.0
100
AcDbLine
 10
5877.577655883825
 20
5404.827276893862
 30
0.0
 11
5877.577655883825
 21
5402.827276893862
 31
0.0
  0
LINE
  5
14B50
330
747D
100
AcDbEntity
  8
細線
 48
0.1
100
AcDbLine
 10
5889.440413078129
 20
5407.327276893862
 30
0.0
 11
5889.440413078129
 21
5400.327276893862
 31
0.0
  0
ARC
  5
14B51
330
747D
100
AcDbEntity
  8
細線
 48
0.2
100
AcDbCircle
 10
5886.440413078129
 20
5407.29778672511
 30
0.0
 40
1.0
100
AcDbArc
 50
0.0
 51
73.39845040097829
  0
LINE
  5
14B89
330
747D
100
AcDbEntity
  8
細線
 48
50.0
100
AcDbLine
 10
5934.50286090681
 20
5503.57727689386
 30
0.0
 11
5934.50286090681
 21
5409.577276893861
 31
0.0
  0
LINE
  5
14B8A
330
747D
100
AcDbEntity
  8
部品1
 48
50.0
100
AcDbLine
 10
5934.50286090681
 20
3612.577276893865
 30
0.0
 11
5934.50286090681
 21
3569.577276893862
 31
0.0
  0
LINE
  5
14B8B
330
747D
100
AcDbEntity
  8
細線
 48
50.0
100
AcDbLine
 10
5924.502860906811
 20
5503.577276893862
 30
0.0
 11
5924.502860906811
 21
5644.577276893862
 31
0.0
  0
LINE
  5
14BC6
330
747D
100
AcDbEntity
  8
部品1
100
AcDbLine
 10
7617.50286090681
 20
5409.577276893861
 30
0.0
 11
7617.50286090681
 21
3612.577276893881
 31
0.0
  0
LINE
  5
14BC7
330
747D
100
AcDbEntity
  8
部品1
100
AcDbLine
 10
7619.50286090681
 20
5407.077276893857
 30
0.0
 11
7619.50286090681
 21
3616.077276893875
 31
0.0
  0
LINE
  5
14BC8
330
747D
100
AcDbEntity
  8
部品1
100
AcDbLine
 10
8349.50286090681
 20
5407.07727689386
 30
0.0
 11
8349.50286090681
 21
3616.077276893882
 31
0.0
  0
LINE
  5
14BC9
330
747D
100
AcDbEntity
  8
部品1
100
AcDbLine
 10
8351.50286090681
 20
5409.577276893861
 30
0.0
 11
8351.50286090681
 21
3612.577276893881
 31
0.0
  0
LINE
  5
14BCA
330
747D
100
AcDbEntity
  8
部品1
100
AcDbLine
 10
7619.50286090681
 20
3616.077276893875
 30
0.0
 11
8329.440413078129
 21
3616.07727689388
 31
0.0
  0
LINE
  5
14BCB
330
747D
100
AcDbEntity
  8
細線
 48
0.1
100
AcDbLine
 10
8349.440413078129
 20
3615.82727689388
 30
0.0
 11
8349.440413078129
 21
3622.827276893879
 31
0.0
  0
LINE
  5
14BCC
330
747D
100
AcDbEntity
  8
細線
 48
50.0
100
AcDbLine
 10
8337.577655883826
 20
3618.32727689388
 30
0.0
 11
8337.577655883826
 21
3620.32727689388
 31
0.0
  0
LINE
  5
14BCD
330
747D
100
AcDbEntity
  8
細線
 48
50.0
100
AcDbLine
 10
8345.428065929789
 20
3618.32727689388
 30
0.0
 11
8345.428065929789
 21
3620.32727689388
 31
0.0
  0
LINE
  5
14BCE
330
747D
100
AcDbEntity
  8
部品1
 48
50.0
100
AcDbLine
 10
8329.440413078129
 20
3622.827276893879
 30
0.0
 11
8329.440413078129
 21
3616.07727689388
 31
0.0
  0
LINE
  5
14BCF
330
747D
100
AcDbEntity
  8
部品1
100
AcDbLine
 10
8349.440413078129
 20
3616.07727689388
 30
0.0
 11
8349.50286090681
 21
3616.07727689388
 31
0.0
  0
ARC
  5
14BD0
330
747D
100
AcDbEntity
  8
細線
 48
0.2
100
AcDbCircle
 10
8346.440413078129
 20
3615.856767062631
 30
0.0
 40
1.0
100
AcDbArc
 50
286.6015495990217
 51
0.0
  0
LINE
  5
14BD1
330
747D
100
AcDbEntity
  8
細線
 48
0.2
100
AcDbLine
 10
8349.440413078129
 20
3615.82727689388
 30
0.0
 11
8329.440413078129
 21
3615.82727689388
 31
0.0
  0
LINE
  5
14BD2
330
747D
100
AcDbEntity
  8
細線
 48
0.2
100
AcDbLine
 10
8349.440413078129
 20
3618.327276893879
 30
0.0
 11
8329.440413078129
 21
3618.32727689388
 31
0.0
  0
ARC
  5
14BD3
330
747D
100
AcDbEntity
  8
細線
 48
0.2
100
AcDbCircle
 10
8336.440413078129
 20
3615.856767062631
 30
0.0
 40
1.0
100
AcDbArc
 50
179.9999999999984
 51
253.3984504009775
  0
ARC
  5
14BD4
330
747D
100
AcDbEntity
  8
細線
 48
0.2
100
AcDbCircle
 10
8341.44041307813
 20
3632.627276893876
 30
0.0
 40
18.49999999999796
100
AcDbArc
 50
253.3984504009772
 51
286.6015495990217
  0
LINE
  5
14BD5
330
747D
100
AcDbEntity
  8
細線
 48
0.2
100
AcDbLine
 10
8347.124404374637
 20
3615.127276893878
 30
0.0
 11
8335.756421781626
 21
3615.127276893878
 31
0.0
  0
LINE
  5
14BD6
330
747D
100
AcDbEntity
  8
細線
 48
50.0
100
AcDbLine
 10
8329.440413078129
 20
3616.07727689388
 30
0.0
 11
8329.440413078129
 21
3615.82727689388
 31
0.0
  0
LINE
  5
14BD7
330
747D
100
AcDbEntity
  8
部品1
100
AcDbLine
 10
8349.440413078129
 20
3616.07727689388
 30
0.0
 11
8349.50286090681
 21
3616.077276893881
 31
0.0
  0
LINE
  5
14BD8
330
747D
100
AcDbEntity
  8
部品1
100
AcDbLine
 10
8349.440413078129
 20
3616.077276893883
 30
0.0
 11
8349.50286090681
 21
3616.077276893882
 31
0.0
  0
LINE
  5
14BD9
330
747D
100
AcDbEntity
  8
細線
 48
0.2
100
AcDbLine
 10
8349.440413078129
 20
3620.32727689388
 30
0.0
 11
8329.440413078129
 21
3620.32727689388
 31
0.0
  0
LINE
  5
14BDA
330
747D
100
AcDbEntity
  8
部品1
 48
0.2
100
AcDbLine
 10
8349.440413078129
 20
3622.827276893879
 30
0.0
 11
8329.440413078129
 21
3622.827276893879
 31
0.0
  0
LINE
  5
14C02
330
747D
100
AcDbEntity
  8
部品1
100
AcDbLine
 10
7619.50286090681
 20
5407.077276893857
 30
0.0
 11
8329.440413078129
 21
5407.07727689386
 31
0.0
  0
LINE
  5
14C0D
330
747D
100
AcDbEntity
  8
部品1
100
AcDbLine
 10
8349.440413078129
 20
5407.077276893859
 30
0.0
 11
8349.50286090681
 21
5407.07727689386
 31
0.0
  0
LINE
  5
14C0E
330
747D
100
AcDbEntity
  8
部品1
 48
0.2
100
AcDbLine
 10
8349.440413078129
 20
5400.327276893862
 30
0.0
 11
8329.440413078129
 21
5400.327276893862
 31
0.0
  0
LINE
  5
14C0F
330
747D
100
AcDbEntity
  8
部品1
100
AcDbLine
 10
8349.440413078129
 20
5407.077276893862
 30
0.0
 11
8349.50286090681
 21
5407.07727689386
 31
0.0
  0
LINE
  5
14C10
330
747D
100
AcDbEntity
  8
部品1
 48
50.0
100
AcDbLine
 10
8329.440413078129
 20
5400.327276893862
 30
0.0
 11
8329.440413078129
 21
5407.077276893862
 31
0.0
  0
LINE
  5
14C11
330
747D
100
AcDbEntity
  8
細線
 48
50.0
100
AcDbLine
 10
8329.440413078129
 20
5407.077276893862
 30
0.0
 11
8329.440413078129
 21
5407.327276893862
 31
0.0
  0
LINE
  5
14C12
330
747D
100
AcDbEntity
  8
細線
 48
0.2
100
AcDbLine
 10
8347.124404374637
 20
5408.027276893863
 30
0.0
 11
8335.756421781626
 21
5408.027276893863
 31
0.0
  0
ARC
  5
14C13
330
747D
100
AcDbEntity
  8
細線
 48
0.2
100
AcDbCircle
 10
8341.44041307813
 20
5390.527276893865
 30
0.0
 40
18.49999999999796
100
AcDbArc
 50
73.39845040097829
 51
106.6015495990228
  0
ARC
  5
14C14
330
747D
100
AcDbEntity
  8
細線
 48
0.2
100
AcDbCircle
 10
8336.440413078129
 20
5407.29778672511
 30
0.0
 40
1.0
100
AcDbArc
 50
106.6015495990225
 51
180.0000000000016
  0
LINE
  5
14C15
330
747D
100
AcDbEntity
  8
細線
 48
0.2
100
AcDbLine
 10
8349.440413078129
 20
5404.827276893862
 30
0.0
 11
8329.440413078129
 21
5404.827276893862
 31
0.0
  0
LINE
  5
14C16
330
747D
100
AcDbEntity
  8
細線
 48
0.2
100
AcDbLine
 10
8349.440413078129
 20
5402.827276893862
 30
0.0
 11
8329.440413078129
 21
5402.827276893862
 31
0.0
  0
LINE
  5
14C17
330
747D
100
AcDbEntity
  8
細線
 48
0.2
100
AcDbLine
 10
8349.440413078129
 20
5407.327276893862
 30
0.0
 11
8329.440413078129
 21
5407.327276893862
 31
0.0
  0
LINE
  5
14C18
330
747D
100
AcDbEntity
  8
細線
 48
50.0
100
AcDbLine
 10
8345.428065929789
 20
5404.827276893862
 30
0.0
 11
8345.428065929789
 21
5402.827276893862
 31
0.0
  0
LINE
  5
14C19
330
747D
100
AcDbEntity
  8
細線
 48
50.0
100
AcDbLine
 10
8337.577655883826
 20
5404.827276893862
 30
0.0
 11
8337.577655883826
 21
5402.827276893862
 31
0.0
  0
LINE
  5
14C1A
330
747D
100
AcDbEntity
  8
細線
 48
0.1
100
AcDbLine
 10
8349.440413078129
 20
5407.327276893862
 30
0.0
 11
8349.440413078129
 21
5400.327276893862
 31
0.0
  0
ARC
  5
14C1B
330
747D
100
AcDbEntity
  8
細線
 48
0.2
100
AcDbCircle
 10
8346.440413078129
 20
5407.29778672511
 30
0.0
 40
1.0
100
AcDbArc
 50
0.0
 51
73.39845040097829
  0
DIMENSION
  5
14C24
330
747D
100
AcDbEntity
  8
寸法
 48
50.0
100
AcDbDimension
  2
*D26
 10
7629.50286090682
 20
9522.174134733532
 30
0.0
 11
7984.502860906819
 21
9622.174134733533
 31
0.0
 70
    32
 71
     5
 42
709.9999999999981
  3
INABA_S40G
100
AcDbAlignedDimension
 13
8339.502860906817
 23
9306.365915108548
 33
0.0
 14
7629.50286090682
 24
9306.365915108532
 34
0.0
100
AcDbRotatedDimension
  0
LINE
  5
14C25
330
747D
100
AcDbEntity
  8
部品1
 48
50.0
100
AcDbLine
 10
7574.502860906797
 20
8411.365915108472
 30
0.0
 11
7574.502860906797
 21
9251.365915108481
 31
0.0
  0
LINE
  5
14C26
330
747D
100
AcDbEntity
  8
部品1
 48
50.0
100
AcDbLine
 10
7630.002854562509
 20
8487.865915133141
 30
0.0
 11
7630.002857535372
 21
8826.865915108482
 31
0.0
  0
LINE
  5
14C27
330
747D
100
AcDbEntity
  8
部品1
 48
50.0
100
AcDbLine
 10
7519.002860906795
 20
8487.865915108482
 30
0.0
 11
7519.002860906771
 21
8826.865915108538
 31
0.0
  0
LINE
  5
14C28
330
747D
100
AcDbEntity
  8
部品1
 48
50.0
100
AcDbLine
 10
7546.502860906797
 20
8411.365915108472
 30
0.0
 11
7546.502860906743
 21
9278.365915108482
 31
0.0
  0
LINE
  5
14C29
330
747D
100
AcDbEntity
  8
部品1
 48
50.0
100
AcDbLine
 10
7602.502860906797
 20
8411.365915108472
 30
0.0
 11
7602.502860906742
 21
9306.365915108482
 31
0.0
  0
LINE
  5
14C2A
330
747D
100
AcDbEntity
  8
破線
 48
10.0
100
AcDbLine
 10
7495.502860906803
 20
8511.365915108479
 30
0.0
 11
7495.502852552251
 21
8826.865915108536
 31
0.0
  0
LINE
  5
14C2B
330
747D
100
AcDbEntity
  8
破線
 48
10.0
100
AcDbLine
 10
7653.502860906804
 20
8511.365915108489
 30
0.0
 11
7653.502848475693
 21
8826.865915108482
 31
0.0
  0
DIMENSION
  5
14C2C
330
747D
100
AcDbEntity
  8
寸法
100
AcDbDimension
  2
*D25
 10
8306.309364612785
 20
8607.8188048655
 30
0.0
 11
7983.349923025018
 21
8607.8188048655
 31
0.0
 70
   160
 71
     5
 42
761.0000000000118
  3
INABA_S40G
100
AcDbAlignedDimension
 13
7604.002860906749
 23
8826.865915108482
 33
0.0
 14
8365.002860906761
 24
8826.865915108479
 34
0.0
100
AcDbRotatedDimension
1001
ACAD
1000
DSTYLE
1002
{
1002
}
  0
LINE
  5
14C2E
330
747D
100
AcDbEntity
  8
部品1
 48
5.0
100
AcDbLine
 10
8351.502860906792
 20
8385.865915108473
 30
0.0
 11
7598.502860906812
 21
8385.865915108473
 31
0.0
  0
LINE
  5
14C2F
330
747D
100
AcDbEntity
  8
部品1
100
AcDbLine
 10
8349.50286090681
 20
8382.365915108525
 30
0.0
 11
7619.50286090681
 21
8382.365915108463
 31
0.0
  0
LINE
  5
14C30
330
747D
100
AcDbEntity
  8
破線
 48
10.0
100
AcDbLine
 10
8314.502860906797
 20
8511.365915108525
 30
0.0
 11
7653.502860906804
 21
8511.365915108489
 31
0.0
  0
LINE
  5
14C31
330
747D
100
AcDbEntity
  8
部品1
100
AcDbLine
 10
8338.001889482002
 20
8487.866020821368
 30
0.0
 11
7630.002860906794
 21
8487.865915133143
 31
0.0
  0
LINE
  5
14C32
330
747D
100
AcDbEntity
  8
部品1
 48
5.0
100
AcDbLine
 10
7546.502860906797
 20
8411.365915108472
 30
0.0
 11
7602.502860906797
 21
8411.365915108472
 31
0.0
  0
LINE
  5
14C33
330
747D
100
AcDbEntity
  8
部品1
 48
50.0
100
AcDbLine
 10
7546.502860906797
 20
8459.865915108471
 30
0.0
 11
7519.002860906795
 21
8487.865915108482
 31
0.0
  0
LINE
  5
14C34
330
747D
100
AcDbEntity
  8
部品1
 48
0.2
100
AcDbLine
 10
7516.565308735488
 20
8349.363545063692
 30
0.0
 11
7521.565308735488
 21
8349.363545063692
 31
0.0
  0
ARC
  5
14C35
330
747D
100
AcDbEntity
  8
細線
 48
0.2
100
AcDbCircle
 10
7521.565308735488
 20
8357.363545063693
 30
0.0
 40
4.049999999999999
100
AcDbArc
 50
194.2603506853988
 51
345.7396493146012
  0
ARC
  5
14C36
330
747D
100
AcDbEntity
  8
部品1
 48
0.2
100
AcDbCircle
 10
7516.565308735488
 20
8357.363545063693
 30
0.0
 40
8.0
100
AcDbArc
 50
187.1636477221926
 51
269.9999999999992
  0
ARC
  5
14C37
330
747D
100
AcDbEntity
  8
部品1
 48
0.2
100
AcDbCircle
 10
7521.565308735488
 20
8357.363545063693
 30
0.0
 40
8.0
100
AcDbArc
 50
270.0
 51
352.8363522778074
  0
LINE
  5
14C38
330
747D
100
AcDbEntity
  8
部品1
 48
5.0
100
AcDbLine
 10
7542.502860906812
 20
8411.365915108472
 30
0.0
 11
7519.50286090681
 21
8411.365915108472
 31
0.0
  0
LINE
  5
14C39
330
747D
100
AcDbEntity
  8
部品1
 48
5.0
100
AcDbLine
 10
7519.502860906811
 20
8411.365915108474
 30
0.0
 11
7519.502860906813
 21
8385.865915108473
 31
0.0
  0
LINE
  5
14C3A
330
747D
100
AcDbEntity
  8
部品1
 48
5.0
100
AcDbLine
 10
7550.502860906812
 20
8411.365915108472
 30
0.0
 11
7550.502860906812
 21
8385.865915108473
 31
0.0
  0
LINE
  5
14C3B
330
747D
100
AcDbEntity
  8
部品1
 48
5.0
100
AcDbLine
 10
7531.502860906812
 20
8385.865915108473
 30
0.0
 11
7531.502860906812
 21
8356.365915108472
 31
0.0
  0
LINE
  5
14C3C
330
747D
100
AcDbEntity
  8
部品1
100
AcDbLine
 10
7531.502860906809
 20
8385.865915108418
 30
0.0
 11
7531.502860906808
 21
8356.365915108467
 31
0.0
  0
LINE
  5
14C3D
330
747D
100
AcDbEntity
  8
部品1
100
AcDbLine
 10
7529.502860906809
 20
8382.365915108525
 30
0.0
 11
7529.502860906809
 21
8356.365915108469
 31
0.0
  0
LINE
  5
14C3E
330
747D
100
AcDbEntity
  8
細線
 48
50.0
100
AcDbLine
 10
7743.502860906811
 20
8382.365915108437
 30
0.0
 11
7743.502860906811
 21
8356.365915108391
 31
0.0
  0
LINE
  5
14C3F
330
747D
100
AcDbEntity
  8
部品1
 48
50.0
100
AcDbLine
 10
7630.002860906794
 20
8487.865915133143
 30
0.0
 11
7602.502860906797
 21
8459.865915108471
 31
0.0
  0
LINE
  5
14C40
330
747D
100
AcDbEntity
  8
部品1
 48
5.0
100
AcDbLine
 10
7606.502860906812
 20
8411.365915108472
 30
0.0
 11
7629.502860906812
 21
8411.365915108472
 31
0.0
  0
LINE
  5
14C41
330
747D
100
AcDbEntity
  8
部品1
 48
5.0
100
AcDbLine
 10
7598.502860906814
 20
8411.365915108472
 30
0.0
 11
7598.502860906812
 21
8385.865915108473
 31
0.0
  0
LINE
  5
14C42
330
747D
100
AcDbEntity
  8
部品1
 48
5.0
100
AcDbLine
 10
7629.502860906812
 20
8411.365915108472
 30
0.0
 11
7629.502860906812
 21
8385.865915108473
 31
0.0
  0
LINE
  5
14C43
330
747D
100
AcDbEntity
  8
部品1
 48
5.0
100
AcDbLine
 10
7617.502860906812
 20
8385.865915108473
 30
0.0
 11
7617.502860906812
 21
8356.365915108472
 31
0.0
  0
LINE
  5
14C44
330
747D
100
AcDbEntity
  8
部品1
100
AcDbLine
 10
7619.50286090681
 20
8382.365915108463
 30
0.0
 11
7619.502860906809
 21
8356.365915108474
 31
0.0
  0
LINE
  5
14C45
330
747D
100
AcDbEntity
  8
部品1
100
AcDbLine
 10
7617.502860906812
 20
8385.865915108425
 30
0.0
 11
7617.502860906812
 21
8356.365915108472
 31
0.0
  0
LINE
  5
14C46
330
747D
100
AcDbEntity
  8
細線
 48
50.0
100
AcDbLine
 10
7929.502860906811
 20
8382.365915108428
 30
0.0
 11
7929.502860906811
 21
8356.365915108391
 31
0.0
  0
LINE
  5
14C47
330
747D
100
AcDbEntity
  8
細線
 48
50.0
100
AcDbLine
 10
7969.502860906811
 20
8382.365915108428
 30
0.0
 11
7969.502860906811
 21
8356.365915108391
 31
0.0
  0
LINE
  5
14C48
330
747D
100
AcDbEntity
  8
細線
 48
50.0
100
AcDbLine
 10
8196.502860906809
 20
8382.365915108641
 30
0.0
 11
8196.502860906809
 21
8356.365915108602
 31
0.0
  0
LINE
  5
14C49
330
747D
100
AcDbEntity
  8
細線
 48
50.0
100
AcDbLine
 10
8156.50286090681
 20
8382.365915108641
 30
0.0
 11
8156.50286090681
 21
8356.365915108602
 31
0.0
  0
LINE
  5
14C4A
330
747D
100
AcDbEntity
  8
部品1
100
AcDbLine
 10
7602.502860906742
 20
9278.365915108484
 30
0.0
 11
8366.502860906818
 21
9278.365915108528
 31
0.0
  0
LINE
  5
14C4B
330
747D
100
AcDbEntity
  8
部品1
100
AcDbLine
 10
7604.002860906749
 20
8826.865915108482
 30
0.0
 11
8365.00286090675
 21
8826.865915108475
 31
0.0
  0
LINE
  5
14C4C
330
747D
100
AcDbEntity
  8
細線
 48
50.0
100
AcDbLine
 10
8365.00286090675
 20
9276.865915108476
 30
0.0
 11
7604.002860906749
 21
8826.865915108482
 31
0.0
  0
LINE
  5
14C4D
330
747D
100
AcDbEntity
  8
細線
 48
50.0
100
AcDbLine
 10
8365.00286090675
 20
8826.865915108475
 30
0.0
 11
7604.002860906749
 21
9276.865915108478
 31
0.0
  0
LINE
  5
14C4E
330
747D
100
AcDbEntity
  8
部品1
100
AcDbLine
 10
7604.002860906749
 20
9276.865915108484
 30
0.0
 11
8365.00286090675
 21
9276.865915108476
 31
0.0
  0
LINE
  5
14C4F
330
747D
100
AcDbEntity
  8
部品1
 48
50.0
100
AcDbLine
 10
7604.002860906749
 20
9276.865915108478
 30
0.0
 11
7604.002860906749
 21
8826.865915108482
 31
0.0
  0
LINE
  5
14C50
330
747D
100
AcDbEntity
  8
部品1
 48
50.0
100
AcDbLine
 10
7545.002867584447
 20
9276.865915108542
 30
0.0
 11
7545.002867584447
 21
8826.865915108543
 31
0.0
  0
LINE
  5
14C51
330
747D
100
AcDbEntity
  8
部品1
 48
50.0
100
AcDbLine
 10
7574.502860906787
 20
8869.365915108481
 30
0.0
 11
7602.502860906771
 21
8869.365915108483
 31
0.0
  0
LINE
  5
14C52
330
747D
100
AcDbEntity
  8
部品1
 48
50.0
100
AcDbLine
 10
7574.502860906787
 20
8831.365915108483
 30
0.0
 11
7602.502860906771
 21
8831.365915108483
 31
0.0
  0
LINE
  5
14C53
330
747D
100
AcDbEntity
  8
部品1
 48
5.0
100
AcDbLine
 10
7574.502860906797
 20
8831.365915108476
 30
0.0
 11
7546.502860906745
 21
8831.365915108483
 31
0.0
  0
LINE
  5
14C54
330
747D
100
AcDbEntity
  8
部品1
 48
5.0
100
AcDbLine
 10
7602.502860906745
 20
9251.365915108481
 30
0.0
 11
7546.502860906745
 21
9251.365915108481
 31
0.0
  0
LINE
  5
14C55
330
747D
100
AcDbEntity
  8
部品1
 48
5.0
100
AcDbLine
 10
7549.21213535399
 20
9306.365915108477
 30
0.0
 11
7571.883563925419
 21
9278.365915108482
 31
0.0
  0
LINE
  5
14C56
330
747D
100
AcDbEntity
  8
部品1
 48
5.0
100
AcDbLine
 10
7519.502860906815
 20
9278.365915108478
 30
0.0
 11
7519.502860906816
 21
9306.365915108477
 31
0.0
  0
LINE
  5
14C57
330
747D
100
AcDbEntity
  8
部品1
 48
50.0
100
AcDbLine
 10
7545.002867584448
 20
9276.811402448727
 30
0.0
 11
7546.502860906743
 21
9278.365915108478
 31
0.0
  0
LINE
  5
14C58
330
747D
100
AcDbEntity
  8
部品1
 48
5.0
100
AcDbLine
 10
7629.50286090682
 20
9306.365915108484
 30
0.0
 11
7629.502860906814
 21
9278.365915108485
 31
0.0
  0
LINE
  5
14C59
330
747D
100
AcDbEntity
  8
部品1
 48
50.0
100
AcDbLine
 10
7604.002860906749
 20
9276.81139358822
 30
0.0
 11
7602.502860906743
 21
9278.365915108482
 31
0.0
  0
LINE
  5
14C5A
330
747D
100
AcDbEntity
  8
細線
 48
50.0
100
AcDbLine
 10
7954.502860906818
 20
9284.865915108543
 30
0.0
 11
7954.502860906815
 21
9306.365915108541
 31
0.0
  0
LINE
  5
14C5B
330
747D
100
AcDbEntity
  8
細線
 48
50.0
100
AcDbLine
 10
8014.502860906819
 20
9284.865915108545
 30
0.0
 11
8014.502860906816
 21
9306.365915108548
 31
0.0
  0
LINE
  5
14C5C
330
747D
100
AcDbEntity
  8
細線
 48
50.0
100
AcDbLine
 10
8014.502860906819
 20
9284.865915108545
 30
0.0
 11
7954.502860906818
 21
9284.865915108541
 31
0.0
  0
LINE
  5
14C5D
330
747D
100
AcDbEntity
  8
想像線
 48
10.0
100
AcDbLine
 10
8349.50286090681
 20
8356.365915108483
 30
0.0
 11
8349.50286090681
 21
7635.448271452691
 31
0.0
  0
ARC
  5
14C5E
330
747D
100
AcDbEntity
  8
想像線
 48
10.0
100
AcDbCircle
 10
8342.15081022965
 20
8358.06080848406
 30
0.0
 40
722.6499369155619
100
AcDbArc
 50
180.1343808685487
 51
270.5829222700353
  0
DIMENSION
  5
14C99
330
747D
100
AcDbEntity
  8
寸法
 48
50.0
100
AcDbDimension
  2
*D27
 10
7629.50286090682
 20
9522.174134733532
 30
0.0
 11
7574.502860906817
 21
9622.174134733533
 31
0.0
 70
    32
 71
     5
 42
110.0000000000036
  3
INABA_S40G
100
AcDbAlignedDimension
 13
7519.502860906816
 23
9306.365915108555
 33
0.0
 14
7629.50286090682
 24
9306.365915108532
 34
0.0
100
AcDbRotatedDimension
  0
LINE
  5
14CE3
330
747D
100
AcDbEntity
  8
細線
100
AcDbLine
 10
3571.710400085555
 20
4470.577276893862
 30
0.0
 11
3571.710400085555
 21
4552.577276893862
 31
0.0
  0
LINE
  5
14CE4
330
747D
100
AcDbEntity
  8
細線
100
AcDbLine
 10
3553.502860906809
 20
4561.577276893863
 30
0.0
 11
3553.502860906809
 21
4461.577276893862
 31
0.0
  0
ARC
  5
14CE5
330
747D
100
AcDbEntity
  8
細線
100
AcDbCircle
 10
3829.50286090681
 20
4511.577276893862
 30
0.0
 40
298.5
100
AcDbArc
 50
169.578549027269
 51
190.4214509727309
  0
ARC
  5
14CE6
330
747D
100
AcDbEntity
  8
細線
100
AcDbCircle
 10
3829.50286090681
 20
4511.577276893862
 30
0.0
 40
294.0
100
AcDbArc
 50
171.212062677364
 51
188.7879373226359
  0
ARC
  5
14CE7
330
747D
100
AcDbEntity
  8
細線
100
AcDbCircle
 10
3266.900078998885
 20
4511.577276893862
 30
0.0
 40
294.0
100
AcDbArc
 50
351.900449161722
 51
8.099550838278029
  0
LINE
  5
14CE8
330
747D
100
AcDbEntity
  8
細線
100
AcDbLine
 10
3581.502860906809
 20
4467.577276893861
 30
0.0
 11
3581.502860906809
 21
4555.577276893862
 31
0.0
  0
LINE
  5
14CE9
330
747D
100
AcDbEntity
  8
細線
100
AcDbLine
 10
3586.002860906809
 20
4458.577276893862
 30
0.0
 11
3586.002860906809
 21
4564.577276893862
 31
0.0
  0
ARC
  5
14CEA
330
747D
100
AcDbEntity
  8
部品1
100
AcDbCircle
 10
3829.50286090681
 20
4511.577276893862
 30
0.0
 40
300.0
100
AcDbArc
 50
169.4161974034894
 51
190.5838025965105
  0
LINE
  5
14CEB
330
747D
100
AcDbEntity
  8
部品1
100
AcDbLine
 10
3587.50286090681
 20
4457.577276893863
 30
0.0
 11
3587.50286090681
 21
4565.577276893862
 31
0.0
  0
ARC
  5
14CEC
330
747D
100
AcDbEntity
  8
細線
100
AcDbCircle
 10
3575.50286090681
 20
4467.577276893861
 30
0.0
 40
6.0
100
AcDbArc
 50
270.0
 51
0.0
  0
LINE
  5
14CED
330
747D
100
AcDbEntity
  8
細線
100
AcDbLine
 10
3541.336242437564
 20
4453.077276893862
 30
0.0
 11
3580.50286090681
 21
4453.077276893862
 31
0.0
  0
LINE
  5
14CEE
330
747D
100
AcDbEntity
  8
細線
100
AcDbLine
 10
3553.502860906809
 20
4467.577276893861
 30
0.0
 11
3554.997284816645
 21
4467.577276893861
 31
0.0
  0
ARC
  5
14CEF
330
747D
100
AcDbEntity
  8
細線
100
AcDbCircle
 10
3554.997284816645
 20
4470.577276893862
 30
0.0
 40
3.0
100
AcDbArc
 50
270.0
 51
351.9004491617184
  0
LINE
  5
14CF0
330
747D
100
AcDbEntity
  8
細線
100
AcDbLine
 10
3553.502860906809
 20
4464.577276893861
 30
0.0
 11
3565.710400085555
 21
4464.577276893861
 31
0.0
  0
ARC
  5
14CF1
330
747D
100
AcDbEntity
  8
細線
100
AcDbCircle
 10
3544.883817271287
 20
4467.577276893861
 30
0.0
 40
6.0
100
AcDbArc
 50
188.7879373226349
 51
270.0
  0
ARC
  5
14CF2
330
747D
100
AcDbEntity
  8
細線
100
AcDbCircle
 10
3541.336242437564
 20
4458.577276893862
 30
0.0
 40
5.5
100
AcDbArc
 50
190.4214509727298
 51
269.9999999999997
  0
LINE
  5
14CF3
330
747D
100
AcDbEntity
  8
細線
100
AcDbLine
 10
3553.502860906809
 20
4467.577784792424
 30
0.0
 11
3540.024156407987
 21
4467.577784792424
 31
0.0
  0
ARC
  5
14CF4
330
747D
100
AcDbEntity
  8
細線
100
AcDbCircle
 10
3565.710400085555
 20
4470.577276893862
 30
0.0
 40
6.0
100
AcDbArc
 50
270.0
 51
360.0
  0
LINE
  5
14CF5
330
747D
100
AcDbEntity
  8
細線
100
AcDbLine
 10
3544.883817271287
 20
4461.577276893862
 30
0.0
 11
3575.50286090681
 21
4461.577276893862
 31
0.0
  0
ARC
  5
14CF6
330
747D
100
AcDbEntity
  8
細線
100
AcDbCircle
 10
3580.50286090681
 20
4458.577276893862
 30
0.0
 40
5.5
100
AcDbArc
 50
270.0
 51
0.0
  0
ARC
  5
14CF7
330
747D
100
AcDbEntity
  8
部品1
100
AcDbCircle
 10
3540.504591015795
 20
4457.577276893863
 30
0.0
 40
6.0
100
AcDbArc
 50
190.5838025965097
 51
270.0
  0
ARC
  5
14CF8
330
747D
100
AcDbEntity
  8
部品1
100
AcDbCircle
 10
3581.502860906809
 20
4457.577276893863
 30
0.0
 40
6.0
100
AcDbArc
 50
270.0
 51
0.0
  0
LINE
  5
14CF9
330
747D
100
AcDbEntity
  8
部品1
100
AcDbLine
 10
3540.504591015795
 20
4451.577276893862
 30
0.0
 11
3581.502860906809
 21
4451.577276893862
 31
0.0
  0
ARC
  5
14CFA
330
747D
100
AcDbEntity
  8
細線
100
AcDbCircle
 10
3575.50286090681
 20
4555.577276893862
 30
0.0
 40
6.0
100
AcDbArc
 50
0.0
 51
90.0
  0
LINE
  5
14CFB
330
747D
100
AcDbEntity
  8
細線
100
AcDbLine
 10
3580.50286090681
 20
4570.077276893862
 30
0.0
 11
3541.336242437564
 21
4570.077276893862
 31
0.0
  0
LINE
  5
14CFC
330
747D
100
AcDbEntity
  8
細線
100
AcDbLine
 10
3554.997284816643
 20
4555.577276893862
 30
0.0
 11
3553.502860906809
 21
4555.577276893862
 31
0.0
  0
ARC
  5
14CFD
330
747D
100
AcDbEntity
  8
細線
100
AcDbCircle
 10
3554.997284816643
 20
4552.577276893862
 30
0.0
 40
3.0
100
AcDbArc
 50
8.099550838277986
 51
90.0
  0
LINE
  5
14CFE
330
747D
100
AcDbEntity
  8
細線
100
AcDbLine
 10
3565.710400085555
 20
4558.577276893863
 30
0.0
 11
3553.502860906809
 21
4558.577276893863
 31
0.0
  0
ARC
  5
14CFF
330
747D
100
AcDbEntity
  8
細線
100
AcDbCircle
 10
3544.883817271287
 20
4555.577276893862
 30
0.0
 40
6.0
100
AcDbArc
 50
90.0
 51
171.2120626773636
  0
LINE
  5
14D00
330
747D
100
AcDbEntity
  8
細線
100
AcDbLine
 10
3553.502860906809
 20
4555.576768995299
 30
0.0
 11
3540.739533690842
 21
4555.576768995299
 31
0.0
  0
ARC
  5
14D01
330
747D
100
AcDbEntity
  8
細線
100
AcDbCircle
 10
3541.336242437564
 20
4564.577276893862
 30
0.0
 40
5.5
100
AcDbArc
 50
89.99999999999969
 51
169.5785490272683
  0
ARC
  5
14D02
330
747D
100
AcDbEntity
  8
細線
100
AcDbCircle
 10
3565.710400085555
 20
4552.577276893862
 30
0.0
 40
6.0
100
AcDbArc
 50
0.0
 51
90.0
  0
LINE
  5
14D03
330
747D
100
AcDbEntity
  8
細線
100
AcDbLine
 10
3575.50286090681
 20
4561.577276893863
 30
0.0
 11
3544.883817271287
 21
4561.577276893863
 31
0.0
  0
ARC
  5
14D04
330
747D
100
AcDbEntity
  8
細線
100
AcDbCircle
 10
3580.50286090681
 20
4564.577276893862
 30
0.0
 40
5.5
100
AcDbArc
 50
0.0
 51
90.0
  0
LINE
  5
14D05
330
747D
100
AcDbEntity
  8
部品1
100
AcDbLine
 10
3581.502860906809
 20
4571.577276893862
 30
0.0
 11
3540.504591015795
 21
4571.577276893862
 31
0.0
  0
ARC
  5
14D06
330
747D
100
AcDbEntity
  8
部品1
100
AcDbCircle
 10
3540.504591015795
 20
4565.577276893862
 30
0.0
 40
6.0
100
AcDbArc
 50
90.0
 51
169.4161974034886
  0
ARC
  5
14D07
330
747D
100
AcDbEntity
  8
部品1
100
AcDbCircle
 10
3581.502860906809
 20
4565.577276893862
 30
0.0
 40
6.0
100
AcDbArc
 50
0.0
 51
90.0
  0
CIRCLE
  5
14D08
330
747D
100
AcDbEntity
  8
細線
 48
20.0
100
AcDbCircle
 10
3561.003725961302
 20
4612.077276893862
 30
0.0
 40
20.0
  0
CIRCLE
  5
14D09
330
747D
100
AcDbEntity
  8
細線
 48
20.0
100
AcDbCircle
 10
3561.003725961302
 20
4612.077276893862
 30
0.0
 40
10.0
  0
LINE
  5
14D0A
330
747D
100
AcDbEntity
  8
細線
100
AcDbLine
 10
5211.710400085555
 20
4470.577276893862
 30
0.0
 11
5211.710400085555
 21
4552.577276893862
 31
0.0
  0
LINE
  5
14D0B
330
747D
100
AcDbEntity
  8
細線
100
AcDbLine
 10
5193.50286090681
 20
4561.577276893863
 30
0.0
 11
5193.50286090681
 21
4461.577276893862
 31
0.0
  0
ARC
  5
14D0C
330
747D
100
AcDbEntity
  8
細線
100
AcDbCircle
 10
5469.50286090681
 20
4511.577276893862
 30
0.0
 40
298.5
100
AcDbArc
 50
169.578549027269
 51
190.4214509727309
  0
ARC
  5
14D0D
330
747D
100
AcDbEntity
  8
細線
100
AcDbCircle
 10
5469.50286090681
 20
4511.577276893862
 30
0.0
 40
294.0
100
AcDbArc
 50
171.212062677364
 51
188.7879373226359
  0
ARC
  5
14D0E
330
747D
100
AcDbEntity
  8
細線
100
AcDbCircle
 10
4906.900078998885
 20
4511.577276893862
 30
0.0
 40
294.0
100
AcDbArc
 50
351.900449161722
 51
8.099550838278029
  0
LINE
  5
14D0F
330
747D
100
AcDbEntity
  8
細線
100
AcDbLine
 10
5221.502860906809
 20
4467.577276893861
 30
0.0
 11
5221.502860906809
 21
4555.577276893862
 31
0.0
  0
LINE
  5
14D10
330
747D
100
AcDbEntity
  8
細線
100
AcDbLine
 10
5226.00286090681
 20
4458.577276893862
 30
0.0
 11
5226.00286090681
 21
4564.577276893862
 31
0.0
  0
ARC
  5
14D11
330
747D
100
AcDbEntity
  8
部品1
100
AcDbCircle
 10
5469.50286090681
 20
4511.577276893862
 30
0.0
 40
300.0
100
AcDbArc
 50
169.4161974034894
 51
190.5838025965105
  0
LINE
  5
14D12
330
747D
100
AcDbEntity
  8
部品1
100
AcDbLine
 10
5227.50286090681
 20
4457.577276893863
 30
0.0
 11
5227.50286090681
 21
4565.577276893862
 31
0.0
  0
ARC
  5
14D13
330
747D
100
AcDbEntity
  8
細線
100
AcDbCircle
 10
5215.502860906809
 20
4467.577276893861
 30
0.0
 40
6.0
100
AcDbArc
 50
270.0
 51
0.0
  0
LINE
  5
14D14
330
747D
100
AcDbEntity
  8
細線
100
AcDbLine
 10
5181.336242437564
 20
4453.077276893862
 30
0.0
 11
5220.502860906809
 21
4453.077276893862
 31
0.0
  0
LINE
  5
14D15
330
747D
100
AcDbEntity
  8
細線
100
AcDbLine
 10
5193.50286090681
 20
4467.577276893861
 30
0.0
 11
5194.997284816644
 21
4467.577276893861
 31
0.0
  0
ARC
  5
14D16
330
747D
100
AcDbEntity
  8
細線
100
AcDbCircle
 10
5194.997284816644
 20
4470.577276893862
 30
0.0
 40
3.0
100
AcDbArc
 50
270.0
 51
351.9004491617184
  0
LINE
  5
14D17
330
747D
100
AcDbEntity
  8
細線
100
AcDbLine
 10
5193.50286090681
 20
4464.577276893861
 30
0.0
 11
5205.710400085555
 21
4464.577276893861
 31
0.0
  0
ARC
  5
14D18
330
747D
100
AcDbEntity
  8
細線
100
AcDbCircle
 10
5184.883817271287
 20
4467.577276893861
 30
0.0
 40
6.0
100
AcDbArc
 50
188.7879373226349
 51
270.0
  0
ARC
  5
14D19
330
747D
100
AcDbEntity
  8
細線
100
AcDbCircle
 10
5181.336242437564
 20
4458.577276893862
 30
0.0
 40
5.5
100
AcDbArc
 50
190.4214509727298
 51
269.9999999999997
  0
LINE
  5
14D1A
330
747D
100
AcDbEntity
  8
細線
100
AcDbLine
 10
5193.50286090681
 20
4467.577784792424
 30
0.0
 11
5180.024156407987
 21
4467.577784792424
 31
0.0
  0
ARC
  5
14D1B
330
747D
100
AcDbEntity
  8
細線
100
AcDbCircle
 10
5205.710400085555
 20
4470.577276893862
 30
0.0
 40
6.0
100
AcDbArc
 50
270.0
 51
360.0
  0
LINE
  5
14D1C
330
747D
100
AcDbEntity
  8
細線
100
AcDbLine
 10
5184.883817271287
 20
4461.577276893862
 30
0.0
 11
5215.502860906809
 21
4461.577276893862
 31
0.0
  0
ARC
  5
14D1D
330
747D
100
AcDbEntity
  8
細線
100
AcDbCircle
 10
5220.502860906809
 20
4458.577276893862
 30
0.0
 40
5.5
100
AcDbArc
 50
270.0
 51
0.0
  0
ARC
  5
14D1E
330
747D
100
AcDbEntity
  8
部品1
100
AcDbCircle
 10
5180.504591015794
 20
4457.577276893863
 30
0.0
 40
6.0
100
AcDbArc
 50
190.5838025965097
 51
270.0
  0
ARC
  5
14D1F
330
747D
100
AcDbEntity
  8
部品1
100
AcDbCircle
 10
5221.502860906809
 20
4457.577276893863
 30
0.0
 40
6.0
100
AcDbArc
 50
270.0
 51
0.0
  0
LINE
  5
14D20
330
747D
100
AcDbEntity
  8
部品1
100
AcDbLine
 10
5180.504591015794
 20
4451.577276893862
 30
0.0
 11
5221.502860906809
 21
4451.577276893862
 31
0.0
  0
CIRCLE
  5
14D21
330
747D
100
AcDbEntity
  8
細線
 48
20.0
100
AcDbCircle
 10
5201.003725961302
 20
4612.077276893862
 30
0.0
 40
20.0
  0
CIRCLE
  5
14D22
330
747D
100
AcDbEntity
  8
細線
 48
20.0
100
AcDbCircle
 10
5201.003725961302
 20
4612.077276893862
 30
0.0
 40
10.0
  0
ARC
  5
14D23
330
747D
100
AcDbEntity
  8
細線
100
AcDbCircle
 10
5215.502860906809
 20
4555.577276893862
 30
0.0
 40
6.0
100
AcDbArc
 50
0.0
 51
90.0
  0
LINE
  5
14D24
330
747D
100
AcDbEntity
  8
細線
100
AcDbLine
 10
5220.502860906809
 20
4570.077276893862
 30
0.0
 11
5181.336242437564
 21
4570.077276893862
 31
0.0
  0
LINE
  5
14D25
330
747D
100
AcDbEntity
  8
細線
100
AcDbLine
 10
5194.997284816643
 20
4555.577276893862
 30
0.0
 11
5193.50286090681
 21
4555.577276893862
 31
0.0
  0
ARC
  5
14D26
330
747D
100
AcDbEntity
  8
細線
100
AcDbCircle
 10
5194.997284816643
 20
4552.577276893862
 30
0.0
 40
3.0
100
AcDbArc
 50
8.099550838277986
 51
90.0
  0
LINE
  5
14D27
330
747D
100
AcDbEntity
  8
細線
100
AcDbLine
 10
5205.710400085555
 20
4558.577276893863
 30
0.0
 11
5193.50286090681
 21
4558.577276893863
 31
0.0
  0
ARC
  5
14D28
330
747D
100
AcDbEntity
  8
細線
100
AcDbCircle
 10
5184.883817271287
 20
4555.577276893862
 30
0.0
 40
6.0
100
AcDbArc
 50
90.0
 51
171.2120626773636
  0
LINE
  5
14D29
330
747D
100
AcDbEntity
  8
細線
100
AcDbLine
 10
5193.50286090681
 20
4555.576768995299
 30
0.0
 11
5180.739533690842
 21
4555.576768995299
 31
0.0
  0
ARC
  5
14D2A
330
747D
100
AcDbEntity
  8
細線
100
AcDbCircle
 10
5181.336242437564
 20
4564.577276893862
 30
0.0
 40
5.5
100
AcDbArc
 50
89.99999999999969
 51
169.5785490272683
  0
ARC
  5
14D2B
330
747D
100
AcDbEntity
  8
細線
100
AcDbCircle
 10
5205.710400085555
 20
4552.577276893862
 30
0.0
 40
6.0
100
AcDbArc
 50
0.0
 51
90.0
  0
LINE
  5
14D2C
330
747D
100
AcDbEntity
  8
細線
100
AcDbLine
 10
5215.502860906809
 20
4561.577276893863
 30
0.0
 11
5184.883817271287
 21
4561.577276893863
 31
0.0
  0
ARC
  5
14D2D
330
747D
100
AcDbEntity
  8
細線
100
AcDbCircle
 10
5220.502860906809
 20
4564.577276893862
 30
0.0
 40
5.5
100
AcDbArc
 50
0.0
 51
90.0
  0
LINE
  5
14D2E
330
747D
100
AcDbEntity
  8
部品1
100
AcDbLine
 10
5221.502860906809
 20
4571.577276893862
 30
0.0
 11
5180.504591015794
 21
4571.577276893862
 31
0.0
  0
ARC
  5
14D2F
330
747D
100
AcDbEntity
  8
部品1
100
AcDbCircle
 10
5180.504591015794
 20
4565.577276893862
 30
0.0
 40
6.0
100
AcDbArc
 50
90.0
 51
169.4161974034886
  0
ARC
  5
14D30
330
747D
100
AcDbEntity
  8
部品1
100
AcDbCircle
 10
5221.502860906809
 20
4565.577276893862
 30
0.0
 40
6.0
100
AcDbArc
 50
0.0
 51
90.0
  0
LINE
  5
14D31
330
747D
100
AcDbEntity
  8
部品1
100
AcDbLine
 10
6047.50286090681
 20
4457.577276893863
 30
0.0
 11
6047.50286090681
 21
4565.577276893862
 31
0.0
  0
ARC
  5
14D32
330
747D
100
AcDbEntity
  8
部品1
100
AcDbCircle
 10
6289.50286090681
 20
4511.577276893862
 30
0.0
 40
300.0
100
AcDbArc
 50
169.4161974034894
 51
190.5838025965105
  0
LINE
  5
14D33
330
747D
100
AcDbEntity
  8
細線
100
AcDbLine
 10
6046.00286090681
 20
4458.577276893862
 30
0.0
 11
6046.00286090681
 21
4564.577276893862
 31
0.0
  0
LINE
  5
14D34
330
747D
100
AcDbEntity
  8
細線
100
AcDbLine
 10
6041.50286090681
 20
4467.577276893861
 30
0.0
 11
6041.50286090681
 21
4555.577276893862
 31
0.0
  0
ARC
  5
14D35
330
747D
100
AcDbEntity
  8
細線
100
AcDbCircle
 10
5726.900078998885
 20
4511.577276893862
 30
0.0
 40
294.0
100
AcDbArc
 50
351.900449161722
 51
8.099550838278029
  0
ARC
  5
14D36
330
747D
100
AcDbEntity
  8
細線
100
AcDbCircle
 10
6289.50286090681
 20
4511.577276893862
 30
0.0
 40
294.0
100
AcDbArc
 50
171.212062677364
 51
188.7879373226359
  0
ARC
  5
14D37
330
747D
100
AcDbEntity
  8
細線
100
AcDbCircle
 10
6289.50286090681
 20
4511.577276893862
 30
0.0
 40
298.5
100
AcDbArc
 50
169.578549027269
 51
190.4214509727309
  0
LINE
  5
14D38
330
747D
100
AcDbEntity
  8
細線
100
AcDbLine
 10
6013.502860906809
 20
4561.577276893863
 30
0.0
 11
6013.502860906809
 21
4461.577276893862
 31
0.0
  0
LINE
  5
14D39
330
747D
100
AcDbEntity
  8
細線
100
AcDbLine
 10
6031.710400085555
 20
4470.577276893862
 30
0.0
 11
6031.710400085555
 21
4552.577276893862
 31
0.0
  0
LINE
  5
14D3A
330
747D
100
AcDbEntity
  8
部品1
100
AcDbLine
 10
6000.504591015794
 20
4451.577276893862
 30
0.0
 11
6041.50286090681
 21
4451.577276893862
 31
0.0
  0
ARC
  5
14D3B
330
747D
100
AcDbEntity
  8
部品1
100
AcDbCircle
 10
6041.50286090681
 20
4457.577276893863
 30
0.0
 40
6.0
100
AcDbArc
 50
270.0
 51
0.0
  0
ARC
  5
14D3C
330
747D
100
AcDbEntity
  8
部品1
100
AcDbCircle
 10
6000.504591015794
 20
4457.577276893863
 30
0.0
 40
6.0
100
AcDbArc
 50
190.5838025965097
 51
270.0
  0
ARC
  5
14D3D
330
747D
100
AcDbEntity
  8
細線
100
AcDbCircle
 10
6040.502860906809
 20
4458.577276893862
 30
0.0
 40
5.5
100
AcDbArc
 50
270.0
 51
0.0
  0
LINE
  5
14D3E
330
747D
100
AcDbEntity
  8
細線
100
AcDbLine
 10
6004.883817271287
 20
4461.577276893862
 30
0.0
 11
6035.502860906809
 21
4461.577276893862
 31
0.0
  0
ARC
  5
14D3F
330
747D
100
AcDbEntity
  8
細線
100
AcDbCircle
 10
6025.710400085555
 20
4470.577276893862
 30
0.0
 40
6.0
100
AcDbArc
 50
270.0
 51
360.0
  0
LINE
  5
14D40
330
747D
100
AcDbEntity
  8
細線
100
AcDbLine
 10
6013.502860906809
 20
4467.577784792424
 30
0.0
 11
6000.024156407987
 21
4467.577784792424
 31
0.0
  0
ARC
  5
14D41
330
747D
100
AcDbEntity
  8
細線
100
AcDbCircle
 10
6001.336242437563
 20
4458.577276893862
 30
0.0
 40
5.5
100
AcDbArc
 50
190.4214509727298
 51
269.9999999999997
  0
ARC
  5
14D42
330
747D
100
AcDbEntity
  8
細線
100
AcDbCircle
 10
6004.883817271287
 20
4467.577276893861
 30
0.0
 40
6.0
100
AcDbArc
 50
188.7879373226349
 51
270.0
  0
LINE
  5
14D43
330
747D
100
AcDbEntity
  8
細線
100
AcDbLine
 10
6013.502860906809
 20
4464.577276893861
 30
0.0
 11
6025.710400085555
 21
4464.577276893861
 31
0.0
  0
ARC
  5
14D44
330
747D
100
AcDbEntity
  8
細線
100
AcDbCircle
 10
6014.997284816644
 20
4470.577276893862
 30
0.0
 40
3.0
100
AcDbArc
 50
270.0
 51
351.9004491617184
  0
LINE
  5
14D45
330
747D
100
AcDbEntity
  8
細線
100
AcDbLine
 10
6013.502860906809
 20
4467.577276893861
 30
0.0
 11
6014.997284816644
 21
4467.577276893861
 31
0.0
  0
LINE
  5
14D46
330
747D
100
AcDbEntity
  8
細線
100
AcDbLine
 10
6001.336242437563
 20
4453.077276893862
 30
0.0
 11
6040.502860906809
 21
4453.077276893862
 31
0.0
  0
ARC
  5
14D47
330
747D
100
AcDbEntity
  8
細線
100
AcDbCircle
 10
6035.502860906809
 20
4467.577276893861
 30
0.0
 40
6.0
100
AcDbArc
 50
270.0
 51
0.0
  0
ARC
  5
14D48
330
747D
100
AcDbEntity
  8
部品1
100
AcDbCircle
 10
6041.50286090681
 20
4565.577276893862
 30
0.0
 40
6.0
100
AcDbArc
 50
0.0
 51
90.0
  0
ARC
  5
14D49
330
747D
100
AcDbEntity
  8
部品1
100
AcDbCircle
 10
6000.504591015794
 20
4565.577276893862
 30
0.0
 40
6.0
100
AcDbArc
 50
90.0
 51
169.4161974034886
  0
LINE
  5
14D4A
330
747D
100
AcDbEntity
  8
部品1
100
AcDbLine
 10
6041.50286090681
 20
4571.577276893862
 30
0.0
 11
6000.504591015794
 21
4571.577276893862
 31
0.0
  0
ARC
  5
14D4B
330
747D
100
AcDbEntity
  8
細線
100
AcDbCircle
 10
6040.502860906809
 20
4564.577276893862
 30
0.0
 40
5.5
100
AcDbArc
 50
0.0
 51
90.0
  0
LINE
  5
14D4C
330
747D
100
AcDbEntity
  8
細線
100
AcDbLine
 10
6035.502860906809
 20
4561.577276893863
 30
0.0
 11
6004.883817271287
 21
4561.577276893863
 31
0.0
  0
ARC
  5
14D4D
330
747D
100
AcDbEntity
  8
細線
100
AcDbCircle
 10
6025.710400085555
 20
4552.577276893862
 30
0.0
 40
6.0
100
AcDbArc
 50
0.0
 51
90.0
  0
ARC
  5
14D4E
330
747D
100
AcDbEntity
  8
細線
100
AcDbCircle
 10
6001.336242437563
 20
4564.577276893862
 30
0.0
 40
5.5
100
AcDbArc
 50
89.99999999999969
 51
169.5785490272683
  0
LINE
  5
14D4F
330
747D
100
AcDbEntity
  8
細線
100
AcDbLine
 10
6013.502860906809
 20
4555.576768995299
 30
0.0
 11
6000.739533690842
 21
4555.576768995299
 31
0.0
  0
ARC
  5
14D50
330
747D
100
AcDbEntity
  8
細線
100
AcDbCircle
 10
6004.883817271287
 20
4555.577276893862
 30
0.0
 40
6.0
100
AcDbArc
 50
90.0
 51
171.2120626773636
  0
LINE
  5
14D51
330
747D
100
AcDbEntity
  8
細線
100
AcDbLine
 10
6025.710400085555
 20
4558.577276893863
 30
0.0
 11
6013.502860906809
 21
4558.577276893863
 31
0.0
  0
ARC
  5
14D52
330
747D
100
AcDbEntity
  8
細線
100
AcDbCircle
 10
6014.997284816643
 20
4552.577276893862
 30
0.0
 40
3.0
100
AcDbArc
 50
8.099550838277986
 51
90.0
  0
LINE
  5
14D53
330
747D
100
AcDbEntity
  8
細線
100
AcDbLine
 10
6014.997284816643
 20
4555.577276893862
 30
0.0
 11
6013.502860906809
 21
4555.577276893862
 31
0.0
  0
LINE
  5
14D54
330
747D
100
AcDbEntity
  8
細線
100
AcDbLine
 10
6040.502860906809
 20
4570.077276893862
 30
0.0
 11
6001.336242437563
 21
4570.077276893862
 31
0.0
  0
ARC
  5
14D55
330
747D
100
AcDbEntity
  8
細線
100
AcDbCircle
 10
6035.502860906809
 20
4555.577276893862
 30
0.0
 40
6.0
100
AcDbArc
 50
0.0
 51
90.0
  0
CIRCLE
  5
14D56
330
747D
100
AcDbEntity
  8
細線
 48
20.0
100
AcDbCircle
 10
6021.003725961302
 20
4612.077276893862
 30
0.0
 40
10.0
  0
CIRCLE
  5
14D57
330
747D
100
AcDbEntity
  8
細線
 48
20.0
100
AcDbCircle
 10
6021.003725961302
 20
4612.077276893862
 30
0.0
 40
20.0
  0
LINE
  5
14D58
330
747D
100
AcDbEntity
  8
細線
100
AcDbLine
 10
6851.710400085555
 20
4470.577276893862
 30
0.0
 11
6851.710400085555
 21
4552.577276893862
 31
0.0
  0
LINE
  5
14D59
330
747D
100
AcDbEntity
  8
細線
100
AcDbLine
 10
6833.502860906809
 20
4561.577276893863
 30
0.0
 11
6833.502860906809
 21
4461.577276893862
 31
0.0
  0
ARC
  5
14D5A
330
747D
100
AcDbEntity
  8
細線
100
AcDbCircle
 10
7109.502860906809
 20
4511.577276893862
 30
0.0
 40
298.5
100
AcDbArc
 50
169.578549027269
 51
190.4214509727309
  0
ARC
  5
14D5B
330
747D
100
AcDbEntity
  8
細線
100
AcDbCircle
 10
7109.502860906809
 20
4511.577276893862
 30
0.0
 40
294.0
100
AcDbArc
 50
171.212062677364
 51
188.7879373226359
  0
ARC
  5
14D5C
330
747D
100
AcDbEntity
  8
細線
100
AcDbCircle
 10
6546.900078998885
 20
4511.577276893862
 30
0.0
 40
294.0
100
AcDbArc
 50
351.900449161722
 51
8.099550838278029
  0
LINE
  5
14D5D
330
747D
100
AcDbEntity
  8
細線
100
AcDbLine
 10
6861.502860906809
 20
4467.577276893861
 30
0.0
 11
6861.502860906809
 21
4555.577276893862
 31
0.0
  0
LINE
  5
14D5E
330
747D
100
AcDbEntity
  8
細線
100
AcDbLine
 10
6866.002860906809
 20
4458.577276893862
 30
0.0
 11
6866.002860906809
 21
4564.577276893862
 31
0.0
  0
ARC
  5
14D5F
330
747D
100
AcDbEntity
  8
部品1
100
AcDbCircle
 10
7109.502860906809
 20
4511.577276893862
 30
0.0
 40
300.0
100
AcDbArc
 50
169.4161974034894
 51
190.5838025965105
  0
LINE
  5
14D60
330
747D
100
AcDbEntity
  8
部品1
100
AcDbLine
 10
6867.502860906809
 20
4457.577276893863
 30
0.0
 11
6867.502860906809
 21
4565.577276893862
 31
0.0
  0
ARC
  5
14D61
330
747D
100
AcDbEntity
  8
細線
100
AcDbCircle
 10
6855.50286090681
 20
4467.577276893861
 30
0.0
 40
6.0
100
AcDbArc
 50
270.0
 51
0.0
  0
LINE
  5
14D62
330
747D
100
AcDbEntity
  8
細線
100
AcDbLine
 10
6821.336242437563
 20
4453.077276893862
 30
0.0
 11
6860.50286090681
 21
4453.077276893862
 31
0.0
  0
LINE
  5
14D63
330
747D
100
AcDbEntity
  8
細線
100
AcDbLine
 10
6833.502860906809
 20
4467.577276893861
 30
0.0
 11
6834.997284816644
 21
4467.577276893861
 31
0.0
  0
ARC
  5
14D64
330
747D
100
AcDbEntity
  8
細線
100
AcDbCircle
 10
6834.997284816644
 20
4470.577276893862
 30
0.0
 40
3.0
100
AcDbArc
 50
270.0
 51
351.9004491617184
  0
LINE
  5
14D65
330
747D
100
AcDbEntity
  8
細線
100
AcDbLine
 10
6833.502860906809
 20
4464.577276893861
 30
0.0
 11
6845.710400085555
 21
4464.577276893861
 31
0.0
  0
ARC
  5
14D66
330
747D
100
AcDbEntity
  8
細線
100
AcDbCircle
 10
6824.883817271286
 20
4467.577276893861
 30
0.0
 40
6.0
100
AcDbArc
 50
188.7879373226349
 51
270.0
  0
ARC
  5
14D67
330
747D
100
AcDbEntity
  8
細線
100
AcDbCircle
 10
6821.336242437563
 20
4458.577276893862
 30
0.0
 40
5.5
100
AcDbArc
 50
190.4214509727298
 51
269.9999999999997
  0
LINE
  5
14D68
330
747D
100
AcDbEntity
  8
細線
100
AcDbLine
 10
6833.502860906809
 20
4467.577784792424
 30
0.0
 11
6820.024156407987
 21
4467.577784792424
 31
0.0
  0
ARC
  5
14D69
330
747D
100
AcDbEntity
  8
細線
100
AcDbCircle
 10
6845.710400085555
 20
4470.577276893862
 30
0.0
 40
6.0
100
AcDbArc
 50
270.0
 51
360.0
  0
LINE
  5
14D6A
330
747D
100
AcDbEntity
  8
細線
100
AcDbLine
 10
6824.883817271286
 20
4461.577276893862
 30
0.0
 11
6855.50286090681
 21
4461.577276893862
 31
0.0
  0
ARC
  5
14D6B
330
747D
100
AcDbEntity
  8
細線
100
AcDbCircle
 10
6860.50286090681
 20
4458.577276893862
 30
0.0
 40
5.5
100
AcDbArc
 50
270.0
 51
0.0
  0
ARC
  5
14D6C
330
747D
100
AcDbEntity
  8
部品1
100
AcDbCircle
 10
6820.504591015795
 20
4457.577276893863
 30
0.0
 40
6.0
100
AcDbArc
 50
190.5838025965097
 51
270.0
  0
ARC
  5
14D6D
330
747D
100
AcDbEntity
  8
部品1
100
AcDbCircle
 10
6861.502860906809
 20
4457.577276893863
 30
0.0
 40
6.0
100
AcDbArc
 50
270.0
 51
0.0
  0
LINE
  5
14D6E
330
747D
100
AcDbEntity
  8
部品1
100
AcDbLine
 10
6820.504591015795
 20
4451.577276893862
 30
0.0
 11
6861.502860906809
 21
4451.577276893862
 31
0.0
  0
CIRCLE
  5
14D6F
330
747D
100
AcDbEntity
  8
細線
 48
20.0
100
AcDbCircle
 10
6841.003725961302
 20
4612.077276893862
 30
0.0
 40
20.0
  0
CIRCLE
  5
14D70
330
747D
100
AcDbEntity
  8
細線
 48
20.0
100
AcDbCircle
 10
6841.003725961302
 20
4612.077276893862
 30
0.0
 40
10.0
  0
ARC
  5
14D71
330
747D
100
AcDbEntity
  8
細線
100
AcDbCircle
 10
6855.50286090681
 20
4555.577276893862
 30
0.0
 40
6.0
100
AcDbArc
 50
0.0
 51
90.0
  0
LINE
  5
14D72
330
747D
100
AcDbEntity
  8
細線
100
AcDbLine
 10
6860.50286090681
 20
4570.077276893862
 30
0.0
 11
6821.336242437563
 21
4570.077276893862
 31
0.0
  0
LINE
  5
14D73
330
747D
100
AcDbEntity
  8
細線
100
AcDbLine
 10
6834.997284816643
 20
4555.577276893862
 30
0.0
 11
6833.502860906809
 21
4555.577276893862
 31
0.0
  0
ARC
  5
14D74
330
747D
100
AcDbEntity
  8
細線
100
AcDbCircle
 10
6834.997284816643
 20
4552.577276893862
 30
0.0
 40
3.0
100
AcDbArc
 50
8.099550838277986
 51
90.0
  0
LINE
  5
14D75
330
747D
100
AcDbEntity
  8
細線
100
AcDbLine
 10
6845.710400085555
 20
4558.577276893863
 30
0.0
 11
6833.502860906809
 21
4558.577276893863
 31
0.0
  0
ARC
  5
14D76
330
747D
100
AcDbEntity
  8
細線
100
AcDbCircle
 10
6824.883817271286
 20
4555.577276893862
 30
0.0
 40
6.0
100
AcDbArc
 50
90.0
 51
171.2120626773636
  0
LINE
  5
14D77
330
747D
100
AcDbEntity
  8
細線
100
AcDbLine
 10
6833.502860906809
 20
4555.576768995299
 30
0.0
 11
6820.739533690842
 21
4555.576768995299
 31
0.0
  0
ARC
  5
14D78
330
747D
100
AcDbEntity
  8
細線
100
AcDbCircle
 10
6821.336242437563
 20
4564.577276893862
 30
0.0
 40
5.5
100
AcDbArc
 50
89.99999999999969
 51
169.5785490272683
  0
ARC
  5
14D79
330
747D
100
AcDbEntity
  8
細線
100
AcDbCircle
 10
6845.710400085555
 20
4552.577276893862
 30
0.0
 40
6.0
100
AcDbArc
 50
0.0
 51
90.0
  0
LINE
  5
14D7A
330
747D
100
AcDbEntity
  8
細線
100
AcDbLine
 10
6855.50286090681
 20
4561.577276893863
 30
0.0
 11
6824.883817271286
 21
4561.577276893863
 31
0.0
  0
ARC
  5
14D7B
330
747D
100
AcDbEntity
  8
細線
100
AcDbCircle
 10
6860.50286090681
 20
4564.577276893862
 30
0.0
 40
5.5
100
AcDbArc
 50
0.0
 51
90.0
  0
LINE
  5
14D7C
330
747D
100
AcDbEntity
  8
部品1
100
AcDbLine
 10
6861.502860906809
 20
4571.577276893862
 30
0.0
 11
6820.504591015795
 21
4571.577276893862
 31
0.0
  0
ARC
  5
14D7D
330
747D
100
AcDbEntity
  8
部品1
100
AcDbCircle
 10
6820.504591015795
 20
4565.577276893862
 30
0.0
 40
6.0
100
AcDbArc
 50
90.0
 51
169.4161974034886
  0
ARC
  5
14D7E
330
747D
100
AcDbEntity
  8
部品1
100
AcDbCircle
 10
6861.502860906809
 20
4565.577276893862
 30
0.0
 40
6.0
100
AcDbArc
 50
0.0
 51
90.0
  0
LINE
  5
14D7F
330
747D
100
AcDbEntity
  8
部品1
100
AcDbLine
 10
7687.50286090681
 20
4457.577276893863
 30
0.0
 11
7687.50286090681
 21
4565.577276893862
 31
0.0
  0
ARC
  5
14D80
330
747D
100
AcDbEntity
  8
部品1
100
AcDbCircle
 10
7929.50286090681
 20
4511.577276893862
 30
0.0
 40
300.0
100
AcDbArc
 50
169.4161974034894
 51
190.5838025965105
  0
LINE
  5
14D81
330
747D
100
AcDbEntity
  8
細線
100
AcDbLine
 10
7686.00286090681
 20
4458.577276893862
 30
0.0
 11
7686.00286090681
 21
4564.577276893862
 31
0.0
  0
LINE
  5
14D82
330
747D
100
AcDbEntity
  8
細線
100
AcDbLine
 10
7681.502860906809
 20
4467.577276893861
 30
0.0
 11
7681.502860906809
 21
4555.577276893862
 31
0.0
  0
ARC
  5
14D83
330
747D
100
AcDbEntity
  8
細線
100
AcDbCircle
 10
7366.900078998885
 20
4511.577276893862
 30
0.0
 40
294.0
100
AcDbArc
 50
351.900449161722
 51
8.099550838278029
  0
ARC
  5
14D84
330
747D
100
AcDbEntity
  8
細線
100
AcDbCircle
 10
7929.50286090681
 20
4511.577276893862
 30
0.0
 40
294.0
100
AcDbArc
 50
171.212062677364
 51
188.7879373226359
  0
ARC
  5
14D85
330
747D
100
AcDbEntity
  8
細線
100
AcDbCircle
 10
7929.50286090681
 20
4511.577276893862
 30
0.0
 40
298.5
100
AcDbArc
 50
169.578549027269
 51
190.4214509727309
  0
LINE
  5
14D86
330
747D
100
AcDbEntity
  8
細線
100
AcDbLine
 10
7653.502860906809
 20
4561.577276893863
 30
0.0
 11
7653.502860906809
 21
4461.577276893862
 31
0.0
  0
LINE
  5
14D87
330
747D
100
AcDbEntity
  8
細線
100
AcDbLine
 10
7671.710400085555
 20
4470.577276893862
 30
0.0
 11
7671.710400085555
 21
4552.577276893862
 31
0.0
  0
LINE
  5
14D88
330
747D
100
AcDbEntity
  8
部品1
100
AcDbLine
 10
7640.504591015794
 20
4451.577276893862
 30
0.0
 11
7681.502860906809
 21
4451.577276893862
 31
0.0
  0
ARC
  5
14D89
330
747D
100
AcDbEntity
  8
部品1
100
AcDbCircle
 10
7681.502860906809
 20
4457.577276893863
 30
0.0
 40
6.0
100
AcDbArc
 50
270.0
 51
0.0
  0
ARC
  5
14D8A
330
747D
100
AcDbEntity
  8
部品1
100
AcDbCircle
 10
7640.504591015794
 20
4457.577276893863
 30
0.0
 40
6.0
100
AcDbArc
 50
190.5838025965097
 51
270.0
  0
ARC
  5
14D8B
330
747D
100
AcDbEntity
  8
細線
100
AcDbCircle
 10
7680.50286090681
 20
4458.577276893862
 30
0.0
 40
5.5
100
AcDbArc
 50
270.0
 51
0.0
  0
LINE
  5
14D8C
330
747D
100
AcDbEntity
  8
細線
100
AcDbLine
 10
7644.883817271287
 20
4461.577276893862
 30
0.0
 11
7675.502860906809
 21
4461.577276893862
 31
0.0
  0
ARC
  5
14D8D
330
747D
100
AcDbEntity
  8
細線
100
AcDbCircle
 10
7665.710400085555
 20
4470.577276893862
 30
0.0
 40
6.0
100
AcDbArc
 50
270.0
 51
360.0
  0
LINE
  5
14D8E
330
747D
100
AcDbEntity
  8
細線
100
AcDbLine
 10
7653.502860906809
 20
4467.577784792424
 30
0.0
 11
7640.024156407988
 21
4467.577784792424
 31
0.0
  0
ARC
  5
14D8F
330
747D
100
AcDbEntity
  8
細線
100
AcDbCircle
 10
7641.336242437564
 20
4458.577276893862
 30
0.0
 40
5.5
100
AcDbArc
 50
190.4214509727298
 51
269.9999999999997
  0
ARC
  5
14D90
330
747D
100
AcDbEntity
  8
細線
100
AcDbCircle
 10
7644.883817271287
 20
4467.577276893861
 30
0.0
 40
6.0
100
AcDbArc
 50
188.7879373226349
 51
270.0
  0
LINE
  5
14D91
330
747D
100
AcDbEntity
  8
細線
100
AcDbLine
 10
7653.502860906809
 20
4464.577276893861
 30
0.0
 11
7665.710400085555
 21
4464.577276893861
 31
0.0
  0
ARC
  5
14D92
330
747D
100
AcDbEntity
  8
細線
100
AcDbCircle
 10
7654.997284816644
 20
4470.577276893862
 30
0.0
 40
3.0
100
AcDbArc
 50
270.0
 51
351.9004491617184
  0
LINE
  5
14D93
330
747D
100
AcDbEntity
  8
細線
100
AcDbLine
 10
7653.502860906809
 20
4467.577276893861
 30
0.0
 11
7654.997284816644
 21
4467.577276893861
 31
0.0
  0
LINE
  5
14D94
330
747D
100
AcDbEntity
  8
細線
100
AcDbLine
 10
7641.336242437564
 20
4453.077276893862
 30
0.0
 11
7680.50286090681
 21
4453.077276893862
 31
0.0
  0
ARC
  5
14D95
330
747D
100
AcDbEntity
  8
細線
100
AcDbCircle
 10
7675.502860906809
 20
4467.577276893861
 30
0.0
 40
6.0
100
AcDbArc
 50
270.0
 51
0.0
  0
ARC
  5
14D96
330
747D
100
AcDbEntity
  8
部品1
100
AcDbCircle
 10
7681.502860906809
 20
4565.577276893862
 30
0.0
 40
6.0
100
AcDbArc
 50
0.0
 51
90.0
  0
ARC
  5
14D97
330
747D
100
AcDbEntity
  8
部品1
100
AcDbCircle
 10
7640.504591015794
 20
4565.577276893862
 30
0.0
 40
6.0
100
AcDbArc
 50
90.0
 51
169.4161974034886
  0
LINE
  5
14D98
330
747D
100
AcDbEntity
  8
部品1
100
AcDbLine
 10
7681.502860906809
 20
4571.577276893862
 30
0.0
 11
7640.504591015794
 21
4571.577276893862
 31
0.0
  0
ARC
  5
14D99
330
747D
100
AcDbEntity
  8
細線
100
AcDbCircle
 10
7680.50286090681
 20
4564.577276893862
 30
0.0
 40
5.5
100
AcDbArc
 50
0.0
 51
90.0
  0
LINE
  5
14D9A
330
747D
100
AcDbEntity
  8
細線
100
AcDbLine
 10
7675.502860906809
 20
4561.577276893863
 30
0.0
 11
7644.883817271287
 21
4561.577276893863
 31
0.0
  0
ARC
  5
14D9B
330
747D
100
AcDbEntity
  8
細線
100
AcDbCircle
 10
7665.710400085555
 20
4552.577276893862
 30
0.0
 40
6.0
100
AcDbArc
 50
0.0
 51
90.0
  0
ARC
  5
14D9C
330
747D
100
AcDbEntity
  8
細線
100
AcDbCircle
 10
7641.336242437564
 20
4564.577276893862
 30
0.0
 40
5.5
100
AcDbArc
 50
89.99999999999969
 51
169.5785490272683
  0
LINE
  5
14D9D
330
747D
100
AcDbEntity
  8
細線
100
AcDbLine
 10
7653.502860906809
 20
4555.576768995299
 30
0.0
 11
7640.739533690842
 21
4555.576768995299
 31
0.0
  0
ARC
  5
14D9E
330
747D
100
AcDbEntity
  8
細線
100
AcDbCircle
 10
7644.883817271287
 20
4555.577276893862
 30
0.0
 40
6.0
100
AcDbArc
 50
90.0
 51
171.2120626773636
  0
LINE
  5
14D9F
330
747D
100
AcDbEntity
  8
細線
100
AcDbLine
 10
7665.710400085555
 20
4558.577276893863
 30
0.0
 11
7653.502860906809
 21
4558.577276893863
 31
0.0
  0
ARC
  5
14DA0
330
747D
100
AcDbEntity
  8
細線
100
AcDbCircle
 10
7654.997284816643
 20
4552.577276893862
 30
0.0
 40
3.0
100
AcDbArc
 50
8.099550838277986
 51
90.0
  0
LINE
  5
14DA1
330
747D
100
AcDbEntity
  8
細線
100
AcDbLine
 10
7654.997284816643
 20
4555.577276893862
 30
0.0
 11
7653.502860906809
 21
4555.577276893862
 31
0.0
  0
LINE
  5
14DA2
330
747D
100
AcDbEntity
  8
細線
100
AcDbLine
 10
7680.50286090681
 20
4570.077276893862
 30
0.0
 11
7641.336242437564
 21
4570.077276893862
 31
0.0
  0
ARC
  5
14DA3
330
747D
100
AcDbEntity
  8
細線
100
AcDbCircle
 10
7675.502860906809
 20
4555.577276893862
 30
0.0
 40
6.0
100
AcDbArc
 50
0.0
 51
90.0
  0
CIRCLE
  5
14DA4
330
747D
100
AcDbEntity
  8
細線
 48
20.0
100
AcDbCircle
 10
7661.003725961302
 20
4612.077276893862
 30
0.0
 40
10.0
  0
CIRCLE
  5
14DA5
330
747D
100
AcDbEntity
  8
細線
 48
20.0
100
AcDbCircle
 10
7661.003725961302
 20
4612.077276893862
 30
0.0
 40
20.0
  0
LINE
  5
14DDB
330
747D
100
AcDbEntity
  8
部品1
100
AcDbLine
 10
4339.50286090681
 20
5407.077276893857
 30
0.0
 11
4339.502860906811
 21
3616.077276893875
 31
0.0
  0
LINE
  5
14DDC
330
747D
100
AcDbEntity
  8
部品1
100
AcDbLine
 10
4337.50286090681
 20
5409.577276893861
 30
0.0
 11
4337.50286090681
 21
3612.577276893881
 31
0.0
  0
LINE
  5
14DDD
330
747D
100
AcDbEntity
  8
部品1
100
AcDbLine
 10
4251.50286090681
 20
5409.577276893861
 30
0.0
 11
4251.50286090681
 21
3612.577276893881
 31
0.0
  0
LINE
  5
14DDE
330
747D
100
AcDbEntity
  8
部品1
100
AcDbLine
 10
4249.502860906808
 20
5407.07727689386
 30
0.0
 11
4249.502860906812
 21
3616.077276893881
 31
0.0
  0
LINE
  5
14DDF
330
747D
100
AcDbEntity
  8
部品1
100
AcDbLine
 10
3519.50286090681
 20
3616.077276893866
 30
0.0
 11
4229.440413078129
 21
3616.077276893872
 31
0.0
  0
LINE
  5
14DE0
330
747D
100
AcDbEntity
  8
細線
 48
0.1
100
AcDbLine
 10
4249.440413078128
 20
3615.82727689388
 30
0.0
 11
4249.440413078128
 21
3622.827276893879
 31
0.0
  0
LINE
  5
14DE1
330
747D
100
AcDbEntity
  8
細線
 48
50.0
100
AcDbLine
 10
4237.577655883825
 20
3618.32727689388
 30
0.0
 11
4237.577655883826
 21
3620.32727689388
 31
0.0
  0
LINE
  5
14DE2
330
747D
100
AcDbEntity
  8
細線
 48
50.0
100
AcDbLine
 10
4245.428065929789
 20
3618.32727689388
 30
0.0
 11
4245.428065929789
 21
3620.32727689388
 31
0.0
  0
LINE
  5
14DE3
330
747D
100
AcDbEntity
  8
部品1
 48
50.0
100
AcDbLine
 10
4229.440413078129
 20
3622.827276893879
 30
0.0
 11
4229.440413078129
 21
3616.07727689388
 31
0.0
  0
ARC
  5
14DE4
330
747D
100
AcDbEntity
  8
細線
 48
0.2
100
AcDbCircle
 10
4246.440413078128
 20
3615.856767062631
 30
0.0
 40
1.0
100
AcDbArc
 50
286.6015495990217
 51
0.0
  0
LINE
  5
14DE5
330
747D
100
AcDbEntity
  8
細線
 48
0.2
100
AcDbLine
 10
4249.440413078128
 20
3615.82727689388
 30
0.0
 11
4229.440413078129
 21
3615.82727689388
 31
0.0
  0
LINE
  5
14DE6
330
747D
100
AcDbEntity
  8
細線
 48
0.2
100
AcDbLine
 10
4249.440413078128
 20
3618.327276893879
 30
0.0
 11
4229.440413078129
 21
3618.32727689388
 31
0.0
  0
ARC
  5
14DE7
330
747D
100
AcDbEntity
  8
細線
 48
0.2
100
AcDbCircle
 10
4236.440413078129
 20
3615.856767062631
 30
0.0
 40
1.0
100
AcDbArc
 50
179.9999999999984
 51
253.3984504009775
  0
ARC
  5
14DE8
330
747D
100
AcDbEntity
  8
細線
 48
0.2
100
AcDbCircle
 10
4241.440413078128
 20
3632.627276893876
 30
0.0
 40
18.49999999999796
100
AcDbArc
 50
253.3984504009772
 51
286.6015495990217
  0
LINE
  5
14DE9
330
747D
100
AcDbEntity
  8
細線
 48
0.2
100
AcDbLine
 10
4247.124404374637
 20
3615.127276893878
 30
0.0
 11
4235.756421781625
 21
3615.127276893878
 31
0.0
  0
LINE
  5
14DEA
330
747D
100
AcDbEntity
  8
細線
 48
50.0
100
AcDbLine
 10
4229.440413078129
 20
3616.07727689388
 30
0.0
 11
4229.440413078129
 21
3615.82727689388
 31
0.0
  0
LINE
  5
14DEB
330
747D
100
AcDbEntity
  8
部品1
100
AcDbLine
 10
4249.440413078129
 20
3616.07727689388
 30
0.0
 11
4249.502860906811
 21
3616.077276893881
 31
0.0
  0
LINE
  5
14DEC
330
747D
100
AcDbEntity
  8
部品1
100
AcDbLine
 10
4249.440413078129
 20
3616.077276893872
 30
0.0
 11
4249.502860906811
 21
3616.077276893872
 31
0.0
  0
LINE
  5
14DED
330
747D
100
AcDbEntity
  8
細線
 48
0.2
100
AcDbLine
 10
4249.440413078128
 20
3620.32727689388
 30
0.0
 11
4229.440413078129
 21
3620.32727689388
 31
0.0
  0
LINE
  5
14DEE
330
747D
100
AcDbEntity
  8
部品1
 48
0.2
100
AcDbLine
 10
4249.440413078128
 20
3622.827276893879
 30
0.0
 11
4229.440413078129
 21
3622.827276893879
 31
0.0
  0
LINE
  5
14DEF
330
747D
100
AcDbEntity
  8
部品1
100
AcDbLine
 10
3519.50286090681
 20
5407.077276893864
 30
0.0
 11
4229.440413078129
 21
5407.077276893862
 31
0.0
  0
LINE
  5
14DFE
330
747D
100
AcDbEntity
  8
部品1
100
AcDbLine
 10
4407.502860906809
 20
4457.577276893863
 30
0.0
 11
4407.502860906809
 21
4565.577276893862
 31
0.0
  0
ARC
  5
14DFF
330
747D
100
AcDbEntity
  8
部品1
100
AcDbCircle
 10
4649.502860906809
 20
4511.577276893862
 30
0.0
 40
300.0
100
AcDbArc
 50
169.4161974034894
 51
190.5838025965105
  0
LINE
  5
14E00
330
747D
100
AcDbEntity
  8
細線
100
AcDbLine
 10
4406.002860906809
 20
4458.577276893862
 30
0.0
 11
4406.002860906809
 21
4564.577276893862
 31
0.0
  0
LINE
  5
14E01
330
747D
100
AcDbEntity
  8
細線
100
AcDbLine
 10
4401.502860906809
 20
4467.577276893861
 30
0.0
 11
4401.502860906809
 21
4555.577276893862
 31
0.0
  0
ARC
  5
14E02
330
747D
100
AcDbEntity
  8
細線
100
AcDbCircle
 10
4086.900078998885
 20
4511.577276893862
 30
0.0
 40
294.0
100
AcDbArc
 50
351.900449161722
 51
8.099550838278029
  0
ARC
  5
14E03
330
747D
100
AcDbEntity
  8
細線
100
AcDbCircle
 10
4649.502860906809
 20
4511.577276893862
 30
0.0
 40
294.0
100
AcDbArc
 50
171.212062677364
 51
188.7879373226359
  0
ARC
  5
14E04
330
747D
100
AcDbEntity
  8
細線
100
AcDbCircle
 10
4649.502860906809
 20
4511.577276893862
 30
0.0
 40
298.5
100
AcDbArc
 50
169.578549027269
 51
190.4214509727309
  0
LINE
  5
14E05
330
747D
100
AcDbEntity
  8
細線
100
AcDbLine
 10
4373.50286090681
 20
4561.577276893863
 30
0.0
 11
4373.50286090681
 21
4461.577276893862
 31
0.0
  0
LINE
  5
14E06
330
747D
100
AcDbEntity
  8
細線
100
AcDbLine
 10
4391.710400085555
 20
4470.577276893862
 30
0.0
 11
4391.710400085555
 21
4552.577276893862
 31
0.0
  0
LINE
  5
14E07
330
747D
100
AcDbEntity
  8
部品1
100
AcDbLine
 10
4360.504591015794
 20
4451.577276893862
 30
0.0
 11
4401.502860906809
 21
4451.577276893862
 31
0.0
  0
ARC
  5
14E08
330
747D
100
AcDbEntity
  8
部品1
100
AcDbCircle
 10
4401.502860906809
 20
4457.577276893863
 30
0.0
 40
6.0
100
AcDbArc
 50
270.0
 51
0.0
  0
ARC
  5
14E09
330
747D
100
AcDbEntity
  8
部品1
100
AcDbCircle
 10
4360.504591015794
 20
4457.577276893863
 30
0.0
 40
6.0
100
AcDbArc
 50
190.5838025965097
 51
270.0
  0
ARC
  5
14E0A
330
747D
100
AcDbEntity
  8
細線
100
AcDbCircle
 10
4400.50286090681
 20
4458.577276893862
 30
0.0
 40
5.5
100
AcDbArc
 50
270.0
 51
0.0
  0
LINE
  5
14E0B
330
747D
100
AcDbEntity
  8
細線
100
AcDbLine
 10
4364.883817271286
 20
4461.577276893862
 30
0.0
 11
4395.502860906809
 21
4461.577276893862
 31
0.0
  0
ARC
  5
14E0C
330
747D
100
AcDbEntity
  8
細線
100
AcDbCircle
 10
4385.710400085555
 20
4470.577276893862
 30
0.0
 40
6.0
100
AcDbArc
 50
270.0
 51
360.0
  0
LINE
  5
14E0D
330
747D
100
AcDbEntity
  8
細線
100
AcDbLine
 10
4373.50286090681
 20
4467.577784792424
 30
0.0
 11
4360.024156407987
 21
4467.577784792424
 31
0.0
  0
ARC
  5
14E0E
330
747D
100
AcDbEntity
  8
細線
100
AcDbCircle
 10
4361.336242437563
 20
4458.577276893862
 30
0.0
 40
5.5
100
AcDbArc
 50
190.4214509727298
 51
269.9999999999997
  0
ARC
  5
14E0F
330
747D
100
AcDbEntity
  8
細線
100
AcDbCircle
 10
4364.883817271286
 20
4467.577276893861
 30
0.0
 40
6.0
100
AcDbArc
 50
188.7879373226349
 51
270.0
  0
LINE
  5
14E10
330
747D
100
AcDbEntity
  8
細線
100
AcDbLine
 10
4373.50286090681
 20
4464.577276893861
 30
0.0
 11
4385.710400085555
 21
4464.577276893861
 31
0.0
  0
ARC
  5
14E11
330
747D
100
AcDbEntity
  8
細線
100
AcDbCircle
 10
4374.997284816644
 20
4470.577276893862
 30
0.0
 40
3.0
100
AcDbArc
 50
270.0
 51
351.9004491617184
  0
LINE
  5
14E12
330
747D
100
AcDbEntity
  8
細線
100
AcDbLine
 10
4373.50286090681
 20
4467.577276893861
 30
0.0
 11
4374.997284816644
 21
4467.577276893861
 31
0.0
  0
LINE
  5
14E13
330
747D
100
AcDbEntity
  8
細線
100
AcDbLine
 10
4361.336242437563
 20
4453.077276893862
 30
0.0
 11
4400.50286090681
 21
4453.077276893862
 31
0.0
  0
ARC
  5
14E14
330
747D
100
AcDbEntity
  8
細線
100
AcDbCircle
 10
4395.502860906809
 20
4467.577276893861
 30
0.0
 40
6.0
100
AcDbArc
 50
270.0
 51
0.0
  0
ARC
  5
14E15
330
747D
100
AcDbEntity
  8
部品1
100
AcDbCircle
 10
4401.502860906809
 20
4565.577276893862
 30
0.0
 40
6.0
100
AcDbArc
 50
0.0
 51
90.0
  0
ARC
  5
14E16
330
747D
100
AcDbEntity
  8
部品1
100
AcDbCircle
 10
4360.504591015794
 20
4565.577276893862
 30
0.0
 40
6.0
100
AcDbArc
 50
90.0
 51
169.4161974034886
  0
LINE
  5
14E17
330
747D
100
AcDbEntity
  8
部品1
100
AcDbLine
 10
4401.502860906809
 20
4571.577276893862
 30
0.0
 11
4360.504591015794
 21
4571.577276893862
 31
0.0
  0
ARC
  5
14E18
330
747D
100
AcDbEntity
  8
細線
100
AcDbCircle
 10
4400.50286090681
 20
4564.577276893862
 30
0.0
 40
5.5
100
AcDbArc
 50
0.0
 51
90.0
  0
LINE
  5
14E19
330
747D
100
AcDbEntity
  8
細線
100
AcDbLine
 10
4395.502860906809
 20
4561.577276893863
 30
0.0
 11
4364.883817271286
 21
4561.577276893863
 31
0.0
  0
ARC
  5
14E1A
330
747D
100
AcDbEntity
  8
細線
100
AcDbCircle
 10
4385.710400085555
 20
4552.577276893862
 30
0.0
 40
6.0
100
AcDbArc
 50
0.0
 51
90.0
  0
ARC
  5
14E1B
330
747D
100
AcDbEntity
  8
細線
100
AcDbCircle
 10
4361.336242437563
 20
4564.577276893862
 30
0.0
 40
5.5
100
AcDbArc
 50
89.99999999999969
 51
169.5785490272683
  0
LINE
  5
14E1C
330
747D
100
AcDbEntity
  8
細線
100
AcDbLine
 10
4373.50286090681
 20
4555.576768995299
 30
0.0
 11
4360.739533690842
 21
4555.576768995299
 31
0.0
  0
ARC
  5
14E1D
330
747D
100
AcDbEntity
  8
細線
100
AcDbCircle
 10
4364.883817271286
 20
4555.577276893862
 30
0.0
 40
6.0
100
AcDbArc
 50
90.0
 51
171.2120626773636
  0
LINE
  5
14E1E
330
747D
100
AcDbEntity
  8
細線
100
AcDbLine
 10
4385.710400085555
 20
4558.577276893863
 30
0.0
 11
4373.50286090681
 21
4558.577276893863
 31
0.0
  0
ARC
  5
14E1F
330
747D
100
AcDbEntity
  8
細線
100
AcDbCircle
 10
4374.997284816642
 20
4552.577276893862
 30
0.0
 40
3.0
100
AcDbArc
 50
8.099550838277986
 51
90.0
  0
LINE
  5
14E20
330
747D
100
AcDbEntity
  8
細線
100
AcDbLine
 10
4374.997284816642
 20
4555.577276893862
 30
0.0
 11
4373.50286090681
 21
4555.577276893862
 31
0.0
  0
LINE
  5
14E21
330
747D
100
AcDbEntity
  8
細線
100
AcDbLine
 10
4400.50286090681
 20
4570.077276893862
 30
0.0
 11
4361.336242437563
 21
4570.077276893862
 31
0.0
  0
ARC
  5
14E22
330
747D
100
AcDbEntity
  8
細線
100
AcDbCircle
 10
4395.502860906809
 20
4555.577276893862
 30
0.0
 40
6.0
100
AcDbArc
 50
0.0
 51
90.0
  0
CIRCLE
  5
14E23
330
747D
100
AcDbEntity
  8
細線
 48
20.0
100
AcDbCircle
 10
4381.003725961302
 20
4612.077276893862
 30
0.0
 40
10.0
  0
CIRCLE
  5
14E24
330
747D
100
AcDbEntity
  8
細線
 48
20.0
100
AcDbCircle
 10
4381.003725961302
 20
4612.077276893862
 30
0.0
 40
20.0
  0
LINE
  5
14E25
330
747D
100
AcDbEntity
  8
細線
 48
50.0
100
AcDbLine
 10
4245.428065929789
 20
5404.827276893862
 30
0.0
 11
4245.428065929789
 21
5402.827276893862
 31
0.0
  0
LINE
  5
14E26
330
747D
100
AcDbEntity
  8
細線
 48
50.0
100
AcDbLine
 10
4237.577655883825
 20
5404.827276893862
 30
0.0
 11
4237.577655883826
 21
5402.827276893862
 31
0.0
  0
LINE
  5
14E27
330
747D
100
AcDbEntity
  8
細線
 48
0.2
100
AcDbLine
 10
4247.124404374637
 20
5408.027276893863
 30
0.0
 11
4235.756421781625
 21
5408.027276893863
 31
0.0
  0
ARC
  5
14E28
330
747D
100
AcDbEntity
  8
細線
 48
0.2
100
AcDbCircle
 10
4241.440413078128
 20
5390.527276893865
 30
0.0
 40
18.49999999999796
100
AcDbArc
 50
73.39845040097829
 51
106.6015495990228
  0
LINE
  5
14E29
330
747D
100
AcDbEntity
  8
細線
 48
0.1
100
AcDbLine
 10
4249.440413078128
 20
5407.327276893862
 30
0.0
 11
4249.440413078128
 21
5400.327276893862
 31
0.0
  0
ARC
  5
14E2A
330
747D
100
AcDbEntity
  8
細線
 48
0.2
100
AcDbCircle
 10
4246.440413078128
 20
5407.29778672511
 30
0.0
 40
1.0
100
AcDbArc
 50
0.0
 51
73.39845040097829
  0
ARC
  5
14E2B
330
747D
100
AcDbEntity
  8
細線
 48
0.2
100
AcDbCircle
 10
4236.440413078129
 20
5407.29778672511
 30
0.0
 40
1.0
100
AcDbArc
 50
106.6015495990225
 51
180.0000000000016
  0
LINE
  5
14E2C
330
747D
100
AcDbEntity
  8
部品1
 48
0.2
100
AcDbLine
 10
4249.440413078128
 20
5400.327276893862
 30
0.0
 11
4229.440413078129
 21
5400.327276893862
 31
0.0
  0
LINE
  5
14E2D
330
747D
100
AcDbEntity
  8
細線
 48
0.2
100
AcDbLine
 10
4249.440413078128
 20
5404.827276893862
 30
0.0
 11
4229.440413078129
 21
5404.827276893862
 31
0.0
  0
LINE
  5
14E2E
330
747D
100
AcDbEntity
  8
細線
 48
0.2
100
AcDbLine
 10
4249.440413078128
 20
5402.827276893862
 30
0.0
 11
4229.440413078129
 21
5402.827276893862
 31
0.0
  0
LINE
  5
14E2F
330
747D
100
AcDbEntity
  8
細線
 48
0.2
100
AcDbLine
 10
4249.440413078128
 20
5407.327276893862
 30
0.0
 11
4229.440413078129
 21
5407.327276893862
 31
0.0
  0
LINE
  5
14E30
330
747D
100
AcDbEntity
  8
部品1
 48
50.0
100
AcDbLine
 10
4229.440413078129
 20
5400.327276893862
 30
0.0
 11
4229.440413078129
 21
5407.077276893862
 31
0.0
  0
LINE
  5
14E31
330
747D
100
AcDbEntity
  8
部品1
100
AcDbLine
 10
4249.440413078129
 20
5407.077276893862
 30
0.0
 11
4249.502860906811
 21
5407.07727689386
 31
0.0
  0
LINE
  5
14E32
330
747D
100
AcDbEntity
  8
細線
 48
50.0
100
AcDbLine
 10
4229.440413078129
 20
5407.077276893862
 30
0.0
 11
4229.440413078129
 21
5407.327276893862
 31
0.0
  0
DIMENSION
  5
14E54
330
747D
100
AcDbEntity
  8
寸法
 48
50.0
100
AcDbDimension
  2
*D31
 10
5169.50286090682
 20
9522.174134733532
 30
0.0
 11
5114.502860906817
 21
9622.174134733533
 31
0.0
 70
    32
 71
     5
 42
110.0000000000036
  3
INABA_S40G
100
AcDbAlignedDimension
 13
5059.502860906816
 23
9306.365915108555
 33
0.0
 14
5169.50286090682
 24
9306.365915108532
 34
0.0
100
AcDbRotatedDimension
  0
DIMENSION
  5
14E55
330
747D
100
AcDbEntity
  8
寸法
 48
50.0
100
AcDbDimension
  2
*D30
 10
4349.502860906819
 20
9522.174134733532
 30
0.0
 11
4704.502860906819
 21
9622.174134733533
 31
0.0
 70
    32
 71
     5
 42
709.9999999999981
  3
INABA_S40G
100
AcDbAlignedDimension
 13
5059.502860906818
 23
9306.365915108548
 33
0.0
 14
4349.502860906819
 24
9306.365915108532
 34
0.0
100
AcDbRotatedDimension
  0
LINE
  5
14E56
330
747D
100
AcDbEntity
  8
想像線
 48
10.0
100
AcDbLine
 10
5069.502860906809
 20
8356.365915108483
 30
0.0
 11
5069.502860906809
 21
7635.448271452691
 31
0.0
  0
ARC
  5
14E57
330
747D
100
AcDbEntity
  8
想像線
 48
10.0
100
AcDbCircle
 10
5062.150810229651
 20
8358.06080848406
 30
0.0
 40
722.6499369155619
100
AcDbArc
 50
180.1343808685487
 51
270.5829222700353
  0
LINE
  5
14E58
330
747D
100
AcDbEntity
  8
部品1
 48
50.0
100
AcDbLine
 10
5114.502860906797
 20
8411.365915108472
 30
0.0
 11
5114.502860906797
 21
9251.365915108481
 31
0.0
  0
LINE
  5
14E59
330
747D
100
AcDbEntity
  8
破線
 48
10.0
100
AcDbLine
 10
5034.502925831485
 20
8826.865915108477
 30
0.0
 11
5034.502860906799
 21
8511.365915108525
 31
0.0
  0
LINE
  5
14E5A
330
747D
100
AcDbEntity
  8
部品1
100
AcDbLine
 10
5086.502860906818
 20
9278.365915108528
 30
0.0
 11
5086.502860906794
 21
8411.365915108515
 31
0.0
  0
DIMENSION
  5
14E5B
330
747D
100
AcDbEntity
  8
寸法
100
AcDbDimension
  2
*D28
 10
5026.309364612783
 20
8607.8188048655
 30
0.0
 11
4703.349923025018
 21
8607.8188048655
 31
0.0
 70
   160
 71
     5
 42
761.0000000000118
  3
INABA_S40G
100
AcDbAlignedDimension
 13
4324.002860906749
 23
8826.865915108482
 33
0.0
 14
5085.002860906762
 24
8826.865915108479
 34
0.0
100
AcDbRotatedDimension
1001
ACAD
1000
DSTYLE
1002
{
1002
}
  0
LINE
  5
14E5C
330
747D
100
AcDbEntity
  8
部品1
 48
5.0
100
AcDbLine
 10
5058.001889481861
 20
8487.86591510853
 30
0.0
 11
5058.002382413172
 21
8826.865915108475
 31
0.0
  0
LINE
  5
14E5D
330
747D
100
AcDbEntity
  8
部品1
 48
5.0
100
AcDbLine
 10
5171.003832331773
 20
8487.86591510853
 30
0.0
 11
5171.003339400463
 21
8826.865915108443
 31
0.0
  0
LINE
  5
14E5E
330
747D
100
AcDbEntity
  8
破線
 48
10.0
100
AcDbLine
 10
5194.502925831518
 20
8826.865915108443
 30
0.0
 11
5194.502860906804
 21
8511.365915108443
 31
0.0
  0
LINE
  5
14E5F
330
747D
100
AcDbEntity
  8
部品1
100
AcDbLine
 10
5142.502860906792
 20
8411.365915108387
 30
0.0
 11
5142.502860906816
 21
9306.365915108459
 31
0.0
  0
LINE
  5
14E60
330
747D
100
AcDbEntity
  8
部品1
100
AcDbLine
 10
5058.001889482001
 20
8487.866020821368
 30
0.0
 11
4350.002860906793
 21
8487.865915133143
 31
0.0
  0
LINE
  5
14E61
330
747D
100
AcDbEntity
  8
破線
 48
10.0
100
AcDbLine
 10
5034.502860906795
 20
8511.365915108525
 30
0.0
 11
4373.502860906802
 21
8511.365915108489
 31
0.0
  0
LINE
  5
14E62
330
747D
100
AcDbEntity
  8
部品1
100
AcDbLine
 10
5069.502860906809
 20
8382.365915108525
 30
0.0
 11
4339.50286090681
 21
8382.365915108463
 31
0.0
  0
LINE
  5
14E63
330
747D
100
AcDbEntity
  8
部品1
 48
5.0
100
AcDbLine
 10
5090.502860906813
 20
8385.865915108473
 30
0.0
 11
4318.502860906812
 21
8385.865915108473
 31
0.0
  0
DIMENSION
  5
14E64
330
747D
100
AcDbEntity
  8
寸法
 48
50.0
100
AcDbDimension
  2
*D29
 10
5034.50286090681
 20
7916.542247313349
 30
0.0
 11
4692.002860906812
 21
8016.542247313349
 31
0.0
 70
    32
 71
     5
 42
684.9999999999972
  3
INABA_S40G
100
AcDbAlignedDimension
 13
4349.502860906812
 23
8356.365915108472
 33
0.0
 14
5034.50286090681
 24
8356.365915108625
 34
0.0
100
AcDbRotatedDimension
  0
LINE
  5
14E65
330
747D
100
AcDbEntity
  8
細線
 48
50.0
100
AcDbLine
 10
4689.50286090681
 20
8382.365915108428
 30
0.0
 11
4689.50286090681
 21
8356.365915108391
 31
0.0
  0
LINE
  5
14E66
330
747D
100
AcDbEntity
  8
細線
 48
50.0
100
AcDbLine
 10
4649.50286090681
 20
8382.365915108428
 30
0.0
 11
4649.50286090681
 21
8356.365915108391
 31
0.0
  0
LINE
  5
14E67
330
747D
100
AcDbEntity
  8
部品1
 48
2.83
100
AcDbLine
 10
5157.502860906811
 20
8356.365915108355
 30
0.0
 11
5114.50286090681
 21
8356.365915108353
 31
0.0
  0
LINE
  5
14E68
330
747D
100
AcDbEntity
  8
部品1
100
AcDbLine
 10
5165.50286090681
 20
8356.365915108391
 30
0.0
 11
5114.50286090681
 21
8356.365915108391
 31
0.0
  0
LINE
  5
14E69
330
747D
100
AcDbEntity
  8
部品1
100
AcDbLine
 10
5142.502860906809
 20
8411.365915108401
 30
0.0
 11
5086.502860906794
 21
8411.365915108401
 31
0.0
  0
LINE
  5
14E6A
330
747D
100
AcDbEntity
  8
細線
 48
50.0
100
AcDbLine
 10
4876.502860906811
 20
8382.365915108641
 30
0.0
 11
4876.502860906811
 21
8356.365915108602
 31
0.0
  0
LINE
  5
14E6B
330
747D
100
AcDbEntity
  8
細線
 48
50.0
100
AcDbLine
 10
4916.50286090681
 20
8382.365915108641
 30
0.0
 11
4916.50286090681
 21
8356.365915108602
 31
0.0
  0
LINE
  5
14E6C
330
747D
100
AcDbEntity
  8
部品1
 48
5.0
100
AcDbLine
 10
5090.502860906813
 20
8411.365915108472
 30
0.0
 11
5090.502860906813
 21
8385.865915108473
 31
0.0
  0
LINE
  5
14E6D
330
747D
100
AcDbEntity
  8
部品1
 48
2.83
100
AcDbLine
 10
5082.502860906791
 20
8411.365915108488
 30
0.0
 11
5059.502860906792
 21
8411.365915108484
 31
0.0
  0
LINE
  5
14E6E
330
747D
100
AcDbEntity
  8
部品1
 48
2.83
100
AcDbLine
 10
5059.502860906793
 20
8411.365915108484
 30
0.0
 11
5059.502860906792
 21
8385.865915108487
 31
0.0
  0
LINE
  5
14E6F
330
747D
100
AcDbEntity
  8
部品1
 48
2.83
100
AcDbLine
 10
5071.502860906791
 20
8385.865915108487
 30
0.0
 11
5071.502860906791
 21
8356.365915108487
 31
0.0
  0
LINE
  5
14E70
330
747D
100
AcDbEntity
  8
部品1
100
AcDbLine
 10
5069.502860906809
 20
8382.365915108525
 30
0.0
 11
5069.50286090681
 21
8356.365915108517
 31
0.0
  0
LINE
  5
14E71
330
747D
100
AcDbEntity
  8
部品1
 48
0.2
100
AcDbLine
 10
5056.565308735489
 20
8349.363545063713
 30
0.0
 11
5061.565308735489
 21
8349.363545063713
 31
0.0
  0
ARC
  5
14E72
330
747D
100
AcDbEntity
  8
部品1
 48
0.2
100
AcDbCircle
 10
5061.565308735489
 20
8357.363545063712
 30
0.0
 40
8.0
100
AcDbArc
 50
270.0
 51
352.8363522778074
  0
ARC
  5
14E73
330
747D
100
AcDbEntity
  8
部品1
 48
0.2
100
AcDbCircle
 10
5056.565308735489
 20
8357.363545063712
 30
0.0
 40
8.0
100
AcDbArc
 50
187.1636477221926
 51
269.9999999999992
  0
ARC
  5
14E74
330
747D
100
AcDbEntity
  8
細線
 48
0.2
100
AcDbCircle
 10
5061.565308735489
 20
8357.363545063712
 30
0.0
 40
4.049999999999999
100
AcDbArc
 50
194.2603506853988
 51
345.7396493146012
  0
LINE
  5
14E75
330
747D
100
AcDbEntity
  8
部品1
 48
50.0
100
AcDbLine
 10
5086.502860906794
 20
8458.846849916119
 30
0.0
 11
5058.001889482001
 21
8487.866020821368
 31
0.0
  0
LINE
  5
14E76
330
747D
100
AcDbEntity
  8
部品1
 48
5.0
100
AcDbLine
 10
5138.502860906813
 20
8411.365915108472
 30
0.0
 11
5138.502860906812
 21
8385.865915108473
 31
0.0
  0
LINE
  5
14E77
330
747D
100
AcDbEntity
  8
細線
 48
50.0
100
AcDbLine
 10
5283.502860906811
 20
8382.365915108437
 30
0.0
 11
5283.502860906811
 21
8356.365915108391
 31
0.0
  0
LINE
  5
14E78
330
747D
100
AcDbEntity
  8
部品1
 48
50.0
100
AcDbLine
 10
5171.003832333205
 20
8487.864832799994
 30
0.0
 11
5142.502860906793
 21
8458.845661867529
 31
0.0
  0
LINE
  5
14E79
330
747D
100
AcDbEntity
  8
部品1
100
AcDbLine
 10
5159.50286090681
 20
8382.365915108461
 30
0.0
 11
5159.50286090681
 21
8356.365915108424
 31
0.0
  0
LINE
  5
14E7A
330
747D
100
AcDbEntity
  8
部品1
 48
2.83
100
AcDbLine
 10
5157.502860906811
 20
8385.865915108356
 30
0.0
 11
5157.502860906811
 21
8356.365915108355
 31
0.0
  0
LINE
  5
14E7B
330
747D
100
AcDbEntity
  8
部品1
 48
2.83
100
AcDbLine
 10
5169.50286090681
 20
8411.365915108353
 30
0.0
 11
5169.502860906813
 21
8385.865915108356
 31
0.0
  0
LINE
  5
14E7C
330
747D
100
AcDbEntity
  8
部品1
 48
2.83
100
AcDbLine
 10
5146.502860906811
 20
8411.365915108355
 30
0.0
 11
5169.502860906812
 21
8411.365915108353
 31
0.0
  0
LINE
  5
14E7D
330
747D
100
AcDbEntity
  8
部品1
100
AcDbLine
 10
4324.002860906749
 20
9276.865915108484
 30
0.0
 11
5085.002860906751
 21
9276.865915108476
 31
0.0
  0
LINE
  5
14E7E
330
747D
100
AcDbEntity
  8
細線
 48
50.0
100
AcDbLine
 10
5085.002860906751
 20
8826.865915108475
 30
0.0
 11
4324.002860906749
 21
9276.865915108478
 31
0.0
  0
LINE
  5
14E7F
330
747D
100
AcDbEntity
  8
細線
 48
50.0
100
AcDbLine
 10
5085.002860906751
 20
9276.865915108476
 30
0.0
 11
4324.002860906748
 21
8826.865915108482
 31
0.0
  0
LINE
  5
14E80
330
747D
100
AcDbEntity
  8
部品1
100
AcDbLine
 10
4324.002860906748
 20
8826.865915108482
 30
0.0
 11
5085.002860906751
 21
8826.865915108475
 31
0.0
  0
LINE
  5
14E81
330
747D
100
AcDbEntity
  8
部品1
100
AcDbLine
 10
4322.502860906741
 20
9278.365915108484
 30
0.0
 11
5111.883563925419
 21
9278.365915108482
 31
0.0
  0
LINE
  5
14E82
330
747D
100
AcDbEntity
  8
細線
 48
50.0
100
AcDbLine
 10
4734.502860906818
 20
9284.865915108545
 30
0.0
 11
4674.502860906818
 21
9284.865915108541
 31
0.0
  0
LINE
  5
14E83
330
747D
100
AcDbEntity
  8
細線
 48
50.0
100
AcDbLine
 10
4734.502860906818
 20
9284.865915108545
 30
0.0
 11
4734.502860906816
 21
9306.365915108548
 31
0.0
  0
LINE
  5
14E84
330
747D
100
AcDbEntity
  8
細線
 48
50.0
100
AcDbLine
 10
4674.502860906819
 20
9284.865915108543
 30
0.0
 11
4674.502860906815
 21
9306.365915108541
 31
0.0
  0
LINE
  5
14E85
330
747D
100
AcDbEntity
  8
部品1
100
AcDbLine
 10
5085.002860906751
 20
9276.865915108476
 30
0.0
 11
5085.002860906751
 21
8826.865915108475
 31
0.0
  0
LINE
  5
14E86
330
747D
100
AcDbEntity
  8
部品1
 48
50.0
100
AcDbLine
 10
5144.002867584446
 20
9276.865915108434
 30
0.0
 11
5144.002867584447
 21
8826.865915108438
 31
0.0
  0
LINE
  5
14E87
330
747D
100
AcDbEntity
  8
部品1
 48
50.0
100
AcDbLine
 10
5114.502860906788
 20
8869.365915108481
 30
0.0
 11
5142.502860906771
 21
8869.365915108483
 31
0.0
  0
LINE
  5
14E88
330
747D
100
AcDbEntity
  8
部品1
100
AcDbLine
 10
5142.502860906791
 20
8831.365915108401
 30
0.0
 11
5086.502860906806
 21
8831.365915108401
 31
0.0
  0
LINE
  5
14E89
330
747D
100
AcDbEntity
  8
部品1
100
AcDbLine
 10
5142.502860906784
 20
9251.365915108406
 30
0.0
 11
5086.502860906817
 21
9251.365915108406
 31
0.0
  0
LINE
  5
14E8A
330
747D
100
AcDbEntity
  8
部品1
 48
5.0
100
AcDbLine
 10
5089.21213535399
 20
9306.365915108477
 30
0.0
 11
5111.883563925419
 21
9278.365915108482
 31
0.0
  0
LINE
  5
14E8B
330
747D
100
AcDbEntity
  8
部品1
100
AcDbLine
 10
5059.502860906818
 20
9306.365915108548
 30
0.0
 11
5059.502860906818
 21
9278.365915108548
 31
0.0
  0
LINE
  5
14E8C
330
747D
100
AcDbEntity
  8
部品1
100
AcDbLine
 10
5059.502860906818
 20
9306.365915108528
 30
0.0
 11
5059.502860906818
 21
9278.365915108528
 31
0.0
  0
LINE
  5
14E8D
330
747D
100
AcDbEntity
  8
部品1
 48
50.0
100
AcDbLine
 10
5085.002854229141
 20
9276.865915108478
 30
0.0
 11
5086.502860906818
 21
9278.365915108528
 31
0.0
  0
LINE
  5
14E8E
330
747D
100
AcDbEntity
  8
部品1
 48
50.0
100
AcDbLine
 10
5144.002867584441
 20
9276.865915108441
 30
0.0
 11
5142.502860906817
 21
9278.365915108434
 31
0.0
  0
LINE
  5
14E8F
330
747D
100
AcDbEntity
  8
部品1
100
AcDbLine
 10
5169.502860906782
 20
9306.365915108401
 30
0.0
 11
5169.502860906784
 21
9278.3659151084
 31
0.0
  0
LINE
  5
14E90
330
747D
100
AcDbEntity
  8
部品1
100
AcDbLine
 10
5169.502860906817
 20
9306.365915108434
 30
0.0
 11
5169.502860906817
 21
9278.365915108434
 31
0.0
  0
DIMENSION
  5
14EF2
330
747D
100
AcDbEntity
  8
寸法
 48
50.0
100
AcDbDimension
  2
*D32
 10
4214.502860906811
 20
7916.542247313349
 30
0.0
 11
3872.002860906812
 21
8016.542247313349
 31
0.0
 70
    32
 71
     5
 42
684.9999999999972
  3
INABA_S40G
100
AcDbAlignedDimension
 13
3529.502860906813
 23
8356.365915108472
 33
0.0
 14
4214.502860906811
 24
8356.365915108625
 34
0.0
100
AcDbRotatedDimension
  0
MTEXT
  5
15582
330
747D
100
AcDbEntity
  8
寸法
 62
     7
 48
50.0
100
AcDbMText
 10
7999.782658517394
 20
8896.47966264571
 30
0.0
 40
96.0
 41
0.0
 71
     5
 72
     1
  1
棚 2段
  7
STYLE1
 73
     1
 44
1.0
1001
ACAD
1000
MTEXTBEGIN
1070
    73
1070
     1
1070
    44
1040
1.0
1070
    74
1070
     0
1000
MTEXTEND
  0
MTEXT
  5
15583
330
747D
100
AcDbEntity
  8
寸法
 62
     7
 48
50.0
100
AcDbMText
 10
6359.782665195089
 20
8896.479662645724
 30
0.0
 40
96.0
 41
0.0
 71
     5
 72
     1
  1
棚 2段
  7
STYLE1
 73
     1
 44
1.0
1001
ACAD
1000
MTEXTBEGIN
1070
    73
1070
     1
1070
    44
1040
1.0
1070
    74
1070
     0
1000
MTEXTEND
  0
MTEXT
  5
15584
330
747D
100
AcDbEntity
  8
寸法
 62
     7
 48
50.0
100
AcDbMText
 10
7179.782658517392
 20
8896.479662645711
 30
0.0
 40
96.0
 41
0.0
 71
     5
 72
     1
  1
棚 2段
  7
STYLE1
 73
     1
 44
1.0
1001
ACAD
1000
MTEXTBEGIN
1070
    73
1070
     1
1070
    44
1040
1.0
1070
    74
1070
     0
1000
MTEXTEND
  0
MTEXT
  5
15585
330
747D
100
AcDbEntity
  8
寸法
 62
     7
 48
50.0
100
AcDbMText
 10
4719.782665195089
 20
8896.479662645724
 30
0.0
 40
96.0
 41
0.0
 71
     5
 72
     1
  1
棚 2段
  7
STYLE1
 73
     1
 44
1.0
1001
ACAD
1000
MTEXTBEGIN
1070
    73
1070
     1
1070
    44
1040
1.0
1070
    74
1070
     0
1000
MTEXTEND
  0
MTEXT
  5
15586
330
747D
100
AcDbEntity
  8
寸法
 62
     7
 48
50.0
100
AcDbMText
 10
5539.78265851739
 20
8896.479662645711
 30
0.0
 40
96.0
 41
0.0
 71
     5
 72
     1
  1
棚 2段
  7
STYLE1
 73
     1
 44
1.0
1001
ACAD
1000
MTEXTBEGIN
1070
    73
1070
     1
1070
    44
1040
1.0
1070
    74
1070
     0
1000
MTEXTEND
  0
LWPOLYLINE
  5
15587
330
747D
100
AcDbEntity
  8
部品1
100
AcDbPolyline
 90
        4
 70
     1
 43
0.0
 10
5552.767527792592
 20
2866.500696077144
 10
5552.767527792592
 20
2626.608374531612
 10
6316.238194021032
 20
2626.608374531612
 10
6316.238194021032
 20
2866.500696077144
  0
TEXT
  5
15588
330
747D
100
AcDbEntity
  8
部品1
100
AcDbText
 10
5643.292931530542
 20
2673.607166858621
 30
0.0
 40
135.0
  1
正面図
  7
STYLE2
100
AcDbText
  0
TEXT
  5
155C4
330
747D
100
AcDbEntity
  8
文字
 62
     7
 48
50.0
100
AcDbText
 10
14271.39351435261
 20
483.8967129911411
 30
0.0
 40
160.0
  1
ＮＸＮ－０８ＤＬ－６
  7
STYLE2
100
AcDbText
  0
TEXT
  5
155C5
330
747D
100
AcDbEntity
  8
文字
 62
     7
 48
50.0
100
AcDbText
 10
13583.11819016568
 20
9230.013745883733
 30
0.0
 40
100.0
  1
棚板
  7
STYLE1
100
AcDbText
  0
TEXT
  5
155C6
330
747D
100
AcDbEntity
  8
文字
 62
     7
 48
50.0
100
AcDbText
 10
15022.63965474515
 20
9230.013745883729
 30
0.0
 40
100.0
  1
F12            0.6
  7
STYLE1
100
AcDbText
  0
TEXT
  5
155C7
330
747D
100
AcDbEntity
  8
文字
 62
     7
 48
50.0
100
AcDbText
 10
13583.11819016568
 20
9400.013745883729
 30
0.0
 40
100.0
  1
扉
  7
STYLE1
100
AcDbText
  0
TEXT
  5
155C8
330
747D
100
AcDbEntity
  8
文字
 62
     7
 48
50.0
100
AcDbText
 10
15022.63965474515
 20
9400.013745883725
 30
0.0
 40
100.0
  1
F12            0.8
  7
STYLE1
100
AcDbText
  0
TEXT
  5
155C9
330
747D
100
AcDbEntity
  8
文字
 62
     7
 48
50.0
100
AcDbText
 10
15022.63965474517
 20
10760.01374588372
 30
0.0
 40
100.0
  1
F12            1.0
  7
STYLE1
100
AcDbText
  0
TEXT
  5
155CA
330
747D
100
AcDbEntity
  8
文字
 62
     7
 48
50.0
100
AcDbText
 10
13583.1181901657
 20
10760.01374588373
 30
0.0
 40
100.0
  1
床パネル
 41
0.9
  7
STYLE1
100
AcDbText
  0
LINE
  5
155CB
330
747D
100
AcDbEntity
  8
仕様書枠
 48
50.0
100
AcDbLine
 10
16307.19999999999
 20
8689.6
 30
0.0
 11
13127.19999999999
 21
8689.600000000003
 31
0.0
  0
LINE
  5
155CC
330
747D
100
AcDbEntity
  8
仕様書枠
 48
50.0
100
AcDbLine
 10
13127.2
 20
11409.6
 30
0.0
 11
13127.19999999999
 21
8349.600000000002
 31
0.0
  0
TEXT
  5
155CD
330
747D
100
AcDbEntity
  8
文字
 62
     7
 48
50.0
100
AcDbText
 10
13229.83081656554
 20
8380.013745883728
 30
0.0
 40
100.0
  1
Y10→溶融亜鉛-5％アルミニウム合金めっき鋼板(JIS G 3317)
 41
0.9
  7
STYLE1
100
AcDbText
  0
TEXT
  5
155CE
330
747D
100
AcDbEntity
  8
文字
 62
     7
 48
50.0
100
AcDbText
 10
13229.83081656554
 20
8550.013745883729
 30
0.0
 40
100.0
  1
F12→溶融亜鉛めっき鋼板(JIS G 3302)
  7
STYLE1
100
AcDbText
  0
LINE
  5
155CF
330
747D
100
AcDbEntity
  8
仕様書枠
 48
50.0
100
AcDbLine
 10
16307.19999999998
 20
8349.600000000004
 30
0.0
 11
13127.19999999999
 21
8349.600000000004
 31
0.0
  0
TEXT
  5
155D0
330
747D
100
AcDbEntity
  8
文字
 62
     7
 48
50.0
100
AcDbText
 10
15022.63965474515
 20
9570.013745883725
 30
0.0
 40
100.0
  1
F12            0.6
  7
STYLE1
100
AcDbText
  0
TEXT
  5
155D1
330
747D
100
AcDbEntity
  8
文字
 62
     7
 48
50.0
100
AcDbText
 10
15022.63965474517
 20
9740.013745883725
 30
0.0
 40
100.0
  1
Y10            0.5
  7
STYLE1
100
AcDbText
  0
TEXT
  5
155D2
330
747D
100
AcDbEntity
  8
文字
 62
     7
 48
50.0
100
AcDbText
 10
15022.63965474516
 20
10080.01374588372
 30
0.0
 40
100.0
  1
Y10            0.7
  7
STYLE1
100
AcDbText
  0
TEXT
  5
155D3
330
747D
100
AcDbEntity
  8
文字
 62
     7
 48
50.0
100
AcDbText
 10
15022.63965474517
 20
10250.01374588372
 30
0.0
 40
100.0
  1
Y10            0.7
  7
STYLE1
100
AcDbText
  0
TEXT
  5
155D4
330
747D
100
AcDbEntity
  8
文字
 62
     7
 48
50.0
100
AcDbText
 10
15022.63965474516
 20
10420.01374588372
 30
0.0
 40
100.0
  1
Y10            1.0
  7
STYLE1
100
AcDbText
  0
TEXT
  5
155D5
330
747D
100
AcDbEntity
  8
文字
 62
     7
 48
50.0
100
AcDbText
 10
15022.63965474517
 20
10590.01374588372
 30
0.0
 40
100.0
  1
Y10            1.0
  7
STYLE1
100
AcDbText
  0
TEXT
  5
155D6
330
747D
100
AcDbEntity
  8
文字
 62
     7
 48
50.0
100
AcDbText
 10
15022.63965474518
 20
10930.01374588372
 30
0.0
 40
100.0
  1
F12            1.0
  7
STYLE1
100
AcDbText
  0
TEXT
  5
155D7
330
747D
100
AcDbEntity
  8
文字
 62
     7
 48
50.0
100
AcDbText
 10
15022.63965474517
 20
11100.01374588372
 30
0.0
 40
100.0
  1
F12            1.2
  7
STYLE1
100
AcDbText
  0
TEXT
  5
155D8
330
747D
100
AcDbEntity
  8
文字
 62
     7
 48
50.0
100
AcDbText
 10
13248.77747366447
 20
9230.013745883729
 30
0.0
 40
100.0
  1
12
  7
STYLE1
100
AcDbText
  0
TEXT
  5
155D9
330
747D
100
AcDbEntity
  8
文字
 62
     7
 48
50.0
100
AcDbText
 10
13248.77747366447
 20
9060.013745883729
 30
0.0
 40
100.0
  1
13
  7
STYLE1
100
AcDbText
  0
LINE
  5
155DA
330
747D
100
AcDbEntity
  8
仕様書枠
 48
50.0
100
AcDbLine
 10
16307.19999999999
 20
8519.600000000002
 30
0.0
 11
13127.19999999999
 21
8519.600000000004
 31
0.0
  0
LINE
  5
155DB
330
747D
100
AcDbEntity
  8
仕様書枠
 48
50.0
100
AcDbLine
 10
16307.19999999999
 20
9029.6
 30
0.0
 11
13127.19999999999
 21
9029.6
 31
0.0
  0
TEXT
  5
155DC
330
747D
100
AcDbEntity
  8
文字
 62
     7
 48
50.0
100
AcDbText
 10
13248.77747366447
 20
9400.013745883729
 30
0.0
 40
100.0
  1
11
  7
STYLE1
100
AcDbText
  0
LINE
  5
155DD
330
747D
100
AcDbEntity
  8
仕様書枠
 48
50.0
100
AcDbLine
 10
16307.19999999999
 20
9879.600000000001
 30
0.0
 11
13127.19999999999
 21
9879.600000000001
 31
0.0
  0
LINE
  5
155DE
330
747D
100
AcDbEntity
  8
仕様書枠
 48
50.0
100
AcDbLine
 10
16307.19999999999
 20
10219.6
 30
0.0
 11
13127.2
 21
10219.6
 31
0.0
  0
LINE
  5
155DF
330
747D
100
AcDbEntity
  8
仕様書枠
 48
50.0
100
AcDbLine
 10
16307.19999999999
 20
9539.6
 30
0.0
 11
13127.19999999999
 21
9539.6
 31
0.0
  0
LINE
  5
155E0
330
747D
100
AcDbEntity
  8
仕様書枠
 48
50.0
100
AcDbLine
 10
16307.19999999999
 20
9369.600000000001
 30
0.0
 11
13127.19999999999
 21
9369.600000000001
 31
0.0
  0
LINE
  5
155E1
330
747D
100
AcDbEntity
  8
仕様書枠
 48
50.0
100
AcDbLine
 10
16307.19999999999
 20
9709.600000000001
 30
0.0
 11
13127.19999999999
 21
9709.600000000001
 31
0.0
  0
TEXT
  5
155E2
330
747D
100
AcDbEntity
  8
文字
 62
     7
 48
50.0
100
AcDbText
 10
13271.19032244792
 20
10250.01374588373
 30
0.0
 40
100.0
  1
6
  7
STYLE1
100
AcDbText
  0
TEXT
  5
155E3
330
747D
100
AcDbEntity
  8
文字
 62
     7
 48
50.0
100
AcDbText
 10
13271.19032244792
 20
10080.01374588373
 30
0.0
 40
100.0
  1
7
  7
STYLE1
100
AcDbText
  0
TEXT
  5
155E4
330
747D
100
AcDbEntity
  8
文字
 62
     7
 48
50.0
100
AcDbText
 10
13271.19032244792
 20
9740.013745883729
 30
0.0
 40
100.0
  1
9
  7
STYLE1
100
AcDbText
  0
TEXT
  5
155E5
330
747D
100
AcDbEntity
  8
文字
 62
     7
 48
50.0
100
AcDbText
 10
13271.19032244792
 20
9910.01374588373
 30
0.0
 40
100.0
  1
8
  7
STYLE1
100
AcDbText
  0
TEXT
  5
155E6
330
747D
100
AcDbEntity
  8
文字
 62
     7
 48
50.0
100
AcDbText
 10
13583.11819016569
 20
10080.01374588373
 30
0.0
 40
100.0
  1
鼻隠シ前後
  7
STYLE1
100
AcDbText
  0
TEXT
  5
155E7
330
747D
100
AcDbEntity
  8
文字
 62
     7
 48
50.0
100
AcDbText
 10
13583.11819016569
 20
9740.013745883729
 30
0.0
 40
100.0
  1
屋根パネル
  7
STYLE1
100
AcDbText
  0
TEXT
  5
155E8
330
747D
100
AcDbEntity
  8
文字
 62
     7
 48
50.0
100
AcDbText
 10
13583.11819016568
 20
9570.013745883729
 30
0.0
 40
100.0
  1
壁パネル
  7
STYLE1
100
AcDbText
  0
TEXT
  5
155E9
330
747D
100
AcDbEntity
  8
文字
 62
     7
 48
50.0
100
AcDbText
 10
13248.77747366447
 20
9570.013745883729
 30
0.0
 40
100.0
  1
10
  7
STYLE1
100
AcDbText
  0
TEXT
  5
155EA
330
747D
100
AcDbEntity
  8
文字
 62
     7
 48
50.0
100
AcDbText
 10
13583.11819016569
 20
10250.01374588373
 30
0.0
 40
100.0
  1
妻板左右
  7
STYLE1
100
AcDbText
  0
TEXT
  5
155EB
330
747D
100
AcDbEntity
  8
文字
 62
     7
 48
50.0
100
AcDbText
 10
13271.19032244792
 20
10420.01374588373
 30
0.0
 40
100.0
  1
5
  7
STYLE1
100
AcDbText
  0
TEXT
  5
155EC
330
747D
100
AcDbEntity
  8
文字
 62
     7
 48
50.0
100
AcDbText
 10
13583.11819016569
 20
10420.01374588373
 30
0.0
 40
100.0
  1
桁後
  7
STYLE1
100
AcDbText
  0
TEXT
  5
155ED
330
747D
100
AcDbEntity
  8
文字
 62
     7
 48
50.0
100
AcDbText
 10
13583.11819016569
 20
10590.01374588373
 30
0.0
 40
100.0
  1
鴨居
  7
STYLE1
100
AcDbText
  0
TEXT
  5
155EE
330
747D
100
AcDbEntity
  8
文字
 62
     7
 48
50.0
100
AcDbText
 10
13583.1181901657
 20
10930.01374588373
 30
0.0
 40
100.0
  1
柱
  7
STYLE1
100
AcDbText
  0
TEXT
  5
155EF
330
747D
100
AcDbEntity
  8
文字
 62
     7
 48
50.0
100
AcDbText
 10
13583.11819016569
 20
11100.01374588373
 30
0.0
 40
100.0
  1
土台枠
  7
STYLE1
100
AcDbText
  0
TEXT
  5
155F0
330
747D
100
AcDbEntity
  8
文字
 62
     7
 48
50.0
100
AcDbText
 10
14859.79774614482
 20
11270.01374588373
 30
0.0
 40
100.0
  1
材料（材質）　　単位mm
  7
STYLE1
100
AcDbText
  0
TEXT
  5
155F1
330
747D
100
AcDbEntity
  8
文字
 62
     7
 48
50.0
100
AcDbText
 10
13732.03840939434
 20
11270.01374588373
 30
0.0
 40
100.0
  1
部　　品　　名
  7
STYLE1
100
AcDbText
  0
TEXT
  5
155F2
330
747D
100
AcDbEntity
  8
文字
 62
     7
 48
50.0
100
AcDbText
 10
13271.19032244792
 20
10760.01374588373
 30
0.0
 40
100.0
  1
3
  7
STYLE1
100
AcDbText
  0
TEXT
  5
155F3
330
747D
100
AcDbEntity
  8
文字
 62
     7
 48
50.0
100
AcDbText
 10
13271.19032244792
 20
10590.01374588373
 30
0.0
 40
100.0
  1
4
  7
STYLE1
100
AcDbText
  0
TEXT
  5
155F4
330
747D
100
AcDbEntity
  8
文字
 62
     7
 48
50.0
100
AcDbText
 10
13271.19032244792
 20
10930.01374588373
 30
0.0
 40
100.0
  1
2
  7
STYLE1
100
AcDbText
  0
TEXT
  5
155F5
330
747D
100
AcDbEntity
  8
文字
 62
     7
 48
50.0
100
AcDbText
 10
13271.19032244792
 20
11100.01374588373
 30
0.0
 40
100.0
  1
1
  7
STYLE1
100
AcDbText
  0
TEXT
  5
155F6
330
747D
100
AcDbEntity
  8
文字
 62
     7
 48
50.0
100
AcDbText
 10
13197.42518560407
 20
11270.01374588373
 30
0.0
 40
100.0
  1
品番
  7
STYLE1
100
AcDbText
  0
LINE
  5
155F7
330
747D
100
AcDbEntity
  8
仕様書枠
 48
50.0
100
AcDbLine
 10
16307.19999999999
 20
10729.6
 30
0.0
 11
13127.19999999999
 21
10729.6
 31
0.0
  0
LINE
  5
155F8
330
747D
100
AcDbEntity
  8
仕様書枠
 48
50.0
100
AcDbLine
 10
16307.19999999999
 20
10389.6
 30
0.0
 11
13127.19999999999
 21
10389.6
 31
0.0
  0
LINE
  5
155F9
330
747D
100
AcDbEntity
  8
仕様書枠
 48
50.0
100
AcDbLine
 10
16307.19999999999
 20
10559.6
 30
0.0
 11
13127.19999999999
 21
10559.6
 31
0.0
  0
LINE
  5
155FA
330
747D
100
AcDbEntity
  8
仕様書枠
 48
50.0
100
AcDbLine
 10
16307.19999999999
 20
11069.6
 30
0.0
 11
13127.2
 21
11069.6
 31
0.0
  0
LINE
  5
155FB
330
747D
100
AcDbEntity
  8
仕様書枠
 48
50.0
100
AcDbLine
 10
16307.19999999999
 20
10899.6
 30
0.0
 11
13127.2
 21
10899.6
 31
0.0
  0
LINE
  5
155FC
330
747D
100
AcDbEntity
  8
仕様書枠
 48
50.0
100
AcDbLine
 10
16307.19999999999
 20
11239.6
 30
0.0
 11
13127.2
 21
11239.6
 31
0.0
  0
LINE
  5
155FD
330
747D
100
AcDbEntity
  8
仕様書枠
 48
50.0
100
AcDbLine
 10
13490.2
 20
11409.6
 30
0.0
 11
13490.20000000001
 21
8859.6
 31
0.0
  0
LINE
  5
155FE
330
747D
100
AcDbEntity
  8
仕様書枠
 48
50.0
100
AcDbLine
 10
14785.2
 20
11409.59999999999
 30
0.0
 11
14785.19999999999
 21
8859.6
 31
0.0
  0
LINE
  5
155FF
330
747D
100
AcDbEntity
  8
仕様書枠
 48
50.0
100
AcDbLine
 10
16307.19999999998
 20
8349.600000000004
 30
0.0
 11
16307.2
 21
11409.6
 31
0.0
  0
LINE
  5
15600
330
747D
100
AcDbEntity
  8
仕様書枠
 48
50.0
100
AcDbLine
 10
16307.19999999999
 20
11409.6
 30
0.0
 11
13127.2
 21
11409.6
 31
0.0
  0
LINE
  5
15601
330
747D
100
AcDbEntity
  8
仕様書枠
 48
50.0
100
AcDbLine
 10
16307.19999999999
 20
10049.6
 30
0.0
 11
13127.19999999999
 21
10049.6
 31
0.0
  0
TEXT
  5
15602
330
747D
100
AcDbEntity
  8
文字
 62
     7
 48
50.0
100
AcDbText
 10
15022.63965474514
 20
9060.013745883722
 30
0.0
 40
100.0
  1
F12            2.3
  7
STYLE1
100
AcDbText
  0
TEXT
  5
15603
330
747D
100
AcDbEntity
  8
文字
 62
     7
 48
50.0
100
AcDbText
 10
13583.11819016568
 20
9060.013745883729
 30
0.0
 40
100.0
  1
アンカープレート
  7
STYLE1
100
AcDbText
  0
TEXT
  5
15604
330
747D
100
AcDbEntity
  8
文字
 62
     7
 48
50.0
100
AcDbText
 10
15022.63965474516
 20
9910.01374588373
 30
0.0
 40
100.0
  1
F12,Y10       0.7+1.0
  7
STYLE1
100
AcDbText
  0
MTEXT
  5
15DD2
330
747D
100
AcDbEntity
  8
寸法
 62
     7
 48
50.0
100
AcDbMText
 10
3899.782671872787
 20
8896.479662645736
 30
0.0
 40
96.0
 41
0.0
 71
     5
 72
     1
  1
棚 2段
  7
STYLE1
 73
     1
 44
1.0
1001
ACAD
1000
MTEXTBEGIN
1070
    73
1070
     1
1070
    44
1040
1.0
1070
    74
1070
     0
1000
MTEXTEND
  0
DIMENSION
  5
15DD3
330
747D
100
AcDbEntity
  8
寸法
 48
50.0
100
AcDbDimension
  2
*D36
 10
3474.502860906811
 20
5857.118862152105
 30
0.0
 11
5934.502860906812
 21
5857.118862152105
 31
0.0
 70
   160
  1
柱外寸法<>
 71
     5
 42
4920.000000000004
  3
INABA_S40G
100
AcDbAlignedDimension
 13
8394.502860906815
 23
5644.577276893864
 33
0.0
 14
3474.502860906811
 24
5644.577276893868
 34
0.0
100
AcDbRotatedDimension
  0
DIMENSION
  5
15DD4
330
747D
100
AcDbEntity
  8
寸法
 48
50.0
100
AcDbDimension
  2
*D37
 10
8444.502860906814
 20
6080.075840589954
 30
0.0
 11
5934.502860906812
 21
6080.075840589954
 31
0.0
 70
   160
 71
     5
 42
5020.000000000004
  3
INABA_S40G
100
AcDbAlignedDimension
 13
3424.502860906811
 23
5644.577276893866
 33
0.0
 14
8444.502860906814
 24
5644.577276893862
 34
0.0
100
AcDbRotatedDimension
  0
DIMENSION
  5
15DD5
330
747D
100
AcDbEntity
  8
寸法
 48
50.0
100
AcDbDimension
  2
*D35
 10
3424.502860906811
 20
5857.118862152105
 30
0.0
 11
3111.017579532563
 21
5857.118862152105
 31
0.0
 70
   160
 71
     5
 42
50.0
  3
INABA_S40G
100
AcDbAlignedDimension
 13
3474.502860906811
 23
5644.577276893868
 33
0.0
 14
3424.502860906811
 24
5644.577276893866
 34
0.0
100
AcDbRotatedDimension
1001
ACAD
1000
DSTYLE
1002
{
1002
}
  0
LINE
  5
15DD6
330
747D
100
AcDbEntity
  8
細線
 48
50.0
100
AcDbLine
 10
3457.502860906811
 20
5644.577276893866
 30
0.0
 11
3457.502860906811
 21
5503.577276893864
 31
0.0
  0
ARC
  5
15DD7
330
747D
100
AcDbEntity
  8
部品1
100
AcDbCircle
 10
3431.911282013236
 20
5637.577276893865
 30
0.0
 40
7.0
100
AcDbArc
 50
90.0
 51
183.2473427903377
  0
ARC
  5
15DD8
330
747D
100
AcDbEntity
  8
部品1
100
AcDbCircle
 10
3445.126605474274
 20
5510.577276893867
 30
0.0
 40
7.0
100
AcDbArc
 50
183.2473427903377
 51
270.0
  0
ARC
  5
15DD9
330
747D
100
AcDbEntity
  8
部品1
 48
50.0
100
AcDbCircle
 10
3426.754795263601
 20
5617.244276055552
 30
0.0
 40
0.7
100
AcDbArc
 50
183.2473427903897
 51
262.3418727924247
  0
ARC
  5
15DDA
330
747D
100
AcDbEntity
  8
部品1
 48
50.0
100
AcDbCircle
 10
3434.990825788438
 20
5525.044276055548
 30
0.0
 40
0.7
100
AcDbArc
 50
183.2473427902856
 51
262.3418727924247
  0
ARC
  5
15DDB
330
747D
100
AcDbEntity
  8
部品1
 48
50.0
100
AcDbCircle
 10
3434.497756679877
 20
5521.377276893865
 30
0.0
 40
3.0
100
AcDbArc
 50
3.247342790337682
 51
82.34187279284483
  0
ARC
  5
15DDC
330
747D
100
AcDbEntity
  8
部品1
 48
50.0
100
AcDbCircle
 10
3426.261726155033
 20
5613.577276893865
 30
0.0
 40
3.0
100
AcDbArc
 50
3.247342790337682
 51
82.34187279284483
  0
LINE
  5
15DDD
330
747D
100
AcDbEntity
  8
部品1
100
AcDbLine
 10
3429.256909051219
 20
5613.747216348969
 30
0.0
 11
3434.291949779327
 21
5525.004623516025
 31
0.0
  0
LINE
  5
15DDE
330
747D
100
AcDbEntity
  8
部品1
100
AcDbLine
 10
3437.492939576063
 20
5521.547216348968
 30
0.0
 11
3438.137845383179
 21
5510.180751498626
 31
0.0
  0
LINE
  5
15DDF
330
747D
100
AcDbEntity
  8
部品1
100
AcDbLine
 10
3424.922521922141
 20
5637.180751498624
 30
0.0
 11
3426.05591925449
 21
5617.204623516026
 31
0.0
  0
LINE
  5
15DE0
330
747D
100
AcDbEntity
  8
部品1
 48
50.0
100
AcDbLine
 10
8437.094439800381
 20
5644.577276893862
 30
0.0
 11
3431.911282013236
 21
5644.577276893862
 31
0.0
  0
LINE
  5
15DE1
330
747D
100
AcDbEntity
  8
細線
 48
50.0
100
AcDbLine
 10
8442.344209891981
 20
5616.550519457265
 30
0.0
 11
3426.661511917228
 21
5616.55051945786
 31
0.0
  0
LINE
  5
15DE2
330
747D
100
AcDbEntity
  8
細線
 48
50.0
100
AcDbLine
 10
8434.108179367198
 20
5524.350519457271
 30
0.0
 11
3434.897542442057
 21
5524.35051945786
 31
0.0
  0
LINE
  5
15DE3
330
747D
100
AcDbEntity
  8
部品1
 48
50.0
100
AcDbLine
 10
8423.879116339348
 20
5503.577276893858
 30
0.0
 11
3445.126605474274
 21
5503.577276893864
 31
0.0
  0
DIMENSION
  5
15E27
330
747D
100
AcDbEntity
  8
寸法
 48
50.0
100
AcDbDimension
  2
*D38
 10
8394.502860906815
 20
5857.118862152103
 30
0.0
 11
8757.98814228105
 21
5857.118862152103
 31
0.0
 70
   160
 71
     5
 42
50.0
  3
INABA_S40G
100
AcDbAlignedDimension
 13
8444.502860906814
 23
5644.577276893862
 33
0.0
 14
8394.502860906815
 24
5644.577276893864
 34
0.0
100
AcDbRotatedDimension
  0
LINE
  5
15E28
330
747D
100
AcDbEntity
  8
部品1
100
AcDbLine
 10
8444.08319989148
 20
5637.180751498623
 30
0.0
 11
8442.949802559134
 21
5617.204623516023
 31
0.0
  0
LINE
  5
15E29
330
747D
100
AcDbEntity
  8
細線
 48
50.0
100
AcDbLine
 10
8411.502860906814
 20
5644.577276893862
 30
0.0
 11
8411.502860906814
 21
5503.577276893862
 31
0.0
  0
LINE
  5
15E2A
330
747D
100
AcDbEntity
  8
部品1
100
AcDbLine
 10
8431.512782237559
 20
5521.547216348965
 30
0.0
 11
8430.867876430445
 21
5510.180751498625
 31
0.0
  0
LINE
  5
15E2B
330
747D
100
AcDbEntity
  8
部品1
100
AcDbLine
 10
8439.748812762401
 20
5613.747216348965
 30
0.0
 11
8434.713772034291
 21
5525.004623516022
 31
0.0
  0
ARC
  5
15E2C
330
747D
100
AcDbEntity
  8
部品1
 48
50.0
100
AcDbCircle
 10
8442.743995658586
 20
5613.577276893864
 30
0.0
 40
3.0
100
AcDbArc
 50
97.65812720715516
 51
176.7526572096623
  0
ARC
  5
15E2D
330
747D
100
AcDbEntity
  8
部品1
 48
50.0
100
AcDbCircle
 10
8434.507965133745
 20
5521.377276893861
 30
0.0
 40
3.0
100
AcDbArc
 50
97.65812720715516
 51
176.7526572096623
  0
ARC
  5
15E2E
330
747D
100
AcDbEntity
  8
部品1
 48
50.0
100
AcDbCircle
 10
8434.014896025182
 20
5525.044276055545
 30
0.0
 40
0.7
100
AcDbArc
 50
277.6581272075753
 51
356.7526572097143
  0
ARC
  5
15E2F
330
747D
100
AcDbEntity
  8
部品1
 48
50.0
100
AcDbCircle
 10
8442.250926550027
 20
5617.24427605555
 30
0.0
 40
0.7
100
AcDbArc
 50
277.6581272075753
 51
356.7526572096103
  0
ARC
  5
15E30
330
747D
100
AcDbEntity
  8
部品1
100
AcDbCircle
 10
8423.879116339348
 20
5510.577276893864
 30
0.0
 40
7.0
100
AcDbArc
 50
270.0
 51
356.7526572096623
  0
ARC
  5
15E31
330
747D
100
AcDbEntity
  8
部品1
100
AcDbCircle
 10
8437.094439800381
 20
5637.577276893862
 30
0.0
 40
7.0
100
AcDbArc
 50
356.7526572096623
 51
90.0
  0
ARC
  5
15E70
330
747D
100
AcDbEntity
  8
部品1
 48
0.01
100
AcDbCircle
 10
3972.502860906818
 20
5442.077276893859
 30
0.0
 40
2.0
100
AcDbArc
 50
270.0
 51
0.0
  0
ARC
  5
15E71
330
747D
100
AcDbEntity
  8
部品1
 48
0.01
100
AcDbCircle
 10
3972.502860906818
 20
5473.577276893859
 30
0.0
 40
2.0
100
AcDbArc
 50
0.0
 51
90.0
  0
ARC
  5
15E72
330
747D
100
AcDbEntity
  8
部品1
 48
0.01
100
AcDbCircle
 10
3796.502860906818
 20
5442.077276893859
 30
0.0
 40
2.0
100
AcDbArc
 50
180.0
 51
270.0
  0
ARC
  5
15E73
330
747D
100
AcDbEntity
  8
部品1
 48
0.01
100
AcDbCircle
 10
3796.502860906818
 20
5473.577276893859
 30
0.0
 40
2.0
100
AcDbArc
 50
90.0
 51
180.0
  0
LINE
  5
15E74
330
747D
100
AcDbEntity
  8
細線
100
AcDbLine
 10
3884.502860906818
 20
5446.077276893859
 30
0.0
 11
3958.502860906818
 21
5446.077276893859
 31
0.0
  0
LINE
  5
15E75
330
747D
100
AcDbEntity
  8
細線
100
AcDbLine
 10
3884.502860906818
 20
5469.077276893859
 30
0.0
 11
3810.502860906818
 21
5469.077276893859
 31
0.0
  0
LINE
  5
15E76
330
747D
100
AcDbEntity
  8
細線
100
AcDbLine
 10
3810.502860906818
 20
5446.077276893859
 30
0.0
 11
3884.502860906818
 21
5446.077276893859
 31
0.0
  0
LINE
  5
15E77
330
747D
100
AcDbEntity
  8
細線
100
AcDbLine
 10
3958.502860906818
 20
5469.077276893859
 30
0.0
 11
3884.502860906818
 21
5469.077276893859
 31
0.0
  0
LINE
  5
15E78
330
747D
100
AcDbEntity
  8
細線
100
AcDbLine
 10
3958.502860906818
 20
5446.077276893859
 30
0.0
 11
3958.502860906818
 21
5469.077276893859
 31
0.0
  0
LINE
  5
15E79
330
747D
100
AcDbEntity
  8
細線
100
AcDbLine
 10
3810.502860906818
 20
5469.077276893859
 30
0.0
 11
3810.502860906818
 21
5446.077276893859
 31
0.0
  0
LINE
  5
15E7A
330
747D
100
AcDbEntity
  8
部品1
 48
0.01
100
AcDbLine
 10
3974.502860906818
 20
5442.077276893859
 30
0.0
 11
3974.502860906818
 21
5473.577276893859
 31
0.0
  0
LINE
  5
15E7B
330
747D
100
AcDbEntity
  8
部品1
 48
0.01
100
AcDbLine
 10
3796.502860906818
 20
5440.077276893859
 30
0.0
 11
3972.502860906818
 21
5440.077276893859
 31
0.0
  0
LINE
  5
15E7C
330
747D
100
AcDbEntity
  8
部品1
 48
0.01
100
AcDbLine
 10
3794.502860906817
 20
5473.577276893859
 30
0.0
 11
3794.502860906817
 21
5442.077276893859
 31
0.0
  0
LINE
  5
15E7D
330
747D
100
AcDbEntity
  8
部品1
 48
0.01
100
AcDbLine
 10
3972.502860906818
 20
5475.577276893858
 30
0.0
 11
3796.502860906818
 21
5475.577276893858
 31
0.0
  0
LINE
  5
15E7E
330
747D
100
AcDbEntity
  8
細線
100
AcDbLine
 10
3810.502860906818
 20
5463.077276893859
 30
0.0
 11
3884.502860906818
 21
5463.077276893859
 31
0.0
  0
LINE
  5
15E7F
330
747D
100
AcDbEntity
  8
細線
100
AcDbLine
 10
3810.502860906818
 20
5457.077276893858
 30
0.0
 11
3884.502860906818
 21
5457.077276893858
 31
0.0
  0
LINE
  5
15E80
330
747D
100
AcDbEntity
  8
細線
100
AcDbLine
 10
3810.502860906818
 20
5451.077276893858
 30
0.0
 11
3884.502860906818
 21
5451.077276893858
 31
0.0
  0
LINE
  5
15E81
330
747D
100
AcDbEntity
  8
細線
100
AcDbLine
 10
3810.502860906818
 20
5463.077276893859
 30
0.0
 11
3879.502860906818
 21
5463.077276893859
 31
0.0
  0
LINE
  5
15E82
330
747D
100
AcDbEntity
  8
細線
100
AcDbLine
 10
3958.502860906818
 20
5463.077276893859
 30
0.0
 11
3884.502860906818
 21
5463.077276893859
 31
0.0
  0
LINE
  5
15E83
330
747D
100
AcDbEntity
  8
細線
100
AcDbLine
 10
3958.502860906818
 20
5451.077276893858
 30
0.0
 11
3884.502860906818
 21
5451.077276893858
 31
0.0
  0
LINE
  5
15E84
330
747D
100
AcDbEntity
  8
細線
100
AcDbLine
 10
3958.502860906818
 20
5457.077276893858
 30
0.0
 11
3884.502860906818
 21
5457.077276893858
 31
0.0
  0
LINE
  5
15E85
330
747D
100
AcDbEntity
  8
細線
100
AcDbLine
 10
3884.502860906818
 20
5469.077276893859
 30
0.0
 11
3884.502860906818
 21
5446.077276893859
 31
0.0
  0
LINE
  5
15E86
330
747D
100
AcDbEntity
  8
細線
100
AcDbLine
 10
4704.502860906817
 20
5469.077276893859
 30
0.0
 11
4704.502860906817
 21
5446.077276893859
 31
0.0
  0
LINE
  5
15E87
330
747D
100
AcDbEntity
  8
細線
100
AcDbLine
 10
4778.502860906818
 20
5457.077276893858
 30
0.0
 11
4704.502860906817
 21
5457.077276893858
 31
0.0
  0
LINE
  5
15E88
330
747D
100
AcDbEntity
  8
細線
100
AcDbLine
 10
4778.502860906818
 20
5451.077276893858
 30
0.0
 11
4704.502860906817
 21
5451.077276893858
 31
0.0
  0
LINE
  5
15E89
330
747D
100
AcDbEntity
  8
細線
100
AcDbLine
 10
4778.502860906818
 20
5463.077276893859
 30
0.0
 11
4704.502860906817
 21
5463.077276893859
 31
0.0
  0
LINE
  5
15E8A
330
747D
100
AcDbEntity
  8
細線
100
AcDbLine
 10
4630.502860906818
 20
5463.077276893859
 30
0.0
 11
4699.502860906817
 21
5463.077276893859
 31
0.0
  0
LINE
  5
15E8B
330
747D
100
AcDbEntity
  8
細線
100
AcDbLine
 10
4630.502860906818
 20
5451.077276893858
 30
0.0
 11
4704.502860906817
 21
5451.077276893858
 31
0.0
  0
LINE
  5
15E8C
330
747D
100
AcDbEntity
  8
細線
100
AcDbLine
 10
4630.502860906818
 20
5457.077276893858
 30
0.0
 11
4704.502860906817
 21
5457.077276893858
 31
0.0
  0
LINE
  5
15E8D
330
747D
100
AcDbEntity
  8
細線
100
AcDbLine
 10
4630.502860906818
 20
5463.077276893859
 30
0.0
 11
4704.502860906817
 21
5463.077276893859
 31
0.0
  0
LINE
  5
15E8E
330
747D
100
AcDbEntity
  8
部品1
 48
0.01
100
AcDbLine
 10
4792.502860906817
 20
5475.577276893858
 30
0.0
 11
4616.502860906818
 21
5475.577276893858
 31
0.0
  0
LINE
  5
15E8F
330
747D
100
AcDbEntity
  8
部品1
 48
0.01
100
AcDbLine
 10
4614.502860906817
 20
5473.577276893859
 30
0.0
 11
4614.502860906817
 21
5442.077276893859
 31
0.0
  0
LINE
  5
15E90
330
747D
100
AcDbEntity
  8
部品1
 48
0.01
100
AcDbLine
 10
4616.502860906818
 20
5440.077276893859
 30
0.0
 11
4792.502860906817
 21
5440.077276893859
 31
0.0
  0
LINE
  5
15E91
330
747D
100
AcDbEntity
  8
部品1
 48
0.01
100
AcDbLine
 10
4794.502860906817
 20
5442.077276893859
 30
0.0
 11
4794.502860906817
 21
5473.577276893859
 31
0.0
  0
LINE
  5
15E92
330
747D
100
AcDbEntity
  8
細線
100
AcDbLine
 10
4630.502860906818
 20
5469.077276893859
 30
0.0
 11
4630.502860906818
 21
5446.077276893859
 31
0.0
  0
LINE
  5
15E93
330
747D
100
AcDbEntity
  8
細線
100
AcDbLine
 10
4778.502860906818
 20
5446.077276893859
 30
0.0
 11
4778.502860906818
 21
5469.077276893859
 31
0.0
  0
LINE
  5
15E94
330
747D
100
AcDbEntity
  8
細線
100
AcDbLine
 10
4778.502860906818
 20
5469.077276893859
 30
0.0
 11
4704.502860906817
 21
5469.077276893859
 31
0.0
  0
LINE
  5
15E95
330
747D
100
AcDbEntity
  8
細線
100
AcDbLine
 10
4630.502860906818
 20
5446.077276893859
 30
0.0
 11
4704.502860906817
 21
5446.077276893859
 31
0.0
  0
LINE
  5
15E96
330
747D
100
AcDbEntity
  8
細線
100
AcDbLine
 10
4704.502860906817
 20
5469.077276893859
 30
0.0
 11
4630.502860906818
 21
5469.077276893859
 31
0.0
  0
LINE
  5
15E97
330
747D
100
AcDbEntity
  8
細線
100
AcDbLine
 10
4704.502860906817
 20
5446.077276893859
 30
0.0
 11
4778.502860906818
 21
5446.077276893859
 31
0.0
  0
ARC
  5
15E98
330
747D
100
AcDbEntity
  8
部品1
 48
0.01
100
AcDbCircle
 10
4616.502860906818
 20
5473.577276893859
 30
0.0
 40
2.0
100
AcDbArc
 50
90.0
 51
180.0
  0
ARC
  5
15E99
330
747D
100
AcDbEntity
  8
部品1
 48
0.01
100
AcDbCircle
 10
4616.502860906818
 20
5442.077276893859
 30
0.0
 40
2.0
100
AcDbArc
 50
180.0
 51
270.0
  0
ARC
  5
15E9A
330
747D
100
AcDbEntity
  8
部品1
 48
0.01
100
AcDbCircle
 10
4792.502860906817
 20
5473.577276893859
 30
0.0
 40
2.0
100
AcDbArc
 50
0.0
 51
90.0
  0
ARC
  5
15E9B
330
747D
100
AcDbEntity
  8
部品1
 48
0.01
100
AcDbCircle
 10
4792.502860906817
 20
5442.077276893859
 30
0.0
 40
2.0
100
AcDbArc
 50
270.0
 51
0.0
  0
ARC
  5
15E9C
330
747D
100
AcDbEntity
  8
部品1
 48
0.01
100
AcDbCircle
 10
5612.502860906818
 20
5442.077276893859
 30
0.0
 40
2.0
100
AcDbArc
 50
270.0
 51
0.0
  0
ARC
  5
15E9D
330
747D
100
AcDbEntity
  8
部品1
 48
0.01
100
AcDbCircle
 10
5612.502860906818
 20
5473.577276893859
 30
0.0
 40
2.0
100
AcDbArc
 50
0.0
 51
90.0
  0
ARC
  5
15E9E
330
747D
100
AcDbEntity
  8
部品1
 48
0.01
100
AcDbCircle
 10
5436.502860906817
 20
5442.077276893859
 30
0.0
 40
2.0
100
AcDbArc
 50
180.0
 51
270.0
  0
ARC
  5
15E9F
330
747D
100
AcDbEntity
  8
部品1
 48
0.01
100
AcDbCircle
 10
5436.502860906817
 20
5473.577276893859
 30
0.0
 40
2.0
100
AcDbArc
 50
90.0
 51
180.0
  0
LINE
  5
15EA0
330
747D
100
AcDbEntity
  8
細線
100
AcDbLine
 10
5524.502860906817
 20
5446.077276893859
 30
0.0
 11
5598.502860906818
 21
5446.077276893859
 31
0.0
  0
LINE
  5
15EA1
330
747D
100
AcDbEntity
  8
細線
100
AcDbLine
 10
5524.502860906817
 20
5469.077276893859
 30
0.0
 11
5450.502860906818
 21
5469.077276893859
 31
0.0
  0
LINE
  5
15EA2
330
747D
100
AcDbEntity
  8
細線
100
AcDbLine
 10
5450.502860906818
 20
5446.077276893859
 30
0.0
 11
5524.502860906817
 21
5446.077276893859
 31
0.0
  0
LINE
  5
15EA3
330
747D
100
AcDbEntity
  8
細線
100
AcDbLine
 10
5598.502860906818
 20
5469.077276893859
 30
0.0
 11
5524.502860906817
 21
5469.077276893859
 31
0.0
  0
LINE
  5
15EA4
330
747D
100
AcDbEntity
  8
細線
100
AcDbLine
 10
5598.502860906818
 20
5446.077276893859
 30
0.0
 11
5598.502860906818
 21
5469.077276893859
 31
0.0
  0
LINE
  5
15EA5
330
747D
100
AcDbEntity
  8
細線
100
AcDbLine
 10
5450.502860906818
 20
5469.077276893859
 30
0.0
 11
5450.502860906818
 21
5446.077276893859
 31
0.0
  0
LINE
  5
15EA6
330
747D
100
AcDbEntity
  8
部品1
 48
0.01
100
AcDbLine
 10
5614.502860906817
 20
5442.077276893859
 30
0.0
 11
5614.502860906817
 21
5473.577276893859
 31
0.0
  0
LINE
  5
15EA7
330
747D
100
AcDbEntity
  8
部品1
 48
0.01
100
AcDbLine
 10
5436.502860906817
 20
5440.077276893859
 30
0.0
 11
5612.502860906818
 21
5440.077276893859
 31
0.0
  0
LINE
  5
15EA8
330
747D
100
AcDbEntity
  8
部品1
 48
0.01
100
AcDbLine
 10
5434.502860906818
 20
5473.577276893859
 30
0.0
 11
5434.502860906818
 21
5442.077276893859
 31
0.0
  0
LINE
  5
15EA9
330
747D
100
AcDbEntity
  8
部品1
 48
0.01
100
AcDbLine
 10
5612.502860906818
 20
5475.577276893858
 30
0.0
 11
5436.502860906817
 21
5475.577276893858
 31
0.0
  0
LINE
  5
15EAA
330
747D
100
AcDbEntity
  8
細線
100
AcDbLine
 10
5450.502860906818
 20
5463.077276893859
 30
0.0
 11
5524.502860906817
 21
5463.077276893859
 31
0.0
  0
LINE
  5
15EAB
330
747D
100
AcDbEntity
  8
細線
100
AcDbLine
 10
5450.502860906818
 20
5457.077276893858
 30
0.0
 11
5524.502860906817
 21
5457.077276893858
 31
0.0
  0
LINE
  5
15EAC
330
747D
100
AcDbEntity
  8
細線
100
AcDbLine
 10
5450.502860906818
 20
5451.077276893858
 30
0.0
 11
5524.502860906817
 21
5451.077276893858
 31
0.0
  0
LINE
  5
15EAD
330
747D
100
AcDbEntity
  8
細線
100
AcDbLine
 10
5450.502860906818
 20
5463.077276893859
 30
0.0
 11
5519.502860906817
 21
5463.077276893859
 31
0.0
  0
LINE
  5
15EAE
330
747D
100
AcDbEntity
  8
細線
100
AcDbLine
 10
5598.502860906818
 20
5463.077276893859
 30
0.0
 11
5524.502860906817
 21
5463.077276893859
 31
0.0
  0
LINE
  5
15EAF
330
747D
100
AcDbEntity
  8
細線
100
AcDbLine
 10
5598.502860906818
 20
5451.077276893858
 30
0.0
 11
5524.502860906817
 21
5451.077276893858
 31
0.0
  0
LINE
  5
15EB0
330
747D
100
AcDbEntity
  8
細線
100
AcDbLine
 10
5598.502860906818
 20
5457.077276893858
 30
0.0
 11
5524.502860906817
 21
5457.077276893858
 31
0.0
  0
LINE
  5
15EB1
330
747D
100
AcDbEntity
  8
細線
100
AcDbLine
 10
5524.502860906817
 20
5469.077276893859
 30
0.0
 11
5524.502860906817
 21
5446.077276893859
 31
0.0
  0
LINE
  5
15EB2
330
747D
100
AcDbEntity
  8
細線
100
AcDbLine
 10
6344.502860906818
 20
5469.077276893859
 30
0.0
 11
6344.502860906818
 21
5446.077276893859
 31
0.0
  0
LINE
  5
15EB3
330
747D
100
AcDbEntity
  8
細線
100
AcDbLine
 10
6418.502860906818
 20
5457.077276893858
 30
0.0
 11
6344.502860906818
 21
5457.077276893858
 31
0.0
  0
LINE
  5
15EB4
330
747D
100
AcDbEntity
  8
細線
100
AcDbLine
 10
6418.502860906818
 20
5451.077276893858
 30
0.0
 11
6344.502860906818
 21
5451.077276893858
 31
0.0
  0
LINE
  5
15EB5
330
747D
100
AcDbEntity
  8
細線
100
AcDbLine
 10
6418.502860906818
 20
5463.077276893859
 30
0.0
 11
6344.502860906818
 21
5463.077276893859
 31
0.0
  0
LINE
  5
15EB6
330
747D
100
AcDbEntity
  8
細線
100
AcDbLine
 10
6270.502860906818
 20
5463.077276893859
 30
0.0
 11
6339.502860906818
 21
5463.077276893859
 31
0.0
  0
LINE
  5
15EB7
330
747D
100
AcDbEntity
  8
細線
100
AcDbLine
 10
6270.502860906818
 20
5451.077276893858
 30
0.0
 11
6344.502860906818
 21
5451.077276893858
 31
0.0
  0
LINE
  5
15EB8
330
747D
100
AcDbEntity
  8
細線
100
AcDbLine
 10
6270.502860906818
 20
5457.077276893858
 30
0.0
 11
6344.502860906818
 21
5457.077276893858
 31
0.0
  0
LINE
  5
15EB9
330
747D
100
AcDbEntity
  8
細線
100
AcDbLine
 10
6270.502860906818
 20
5463.077276893859
 30
0.0
 11
6344.502860906818
 21
5463.077276893859
 31
0.0
  0
LINE
  5
15EBA
330
747D
100
AcDbEntity
  8
部品1
 48
0.01
100
AcDbLine
 10
6432.502860906819
 20
5475.577276893858
 30
0.0
 11
6256.502860906818
 21
5475.577276893858
 31
0.0
  0
LINE
  5
15EBB
330
747D
100
AcDbEntity
  8
部品1
 48
0.01
100
AcDbLine
 10
6254.502860906818
 20
5473.577276893859
 30
0.0
 11
6254.502860906818
 21
5442.077276893859
 31
0.0
  0
LINE
  5
15EBC
330
747D
100
AcDbEntity
  8
部品1
 48
0.01
100
AcDbLine
 10
6256.502860906818
 20
5440.077276893859
 30
0.0
 11
6432.502860906819
 21
5440.077276893859
 31
0.0
  0
LINE
  5
15EBD
330
747D
100
AcDbEntity
  8
部品1
 48
0.01
100
AcDbLine
 10
6434.502860906818
 20
5442.077276893859
 30
0.0
 11
6434.502860906818
 21
5473.577276893859
 31
0.0
  0
LINE
  5
15EBE
330
747D
100
AcDbEntity
  8
細線
100
AcDbLine
 10
6270.502860906818
 20
5469.077276893859
 30
0.0
 11
6270.502860906818
 21
5446.077276893859
 31
0.0
  0
LINE
  5
15EBF
330
747D
100
AcDbEntity
  8
細線
100
AcDbLine
 10
6418.502860906818
 20
5446.077276893859
 30
0.0
 11
6418.502860906818
 21
5469.077276893859
 31
0.0
  0
LINE
  5
15EC0
330
747D
100
AcDbEntity
  8
細線
100
AcDbLine
 10
6418.502860906818
 20
5469.077276893859
 30
0.0
 11
6344.502860906818
 21
5469.077276893859
 31
0.0
  0
LINE
  5
15EC1
330
747D
100
AcDbEntity
  8
細線
100
AcDbLine
 10
6270.502860906818
 20
5446.077276893859
 30
0.0
 11
6344.502860906818
 21
5446.077276893859
 31
0.0
  0
LINE
  5
15EC2
330
747D
100
AcDbEntity
  8
細線
100
AcDbLine
 10
6344.502860906818
 20
5469.077276893859
 30
0.0
 11
6270.502860906818
 21
5469.077276893859
 31
0.0
  0
LINE
  5
15EC3
330
747D
100
AcDbEntity
  8
細線
100
AcDbLine
 10
6344.502860906818
 20
5446.077276893859
 30
0.0
 11
6418.502860906818
 21
5446.077276893859
 31
0.0
  0
ARC
  5
15EC4
330
747D
100
AcDbEntity
  8
部品1
 48
0.01
100
AcDbCircle
 10
6256.502860906818
 20
5473.577276893859
 30
0.0
 40
2.0
100
AcDbArc
 50
90.0
 51
180.0
  0
ARC
  5
15EC5
330
747D
100
AcDbEntity
  8
部品1
 48
0.01
100
AcDbCircle
 10
6256.502860906818
 20
5442.077276893859
 30
0.0
 40
2.0
100
AcDbArc
 50
180.0
 51
270.0
  0
ARC
  5
15EC6
330
747D
100
AcDbEntity
  8
部品1
 48
0.01
100
AcDbCircle
 10
6432.502860906819
 20
5473.577276893859
 30
0.0
 40
2.0
100
AcDbArc
 50
0.0
 51
90.0
  0
ARC
  5
15EC7
330
747D
100
AcDbEntity
  8
部品1
 48
0.01
100
AcDbCircle
 10
6432.502860906819
 20
5442.077276893859
 30
0.0
 40
2.0
100
AcDbArc
 50
270.0
 51
0.0
  0
ARC
  5
15EC8
330
747D
100
AcDbEntity
  8
部品1
 48
0.01
100
AcDbCircle
 10
7252.502860906817
 20
5442.077276893859
 30
0.0
 40
2.0
100
AcDbArc
 50
270.0
 51
0.0
  0
ARC
  5
15EC9
330
747D
100
AcDbEntity
  8
部品1
 48
0.01
100
AcDbCircle
 10
7252.502860906817
 20
5473.577276893859
 30
0.0
 40
2.0
100
AcDbArc
 50
0.0
 51
90.0
  0
ARC
  5
15ECA
330
747D
100
AcDbEntity
  8
部品1
 48
0.01
100
AcDbCircle
 10
7076.502860906818
 20
5442.077276893859
 30
0.0
 40
2.0
100
AcDbArc
 50
180.0
 51
270.0
  0
ARC
  5
15ECB
330
747D
100
AcDbEntity
  8
部品1
 48
0.01
100
AcDbCircle
 10
7076.502860906818
 20
5473.577276893859
 30
0.0
 40
2.0
100
AcDbArc
 50
90.0
 51
180.0
  0
LINE
  5
15ECC
330
747D
100
AcDbEntity
  8
細線
100
AcDbLine
 10
7164.502860906818
 20
5446.077276893859
 30
0.0
 11
7238.502860906817
 21
5446.077276893859
 31
0.0
  0
LINE
  5
15ECD
330
747D
100
AcDbEntity
  8
細線
100
AcDbLine
 10
7164.502860906818
 20
5469.077276893859
 30
0.0
 11
7090.502860906818
 21
5469.077276893859
 31
0.0
  0
LINE
  5
15ECE
330
747D
100
AcDbEntity
  8
細線
100
AcDbLine
 10
7090.502860906818
 20
5446.077276893859
 30
0.0
 11
7164.502860906818
 21
5446.077276893859
 31
0.0
  0
LINE
  5
15ECF
330
747D
100
AcDbEntity
  8
細線
100
AcDbLine
 10
7238.502860906817
 20
5469.077276893859
 30
0.0
 11
7164.502860906818
 21
5469.077276893859
 31
0.0
  0
LINE
  5
15ED0
330
747D
100
AcDbEntity
  8
細線
100
AcDbLine
 10
7238.502860906817
 20
5446.077276893859
 30
0.0
 11
7238.502860906817
 21
5469.077276893859
 31
0.0
  0
LINE
  5
15ED1
330
747D
100
AcDbEntity
  8
細線
100
AcDbLine
 10
7090.502860906818
 20
5469.077276893859
 30
0.0
 11
7090.502860906818
 21
5446.077276893859
 31
0.0
  0
LINE
  5
15ED2
330
747D
100
AcDbEntity
  8
部品1
 48
0.01
100
AcDbLine
 10
7254.502860906818
 20
5442.077276893859
 30
0.0
 11
7254.502860906818
 21
5473.577276893859
 31
0.0
  0
LINE
  5
15ED3
330
747D
100
AcDbEntity
  8
部品1
 48
0.01
100
AcDbLine
 10
7076.502860906818
 20
5440.077276893859
 30
0.0
 11
7252.502860906817
 21
5440.077276893859
 31
0.0
  0
LINE
  5
15ED4
330
747D
100
AcDbEntity
  8
部品1
 48
0.01
100
AcDbLine
 10
7074.502860906817
 20
5473.577276893859
 30
0.0
 11
7074.502860906817
 21
5442.077276893859
 31
0.0
  0
LINE
  5
15ED5
330
747D
100
AcDbEntity
  8
部品1
 48
0.01
100
AcDbLine
 10
7252.502860906817
 20
5475.577276893858
 30
0.0
 11
7076.502860906818
 21
5475.577276893858
 31
0.0
  0
LINE
  5
15ED6
330
747D
100
AcDbEntity
  8
細線
100
AcDbLine
 10
7090.502860906818
 20
5463.077276893859
 30
0.0
 11
7164.502860906818
 21
5463.077276893859
 31
0.0
  0
LINE
  5
15ED7
330
747D
100
AcDbEntity
  8
細線
100
AcDbLine
 10
7090.502860906818
 20
5457.077276893858
 30
0.0
 11
7164.502860906818
 21
5457.077276893858
 31
0.0
  0
LINE
  5
15ED8
330
747D
100
AcDbEntity
  8
細線
100
AcDbLine
 10
7090.502860906818
 20
5451.077276893858
 30
0.0
 11
7164.502860906818
 21
5451.077276893858
 31
0.0
  0
LINE
  5
15ED9
330
747D
100
AcDbEntity
  8
細線
100
AcDbLine
 10
7090.502860906818
 20
5463.077276893859
 30
0.0
 11
7159.502860906818
 21
5463.077276893859
 31
0.0
  0
LINE
  5
15EDA
330
747D
100
AcDbEntity
  8
細線
100
AcDbLine
 10
7238.502860906817
 20
5463.077276893859
 30
0.0
 11
7164.502860906818
 21
5463.077276893859
 31
0.0
  0
LINE
  5
15EDB
330
747D
100
AcDbEntity
  8
細線
100
AcDbLine
 10
7238.502860906817
 20
5451.077276893858
 30
0.0
 11
7164.502860906818
 21
5451.077276893858
 31
0.0
  0
LINE
  5
15EDC
330
747D
100
AcDbEntity
  8
細線
100
AcDbLine
 10
7238.502860906817
 20
5457.077276893858
 30
0.0
 11
7164.502860906818
 21
5457.077276893858
 31
0.0
  0
LINE
  5
15EDD
330
747D
100
AcDbEntity
  8
細線
100
AcDbLine
 10
7164.502860906818
 20
5469.077276893859
 30
0.0
 11
7164.502860906818
 21
5446.077276893859
 31
0.0
  0
LINE
  5
15EDE
330
747D
100
AcDbEntity
  8
細線
100
AcDbLine
 10
7984.502860906818
 20
5469.077276893859
 30
0.0
 11
7984.502860906818
 21
5446.077276893859
 31
0.0
  0
LINE
  5
15EDF
330
747D
100
AcDbEntity
  8
細線
100
AcDbLine
 10
8058.502860906818
 20
5457.077276893858
 30
0.0
 11
7984.502860906818
 21
5457.077276893858
 31
0.0
  0
LINE
  5
15EE0
330
747D
100
AcDbEntity
  8
細線
100
AcDbLine
 10
8058.502860906818
 20
5451.077276893858
 30
0.0
 11
7984.502860906818
 21
5451.077276893858
 31
0.0
  0
LINE
  5
15EE1
330
747D
100
AcDbEntity
  8
細線
100
AcDbLine
 10
8058.502860906818
 20
5463.077276893859
 30
0.0
 11
7984.502860906818
 21
5463.077276893859
 31
0.0
  0
LINE
  5
15EE2
330
747D
100
AcDbEntity
  8
細線
100
AcDbLine
 10
7910.502860906818
 20
5463.077276893859
 30
0.0
 11
7979.502860906818
 21
5463.077276893859
 31
0.0
  0
LINE
  5
15EE3
330
747D
100
AcDbEntity
  8
細線
100
AcDbLine
 10
7910.502860906818
 20
5451.077276893858
 30
0.0
 11
7984.502860906818
 21
5451.077276893858
 31
0.0
  0
LINE
  5
15EE4
330
747D
100
AcDbEntity
  8
細線
100
AcDbLine
 10
7910.502860906818
 20
5457.077276893858
 30
0.0
 11
7984.502860906818
 21
5457.077276893858
 31
0.0
  0
LINE
  5
15EE5
330
747D
100
AcDbEntity
  8
細線
100
AcDbLine
 10
7910.502860906818
 20
5463.077276893859
 30
0.0
 11
7984.502860906818
 21
5463.077276893859
 31
0.0
  0
LINE
  5
15EE6
330
747D
100
AcDbEntity
  8
部品1
 48
0.01
100
AcDbLine
 10
8072.502860906817
 20
5475.577276893858
 30
0.0
 11
7896.502860906818
 21
5475.577276893858
 31
0.0
  0
LINE
  5
15EE7
330
747D
100
AcDbEntity
  8
部品1
 48
0.01
100
AcDbLine
 10
7894.502860906817
 20
5473.577276893859
 30
0.0
 11
7894.502860906817
 21
5442.077276893859
 31
0.0
  0
LINE
  5
15EE8
330
747D
100
AcDbEntity
  8
部品1
 48
0.01
100
AcDbLine
 10
7896.502860906818
 20
5440.077276893859
 30
0.0
 11
8072.502860906817
 21
5440.077276893859
 31
0.0
  0
LINE
  5
15EE9
330
747D
100
AcDbEntity
  8
部品1
 48
0.01
100
AcDbLine
 10
8074.502860906816
 20
5442.077276893859
 30
0.0
 11
8074.502860906816
 21
5473.577276893859
 31
0.0
  0
LINE
  5
15EEA
330
747D
100
AcDbEntity
  8
細線
100
AcDbLine
 10
7910.502860906818
 20
5469.077276893859
 30
0.0
 11
7910.502860906818
 21
5446.077276893859
 31
0.0
  0
LINE
  5
15EEB
330
747D
100
AcDbEntity
  8
細線
100
AcDbLine
 10
8058.502860906818
 20
5446.077276893859
 30
0.0
 11
8058.502860906818
 21
5469.077276893859
 31
0.0
  0
LINE
  5
15EEC
330
747D
100
AcDbEntity
  8
細線
100
AcDbLine
 10
8058.502860906818
 20
5469.077276893859
 30
0.0
 11
7984.502860906818
 21
5469.077276893859
 31
0.0
  0
LINE
  5
15EED
330
747D
100
AcDbEntity
  8
細線
100
AcDbLine
 10
7910.502860906818
 20
5446.077276893859
 30
0.0
 11
7984.502860906818
 21
5446.077276893859
 31
0.0
  0
LINE
  5
15EEE
330
747D
100
AcDbEntity
  8
細線
100
AcDbLine
 10
7984.502860906818
 20
5469.077276893859
 30
0.0
 11
7910.502860906818
 21
5469.077276893859
 31
0.0
  0
LINE
  5
15EEF
330
747D
100
AcDbEntity
  8
細線
100
AcDbLine
 10
7984.502860906818
 20
5446.077276893859
 30
0.0
 11
8058.502860906818
 21
5446.077276893859
 31
0.0
  0
ARC
  5
15EF0
330
747D
100
AcDbEntity
  8
部品1
 48
0.01
100
AcDbCircle
 10
7896.502860906818
 20
5473.577276893859
 30
0.0
 40
2.0
100
AcDbArc
 50
90.0
 51
180.0
  0
ARC
  5
15EF1
330
747D
100
AcDbEntity
  8
部品1
 48
0.01
100
AcDbCircle
 10
7896.502860906818
 20
5442.077276893859
 30
0.0
 40
2.0
100
AcDbArc
 50
180.0
 51
270.0
  0
ARC
  5
15EF2
330
747D
100
AcDbEntity
  8
部品1
 48
0.01
100
AcDbCircle
 10
8072.502860906817
 20
5473.577276893859
 30
0.0
 40
2.0
100
AcDbArc
 50
0.0
 51
90.0
  0
ARC
  5
15EF3
330
747D
100
AcDbEntity
  8
部品1
 48
0.01
100
AcDbCircle
 10
8072.502860906817
 20
5442.077276893859
 30
0.0
 40
2.0
100
AcDbArc
 50
270.0
 51
0.0
  0
LWPOLYLINE
  5
16337
330
747D
100
AcDbEntity
  8
部品1
100
AcDbPolyline
 90
        4
 70
     1
 43
0.0
 10
10874.63944035297
 20
2866.500696077143
 10
10874.63944035297
 20
2626.60837453161
 10
11638.11010658141
 20
2626.60837453161
 10
11638.11010658141
 20
2866.500696077143
  0
TEXT
  5
16338
330
747D
100
AcDbEntity
  8
部品1
100
AcDbText
 10
10964.08554177658
 20
2673.607166858619
 30
0.0
 40
135.0
  1
側面図
  7
STYLE2
100
AcDbText
  0
DIMENSION
  5
16339
330
747D
100
AcDbEntity
  8
寸法
100
AcDbDimension
  2
*D39
 10
9919.780895311903
 20
5644.577276893866
 30
0.0
 11
9919.780895311902
 21
4597.155906173022
 31
0.0
 70
   160
 71
     5
 42
2075.000000000006
  3
INABA_S40G
100
AcDbAlignedDimension
 13
10781.37477346719
 23
3569.57727689386
 33
0.0
 14
10721.37477346719
 24
5644.577276893866
 34
0.0
 50
90.0
100
AcDbRotatedDimension
1001
ACAD
1000
DSTYLE
1002
{
1070
   174
1070
     0
1070
   272
1070
     1
1070
   288
1070
     0
1070
   341
1005
0
1002
}
  0
TEXT
  5
1633A
330
747D
100
AcDbEntity
  8
部品1
 48
50.0
100
AcDbText
 10
11104.64260869092
 20
5811.329438147573
 30
0.0
 40
120.0
  1
1000
  7
STYLE1
100
AcDbText
  0
LINE
  5
1633B
330
747D
100
AcDbEntity
  8
部品1
100
AcDbLine
 10
10728.91975982415
 20
5643.295012228128
 30
0.0
 11
11803.98665032865
 21
5588.218074603001
 31
0.0
  0
LINE
  5
1633C
330
747D
100
AcDbEntity
  8
部品1
100
AcDbLine
 10
10736.71733806914
 20
5502.358301962828
 30
0.0
 11
11786.03847400703
 21
5463.329876728623
 31
0.0
  0
LINE
  5
1633D
330
747D
100
AcDbEntity
  8
細線
 48
50.0
100
AcDbLine
 10
10754.37477346719
 20
5641.976953269266
 30
0.0
 11
10749.08567191168
 21
5501.891320641911
 31
0.0
  0
LINE
  5
1633E
330
747D
100
AcDbEntity
  8
細線
 48
50.0
100
AcDbLine
 10
11778.37477346719
 20
5589.544255929157
 30
0.0
 11
11773.62709057919
 21
5463.798483438413
 31
0.0
  0
LINE
  5
1633F
330
747D
100
AcDbEntity
  8
部品1
 48
50.0
100
AcDbLine
 10
10721.5590593803
 20
5636.170823058553
 30
0.0
 11
10721.93931915811
 21
5616.243858612143
 31
0.0
  0
LINE
  5
16340
330
747D
100
AcDbEntity
  8
部品1
 48
50.0
100
AcDbLine
 10
10725.00809126436
 20
5612.668577118669
 30
0.0
 11
10726.71199275572
 21
5523.378080412023
 31
0.0
  0
LINE
  5
16341
330
747D
100
AcDbEntity
  8
細線
 48
50.0
100
AcDbLine
 10
10722.414196568
 20
5615.594358735223
 30
0.0
 11
11808.05018131317
 21
5559.970154094395
 31
0.0
  0
LINE
  5
16342
330
747D
100
AcDbEntity
  8
細線
 48
50.0
100
AcDbLine
 10
10727.17467180529
 20
5522.73284703736
 30
0.0
 11
11797.17833623592
 21
5482.923528062865
 31
0.0
  0
LINE
  5
16343
330
747D
100
AcDbEntity
  8
部品1
 48
50.0
100
AcDbLine
 10
10729.78076486196
 20
5519.802798918551
 30
0.0
 11
10729.98271748239
 21
5509.219763525457
 31
0.0
  0
ARC
  5
16344
330
747D
100
AcDbEntity
  8
部品1
 48
50.0
100
AcDbCircle
 10
10728.55778520864
 20
5636.304377465982
 30
0.0
 40
7.0
100
AcDbArc
 50
87.03587545304044
 51
181.093224029263
  0
ARC
  5
16345
330
747D
100
AcDbEntity
  8
部品1
 48
50.0
100
AcDbCircle
 10
10736.98144331073
 20
5509.353317932886
 30
0.0
 40
7.0
100
AcDbArc
 50
181.093224029263
 51
267.8377559871574
  0
ARC
  5
16346
330
747D
100
AcDbEntity
  8
部品1
100
AcDbCircle
 10
10726.78131093553
 20
5519.745561315367
 30
0.0
 40
3.0
100
AcDbArc
 50
1.093224029263039
 51
80.18775403148449
  0
ARC
  5
16347
330
747D
100
AcDbEntity
  8
部品1
100
AcDbCircle
 10
10722.00863733792
 20
5612.611339515486
 30
0.0
 40
3.0
100
AcDbArc
 50
1.093224029263039
 51
80.18775403148449
  0
ARC
  5
16348
330
747D
100
AcDbEntity
  8
部品1
100
AcDbCircle
 10
10722.63919174095
 20
5616.257214052884
 30
0.0
 40
0.7
100
AcDbArc
 50
181.0932240292109
 51
260.1877540314845
  0
ARC
  5
16349
330
747D
100
AcDbEntity
  8
部品1
100
AcDbCircle
 10
10727.41186533855
 20
5523.391435852765
 30
0.0
 40
0.7
100
AcDbArc
 50
181.0932240292109
 51
260.1877540314845
  0
LINE
  5
1634A
330
747D
100
AcDbEntity
  8
部品1
 48
50.0
100
AcDbLine
 10
11810.58867627789
 20
5580.51842916808
 30
0.0
 11
11808.55805508692
 21
5560.573387910299
 31
0.0
  0
LINE
  5
1634B
330
747D
100
AcDbEntity
  8
部品1
 48
50.0
100
AcDbLine
 10
11805.20548860244
 20
5557.262753837391
 30
0.0
 11
11797.6987093376
 21
5483.530133092378
 31
0.0
  0
LINE
  5
1634C
330
747D
100
AcDbEntity
  8
部品1
 48
50.0
100
AcDbLine
 10
11794.34614285312
 20
5480.219499019465
 30
0.0
 11
11793.26657981338
 21
5469.615882025906
 31
0.0
  0
ARC
  5
1634D
330
747D
100
AcDbEntity
  8
部品1
 48
50.0
100
AcDbCircle
 10
11803.62467571314
 20
5581.227439840853
 30
0.0
 40
7.0
100
AcDbArc
 50
354.1866997665479
 51
87.03587545304044
  0
ARC
  5
1634E
330
747D
100
AcDbEntity
  8
部品1
 48
50.0
100
AcDbCircle
 10
11786.30257924862
 20
5470.32489269868
 30
0.0
 40
7.0
100
AcDbArc
 50
267.8377559871574
 51
354.1866997665479
  0
ARC
  5
1634F
330
747D
100
AcDbEntity
  8
部品1
100
AcDbCircle
 10
11797.33071452373
 20
5479.915637302564
 30
0.0
 40
3.0
100
AcDbArc
 50
95.09216976420788
 51
174.1866997665479
  0
ARC
  5
16350
330
747D
100
AcDbEntity
  8
部品1
100
AcDbCircle
 10
11808.19006027305
 20
5556.958892120487
 30
0.0
 40
3.0
100
AcDbArc
 50
95.09216976442012
 51
174.1866997665479
  0
ARC
  5
16351
330
747D
100
AcDbEntity
  8
部品1
100
AcDbCircle
 10
11807.86165503045
 20
5560.644288977577
 30
0.0
 40
0.7
100
AcDbArc
 50
275.0921697642079
 51
354.1866997665479
  0
ARC
  5
16352
330
747D
100
AcDbEntity
  8
部品1
100
AcDbCircle
 10
11797.00230928113
 20
5483.601034159654
 30
0.0
 40
0.7
100
AcDbArc
 50
275.0921697642079
 51
354.1866997667061
  0
LINE
  5
16353
330
747D
100
AcDbEntity
  8
部品1
 48
50.0
100
AcDbLine
 10
11116.37477346719
 20
5775.44541599514
 30
0.0
 11
11416.37477346719
 21
5775.44541599514
 31
0.0
  0
LINE
  5
16354
330
747D
100
AcDbEntity
  8
部品1
 48
50.0
100
AcDbLine
 10
11416.37477346719
 20
5775.44541599514
 30
0.0
 11
11416.37477346719
 21
5759.245415995142
 31
0.0
  0
TEXT
  5
16355
330
747D
100
AcDbEntity
  8
部品1
 48
50.0
100
AcDbText
 10
11593.46762075505
 20
5673.828179929291
 30
0.0
 40
120.0
  1
104
 50
90.0
  7
STYLE1
100
AcDbText
  0
LINE
  5
16356
330
747D
100
AcDbEntity
  8
部品1
 48
50.0
100
AcDbLine
 10
11116.37477346719
 20
5775.44541599514
 30
0.0
 11
11416.37477346719
 21
5759.245415995142
 31
0.0
  0
DIMENSION
  5
16357
330
747D
100
AcDbEntity
  8
寸法
 48
50.0
100
AcDbDimension
  2
*D40
 10
10160.76636669882
 20
5518.922535767192
 30
0.0
 11
10171.43184195774
 21
5889.769199008891
 31
0.0
 70
   161
 71
     5
 42
141.0000000000009
  3
INABA_S40G
100
AcDbAlignedDimension
 13
10740.77079362577
 23
5643.300025728541
 33
0.0
 14
10736.71733806914
 24
5502.358301962828
 34
0.0
1001
ACAD
1000
DSTYLE
1002
{
1070
   174
1070
     0
1070
   272
1070
     1
1070
   288
1070
     0
1070
   341
1005
0
1002
}
  0
DIMENSION
  5
16358
330
747D
100
AcDbEntity
  8
寸法
 48
50.0
100
AcDbDimension
  2
*D41
 10
10721.37477346719
 20
6043.234730473165
 30
0.0
 11
10411.7369781916
 21
6043.234730473165
 31
0.0
 70
   160
 71
     5
 42
60.0
  3
INABA_S40G
100
AcDbAlignedDimension
 13
10781.37477346719
 23
5640.578895016837
 33
0.0
 14
10721.37477346719
 24
5644.577276893866
 34
0.0
100
AcDbRotatedDimension
1001
ACAD
1000
DSTYLE
1002
{
1070
   174
1070
     0
1070
   272
1070
     1
1070
   288
1070
     0
1070
   341
1005
0
1002
}
  0
DIMENSION
  5
16359
330
747D
100
AcDbEntity
  8
寸法
 48
50.0
100
AcDbDimension
  2
*D42
 10
10781.37477346719
 20
6043.234730473165
 30
0.0
 11
11278.08657569808
 21
6043.234730473165
 31
0.0
 70
   160
  1
柱外寸法<>
 71
     5
 42
950.0
  3
INABA_S40G
100
AcDbAlignedDimension
 13
11731.37477346719
 23
5591.387956505514
 33
0.0
 14
10781.37477346719
 24
5640.578895016837
 34
0.0
100
AcDbRotatedDimension
1001
ACAD
1000
DSTYLE
1002
{
1070
   174
1070
     0
1070
   272
1070
     1
1070
   288
1070
     0
1070
   341
1005
0
1002
}
  0
DIMENSION
  5
1635A
330
747D
100
AcDbEntity
  8
寸法
 48
50.0
100
AcDbDimension
  2
*D43
 10
10721.37477346719
 20
6277.937939113255
 30
0.0
 11
11268.29173388155
 21
6277.937939113255
 31
0.0
 70
   160
 71
     5
 42
1090.0
  3
INABA_S40G
100
AcDbAlignedDimension
 13
11811.37477346719
 23
5589.577276893862
 33
0.0
 14
10721.37477346719
 24
5644.577276893866
 34
0.0
100
AcDbRotatedDimension
1001
ACAD
1000
DSTYLE
1002
{
1070
   174
1070
     0
1070
   272
1070
     1
1070
   288
1070
     0
1070
   341
1005
0
1002
}
  0
DIMENSION
  5
1635B
330
747D
100
AcDbEntity
  8
寸法
 48
50.0
100
AcDbDimension
  2
*D44
 10
11811.37477346719
 20
6043.234730473165
 30
0.0
 11
12017.42201756168
 21
6043.234730473165
 31
0.0
 70
   160
 71
     5
 42
80.0
  3
INABA_S40G
100
AcDbAlignedDimension
 13
11731.37477346719
 23
5591.387956505514
 33
0.0
 14
11811.37477346719
 24
5589.577276893862
 34
0.0
100
AcDbRotatedDimension
1001
ACAD
1000
DSTYLE
1002
{
1070
   174
1070
     0
1070
   272
1070
     1
1070
   288
1070
     0
1070
   341
1005
0
1002
}
  0
LINE
  5
1635C
330
747D
100
AcDbEntity
  8
細線
 48
50.0
100
AcDbLine
 10
10913.87477346719
 20
5409.577276893861
 30
0.0
 11
10913.87477346719
 21
3619.57727689386
 31
0.0
  0
LINE
  5
1635D
330
747D
100
AcDbEntity
  8
細線
 48
50.0
100
AcDbLine
 10
10898.87477346719
 20
5409.577276893861
 30
0.0
 11
10898.87477346719
 21
3619.57727689386
 31
0.0
  0
LINE
  5
1635E
330
747D
100
AcDbEntity
  8
細線
 48
50.0
100
AcDbLine
 10
11038.87477346719
 20
5409.577276893861
 30
0.0
 11
11038.87477346719
 21
3619.57727689386
 31
0.0
  0
LINE
  5
1635F
330
747D
100
AcDbEntity
  8
細線
 48
50.0
100
AcDbLine
 10
11053.87477346719
 20
5409.577276893861
 30
0.0
 11
11053.87477346719
 21
3619.57727689386
 31
0.0
  0
LINE
  5
16360
330
747D
100
AcDbEntity
  8
細線
 48
50.0
100
AcDbLine
 10
11193.87477346719
 20
5409.577276893861
 30
0.0
 11
11193.87477346719
 21
3619.57727689386
 31
0.0
  0
LINE
  5
16361
330
747D
100
AcDbEntity
  8
細線
 48
50.0
100
AcDbLine
 10
11178.87477346719
 20
5409.577276893861
 30
0.0
 11
11178.87477346719
 21
3619.57727689386
 31
0.0
  0
LINE
  5
16362
330
747D
100
AcDbEntity
  8
細線
 48
50.0
100
AcDbLine
 10
11333.87477346719
 20
5409.577276893861
 30
0.0
 11
11333.87477346719
 21
3619.57727689386
 31
0.0
  0
LINE
  5
16363
330
747D
100
AcDbEntity
  8
細線
 48
50.0
100
AcDbLine
 10
11318.87477346719
 20
5409.577276893861
 30
0.0
 11
11318.87477346719
 21
3619.57727689386
 31
0.0
  0
LINE
  5
16364
330
747D
100
AcDbEntity
  8
細線
 48
50.0
100
AcDbLine
 10
11458.87477346719
 20
5409.577276893861
 30
0.0
 11
11458.87477346719
 21
3619.57727689386
 31
0.0
  0
LINE
  5
16365
330
747D
100
AcDbEntity
  8
細線
 48
50.0
100
AcDbLine
 10
11473.87477346719
 20
5409.577276893861
 30
0.0
 11
11473.87477346719
 21
3619.57727689386
 31
0.0
  0
LINE
  5
16366
330
747D
100
AcDbEntity
  8
細線
 48
50.0
100
AcDbLine
 10
11613.87477346719
 20
5409.577276893861
 30
0.0
 11
11613.87477346719
 21
3619.57727689386
 31
0.0
  0
LINE
  5
16367
330
747D
100
AcDbEntity
  8
細線
 48
50.0
100
AcDbLine
 10
11598.87477346719
 20
5409.577276893861
 30
0.0
 11
11598.87477346719
 21
3619.57727689386
 31
0.0
  0
LINE
  5
16368
330
747D
100
AcDbEntity
  8
部品1
100
AcDbLine
 10
10774.37240342241
 20
5409.577276893861
 30
0.0
 11
11731.37477346719
 21
5409.577276893861
 31
0.0
  0
LINE
  5
16369
330
747D
100
AcDbEntity
  8
部品1
100
AcDbLine
 10
10781.37477346719
 20
3569.57727689386
 30
0.0
 11
11731.37477346719
 21
3569.57727689386
 31
0.0
  0
LINE
  5
1636A
330
747D
100
AcDbEntity
  8
部品1
100
AcDbLine
 10
10781.37477346719
 20
3619.57727689386
 30
0.0
 11
11731.37477346719
 21
3619.57727689386
 31
0.0
  0
LINE
  5
1636B
330
747D
100
AcDbEntity
  8
部品1
100
AcDbLine
 10
11256.37477346719
 20
5409.577276893861
 30
0.0
 11
11256.37477346719
 21
3619.57727689386
 31
0.0
  0
LINE
  5
1636C
330
747D
100
AcDbEntity
  8
部品1
100
AcDbLine
 10
10836.37477346719
 20
5409.577276893861
 30
0.0
 11
10836.37477346719
 21
3619.57727689386
 31
0.0
  0
LINE
  5
1636D
330
747D
100
AcDbEntity
  8
部品1
100
AcDbLine
 10
11676.37477346719
 20
5409.577276893861
 30
0.0
 11
11676.37477346719
 21
3619.57727689386
 31
0.0
  0
LINE
  5
1636E
330
747D
100
AcDbEntity
  8
部品1
100
AcDbLine
 10
10781.37477346719
 20
5500.697314378673
 30
0.0
 11
10781.37477346719
 21
3469.57727689386
 31
0.0
  0
LINE
  5
1636F
330
747D
100
AcDbEntity
  8
部品1
100
AcDbLine
 10
11731.37477346719
 20
5465.363037099148
 30
0.0
 11
11731.37477346719
 21
3469.57727689386
 31
0.0
  0
DIMENSION
  5
16370
330
747D
100
AcDbEntity
  8
寸法
 48
50.0
100
AcDbDimension
  2
*D45
 10
12261.78331140102
 20
5589.57727689386
 30
0.0
 11
12261.78331140102
 21
4521.501672958286
 31
0.0
 70
   160
 71
     5
 42
2020.0
  3
INABA_S40
100
AcDbAlignedDimension
 13
11731.37477346719
 23
3569.57727689386
 33
0.0
 14
11811.3747734672
 24
5589.57727689386
 34
0.0
 50
90.0
100
AcDbRotatedDimension
1001
ACAD
1000
DSTYLE
1002
{
1070
    41
1040
0.5
1070
    44
1040
1.0
1070
   147
1040
0.8
1070
   271
1070
     2
1070
   272
1070
     2
1070
   289
1070
     3
1070
   340
1005
F706
1070
   343
1005
15076
1070
   344
1005
15076
1002
}
  0
DIMENSION
  5
16371
330
747D
100
AcDbEntity
  8
寸法
100
AcDbDimension
  2
*D46
 10
10179.41168277499
 20
3619.577276893864
 30
0.0
 11
10179.41168277499
 21
4524.612288770249
 31
0.0
 70
   160
 71
     5
 42
1789.999999999998
  3
INABA_S40G
100
AcDbAlignedDimension
 13
10774.37240342241
 23
5409.577276893862
 33
0.0
 14
10774.37240342241
 24
3619.577276893864
 34
0.0
 50
90.0
100
AcDbRotatedDimension
1001
ACAD
1000
DSTYLE
1002
{
1070
   288
1070
     1
1002
}
  0
DIMENSION
  5
16372
330
747D
100
AcDbEntity
  8
寸法
100
AcDbDimension
  2
*D47
 10
10179.41168277499
 20
3569.577276893863
 30
0.0
 11
10179.41168277499
 21
3263.530032799372
 31
0.0
 70
   160
 71
     5
 42
50.00000000000182
  3
INABA_S40G
100
AcDbAlignedDimension
 13
10774.37240342241
 23
3619.577276893864
 33
0.0
 14
10726.37477346719
 24
3569.577276893863
 34
0.0
 50
90.0
100
AcDbRotatedDimension
1001
ACAD
1000
DSTYLE
1002
{
1070
   174
1070
     0
1070
   272
1070
     1
1070
   288
1070
     0
1070
   341
1005
0
1002
}
  0
LINE
  5
16373
330
747D
100
AcDbEntity
  8
部品1
 48
50.0
100
AcDbLine
 10
10774.37240342241
 20
3630.327276893864
 30
0.0
 11
10781.37477346719
 21
3630.327276893864
 31
0.0
  0
LINE
  5
16374
330
747D
100
AcDbEntity
  8
部品1
 48
0.2
100
AcDbLine
 10
10774.37240342241
 20
3630.327276893864
 30
0.0
 11
10774.37240342241
 21
3619.577276893864
 31
0.0
  0
LINE
  5
16375
330
747D
100
AcDbEntity
  8
部品1
 48
50.0
100
AcDbLine
 10
10774.37240342241
 20
3619.577276893864
 30
0.0
 11
10781.37477346719
 21
3619.577276893864
 31
0.0
  0
LINE
  5
16376
330
747D
100
AcDbEntity
  8
部品1
 48
0.2
100
AcDbLine
 10
10774.37240342241
 20
5409.577276893861
 30
0.0
 11
10774.37240342241
 21
5398.827276893862
 31
0.0
  0
LINE
  5
16377
330
747D
100
AcDbEntity
  8
部品1
 48
50.0
100
AcDbLine
 10
10774.37240342241
 20
5398.827276893861
 30
0.0
 11
10781.37477346719
 21
5398.827276893861
 31
0.0
  0
TEXT
  5
166C1
330
747D
100
AcDbEntity
  8
文字
 62
     7
 48
50.0
100
AcDbText
 10
13583.11819016569
 20
9910.01374588373
 30
0.0
 40
100.0
  1
梁中・梁中央
 41
0.9
  7
STYLE1
100
AcDbText
  0
LINE
  5
1670C
330
747D
100
AcDbEntity
  8
仕様書枠
 48
50.0
100
AcDbLine
 10
16307.19999999999
 20
9199.600000000001
 30
0.0
 11
13127.19999999999
 21
9199.600000000001
 31
0.0
  0
LINE
  5
1670D
330
747D
100
AcDbEntity
  8
仕様書枠
 48
50.0
100
AcDbLine
 10
16307.19999999999
 20
8859.6
 30
0.0
 11
13127.19999999999
 21
8859.6
 31
0.0
  0
TEXT
  5
16716
330
747D
100
AcDbEntity
  8
文字
 62
     7
 48
50.0
100
AcDbText
 10
13583.11819016568
 20
8890.013745883727
 30
0.0
 40
100.0
  1
※豪雪補強
  7
STYLE1
100
AcDbText
  0
TEXT
  5
16717
330
747D
100
AcDbEntity
  8
文字
 62
     7
 48
50.0
100
AcDbText
 10
13229.83081656553
 20
8720.013745883727
 30
0.0
 40
100.0
  1
※豪雪補強は豪雪地型のみ取付
 41
0.9
  7
STYLE1
100
AcDbText
  0
TEXT
  5
16718
330
747D
100
AcDbEntity
  8
文字
 62
     7
 48
50.0
100
AcDbText
 10
13248.77747366447
 20
8890.013745883729
 30
0.0
 40
100.0
  1
14
  7
STYLE1
100
AcDbText
  0
TEXT
  5
16719
330
747D
100
AcDbEntity
  8
文字
 62
     7
 48
50.0
100
AcDbText
 10
15022.63965474514
 20
8890.013745883722
 30
0.0
 40
100.0
  1
F12            1.0
  7
STYLE1
100
AcDbText
  0
ENDSEC
  0
SECTION
  2
OBJECTS
  0
DICTIONARY
  5
7471
330
0
100
AcDbDictionary
281
     1
  3
ACAD_COLOR
350
14F04
  3
ACAD_GROUP
350
7472
  3
ACAD_LAYOUT
350
14F05
  3
ACAD_MATERIAL
350
14F03
  3
ACAD_MLINESTYLE
350
7473
  3
ACAD_PLOTSETTINGS
350
14F06
  3
ACAD_PLOTSTYLENAME
350
14F01
  3
ACDBHEADERROUNDTRIPXREC
350
1673B
  3
AcDbVariableDictionary
350
16737
  3
CONTENTDICTIONARY
350
E71C
  3
DRAWINGVARIABLESDICT
350
F3B9
  0
DICTIONARY
  5
15116
330
7467
100
AcDbDictionary
280
     1
281
     1
  3
ACAD_LAYERSTATES
360
15117
  0
DICTIONARY
  5
14F04
102
{ACAD_REACTORS
330
7471
102
}
330
7471
100
AcDbDictionary
281
     1
  0
DICTIONARY
  5
7472
102
{ACAD_REACTORS
330
7471
102
}
330
7471
100
AcDbDictionary
281
     1
  0
DICTIONARY
  5
14F05
102
{ACAD_REACTORS
330
7471
102
}
330
7471
100
AcDbDictionary
281
     1
  3
Model
350
14F07
  3
レイアウト1
350
14F08
  0
DICTIONARY
  5
14F03
102
{ACAD_REACTORS
330
7471
102
}
330
7471
100
AcDbDictionary
281
     1
  0
DICTIONARY
  5
7473
102
{ACAD_REACTORS
330
7471
102
}
330
7471
100
AcDbDictionary
281
     1
  3
STANDARD
350
7480
  0
DICTIONARY
  5
14F06
102
{ACAD_REACTORS
330
7471
102
}
330
7471
100
AcDbDictionary
281
     1
  0
ACDBDICTIONARYWDFLT
  5
14F01
102
{ACAD_REACTORS
330
7471
102
}
330
7471
100
AcDbDictionary
281
     1
  3
Normal
350
14F02
100
AcDbDictionaryWithDefault
340
14F02
  0
DICTIONARY
  5
1673B
102
{ACAD_REACTORS
330
7471
102
}
330
7471
100
AcDbDictionary
281
     1
  3
COLORDICT
350
1673D
  3
MATERIALDICT
350
1673C
  0
DICTIONARY
  5
16737
102
{ACAD_REACTORS
330
7471
102
}
330
7471
100
AcDbDictionary
281
     1
  3
DIMASSOC
350
16738
  3
PROJECTNAME
350
16739
  0
DICTIONARY
  5
E71C
102
{ACAD_REACTORS
330
7471
102
}
330
7471
100
AcDbDictionary
281
     1
  0
DICTIONARY
  5
F3B9
102
{ACAD_REACTORS
330
7471
102
}
330
7471
100
AcDbDictionary
281
     1
1001
DRAWINGVARIABLESXDATA
1000
POLARMODE
1000
1
  0
DICTIONARY
  5
15117
102
{ACAD_REACTORS
330
15116
102
}
330
15116
100
AcDbDictionary
281
     1
  0
LAYOUT
  5
14F07
102
{ACAD_XDICTIONARY
360
1673E
102
}
102
{ACAD_REACTORS
330
14F05
102
}
330
14F05
100
AcDbPlotSettings
  1

  2
Microsoft Office Document Image Writer
  4

  6

 40
0.0
 41
0.0
 42
0.0
 43
0.0
 44
0.0
 45
0.0
 46
0.0
 47
0.0
 48
0.0
 49
0.0
140
0.0
141
0.0
142
1.0
143
1.0
 70
  1712
 72
     0
 73
     0
 74
     0
  7

 75
     0
147
1.0
148
0.0
149
0.0
100
AcDbLayout
  1
Model
 70
     1
 71
     0
 10
0.0
 20
0.0
 11
12.0
 21
9.0
 12
0.0
 22
0.0
 32
0.0
 14
0.0
 24
0.0
 34
0.0
 15
0.0
 25
0.0
 35
0.0
146
0.0
 13
0.0
 23
0.0
 33
0.0
 16
1.0
 26
0.0
 36
0.0
 17
0.0
 27
1.0
 37
0.0
 76
     0
330
747D
  0
LAYOUT
  5
14F08
102
{ACAD_XDICTIONARY
360
16740
102
}
102
{ACAD_REACTORS
330
14F05
102
}
330
14F05
100
AcDbPlotSettings
  1

  2
Microsoft Office Document Image Writer
  4

  6

 40
0.0
 41
0.0
 42
0.0
 43
0.0
 44
0.0
 45
0.0
 46
0.0
 47
0.0
 48
0.0
 49
0.0
140
0.0
141
0.0
142
1.0
143
1.0
 70
   688
 72
     0
 73
     0
 74
     5
  7

 75
    16
147
1.0
148
0.0
149
0.0
100
AcDbLayout
  1
レイアウト1
 70
     0
 71
     1
 10
0.0
 20
0.0
 11
420.0
 21
297.0
 12
0.0
 22
0.0
 32
0.0
 14
1.000000000000000E+20
 24
1.000000000000000E+20
 34
1.000000000000000E+20
 15
-1.000000000000000E+20
 25
-1.000000000000000E+20
 35
-1.000000000000000E+20
146
0.0
 13
0.0
 23
0.0
 33
0.0
 16
1.0
 26
0.0
 36
0.0
 17
0.0
 27
1.0
 37
0.0
 76
     0
330
747A
  0
MLINESTYLE
  5
7480
102
{ACAD_REACTORS
330
7473
102
}
330
7473
100
AcDbMlineStyle
  2
STANDARD
 70
     0
  3

 62
     0
 51
90.0
 52
90.0
 71
     2
 49
0.5
 62
   256
  6
BYLAYER
 49
-0.5
 62
   256
  6
BYLAYER
  0
ACDBPLACEHOLDER
  5
14F02
102
{ACAD_REACTORS
330
14F01
102
}
330
14F01
  0
XRECORD
  5
1673D
102
{ACAD_REACTORS
330
1673B
102
}
330
1673B
100
AcDbXrecord
280
     1
340
14F04
  0
XRECORD
  5
1673C
102
{ACAD_REACTORS
330
1673B
102
}
330
1673B
100
AcDbXrecord
280
     1
340
14F03
  0
DICTIONARYVAR
  5
16738
102
{ACAD_REACTORS
330
16737
102
}
330
16737
100
DictionaryVariables
280
     0
  1
1
  0
DICTIONARYVAR
  5
16739
102
{ACAD_REACTORS
330
16737
102
}
330
16737
100
DictionaryVariables
280
     0
  1

  0
DICTIONARY
  5
1673E
330
14F07
100
AcDbDictionary
280
     1
281
     1
  3
ACAD_XREC_ROUNDTRIP
360
1673F
  0
DICTIONARY
  5
16740
330
14F08
100
AcDbDictionary
280
     1
281
     1
  3
ACAD_XREC_ROUNDTRIP
360
16741
  0
XRECORD
  5
1673F
102
{ACAD_REACTORS
330
1673E
102
}
330
1673E
100
AcDbXrecord
280
     1
102
SHADEPLOT
 70
     0
102
SHADEPLOTRESLEVEL
 70
     2
102
SHADEPLOTCUSTOMDPI
 70
   300
  0
XRECORD
  5
16741
102
{ACAD_REACTORS
330
16740
102
}
330
16740
100
AcDbXrecord
280
     1
102
SHADEPLOT
 70
     0
102
SHADEPLOTRESLEVEL
 70
     2
102
SHADEPLOTCUSTOMDPI
 70
   300
  0
ENDSEC
  0
EOF
