  0
SECTION
  2
HEADER
  9
$ACADVER
  1
AC1015
  9
$ACADMAINTVER
 70
    20
  9
$DWGCODEPAGE
  3
ANSI_932
  9
$INSBASE
 10
0.0
 20
0.0
 30
0.0
  9
$EXTMIN
 10
139.9999999999995
 20
-0.0000000000000909
 30
0.0
  9
$EXTMAX
 10
16307.2
 20
11409.6
 30
0.0
  9
$LIMMIN
 10
0.0
 20
0.0
  9
$LIMMAX
 10
16800.0
 20
11880.0
  9
$ORTHOMODE
 70
     0
  9
$REGENMODE
 70
     1
  9
$FILLMODE
 70
     1
  9
$QTEXTMODE
 70
     0
  9
$MIRRTEXT
 70
     1
  9
$LTSCALE
 40
20.0
  9
$ATTMODE
 70
     1
  9
$TEXTSIZE
 40
100.0
  9
$TRACEWID
 40
1.0
  9
$TEXTSTYLE
  7
STYLE3
  9
$CLAYER
  8
寸法
  9
$CELTYPE
  6
BYLAYER
  9
$CECOLOR
 62
   256
  9
$CELTSCALE
 40
50.0
  9
$DISPSILH
 70
     0
  9
$DIMSCALE
 40
40.0
  9
$DIMASZ
 40
2.5
  9
$DIMEXO
 40
0.5
  9
$DIMDLI
 40
7.0
  9
$DIMRND
 40
0.0
  9
$DIMDLE
 40
0.0
  9
$DIMEXE
 40
1.5
  9
$DIMTP
 40
0.0
  9
$DIMTM
 40
0.0
  9
$DIMTXT
 40
3.0
  9
$DIMCEN
 40
0.0
  9
$DIMTSZ
 40
0.0
  9
$DIMTOL
 70
     0
  9
$DIMLIM
 70
     0
  9
$DIMTIH
 70
     0
  9
$DIMTOH
 70
     0
  9
$DIMSE1
 70
     0
  9
$DIMSE2
 70
     0
  9
$DIMTAD
 70
     3
  9
$DIMZIN
 70
     8
  9
$DIMBLK
  1

  9
$DIMASO
 70
     1
  9
$DIMSHO
 70
     1
  9
$DIMPOST
  1

  9
$DIMAPOST
  1

  9
$DIMALT
 70
     0
  9
$DIMALTD
 70
     2
  9
$DIMALTF
 40
0.0394
  9
$DIMLFAC
 40
1.0
  9
$DIMTOFL
 70
     1
  9
$DIMTVP
 40
0.0
  9
$DIMTIX
 70
     1
  9
$DIMSOXD
 70
     0
  9
$DIMSAH
 70
     1
  9
$DIMBLK1
  1
DOTSMALL
  9
$DIMBLK2
  1
DOTSMALL
  9
$DIMSTYLE
  2
INABA_S40G
  9
$DIMCLRD
 70
     0
  9
$DIMCLRE
 70
     0
  9
$DIMCLRT
 70
     7
  9
$DIMTFAC
 40
1.0
  9
$DIMGAP
 40
1.0
  9
$DIMJUST
 70
     0
  9
$DIMSD1
 70
     0
  9
$DIMSD2
 70
     0
  9
$DIMTOLJ
 70
     1
  9
$DIMTZIN
 70
     0
  9
$DIMALTZ
 70
     0
  9
$DIMALTTZ
 70
     0
  9
$DIMUPT
 70
     1
  9
$DIMDEC
 70
     1
  9
$DIMTDEC
 70
     4
  9
$DIMALTU
 70
     2
  9
$DIMALTTD
 70
     2
  9
$DIMTXSTY
  7
STYLE1
  9
$DIMAUNIT
 70
     0
  9
$DIMADEC
 70
     0
  9
$DIMALTRND
 40
0.0
  9
$DIMAZIN
 70
     0
  9
$DIMDSEP
 70
    46
  9
$DIMATFIT
 70
     3
  9
$DIMFRAC
 70
     0
  9
$DIMLDRBLK
  1

  9
$DIMLUNIT
 70
     2
  9
$DIMLWD
 70
    -2
  9
$DIMLWE
 70
    -2
  9
$DIMTMOVE
 70
     0
  9
$LUNITS
 70
     2
  9
$LUPREC
 70
     1
  9
$SKETCHINC
 40
1.0
  9
$FILLETRAD
 40
5.0
  9
$AUNITS
 70
     0
  9
$AUPREC
 70
     0
  9
$MENU
  1
acad
  9
$ELEVATION
 40
0.0
  9
$PELEVATION
 40
0.0
  9
$THICKNESS
 40
0.0
  9
$LIMCHECK
 70
     0
  9
$CHAMFERA
 40
0.0
  9
$CHAMFERB
 40
0.0
  9
$CHAMFERC
 40
0.0
  9
$CHAMFERD
 40
0.0
  9
$SKPOLY
 70
     0
  9
$TDCREATE
 40
2452116.684896065
  9
$TDUCREATE
 40
2452116.309896065
  9
$TDUPDATE
 40
2455575.689541377
  9
$TDUUPDATE
 40
2455575.314541377
  9
$TDINDWG
 40
0.6176468056
  9
$TDUSRTIMER
 40
0.6176468056
  9
$USRTIMER
 70
     1
  9
$ANGBASE
 50
0.0
  9
$ANGDIR
 70
     0
  9
$PDMODE
 70
     3
  9
$PDSIZE
 40
2.0
  9
$PLINEWID
 40
0.0
  9
$SPLFRAME
 70
     0
  9
$SPLINETYPE
 70
     6
  9
$SPLINESEGS
 70
     8
  9
$HANDSEED
  5
171C0
  9
$SURFTAB1
 70
     6
  9
$SURFTAB2
 70
     6
  9
$SURFTYPE
 70
     6
  9
$SURFU
 70
     6
  9
$SURFV
 70
     6
  9
$UCSBASE
  2

  9
$UCSNAME
  2

  9
$UCSORG
 10
0.0
 20
0.0
 30
0.0
  9
$UCSXDIR
 10
1.0
 20
0.0
 30
0.0
  9
$UCSYDIR
 10
0.0
 20
1.0
 30
0.0
  9
$UCSORTHOREF
  2

  9
$UCSORTHOVIEW
 70
     0
  9
$UCSORGTOP
 10
0.0
 20
0.0
 30
0.0
  9
$UCSORGBOTTOM
 10
0.0
 20
0.0
 30
0.0
  9
$UCSORGLEFT
 10
0.0
 20
0.0
 30
0.0
  9
$UCSORGRIGHT
 10
0.0
 20
0.0
 30
0.0
  9
$UCSORGFRONT
 10
0.0
 20
0.0
 30
0.0
  9
$UCSORGBACK
 10
0.0
 20
0.0
 30
0.0
  9
$PUCSBASE
  2

  9
$PUCSNAME
  2

  9
$PUCSORG
 10
0.0
 20
0.0
 30
0.0
  9
$PUCSXDIR
 10
1.0
 20
0.0
 30
0.0
  9
$PUCSYDIR
 10
0.0
 20
1.0
 30
0.0
  9
$PUCSORTHOREF
  2

  9
$PUCSORTHOVIEW
 70
     0
  9
$PUCSORGTOP
 10
0.0
 20
0.0
 30
0.0
  9
$PUCSORGBOTTOM
 10
0.0
 20
0.0
 30
0.0
  9
$PUCSORGLEFT
 10
0.0
 20
0.0
 30
0.0
  9
$PUCSORGRIGHT
 10
0.0
 20
0.0
 30
0.0
  9
$PUCSORGFRONT
 10
0.0
 20
0.0
 30
0.0
  9
$PUCSORGBACK
 10
0.0
 20
0.0
 30
0.0
  9
$USERI1
 70
     0
  9
$USERI2
 70
     0
  9
$USERI3
 70
     0
  9
$USERI4
 70
     0
  9
$USERI5
 70
     0
  9
$USERR1
 40
0.0
  9
$USERR2
 40
0.0
  9
$USERR3
 40
0.0
  9
$USERR4
 40
0.0
  9
$USERR5
 40
0.0
  9
$WORLDVIEW
 70
     1
  9
$SHADEDGE
 70
     3
  9
$SHADEDIF
 70
    70
  9
$TILEMODE
 70
     1
  9
$MAXACTVP
 70
    16
  9
$PINSBASE
 10
0.0
 20
0.0
 30
0.0
  9
$PLIMCHECK
 70
     0
  9
$PEXTMIN
 10
1.000000000000000E+20
 20
1.000000000000000E+20
 30
1.000000000000000E+20
  9
$PEXTMAX
 10
-1.000000000000000E+20
 20
-1.000000000000000E+20
 30
-1.000000000000000E+20
  9
$PLIMMIN
 10
0.0
 20
0.0
  9
$PLIMMAX
 10
420.0
 20
297.0
  9
$UNITMODE
 70
     0
  9
$VISRETAIN
 70
     0
  9
$PLINEGEN
 70
     0
  9
$PSLTSCALE
 70
     0
  9
$TREEDEPTH
 70
  3020
  9
$CMLSTYLE
  2
STANDARD
  9
$CMLJUST
 70
     0
  9
$CMLSCALE
 40
1.0
  9
$PROXYGRAPHICS
 70
     1
  9
$MEASUREMENT
 70
     1
  9
$CELWEIGHT
370
    -1
  9
$ENDCAPS
280
     0
  9
$JOINSTYLE
280
     0
  9
$LWDISPLAY
290
     0
  9
$INSUNITS
 70
     0
  9
$HYPERLINKBASE
  1

  9
$STYLESHEET
  1

  9
$XEDIT
290
     1
  9
$CEPSNTYPE
380
     0
  9
$PSTYLEMODE
290
     1
  9
$FINGERPRINTGUID
  2
{A709D072-CC15-419A-82DB-911F874C762E}
  9
$VERSIONGUID
  2
{C3AD088D-DF82-46AA-AAA7-62E9EF447C41}
  9
$EXTNAMES
290
     1
  9
$PSVPSCALE
 40
0.0
  9
$OLESTARTUP
290
     0
  0
ENDSEC
  0
SECTION
  2
CLASSES
  0
CLASS
  1
ACDBDICTIONARYWDFLT
  2
AcDbDictionaryWithDefault
  3
ObjectDBX Classes
 90
        0
280
     0
281
     0
  0
CLASS
  1
DICTIONARYVAR
  2
AcDbDictionaryVar
  3
ObjectDBX Classes
 90
        0
280
     0
281
     0
  0
CLASS
  1
ACDBPLACEHOLDER
  2
AcDbPlaceHolder
  3
ObjectDBX Classes
 90
        0
280
     0
281
     0
  0
CLASS
  1
LAYOUT
  2
AcDbLayout
  3
ObjectDBX Classes
 90
        0
280
     0
281
     0
  0
ENDSEC
  0
SECTION
  2
TABLES
  0
TABLE
  2
VPORT
  5
746D
330
0
100
AcDbSymbolTable
 70
     2
  0
VPORT
  5
171B8
330
746D
100
AcDbSymbolTableRecord
100
AcDbViewportTableRecord
  2
*Active
 70
     0
 10
0.0
 20
0.0
 11
1.0
 21
1.0
 12
8223.761025238502
 22
6348.525212512601
 13
0.0
 23
0.0
 14
10.0
 24
10.0
 15
10.0
 25
10.0
 16
0.0
 26
0.0
 36
1.0
 17
0.0
 27
0.0
 37
0.0
 40
12806.01886701942
 41
1.525925925925925
 42
50.0
 43
0.0
 44
0.0
 50
0.0
 51
0.0
 71
     0
 72
     0
 73
     1
 74
     0
 75
     0
 76
     0
 77
     0
 78
     0
281
     0
 65
     1
110
0.0
120
0.0
130
0.0
111
1.0
121
0.0
131
0.0
112
0.0
122
1.0
132
0.0
 79
     0
146
0.0
  0
ENDTAB
  0
TABLE
  2
LTYPE
  5
746A
330
0
100
AcDbSymbolTable
 70
     4
  0
LTYPE
  5
7477
330
746A
100
AcDbSymbolTableRecord
100
AcDbLinetypeTableRecord
  2
BYBLOCK
 70
     0
  3

 72
    65
 73
     0
 40
0.0
  0
LTYPE
  5
7478
330
746A
100
AcDbSymbolTableRecord
100
AcDbLinetypeTableRecord
  2
BYLAYER
 70
     0
  3

 72
    65
 73
     0
 40
0.0
  0
LTYPE
  5
7479
330
746A
100
AcDbSymbolTableRecord
100
AcDbLinetypeTableRecord
  2
CONTINUOUS
 70
     0
  3
Solid line
 72
    65
 73
     0
 40
0.0
  0
LTYPE
  5
7816
330
746A
100
AcDbSymbolTableRecord
100
AcDbLinetypeTableRecord
  2
CENTER
 70
     0
  3
____ _ ____ _ ____ _ ____ _ ____ _ ____ _ ____ 
 72
    65
 73
     4
 40
2.0
 49
1.25
 74
     0
 49
-0.25
 74
     0
 49
0.25
 74
     0
 49
-0.25
 74
     0
  0
LTYPE
  5
781A
330
746A
100
AcDbSymbolTableRecord
100
AcDbLinetypeTableRecord
  2
HIDDEN
 70
     0
  3
__ __ __ __ __ __ __ __ __ __ __ __ __ __ __ __
 72
    65
 73
     2
 40
0.375
 49
0.25
 74
     0
 49
-0.125
 74
     0
  0
LTYPE
  5
781B
330
746A
100
AcDbSymbolTableRecord
100
AcDbLinetypeTableRecord
  2
PHANTOM
 70
     0
  3
______  __  __  ______  __  __  ______  __  __ 
 72
    65
 73
     6
 40
2.5
 49
1.25
 74
     0
 49
-0.25
 74
     0
 49
0.25
 74
     0
 49
-0.25
 74
     0
 49
0.25
 74
     0
 49
-0.25
 74
     0
  0
ENDTAB
  0
TABLE
  2
LAYER
  5
7467
102
{ACAD_XDICTIONARY
360
14FD2
102
}
330
0
100
AcDbSymbolTable
 70
    12
  0
LAYER
  5
7474
330
7467
100
AcDbSymbolTableRecord
100
AcDbLayerTableRecord
  2
0
 70
     0
 62
     7
  6
CONTINUOUS
370
    -3
390
14DF0
  0
LAYER
  5
DEB2
330
7467
100
AcDbSymbolTableRecord
100
AcDbLayerTableRecord
  2
センター
 70
     0
 62
     3
  6
CENTER
370
    -3
390
14DF0
  0
LAYER
  5
DEB3
330
7467
100
AcDbSymbolTableRecord
100
AcDbLayerTableRecord
  2
寸法
 70
     0
 62
     4
  6
CONTINUOUS
370
    -3
390
14DF0
  0
LAYER
  5
DEB4
330
7467
100
AcDbSymbolTableRecord
100
AcDbLayerTableRecord
  2
部品1
 70
     0
 62
     7
  6
CONTINUOUS
370
    -3
390
14DF0
  0
LAYER
  5
DEB5
330
7467
100
AcDbSymbolTableRecord
100
AcDbLayerTableRecord
  2
補助
 70
     0
 62
    -1
  6
CONTINUOUS
370
    -3
390
14DF0
  0
LAYER
  5
DEB6
330
7467
100
AcDbSymbolTableRecord
100
AcDbLayerTableRecord
  2
文字
 70
     0
 62
     7
  6
CONTINUOUS
370
    -3
390
14DF0
  0
LAYER
  5
F255
330
7467
100
AcDbSymbolTableRecord
100
AcDbLayerTableRecord
  2
DEFPOINTS
 70
     0
 62
     7
  6
CONTINUOUS
290
     0
370
    -3
390
14DF0
  0
LAYER
  5
10B54
330
7467
100
AcDbSymbolTableRecord
100
AcDbLayerTableRecord
  2
仕様書枠
 70
     0
 62
   230
  6
CONTINUOUS
370
    -3
390
14DF0
  0
LAYER
  5
11729
330
7467
100
AcDbSymbolTableRecord
100
AcDbLayerTableRecord
  2
Ｇ．Ｌ
 70
     0
 62
    30
  6
CONTINUOUS
370
    -3
390
14DF0
  0
LAYER
  5
1173F
330
7467
100
AcDbSymbolTableRecord
100
AcDbLayerTableRecord
  2
細線
 70
     0
 62
     5
  6
CONTINUOUS
370
    -3
390
14DF0
  0
LAYER
  5
118A1
330
7467
100
AcDbSymbolTableRecord
100
AcDbLayerTableRecord
  2
想像線
 70
     0
 62
     6
  6
PHANTOM
370
    -3
390
14DF0
  0
LAYER
  5
123C1
330
7467
100
AcDbSymbolTableRecord
100
AcDbLayerTableRecord
  2
破線
 70
     0
 62
     2
  6
HIDDEN
370
    -3
390
14DF0
  0
ENDTAB
  0
TABLE
  2
STYLE
  5
7468
330
0
100
AcDbSymbolTable
 70
     4
  0
STYLE
  5
7475
330
7468
100
AcDbSymbolTableRecord
100
AcDbTextStyleTableRecord
  2
STANDARD
 70
     0
 40
0.0
 41
1.0
 50
0.0
 71
     0
 42
4.0
  3
txt
  4
C:\AutoCAD LT\bigfont.shx
  0
STYLE
  5
F706
330
7468
100
AcDbSymbolTableRecord
100
AcDbTextStyleTableRecord
  2
STYLE1
 70
     0
 40
0.0
 41
1.0
 50
0.0
 71
     0
 42
4.0
  3
isocp.shx
  4
bigfont.shx
  0
STYLE
  5
103BF
330
7468
100
AcDbSymbolTableRecord
100
AcDbTextStyleTableRecord
  2
STYLE2
 70
     0
 40
0.0
 41
1.0
 50
0.0
 71
     0
 42
100.0
  3
MS PGothic.ttf
  4

1001
ACAD
1000
MS PGothic
1071
    32818
  0
STYLE
  5
10BAA
330
7468
100
AcDbSymbolTableRecord
100
AcDbTextStyleTableRecord
  2
STYLE3
 70
     0
 40
0.0
 41
1.0
 50
0.0
 71
     0
 42
100.0
  3

  4

1001
ACAD
1000
DFPGothic-EB
1071
    32818
  0
ENDTAB
  0
TABLE
  2
VIEW
  5
746B
330
0
100
AcDbSymbolTable
 70
     0
  0
ENDTAB
  0
TABLE
  2
UCS
  5
746C
330
0
100
AcDbSymbolTable
 70
     0
  0
ENDTAB
  0
TABLE
  2
APPID
  5
746E
330
0
100
AcDbSymbolTable
 70
     6
  0
APPID
  5
7476
330
746E
100
AcDbSymbolTableRecord
100
AcDbRegAppTableRecord
  2
ACAD
 70
     0
  0
APPID
  5
DEA9
330
746E
100
AcDbSymbolTableRecord
100
AcDbRegAppTableRecord
  2
CONTENTBLOCKICON
 70
     0
  0
APPID
  5
DEAA
330
746E
100
AcDbSymbolTableRecord
100
AcDbRegAppTableRecord
  2
CONTENTBLOCKDESCRIPTION
 70
     0
  0
APPID
  5
E71D
330
746E
100
AcDbSymbolTableRecord
100
AcDbRegAppTableRecord
  2
CONTENTTABDATA
 70
     0
  0
APPID
  5
E71E
330
746E
100
AcDbSymbolTableRecord
100
AcDbRegAppTableRecord
  2
CONTENTCURRENTTAB
 70
     0
  0
APPID
  5
F3BA
330
746E
100
AcDbSymbolTableRecord
100
AcDbRegAppTableRecord
  2
DRAWINGVARIABLESXDATA
 70
     0
  0
ENDTAB
  0
TABLE
  2
DIMSTYLE
  5
746F
330
0
100
AcDbSymbolTable
 70
     3
100
AcDbDimStyleTable
 71
     0
  0
DIMSTYLE
105
7484
330
746F
100
AcDbSymbolTableRecord
100
AcDbDimStyleTableRecord
  2
JIS
 70
     0
 41
2.5
 42
1.0
 43
7.0
 44
1.0
 73
     0
 74
     0
 77
     1
 78
     8
140
2.5
141
0.0
143
0.0394
147
0.0
172
     1
174
     1
175
     1
340
7475
  0
DIMSTYLE
105
F71F
102
{ACAD_REACTORS
330
13ACA
330
13B15
330
13B17
330
13B23
330
13B9A
330
13BA6
330
13BA9
330
13BAE
330
13EA2
330
13EA3
330
13EBD
330
14548
330
14562
330
149C8
330
14978
330
14951
330
149C7
330
149C6
330
1497C
330
14A13
330
14A22
330
14A2F
330
14A61
330
14C2C
330
14C24
330
14C99
330
14DE0
330
1460F
330
16A26
330
16A25
330
16A24
330
16A78
330
16DCC
330
16DEA
330
16DEB
330
16DEC
330
16DED
330
16DEE
330
16E04
330
16E05
102
}
330
746F
100
AcDbSymbolTableRecord
100
AcDbDimStyleTableRecord
  2
INABA_S40G
 70
     0
 40
40.0
 41
2.5
 42
0.5
 43
7.0
 44
1.5
 73
     0
 74
     0
 77
     3
 78
     8
140
3.0
141
0.0
143
0.0394
147
1.0
172
     1
173
     1
174
     1
178
     7
271
     1
340
F706
341
F770
343
F770
344
F770
  0
DIMSTYLE
105
14FD1
102
{ACAD_REACTORS
330
16E03
102
}
330
746F
100
AcDbSymbolTableRecord
100
AcDbDimStyleTableRecord
  2
INABA_S40
 70
     0
 40
40.0
 41
2.5
 42
0.5
 43
7.0
 44
1.5
 73
     0
 74
     0
 77
     3
 78
     8
140
3.0
141
0.0
143
0.0394
147
1.0
172
     1
173
     1
174
     1
175
     1
178
     7
289
     0
340
7475
341
14F2C
343
14F2C
344
14F2C
  0
ENDTAB
  0
TABLE
  2
BLOCK_RECORD
  5
7466
330
0
100
AcDbSymbolTable
 70
    44
  0
BLOCK_RECORD
  5
747D
330
7466
100
AcDbSymbolTableRecord
100
AcDbBlockTableRecord
  2
*MODEL_SPACE
340
14DF5
  0
BLOCK_RECORD
  5
747A
330
7466
100
AcDbSymbolTableRecord
100
AcDbBlockTableRecord
  2
*PAPER_SPACE
340
14DF6
  0
BLOCK_RECORD
  5
F770
330
7466
100
AcDbSymbolTableRecord
100
AcDbBlockTableRecord
  2
_DOTSMALL
340
0
102
{BLKREFS
331
14893
331
14894
331
14699
331
1469A
331
13DDA
331
13DDB
331
14C92
331
14C93
331
13E45
331
13E46
331
13E5C
331
13E5D
331
13E72
331
13E73
331
13E7F
331
13E80
331
140D0
331
140D1
331
140C5
331
140C6
331
13EE1
331
13EE2
331
146B1
331
146B2
331
146A4
331
146A5
331
1472F
331
14730
331
149CE
331
149CF
331
149DA
331
149DB
331
149E6
331
149E7
331
149F4
331
149F5
331
14A00
331
14A01
331
14A0C
331
14A0D
331
14A1B
331
14A1C
331
14A28
331
14A29
331
14A35
331
14A36
331
14A68
331
14A69
331
14C64
331
14C65
331
14C70
331
14C71
331
14CA1
331
14CA2
331
14DE6
331
14DE7
331
16A60
331
16A61
331
16A96
331
16A97
331
16AB2
331
16AB3
331
16ABB
331
16ABC
331
17094
331
17095
331
1709D
331
1709E
331
170B0
331
170B1
331
170B9
331
170BA
331
170C2
331
170C3
331
170CD
331
170CE
331
170D7
331
170D8
331
170E0
331
170E1
102
}
  0
BLOCK_RECORD
  5
13C12
330
7466
100
AcDbSymbolTableRecord
100
AcDbBlockTableRecord
  2
*D1
340
0
  0
BLOCK_RECORD
  5
13C5D
330
7466
100
AcDbSymbolTableRecord
100
AcDbBlockTableRecord
  2
*D2
340
0
  0
BLOCK_RECORD
  5
13C69
330
7466
100
AcDbSymbolTableRecord
100
AcDbBlockTableRecord
  2
*D3
340
0
  0
BLOCK_RECORD
  5
13C83
330
7466
100
AcDbSymbolTableRecord
100
AcDbBlockTableRecord
  2
*D4
340
0
  0
BLOCK_RECORD
  5
13CDD
330
7466
100
AcDbSymbolTableRecord
100
AcDbBlockTableRecord
  2
*D5
340
0
  0
BLOCK_RECORD
  5
13CF8
330
7466
100
AcDbSymbolTableRecord
100
AcDbBlockTableRecord
  2
*D6
340
0
  0
BLOCK_RECORD
  5
13D10
330
7466
100
AcDbSymbolTableRecord
100
AcDbBlockTableRecord
  2
*D7
340
0
  0
BLOCK_RECORD
  5
13D1C
330
7466
100
AcDbSymbolTableRecord
100
AcDbBlockTableRecord
  2
*D8
340
0
  0
BLOCK_RECORD
  5
13EC4
330
7466
100
AcDbSymbolTableRecord
100
AcDbBlockTableRecord
  2
*D9
340
0
  0
BLOCK_RECORD
  5
13ED0
330
7466
100
AcDbSymbolTableRecord
100
AcDbBlockTableRecord
  2
*D10
340
0
  0
BLOCK_RECORD
  5
13EDC
330
7466
100
AcDbSymbolTableRecord
100
AcDbBlockTableRecord
  2
*D11
340
0
  0
BLOCK_RECORD
  5
1453A
330
7466
100
AcDbSymbolTableRecord
100
AcDbBlockTableRecord
  2
*D12
340
0
  0
BLOCK_RECORD
  5
14556
330
7466
100
AcDbSymbolTableRecord
100
AcDbBlockTableRecord
  2
*D13
340
0
  0
BLOCK_RECORD
  5
14610
330
7466
100
AcDbSymbolTableRecord
100
AcDbBlockTableRecord
  2
*D14
340
0
  0
BLOCK_RECORD
  5
149C9
330
7466
100
AcDbSymbolTableRecord
100
AcDbBlockTableRecord
  2
*D15
340
0
  0
BLOCK_RECORD
  5
149D5
330
7466
100
AcDbSymbolTableRecord
100
AcDbBlockTableRecord
  2
*D16
340
0
  0
BLOCK_RECORD
  5
149E1
330
7466
100
AcDbSymbolTableRecord
100
AcDbBlockTableRecord
  2
*D17
340
0
  0
BLOCK_RECORD
  5
149ED
330
7466
100
AcDbSymbolTableRecord
100
AcDbBlockTableRecord
  2
*D18
340
0
  0
BLOCK_RECORD
  5
149FB
330
7466
100
AcDbSymbolTableRecord
100
AcDbBlockTableRecord
  2
*D19
340
0
  0
BLOCK_RECORD
  5
14A07
330
7466
100
AcDbSymbolTableRecord
100
AcDbBlockTableRecord
  2
*D20
340
0
  0
BLOCK_RECORD
  5
14A14
330
7466
100
AcDbSymbolTableRecord
100
AcDbBlockTableRecord
  2
*D21
340
0
  0
BLOCK_RECORD
  5
14A23
330
7466
100
AcDbSymbolTableRecord
100
AcDbBlockTableRecord
  2
*D22
340
0
  0
BLOCK_RECORD
  5
14A30
330
7466
100
AcDbSymbolTableRecord
100
AcDbBlockTableRecord
  2
*D23
340
0
  0
BLOCK_RECORD
  5
14A53
330
7466
100
AcDbSymbolTableRecord
100
AcDbBlockTableRecord
  2
*D24
340
0
  0
BLOCK_RECORD
  5
14C5F
330
7466
100
AcDbSymbolTableRecord
100
AcDbBlockTableRecord
  2
*D25
340
0
  0
BLOCK_RECORD
  5
14C6B
330
7466
100
AcDbSymbolTableRecord
100
AcDbBlockTableRecord
  2
*D26
340
0
  0
BLOCK_RECORD
  5
14C9A
330
7466
100
AcDbSymbolTableRecord
100
AcDbBlockTableRecord
  2
*D27
340
0
  0
BLOCK_RECORD
  5
14DE1
330
7466
100
AcDbSymbolTableRecord
100
AcDbBlockTableRecord
  2
*D28
340
0
  0
BLOCK_RECORD
  5
14F2C
330
7466
100
AcDbSymbolTableRecord
100
AcDbBlockTableRecord
  2
_OPEN
340
0
  0
BLOCK_RECORD
  5
14F32
330
7466
100
AcDbSymbolTableRecord
100
AcDbBlockTableRecord
  2
_DOT
340
0
102
{BLKREFS
331
170A6
331
170A7
102
}
  0
BLOCK_RECORD
  5
16A35
330
7466
100
AcDbSymbolTableRecord
100
AcDbBlockTableRecord
  2
*D31
340
0
  0
BLOCK_RECORD
  5
16A43
330
7466
100
AcDbSymbolTableRecord
100
AcDbBlockTableRecord
  2
*D32
340
0
  0
BLOCK_RECORD
  5
16A4F
330
7466
100
AcDbSymbolTableRecord
100
AcDbBlockTableRecord
  2
*D33
340
0
  0
BLOCK_RECORD
  5
16A83
330
7466
100
AcDbSymbolTableRecord
100
AcDbBlockTableRecord
  2
*D34
340
0
  0
BLOCK_RECORD
  5
16F55
330
7466
100
AcDbSymbolTableRecord
100
AcDbBlockTableRecord
  2
*D35
340
0
  0
BLOCK_RECORD
  5
16F61
330
7466
100
AcDbSymbolTableRecord
100
AcDbBlockTableRecord
  2
*D36
340
0
  0
BLOCK_RECORD
  5
16F6E
330
7466
100
AcDbSymbolTableRecord
100
AcDbBlockTableRecord
  2
*D37
340
0
  0
BLOCK_RECORD
  5
16F7C
330
7466
100
AcDbSymbolTableRecord
100
AcDbBlockTableRecord
  2
*D38
340
0
  0
BLOCK_RECORD
  5
16F88
330
7466
100
AcDbSymbolTableRecord
100
AcDbBlockTableRecord
  2
*D39
340
0
  0
BLOCK_RECORD
  5
16F94
330
7466
100
AcDbSymbolTableRecord
100
AcDbBlockTableRecord
  2
*D40
340
0
  0
BLOCK_RECORD
  5
16FA1
330
7466
100
AcDbSymbolTableRecord
100
AcDbBlockTableRecord
  2
*D41
340
0
  0
BLOCK_RECORD
  5
16FAD
330
7466
100
AcDbSymbolTableRecord
100
AcDbBlockTableRecord
  2
*D42
340
0
  0
BLOCK_RECORD
  5
16FB9
330
7466
100
AcDbSymbolTableRecord
100
AcDbBlockTableRecord
  2
*D43
340
0
  0
ENDTAB
  0
ENDSEC
  0
SECTION
  2
BLOCKS
  0
BLOCK
  5
7489
330
747D
100
AcDbEntity
  8
0
100
AcDbBlockBegin
  2
*MODEL_SPACE
 70
     0
 10
0.0
 20
0.0
 30
0.0
  3
*MODEL_SPACE
  1

  0
ENDBLK
  5
748A
330
747D
100
AcDbEntity
  8
0
100
AcDbBlockEnd
  0
BLOCK
  5
7487
330
747A
100
AcDbEntity
 67
     1
  8
0
100
AcDbBlockBegin
  2
*PAPER_SPACE
 70
     0
 10
0.0
 20
0.0
 30
0.0
  3
*PAPER_SPACE
  1

  0
ENDBLK
  5
7488
330
747A
100
AcDbEntity
 67
     1
  8
0
100
AcDbBlockEnd
  0
BLOCK
  5
F771
330
F770
100
AcDbEntity
  8
0
 48
50.0
100
AcDbBlockBegin
  2
_DOTSMALL
 70
     0
 10
0.0
 20
0.0
 30
0.0
  3
_DOTSMALL
  1

  0
LWPOLYLINE
  5
F772
330
F770
100
AcDbEntity
  8
0
  6
ByBlock
 62
     0
 48
50.0
100
AcDbPolyline
 90
        2
 70
     1
 43
0.5
 10
-0.0625
 20
0.0
 42
1.0
 10
0.0625
 20
0.0
 42
1.0
  0
ENDBLK
  5
F776
330
F770
100
AcDbEntity
  8
0
 48
50.0
100
AcDbBlockEnd
  0
BLOCK
  5
1488F
330
13C12
100
AcDbEntity
  8
0
 48
50.0
100
AcDbBlockBegin
  2
*D1
 70
     1
 10
0.0
 20
0.0
 30
0.0
  3
*D1
  1

  0
LINE
  5
14890
330
13C12
100
AcDbEntity
  8
0
  6
ByBlock
 62
     0
 48
50.0
100
AcDbLine
 10
5419.484998239401
 20
5391.07727689386
 30
0.0
 11
5061.380470631797
 21
5391.07727689386
 31
0.0
  0
LINE
  5
14891
330
13C12
100
AcDbEntity
  8
0
  6
ByBlock
 62
     0
 48
50.0
100
AcDbLine
 10
5419.484998239401
 20
3631.077276893865
 30
0.0
 11
5061.380470631797
 21
3631.077276893865
 31
0.0
  0
LINE
  5
14892
330
13C12
100
AcDbEntity
  8
0
  6
ByBlock
 62
     0
 48
50.0
100
AcDbLine
 10
5121.380470631797
 20
5391.07727689386
 30
0.0
 11
5121.380470631797
 21
3631.077276893865
 31
0.0
  0
INSERT
  5
14893
330
13C12
100
AcDbEntity
  8
0
  6
ByBlock
 62
     0
 48
50.0
100
AcDbBlockReference
  2
_DOTSMALL
 10
5121.380470631797
 20
5391.07727689386
 30
0.0
 41
100.0
 42
100.0
 43
100.0
 50
90.0
  0
INSERT
  5
14894
330
13C12
100
AcDbEntity
  8
0
  6
ByBlock
 62
     0
 48
50.0
100
AcDbBlockReference
  2
_DOTSMALL
 10
5121.380470631797
 20
3631.077276893865
 30
0.0
 41
100.0
 42
100.0
 43
100.0
 50
270.0
  0
MTEXT
  5
14895
330
13C12
100
AcDbEntity
  8
0
  6
ByBlock
 62
     7
 48
50.0
100
AcDbMText
 10
5021.380470631797
 20
4510.077276893862
 30
0.0
 40
120.0
 41
0.0
 71
     5
 72
     1
  1
\A1;有効開口部高サ1760
  7
STYLE1
 11
0.0000000000000001
 21
1.0
 31
0.0
 73
     1
 44
1.0
1001
ACAD
1000
MTEXTBEGIN
1070
    73
1070
     1
1070
    44
1040
1.0
1070
    74
1070
     0
1000
MTEXTEND
  0
POINT
  5
14896
330
13C12
100
AcDbEntity
  8
DEFPOINTS
  6
ByBlock
 62
     0
 48
50.0
100
AcDbPoint
 10
5439.4849982394
 20
5391.07727689386
 30
0.0
  0
POINT
  5
14897
330
13C12
100
AcDbEntity
  8
DEFPOINTS
  6
ByBlock
 62
     0
 48
50.0
100
AcDbPoint
 10
5439.4849982394
 20
3631.077276893865
 30
0.0
  0
POINT
  5
14898
330
13C12
100
AcDbEntity
  8
DEFPOINTS
  6
ByBlock
 62
     0
 48
50.0
100
AcDbPoint
 10
5121.380470631797
 20
3631.077276893865
 30
0.0
  0
ENDBLK
  5
14899
330
13C12
100
AcDbEntity
  8
0
 48
50.0
100
AcDbBlockEnd
  0
BLOCK
  5
14695
330
13C5D
100
AcDbEntity
  8
0
 48
50.0
100
AcDbBlockBegin
  2
*D2
 70
     1
 10
0.0
 20
0.0
 30
0.0
  3
*D2
  1

  0
LINE
  5
14696
330
13C5D
100
AcDbEntity
  8
0
  6
ByBlock
 62
     0
 48
50.0
100
AcDbLine
 10
5494.484998239407
 20
8584.14310272647
 30
0.0
 11
5494.484998239407
 21
8839.951322351568
 31
0.0
  0
LINE
  5
14697
330
13C5D
100
AcDbEntity
  8
0
  6
ByBlock
 62
     0
 48
50.0
100
AcDbLine
 10
6204.484998239406
 20
8584.14310272659
 30
0.0
 11
6204.484998239406
 21
8839.951322351568
 31
0.0
  0
LINE
  5
14698
330
13C5D
100
AcDbEntity
  8
0
  6
ByBlock
 62
     0
 48
50.0
100
AcDbLine
 10
5494.484998239407
 20
8779.951322351568
 30
0.0
 11
6204.484998239406
 21
8779.951322351568
 31
0.0
  0
INSERT
  5
14699
330
13C5D
100
AcDbEntity
  8
0
  6
ByBlock
 62
     0
 48
50.0
100
AcDbBlockReference
  2
_DOTSMALL
 10
5494.484998239407
 20
8779.951322351568
 30
0.0
 41
100.0
 42
100.0
 43
100.0
 50
180.0
  0
INSERT
  5
1469A
330
13C5D
100
AcDbEntity
  8
0
  6
ByBlock
 62
     0
 48
50.0
100
AcDbBlockReference
  2
_DOTSMALL
 10
6204.484998239406
 20
8779.951322351568
 30
0.0
 41
100.0
 42
100.0
 43
100.0
  0
MTEXT
  5
1469B
330
13C5D
100
AcDbEntity
  8
0
  6
ByBlock
 62
     7
 48
50.0
100
AcDbMText
 10
5849.734998239406
 20
8879.951322351567
 30
0.0
 40
120.0
 41
0.0
 71
     5
 72
     1
  1
\A1;710
  7
STYLE1
 73
     1
 44
1.0
1001
ACAD
1000
MTEXTBEGIN
1070
    73
1070
     1
1070
    44
1040
1.0
1070
    74
1070
     0
1000
MTEXTEND
  0
POINT
  5
1469C
330
13C5D
100
AcDbEntity
  8
DEFPOINTS
  6
ByBlock
 62
     0
 48
50.0
100
AcDbPoint
 10
5494.484998239407
 20
8564.14310272647
 30
0.0
  0
POINT
  5
1469D
330
13C5D
100
AcDbEntity
  8
DEFPOINTS
  6
ByBlock
 62
     0
 48
50.0
100
AcDbPoint
 10
6204.484998239406
 20
8564.143102726589
 30
0.0
  0
POINT
  5
1469E
330
13C5D
100
AcDbEntity
  8
DEFPOINTS
  6
ByBlock
 62
     0
 48
50.0
100
AcDbPoint
 10
6204.484998239406
 20
8779.951322351568
 30
0.0
  0
ENDBLK
  5
1469F
330
13C5D
100
AcDbEntity
  8
0
 48
50.0
100
AcDbBlockEnd
  0
BLOCK
  5
13DD4
330
13C69
100
AcDbEntity
  8
0
 48
50.0
100
AcDbBlockBegin
  2
*D3
 70
     1
 10
0.0
 20
0.0
 30
0.0
  3
*D3
  1

  0
LINE
  5
13DD5
330
13C69
100
AcDbEntity
  8
0
  6
ByBlock
 62
     0
 48
50.0
100
AcDbLine
 10
8628.90098488779
 20
13597.87961312368
 30
0.0
 11
8628.90098488779
 21
13853.68783274867
 31
0.0
  0
LINE
  5
13DD6
330
13C69
100
AcDbEntity
  8
0
  6
ByBlock
 62
     0
 48
50.0
100
AcDbLine
 10
8683.90098488779
 20
13597.87961312368
 30
0.0
 11
8683.90098488779
 21
13853.68783274867
 31
0.0
  0
LINE
  5
13DD7
330
13C69
100
AcDbEntity
  8
0
  6
ByBlock
 62
     0
 48
50.0
100
AcDbLine
 10
8628.90098488779
 20
13793.68783274867
 30
0.0
 11
8528.900984887791
 21
13793.68783274867
 31
0.0
  0
LINE
  5
13DD8
330
13C69
100
AcDbEntity
  8
0
  6
ByBlock
 62
     0
 48
50.0
100
AcDbLine
 10
8683.90098488779
 20
13793.68783274867
 30
0.0
 11
9100.871547636266
 21
13793.68783274867
 31
0.0
  0
LINE
  5
13DD9
330
13C69
100
AcDbEntity
  8
0
  6
ByBlock
 62
     0
 48
50.0
100
AcDbLine
 10
8628.90098488779
 20
13793.68783274867
 30
0.0
 11
8683.90098488779
 21
13793.68783274867
 31
0.0
  0
INSERT
  5
13DDA
330
13C69
100
AcDbEntity
  8
0
  6
ByBlock
 62
     0
 48
50.0
100
AcDbBlockReference
  2
_DOTSMALL
 10
8628.90098488779
 20
13793.68783274867
 30
0.0
 41
100.0
 42
100.0
 43
100.0
  0
INSERT
  5
13DDB
330
13C69
100
AcDbEntity
  8
0
  6
ByBlock
 62
     0
 48
50.0
100
AcDbBlockReference
  2
_DOTSMALL
 10
8683.90098488779
 20
13793.68783274867
 30
0.0
 41
100.0
 42
100.0
 43
100.0
 50
180.0
  0
MTEXT
  5
13DDC
330
13C69
100
AcDbEntity
  8
0
  6
ByBlock
 62
     7
 48
50.0
100
AcDbMText
 10
8992.386266262029
 20
13893.68783274867
 30
0.0
 40
120.0
 41
0.0
 71
     5
 72
     1
  1
\A1;55
  7
STYLE1
 73
     1
 44
1.0
1001
ACAD
1000
MTEXTBEGIN
1070
    73
1070
     1
1070
    44
1040
1.0
1070
    74
1070
     0
1000
MTEXTEND
  0
POINT
  5
13DDD
330
13C69
100
AcDbEntity
  8
DEFPOINTS
  6
ByBlock
 62
     0
 48
50.0
100
AcDbPoint
 10
8628.90098488779
 20
13577.87961312368
 30
0.0
  0
POINT
  5
13DDE
330
13C69
100
AcDbEntity
  8
DEFPOINTS
  6
ByBlock
 62
     0
 48
50.0
100
AcDbPoint
 10
8683.90098488779
 20
13577.87961312368
 30
0.0
  0
POINT
  5
13DDF
330
13C69
100
AcDbEntity
  8
DEFPOINTS
  6
ByBlock
 62
     0
 48
50.0
100
AcDbPoint
 10
8683.90098488779
 20
13793.68783274867
 30
0.0
  0
ENDBLK
  5
13DE0
330
13C69
100
AcDbEntity
  8
0
 48
50.0
100
AcDbBlockEnd
  0
BLOCK
  5
14C8E
330
13C83
100
AcDbEntity
  8
0
 48
50.0
100
AcDbBlockBegin
  2
*D4
 70
     1
 10
0.0
 20
0.0
 30
0.0
  3
*D4
  1

  0
LINE
  5
14C8F
330
13C83
100
AcDbEntity
  8
0
  6
ByBlock
 62
     0
 48
50.0
100
AcDbLine
 10
3799.484998239401
 20
8336.3659151083
 30
0.0
 11
3799.484998239401
 21
7309.264040248283
 31
0.0
  0
LINE
  5
14C90
330
13C83
100
AcDbEntity
  8
0
  6
ByBlock
 62
     0
 48
50.0
100
AcDbLine
 10
7899.484998239383
 20
8336.365915108464
 30
0.0
 11
7899.484998239383
 21
7309.264040248283
 31
0.0
  0
LINE
  5
14C91
330
13C83
100
AcDbEntity
  8
0
  6
ByBlock
 62
     0
 48
50.0
100
AcDbLine
 10
3799.484998239401
 20
7369.264040248284
 30
0.0
 11
7899.484998239383
 21
7369.264040248284
 31
0.0
  0
INSERT
  5
14C92
330
13C83
100
AcDbEntity
  8
0
  6
ByBlock
 62
     0
 48
50.0
100
AcDbBlockReference
  2
_DOTSMALL
 10
3799.484998239401
 20
7369.264040248284
 30
0.0
 41
100.0
 42
100.0
 43
100.0
 50
180.0
  0
INSERT
  5
14C93
330
13C83
100
AcDbEntity
  8
0
  6
ByBlock
 62
     0
 48
50.0
100
AcDbBlockReference
  2
_DOTSMALL
 10
7899.484998239383
 20
7369.264040248284
 30
0.0
 41
100.0
 42
100.0
 43
100.0
  0
MTEXT
  5
14C94
330
13C83
100
AcDbEntity
  8
0
  6
ByBlock
 62
     7
 48
50.0
100
AcDbMText
 10
5849.484998239391
 20
7469.264040248283
 30
0.0
 40
120.0
 41
0.0
 71
     5
 72
     1
  1
\A1;4100
  7
STYLE1
 73
     1
 44
1.0
1001
ACAD
1000
MTEXTBEGIN
1070
    73
1070
     1
1070
    44
1040
1.0
1070
    74
1070
     0
1000
MTEXTEND
  0
POINT
  5
14C95
330
13C83
100
AcDbEntity
  8
DEFPOINTS
  6
ByBlock
 62
     0
 48
50.0
100
AcDbPoint
 10
3799.484998239401
 20
8356.3659151083
 30
0.0
  0
POINT
  5
14C96
330
13C83
100
AcDbEntity
  8
DEFPOINTS
  6
ByBlock
 62
     0
 48
50.0
100
AcDbPoint
 10
7899.484998239383
 20
8356.365915108463
 30
0.0
  0
POINT
  5
14C97
330
13C83
100
AcDbEntity
  8
DEFPOINTS
  6
ByBlock
 62
     0
 48
50.0
100
AcDbPoint
 10
7899.484998239383
 20
7369.264040248284
 30
0.0
  0
ENDBLK
  5
14C98
330
13C83
100
AcDbEntity
  8
0
 48
50.0
100
AcDbBlockEnd
  0
BLOCK
  5
13E3F
330
13CDD
100
AcDbEntity
  8
0
 48
50.0
100
AcDbBlockBegin
  2
*D5
 70
     1
 10
0.0
 20
0.0
 30
0.0
  3
*D5
  1

  0
LINE
  5
13E40
330
13CDD
100
AcDbEntity
  8
0
  6
ByBlock
 62
     0
 48
50.0
100
AcDbLine
 10
8703.900984887765
 20
12682.87961312367
 30
0.0
 11
9391.327330622173
 21
12682.87961312367
 31
0.0
  0
LINE
  5
13E41
330
13CDD
100
AcDbEntity
  8
0
  6
ByBlock
 62
     0
 48
50.0
100
AcDbLine
 10
8703.900984887765
 20
12627.87961312367
 30
0.0
 11
9391.327330622173
 21
12627.87961312367
 31
0.0
  0
LINE
  5
13E42
330
13CDD
100
AcDbEntity
  8
0
  6
ByBlock
 62
     0
 48
50.0
100
AcDbLine
 10
9331.327330622174
 20
12682.87961312367
 30
0.0
 11
9331.327330622174
 21
12782.87961312367
 31
0.0
  0
LINE
  5
13E43
330
13CDD
100
AcDbEntity
  8
0
  6
ByBlock
 62
     0
 48
50.0
100
AcDbLine
 10
9331.327330622174
 20
12627.87961312367
 30
0.0
 11
9331.327330622174
 21
12141.53286484457
 31
0.0
  0
LINE
  5
13E44
330
13CDD
100
AcDbEntity
  8
0
  6
ByBlock
 62
     0
 48
50.0
100
AcDbLine
 10
9331.327330622174
 20
12682.87961312367
 30
0.0
 11
9331.327330622174
 21
12627.87961312367
 31
0.0
  0
INSERT
  5
13E45
330
13CDD
100
AcDbEntity
  8
0
  6
ByBlock
 62
     0
 48
50.0
100
AcDbBlockReference
  2
_DOTSMALL
 10
9331.327330622174
 20
12682.87961312367
 30
0.0
 41
100.0
 42
100.0
 43
100.0
 50
270.0
  0
INSERT
  5
13E46
330
13CDD
100
AcDbEntity
  8
0
  6
ByBlock
 62
     0
 48
50.0
100
AcDbBlockReference
  2
_DOTSMALL
 10
9331.327330622174
 20
12627.87961312367
 30
0.0
 41
100.0
 42
100.0
 43
100.0
 50
90.0
  0
MTEXT
  5
13E47
330
13CDD
100
AcDbEntity
  8
0
  6
ByBlock
 62
     7
 48
50.0
100
AcDbMText
 10
9231.327330622175
 20
12250.01814621881
 30
0.0
 40
120.0
 41
0.0
 71
     5
 72
     1
  1
\A1;55
  7
STYLE1
 11
0.0000000000000001
 21
1.0
 31
0.0
 73
     1
 44
1.0
1001
ACAD
1000
MTEXTBEGIN
1070
    73
1070
     1
1070
    44
1040
1.0
1070
    74
1070
     0
1000
MTEXTEND
  0
POINT
  5
13E48
330
13CDD
100
AcDbEntity
  8
DEFPOINTS
  6
ByBlock
 62
     0
 48
50.0
100
AcDbPoint
 10
8683.900984887765
 20
12682.87961312367
 30
0.0
  0
POINT
  5
13E49
330
13CDD
100
AcDbEntity
  8
DEFPOINTS
  6
ByBlock
 62
     0
 48
50.0
100
AcDbPoint
 10
8683.900984887765
 20
12627.87961312367
 30
0.0
  0
POINT
  5
13E4A
330
13CDD
100
AcDbEntity
  8
DEFPOINTS
  6
ByBlock
 62
     0
 48
50.0
100
AcDbPoint
 10
9331.327330622174
 20
12627.87961312367
 30
0.0
  0
ENDBLK
  5
13E4B
330
13CDD
100
AcDbEntity
  8
0
 48
50.0
100
AcDbBlockEnd
  0
BLOCK
  5
13E58
330
13CF8
100
AcDbEntity
  8
0
 48
50.0
100
AcDbBlockBegin
  2
*D6
 70
     1
 10
0.0
 20
0.0
 30
0.0
  3
*D6
  1

  0
LINE
  5
13E59
330
13CF8
100
AcDbEntity
  8
0
  6
ByBlock
 62
     0
 48
50.0
100
AcDbLine
 10
8703.900984887791
 20
13522.87961312369
 30
0.0
 11
9391.3273306222
 21
13522.87961312369
 31
0.0
  0
LINE
  5
13E5A
330
13CF8
100
AcDbEntity
  8
0
  6
ByBlock
 62
     0
 48
50.0
100
AcDbLine
 10
8703.900984887765
 20
12682.87961312367
 30
0.0
 11
9391.3273306222
 21
12682.87961312367
 31
0.0
  0
LINE
  5
13E5B
330
13CF8
100
AcDbEntity
  8
0
  6
ByBlock
 62
     0
 48
50.0
100
AcDbLine
 10
9331.327330622199
 20
13522.87961312369
 30
0.0
 11
9331.327330622199
 21
12682.87961312367
 31
0.0
  0
INSERT
  5
13E5C
330
13CF8
100
AcDbEntity
  8
0
  6
ByBlock
 62
     0
 48
50.0
100
AcDbBlockReference
  2
_DOTSMALL
 10
9331.327330622199
 20
13522.87961312369
 30
0.0
 41
100.0
 42
100.0
 43
100.0
 50
90.0
  0
INSERT
  5
13E5D
330
13CF8
100
AcDbEntity
  8
0
  6
ByBlock
 62
     0
 48
50.0
100
AcDbBlockReference
  2
_DOTSMALL
 10
9331.327330622199
 20
12682.87961312367
 30
0.0
 41
100.0
 42
100.0
 43
100.0
 50
270.0
  0
MTEXT
  5
13E5E
330
13CF8
100
AcDbEntity
  8
0
  6
ByBlock
 62
     7
 48
50.0
100
AcDbMText
 10
9231.315519598579
 20
13102.87961312368
 30
0.0
 40
120.0
 41
0.0
 71
     5
 72
     1
  1
\A1;2X420=840
  7
STYLE1
 11
0.0000000000000001
 21
1.0
 31
0.0
 73
     1
 44
1.0
1001
ACAD
1000
MTEXTBEGIN
1070
    73
1070
     1
1070
    44
1040
1.0
1070
    74
1070
     0
1000
MTEXTEND
  0
POINT
  5
13E5F
330
13CF8
100
AcDbEntity
  8
DEFPOINTS
  6
ByBlock
 62
     0
 48
50.0
100
AcDbPoint
 10
8683.90098488779
 20
13522.87961312369
 30
0.0
  0
POINT
  5
13E60
330
13CF8
100
AcDbEntity
  8
DEFPOINTS
  6
ByBlock
 62
     0
 48
50.0
100
AcDbPoint
 10
8683.900984887765
 20
12682.87961312367
 30
0.0
  0
POINT
  5
13E61
330
13CF8
100
AcDbEntity
  8
DEFPOINTS
  6
ByBlock
 62
     0
 48
50.0
100
AcDbPoint
 10
9331.327330622199
 20
12682.87961312367
 30
0.0
  0
ENDBLK
  5
13E62
330
13CF8
100
AcDbEntity
  8
0
 48
50.0
100
AcDbBlockEnd
  0
BLOCK
  5
13E6E
330
13D10
100
AcDbEntity
  8
0
 48
50.0
100
AcDbBlockBegin
  2
*D7
 70
     1
 10
0.0
 20
0.0
 30
0.0
  3
*D7
  1

  0
LINE
  5
13E6F
330
13D10
100
AcDbEntity
  8
0
  6
ByBlock
 62
     0
 48
50.0
100
AcDbLine
 10
8703.900984887791
 20
13577.87961312368
 30
0.0
 11
9700.438861437877
 21
13577.87961312368
 31
0.0
  0
LINE
  5
13E70
330
13D10
100
AcDbEntity
  8
0
  6
ByBlock
 62
     0
 48
50.0
100
AcDbLine
 10
8703.900984887765
 20
12627.87961312367
 30
0.0
 11
9700.438861437877
 21
12627.87961312367
 31
0.0
  0
LINE
  5
13E71
330
13D10
100
AcDbEntity
  8
0
  6
ByBlock
 62
     0
 48
50.0
100
AcDbLine
 10
9640.438861437878
 20
13577.87961312368
 30
0.0
 11
9640.438861437878
 21
12627.87961312367
 31
0.0
  0
INSERT
  5
13E72
330
13D10
100
AcDbEntity
  8
0
  6
ByBlock
 62
     0
 48
50.0
100
AcDbBlockReference
  2
_DOTSMALL
 10
9640.438861437878
 20
13577.87961312368
 30
0.0
 41
100.0
 42
100.0
 43
100.0
 50
90.0
  0
INSERT
  5
13E73
330
13D10
100
AcDbEntity
  8
0
  6
ByBlock
 62
     0
 48
50.0
100
AcDbBlockReference
  2
_DOTSMALL
 10
9640.438861437878
 20
12627.87961312367
 30
0.0
 41
100.0
 42
100.0
 43
100.0
 50
270.0
  0
MTEXT
  5
13E74
330
13D10
100
AcDbEntity
  8
0
  6
ByBlock
 62
     7
 48
50.0
100
AcDbMText
 10
9540.438861437877
 20
13101.85733168259
 30
0.0
 40
120.0
 41
0.0
 71
     5
 72
     1
  1
\A1;950
  7
STYLE1
 11
0.0000000000000001
 21
1.0
 31
0.0
 73
     1
 44
1.0
1001
ACAD
1000
MTEXTBEGIN
1070
    73
1070
     1
1070
    44
1040
1.0
1070
    74
1070
     0
1000
MTEXTEND
  0
POINT
  5
13E75
330
13D10
100
AcDbEntity
  8
DEFPOINTS
  6
ByBlock
 62
     0
 48
50.0
100
AcDbPoint
 10
8683.90098488779
 20
13577.87961312368
 30
0.0
  0
POINT
  5
13E76
330
13D10
100
AcDbEntity
  8
DEFPOINTS
  6
ByBlock
 62
     0
 48
50.0
100
AcDbPoint
 10
8683.900984887765
 20
12627.87961312367
 30
0.0
  0
POINT
  5
13E77
330
13D10
100
AcDbEntity
  8
DEFPOINTS
  6
ByBlock
 62
     0
 48
50.0
100
AcDbPoint
 10
9640.438861437878
 20
12627.87961312367
 30
0.0
  0
ENDBLK
  5
13E78
330
13D10
100
AcDbEntity
  8
0
 48
50.0
100
AcDbBlockEnd
  0
BLOCK
  5
13E79
330
13D1C
100
AcDbEntity
  8
0
 48
50.0
100
AcDbBlockBegin
  2
*D8
 70
     1
 10
0.0
 20
0.0
 30
0.0
  3
*D8
  1

  0
LINE
  5
13E7A
330
13D1C
100
AcDbEntity
  8
0
  6
ByBlock
 62
     0
 48
50.0
100
AcDbLine
 10
8703.900984887791
 20
13577.87961312368
 30
0.0
 11
9391.3273306222
 21
13577.87961312368
 31
0.0
  0
LINE
  5
13E7B
330
13D1C
100
AcDbEntity
  8
0
  6
ByBlock
 62
     0
 48
50.0
100
AcDbLine
 10
8703.900984887791
 20
13522.87961312369
 30
0.0
 11
9391.3273306222
 21
13522.87961312369
 31
0.0
  0
LINE
  5
13E7C
330
13D1C
100
AcDbEntity
  8
0
  6
ByBlock
 62
     0
 48
50.0
100
AcDbLine
 10
9331.327330622199
 20
13522.87961312369
 30
0.0
 11
9331.327330622199
 21
13422.87961312369
 31
0.0
  0
LINE
  5
13E7D
330
13D1C
100
AcDbEntity
  8
0
  6
ByBlock
 62
     0
 48
50.0
100
AcDbLine
 10
9331.327330622199
 20
13577.87961312368
 30
0.0
 11
9331.327330622199
 21
13994.85017587216
 31
0.0
  0
LINE
  5
13E7E
330
13D1C
100
AcDbEntity
  8
0
  6
ByBlock
 62
     0
 48
50.0
100
AcDbLine
 10
9331.327330622199
 20
13522.87961312369
 30
0.0
 11
9331.327330622199
 21
13577.87961312368
 31
0.0
  0
INSERT
  5
13E7F
330
13D1C
100
AcDbEntity
  8
0
  6
ByBlock
 62
     0
 48
50.0
100
AcDbBlockReference
  2
_DOTSMALL
 10
9331.327330622199
 20
13522.87961312369
 30
0.0
 41
100.0
 42
100.0
 43
100.0
 50
90.0
  0
INSERT
  5
13E80
330
13D1C
100
AcDbEntity
  8
0
  6
ByBlock
 62
     0
 48
50.0
100
AcDbBlockReference
  2
_DOTSMALL
 10
9331.327330622199
 20
13577.87961312368
 30
0.0
 41
100.0
 42
100.0
 43
100.0
 50
270.0
  0
MTEXT
  5
13E81
330
13D1C
100
AcDbEntity
  8
0
  6
ByBlock
 62
     7
 48
50.0
100
AcDbMText
 10
9231.3273306222
 20
13886.36489449792
 30
0.0
 40
120.0
 41
0.0
 71
     5
 72
     1
  1
\A1;55
  7
STYLE1
 11
0.0000000000000001
 21
1.0
 31
0.0
 73
     1
 44
1.0
1001
ACAD
1000
MTEXTBEGIN
1070
    73
1070
     1
1070
    44
1040
1.0
1070
    74
1070
     0
1000
MTEXTEND
  0
POINT
  5
13E82
330
13D1C
100
AcDbEntity
  8
DEFPOINTS
  6
ByBlock
 62
     0
 48
50.0
100
AcDbPoint
 10
8683.90098488779
 20
13577.87961312368
 30
0.0
  0
POINT
  5
13E83
330
13D1C
100
AcDbEntity
  8
DEFPOINTS
  6
ByBlock
 62
     0
 48
50.0
100
AcDbPoint
 10
8683.90098488779
 20
13522.87961312369
 30
0.0
  0
POINT
  5
13E84
330
13D1C
100
AcDbEntity
  8
DEFPOINTS
  6
ByBlock
 62
     0
 48
50.0
100
AcDbPoint
 10
9331.327330622199
 20
13522.87961312369
 30
0.0
  0
ENDBLK
  5
13E85
330
13D1C
100
AcDbEntity
  8
0
 48
50.0
100
AcDbBlockEnd
  0
BLOCK
  5
140CC
330
13EC4
100
AcDbEntity
  8
0
 48
50.0
100
AcDbBlockBegin
  2
*D9
 70
     1
 10
0.0
 20
0.0
 30
0.0
  3
*D9
  1

  0
LINE
  5
140CD
330
13EC4
100
AcDbEntity
  8
0
  6
ByBlock
 62
     0
 48
50.0
100
AcDbLine
 10
5374.630061001094
 20
10589.84961463429
 30
0.0
 11
5305.218597009869
 21
10330.8025043913
 31
0.0
  0
LINE
  5
140CE
330
13EC4
100
AcDbEntity
  8
0
  6
ByBlock
 62
     0
 48
50.0
100
AcDbLine
 10
6135.630061001106
 20
10589.84961463429
 30
0.0
 11
6066.218597009882
 21
10330.8025043913
 31
0.0
  0
LINE
  5
140CF
330
13EC4
100
AcDbEntity
  8
0
  6
ByBlock
 62
     0
 48
50.0
100
AcDbLine
 10
5321.295548555738
 20
10390.8025043913
 30
0.0
 11
6082.295548555751
 21
10390.8025043913
 31
0.0
  0
INSERT
  5
140D0
330
13EC4
100
AcDbEntity
  8
0
  6
ByBlock
 62
     0
 48
50.0
100
AcDbBlockReference
  2
_DOTSMALL
 10
5321.295548555738
 20
10390.8025043913
 30
0.0
 41
100.0
 42
100.0
 43
100.0
 50
180.0
  0
INSERT
  5
140D1
330
13EC4
100
AcDbEntity
  8
0
  6
ByBlock
 62
     0
 48
50.0
100
AcDbBlockReference
  2
_DOTSMALL
 10
6082.295548555751
 20
10390.8025043913
 30
0.0
 41
100.0
 42
100.0
 43
100.0
  0
MTEXT
  5
140D2
330
13EC4
100
AcDbEntity
  8
0
  6
ByBlock
 62
     7
 48
50.0
100
AcDbMText
 10
5759.336106967985
 20
10490.80250439131
 30
0.0
 40
120.0
 41
0.0
 71
     5
 72
     1
  1
\A1;761
  7
STYLE1
 73
     1
 44
1.0
1001
ACAD
1000
MTEXTBEGIN
1070
    73
1070
     1
1070
    44
1040
1.0
1070
    74
1070
     0
1000
MTEXTEND
  0
POINT
  5
140D3
330
13EC4
100
AcDbEntity
  8
DEFPOINTS
  6
ByBlock
 62
     0
 48
50.0
100
AcDbPoint
 10
5379.989044849716
 20
10609.84961463429
 30
0.0
  0
POINT
  5
140D4
330
13EC4
100
AcDbEntity
  8
DEFPOINTS
  6
ByBlock
 62
     0
 48
50.0
100
AcDbPoint
 10
6140.989044849728
 20
10609.84961463429
 30
0.0
  0
POINT
  5
140D5
330
13EC4
100
AcDbEntity
  8
DEFPOINTS
  6
ByBlock
 62
     0
 48
50.0
100
AcDbPoint
 10
6082.295548555751
 20
10390.8025043913
 30
0.0
  0
ENDBLK
  5
140D6
330
13EC4
100
AcDbEntity
  8
0
 48
50.0
100
AcDbBlockEnd
  0
BLOCK
  5
140C1
330
13ED0
100
AcDbEntity
  8
0
 48
50.0
100
AcDbBlockBegin
  2
*D10
 70
     1
 10
0.0
 20
0.0
 30
0.0
  3
*D10
  1

  0
LINE
  5
140C2
330
13ED0
100
AcDbEntity
  8
0
  6
ByBlock
 62
     0
 48
50.0
100
AcDbLine
 10
4586.630061001096
 20
10589.84961463418
 30
0.0
 11
4517.218597009871
 21
10330.8025043912
 31
0.0
  0
LINE
  5
140C3
330
13ED0
100
AcDbEntity
  8
0
  6
ByBlock
 62
     0
 48
50.0
100
AcDbLine
 10
5347.630061001108
 20
10589.84961463418
 30
0.0
 11
5278.218597009884
 21
10330.8025043912
 31
0.0
  0
LINE
  5
140C4
330
13ED0
100
AcDbEntity
  8
0
  6
ByBlock
 62
     0
 48
50.0
100
AcDbLine
 10
4533.29554855574
 20
10390.8025043912
 30
0.0
 11
5294.295548555752
 21
10390.8025043912
 31
0.0
  0
INSERT
  5
140C5
330
13ED0
100
AcDbEntity
  8
0
  6
ByBlock
 62
     0
 48
50.0
100
AcDbBlockReference
  2
_DOTSMALL
 10
4533.29554855574
 20
10390.8025043912
 30
0.0
 41
100.0
 42
100.0
 43
100.0
 50
180.0
  0
INSERT
  5
140C6
330
13ED0
100
AcDbEntity
  8
0
  6
ByBlock
 62
     0
 48
50.0
100
AcDbBlockReference
  2
_DOTSMALL
 10
5294.295548555752
 20
10390.8025043912
 30
0.0
 41
100.0
 42
100.0
 43
100.0
  0
MTEXT
  5
140C7
330
13ED0
100
AcDbEntity
  8
0
  6
ByBlock
 62
     7
 48
50.0
100
AcDbMText
 10
4913.795548555746
 20
10490.8025043912
 30
0.0
 40
120.0
 41
0.0
 71
     5
 72
     1
  1
\A1;761
  7
STYLE1
 73
     1
 44
1.0
1001
ACAD
1000
MTEXTBEGIN
1070
    73
1070
     1
1070
    44
1040
1.0
1070
    74
1070
     0
1000
MTEXTEND
  0
POINT
  5
140C8
330
13ED0
100
AcDbEntity
  8
DEFPOINTS
  6
ByBlock
 62
     0
 48
50.0
100
AcDbPoint
 10
4591.989044849718
 20
10609.84961463418
 30
0.0
  0
POINT
  5
140C9
330
13ED0
100
AcDbEntity
  8
DEFPOINTS
  6
ByBlock
 62
     0
 48
50.0
100
AcDbPoint
 10
5352.98904484973
 20
10609.84961463418
 30
0.0
  0
POINT
  5
140CA
330
13ED0
100
AcDbEntity
  8
DEFPOINTS
  6
ByBlock
 62
     0
 48
50.0
100
AcDbPoint
 10
5294.295548555752
 20
10390.8025043912
 30
0.0
  0
ENDBLK
  5
140CB
330
13ED0
100
AcDbEntity
  8
0
 48
50.0
100
AcDbBlockEnd
  0
BLOCK
  5
13EDD
330
13EDC
100
AcDbEntity
  8
0
 48
50.0
100
AcDbBlockBegin
  2
*D11
 70
     1
 10
0.0
 20
0.0
 30
0.0
  3
*D11
  1

  0
LINE
  5
13EDE
330
13EDC
100
AcDbEntity
  8
0
  6
ByBlock
 62
     0
 48
50.0
100
AcDbLine
 10
6252.989044849717
 20
9346.780072267632
 30
0.0
 11
6648.346770711741
 21
9240.844288901499
 31
0.0
  0
LINE
  5
13EDF
330
13EDC
100
AcDbEntity
  8
0
  6
ByBlock
 62
     0
 48
50.0
100
AcDbLine
 10
6252.989044849717
 20
8896.780072267633
 30
0.0
 11
6648.346770711741
 21
8790.844288901499
 31
0.0
  0
LINE
  5
13EE0
330
13EDC
100
AcDbEntity
  8
0
  6
ByBlock
 62
     0
 48
50.0
100
AcDbLine
 10
6588.346770711742
 20
9256.921240447367
 30
0.0
 11
6588.346770711742
 21
8806.921240447366
 31
0.0
  0
INSERT
  5
13EE1
330
13EDC
100
AcDbEntity
  8
0
  6
ByBlock
 62
     0
 48
50.0
100
AcDbBlockReference
  2
_DOTSMALL
 10
6588.346770711742
 20
9256.921240447367
 30
0.0
 41
100.0
 42
100.0
 43
100.0
 50
90.0
  0
INSERT
  5
13EE2
330
13EDC
100
AcDbEntity
  8
0
  6
ByBlock
 62
     0
 48
50.0
100
AcDbBlockReference
  2
_DOTSMALL
 10
6588.346770711742
 20
8806.921240447366
 30
0.0
 41
100.0
 42
100.0
 43
100.0
 50
270.0
  0
MTEXT
  5
13EE3
330
13EDC
100
AcDbEntity
  8
0
  6
ByBlock
 62
     7
 48
50.0
100
AcDbMText
 10
6488.346770711742
 20
9031.921240447365
 30
0.0
 40
120.0
 41
0.0
 71
     5
 72
     1
  1
\A1;450
  7
STYLE1
 11
0.0000000000000001
 21
1.0
 31
0.0
 73
     1
 44
1.0
1001
ACAD
1000
MTEXTBEGIN
1070
    73
1070
     1
1070
    44
1040
1.0
1070
    74
1070
     0
1000
MTEXTEND
  0
POINT
  5
13EE4
330
13EDC
100
AcDbEntity
  8
DEFPOINTS
  6
ByBlock
 62
     0
 48
50.0
100
AcDbPoint
 10
6232.989044849717
 20
9352.139056116255
 30
0.0
  0
POINT
  5
13EE5
330
13EDC
100
AcDbEntity
  8
DEFPOINTS
  6
ByBlock
 62
     0
 48
50.0
100
AcDbPoint
 10
6232.989044849717
 20
8902.139056116254
 30
0.0
  0
POINT
  5
13EE6
330
13EDC
100
AcDbEntity
  8
DEFPOINTS
  6
ByBlock
 62
     0
 48
50.0
100
AcDbPoint
 10
6588.346770711742
 20
8806.921240447366
 30
0.0
  0
ENDBLK
  5
13EE7
330
13EDC
100
AcDbEntity
  8
0
 48
50.0
100
AcDbBlockEnd
  0
BLOCK
  5
146AB
330
1453A
100
AcDbEntity
  8
0
 48
50.0
100
AcDbBlockBegin
  2
*D12
 70
     1
 10
0.0
 20
0.0
 30
0.0
  3
*D12
  1

  0
LINE
  5
146AC
330
1453A
100
AcDbEntity
  8
0
  6
ByBlock
 62
     0
 48
50.0
100
AcDbLine
 10
6204.484998239406
 20
8584.14310272659
 30
0.0
 11
6204.484998239406
 21
8839.951322351568
 31
0.0
  0
LINE
  5
146AD
330
1453A
100
AcDbEntity
  8
0
  6
ByBlock
 62
     0
 48
50.0
100
AcDbLine
 10
6314.48499823941
 20
8584.143102726569
 30
0.0
 11
6314.48499823941
 21
8839.951322351568
 31
0.0
  0
LINE
  5
146AE
330
1453A
100
AcDbEntity
  8
0
  6
ByBlock
 62
     0
 48
50.0
100
AcDbLine
 10
6204.484998239406
 20
8779.951322351568
 30
0.0
 11
6104.484998239406
 21
8779.951322351568
 31
0.0
  0
LINE
  5
146AF
330
1453A
100
AcDbEntity
  8
0
  6
ByBlock
 62
     0
 48
50.0
100
AcDbLine
 10
6314.48499823941
 20
8779.951322351568
 30
0.0
 11
6414.48499823941
 21
8779.951322351568
 31
0.0
  0
LINE
  5
146B0
330
1453A
100
AcDbEntity
  8
0
  6
ByBlock
 62
     0
 48
50.0
100
AcDbLine
 10
6204.484998239406
 20
8779.951322351568
 30
0.0
 11
6314.48499823941
 21
8779.951322351568
 31
0.0
  0
INSERT
  5
146B1
330
1453A
100
AcDbEntity
  8
0
  6
ByBlock
 62
     0
 48
50.0
100
AcDbBlockReference
  2
_DOTSMALL
 10
6204.484998239406
 20
8779.951322351568
 30
0.0
 41
100.0
 42
100.0
 43
100.0
  0
INSERT
  5
146B2
330
1453A
100
AcDbEntity
  8
0
  6
ByBlock
 62
     0
 48
50.0
100
AcDbBlockReference
  2
_DOTSMALL
 10
6314.48499823941
 20
8779.951322351568
 30
0.0
 41
100.0
 42
100.0
 43
100.0
 50
180.0
  0
MTEXT
  5
146B3
330
1453A
100
AcDbEntity
  8
0
  6
ByBlock
 62
     7
 48
50.0
100
AcDbMText
 10
6259.484998239408
 20
8879.951322351567
 30
0.0
 40
120.0
 41
0.0
 71
     5
 72
     1
  1
\A1;110
  7
STYLE1
 73
     1
 44
1.0
1001
ACAD
1000
MTEXTBEGIN
1070
    73
1070
     1
1070
    44
1040
1.0
1070
    74
1070
     0
1000
MTEXTEND
  0
POINT
  5
146B4
330
1453A
100
AcDbEntity
  8
DEFPOINTS
  6
ByBlock
 62
     0
 48
50.0
100
AcDbPoint
 10
6204.484998239406
 20
8564.143102726589
 30
0.0
  0
POINT
  5
146B5
330
1453A
100
AcDbEntity
  8
DEFPOINTS
  6
ByBlock
 62
     0
 48
50.0
100
AcDbPoint
 10
6314.48499823941
 20
8564.143102726568
 30
0.0
  0
POINT
  5
146B6
330
1453A
100
AcDbEntity
  8
DEFPOINTS
  6
ByBlock
 62
     0
 48
50.0
100
AcDbPoint
 10
6314.48499823941
 20
8779.951322351568
 30
0.0
  0
ENDBLK
  5
146B7
330
1453A
100
AcDbEntity
  8
0
 48
50.0
100
AcDbBlockEnd
  0
BLOCK
  5
146A0
330
14556
100
AcDbEntity
  8
0
 48
50.0
100
AcDbBlockBegin
  2
*D13
 70
     1
 10
0.0
 20
0.0
 30
0.0
  3
*D13
  1

  0
LINE
  5
146A1
330
14556
100
AcDbEntity
  8
0
  6
ByBlock
 62
     0
 48
50.0
100
AcDbLine
 10
7024.484998239408
 20
8584.143102726583
 30
0.0
 11
7024.484998239408
 21
8839.951322351568
 31
0.0
  0
LINE
  5
146A2
330
14556
100
AcDbEntity
  8
0
  6
ByBlock
 62
     0
 48
50.0
100
AcDbLine
 10
6314.48499823941
 20
8584.143102726569
 30
0.0
 11
6314.48499823941
 21
8839.951322351568
 31
0.0
  0
LINE
  5
146A3
330
14556
100
AcDbEntity
  8
0
  6
ByBlock
 62
     0
 48
50.0
100
AcDbLine
 10
7024.484998239408
 20
8779.951322351568
 30
0.0
 11
6314.48499823941
 21
8779.951322351568
 31
0.0
  0
INSERT
  5
146A4
330
14556
100
AcDbEntity
  8
0
  6
ByBlock
 62
     0
 48
50.0
100
AcDbBlockReference
  2
_DOTSMALL
 10
7024.484998239408
 20
8779.951322351568
 30
0.0
 41
100.0
 42
100.0
 43
100.0
  0
INSERT
  5
146A5
330
14556
100
AcDbEntity
  8
0
  6
ByBlock
 62
     0
 48
50.0
100
AcDbBlockReference
  2
_DOTSMALL
 10
6314.48499823941
 20
8779.951322351568
 30
0.0
 41
100.0
 42
100.0
 43
100.0
 50
180.0
  0
MTEXT
  5
146A6
330
14556
100
AcDbEntity
  8
0
  6
ByBlock
 62
     7
 48
50.0
100
AcDbMText
 10
6669.484998239409
 20
8879.951322351567
 30
0.0
 40
120.0
 41
0.0
 71
     5
 72
     1
  1
\A1;710
  7
STYLE1
 73
     1
 44
1.0
1001
ACAD
1000
MTEXTBEGIN
1070
    73
1070
     1
1070
    44
1040
1.0
1070
    74
1070
     0
1000
MTEXTEND
  0
POINT
  5
146A7
330
14556
100
AcDbEntity
  8
DEFPOINTS
  6
ByBlock
 62
     0
 48
50.0
100
AcDbPoint
 10
7024.484998239408
 20
8564.143102726582
 30
0.0
  0
POINT
  5
146A8
330
14556
100
AcDbEntity
  8
DEFPOINTS
  6
ByBlock
 62
     0
 48
50.0
100
AcDbPoint
 10
6314.48499823941
 20
8564.143102726568
 30
0.0
  0
POINT
  5
146A9
330
14556
100
AcDbEntity
  8
DEFPOINTS
  6
ByBlock
 62
     0
 48
50.0
100
AcDbPoint
 10
6314.48499823941
 20
8779.951322351568
 30
0.0
  0
ENDBLK
  5
146AA
330
14556
100
AcDbEntity
  8
0
 48
50.0
100
AcDbBlockEnd
  0
BLOCK
  5
1472B
330
14610
100
AcDbEntity
  8
0
 48
50.0
100
AcDbBlockBegin
  2
*D14
 70
     1
 10
0.0
 20
0.0
 30
0.0
  3
*D14
  1

  0
LINE
  5
1472C
330
14610
100
AcDbEntity
  8
0
  6
ByBlock
 62
     0
 48
50.0
100
AcDbLine
 10
6314.484998239404
 20
7594.143102726509
 30
0.0
 11
6314.484998239404
 21
7114.319434931386
 31
0.0
  0
LINE
  5
1472D
330
14610
100
AcDbEntity
  8
0
  6
ByBlock
 62
     0
 48
50.0
100
AcDbLine
 10
6999.484998239402
 20
7594.14310272666
 30
0.0
 11
6999.484998239402
 21
7114.319434931386
 31
0.0
  0
LINE
  5
1472E
330
14610
100
AcDbEntity
  8
0
  6
ByBlock
 62
     0
 48
50.0
100
AcDbLine
 10
6314.484998239404
 20
7174.319434931385
 30
0.0
 11
6999.484998239402
 21
7174.319434931385
 31
0.0
  0
INSERT
  5
1472F
330
14610
100
AcDbEntity
  8
0
  6
ByBlock
 62
     0
 48
50.0
100
AcDbBlockReference
  2
_DOTSMALL
 10
6314.484998239404
 20
7174.319434931385
 30
0.0
 41
100.0
 42
100.0
 43
100.0
 50
180.0
  0
INSERT
  5
14730
330
14610
100
AcDbEntity
  8
0
  6
ByBlock
 62
     0
 48
50.0
100
AcDbBlockReference
  2
_DOTSMALL
 10
6999.484998239402
 20
7174.319434931385
 30
0.0
 41
100.0
 42
100.0
 43
100.0
  0
MTEXT
  5
14731
330
14610
100
AcDbEntity
  8
0
  6
ByBlock
 62
     7
 48
50.0
100
AcDbMText
 10
6656.984998239403
 20
7274.319434931385
 30
0.0
 40
120.0
 41
0.0
 71
     5
 72
     1
  1
\A1;685
  7
STYLE1
 73
     1
 44
1.0
1001
ACAD
1000
MTEXTBEGIN
1070
    73
1070
     1
1070
    44
1040
1.0
1070
    74
1070
     0
1000
MTEXTEND
  0
POINT
  5
14732
330
14610
100
AcDbEntity
  8
DEFPOINTS
  6
ByBlock
 62
     0
 48
50.0
100
AcDbPoint
 10
6314.484998239404
 20
7614.143102726508
 30
0.0
  0
POINT
  5
14733
330
14610
100
AcDbEntity
  8
DEFPOINTS
  6
ByBlock
 62
     0
 48
50.0
100
AcDbPoint
 10
6999.484998239402
 20
7614.143102726661
 30
0.0
  0
POINT
  5
14734
330
14610
100
AcDbEntity
  8
DEFPOINTS
  6
ByBlock
 62
     0
 48
50.0
100
AcDbPoint
 10
6999.484998239402
 20
7174.319434931385
 30
0.0
  0
ENDBLK
  5
14735
330
14610
100
AcDbEntity
  8
0
 48
50.0
100
AcDbBlockEnd
  0
BLOCK
  5
149CA
330
149C9
100
AcDbEntity
  8
0
 48
50.0
100
AcDbBlockBegin
  2
*D15
 70
     1
 10
0.0
 20
0.0
 30
0.0
  3
*D15
  1

  0
LINE
  5
149CB
330
149C9
100
AcDbEntity
  8
0
  6
ByBlock
 62
     0
 48
50.0
100
AcDbLine
 10
5494.484998239407
 20
9326.365915108434
 30
0.0
 11
5494.484998239407
 21
9582.174134733532
 31
0.0
  0
LINE
  5
149CC
330
149C9
100
AcDbEntity
  8
0
  6
ByBlock
 62
     0
 48
50.0
100
AcDbLine
 10
6204.484998239406
 20
9326.365915108555
 30
0.0
 11
6204.484998239406
 21
9582.174134733532
 31
0.0
  0
LINE
  5
149CD
330
149C9
100
AcDbEntity
  8
0
  6
ByBlock
 62
     0
 48
50.0
100
AcDbLine
 10
5494.484998239407
 20
9522.174134733532
 30
0.0
 11
6204.484998239406
 21
9522.174134733532
 31
0.0
  0
INSERT
  5
149CE
330
149C9
100
AcDbEntity
  8
0
  6
ByBlock
 62
     0
 48
50.0
100
AcDbBlockReference
  2
_DOTSMALL
 10
5494.484998239407
 20
9522.174134733532
 30
0.0
 41
100.0
 42
100.0
 43
100.0
 50
180.0
  0
INSERT
  5
149CF
330
149C9
100
AcDbEntity
  8
0
  6
ByBlock
 62
     0
 48
50.0
100
AcDbBlockReference
  2
_DOTSMALL
 10
6204.484998239406
 20
9522.174134733532
 30
0.0
 41
100.0
 42
100.0
 43
100.0
  0
MTEXT
  5
149D0
330
149C9
100
AcDbEntity
  8
0
  6
ByBlock
 62
     7
 48
50.0
100
AcDbMText
 10
5849.734998239406
 20
9622.174134733533
 30
0.0
 40
120.0
 41
0.0
 71
     5
 72
     1
  1
\A1;710
  7
STYLE1
 73
     1
 44
1.0
1001
ACAD
1000
MTEXTBEGIN
1070
    73
1070
     1
1070
    44
1040
1.0
1070
    74
1070
     0
1000
MTEXTEND
  0
POINT
  5
149D1
330
149C9
100
AcDbEntity
  8
DEFPOINTS
  6
ByBlock
 62
     0
 48
50.0
100
AcDbPoint
 10
5494.484998239407
 20
9306.365915108434
 30
0.0
  0
POINT
  5
149D2
330
149C9
100
AcDbEntity
  8
DEFPOINTS
  6
ByBlock
 62
     0
 48
50.0
100
AcDbPoint
 10
6204.484998239406
 20
9306.365915108555
 30
0.0
  0
POINT
  5
149D3
330
149C9
100
AcDbEntity
  8
DEFPOINTS
  6
ByBlock
 62
     0
 48
50.0
100
AcDbPoint
 10
6204.484998239406
 20
9522.174134733532
 30
0.0
  0
ENDBLK
  5
149D4
330
149C9
100
AcDbEntity
  8
0
 48
50.0
100
AcDbBlockEnd
  0
BLOCK
  5
149D6
330
149D5
100
AcDbEntity
  8
0
 48
50.0
100
AcDbBlockBegin
  2
*D16
 70
     1
 10
0.0
 20
0.0
 30
0.0
  3
*D16
  1

  0
LINE
  5
149D7
330
149D5
100
AcDbEntity
  8
0
  6
ByBlock
 62
     0
 48
50.0
100
AcDbLine
 10
6283.626014390717
 20
8806.865915108483
 30
0.0
 11
6214.214550399493
 21
8547.818804865499
 31
0.0
  0
LINE
  5
149D8
330
149D5
100
AcDbEntity
  8
0
  6
ByBlock
 62
     0
 48
50.0
100
AcDbLine
 10
7044.626014390729
 20
8806.865915108479
 30
0.0
 11
6975.214550399506
 21
8547.818804865499
 31
0.0
  0
LINE
  5
149D9
330
149D5
100
AcDbEntity
  8
0
  6
ByBlock
 62
     0
 48
50.0
100
AcDbLine
 10
6230.291501945361
 20
8607.8188048655
 30
0.0
 11
6991.291501945373
 21
8607.8188048655
 31
0.0
  0
INSERT
  5
149DA
330
149D5
100
AcDbEntity
  8
0
  6
ByBlock
 62
     0
 48
50.0
100
AcDbBlockReference
  2
_DOTSMALL
 10
6230.291501945361
 20
8607.8188048655
 30
0.0
 41
100.0
 42
100.0
 43
100.0
 50
180.0
  0
INSERT
  5
149DB
330
149D5
100
AcDbEntity
  8
0
  6
ByBlock
 62
     0
 48
50.0
100
AcDbBlockReference
  2
_DOTSMALL
 10
6991.291501945373
 20
8607.8188048655
 30
0.0
 41
100.0
 42
100.0
 43
100.0
  0
MTEXT
  5
149DC
330
149D5
100
AcDbEntity
  8
0
  6
ByBlock
 62
     7
 48
50.0
100
AcDbMText
 10
6668.332060357609
 20
8707.8188048655
 30
0.0
 40
120.0
 41
0.0
 71
     5
 72
     1
  1
\A1;761
  7
STYLE1
 73
     1
 44
1.0
1001
ACAD
1000
MTEXTBEGIN
1070
    73
1070
     1
1070
    44
1040
1.0
1070
    74
1070
     0
1000
MTEXTEND
  0
POINT
  5
149DD
330
149D5
100
AcDbEntity
  8
DEFPOINTS
  6
ByBlock
 62
     0
 48
50.0
100
AcDbPoint
 10
6288.98499823934
 20
8826.865915108482
 30
0.0
  0
POINT
  5
149DE
330
149D5
100
AcDbEntity
  8
DEFPOINTS
  6
ByBlock
 62
     0
 48
50.0
100
AcDbPoint
 10
7049.984998239351
 20
8826.865915108479
 30
0.0
  0
POINT
  5
149DF
330
149D5
100
AcDbEntity
  8
DEFPOINTS
  6
ByBlock
 62
     0
 48
50.0
100
AcDbPoint
 10
6991.291501945373
 20
8607.8188048655
 30
0.0
  0
ENDBLK
  5
149E0
330
149D5
100
AcDbEntity
  8
0
 48
50.0
100
AcDbBlockEnd
  0
BLOCK
  5
149E2
330
149E1
100
AcDbEntity
  8
0
 48
50.0
100
AcDbBlockBegin
  2
*D17
 70
     1
 10
0.0
 20
0.0
 30
0.0
  3
*D17
  1

  0
LINE
  5
149E3
330
149E1
100
AcDbEntity
  8
0
  6
ByBlock
 62
     0
 48
50.0
100
AcDbLine
 10
5463.626021068417
 20
8806.865915108437
 30
0.0
 11
5394.214557077193
 21
8547.818804865455
 31
0.0
  0
LINE
  5
149E4
330
149E1
100
AcDbEntity
  8
0
  6
ByBlock
 62
     0
 48
50.0
100
AcDbLine
 10
6224.626021068429
 20
8806.865915108435
 30
0.0
 11
6155.214557077205
 21
8547.818804865455
 31
0.0
  0
LINE
  5
149E5
330
149E1
100
AcDbEntity
  8
0
  6
ByBlock
 62
     0
 48
50.0
100
AcDbLine
 10
5410.29150862306
 20
8607.818804865454
 30
0.0
 11
6171.291508623074
 21
8607.818804865454
 31
0.0
  0
INSERT
  5
149E6
330
149E1
100
AcDbEntity
  8
0
  6
ByBlock
 62
     0
 48
50.0
100
AcDbBlockReference
  2
_DOTSMALL
 10
5410.29150862306
 20
8607.818804865454
 30
0.0
 41
100.0
 42
100.0
 43
100.0
 50
180.0
  0
INSERT
  5
149E7
330
149E1
100
AcDbEntity
  8
0
  6
ByBlock
 62
     0
 48
50.0
100
AcDbBlockReference
  2
_DOTSMALL
 10
6171.291508623074
 20
8607.818804865454
 30
0.0
 41
100.0
 42
100.0
 43
100.0
  0
MTEXT
  5
149E8
330
149E1
100
AcDbEntity
  8
0
  6
ByBlock
 62
     7
 48
50.0
100
AcDbMText
 10
5790.791508623067
 20
8707.818804865453
 30
0.0
 40
120.0
 41
0.0
 71
     5
 72
     1
  1
\A1;761
  7
STYLE1
 73
     1
 44
1.0
1001
ACAD
1000
MTEXTBEGIN
1070
    73
1070
     1
1070
    44
1040
1.0
1070
    74
1070
     0
1000
MTEXTEND
  0
POINT
  5
149E9
330
149E1
100
AcDbEntity
  8
DEFPOINTS
  6
ByBlock
 62
     0
 48
50.0
100
AcDbPoint
 10
5468.985004917039
 20
8826.865915108438
 30
0.0
  0
POINT
  5
149EA
330
149E1
100
AcDbEntity
  8
DEFPOINTS
  6
ByBlock
 62
     0
 48
50.0
100
AcDbPoint
 10
6229.98500491705
 20
8826.865915108433
 30
0.0
  0
POINT
  5
149EB
330
149E1
100
AcDbEntity
  8
DEFPOINTS
  6
ByBlock
 62
     0
 48
50.0
100
AcDbPoint
 10
6171.291508623074
 20
8607.818804865454
 30
0.0
  0
ENDBLK
  5
149EC
330
149E1
100
AcDbEntity
  8
0
 48
50.0
100
AcDbBlockEnd
  0
BLOCK
  5
149EE
330
149ED
100
AcDbEntity
  8
0
 48
50.0
100
AcDbBlockBegin
  2
*D18
 70
     1
 10
0.0
 20
0.0
 30
0.0
  3
*D18
  1

  0
LINE
  5
149EF
330
149ED
100
AcDbEntity
  8
0
  6
ByBlock
 62
     0
 48
50.0
100
AcDbLine
 10
6204.484998239406
 20
9326.365915108555
 30
0.0
 11
6204.484998239406
 21
9582.174134733532
 31
0.0
  0
LINE
  5
149F0
330
149ED
100
AcDbEntity
  8
0
  6
ByBlock
 62
     0
 48
50.0
100
AcDbLine
 10
6314.48499823941
 20
9326.365915108532
 30
0.0
 11
6314.48499823941
 21
9582.174134733532
 31
0.0
  0
LINE
  5
149F1
330
149ED
100
AcDbEntity
  8
0
  6
ByBlock
 62
     0
 48
50.0
100
AcDbLine
 10
6204.484998239406
 20
9522.174134733532
 30
0.0
 11
6104.484998239406
 21
9522.174134733532
 31
0.0
  0
LINE
  5
149F2
330
149ED
100
AcDbEntity
  8
0
  6
ByBlock
 62
     0
 48
50.0
100
AcDbLine
 10
6314.48499823941
 20
9522.174134733532
 30
0.0
 11
6414.48499823941
 21
9522.174134733532
 31
0.0
  0
LINE
  5
149F3
330
149ED
100
AcDbEntity
  8
0
  6
ByBlock
 62
     0
 48
50.0
100
AcDbLine
 10
6204.484998239406
 20
9522.174134733532
 30
0.0
 11
6314.48499823941
 21
9522.174134733532
 31
0.0
  0
INSERT
  5
149F4
330
149ED
100
AcDbEntity
  8
0
  6
ByBlock
 62
     0
 48
50.0
100
AcDbBlockReference
  2
_DOTSMALL
 10
6204.484998239406
 20
9522.174134733532
 30
0.0
 41
100.0
 42
100.0
 43
100.0
  0
INSERT
  5
149F5
330
149ED
100
AcDbEntity
  8
0
  6
ByBlock
 62
     0
 48
50.0
100
AcDbBlockReference
  2
_DOTSMALL
 10
6314.48499823941
 20
9522.174134733532
 30
0.0
 41
100.0
 42
100.0
 43
100.0
 50
180.0
  0
MTEXT
  5
149F6
330
149ED
100
AcDbEntity
  8
0
  6
ByBlock
 62
     7
 48
50.0
100
AcDbMText
 10
6259.484998239408
 20
9622.174134733533
 30
0.0
 40
120.0
 41
0.0
 71
     5
 72
     1
  1
\A1;110
  7
STYLE1
 73
     1
 44
1.0
1001
ACAD
1000
MTEXTBEGIN
1070
    73
1070
     1
1070
    44
1040
1.0
1070
    74
1070
     0
1000
MTEXTEND
  0
POINT
  5
149F7
330
149ED
100
AcDbEntity
  8
DEFPOINTS
  6
ByBlock
 62
     0
 48
50.0
100
AcDbPoint
 10
6204.484998239406
 20
9306.365915108555
 30
0.0
  0
POINT
  5
149F8
330
149ED
100
AcDbEntity
  8
DEFPOINTS
  6
ByBlock
 62
     0
 48
50.0
100
AcDbPoint
 10
6314.48499823941
 20
9306.365915108532
 30
0.0
  0
POINT
  5
149F9
330
149ED
100
AcDbEntity
  8
DEFPOINTS
  6
ByBlock
 62
     0
 48
50.0
100
AcDbPoint
 10
6314.48499823941
 20
9522.174134733532
 30
0.0
  0
ENDBLK
  5
149FA
330
149ED
100
AcDbEntity
  8
0
 48
50.0
100
AcDbBlockEnd
  0
BLOCK
  5
149FC
330
149FB
100
AcDbEntity
  8
0
 48
50.0
100
AcDbBlockBegin
  2
*D19
 70
     1
 10
0.0
 20
0.0
 30
0.0
  3
*D19
  1

  0
LINE
  5
149FD
330
149FB
100
AcDbEntity
  8
0
  6
ByBlock
 62
     0
 48
50.0
100
AcDbLine
 10
7024.484998239408
 20
9326.365915108546
 30
0.0
 11
7024.484998239408
 21
9582.174134733532
 31
0.0
  0
LINE
  5
149FE
330
149FB
100
AcDbEntity
  8
0
  6
ByBlock
 62
     0
 48
50.0
100
AcDbLine
 10
6314.48499823941
 20
9326.365915108532
 30
0.0
 11
6314.48499823941
 21
9582.174134733532
 31
0.0
  0
LINE
  5
149FF
330
149FB
100
AcDbEntity
  8
0
  6
ByBlock
 62
     0
 48
50.0
100
AcDbLine
 10
7024.484998239408
 20
9522.174134733532
 30
0.0
 11
6314.48499823941
 21
9522.174134733532
 31
0.0
  0
INSERT
  5
14A00
330
149FB
100
AcDbEntity
  8
0
  6
ByBlock
 62
     0
 48
50.0
100
AcDbBlockReference
  2
_DOTSMALL
 10
7024.484998239408
 20
9522.174134733532
 30
0.0
 41
100.0
 42
100.0
 43
100.0
  0
INSERT
  5
14A01
330
149FB
100
AcDbEntity
  8
0
  6
ByBlock
 62
     0
 48
50.0
100
AcDbBlockReference
  2
_DOTSMALL
 10
6314.48499823941
 20
9522.174134733532
 30
0.0
 41
100.0
 42
100.0
 43
100.0
 50
180.0
  0
MTEXT
  5
14A02
330
149FB
100
AcDbEntity
  8
0
  6
ByBlock
 62
     7
 48
50.0
100
AcDbMText
 10
6669.484998239409
 20
9622.174134733533
 30
0.0
 40
120.0
 41
0.0
 71
     5
 72
     1
  1
\A1;710
  7
STYLE1
 73
     1
 44
1.0
1001
ACAD
1000
MTEXTBEGIN
1070
    73
1070
     1
1070
    44
1040
1.0
1070
    74
1070
     0
1000
MTEXTEND
  0
POINT
  5
14A03
330
149FB
100
AcDbEntity
  8
DEFPOINTS
  6
ByBlock
 62
     0
 48
50.0
100
AcDbPoint
 10
7024.484998239408
 20
9306.365915108548
 30
0.0
  0
POINT
  5
14A04
330
149FB
100
AcDbEntity
  8
DEFPOINTS
  6
ByBlock
 62
     0
 48
50.0
100
AcDbPoint
 10
6314.48499823941
 20
9306.365915108532
 30
0.0
  0
POINT
  5
14A05
330
149FB
100
AcDbEntity
  8
DEFPOINTS
  6
ByBlock
 62
     0
 48
50.0
100
AcDbPoint
 10
6314.48499823941
 20
9522.174134733532
 30
0.0
  0
ENDBLK
  5
14A06
330
149FB
100
AcDbEntity
  8
0
 48
50.0
100
AcDbBlockEnd
  0
BLOCK
  5
14A08
330
14A07
100
AcDbEntity
  8
0
 48
50.0
100
AcDbBlockBegin
  2
*D20
 70
     1
 10
0.0
 20
0.0
 30
0.0
  3
*D20
  1

  0
LINE
  5
14A09
330
14A07
100
AcDbEntity
  8
0
  6
ByBlock
 62
     0
 48
50.0
100
AcDbLine
 10
6314.484998239404
 20
8336.365915108471
 30
0.0
 11
6314.484998239404
 21
7856.542247313349
 31
0.0
  0
LINE
  5
14A0A
330
14A07
100
AcDbEntity
  8
0
  6
ByBlock
 62
     0
 48
50.0
100
AcDbLine
 10
6999.484998239402
 20
8336.365915108626
 30
0.0
 11
6999.484998239402
 21
7856.542247313349
 31
0.0
  0
LINE
  5
14A0B
330
14A07
100
AcDbEntity
  8
0
  6
ByBlock
 62
     0
 48
50.0
100
AcDbLine
 10
6314.484998239404
 20
7916.542247313349
 30
0.0
 11
6999.484998239402
 21
7916.542247313349
 31
0.0
  0
INSERT
  5
14A0C
330
14A07
100
AcDbEntity
  8
0
  6
ByBlock
 62
     0
 48
50.0
100
AcDbBlockReference
  2
_DOTSMALL
 10
6314.484998239404
 20
7916.542247313349
 30
0.0
 41
100.0
 42
100.0
 43
100.0
 50
180.0
  0
INSERT
  5
14A0D
330
14A07
100
AcDbEntity
  8
0
  6
ByBlock
 62
     0
 48
50.0
100
AcDbBlockReference
  2
_DOTSMALL
 10
6999.484998239402
 20
7916.542247313349
 30
0.0
 41
100.0
 42
100.0
 43
100.0
  0
MTEXT
  5
14A0E
330
14A07
100
AcDbEntity
  8
0
  6
ByBlock
 62
     7
 48
50.0
100
AcDbMText
 10
6656.984998239403
 20
8016.542247313349
 30
0.0
 40
120.0
 41
0.0
 71
     5
 72
     1
  1
\A1;685
  7
STYLE1
 73
     1
 44
1.0
1001
ACAD
1000
MTEXTBEGIN
1070
    73
1070
     1
1070
    44
1040
1.0
1070
    74
1070
     0
1000
MTEXTEND
  0
POINT
  5
14A0F
330
14A07
100
AcDbEntity
  8
DEFPOINTS
  6
ByBlock
 62
     0
 48
50.0
100
AcDbPoint
 10
6314.484998239404
 20
8356.365915108472
 30
0.0
  0
POINT
  5
14A10
330
14A07
100
AcDbEntity
  8
DEFPOINTS
  6
ByBlock
 62
     0
 48
50.0
100
AcDbPoint
 10
6999.484998239402
 20
8356.365915108625
 30
0.0
  0
POINT
  5
14A11
330
14A07
100
AcDbEntity
  8
DEFPOINTS
  6
ByBlock
 62
     0
 48
50.0
100
AcDbPoint
 10
6999.484998239402
 20
7916.542247313349
 30
0.0
  0
ENDBLK
  5
14A12
330
14A07
100
AcDbEntity
  8
0
 48
50.0
100
AcDbBlockEnd
  0
BLOCK
  5
14A15
330
14A14
100
AcDbEntity
  8
0
 48
50.0
100
AcDbBlockBegin
  2
*D21
 70
     1
 10
0.0
 20
0.0
 30
0.0
  3
*D21
  1

  0
LINE
  5
14A16
330
14A14
100
AcDbEntity
  8
0
  6
ByBlock
 62
     0
 48
50.0
100
AcDbLine
 10
6204.484998239406
 20
9326.365915108555
 30
0.0
 11
6204.484998239406
 21
9582.174134733532
 31
0.0
  0
LINE
  5
14A17
330
14A14
100
AcDbEntity
  8
0
  6
ByBlock
 62
     0
 48
50.0
100
AcDbLine
 10
6314.48499823941
 20
9326.365915108532
 30
0.0
 11
6314.48499823941
 21
9582.174134733532
 31
0.0
  0
LINE
  5
14A18
330
14A14
100
AcDbEntity
  8
0
  6
ByBlock
 62
     0
 48
50.0
100
AcDbLine
 10
6204.484998239406
 20
9522.174134733532
 30
0.0
 11
6104.484998239406
 21
9522.174134733532
 31
0.0
  0
LINE
  5
14A19
330
14A14
100
AcDbEntity
  8
0
  6
ByBlock
 62
     0
 48
50.0
100
AcDbLine
 10
6314.48499823941
 20
9522.174134733532
 30
0.0
 11
6414.48499823941
 21
9522.174134733532
 31
0.0
  0
LINE
  5
14A1A
330
14A14
100
AcDbEntity
  8
0
  6
ByBlock
 62
     0
 48
50.0
100
AcDbLine
 10
6204.484998239406
 20
9522.174134733532
 30
0.0
 11
6314.48499823941
 21
9522.174134733532
 31
0.0
  0
INSERT
  5
14A1B
330
14A14
100
AcDbEntity
  8
0
  6
ByBlock
 62
     0
 48
50.0
100
AcDbBlockReference
  2
_DOTSMALL
 10
6204.484998239406
 20
9522.174134733532
 30
0.0
 41
100.0
 42
100.0
 43
100.0
  0
INSERT
  5
14A1C
330
14A14
100
AcDbEntity
  8
0
  6
ByBlock
 62
     0
 48
50.0
100
AcDbBlockReference
  2
_DOTSMALL
 10
6314.48499823941
 20
9522.174134733532
 30
0.0
 41
100.0
 42
100.0
 43
100.0
 50
180.0
  0
MTEXT
  5
14A1D
330
14A14
100
AcDbEntity
  8
0
  6
ByBlock
 62
     7
 48
50.0
100
AcDbMText
 10
6259.484998239408
 20
9622.174134733533
 30
0.0
 40
120.0
 41
0.0
 71
     5
 72
     1
  1
\A1;110
  7
STYLE1
 73
     1
 44
1.0
1001
ACAD
1000
MTEXTBEGIN
1070
    73
1070
     1
1070
    44
1040
1.0
1070
    74
1070
     0
1000
MTEXTEND
  0
POINT
  5
14A1E
330
14A14
100
AcDbEntity
  8
DEFPOINTS
  6
ByBlock
 62
     0
 48
50.0
100
AcDbPoint
 10
6204.484998239406
 20
9306.365915108555
 30
0.0
  0
POINT
  5
14A1F
330
14A14
100
AcDbEntity
  8
DEFPOINTS
  6
ByBlock
 62
     0
 48
50.0
100
AcDbPoint
 10
6314.48499823941
 20
9306.365915108532
 30
0.0
  0
POINT
  5
14A20
330
14A14
100
AcDbEntity
  8
DEFPOINTS
  6
ByBlock
 62
     0
 48
50.0
100
AcDbPoint
 10
6314.48499823941
 20
9522.174134733532
 30
0.0
  0
ENDBLK
  5
14A21
330
14A14
100
AcDbEntity
  8
0
 48
50.0
100
AcDbBlockEnd
  0
BLOCK
  5
14A24
330
14A23
100
AcDbEntity
  8
0
 48
50.0
100
AcDbBlockBegin
  2
*D22
 70
     1
 10
0.0
 20
0.0
 30
0.0
  3
*D22
  1

  0
LINE
  5
14A25
330
14A23
100
AcDbEntity
  8
0
  6
ByBlock
 62
     0
 48
50.0
100
AcDbLine
 10
5494.484998239404
 20
8336.365915108427
 30
0.0
 11
5494.484998239404
 21
7856.542247313349
 31
0.0
  0
LINE
  5
14A26
330
14A23
100
AcDbEntity
  8
0
  6
ByBlock
 62
     0
 48
50.0
100
AcDbLine
 10
6179.4849982394
 20
8336.365915108391
 30
0.0
 11
6179.4849982394
 21
7856.542247313349
 31
0.0
  0
LINE
  5
14A27
330
14A23
100
AcDbEntity
  8
0
  6
ByBlock
 62
     0
 48
50.0
100
AcDbLine
 10
5494.484998239404
 20
7916.542247313349
 30
0.0
 11
6179.4849982394
 21
7916.542247313349
 31
0.0
  0
INSERT
  5
14A28
330
14A23
100
AcDbEntity
  8
0
  6
ByBlock
 62
     0
 48
50.0
100
AcDbBlockReference
  2
_DOTSMALL
 10
5494.484998239404
 20
7916.542247313349
 30
0.0
 41
100.0
 42
100.0
 43
100.0
 50
180.0
  0
INSERT
  5
14A29
330
14A23
100
AcDbEntity
  8
0
  6
ByBlock
 62
     0
 48
50.0
100
AcDbBlockReference
  2
_DOTSMALL
 10
6179.4849982394
 20
7916.542247313349
 30
0.0
 41
100.0
 42
100.0
 43
100.0
  0
MTEXT
  5
14A2A
330
14A23
100
AcDbEntity
  8
0
  6
ByBlock
 62
     7
 48
50.0
100
AcDbMText
 10
5836.984998239403
 20
8116.542247313349
 30
0.0
 40
120.0
 41
0.0
 71
     5
 72
     1
  1
\A1;有効開口部間口\P685
  7
STYLE1
 73
     1
 44
1.0
1001
ACAD
1000
MTEXTBEGIN
1070
    73
1070
     1
1070
    44
1040
1.0
1070
    74
1070
     0
1000
MTEXTEND
  0
POINT
  5
14A2B
330
14A23
100
AcDbEntity
  8
DEFPOINTS
  6
ByBlock
 62
     0
 48
50.0
100
AcDbPoint
 10
5494.484998239404
 20
8356.365915108426
 30
0.0
  0
POINT
  5
14A2C
330
14A23
100
AcDbEntity
  8
DEFPOINTS
  6
ByBlock
 62
     0
 48
50.0
100
AcDbPoint
 10
6179.4849982394
 20
8356.365915108391
 30
0.0
  0
POINT
  5
14A2D
330
14A23
100
AcDbEntity
  8
DEFPOINTS
  6
ByBlock
 62
     0
 48
50.0
100
AcDbPoint
 10
6179.4849982394
 20
7916.542247313349
 30
0.0
  0
ENDBLK
  5
14A2E
330
14A23
100
AcDbEntity
  8
0
 48
50.0
100
AcDbBlockEnd
  0
BLOCK
  5
14A31
330
14A30
100
AcDbEntity
  8
0
 48
50.0
100
AcDbBlockBegin
  2
*D23
 70
     1
 10
0.0
 20
0.0
 30
0.0
  3
*D23
  1

  0
LINE
  5
14A32
330
14A30
100
AcDbEntity
  8
0
  6
ByBlock
 62
     0
 48
50.0
100
AcDbLine
 10
4674.484998239403
 20
8336.365915108471
 30
0.0
 11
4674.484998239403
 21
7856.542247313349
 31
0.0
  0
LINE
  5
14A33
330
14A30
100
AcDbEntity
  8
0
  6
ByBlock
 62
     0
 48
50.0
100
AcDbLine
 10
5359.484998239401
 20
8336.365915108626
 30
0.0
 11
5359.484998239401
 21
7856.542247313349
 31
0.0
  0
LINE
  5
14A34
330
14A30
100
AcDbEntity
  8
0
  6
ByBlock
 62
     0
 48
50.0
100
AcDbLine
 10
4674.484998239403
 20
7916.542247313349
 30
0.0
 11
5359.484998239401
 21
7916.542247313349
 31
0.0
  0
INSERT
  5
14A35
330
14A30
100
AcDbEntity
  8
0
  6
ByBlock
 62
     0
 48
50.0
100
AcDbBlockReference
  2
_DOTSMALL
 10
4674.484998239403
 20
7916.542247313349
 30
0.0
 41
100.0
 42
100.0
 43
100.0
 50
180.0
  0
INSERT
  5
14A36
330
14A30
100
AcDbEntity
  8
0
  6
ByBlock
 62
     0
 48
50.0
100
AcDbBlockReference
  2
_DOTSMALL
 10
5359.484998239401
 20
7916.542247313349
 30
0.0
 41
100.0
 42
100.0
 43
100.0
  0
MTEXT
  5
14A37
330
14A30
100
AcDbEntity
  8
0
  6
ByBlock
 62
     7
 48
50.0
100
AcDbMText
 10
5016.984998239403
 20
8016.542247313349
 30
0.0
 40
120.0
 41
0.0
 71
     5
 72
     1
  1
\A1;685
  7
STYLE1
 73
     1
 44
1.0
1001
ACAD
1000
MTEXTBEGIN
1070
    73
1070
     1
1070
    44
1040
1.0
1070
    74
1070
     0
1000
MTEXTEND
  0
POINT
  5
14A38
330
14A30
100
AcDbEntity
  8
DEFPOINTS
  6
ByBlock
 62
     0
 48
50.0
100
AcDbPoint
 10
4674.484998239403
 20
8356.365915108472
 30
0.0
  0
POINT
  5
14A39
330
14A30
100
AcDbEntity
  8
DEFPOINTS
  6
ByBlock
 62
     0
 48
50.0
100
AcDbPoint
 10
5359.484998239401
 20
8356.365915108625
 30
0.0
  0
POINT
  5
14A3A
330
14A30
100
AcDbEntity
  8
DEFPOINTS
  6
ByBlock
 62
     0
 48
50.0
100
AcDbPoint
 10
5359.484998239401
 20
7916.542247313349
 30
0.0
  0
ENDBLK
  5
14A3B
330
14A30
100
AcDbEntity
  8
0
 48
50.0
100
AcDbBlockEnd
  0
BLOCK
  5
14A62
330
14A53
100
AcDbEntity
  8
0
 48
50.0
100
AcDbBlockBegin
  2
*D24
 70
     1
 10
0.0
 20
0.0
 30
0.0
  3
*D24
  1

  0
LINE
  5
14A63
330
14A53
100
AcDbEntity
  8
0
  6
ByBlock
 62
     0
 48
50.0
100
AcDbLine
 10
3854.484998239407
 20
9326.365915108437
 30
0.0
 11
3854.484998239407
 21
9582.174134733532
 31
0.0
  0
LINE
  5
14A64
330
14A53
100
AcDbEntity
  8
0
  6
ByBlock
 62
     0
 48
50.0
100
AcDbLine
 10
3799.484998239407
 20
9326.365915108434
 30
0.0
 11
3799.484998239407
 21
9582.174134733532
 31
0.0
  0
LINE
  5
14A65
330
14A53
100
AcDbEntity
  8
0
  6
ByBlock
 62
     0
 48
50.0
100
AcDbLine
 10
3854.484998239407
 20
9522.174134733532
 30
0.0
 11
3954.484998239407
 21
9522.174134733532
 31
0.0
  0
LINE
  5
14A66
330
14A53
100
AcDbEntity
  8
0
  6
ByBlock
 62
     0
 48
50.0
100
AcDbLine
 10
3799.484998239407
 20
9522.174134733532
 30
0.0
 11
3382.51443549093
 21
9522.174134733532
 31
0.0
  0
LINE
  5
14A67
330
14A53
100
AcDbEntity
  8
0
  6
ByBlock
 62
     0
 48
50.0
100
AcDbLine
 10
3854.484998239407
 20
9522.174134733532
 30
0.0
 11
3799.484998239407
 21
9522.174134733532
 31
0.0
  0
INSERT
  5
14A68
330
14A53
100
AcDbEntity
  8
0
  6
ByBlock
 62
     0
 48
50.0
100
AcDbBlockReference
  2
_DOTSMALL
 10
3854.484998239407
 20
9522.174134733532
 30
0.0
 41
100.0
 42
100.0
 43
100.0
 50
180.0
  0
INSERT
  5
14A69
330
14A53
100
AcDbEntity
  8
0
  6
ByBlock
 62
     0
 48
50.0
100
AcDbBlockReference
  2
_DOTSMALL
 10
3799.484998239407
 20
9522.174134733532
 30
0.0
 41
100.0
 42
100.0
 43
100.0
  0
MTEXT
  5
14A6A
330
14A53
100
AcDbEntity
  8
0
  6
ByBlock
 62
     7
 48
50.0
100
AcDbMText
 10
3490.999716865168
 20
9622.174134733533
 30
0.0
 40
120.0
 41
0.0
 71
     5
 72
     1
  1
\A1;55
  7
STYLE1
 73
     1
 44
1.0
1001
ACAD
1000
MTEXTBEGIN
1070
    73
1070
     1
1070
    44
1040
1.0
1070
    74
1070
     0
1000
MTEXTEND
  0
POINT
  5
14A6B
330
14A53
100
AcDbEntity
  8
DEFPOINTS
  6
ByBlock
 62
     0
 48
50.0
100
AcDbPoint
 10
3854.484998239407
 20
9306.365915108438
 30
0.0
  0
POINT
  5
14A6C
330
14A53
100
AcDbEntity
  8
DEFPOINTS
  6
ByBlock
 62
     0
 48
50.0
100
AcDbPoint
 10
3799.484998239407
 20
9306.365915108434
 30
0.0
  0
POINT
  5
14A6D
330
14A53
100
AcDbEntity
  8
DEFPOINTS
  6
ByBlock
 62
     0
 48
50.0
100
AcDbPoint
 10
3799.484998239407
 20
9522.174134733532
 30
0.0
  0
ENDBLK
  5
14A6E
330
14A53
100
AcDbEntity
  8
0
 48
50.0
100
AcDbBlockEnd
  0
BLOCK
  5
14C60
330
14C5F
100
AcDbEntity
  8
0
 48
50.0
100
AcDbBlockBegin
  2
*D25
 70
     1
 10
0.0
 20
0.0
 30
0.0
  3
*D25
  1

  0
LINE
  5
14C61
330
14C5F
100
AcDbEntity
  8
0
  6
ByBlock
 62
     0
 48
50.0
100
AcDbLine
 10
6283.626014390717
 20
8806.865915108483
 30
0.0
 11
6214.214550399493
 21
8547.818804865499
 31
0.0
  0
LINE
  5
14C62
330
14C5F
100
AcDbEntity
  8
0
  6
ByBlock
 62
     0
 48
50.0
100
AcDbLine
 10
7044.626014390729
 20
8806.865915108479
 30
0.0
 11
6975.214550399506
 21
8547.818804865499
 31
0.0
  0
LINE
  5
14C63
330
14C5F
100
AcDbEntity
  8
0
  6
ByBlock
 62
     0
 48
50.0
100
AcDbLine
 10
6230.291501945361
 20
8607.8188048655
 30
0.0
 11
6991.291501945373
 21
8607.8188048655
 31
0.0
  0
INSERT
  5
14C64
330
14C5F
100
AcDbEntity
  8
0
  6
ByBlock
 62
     0
 48
50.0
100
AcDbBlockReference
  2
_DOTSMALL
 10
6230.291501945361
 20
8607.8188048655
 30
0.0
 41
100.0
 42
100.0
 43
100.0
 50
180.0
  0
INSERT
  5
14C65
330
14C5F
100
AcDbEntity
  8
0
  6
ByBlock
 62
     0
 48
50.0
100
AcDbBlockReference
  2
_DOTSMALL
 10
6991.291501945373
 20
8607.8188048655
 30
0.0
 41
100.0
 42
100.0
 43
100.0
  0
MTEXT
  5
14C66
330
14C5F
100
AcDbEntity
  8
0
  6
ByBlock
 62
     7
 48
50.0
100
AcDbMText
 10
6668.332060357609
 20
8707.8188048655
 30
0.0
 40
120.0
 41
0.0
 71
     5
 72
     1
  1
\A1;761
  7
STYLE1
 73
     1
 44
1.0
1001
ACAD
1000
MTEXTBEGIN
1070
    73
1070
     1
1070
    44
1040
1.0
1070
    74
1070
     0
1000
MTEXTEND
  0
POINT
  5
14C67
330
14C5F
100
AcDbEntity
  8
DEFPOINTS
  6
ByBlock
 62
     0
 48
50.0
100
AcDbPoint
 10
6288.98499823934
 20
8826.865915108482
 30
0.0
  0
POINT
  5
14C68
330
14C5F
100
AcDbEntity
  8
DEFPOINTS
  6
ByBlock
 62
     0
 48
50.0
100
AcDbPoint
 10
7049.984998239351
 20
8826.865915108479
 30
0.0
  0
POINT
  5
14C69
330
14C5F
100
AcDbEntity
  8
DEFPOINTS
  6
ByBlock
 62
     0
 48
50.0
100
AcDbPoint
 10
6991.291501945373
 20
8607.8188048655
 30
0.0
  0
ENDBLK
  5
14C6A
330
14C5F
100
AcDbEntity
  8
0
 48
50.0
100
AcDbBlockEnd
  0
BLOCK
  5
14C6C
330
14C6B
100
AcDbEntity
  8
0
 48
50.0
100
AcDbBlockBegin
  2
*D26
 70
     1
 10
0.0
 20
0.0
 30
0.0
  3
*D26
  1

  0
LINE
  5
14C6D
330
14C6B
100
AcDbEntity
  8
0
  6
ByBlock
 62
     0
 48
50.0
100
AcDbLine
 10
7024.484998239408
 20
9326.365915108546
 30
0.0
 11
7024.484998239408
 21
9582.174134733532
 31
0.0
  0
LINE
  5
14C6E
330
14C6B
100
AcDbEntity
  8
0
  6
ByBlock
 62
     0
 48
50.0
100
AcDbLine
 10
6314.48499823941
 20
9326.365915108532
 30
0.0
 11
6314.48499823941
 21
9582.174134733532
 31
0.0
  0
LINE
  5
14C6F
330
14C6B
100
AcDbEntity
  8
0
  6
ByBlock
 62
     0
 48
50.0
100
AcDbLine
 10
7024.484998239408
 20
9522.174134733532
 30
0.0
 11
6314.48499823941
 21
9522.174134733532
 31
0.0
  0
INSERT
  5
14C70
330
14C6B
100
AcDbEntity
  8
0
  6
ByBlock
 62
     0
 48
50.0
100
AcDbBlockReference
  2
_DOTSMALL
 10
7024.484998239408
 20
9522.174134733532
 30
0.0
 41
100.0
 42
100.0
 43
100.0
  0
INSERT
  5
14C71
330
14C6B
100
AcDbEntity
  8
0
  6
ByBlock
 62
     0
 48
50.0
100
AcDbBlockReference
  2
_DOTSMALL
 10
6314.48499823941
 20
9522.174134733532
 30
0.0
 41
100.0
 42
100.0
 43
100.0
 50
180.0
  0
MTEXT
  5
14C72
330
14C6B
100
AcDbEntity
  8
0
  6
ByBlock
 62
     7
 48
50.0
100
AcDbMText
 10
6669.484998239409
 20
9622.174134733533
 30
0.0
 40
120.0
 41
0.0
 71
     5
 72
     1
  1
\A1;710
  7
STYLE1
 73
     1
 44
1.0
1001
ACAD
1000
MTEXTBEGIN
1070
    73
1070
     1
1070
    44
1040
1.0
1070
    74
1070
     0
1000
MTEXTEND
  0
POINT
  5
14C73
330
14C6B
100
AcDbEntity
  8
DEFPOINTS
  6
ByBlock
 62
     0
 48
50.0
100
AcDbPoint
 10
7024.484998239408
 20
9306.365915108548
 30
0.0
  0
POINT
  5
14C74
330
14C6B
100
AcDbEntity
  8
DEFPOINTS
  6
ByBlock
 62
     0
 48
50.0
100
AcDbPoint
 10
6314.48499823941
 20
9306.365915108532
 30
0.0
  0
POINT
  5
14C75
330
14C6B
100
AcDbEntity
  8
DEFPOINTS
  6
ByBlock
 62
     0
 48
50.0
100
AcDbPoint
 10
6314.48499823941
 20
9522.174134733532
 30
0.0
  0
ENDBLK
  5
14C76
330
14C6B
100
AcDbEntity
  8
0
 48
50.0
100
AcDbBlockEnd
  0
BLOCK
  5
14C9B
330
14C9A
100
AcDbEntity
  8
0
 48
50.0
100
AcDbBlockBegin
  2
*D27
 70
     1
 10
0.0
 20
0.0
 30
0.0
  3
*D27
  1

  0
LINE
  5
14C9C
330
14C9A
100
AcDbEntity
  8
0
  6
ByBlock
 62
     0
 48
50.0
100
AcDbLine
 10
6204.484998239406
 20
9326.365915108555
 30
0.0
 11
6204.484998239406
 21
9582.174134733532
 31
0.0
  0
LINE
  5
14C9D
330
14C9A
100
AcDbEntity
  8
0
  6
ByBlock
 62
     0
 48
50.0
100
AcDbLine
 10
6314.48499823941
 20
9326.365915108532
 30
0.0
 11
6314.48499823941
 21
9582.174134733532
 31
0.0
  0
LINE
  5
14C9E
330
14C9A
100
AcDbEntity
  8
0
  6
ByBlock
 62
     0
 48
50.0
100
AcDbLine
 10
6204.484998239406
 20
9522.174134733532
 30
0.0
 11
6104.484998239406
 21
9522.174134733532
 31
0.0
  0
LINE
  5
14C9F
330
14C9A
100
AcDbEntity
  8
0
  6
ByBlock
 62
     0
 48
50.0
100
AcDbLine
 10
6314.48499823941
 20
9522.174134733532
 30
0.0
 11
6414.48499823941
 21
9522.174134733532
 31
0.0
  0
LINE
  5
14CA0
330
14C9A
100
AcDbEntity
  8
0
  6
ByBlock
 62
     0
 48
50.0
100
AcDbLine
 10
6204.484998239406
 20
9522.174134733532
 30
0.0
 11
6314.48499823941
 21
9522.174134733532
 31
0.0
  0
INSERT
  5
14CA1
330
14C9A
100
AcDbEntity
  8
0
  6
ByBlock
 62
     0
 48
50.0
100
AcDbBlockReference
  2
_DOTSMALL
 10
6204.484998239406
 20
9522.174134733532
 30
0.0
 41
100.0
 42
100.0
 43
100.0
  0
INSERT
  5
14CA2
330
14C9A
100
AcDbEntity
  8
0
  6
ByBlock
 62
     0
 48
50.0
100
AcDbBlockReference
  2
_DOTSMALL
 10
6314.48499823941
 20
9522.174134733532
 30
0.0
 41
100.0
 42
100.0
 43
100.0
 50
180.0
  0
MTEXT
  5
14CA3
330
14C9A
100
AcDbEntity
  8
0
  6
ByBlock
 62
     7
 48
50.0
100
AcDbMText
 10
6259.484998239408
 20
9622.174134733533
 30
0.0
 40
120.0
 41
0.0
 71
     5
 72
     1
  1
\A1;110
  7
STYLE1
 73
     1
 44
1.0
1001
ACAD
1000
MTEXTBEGIN
1070
    73
1070
     1
1070
    44
1040
1.0
1070
    74
1070
     0
1000
MTEXTEND
  0
POINT
  5
14CA4
330
14C9A
100
AcDbEntity
  8
DEFPOINTS
  6
ByBlock
 62
     0
 48
50.0
100
AcDbPoint
 10
6204.484998239406
 20
9306.365915108555
 30
0.0
  0
POINT
  5
14CA5
330
14C9A
100
AcDbEntity
  8
DEFPOINTS
  6
ByBlock
 62
     0
 48
50.0
100
AcDbPoint
 10
6314.48499823941
 20
9306.365915108532
 30
0.0
  0
POINT
  5
14CA6
330
14C9A
100
AcDbEntity
  8
DEFPOINTS
  6
ByBlock
 62
     0
 48
50.0
100
AcDbPoint
 10
6314.48499823941
 20
9522.174134733532
 30
0.0
  0
ENDBLK
  5
14CA7
330
14C9A
100
AcDbEntity
  8
0
 48
50.0
100
AcDbBlockEnd
  0
BLOCK
  5
14DE2
330
14DE1
100
AcDbEntity
  8
0
 48
50.0
100
AcDbBlockBegin
  2
*D28
 70
     1
 10
0.0
 20
0.0
 30
0.0
  3
*D28
  1

  0
LINE
  5
14DE3
330
14DE1
100
AcDbEntity
  8
0
  6
ByBlock
 62
     0
 48
50.0
100
AcDbLine
 10
4674.484998239403
 20
8336.365915108471
 30
0.0
 11
4674.484998239403
 21
7856.542247313349
 31
0.0
  0
LINE
  5
14DE4
330
14DE1
100
AcDbEntity
  8
0
  6
ByBlock
 62
     0
 48
50.0
100
AcDbLine
 10
5359.484998239401
 20
8336.365915108626
 30
0.0
 11
5359.484998239401
 21
7856.542247313349
 31
0.0
  0
LINE
  5
14DE5
330
14DE1
100
AcDbEntity
  8
0
  6
ByBlock
 62
     0
 48
50.0
100
AcDbLine
 10
4674.484998239403
 20
7916.542247313349
 30
0.0
 11
5359.484998239401
 21
7916.542247313349
 31
0.0
  0
INSERT
  5
14DE6
330
14DE1
100
AcDbEntity
  8
0
  6
ByBlock
 62
     0
 48
50.0
100
AcDbBlockReference
  2
_DOTSMALL
 10
4674.484998239403
 20
7916.542247313349
 30
0.0
 41
100.0
 42
100.0
 43
100.0
 50
180.0
  0
INSERT
  5
14DE7
330
14DE1
100
AcDbEntity
  8
0
  6
ByBlock
 62
     0
 48
50.0
100
AcDbBlockReference
  2
_DOTSMALL
 10
5359.484998239401
 20
7916.542247313349
 30
0.0
 41
100.0
 42
100.0
 43
100.0
  0
MTEXT
  5
14DE8
330
14DE1
100
AcDbEntity
  8
0
  6
ByBlock
 62
     7
 48
50.0
100
AcDbMText
 10
5016.984998239403
 20
8016.542247313349
 30
0.0
 40
120.0
 41
0.0
 71
     5
 72
     1
  1
\A1;685
  7
STYLE1
 73
     1
 44
1.0
1001
ACAD
1000
MTEXTBEGIN
1070
    73
1070
     1
1070
    44
1040
1.0
1070
    74
1070
     0
1000
MTEXTEND
  0
POINT
  5
14DE9
330
14DE1
100
AcDbEntity
  8
DEFPOINTS
  6
ByBlock
 62
     0
 48
50.0
100
AcDbPoint
 10
4674.484998239403
 20
8356.365915108472
 30
0.0
  0
POINT
  5
14DEA
330
14DE1
100
AcDbEntity
  8
DEFPOINTS
  6
ByBlock
 62
     0
 48
50.0
100
AcDbPoint
 10
5359.484998239401
 20
8356.365915108625
 30
0.0
  0
POINT
  5
14DEB
330
14DE1
100
AcDbEntity
  8
DEFPOINTS
  6
ByBlock
 62
     0
 48
50.0
100
AcDbPoint
 10
5359.484998239401
 20
7916.542247313349
 30
0.0
  0
ENDBLK
  5
14DEC
330
14DE1
100
AcDbEntity
  8
0
 48
50.0
100
AcDbBlockEnd
  0
BLOCK
  5
14F2D
330
14F2C
100
AcDbEntity
  8
0
100
AcDbBlockBegin
  2
_OPEN
 70
     0
 10
0.0
 20
0.0
 30
0.0
  3
_OPEN
  1

  0
LINE
  5
14F2E
330
14F2C
100
AcDbEntity
  8
0
  6
ByBlock
 62
     0
100
AcDbLine
 10
-1.0
 20
0.1666666666666666
 30
0.0
 11
0.0
 21
0.0
 31
0.0
  0
LINE
  5
14F2F
330
14F2C
100
AcDbEntity
  8
0
  6
ByBlock
 62
     0
100
AcDbLine
 10
0.0
 20
0.0
 30
0.0
 11
-1.0
 21
-0.1666666666666666
 31
0.0
  0
LINE
  5
14F30
330
14F2C
100
AcDbEntity
  8
0
  6
ByBlock
 62
     0
100
AcDbLine
 10
0.0
 20
0.0
 30
0.0
 11
-1.0
 21
0.0
 31
0.0
  0
ENDBLK
  5
14F31
330
14F2C
100
AcDbEntity
  8
0
100
AcDbBlockEnd
  0
BLOCK
  5
14F33
330
14F32
100
AcDbEntity
  8
0
 48
50.0
100
AcDbBlockBegin
  2
_DOT
 70
     0
 10
0.0
 20
0.0
 30
0.0
  3
_DOT
  1

  0
LWPOLYLINE
  5
14F34
330
14F32
100
AcDbEntity
  8
0
  6
ByBlock
 62
     0
 48
50.0
100
AcDbPolyline
 90
        2
 70
     1
 43
0.5
 10
-0.25
 20
0.0
 42
1.0
 10
0.25
 20
0.0
 42
1.0
  0
LINE
  5
14F35
330
14F32
100
AcDbEntity
  8
0
  6
ByBlock
 62
     0
 48
50.0
100
AcDbLine
 10
-0.5
 20
0.0
 30
0.0
 11
-1.0
 21
0.0
 31
0.0
  0
ENDBLK
  5
14F36
330
14F32
100
AcDbEntity
  8
0
 48
50.0
100
AcDbBlockEnd
  0
BLOCK
  5
16A41
330
16A35
100
AcDbEntity
  8
0
 48
50.0
100
AcDbBlockBegin
  2
*D31
 70
     1
 10
0.0
 20
0.0
 30
0.0
  3
*D31
  1

  0
LINE
  5
16A5B
330
16A35
100
AcDbEntity
  8
寸法
 62
     0
 48
50.0
370
    -2
100
AcDbLine
 10
3799.484998239401
 20
5664.577276893868
 30
0.0
 11
3799.484998239401
 21
5917.118862152105
 31
0.0
  0
LINE
  5
16A5C
330
16A35
100
AcDbEntity
  8
寸法
 62
     0
 48
50.0
370
    -2
100
AcDbLine
 10
3749.484998239401
 20
5664.577276893866
 30
0.0
 11
3749.484998239401
 21
5917.118862152105
 31
0.0
  0
LINE
  5
16A5D
330
16A35
100
AcDbEntity
  8
寸法
 62
     0
 48
50.0
370
    -2
100
AcDbLine
 10
3799.484998239401
 20
5857.118862152105
 30
0.0
 11
3899.484998239401
 21
5857.118862152105
 31
0.0
  0
LINE
  5
16A5E
330
16A35
100
AcDbEntity
  8
寸法
 62
     0
 48
50.0
370
    -2
100
AcDbLine
 10
3749.484998239401
 20
5857.118862152105
 30
0.0
 11
3329.952472770666
 21
5857.118862152105
 31
0.0
  0
LINE
  5
16A5F
330
16A35
100
AcDbEntity
  8
寸法
 62
     0
 48
50.0
370
    -2
100
AcDbLine
 10
3799.484998239401
 20
5857.118862152105
 30
0.0
 11
3749.484998239401
 21
5857.118862152105
 31
0.0
  0
INSERT
  5
16A60
330
16A35
100
AcDbEntity
  8
寸法
 62
     0
 48
50.0
370
    -2
100
AcDbBlockReference
  2
_DOTSMALL
 10
3799.484998239401
 20
5857.118862152105
 30
0.0
 41
100.0
 42
100.0
 43
100.0
 50
180.0
  0
INSERT
  5
16A61
330
16A35
100
AcDbEntity
  8
寸法
 62
     0
 48
50.0
370
    -2
100
AcDbBlockReference
  2
_DOTSMALL
 10
3749.484998239401
 20
5857.118862152105
 30
0.0
 41
100.0
 42
100.0
 43
100.0
  0
MTEXT
  5
16A62
330
16A35
100
AcDbEntity
  8
寸法
 62
     7
 48
50.0
100
AcDbMText
 10
3435.999716865154
 20
5957.118862152105
 30
0.0
 40
120.0
 41
0.0
 71
     5
 72
     1
  1
\A1;50
  7
STYLE1
 73
     1
 44
1.0
1001
ACAD
1000
MTEXTBEGIN
1070
    73
1070
     1
1070
    44
1040
1.0
1070
    74
1070
     0
1000
MTEXTEND
  0
POINT
  5
16A63
330
16A35
100
AcDbEntity
  8
DEFPOINTS
 62
     0
 48
50.0
100
AcDbPoint
 10
3799.484998239401
 20
5644.577276893868
 30
0.0
  0
POINT
  5
16A64
330
16A35
100
AcDbEntity
  8
DEFPOINTS
 62
     0
 48
50.0
100
AcDbPoint
 10
3749.484998239401
 20
5644.577276893866
 30
0.0
  0
POINT
  5
16A65
330
16A35
100
AcDbEntity
  8
DEFPOINTS
 62
     0
 48
50.0
100
AcDbPoint
 10
3749.484998239401
 20
5857.118862152105
 30
0.0
  0
ENDBLK
  5
16A42
330
16A35
100
AcDbEntity
  8
0
 48
50.0
100
AcDbBlockEnd
  0
BLOCK
  5
16A4D
330
16A43
100
AcDbEntity
  8
0
 48
50.0
100
AcDbBlockBegin
  2
*D32
 70
     1
 10
0.0
 20
0.0
 30
0.0
  3
*D32
  1

  0
LINE
  5
16AB8
330
16A43
100
AcDbEntity
  8
寸法
 62
     0
 48
50.0
370
    -2
100
AcDbLine
 10
7899.484998239405
 20
5664.577276893864
 30
0.0
 11
7899.484998239405
 21
5917.118862152105
 31
0.0
  0
LINE
  5
16AB9
330
16A43
100
AcDbEntity
  8
寸法
 62
     0
 48
50.0
370
    -2
100
AcDbLine
 10
3799.484998239401
 20
5664.577276893868
 30
0.0
 11
3799.484998239401
 21
5917.118862152105
 31
0.0
  0
LINE
  5
16ABA
330
16A43
100
AcDbEntity
  8
寸法
 62
     0
 48
50.0
370
    -2
100
AcDbLine
 10
7899.484998239405
 20
5857.118862152105
 30
0.0
 11
3799.484998239401
 21
5857.118862152105
 31
0.0
  0
INSERT
  5
16ABB
330
16A43
100
AcDbEntity
  8
寸法
 62
     0
 48
50.0
370
    -2
100
AcDbBlockReference
  2
_DOTSMALL
 10
7899.484998239405
 20
5857.118862152105
 30
0.0
 41
100.0
 42
100.0
 43
100.0
  0
INSERT
  5
16ABC
330
16A43
100
AcDbEntity
  8
寸法
 62
     0
 48
50.0
370
    -2
100
AcDbBlockReference
  2
_DOTSMALL
 10
3799.484998239401
 20
5857.118862152105
 30
0.0
 41
100.0
 42
100.0
 43
100.0
 50
180.0
  0
MTEXT
  5
16ABD
330
16A43
100
AcDbEntity
  8
寸法
 62
     7
 48
50.0
100
AcDbMText
 10
5849.484998239403
 20
5957.118862152105
 30
0.0
 40
120.0
 41
0.0
 71
     5
 72
     1
  1
\A1;柱外寸法4100
  7
STYLE1
 73
     1
 44
1.0
1001
ACAD
1000
MTEXTBEGIN
1070
    73
1070
     1
1070
    44
1040
1.0
1070
    74
1070
     0
1000
MTEXTEND
  0
POINT
  5
16ABE
330
16A43
100
AcDbEntity
  8
DEFPOINTS
 62
     0
 48
50.0
100
AcDbPoint
 10
7899.484998239405
 20
5644.577276893864
 30
0.0
  0
POINT
  5
16ABF
330
16A43
100
AcDbEntity
  8
DEFPOINTS
 62
     0
 48
50.0
100
AcDbPoint
 10
3799.484998239401
 20
5644.577276893868
 30
0.0
  0
POINT
  5
16AC0
330
16A43
100
AcDbEntity
  8
DEFPOINTS
 62
     0
 48
50.0
100
AcDbPoint
 10
3799.484998239401
 20
5857.118862152105
 30
0.0
  0
ENDBLK
  5
16A4E
330
16A43
100
AcDbEntity
  8
0
 48
50.0
100
AcDbBlockEnd
  0
BLOCK
  5
16A59
330
16A4F
100
AcDbEntity
  8
0
 48
50.0
100
AcDbBlockBegin
  2
*D33
 70
     1
 10
0.0
 20
0.0
 30
0.0
  3
*D33
  1

  0
LINE
  5
16AAF
330
16A4F
100
AcDbEntity
  8
寸法
 62
     0
 48
50.0
370
    -2
100
AcDbLine
 10
3749.484998239401
 20
5664.577276893866
 30
0.0
 11
3749.484998239401
 21
6140.075840589954
 31
0.0
  0
LINE
  5
16AB0
330
16A4F
100
AcDbEntity
  8
寸法
 62
     0
 48
50.0
370
    -2
100
AcDbLine
 10
7949.484998239404
 20
5664.577276893862
 30
0.0
 11
7949.484998239404
 21
6140.075840589954
 31
0.0
  0
LINE
  5
16AB1
330
16A4F
100
AcDbEntity
  8
寸法
 62
     0
 48
50.0
370
    -2
100
AcDbLine
 10
3749.484998239401
 20
6080.075840589954
 30
0.0
 11
7949.484998239404
 21
6080.075840589954
 31
0.0
  0
INSERT
  5
16AB2
330
16A4F
100
AcDbEntity
  8
寸法
 62
     0
 48
50.0
370
    -2
100
AcDbBlockReference
  2
_DOTSMALL
 10
3749.484998239401
 20
6080.075840589954
 30
0.0
 41
100.0
 42
100.0
 43
100.0
 50
180.0
  0
INSERT
  5
16AB3
330
16A4F
100
AcDbEntity
  8
寸法
 62
     0
 48
50.0
370
    -2
100
AcDbBlockReference
  2
_DOTSMALL
 10
7949.484998239404
 20
6080.075840589954
 30
0.0
 41
100.0
 42
100.0
 43
100.0
  0
MTEXT
  5
16AB4
330
16A4F
100
AcDbEntity
  8
寸法
 62
     7
 48
50.0
100
AcDbMText
 10
5849.484998239403
 20
6180.087651613575
 30
0.0
 40
120.0
 41
0.0
 71
     5
 72
     1
  1
\A1;4200
  7
STYLE1
 73
     1
 44
1.0
1001
ACAD
1000
MTEXTBEGIN
1070
    73
1070
     1
1070
    44
1040
1.0
1070
    74
1070
     0
1000
MTEXTEND
  0
POINT
  5
16AB5
330
16A4F
100
AcDbEntity
  8
DEFPOINTS
 62
     0
 48
50.0
100
AcDbPoint
 10
3749.484998239401
 20
5644.577276893866
 30
0.0
  0
POINT
  5
16AB6
330
16A4F
100
AcDbEntity
  8
DEFPOINTS
 62
     0
 48
50.0
100
AcDbPoint
 10
7949.484998239404
 20
5644.577276893862
 30
0.0
  0
POINT
  5
16AB7
330
16A4F
100
AcDbEntity
  8
DEFPOINTS
 62
     0
 48
50.0
100
AcDbPoint
 10
7949.484998239404
 20
6080.075840589954
 30
0.0
  0
ENDBLK
  5
16A5A
330
16A4F
100
AcDbEntity
  8
0
 48
50.0
100
AcDbBlockEnd
  0
BLOCK
  5
16A8F
330
16A83
100
AcDbEntity
  8
0
 48
50.0
100
AcDbBlockBegin
  2
*D34
 70
     1
 10
0.0
 20
0.0
 30
0.0
  3
*D34
  1

  0
LINE
  5
16A91
330
16A83
100
AcDbEntity
  8
寸法
 62
     0
 48
50.0
370
    -2
100
AcDbLine
 10
7949.484998239404
 20
5664.577276893862
 30
0.0
 11
7949.484998239404
 21
5917.118862152103
 31
0.0
  0
LINE
  5
16A92
330
16A83
100
AcDbEntity
  8
寸法
 62
     0
 48
50.0
370
    -2
100
AcDbLine
 10
7899.484998239405
 20
5664.577276893864
 30
0.0
 11
7899.484998239405
 21
5917.118862152103
 31
0.0
  0
LINE
  5
16A93
330
16A83
100
AcDbEntity
  8
寸法
 62
     0
 48
50.0
370
    -2
100
AcDbLine
 10
7899.484998239405
 20
5857.118862152103
 30
0.0
 11
7799.484998239404
 21
5857.118862152103
 31
0.0
  0
LINE
  5
16A94
330
16A83
100
AcDbEntity
  8
寸法
 62
     0
 48
50.0
370
    -2
100
AcDbLine
 10
7949.484998239404
 20
5857.118862152103
 30
0.0
 11
8369.017523708128
 21
5857.118862152103
 31
0.0
  0
LINE
  5
16A95
330
16A83
100
AcDbEntity
  8
寸法
 62
     0
 48
50.0
370
    -2
100
AcDbLine
 10
7899.484998239405
 20
5857.118862152103
 30
0.0
 11
7949.484998239404
 21
5857.118862152103
 31
0.0
  0
INSERT
  5
16A96
330
16A83
100
AcDbEntity
  8
寸法
 62
     0
 48
50.0
370
    -2
100
AcDbBlockReference
  2
_DOTSMALL
 10
7899.484998239405
 20
5857.118862152103
 30
0.0
 41
100.0
 42
100.0
 43
100.0
  0
INSERT
  5
16A97
330
16A83
100
AcDbEntity
  8
寸法
 62
     0
 48
50.0
370
    -2
100
AcDbBlockReference
  2
_DOTSMALL
 10
7949.484998239404
 20
5857.118862152103
 30
0.0
 41
100.0
 42
100.0
 43
100.0
 50
180.0
  0
MTEXT
  5
16A98
330
16A83
100
AcDbEntity
  8
寸法
 62
     7
 48
50.0
100
AcDbMText
 10
8262.970279613641
 20
5957.118862152103
 30
0.0
 40
120.0
 41
0.0
 71
     5
 72
     1
  1
\A1;50
  7
STYLE1
 73
     1
 44
1.0
1001
ACAD
1000
MTEXTBEGIN
1070
    73
1070
     1
1070
    44
1040
1.0
1070
    74
1070
     0
1000
MTEXTEND
  0
POINT
  5
16A99
330
16A83
100
AcDbEntity
  8
DEFPOINTS
 62
     0
 48
50.0
100
AcDbPoint
 10
7949.484998239404
 20
5644.577276893862
 30
0.0
  0
POINT
  5
16A9A
330
16A83
100
AcDbEntity
  8
DEFPOINTS
 62
     0
 48
50.0
100
AcDbPoint
 10
7899.484998239405
 20
5644.577276893864
 30
0.0
  0
POINT
  5
16A9B
330
16A83
100
AcDbEntity
  8
DEFPOINTS
 62
     0
 48
50.0
100
AcDbPoint
 10
7899.484998239405
 20
5857.118862152103
 30
0.0
  0
ENDBLK
  5
16A90
330
16A83
100
AcDbEntity
  8
0
 48
50.0
100
AcDbBlockEnd
  0
BLOCK
  5
16F5F
330
16F55
100
AcDbEntity
  8
0
 48
50.0
100
AcDbBlockBegin
  2
*D35
 70
     1
 10
0.0
 20
0.0
 30
0.0
  3
*D35
  1

  0
LINE
  5
170DD
330
16F55
100
AcDbEntity
  8
寸法
 62
     0
 48
50.0
370
    -2
100
AcDbLine
 10
10266.35691079978
 20
3569.57727689386
 30
0.0
 11
9364.763032644493
 21
3569.57727689386
 31
0.0
  0
LINE
  5
170DE
330
16F55
100
AcDbEntity
  8
寸法
 62
     0
 48
50.0
370
    -2
100
AcDbLine
 10
10206.35691079978
 20
5644.577276893866
 30
0.0
 11
9364.763032644495
 21
5644.577276893866
 31
0.0
  0
LINE
  5
170DF
330
16F55
100
AcDbEntity
  8
寸法
 62
     0
 48
50.0
370
    -2
100
AcDbLine
 10
9424.763032644492
 20
3569.57727689386
 30
0.0
 11
9424.763032644495
 21
5644.577276893866
 31
0.0
  0
INSERT
  5
170E0
330
16F55
100
AcDbEntity
  8
寸法
 62
     0
 48
50.0
370
    -2
100
AcDbBlockReference
  2
_DOTSMALL
 10
9424.763032644492
 20
3569.57727689386
 30
0.0
 41
100.0
 42
100.0
 43
100.0
 50
270.0
  0
INSERT
  5
170E1
330
16F55
100
AcDbEntity
  8
寸法
 62
     0
 48
50.0
370
    -2
100
AcDbBlockReference
  2
_DOTSMALL
 10
9424.763032644495
 20
5644.577276893866
 30
0.0
 41
100.0
 42
100.0
 43
100.0
 50
90.0
  0
MTEXT
  5
170E2
330
16F55
100
AcDbEntity
  8
寸法
 62
     7
 48
50.0
100
AcDbMText
 10
9324.75122162087
 20
4597.155906173022
 30
0.0
 40
120.0
 41
0.0
 71
     5
 72
     1
  1
\A1;2075
  7
STYLE1
 11
0.0000000000000001
 21
1.0
 31
0.0
 73
     1
 44
1.0
1001
ACAD
1000
MTEXTBEGIN
1070
    73
1070
     1
1070
    44
1040
1.0
1070
    74
1070
     0
1000
MTEXTEND
  0
POINT
  5
170E3
330
16F55
100
AcDbEntity
  8
DEFPOINTS
 62
     0
 48
50.0
100
AcDbPoint
 10
10286.35691079978
 20
3569.57727689386
 30
0.0
  0
POINT
  5
170E4
330
16F55
100
AcDbEntity
  8
DEFPOINTS
 62
     0
 48
50.0
100
AcDbPoint
 10
10226.35691079978
 20
5644.577276893866
 30
0.0
  0
POINT
  5
170E5
330
16F55
100
AcDbEntity
  8
DEFPOINTS
 62
     0
 48
50.0
100
AcDbPoint
 10
9424.763032644495
 20
5644.577276893866
 30
0.0
  0
ENDBLK
  5
16F60
330
16F55
100
AcDbEntity
  8
0
 48
50.0
100
AcDbBlockEnd
  0
BLOCK
  5
16F6C
330
16F61
100
AcDbEntity
  8
0
 48
50.0
100
AcDbBlockBegin
  2
*D36
 70
     1
 10
0.0
 20
0.0
 30
0.0
  3
*D36
  1

  0
LINE
  5
170D3
330
16F61
100
AcDbEntity
  8
寸法
 62
     0
 48
50.0
370
    -2
100
AcDbLine
 10
10225.76119709088
 20
5643.874983963523
 30
0.0
 11
9609.826757985612
 21
5661.589134237853
 31
0.0
  0
LINE
  5
170D4
330
16F61
100
AcDbEntity
  8
寸法
 62
     0
 48
50.0
370
    -2
100
AcDbLine
 10
10221.70774153426
 20
5502.93326019781
 30
0.0
 11
9605.773302428985
 21
5520.64741047214
 31
0.0
  0
LINE
  5
170D5
330
16F61
100
AcDbEntity
  8
寸法
 62
     0
 48
50.0
370
    -2
100
AcDbLine
 10
9665.748504031418
 20
5518.922535767192
 30
0.0
 11
9669.801959588044
 21
5659.864259532905
 31
0.0
  0
LINE
  5
170D6
330
16F61
100
AcDbEntity
  8
寸法
 62
     0
 48
50.0
370
    -2
100
AcDbLine
 10
9669.801959588044
 20
5659.864259532905
 30
0.0
 11
9680.151207817729
 21
6019.71546914749
 31
0.0
  0
INSERT
  5
170D7
330
16F61
100
AcDbEntity
  8
寸法
 62
     0
 48
50.0
370
    -2
100
AcDbBlockReference
  2
_DOTSMALL
 10
9665.748504031418
 20
5518.922535767192
 30
0.0
 41
100.0
 42
100.0
 43
100.0
 50
268.3526390256378
  0
INSERT
  5
170D8
330
16F61
100
AcDbEntity
  8
寸法
 62
     0
 48
50.0
370
    -2
100
AcDbBlockReference
  2
_DOTSMALL
 10
9669.801959588044
 20
5659.864259532905
 30
0.0
 41
100.0
 42
100.0
 43
100.0
 50
88.35263902563776
  0
MTEXT
  5
170D9
330
16F61
100
AcDbEntity
  8
寸法
 62
     7
 48
50.0
100
AcDbMText
 10
9576.455309952955
 20
5892.643990183803
 30
0.0
 40
120.0
 41
0.0
 71
     5
 72
     1
  1
\A1;141
  7
STYLE1
 11
0.0287479117491237
 21
0.9995866933738488
 31
0.0
 73
     1
 44
1.0
1001
ACAD
1000
MTEXTBEGIN
1070
    73
1070
     1
1070
    44
1040
1.0
1070
    74
1070
     0
1000
MTEXTEND
  0
POINT
  5
170DA
330
16F61
100
AcDbEntity
  8
DEFPOINTS
 62
     0
 48
50.0
100
AcDbPoint
 10
10245.75293095836
 20
5643.300025728541
 30
0.0
  0
POINT
  5
170DB
330
16F61
100
AcDbEntity
  8
DEFPOINTS
 62
     0
 48
50.0
100
AcDbPoint
 10
10241.69947540173
 20
5502.358301962827
 30
0.0
  0
POINT
  5
170DC
330
16F61
100
AcDbEntity
  8
DEFPOINTS
 62
     0
 48
50.0
100
AcDbPoint
 10
9665.748504031418
 20
5518.922535767192
 30
0.0
  0
ENDBLK
  5
16F6D
330
16F61
100
AcDbEntity
  8
0
 48
50.0
100
AcDbBlockEnd
  0
BLOCK
  5
16F7A
330
16F6E
100
AcDbEntity
  8
0
 48
50.0
100
AcDbBlockBegin
  2
*D37
 70
     1
 10
0.0
 20
0.0
 30
0.0
  3
*D37
  1

  0
LINE
  5
170C8
330
16F6E
100
AcDbEntity
  8
寸法
 62
     0
 48
50.0
370
    -2
100
AcDbLine
 10
10286.35691079978
 20
5660.578895016837
 30
0.0
 11
10286.35691079978
 21
6103.234730473165
 31
0.0
  0
LINE
  5
170C9
330
16F6E
100
AcDbEntity
  8
寸法
 62
     0
 48
50.0
370
    -2
100
AcDbLine
 10
10226.35691079978
 20
5664.577276893866
 30
0.0
 11
10226.35691079978
 21
6103.234730473165
 31
0.0
  0
LINE
  5
170CA
330
16F6E
100
AcDbEntity
  8
寸法
 62
     0
 48
50.0
370
    -2
100
AcDbLine
 10
10286.35691079978
 20
6043.234730473165
 30
0.0
 11
10386.35691079978
 21
6043.234730473165
 31
0.0
  0
LINE
  5
170CB
330
16F6E
100
AcDbEntity
  8
寸法
 62
     0
 48
50.0
370
    -2
100
AcDbLine
 10
10226.35691079978
 20
6043.234730473165
 30
0.0
 11
9807.081320248602
 21
6043.234730473165
 31
0.0
  0
LINE
  5
170CC
330
16F6E
100
AcDbEntity
  8
寸法
 62
     0
 48
50.0
370
    -2
100
AcDbLine
 10
10286.35691079978
 20
6043.234730473165
 30
0.0
 11
10226.35691079978
 21
6043.234730473165
 31
0.0
  0
INSERT
  5
170CD
330
16F6E
100
AcDbEntity
  8
寸法
 62
     0
 48
50.0
370
    -2
100
AcDbBlockReference
  2
_DOTSMALL
 10
10286.35691079978
 20
6043.234730473165
 30
0.0
 41
100.0
 42
100.0
 43
100.0
 50
180.0
  0
INSERT
  5
170CE
330
16F6E
100
AcDbEntity
  8
寸法
 62
     0
 48
50.0
370
    -2
100
AcDbBlockReference
  2
_DOTSMALL
 10
10226.35691079978
 20
6043.234730473165
 30
0.0
 41
100.0
 42
100.0
 43
100.0
  0
MTEXT
  5
170CF
330
16F6E
100
AcDbEntity
  8
寸法
 62
     7
 48
50.0
100
AcDbMText
 10
9916.719115524193
 20
6143.234730473165
 30
0.0
 40
120.0
 41
0.0
 71
     5
 72
     1
  1
\A1;60
  7
STYLE1
 73
     1
 44
1.0
1001
ACAD
1000
MTEXTBEGIN
1070
    73
1070
     1
1070
    44
1040
1.0
1070
    74
1070
     0
1000
MTEXTEND
  0
POINT
  5
170D0
330
16F6E
100
AcDbEntity
  8
DEFPOINTS
 62
     0
 48
50.0
100
AcDbPoint
 10
10286.35691079978
 20
5640.578895016837
 30
0.0
  0
POINT
  5
170D1
330
16F6E
100
AcDbEntity
  8
DEFPOINTS
 62
     0
 48
50.0
100
AcDbPoint
 10
10226.35691079978
 20
5644.577276893866
 30
0.0
  0
POINT
  5
170D2
330
16F6E
100
AcDbEntity
  8
DEFPOINTS
 62
     0
 48
50.0
100
AcDbPoint
 10
10226.35691079978
 20
6043.234730473165
 30
0.0
  0
ENDBLK
  5
16F7B
330
16F6E
100
AcDbEntity
  8
0
 48
50.0
100
AcDbBlockEnd
  0
BLOCK
  5
16F86
330
16F7C
100
AcDbEntity
  8
0
 48
50.0
100
AcDbBlockBegin
  2
*D38
 70
     1
 10
0.0
 20
0.0
 30
0.0
  3
*D38
  1

  0
LINE
  5
170BF
330
16F7C
100
AcDbEntity
  8
寸法
 62
     0
 48
50.0
370
    -2
100
AcDbLine
 10
11236.35691079978
 20
5611.387956505514
 30
0.0
 11
11236.35691079978
 21
6103.234730473165
 31
0.0
  0
LINE
  5
170C0
330
16F7C
100
AcDbEntity
  8
寸法
 62
     0
 48
50.0
370
    -2
100
AcDbLine
 10
10286.35691079978
 20
5660.578895016837
 30
0.0
 11
10286.35691079978
 21
6103.234730473165
 31
0.0
  0
LINE
  5
170C1
330
16F7C
100
AcDbEntity
  8
寸法
 62
     0
 48
50.0
370
    -2
100
AcDbLine
 10
11236.35691079978
 20
6043.234730473165
 30
0.0
 11
10286.35691079978
 21
6043.234730473165
 31
0.0
  0
INSERT
  5
170C2
330
16F7C
100
AcDbEntity
  8
寸法
 62
     0
 48
50.0
370
    -2
100
AcDbBlockReference
  2
_DOTSMALL
 10
11236.35691079978
 20
6043.234730473165
 30
0.0
 41
100.0
 42
100.0
 43
100.0
  0
INSERT
  5
170C3
330
16F7C
100
AcDbEntity
  8
寸法
 62
     0
 48
50.0
370
    -2
100
AcDbBlockReference
  2
_DOTSMALL
 10
10286.35691079978
 20
6043.234730473165
 30
0.0
 41
100.0
 42
100.0
 43
100.0
 50
180.0
  0
MTEXT
  5
170C4
330
16F7C
100
AcDbEntity
  8
寸法
 62
     7
 48
50.0
100
AcDbMText
 10
10783.06871303067
 20
6143.234730473165
 30
0.0
 40
120.0
 41
0.0
 71
     5
 72
     1
  1
\A1;柱外寸法950
  7
STYLE1
 73
     1
 44
1.0
1001
ACAD
1000
MTEXTBEGIN
1070
    73
1070
     1
1070
    44
1040
1.0
1070
    74
1070
     0
1000
MTEXTEND
  0
POINT
  5
170C5
330
16F7C
100
AcDbEntity
  8
DEFPOINTS
 62
     0
 48
50.0
100
AcDbPoint
 10
11236.35691079978
 20
5591.387956505514
 30
0.0
  0
POINT
  5
170C6
330
16F7C
100
AcDbEntity
  8
DEFPOINTS
 62
     0
 48
50.0
100
AcDbPoint
 10
10286.35691079978
 20
5640.578895016837
 30
0.0
  0
POINT
  5
170C7
330
16F7C
100
AcDbEntity
  8
DEFPOINTS
 62
     0
 48
50.0
100
AcDbPoint
 10
10286.35691079978
 20
6043.234730473165
 30
0.0
  0
ENDBLK
  5
16F87
330
16F7C
100
AcDbEntity
  8
0
 48
50.0
100
AcDbBlockEnd
  0
BLOCK
  5
16F92
330
16F88
100
AcDbEntity
  8
0
 48
50.0
100
AcDbBlockBegin
  2
*D39
 70
     1
 10
0.0
 20
0.0
 30
0.0
  3
*D39
  1

  0
LINE
  5
170B6
330
16F88
100
AcDbEntity
  8
寸法
 62
     0
 48
50.0
370
    -2
100
AcDbLine
 10
11316.35691079978
 20
5609.577276893862
 30
0.0
 11
11316.35691079978
 21
6337.937939113255
 31
0.0
  0
LINE
  5
170B7
330
16F88
100
AcDbEntity
  8
寸法
 62
     0
 48
50.0
370
    -2
100
AcDbLine
 10
10226.35691079978
 20
5664.577276893866
 30
0.0
 11
10226.35691079978
 21
6337.937939113255
 31
0.0
  0
LINE
  5
170B8
330
16F88
100
AcDbEntity
  8
寸法
 62
     0
 48
50.0
370
    -2
100
AcDbLine
 10
11316.35691079978
 20
6277.937939113255
 30
0.0
 11
10226.35691079978
 21
6277.937939113255
 31
0.0
  0
INSERT
  5
170B9
330
16F88
100
AcDbEntity
  8
寸法
 62
     0
 48
50.0
370
    -2
100
AcDbBlockReference
  2
_DOTSMALL
 10
11316.35691079978
 20
6277.937939113255
 30
0.0
 41
100.0
 42
100.0
 43
100.0
  0
INSERT
  5
170BA
330
16F88
100
AcDbEntity
  8
寸法
 62
     0
 48
50.0
370
    -2
100
AcDbBlockReference
  2
_DOTSMALL
 10
10226.35691079978
 20
6277.937939113255
 30
0.0
 41
100.0
 42
100.0
 43
100.0
 50
180.0
  0
MTEXT
  5
170BB
330
16F88
100
AcDbEntity
  8
寸法
 62
     7
 48
50.0
100
AcDbMText
 10
10773.27387121414
 20
6377.937939113255
 30
0.0
 40
120.0
 41
0.0
 71
     5
 72
     1
  1
\A1;1090
  7
STYLE1
 73
     1
 44
1.0
1001
ACAD
1000
MTEXTBEGIN
1070
    73
1070
     1
1070
    44
1040
1.0
1070
    74
1070
     0
1000
MTEXTEND
  0
POINT
  5
170BC
330
16F88
100
AcDbEntity
  8
DEFPOINTS
 62
     0
 48
50.0
100
AcDbPoint
 10
11316.35691079978
 20
5589.577276893862
 30
0.0
  0
POINT
  5
170BD
330
16F88
100
AcDbEntity
  8
DEFPOINTS
 62
     0
 48
50.0
100
AcDbPoint
 10
10226.35691079978
 20
5644.577276893866
 30
0.0
  0
POINT
  5
170BE
330
16F88
100
AcDbEntity
  8
DEFPOINTS
 62
     0
 48
50.0
100
AcDbPoint
 10
10226.35691079978
 20
6277.937939113255
 30
0.0
  0
ENDBLK
  5
16F93
330
16F88
100
AcDbEntity
  8
0
 48
50.0
100
AcDbBlockEnd
  0
BLOCK
  5
16F9F
330
16F94
100
AcDbEntity
  8
0
 48
50.0
100
AcDbBlockBegin
  2
*D40
 70
     1
 10
0.0
 20
0.0
 30
0.0
  3
*D40
  1

  0
LINE
  5
170AC
330
16F94
100
AcDbEntity
  8
寸法
 62
     0
 48
50.0
370
    -2
100
AcDbLine
 10
11236.35691079978
 20
5611.387956505514
 30
0.0
 11
11236.35691079978
 21
6103.234730473165
 31
0.0
  0
LINE
  5
170AD
330
16F94
100
AcDbEntity
  8
寸法
 62
     0
 48
50.0
370
    -2
100
AcDbLine
 10
11316.35691079978
 20
5609.577276893862
 30
0.0
 11
11316.35691079978
 21
6103.234730473165
 31
0.0
  0
LINE
  5
170AE
330
16F94
100
AcDbEntity
  8
寸法
 62
     0
 48
50.0
370
    -2
100
AcDbLine
 10
11236.35691079978
 20
6043.234730473165
 30
0.0
 11
11316.35691079978
 21
6043.234730473165
 31
0.0
  0
LINE
  5
170AF
330
16F94
100
AcDbEntity
  8
寸法
 62
     0
 48
50.0
370
    -2
100
AcDbLine
 10
11316.35691079978
 20
6043.234730473165
 30
0.0
 11
11628.45139898876
 21
6043.234730473165
 31
0.0
  0
INSERT
  5
170B0
330
16F94
100
AcDbEntity
  8
寸法
 62
     0
 48
50.0
370
    -2
100
AcDbBlockReference
  2
_DOTSMALL
 10
11236.35691079978
 20
6043.234730473165
 30
0.0
 41
100.0
 42
100.0
 43
100.0
 50
180.0
  0
INSERT
  5
170B1
330
16F94
100
AcDbEntity
  8
寸法
 62
     0
 48
50.0
370
    -2
100
AcDbBlockReference
  2
_DOTSMALL
 10
11316.35691079978
 20
6043.234730473165
 30
0.0
 41
100.0
 42
100.0
 43
100.0
  0
MTEXT
  5
170B2
330
16F94
100
AcDbEntity
  8
寸法
 62
     7
 48
50.0
100
AcDbMText
 10
11522.40415489427
 20
6143.234730473165
 30
0.0
 40
120.0
 41
0.0
 71
     5
 72
     1
  1
\A1;80
  7
STYLE1
 73
     1
 44
1.0
1001
ACAD
1000
MTEXTBEGIN
1070
    73
1070
     1
1070
    44
1040
1.0
1070
    74
1070
     0
1000
MTEXTEND
  0
POINT
  5
170B3
330
16F94
100
AcDbEntity
  8
DEFPOINTS
 62
     0
 48
50.0
100
AcDbPoint
 10
11236.35691079978
 20
5591.387956505514
 30
0.0
  0
POINT
  5
170B4
330
16F94
100
AcDbEntity
  8
DEFPOINTS
 62
     0
 48
50.0
100
AcDbPoint
 10
11316.35691079978
 20
5589.577276893862
 30
0.0
  0
POINT
  5
170B5
330
16F94
100
AcDbEntity
  8
DEFPOINTS
 62
     0
 48
50.0
100
AcDbPoint
 10
11316.35691079978
 20
6043.234730473165
 30
0.0
  0
ENDBLK
  5
16FA0
330
16F94
100
AcDbEntity
  8
0
 48
50.0
100
AcDbBlockEnd
  0
BLOCK
  5
16FAB
330
16FA1
100
AcDbEntity
  8
0
 48
50.0
100
AcDbBlockBegin
  2
*D41
 70
     1
 10
0.0
 20
0.0
 30
0.0
  3
*D41
  1

  0
LINE
  5
170A3
330
16FA1
100
AcDbEntity
  8
寸法
 62
     0
 48
50.0
370
    -2
100
AcDbLine
 10
11256.35691079978
 20
3569.57727689386
 30
0.0
 11
11806.76544873361
 21
3569.57727689386
 31
0.0
  0
LINE
  5
170A4
330
16FA1
100
AcDbEntity
  8
寸法
 62
     0
 48
50.0
370
    -2
100
AcDbLine
 10
11336.35691079979
 20
5589.57727689386
 30
0.0
 11
11806.76544873361
 21
5589.57727689386
 31
0.0
  0
LINE
  5
170A5
330
16FA1
100
AcDbEntity
  8
寸法
 62
     0
 48
50.0
370
    -2
100
AcDbLine
 10
11766.76544873361
 20
3589.57727689386
 30
0.0
 11
11766.76544873361
 21
5569.57727689386
 31
0.0
  0
INSERT
  5
170A6
330
16FA1
100
AcDbEntity
  8
寸法
 62
     0
 48
50.0
370
    -2
100
AcDbBlockReference
  2
_DOT
 10
11766.76544873361
 20
3569.57727689386
 30
0.0
 41
20.0
 42
20.0
 43
20.0
 50
270.0
  0
INSERT
  5
170A7
330
16FA1
100
AcDbEntity
  8
寸法
 62
     0
 48
50.0
370
    -2
100
AcDbBlockReference
  2
_DOT
 10
11766.76544873361
 20
5589.57727689386
 30
0.0
 41
20.0
 42
20.0
 43
20.0
 50
90.0
  0
MTEXT
  5
170A8
330
16FA1
100
AcDbEntity
  8
寸法
 62
     7
 48
50.0
100
AcDbMText
 10
11674.75363770999
 20
4521.501672958286
 30
0.0
 40
120.0
 41
0.0
 71
     5
 72
     1
  1
\A1;2020
  7
STYLE1
 11
0.0000000000000001
 21
1.0
 31
0.0
 73
     1
 44
1.0
1001
ACAD
1000
MTEXTBEGIN
1070
    73
1070
     1
1070
    44
1040
1.0
1070
    74
1070
     0
1000
MTEXTEND
  0
POINT
  5
170A9
330
16FA1
100
AcDbEntity
  8
DEFPOINTS
 62
     0
 48
50.0
100
AcDbPoint
 10
11236.35691079978
 20
3569.57727689386
 30
0.0
  0
POINT
  5
170AA
330
16FA1
100
AcDbEntity
  8
DEFPOINTS
 62
     0
 48
50.0
100
AcDbPoint
 10
11316.35691079979
 20
5589.57727689386
 30
0.0
  0
POINT
  5
170AB
330
16FA1
100
AcDbEntity
  8
DEFPOINTS
 62
     0
 48
50.0
100
AcDbPoint
 10
11766.76544873361
 20
5589.57727689386
 30
0.0
  0
ENDBLK
  5
16FAC
330
16FA1
100
AcDbEntity
  8
0
 48
50.0
100
AcDbBlockEnd
  0
BLOCK
  5
16FB7
330
16FAD
100
AcDbEntity
  8
0
 48
50.0
100
AcDbBlockBegin
  2
*D42
 70
     1
 10
0.0
 20
0.0
 30
0.0
  3
*D42
  1

  0
LINE
  5
1709A
330
16FAD
100
AcDbEntity
  8
寸法
 62
     0
 48
50.0
370
    -2
100
AcDbLine
 10
10259.354540755
 20
5409.577276893862
 30
0.0
 11
9624.393820107583
 21
5409.577276893863
 31
0.0
  0
LINE
  5
1709B
330
16FAD
100
AcDbEntity
  8
寸法
 62
     0
 48
50.0
370
    -2
100
AcDbLine
 10
10259.354540755
 20
3619.577276893864
 30
0.0
 11
9624.393820107581
 21
3619.577276893864
 31
0.0
  0
LINE
  5
1709C
330
16FAD
100
AcDbEntity
  8
寸法
 62
     0
 48
50.0
370
    -2
100
AcDbLine
 10
9684.393820107581
 20
5409.577276893863
 30
0.0
 11
9684.39382010758
 21
3619.577276893864
 31
0.0
  0
INSERT
  5
1709D
330
16FAD
100
AcDbEntity
  8
寸法
 62
     0
 48
50.0
370
    -2
100
AcDbBlockReference
  2
_DOTSMALL
 10
9684.393820107581
 20
5409.577276893863
 30
0.0
 41
100.0
 42
100.0
 43
100.0
 50
90.0
  0
INSERT
  5
1709E
330
16FAD
100
AcDbEntity
  8
寸法
 62
     0
 48
50.0
370
    -2
100
AcDbBlockReference
  2
_DOTSMALL
 10
9684.39382010758
 20
3619.577276893864
 30
0.0
 41
100.0
 42
100.0
 43
100.0
 50
270.0
  0
MTEXT
  5
1709F
330
16FAD
100
AcDbEntity
  8
寸法
 62
     7
 48
50.0
100
AcDbMText
 10
9584.39382010758
 20
4524.612288770249
 30
0.0
 40
120.0
 41
0.0
 71
     5
 72
     1
  1
\A1;1790
  7
STYLE1
 11
0.0000000000000001
 21
1.0
 31
0.0
 73
     1
 44
1.0
1001
ACAD
1000
MTEXTBEGIN
1070
    73
1070
     1
1070
    44
1040
1.0
1070
    74
1070
     0
1000
MTEXTEND
  0
POINT
  5
170A0
330
16FAD
100
AcDbEntity
  8
DEFPOINTS
 62
     0
 48
50.0
100
AcDbPoint
 10
10279.354540755
 20
5409.577276893862
 30
0.0
  0
POINT
  5
170A1
330
16FAD
100
AcDbEntity
  8
DEFPOINTS
 62
     0
 48
50.0
100
AcDbPoint
 10
10279.354540755
 20
3619.577276893864
 30
0.0
  0
POINT
  5
170A2
330
16FAD
100
AcDbEntity
  8
DEFPOINTS
 62
     0
 48
50.0
100
AcDbPoint
 10
9684.39382010758
 20
3619.577276893864
 30
0.0
  0
ENDBLK
  5
16FB8
330
16FAD
100
AcDbEntity
  8
0
 48
50.0
100
AcDbBlockEnd
  0
BLOCK
  5
16FC5
330
16FB9
100
AcDbEntity
  8
0
 48
50.0
100
AcDbBlockBegin
  2
*D43
 70
     1
 10
0.0
 20
0.0
 30
0.0
  3
*D43
  1

  0
LINE
  5
1708F
330
16FB9
100
AcDbEntity
  8
寸法
 62
     0
 48
50.0
370
    -2
100
AcDbLine
 10
10259.354540755
 20
3619.577276893864
 30
0.0
 11
9624.393820107581
 21
3619.577276893864
 31
0.0
  0
LINE
  5
17090
330
16FB9
100
AcDbEntity
  8
寸法
 62
     0
 48
50.0
370
    -2
100
AcDbLine
 10
10211.35691079978
 20
3569.577276893863
 30
0.0
 11
9624.393820107581
 21
3569.577276893863
 31
0.0
  0
LINE
  5
17091
330
16FB9
100
AcDbEntity
  8
寸法
 62
     0
 48
50.0
370
    -2
100
AcDbLine
 10
9684.39382010758
 20
3619.577276893864
 30
0.0
 11
9684.39382010758
 21
3719.577276893864
 31
0.0
  0
LINE
  5
17092
330
16FB9
100
AcDbEntity
  8
寸法
 62
     0
 48
50.0
370
    -2
100
AcDbLine
 10
9684.39382010758
 20
3569.577276893863
 30
0.0
 11
9684.39382010758
 21
3157.482788704882
 31
0.0
  0
LINE
  5
17093
330
16FB9
100
AcDbEntity
  8
寸法
 62
     0
 48
50.0
370
    -2
100
AcDbLine
 10
9684.39382010758
 20
3619.577276893864
 30
0.0
 11
9684.39382010758
 21
3569.577276893863
 31
0.0
  0
INSERT
  5
17094
330
16FB9
100
AcDbEntity
  8
寸法
 62
     0
 48
50.0
370
    -2
100
AcDbBlockReference
  2
_DOTSMALL
 10
9684.39382010758
 20
3619.577276893864
 30
0.0
 41
100.0
 42
100.0
 43
100.0
 50
270.0
  0
INSERT
  5
17095
330
16FB9
100
AcDbEntity
  8
寸法
 62
     0
 48
50.0
370
    -2
100
AcDbBlockReference
  2
_DOTSMALL
 10
9684.39382010758
 20
3569.577276893863
 30
0.0
 41
100.0
 42
100.0
 43
100.0
 50
90.0
  0
MTEXT
  5
17096
330
16FB9
100
AcDbEntity
  8
寸法
 62
     7
 48
50.0
100
AcDbMText
 10
9584.39382010758
 20
3263.530032799372
 30
0.0
 40
120.0
 41
0.0
 71
     5
 72
     1
  1
\A1;50
  7
STYLE1
 11
0.0000000000000001
 21
1.0
 31
0.0
 73
     1
 44
1.0
1001
ACAD
1000
MTEXTBEGIN
1070
    73
1070
     1
1070
    44
1040
1.0
1070
    74
1070
     0
1000
MTEXTEND
  0
POINT
  5
17097
330
16FB9
100
AcDbEntity
  8
DEFPOINTS
 62
     0
 48
50.0
100
AcDbPoint
 10
10279.354540755
 20
3619.577276893864
 30
0.0
  0
POINT
  5
17098
330
16FB9
100
AcDbEntity
  8
DEFPOINTS
 62
     0
 48
50.0
100
AcDbPoint
 10
10231.35691079978
 20
3569.577276893863
 30
0.0
  0
POINT
  5
17099
330
16FB9
100
AcDbEntity
  8
DEFPOINTS
 62
     0
 48
50.0
100
AcDbPoint
 10
9684.39382010758
 20
3569.577276893863
 30
0.0
  0
ENDBLK
  5
16FC6
330
16FB9
100
AcDbEntity
  8
0
 48
50.0
100
AcDbBlockEnd
  0
ENDSEC
  0
SECTION
  2
ENTITIES
  0
LINE
  5
10B56
330
747D
100
AcDbEntity
  8
補助
  6
PHANTOM
 62
   230
 48
50.0
100
AcDbLine
 10
140.0
 20
0.0
 30
0.0
 11
139.9999999999995
 21
11409.6
 31
0.0
  0
LINE
  5
10B57
330
747D
100
AcDbEntity
  8
補助
  6
PHANTOM
 62
   230
 48
50.0
100
AcDbLine
 10
139.9999999999995
 20
11409.6
 30
0.0
 11
16307.2
 21
11409.6
 31
0.0
  0
LINE
  5
10B59
330
747D
100
AcDbEntity
  8
仕様書枠
  6
Continuous
 48
50.0
100
AcDbLine
 10
13107.2
 20
1200.0
 30
0.0
 11
13107.2
 21
-0.0000000000000729
 31
0.0
  0
LINE
  5
10B5C
330
747D
100
AcDbEntity
  8
仕様書枠
 48
50.0
100
AcDbLine
 10
16307.2
 20
1200.0
 30
0.0
 11
16307.2
 21
-0.0000000000000909
 31
0.0
  0
LINE
  5
10B5D
330
747D
100
AcDbEntity
  8
仕様書枠
 48
50.0
100
AcDbLine
 10
140.0
 20
0.0
 30
0.0
 11
16307.2
 21
-0.0000000000000909
 31
0.0
  0
LINE
  5
10B5E
330
747D
100
AcDbEntity
  8
補助
  6
PHANTOM
 62
   230
 48
50.0
100
AcDbLine
 10
16307.2
 20
11409.6
 30
0.0
 11
16307.2
 21
1200.0
 31
0.0
  0
LINE
  5
10B6C
330
747D
100
AcDbEntity
  8
仕様書枠
 48
50.0
100
AcDbLine
 10
13107.2
 20
1200.0
 30
0.0
 11
16307.2
 21
1200.0
 31
0.0
  0
LINE
  5
10B6D
330
747D
100
AcDbEntity
  8
補助
  6
PHANTOM
 62
   230
 48
50.0
100
AcDbLine
 10
13107.2
 20
11409.6
 30
0.0
 11
13107.2
 21
4800.0
 31
0.0
  0
LINE
  5
10B6F
330
747D
100
AcDbEntity
  8
補助
  6
PHANTOM
 62
   230
 48
50.0
100
AcDbLine
 10
13107.2
 20
4800.0
 30
0.0
 11
16307.2
 21
4800.0
 31
0.0
  0
LINE
  5
10B72
330
747D
100
AcDbEntity
  8
文字
 62
     7
 48
50.0
100
AcDbLine
 10
13187.2
 20
400.0
 30
0.0
 11
16227.2
 21
400.0
 31
0.0
  0
TEXT
  5
10B73
330
747D
100
AcDbEntity
  8
文字
 62
     7
 48
50.0
100
AcDbText
 10
13162.9790565769
 20
895.0906074299405
 30
0.0
 40
200.0
  1
外 形 図
  7
STYLE2
100
AcDbText
  0
TEXT
  5
10B74
330
747D
100
AcDbEntity
  8
文字
 62
     7
 48
50.0
100
AcDbText
 10
13201.43669998441
 20
477.2740661031255
 30
0.0
 40
160.0
  1
機種名
  7
STYLE2
100
AcDbText
  0
TEXT
  5
10B75
330
747D
100
AcDbEntity
  8
文字
 62
     7
 48
50.0
100
AcDbText
 10
13209.4053442172
 20
228.5435242569016
 30
0.0
 40
100.0
  1
○有効開口寸法 ： 685×1760(mm)
  7
STYLE2
100
AcDbText
  0
TEXT
  5
10B76
330
747D
100
AcDbEntity
  8
文字
 62
     7
 48
50.0
100
AcDbText
 10
13209.4053442172
 20
76.09434707649343
 30
0.0
 40
100.0
  1
○床面積 ： 3.90㎡(1.18坪) 　
  7
STYLE2
100
AcDbText
  0
TEXT
  5
10B79
330
747D
100
AcDbEntity
  8
文字
 62
     7
 48
50.0
100
AcDbText
 10
14524.131837222
 20
1031.557706291228
 30
0.0
 40
100.0
  1
NO.04     <縮尺> S=1/40
  7
STYLE2
100
AcDbText
  0
LINE
  5
10B7B
330
747D
100
AcDbEntity
  8
仕様書枠
 48
50.0
100
AcDbLine
 10
13107.2
 20
800.0
 30
0.0
 11
14251.2
 21
800.0
 31
0.0
  0
LINE
  5
10B88
330
747D
100
AcDbEntity
  8
仕様書枠
  6
Continuous
 48
50.0
100
AcDbLine
 10
14251.2
 20
1200.0
 30
0.0
 11
14251.2
 21
800.0
 31
0.0
  0
TEXT
  5
10EA8
330
747D
100
AcDbEntity
  8
文字
 62
     7
 48
50.0
100
AcDbText
 10
14251.2
 20
838.2527270729188
 30
0.0
 40
100.0
  1
～一般型・多雪地型・豪雪地型～
  7
STYLE2
100
AcDbText
  0
LINE
  5
13A41
330
747D
100
AcDbEntity
  8
Ｇ．Ｌ
100
AcDbLine
 10
2711.218395568918
 20
3469.577276893861
 30
0.0
 11
12062.23197461314
 21
3469.577276893861
 31
0.0
  0
LINE
  5
13A4F
330
747D
100
AcDbEntity
  8
部品1
100
AcDbLine
 10
3799.484998239402
 20
3612.577276893849
 30
0.0
 11
7899.484998239401
 21
3612.577276893889
 31
0.0
  0
LINE
  5
13A54
330
747D
100
AcDbEntity
  8
部品1
100
AcDbLine
 10
3799.484998239402
 20
5409.577276893859
 30
0.0
 11
7899.484998239401
 21
5409.577276893861
 31
0.0
  0
LINE
  5
13A55
330
747D
100
AcDbEntity
  8
部品1
100
AcDbLine
 10
3799.484998239401
 20
3569.57727689386
 30
0.0
 11
7899.484998239401
 21
3569.577276893861
 31
0.0
  0
LINE
  5
13A5E
330
747D
100
AcDbEntity
  8
部品1
100
AcDbLine
 10
5484.484998239401
 20
5407.077276893864
 30
0.0
 11
5484.4849982394
 21
3616.077276893866
 31
0.0
  0
LINE
  5
13A5F
330
747D
100
AcDbEntity
  8
部品1
100
AcDbLine
 10
7036.484998239401
 20
5409.577276893861
 30
0.0
 11
7036.484998239401
 21
3612.577276893881
 31
0.0
  0
LINE
  5
13A60
330
747D
100
AcDbEntity
  8
部品1
100
AcDbLine
 10
3799.484998239401
 20
5503.577276893862
 30
0.0
 11
3799.484998239401
 21
3469.577276893861
 31
0.0
  0
TEXT
  5
13A63
330
747D
100
AcDbEntity
  8
部品1
100
AcDbText
 10
2730.696484939741
 20
3505.684180499763
 30
0.0
 40
125.0
  1
▽G.L
  7
STYLE2
100
AcDbText
  0
LINE
  5
13AB6
330
747D
100
AcDbEntity
  8
部品1
100
AcDbLine
 10
7899.484998239401
 20
5503.577276893858
 30
0.0
 11
7899.484998239401
 21
3469.577276893861
 31
0.0
  0
DIMENSION
  5
13ACA
330
747D
100
AcDbEntity
  8
寸法
100
AcDbDimension
  2
*D1
 10
3481.380470631797
 20
3631.077276893865
 30
0.0
 11
3481.380470631797
 21
4510.077276893862
 31
0.0
 12
-1640.0
 22
0.0
 32
0.0
 70
   160
  1
有効開口部高サ<>
 71
     5
 42
-1.0
  3
INABA_S40G
100
AcDbAlignedDimension
 13
3799.484998239401
 23
5391.07727689386
 33
0.0
 14
3799.484998239401
 24
3631.077276893865
 34
0.0
 50
90.0
100
AcDbRotatedDimension
1001
ACAD
1000
DSTYLE
1002
{
1070
   288
1070
     1
1002
}
  0
DIMENSION
  5
13B15
330
747D
100
AcDbEntity
  8
寸法
100
AcDbDimension
  2
*D2
 10
6204.484998239406
 20
9522.174134733532
 30
0.0
 11
5849.734998239406
 21
9522.174134733532
 31
0.0
 12
0.0
 22
742.2228123819641
 32
0.0
 70
   160
 71
     5
 42
-1.0
  3
INABA_S40G
100
AcDbAlignedDimension
 13
5494.484998239407
 23
9306.365915108434
 33
0.0
 14
6204.484998239406
 24
9306.365915108555
 34
0.0
100
AcDbRotatedDimension
1001
ACAD
1000
DSTYLE
1002
{
1002
}
  0
LINE
  5
13B16
330
747D
100
AcDbEntity
  8
部品1
100
AcDbLine
 10
3799.484998239373
 20
9306.365915108385
 30
0.0
 11
7899.484998239408
 21
9306.365915108528
 31
0.0
  0
DIMENSION
  5
13B17
330
747D
100
AcDbEntity
  8
寸法
100
AcDbDimension
  2
*D3
 10
7899.484998239408
 20
9522.174134733509
 30
0.0
 11
8207.970279613645
 21
9522.174134733509
 31
0.0
 12
-784.4159866483823
 22
-4271.513698015158
 32
0.0
 70
   160
 71
     5
 42
-1.0
  3
INABA_S40G
100
AcDbAlignedDimension
 13
7844.484998239408
 23
9306.365915108528
 33
0.0
 14
7899.484998239408
 24
9306.365915108528
 34
0.0
100
AcDbRotatedDimension
1001
ACAD
1000
DSTYLE
1002
{
1002
}
  0
LINE
  5
13B18
330
747D
100
AcDbEntity
  8
部品1
100
AcDbLine
 10
5467.484998239407
 20
9278.365915108434
 30
0.0
 11
6256.865701258009
 21
9278.365915108482
 31
0.0
  0
LINE
  5
13B20
330
747D
100
AcDbEntity
  8
部品1
100
AcDbLine
 10
7899.484998239383
 20
8356.365915108495
 30
0.0
 11
3799.484998239401
 21
8356.365915108451
 31
0.0
  0
LINE
  5
13B22
330
747D
100
AcDbEntity
  8
部品1
100
AcDbLine
 10
7022.984026814592
 20
8487.866020821368
 30
0.0
 11
6314.984998239385
 21
8487.865915133143
 31
0.0
  0
DIMENSION
  5
13B23
330
747D
100
AcDbEntity
  8
寸法
100
AcDbDimension
  2
*D4
 10
7899.484998239383
 20
7369.264040248284
 30
0.0
 11
5849.484998239391
 21
7369.264040248284
 31
0.0
 70
   160
 71
     5
 42
-1.0
  3
INABA_S40G
100
AcDbAlignedDimension
 13
3799.484998239401
 23
8356.3659151083
 33
0.0
 14
7899.484998239383
 24
8356.365915108463
 34
0.0
100
AcDbRotatedDimension
1001
ACAD
1000
DSTYLE
1002
{
1002
}
  0
TEXT
  5
13B2F
330
747D
100
AcDbEntity
  8
部品1
100
AcDbText
 10
5557.66927495421
 20
6825.893697090123
 30
0.0
 40
135.0
  1
平面図
  7
STYLE2
100
AcDbText
  0
LWPOLYLINE
  5
13B30
330
747D
100
AcDbEntity
  8
部品1
100
AcDbPolyline
 90
        4
 70
     1
 43
0.0
 10
5467.749665125172
 20
7018.787226308646
 10
5467.749665125172
 20
6778.894904763113
 10
6231.220331353611
 20
6778.894904763113
 10
6231.220331353611
 20
7018.787226308646
  0
LINE
  5
13B3E
330
747D
100
AcDbEntity
  8
部品1
100
AcDbLine
 10
5467.484998239382
 20
8411.365915108387
 30
0.0
 11
5467.484998239406
 21
9306.365915108459
 31
0.0
  0
LINE
  5
13B48
330
747D
100
AcDbEntity
  8
部品1
100
AcDbLine
 10
5467.484998239399
 20
8411.365915108401
 30
0.0
 11
5411.484998239384
 21
8411.365915108401
 31
0.0
  0
LINE
  5
13B4B
330
747D
100
AcDbEntity
  8
部品1
100
AcDbLine
 10
5490.484998239401
 20
8356.365915108391
 30
0.0
 11
5439.4849982394
 21
8356.365915108391
 31
0.0
  0
LINE
  5
13B4D
330
747D
100
AcDbEntity
  8
部品1
100
AcDbLine
 10
5467.484998239381
 20
8831.365915108401
 30
0.0
 11
5411.484998239396
 21
8831.365915108401
 31
0.0
  0
LINE
  5
13B4E
330
747D
100
AcDbEntity
  8
部品1
100
AcDbLine
 10
5467.484998239374
 20
9251.365915108406
 30
0.0
 11
5411.484998239407
 21
9251.365915108406
 31
0.0
  0
LINE
  5
13B4F
330
747D
100
AcDbEntity
  8
部品1
100
AcDbLine
 10
5494.484998239407
 20
9306.365915108434
 30
0.0
 11
5494.484998239407
 21
9278.365915108434
 31
0.0
  0
LINE
  5
13B50
330
747D
100
AcDbEntity
  8
部品1
100
AcDbLine
 10
5494.484998239372
 20
9306.365915108401
 30
0.0
 11
5494.484998239375
 21
9278.3659151084
 31
0.0
  0
LINE
  5
13B59
330
747D
100
AcDbEntity
  8
破線
 48
10.0
100
AcDbLine
 10
5519.485063164109
 20
8826.865915108443
 30
0.0
 11
5519.484998239395
 21
8511.365915108443
 31
0.0
  0
LINE
  5
13B74
330
747D
100
AcDbEntity
  8
破線
 48
10.0
100
AcDbLine
 10
7819.485063164076
 20
8826.865915108477
 30
0.0
 11
7819.48499823939
 21
8511.365915108525
 31
0.0
  0
LINE
  5
13B77
330
747D
100
AcDbEntity
  8
破線
 48
10.0
100
AcDbLine
 10
6999.484998239386
 20
8511.365915108525
 30
0.0
 11
6338.484998239394
 21
8511.365915108489
 31
0.0
  0
LINE
  5
13B98
330
747D
100
AcDbEntity
  8
部品1
100
AcDbLine
 10
7844.484998239408
 20
9306.365915108548
 30
0.0
 11
7844.484998239408
 21
9278.365915108548
 31
0.0
  0
LINE
  5
13B99
330
747D
100
AcDbEntity
  8
部品1
100
AcDbLine
 10
7844.484998239408
 20
9306.365915108528
 30
0.0
 11
7844.484998239408
 21
9278.365915108528
 31
0.0
  0
DIMENSION
  5
13B9A
330
747D
100
AcDbEntity
  8
寸法
100
AcDbDimension
  2
*D5
 10
8546.911343973793
 20
8356.365915108517
 30
0.0
 11
8546.911343973793
 21
7978.504448203658
 31
0.0
 12
-784.4159866483823
 22
-4271.513698015158
 32
0.0
 70
   160
 71
     5
 42
-1.0
  3
INABA_S40G
100
AcDbAlignedDimension
 13
7899.484998239383
 23
8411.365915108515
 33
0.0
 14
7899.484998239383
 24
8356.365915108517
 34
0.0
 50
90.0
100
AcDbRotatedDimension
1001
ACAD
1000
DSTYLE
1002
{
1002
}
  0
LINE
  5
13BA5
330
747D
100
AcDbEntity
  8
部品1
100
AcDbLine
 10
7871.484998239409
 20
9278.365915108528
 30
0.0
 11
7871.484998239385
 21
8411.365915108515
 31
0.0
  0
DIMENSION
  5
13BA6
330
747D
100
AcDbEntity
  8
寸法
100
AcDbDimension
  2
*D6
 10
8546.911343973818
 20
8411.365915108515
 30
0.0
 11
8546.911343973818
 21
8831.365915108525
 31
0.0
 12
-784.4159866483823
 22
-4271.513698015158
 32
0.0
 70
   160
  1
2X420=<>
 71
     5
 42
-1.0
  3
INABA_S40G
100
AcDbAlignedDimension
 13
7899.484998239408
 23
9251.365915108532
 33
0.0
 14
7899.484998239383
 24
8411.365915108515
 34
0.0
 50
90.0
100
AcDbRotatedDimension
1001
ACAD
1000
DSTYLE
1002
{
1002
}
  0
LINE
  5
13BA8
330
747D
100
AcDbEntity
  8
部品1
100
AcDbLine
 10
7899.484998239408
 20
9306.365915108528
 30
0.0
 11
7899.484998239383
 21
8356.365915108517
 31
0.0
  0
DIMENSION
  5
13BA9
330
747D
100
AcDbEntity
  8
寸法
100
AcDbDimension
  2
*D7
 10
8856.022874789493
 20
8356.365915108517
 30
0.0
 11
8856.022874789493
 21
8830.343633667437
 31
0.0
 12
-784.4159866483823
 22
-4271.513698015158
 32
0.0
 70
   160
 71
     5
 42
-1.0
  3
INABA_S40G
100
AcDbAlignedDimension
 13
7899.484998239408
 23
9306.365915108528
 33
0.0
 14
7899.484998239383
 24
8356.365915108517
 34
0.0
 50
90.0
100
AcDbRotatedDimension
1001
ACAD
1000
DSTYLE
1002
{
1002
}
  0
LINE
  5
13BAA
330
747D
100
AcDbEntity
  8
部品1
100
AcDbLine
 10
7871.484998239416
 20
8411.365915108532
 30
0.0
 11
7899.484998239415
 21
8411.365915108532
 31
0.0
  0
LINE
  5
13BAB
330
747D
100
AcDbEntity
  8
部品1
100
AcDbLine
 10
7871.484998239385
 20
8411.365915108515
 30
0.0
 11
7899.484998239383
 21
8411.365915108515
 31
0.0
  0
LINE
  5
13BAD
330
747D
100
AcDbEntity
  8
部品1
100
AcDbLine
 10
7871.484998239409
 20
8831.365915108532
 30
0.0
 11
7899.484998239408
 21
8831.365915108532
 31
0.0
  0
DIMENSION
  5
13BAE
330
747D
100
AcDbEntity
  8
寸法
100
AcDbDimension
  2
*D8
 10
8546.911343973818
 20
9251.365915108532
 30
0.0
 11
8546.911343973818
 21
9614.851196482765
 31
0.0
 12
-784.4159866483823
 22
-4271.513698015158
 32
0.0
 70
   160
 71
     5
 42
-1.0
  3
INABA_S40G
100
AcDbAlignedDimension
 13
7899.484998239408
 23
9306.365915108528
 33
0.0
 14
7899.484998239408
 24
9251.365915108532
 34
0.0
 50
90.0
100
AcDbRotatedDimension
1001
ACAD
1000
DSTYLE
1002
{
1002
}
  0
LINE
  5
13BAF
330
747D
100
AcDbEntity
  8
部品1
100
AcDbLine
 10
7871.484998239409
 20
9251.365915108532
 30
0.0
 11
7899.484998239408
 21
9251.365915108532
 31
0.0
  0
LINE
  5
13E9E
330
747D
100
AcDbEntity
  8
部品1
100
AcDbLine
 10
6288.98499823934
 20
9276.865915108484
 30
0.0
 11
7049.984998239342
 21
9276.865915108476
 31
0.0
  0
LINE
  5
13E9F
330
747D
100
AcDbEntity
  8
細線
 48
50.0
100
AcDbLine
 10
7049.984998239342
 20
8826.865915108475
 30
0.0
 11
6288.98499823934
 21
9276.865915108478
 31
0.0
  0
LINE
  5
13EA0
330
747D
100
AcDbEntity
  8
細線
 48
50.0
100
AcDbLine
 10
7049.984998239342
 20
9276.865915108476
 30
0.0
 11
6288.984998239339
 21
8826.865915108482
 31
0.0
  0
LINE
  5
13EA1
330
747D
100
AcDbEntity
  8
部品1
100
AcDbLine
 10
6288.984998239339
 20
8826.865915108482
 30
0.0
 11
7049.984998239342
 21
8826.865915108475
 31
0.0
  0
DIMENSION
  5
13EA2
330
747D
100
AcDbEntity
  8
寸法
100
AcDbDimension
  2
*D9
 10
6991.291501945373
 20
8607.8188048655
 30
0.0
 11
6668.332060357609
 21
8607.8188048655
 31
0.0
 12
908.9959533896236
 22
-1782.983699525808
 32
0.0
 70
   160
 71
     5
 42
-1.0
  3
INABA_S40G
100
AcDbAlignedDimension
 13
6288.98499823934
 23
8826.865915108482
 33
0.0
 14
7049.984998239351
 24
8826.865915108479
 34
0.0
100
AcDbRotatedDimension
1001
ACAD
1000
DSTYLE
1002
{
1002
}
  0
DIMENSION
  5
13EA3
330
747D
100
AcDbEntity
  8
寸法
100
AcDbDimension
  2
*D10
 10
6171.291508623074
 20
8607.818804865454
 30
0.0
 11
5790.791508623067
 21
8607.818804865454
 31
0.0
 12
876.995960067321
 22
-1782.983699525748
 32
0.0
 70
   160
 71
     5
 42
-1.0
  3
INABA_S40G
100
AcDbAlignedDimension
 13
5468.985004917039
 23
8826.865915108438
 33
0.0
 14
6229.98500491705
 24
8826.865915108433
 34
0.0
100
AcDbRotatedDimension
1001
ACAD
1000
DSTYLE
1002
{
1002
}
  0
LINE
  5
13EA5
330
747D
100
AcDbEntity
  8
部品1
100
AcDbLine
 10
5468.985004917037
 20
9276.865915108441
 30
0.0
 11
6229.985004917037
 21
9276.865915108547
 31
0.0
  0
LINE
  5
13EA6
330
747D
100
AcDbEntity
  8
部品1
100
AcDbLine
 10
5468.985004917038
 20
8826.865915108438
 30
0.0
 11
6229.985004917036
 21
8826.865915108543
 31
0.0
  0
LINE
  5
13EA7
330
747D
100
AcDbEntity
  8
細線
 48
50.0
100
AcDbLine
 10
6229.985004917036
 20
8826.865915108543
 30
0.0
 11
5468.985004917037
 21
9276.865915108441
 31
0.0
  0
LINE
  5
13EA8
330
747D
100
AcDbEntity
  8
細線
 48
50.0
100
AcDbLine
 10
6229.985004917037
 20
9276.865915108542
 30
0.0
 11
5468.985004917037
 21
8826.865915108438
 31
0.0
  0
LINE
  5
13EA9
330
747D
100
AcDbEntity
  8
部品1
 48
50.0
100
AcDbLine
 10
5468.985004917037
 20
9276.865915108434
 30
0.0
 11
5468.985004917037
 21
8826.865915108438
 31
0.0
  0
LINE
  5
13EB4
330
747D
100
AcDbEntity
  8
部品1
 48
50.0
100
AcDbLine
 10
6229.985004917037
 20
9276.865915108542
 30
0.0
 11
6229.985004917037
 21
8826.865915108543
 31
0.0
  0
LINE
  5
13EB5
330
747D
100
AcDbEntity
  8
部品1
 48
50.0
100
AcDbLine
 10
6288.98499823934
 20
9276.865915108478
 30
0.0
 11
6288.98499823934
 21
8826.865915108482
 31
0.0
  0
DIMENSION
  5
13EBD
330
747D
100
AcDbEntity
  8
寸法
100
AcDbDimension
  2
*D11
 10
8225.342724101365
 20
8731.648099439587
 30
0.0
 11
8217.342724101365
 21
8956.648099439586
 31
0.0
 12
1636.995953389623
 22
-75.27314100777949
 32
0.0
 70
    32
 71
     5
 42
-1.0
  3
INABA_S40G
100
AcDbAlignedDimension
 13
7869.98499823934
 23
9276.865915108476
 33
0.0
 14
7869.98499823934
 24
8826.865915108475
 34
0.0
 50
90.0
100
AcDbRotatedDimension
1001
ACAD
1000
DSTYLE
1002
{
1002
}
  0
LINE
  5
13EBE
330
747D
100
AcDbEntity
  8
部品1
100
AcDbLine
 10
7869.98499823934
 20
9276.865915108476
 30
0.0
 11
7869.98499823934
 21
8826.865915108475
 31
0.0
  0
LINE
  5
13F15
330
747D
100
AcDbEntity
  8
部品1
100
AcDbLine
 10
7034.484998239399
 20
5407.07727689386
 30
0.0
 11
7034.484998239403
 21
3616.077276893882
 31
0.0
  0
LINE
  5
13F16
330
747D
100
AcDbEntity
  8
部品1
100
AcDbLine
 10
6304.4849982394
 20
5407.077276893857
 30
0.0
 11
6304.4849982394
 21
3616.077276893875
 31
0.0
  0
LINE
  5
13F17
330
747D
100
AcDbEntity
  8
部品1
100
AcDbLine
 10
6302.484998239401
 20
5409.577276893861
 30
0.0
 11
6302.484998239401
 21
3612.577276893881
 31
0.0
  0
LINE
  5
13F18
330
747D
100
AcDbEntity
  8
部品1
100
AcDbLine
 10
6216.484998239401
 20
5409.577276893861
 30
0.0
 11
6216.484998239401
 21
3612.577276893881
 31
0.0
  0
LINE
  5
13F19
330
747D
100
AcDbEntity
  8
部品1
100
AcDbLine
 10
6214.484998239399
 20
5407.07727689386
 30
0.0
 11
6214.484998239402
 21
3616.077276893881
 31
0.0
  0
LINE
  5
13F1A
330
747D
100
AcDbEntity
  8
部品1
100
AcDbLine
 10
5482.4849982394
 20
5409.577276893861
 30
0.0
 11
5482.4849982394
 21
3612.577276893881
 31
0.0
  0
LINE
  5
13FFF
330
747D
100
AcDbEntity
  8
部品1
100
AcDbLine
 10
5484.484998239401
 20
3616.077276893866
 30
0.0
 11
6194.42255041072
 21
3616.077276893872
 31
0.0
  0
LINE
  5
14000
330
747D
100
AcDbEntity
  8
部品1
100
AcDbLine
 10
6304.4849982394
 20
3616.077276893875
 30
0.0
 11
7014.42255041072
 21
3616.07727689388
 31
0.0
  0
LINE
  5
14001
330
747D
100
AcDbEntity
  8
部品1
100
AcDbLine
 10
5484.484998239401
 20
5407.077276893864
 30
0.0
 11
6194.42255041072
 21
5407.077276893862
 31
0.0
  0
LINE
  5
14002
330
747D
100
AcDbEntity
  8
部品1
100
AcDbLine
 10
6304.4849982394
 20
5407.077276893857
 30
0.0
 11
7014.42255041072
 21
5407.07727689386
 31
0.0
  0
LINE
  5
14026
330
747D
100
AcDbEntity
  8
破線
 48
10.0
100
AcDbLine
 10
6338.484998239394
 20
8511.365915108489
 30
0.0
 11
6338.484985808284
 21
8826.865915108482
 31
0.0
  0
LINE
  5
14027
330
747D
100
AcDbEntity
  8
破線
 48
10.0
100
AcDbLine
 10
6180.484998239395
 20
8511.365915108479
 30
0.0
 11
6180.484989884842
 21
8826.865915108536
 31
0.0
  0
LINE
  5
14028
330
747D
100
AcDbEntity
  8
破線
 48
10.0
100
AcDbLine
 10
6180.484998239395
 20
8511.365915108482
 30
0.0
 11
5519.484998239395
 21
8511.365915108443
 31
0.0
  0
LINE
  5
1402D
330
747D
100
AcDbEntity
  8
部品1
100
AcDbLine
 10
7034.484998239399
 20
8382.365915108525
 30
0.0
 11
6304.4849982394
 21
8382.365915108463
 31
0.0
  0
LINE
  5
1409C
330
747D
100
AcDbEntity
  8
部品1
 48
2.83
100
AcDbLine
 10
7867.484998239382
 20
8411.365915108488
 30
0.0
 11
7844.484998239382
 21
8411.365915108484
 31
0.0
  0
LINE
  5
1409F
330
747D
100
AcDbEntity
  8
部品1
 48
2.83
100
AcDbLine
 10
7899.484998239381
 20
8411.365915108484
 30
0.0
 11
7876.484998239381
 21
8411.365915108488
 31
0.0
  0
LINE
  5
140A0
330
747D
100
AcDbEntity
  8
部品1
 48
2.83
100
AcDbLine
 10
7844.484998239384
 20
8411.365915108484
 30
0.0
 11
7844.484998239382
 21
8385.865915108487
 31
0.0
  0
LINE
  5
140A1
330
747D
100
AcDbEntity
  8
部品1
 48
2.83
100
AcDbLine
 10
7856.484998239382
 20
8385.865915108487
 30
0.0
 11
7856.484998239382
 21
8356.365915108487
 31
0.0
  0
LINE
  5
140A3
330
747D
100
AcDbEntity
  8
部品1
 48
2.83
100
AcDbLine
 10
5471.484998239401
 20
8411.365915108355
 30
0.0
 11
5494.484998239402
 21
8411.365915108353
 31
0.0
  0
LINE
  5
140A5
330
747D
100
AcDbEntity
  8
部品1
 48
2.83
100
AcDbLine
 10
5482.484998239402
 20
8356.365915108355
 30
0.0
 11
5439.4849982394
 21
8356.365915108353
 31
0.0
  0
LINE
  5
140A7
330
747D
100
AcDbEntity
  8
部品1
 48
2.83
100
AcDbLine
 10
5494.484998239401
 20
8411.365915108353
 30
0.0
 11
5494.484998239403
 21
8385.865915108356
 31
0.0
  0
LINE
  5
140A8
330
747D
100
AcDbEntity
  8
部品1
 48
2.83
100
AcDbLine
 10
5482.484998239402
 20
8385.865915108356
 30
0.0
 11
5482.484998239402
 21
8356.365915108355
 31
0.0
  0
LINE
  5
140AA
330
747D
100
AcDbEntity
  8
部品1
 48
50.0
100
AcDbLine
 10
6287.484998239388
 20
8411.365915108472
 30
0.0
 11
6287.484998239332
 21
9306.365915108482
 31
0.0
  0
LINE
  5
140AB
330
747D
100
AcDbEntity
  8
部品1
 48
50.0
100
AcDbLine
 10
6231.484998239388
 20
8411.365915108472
 30
0.0
 11
6231.484998239333
 21
9278.365915108482
 31
0.0
  0
LINE
  5
140D8
330
747D
100
AcDbEntity
  8
部品1
100
AcDbLine
 10
6214.4849982394
 20
8382.365915108525
 30
0.0
 11
6214.4849982394
 21
8356.365915108469
 31
0.0
  0
LINE
  5
140D9
330
747D
100
AcDbEntity
  8
部品1
100
AcDbLine
 10
6216.4849982394
 20
8385.865915108418
 30
0.0
 11
6216.484998239398
 21
8356.365915108467
 31
0.0
  0
LINE
  5
140DA
330
747D
100
AcDbEntity
  8
部品1
100
AcDbLine
 10
6302.484998239402
 20
8385.865915108425
 30
0.0
 11
6302.484998239402
 21
8356.365915108472
 31
0.0
  0
LINE
  5
140DB
330
747D
100
AcDbEntity
  8
部品1
100
AcDbLine
 10
6304.4849982394
 20
8382.365915108463
 30
0.0
 11
6304.484998239399
 21
8356.365915108474
 31
0.0
  0
LINE
  5
140DC
330
747D
100
AcDbEntity
  8
部品1
100
AcDbLine
 10
7854.484998239399
 20
8382.365915108525
 30
0.0
 11
7854.484998239401
 21
8356.365915108517
 31
0.0
  0
LINE
  5
140E0
330
747D
100
AcDbEntity
  8
部品1
100
AcDbLine
 10
5484.484998239401
 20
8382.365915108461
 30
0.0
 11
5484.484998239401
 21
8356.365915108424
 31
0.0
  0
LINE
  5
140EC
330
747D
100
AcDbEntity
  8
部品1
 48
5.0
100
AcDbLine
 10
6302.484998239402
 20
8385.865915108473
 30
0.0
 11
6302.484998239402
 21
8356.365915108472
 31
0.0
  0
LINE
  5
140EF
330
747D
100
AcDbEntity
  8
部品1
 48
5.0
100
AcDbLine
 10
6216.484998239402
 20
8385.865915108473
 30
0.0
 11
6216.484998239402
 21
8356.365915108472
 31
0.0
  0
LINE
  5
1411A
330
747D
100
AcDbEntity
  8
部品1
 48
5.0
100
AcDbLine
 10
6314.484998239403
 20
8411.365915108472
 30
0.0
 11
6314.484998239404
 21
8385.865915108473
 31
0.0
  0
LINE
  5
14127
330
747D
100
AcDbEntity
  8
部品1
 48
5.0
100
AcDbLine
 10
6283.484998239403
 20
8411.365915108472
 30
0.0
 11
6283.484998239402
 21
8385.865915108473
 31
0.0
  0
LINE
  5
14130
330
747D
100
AcDbEntity
  8
部品1
 48
5.0
100
AcDbLine
 10
6235.484998239403
 20
8411.365915108472
 30
0.0
 11
6235.484998239403
 21
8385.865915108473
 31
0.0
  0
LINE
  5
14139
330
747D
100
AcDbEntity
  8
部品1
 48
5.0
100
AcDbLine
 10
6204.484998239403
 20
8411.365915108474
 30
0.0
 11
6204.484998239403
 21
8385.865915108473
 31
0.0
  0
LINE
  5
1413B
330
747D
100
AcDbEntity
  8
部品1
 48
5.0
100
AcDbLine
 10
5463.484998239403
 20
8385.865915108356
 30
0.0
 11
6235.484998239403
 21
8385.865915108473
 31
0.0
  0
LINE
  5
14151
330
747D
100
AcDbEntity
  8
部品1
 48
5.0
100
AcDbLine
 10
6227.484998239402
 20
8411.365915108472
 30
0.0
 11
6204.484998239401
 21
8411.365915108472
 31
0.0
  0
LINE
  5
14156
330
747D
100
AcDbEntity
  8
部品1
 48
5.0
100
AcDbLine
 10
6231.484998239388
 20
8411.365915108472
 30
0.0
 11
6287.484998239388
 21
8411.365915108472
 31
0.0
  0
LINE
  5
1415B
330
747D
100
AcDbEntity
  8
部品1
 48
5.0
100
AcDbLine
 10
6291.484998239402
 20
8411.365915108472
 30
0.0
 11
6314.484998239403
 21
8411.365915108472
 31
0.0
  0
LINE
  5
1415F
330
747D
100
AcDbEntity
  8
部品1
 48
5.0
100
AcDbLine
 10
7055.484998239403
 20
8385.865915108473
 30
0.0
 11
6283.484998239402
 21
8385.865915108473
 31
0.0
  0
LINE
  5
14186
330
747D
100
AcDbEntity
  8
部品1
100
AcDbLine
 10
6214.4849982394
 20
8382.365915108525
 30
0.0
 11
5484.484998239401
 21
8382.365915108461
 31
0.0
  0
ARC
  5
142A6
330
747D
100
AcDbEntity
  8
部品1
 48
0.2
100
AcDbCircle
 10
6206.547446068078
 20
8357.363545063693
 30
0.0
 40
8.0
100
AcDbArc
 50
270.0
 51
352.8363522778074
  0
ARC
  5
142AA
330
747D
100
AcDbEntity
  8
部品1
 48
0.2
100
AcDbCircle
 10
6201.547446068079
 20
8357.363545063693
 30
0.0
 40
8.0
100
AcDbArc
 50
187.1636477221926
 51
269.9999999999992
  0
ARC
  5
142AB
330
747D
100
AcDbEntity
  8
細線
 48
0.2
100
AcDbCircle
 10
6206.547446068078
 20
8357.363545063693
 30
0.0
 40
4.049999999999999
100
AcDbArc
 50
194.2603506853988
 51
345.7396493146012
  0
LINE
  5
142AD
330
747D
100
AcDbEntity
  8
部品1
 48
0.2
100
AcDbLine
 10
6201.547446068079
 20
8349.363545063692
 30
0.0
 11
6206.547446068078
 21
8349.363545063692
 31
0.0
  0
LINE
  5
142D9
330
747D
100
AcDbEntity
  8
部品1
 48
0.2
100
AcDbLine
 10
7841.54744606808
 20
8349.363545063713
 30
0.0
 11
7846.547446068079
 21
8349.363545063713
 31
0.0
  0
ARC
  5
142DA
330
747D
100
AcDbEntity
  8
部品1
 48
0.2
100
AcDbCircle
 10
7846.547446068079
 20
8357.363545063712
 30
0.0
 40
8.0
100
AcDbArc
 50
270.0
 51
352.8363522778074
  0
ARC
  5
142DB
330
747D
100
AcDbEntity
  8
部品1
 48
0.2
100
AcDbCircle
 10
7841.54744606808
 20
8357.363545063712
 30
0.0
 40
8.0
100
AcDbArc
 50
187.1636477221926
 51
269.9999999999992
  0
ARC
  5
142DC
330
747D
100
AcDbEntity
  8
細線
 48
0.2
100
AcDbCircle
 10
7846.547446068079
 20
8357.363545063712
 30
0.0
 40
4.049999999999999
100
AcDbArc
 50
194.2603506853988
 51
345.7396493146012
  0
LINE
  5
142DF
330
747D
100
AcDbEntity
  8
細線
 48
50.0
100
AcDbLine
 10
6210.41020326238
 20
5404.827276893862
 30
0.0
 11
6210.41020326238
 21
5402.827276893862
 31
0.0
  0
LINE
  5
142E0
330
747D
100
AcDbEntity
  8
細線
 48
50.0
100
AcDbLine
 10
6202.559793216416
 20
5404.827276893862
 30
0.0
 11
6202.559793216416
 21
5402.827276893862
 31
0.0
  0
LINE
  5
142E1
330
747D
100
AcDbEntity
  8
細線
 48
0.2
100
AcDbLine
 10
6212.106541707226
 20
5408.027276893863
 30
0.0
 11
6200.738559114214
 21
5408.027276893863
 31
0.0
  0
ARC
  5
142E2
330
747D
100
AcDbEntity
  8
細線
 48
0.2
100
AcDbCircle
 10
6206.422550410719
 20
5390.527276893865
 30
0.0
 40
18.49999999999796
100
AcDbArc
 50
73.39845040097829
 51
106.6015495990228
  0
LINE
  5
142E5
330
747D
100
AcDbEntity
  8
細線
 48
0.1
100
AcDbLine
 10
6214.422550410719
 20
5407.327276893862
 30
0.0
 11
6214.422550410719
 21
5400.327276893862
 31
0.0
  0
ARC
  5
142E7
330
747D
100
AcDbEntity
  8
細線
 48
0.2
100
AcDbCircle
 10
6211.422550410719
 20
5407.29778672511
 30
0.0
 40
1.0
100
AcDbArc
 50
0.0
 51
73.39845040097829
  0
ARC
  5
142E9
330
747D
100
AcDbEntity
  8
細線
 48
0.2
100
AcDbCircle
 10
6201.422550410718
 20
5407.29778672511
 30
0.0
 40
1.0
100
AcDbArc
 50
106.6015495990225
 51
180.0000000000016
  0
LINE
  5
142EC
330
747D
100
AcDbEntity
  8
部品1
 48
0.2
100
AcDbLine
 10
6214.422550410719
 20
5400.327276893862
 30
0.0
 11
6194.422550410719
 21
5400.327276893862
 31
0.0
  0
LINE
  5
142ED
330
747D
100
AcDbEntity
  8
細線
 48
0.2
100
AcDbLine
 10
6214.422550410719
 20
5404.827276893862
 30
0.0
 11
6194.42255041072
 21
5404.827276893862
 31
0.0
  0
LINE
  5
142EE
330
747D
100
AcDbEntity
  8
細線
 48
0.2
100
AcDbLine
 10
6214.422550410719
 20
5402.827276893862
 30
0.0
 11
6194.42255041072
 21
5402.827276893862
 31
0.0
  0
LINE
  5
142EF
330
747D
100
AcDbEntity
  8
細線
 48
0.2
100
AcDbLine
 10
6214.422550410719
 20
5407.327276893862
 30
0.0
 11
6194.42255041072
 21
5407.327276893862
 31
0.0
  0
LINE
  5
14328
330
747D
100
AcDbEntity
  8
部品1
 48
50.0
100
AcDbLine
 10
6194.422550410719
 20
5400.327276893862
 30
0.0
 11
6194.422550410719
 21
5407.077276893862
 31
0.0
  0
LINE
  5
14329
330
747D
100
AcDbEntity
  8
部品1
100
AcDbLine
 10
6214.42255041072
 20
5407.077276893862
 30
0.0
 11
6214.484998239401
 21
5407.07727689386
 31
0.0
  0
LINE
  5
1432A
330
747D
100
AcDbEntity
  8
細線
 48
50.0
100
AcDbLine
 10
6194.422550410719
 20
5407.077276893862
 30
0.0
 11
6194.422550410719
 21
5407.327276893862
 31
0.0
  0
ARC
  5
1432B
330
747D
100
AcDbEntity
  8
細線
 48
0.2
100
AcDbCircle
 10
7031.422550410718
 20
5407.29778672511
 30
0.0
 40
1.0
100
AcDbArc
 50
0.0
 51
73.39845040097829
  0
LINE
  5
1432C
330
747D
100
AcDbEntity
  8
細線
 48
0.1
100
AcDbLine
 10
7034.422550410718
 20
5407.327276893862
 30
0.0
 11
7034.422550410718
 21
5400.327276893862
 31
0.0
  0
LINE
  5
1432D
330
747D
100
AcDbEntity
  8
細線
 48
50.0
100
AcDbLine
 10
7022.559793216416
 20
5404.827276893862
 30
0.0
 11
7022.559793216416
 21
5402.827276893862
 31
0.0
  0
LINE
  5
1432E
330
747D
100
AcDbEntity
  8
細線
 48
50.0
100
AcDbLine
 10
7030.41020326238
 20
5404.827276893862
 30
0.0
 11
7030.41020326238
 21
5402.827276893862
 31
0.0
  0
LINE
  5
1432F
330
747D
100
AcDbEntity
  8
細線
 48
0.2
100
AcDbLine
 10
7034.422550410718
 20
5407.327276893862
 30
0.0
 11
7014.42255041072
 21
5407.327276893862
 31
0.0
  0
LINE
  5
14330
330
747D
100
AcDbEntity
  8
細線
 48
0.2
100
AcDbLine
 10
7034.422550410718
 20
5402.827276893862
 30
0.0
 11
7014.42255041072
 21
5402.827276893862
 31
0.0
  0
LINE
  5
14331
330
747D
100
AcDbEntity
  8
細線
 48
0.2
100
AcDbLine
 10
7034.422550410718
 20
5404.827276893862
 30
0.0
 11
7014.42255041072
 21
5404.827276893862
 31
0.0
  0
ARC
  5
14332
330
747D
100
AcDbEntity
  8
細線
 48
0.2
100
AcDbCircle
 10
7021.422550410719
 20
5407.29778672511
 30
0.0
 40
1.0
100
AcDbArc
 50
106.6015495990225
 51
180.0000000000016
  0
ARC
  5
14333
330
747D
100
AcDbEntity
  8
細線
 48
0.2
100
AcDbCircle
 10
7026.422550410718
 20
5390.527276893865
 30
0.0
 40
18.49999999999796
100
AcDbArc
 50
73.39845040097829
 51
106.6015495990228
  0
LINE
  5
14334
330
747D
100
AcDbEntity
  8
細線
 48
0.2
100
AcDbLine
 10
7032.106541707228
 20
5408.027276893863
 30
0.0
 11
7020.738559114214
 21
5408.027276893863
 31
0.0
  0
LINE
  5
14335
330
747D
100
AcDbEntity
  8
細線
 48
50.0
100
AcDbLine
 10
7014.42255041072
 20
5407.077276893862
 30
0.0
 11
7014.42255041072
 21
5407.327276893862
 31
0.0
  0
LINE
  5
14336
330
747D
100
AcDbEntity
  8
部品1
 48
50.0
100
AcDbLine
 10
7014.42255041072
 20
5400.327276893862
 30
0.0
 11
7014.42255041072
 21
5407.077276893862
 31
0.0
  0
LINE
  5
14337
330
747D
100
AcDbEntity
  8
部品1
100
AcDbLine
 10
7034.42255041072
 20
5407.077276893862
 30
0.0
 11
7034.484998239401
 21
5407.07727689386
 31
0.0
  0
LINE
  5
14338
330
747D
100
AcDbEntity
  8
部品1
 48
0.2
100
AcDbLine
 10
7034.422550410718
 20
5400.327276893862
 30
0.0
 11
7014.42255041072
 21
5400.327276893862
 31
0.0
  0
LINE
  5
14339
330
747D
100
AcDbEntity
  8
部品1
100
AcDbLine
 10
7034.42255041072
 20
5407.077276893859
 30
0.0
 11
7034.484998239401
 21
5407.07727689386
 31
0.0
  0
ARC
  5
1433A
330
747D
100
AcDbEntity
  8
細線
 48
0.2
100
AcDbCircle
 10
6211.422550410719
 20
3615.856767062631
 30
0.0
 40
1.0
100
AcDbArc
 50
286.6015495990217
 51
0.0
  0
LINE
  5
1433B
330
747D
100
AcDbEntity
  8
細線
 48
0.1
100
AcDbLine
 10
6214.422550410719
 20
3615.82727689388
 30
0.0
 11
6214.422550410719
 21
3622.827276893879
 31
0.0
  0
LINE
  5
1433C
330
747D
100
AcDbEntity
  8
細線
 48
50.0
100
AcDbLine
 10
6202.559793216416
 20
3618.32727689388
 30
0.0
 11
6202.559793216416
 21
3620.32727689388
 31
0.0
  0
LINE
  5
1433D
330
747D
100
AcDbEntity
  8
細線
 48
50.0
100
AcDbLine
 10
6210.41020326238
 20
3618.32727689388
 30
0.0
 11
6210.41020326238
 21
3620.32727689388
 31
0.0
  0
LINE
  5
1433E
330
747D
100
AcDbEntity
  8
細線
 48
0.2
100
AcDbLine
 10
6214.422550410719
 20
3615.82727689388
 30
0.0
 11
6194.42255041072
 21
3615.82727689388
 31
0.0
  0
LINE
  5
1433F
330
747D
100
AcDbEntity
  8
細線
 48
0.2
100
AcDbLine
 10
6214.422550410719
 20
3620.32727689388
 30
0.0
 11
6194.42255041072
 21
3620.32727689388
 31
0.0
  0
LINE
  5
14340
330
747D
100
AcDbEntity
  8
細線
 48
0.2
100
AcDbLine
 10
6214.422550410719
 20
3618.327276893879
 30
0.0
 11
6194.42255041072
 21
3618.32727689388
 31
0.0
  0
ARC
  5
14341
330
747D
100
AcDbEntity
  8
細線
 48
0.2
100
AcDbCircle
 10
6201.422550410718
 20
3615.856767062631
 30
0.0
 40
1.0
100
AcDbArc
 50
179.9999999999984
 51
253.3984504009775
  0
ARC
  5
14342
330
747D
100
AcDbEntity
  8
細線
 48
0.2
100
AcDbCircle
 10
6206.422550410719
 20
3632.627276893876
 30
0.0
 40
18.49999999999796
100
AcDbArc
 50
253.3984504009772
 51
286.6015495990217
  0
LINE
  5
14343
330
747D
100
AcDbEntity
  8
細線
 48
0.2
100
AcDbLine
 10
6212.106541707226
 20
3615.127276893878
 30
0.0
 11
6200.738559114214
 21
3615.127276893878
 31
0.0
  0
LINE
  5
14344
330
747D
100
AcDbEntity
  8
細線
 48
50.0
100
AcDbLine
 10
6194.422550410719
 20
3616.07727689388
 30
0.0
 11
6194.422550410719
 21
3615.82727689388
 31
0.0
  0
LINE
  5
14345
330
747D
100
AcDbEntity
  8
部品1
 48
50.0
100
AcDbLine
 10
6194.422550410719
 20
3622.827276893879
 30
0.0
 11
6194.422550410719
 21
3616.07727689388
 31
0.0
  0
LINE
  5
14346
330
747D
100
AcDbEntity
  8
部品1
100
AcDbLine
 10
6214.42255041072
 20
3616.07727689388
 30
0.0
 11
6214.484998239401
 21
3616.077276893881
 31
0.0
  0
LINE
  5
14347
330
747D
100
AcDbEntity
  8
部品1
 48
0.2
100
AcDbLine
 10
6214.422550410719
 20
3622.827276893879
 30
0.0
 11
6194.422550410719
 21
3622.827276893879
 31
0.0
  0
LINE
  5
14348
330
747D
100
AcDbEntity
  8
部品1
100
AcDbLine
 10
7034.42255041072
 20
3616.077276893883
 30
0.0
 11
7034.484998239401
 21
3616.077276893882
 31
0.0
  0
LINE
  5
14349
330
747D
100
AcDbEntity
  8
部品1
 48
0.2
100
AcDbLine
 10
7034.422550410718
 20
3622.827276893879
 30
0.0
 11
7014.42255041072
 21
3622.827276893879
 31
0.0
  0
LINE
  5
1434A
330
747D
100
AcDbEntity
  8
部品1
100
AcDbLine
 10
7034.42255041072
 20
3616.07727689388
 30
0.0
 11
7034.484998239401
 21
3616.077276893881
 31
0.0
  0
LINE
  5
1434B
330
747D
100
AcDbEntity
  8
部品1
 48
50.0
100
AcDbLine
 10
7014.42255041072
 20
3622.827276893879
 30
0.0
 11
7014.42255041072
 21
3616.07727689388
 31
0.0
  0
LINE
  5
1434C
330
747D
100
AcDbEntity
  8
細線
 48
50.0
100
AcDbLine
 10
7014.42255041072
 20
3616.07727689388
 30
0.0
 11
7014.42255041072
 21
3615.82727689388
 31
0.0
  0
LINE
  5
1434D
330
747D
100
AcDbEntity
  8
細線
 48
0.2
100
AcDbLine
 10
7032.106541707228
 20
3615.127276893878
 30
0.0
 11
7020.738559114214
 21
3615.127276893878
 31
0.0
  0
ARC
  5
1434E
330
747D
100
AcDbEntity
  8
細線
 48
0.2
100
AcDbCircle
 10
7026.422550410718
 20
3632.627276893876
 30
0.0
 40
18.49999999999796
100
AcDbArc
 50
253.3984504009772
 51
286.6015495990217
  0
ARC
  5
1434F
330
747D
100
AcDbEntity
  8
細線
 48
0.2
100
AcDbCircle
 10
7021.422550410719
 20
3615.856767062631
 30
0.0
 40
1.0
100
AcDbArc
 50
179.9999999999984
 51
253.3984504009775
  0
LINE
  5
14350
330
747D
100
AcDbEntity
  8
細線
 48
0.2
100
AcDbLine
 10
7034.422550410718
 20
3618.327276893879
 30
0.0
 11
7014.42255041072
 21
3618.32727689388
 31
0.0
  0
LINE
  5
14351
330
747D
100
AcDbEntity
  8
細線
 48
0.2
100
AcDbLine
 10
7034.422550410718
 20
3620.32727689388
 30
0.0
 11
7014.42255041072
 21
3620.32727689388
 31
0.0
  0
LINE
  5
14352
330
747D
100
AcDbEntity
  8
細線
 48
0.2
100
AcDbLine
 10
7034.422550410718
 20
3615.82727689388
 30
0.0
 11
7014.42255041072
 21
3615.82727689388
 31
0.0
  0
LINE
  5
14353
330
747D
100
AcDbEntity
  8
細線
 48
50.0
100
AcDbLine
 10
7030.41020326238
 20
3618.32727689388
 30
0.0
 11
7030.41020326238
 21
3620.32727689388
 31
0.0
  0
LINE
  5
14354
330
747D
100
AcDbEntity
  8
細線
 48
50.0
100
AcDbLine
 10
7022.559793216416
 20
3618.32727689388
 30
0.0
 11
7022.559793216416
 21
3620.32727689388
 31
0.0
  0
LINE
  5
14355
330
747D
100
AcDbEntity
  8
細線
 48
0.1
100
AcDbLine
 10
7034.422550410718
 20
3615.82727689388
 30
0.0
 11
7034.422550410718
 21
3622.827276893879
 31
0.0
  0
ARC
  5
14356
330
747D
100
AcDbEntity
  8
細線
 48
0.2
100
AcDbCircle
 10
7031.422550410718
 20
3615.856767062631
 30
0.0
 40
1.0
100
AcDbArc
 50
286.6015495990217
 51
0.0
  0
LINE
  5
14357
330
747D
100
AcDbEntity
  8
部品1
100
AcDbLine
 10
6214.42255041072
 20
3616.077276893872
 30
0.0
 11
6214.484998239401
 21
3616.077276893872
 31
0.0
  0
LINE
  5
14358
330
747D
100
AcDbEntity
  8
部品1
100
AcDbLine
 10
7034.42255041072
 20
3616.07727689388
 30
0.0
 11
7034.484998239399
 21
3616.07727689388
 31
0.0
  0
LINE
  5
1439F
330
747D
100
AcDbEntity
  8
部品1
 48
5.0
100
AcDbLine
 10
7842.984026814452
 20
8487.86591510853
 30
0.0
 11
7842.984519745762
 21
8826.865915108475
 31
0.0
  0
LINE
  5
143A0
330
747D
100
AcDbEntity
  8
部品1
 48
5.0
100
AcDbLine
 10
5495.985969664364
 20
8487.86591510853
 30
0.0
 11
5495.985476733054
 21
8826.865915108443
 31
0.0
  0
LINE
  5
143A2
330
747D
100
AcDbEntity
  8
部品1
 48
50.0
100
AcDbLine
 10
6314.984998239385
 20
8487.865915133143
 30
0.0
 11
6287.484998239388
 21
8459.865915108471
 31
0.0
  0
LINE
  5
143A3
330
747D
100
AcDbEntity
  8
部品1
 48
50.0
100
AcDbLine
 10
6231.484998239388
 20
8459.865915108471
 30
0.0
 11
6203.984998239385
 21
8487.865915108482
 31
0.0
  0
LINE
  5
143A4
330
747D
100
AcDbEntity
  8
部品1
100
AcDbLine
 10
6203.984998239385
 20
8487.865915108482
 30
0.0
 11
5495.985969665795
 21
8487.864832799994
 31
0.0
  0
LINE
  5
14407
330
747D
100
AcDbEntity
  8
部品1
 48
50.0
100
AcDbLine
 10
6203.984998239385
 20
8487.865915108482
 30
0.0
 11
6203.984998239362
 21
8826.865915108538
 31
0.0
  0
LINE
  5
14408
330
747D
100
AcDbEntity
  8
部品1
 48
50.0
100
AcDbLine
 10
6314.9849918951
 20
8487.865915133141
 30
0.0
 11
6314.984994867963
 21
8826.865915108482
 31
0.0
  0
LINE
  5
14409
330
747D
100
AcDbEntity
  8
部品1
 48
50.0
100
AcDbLine
 10
7871.484998239385
 20
8458.846849916119
 30
0.0
 11
7842.984026814592
 21
8487.866020821368
 31
0.0
  0
LINE
  5
1440A
330
747D
100
AcDbEntity
  8
部品1
 48
50.0
100
AcDbLine
 10
5495.985969665795
 20
8487.864832799994
 30
0.0
 11
5467.484998239384
 21
8458.845661867529
 31
0.0
  0
LINE
  5
1440B
330
747D
100
AcDbEntity
  8
部品1
 48
50.0
100
AcDbLine
 10
7869.984991561732
 20
9276.865915108478
 30
0.0
 11
7871.484998239409
 21
9278.365915108528
 31
0.0
  0
LINE
  5
1440C
330
747D
100
AcDbEntity
  8
部品1
 48
50.0
100
AcDbLine
 10
6288.98499823934
 20
9276.81139358822
 30
0.0
 11
6287.484998239333
 21
9278.365915108482
 31
0.0
  0
LINE
  5
1440D
330
747D
100
AcDbEntity
  8
部品1
 48
50.0
100
AcDbLine
 10
6229.985004917038
 20
9276.811402448727
 30
0.0
 11
6231.484998239333
 21
9278.365915108478
 31
0.0
  0
LINE
  5
1440E
330
747D
100
AcDbEntity
  8
部品1
 48
50.0
100
AcDbLine
 10
5468.985004917031
 20
9276.865915108441
 30
0.0
 11
5467.484998239407
 21
9278.365915108434
 31
0.0
  0
LINE
  5
144C7
330
747D
100
AcDbEntity
  8
部品1
 48
5.0
100
AcDbLine
 10
6314.48499823941
 20
9306.365915108484
 30
0.0
 11
6314.484998239404
 21
9278.365915108485
 31
0.0
  0
LINE
  5
144D0
330
747D
100
AcDbEntity
  8
部品1
 48
5.0
100
AcDbLine
 10
6204.484998239405
 20
9278.365915108478
 30
0.0
 11
6204.484998239406
 21
9306.365915108477
 31
0.0
  0
LINE
  5
144D2
330
747D
100
AcDbEntity
  8
部品1
 48
5.0
100
AcDbLine
 10
6234.194272686581
 20
9306.365915108477
 30
0.0
 11
6256.86570125801
 21
9278.365915108482
 31
0.0
  0
LINE
  5
144D8
330
747D
100
AcDbEntity
  8
部品1
 48
5.0
100
AcDbLine
 10
6287.484998239335
 20
9251.365915108481
 30
0.0
 11
6231.484998239334
 21
9251.365915108481
 31
0.0
  0
LINE
  5
144E9
330
747D
100
AcDbEntity
  8
部品1
 48
50.0
100
AcDbLine
 10
6259.484998239387
 20
8411.365915108472
 30
0.0
 11
6259.484998239387
 21
9251.365915108481
 31
0.0
  0
LINE
  5
144EA
330
747D
100
AcDbEntity
  8
部品1
100
AcDbLine
 10
6287.484998239332
 20
9278.365915108484
 30
0.0
 11
7076.865701258009
 21
9278.365915108482
 31
0.0
  0
DIMENSION
  5
14548
330
747D
100
AcDbEntity
  8
寸法
 48
50.0
100
AcDbDimension
  2
*D12
 10
6314.48499823941
 20
9522.174134733532
 30
0.0
 11
6259.484998239408
 21
9622.174134733533
 31
0.0
 12
0.0
 22
742.2228123819641
 32
0.0
 70
    32
 71
     5
 42
-1.0
  3
INABA_S40G
100
AcDbAlignedDimension
 13
6204.484998239406
 23
9306.365915108555
 33
0.0
 14
6314.48499823941
 24
9306.365915108532
 34
0.0
100
AcDbRotatedDimension
  0
DIMENSION
  5
14562
330
747D
100
AcDbEntity
  8
寸法
 48
50.0
100
AcDbDimension
  2
*D13
 10
6314.48499823941
 20
9522.174134733532
 30
0.0
 11
6669.484998239409
 21
9622.174134733533
 31
0.0
 12
0.0
 22
742.2228123819641
 32
0.0
 70
    32
 71
     5
 42
-1.0
  3
INABA_S40G
100
AcDbAlignedDimension
 13
7024.484998239408
 23
9306.365915108548
 33
0.0
 14
6314.48499823941
 24
9306.365915108532
 34
0.0
100
AcDbRotatedDimension
  0
LINE
  5
1456D
330
747D
100
AcDbEntity
  8
部品1
 48
5.0
100
AcDbLine
 10
6259.484998239387
 20
8831.365915108476
 30
0.0
 11
6231.484998239334
 21
8831.365915108483
 31
0.0
  0
DIMENSION
  5
1460F
330
747D
100
AcDbEntity
  8
寸法
 48
50.0
100
AcDbDimension
  2
*D14
 10
6999.484998239402
 20
7916.542247313349
 30
0.0
 11
6656.984998239403
 21
8016.542247313349
 31
0.0
 12
0.0
 22
742.2228123819641
 32
0.0
 70
    32
 71
     5
 42
-1.0
  3
INABA_S40G
100
AcDbAlignedDimension
 13
6314.484998239404
 23
8356.365915108472
 33
0.0
 14
6999.484998239402
 24
8356.365915108625
 34
0.0
100
AcDbRotatedDimension
  0
LINE
  5
146C2
330
747D
100
AcDbEntity
  8
部品1
 48
50.0
100
AcDbLine
 10
6259.484998239378
 20
8831.365915108483
 30
0.0
 11
6287.484998239362
 21
8831.365915108483
 31
0.0
  0
LINE
  5
146C3
330
747D
100
AcDbEntity
  8
部品1
 48
50.0
100
AcDbLine
 10
6259.484998239378
 20
8869.365915108481
 30
0.0
 11
6287.484998239362
 21
8869.365915108483
 31
0.0
  0
ARC
  5
1475B
330
747D
100
AcDbEntity
  8
想像線
 48
10.0
100
AcDbCircle
 10
6207.132947562241
 20
8358.060808484042
 30
0.0
 40
722.6499369155593
100
AcDbArc
 50
180.134380868551
 51
270.5829222700353
  0
LINE
  5
1475C
330
747D
100
AcDbEntity
  8
想像線
 48
10.0
100
AcDbLine
 10
6214.4849982394
 20
8356.365915108472
 30
0.0
 11
6214.4849982394
 21
7635.448271452681
 31
0.0
  0
LINE
  5
14760
330
747D
100
AcDbEntity
  8
想像線
 48
10.0
100
AcDbLine
 10
7034.484998239399
 20
8356.365915108483
 30
0.0
 11
7034.484998239399
 21
7635.448271452691
 31
0.0
  0
ARC
  5
14761
330
747D
100
AcDbEntity
  8
想像線
 48
10.0
100
AcDbCircle
 10
7027.132947562242
 20
8358.06080848406
 30
0.0
 40
722.6499369155619
100
AcDbArc
 50
180.1343808685487
 51
270.5829222700353
  0
LINE
  5
148D5
330
747D
100
AcDbEntity
  8
細線
 48
50.0
100
AcDbLine
 10
5879.484998239409
 20
9284.865915108465
 30
0.0
 11
5819.484998239408
 21
9284.86591510846
 31
0.0
  0
LINE
  5
148D6
330
747D
100
AcDbEntity
  8
細線
 48
50.0
100
AcDbLine
 10
5819.484998239409
 20
9284.865915108461
 30
0.0
 11
5819.484998239406
 21
9306.365915108459
 31
0.0
  0
LINE
  5
148D7
330
747D
100
AcDbEntity
  8
細線
 48
50.0
100
AcDbLine
 10
5879.484998239409
 20
9284.865915108465
 30
0.0
 11
5879.484998239406
 21
9306.365915108466
 31
0.0
  0
LINE
  5
148D8
330
747D
100
AcDbEntity
  8
細線
 48
50.0
100
AcDbLine
 10
6699.484998239409
 20
9284.865915108545
 30
0.0
 11
6639.484998239407
 21
9284.865915108541
 31
0.0
  0
LINE
  5
148D9
330
747D
100
AcDbEntity
  8
細線
 48
50.0
100
AcDbLine
 10
6699.484998239409
 20
9284.865915108545
 30
0.0
 11
6699.484998239405
 21
9306.365915108548
 31
0.0
  0
LINE
  5
148DA
330
747D
100
AcDbEntity
  8
細線
 48
50.0
100
AcDbLine
 10
6639.484998239409
 20
9284.865915108543
 30
0.0
 11
6639.484998239407
 21
9306.365915108541
 31
0.0
  0
LINE
  5
14933
330
747D
100
AcDbEntity
  8
細線
 48
50.0
100
AcDbLine
 10
5608.484998239401
 20
8382.365915108437
 30
0.0
 11
5608.484998239401
 21
8356.365915108391
 31
0.0
  0
LINE
  5
14934
330
747D
100
AcDbEntity
  8
細線
 48
50.0
100
AcDbLine
 10
5794.484998239401
 20
8382.365915108428
 30
0.0
 11
5794.484998239401
 21
8356.365915108391
 31
0.0
  0
LINE
  5
14935
330
747D
100
AcDbEntity
  8
細線
 48
50.0
100
AcDbLine
 10
5834.484998239401
 20
8382.365915108428
 30
0.0
 11
5834.484998239401
 21
8356.365915108391
 31
0.0
  0
LINE
  5
14936
330
747D
100
AcDbEntity
  8
細線
 48
50.0
100
AcDbLine
 10
6061.4849982394
 20
8382.365915108641
 30
0.0
 11
6061.4849982394
 21
8356.365915108602
 31
0.0
  0
LINE
  5
14937
330
747D
100
AcDbEntity
  8
細線
 48
50.0
100
AcDbLine
 10
6021.484998239401
 20
8382.365915108641
 30
0.0
 11
6021.484998239401
 21
8356.365915108602
 31
0.0
  0
LINE
  5
14938
330
747D
100
AcDbEntity
  8
細線
 48
50.0
100
AcDbLine
 10
6428.484998239401
 20
8382.365915108437
 30
0.0
 11
6428.484998239401
 21
8356.365915108391
 31
0.0
  0
LINE
  5
14939
330
747D
100
AcDbEntity
  8
細線
 48
50.0
100
AcDbLine
 10
6654.484998239401
 20
8382.365915108428
 30
0.0
 11
6654.484998239401
 21
8356.365915108391
 31
0.0
  0
LINE
  5
1493A
330
747D
100
AcDbEntity
  8
細線
 48
50.0
100
AcDbLine
 10
6614.484998239401
 20
8382.365915108428
 30
0.0
 11
6614.484998239401
 21
8356.365915108391
 31
0.0
  0
LINE
  5
1493B
330
747D
100
AcDbEntity
  8
細線
 48
50.0
100
AcDbLine
 10
6841.4849982394
 20
8382.365915108641
 30
0.0
 11
6841.4849982394
 21
8356.365915108602
 31
0.0
  0
LINE
  5
1493C
330
747D
100
AcDbEntity
  8
細線
 48
50.0
100
AcDbLine
 10
6881.4849982394
 20
8382.365915108641
 30
0.0
 11
6881.4849982394
 21
8356.365915108602
 31
0.0
  0
ARC
  5
14948
330
747D
100
AcDbEntity
  8
想像線
 48
10.0
100
AcDbCircle
 10
4567.132947562241
 20
8358.060808484042
 30
0.0
 40
722.6499369155593
100
AcDbArc
 50
180.1343808685509
 51
270.5829222700353
  0
LINE
  5
14949
330
747D
100
AcDbEntity
  8
部品1
100
AcDbLine
 10
4563.984998239385
 20
8487.865915108482
 30
0.0
 11
3855.985969665795
 21
8487.864832799994
 31
0.0
  0
LINE
  5
1494A
330
747D
100
AcDbEntity
  8
部品1
100
AcDbLine
 10
4574.4849982394
 20
8382.365915108525
 30
0.0
 11
3844.484998239401
 21
8382.365915108461
 31
0.0
  0
LINE
  5
1494B
330
747D
100
AcDbEntity
  8
部品1
 48
5.0
100
AcDbLine
 10
3842.484998239402
 20
8385.865915108356
 30
0.0
 11
4595.484998239402
 21
8385.865915108473
 31
0.0
  0
LINE
  5
1494C
330
747D
100
AcDbEntity
  8
破線
 48
10.0
100
AcDbLine
 10
4540.484998239395
 20
8511.365915108482
 30
0.0
 11
3879.484998239394
 21
8511.365915108443
 31
0.0
  0
LINE
  5
1494D
330
747D
100
AcDbEntity
  8
細線
 48
50.0
100
AcDbLine
 10
4589.985004917037
 20
9276.865915108542
 30
0.0
 11
3828.985004917038
 21
8826.865915108438
 31
0.0
  0
LINE
  5
1494E
330
747D
100
AcDbEntity
  8
細線
 48
50.0
100
AcDbLine
 10
4589.985004917036
 20
8826.865915108543
 30
0.0
 11
3828.985004917036
 21
9276.865915108441
 31
0.0
  0
LINE
  5
1494F
330
747D
100
AcDbEntity
  8
部品1
100
AcDbLine
 10
3828.985004917038
 20
8826.865915108438
 30
0.0
 11
4589.985004917036
 21
8826.865915108543
 31
0.0
  0
LINE
  5
14950
330
747D
100
AcDbEntity
  8
部品1
100
AcDbLine
 10
3828.985004917036
 20
9276.865915108441
 30
0.0
 11
4589.985004917037
 21
9276.865915108547
 31
0.0
  0
DIMENSION
  5
14951
330
747D
100
AcDbEntity
  8
寸法
100
AcDbDimension
  2
*D17
 10
4531.291508623072
 20
8607.818804865454
 30
0.0
 11
4150.791508623067
 21
8607.818804865454
 31
0.0
 12
-1640.0
 22
0.0
 32
0.0
 70
   160
 71
     5
 42
-1.0
  3
INABA_S40G
100
AcDbAlignedDimension
 13
3828.985004917039
 23
8826.865915108438
 33
0.0
 14
4589.985004917051
 24
8826.865915108433
 34
0.0
100
AcDbRotatedDimension
1001
ACAD
1000
DSTYLE
1002
{
1002
}
  0
LINE
  5
14953
330
747D
100
AcDbEntity
  8
部品1
100
AcDbLine
 10
3827.484998239408
 20
9278.365915108434
 30
0.0
 11
4616.865701258009
 21
9278.365915108482
 31
0.0
  0
LINE
  5
14955
330
747D
100
AcDbEntity
  8
部品1
 48
5.0
100
AcDbLine
 10
3855.985969664364
 20
8487.86591510853
 30
0.0
 11
3855.985476733053
 21
8826.865915108443
 31
0.0
  0
LINE
  5
14956
330
747D
100
AcDbEntity
  8
破線
 48
10.0
100
AcDbLine
 10
3879.485063164108
 20
8826.865915108443
 30
0.0
 11
3879.484998239394
 21
8511.365915108443
 31
0.0
  0
LINE
  5
14957
330
747D
100
AcDbEntity
  8
部品1
100
AcDbLine
 10
3799.484998239373
 20
9306.365915108401
 30
0.0
 11
3799.484998239401
 21
8356.365915108391
 31
0.0
  0
LINE
  5
14958
330
747D
100
AcDbEntity
  8
部品1
100
AcDbLine
 10
3827.484998239383
 20
8411.365915108387
 30
0.0
 11
3827.484998239408
 21
9278.365915108434
 31
0.0
  0
LINE
  5
14959
330
747D
100
AcDbEntity
  8
部品1
 48
2.83
100
AcDbLine
 10
3799.484998239402
 20
8411.365915108353
 30
0.0
 11
3822.484998239402
 21
8411.365915108355
 31
0.0
  0
LINE
  5
1495C
330
747D
100
AcDbEntity
  8
部品1
100
AcDbLine
 10
3827.484998239383
 20
8411.365915108353
 30
0.0
 11
3799.484998239399
 21
8411.365915108353
 31
0.0
  0
LINE
  5
1495D
330
747D
100
AcDbEntity
  8
部品1
100
AcDbLine
 10
3827.484998239383
 20
8411.365915108387
 30
0.0
 11
3799.484998239399
 21
8411.365915108387
 31
0.0
  0
LINE
  5
1495E
330
747D
100
AcDbEntity
  8
部品1
100
AcDbLine
 10
3827.484998239399
 20
8411.365915108401
 30
0.0
 11
3799.484998239399
 21
8411.365915108401
 31
0.0
  0
LINE
  5
1495F
330
747D
100
AcDbEntity
  8
部品1
 48
2.83
100
AcDbLine
 10
3799.484998239401
 20
8356.365915108353
 30
0.0
 11
3799.484998239402
 21
8411.365915108353
 31
0.0
  0
LINE
  5
14960
330
747D
100
AcDbEntity
  8
部品1
100
AcDbLine
 10
3799.484998239399
 20
8411.365915108353
 30
0.0
 11
3799.484998239401
 21
8356.365915108353
 31
0.0
  0
LINE
  5
14961
330
747D
100
AcDbEntity
  8
細線
 48
50.0
100
AcDbLine
 10
3968.4849982394
 20
8382.365915108437
 30
0.0
 11
3968.4849982394
 21
8356.365915108391
 31
0.0
  0
LINE
  5
14962
330
747D
100
AcDbEntity
  8
部品1
 48
50.0
100
AcDbLine
 10
3855.985969665795
 20
8487.864832799994
 30
0.0
 11
3827.484998239384
 21
8458.845661867529
 31
0.0
  0
LINE
  5
14963
330
747D
100
AcDbEntity
  8
部品1
100
AcDbLine
 10
3844.484998239401
 20
8382.365915108461
 30
0.0
 11
3844.484998239401
 21
8356.365915108424
 31
0.0
  0
LINE
  5
14964
330
747D
100
AcDbEntity
  8
部品1
 48
2.83
100
AcDbLine
 10
3842.484998239402
 20
8385.865915108356
 30
0.0
 11
3842.484998239402
 21
8356.365915108355
 31
0.0
  0
LINE
  5
14965
330
747D
100
AcDbEntity
  8
部品1
 48
2.83
100
AcDbLine
 10
3854.484998239401
 20
8411.365915108353
 30
0.0
 11
3854.484998239403
 21
8385.865915108356
 31
0.0
  0
LINE
  5
14966
330
747D
100
AcDbEntity
  8
部品1
 48
2.83
100
AcDbLine
 10
3831.484998239402
 20
8411.365915108355
 30
0.0
 11
3854.484998239402
 21
8411.365915108353
 31
0.0
  0
LINE
  5
14967
330
747D
100
AcDbEntity
  8
部品1
 48
50.0
100
AcDbLine
 10
3828.985004917036
 20
9276.865915108434
 30
0.0
 11
3828.985004917038
 21
8826.865915108438
 31
0.0
  0
LINE
  5
14968
330
747D
100
AcDbEntity
  8
部品1
100
AcDbLine
 10
3827.484998239382
 20
8831.365915108401
 30
0.0
 11
3799.484998239382
 21
8831.365915108401
 31
0.0
  0
LINE
  5
14969
330
747D
100
AcDbEntity
  8
部品1
100
AcDbLine
 10
3827.484998239375
 20
9251.365915108406
 30
0.0
 11
3799.484998239375
 21
9251.365915108406
 31
0.0
  0
LINE
  5
1496A
330
747D
100
AcDbEntity
  8
部品1
 48
50.0
100
AcDbLine
 10
3828.985004917031
 20
9276.865915108441
 30
0.0
 11
3827.484998239408
 21
9278.365915108434
 31
0.0
  0
LINE
  5
1496B
330
747D
100
AcDbEntity
  8
部品1
100
AcDbLine
 10
3854.484998239373
 20
9306.365915108401
 30
0.0
 11
3854.484998239374
 21
9278.3659151084
 31
0.0
  0
LINE
  5
1496C
330
747D
100
AcDbEntity
  8
部品1
100
AcDbLine
 10
3854.484998239407
 20
9306.365915108434
 30
0.0
 11
3854.484998239407
 21
9278.365915108434
 31
0.0
  0
ARC
  5
1496D
330
747D
100
AcDbEntity
  8
想像線
 48
10.0
100
AcDbCircle
 10
5387.132947562242
 20
8358.06080848406
 30
0.0
 40
722.6499369155619
100
AcDbArc
 50
180.1343808685487
 51
270.5829222700353
  0
LINE
  5
1496E
330
747D
100
AcDbEntity
  8
想像線
 48
10.0
100
AcDbLine
 10
5394.484998239399
 20
8356.365915108483
 30
0.0
 11
5394.484998239399
 21
7635.448271452691
 31
0.0
  0
LINE
  5
1496F
330
747D
100
AcDbEntity
  8
想像線
 48
10.0
100
AcDbLine
 10
4574.4849982394
 20
8356.365915108472
 30
0.0
 11
4574.4849982394
 21
7635.448271452681
 31
0.0
  0
LINE
  5
14970
330
747D
100
AcDbEntity
  8
部品1
 48
50.0
100
AcDbLine
 10
4619.484998239387
 20
8411.365915108472
 30
0.0
 11
4619.484998239387
 21
9251.365915108481
 31
0.0
  0
LINE
  5
14971
330
747D
100
AcDbEntity
  8
部品1
 48
50.0
100
AcDbLine
 10
4674.984991895099
 20
8487.865915133141
 30
0.0
 11
4674.984994867963
 21
8826.865915108482
 31
0.0
  0
LINE
  5
14972
330
747D
100
AcDbEntity
  8
部品1
 48
50.0
100
AcDbLine
 10
4563.984998239385
 20
8487.865915108482
 30
0.0
 11
4563.984998239361
 21
8826.865915108538
 31
0.0
  0
LINE
  5
14973
330
747D
100
AcDbEntity
  8
部品1
 48
5.0
100
AcDbLine
 10
5382.984026814451
 20
8487.86591510853
 30
0.0
 11
5382.984519745763
 21
8826.865915108475
 31
0.0
  0
LINE
  5
14974
330
747D
100
AcDbEntity
  8
部品1
 48
50.0
100
AcDbLine
 10
4591.484998239387
 20
8411.365915108472
 30
0.0
 11
4591.484998239333
 21
9278.365915108482
 31
0.0
  0
LINE
  5
14975
330
747D
100
AcDbEntity
  8
部品1
 48
50.0
100
AcDbLine
 10
4647.484998239387
 20
8411.365915108472
 30
0.0
 11
4647.484998239331
 21
9306.365915108482
 31
0.0
  0
LINE
  5
14976
330
747D
100
AcDbEntity
  8
破線
 48
10.0
100
AcDbLine
 10
4540.484998239395
 20
8511.365915108479
 30
0.0
 11
4540.484989884841
 21
8826.865915108536
 31
0.0
  0
LINE
  5
14977
330
747D
100
AcDbEntity
  8
破線
 48
10.0
100
AcDbLine
 10
4698.484998239393
 20
8511.365915108489
 30
0.0
 11
4698.484985808283
 21
8826.865915108482
 31
0.0
  0
DIMENSION
  5
14978
330
747D
100
AcDbEntity
  8
寸法
100
AcDbDimension
  2
*D16
 10
5351.291501945374
 20
8607.8188048655
 30
0.0
 11
5028.332060357609
 21
8607.8188048655
 31
0.0
 12
-1640.0
 22
0.0
 32
0.0
 70
   160
 71
     5
 42
-1.0
  3
INABA_S40G
100
AcDbAlignedDimension
 13
4648.98499823934
 23
8826.865915108482
 33
0.0
 14
5409.984998239352
 24
8826.865915108479
 34
0.0
100
AcDbRotatedDimension
1001
ACAD
1000
DSTYLE
1002
{
1002
}
  0
LINE
  5
1497A
330
747D
100
AcDbEntity
  8
部品1
100
AcDbLine
 10
5411.484998239409
 20
9278.365915108528
 30
0.0
 11
5411.484998239384
 21
8411.365915108515
 31
0.0
  0
LINE
  5
1497B
330
747D
100
AcDbEntity
  8
破線
 48
10.0
100
AcDbLine
 10
5359.485063164076
 20
8826.865915108477
 30
0.0
 11
5359.484998239389
 21
8511.365915108525
 31
0.0
  0
DIMENSION
  5
1497C
330
747D
100
AcDbEntity
  8
寸法
 48
50.0
100
AcDbDimension
  2
*D20
 10
5359.484998239401
 20
7916.542247313349
 30
0.0
 11
5016.984998239403
 21
8016.542247313349
 31
0.0
 12
-1640.0
 22
0.0
 32
0.0
 70
    32
 71
     5
 42
-1.0
  3
INABA_S40G
100
AcDbAlignedDimension
 13
4674.484998239403
 23
8356.365915108472
 33
0.0
 14
5359.484998239401
 24
8356.365915108625
 34
0.0
100
AcDbRotatedDimension
  0
LINE
  5
1497D
330
747D
100
AcDbEntity
  8
部品1
 48
5.0
100
AcDbLine
 10
5415.484998239403
 20
8385.865915108473
 30
0.0
 11
4643.484998239403
 21
8385.865915108473
 31
0.0
  0
LINE
  5
1497E
330
747D
100
AcDbEntity
  8
部品1
100
AcDbLine
 10
5394.484998239399
 20
8382.365915108525
 30
0.0
 11
4664.4849982394
 21
8382.365915108463
 31
0.0
  0
LINE
  5
1497F
330
747D
100
AcDbEntity
  8
破線
 48
10.0
100
AcDbLine
 10
5359.484998239385
 20
8511.365915108525
 30
0.0
 11
4698.484998239393
 21
8511.365915108489
 31
0.0
  0
LINE
  5
14980
330
747D
100
AcDbEntity
  8
部品1
100
AcDbLine
 10
5382.984026814591
 20
8487.866020821368
 30
0.0
 11
4674.984998239384
 21
8487.865915133143
 31
0.0
  0
LINE
  5
14981
330
747D
100
AcDbEntity
  8
細線
 48
50.0
100
AcDbLine
 10
4194.484998239401
 20
8382.365915108428
 30
0.0
 11
4194.484998239401
 21
8356.365915108391
 31
0.0
  0
LINE
  5
14982
330
747D
100
AcDbEntity
  8
細線
 48
50.0
100
AcDbLine
 10
4154.4849982394
 20
8382.365915108428
 30
0.0
 11
4154.4849982394
 21
8356.365915108391
 31
0.0
  0
LINE
  5
14983
330
747D
100
AcDbEntity
  8
細線
 48
50.0
100
AcDbLine
 10
4381.4849982394
 20
8382.365915108641
 30
0.0
 11
4381.4849982394
 21
8356.365915108602
 31
0.0
  0
LINE
  5
14984
330
747D
100
AcDbEntity
  8
細線
 48
50.0
100
AcDbLine
 10
4421.4849982394
 20
8382.365915108641
 30
0.0
 11
4421.4849982394
 21
8356.365915108602
 31
0.0
  0
LINE
  5
14985
330
747D
100
AcDbEntity
  8
部品1
 48
5.0
100
AcDbLine
 10
4591.484998239387
 20
8411.365915108472
 30
0.0
 11
4647.484998239387
 21
8411.365915108472
 31
0.0
  0
LINE
  5
14987
330
747D
100
AcDbEntity
  8
部品1
 48
50.0
100
AcDbLine
 10
4591.484998239387
 20
8459.865915108471
 30
0.0
 11
4563.984998239385
 21
8487.865915108482
 31
0.0
  0
LINE
  5
14988
330
747D
100
AcDbEntity
  8
部品1
 48
0.2
100
AcDbLine
 10
4561.547446068078
 20
8349.363545063692
 30
0.0
 11
4566.547446068079
 21
8349.363545063692
 31
0.0
  0
ARC
  5
14989
330
747D
100
AcDbEntity
  8
細線
 48
0.2
100
AcDbCircle
 10
4566.547446068079
 20
8357.363545063693
 30
0.0
 40
4.049999999999999
100
AcDbArc
 50
194.2603506853988
 51
345.7396493146012
  0
ARC
  5
1498A
330
747D
100
AcDbEntity
  8
部品1
 48
0.2
100
AcDbCircle
 10
4561.547446068078
 20
8357.363545063693
 30
0.0
 40
8.0
100
AcDbArc
 50
187.1636477221926
 51
269.9999999999992
  0
ARC
  5
1498B
330
747D
100
AcDbEntity
  8
部品1
 48
0.2
100
AcDbCircle
 10
4566.547446068079
 20
8357.363545063693
 30
0.0
 40
8.0
100
AcDbArc
 50
270.0
 51
352.8363522778074
  0
LINE
  5
1498C
330
747D
100
AcDbEntity
  8
部品1
 48
5.0
100
AcDbLine
 10
4587.484998239403
 20
8411.365915108472
 30
0.0
 11
4564.4849982394
 21
8411.365915108472
 31
0.0
  0
LINE
  5
1498D
330
747D
100
AcDbEntity
  8
部品1
 48
5.0
100
AcDbLine
 10
4564.484998239403
 20
8411.365915108474
 30
0.0
 11
4564.484998239403
 21
8385.865915108473
 31
0.0
  0
LINE
  5
1498E
330
747D
100
AcDbEntity
  8
部品1
 48
5.0
100
AcDbLine
 10
4595.484998239402
 20
8411.365915108472
 30
0.0
 11
4595.484998239402
 21
8385.865915108473
 31
0.0
  0
LINE
  5
1498F
330
747D
100
AcDbEntity
  8
部品1
 48
5.0
100
AcDbLine
 10
4576.484998239402
 20
8385.865915108473
 30
0.0
 11
4576.484998239402
 21
8356.365915108472
 31
0.0
  0
LINE
  5
14990
330
747D
100
AcDbEntity
  8
部品1
100
AcDbLine
 10
4576.4849982394
 20
8385.865915108418
 30
0.0
 11
4576.484998239398
 21
8356.365915108467
 31
0.0
  0
LINE
  5
14991
330
747D
100
AcDbEntity
  8
部品1
100
AcDbLine
 10
4574.4849982394
 20
8382.365915108525
 30
0.0
 11
4574.4849982394
 21
8356.365915108469
 31
0.0
  0
LINE
  5
14992
330
747D
100
AcDbEntity
  8
細線
 48
50.0
100
AcDbLine
 10
4788.4849982394
 20
8382.365915108437
 30
0.0
 11
4788.4849982394
 21
8356.365915108391
 31
0.0
  0
LINE
  5
14993
330
747D
100
AcDbEntity
  8
部品1
 48
50.0
100
AcDbLine
 10
4674.984998239384
 20
8487.865915133143
 30
0.0
 11
4647.484998239387
 21
8459.865915108471
 31
0.0
  0
LINE
  5
14994
330
747D
100
AcDbEntity
  8
部品1
 48
5.0
100
AcDbLine
 10
4651.484998239403
 20
8411.365915108472
 30
0.0
 11
4674.484998239402
 21
8411.365915108472
 31
0.0
  0
LINE
  5
14995
330
747D
100
AcDbEntity
  8
部品1
 48
5.0
100
AcDbLine
 10
4643.484998239403
 20
8411.365915108472
 30
0.0
 11
4643.484998239403
 21
8385.865915108473
 31
0.0
  0
LINE
  5
14996
330
747D
100
AcDbEntity
  8
部品1
 48
5.0
100
AcDbLine
 10
4674.484998239402
 20
8411.365915108472
 30
0.0
 11
4674.484998239403
 21
8385.865915108473
 31
0.0
  0
LINE
  5
14997
330
747D
100
AcDbEntity
  8
部品1
 48
5.0
100
AcDbLine
 10
4662.484998239402
 20
8385.865915108473
 30
0.0
 11
4662.484998239402
 21
8356.365915108472
 31
0.0
  0
LINE
  5
14998
330
747D
100
AcDbEntity
  8
部品1
100
AcDbLine
 10
4664.4849982394
 20
8382.365915108463
 30
0.0
 11
4664.484998239399
 21
8356.365915108474
 31
0.0
  0
LINE
  5
14999
330
747D
100
AcDbEntity
  8
部品1
100
AcDbLine
 10
4662.484998239402
 20
8385.865915108425
 30
0.0
 11
4662.484998239402
 21
8356.365915108472
 31
0.0
  0
LINE
  5
1499A
330
747D
100
AcDbEntity
  8
細線
 48
50.0
100
AcDbLine
 10
4974.4849982394
 20
8382.365915108428
 30
0.0
 11
4974.4849982394
 21
8356.365915108391
 31
0.0
  0
LINE
  5
1499B
330
747D
100
AcDbEntity
  8
細線
 48
50.0
100
AcDbLine
 10
5014.4849982394
 20
8382.365915108428
 30
0.0
 11
5014.4849982394
 21
8356.365915108391
 31
0.0
  0
LINE
  5
1499C
330
747D
100
AcDbEntity
  8
細線
 48
50.0
100
AcDbLine
 10
5241.484998239401
 20
8382.365915108641
 30
0.0
 11
5241.484998239401
 21
8356.365915108602
 31
0.0
  0
LINE
  5
1499D
330
747D
100
AcDbEntity
  8
細線
 48
50.0
100
AcDbLine
 10
5201.484998239401
 20
8382.365915108641
 30
0.0
 11
5201.484998239401
 21
8356.365915108602
 31
0.0
  0
LINE
  5
1499E
330
747D
100
AcDbEntity
  8
部品1
 48
50.0
100
AcDbLine
 10
5411.484998239384
 20
8458.846849916119
 30
0.0
 11
5382.984026814591
 21
8487.866020821368
 31
0.0
  0
ARC
  5
1499F
330
747D
100
AcDbEntity
  8
細線
 48
0.2
100
AcDbCircle
 10
5386.54744606808
 20
8357.363545063712
 30
0.0
 40
4.049999999999999
100
AcDbArc
 50
194.2603506853988
 51
345.7396493146012
  0
ARC
  5
149A0
330
747D
100
AcDbEntity
  8
部品1
 48
0.2
100
AcDbCircle
 10
5381.547446068079
 20
8357.363545063712
 30
0.0
 40
8.0
100
AcDbArc
 50
187.1636477221926
 51
269.9999999999992
  0
ARC
  5
149A1
330
747D
100
AcDbEntity
  8
部品1
 48
0.2
100
AcDbCircle
 10
5386.54744606808
 20
8357.363545063712
 30
0.0
 40
8.0
100
AcDbArc
 50
270.0
 51
352.8363522778074
  0
LINE
  5
149A2
330
747D
100
AcDbEntity
  8
部品1
 48
0.2
100
AcDbLine
 10
5381.547446068079
 20
8349.363545063713
 30
0.0
 11
5386.54744606808
 21
8349.363545063713
 31
0.0
  0
LINE
  5
149A3
330
747D
100
AcDbEntity
  8
部品1
100
AcDbLine
 10
5394.484998239399
 20
8382.365915108525
 30
0.0
 11
5394.484998239401
 21
8356.365915108517
 31
0.0
  0
LINE
  5
149A4
330
747D
100
AcDbEntity
  8
部品1
 48
2.83
100
AcDbLine
 10
5396.484998239381
 20
8385.865915108487
 30
0.0
 11
5396.484998239381
 21
8356.365915108487
 31
0.0
  0
LINE
  5
149A5
330
747D
100
AcDbEntity
  8
部品1
 48
2.83
100
AcDbLine
 10
5384.484998239383
 20
8411.365915108484
 30
0.0
 11
5384.484998239382
 21
8385.865915108487
 31
0.0
  0
LINE
  5
149A7
330
747D
100
AcDbEntity
  8
部品1
 48
2.83
100
AcDbLine
 10
5407.484998239382
 20
8411.365915108488
 30
0.0
 11
5384.484998239382
 21
8411.365915108484
 31
0.0
  0
LINE
  5
149AA
330
747D
100
AcDbEntity
  8
部品1
100
AcDbLine
 10
4647.484998239331
 20
9278.365915108484
 30
0.0
 11
5436.86570125801
 21
9278.365915108482
 31
0.0
  0
LINE
  5
149AB
330
747D
100
AcDbEntity
  8
部品1
100
AcDbLine
 10
4648.984998239338
 20
8826.865915108482
 30
0.0
 11
5409.984998239341
 21
8826.865915108475
 31
0.0
  0
LINE
  5
149AC
330
747D
100
AcDbEntity
  8
細線
 48
50.0
100
AcDbLine
 10
5409.984998239341
 20
9276.865915108476
 30
0.0
 11
4648.984998239338
 21
8826.865915108482
 31
0.0
  0
LINE
  5
149AD
330
747D
100
AcDbEntity
  8
細線
 48
50.0
100
AcDbLine
 10
5409.984998239341
 20
8826.865915108475
 30
0.0
 11
4648.98499823934
 21
9276.865915108478
 31
0.0
  0
LINE
  5
149AE
330
747D
100
AcDbEntity
  8
部品1
100
AcDbLine
 10
4648.98499823934
 20
9276.865915108484
 30
0.0
 11
5409.984998239341
 21
9276.865915108476
 31
0.0
  0
LINE
  5
149AF
330
747D
100
AcDbEntity
  8
部品1
 48
50.0
100
AcDbLine
 10
4648.98499823934
 20
9276.865915108478
 30
0.0
 11
4648.98499823934
 21
8826.865915108482
 31
0.0
  0
LINE
  5
149B0
330
747D
100
AcDbEntity
  8
部品1
 48
50.0
100
AcDbLine
 10
4589.985004917037
 20
9276.865915108542
 30
0.0
 11
4589.985004917037
 21
8826.865915108543
 31
0.0
  0
LINE
  5
149B1
330
747D
100
AcDbEntity
  8
部品1
 48
50.0
100
AcDbLine
 10
4619.484998239378
 20
8869.365915108481
 30
0.0
 11
4647.484998239361
 21
8869.365915108483
 31
0.0
  0
LINE
  5
149B2
330
747D
100
AcDbEntity
  8
部品1
 48
50.0
100
AcDbLine
 10
4619.484998239378
 20
8831.365915108483
 30
0.0
 11
4647.484998239361
 21
8831.365915108483
 31
0.0
  0
LINE
  5
149B3
330
747D
100
AcDbEntity
  8
部品1
 48
5.0
100
AcDbLine
 10
4619.484998239387
 20
8831.365915108476
 30
0.0
 11
4591.484998239334
 21
8831.365915108483
 31
0.0
  0
LINE
  5
149B4
330
747D
100
AcDbEntity
  8
細線
 48
50.0
100
AcDbLine
 10
4239.484998239409
 20
9284.865915108465
 30
0.0
 11
4239.484998239406
 21
9306.365915108466
 31
0.0
  0
LINE
  5
149B5
330
747D
100
AcDbEntity
  8
細線
 48
50.0
100
AcDbLine
 10
4179.484998239408
 20
9284.865915108461
 30
0.0
 11
4179.484998239406
 21
9306.365915108459
 31
0.0
  0
LINE
  5
149B6
330
747D
100
AcDbEntity
  8
細線
 48
50.0
100
AcDbLine
 10
4239.484998239409
 20
9284.865915108465
 30
0.0
 11
4179.484998239408
 21
9284.86591510846
 31
0.0
  0
LINE
  5
149B7
330
747D
100
AcDbEntity
  8
部品1
 48
5.0
100
AcDbLine
 10
4647.484998239335
 20
9251.365915108481
 30
0.0
 11
4591.484998239334
 21
9251.365915108481
 31
0.0
  0
LINE
  5
149B8
330
747D
100
AcDbEntity
  8
部品1
 48
5.0
100
AcDbLine
 10
4594.194272686581
 20
9306.365915108477
 30
0.0
 11
4616.865701258009
 21
9278.365915108482
 31
0.0
  0
LINE
  5
149B9
330
747D
100
AcDbEntity
  8
部品1
 48
5.0
100
AcDbLine
 10
4564.484998239406
 20
9278.365915108478
 30
0.0
 11
4564.484998239406
 21
9306.365915108477
 31
0.0
  0
LINE
  5
149BA
330
747D
100
AcDbEntity
  8
部品1
 48
50.0
100
AcDbLine
 10
4589.985004917038
 20
9276.811402448727
 30
0.0
 11
4591.484998239333
 21
9278.365915108478
 31
0.0
  0
LINE
  5
149BB
330
747D
100
AcDbEntity
  8
部品1
 48
5.0
100
AcDbLine
 10
4674.484998239409
 20
9306.365915108484
 30
0.0
 11
4674.484998239404
 21
9278.365915108485
 31
0.0
  0
LINE
  5
149BC
330
747D
100
AcDbEntity
  8
部品1
 48
50.0
100
AcDbLine
 10
4648.98499823934
 20
9276.81139358822
 30
0.0
 11
4647.484998239334
 21
9278.365915108482
 31
0.0
  0
LINE
  5
149BD
330
747D
100
AcDbEntity
  8
部品1
100
AcDbLine
 10
5409.984998239341
 20
9276.865915108476
 30
0.0
 11
5409.984998239341
 21
8826.865915108475
 31
0.0
  0
LINE
  5
149BF
330
747D
100
AcDbEntity
  8
細線
 48
50.0
100
AcDbLine
 10
4999.48499823941
 20
9284.865915108543
 30
0.0
 11
4999.484998239406
 21
9306.365915108541
 31
0.0
  0
LINE
  5
149C0
330
747D
100
AcDbEntity
  8
細線
 48
50.0
100
AcDbLine
 10
5059.484998239408
 20
9284.865915108545
 30
0.0
 11
5059.484998239407
 21
9306.365915108548
 31
0.0
  0
LINE
  5
149C1
330
747D
100
AcDbEntity
  8
細線
 48
50.0
100
AcDbLine
 10
5059.484998239408
 20
9284.865915108545
 30
0.0
 11
4999.484998239408
 21
9284.865915108541
 31
0.0
  0
LINE
  5
149C2
330
747D
100
AcDbEntity
  8
部品1
 48
50.0
100
AcDbLine
 10
5409.984991561732
 20
9276.865915108478
 30
0.0
 11
5411.484998239409
 21
9278.365915108528
 31
0.0
  0
LINE
  5
149C4
330
747D
100
AcDbEntity
  8
部品1
100
AcDbLine
 10
5384.484998239408
 20
9306.365915108528
 30
0.0
 11
5384.484998239408
 21
9278.365915108528
 31
0.0
  0
LINE
  5
149C5
330
747D
100
AcDbEntity
  8
部品1
100
AcDbLine
 10
5384.484998239408
 20
9306.365915108548
 30
0.0
 11
5384.484998239408
 21
9278.365915108548
 31
0.0
  0
DIMENSION
  5
149C6
330
747D
100
AcDbEntity
  8
寸法
 48
50.0
100
AcDbDimension
  2
*D19
 10
4674.484998239409
 20
9522.174134733532
 30
0.0
 11
5029.484998239409
 21
9622.174134733533
 31
0.0
 12
-1640.0
 22
0.0
 32
0.0
 70
    32
 71
     5
 42
-1.0
  3
INABA_S40G
100
AcDbAlignedDimension
 13
5384.484998239408
 23
9306.365915108548
 33
0.0
 14
4674.484998239409
 24
9306.365915108532
 34
0.0
100
AcDbRotatedDimension
  0
DIMENSION
  5
149C7
330
747D
100
AcDbEntity
  8
寸法
 48
50.0
100
AcDbDimension
  2
*D18
 10
4674.484998239409
 20
9522.174134733532
 30
0.0
 11
4619.484998239408
 21
9622.174134733533
 31
0.0
 12
-1640.0
 22
0.0
 32
0.0
 70
    32
 71
     5
 42
-1.0
  3
INABA_S40G
100
AcDbAlignedDimension
 13
4564.484998239406
 23
9306.365915108555
 33
0.0
 14
4674.484998239409
 24
9306.365915108532
 34
0.0
100
AcDbRotatedDimension
  0
DIMENSION
  5
149C8
330
747D
100
AcDbEntity
  8
寸法
100
AcDbDimension
  2
*D15
 10
4564.484998239406
 20
9522.174134733532
 30
0.0
 11
4209.734998239406
 21
9522.174134733532
 31
0.0
 12
-1640.0
 22
0.0
 32
0.0
 70
   160
 71
     5
 42
-1.0
  3
INABA_S40G
100
AcDbAlignedDimension
 13
3854.484998239407
 23
9306.365915108434
 33
0.0
 14
4564.484998239406
 24
9306.365915108555
 34
0.0
100
AcDbRotatedDimension
1001
ACAD
1000
DSTYLE
1002
{
1002
}
  0
DIMENSION
  5
14A13
330
747D
100
AcDbEntity
  8
寸法
 48
50.0
100
AcDbDimension
  2
*D21
 10
5494.48499823941
 20
9522.174134733532
 30
0.0
 11
5439.484998239407
 21
9622.174134733533
 31
0.0
 12
-820.0
 22
0.0
 32
0.0
 70
    32
 71
     5
 42
-1.0
  3
INABA_S40G
100
AcDbAlignedDimension
 13
5384.484998239407
 23
9306.365915108555
 33
0.0
 14
5494.48499823941
 24
9306.365915108532
 34
0.0
100
AcDbRotatedDimension
  0
DIMENSION
  5
14A22
330
747D
100
AcDbEntity
  8
寸法
 48
50.0
100
AcDbDimension
  2
*D22
 10
7819.4849982394
 20
7916.542247313349
 30
0.0
 11
7476.984998239403
 21
7916.542247313349
 31
0.0
 12
1640.000000000001
 22
0.0
 32
0.0
 70
   160
  1
有効開口部間口\P<>
 71
     5
 42
-1.0
  3
INABA_S40G
100
AcDbAlignedDimension
 13
7134.484998239405
 23
8356.365915108426
 33
0.0
 14
7819.4849982394
 24
8356.365915108391
 34
0.0
100
AcDbRotatedDimension
  0
DIMENSION
  5
14A2F
330
747D
100
AcDbEntity
  8
寸法
 48
50.0
100
AcDbDimension
  2
*D23
 10
6179.4849982394
 20
7916.542247313349
 30
0.0
 11
5836.984998239403
 21
8016.542247313349
 31
0.0
 12
820.0
 22
0.0
 32
0.0
 70
    32
 71
     5
 42
-1.0
  3
INABA_S40G
100
AcDbAlignedDimension
 13
5494.484998239403
 23
8356.365915108472
 33
0.0
 14
6179.4849982394
 24
8356.365915108625
 34
0.0
100
AcDbRotatedDimension
  0
DIMENSION
  5
14A61
330
747D
100
AcDbEntity
  8
寸法
 48
50.0
100
AcDbDimension
  2
*D24
 10
3799.484998239407
 20
9522.174134733532
 30
0.0
 11
3490.999716865168
 21
9522.174134733532
 31
0.0
 70
   160
 71
     5
 42
-1.0
  3
INABA_S40G
100
AcDbAlignedDimension
 13
3854.484998239407
 23
9306.365915108438
 33
0.0
 14
3799.484998239407
 24
9306.365915108434
 34
0.0
100
AcDbRotatedDimension
  0
LINE
  5
14A6F
330
747D
100
AcDbEntity
  8
部品1
 48
5.0
100
AcDbLine
 10
5414.194272686581
 20
9306.365915108477
 30
0.0
 11
5436.86570125801
 21
9278.365915108482
 31
0.0
  0
LINE
  5
14A70
330
747D
100
AcDbEntity
  8
部品1
 48
50.0
100
AcDbLine
 10
5439.484998239378
 20
8869.365915108481
 30
0.0
 11
5467.484998239362
 21
8869.365915108483
 31
0.0
  0
LINE
  5
14A71
330
747D
100
AcDbEntity
  8
部品1
 48
50.0
100
AcDbLine
 10
5439.484998239387
 20
8411.365915108472
 30
0.0
 11
5439.484998239387
 21
9251.365915108481
 31
0.0
  0
LINE
  5
14A72
330
747D
100
AcDbEntity
  8
部品1
 48
5.0
100
AcDbLine
 10
5415.484998239403
 20
8411.365915108472
 30
0.0
 11
5415.484998239403
 21
8385.865915108473
 31
0.0
  0
LINE
  5
14A73
330
747D
100
AcDbEntity
  8
部品1
 48
5.0
100
AcDbLine
 10
5463.484998239404
 20
8411.365915108472
 30
0.0
 11
5463.484998239403
 21
8385.865915108473
 31
0.0
  0
LINE
  5
14AAB
330
747D
100
AcDbEntity
  8
細線
 48
50.0
100
AcDbLine
 10
4554.422550410719
 20
5407.077276893862
 30
0.0
 11
4554.422550410719
 21
5407.327276893862
 31
0.0
  0
LINE
  5
14AAC
330
747D
100
AcDbEntity
  8
部品1
100
AcDbLine
 10
4574.422550410719
 20
5407.077276893862
 30
0.0
 11
4574.484998239401
 21
5407.07727689386
 31
0.0
  0
LINE
  5
14AAD
330
747D
100
AcDbEntity
  8
部品1
 48
50.0
100
AcDbLine
 10
4554.422550410719
 20
5400.327276893862
 30
0.0
 11
4554.422550410719
 21
5407.077276893862
 31
0.0
  0
LINE
  5
14AAE
330
747D
100
AcDbEntity
  8
細線
 48
0.2
100
AcDbLine
 10
4574.422550410718
 20
5407.327276893862
 30
0.0
 11
4554.422550410719
 21
5407.327276893862
 31
0.0
  0
LINE
  5
14AAF
330
747D
100
AcDbEntity
  8
細線
 48
0.2
100
AcDbLine
 10
4574.422550410718
 20
5402.827276893862
 30
0.0
 11
4554.422550410719
 21
5402.827276893862
 31
0.0
  0
LINE
  5
14AB0
330
747D
100
AcDbEntity
  8
細線
 48
0.2
100
AcDbLine
 10
4574.422550410718
 20
5404.827276893862
 30
0.0
 11
4554.422550410719
 21
5404.827276893862
 31
0.0
  0
LINE
  5
14AB1
330
747D
100
AcDbEntity
  8
部品1
 48
0.2
100
AcDbLine
 10
4574.422550410718
 20
5400.327276893862
 30
0.0
 11
4554.422550410719
 21
5400.327276893862
 31
0.0
  0
ARC
  5
14AB2
330
747D
100
AcDbEntity
  8
細線
 48
0.2
100
AcDbCircle
 10
4561.422550410719
 20
5407.29778672511
 30
0.0
 40
1.0
100
AcDbArc
 50
106.6015495990225
 51
180.0000000000016
  0
ARC
  5
14AB3
330
747D
100
AcDbEntity
  8
細線
 48
0.2
100
AcDbCircle
 10
4571.422550410718
 20
5407.29778672511
 30
0.0
 40
1.0
100
AcDbArc
 50
0.0
 51
73.39845040097829
  0
LINE
  5
14AB4
330
747D
100
AcDbEntity
  8
細線
 48
0.1
100
AcDbLine
 10
4574.422550410718
 20
5407.327276893862
 30
0.0
 11
4574.422550410718
 21
5400.327276893862
 31
0.0
  0
ARC
  5
14AB5
330
747D
100
AcDbEntity
  8
細線
 48
0.2
100
AcDbCircle
 10
4566.422550410719
 20
5390.527276893865
 30
0.0
 40
18.49999999999796
100
AcDbArc
 50
73.39845040097829
 51
106.6015495990228
  0
LINE
  5
14AB6
330
747D
100
AcDbEntity
  8
細線
 48
0.2
100
AcDbLine
 10
4572.106541707227
 20
5408.027276893863
 30
0.0
 11
4560.738559114215
 21
5408.027276893863
 31
0.0
  0
LINE
  5
14AB7
330
747D
100
AcDbEntity
  8
細線
 48
50.0
100
AcDbLine
 10
4562.559793216415
 20
5404.827276893862
 30
0.0
 11
4562.559793216416
 21
5402.827276893862
 31
0.0
  0
LINE
  5
14AB8
330
747D
100
AcDbEntity
  8
細線
 48
50.0
100
AcDbLine
 10
4570.410203262379
 20
5404.827276893862
 30
0.0
 11
4570.410203262379
 21
5402.827276893862
 31
0.0
  0
LINE
  5
14ACA
330
747D
100
AcDbEntity
  8
部品1
100
AcDbLine
 10
3844.484998239401
 20
5407.077276893864
 30
0.0
 11
4554.422550410719
 21
5407.077276893862
 31
0.0
  0
LINE
  5
14ACB
330
747D
100
AcDbEntity
  8
部品1
100
AcDbLine
 10
3844.484998239401
 20
3616.077276893866
 30
0.0
 11
4554.422550410719
 21
3616.077276893872
 31
0.0
  0
LINE
  5
14ACC
330
747D
100
AcDbEntity
  8
部品1
100
AcDbLine
 10
3842.484998239401
 20
5409.577276893861
 30
0.0
 11
3842.484998239401
 21
3612.577276893881
 31
0.0
  0
LINE
  5
14ACD
330
747D
100
AcDbEntity
  8
部品1
100
AcDbLine
 10
3844.484998239401
 20
5407.077276893864
 30
0.0
 11
3844.4849982394
 21
3616.077276893866
 31
0.0
  0
LINE
  5
14AF5
330
747D
100
AcDbEntity
  8
部品1
100
AcDbLine
 10
4574.484998239398
 20
5407.07727689386
 30
0.0
 11
4574.484998239403
 21
3616.077276893881
 31
0.0
  0
LINE
  5
14AF6
330
747D
100
AcDbEntity
  8
部品1
100
AcDbLine
 10
4576.484998239401
 20
5409.577276893861
 30
0.0
 11
4576.484998239401
 21
3612.577276893881
 31
0.0
  0
LINE
  5
14AF7
330
747D
100
AcDbEntity
  8
部品1
100
AcDbLine
 10
4662.484998239401
 20
5409.577276893861
 30
0.0
 11
4662.484998239401
 21
3612.577276893881
 31
0.0
  0
LINE
  5
14AF8
330
747D
100
AcDbEntity
  8
部品1
100
AcDbLine
 10
4664.4849982394
 20
5407.077276893857
 30
0.0
 11
4664.484998239401
 21
3616.077276893875
 31
0.0
  0
LINE
  5
14AF9
330
747D
100
AcDbEntity
  8
部品1
100
AcDbLine
 10
5394.484998239399
 20
5407.07727689386
 30
0.0
 11
5394.484998239402
 21
3616.077276893882
 31
0.0
  0
LINE
  5
14AFA
330
747D
100
AcDbEntity
  8
部品1
100
AcDbLine
 10
5396.484998239401
 20
5409.577276893861
 30
0.0
 11
5396.484998239401
 21
3612.577276893881
 31
0.0
  0
LINE
  5
14AFB
330
747D
100
AcDbEntity
  8
部品1
100
AcDbLine
 10
4664.484998239401
 20
3616.077276893875
 30
0.0
 11
5374.42255041072
 21
3616.07727689388
 31
0.0
  0
LINE
  5
14AFC
330
747D
100
AcDbEntity
  8
部品1
 48
50.0
100
AcDbLine
 10
4554.422550410719
 20
3622.827276893879
 30
0.0
 11
4554.422550410719
 21
3616.07727689388
 31
0.0
  0
LINE
  5
14AFD
330
747D
100
AcDbEntity
  8
細線
 48
50.0
100
AcDbLine
 10
4570.410203262379
 20
3618.32727689388
 30
0.0
 11
4570.410203262379
 21
3620.32727689388
 31
0.0
  0
LINE
  5
14AFE
330
747D
100
AcDbEntity
  8
細線
 48
50.0
100
AcDbLine
 10
4562.559793216415
 20
3618.32727689388
 30
0.0
 11
4562.559793216416
 21
3620.32727689388
 31
0.0
  0
LINE
  5
14AFF
330
747D
100
AcDbEntity
  8
細線
 48
0.1
100
AcDbLine
 10
4574.422550410718
 20
3615.82727689388
 30
0.0
 11
4574.422550410718
 21
3622.827276893879
 31
0.0
  0
LINE
  5
14B00
330
747D
100
AcDbEntity
  8
部品1
100
AcDbLine
 10
4574.422550410719
 20
3616.077276893872
 30
0.0
 11
4574.484998239401
 21
3616.077276893872
 31
0.0
  0
LINE
  5
14B01
330
747D
100
AcDbEntity
  8
部品1
100
AcDbLine
 10
4574.422550410719
 20
3616.07727689388
 30
0.0
 11
4574.484998239401
 21
3616.077276893881
 31
0.0
  0
LINE
  5
14B02
330
747D
100
AcDbEntity
  8
細線
 48
50.0
100
AcDbLine
 10
4554.422550410719
 20
3616.07727689388
 30
0.0
 11
4554.422550410719
 21
3615.82727689388
 31
0.0
  0
LINE
  5
14B03
330
747D
100
AcDbEntity
  8
細線
 48
0.2
100
AcDbLine
 10
4572.106541707227
 20
3615.127276893878
 30
0.0
 11
4560.738559114215
 21
3615.127276893878
 31
0.0
  0
ARC
  5
14B04
330
747D
100
AcDbEntity
  8
細線
 48
0.2
100
AcDbCircle
 10
4566.422550410719
 20
3632.627276893876
 30
0.0
 40
18.49999999999796
100
AcDbArc
 50
253.3984504009772
 51
286.6015495990217
  0
ARC
  5
14B05
330
747D
100
AcDbEntity
  8
細線
 48
0.2
100
AcDbCircle
 10
4561.422550410719
 20
3615.856767062631
 30
0.0
 40
1.0
100
AcDbArc
 50
179.9999999999984
 51
253.3984504009775
  0
LINE
  5
14B06
330
747D
100
AcDbEntity
  8
細線
 48
0.2
100
AcDbLine
 10
4574.422550410718
 20
3618.327276893879
 30
0.0
 11
4554.422550410719
 21
3618.32727689388
 31
0.0
  0
LINE
  5
14B07
330
747D
100
AcDbEntity
  8
細線
 48
0.2
100
AcDbLine
 10
4574.422550410718
 20
3615.82727689388
 30
0.0
 11
4554.422550410719
 21
3615.82727689388
 31
0.0
  0
ARC
  5
14B08
330
747D
100
AcDbEntity
  8
細線
 48
0.2
100
AcDbCircle
 10
4571.422550410718
 20
3615.856767062631
 30
0.0
 40
1.0
100
AcDbArc
 50
286.6015495990217
 51
0.0
  0
LINE
  5
14B09
330
747D
100
AcDbEntity
  8
部品1
 48
0.2
100
AcDbLine
 10
4574.422550410718
 20
3622.827276893879
 30
0.0
 11
4554.422550410719
 21
3622.827276893879
 31
0.0
  0
LINE
  5
14B0A
330
747D
100
AcDbEntity
  8
細線
 48
0.2
100
AcDbLine
 10
4574.422550410718
 20
3620.32727689388
 30
0.0
 11
4554.422550410719
 21
3620.32727689388
 31
0.0
  0
LINE
  5
14B0B
330
747D
100
AcDbEntity
  8
細線
 48
0.1
100
AcDbLine
 10
5394.422550410719
 20
3615.82727689388
 30
0.0
 11
5394.422550410719
 21
3622.827276893879
 31
0.0
  0
LINE
  5
14B0C
330
747D
100
AcDbEntity
  8
細線
 48
50.0
100
AcDbLine
 10
5382.559793216415
 20
3618.32727689388
 30
0.0
 11
5382.559793216416
 21
3620.32727689388
 31
0.0
  0
LINE
  5
14B0D
330
747D
100
AcDbEntity
  8
細線
 48
50.0
100
AcDbLine
 10
5390.41020326238
 20
3618.32727689388
 30
0.0
 11
5390.41020326238
 21
3620.32727689388
 31
0.0
  0
LINE
  5
14B0E
330
747D
100
AcDbEntity
  8
部品1
 48
50.0
100
AcDbLine
 10
5374.422550410719
 20
3622.827276893879
 30
0.0
 11
5374.422550410719
 21
3616.07727689388
 31
0.0
  0
LINE
  5
14B0F
330
747D
100
AcDbEntity
  8
部品1
100
AcDbLine
 10
5394.42255041072
 20
3616.07727689388
 30
0.0
 11
5394.484998239399
 21
3616.07727689388
 31
0.0
  0
ARC
  5
14B10
330
747D
100
AcDbEntity
  8
細線
 48
0.2
100
AcDbCircle
 10
5391.42255041072
 20
3615.856767062631
 30
0.0
 40
1.0
100
AcDbArc
 50
286.6015495990217
 51
0.0
  0
LINE
  5
14B11
330
747D
100
AcDbEntity
  8
細線
 48
0.2
100
AcDbLine
 10
5394.422550410719
 20
3615.82727689388
 30
0.0
 11
5374.42255041072
 21
3615.82727689388
 31
0.0
  0
LINE
  5
14B12
330
747D
100
AcDbEntity
  8
細線
 48
0.2
100
AcDbLine
 10
5394.422550410719
 20
3618.327276893879
 30
0.0
 11
5374.42255041072
 21
3618.32727689388
 31
0.0
  0
ARC
  5
14B13
330
747D
100
AcDbEntity
  8
細線
 48
0.2
100
AcDbCircle
 10
5381.422550410719
 20
3615.856767062631
 30
0.0
 40
1.0
100
AcDbArc
 50
179.9999999999984
 51
253.3984504009775
  0
ARC
  5
14B14
330
747D
100
AcDbEntity
  8
細線
 48
0.2
100
AcDbCircle
 10
5386.422550410719
 20
3632.627276893876
 30
0.0
 40
18.49999999999796
100
AcDbArc
 50
253.3984504009772
 51
286.6015495990217
  0
LINE
  5
14B15
330
747D
100
AcDbEntity
  8
細線
 48
0.2
100
AcDbLine
 10
5392.106541707227
 20
3615.127276893878
 30
0.0
 11
5380.738559114215
 21
3615.127276893878
 31
0.0
  0
LINE
  5
14B16
330
747D
100
AcDbEntity
  8
細線
 48
50.0
100
AcDbLine
 10
5374.422550410719
 20
3616.07727689388
 30
0.0
 11
5374.422550410719
 21
3615.82727689388
 31
0.0
  0
LINE
  5
14B17
330
747D
100
AcDbEntity
  8
部品1
100
AcDbLine
 10
5394.42255041072
 20
3616.07727689388
 30
0.0
 11
5394.484998239401
 21
3616.077276893881
 31
0.0
  0
LINE
  5
14B18
330
747D
100
AcDbEntity
  8
部品1
100
AcDbLine
 10
5394.42255041072
 20
3616.077276893883
 30
0.0
 11
5394.484998239401
 21
3616.077276893882
 31
0.0
  0
LINE
  5
14B19
330
747D
100
AcDbEntity
  8
細線
 48
0.2
100
AcDbLine
 10
5394.422550410719
 20
3620.32727689388
 30
0.0
 11
5374.42255041072
 21
3620.32727689388
 31
0.0
  0
LINE
  5
14B1A
330
747D
100
AcDbEntity
  8
部品1
 48
0.2
100
AcDbLine
 10
5394.422550410719
 20
3622.827276893879
 30
0.0
 11
5374.422550410719
 21
3622.827276893879
 31
0.0
  0
LINE
  5
14B42
330
747D
100
AcDbEntity
  8
部品1
100
AcDbLine
 10
4664.4849982394
 20
5407.077276893857
 30
0.0
 11
5374.422550410719
 21
5407.07727689386
 31
0.0
  0
LINE
  5
14B43
330
747D
100
AcDbEntity
  8
部品1
100
AcDbLine
 10
5394.42255041072
 20
5407.077276893859
 30
0.0
 11
5394.484998239401
 21
5407.07727689386
 31
0.0
  0
LINE
  5
14B44
330
747D
100
AcDbEntity
  8
部品1
 48
0.2
100
AcDbLine
 10
5394.422550410719
 20
5400.327276893862
 30
0.0
 11
5374.422550410719
 21
5400.327276893862
 31
0.0
  0
LINE
  5
14B45
330
747D
100
AcDbEntity
  8
部品1
100
AcDbLine
 10
5394.42255041072
 20
5407.077276893862
 30
0.0
 11
5394.484998239401
 21
5407.07727689386
 31
0.0
  0
LINE
  5
14B46
330
747D
100
AcDbEntity
  8
部品1
 48
50.0
100
AcDbLine
 10
5374.422550410719
 20
5400.327276893862
 30
0.0
 11
5374.422550410719
 21
5407.077276893862
 31
0.0
  0
LINE
  5
14B47
330
747D
100
AcDbEntity
  8
細線
 48
50.0
100
AcDbLine
 10
5374.422550410719
 20
5407.077276893862
 30
0.0
 11
5374.422550410719
 21
5407.327276893862
 31
0.0
  0
LINE
  5
14B48
330
747D
100
AcDbEntity
  8
細線
 48
0.2
100
AcDbLine
 10
5392.106541707227
 20
5408.027276893863
 30
0.0
 11
5380.738559114215
 21
5408.027276893863
 31
0.0
  0
ARC
  5
14B49
330
747D
100
AcDbEntity
  8
細線
 48
0.2
100
AcDbCircle
 10
5386.422550410719
 20
5390.527276893865
 30
0.0
 40
18.49999999999796
100
AcDbArc
 50
73.39845040097829
 51
106.6015495990228
  0
ARC
  5
14B4A
330
747D
100
AcDbEntity
  8
細線
 48
0.2
100
AcDbCircle
 10
5381.422550410719
 20
5407.29778672511
 30
0.0
 40
1.0
100
AcDbArc
 50
106.6015495990225
 51
180.0000000000016
  0
LINE
  5
14B4B
330
747D
100
AcDbEntity
  8
細線
 48
0.2
100
AcDbLine
 10
5394.422550410719
 20
5404.827276893862
 30
0.0
 11
5374.42255041072
 21
5404.827276893862
 31
0.0
  0
LINE
  5
14B4C
330
747D
100
AcDbEntity
  8
細線
 48
0.2
100
AcDbLine
 10
5394.422550410719
 20
5402.827276893862
 30
0.0
 11
5374.42255041072
 21
5402.827276893862
 31
0.0
  0
LINE
  5
14B4D
330
747D
100
AcDbEntity
  8
細線
 48
0.2
100
AcDbLine
 10
5394.422550410719
 20
5407.327276893862
 30
0.0
 11
5374.42255041072
 21
5407.327276893862
 31
0.0
  0
LINE
  5
14B4E
330
747D
100
AcDbEntity
  8
細線
 48
50.0
100
AcDbLine
 10
5390.41020326238
 20
5404.827276893862
 30
0.0
 11
5390.41020326238
 21
5402.827276893862
 31
0.0
  0
LINE
  5
14B4F
330
747D
100
AcDbEntity
  8
細線
 48
50.0
100
AcDbLine
 10
5382.559793216415
 20
5404.827276893862
 30
0.0
 11
5382.559793216416
 21
5402.827276893862
 31
0.0
  0
LINE
  5
14B50
330
747D
100
AcDbEntity
  8
細線
 48
0.1
100
AcDbLine
 10
5394.422550410719
 20
5407.327276893862
 30
0.0
 11
5394.422550410719
 21
5400.327276893862
 31
0.0
  0
ARC
  5
14B51
330
747D
100
AcDbEntity
  8
細線
 48
0.2
100
AcDbCircle
 10
5391.42255041072
 20
5407.29778672511
 30
0.0
 40
1.0
100
AcDbArc
 50
0.0
 51
73.39845040097829
  0
LINE
  5
14B89
330
747D
100
AcDbEntity
  8
細線
 48
50.0
100
AcDbLine
 10
5439.4849982394
 20
5503.577276893862
 30
0.0
 11
5439.4849982394
 21
5409.577276893861
 31
0.0
  0
LINE
  5
14B8A
330
747D
100
AcDbEntity
  8
部品1
 48
50.0
100
AcDbLine
 10
5439.4849982394
 20
3612.577276893865
 30
0.0
 11
5439.4849982394
 21
3569.577276893862
 31
0.0
  0
LINE
  5
14B8B
330
747D
100
AcDbEntity
  8
細線
 48
50.0
100
AcDbLine
 10
5429.4849982394
 20
5503.577276893861
 30
0.0
 11
5429.4849982394
 21
5644.57727689386
 31
0.0
  0
LINE
  5
14BC6
330
747D
100
AcDbEntity
  8
部品1
100
AcDbLine
 10
7122.4849982394
 20
5409.577276893861
 30
0.0
 11
7122.4849982394
 21
3612.577276893881
 31
0.0
  0
LINE
  5
14BC7
330
747D
100
AcDbEntity
  8
部品1
100
AcDbLine
 10
7124.4849982394
 20
5407.077276893857
 30
0.0
 11
7124.484998239402
 21
3616.077276893875
 31
0.0
  0
LINE
  5
14BC8
330
747D
100
AcDbEntity
  8
部品1
100
AcDbLine
 10
7854.484998239399
 20
5407.07727689386
 30
0.0
 11
7854.484998239401
 21
3616.077276893882
 31
0.0
  0
LINE
  5
14BC9
330
747D
100
AcDbEntity
  8
部品1
100
AcDbLine
 10
7856.484998239401
 20
5409.577276893861
 30
0.0
 11
7856.484998239401
 21
3612.577276893881
 31
0.0
  0
LINE
  5
14BCA
330
747D
100
AcDbEntity
  8
部品1
100
AcDbLine
 10
7124.484998239402
 20
3616.077276893875
 30
0.0
 11
7834.42255041072
 21
3616.07727689388
 31
0.0
  0
LINE
  5
14BCB
330
747D
100
AcDbEntity
  8
細線
 48
0.1
100
AcDbLine
 10
7854.422550410719
 20
3615.82727689388
 30
0.0
 11
7854.422550410719
 21
3622.827276893879
 31
0.0
  0
LINE
  5
14BCC
330
747D
100
AcDbEntity
  8
細線
 48
50.0
100
AcDbLine
 10
7842.559793216415
 20
3618.32727689388
 30
0.0
 11
7842.559793216416
 21
3620.32727689388
 31
0.0
  0
LINE
  5
14BCD
330
747D
100
AcDbEntity
  8
細線
 48
50.0
100
AcDbLine
 10
7850.410203262379
 20
3618.32727689388
 30
0.0
 11
7850.410203262379
 21
3620.32727689388
 31
0.0
  0
LINE
  5
14BCE
330
747D
100
AcDbEntity
  8
部品1
 48
50.0
100
AcDbLine
 10
7834.422550410718
 20
3622.827276893879
 30
0.0
 11
7834.422550410718
 21
3616.07727689388
 31
0.0
  0
LINE
  5
14BCF
330
747D
100
AcDbEntity
  8
部品1
100
AcDbLine
 10
7854.422550410721
 20
3616.07727689388
 30
0.0
 11
7854.484998239399
 21
3616.07727689388
 31
0.0
  0
ARC
  5
14BD0
330
747D
100
AcDbEntity
  8
細線
 48
0.2
100
AcDbCircle
 10
7851.422550410719
 20
3615.856767062631
 30
0.0
 40
1.0
100
AcDbArc
 50
286.6015495990217
 51
0.0
  0
LINE
  5
14BD1
330
747D
100
AcDbEntity
  8
細線
 48
0.2
100
AcDbLine
 10
7854.422550410719
 20
3615.82727689388
 30
0.0
 11
7834.42255041072
 21
3615.82727689388
 31
0.0
  0
LINE
  5
14BD2
330
747D
100
AcDbEntity
  8
細線
 48
0.2
100
AcDbLine
 10
7854.422550410719
 20
3618.327276893879
 30
0.0
 11
7834.42255041072
 21
3618.32727689388
 31
0.0
  0
ARC
  5
14BD3
330
747D
100
AcDbEntity
  8
細線
 48
0.2
100
AcDbCircle
 10
7841.422550410719
 20
3615.856767062631
 30
0.0
 40
1.0
100
AcDbArc
 50
179.9999999999984
 51
253.3984504009775
  0
ARC
  5
14BD4
330
747D
100
AcDbEntity
  8
細線
 48
0.2
100
AcDbCircle
 10
7846.422550410719
 20
3632.627276893876
 30
0.0
 40
18.49999999999796
100
AcDbArc
 50
253.3984504009772
 51
286.6015495990217
  0
LINE
  5
14BD5
330
747D
100
AcDbEntity
  8
細線
 48
0.2
100
AcDbLine
 10
7852.106541707226
 20
3615.127276893878
 30
0.0
 11
7840.738559114214
 21
3615.127276893878
 31
0.0
  0
LINE
  5
14BD6
330
747D
100
AcDbEntity
  8
細線
 48
50.0
100
AcDbLine
 10
7834.422550410718
 20
3616.07727689388
 30
0.0
 11
7834.422550410718
 21
3615.82727689388
 31
0.0
  0
LINE
  5
14BD7
330
747D
100
AcDbEntity
  8
部品1
100
AcDbLine
 10
7854.422550410721
 20
3616.07727689388
 30
0.0
 11
7854.484998239401
 21
3616.077276893881
 31
0.0
  0
LINE
  5
14BD8
330
747D
100
AcDbEntity
  8
部品1
100
AcDbLine
 10
7854.422550410721
 20
3616.077276893883
 30
0.0
 11
7854.484998239401
 21
3616.077276893882
 31
0.0
  0
LINE
  5
14BD9
330
747D
100
AcDbEntity
  8
細線
 48
0.2
100
AcDbLine
 10
7854.422550410719
 20
3620.32727689388
 30
0.0
 11
7834.42255041072
 21
3620.32727689388
 31
0.0
  0
LINE
  5
14BDA
330
747D
100
AcDbEntity
  8
部品1
 48
0.2
100
AcDbLine
 10
7854.422550410719
 20
3622.827276893879
 30
0.0
 11
7834.422550410718
 21
3622.827276893879
 31
0.0
  0
LINE
  5
14C02
330
747D
100
AcDbEntity
  8
部品1
100
AcDbLine
 10
7124.4849982394
 20
5407.077276893857
 30
0.0
 11
7834.422550410718
 21
5407.07727689386
 31
0.0
  0
LINE
  5
14C0D
330
747D
100
AcDbEntity
  8
部品1
100
AcDbLine
 10
7854.422550410721
 20
5407.077276893859
 30
0.0
 11
7854.484998239401
 21
5407.07727689386
 31
0.0
  0
LINE
  5
14C0E
330
747D
100
AcDbEntity
  8
部品1
 48
0.2
100
AcDbLine
 10
7854.422550410719
 20
5400.327276893862
 30
0.0
 11
7834.422550410718
 21
5400.327276893862
 31
0.0
  0
LINE
  5
14C0F
330
747D
100
AcDbEntity
  8
部品1
100
AcDbLine
 10
7854.422550410721
 20
5407.077276893862
 30
0.0
 11
7854.484998239401
 21
5407.07727689386
 31
0.0
  0
LINE
  5
14C10
330
747D
100
AcDbEntity
  8
部品1
 48
50.0
100
AcDbLine
 10
7834.422550410718
 20
5400.327276893862
 30
0.0
 11
7834.422550410718
 21
5407.077276893862
 31
0.0
  0
LINE
  5
14C11
330
747D
100
AcDbEntity
  8
細線
 48
50.0
100
AcDbLine
 10
7834.422550410718
 20
5407.077276893862
 30
0.0
 11
7834.422550410718
 21
5407.327276893862
 31
0.0
  0
LINE
  5
14C12
330
747D
100
AcDbEntity
  8
細線
 48
0.2
100
AcDbLine
 10
7852.106541707226
 20
5408.027276893863
 30
0.0
 11
7840.738559114214
 21
5408.027276893863
 31
0.0
  0
ARC
  5
14C13
330
747D
100
AcDbEntity
  8
細線
 48
0.2
100
AcDbCircle
 10
7846.422550410719
 20
5390.527276893865
 30
0.0
 40
18.49999999999796
100
AcDbArc
 50
73.39845040097829
 51
106.6015495990228
  0
ARC
  5
14C14
330
747D
100
AcDbEntity
  8
細線
 48
0.2
100
AcDbCircle
 10
7841.422550410719
 20
5407.29778672511
 30
0.0
 40
1.0
100
AcDbArc
 50
106.6015495990225
 51
180.0000000000016
  0
LINE
  5
14C15
330
747D
100
AcDbEntity
  8
細線
 48
0.2
100
AcDbLine
 10
7854.422550410719
 20
5404.827276893862
 30
0.0
 11
7834.42255041072
 21
5404.827276893862
 31
0.0
  0
LINE
  5
14C16
330
747D
100
AcDbEntity
  8
細線
 48
0.2
100
AcDbLine
 10
7854.422550410719
 20
5402.827276893862
 30
0.0
 11
7834.42255041072
 21
5402.827276893862
 31
0.0
  0
LINE
  5
14C17
330
747D
100
AcDbEntity
  8
細線
 48
0.2
100
AcDbLine
 10
7854.422550410719
 20
5407.327276893862
 30
0.0
 11
7834.42255041072
 21
5407.327276893862
 31
0.0
  0
LINE
  5
14C18
330
747D
100
AcDbEntity
  8
細線
 48
50.0
100
AcDbLine
 10
7850.410203262379
 20
5404.827276893862
 30
0.0
 11
7850.410203262379
 21
5402.827276893862
 31
0.0
  0
LINE
  5
14C19
330
747D
100
AcDbEntity
  8
細線
 48
50.0
100
AcDbLine
 10
7842.559793216415
 20
5404.827276893862
 30
0.0
 11
7842.559793216416
 21
5402.827276893862
 31
0.0
  0
LINE
  5
14C1A
330
747D
100
AcDbEntity
  8
細線
 48
0.1
100
AcDbLine
 10
7854.422550410719
 20
5407.327276893862
 30
0.0
 11
7854.422550410719
 21
5400.327276893862
 31
0.0
  0
ARC
  5
14C1B
330
747D
100
AcDbEntity
  8
細線
 48
0.2
100
AcDbCircle
 10
7851.422550410719
 20
5407.29778672511
 30
0.0
 40
1.0
100
AcDbArc
 50
0.0
 51
73.39845040097829
  0
DIMENSION
  5
14C24
330
747D
100
AcDbEntity
  8
寸法
 48
50.0
100
AcDbDimension
  2
*D26
 10
7134.484998239409
 20
9522.174134733532
 30
0.0
 11
7489.484998239409
 21
9622.174134733533
 31
0.0
 12
820.0
 22
0.0
 32
0.0
 70
    32
 71
     5
 42
-1.0
  3
INABA_S40G
100
AcDbAlignedDimension
 13
7844.484998239408
 23
9306.365915108548
 33
0.0
 14
7134.484998239409
 24
9306.365915108532
 34
0.0
100
AcDbRotatedDimension
  0
LINE
  5
14C25
330
747D
100
AcDbEntity
  8
部品1
 48
50.0
100
AcDbLine
 10
7079.484998239387
 20
8411.365915108472
 30
0.0
 11
7079.484998239387
 21
9251.365915108481
 31
0.0
  0
LINE
  5
14C26
330
747D
100
AcDbEntity
  8
部品1
 48
50.0
100
AcDbLine
 10
7134.984991895099
 20
8487.865915133141
 30
0.0
 11
7134.984994867963
 21
8826.865915108482
 31
0.0
  0
LINE
  5
14C27
330
747D
100
AcDbEntity
  8
部品1
 48
50.0
100
AcDbLine
 10
7023.984998239384
 20
8487.865915108482
 30
0.0
 11
7023.984998239362
 21
8826.865915108538
 31
0.0
  0
LINE
  5
14C28
330
747D
100
AcDbEntity
  8
部品1
 48
50.0
100
AcDbLine
 10
7051.484998239387
 20
8411.365915108472
 30
0.0
 11
7051.484998239333
 21
9278.365915108482
 31
0.0
  0
LINE
  5
14C29
330
747D
100
AcDbEntity
  8
部品1
 48
50.0
100
AcDbLine
 10
7107.484998239387
 20
8411.365915108472
 30
0.0
 11
7107.484998239332
 21
9306.365915108482
 31
0.0
  0
LINE
  5
14C2A
330
747D
100
AcDbEntity
  8
破線
 48
10.0
100
AcDbLine
 10
7000.484998239395
 20
8511.365915108479
 30
0.0
 11
7000.484989884842
 21
8826.865915108536
 31
0.0
  0
LINE
  5
14C2B
330
747D
100
AcDbEntity
  8
破線
 48
10.0
100
AcDbLine
 10
7158.484998239393
 20
8511.365915108489
 30
0.0
 11
7158.484985808283
 21
8826.865915108482
 31
0.0
  0
DIMENSION
  5
14C2C
330
747D
100
AcDbEntity
  8
寸法
100
AcDbDimension
  2
*D25
 10
7811.291501945373
 20
8607.8188048655
 30
0.0
 11
7488.332060357608
 21
8607.8188048655
 31
0.0
 12
820.0
 22
0.0
 32
0.0
 70
   160
 71
     5
 42
-1.0
  3
INABA_S40G
100
AcDbAlignedDimension
 13
7108.98499823934
 23
8826.865915108482
 33
0.0
 14
7869.984998239352
 24
8826.865915108479
 34
0.0
100
AcDbRotatedDimension
1001
ACAD
1000
DSTYLE
1002
{
1002
}
  0
LINE
  5
14C2E
330
747D
100
AcDbEntity
  8
部品1
 48
5.0
100
AcDbLine
 10
7856.484998239382
 20
8385.865915108473
 30
0.0
 11
7103.484998239402
 21
8385.865915108473
 31
0.0
  0
LINE
  5
14C2F
330
747D
100
AcDbEntity
  8
部品1
100
AcDbLine
 10
7854.484998239399
 20
8382.365915108525
 30
0.0
 11
7124.4849982394
 21
8382.365915108463
 31
0.0
  0
LINE
  5
14C30
330
747D
100
AcDbEntity
  8
破線
 48
10.0
100
AcDbLine
 10
7819.484998239385
 20
8511.365915108525
 30
0.0
 11
7158.484998239393
 21
8511.365915108489
 31
0.0
  0
LINE
  5
14C31
330
747D
100
AcDbEntity
  8
部品1
100
AcDbLine
 10
7842.984026814592
 20
8487.866020821368
 30
0.0
 11
7134.984998239385
 21
8487.865915133143
 31
0.0
  0
LINE
  5
14C32
330
747D
100
AcDbEntity
  8
部品1
 48
5.0
100
AcDbLine
 10
7051.484998239387
 20
8411.365915108472
 30
0.0
 11
7107.484998239387
 21
8411.365915108472
 31
0.0
  0
LINE
  5
14C33
330
747D
100
AcDbEntity
  8
部品1
 48
50.0
100
AcDbLine
 10
7051.484998239387
 20
8459.865915108471
 30
0.0
 11
7023.984998239384
 21
8487.865915108482
 31
0.0
  0
LINE
  5
14C34
330
747D
100
AcDbEntity
  8
部品1
 48
0.2
100
AcDbLine
 10
7021.54744606808
 20
8349.363545063692
 30
0.0
 11
7026.547446068079
 21
8349.363545063692
 31
0.0
  0
ARC
  5
14C35
330
747D
100
AcDbEntity
  8
細線
 48
0.2
100
AcDbCircle
 10
7026.547446068079
 20
8357.363545063693
 30
0.0
 40
4.049999999999999
100
AcDbArc
 50
194.2603506853988
 51
345.7396493146012
  0
ARC
  5
14C36
330
747D
100
AcDbEntity
  8
部品1
 48
0.2
100
AcDbCircle
 10
7021.54744606808
 20
8357.363545063693
 30
0.0
 40
8.0
100
AcDbArc
 50
187.1636477221926
 51
269.9999999999992
  0
ARC
  5
14C37
330
747D
100
AcDbEntity
  8
部品1
 48
0.2
100
AcDbCircle
 10
7026.547446068079
 20
8357.363545063693
 30
0.0
 40
8.0
100
AcDbArc
 50
270.0
 51
352.8363522778074
  0
LINE
  5
14C38
330
747D
100
AcDbEntity
  8
部品1
 48
5.0
100
AcDbLine
 10
7047.484998239403
 20
8411.365915108472
 30
0.0
 11
7024.484998239401
 21
8411.365915108472
 31
0.0
  0
LINE
  5
14C39
330
747D
100
AcDbEntity
  8
部品1
 48
5.0
100
AcDbLine
 10
7024.484998239403
 20
8411.365915108474
 30
0.0
 11
7024.484998239403
 21
8385.865915108473
 31
0.0
  0
LINE
  5
14C3A
330
747D
100
AcDbEntity
  8
部品1
 48
5.0
100
AcDbLine
 10
7055.484998239403
 20
8411.365915108472
 30
0.0
 11
7055.484998239403
 21
8385.865915108473
 31
0.0
  0
LINE
  5
14C3B
330
747D
100
AcDbEntity
  8
部品1
 48
5.0
100
AcDbLine
 10
7036.484998239403
 20
8385.865915108473
 30
0.0
 11
7036.484998239403
 21
8356.365915108472
 31
0.0
  0
LINE
  5
14C3C
330
747D
100
AcDbEntity
  8
部品1
100
AcDbLine
 10
7036.484998239401
 20
8385.865915108418
 30
0.0
 11
7036.484998239398
 21
8356.365915108467
 31
0.0
  0
LINE
  5
14C3D
330
747D
100
AcDbEntity
  8
部品1
100
AcDbLine
 10
7034.484998239399
 20
8382.365915108525
 30
0.0
 11
7034.484998239399
 21
8356.365915108469
 31
0.0
  0
LINE
  5
14C3E
330
747D
100
AcDbEntity
  8
細線
 48
50.0
100
AcDbLine
 10
7248.484998239401
 20
8382.365915108437
 30
0.0
 11
7248.484998239401
 21
8356.365915108391
 31
0.0
  0
LINE
  5
14C3F
330
747D
100
AcDbEntity
  8
部品1
 48
50.0
100
AcDbLine
 10
7134.984998239385
 20
8487.865915133143
 30
0.0
 11
7107.484998239387
 21
8459.865915108471
 31
0.0
  0
LINE
  5
14C40
330
747D
100
AcDbEntity
  8
部品1
 48
5.0
100
AcDbLine
 10
7111.484998239403
 20
8411.365915108472
 30
0.0
 11
7134.484998239402
 21
8411.365915108472
 31
0.0
  0
LINE
  5
14C41
330
747D
100
AcDbEntity
  8
部品1
 48
5.0
100
AcDbLine
 10
7103.484998239403
 20
8411.365915108472
 30
0.0
 11
7103.484998239402
 21
8385.865915108473
 31
0.0
  0
LINE
  5
14C42
330
747D
100
AcDbEntity
  8
部品1
 48
5.0
100
AcDbLine
 10
7134.484998239402
 20
8411.365915108472
 30
0.0
 11
7134.484998239404
 21
8385.865915108473
 31
0.0
  0
LINE
  5
14C43
330
747D
100
AcDbEntity
  8
部品1
 48
5.0
100
AcDbLine
 10
7122.484998239404
 20
8385.865915108473
 30
0.0
 11
7122.484998239404
 21
8356.365915108472
 31
0.0
  0
LINE
  5
14C44
330
747D
100
AcDbEntity
  8
部品1
100
AcDbLine
 10
7124.4849982394
 20
8382.365915108463
 30
0.0
 11
7124.484998239399
 21
8356.365915108474
 31
0.0
  0
LINE
  5
14C45
330
747D
100
AcDbEntity
  8
部品1
100
AcDbLine
 10
7122.484998239402
 20
8385.865915108425
 30
0.0
 11
7122.484998239404
 21
8356.365915108472
 31
0.0
  0
LINE
  5
14C46
330
747D
100
AcDbEntity
  8
細線
 48
50.0
100
AcDbLine
 10
7434.484998239401
 20
8382.365915108428
 30
0.0
 11
7434.484998239401
 21
8356.365915108391
 31
0.0
  0
LINE
  5
14C47
330
747D
100
AcDbEntity
  8
細線
 48
50.0
100
AcDbLine
 10
7474.484998239401
 20
8382.365915108428
 30
0.0
 11
7474.484998239401
 21
8356.365915108391
 31
0.0
  0
LINE
  5
14C48
330
747D
100
AcDbEntity
  8
細線
 48
50.0
100
AcDbLine
 10
7701.484998239401
 20
8382.365915108641
 30
0.0
 11
7701.484998239401
 21
8356.365915108602
 31
0.0
  0
LINE
  5
14C49
330
747D
100
AcDbEntity
  8
細線
 48
50.0
100
AcDbLine
 10
7661.484998239401
 20
8382.365915108641
 30
0.0
 11
7661.484998239401
 21
8356.365915108602
 31
0.0
  0
LINE
  5
14C4A
330
747D
100
AcDbEntity
  8
部品1
100
AcDbLine
 10
7107.484998239332
 20
9278.365915108484
 30
0.0
 11
7871.484998239409
 21
9278.365915108528
 31
0.0
  0
LINE
  5
14C4B
330
747D
100
AcDbEntity
  8
部品1
100
AcDbLine
 10
7108.984998239339
 20
8826.865915108482
 30
0.0
 11
7869.98499823934
 21
8826.865915108475
 31
0.0
  0
LINE
  5
14C4C
330
747D
100
AcDbEntity
  8
細線
 48
50.0
100
AcDbLine
 10
7869.98499823934
 20
9276.865915108476
 30
0.0
 11
7108.984998239339
 21
8826.865915108482
 31
0.0
  0
LINE
  5
14C4D
330
747D
100
AcDbEntity
  8
細線
 48
50.0
100
AcDbLine
 10
7869.98499823934
 20
8826.865915108475
 30
0.0
 11
7108.98499823934
 21
9276.865915108478
 31
0.0
  0
LINE
  5
14C4E
330
747D
100
AcDbEntity
  8
部品1
100
AcDbLine
 10
7108.98499823934
 20
9276.865915108484
 30
0.0
 11
7869.98499823934
 21
9276.865915108476
 31
0.0
  0
LINE
  5
14C4F
330
747D
100
AcDbEntity
  8
部品1
 48
50.0
100
AcDbLine
 10
7108.98499823934
 20
9276.865915108478
 30
0.0
 11
7108.98499823934
 21
8826.865915108482
 31
0.0
  0
LINE
  5
14C50
330
747D
100
AcDbEntity
  8
部品1
 48
50.0
100
AcDbLine
 10
7049.985004917037
 20
9276.865915108542
 30
0.0
 11
7049.985004917037
 21
8826.865915108543
 31
0.0
  0
LINE
  5
14C51
330
747D
100
AcDbEntity
  8
部品1
 48
50.0
100
AcDbLine
 10
7079.484998239379
 20
8869.365915108481
 30
0.0
 11
7107.484998239361
 21
8869.365915108483
 31
0.0
  0
LINE
  5
14C52
330
747D
100
AcDbEntity
  8
部品1
 48
50.0
100
AcDbLine
 10
7079.484998239379
 20
8831.365915108483
 30
0.0
 11
7107.484998239361
 21
8831.365915108483
 31
0.0
  0
LINE
  5
14C53
330
747D
100
AcDbEntity
  8
部品1
 48
5.0
100
AcDbLine
 10
7079.484998239387
 20
8831.365915108476
 30
0.0
 11
7051.484998239335
 21
8831.365915108483
 31
0.0
  0
LINE
  5
14C54
330
747D
100
AcDbEntity
  8
部品1
 48
5.0
100
AcDbLine
 10
7107.484998239335
 20
9251.365915108481
 30
0.0
 11
7051.484998239335
 21
9251.365915108481
 31
0.0
  0
LINE
  5
14C55
330
747D
100
AcDbEntity
  8
部品1
 48
5.0
100
AcDbLine
 10
7054.194272686581
 20
9306.365915108477
 30
0.0
 11
7076.865701258009
 21
9278.365915108482
 31
0.0
  0
LINE
  5
14C56
330
747D
100
AcDbEntity
  8
部品1
 48
5.0
100
AcDbLine
 10
7024.484998239405
 20
9278.365915108478
 30
0.0
 11
7024.484998239405
 21
9306.365915108477
 31
0.0
  0
LINE
  5
14C57
330
747D
100
AcDbEntity
  8
部品1
 48
50.0
100
AcDbLine
 10
7049.985004917037
 20
9276.811402448727
 30
0.0
 11
7051.484998239333
 21
9278.365915108478
 31
0.0
  0
LINE
  5
14C58
330
747D
100
AcDbEntity
  8
部品1
 48
5.0
100
AcDbLine
 10
7134.484998239409
 20
9306.365915108484
 30
0.0
 11
7134.484998239405
 21
9278.365915108485
 31
0.0
  0
LINE
  5
14C59
330
747D
100
AcDbEntity
  8
部品1
 48
50.0
100
AcDbLine
 10
7108.98499823934
 20
9276.81139358822
 30
0.0
 11
7107.484998239333
 21
9278.365915108482
 31
0.0
  0
LINE
  5
14C5A
330
747D
100
AcDbEntity
  8
細線
 48
50.0
100
AcDbLine
 10
7459.48499823941
 20
9284.865915108543
 30
0.0
 11
7459.484998239407
 21
9306.365915108541
 31
0.0
  0
LINE
  5
14C5B
330
747D
100
AcDbEntity
  8
細線
 48
50.0
100
AcDbLine
 10
7519.484998239409
 20
9284.865915108545
 30
0.0
 11
7519.484998239406
 21
9306.365915108548
 31
0.0
  0
LINE
  5
14C5C
330
747D
100
AcDbEntity
  8
細線
 48
50.0
100
AcDbLine
 10
7519.484998239409
 20
9284.865915108545
 30
0.0
 11
7459.484998239408
 21
9284.865915108541
 31
0.0
  0
LINE
  5
14C5D
330
747D
100
AcDbEntity
  8
想像線
 48
10.0
100
AcDbLine
 10
7854.484998239399
 20
8356.365915108483
 30
0.0
 11
7854.484998239399
 21
7635.448271452691
 31
0.0
  0
ARC
  5
14C5E
330
747D
100
AcDbEntity
  8
想像線
 48
10.0
100
AcDbCircle
 10
7847.132947562241
 20
8358.06080848406
 30
0.0
 40
722.6499369155619
100
AcDbArc
 50
180.1343808685487
 51
270.5829222700353
  0
DIMENSION
  5
14C99
330
747D
100
AcDbEntity
  8
寸法
 48
50.0
100
AcDbDimension
  2
*D27
 10
7134.484998239409
 20
9522.174134733532
 30
0.0
 11
7079.484998239408
 21
9622.174134733533
 31
0.0
 12
820.0
 22
0.0
 32
0.0
 70
    32
 71
     5
 42
-1.0
  3
INABA_S40G
100
AcDbAlignedDimension
 13
7024.484998239405
 23
9306.365915108555
 33
0.0
 14
7134.484998239409
 24
9306.365915108532
 34
0.0
100
AcDbRotatedDimension
  0
LINE
  5
14CE3
330
747D
100
AcDbEntity
  8
細線
100
AcDbLine
 10
3896.692537418146
 20
4470.577276893862
 30
0.0
 11
3896.692537418146
 21
4552.577276893862
 31
0.0
  0
LINE
  5
14CE4
330
747D
100
AcDbEntity
  8
細線
100
AcDbLine
 10
3878.4849982394
 20
4561.577276893863
 30
0.0
 11
3878.4849982394
 21
4461.577276893862
 31
0.0
  0
ARC
  5
14CE5
330
747D
100
AcDbEntity
  8
細線
100
AcDbCircle
 10
4154.484998239399
 20
4511.577276893862
 30
0.0
 40
298.5
100
AcDbArc
 50
169.578549027269
 51
190.4214509727309
  0
ARC
  5
14CE6
330
747D
100
AcDbEntity
  8
細線
100
AcDbCircle
 10
4154.484998239399
 20
4511.577276893862
 30
0.0
 40
294.0
100
AcDbArc
 50
171.212062677364
 51
188.7879373226359
  0
ARC
  5
14CE7
330
747D
100
AcDbEntity
  8
細線
100
AcDbCircle
 10
3591.882216331475
 20
4511.577276893862
 30
0.0
 40
294.0
100
AcDbArc
 50
351.900449161722
 51
8.099550838278029
  0
LINE
  5
14CE8
330
747D
100
AcDbEntity
  8
細線
100
AcDbLine
 10
3906.4849982394
 20
4467.577276893861
 30
0.0
 11
3906.4849982394
 21
4555.577276893862
 31
0.0
  0
LINE
  5
14CE9
330
747D
100
AcDbEntity
  8
細線
100
AcDbLine
 10
3910.984998239399
 20
4458.577276893862
 30
0.0
 11
3910.984998239399
 21
4564.577276893862
 31
0.0
  0
ARC
  5
14CEA
330
747D
100
AcDbEntity
  8
部品1
100
AcDbCircle
 10
4154.484998239399
 20
4511.577276893862
 30
0.0
 40
300.0
100
AcDbArc
 50
169.4161974034894
 51
190.5838025965105
  0
LINE
  5
14CEB
330
747D
100
AcDbEntity
  8
部品1
100
AcDbLine
 10
3912.4849982394
 20
4457.577276893863
 30
0.0
 11
3912.4849982394
 21
4565.577276893862
 31
0.0
  0
ARC
  5
14CEC
330
747D
100
AcDbEntity
  8
細線
100
AcDbCircle
 10
3900.4849982394
 20
4467.577276893861
 30
0.0
 40
6.0
100
AcDbArc
 50
270.0
 51
0.0
  0
LINE
  5
14CED
330
747D
100
AcDbEntity
  8
細線
100
AcDbLine
 10
3866.318379770154
 20
4453.077276893862
 30
0.0
 11
3905.4849982394
 21
4453.077276893862
 31
0.0
  0
LINE
  5
14CEE
330
747D
100
AcDbEntity
  8
細線
100
AcDbLine
 10
3878.4849982394
 20
4467.577276893861
 30
0.0
 11
3879.979422149235
 21
4467.577276893861
 31
0.0
  0
ARC
  5
14CEF
330
747D
100
AcDbEntity
  8
細線
100
AcDbCircle
 10
3879.979422149235
 20
4470.577276893862
 30
0.0
 40
3.0
100
AcDbArc
 50
270.0
 51
351.9004491617184
  0
LINE
  5
14CF0
330
747D
100
AcDbEntity
  8
細線
100
AcDbLine
 10
3878.4849982394
 20
4464.577276893861
 30
0.0
 11
3890.692537418146
 21
4464.577276893861
 31
0.0
  0
ARC
  5
14CF1
330
747D
100
AcDbEntity
  8
細線
100
AcDbCircle
 10
3869.865954603877
 20
4467.577276893861
 30
0.0
 40
6.0
100
AcDbArc
 50
188.7879373226349
 51
270.0
  0
ARC
  5
14CF2
330
747D
100
AcDbEntity
  8
細線
100
AcDbCircle
 10
3866.318379770154
 20
4458.577276893862
 30
0.0
 40
5.5
100
AcDbArc
 50
190.4214509727298
 51
269.9999999999997
  0
LINE
  5
14CF3
330
747D
100
AcDbEntity
  8
細線
100
AcDbLine
 10
3878.4849982394
 20
4467.577784792424
 30
0.0
 11
3865.006293740577
 21
4467.577784792424
 31
0.0
  0
ARC
  5
14CF4
330
747D
100
AcDbEntity
  8
細線
100
AcDbCircle
 10
3890.692537418146
 20
4470.577276893862
 30
0.0
 40
6.0
100
AcDbArc
 50
270.0
 51
360.0
  0
LINE
  5
14CF5
330
747D
100
AcDbEntity
  8
細線
100
AcDbLine
 10
3869.865954603877
 20
4461.577276893862
 30
0.0
 11
3900.4849982394
 21
4461.577276893862
 31
0.0
  0
ARC
  5
14CF6
330
747D
100
AcDbEntity
  8
細線
100
AcDbCircle
 10
3905.4849982394
 20
4458.577276893862
 30
0.0
 40
5.5
100
AcDbArc
 50
270.0
 51
0.0
  0
ARC
  5
14CF7
330
747D
100
AcDbEntity
  8
部品1
100
AcDbCircle
 10
3865.486728348385
 20
4457.577276893863
 30
0.0
 40
6.0
100
AcDbArc
 50
190.5838025965097
 51
270.0
  0
ARC
  5
14CF8
330
747D
100
AcDbEntity
  8
部品1
100
AcDbCircle
 10
3906.4849982394
 20
4457.577276893863
 30
0.0
 40
6.0
100
AcDbArc
 50
270.0
 51
0.0
  0
LINE
  5
14CF9
330
747D
100
AcDbEntity
  8
部品1
100
AcDbLine
 10
3865.486728348385
 20
4451.577276893862
 30
0.0
 11
3906.4849982394
 21
4451.577276893862
 31
0.0
  0
ARC
  5
14CFA
330
747D
100
AcDbEntity
  8
細線
100
AcDbCircle
 10
3900.4849982394
 20
4555.577276893862
 30
0.0
 40
6.0
100
AcDbArc
 50
0.0
 51
90.0
  0
LINE
  5
14CFB
330
747D
100
AcDbEntity
  8
細線
100
AcDbLine
 10
3905.4849982394
 20
4570.077276893862
 30
0.0
 11
3866.318379770154
 21
4570.077276893862
 31
0.0
  0
LINE
  5
14CFC
330
747D
100
AcDbEntity
  8
細線
100
AcDbLine
 10
3879.979422149233
 20
4555.577276893862
 30
0.0
 11
3878.4849982394
 21
4555.577276893862
 31
0.0
  0
ARC
  5
14CFD
330
747D
100
AcDbEntity
  8
細線
100
AcDbCircle
 10
3879.979422149233
 20
4552.577276893862
 30
0.0
 40
3.0
100
AcDbArc
 50
8.099550838277986
 51
90.0
  0
LINE
  5
14CFE
330
747D
100
AcDbEntity
  8
細線
100
AcDbLine
 10
3890.692537418146
 20
4558.577276893863
 30
0.0
 11
3878.4849982394
 21
4558.577276893863
 31
0.0
  0
ARC
  5
14CFF
330
747D
100
AcDbEntity
  8
細線
100
AcDbCircle
 10
3869.865954603877
 20
4555.577276893862
 30
0.0
 40
6.0
100
AcDbArc
 50
90.0
 51
171.2120626773636
  0
LINE
  5
14D00
330
747D
100
AcDbEntity
  8
細線
100
AcDbLine
 10
3878.4849982394
 20
4555.576768995299
 30
0.0
 11
3865.721671023433
 21
4555.576768995299
 31
0.0
  0
ARC
  5
14D01
330
747D
100
AcDbEntity
  8
細線
100
AcDbCircle
 10
3866.318379770154
 20
4564.577276893862
 30
0.0
 40
5.5
100
AcDbArc
 50
89.99999999999969
 51
169.5785490272683
  0
ARC
  5
14D02
330
747D
100
AcDbEntity
  8
細線
100
AcDbCircle
 10
3890.692537418146
 20
4552.577276893862
 30
0.0
 40
6.0
100
AcDbArc
 50
0.0
 51
90.0
  0
LINE
  5
14D03
330
747D
100
AcDbEntity
  8
細線
100
AcDbLine
 10
3900.4849982394
 20
4561.577276893863
 30
0.0
 11
3869.865954603877
 21
4561.577276893863
 31
0.0
  0
ARC
  5
14D04
330
747D
100
AcDbEntity
  8
細線
100
AcDbCircle
 10
3905.4849982394
 20
4564.577276893862
 30
0.0
 40
5.5
100
AcDbArc
 50
0.0
 51
90.0
  0
LINE
  5
14D05
330
747D
100
AcDbEntity
  8
部品1
100
AcDbLine
 10
3906.4849982394
 20
4571.577276893862
 30
0.0
 11
3865.486728348385
 21
4571.577276893862
 31
0.0
  0
ARC
  5
14D06
330
747D
100
AcDbEntity
  8
部品1
100
AcDbCircle
 10
3865.486728348385
 20
4565.577276893862
 30
0.0
 40
6.0
100
AcDbArc
 50
90.0
 51
169.4161974034886
  0
ARC
  5
14D07
330
747D
100
AcDbEntity
  8
部品1
100
AcDbCircle
 10
3906.4849982394
 20
4565.577276893862
 30
0.0
 40
6.0
100
AcDbArc
 50
0.0
 51
90.0
  0
CIRCLE
  5
14D08
330
747D
100
AcDbEntity
  8
細線
 48
20.0
100
AcDbCircle
 10
3885.985863293893
 20
4612.077276893862
 30
0.0
 40
20.0
  0
CIRCLE
  5
14D09
330
747D
100
AcDbEntity
  8
細線
 48
20.0
100
AcDbCircle
 10
3885.985863293893
 20
4612.077276893862
 30
0.0
 40
10.0
  0
LINE
  5
14D0A
330
747D
100
AcDbEntity
  8
細線
100
AcDbLine
 10
4716.692537418145
 20
4470.577276893862
 30
0.0
 11
4716.692537418145
 21
4552.577276893862
 31
0.0
  0
LINE
  5
14D0B
330
747D
100
AcDbEntity
  8
細線
100
AcDbLine
 10
4698.4849982394
 20
4561.577276893863
 30
0.0
 11
4698.4849982394
 21
4461.577276893862
 31
0.0
  0
ARC
  5
14D0C
330
747D
100
AcDbEntity
  8
細線
100
AcDbCircle
 10
4974.4849982394
 20
4511.577276893862
 30
0.0
 40
298.5
100
AcDbArc
 50
169.578549027269
 51
190.4214509727309
  0
ARC
  5
14D0D
330
747D
100
AcDbEntity
  8
細線
100
AcDbCircle
 10
4974.4849982394
 20
4511.577276893862
 30
0.0
 40
294.0
100
AcDbArc
 50
171.212062677364
 51
188.7879373226359
  0
ARC
  5
14D0E
330
747D
100
AcDbEntity
  8
細線
100
AcDbCircle
 10
4411.882216331475
 20
4511.577276893862
 30
0.0
 40
294.0
100
AcDbArc
 50
351.900449161722
 51
8.099550838278029
  0
LINE
  5
14D0F
330
747D
100
AcDbEntity
  8
細線
100
AcDbLine
 10
4726.484998239399
 20
4467.577276893861
 30
0.0
 11
4726.484998239399
 21
4555.577276893862
 31
0.0
  0
LINE
  5
14D10
330
747D
100
AcDbEntity
  8
細線
100
AcDbLine
 10
4730.984998239399
 20
4458.577276893862
 30
0.0
 11
4730.984998239399
 21
4564.577276893862
 31
0.0
  0
ARC
  5
14D11
330
747D
100
AcDbEntity
  8
部品1
100
AcDbCircle
 10
4974.4849982394
 20
4511.577276893862
 30
0.0
 40
300.0
100
AcDbArc
 50
169.4161974034894
 51
190.5838025965105
  0
LINE
  5
14D12
330
747D
100
AcDbEntity
  8
部品1
100
AcDbLine
 10
4732.484998239399
 20
4457.577276893863
 30
0.0
 11
4732.484998239399
 21
4565.577276893862
 31
0.0
  0
ARC
  5
14D13
330
747D
100
AcDbEntity
  8
細線
100
AcDbCircle
 10
4720.4849982394
 20
4467.577276893861
 30
0.0
 40
6.0
100
AcDbArc
 50
270.0
 51
0.0
  0
LINE
  5
14D14
330
747D
100
AcDbEntity
  8
細線
100
AcDbLine
 10
4686.318379770153
 20
4453.077276893862
 30
0.0
 11
4725.4849982394
 21
4453.077276893862
 31
0.0
  0
LINE
  5
14D15
330
747D
100
AcDbEntity
  8
細線
100
AcDbLine
 10
4698.4849982394
 20
4467.577276893861
 30
0.0
 11
4699.979422149235
 21
4467.577276893861
 31
0.0
  0
ARC
  5
14D16
330
747D
100
AcDbEntity
  8
細線
100
AcDbCircle
 10
4699.979422149235
 20
4470.577276893862
 30
0.0
 40
3.0
100
AcDbArc
 50
270.0
 51
351.9004491617184
  0
LINE
  5
14D17
330
747D
100
AcDbEntity
  8
細線
100
AcDbLine
 10
4698.4849982394
 20
4464.577276893861
 30
0.0
 11
4710.692537418146
 21
4464.577276893861
 31
0.0
  0
ARC
  5
14D18
330
747D
100
AcDbEntity
  8
細線
100
AcDbCircle
 10
4689.865954603877
 20
4467.577276893861
 30
0.0
 40
6.0
100
AcDbArc
 50
188.7879373226349
 51
270.0
  0
ARC
  5
14D19
330
747D
100
AcDbEntity
  8
細線
100
AcDbCircle
 10
4686.318379770153
 20
4458.577276893862
 30
0.0
 40
5.5
100
AcDbArc
 50
190.4214509727298
 51
269.9999999999997
  0
LINE
  5
14D1A
330
747D
100
AcDbEntity
  8
細線
100
AcDbLine
 10
4698.4849982394
 20
4467.577784792424
 30
0.0
 11
4685.006293740577
 21
4467.577784792424
 31
0.0
  0
ARC
  5
14D1B
330
747D
100
AcDbEntity
  8
細線
100
AcDbCircle
 10
4710.692537418146
 20
4470.577276893862
 30
0.0
 40
6.0
100
AcDbArc
 50
270.0
 51
360.0
  0
LINE
  5
14D1C
330
747D
100
AcDbEntity
  8
細線
100
AcDbLine
 10
4689.865954603877
 20
4461.577276893862
 30
0.0
 11
4720.4849982394
 21
4461.577276893862
 31
0.0
  0
ARC
  5
14D1D
330
747D
100
AcDbEntity
  8
細線
100
AcDbCircle
 10
4725.4849982394
 20
4458.577276893862
 30
0.0
 40
5.5
100
AcDbArc
 50
270.0
 51
0.0
  0
ARC
  5
14D1E
330
747D
100
AcDbEntity
  8
部品1
100
AcDbCircle
 10
4685.486728348385
 20
4457.577276893863
 30
0.0
 40
6.0
100
AcDbArc
 50
190.5838025965097
 51
270.0
  0
ARC
  5
14D1F
330
747D
100
AcDbEntity
  8
部品1
100
AcDbCircle
 10
4726.484998239399
 20
4457.577276893863
 30
0.0
 40
6.0
100
AcDbArc
 50
270.0
 51
0.0
  0
LINE
  5
14D20
330
747D
100
AcDbEntity
  8
部品1
100
AcDbLine
 10
4685.486728348385
 20
4451.577276893862
 30
0.0
 11
4726.484998239399
 21
4451.577276893862
 31
0.0
  0
CIRCLE
  5
14D21
330
747D
100
AcDbEntity
  8
細線
 48
20.0
100
AcDbCircle
 10
4705.985863293892
 20
4612.077276893862
 30
0.0
 40
20.0
  0
CIRCLE
  5
14D22
330
747D
100
AcDbEntity
  8
細線
 48
20.0
100
AcDbCircle
 10
4705.985863293892
 20
4612.077276893862
 30
0.0
 40
10.0
  0
ARC
  5
14D23
330
747D
100
AcDbEntity
  8
細線
100
AcDbCircle
 10
4720.4849982394
 20
4555.577276893862
 30
0.0
 40
6.0
100
AcDbArc
 50
0.0
 51
90.0
  0
LINE
  5
14D24
330
747D
100
AcDbEntity
  8
細線
100
AcDbLine
 10
4725.4849982394
 20
4570.077276893862
 30
0.0
 11
4686.318379770153
 21
4570.077276893862
 31
0.0
  0
LINE
  5
14D25
330
747D
100
AcDbEntity
  8
細線
100
AcDbLine
 10
4699.979422149232
 20
4555.577276893862
 30
0.0
 11
4698.4849982394
 21
4555.577276893862
 31
0.0
  0
ARC
  5
14D26
330
747D
100
AcDbEntity
  8
細線
100
AcDbCircle
 10
4699.979422149232
 20
4552.577276893862
 30
0.0
 40
3.0
100
AcDbArc
 50
8.099550838277986
 51
90.0
  0
LINE
  5
14D27
330
747D
100
AcDbEntity
  8
細線
100
AcDbLine
 10
4710.692537418146
 20
4558.577276893863
 30
0.0
 11
4698.4849982394
 21
4558.577276893863
 31
0.0
  0
ARC
  5
14D28
330
747D
100
AcDbEntity
  8
細線
100
AcDbCircle
 10
4689.865954603877
 20
4555.577276893862
 30
0.0
 40
6.0
100
AcDbArc
 50
90.0
 51
171.2120626773636
  0
LINE
  5
14D29
330
747D
100
AcDbEntity
  8
細線
100
AcDbLine
 10
4698.4849982394
 20
4555.576768995299
 30
0.0
 11
4685.721671023432
 21
4555.576768995299
 31
0.0
  0
ARC
  5
14D2A
330
747D
100
AcDbEntity
  8
細線
100
AcDbCircle
 10
4686.318379770153
 20
4564.577276893862
 30
0.0
 40
5.5
100
AcDbArc
 50
89.99999999999969
 51
169.5785490272683
  0
ARC
  5
14D2B
330
747D
100
AcDbEntity
  8
細線
100
AcDbCircle
 10
4710.692537418146
 20
4552.577276893862
 30
0.0
 40
6.0
100
AcDbArc
 50
0.0
 51
90.0
  0
LINE
  5
14D2C
330
747D
100
AcDbEntity
  8
細線
100
AcDbLine
 10
4720.4849982394
 20
4561.577276893863
 30
0.0
 11
4689.865954603877
 21
4561.577276893863
 31
0.0
  0
ARC
  5
14D2D
330
747D
100
AcDbEntity
  8
細線
100
AcDbCircle
 10
4725.4849982394
 20
4564.577276893862
 30
0.0
 40
5.5
100
AcDbArc
 50
0.0
 51
90.0
  0
LINE
  5
14D2E
330
747D
100
AcDbEntity
  8
部品1
100
AcDbLine
 10
4726.484998239399
 20
4571.577276893862
 30
0.0
 11
4685.486728348385
 21
4571.577276893862
 31
0.0
  0
ARC
  5
14D2F
330
747D
100
AcDbEntity
  8
部品1
100
AcDbCircle
 10
4685.486728348385
 20
4565.577276893862
 30
0.0
 40
6.0
100
AcDbArc
 50
90.0
 51
169.4161974034886
  0
ARC
  5
14D30
330
747D
100
AcDbEntity
  8
部品1
100
AcDbCircle
 10
4726.484998239399
 20
4565.577276893862
 30
0.0
 40
6.0
100
AcDbArc
 50
0.0
 51
90.0
  0
LINE
  5
14D31
330
747D
100
AcDbEntity
  8
部品1
100
AcDbLine
 10
5552.4849982394
 20
4457.577276893863
 30
0.0
 11
5552.4849982394
 21
4565.577276893862
 31
0.0
  0
ARC
  5
14D32
330
747D
100
AcDbEntity
  8
部品1
100
AcDbCircle
 10
5794.4849982394
 20
4511.577276893862
 30
0.0
 40
300.0
100
AcDbArc
 50
169.4161974034894
 51
190.5838025965105
  0
LINE
  5
14D33
330
747D
100
AcDbEntity
  8
細線
100
AcDbLine
 10
5550.9849982394
 20
4458.577276893862
 30
0.0
 11
5550.9849982394
 21
4564.577276893862
 31
0.0
  0
LINE
  5
14D34
330
747D
100
AcDbEntity
  8
細線
100
AcDbLine
 10
5546.484998239399
 20
4467.577276893861
 30
0.0
 11
5546.484998239399
 21
4555.577276893862
 31
0.0
  0
ARC
  5
14D35
330
747D
100
AcDbEntity
  8
細線
100
AcDbCircle
 10
5231.882216331475
 20
4511.577276893862
 30
0.0
 40
294.0
100
AcDbArc
 50
351.900449161722
 51
8.099550838278029
  0
ARC
  5
14D36
330
747D
100
AcDbEntity
  8
細線
100
AcDbCircle
 10
5794.4849982394
 20
4511.577276893862
 30
0.0
 40
294.0
100
AcDbArc
 50
171.212062677364
 51
188.7879373226359
  0
ARC
  5
14D37
330
747D
100
AcDbEntity
  8
細線
100
AcDbCircle
 10
5794.4849982394
 20
4511.577276893862
 30
0.0
 40
298.5
100
AcDbArc
 50
169.578549027269
 51
190.4214509727309
  0
LINE
  5
14D38
330
747D
100
AcDbEntity
  8
細線
100
AcDbLine
 10
5518.4849982394
 20
4561.577276893863
 30
0.0
 11
5518.4849982394
 21
4461.577276893862
 31
0.0
  0
LINE
  5
14D39
330
747D
100
AcDbEntity
  8
細線
100
AcDbLine
 10
5536.692537418145
 20
4470.577276893862
 30
0.0
 11
5536.692537418145
 21
4552.577276893862
 31
0.0
  0
LINE
  5
14D3A
330
747D
100
AcDbEntity
  8
部品1
100
AcDbLine
 10
5505.486728348384
 20
4451.577276893862
 30
0.0
 11
5546.484998239399
 21
4451.577276893862
 31
0.0
  0
ARC
  5
14D3B
330
747D
100
AcDbEntity
  8
部品1
100
AcDbCircle
 10
5546.484998239399
 20
4457.577276893863
 30
0.0
 40
6.0
100
AcDbArc
 50
270.0
 51
0.0
  0
ARC
  5
14D3C
330
747D
100
AcDbEntity
  8
部品1
100
AcDbCircle
 10
5505.486728348384
 20
4457.577276893863
 30
0.0
 40
6.0
100
AcDbArc
 50
190.5838025965097
 51
270.0
  0
ARC
  5
14D3D
330
747D
100
AcDbEntity
  8
細線
100
AcDbCircle
 10
5545.4849982394
 20
4458.577276893862
 30
0.0
 40
5.5
100
AcDbArc
 50
270.0
 51
0.0
  0
LINE
  5
14D3E
330
747D
100
AcDbEntity
  8
細線
100
AcDbLine
 10
5509.865954603878
 20
4461.577276893862
 30
0.0
 11
5540.484998239399
 21
4461.577276893862
 31
0.0
  0
ARC
  5
14D3F
330
747D
100
AcDbEntity
  8
細線
100
AcDbCircle
 10
5530.692537418145
 20
4470.577276893862
 30
0.0
 40
6.0
100
AcDbArc
 50
270.0
 51
360.0
  0
LINE
  5
14D40
330
747D
100
AcDbEntity
  8
細線
100
AcDbLine
 10
5518.4849982394
 20
4467.577784792424
 30
0.0
 11
5505.006293740578
 21
4467.577784792424
 31
0.0
  0
ARC
  5
14D41
330
747D
100
AcDbEntity
  8
細線
100
AcDbCircle
 10
5506.318379770154
 20
4458.577276893862
 30
0.0
 40
5.5
100
AcDbArc
 50
190.4214509727298
 51
269.9999999999997
  0
ARC
  5
14D42
330
747D
100
AcDbEntity
  8
細線
100
AcDbCircle
 10
5509.865954603878
 20
4467.577276893861
 30
0.0
 40
6.0
100
AcDbArc
 50
188.7879373226349
 51
270.0
  0
LINE
  5
14D43
330
747D
100
AcDbEntity
  8
細線
100
AcDbLine
 10
5518.4849982394
 20
4464.577276893861
 30
0.0
 11
5530.692537418145
 21
4464.577276893861
 31
0.0
  0
ARC
  5
14D44
330
747D
100
AcDbEntity
  8
細線
100
AcDbCircle
 10
5519.979422149234
 20
4470.577276893862
 30
0.0
 40
3.0
100
AcDbArc
 50
270.0
 51
351.9004491617184
  0
LINE
  5
14D45
330
747D
100
AcDbEntity
  8
細線
100
AcDbLine
 10
5518.4849982394
 20
4467.577276893861
 30
0.0
 11
5519.979422149234
 21
4467.577276893861
 31
0.0
  0
LINE
  5
14D46
330
747D
100
AcDbEntity
  8
細線
100
AcDbLine
 10
5506.318379770154
 20
4453.077276893862
 30
0.0
 11
5545.4849982394
 21
4453.077276893862
 31
0.0
  0
ARC
  5
14D47
330
747D
100
AcDbEntity
  8
細線
100
AcDbCircle
 10
5540.484998239399
 20
4467.577276893861
 30
0.0
 40
6.0
100
AcDbArc
 50
270.0
 51
0.0
  0
ARC
  5
14D48
330
747D
100
AcDbEntity
  8
部品1
100
AcDbCircle
 10
5546.484998239399
 20
4565.577276893862
 30
0.0
 40
6.0
100
AcDbArc
 50
0.0
 51
90.0
  0
ARC
  5
14D49
330
747D
100
AcDbEntity
  8
部品1
100
AcDbCircle
 10
5505.486728348384
 20
4565.577276893862
 30
0.0
 40
6.0
100
AcDbArc
 50
90.0
 51
169.4161974034886
  0
LINE
  5
14D4A
330
747D
100
AcDbEntity
  8
部品1
100
AcDbLine
 10
5546.484998239399
 20
4571.577276893862
 30
0.0
 11
5505.486728348384
 21
4571.577276893862
 31
0.0
  0
ARC
  5
14D4B
330
747D
100
AcDbEntity
  8
細線
100
AcDbCircle
 10
5545.4849982394
 20
4564.577276893862
 30
0.0
 40
5.5
100
AcDbArc
 50
0.0
 51
90.0
  0
LINE
  5
14D4C
330
747D
100
AcDbEntity
  8
細線
100
AcDbLine
 10
5540.484998239399
 20
4561.577276893863
 30
0.0
 11
5509.865954603878
 21
4561.577276893863
 31
0.0
  0
ARC
  5
14D4D
330
747D
100
AcDbEntity
  8
細線
100
AcDbCircle
 10
5530.692537418145
 20
4552.577276893862
 30
0.0
 40
6.0
100
AcDbArc
 50
0.0
 51
90.0
  0
ARC
  5
14D4E
330
747D
100
AcDbEntity
  8
細線
100
AcDbCircle
 10
5506.318379770154
 20
4564.577276893862
 30
0.0
 40
5.5
100
AcDbArc
 50
89.99999999999969
 51
169.5785490272683
  0
LINE
  5
14D4F
330
747D
100
AcDbEntity
  8
細線
100
AcDbLine
 10
5518.4849982394
 20
4555.576768995299
 30
0.0
 11
5505.721671023433
 21
4555.576768995299
 31
0.0
  0
ARC
  5
14D50
330
747D
100
AcDbEntity
  8
細線
100
AcDbCircle
 10
5509.865954603878
 20
4555.577276893862
 30
0.0
 40
6.0
100
AcDbArc
 50
90.0
 51
171.2120626773636
  0
LINE
  5
14D51
330
747D
100
AcDbEntity
  8
細線
100
AcDbLine
 10
5530.692537418145
 20
4558.577276893863
 30
0.0
 11
5518.4849982394
 21
4558.577276893863
 31
0.0
  0
ARC
  5
14D52
330
747D
100
AcDbEntity
  8
細線
100
AcDbCircle
 10
5519.979422149233
 20
4552.577276893862
 30
0.0
 40
3.0
100
AcDbArc
 50
8.099550838277986
 51
90.0
  0
LINE
  5
14D53
330
747D
100
AcDbEntity
  8
細線
100
AcDbLine
 10
5519.979422149233
 20
4555.577276893862
 30
0.0
 11
5518.4849982394
 21
4555.577276893862
 31
0.0
  0
LINE
  5
14D54
330
747D
100
AcDbEntity
  8
細線
100
AcDbLine
 10
5545.4849982394
 20
4570.077276893862
 30
0.0
 11
5506.318379770154
 21
4570.077276893862
 31
0.0
  0
ARC
  5
14D55
330
747D
100
AcDbEntity
  8
細線
100
AcDbCircle
 10
5540.484998239399
 20
4555.577276893862
 30
0.0
 40
6.0
100
AcDbArc
 50
0.0
 51
90.0
  0
CIRCLE
  5
14D56
330
747D
100
AcDbEntity
  8
細線
 48
20.0
100
AcDbCircle
 10
5525.985863293892
 20
4612.077276893862
 30
0.0
 40
10.0
  0
CIRCLE
  5
14D57
330
747D
100
AcDbEntity
  8
細線
 48
20.0
100
AcDbCircle
 10
5525.985863293892
 20
4612.077276893862
 30
0.0
 40
20.0
  0
LINE
  5
14D58
330
747D
100
AcDbEntity
  8
細線
100
AcDbLine
 10
6356.692537418146
 20
4470.577276893862
 30
0.0
 11
6356.692537418146
 21
4552.577276893862
 31
0.0
  0
LINE
  5
14D59
330
747D
100
AcDbEntity
  8
細線
100
AcDbLine
 10
6338.4849982394
 20
4561.577276893863
 30
0.0
 11
6338.4849982394
 21
4461.577276893862
 31
0.0
  0
ARC
  5
14D5A
330
747D
100
AcDbEntity
  8
細線
100
AcDbCircle
 10
6614.484998239399
 20
4511.577276893862
 30
0.0
 40
298.5
100
AcDbArc
 50
169.578549027269
 51
190.4214509727309
  0
ARC
  5
14D5B
330
747D
100
AcDbEntity
  8
細線
100
AcDbCircle
 10
6614.484998239399
 20
4511.577276893862
 30
0.0
 40
294.0
100
AcDbArc
 50
171.212062677364
 51
188.7879373226359
  0
ARC
  5
14D5C
330
747D
100
AcDbEntity
  8
細線
100
AcDbCircle
 10
6051.882216331475
 20
4511.577276893862
 30
0.0
 40
294.0
100
AcDbArc
 50
351.900449161722
 51
8.099550838278029
  0
LINE
  5
14D5D
330
747D
100
AcDbEntity
  8
細線
100
AcDbLine
 10
6366.4849982394
 20
4467.577276893861
 30
0.0
 11
6366.4849982394
 21
4555.577276893862
 31
0.0
  0
LINE
  5
14D5E
330
747D
100
AcDbEntity
  8
細線
100
AcDbLine
 10
6370.9849982394
 20
4458.577276893862
 30
0.0
 11
6370.9849982394
 21
4564.577276893862
 31
0.0
  0
ARC
  5
14D5F
330
747D
100
AcDbEntity
  8
部品1
100
AcDbCircle
 10
6614.484998239399
 20
4511.577276893862
 30
0.0
 40
300.0
100
AcDbArc
 50
169.4161974034894
 51
190.5838025965105
  0
LINE
  5
14D60
330
747D
100
AcDbEntity
  8
部品1
100
AcDbLine
 10
6372.4849982394
 20
4457.577276893863
 30
0.0
 11
6372.4849982394
 21
4565.577276893862
 31
0.0
  0
ARC
  5
14D61
330
747D
100
AcDbEntity
  8
細線
100
AcDbCircle
 10
6360.4849982394
 20
4467.577276893861
 30
0.0
 40
6.0
100
AcDbArc
 50
270.0
 51
0.0
  0
LINE
  5
14D62
330
747D
100
AcDbEntity
  8
細線
100
AcDbLine
 10
6326.318379770154
 20
4453.077276893862
 30
0.0
 11
6365.484998239399
 21
4453.077276893862
 31
0.0
  0
LINE
  5
14D63
330
747D
100
AcDbEntity
  8
細線
100
AcDbLine
 10
6338.4849982394
 20
4467.577276893861
 30
0.0
 11
6339.979422149235
 21
4467.577276893861
 31
0.0
  0
ARC
  5
14D64
330
747D
100
AcDbEntity
  8
細線
100
AcDbCircle
 10
6339.979422149235
 20
4470.577276893862
 30
0.0
 40
3.0
100
AcDbArc
 50
270.0
 51
351.9004491617184
  0
LINE
  5
14D65
330
747D
100
AcDbEntity
  8
細線
100
AcDbLine
 10
6338.4849982394
 20
4464.577276893861
 30
0.0
 11
6350.692537418145
 21
4464.577276893861
 31
0.0
  0
ARC
  5
14D66
330
747D
100
AcDbEntity
  8
細線
100
AcDbCircle
 10
6329.865954603877
 20
4467.577276893861
 30
0.0
 40
6.0
100
AcDbArc
 50
188.7879373226349
 51
270.0
  0
ARC
  5
14D67
330
747D
100
AcDbEntity
  8
細線
100
AcDbCircle
 10
6326.318379770154
 20
4458.577276893862
 30
0.0
 40
5.5
100
AcDbArc
 50
190.4214509727298
 51
269.9999999999997
  0
LINE
  5
14D68
330
747D
100
AcDbEntity
  8
細線
100
AcDbLine
 10
6338.4849982394
 20
4467.577784792424
 30
0.0
 11
6325.006293740577
 21
4467.577784792424
 31
0.0
  0
ARC
  5
14D69
330
747D
100
AcDbEntity
  8
細線
100
AcDbCircle
 10
6350.692537418145
 20
4470.577276893862
 30
0.0
 40
6.0
100
AcDbArc
 50
270.0
 51
360.0
  0
LINE
  5
14D6A
330
747D
100
AcDbEntity
  8
細線
100
AcDbLine
 10
6329.865954603877
 20
4461.577276893862
 30
0.0
 11
6360.4849982394
 21
4461.577276893862
 31
0.0
  0
ARC
  5
14D6B
330
747D
100
AcDbEntity
  8
細線
100
AcDbCircle
 10
6365.484998239399
 20
4458.577276893862
 30
0.0
 40
5.5
100
AcDbArc
 50
270.0
 51
0.0
  0
ARC
  5
14D6C
330
747D
100
AcDbEntity
  8
部品1
100
AcDbCircle
 10
6325.486728348384
 20
4457.577276893863
 30
0.0
 40
6.0
100
AcDbArc
 50
190.5838025965097
 51
270.0
  0
ARC
  5
14D6D
330
747D
100
AcDbEntity
  8
部品1
100
AcDbCircle
 10
6366.4849982394
 20
4457.577276893863
 30
0.0
 40
6.0
100
AcDbArc
 50
270.0
 51
0.0
  0
LINE
  5
14D6E
330
747D
100
AcDbEntity
  8
部品1
100
AcDbLine
 10
6325.486728348384
 20
4451.577276893862
 30
0.0
 11
6366.4849982394
 21
4451.577276893862
 31
0.0
  0
CIRCLE
  5
14D6F
330
747D
100
AcDbEntity
  8
細線
 48
20.0
100
AcDbCircle
 10
6345.985863293893
 20
4612.077276893862
 30
0.0
 40
20.0
  0
CIRCLE
  5
14D70
330
747D
100
AcDbEntity
  8
細線
 48
20.0
100
AcDbCircle
 10
6345.985863293893
 20
4612.077276893862
 30
0.0
 40
10.0
  0
ARC
  5
14D71
330
747D
100
AcDbEntity
  8
細線
100
AcDbCircle
 10
6360.4849982394
 20
4555.577276893862
 30
0.0
 40
6.0
100
AcDbArc
 50
0.0
 51
90.0
  0
LINE
  5
14D72
330
747D
100
AcDbEntity
  8
細線
100
AcDbLine
 10
6365.484998239399
 20
4570.077276893862
 30
0.0
 11
6326.318379770154
 21
4570.077276893862
 31
0.0
  0
LINE
  5
14D73
330
747D
100
AcDbEntity
  8
細線
100
AcDbLine
 10
6339.979422149233
 20
4555.577276893862
 30
0.0
 11
6338.4849982394
 21
4555.577276893862
 31
0.0
  0
ARC
  5
14D74
330
747D
100
AcDbEntity
  8
細線
100
AcDbCircle
 10
6339.979422149233
 20
4552.577276893862
 30
0.0
 40
3.0
100
AcDbArc
 50
8.099550838277986
 51
90.0
  0
LINE
  5
14D75
330
747D
100
AcDbEntity
  8
細線
100
AcDbLine
 10
6350.692537418145
 20
4558.577276893863
 30
0.0
 11
6338.4849982394
 21
4558.577276893863
 31
0.0
  0
ARC
  5
14D76
330
747D
100
AcDbEntity
  8
細線
100
AcDbCircle
 10
6329.865954603877
 20
4555.577276893862
 30
0.0
 40
6.0
100
AcDbArc
 50
90.0
 51
171.2120626773636
  0
LINE
  5
14D77
330
747D
100
AcDbEntity
  8
細線
100
AcDbLine
 10
6338.4849982394
 20
4555.576768995299
 30
0.0
 11
6325.721671023432
 21
4555.576768995299
 31
0.0
  0
ARC
  5
14D78
330
747D
100
AcDbEntity
  8
細線
100
AcDbCircle
 10
6326.318379770154
 20
4564.577276893862
 30
0.0
 40
5.5
100
AcDbArc
 50
89.99999999999969
 51
169.5785490272683
  0
ARC
  5
14D79
330
747D
100
AcDbEntity
  8
細線
100
AcDbCircle
 10
6350.692537418145
 20
4552.577276893862
 30
0.0
 40
6.0
100
AcDbArc
 50
0.0
 51
90.0
  0
LINE
  5
14D7A
330
747D
100
AcDbEntity
  8
細線
100
AcDbLine
 10
6360.4849982394
 20
4561.577276893863
 30
0.0
 11
6329.865954603877
 21
4561.577276893863
 31
0.0
  0
ARC
  5
14D7B
330
747D
100
AcDbEntity
  8
細線
100
AcDbCircle
 10
6365.484998239399
 20
4564.577276893862
 30
0.0
 40
5.5
100
AcDbArc
 50
0.0
 51
90.0
  0
LINE
  5
14D7C
330
747D
100
AcDbEntity
  8
部品1
100
AcDbLine
 10
6366.4849982394
 20
4571.577276893862
 30
0.0
 11
6325.486728348384
 21
4571.577276893862
 31
0.0
  0
ARC
  5
14D7D
330
747D
100
AcDbEntity
  8
部品1
100
AcDbCircle
 10
6325.486728348384
 20
4565.577276893862
 30
0.0
 40
6.0
100
AcDbArc
 50
90.0
 51
169.4161974034886
  0
ARC
  5
14D7E
330
747D
100
AcDbEntity
  8
部品1
100
AcDbCircle
 10
6366.4849982394
 20
4565.577276893862
 30
0.0
 40
6.0
100
AcDbArc
 50
0.0
 51
90.0
  0
LINE
  5
14D7F
330
747D
100
AcDbEntity
  8
部品1
100
AcDbLine
 10
7192.484998239399
 20
4457.577276893863
 30
0.0
 11
7192.484998239399
 21
4565.577276893862
 31
0.0
  0
ARC
  5
14D80
330
747D
100
AcDbEntity
  8
部品1
100
AcDbCircle
 10
7434.484998239399
 20
4511.577276893862
 30
0.0
 40
300.0
100
AcDbArc
 50
169.4161974034894
 51
190.5838025965105
  0
LINE
  5
14D81
330
747D
100
AcDbEntity
  8
細線
100
AcDbLine
 10
7190.984998239399
 20
4458.577276893862
 30
0.0
 11
7190.984998239399
 21
4564.577276893862
 31
0.0
  0
LINE
  5
14D82
330
747D
100
AcDbEntity
  8
細線
100
AcDbLine
 10
7186.4849982394
 20
4467.577276893861
 30
0.0
 11
7186.4849982394
 21
4555.577276893862
 31
0.0
  0
ARC
  5
14D83
330
747D
100
AcDbEntity
  8
細線
100
AcDbCircle
 10
6871.882216331475
 20
4511.577276893862
 30
0.0
 40
294.0
100
AcDbArc
 50
351.900449161722
 51
8.099550838278029
  0
ARC
  5
14D84
330
747D
100
AcDbEntity
  8
細線
100
AcDbCircle
 10
7434.484998239399
 20
4511.577276893862
 30
0.0
 40
294.0
100
AcDbArc
 50
171.212062677364
 51
188.7879373226359
  0
ARC
  5
14D85
330
747D
100
AcDbEntity
  8
細線
100
AcDbCircle
 10
7434.484998239399
 20
4511.577276893862
 30
0.0
 40
298.5
100
AcDbArc
 50
169.578549027269
 51
190.4214509727309
  0
LINE
  5
14D86
330
747D
100
AcDbEntity
  8
細線
100
AcDbLine
 10
7158.4849982394
 20
4561.577276893863
 30
0.0
 11
7158.4849982394
 21
4461.577276893862
 31
0.0
  0
LINE
  5
14D87
330
747D
100
AcDbEntity
  8
細線
100
AcDbLine
 10
7176.692537418145
 20
4470.577276893862
 30
0.0
 11
7176.692537418145
 21
4552.577276893862
 31
0.0
  0
LINE
  5
14D88
330
747D
100
AcDbEntity
  8
部品1
100
AcDbLine
 10
7145.486728348385
 20
4451.577276893862
 30
0.0
 11
7186.4849982394
 21
4451.577276893862
 31
0.0
  0
ARC
  5
14D89
330
747D
100
AcDbEntity
  8
部品1
100
AcDbCircle
 10
7186.4849982394
 20
4457.577276893863
 30
0.0
 40
6.0
100
AcDbArc
 50
270.0
 51
0.0
  0
ARC
  5
14D8A
330
747D
100
AcDbEntity
  8
部品1
100
AcDbCircle
 10
7145.486728348385
 20
4457.577276893863
 30
0.0
 40
6.0
100
AcDbArc
 50
190.5838025965097
 51
270.0
  0
ARC
  5
14D8B
330
747D
100
AcDbEntity
  8
細線
100
AcDbCircle
 10
7185.4849982394
 20
4458.577276893862
 30
0.0
 40
5.5
100
AcDbArc
 50
270.0
 51
0.0
  0
LINE
  5
14D8C
330
747D
100
AcDbEntity
  8
細線
100
AcDbLine
 10
7149.865954603876
 20
4461.577276893862
 30
0.0
 11
7180.4849982394
 21
4461.577276893862
 31
0.0
  0
ARC
  5
14D8D
330
747D
100
AcDbEntity
  8
細線
100
AcDbCircle
 10
7170.692537418145
 20
4470.577276893862
 30
0.0
 40
6.0
100
AcDbArc
 50
270.0
 51
360.0
  0
LINE
  5
14D8E
330
747D
100
AcDbEntity
  8
細線
100
AcDbLine
 10
7158.4849982394
 20
4467.577784792424
 30
0.0
 11
7145.006293740578
 21
4467.577784792424
 31
0.0
  0
ARC
  5
14D8F
330
747D
100
AcDbEntity
  8
細線
100
AcDbCircle
 10
7146.318379770154
 20
4458.577276893862
 30
0.0
 40
5.5
100
AcDbArc
 50
190.4214509727298
 51
269.9999999999997
  0
ARC
  5
14D90
330
747D
100
AcDbEntity
  8
細線
100
AcDbCircle
 10
7149.865954603876
 20
4467.577276893861
 30
0.0
 40
6.0
100
AcDbArc
 50
188.7879373226349
 51
270.0
  0
LINE
  5
14D91
330
747D
100
AcDbEntity
  8
細線
100
AcDbLine
 10
7158.4849982394
 20
4464.577276893861
 30
0.0
 11
7170.692537418145
 21
4464.577276893861
 31
0.0
  0
ARC
  5
14D92
330
747D
100
AcDbEntity
  8
細線
100
AcDbCircle
 10
7159.979422149234
 20
4470.577276893862
 30
0.0
 40
3.0
100
AcDbArc
 50
270.0
 51
351.9004491617184
  0
LINE
  5
14D93
330
747D
100
AcDbEntity
  8
細線
100
AcDbLine
 10
7158.4849982394
 20
4467.577276893861
 30
0.0
 11
7159.979422149234
 21
4467.577276893861
 31
0.0
  0
LINE
  5
14D94
330
747D
100
AcDbEntity
  8
細線
100
AcDbLine
 10
7146.318379770154
 20
4453.077276893862
 30
0.0
 11
7185.4849982394
 21
4453.077276893862
 31
0.0
  0
ARC
  5
14D95
330
747D
100
AcDbEntity
  8
細線
100
AcDbCircle
 10
7180.4849982394
 20
4467.577276893861
 30
0.0
 40
6.0
100
AcDbArc
 50
270.0
 51
0.0
  0
ARC
  5
14D96
330
747D
100
AcDbEntity
  8
部品1
100
AcDbCircle
 10
7186.4849982394
 20
4565.577276893862
 30
0.0
 40
6.0
100
AcDbArc
 50
0.0
 51
90.0
  0
ARC
  5
14D97
330
747D
100
AcDbEntity
  8
部品1
100
AcDbCircle
 10
7145.486728348385
 20
4565.577276893862
 30
0.0
 40
6.0
100
AcDbArc
 50
90.0
 51
169.4161974034886
  0
LINE
  5
14D98
330
747D
100
AcDbEntity
  8
部品1
100
AcDbLine
 10
7186.4849982394
 20
4571.577276893862
 30
0.0
 11
7145.486728348385
 21
4571.577276893862
 31
0.0
  0
ARC
  5
14D99
330
747D
100
AcDbEntity
  8
細線
100
AcDbCircle
 10
7185.4849982394
 20
4564.577276893862
 30
0.0
 40
5.5
100
AcDbArc
 50
0.0
 51
90.0
  0
LINE
  5
14D9A
330
747D
100
AcDbEntity
  8
細線
100
AcDbLine
 10
7180.4849982394
 20
4561.577276893863
 30
0.0
 11
7149.865954603876
 21
4561.577276893863
 31
0.0
  0
ARC
  5
14D9B
330
747D
100
AcDbEntity
  8
細線
100
AcDbCircle
 10
7170.692537418145
 20
4552.577276893862
 30
0.0
 40
6.0
100
AcDbArc
 50
0.0
 51
90.0
  0
ARC
  5
14D9C
330
747D
100
AcDbEntity
  8
細線
100
AcDbCircle
 10
7146.318379770154
 20
4564.577276893862
 30
0.0
 40
5.5
100
AcDbArc
 50
89.99999999999969
 51
169.5785490272683
  0
LINE
  5
14D9D
330
747D
100
AcDbEntity
  8
細線
100
AcDbLine
 10
7158.4849982394
 20
4555.576768995299
 30
0.0
 11
7145.721671023432
 21
4555.576768995299
 31
0.0
  0
ARC
  5
14D9E
330
747D
100
AcDbEntity
  8
細線
100
AcDbCircle
 10
7149.865954603876
 20
4555.577276893862
 30
0.0
 40
6.0
100
AcDbArc
 50
90.0
 51
171.2120626773636
  0
LINE
  5
14D9F
330
747D
100
AcDbEntity
  8
細線
100
AcDbLine
 10
7170.692537418145
 20
4558.577276893863
 30
0.0
 11
7158.4849982394
 21
4558.577276893863
 31
0.0
  0
ARC
  5
14DA0
330
747D
100
AcDbEntity
  8
細線
100
AcDbCircle
 10
7159.979422149233
 20
4552.577276893862
 30
0.0
 40
3.0
100
AcDbArc
 50
8.099550838277986
 51
90.0
  0
LINE
  5
14DA1
330
747D
100
AcDbEntity
  8
細線
100
AcDbLine
 10
7159.979422149233
 20
4555.577276893862
 30
0.0
 11
7158.4849982394
 21
4555.577276893862
 31
0.0
  0
LINE
  5
14DA2
330
747D
100
AcDbEntity
  8
細線
100
AcDbLine
 10
7185.4849982394
 20
4570.077276893862
 30
0.0
 11
7146.318379770154
 21
4570.077276893862
 31
0.0
  0
ARC
  5
14DA3
330
747D
100
AcDbEntity
  8
細線
100
AcDbCircle
 10
7180.4849982394
 20
4555.577276893862
 30
0.0
 40
6.0
100
AcDbArc
 50
0.0
 51
90.0
  0
CIRCLE
  5
14DA4
330
747D
100
AcDbEntity
  8
細線
 48
20.0
100
AcDbCircle
 10
7165.985863293892
 20
4612.077276893862
 30
0.0
 40
10.0
  0
CIRCLE
  5
14DA5
330
747D
100
AcDbEntity
  8
細線
 48
20.0
100
AcDbCircle
 10
7165.985863293892
 20
4612.077276893862
 30
0.0
 40
20.0
  0
DIMENSION
  5
14DE0
330
747D
100
AcDbEntity
  8
寸法
 48
50.0
100
AcDbDimension
  2
*D28
 10
4539.484998239401
 20
7916.542247313349
 30
0.0
 11
4196.984998239402
 21
8016.542247313349
 31
0.0
 12
-820.0
 22
0.0
 32
0.0
 70
    32
 71
     5
 42
-1.0
  3
INABA_S40G
100
AcDbAlignedDimension
 13
3854.484998239403
 23
8356.365915108472
 33
0.0
 14
4539.484998239401
 24
8356.365915108625
 34
0.0
100
AcDbRotatedDimension
  0
TEXT
  5
152D6
330
747D
100
AcDbEntity
  8
文字
 62
     7
 48
50.0
100
AcDbText
 10
15022.63965474517
 20
9910.01374588373
 30
0.0
 40
100.0
  1
F12,Y10       0.7+1.0
  7
STYLE1
100
AcDbText
  0
TEXT
  5
152D7
330
747D
100
AcDbEntity
  8
文字
 62
     7
 48
50.0
100
AcDbText
 10
13583.11819016568
 20
9060.013745883729
 30
0.0
 40
100.0
  1
アンカープレート
  7
STYLE1
100
AcDbText
  0
TEXT
  5
152D8
330
747D
100
AcDbEntity
  8
文字
 62
     7
 48
50.0
100
AcDbText
 10
15022.63965474514
 20
9060.013745883722
 30
0.0
 40
100.0
  1
F12            2.3
  7
STYLE1
100
AcDbText
  0
LINE
  5
152D9
330
747D
100
AcDbEntity
  8
仕様書枠
 48
50.0
100
AcDbLine
 10
16307.2
 20
10049.6
 30
0.0
 11
13127.2
 21
10049.6
 31
0.0
  0
LINE
  5
152DA
330
747D
100
AcDbEntity
  8
仕様書枠
 48
50.0
100
AcDbLine
 10
16307.2
 20
11409.6
 30
0.0
 11
13127.2
 21
11409.6
 31
0.0
  0
LINE
  5
152DB
330
747D
100
AcDbEntity
  8
仕様書枠
 48
50.0
100
AcDbLine
 10
16307.19999999999
 20
8349.600000000007
 30
0.0
 11
16307.2
 21
11409.6
 31
0.0
  0
LINE
  5
152DC
330
747D
100
AcDbEntity
  8
仕様書枠
 48
50.0
100
AcDbLine
 10
14785.2
 20
11409.59999999999
 30
0.0
 11
14785.19999999999
 21
8859.6
 31
0.0
  0
LINE
  5
152DD
330
747D
100
AcDbEntity
  8
仕様書枠
 48
50.0
100
AcDbLine
 10
13490.2
 20
11409.6
 30
0.0
 11
13490.20000000002
 21
8859.6
 31
0.0
  0
LINE
  5
152DE
330
747D
100
AcDbEntity
  8
仕様書枠
 48
50.0
100
AcDbLine
 10
16307.2
 20
11239.6
 30
0.0
 11
13127.2
 21
11239.6
 31
0.0
  0
LINE
  5
152DF
330
747D
100
AcDbEntity
  8
仕様書枠
 48
50.0
100
AcDbLine
 10
16307.2
 20
10899.6
 30
0.0
 11
13127.2
 21
10899.6
 31
0.0
  0
LINE
  5
152E0
330
747D
100
AcDbEntity
  8
仕様書枠
 48
50.0
100
AcDbLine
 10
16307.2
 20
11069.6
 30
0.0
 11
13127.2
 21
11069.6
 31
0.0
  0
LINE
  5
152E1
330
747D
100
AcDbEntity
  8
仕様書枠
 48
50.0
100
AcDbLine
 10
16307.19999999999
 20
10559.6
 30
0.0
 11
13127.2
 21
10559.6
 31
0.0
  0
LINE
  5
152E2
330
747D
100
AcDbEntity
  8
仕様書枠
 48
50.0
100
AcDbLine
 10
16307.19999999999
 20
10389.6
 30
0.0
 11
13127.2
 21
10389.6
 31
0.0
  0
LINE
  5
152E3
330
747D
100
AcDbEntity
  8
仕様書枠
 48
50.0
100
AcDbLine
 10
16307.19999999999
 20
10729.6
 30
0.0
 11
13127.2
 21
10729.6
 31
0.0
  0
TEXT
  5
152E4
330
747D
100
AcDbEntity
  8
文字
 62
     7
 48
50.0
100
AcDbText
 10
13197.42518560407
 20
11270.01374588373
 30
0.0
 40
100.0
  1
品番
  7
STYLE1
100
AcDbText
  0
TEXT
  5
152E5
330
747D
100
AcDbEntity
  8
文字
 62
     7
 48
50.0
100
AcDbText
 10
13271.19032244792
 20
11100.01374588373
 30
0.0
 40
100.0
  1
1
  7
STYLE1
100
AcDbText
  0
TEXT
  5
152E6
330
747D
100
AcDbEntity
  8
文字
 62
     7
 48
50.0
100
AcDbText
 10
13271.19032244792
 20
10930.01374588373
 30
0.0
 40
100.0
  1
2
  7
STYLE1
100
AcDbText
  0
TEXT
  5
152E7
330
747D
100
AcDbEntity
  8
文字
 62
     7
 48
50.0
100
AcDbText
 10
13271.19032244792
 20
10590.01374588373
 30
0.0
 40
100.0
  1
4
  7
STYLE1
100
AcDbText
  0
TEXT
  5
152E8
330
747D
100
AcDbEntity
  8
文字
 62
     7
 48
50.0
100
AcDbText
 10
13271.19032244792
 20
10760.01374588373
 30
0.0
 40
100.0
  1
3
  7
STYLE1
100
AcDbText
  0
TEXT
  5
152E9
330
747D
100
AcDbEntity
  8
文字
 62
     7
 48
50.0
100
AcDbText
 10
13732.03840939435
 20
11270.01374588373
 30
0.0
 40
100.0
  1
部　　品　　名
  7
STYLE1
100
AcDbText
  0
TEXT
  5
152EA
330
747D
100
AcDbEntity
  8
文字
 62
     7
 48
50.0
100
AcDbText
 10
14859.79774614482
 20
11270.01374588373
 30
0.0
 40
100.0
  1
材料（材質）　　単位mm
  7
STYLE1
100
AcDbText
  0
TEXT
  5
152EB
330
747D
100
AcDbEntity
  8
文字
 62
     7
 48
50.0
100
AcDbText
 10
13583.11819016569
 20
11100.01374588373
 30
0.0
 40
100.0
  1
土台枠
  7
STYLE1
100
AcDbText
  0
TEXT
  5
152EC
330
747D
100
AcDbEntity
  8
文字
 62
     7
 48
50.0
100
AcDbText
 10
13583.1181901657
 20
10930.01374588373
 30
0.0
 40
100.0
  1
柱
  7
STYLE1
100
AcDbText
  0
TEXT
  5
152ED
330
747D
100
AcDbEntity
  8
文字
 62
     7
 48
50.0
100
AcDbText
 10
13583.1181901657
 20
10590.01374588373
 30
0.0
 40
100.0
  1
鴨居
  7
STYLE1
100
AcDbText
  0
TEXT
  5
152EE
330
747D
100
AcDbEntity
  8
文字
 62
     7
 48
50.0
100
AcDbText
 10
13583.1181901657
 20
10420.01374588373
 30
0.0
 40
100.0
  1
桁後
  7
STYLE1
100
AcDbText
  0
TEXT
  5
152EF
330
747D
100
AcDbEntity
  8
文字
 62
     7
 48
50.0
100
AcDbText
 10
13271.19032244792
 20
10420.01374588373
 30
0.0
 40
100.0
  1
5
  7
STYLE1
100
AcDbText
  0
TEXT
  5
152F0
330
747D
100
AcDbEntity
  8
文字
 62
     7
 48
50.0
100
AcDbText
 10
13583.1181901657
 20
10250.01374588373
 30
0.0
 40
100.0
  1
妻板左右
  7
STYLE1
100
AcDbText
  0
TEXT
  5
152F1
330
747D
100
AcDbEntity
  8
文字
 62
     7
 48
50.0
100
AcDbText
 10
13248.77747366447
 20
9570.013745883729
 30
0.0
 40
100.0
  1
10
  7
STYLE1
100
AcDbText
  0
TEXT
  5
152F2
330
747D
100
AcDbEntity
  8
文字
 62
     7
 48
50.0
100
AcDbText
 10
13583.11819016569
 20
9570.013745883729
 30
0.0
 40
100.0
  1
壁パネル
  7
STYLE1
100
AcDbText
  0
TEXT
  5
152F3
330
747D
100
AcDbEntity
  8
文字
 62
     7
 48
50.0
100
AcDbText
 10
13583.11819016569
 20
9740.013745883729
 30
0.0
 40
100.0
  1
屋根パネル
  7
STYLE1
100
AcDbText
  0
TEXT
  5
152F4
330
747D
100
AcDbEntity
  8
文字
 62
     7
 48
50.0
100
AcDbText
 10
13583.1181901657
 20
10080.01374588373
 30
0.0
 40
100.0
  1
鼻隠シ前後
  7
STYLE1
100
AcDbText
  0
TEXT
  5
152F5
330
747D
100
AcDbEntity
  8
文字
 62
     7
 48
50.0
100
AcDbText
 10
13271.19032244792
 20
9910.01374588373
 30
0.0
 40
100.0
  1
8
  7
STYLE1
100
AcDbText
  0
TEXT
  5
152F6
330
747D
100
AcDbEntity
  8
文字
 62
     7
 48
50.0
100
AcDbText
 10
13271.19032244792
 20
9740.013745883729
 30
0.0
 40
100.0
  1
9
  7
STYLE1
100
AcDbText
  0
TEXT
  5
152F7
330
747D
100
AcDbEntity
  8
文字
 62
     7
 48
50.0
100
AcDbText
 10
13271.19032244792
 20
10080.01374588373
 30
0.0
 40
100.0
  1
7
  7
STYLE1
100
AcDbText
  0
TEXT
  5
152F8
330
747D
100
AcDbEntity
  8
文字
 62
     7
 48
50.0
100
AcDbText
 10
13271.19032244792
 20
10250.01374588373
 30
0.0
 40
100.0
  1
6
  7
STYLE1
100
AcDbText
  0
LINE
  5
152F9
330
747D
100
AcDbEntity
  8
仕様書枠
 48
50.0
100
AcDbLine
 10
16307.19999999999
 20
9709.600000000001
 30
0.0
 11
13127.2
 21
9709.600000000001
 31
0.0
  0
LINE
  5
152FA
330
747D
100
AcDbEntity
  8
仕様書枠
 48
50.0
100
AcDbLine
 10
16307.19999999999
 20
9369.600000000001
 30
0.0
 11
13127.2
 21
9369.600000000001
 31
0.0
  0
LINE
  5
152FB
330
747D
100
AcDbEntity
  8
仕様書枠
 48
50.0
100
AcDbLine
 10
16307.19999999999
 20
9539.6
 30
0.0
 11
13127.2
 21
9539.6
 31
0.0
  0
LINE
  5
152FC
330
747D
100
AcDbEntity
  8
仕様書枠
 48
50.0
100
AcDbLine
 10
16307.2
 20
10219.6
 30
0.0
 11
13127.2
 21
10219.6
 31
0.0
  0
LINE
  5
152FD
330
747D
100
AcDbEntity
  8
仕様書枠
 48
50.0
100
AcDbLine
 10
16307.2
 20
9879.600000000001
 30
0.0
 11
13127.2
 21
9879.600000000001
 31
0.0
  0
TEXT
  5
152FE
330
747D
100
AcDbEntity
  8
文字
 62
     7
 48
50.0
100
AcDbText
 10
13248.77747366447
 20
9400.013745883729
 30
0.0
 40
100.0
  1
11
  7
STYLE1
100
AcDbText
  0
LINE
  5
152FF
330
747D
100
AcDbEntity
  8
仕様書枠
 48
50.0
100
AcDbLine
 10
16307.19999999999
 20
9199.600000000001
 30
0.0
 11
13127.2
 21
9199.600000000001
 31
0.0
  0
LINE
  5
15300
330
747D
100
AcDbEntity
  8
仕様書枠
 48
50.0
100
AcDbLine
 10
16307.19999999999
 20
8519.600000000004
 30
0.0
 11
13127.2
 21
8519.600000000009
 31
0.0
  0
TEXT
  5
15301
330
747D
100
AcDbEntity
  8
文字
 62
     7
 48
50.0
100
AcDbText
 10
13248.77747366447
 20
9060.013745883729
 30
0.0
 40
100.0
  1
13
  7
STYLE1
100
AcDbText
  0
TEXT
  5
15302
330
747D
100
AcDbEntity
  8
文字
 62
     7
 48
50.0
100
AcDbText
 10
13248.77747366447
 20
9230.013745883729
 30
0.0
 40
100.0
  1
12
  7
STYLE1
100
AcDbText
  0
TEXT
  5
15303
330
747D
100
AcDbEntity
  8
文字
 62
     7
 48
50.0
100
AcDbText
 10
15022.63965474517
 20
11100.01374588372
 30
0.0
 40
100.0
  1
F12            1.2
  7
STYLE1
100
AcDbText
  0
TEXT
  5
15304
330
747D
100
AcDbEntity
  8
文字
 62
     7
 48
50.0
100
AcDbText
 10
15022.63965474518
 20
10930.01374588372
 30
0.0
 40
100.0
  1
F12            1.0
  7
STYLE1
100
AcDbText
  0
TEXT
  5
15305
330
747D
100
AcDbEntity
  8
文字
 62
     7
 48
50.0
100
AcDbText
 10
15022.63965474517
 20
10590.01374588372
 30
0.0
 40
100.0
  1
Y10            1.0
  7
STYLE1
100
AcDbText
  0
TEXT
  5
15306
330
747D
100
AcDbEntity
  8
文字
 62
     7
 48
50.0
100
AcDbText
 10
15022.63965474517
 20
10420.01374588372
 30
0.0
 40
100.0
  1
Y10            1.0
  7
STYLE1
100
AcDbText
  0
TEXT
  5
15307
330
747D
100
AcDbEntity
  8
文字
 62
     7
 48
50.0
100
AcDbText
 10
15022.63965474517
 20
10250.01374588372
 30
0.0
 40
100.0
  1
Y10            0.7
  7
STYLE1
100
AcDbText
  0
TEXT
  5
15308
330
747D
100
AcDbEntity
  8
文字
 62
     7
 48
50.0
100
AcDbText
 10
15022.63965474517
 20
10080.01374588372
 30
0.0
 40
100.0
  1
Y10            0.7
  7
STYLE1
100
AcDbText
  0
TEXT
  5
15309
330
747D
100
AcDbEntity
  8
文字
 62
     7
 48
50.0
100
AcDbText
 10
15022.63965474517
 20
9740.013745883725
 30
0.0
 40
100.0
  1
Y10            0.5
  7
STYLE1
100
AcDbText
  0
TEXT
  5
1530A
330
747D
100
AcDbEntity
  8
文字
 62
     7
 48
50.0
100
AcDbText
 10
15022.63965474516
 20
9570.013745883725
 30
0.0
 40
100.0
  1
F12            0.6
  7
STYLE1
100
AcDbText
  0
LINE
  5
1530B
330
747D
100
AcDbEntity
  8
仕様書枠
 48
50.0
100
AcDbLine
 10
16307.19999999999
 20
8349.600000000007
 30
0.0
 11
13127.19999999999
 21
8349.600000000007
 31
0.0
  0
TEXT
  5
1530C
330
747D
100
AcDbEntity
  8
文字
 62
     7
 48
50.0
100
AcDbText
 10
13229.83081656554
 20
8550.013745883733
 30
0.0
 40
100.0
  1
F12→溶融亜鉛めっき鋼板(JIS G 3302)
  7
STYLE1
100
AcDbText
  0
TEXT
  5
1530D
330
747D
100
AcDbEntity
  8
文字
 62
     7
 48
50.0
100
AcDbText
 10
13229.83081656554
 20
8380.013745883733
 30
0.0
 40
100.0
  1
Y10→溶融亜鉛-5％アルミニウム合金めっき鋼板(JIS G 3317)
 41
0.9
  7
STYLE1
100
AcDbText
  0
LINE
  5
1530E
330
747D
100
AcDbEntity
  8
仕様書枠
 48
50.0
100
AcDbLine
 10
13127.2
 20
11409.6
 30
0.0
 11
13127.2
 21
8349.600000000007
 31
0.0
  0
LINE
  5
1530F
330
747D
100
AcDbEntity
  8
仕様書枠
 48
50.0
100
AcDbLine
 10
16307.19999999999
 20
8689.600000000003
 30
0.0
 11
13127.2
 21
8689.600000000007
 31
0.0
  0
TEXT
  5
15310
330
747D
100
AcDbEntity
  8
文字
 62
     7
 48
50.0
100
AcDbText
 10
13583.1181901657
 20
10760.01374588373
 30
0.0
 40
100.0
  1
床パネル
 41
0.9
  7
STYLE1
100
AcDbText
  0
TEXT
  5
15311
330
747D
100
AcDbEntity
  8
文字
 62
     7
 48
50.0
100
AcDbText
 10
15022.63965474517
 20
10760.01374588372
 30
0.0
 40
100.0
  1
F12            1.0
  7
STYLE1
100
AcDbText
  0
TEXT
  5
15312
330
747D
100
AcDbEntity
  8
文字
 62
     7
 48
50.0
100
AcDbText
 10
15022.63965474515
 20
9400.013745883725
 30
0.0
 40
100.0
  1
F12            0.8
  7
STYLE1
100
AcDbText
  0
TEXT
  5
15313
330
747D
100
AcDbEntity
  8
文字
 62
     7
 48
50.0
100
AcDbText
 10
13583.11819016568
 20
9400.013745883729
 30
0.0
 40
100.0
  1
扉
  7
STYLE1
100
AcDbText
  0
TEXT
  5
15314
330
747D
100
AcDbEntity
  8
文字
 62
     7
 48
50.0
100
AcDbText
 10
15022.63965474515
 20
9230.013745883729
 30
0.0
 40
100.0
  1
F12            0.6
  7
STYLE1
100
AcDbText
  0
TEXT
  5
15315
330
747D
100
AcDbEntity
  8
文字
 62
     7
 48
50.0
100
AcDbText
 10
13583.11819016568
 20
9230.013745883733
 30
0.0
 40
100.0
  1
棚板
  7
STYLE1
100
AcDbText
  0
TEXT
  5
15316
330
747D
100
AcDbEntity
  8
文字
 62
     7
 48
50.0
100
AcDbText
 10
14271.39351435261
 20
483.8967129911411
 30
0.0
 40
160.0
  1
ＮＸＮ－０８ＤＬ－５
  7
STYLE2
100
AcDbText
  0
TEXT
  5
1601A
330
747D
100
AcDbEntity
  8
部品1
100
AcDbText
 10
5558.275068863133
 20
2673.60716685862
 30
0.0
 40
135.0
  1
正面図
  7
STYLE2
100
AcDbText
  0
LWPOLYLINE
  5
1601B
330
747D
100
AcDbEntity
  8
部品1
100
AcDbPolyline
 90
        4
 70
     1
 43
0.0
 10
5467.749665125184
 20
2866.500696077144
 10
5467.749665125184
 20
2626.608374531611
 10
6231.220331353621
 20
2626.608374531611
 10
6231.220331353621
 20
2866.500696077144
  0
MTEXT
  5
1683C
330
747D
100
AcDbEntity
  8
寸法
 62
     7
 48
50.0
100
AcDbMText
 10
5044.764795849978
 20
8896.479662645715
 30
0.0
 40
96.0
 41
0.0
 71
     5
 72
     1
  1
棚 2段
  7
STYLE1
 73
     1
 44
1.0
1001
ACAD
1000
MTEXTBEGIN
1070
    73
1070
     1
1070
    44
1040
1.0
1070
    74
1070
     0
1000
MTEXTEND
  0
MTEXT
  5
1683D
330
747D
100
AcDbEntity
  8
寸法
 62
     7
 48
50.0
100
AcDbMText
 10
4224.764802527675
 20
8896.479662645727
 30
0.0
 40
96.0
 41
0.0
 71
     5
 72
     1
  1
棚 2段
  7
STYLE1
 73
     1
 44
1.0
1001
ACAD
1000
MTEXTBEGIN
1070
    73
1070
     1
1070
    44
1040
1.0
1070
    74
1070
     0
1000
MTEXTEND
  0
MTEXT
  5
16A17
330
747D
100
AcDbEntity
  8
寸法
 62
     7
 48
50.0
100
AcDbMText
 10
6684.764795849978
 20
8896.479662645715
 30
0.0
 40
96.0
 41
0.0
 71
     5
 72
     1
  1
棚 2段
  7
STYLE1
 73
     1
 44
1.0
1001
ACAD
1000
MTEXTBEGIN
1070
    73
1070
     1
1070
    44
1040
1.0
1070
    74
1070
     0
1000
MTEXTEND
  0
MTEXT
  5
16A18
330
747D
100
AcDbEntity
  8
寸法
 62
     7
 48
50.0
100
AcDbMText
 10
5864.764802527676
 20
8896.479662645727
 30
0.0
 40
96.0
 41
0.0
 71
     5
 72
     1
  1
棚 2段
  7
STYLE1
 73
     1
 44
1.0
1001
ACAD
1000
MTEXTBEGIN
1070
    73
1070
     1
1070
    44
1040
1.0
1070
    74
1070
     0
1000
MTEXTEND
  0
MTEXT
  5
16A19
330
747D
100
AcDbEntity
  8
寸法
 62
     7
 48
50.0
100
AcDbMText
 10
7504.764795849981
 20
8896.479662645711
 30
0.0
 40
96.0
 41
0.0
 71
     5
 72
     1
  1
棚 2段
  7
STYLE1
 73
     1
 44
1.0
1001
ACAD
1000
MTEXTBEGIN
1070
    73
1070
     1
1070
    44
1040
1.0
1070
    74
1070
     0
1000
MTEXTEND
  0
DIMENSION
  5
16A24
330
747D
100
AcDbEntity
  8
寸法
 48
50.0
100
AcDbDimension
  2
*D33
 10
7949.484998239404
 20
6080.075840589954
 30
0.0
 11
5849.484998239403
 21
6080.075840589954
 31
0.0
 70
   160
 71
     5
 42
4200.000000000003
  3
INABA_S40G
100
AcDbAlignedDimension
 13
3749.484998239401
 23
5644.577276893866
 33
0.0
 14
7949.484998239404
 24
5644.577276893862
 34
0.0
100
AcDbRotatedDimension
  0
DIMENSION
  5
16A25
330
747D
100
AcDbEntity
  8
寸法
 48
50.0
100
AcDbDimension
  2
*D32
 10
3799.484998239401
 20
5857.118862152105
 30
0.0
 11
5849.484998239403
 21
5857.118862152105
 31
0.0
 70
   160
  1
柱外寸法<>
 71
     5
 42
4100.000000000004
  3
INABA_S40G
100
AcDbAlignedDimension
 13
7899.484998239405
 23
5644.577276893864
 33
0.0
 14
3799.484998239401
 24
5644.577276893868
 34
0.0
100
AcDbRotatedDimension
  0
DIMENSION
  5
16A26
330
747D
100
AcDbEntity
  8
寸法
 48
50.0
100
AcDbDimension
  2
*D31
 10
3749.484998239401
 20
5857.118862152105
 30
0.0
 11
3435.999716865154
 21
5857.118862152105
 31
0.0
 70
   160
 71
     5
 42
50.0
  3
INABA_S40G
100
AcDbAlignedDimension
 13
3799.484998239401
 23
5644.577276893868
 33
0.0
 14
3749.484998239401
 24
5644.577276893866
 34
0.0
100
AcDbRotatedDimension
1001
ACAD
1000
DSTYLE
1002
{
1002
}
  0
LINE
  5
16A27
330
747D
100
AcDbEntity
  8
細線
 48
50.0
100
AcDbLine
 10
3782.484998239401
 20
5644.577276893866
 30
0.0
 11
3782.484998239401
 21
5503.577276893864
 31
0.0
  0
ARC
  5
16A28
330
747D
100
AcDbEntity
  8
部品1
100
AcDbCircle
 10
3756.893419345826
 20
5637.577276893865
 30
0.0
 40
7.0
100
AcDbArc
 50
90.0
 51
183.2473427903259
  0
ARC
  5
16A29
330
747D
100
AcDbEntity
  8
部品1
100
AcDbCircle
 10
3770.108742806864
 20
5510.577276893867
 30
0.0
 40
7.0
100
AcDbArc
 50
183.2473427903259
 51
270.0
  0
ARC
  5
16A2A
330
747D
100
AcDbEntity
  8
部品1
 48
50.0
100
AcDbCircle
 10
3751.736932596192
 20
5617.244276055552
 30
0.0
 40
0.7
100
AcDbArc
 50
183.2473427903779
 51
262.3418727924299
  0
ARC
  5
16A2B
330
747D
100
AcDbEntity
  8
部品1
 48
50.0
100
AcDbCircle
 10
3759.972963121029
 20
5525.044276055548
 30
0.0
 40
0.7
100
AcDbArc
 50
183.2473427902868
 51
262.3418727924299
  0
ARC
  5
16A2C
330
747D
100
AcDbEntity
  8
部品1
 48
50.0
100
AcDbCircle
 10
3759.479894012468
 20
5521.377276893865
 30
0.0
 40
3.0
100
AcDbArc
 50
3.247342790325873
 51
82.34187279284311
  0
ARC
  5
16A2D
330
747D
100
AcDbEntity
  8
部品1
 48
50.0
100
AcDbCircle
 10
3751.243863487623
 20
5613.577276893865
 30
0.0
 40
3.0
100
AcDbArc
 50
3.247342790325873
 51
82.34187279284311
  0
LINE
  5
16A2E
330
747D
100
AcDbEntity
  8
部品1
100
AcDbLine
 10
3754.23904638381
 20
5613.747216348969
 30
0.0
 11
3759.274087111917
 21
5525.004623516025
 31
0.0
  0
LINE
  5
16A2F
330
747D
100
AcDbEntity
  8
部品1
100
AcDbLine
 10
3762.475076908653
 20
5521.547216348968
 30
0.0
 11
3763.119982715769
 21
5510.180751498626
 31
0.0
  0
LINE
  5
16A30
330
747D
100
AcDbEntity
  8
部品1
100
AcDbLine
 10
3749.904659254731
 20
5637.180751498624
 30
0.0
 11
3751.038056587081
 21
5617.204623516026
 31
0.0
  0
LINE
  5
16A31
330
747D
100
AcDbEntity
  8
部品1
 48
50.0
100
AcDbLine
 10
7942.076577132971
 20
5644.577276893862
 30
0.0
 11
3756.893419345826
 21
5644.577276893862
 31
0.0
  0
LINE
  5
16A32
330
747D
100
AcDbEntity
  8
細線
 48
50.0
100
AcDbLine
 10
7947.326347225298
 20
5616.550519457362
 30
0.0
 11
3751.643649249818
 21
5616.55051945786
 31
0.0
  0
LINE
  5
16A33
330
747D
100
AcDbEntity
  8
細線
 48
50.0
100
AcDbLine
 10
7939.0903167005
 20
5524.350519457366
 30
0.0
 11
3759.879679774647
 21
5524.35051945786
 31
0.0
  0
LINE
  5
16A34
330
747D
100
AcDbEntity
  8
部品1
 48
50.0
100
AcDbLine
 10
7928.861253671937
 20
5503.577276893858
 30
0.0
 11
3770.108742806864
 21
5503.577276893864
 31
0.0
  0
DIMENSION
  5
16A78
330
747D
100
AcDbEntity
  8
寸法
 48
50.0
100
AcDbDimension
  2
*D34
 10
7899.484998239405
 20
5857.118862152103
 30
0.0
 11
8262.970279613641
 21
5857.118862152103
 31
0.0
 70
   160
 71
     5
 42
50.0
  3
INABA_S40G
100
AcDbAlignedDimension
 13
7949.484998239404
 23
5644.577276893862
 33
0.0
 14
7899.484998239405
 24
5644.577276893864
 34
0.0
100
AcDbRotatedDimension
  0
LINE
  5
16A79
330
747D
100
AcDbEntity
  8
部品1
100
AcDbLine
 10
7949.06533722407
 20
5637.180751498623
 30
0.0
 11
7947.931939891725
 21
5617.204623516023
 31
0.0
  0
LINE
  5
16A7A
330
747D
100
AcDbEntity
  8
細線
 48
50.0
100
AcDbLine
 10
7916.484998239404
 20
5644.577276893862
 30
0.0
 11
7916.484998239404
 21
5503.577276893862
 31
0.0
  0
LINE
  5
16A7B
330
747D
100
AcDbEntity
  8
部品1
100
AcDbLine
 10
7936.494919570148
 20
5521.547216348965
 30
0.0
 11
7935.850013763036
 21
5510.180751498625
 31
0.0
  0
LINE
  5
16A7C
330
747D
100
AcDbEntity
  8
部品1
100
AcDbLine
 10
7944.730950094992
 20
5613.747216348965
 30
0.0
 11
7939.695909366881
 21
5525.004623516022
 31
0.0
  0
ARC
  5
16A7D
330
747D
100
AcDbEntity
  8
部品1
 48
50.0
100
AcDbCircle
 10
7947.726132991178
 20
5613.577276893864
 30
0.0
 40
3.0
100
AcDbArc
 50
97.65812720715686
 51
176.7526572096741
  0
ARC
  5
16A7E
330
747D
100
AcDbEntity
  8
部品1
 48
50.0
100
AcDbCircle
 10
7939.490102466334
 20
5521.377276893861
 30
0.0
 40
3.0
100
AcDbArc
 50
97.65812720715686
 51
176.7526572096741
  0
ARC
  5
16A7F
330
747D
100
AcDbEntity
  8
部品1
 48
50.0
100
AcDbCircle
 10
7938.997033357773
 20
5525.044276055545
 30
0.0
 40
0.7
100
AcDbArc
 50
277.65812720757
 51
356.7526572097132
  0
ARC
  5
16A80
330
747D
100
AcDbEntity
  8
部品1
 48
50.0
100
AcDbCircle
 10
7947.233063882617
 20
5617.24427605555
 30
0.0
 40
0.7
100
AcDbArc
 50
277.65812720757
 51
356.7526572096221
  0
ARC
  5
16A81
330
747D
100
AcDbEntity
  8
部品1
100
AcDbCircle
 10
7928.861253671937
 20
5510.577276893864
 30
0.0
 40
7.0
100
AcDbArc
 50
270.0
 51
356.7526572096741
  0
ARC
  5
16A82
330
747D
100
AcDbEntity
  8
部品1
100
AcDbCircle
 10
7942.076577132971
 20
5637.577276893862
 30
0.0
 40
7.0
100
AcDbArc
 50
356.7526572096741
 51
90.0
  0
LINE
  5
16AC1
330
747D
100
AcDbEntity
  8
細線
100
AcDbLine
 10
6669.484998239408
 20
5469.077276893859
 30
0.0
 11
6669.484998239408
 21
5446.077276893859
 31
0.0
  0
LINE
  5
16AC2
330
747D
100
AcDbEntity
  8
細線
100
AcDbLine
 10
6743.484998239408
 20
5457.077276893858
 30
0.0
 11
6669.484998239408
 21
5457.077276893858
 31
0.0
  0
LINE
  5
16AC3
330
747D
100
AcDbEntity
  8
細線
100
AcDbLine
 10
6743.484998239408
 20
5451.077276893858
 30
0.0
 11
6669.484998239408
 21
5451.077276893858
 31
0.0
  0
LINE
  5
16AC4
330
747D
100
AcDbEntity
  8
細線
100
AcDbLine
 10
6743.484998239408
 20
5463.077276893859
 30
0.0
 11
6669.484998239408
 21
5463.077276893859
 31
0.0
  0
LINE
  5
16AC5
330
747D
100
AcDbEntity
  8
細線
100
AcDbLine
 10
6595.484998239408
 20
5463.077276893859
 30
0.0
 11
6664.484998239408
 21
5463.077276893859
 31
0.0
  0
LINE
  5
16AC6
330
747D
100
AcDbEntity
  8
細線
100
AcDbLine
 10
6595.484998239408
 20
5451.077276893858
 30
0.0
 11
6669.484998239408
 21
5451.077276893858
 31
0.0
  0
LINE
  5
16AC7
330
747D
100
AcDbEntity
  8
細線
100
AcDbLine
 10
6595.484998239408
 20
5457.077276893858
 30
0.0
 11
6669.484998239408
 21
5457.077276893858
 31
0.0
  0
LINE
  5
16AC8
330
747D
100
AcDbEntity
  8
細線
100
AcDbLine
 10
6595.484998239408
 20
5463.077276893859
 30
0.0
 11
6669.484998239408
 21
5463.077276893859
 31
0.0
  0
LINE
  5
16AC9
330
747D
100
AcDbEntity
  8
部品1
 48
0.01
100
AcDbLine
 10
6757.484998239409
 20
5475.577276893858
 30
0.0
 11
6581.484998239408
 21
5475.577276893858
 31
0.0
  0
LINE
  5
16ACA
330
747D
100
AcDbEntity
  8
部品1
 48
0.01
100
AcDbLine
 10
6579.484998239408
 20
5473.577276893859
 30
0.0
 11
6579.484998239408
 21
5442.077276893859
 31
0.0
  0
LINE
  5
16ACB
330
747D
100
AcDbEntity
  8
部品1
 48
0.01
100
AcDbLine
 10
6581.484998239408
 20
5440.077276893859
 30
0.0
 11
6757.484998239409
 21
5440.077276893859
 31
0.0
  0
LINE
  5
16ACC
330
747D
100
AcDbEntity
  8
部品1
 48
0.01
100
AcDbLine
 10
6759.484998239408
 20
5442.077276893859
 30
0.0
 11
6759.484998239408
 21
5473.577276893859
 31
0.0
  0
LINE
  5
16ACD
330
747D
100
AcDbEntity
  8
細線
100
AcDbLine
 10
6595.484998239408
 20
5469.077276893859
 30
0.0
 11
6595.484998239408
 21
5446.077276893859
 31
0.0
  0
LINE
  5
16ACE
330
747D
100
AcDbEntity
  8
細線
100
AcDbLine
 10
6743.484998239408
 20
5446.077276893859
 30
0.0
 11
6743.484998239408
 21
5469.077276893859
 31
0.0
  0
LINE
  5
16ACF
330
747D
100
AcDbEntity
  8
細線
100
AcDbLine
 10
6743.484998239408
 20
5469.077276893859
 30
0.0
 11
6669.484998239408
 21
5469.077276893859
 31
0.0
  0
LINE
  5
16AD0
330
747D
100
AcDbEntity
  8
細線
100
AcDbLine
 10
6595.484998239408
 20
5446.077276893859
 30
0.0
 11
6669.484998239408
 21
5446.077276893859
 31
0.0
  0
LINE
  5
16AD1
330
747D
100
AcDbEntity
  8
細線
100
AcDbLine
 10
6669.484998239408
 20
5469.077276893859
 30
0.0
 11
6595.484998239408
 21
5469.077276893859
 31
0.0
  0
LINE
  5
16AD2
330
747D
100
AcDbEntity
  8
細線
100
AcDbLine
 10
6669.484998239408
 20
5446.077276893859
 30
0.0
 11
6743.484998239408
 21
5446.077276893859
 31
0.0
  0
ARC
  5
16AD3
330
747D
100
AcDbEntity
  8
部品1
 48
0.01
100
AcDbCircle
 10
6581.484998239408
 20
5473.577276893859
 30
0.0
 40
2.0
100
AcDbArc
 50
90.0
 51
180.0
  0
ARC
  5
16AD4
330
747D
100
AcDbEntity
  8
部品1
 48
0.01
100
AcDbCircle
 10
6581.484998239408
 20
5442.077276893859
 30
0.0
 40
2.0
100
AcDbArc
 50
180.0
 51
270.0
  0
ARC
  5
16AD5
330
747D
100
AcDbEntity
  8
部品1
 48
0.01
100
AcDbCircle
 10
6757.484998239409
 20
5473.577276893859
 30
0.0
 40
2.0
100
AcDbArc
 50
0.0
 51
90.0
  0
ARC
  5
16AD6
330
747D
100
AcDbEntity
  8
部品1
 48
0.01
100
AcDbCircle
 10
6757.484998239409
 20
5442.077276893859
 30
0.0
 40
2.0
100
AcDbArc
 50
270.0
 51
0.0
  0
ARC
  5
16AD7
330
747D
100
AcDbEntity
  8
部品1
 48
0.01
100
AcDbCircle
 10
5937.484998239408
 20
5442.077276893859
 30
0.0
 40
2.0
100
AcDbArc
 50
270.0
 51
0.0
  0
ARC
  5
16AD8
330
747D
100
AcDbEntity
  8
部品1
 48
0.01
100
AcDbCircle
 10
5937.484998239408
 20
5473.577276893859
 30
0.0
 40
2.0
100
AcDbArc
 50
0.0
 51
90.0
  0
ARC
  5
16AD9
330
747D
100
AcDbEntity
  8
部品1
 48
0.01
100
AcDbCircle
 10
5761.484998239408
 20
5442.077276893859
 30
0.0
 40
2.0
100
AcDbArc
 50
180.0
 51
270.0
  0
ARC
  5
16ADA
330
747D
100
AcDbEntity
  8
部品1
 48
0.01
100
AcDbCircle
 10
5761.484998239408
 20
5473.577276893859
 30
0.0
 40
2.0
100
AcDbArc
 50
90.0
 51
180.0
  0
LINE
  5
16ADB
330
747D
100
AcDbEntity
  8
細線
100
AcDbLine
 10
5849.484998239407
 20
5446.077276893859
 30
0.0
 11
5923.484998239408
 21
5446.077276893859
 31
0.0
  0
LINE
  5
16ADC
330
747D
100
AcDbEntity
  8
細線
100
AcDbLine
 10
5849.484998239407
 20
5469.077276893859
 30
0.0
 11
5775.484998239408
 21
5469.077276893859
 31
0.0
  0
LINE
  5
16ADD
330
747D
100
AcDbEntity
  8
細線
100
AcDbLine
 10
5775.484998239408
 20
5446.077276893859
 30
0.0
 11
5849.484998239407
 21
5446.077276893859
 31
0.0
  0
LINE
  5
16ADE
330
747D
100
AcDbEntity
  8
細線
100
AcDbLine
 10
5923.484998239408
 20
5469.077276893859
 30
0.0
 11
5849.484998239407
 21
5469.077276893859
 31
0.0
  0
LINE
  5
16ADF
330
747D
100
AcDbEntity
  8
細線
100
AcDbLine
 10
5923.484998239408
 20
5446.077276893859
 30
0.0
 11
5923.484998239408
 21
5469.077276893859
 31
0.0
  0
LINE
  5
16AE0
330
747D
100
AcDbEntity
  8
細線
100
AcDbLine
 10
5775.484998239408
 20
5469.077276893859
 30
0.0
 11
5775.484998239408
 21
5446.077276893859
 31
0.0
  0
LINE
  5
16AE1
330
747D
100
AcDbEntity
  8
部品1
 48
0.01
100
AcDbLine
 10
5939.484998239407
 20
5442.077276893859
 30
0.0
 11
5939.484998239407
 21
5473.577276893859
 31
0.0
  0
LINE
  5
16AE2
330
747D
100
AcDbEntity
  8
部品1
 48
0.01
100
AcDbLine
 10
5761.484998239408
 20
5440.077276893859
 30
0.0
 11
5937.484998239408
 21
5440.077276893859
 31
0.0
  0
LINE
  5
16AE3
330
747D
100
AcDbEntity
  8
部品1
 48
0.01
100
AcDbLine
 10
5759.484998239408
 20
5473.577276893859
 30
0.0
 11
5759.484998239408
 21
5442.077276893859
 31
0.0
  0
LINE
  5
16AE4
330
747D
100
AcDbEntity
  8
部品1
 48
0.01
100
AcDbLine
 10
5937.484998239408
 20
5475.577276893858
 30
0.0
 11
5761.484998239408
 21
5475.577276893858
 31
0.0
  0
LINE
  5
16AE5
330
747D
100
AcDbEntity
  8
細線
100
AcDbLine
 10
5775.484998239408
 20
5463.077276893859
 30
0.0
 11
5849.484998239407
 21
5463.077276893859
 31
0.0
  0
LINE
  5
16AE6
330
747D
100
AcDbEntity
  8
細線
100
AcDbLine
 10
5775.484998239408
 20
5457.077276893858
 30
0.0
 11
5849.484998239407
 21
5457.077276893858
 31
0.0
  0
LINE
  5
16AE7
330
747D
100
AcDbEntity
  8
細線
100
AcDbLine
 10
5775.484998239408
 20
5451.077276893858
 30
0.0
 11
5849.484998239407
 21
5451.077276893858
 31
0.0
  0
LINE
  5
16AE8
330
747D
100
AcDbEntity
  8
細線
100
AcDbLine
 10
5775.484998239408
 20
5463.077276893859
 30
0.0
 11
5844.484998239408
 21
5463.077276893859
 31
0.0
  0
LINE
  5
16AE9
330
747D
100
AcDbEntity
  8
細線
100
AcDbLine
 10
5923.484998239408
 20
5463.077276893859
 30
0.0
 11
5849.484998239407
 21
5463.077276893859
 31
0.0
  0
LINE
  5
16AEA
330
747D
100
AcDbEntity
  8
細線
100
AcDbLine
 10
5923.484998239408
 20
5451.077276893858
 30
0.0
 11
5849.484998239407
 21
5451.077276893858
 31
0.0
  0
LINE
  5
16AEB
330
747D
100
AcDbEntity
  8
細線
100
AcDbLine
 10
5923.484998239408
 20
5457.077276893858
 30
0.0
 11
5849.484998239407
 21
5457.077276893858
 31
0.0
  0
LINE
  5
16AEC
330
747D
100
AcDbEntity
  8
細線
100
AcDbLine
 10
5849.484998239407
 20
5469.077276893859
 30
0.0
 11
5849.484998239407
 21
5446.077276893859
 31
0.0
  0
LINE
  5
16AED
330
747D
100
AcDbEntity
  8
細線
100
AcDbLine
 10
5029.484998239408
 20
5469.077276893859
 30
0.0
 11
5029.484998239408
 21
5446.077276893859
 31
0.0
  0
LINE
  5
16AEE
330
747D
100
AcDbEntity
  8
細線
100
AcDbLine
 10
5103.484998239408
 20
5457.077276893858
 30
0.0
 11
5029.484998239408
 21
5457.077276893858
 31
0.0
  0
LINE
  5
16AEF
330
747D
100
AcDbEntity
  8
細線
100
AcDbLine
 10
5103.484998239408
 20
5451.077276893858
 30
0.0
 11
5029.484998239408
 21
5451.077276893858
 31
0.0
  0
LINE
  5
16AF0
330
747D
100
AcDbEntity
  8
細線
100
AcDbLine
 10
5103.484998239408
 20
5463.077276893859
 30
0.0
 11
5029.484998239408
 21
5463.077276893859
 31
0.0
  0
LINE
  5
16AF1
330
747D
100
AcDbEntity
  8
細線
100
AcDbLine
 10
4955.484998239408
 20
5463.077276893859
 30
0.0
 11
5024.484998239408
 21
5463.077276893859
 31
0.0
  0
LINE
  5
16AF2
330
747D
100
AcDbEntity
  8
細線
100
AcDbLine
 10
4955.484998239408
 20
5451.077276893858
 30
0.0
 11
5029.484998239408
 21
5451.077276893858
 31
0.0
  0
LINE
  5
16AF3
330
747D
100
AcDbEntity
  8
細線
100
AcDbLine
 10
4955.484998239408
 20
5457.077276893858
 30
0.0
 11
5029.484998239408
 21
5457.077276893858
 31
0.0
  0
LINE
  5
16AF4
330
747D
100
AcDbEntity
  8
細線
100
AcDbLine
 10
4955.484998239408
 20
5463.077276893859
 30
0.0
 11
5029.484998239408
 21
5463.077276893859
 31
0.0
  0
LINE
  5
16AF5
330
747D
100
AcDbEntity
  8
部品1
 48
0.01
100
AcDbLine
 10
5117.484998239408
 20
5475.577276893858
 30
0.0
 11
4941.484998239408
 21
5475.577276893858
 31
0.0
  0
LINE
  5
16AF6
330
747D
100
AcDbEntity
  8
部品1
 48
0.01
100
AcDbLine
 10
4939.484998239407
 20
5473.577276893859
 30
0.0
 11
4939.484998239407
 21
5442.077276893859
 31
0.0
  0
LINE
  5
16AF7
330
747D
100
AcDbEntity
  8
部品1
 48
0.01
100
AcDbLine
 10
4941.484998239408
 20
5440.077276893859
 30
0.0
 11
5117.484998239408
 21
5440.077276893859
 31
0.0
  0
LINE
  5
16AF8
330
747D
100
AcDbEntity
  8
部品1
 48
0.01
100
AcDbLine
 10
5119.484998239408
 20
5442.077276893859
 30
0.0
 11
5119.484998239408
 21
5473.577276893859
 31
0.0
  0
LINE
  5
16AF9
330
747D
100
AcDbEntity
  8
細線
100
AcDbLine
 10
4955.484998239408
 20
5469.077276893859
 30
0.0
 11
4955.484998239408
 21
5446.077276893859
 31
0.0
  0
LINE
  5
16AFA
330
747D
100
AcDbEntity
  8
細線
100
AcDbLine
 10
5103.484998239408
 20
5446.077276893859
 30
0.0
 11
5103.484998239408
 21
5469.077276893859
 31
0.0
  0
LINE
  5
16AFB
330
747D
100
AcDbEntity
  8
細線
100
AcDbLine
 10
5103.484998239408
 20
5469.077276893859
 30
0.0
 11
5029.484998239408
 21
5469.077276893859
 31
0.0
  0
LINE
  5
16AFC
330
747D
100
AcDbEntity
  8
細線
100
AcDbLine
 10
4955.484998239408
 20
5446.077276893859
 30
0.0
 11
5029.484998239408
 21
5446.077276893859
 31
0.0
  0
LINE
  5
16AFD
330
747D
100
AcDbEntity
  8
細線
100
AcDbLine
 10
5029.484998239408
 20
5469.077276893859
 30
0.0
 11
4955.484998239408
 21
5469.077276893859
 31
0.0
  0
LINE
  5
16AFE
330
747D
100
AcDbEntity
  8
細線
100
AcDbLine
 10
5029.484998239408
 20
5446.077276893859
 30
0.0
 11
5103.484998239408
 21
5446.077276893859
 31
0.0
  0
ARC
  5
16AFF
330
747D
100
AcDbEntity
  8
部品1
 48
0.01
100
AcDbCircle
 10
4941.484998239408
 20
5473.577276893859
 30
0.0
 40
2.0
100
AcDbArc
 50
90.0
 51
180.0
  0
ARC
  5
16B00
330
747D
100
AcDbEntity
  8
部品1
 48
0.01
100
AcDbCircle
 10
4941.484998239408
 20
5442.077276893859
 30
0.0
 40
2.0
100
AcDbArc
 50
180.0
 51
270.0
  0
ARC
  5
16B01
330
747D
100
AcDbEntity
  8
部品1
 48
0.01
100
AcDbCircle
 10
5117.484998239408
 20
5473.577276893859
 30
0.0
 40
2.0
100
AcDbArc
 50
0.0
 51
90.0
  0
ARC
  5
16B02
330
747D
100
AcDbEntity
  8
部品1
 48
0.01
100
AcDbCircle
 10
5117.484998239408
 20
5442.077276893859
 30
0.0
 40
2.0
100
AcDbArc
 50
270.0
 51
0.0
  0
ARC
  5
16B03
330
747D
100
AcDbEntity
  8
部品1
 48
0.01
100
AcDbCircle
 10
4297.484998239408
 20
5442.077276893859
 30
0.0
 40
2.0
100
AcDbArc
 50
270.0
 51
0.0
  0
ARC
  5
16B04
330
747D
100
AcDbEntity
  8
部品1
 48
0.01
100
AcDbCircle
 10
4297.484998239408
 20
5473.577276893859
 30
0.0
 40
2.0
100
AcDbArc
 50
0.0
 51
90.0
  0
ARC
  5
16B05
330
747D
100
AcDbEntity
  8
部品1
 48
0.01
100
AcDbCircle
 10
4121.484998239408
 20
5442.077276893859
 30
0.0
 40
2.0
100
AcDbArc
 50
180.0
 51
270.0
  0
ARC
  5
16B06
330
747D
100
AcDbEntity
  8
部品1
 48
0.01
100
AcDbCircle
 10
4121.484998239408
 20
5473.577276893859
 30
0.0
 40
2.0
100
AcDbArc
 50
90.0
 51
180.0
  0
LINE
  5
16B07
330
747D
100
AcDbEntity
  8
細線
100
AcDbLine
 10
4209.484998239408
 20
5446.077276893859
 30
0.0
 11
4283.484998239408
 21
5446.077276893859
 31
0.0
  0
LINE
  5
16B08
330
747D
100
AcDbEntity
  8
細線
100
AcDbLine
 10
4209.484998239408
 20
5469.077276893859
 30
0.0
 11
4135.484998239408
 21
5469.077276893859
 31
0.0
  0
LINE
  5
16B09
330
747D
100
AcDbEntity
  8
細線
100
AcDbLine
 10
4135.484998239408
 20
5446.077276893859
 30
0.0
 11
4209.484998239408
 21
5446.077276893859
 31
0.0
  0
LINE
  5
16B0A
330
747D
100
AcDbEntity
  8
細線
100
AcDbLine
 10
4283.484998239408
 20
5469.077276893859
 30
0.0
 11
4209.484998239408
 21
5469.077276893859
 31
0.0
  0
LINE
  5
16B0B
330
747D
100
AcDbEntity
  8
細線
100
AcDbLine
 10
4283.484998239408
 20
5446.077276893859
 30
0.0
 11
4283.484998239408
 21
5469.077276893859
 31
0.0
  0
LINE
  5
16B0C
330
747D
100
AcDbEntity
  8
細線
100
AcDbLine
 10
4135.484998239408
 20
5469.077276893859
 30
0.0
 11
4135.484998239408
 21
5446.077276893859
 31
0.0
  0
LINE
  5
16B0D
330
747D
100
AcDbEntity
  8
部品1
 48
0.01
100
AcDbLine
 10
4299.484998239408
 20
5442.077276893859
 30
0.0
 11
4299.484998239408
 21
5473.577276893859
 31
0.0
  0
LINE
  5
16B0E
330
747D
100
AcDbEntity
  8
部品1
 48
0.01
100
AcDbLine
 10
4121.484998239408
 20
5440.077276893859
 30
0.0
 11
4297.484998239408
 21
5440.077276893859
 31
0.0
  0
LINE
  5
16B0F
330
747D
100
AcDbEntity
  8
部品1
 48
0.01
100
AcDbLine
 10
4119.484998239408
 20
5473.577276893859
 30
0.0
 11
4119.484998239408
 21
5442.077276893859
 31
0.0
  0
LINE
  5
16B10
330
747D
100
AcDbEntity
  8
部品1
 48
0.01
100
AcDbLine
 10
4297.484998239408
 20
5475.577276893858
 30
0.0
 11
4121.484998239408
 21
5475.577276893858
 31
0.0
  0
LINE
  5
16B11
330
747D
100
AcDbEntity
  8
細線
100
AcDbLine
 10
4135.484998239408
 20
5463.077276893859
 30
0.0
 11
4209.484998239408
 21
5463.077276893859
 31
0.0
  0
LINE
  5
16B12
330
747D
100
AcDbEntity
  8
細線
100
AcDbLine
 10
4135.484998239408
 20
5457.077276893858
 30
0.0
 11
4209.484998239408
 21
5457.077276893858
 31
0.0
  0
LINE
  5
16B13
330
747D
100
AcDbEntity
  8
細線
100
AcDbLine
 10
4135.484998239408
 20
5451.077276893858
 30
0.0
 11
4209.484998239408
 21
5451.077276893858
 31
0.0
  0
LINE
  5
16B14
330
747D
100
AcDbEntity
  8
細線
100
AcDbLine
 10
4135.484998239408
 20
5463.077276893859
 30
0.0
 11
4204.484998239408
 21
5463.077276893859
 31
0.0
  0
LINE
  5
16B15
330
747D
100
AcDbEntity
  8
細線
100
AcDbLine
 10
4283.484998239408
 20
5463.077276893859
 30
0.0
 11
4209.484998239408
 21
5463.077276893859
 31
0.0
  0
LINE
  5
16B16
330
747D
100
AcDbEntity
  8
細線
100
AcDbLine
 10
4283.484998239408
 20
5451.077276893858
 30
0.0
 11
4209.484998239408
 21
5451.077276893858
 31
0.0
  0
LINE
  5
16B17
330
747D
100
AcDbEntity
  8
細線
100
AcDbLine
 10
4283.484998239408
 20
5457.077276893858
 30
0.0
 11
4209.484998239408
 21
5457.077276893858
 31
0.0
  0
LINE
  5
16B18
330
747D
100
AcDbEntity
  8
細線
100
AcDbLine
 10
4209.484998239408
 20
5469.077276893859
 30
0.0
 11
4209.484998239408
 21
5446.077276893859
 31
0.0
  0
ARC
  5
16B19
330
747D
100
AcDbEntity
  8
部品1
 48
0.01
100
AcDbCircle
 10
7577.484998239409
 20
5442.077276893859
 30
0.0
 40
2.0
100
AcDbArc
 50
270.0
 51
0.0
  0
ARC
  5
16B1A
330
747D
100
AcDbEntity
  8
部品1
 48
0.01
100
AcDbCircle
 10
7577.484998239409
 20
5473.577276893859
 30
0.0
 40
2.0
100
AcDbArc
 50
0.0
 51
90.0
  0
ARC
  5
16B1B
330
747D
100
AcDbEntity
  8
部品1
 48
0.01
100
AcDbCircle
 10
7401.484998239408
 20
5442.077276893859
 30
0.0
 40
2.0
100
AcDbArc
 50
180.0
 51
270.0
  0
ARC
  5
16B1C
330
747D
100
AcDbEntity
  8
部品1
 48
0.01
100
AcDbCircle
 10
7401.484998239408
 20
5473.577276893859
 30
0.0
 40
2.0
100
AcDbArc
 50
90.0
 51
180.0
  0
LINE
  5
16B1D
330
747D
100
AcDbEntity
  8
細線
100
AcDbLine
 10
7489.484998239408
 20
5446.077276893859
 30
0.0
 11
7563.484998239409
 21
5446.077276893859
 31
0.0
  0
LINE
  5
16B1E
330
747D
100
AcDbEntity
  8
細線
100
AcDbLine
 10
7489.484998239408
 20
5469.077276893859
 30
0.0
 11
7415.484998239408
 21
5469.077276893859
 31
0.0
  0
LINE
  5
16B1F
330
747D
100
AcDbEntity
  8
細線
100
AcDbLine
 10
7415.484998239408
 20
5446.077276893859
 30
0.0
 11
7489.484998239408
 21
5446.077276893859
 31
0.0
  0
LINE
  5
16B20
330
747D
100
AcDbEntity
  8
細線
100
AcDbLine
 10
7563.484998239409
 20
5469.077276893859
 30
0.0
 11
7489.484998239408
 21
5469.077276893859
 31
0.0
  0
LINE
  5
16B21
330
747D
100
AcDbEntity
  8
細線
100
AcDbLine
 10
7563.484998239409
 20
5446.077276893859
 30
0.0
 11
7563.484998239409
 21
5469.077276893859
 31
0.0
  0
LINE
  5
16B22
330
747D
100
AcDbEntity
  8
細線
100
AcDbLine
 10
7415.484998239408
 20
5469.077276893859
 30
0.0
 11
7415.484998239408
 21
5446.077276893859
 31
0.0
  0
LINE
  5
16B23
330
747D
100
AcDbEntity
  8
部品1
 48
0.01
100
AcDbLine
 10
7579.484998239408
 20
5442.077276893859
 30
0.0
 11
7579.484998239408
 21
5473.577276893859
 31
0.0
  0
LINE
  5
16B24
330
747D
100
AcDbEntity
  8
部品1
 48
0.01
100
AcDbLine
 10
7401.484998239408
 20
5440.077276893859
 30
0.0
 11
7577.484998239409
 21
5440.077276893859
 31
0.0
  0
LINE
  5
16B25
330
747D
100
AcDbEntity
  8
部品1
 48
0.01
100
AcDbLine
 10
7399.484998239408
 20
5473.577276893859
 30
0.0
 11
7399.484998239408
 21
5442.077276893859
 31
0.0
  0
LINE
  5
16B26
330
747D
100
AcDbEntity
  8
部品1
 48
0.01
100
AcDbLine
 10
7577.484998239409
 20
5475.577276893858
 30
0.0
 11
7401.484998239408
 21
5475.577276893858
 31
0.0
  0
LINE
  5
16B27
330
747D
100
AcDbEntity
  8
細線
100
AcDbLine
 10
7415.484998239408
 20
5463.077276893859
 30
0.0
 11
7489.484998239408
 21
5463.077276893859
 31
0.0
  0
LINE
  5
16B28
330
747D
100
AcDbEntity
  8
細線
100
AcDbLine
 10
7415.484998239408
 20
5457.077276893858
 30
0.0
 11
7489.484998239408
 21
5457.077276893858
 31
0.0
  0
LINE
  5
16B29
330
747D
100
AcDbEntity
  8
細線
100
AcDbLine
 10
7415.484998239408
 20
5451.077276893858
 30
0.0
 11
7489.484998239408
 21
5451.077276893858
 31
0.0
  0
LINE
  5
16B2A
330
747D
100
AcDbEntity
  8
細線
100
AcDbLine
 10
7415.484998239408
 20
5463.077276893859
 30
0.0
 11
7484.484998239408
 21
5463.077276893859
 31
0.0
  0
LINE
  5
16B2B
330
747D
100
AcDbEntity
  8
細線
100
AcDbLine
 10
7563.484998239409
 20
5463.077276893859
 30
0.0
 11
7489.484998239408
 21
5463.077276893859
 31
0.0
  0
LINE
  5
16B2C
330
747D
100
AcDbEntity
  8
細線
100
AcDbLine
 10
7563.484998239409
 20
5451.077276893858
 30
0.0
 11
7489.484998239408
 21
5451.077276893858
 31
0.0
  0
LINE
  5
16B2D
330
747D
100
AcDbEntity
  8
細線
100
AcDbLine
 10
7563.484998239409
 20
5457.077276893858
 30
0.0
 11
7489.484998239408
 21
5457.077276893858
 31
0.0
  0
LINE
  5
16B2E
330
747D
100
AcDbEntity
  8
細線
100
AcDbLine
 10
7489.484998239408
 20
5469.077276893859
 30
0.0
 11
7489.484998239408
 21
5446.077276893859
 31
0.0
  0
LWPOLYLINE
  5
16DCA
330
747D
100
AcDbEntity
  8
部品1
100
AcDbPolyline
 90
        4
 70
     1
 43
0.0
 10
10379.62157768556
 20
2866.500696077143
 10
10379.62157768556
 20
2626.60837453161
 10
11143.092243914
 20
2626.60837453161
 10
11143.092243914
 20
2866.500696077143
  0
TEXT
  5
16DCB
330
747D
100
AcDbEntity
  8
部品1
100
AcDbText
 10
10469.06767910917
 20
2673.607166858619
 30
0.0
 40
135.0
  1
側面図
  7
STYLE2
100
AcDbText
  0
DIMENSION
  5
16DCC
330
747D
100
AcDbEntity
  8
寸法
100
AcDbDimension
  2
*D35
 10
9424.763032644495
 20
5644.577276893866
 30
0.0
 11
9424.763032644492
 21
4597.155906173022
 31
0.0
 70
   160
 71
     5
 42
2075.000000000005
  3
INABA_S40G
100
AcDbAlignedDimension
 13
10286.35691079978
 23
3569.57727689386
 33
0.0
 14
10226.35691079978
 24
5644.577276893866
 34
0.0
 50
90.0
100
AcDbRotatedDimension
1001
ACAD
1000
DSTYLE
1002
{
1070
   174
1070
     0
1070
   272
1070
     1
1070
   288
1070
     0
1070
   341
1005
0
1002
}
  0
TEXT
  5
16DCD
330
747D
100
AcDbEntity
  8
部品1
 48
50.0
100
AcDbText
 10
10609.62474602351
 20
5811.329438147573
 30
0.0
 40
120.0
  1
1000
  7
STYLE1
100
AcDbText
  0
LINE
  5
16DCE
330
747D
100
AcDbEntity
  8
部品1
100
AcDbLine
 10
10233.90189715674
 20
5643.295012228128
 30
0.0
 11
11308.96878766124
 21
5588.218074603001
 31
0.0
  0
LINE
  5
16DCF
330
747D
100
AcDbEntity
  8
部品1
100
AcDbLine
 10
10241.69947540173
 20
5502.358301962828
 30
0.0
 11
11291.02061133963
 21
5463.329876728623
 31
0.0
  0
LINE
  5
16DD0
330
747D
100
AcDbEntity
  8
細線
 48
50.0
100
AcDbLine
 10
10259.35691079978
 20
5641.976953269266
 30
0.0
 11
10254.06780924427
 21
5501.891320641911
 31
0.0
  0
LINE
  5
16DD1
330
747D
100
AcDbEntity
  8
細線
 48
50.0
100
AcDbLine
 10
11283.35691079978
 20
5589.544255929157
 30
0.0
 11
11278.60922791178
 21
5463.798483438413
 31
0.0
  0
LINE
  5
16DD2
330
747D
100
AcDbEntity
  8
部品1
 48
50.0
100
AcDbLine
 10
10226.54119671289
 20
5636.170823058553
 30
0.0
 11
10226.9214564907
 21
5616.243858612143
 31
0.0
  0
LINE
  5
16DD3
330
747D
100
AcDbEntity
  8
部品1
 48
50.0
100
AcDbLine
 10
10229.99022859695
 20
5612.668577118669
 30
0.0
 11
10231.69413008831
 21
5523.378080412023
 31
0.0
  0
LINE
  5
16DD4
330
747D
100
AcDbEntity
  8
細線
 48
50.0
100
AcDbLine
 10
10227.3963339006
 20
5615.594358735223
 30
0.0
 11
11313.03231864576
 21
5559.970154094395
 31
0.0
  0
LINE
  5
16DD5
330
747D
100
AcDbEntity
  8
細線
 48
50.0
100
AcDbLine
 10
10232.15680913788
 20
5522.73284703736
 30
0.0
 11
11302.16047356852
 21
5482.923528062865
 31
0.0
  0
LINE
  5
16DD6
330
747D
100
AcDbEntity
  8
部品1
 48
50.0
100
AcDbLine
 10
10234.76290219455
 20
5519.802798918551
 30
0.0
 11
10234.96485481498
 21
5509.219763525457
 31
0.0
  0
ARC
  5
16DD7
330
747D
100
AcDbEntity
  8
部品1
 48
50.0
100
AcDbCircle
 10
10233.53992254123
 20
5636.304377465982
 30
0.0
 40
7.0
100
AcDbArc
 50
87.03587545304044
 51
181.093224029263
  0
ARC
  5
16DD8
330
747D
100
AcDbEntity
  8
部品1
 48
50.0
100
AcDbCircle
 10
10241.96358064332
 20
5509.353317932886
 30
0.0
 40
7.0
100
AcDbArc
 50
181.093224029263
 51
267.8377559871574
  0
ARC
  5
16DD9
330
747D
100
AcDbEntity
  8
部品1
100
AcDbCircle
 10
10231.76344826812
 20
5519.745561315367
 30
0.0
 40
3.0
100
AcDbArc
 50
1.093224029263039
 51
80.18775403148449
  0
ARC
  5
16DDA
330
747D
100
AcDbEntity
  8
部品1
100
AcDbCircle
 10
10226.99077467052
 20
5612.611339515486
 30
0.0
 40
3.0
100
AcDbArc
 50
1.093224029263039
 51
80.18775403148449
  0
ARC
  5
16DDB
330
747D
100
AcDbEntity
  8
部品1
100
AcDbCircle
 10
10227.62132907354
 20
5616.257214052884
 30
0.0
 40
0.7
100
AcDbArc
 50
181.0932240292109
 51
260.1877540314845
  0
ARC
  5
16DDC
330
747D
100
AcDbEntity
  8
部品1
100
AcDbCircle
 10
10232.39400267114
 20
5523.391435852765
 30
0.0
 40
0.7
100
AcDbArc
 50
181.0932240292109
 51
260.1877540314845
  0
LINE
  5
16DDD
330
747D
100
AcDbEntity
  8
部品1
 48
50.0
100
AcDbLine
 10
11315.57081361048
 20
5580.51842916808
 30
0.0
 11
11313.54019241951
 21
5560.573387910299
 31
0.0
  0
LINE
  5
16DDE
330
747D
100
AcDbEntity
  8
部品1
 48
50.0
100
AcDbLine
 10
11310.18762593503
 20
5557.262753837391
 30
0.0
 11
11302.68084667019
 21
5483.530133092378
 31
0.0
  0
LINE
  5
16DDF
330
747D
100
AcDbEntity
  8
部品1
 48
50.0
100
AcDbLine
 10
11299.32828018571
 20
5480.219499019465
 30
0.0
 11
11298.24871714597
 21
5469.615882025906
 31
0.0
  0
ARC
  5
16DE0
330
747D
100
AcDbEntity
  8
部品1
 48
50.0
100
AcDbCircle
 10
11308.60681304572
 20
5581.227439840853
 30
0.0
 40
7.0
100
AcDbArc
 50
354.1866997665479
 51
87.03587545304044
  0
ARC
  5
16DE1
330
747D
100
AcDbEntity
  8
部品1
 48
50.0
100
AcDbCircle
 10
11291.28471658121
 20
5470.32489269868
 30
0.0
 40
7.0
100
AcDbArc
 50
267.8377559871574
 51
354.1866997665479
  0
ARC
  5
16DE2
330
747D
100
AcDbEntity
  8
部品1
100
AcDbCircle
 10
11302.31285185631
 20
5479.915637302564
 30
0.0
 40
3.0
100
AcDbArc
 50
95.09216976420788
 51
174.1866997665479
  0
ARC
  5
16DE3
330
747D
100
AcDbEntity
  8
部品1
100
AcDbCircle
 10
11313.17219760564
 20
5556.958892120487
 30
0.0
 40
3.0
100
AcDbArc
 50
95.09216976442012
 51
174.1866997665479
  0
ARC
  5
16DE4
330
747D
100
AcDbEntity
  8
部品1
100
AcDbCircle
 10
11312.84379236304
 20
5560.644288977577
 30
0.0
 40
0.7
100
AcDbArc
 50
275.0921697642079
 51
354.1866997665479
  0
ARC
  5
16DE5
330
747D
100
AcDbEntity
  8
部品1
100
AcDbCircle
 10
11301.98444661372
 20
5483.601034159654
 30
0.0
 40
0.7
100
AcDbArc
 50
275.0921697642079
 51
354.1866997667061
  0
LINE
  5
16DE6
330
747D
100
AcDbEntity
  8
部品1
 48
50.0
100
AcDbLine
 10
10621.35691079978
 20
5775.44541599514
 30
0.0
 11
10921.35691079978
 21
5775.44541599514
 31
0.0
  0
LINE
  5
16DE7
330
747D
100
AcDbEntity
  8
部品1
 48
50.0
100
AcDbLine
 10
10921.35691079978
 20
5775.44541599514
 30
0.0
 11
10921.35691079978
 21
5759.245415995142
 31
0.0
  0
TEXT
  5
16DE8
330
747D
100
AcDbEntity
  8
部品1
 48
50.0
100
AcDbText
 10
11098.44975808764
 20
5673.828179929291
 30
0.0
 40
120.0
  1
104
 50
90.0
  7
STYLE1
100
AcDbText
  0
LINE
  5
16DE9
330
747D
100
AcDbEntity
  8
部品1
 48
50.0
100
AcDbLine
 10
10621.35691079978
 20
5775.44541599514
 30
0.0
 11
10921.35691079978
 21
5759.245415995142
 31
0.0
  0
DIMENSION
  5
16DEA
330
747D
100
AcDbEntity
  8
寸法
 48
50.0
100
AcDbDimension
  2
*D36
 10
9665.748504031418
 20
5518.922535767192
 30
0.0
 11
9676.413979290341
 21
5889.769199008891
 31
0.0
 70
   161
 71
     5
 42
141.0000000000009
  3
INABA_S40G
100
AcDbAlignedDimension
 13
10245.75293095836
 23
5643.300025728541
 33
0.0
 14
10241.69947540173
 24
5502.358301962828
 34
0.0
1001
ACAD
1000
DSTYLE
1002
{
1070
   174
1070
     0
1070
   272
1070
     1
1070
   288
1070
     0
1070
   341
1005
0
1002
}
  0
DIMENSION
  5
16DEB
330
747D
100
AcDbEntity
  8
寸法
 48
50.0
100
AcDbDimension
  2
*D37
 10
10226.35691079978
 20
6043.234730473165
 30
0.0
 11
9916.719115524193
 21
6043.234730473165
 31
0.0
 70
   160
 71
     5
 42
60.0
  3
INABA_S40G
100
AcDbAlignedDimension
 13
10286.35691079978
 23
5640.578895016837
 33
0.0
 14
10226.35691079978
 24
5644.577276893866
 34
0.0
100
AcDbRotatedDimension
1001
ACAD
1000
DSTYLE
1002
{
1070
   174
1070
     0
1070
   272
1070
     1
1070
   288
1070
     0
1070
   341
1005
0
1002
}
  0
DIMENSION
  5
16DEC
330
747D
100
AcDbEntity
  8
寸法
 48
50.0
100
AcDbDimension
  2
*D38
 10
10286.35691079978
 20
6043.234730473165
 30
0.0
 11
10783.06871303067
 21
6043.234730473165
 31
0.0
 70
   160
  1
柱外寸法<>
 71
     5
 42
950.0
  3
INABA_S40G
100
AcDbAlignedDimension
 13
11236.35691079978
 23
5591.387956505514
 33
0.0
 14
10286.35691079978
 24
5640.578895016837
 34
0.0
100
AcDbRotatedDimension
1001
ACAD
1000
DSTYLE
1002
{
1070
   174
1070
     0
1070
   272
1070
     1
1070
   288
1070
     0
1070
   341
1005
0
1002
}
  0
DIMENSION
  5
16DED
330
747D
100
AcDbEntity
  8
寸法
 48
50.0
100
AcDbDimension
  2
*D39
 10
10226.35691079978
 20
6277.937939113255
 30
0.0
 11
10773.27387121414
 21
6277.937939113255
 31
0.0
 70
   160
 71
     5
 42
1090.0
  3
INABA_S40G
100
AcDbAlignedDimension
 13
11316.35691079978
 23
5589.577276893862
 33
0.0
 14
10226.35691079978
 24
5644.577276893866
 34
0.0
100
AcDbRotatedDimension
1001
ACAD
1000
DSTYLE
1002
{
1070
   174
1070
     0
1070
   272
1070
     1
1070
   288
1070
     0
1070
   341
1005
0
1002
}
  0
DIMENSION
  5
16DEE
330
747D
100
AcDbEntity
  8
寸法
 48
50.0
100
AcDbDimension
  2
*D40
 10
11316.35691079978
 20
6043.234730473165
 30
0.0
 11
11522.40415489427
 21
6043.234730473165
 31
0.0
 70
   160
 71
     5
 42
80.0
  3
INABA_S40G
100
AcDbAlignedDimension
 13
11236.35691079978
 23
5591.387956505514
 33
0.0
 14
11316.35691079978
 24
5589.577276893862
 34
0.0
100
AcDbRotatedDimension
1001
ACAD
1000
DSTYLE
1002
{
1070
   174
1070
     0
1070
   272
1070
     1
1070
   288
1070
     0
1070
   341
1005
0
1002
}
  0
LINE
  5
16DEF
330
747D
100
AcDbEntity
  8
細線
 48
50.0
100
AcDbLine
 10
10418.85691079978
 20
5409.577276893861
 30
0.0
 11
10418.85691079978
 21
3619.57727689386
 31
0.0
  0
LINE
  5
16DF0
330
747D
100
AcDbEntity
  8
細線
 48
50.0
100
AcDbLine
 10
10403.85691079978
 20
5409.577276893861
 30
0.0
 11
10403.85691079978
 21
3619.57727689386
 31
0.0
  0
LINE
  5
16DF1
330
747D
100
AcDbEntity
  8
細線
 48
50.0
100
AcDbLine
 10
10543.85691079978
 20
5409.577276893861
 30
0.0
 11
10543.85691079978
 21
3619.57727689386
 31
0.0
  0
LINE
  5
16DF2
330
747D
100
AcDbEntity
  8
細線
 48
50.0
100
AcDbLine
 10
10558.85691079978
 20
5409.577276893861
 30
0.0
 11
10558.85691079978
 21
3619.57727689386
 31
0.0
  0
LINE
  5
16DF3
330
747D
100
AcDbEntity
  8
細線
 48
50.0
100
AcDbLine
 10
10698.85691079978
 20
5409.577276893861
 30
0.0
 11
10698.85691079978
 21
3619.57727689386
 31
0.0
  0
LINE
  5
16DF4
330
747D
100
AcDbEntity
  8
細線
 48
50.0
100
AcDbLine
 10
10683.85691079978
 20
5409.577276893861
 30
0.0
 11
10683.85691079978
 21
3619.57727689386
 31
0.0
  0
LINE
  5
16DF5
330
747D
100
AcDbEntity
  8
細線
 48
50.0
100
AcDbLine
 10
10838.85691079979
 20
5409.577276893861
 30
0.0
 11
10838.85691079979
 21
3619.57727689386
 31
0.0
  0
LINE
  5
16DF6
330
747D
100
AcDbEntity
  8
細線
 48
50.0
100
AcDbLine
 10
10823.85691079978
 20
5409.577276893861
 30
0.0
 11
10823.85691079978
 21
3619.57727689386
 31
0.0
  0
LINE
  5
16DF7
330
747D
100
AcDbEntity
  8
細線
 48
50.0
100
AcDbLine
 10
10963.85691079978
 20
5409.577276893861
 30
0.0
 11
10963.85691079978
 21
3619.57727689386
 31
0.0
  0
LINE
  5
16DF8
330
747D
100
AcDbEntity
  8
細線
 48
50.0
100
AcDbLine
 10
10978.85691079979
 20
5409.577276893861
 30
0.0
 11
10978.85691079979
 21
3619.57727689386
 31
0.0
  0
LINE
  5
16DF9
330
747D
100
AcDbEntity
  8
細線
 48
50.0
100
AcDbLine
 10
11118.85691079978
 20
5409.577276893861
 30
0.0
 11
11118.85691079978
 21
3619.57727689386
 31
0.0
  0
LINE
  5
16DFA
330
747D
100
AcDbEntity
  8
細線
 48
50.0
100
AcDbLine
 10
11103.85691079978
 20
5409.577276893861
 30
0.0
 11
11103.85691079978
 21
3619.57727689386
 31
0.0
  0
LINE
  5
16DFB
330
747D
100
AcDbEntity
  8
部品1
100
AcDbLine
 10
10279.354540755
 20
5409.577276893861
 30
0.0
 11
11236.35691079978
 21
5409.577276893861
 31
0.0
  0
LINE
  5
16DFC
330
747D
100
AcDbEntity
  8
部品1
100
AcDbLine
 10
10286.35691079978
 20
3569.57727689386
 30
0.0
 11
11236.35691079978
 21
3569.57727689386
 31
0.0
  0
LINE
  5
16DFD
330
747D
100
AcDbEntity
  8
部品1
100
AcDbLine
 10
10286.35691079978
 20
3619.57727689386
 30
0.0
 11
11236.35691079978
 21
3619.57727689386
 31
0.0
  0
LINE
  5
16DFE
330
747D
100
AcDbEntity
  8
部品1
100
AcDbLine
 10
10761.35691079978
 20
5409.577276893861
 30
0.0
 11
10761.35691079978
 21
3619.57727689386
 31
0.0
  0
LINE
  5
16DFF
330
747D
100
AcDbEntity
  8
部品1
100
AcDbLine
 10
10341.35691079978
 20
5409.577276893861
 30
0.0
 11
10341.35691079978
 21
3619.57727689386
 31
0.0
  0
LINE
  5
16E00
330
747D
100
AcDbEntity
  8
部品1
100
AcDbLine
 10
11181.35691079978
 20
5409.577276893861
 30
0.0
 11
11181.35691079978
 21
3619.57727689386
 31
0.0
  0
LINE
  5
16E01
330
747D
100
AcDbEntity
  8
部品1
100
AcDbLine
 10
10286.35691079978
 20
5500.697314378673
 30
0.0
 11
10286.35691079978
 21
3469.57727689386
 31
0.0
  0
LINE
  5
16E02
330
747D
100
AcDbEntity
  8
部品1
100
AcDbLine
 10
11236.35691079978
 20
5465.363037099148
 30
0.0
 11
11236.35691079978
 21
3469.57727689386
 31
0.0
  0
DIMENSION
  5
16E03
330
747D
100
AcDbEntity
  8
寸法
 48
50.0
100
AcDbDimension
  2
*D41
 10
11766.76544873361
 20
5589.57727689386
 30
0.0
 11
11766.76544873361
 21
4521.501672958286
 31
0.0
 70
   160
 71
     5
 42
2020.000000000001
  3
INABA_S40
100
AcDbAlignedDimension
 13
11236.35691079978
 23
3569.57727689386
 33
0.0
 14
11316.35691079979
 24
5589.57727689386
 34
0.0
 50
90.0
100
AcDbRotatedDimension
1001
ACAD
1000
DSTYLE
1002
{
1070
    41
1040
0.5
1070
    44
1040
1.0
1070
   147
1040
0.8
1070
   271
1070
     2
1070
   272
1070
     2
1070
   289
1070
     3
1070
   340
1005
F706
1070
   343
1005
14F32
1070
   344
1005
14F32
1002
}
  0
DIMENSION
  5
16E04
330
747D
100
AcDbEntity
  8
寸法
100
AcDbDimension
  2
*D42
 10
9684.39382010758
 20
3619.577276893864
 30
0.0
 11
9684.39382010758
 21
4524.612288770249
 31
0.0
 70
   160
 71
     5
 42
1789.999999999998
  3
INABA_S40G
100
AcDbAlignedDimension
 13
10279.354540755
 23
5409.577276893862
 33
0.0
 14
10279.354540755
 24
3619.577276893864
 34
0.0
 50
90.0
100
AcDbRotatedDimension
1001
ACAD
1000
DSTYLE
1002
{
1070
   288
1070
     1
1002
}
  0
DIMENSION
  5
16E05
330
747D
100
AcDbEntity
  8
寸法
100
AcDbDimension
  2
*D43
 10
9684.39382010758
 20
3569.577276893863
 30
0.0
 11
9684.39382010758
 21
3263.530032799372
 31
0.0
 70
   160
 71
     5
 42
50.00000000000182
  3
INABA_S40G
100
AcDbAlignedDimension
 13
10279.354540755
 23
3619.577276893864
 33
0.0
 14
10231.35691079978
 24
3569.577276893863
 34
0.0
 50
90.0
100
AcDbRotatedDimension
1001
ACAD
1000
DSTYLE
1002
{
1070
   174
1070
     0
1070
   272
1070
     1
1070
   288
1070
     0
1070
   341
1005
0
1002
}
  0
LINE
  5
16E06
330
747D
100
AcDbEntity
  8
部品1
 48
50.0
100
AcDbLine
 10
10279.354540755
 20
3630.327276893864
 30
0.0
 11
10286.35691079978
 21
3630.327276893864
 31
0.0
  0
LINE
  5
16E07
330
747D
100
AcDbEntity
  8
部品1
 48
0.2
100
AcDbLine
 10
10279.354540755
 20
3630.327276893864
 30
0.0
 11
10279.354540755
 21
3619.577276893864
 31
0.0
  0
LINE
  5
16E08
330
747D
100
AcDbEntity
  8
部品1
 48
50.0
100
AcDbLine
 10
10279.354540755
 20
3619.577276893864
 30
0.0
 11
10286.35691079978
 21
3619.577276893864
 31
0.0
  0
LINE
  5
16E09
330
747D
100
AcDbEntity
  8
部品1
 48
0.2
100
AcDbLine
 10
10279.354540755
 20
5409.577276893861
 30
0.0
 11
10279.354540755
 21
5398.827276893862
 31
0.0
  0
LINE
  5
16E0A
330
747D
100
AcDbEntity
  8
部品1
 48
50.0
100
AcDbLine
 10
10279.354540755
 20
5398.827276893861
 30
0.0
 11
10286.35691079978
 21
5398.827276893861
 31
0.0
  0
TEXT
  5
17149
330
747D
100
AcDbEntity
  8
文字
 62
     7
 48
50.0
100
AcDbText
 10
13583.1181901657
 20
9910.01374588373
 30
0.0
 40
100.0
  1
梁中・梁中央
 41
0.9
  7
STYLE1
100
AcDbText
  0
LINE
  5
17194
330
747D
100
AcDbEntity
  8
仕様書枠
 48
50.0
100
AcDbLine
 10
16307.19999999999
 20
9029.6
 30
0.0
 11
13127.2
 21
9029.6
 31
0.0
  0
TEXT
  5
1719D
330
747D
100
AcDbEntity
  8
文字
 62
     7
 48
50.0
100
AcDbText
 10
13583.11819016568
 20
8890.013745883727
 30
0.0
 40
100.0
  1
※豪雪補強
  7
STYLE1
100
AcDbText
  0
TEXT
  5
1719E
330
747D
100
AcDbEntity
  8
文字
 62
     7
 48
50.0
100
AcDbText
 10
13229.83081656553
 20
8720.013745883727
 30
0.0
 40
100.0
  1
※豪雪補強は豪雪地型のみ取付
 41
0.9
  7
STYLE1
100
AcDbText
  0
TEXT
  5
1719F
330
747D
100
AcDbEntity
  8
文字
 62
     7
 48
50.0
100
AcDbText
 10
13248.77747366447
 20
8890.013745883729
 30
0.0
 40
100.0
  1
14
  7
STYLE1
100
AcDbText
  0
TEXT
  5
171A0
330
747D
100
AcDbEntity
  8
文字
 62
     7
 48
50.0
100
AcDbText
 10
15022.63965474514
 20
8890.013745883722
 30
0.0
 40
100.0
  1
F12            1.0
  7
STYLE1
100
AcDbText
  0
LINE
  5
171A1
330
747D
100
AcDbEntity
  8
仕様書枠
 48
50.0
100
AcDbLine
 10
16307.19999999999
 20
8859.6
 30
0.0
 11
13127.2
 21
8859.6
 31
0.0
  0
ENDSEC
  0
SECTION
  2
OBJECTS
  0
DICTIONARY
  5
7471
330
0
100
AcDbDictionary
281
     1
  3
ACAD_COLOR
350
14DF2
  3
ACAD_GROUP
350
7472
  3
ACAD_LAYOUT
350
14DF3
  3
ACAD_MATERIAL
350
14DF1
  3
ACAD_MLINESTYLE
350
7473
  3
ACAD_PLOTSETTINGS
350
14DF4
  3
ACAD_PLOTSTYLENAME
350
14DEF
  3
ACDBHEADERROUNDTRIPXREC
350
171B9
  3
AcDbVariableDictionary
350
171B5
  3
CONTENTDICTIONARY
350
E71C
  3
DRAWINGVARIABLESDICT
350
F3B9
  0
DICTIONARY
  5
14FD2
330
7467
100
AcDbDictionary
280
     1
281
     1
  3
ACAD_LAYERSTATES
360
14FD3
  0
DICTIONARY
  5
14DF2
102
{ACAD_REACTORS
330
7471
102
}
330
7471
100
AcDbDictionary
281
     1
  0
DICTIONARY
  5
7472
102
{ACAD_REACTORS
330
7471
102
}
330
7471
100
AcDbDictionary
281
     1
  0
DICTIONARY
  5
14DF3
102
{ACAD_REACTORS
330
7471
102
}
330
7471
100
AcDbDictionary
281
     1
  3
Model
350
14DF5
  3
レイアウト1
350
14DF6
  0
DICTIONARY
  5
14DF1
102
{ACAD_REACTORS
330
7471
102
}
330
7471
100
AcDbDictionary
281
     1
  0
DICTIONARY
  5
7473
102
{ACAD_REACTORS
330
7471
102
}
330
7471
100
AcDbDictionary
281
     1
  3
STANDARD
350
7480
  0
DICTIONARY
  5
14DF4
102
{ACAD_REACTORS
330
7471
102
}
330
7471
100
AcDbDictionary
281
     1
  0
ACDBDICTIONARYWDFLT
  5
14DEF
102
{ACAD_REACTORS
330
7471
102
}
330
7471
100
AcDbDictionary
281
     1
  3
Normal
350
14DF0
100
AcDbDictionaryWithDefault
340
14DF0
  0
DICTIONARY
  5
171B9
102
{ACAD_REACTORS
330
7471
102
}
330
7471
100
AcDbDictionary
281
     1
  3
COLORDICT
350
171BB
  3
MATERIALDICT
350
171BA
  0
DICTIONARY
  5
171B5
102
{ACAD_REACTORS
330
7471
102
}
330
7471
100
AcDbDictionary
281
     1
  3
DIMASSOC
350
171B6
  3
PROJECTNAME
350
171B7
  0
DICTIONARY
  5
E71C
102
{ACAD_REACTORS
330
7471
102
}
330
7471
100
AcDbDictionary
281
     1
  0
DICTIONARY
  5
F3B9
102
{ACAD_REACTORS
330
7471
102
}
330
7471
100
AcDbDictionary
281
     1
1001
DRAWINGVARIABLESXDATA
1000
POLARMODE
1000
1
  0
DICTIONARY
  5
14FD3
102
{ACAD_REACTORS
330
14FD2
102
}
330
14FD2
100
AcDbDictionary
281
     1
  0
LAYOUT
  5
14DF5
102
{ACAD_XDICTIONARY
360
171BC
102
}
102
{ACAD_REACTORS
330
14DF3
102
}
330
14DF3
100
AcDbPlotSettings
  1

  2
Microsoft Office Document Image Writer
  4

  6

 40
0.0
 41
0.0
 42
0.0
 43
0.0
 44
0.0
 45
0.0
 46
0.0
 47
0.0
 48
0.0
 49
0.0
140
0.0
141
0.0
142
1.0
143
1.0
 70
  1712
 72
     0
 73
     0
 74
     0
  7

 75
     0
147
1.0
148
0.0
149
0.0
100
AcDbLayout
  1
Model
 70
     1
 71
     0
 10
0.0
 20
0.0
 11
12.0
 21
9.0
 12
0.0
 22
0.0
 32
0.0
 14
0.0
 24
0.0
 34
0.0
 15
0.0
 25
0.0
 35
0.0
146
0.0
 13
0.0
 23
0.0
 33
0.0
 16
1.0
 26
0.0
 36
0.0
 17
0.0
 27
1.0
 37
0.0
 76
     0
330
747D
  0
LAYOUT
  5
14DF6
102
{ACAD_XDICTIONARY
360
171BE
102
}
102
{ACAD_REACTORS
330
14DF3
102
}
330
14DF3
100
AcDbPlotSettings
  1

  2
Microsoft Office Document Image Writer
  4

  6

 40
0.0
 41
0.0
 42
0.0
 43
0.0
 44
0.0
 45
0.0
 46
0.0
 47
0.0
 48
0.0
 49
0.0
140
0.0
141
0.0
142
1.0
143
1.0
 70
   688
 72
     0
 73
     0
 74
     5
  7

 75
    16
147
1.0
148
0.0
149
0.0
100
AcDbLayout
  1
レイアウト1
 70
     0
 71
     1
 10
0.0
 20
0.0
 11
420.0
 21
297.0
 12
0.0
 22
0.0
 32
0.0
 14
1.000000000000000E+20
 24
1.000000000000000E+20
 34
1.000000000000000E+20
 15
-1.000000000000000E+20
 25
-1.000000000000000E+20
 35
-1.000000000000000E+20
146
0.0
 13
0.0
 23
0.0
 33
0.0
 16
1.0
 26
0.0
 36
0.0
 17
0.0
 27
1.0
 37
0.0
 76
     0
330
747A
  0
MLINESTYLE
  5
7480
102
{ACAD_REACTORS
330
7473
102
}
330
7473
100
AcDbMlineStyle
  2
STANDARD
 70
     0
  3

 62
     0
 51
90.0
 52
90.0
 71
     2
 49
0.5
 62
   256
  6
BYLAYER
 49
-0.5
 62
   256
  6
BYLAYER
  0
ACDBPLACEHOLDER
  5
14DF0
102
{ACAD_REACTORS
330
14DEF
102
}
330
14DEF
  0
XRECORD
  5
171BB
102
{ACAD_REACTORS
330
171B9
102
}
330
171B9
100
AcDbXrecord
280
     1
340
14DF2
  0
XRECORD
  5
171BA
102
{ACAD_REACTORS
330
171B9
102
}
330
171B9
100
AcDbXrecord
280
     1
340
14DF1
  0
DICTIONARYVAR
  5
171B6
102
{ACAD_REACTORS
330
171B5
102
}
330
171B5
100
DictionaryVariables
280
     0
  1
1
  0
DICTIONARYVAR
  5
171B7
102
{ACAD_REACTORS
330
171B5
102
}
330
171B5
100
DictionaryVariables
280
     0
  1

  0
DICTIONARY
  5
171BC
330
14DF5
100
AcDbDictionary
280
     1
281
     1
  3
ACAD_XREC_ROUNDTRIP
360
171BD
  0
DICTIONARY
  5
171BE
330
14DF6
100
AcDbDictionary
280
     1
281
     1
  3
ACAD_XREC_ROUNDTRIP
360
171BF
  0
XRECORD
  5
171BD
102
{ACAD_REACTORS
330
171BC
102
}
330
171BC
100
AcDbXrecord
280
     1
102
SHADEPLOT
 70
     0
102
SHADEPLOTRESLEVEL
 70
     2
102
SHADEPLOTCUSTOMDPI
 70
   300
  0
XRECORD
  5
171BF
102
{ACAD_REACTORS
330
171BE
102
}
330
171BE
100
AcDbXrecord
280
     1
102
SHADEPLOT
 70
     0
102
SHADEPLOTRESLEVEL
 70
     2
102
SHADEPLOTCUSTOMDPI
 70
   300
  0
ENDSEC
  0
EOF
