  0
SECTION
  2
HEADER
  9
$ACADVER
  1
AC1015
  9
$ACADMAINTVER
 70
    20
  9
$DWGCODEPAGE
  3
ANSI_932
  9
$INSBASE
 10
0.0
 20
0.0
 30
0.0
  9
$EXTMIN
 10
139.9999999999995
 20
-0.0000000000000909
 30
0.0
  9
$EXTMAX
 10
16307.2
 20
11409.6
 30
0.0
  9
$LIMMIN
 10
0.0
 20
0.0
  9
$LIMMAX
 10
16800.0
 20
11880.0
  9
$ORTHOMODE
 70
     0
  9
$REGENMODE
 70
     1
  9
$FILLMODE
 70
     1
  9
$QTEXTMODE
 70
     0
  9
$MIRRTEXT
 70
     1
  9
$LTSCALE
 40
20.0
  9
$ATTMODE
 70
     1
  9
$TEXTSIZE
 40
100.0
  9
$TRACEWID
 40
1.0
  9
$TEXTSTYLE
  7
STYLE3
  9
$CLAYER
  8
寸法
  9
$CELTYPE
  6
BYLAYER
  9
$CECOLOR
 62
   256
  9
$CELTSCALE
 40
50.0
  9
$DISPSILH
 70
     0
  9
$DIMSCALE
 40
40.0
  9
$DIMASZ
 40
2.5
  9
$DIMEXO
 40
0.5
  9
$DIMDLI
 40
7.0
  9
$DIMRND
 40
0.0
  9
$DIMDLE
 40
0.0
  9
$DIMEXE
 40
1.5
  9
$DIMTP
 40
0.0
  9
$DIMTM
 40
0.0
  9
$DIMTXT
 40
3.0
  9
$DIMCEN
 40
0.0
  9
$DIMTSZ
 40
0.0
  9
$DIMTOL
 70
     0
  9
$DIMLIM
 70
     0
  9
$DIMTIH
 70
     0
  9
$DIMTOH
 70
     0
  9
$DIMSE1
 70
     0
  9
$DIMSE2
 70
     0
  9
$DIMTAD
 70
     3
  9
$DIMZIN
 70
     8
  9
$DIMBLK
  1

  9
$DIMASO
 70
     1
  9
$DIMSHO
 70
     1
  9
$DIMPOST
  1

  9
$DIMAPOST
  1

  9
$DIMALT
 70
     0
  9
$DIMALTD
 70
     2
  9
$DIMALTF
 40
0.0394
  9
$DIMLFAC
 40
1.0
  9
$DIMTOFL
 70
     1
  9
$DIMTVP
 40
0.0
  9
$DIMTIX
 70
     1
  9
$DIMSOXD
 70
     0
  9
$DIMSAH
 70
     1
  9
$DIMBLK1
  1
DOTSMALL
  9
$DIMBLK2
  1
DOTSMALL
  9
$DIMSTYLE
  2
INABA_S40G
  9
$DIMCLRD
 70
     0
  9
$DIMCLRE
 70
     0
  9
$DIMCLRT
 70
     7
  9
$DIMTFAC
 40
1.0
  9
$DIMGAP
 40
1.0
  9
$DIMJUST
 70
     0
  9
$DIMSD1
 70
     0
  9
$DIMSD2
 70
     0
  9
$DIMTOLJ
 70
     1
  9
$DIMTZIN
 70
     0
  9
$DIMALTZ
 70
     0
  9
$DIMALTTZ
 70
     0
  9
$DIMUPT
 70
     1
  9
$DIMDEC
 70
     1
  9
$DIMTDEC
 70
     4
  9
$DIMALTU
 70
     2
  9
$DIMALTTD
 70
     2
  9
$DIMTXSTY
  7
STYLE1
  9
$DIMAUNIT
 70
     0
  9
$DIMADEC
 70
     0
  9
$DIMALTRND
 40
0.0
  9
$DIMAZIN
 70
     0
  9
$DIMDSEP
 70
    46
  9
$DIMATFIT
 70
     3
  9
$DIMFRAC
 70
     0
  9
$DIMLDRBLK
  1

  9
$DIMLUNIT
 70
     2
  9
$DIMLWD
 70
    -2
  9
$DIMLWE
 70
    -2
  9
$DIMTMOVE
 70
     0
  9
$LUNITS
 70
     2
  9
$LUPREC
 70
     1
  9
$SKETCHINC
 40
1.0
  9
$FILLETRAD
 40
5.0
  9
$AUNITS
 70
     0
  9
$AUPREC
 70
     0
  9
$MENU
  1
acad
  9
$ELEVATION
 40
0.0
  9
$PELEVATION
 40
0.0
  9
$THICKNESS
 40
0.0
  9
$LIMCHECK
 70
     0
  9
$CHAMFERA
 40
0.0
  9
$CHAMFERB
 40
0.0
  9
$CHAMFERC
 40
0.0
  9
$CHAMFERD
 40
0.0
  9
$SKPOLY
 70
     0
  9
$TDCREATE
 40
2452116.684896065
  9
$TDUCREATE
 40
2452116.309896065
  9
$TDUPDATE
 40
2455575.689509178
  9
$TDUUPDATE
 40
2455575.314509178
  9
$TDINDWG
 40
0.5744864120
  9
$TDUSRTIMER
 40
0.5744864120
  9
$USRTIMER
 70
     1
  9
$ANGBASE
 50
0.0
  9
$ANGDIR
 70
     0
  9
$PDMODE
 70
     3
  9
$PDSIZE
 40
2.0
  9
$PLINEWID
 40
0.0
  9
$SPLFRAME
 70
     0
  9
$SPLINETYPE
 70
     6
  9
$SPLINESEGS
 70
     8
  9
$HANDSEED
  5
16FAB
  9
$SURFTAB1
 70
     6
  9
$SURFTAB2
 70
     6
  9
$SURFTYPE
 70
     6
  9
$SURFU
 70
     6
  9
$SURFV
 70
     6
  9
$UCSBASE
  2

  9
$UCSNAME
  2

  9
$UCSORG
 10
0.0
 20
0.0
 30
0.0
  9
$UCSXDIR
 10
1.0
 20
0.0
 30
0.0
  9
$UCSYDIR
 10
0.0
 20
1.0
 30
0.0
  9
$UCSORTHOREF
  2

  9
$UCSORTHOVIEW
 70
     0
  9
$UCSORGTOP
 10
0.0
 20
0.0
 30
0.0
  9
$UCSORGBOTTOM
 10
0.0
 20
0.0
 30
0.0
  9
$UCSORGLEFT
 10
0.0
 20
0.0
 30
0.0
  9
$UCSORGRIGHT
 10
0.0
 20
0.0
 30
0.0
  9
$UCSORGFRONT
 10
0.0
 20
0.0
 30
0.0
  9
$UCSORGBACK
 10
0.0
 20
0.0
 30
0.0
  9
$PUCSBASE
  2

  9
$PUCSNAME
  2

  9
$PUCSORG
 10
0.0
 20
0.0
 30
0.0
  9
$PUCSXDIR
 10
1.0
 20
0.0
 30
0.0
  9
$PUCSYDIR
 10
0.0
 20
1.0
 30
0.0
  9
$PUCSORTHOREF
  2

  9
$PUCSORTHOVIEW
 70
     0
  9
$PUCSORGTOP
 10
0.0
 20
0.0
 30
0.0
  9
$PUCSORGBOTTOM
 10
0.0
 20
0.0
 30
0.0
  9
$PUCSORGLEFT
 10
0.0
 20
0.0
 30
0.0
  9
$PUCSORGRIGHT
 10
0.0
 20
0.0
 30
0.0
  9
$PUCSORGFRONT
 10
0.0
 20
0.0
 30
0.0
  9
$PUCSORGBACK
 10
0.0
 20
0.0
 30
0.0
  9
$USERI1
 70
     0
  9
$USERI2
 70
     0
  9
$USERI3
 70
     0
  9
$USERI4
 70
     0
  9
$USERI5
 70
     0
  9
$USERR1
 40
0.0
  9
$USERR2
 40
0.0
  9
$USERR3
 40
0.0
  9
$USERR4
 40
0.0
  9
$USERR5
 40
0.0
  9
$WORLDVIEW
 70
     1
  9
$SHADEDGE
 70
     3
  9
$SHADEDIF
 70
    70
  9
$TILEMODE
 70
     1
  9
$MAXACTVP
 70
    16
  9
$PINSBASE
 10
0.0
 20
0.0
 30
0.0
  9
$PLIMCHECK
 70
     0
  9
$PEXTMIN
 10
1.000000000000000E+20
 20
1.000000000000000E+20
 30
1.000000000000000E+20
  9
$PEXTMAX
 10
-1.000000000000000E+20
 20
-1.000000000000000E+20
 30
-1.000000000000000E+20
  9
$PLIMMIN
 10
0.0
 20
0.0
  9
$PLIMMAX
 10
420.0
 20
297.0
  9
$UNITMODE
 70
     0
  9
$VISRETAIN
 70
     0
  9
$PLINEGEN
 70
     0
  9
$PSLTSCALE
 70
     0
  9
$TREEDEPTH
 70
  3020
  9
$CMLSTYLE
  2
STANDARD
  9
$CMLJUST
 70
     0
  9
$CMLSCALE
 40
1.0
  9
$PROXYGRAPHICS
 70
     1
  9
$MEASUREMENT
 70
     1
  9
$CELWEIGHT
370
    -1
  9
$ENDCAPS
280
     0
  9
$JOINSTYLE
280
     0
  9
$LWDISPLAY
290
     0
  9
$INSUNITS
 70
     0
  9
$HYPERLINKBASE
  1

  9
$STYLESHEET
  1

  9
$XEDIT
290
     1
  9
$CEPSNTYPE
380
     0
  9
$PSTYLEMODE
290
     1
  9
$FINGERPRINTGUID
  2
{9CFC10C4-C425-4299-AC7A-723E8FB96648}
  9
$VERSIONGUID
  2
{149C946C-98C7-4465-B983-5DFFD48ACE5B}
  9
$EXTNAMES
290
     1
  9
$PSVPSCALE
 40
0.0
  9
$OLESTARTUP
290
     0
  0
ENDSEC
  0
SECTION
  2
CLASSES
  0
CLASS
  1
ACDBDICTIONARYWDFLT
  2
AcDbDictionaryWithDefault
  3
ObjectDBX Classes
 90
        0
280
     0
281
     0
  0
CLASS
  1
DICTIONARYVAR
  2
AcDbDictionaryVar
  3
ObjectDBX Classes
 90
        0
280
     0
281
     0
  0
CLASS
  1
ACDBPLACEHOLDER
  2
AcDbPlaceHolder
  3
ObjectDBX Classes
 90
        0
280
     0
281
     0
  0
CLASS
  1
LAYOUT
  2
AcDbLayout
  3
ObjectDBX Classes
 90
        0
280
     0
281
     0
  0
ENDSEC
  0
SECTION
  2
TABLES
  0
TABLE
  2
VPORT
  5
746D
330
0
100
AcDbSymbolTable
 70
     2
  0
VPORT
  5
16FA3
330
746D
100
AcDbSymbolTableRecord
100
AcDbViewportTableRecord
  2
*Active
 70
     0
 10
0.0
 20
0.0
 11
1.0
 21
1.0
 12
9076.958198330487
 22
6347.432789277338
 13
0.0
 23
0.0
 14
10.0
 24
10.0
 15
10.0
 25
10.0
 16
0.0
 26
0.0
 36
1.0
 17
0.0
 27
0.0
 37
0.0
 40
12784.09004059354
 41
1.525925925925925
 42
50.0
 43
0.0
 44
0.0
 50
0.0
 51
0.0
 71
     0
 72
     0
 73
     1
 74
     0
 75
     0
 76
     0
 77
     0
 78
     0
281
     0
 65
     1
110
0.0
120
0.0
130
0.0
111
1.0
121
0.0
131
0.0
112
0.0
122
1.0
132
0.0
 79
     0
146
0.0
  0
ENDTAB
  0
TABLE
  2
LTYPE
  5
746A
330
0
100
AcDbSymbolTable
 70
     4
  0
LTYPE
  5
7477
330
746A
100
AcDbSymbolTableRecord
100
AcDbLinetypeTableRecord
  2
BYBLOCK
 70
     0
  3

 72
    65
 73
     0
 40
0.0
  0
LTYPE
  5
7478
330
746A
100
AcDbSymbolTableRecord
100
AcDbLinetypeTableRecord
  2
BYLAYER
 70
     0
  3

 72
    65
 73
     0
 40
0.0
  0
LTYPE
  5
7479
330
746A
100
AcDbSymbolTableRecord
100
AcDbLinetypeTableRecord
  2
CONTINUOUS
 70
     0
  3
Solid line
 72
    65
 73
     0
 40
0.0
  0
LTYPE
  5
7816
330
746A
100
AcDbSymbolTableRecord
100
AcDbLinetypeTableRecord
  2
CENTER
 70
     0
  3
____ _ ____ _ ____ _ ____ _ ____ _ ____ _ ____ 
 72
    65
 73
     4
 40
2.0
 49
1.25
 74
     0
 49
-0.25
 74
     0
 49
0.25
 74
     0
 49
-0.25
 74
     0
  0
LTYPE
  5
781A
330
746A
100
AcDbSymbolTableRecord
100
AcDbLinetypeTableRecord
  2
HIDDEN
 70
     0
  3
__ __ __ __ __ __ __ __ __ __ __ __ __ __ __ __
 72
    65
 73
     2
 40
0.375
 49
0.25
 74
     0
 49
-0.125
 74
     0
  0
LTYPE
  5
781B
330
746A
100
AcDbSymbolTableRecord
100
AcDbLinetypeTableRecord
  2
PHANTOM
 70
     0
  3
______  __  __  ______  __  __  ______  __  __ 
 72
    65
 73
     6
 40
2.5
 49
1.25
 74
     0
 49
-0.25
 74
     0
 49
0.25
 74
     0
 49
-0.25
 74
     0
 49
0.25
 74
     0
 49
-0.25
 74
     0
  0
ENDTAB
  0
TABLE
  2
LAYER
  5
7467
102
{ACAD_XDICTIONARY
360
14E5F
102
}
330
0
100
AcDbSymbolTable
 70
    13
  0
LAYER
  5
7474
330
7467
100
AcDbSymbolTableRecord
100
AcDbLayerTableRecord
  2
0
 70
     0
 62
     7
  6
CONTINUOUS
370
    -3
390
14CAE
  0
LAYER
  5
DEB2
330
7467
100
AcDbSymbolTableRecord
100
AcDbLayerTableRecord
  2
センター
 70
     0
 62
     3
  6
CENTER
370
    -3
390
14CAE
  0
LAYER
  5
DEB3
330
7467
100
AcDbSymbolTableRecord
100
AcDbLayerTableRecord
  2
寸法
 70
     0
 62
     4
  6
CONTINUOUS
370
    -3
390
14CAE
  0
LAYER
  5
DEB4
330
7467
100
AcDbSymbolTableRecord
100
AcDbLayerTableRecord
  2
部品1
 70
     0
 62
     7
  6
CONTINUOUS
370
    -3
390
14CAE
  0
LAYER
  5
DEB5
330
7467
100
AcDbSymbolTableRecord
100
AcDbLayerTableRecord
  2
補助
 70
     0
 62
    -1
  6
CONTINUOUS
370
    -3
390
14CAE
  0
LAYER
  5
DEB6
330
7467
100
AcDbSymbolTableRecord
100
AcDbLayerTableRecord
  2
文字
 70
     0
 62
     7
  6
CONTINUOUS
370
    -3
390
14CAE
  0
LAYER
  5
F255
330
7467
100
AcDbSymbolTableRecord
100
AcDbLayerTableRecord
  2
DEFPOINTS
 70
     0
 62
     7
  6
CONTINUOUS
290
     0
370
    -3
390
14CAE
  0
LAYER
  5
10B54
330
7467
100
AcDbSymbolTableRecord
100
AcDbLayerTableRecord
  2
仕様書枠
 70
     0
 62
   230
  6
CONTINUOUS
370
    -3
390
14CAE
  0
LAYER
  5
11729
330
7467
100
AcDbSymbolTableRecord
100
AcDbLayerTableRecord
  2
Ｇ．Ｌ
 70
     0
 62
    30
  6
CONTINUOUS
370
    -3
390
14CAE
  0
LAYER
  5
1173F
330
7467
100
AcDbSymbolTableRecord
100
AcDbLayerTableRecord
  2
細線
 70
     0
 62
     5
  6
CONTINUOUS
370
    -3
390
14CAE
  0
LAYER
  5
118A1
330
7467
100
AcDbSymbolTableRecord
100
AcDbLayerTableRecord
  2
想像線
 70
     0
 62
     6
  6
PHANTOM
370
    -3
390
14CAE
  0
LAYER
  5
123C1
330
7467
100
AcDbSymbolTableRecord
100
AcDbLayerTableRecord
  2
破線
 70
     0
 62
     2
  6
HIDDEN
370
    -3
390
14CAE
  0
LAYER
  5
14E5D
330
7467
100
AcDbSymbolTableRecord
100
AcDbLayerTableRecord
  2
点線
 70
     0
 62
     2
  6
HIDDEN
370
    -3
390
14CAE
  0
ENDTAB
  0
TABLE
  2
STYLE
  5
7468
330
0
100
AcDbSymbolTable
 70
     4
  0
STYLE
  5
7475
330
7468
100
AcDbSymbolTableRecord
100
AcDbTextStyleTableRecord
  2
STANDARD
 70
     0
 40
0.0
 41
1.0
 50
0.0
 71
     0
 42
4.0
  3
txt
  4
C:\AutoCAD LT\bigfont.shx
  0
STYLE
  5
F706
330
7468
100
AcDbSymbolTableRecord
100
AcDbTextStyleTableRecord
  2
STYLE1
 70
     0
 40
0.0
 41
1.0
 50
0.0
 71
     0
 42
4.0
  3
isocp.shx
  4
bigfont.shx
  0
STYLE
  5
103BF
330
7468
100
AcDbSymbolTableRecord
100
AcDbTextStyleTableRecord
  2
STYLE2
 70
     0
 40
0.0
 41
1.0
 50
0.0
 71
     0
 42
100.0
  3
MS PGothic.ttf
  4

1001
ACAD
1000
MS PGothic
1071
    32818
  0
STYLE
  5
10BAA
330
7468
100
AcDbSymbolTableRecord
100
AcDbTextStyleTableRecord
  2
STYLE3
 70
     0
 40
0.0
 41
1.0
 50
0.0
 71
     0
 42
100.0
  3

  4

1001
ACAD
1000
DFPGothic-EB
1071
    32818
  0
ENDTAB
  0
TABLE
  2
VIEW
  5
746B
330
0
100
AcDbSymbolTable
 70
     0
  0
ENDTAB
  0
TABLE
  2
UCS
  5
746C
330
0
100
AcDbSymbolTable
 70
     0
  0
ENDTAB
  0
TABLE
  2
APPID
  5
746E
330
0
100
AcDbSymbolTable
 70
     6
  0
APPID
  5
7476
330
746E
100
AcDbSymbolTableRecord
100
AcDbRegAppTableRecord
  2
ACAD
 70
     0
  0
APPID
  5
DEA9
330
746E
100
AcDbSymbolTableRecord
100
AcDbRegAppTableRecord
  2
CONTENTBLOCKICON
 70
     0
  0
APPID
  5
DEAA
330
746E
100
AcDbSymbolTableRecord
100
AcDbRegAppTableRecord
  2
CONTENTBLOCKDESCRIPTION
 70
     0
  0
APPID
  5
E71D
330
746E
100
AcDbSymbolTableRecord
100
AcDbRegAppTableRecord
  2
CONTENTTABDATA
 70
     0
  0
APPID
  5
E71E
330
746E
100
AcDbSymbolTableRecord
100
AcDbRegAppTableRecord
  2
CONTENTCURRENTTAB
 70
     0
  0
APPID
  5
F3BA
330
746E
100
AcDbSymbolTableRecord
100
AcDbRegAppTableRecord
  2
DRAWINGVARIABLESXDATA
 70
     0
  0
ENDTAB
  0
TABLE
  2
DIMSTYLE
  5
746F
330
0
100
AcDbSymbolTable
 70
     3
100
AcDbDimStyleTable
 71
     0
  0
DIMSTYLE
105
7484
330
746F
100
AcDbSymbolTableRecord
100
AcDbDimStyleTableRecord
  2
JIS
 70
     0
 41
2.5
 42
1.0
 43
7.0
 44
1.0
 73
     0
 74
     0
 77
     1
 78
     8
140
2.5
141
0.0
143
0.0394
147
0.0
172
     1
174
     1
175
     1
340
7475
  0
DIMSTYLE
105
F71F
102
{ACAD_REACTORS
330
13ACA
330
13B15
330
13B17
330
13B23
330
13B9A
330
13BA6
330
13BA9
330
13BAE
330
13EA2
330
13EA3
330
13EBD
330
14548
330
14562
330
149C8
330
14978
330
14951
330
149C7
330
149C6
330
1497C
330
14A13
330
14A22
330
14A2F
330
14A61
330
14C9E
330
157B4
330
157B2
330
157B1
330
1581F
330
16C31
330
16C4F
330
16C50
330
16C51
330
16C52
330
16C53
330
16C69
330
16C6A
102
}
330
746F
100
AcDbSymbolTableRecord
100
AcDbDimStyleTableRecord
  2
INABA_S40G
 70
     0
 40
40.0
 41
2.5
 42
0.5
 43
7.0
 44
1.5
 73
     0
 74
     0
 77
     3
 78
     8
140
3.0
141
0.0
143
0.0394
147
1.0
172
     1
173
     1
174
     1
178
     7
271
     1
340
F706
341
F770
343
F770
344
F770
  0
DIMSTYLE
105
14E5E
102
{ACAD_REACTORS
330
16C68
102
}
330
746F
100
AcDbSymbolTableRecord
100
AcDbDimStyleTableRecord
  2
INABA_S40
 70
     0
 40
40.0
 41
2.5
 42
0.5
 43
7.0
 44
1.5
 73
     0
 74
     0
 77
     3
 78
     8
140
3.0
141
0.0
143
0.0394
147
1.0
172
     1
173
     1
174
     1
175
     1
178
     7
289
     0
340
7475
341
14DB8
343
14DB8
344
14DB8
  0
ENDTAB
  0
TABLE
  2
BLOCK_RECORD
  5
7466
330
0
100
AcDbSymbolTable
 70
    40
  0
BLOCK_RECORD
  5
747D
330
7466
100
AcDbSymbolTableRecord
100
AcDbBlockTableRecord
  2
*MODEL_SPACE
340
14CB3
  0
BLOCK_RECORD
  5
747A
330
7466
100
AcDbSymbolTableRecord
100
AcDbBlockTableRecord
  2
*PAPER_SPACE
340
14CB4
  0
BLOCK_RECORD
  5
F770
330
7466
100
AcDbSymbolTableRecord
100
AcDbBlockTableRecord
  2
_DOTSMALL
340
0
102
{BLKREFS
331
15A19
331
15A1A
331
15A24
331
15A25
331
15A2D
331
15A2E
331
15A36
331
15A37
331
15A8D
331
15A8E
331
15A98
331
15A99
331
15AA1
331
15AA2
331
15AAA
331
15AAB
331
15AB5
331
15AB6
331
15ABE
331
15ABF
331
15AC9
331
15ACA
331
15AD2
331
15AD3
331
15ADB
331
15ADC
331
15AE4
331
15AE5
331
15AED
331
15AEE
331
15AF6
331
15AF7
331
15B01
331
15B02
331
15B0A
331
15B0B
331
15B13
331
15B14
331
15B1C
331
15B1D
331
15B27
331
15B28
331
15B30
331
15B31
331
15B39
331
15B3A
331
15B44
331
15B45
331
15B4D
331
15B4E
331
15B58
331
15B59
331
15B61
331
15B62
331
15B6A
331
15B6B
331
16EF9
331
16EFA
331
16F02
331
16F03
331
16F15
331
16F16
331
16F1E
331
16F1F
331
16F27
331
16F28
331
16F32
331
16F33
331
16F3C
331
16F3D
331
16F45
331
16F46
102
}
  0
BLOCK_RECORD
  5
13C12
330
7466
100
AcDbSymbolTableRecord
100
AcDbBlockTableRecord
  2
*D1
340
0
  0
BLOCK_RECORD
  5
13C5D
330
7466
100
AcDbSymbolTableRecord
100
AcDbBlockTableRecord
  2
*D2
340
0
  0
BLOCK_RECORD
  5
13C69
330
7466
100
AcDbSymbolTableRecord
100
AcDbBlockTableRecord
  2
*D3
340
0
  0
BLOCK_RECORD
  5
13C83
330
7466
100
AcDbSymbolTableRecord
100
AcDbBlockTableRecord
  2
*D4
340
0
  0
BLOCK_RECORD
  5
13CDD
330
7466
100
AcDbSymbolTableRecord
100
AcDbBlockTableRecord
  2
*D5
340
0
  0
BLOCK_RECORD
  5
13CF8
330
7466
100
AcDbSymbolTableRecord
100
AcDbBlockTableRecord
  2
*D6
340
0
  0
BLOCK_RECORD
  5
13D10
330
7466
100
AcDbSymbolTableRecord
100
AcDbBlockTableRecord
  2
*D7
340
0
  0
BLOCK_RECORD
  5
13D1C
330
7466
100
AcDbSymbolTableRecord
100
AcDbBlockTableRecord
  2
*D8
340
0
  0
BLOCK_RECORD
  5
13EC4
330
7466
100
AcDbSymbolTableRecord
100
AcDbBlockTableRecord
  2
*D9
340
0
  0
BLOCK_RECORD
  5
13ED0
330
7466
100
AcDbSymbolTableRecord
100
AcDbBlockTableRecord
  2
*D10
340
0
  0
BLOCK_RECORD
  5
13EDC
330
7466
100
AcDbSymbolTableRecord
100
AcDbBlockTableRecord
  2
*D11
340
0
  0
BLOCK_RECORD
  5
1453A
330
7466
100
AcDbSymbolTableRecord
100
AcDbBlockTableRecord
  2
*D12
340
0
  0
BLOCK_RECORD
  5
14556
330
7466
100
AcDbSymbolTableRecord
100
AcDbBlockTableRecord
  2
*D13
340
0
  0
BLOCK_RECORD
  5
149C9
330
7466
100
AcDbSymbolTableRecord
100
AcDbBlockTableRecord
  2
*D14
340
0
  0
BLOCK_RECORD
  5
149D5
330
7466
100
AcDbSymbolTableRecord
100
AcDbBlockTableRecord
  2
*D15
340
0
  0
BLOCK_RECORD
  5
149E1
330
7466
100
AcDbSymbolTableRecord
100
AcDbBlockTableRecord
  2
*D16
340
0
  0
BLOCK_RECORD
  5
149ED
330
7466
100
AcDbSymbolTableRecord
100
AcDbBlockTableRecord
  2
*D17
340
0
  0
BLOCK_RECORD
  5
149FB
330
7466
100
AcDbSymbolTableRecord
100
AcDbBlockTableRecord
  2
*D18
340
0
  0
BLOCK_RECORD
  5
14A07
330
7466
100
AcDbSymbolTableRecord
100
AcDbBlockTableRecord
  2
*D19
340
0
  0
BLOCK_RECORD
  5
14A14
330
7466
100
AcDbSymbolTableRecord
100
AcDbBlockTableRecord
  2
*D20
340
0
  0
BLOCK_RECORD
  5
14A23
330
7466
100
AcDbSymbolTableRecord
100
AcDbBlockTableRecord
  2
*D21
340
0
  0
BLOCK_RECORD
  5
14A30
330
7466
100
AcDbSymbolTableRecord
100
AcDbBlockTableRecord
  2
*D22
340
0
  0
BLOCK_RECORD
  5
14A53
330
7466
100
AcDbSymbolTableRecord
100
AcDbBlockTableRecord
  2
*D23
340
0
  0
BLOCK_RECORD
  5
14C9F
330
7466
100
AcDbSymbolTableRecord
100
AcDbBlockTableRecord
  2
*D24
340
0
  0
BLOCK_RECORD
  5
14DB8
330
7466
100
AcDbSymbolTableRecord
100
AcDbBlockTableRecord
  2
_OPEN
340
0
  0
BLOCK_RECORD
  5
14DBE
330
7466
100
AcDbSymbolTableRecord
100
AcDbBlockTableRecord
  2
_DOT
340
0
102
{BLKREFS
331
16F0B
331
16F0C
102
}
  0
BLOCK_RECORD
  5
157D1
330
7466
100
AcDbSymbolTableRecord
100
AcDbBlockTableRecord
  2
*D27
340
0
  0
BLOCK_RECORD
  5
157DF
330
7466
100
AcDbSymbolTableRecord
100
AcDbBlockTableRecord
  2
*D28
340
0
  0
BLOCK_RECORD
  5
157EB
330
7466
100
AcDbSymbolTableRecord
100
AcDbBlockTableRecord
  2
*D29
340
0
  0
BLOCK_RECORD
  5
1582A
330
7466
100
AcDbSymbolTableRecord
100
AcDbBlockTableRecord
  2
*D30
340
0
  0
BLOCK_RECORD
  5
16DBA
330
7466
100
AcDbSymbolTableRecord
100
AcDbBlockTableRecord
  2
*D31
340
0
  0
BLOCK_RECORD
  5
16DC6
330
7466
100
AcDbSymbolTableRecord
100
AcDbBlockTableRecord
  2
*D32
340
0
  0
BLOCK_RECORD
  5
16DD3
330
7466
100
AcDbSymbolTableRecord
100
AcDbBlockTableRecord
  2
*D33
340
0
  0
BLOCK_RECORD
  5
16DE1
330
7466
100
AcDbSymbolTableRecord
100
AcDbBlockTableRecord
  2
*D34
340
0
  0
BLOCK_RECORD
  5
16DED
330
7466
100
AcDbSymbolTableRecord
100
AcDbBlockTableRecord
  2
*D35
340
0
  0
BLOCK_RECORD
  5
16DF9
330
7466
100
AcDbSymbolTableRecord
100
AcDbBlockTableRecord
  2
*D36
340
0
  0
BLOCK_RECORD
  5
16E06
330
7466
100
AcDbSymbolTableRecord
100
AcDbBlockTableRecord
  2
*D37
340
0
  0
BLOCK_RECORD
  5
16E12
330
7466
100
AcDbSymbolTableRecord
100
AcDbBlockTableRecord
  2
*D38
340
0
  0
BLOCK_RECORD
  5
16E1E
330
7466
100
AcDbSymbolTableRecord
100
AcDbBlockTableRecord
  2
*D39
340
0
  0
ENDTAB
  0
ENDSEC
  0
SECTION
  2
BLOCKS
  0
BLOCK
  5
7489
330
747D
100
AcDbEntity
  8
0
100
AcDbBlockBegin
  2
*MODEL_SPACE
 70
     0
 10
0.0
 20
0.0
 30
0.0
  3
*MODEL_SPACE
  1

  0
ENDBLK
  5
748A
330
747D
100
AcDbEntity
  8
0
100
AcDbBlockEnd
  0
BLOCK
  5
7487
330
747A
100
AcDbEntity
 67
     1
  8
0
100
AcDbBlockBegin
  2
*PAPER_SPACE
 70
     0
 10
0.0
 20
0.0
 30
0.0
  3
*PAPER_SPACE
  1

  0
ENDBLK
  5
7488
330
747A
100
AcDbEntity
 67
     1
  8
0
100
AcDbBlockEnd
  0
BLOCK
  5
F771
330
F770
100
AcDbEntity
  8
0
 48
50.0
100
AcDbBlockBegin
  2
_DOTSMALL
 70
     0
 10
0.0
 20
0.0
 30
0.0
  3
_DOTSMALL
  1

  0
LWPOLYLINE
  5
F772
330
F770
100
AcDbEntity
  8
0
  6
ByBlock
 62
     0
 48
50.0
100
AcDbPolyline
 90
        2
 70
     1
 43
0.5
 10
-0.0625
 20
0.0
 42
1.0
 10
0.0625
 20
0.0
 42
1.0
  0
ENDBLK
  5
F776
330
F770
100
AcDbEntity
  8
0
 48
50.0
100
AcDbBlockEnd
  0
BLOCK
  5
1488F
330
13C12
100
AcDbEntity
  8
0
 48
50.0
100
AcDbBlockBegin
  2
*D1
 70
     1
 10
0.0
 20
0.0
 30
0.0
  3
*D1
  1

  0
LINE
  5
15B67
330
13C12
100
AcDbEntity
  8
寸法
 62
     0
 48
50.0
370
    -2
100
AcDbLine
 10
4693.620346402044
 20
5391.07727689386
 30
0.0
 11
4335.515818794441
 21
5391.07727689386
 31
0.0
  0
LINE
  5
15B68
330
13C12
100
AcDbEntity
  8
寸法
 62
     0
 48
50.0
370
    -2
100
AcDbLine
 10
4693.620346402044
 20
3631.077276893865
 30
0.0
 11
4335.515818794441
 21
3631.077276893865
 31
0.0
  0
LINE
  5
15B69
330
13C12
100
AcDbEntity
  8
寸法
 62
     0
 48
50.0
370
    -2
100
AcDbLine
 10
4395.51581879444
 20
5391.07727689386
 30
0.0
 11
4395.51581879444
 21
3631.077276893865
 31
0.0
  0
INSERT
  5
15B6A
330
13C12
100
AcDbEntity
  8
寸法
 62
     0
 48
50.0
370
    -2
100
AcDbBlockReference
  2
_DOTSMALL
 10
4395.51581879444
 20
5391.07727689386
 30
0.0
 41
100.0
 42
100.0
 43
100.0
 50
90.0
  0
INSERT
  5
15B6B
330
13C12
100
AcDbEntity
  8
寸法
 62
     0
 48
50.0
370
    -2
100
AcDbBlockReference
  2
_DOTSMALL
 10
4395.51581879444
 20
3631.077276893865
 30
0.0
 41
100.0
 42
100.0
 43
100.0
 50
270.0
  0
MTEXT
  5
15B6C
330
13C12
100
AcDbEntity
  8
寸法
 62
     7
 48
50.0
100
AcDbMText
 10
4295.51581879444
 20
4510.077276893862
 30
0.0
 40
120.0
 41
0.0
 71
     5
 72
     1
  1
\A1;有効開口部高サ1760
  7
STYLE1
 11
0.0000000000000001
 21
1.0
 31
0.0
 73
     1
 44
1.0
1001
ACAD
1000
MTEXTBEGIN
1070
    73
1070
     1
1070
    44
1040
1.0
1070
    74
1070
     0
1000
MTEXTEND
  0
POINT
  5
15B6D
330
13C12
100
AcDbEntity
  8
DEFPOINTS
 62
     0
 48
50.0
100
AcDbPoint
 10
4713.620346402044
 20
5391.07727689386
 30
0.0
  0
POINT
  5
15B6E
330
13C12
100
AcDbEntity
  8
DEFPOINTS
 62
     0
 48
50.0
100
AcDbPoint
 10
4713.620346402044
 20
3631.077276893865
 30
0.0
  0
POINT
  5
15B6F
330
13C12
100
AcDbEntity
  8
DEFPOINTS
 62
     0
 48
50.0
100
AcDbPoint
 10
4395.51581879444
 20
3631.077276893865
 30
0.0
  0
ENDBLK
  5
14899
330
13C12
100
AcDbEntity
  8
0
 48
50.0
100
AcDbBlockEnd
  0
BLOCK
  5
14695
330
13C5D
100
AcDbEntity
  8
0
 48
50.0
100
AcDbBlockBegin
  2
*D2
 70
     1
 10
0.0
 20
0.0
 30
0.0
  3
*D2
  1

  0
LINE
  5
15B5E
330
13C5D
100
AcDbEntity
  8
寸法
 62
     0
 48
50.0
370
    -2
100
AcDbLine
 10
6408.62034640205
 20
9326.365915108434
 30
0.0
 11
6408.62034640205
 21
9582.174134733532
 31
0.0
  0
LINE
  5
15B5F
330
13C5D
100
AcDbEntity
  8
寸法
 62
     0
 48
50.0
370
    -2
100
AcDbLine
 10
7118.62034640205
 20
9326.365915108555
 30
0.0
 11
7118.62034640205
 21
9582.174134733532
 31
0.0
  0
LINE
  5
15B60
330
13C5D
100
AcDbEntity
  8
寸法
 62
     0
 48
50.0
370
    -2
100
AcDbLine
 10
6408.62034640205
 20
9522.174134733532
 30
0.0
 11
7118.62034640205
 21
9522.174134733532
 31
0.0
  0
INSERT
  5
15B61
330
13C5D
100
AcDbEntity
  8
寸法
 62
     0
 48
50.0
370
    -2
100
AcDbBlockReference
  2
_DOTSMALL
 10
6408.62034640205
 20
9522.174134733532
 30
0.0
 41
100.0
 42
100.0
 43
100.0
 50
180.0
  0
INSERT
  5
15B62
330
13C5D
100
AcDbEntity
  8
寸法
 62
     0
 48
50.0
370
    -2
100
AcDbBlockReference
  2
_DOTSMALL
 10
7118.62034640205
 20
9522.174134733532
 30
0.0
 41
100.0
 42
100.0
 43
100.0
  0
MTEXT
  5
15B63
330
13C5D
100
AcDbEntity
  8
寸法
 62
     7
 48
50.0
100
AcDbMText
 10
6763.870346402049
 20
9622.174134733533
 30
0.0
 40
120.0
 41
0.0
 71
     5
 72
     1
  1
\A1;710
  7
STYLE1
 73
     1
 44
1.0
1001
ACAD
1000
MTEXTBEGIN
1070
    73
1070
     1
1070
    44
1040
1.0
1070
    74
1070
     0
1000
MTEXTEND
  0
POINT
  5
15B64
330
13C5D
100
AcDbEntity
  8
DEFPOINTS
 62
     0
 48
50.0
100
AcDbPoint
 10
6408.62034640205
 20
9306.365915108434
 30
0.0
  0
POINT
  5
15B65
330
13C5D
100
AcDbEntity
  8
DEFPOINTS
 62
     0
 48
50.0
100
AcDbPoint
 10
7118.62034640205
 20
9306.365915108555
 30
0.0
  0
POINT
  5
15B66
330
13C5D
100
AcDbEntity
  8
DEFPOINTS
 62
     0
 48
50.0
100
AcDbPoint
 10
7118.62034640205
 20
9522.174134733532
 30
0.0
  0
ENDBLK
  5
1469F
330
13C5D
100
AcDbEntity
  8
0
 48
50.0
100
AcDbBlockEnd
  0
BLOCK
  5
13DD4
330
13C69
100
AcDbEntity
  8
0
 48
50.0
100
AcDbBlockBegin
  2
*D3
 70
     1
 10
0.0
 20
0.0
 30
0.0
  3
*D3
  1

  0
LINE
  5
15B53
330
13C69
100
AcDbEntity
  8
寸法
 62
     0
 48
50.0
370
    -2
100
AcDbLine
 10
7938.620346402051
 20
9326.36591510853
 30
0.0
 11
7938.620346402051
 21
9582.174134733511
 31
0.0
  0
LINE
  5
15B54
330
13C69
100
AcDbEntity
  8
寸法
 62
     0
 48
50.0
370
    -2
100
AcDbLine
 10
7993.62034640205
 20
9326.36591510853
 30
0.0
 11
7993.62034640205
 21
9582.174134733511
 31
0.0
  0
LINE
  5
15B55
330
13C69
100
AcDbEntity
  8
寸法
 62
     0
 48
50.0
370
    -2
100
AcDbLine
 10
7938.620346402051
 20
9522.174134733509
 30
0.0
 11
7838.620346402051
 21
9522.174134733509
 31
0.0
  0
LINE
  5
15B56
330
13C69
100
AcDbEntity
  8
寸法
 62
     0
 48
50.0
370
    -2
100
AcDbLine
 10
7993.62034640205
 20
9522.174134733509
 30
0.0
 11
8410.590909150526
 21
9522.174134733509
 31
0.0
  0
LINE
  5
15B57
330
13C69
100
AcDbEntity
  8
寸法
 62
     0
 48
50.0
370
    -2
100
AcDbLine
 10
7938.620346402051
 20
9522.174134733509
 30
0.0
 11
7993.62034640205
 21
9522.174134733509
 31
0.0
  0
INSERT
  5
15B58
330
13C69
100
AcDbEntity
  8
寸法
 62
     0
 48
50.0
370
    -2
100
AcDbBlockReference
  2
_DOTSMALL
 10
7938.620346402051
 20
9522.174134733509
 30
0.0
 41
100.0
 42
100.0
 43
100.0
  0
INSERT
  5
15B59
330
13C69
100
AcDbEntity
  8
寸法
 62
     0
 48
50.0
370
    -2
100
AcDbBlockReference
  2
_DOTSMALL
 10
7993.62034640205
 20
9522.174134733509
 30
0.0
 41
100.0
 42
100.0
 43
100.0
 50
180.0
  0
MTEXT
  5
15B5A
330
13C69
100
AcDbEntity
  8
寸法
 62
     7
 48
50.0
100
AcDbMText
 10
8302.10562777629
 20
9622.17413473351
 30
0.0
 40
120.0
 41
0.0
 71
     5
 72
     1
  1
\A1;55
  7
STYLE1
 73
     1
 44
1.0
1001
ACAD
1000
MTEXTBEGIN
1070
    73
1070
     1
1070
    44
1040
1.0
1070
    74
1070
     0
1000
MTEXTEND
  0
POINT
  5
15B5B
330
13C69
100
AcDbEntity
  8
DEFPOINTS
 62
     0
 48
50.0
100
AcDbPoint
 10
7938.620346402051
 20
9306.365915108528
 30
0.0
  0
POINT
  5
15B5C
330
13C69
100
AcDbEntity
  8
DEFPOINTS
 62
     0
 48
50.0
100
AcDbPoint
 10
7993.62034640205
 20
9306.365915108528
 30
0.0
  0
POINT
  5
15B5D
330
13C69
100
AcDbEntity
  8
DEFPOINTS
 62
     0
 48
50.0
100
AcDbPoint
 10
7993.62034640205
 20
9522.174134733509
 30
0.0
  0
ENDBLK
  5
13DE0
330
13C69
100
AcDbEntity
  8
0
 48
50.0
100
AcDbBlockEnd
  0
BLOCK
  5
14A47
330
13C83
100
AcDbEntity
  8
0
 48
50.0
100
AcDbBlockBegin
  2
*D4
 70
     1
 10
0.0
 20
0.0
 30
0.0
  3
*D4
  1

  0
LINE
  5
15B4A
330
13C83
100
AcDbEntity
  8
寸法
 62
     0
 48
50.0
370
    -2
100
AcDbLine
 10
4713.620346402044
 20
8336.3659151083
 30
0.0
 11
4713.620346402044
 21
7309.264040248283
 31
0.0
  0
LINE
  5
15B4B
330
13C83
100
AcDbEntity
  8
寸法
 62
     0
 48
50.0
370
    -2
100
AcDbLine
 10
7993.620346402025
 20
8336.365915108485
 30
0.0
 11
7993.620346402025
 21
7309.264040248283
 31
0.0
  0
LINE
  5
15B4C
330
13C83
100
AcDbEntity
  8
寸法
 62
     0
 48
50.0
370
    -2
100
AcDbLine
 10
4713.620346402044
 20
7369.264040248284
 30
0.0
 11
7993.620346402025
 21
7369.264040248284
 31
0.0
  0
INSERT
  5
15B4D
330
13C83
100
AcDbEntity
  8
寸法
 62
     0
 48
50.0
370
    -2
100
AcDbBlockReference
  2
_DOTSMALL
 10
4713.620346402044
 20
7369.264040248284
 30
0.0
 41
100.0
 42
100.0
 43
100.0
 50
180.0
  0
INSERT
  5
15B4E
330
13C83
100
AcDbEntity
  8
寸法
 62
     0
 48
50.0
370
    -2
100
AcDbBlockReference
  2
_DOTSMALL
 10
7993.620346402025
 20
7369.264040248284
 30
0.0
 41
100.0
 42
100.0
 43
100.0
  0
MTEXT
  5
15B4F
330
13C83
100
AcDbEntity
  8
寸法
 62
     7
 48
50.0
100
AcDbMText
 10
6353.620346402035
 20
7469.275851271905
 30
0.0
 40
120.0
 41
0.0
 71
     5
 72
     1
  1
\A1;3280
  7
STYLE1
 73
     1
 44
1.0
1001
ACAD
1000
MTEXTBEGIN
1070
    73
1070
     1
1070
    44
1040
1.0
1070
    74
1070
     0
1000
MTEXTEND
  0
POINT
  5
15B50
330
13C83
100
AcDbEntity
  8
DEFPOINTS
 62
     0
 48
50.0
100
AcDbPoint
 10
4713.620346402044
 20
8356.3659151083
 30
0.0
  0
POINT
  5
15B51
330
13C83
100
AcDbEntity
  8
DEFPOINTS
 62
     0
 48
50.0
100
AcDbPoint
 10
7993.620346402025
 20
8356.365915108485
 30
0.0
  0
POINT
  5
15B52
330
13C83
100
AcDbEntity
  8
DEFPOINTS
 62
     0
 48
50.0
100
AcDbPoint
 10
7993.620346402025
 20
7369.264040248284
 30
0.0
  0
ENDBLK
  5
14A51
330
13C83
100
AcDbEntity
  8
0
 48
50.0
100
AcDbBlockEnd
  0
BLOCK
  5
13E3F
330
13CDD
100
AcDbEntity
  8
0
 48
50.0
100
AcDbBlockBegin
  2
*D5
 70
     1
 10
0.0
 20
0.0
 30
0.0
  3
*D5
  1

  0
LINE
  5
15B3F
330
13CDD
100
AcDbEntity
  8
寸法
 62
     0
 48
50.0
370
    -2
100
AcDbLine
 10
8013.620346402026
 20
8411.365915108515
 30
0.0
 11
8701.046692136436
 21
8411.365915108515
 31
0.0
  0
LINE
  5
15B40
330
13CDD
100
AcDbEntity
  8
寸法
 62
     0
 48
50.0
370
    -2
100
AcDbLine
 10
8013.620346402026
 20
8356.365915108517
 30
0.0
 11
8701.046692136436
 21
8356.365915108517
 31
0.0
  0
LINE
  5
15B41
330
13CDD
100
AcDbEntity
  8
寸法
 62
     0
 48
50.0
370
    -2
100
AcDbLine
 10
8641.046692136438
 20
8411.365915108515
 30
0.0
 11
8641.046692136438
 21
8511.365915108514
 31
0.0
  0
LINE
  5
15B42
330
13CDD
100
AcDbEntity
  8
寸法
 62
     0
 48
50.0
370
    -2
100
AcDbLine
 10
8641.046692136438
 20
8356.365915108517
 30
0.0
 11
8641.046692136438
 21
7870.019166829418
 31
0.0
  0
LINE
  5
15B43
330
13CDD
100
AcDbEntity
  8
寸法
 62
     0
 48
50.0
370
    -2
100
AcDbLine
 10
8641.046692136438
 20
8411.365915108515
 30
0.0
 11
8641.046692136438
 21
8356.365915108517
 31
0.0
  0
INSERT
  5
15B44
330
13CDD
100
AcDbEntity
  8
寸法
 62
     0
 48
50.0
370
    -2
100
AcDbBlockReference
  2
_DOTSMALL
 10
8641.046692136438
 20
8411.365915108515
 30
0.0
 41
100.0
 42
100.0
 43
100.0
 50
270.0
  0
INSERT
  5
15B45
330
13CDD
100
AcDbEntity
  8
寸法
 62
     0
 48
50.0
370
    -2
100
AcDbBlockReference
  2
_DOTSMALL
 10
8641.046692136438
 20
8356.365915108517
 30
0.0
 41
100.0
 42
100.0
 43
100.0
 50
90.0
  0
MTEXT
  5
15B46
330
13CDD
100
AcDbEntity
  8
寸法
 62
     7
 48
50.0
100
AcDbMText
 10
8541.046692136434
 20
7978.504448203658
 30
0.0
 40
120.0
 41
0.0
 71
     5
 72
     1
  1
\A1;55
  7
STYLE1
 11
0.0000000000000001
 21
1.0
 31
0.0
 73
     1
 44
1.0
1001
ACAD
1000
MTEXTBEGIN
1070
    73
1070
     1
1070
    44
1040
1.0
1070
    74
1070
     0
1000
MTEXTEND
  0
POINT
  5
15B47
330
13CDD
100
AcDbEntity
  8
DEFPOINTS
 62
     0
 48
50.0
100
AcDbPoint
 10
7993.620346402025
 20
8411.365915108515
 30
0.0
  0
POINT
  5
15B48
330
13CDD
100
AcDbEntity
  8
DEFPOINTS
 62
     0
 48
50.0
100
AcDbPoint
 10
7993.620346402025
 20
8356.365915108517
 30
0.0
  0
POINT
  5
15B49
330
13CDD
100
AcDbEntity
  8
DEFPOINTS
 62
     0
 48
50.0
100
AcDbPoint
 10
8641.046692136438
 20
8356.365915108517
 30
0.0
  0
ENDBLK
  5
13E4B
330
13CDD
100
AcDbEntity
  8
0
 48
50.0
100
AcDbBlockEnd
  0
BLOCK
  5
13E58
330
13CF8
100
AcDbEntity
  8
0
 48
50.0
100
AcDbBlockBegin
  2
*D6
 70
     1
 10
0.0
 20
0.0
 30
0.0
  3
*D6
  1

  0
LINE
  5
15B36
330
13CF8
100
AcDbEntity
  8
寸法
 62
     0
 48
50.0
370
    -2
100
AcDbLine
 10
8013.620346402051
 20
9251.365915108532
 30
0.0
 11
8701.046692136463
 21
9251.365915108532
 31
0.0
  0
LINE
  5
15B37
330
13CF8
100
AcDbEntity
  8
寸法
 62
     0
 48
50.0
370
    -2
100
AcDbLine
 10
8013.620346402026
 20
8411.365915108515
 30
0.0
 11
8701.046692136463
 21
8411.365915108515
 31
0.0
  0
LINE
  5
15B38
330
13CF8
100
AcDbEntity
  8
寸法
 62
     0
 48
50.0
370
    -2
100
AcDbLine
 10
8641.046692136463
 20
9251.365915108532
 30
0.0
 11
8641.046692136463
 21
8411.365915108515
 31
0.0
  0
INSERT
  5
15B39
330
13CF8
100
AcDbEntity
  8
寸法
 62
     0
 48
50.0
370
    -2
100
AcDbBlockReference
  2
_DOTSMALL
 10
8641.046692136463
 20
9251.365915108532
 30
0.0
 41
100.0
 42
100.0
 43
100.0
 50
90.0
  0
INSERT
  5
15B3A
330
13CF8
100
AcDbEntity
  8
寸法
 62
     0
 48
50.0
370
    -2
100
AcDbBlockReference
  2
_DOTSMALL
 10
8641.046692136463
 20
8411.365915108515
 30
0.0
 41
100.0
 42
100.0
 43
100.0
 50
270.0
  0
MTEXT
  5
15B3B
330
13CF8
100
AcDbEntity
  8
寸法
 62
     7
 48
50.0
100
AcDbMText
 10
8541.034881112839
 20
8831.365915108525
 30
0.0
 40
120.0
 41
0.0
 71
     5
 72
     1
  1
\A1;2X420=840
  7
STYLE1
 11
0.0000000000000001
 21
1.0
 31
0.0
 73
     1
 44
1.0
1001
ACAD
1000
MTEXTBEGIN
1070
    73
1070
     1
1070
    44
1040
1.0
1070
    74
1070
     0
1000
MTEXTEND
  0
POINT
  5
15B3C
330
13CF8
100
AcDbEntity
  8
DEFPOINTS
 62
     0
 48
50.0
100
AcDbPoint
 10
7993.62034640205
 20
9251.365915108532
 30
0.0
  0
POINT
  5
15B3D
330
13CF8
100
AcDbEntity
  8
DEFPOINTS
 62
     0
 48
50.0
100
AcDbPoint
 10
7993.620346402025
 20
8411.365915108515
 30
0.0
  0
POINT
  5
15B3E
330
13CF8
100
AcDbEntity
  8
DEFPOINTS
 62
     0
 48
50.0
100
AcDbPoint
 10
8641.046692136463
 20
8411.365915108515
 30
0.0
  0
ENDBLK
  5
13E62
330
13CF8
100
AcDbEntity
  8
0
 48
50.0
100
AcDbBlockEnd
  0
BLOCK
  5
13E6E
330
13D10
100
AcDbEntity
  8
0
 48
50.0
100
AcDbBlockBegin
  2
*D7
 70
     1
 10
0.0
 20
0.0
 30
0.0
  3
*D7
  1

  0
LINE
  5
15B2D
330
13D10
100
AcDbEntity
  8
寸法
 62
     0
 48
50.0
370
    -2
100
AcDbLine
 10
8013.620346402051
 20
9306.365915108528
 30
0.0
 11
9010.15822295214
 21
9306.365915108528
 31
0.0
  0
LINE
  5
15B2E
330
13D10
100
AcDbEntity
  8
寸法
 62
     0
 48
50.0
370
    -2
100
AcDbLine
 10
8013.620346402026
 20
8356.365915108517
 30
0.0
 11
9010.15822295214
 21
8356.365915108517
 31
0.0
  0
LINE
  5
15B2F
330
13D10
100
AcDbEntity
  8
寸法
 62
     0
 48
50.0
370
    -2
100
AcDbLine
 10
8950.158222952138
 20
9306.365915108528
 30
0.0
 11
8950.158222952138
 21
8356.365915108517
 31
0.0
  0
INSERT
  5
15B30
330
13D10
100
AcDbEntity
  8
寸法
 62
     0
 48
50.0
370
    -2
100
AcDbBlockReference
  2
_DOTSMALL
 10
8950.158222952138
 20
9306.365915108528
 30
0.0
 41
100.0
 42
100.0
 43
100.0
 50
90.0
  0
INSERT
  5
15B31
330
13D10
100
AcDbEntity
  8
寸法
 62
     0
 48
50.0
370
    -2
100
AcDbBlockReference
  2
_DOTSMALL
 10
8950.158222952138
 20
8356.365915108517
 30
0.0
 41
100.0
 42
100.0
 43
100.0
 50
270.0
  0
MTEXT
  5
15B32
330
13D10
100
AcDbEntity
  8
寸法
 62
     7
 48
50.0
100
AcDbMText
 10
8850.158222952137
 20
8830.343633667437
 30
0.0
 40
120.0
 41
0.0
 71
     5
 72
     1
  1
\A1;950
  7
STYLE1
 11
0.0000000000000001
 21
1.0
 31
0.0
 73
     1
 44
1.0
1001
ACAD
1000
MTEXTBEGIN
1070
    73
1070
     1
1070
    44
1040
1.0
1070
    74
1070
     0
1000
MTEXTEND
  0
POINT
  5
15B33
330
13D10
100
AcDbEntity
  8
DEFPOINTS
 62
     0
 48
50.0
100
AcDbPoint
 10
7993.62034640205
 20
9306.365915108528
 30
0.0
  0
POINT
  5
15B34
330
13D10
100
AcDbEntity
  8
DEFPOINTS
 62
     0
 48
50.0
100
AcDbPoint
 10
7993.620346402025
 20
8356.365915108517
 30
0.0
  0
POINT
  5
15B35
330
13D10
100
AcDbEntity
  8
DEFPOINTS
 62
     0
 48
50.0
100
AcDbPoint
 10
8950.158222952138
 20
8356.365915108517
 30
0.0
  0
ENDBLK
  5
13E78
330
13D10
100
AcDbEntity
  8
0
 48
50.0
100
AcDbBlockEnd
  0
BLOCK
  5
13E79
330
13D1C
100
AcDbEntity
  8
0
 48
50.0
100
AcDbBlockBegin
  2
*D8
 70
     1
 10
0.0
 20
0.0
 30
0.0
  3
*D8
  1

  0
LINE
  5
15B22
330
13D1C
100
AcDbEntity
  8
寸法
 62
     0
 48
50.0
370
    -2
100
AcDbLine
 10
8013.620346402051
 20
9306.365915108528
 30
0.0
 11
8701.046692136463
 21
9306.365915108528
 31
0.0
  0
LINE
  5
15B23
330
13D1C
100
AcDbEntity
  8
寸法
 62
     0
 48
50.0
370
    -2
100
AcDbLine
 10
8013.620346402051
 20
9251.365915108532
 30
0.0
 11
8701.046692136463
 21
9251.365915108532
 31
0.0
  0
LINE
  5
15B24
330
13D1C
100
AcDbEntity
  8
寸法
 62
     0
 48
50.0
370
    -2
100
AcDbLine
 10
8641.046692136463
 20
9251.365915108532
 30
0.0
 11
8641.046692136463
 21
9151.365915108533
 31
0.0
  0
LINE
  5
15B25
330
13D1C
100
AcDbEntity
  8
寸法
 62
     0
 48
50.0
370
    -2
100
AcDbLine
 10
8641.046692136463
 20
9306.365915108528
 30
0.0
 11
8641.046692136463
 21
9723.336477857005
 31
0.0
  0
LINE
  5
15B26
330
13D1C
100
AcDbEntity
  8
寸法
 62
     0
 48
50.0
370
    -2
100
AcDbLine
 10
8641.046692136463
 20
9251.365915108532
 30
0.0
 11
8641.046692136463
 21
9306.365915108528
 31
0.0
  0
INSERT
  5
15B27
330
13D1C
100
AcDbEntity
  8
寸法
 62
     0
 48
50.0
370
    -2
100
AcDbBlockReference
  2
_DOTSMALL
 10
8641.046692136463
 20
9251.365915108532
 30
0.0
 41
100.0
 42
100.0
 43
100.0
 50
90.0
  0
INSERT
  5
15B28
330
13D1C
100
AcDbEntity
  8
寸法
 62
     0
 48
50.0
370
    -2
100
AcDbBlockReference
  2
_DOTSMALL
 10
8641.046692136463
 20
9306.365915108528
 30
0.0
 41
100.0
 42
100.0
 43
100.0
 50
270.0
  0
MTEXT
  5
15B29
330
13D1C
100
AcDbEntity
  8
寸法
 62
     7
 48
50.0
100
AcDbMText
 10
8541.046692136459
 20
9614.851196482769
 30
0.0
 40
120.0
 41
0.0
 71
     5
 72
     1
  1
\A1;55
  7
STYLE1
 11
0.0000000000000001
 21
1.0
 31
0.0
 73
     1
 44
1.0
1001
ACAD
1000
MTEXTBEGIN
1070
    73
1070
     1
1070
    44
1040
1.0
1070
    74
1070
     0
1000
MTEXTEND
  0
POINT
  5
15B2A
330
13D1C
100
AcDbEntity
  8
DEFPOINTS
 62
     0
 48
50.0
100
AcDbPoint
 10
7993.62034640205
 20
9306.365915108528
 30
0.0
  0
POINT
  5
15B2B
330
13D1C
100
AcDbEntity
  8
DEFPOINTS
 62
     0
 48
50.0
100
AcDbPoint
 10
7993.62034640205
 20
9251.365915108532
 30
0.0
  0
POINT
  5
15B2C
330
13D1C
100
AcDbEntity
  8
DEFPOINTS
 62
     0
 48
50.0
100
AcDbPoint
 10
8641.046692136463
 20
9251.365915108532
 30
0.0
  0
ENDBLK
  5
13E85
330
13D1C
100
AcDbEntity
  8
0
 48
50.0
100
AcDbBlockEnd
  0
BLOCK
  5
140CC
330
13EC4
100
AcDbEntity
  8
0
 48
50.0
100
AcDbBlockBegin
  2
*D9
 70
     1
 10
0.0
 20
0.0
 30
0.0
  3
*D9
  1

  0
LINE
  5
15B19
330
13EC4
100
AcDbEntity
  8
寸法
 62
     0
 48
50.0
370
    -2
100
AcDbLine
 10
7197.761362553361
 20
8806.865915108483
 30
0.0
 11
7128.349898562136
 21
8547.818804865499
 31
0.0
  0
LINE
  5
15B1A
330
13EC4
100
AcDbEntity
  8
寸法
 62
     0
 48
50.0
370
    -2
100
AcDbLine
 10
7958.761362553372
 20
8806.865915108479
 30
0.0
 11
7889.349898562149
 21
8547.818804865499
 31
0.0
  0
LINE
  5
15B1B
330
13EC4
100
AcDbEntity
  8
寸法
 62
     0
 48
50.0
370
    -2
100
AcDbLine
 10
7144.426850108004
 20
8607.8188048655
 30
0.0
 11
7905.426850108018
 21
8607.8188048655
 31
0.0
  0
INSERT
  5
15B1C
330
13EC4
100
AcDbEntity
  8
寸法
 62
     0
 48
50.0
370
    -2
100
AcDbBlockReference
  2
_DOTSMALL
 10
7144.426850108004
 20
8607.8188048655
 30
0.0
 41
100.0
 42
100.0
 43
100.0
 50
180.0
  0
INSERT
  5
15B1D
330
13EC4
100
AcDbEntity
  8
寸法
 62
     0
 48
50.0
370
    -2
100
AcDbBlockReference
  2
_DOTSMALL
 10
7905.426850108018
 20
8607.8188048655
 30
0.0
 41
100.0
 42
100.0
 43
100.0
  0
MTEXT
  5
15B1E
330
13EC4
100
AcDbEntity
  8
寸法
 62
     7
 48
50.0
100
AcDbMText
 10
7582.467408520251
 20
8707.8188048655
 30
0.0
 40
120.0
 41
0.0
 71
     5
 72
     1
  1
\A1;761
  7
STYLE1
 73
     1
 44
1.0
1001
ACAD
1000
MTEXTBEGIN
1070
    73
1070
     1
1070
    44
1040
1.0
1070
    74
1070
     0
1000
MTEXTEND
  0
POINT
  5
15B1F
330
13EC4
100
AcDbEntity
  8
DEFPOINTS
 62
     0
 48
50.0
100
AcDbPoint
 10
7203.120346401982
 20
8826.865915108482
 30
0.0
  0
POINT
  5
15B20
330
13EC4
100
AcDbEntity
  8
DEFPOINTS
 62
     0
 48
50.0
100
AcDbPoint
 10
7964.120346401995
 20
8826.865915108479
 30
0.0
  0
POINT
  5
15B21
330
13EC4
100
AcDbEntity
  8
DEFPOINTS
 62
     0
 48
50.0
100
AcDbPoint
 10
7905.426850108018
 20
8607.8188048655
 30
0.0
  0
ENDBLK
  5
140D6
330
13EC4
100
AcDbEntity
  8
0
 48
50.0
100
AcDbBlockEnd
  0
BLOCK
  5
140C1
330
13ED0
100
AcDbEntity
  8
0
 48
50.0
100
AcDbBlockBegin
  2
*D10
 70
     1
 10
0.0
 20
0.0
 30
0.0
  3
*D10
  1

  0
LINE
  5
15B10
330
13ED0
100
AcDbEntity
  8
寸法
 62
     0
 48
50.0
370
    -2
100
AcDbLine
 10
6377.761369231059
 20
8806.865915108437
 30
0.0
 11
6308.349905239836
 21
8547.818804865455
 31
0.0
  0
LINE
  5
15B11
330
13ED0
100
AcDbEntity
  8
寸法
 62
     0
 48
50.0
370
    -2
100
AcDbLine
 10
7138.761369231072
 20
8806.865915108435
 30
0.0
 11
7069.349905239848
 21
8547.818804865455
 31
0.0
  0
LINE
  5
15B12
330
13ED0
100
AcDbEntity
  8
寸法
 62
     0
 48
50.0
370
    -2
100
AcDbLine
 10
6324.426856785703
 20
8607.818804865454
 30
0.0
 11
7085.426856785716
 21
8607.818804865454
 31
0.0
  0
INSERT
  5
15B13
330
13ED0
100
AcDbEntity
  8
寸法
 62
     0
 48
50.0
370
    -2
100
AcDbBlockReference
  2
_DOTSMALL
 10
6324.426856785703
 20
8607.818804865454
 30
0.0
 41
100.0
 42
100.0
 43
100.0
 50
180.0
  0
INSERT
  5
15B14
330
13ED0
100
AcDbEntity
  8
寸法
 62
     0
 48
50.0
370
    -2
100
AcDbBlockReference
  2
_DOTSMALL
 10
7085.426856785716
 20
8607.818804865454
 30
0.0
 41
100.0
 42
100.0
 43
100.0
  0
MTEXT
  5
15B15
330
13ED0
100
AcDbEntity
  8
寸法
 62
     7
 48
50.0
100
AcDbMText
 10
6704.92685678571
 20
8707.818804865453
 30
0.0
 40
120.0
 41
0.0
 71
     5
 72
     1
  1
\A1;761
  7
STYLE1
 73
     1
 44
1.0
1001
ACAD
1000
MTEXTBEGIN
1070
    73
1070
     1
1070
    44
1040
1.0
1070
    74
1070
     0
1000
MTEXTEND
  0
POINT
  5
15B16
330
13ED0
100
AcDbEntity
  8
DEFPOINTS
 62
     0
 48
50.0
100
AcDbPoint
 10
6383.120353079682
 20
8826.865915108438
 30
0.0
  0
POINT
  5
15B17
330
13ED0
100
AcDbEntity
  8
DEFPOINTS
 62
     0
 48
50.0
100
AcDbPoint
 10
7144.120353079694
 20
8826.865915108433
 30
0.0
  0
POINT
  5
15B18
330
13ED0
100
AcDbEntity
  8
DEFPOINTS
 62
     0
 48
50.0
100
AcDbPoint
 10
7085.426856785716
 20
8607.818804865454
 30
0.0
  0
ENDBLK
  5
140CB
330
13ED0
100
AcDbEntity
  8
0
 48
50.0
100
AcDbBlockEnd
  0
BLOCK
  5
13EDD
330
13EDC
100
AcDbEntity
  8
0
 48
50.0
100
AcDbBlockBegin
  2
*D11
 70
     1
 10
0.0
 20
0.0
 30
0.0
  3
*D11
  1

  0
LINE
  5
15B07
330
13EDC
100
AcDbEntity
  8
寸法
 62
     0
 48
50.0
370
    -2
100
AcDbLine
 10
7984.120346401984
 20
9271.506931259853
 30
0.0
 11
8379.478072264008
 21
9165.57114789372
 31
0.0
  0
LINE
  5
15B08
330
13EDC
100
AcDbEntity
  8
寸法
 62
     0
 48
50.0
370
    -2
100
AcDbLine
 10
7984.120346401984
 20
8821.506931259852
 30
0.0
 11
8379.478072264008
 21
8715.571147893719
 31
0.0
  0
LINE
  5
15B09
330
13EDC
100
AcDbEntity
  8
寸法
 62
     0
 48
50.0
370
    -2
100
AcDbLine
 10
8319.478072264008
 20
9181.648099439586
 30
0.0
 11
8319.478072264008
 21
8731.648099439587
 31
0.0
  0
INSERT
  5
15B0A
330
13EDC
100
AcDbEntity
  8
寸法
 62
     0
 48
50.0
370
    -2
100
AcDbBlockReference
  2
_DOTSMALL
 10
8319.478072264008
 20
9181.648099439586
 30
0.0
 41
100.0
 42
100.0
 43
100.0
 50
90.0
  0
INSERT
  5
15B0B
330
13EDC
100
AcDbEntity
  8
寸法
 62
     0
 48
50.0
370
    -2
100
AcDbBlockReference
  2
_DOTSMALL
 10
8319.478072264008
 20
8731.648099439587
 30
0.0
 41
100.0
 42
100.0
 43
100.0
 50
270.0
  0
MTEXT
  5
15B0C
330
13EDC
100
AcDbEntity
  8
寸法
 62
     7
 48
50.0
100
AcDbMText
 10
8219.478072264006
 20
8956.648099439588
 30
0.0
 40
120.0
 41
0.0
 71
     5
 72
     1
  1
\A1;450
  7
STYLE1
 11
0.0000000000000001
 21
1.0
 31
0.0
 73
     1
 44
1.0
1001
ACAD
1000
MTEXTBEGIN
1070
    73
1070
     1
1070
    44
1040
1.0
1070
    74
1070
     0
1000
MTEXTEND
  0
POINT
  5
15B0D
330
13EDC
100
AcDbEntity
  8
DEFPOINTS
 62
     0
 48
50.0
100
AcDbPoint
 10
7964.120346401983
 20
9276.865915108476
 30
0.0
  0
POINT
  5
15B0E
330
13EDC
100
AcDbEntity
  8
DEFPOINTS
 62
     0
 48
50.0
100
AcDbPoint
 10
7964.120346401983
 20
8826.865915108475
 30
0.0
  0
POINT
  5
15B0F
330
13EDC
100
AcDbEntity
  8
DEFPOINTS
 62
     0
 48
50.0
100
AcDbPoint
 10
8319.478072264008
 20
8731.648099439587
 30
0.0
  0
ENDBLK
  5
13EE7
330
13EDC
100
AcDbEntity
  8
0
 48
50.0
100
AcDbBlockEnd
  0
BLOCK
  5
146AB
330
1453A
100
AcDbEntity
  8
0
 48
50.0
100
AcDbBlockBegin
  2
*D12
 70
     1
 10
0.0
 20
0.0
 30
0.0
  3
*D12
  1

  0
LINE
  5
15AFC
330
1453A
100
AcDbEntity
  8
寸法
 62
     0
 48
50.0
370
    -2
100
AcDbLine
 10
7118.62034640205
 20
9326.365915108555
 30
0.0
 11
7118.62034640205
 21
9582.174134733532
 31
0.0
  0
LINE
  5
15AFD
330
1453A
100
AcDbEntity
  8
寸法
 62
     0
 48
50.0
370
    -2
100
AcDbLine
 10
7228.620346402053
 20
9326.365915108532
 30
0.0
 11
7228.620346402053
 21
9582.174134733532
 31
0.0
  0
LINE
  5
15AFE
330
1453A
100
AcDbEntity
  8
寸法
 62
     0
 48
50.0
370
    -2
100
AcDbLine
 10
7118.62034640205
 20
9522.174134733532
 30
0.0
 11
7018.620346402049
 21
9522.174134733532
 31
0.0
  0
LINE
  5
15AFF
330
1453A
100
AcDbEntity
  8
寸法
 62
     0
 48
50.0
370
    -2
100
AcDbLine
 10
7228.620346402053
 20
9522.174134733532
 30
0.0
 11
7328.620346402053
 21
9522.174134733532
 31
0.0
  0
LINE
  5
15B00
330
1453A
100
AcDbEntity
  8
寸法
 62
     0
 48
50.0
370
    -2
100
AcDbLine
 10
7118.62034640205
 20
9522.174134733532
 30
0.0
 11
7228.620346402053
 21
9522.174134733532
 31
0.0
  0
INSERT
  5
15B01
330
1453A
100
AcDbEntity
  8
寸法
 62
     0
 48
50.0
370
    -2
100
AcDbBlockReference
  2
_DOTSMALL
 10
7118.62034640205
 20
9522.174134733532
 30
0.0
 41
100.0
 42
100.0
 43
100.0
  0
INSERT
  5
15B02
330
1453A
100
AcDbEntity
  8
寸法
 62
     0
 48
50.0
370
    -2
100
AcDbBlockReference
  2
_DOTSMALL
 10
7228.620346402053
 20
9522.174134733532
 30
0.0
 41
100.0
 42
100.0
 43
100.0
 50
180.0
  0
MTEXT
  5
15B03
330
1453A
100
AcDbEntity
  8
寸法
 62
     7
 48
50.0
100
AcDbMText
 10
7173.62034640205
 20
9622.174134733533
 30
0.0
 40
120.0
 41
0.0
 71
     5
 72
     1
  1
\A1;110
  7
STYLE1
 73
     1
 44
1.0
1001
ACAD
1000
MTEXTBEGIN
1070
    73
1070
     1
1070
    44
1040
1.0
1070
    74
1070
     0
1000
MTEXTEND
  0
POINT
  5
15B04
330
1453A
100
AcDbEntity
  8
DEFPOINTS
 62
     0
 48
50.0
100
AcDbPoint
 10
7118.62034640205
 20
9306.365915108555
 30
0.0
  0
POINT
  5
15B05
330
1453A
100
AcDbEntity
  8
DEFPOINTS
 62
     0
 48
50.0
100
AcDbPoint
 10
7228.620346402053
 20
9306.365915108532
 30
0.0
  0
POINT
  5
15B06
330
1453A
100
AcDbEntity
  8
DEFPOINTS
 62
     0
 48
50.0
100
AcDbPoint
 10
7228.620346402053
 20
9522.174134733532
 30
0.0
  0
ENDBLK
  5
146B7
330
1453A
100
AcDbEntity
  8
0
 48
50.0
100
AcDbBlockEnd
  0
BLOCK
  5
146A0
330
14556
100
AcDbEntity
  8
0
 48
50.0
100
AcDbBlockBegin
  2
*D13
 70
     1
 10
0.0
 20
0.0
 30
0.0
  3
*D13
  1

  0
LINE
  5
15AF3
330
14556
100
AcDbEntity
  8
寸法
 62
     0
 48
50.0
370
    -2
100
AcDbLine
 10
7938.620346402051
 20
9326.365915108546
 30
0.0
 11
7938.620346402051
 21
9582.174134733532
 31
0.0
  0
LINE
  5
15AF4
330
14556
100
AcDbEntity
  8
寸法
 62
     0
 48
50.0
370
    -2
100
AcDbLine
 10
7228.620346402053
 20
9326.365915108532
 30
0.0
 11
7228.620346402053
 21
9582.174134733532
 31
0.0
  0
LINE
  5
15AF5
330
14556
100
AcDbEntity
  8
寸法
 62
     0
 48
50.0
370
    -2
100
AcDbLine
 10
7938.620346402051
 20
9522.174134733532
 30
0.0
 11
7228.620346402053
 21
9522.174134733532
 31
0.0
  0
INSERT
  5
15AF6
330
14556
100
AcDbEntity
  8
寸法
 62
     0
 48
50.0
370
    -2
100
AcDbBlockReference
  2
_DOTSMALL
 10
7938.620346402051
 20
9522.174134733532
 30
0.0
 41
100.0
 42
100.0
 43
100.0
  0
INSERT
  5
15AF7
330
14556
100
AcDbEntity
  8
寸法
 62
     0
 48
50.0
370
    -2
100
AcDbBlockReference
  2
_DOTSMALL
 10
7228.620346402053
 20
9522.174134733532
 30
0.0
 41
100.0
 42
100.0
 43
100.0
 50
180.0
  0
MTEXT
  5
15AF8
330
14556
100
AcDbEntity
  8
寸法
 62
     7
 48
50.0
100
AcDbMText
 10
7583.620346402051
 20
9622.174134733533
 30
0.0
 40
120.0
 41
0.0
 71
     5
 72
     1
  1
\A1;710
  7
STYLE1
 73
     1
 44
1.0
1001
ACAD
1000
MTEXTBEGIN
1070
    73
1070
     1
1070
    44
1040
1.0
1070
    74
1070
     0
1000
MTEXTEND
  0
POINT
  5
15AF9
330
14556
100
AcDbEntity
  8
DEFPOINTS
 62
     0
 48
50.0
100
AcDbPoint
 10
7938.620346402051
 20
9306.365915108548
 30
0.0
  0
POINT
  5
15AFA
330
14556
100
AcDbEntity
  8
DEFPOINTS
 62
     0
 48
50.0
100
AcDbPoint
 10
7228.620346402053
 20
9306.365915108532
 30
0.0
  0
POINT
  5
15AFB
330
14556
100
AcDbEntity
  8
DEFPOINTS
 62
     0
 48
50.0
100
AcDbPoint
 10
7228.620346402053
 20
9522.174134733532
 30
0.0
  0
ENDBLK
  5
146AA
330
14556
100
AcDbEntity
  8
0
 48
50.0
100
AcDbBlockEnd
  0
BLOCK
  5
149CA
330
149C9
100
AcDbEntity
  8
0
 48
50.0
100
AcDbBlockBegin
  2
*D14
 70
     1
 10
0.0
 20
0.0
 30
0.0
  3
*D14
  1

  0
LINE
  5
15ABB
330
149C9
100
AcDbEntity
  8
寸法
 62
     0
 48
50.0
370
    -2
100
AcDbLine
 10
4768.62034640205
 20
9326.365915108434
 30
0.0
 11
4768.62034640205
 21
9582.174134733532
 31
0.0
  0
LINE
  5
15ABC
330
149C9
100
AcDbEntity
  8
寸法
 62
     0
 48
50.0
370
    -2
100
AcDbLine
 10
5478.620346402049
 20
9326.365915108555
 30
0.0
 11
5478.620346402049
 21
9582.174134733532
 31
0.0
  0
LINE
  5
15ABD
330
149C9
100
AcDbEntity
  8
寸法
 62
     0
 48
50.0
370
    -2
100
AcDbLine
 10
4768.62034640205
 20
9522.174134733532
 30
0.0
 11
5478.620346402049
 21
9522.174134733532
 31
0.0
  0
INSERT
  5
15ABE
330
149C9
100
AcDbEntity
  8
寸法
 62
     0
 48
50.0
370
    -2
100
AcDbBlockReference
  2
_DOTSMALL
 10
4768.62034640205
 20
9522.174134733532
 30
0.0
 41
100.0
 42
100.0
 43
100.0
 50
180.0
  0
INSERT
  5
15ABF
330
149C9
100
AcDbEntity
  8
寸法
 62
     0
 48
50.0
370
    -2
100
AcDbBlockReference
  2
_DOTSMALL
 10
5478.620346402049
 20
9522.174134733532
 30
0.0
 41
100.0
 42
100.0
 43
100.0
  0
MTEXT
  5
15AC0
330
149C9
100
AcDbEntity
  8
寸法
 62
     7
 48
50.0
100
AcDbMText
 10
5123.870346402049
 20
9622.174134733533
 30
0.0
 40
120.0
 41
0.0
 71
     5
 72
     1
  1
\A1;710
  7
STYLE1
 73
     1
 44
1.0
1001
ACAD
1000
MTEXTBEGIN
1070
    73
1070
     1
1070
    44
1040
1.0
1070
    74
1070
     0
1000
MTEXTEND
  0
POINT
  5
15AC1
330
149C9
100
AcDbEntity
  8
DEFPOINTS
 62
     0
 48
50.0
100
AcDbPoint
 10
4768.62034640205
 20
9306.365915108434
 30
0.0
  0
POINT
  5
15AC2
330
149C9
100
AcDbEntity
  8
DEFPOINTS
 62
     0
 48
50.0
100
AcDbPoint
 10
5478.620346402049
 20
9306.365915108555
 30
0.0
  0
POINT
  5
15AC3
330
149C9
100
AcDbEntity
  8
DEFPOINTS
 62
     0
 48
50.0
100
AcDbPoint
 10
5478.620346402049
 20
9522.174134733532
 30
0.0
  0
ENDBLK
  5
149D4
330
149C9
100
AcDbEntity
  8
0
 48
50.0
100
AcDbBlockEnd
  0
BLOCK
  5
149D6
330
149D5
100
AcDbEntity
  8
0
 48
50.0
100
AcDbBlockBegin
  2
*D15
 70
     1
 10
0.0
 20
0.0
 30
0.0
  3
*D15
  1

  0
LINE
  5
15AE1
330
149D5
100
AcDbEntity
  8
寸法
 62
     0
 48
50.0
370
    -2
100
AcDbLine
 10
5557.76136255336
 20
8806.865915108483
 30
0.0
 11
5488.349898562137
 21
8547.818804865499
 31
0.0
  0
LINE
  5
15AE2
330
149D5
100
AcDbEntity
  8
寸法
 62
     0
 48
50.0
370
    -2
100
AcDbLine
 10
6318.761362553372
 20
8806.865915108479
 30
0.0
 11
6249.349898562149
 21
8547.818804865499
 31
0.0
  0
LINE
  5
15AE3
330
149D5
100
AcDbEntity
  8
寸法
 62
     0
 48
50.0
370
    -2
100
AcDbLine
 10
5504.426850108004
 20
8607.8188048655
 30
0.0
 11
6265.426850108017
 21
8607.8188048655
 31
0.0
  0
INSERT
  5
15AE4
330
149D5
100
AcDbEntity
  8
寸法
 62
     0
 48
50.0
370
    -2
100
AcDbBlockReference
  2
_DOTSMALL
 10
5504.426850108004
 20
8607.8188048655
 30
0.0
 41
100.0
 42
100.0
 43
100.0
 50
180.0
  0
INSERT
  5
15AE5
330
149D5
100
AcDbEntity
  8
寸法
 62
     0
 48
50.0
370
    -2
100
AcDbBlockReference
  2
_DOTSMALL
 10
6265.426850108017
 20
8607.8188048655
 30
0.0
 41
100.0
 42
100.0
 43
100.0
  0
MTEXT
  5
15AE6
330
149D5
100
AcDbEntity
  8
寸法
 62
     7
 48
50.0
100
AcDbMText
 10
5942.467408520252
 20
8707.8188048655
 30
0.0
 40
120.0
 41
0.0
 71
     5
 72
     1
  1
\A1;761
  7
STYLE1
 73
     1
 44
1.0
1001
ACAD
1000
MTEXTBEGIN
1070
    73
1070
     1
1070
    44
1040
1.0
1070
    74
1070
     0
1000
MTEXTEND
  0
POINT
  5
15AE7
330
149D5
100
AcDbEntity
  8
DEFPOINTS
 62
     0
 48
50.0
100
AcDbPoint
 10
5563.120346401983
 20
8826.865915108482
 30
0.0
  0
POINT
  5
15AE8
330
149D5
100
AcDbEntity
  8
DEFPOINTS
 62
     0
 48
50.0
100
AcDbPoint
 10
6324.120346401994
 20
8826.865915108479
 30
0.0
  0
POINT
  5
15AE9
330
149D5
100
AcDbEntity
  8
DEFPOINTS
 62
     0
 48
50.0
100
AcDbPoint
 10
6265.426850108017
 20
8607.8188048655
 30
0.0
  0
ENDBLK
  5
149E0
330
149D5
100
AcDbEntity
  8
0
 48
50.0
100
AcDbBlockEnd
  0
BLOCK
  5
149E2
330
149E1
100
AcDbEntity
  8
0
 48
50.0
100
AcDbBlockBegin
  2
*D16
 70
     1
 10
0.0
 20
0.0
 30
0.0
  3
*D16
  1

  0
LINE
  5
15AEA
330
149E1
100
AcDbEntity
  8
寸法
 62
     0
 48
50.0
370
    -2
100
AcDbLine
 10
4737.761369231059
 20
8806.865915108437
 30
0.0
 11
4668.349905239835
 21
8547.818804865455
 31
0.0
  0
LINE
  5
15AEB
330
149E1
100
AcDbEntity
  8
寸法
 62
     0
 48
50.0
370
    -2
100
AcDbLine
 10
5498.761369231072
 20
8806.865915108435
 30
0.0
 11
5429.349905239849
 21
8547.818804865455
 31
0.0
  0
LINE
  5
15AEC
330
149E1
100
AcDbEntity
  8
寸法
 62
     0
 48
50.0
370
    -2
100
AcDbLine
 10
4684.426856785703
 20
8607.818804865454
 30
0.0
 11
5445.426856785716
 21
8607.818804865454
 31
0.0
  0
INSERT
  5
15AED
330
149E1
100
AcDbEntity
  8
寸法
 62
     0
 48
50.0
370
    -2
100
AcDbBlockReference
  2
_DOTSMALL
 10
4684.426856785703
 20
8607.818804865454
 30
0.0
 41
100.0
 42
100.0
 43
100.0
 50
180.0
  0
INSERT
  5
15AEE
330
149E1
100
AcDbEntity
  8
寸法
 62
     0
 48
50.0
370
    -2
100
AcDbBlockReference
  2
_DOTSMALL
 10
5445.426856785716
 20
8607.818804865454
 30
0.0
 41
100.0
 42
100.0
 43
100.0
  0
MTEXT
  5
15AEF
330
149E1
100
AcDbEntity
  8
寸法
 62
     7
 48
50.0
100
AcDbMText
 10
5064.92685678571
 20
8707.818804865453
 30
0.0
 40
120.0
 41
0.0
 71
     5
 72
     1
  1
\A1;761
  7
STYLE1
 73
     1
 44
1.0
1001
ACAD
1000
MTEXTBEGIN
1070
    73
1070
     1
1070
    44
1040
1.0
1070
    74
1070
     0
1000
MTEXTEND
  0
POINT
  5
15AF0
330
149E1
100
AcDbEntity
  8
DEFPOINTS
 62
     0
 48
50.0
100
AcDbPoint
 10
4743.120353079682
 20
8826.865915108438
 30
0.0
  0
POINT
  5
15AF1
330
149E1
100
AcDbEntity
  8
DEFPOINTS
 62
     0
 48
50.0
100
AcDbPoint
 10
5504.120353079694
 20
8826.865915108433
 30
0.0
  0
POINT
  5
15AF2
330
149E1
100
AcDbEntity
  8
DEFPOINTS
 62
     0
 48
50.0
100
AcDbPoint
 10
5445.426856785716
 20
8607.818804865454
 30
0.0
  0
ENDBLK
  5
149EC
330
149E1
100
AcDbEntity
  8
0
 48
50.0
100
AcDbBlockEnd
  0
BLOCK
  5
149EE
330
149ED
100
AcDbEntity
  8
0
 48
50.0
100
AcDbBlockBegin
  2
*D17
 70
     1
 10
0.0
 20
0.0
 30
0.0
  3
*D17
  1

  0
LINE
  5
15AC4
330
149ED
100
AcDbEntity
  8
寸法
 62
     0
 48
50.0
370
    -2
100
AcDbLine
 10
5478.620346402049
 20
9326.365915108555
 30
0.0
 11
5478.620346402049
 21
9582.174134733532
 31
0.0
  0
LINE
  5
15AC5
330
149ED
100
AcDbEntity
  8
寸法
 62
     0
 48
50.0
370
    -2
100
AcDbLine
 10
5588.620346402052
 20
9326.365915108532
 30
0.0
 11
5588.620346402052
 21
9582.174134733532
 31
0.0
  0
LINE
  5
15AC6
330
149ED
100
AcDbEntity
  8
寸法
 62
     0
 48
50.0
370
    -2
100
AcDbLine
 10
5478.620346402049
 20
9522.174134733532
 30
0.0
 11
5378.620346402049
 21
9522.174134733532
 31
0.0
  0
LINE
  5
15AC7
330
149ED
100
AcDbEntity
  8
寸法
 62
     0
 48
50.0
370
    -2
100
AcDbLine
 10
5588.620346402052
 20
9522.174134733532
 30
0.0
 11
5688.620346402053
 21
9522.174134733532
 31
0.0
  0
LINE
  5
15AC8
330
149ED
100
AcDbEntity
  8
寸法
 62
     0
 48
50.0
370
    -2
100
AcDbLine
 10
5478.620346402049
 20
9522.174134733532
 30
0.0
 11
5588.620346402052
 21
9522.174134733532
 31
0.0
  0
INSERT
  5
15AC9
330
149ED
100
AcDbEntity
  8
寸法
 62
     0
 48
50.0
370
    -2
100
AcDbBlockReference
  2
_DOTSMALL
 10
5478.620346402049
 20
9522.174134733532
 30
0.0
 41
100.0
 42
100.0
 43
100.0
  0
INSERT
  5
15ACA
330
149ED
100
AcDbEntity
  8
寸法
 62
     0
 48
50.0
370
    -2
100
AcDbBlockReference
  2
_DOTSMALL
 10
5588.620346402052
 20
9522.174134733532
 30
0.0
 41
100.0
 42
100.0
 43
100.0
 50
180.0
  0
MTEXT
  5
15ACB
330
149ED
100
AcDbEntity
  8
寸法
 62
     7
 48
50.0
100
AcDbMText
 10
5533.620346402051
 20
9622.174134733533
 30
0.0
 40
120.0
 41
0.0
 71
     5
 72
     1
  1
\A1;110
  7
STYLE1
 73
     1
 44
1.0
1001
ACAD
1000
MTEXTBEGIN
1070
    73
1070
     1
1070
    44
1040
1.0
1070
    74
1070
     0
1000
MTEXTEND
  0
POINT
  5
15ACC
330
149ED
100
AcDbEntity
  8
DEFPOINTS
 62
     0
 48
50.0
100
AcDbPoint
 10
5478.620346402049
 20
9306.365915108555
 30
0.0
  0
POINT
  5
15ACD
330
149ED
100
AcDbEntity
  8
DEFPOINTS
 62
     0
 48
50.0
100
AcDbPoint
 10
5588.620346402052
 20
9306.365915108532
 30
0.0
  0
POINT
  5
15ACE
330
149ED
100
AcDbEntity
  8
DEFPOINTS
 62
     0
 48
50.0
100
AcDbPoint
 10
5588.620346402052
 20
9522.174134733532
 30
0.0
  0
ENDBLK
  5
149FA
330
149ED
100
AcDbEntity
  8
0
 48
50.0
100
AcDbBlockEnd
  0
BLOCK
  5
149FC
330
149FB
100
AcDbEntity
  8
0
 48
50.0
100
AcDbBlockBegin
  2
*D18
 70
     1
 10
0.0
 20
0.0
 30
0.0
  3
*D18
  1

  0
LINE
  5
15ACF
330
149FB
100
AcDbEntity
  8
寸法
 62
     0
 48
50.0
370
    -2
100
AcDbLine
 10
6298.620346402051
 20
9326.365915108546
 30
0.0
 11
6298.620346402051
 21
9582.174134733532
 31
0.0
  0
LINE
  5
15AD0
330
149FB
100
AcDbEntity
  8
寸法
 62
     0
 48
50.0
370
    -2
100
AcDbLine
 10
5588.620346402052
 20
9326.365915108532
 30
0.0
 11
5588.620346402052
 21
9582.174134733532
 31
0.0
  0
LINE
  5
15AD1
330
149FB
100
AcDbEntity
  8
寸法
 62
     0
 48
50.0
370
    -2
100
AcDbLine
 10
6298.620346402051
 20
9522.174134733532
 30
0.0
 11
5588.620346402052
 21
9522.174134733532
 31
0.0
  0
INSERT
  5
15AD2
330
149FB
100
AcDbEntity
  8
寸法
 62
     0
 48
50.0
370
    -2
100
AcDbBlockReference
  2
_DOTSMALL
 10
6298.620346402051
 20
9522.174134733532
 30
0.0
 41
100.0
 42
100.0
 43
100.0
  0
INSERT
  5
15AD3
330
149FB
100
AcDbEntity
  8
寸法
 62
     0
 48
50.0
370
    -2
100
AcDbBlockReference
  2
_DOTSMALL
 10
5588.620346402052
 20
9522.174134733532
 30
0.0
 41
100.0
 42
100.0
 43
100.0
 50
180.0
  0
MTEXT
  5
15AD4
330
149FB
100
AcDbEntity
  8
寸法
 62
     7
 48
50.0
100
AcDbMText
 10
5943.620346402052
 20
9622.174134733533
 30
0.0
 40
120.0
 41
0.0
 71
     5
 72
     1
  1
\A1;710
  7
STYLE1
 73
     1
 44
1.0
1001
ACAD
1000
MTEXTBEGIN
1070
    73
1070
     1
1070
    44
1040
1.0
1070
    74
1070
     0
1000
MTEXTEND
  0
POINT
  5
15AD5
330
149FB
100
AcDbEntity
  8
DEFPOINTS
 62
     0
 48
50.0
100
AcDbPoint
 10
6298.620346402051
 20
9306.365915108548
 30
0.0
  0
POINT
  5
15AD6
330
149FB
100
AcDbEntity
  8
DEFPOINTS
 62
     0
 48
50.0
100
AcDbPoint
 10
5588.620346402052
 20
9306.365915108532
 30
0.0
  0
POINT
  5
15AD7
330
149FB
100
AcDbEntity
  8
DEFPOINTS
 62
     0
 48
50.0
100
AcDbPoint
 10
5588.620346402052
 20
9522.174134733532
 30
0.0
  0
ENDBLK
  5
14A06
330
149FB
100
AcDbEntity
  8
0
 48
50.0
100
AcDbBlockEnd
  0
BLOCK
  5
14A08
330
14A07
100
AcDbEntity
  8
0
 48
50.0
100
AcDbBlockBegin
  2
*D19
 70
     1
 10
0.0
 20
0.0
 30
0.0
  3
*D19
  1

  0
LINE
  5
15AD8
330
14A07
100
AcDbEntity
  8
寸法
 62
     0
 48
50.0
370
    -2
100
AcDbLine
 10
5588.620346402047
 20
8336.365915108471
 30
0.0
 11
5588.620346402047
 21
7856.542247313349
 31
0.0
  0
LINE
  5
15AD9
330
14A07
100
AcDbEntity
  8
寸法
 62
     0
 48
50.0
370
    -2
100
AcDbLine
 10
6273.620346402044
 20
8336.365915108626
 30
0.0
 11
6273.620346402044
 21
7856.542247313349
 31
0.0
  0
LINE
  5
15ADA
330
14A07
100
AcDbEntity
  8
寸法
 62
     0
 48
50.0
370
    -2
100
AcDbLine
 10
5588.620346402047
 20
7916.542247313349
 30
0.0
 11
6273.620346402044
 21
7916.542247313349
 31
0.0
  0
INSERT
  5
15ADB
330
14A07
100
AcDbEntity
  8
寸法
 62
     0
 48
50.0
370
    -2
100
AcDbBlockReference
  2
_DOTSMALL
 10
5588.620346402047
 20
7916.542247313349
 30
0.0
 41
100.0
 42
100.0
 43
100.0
 50
180.0
  0
INSERT
  5
15ADC
330
14A07
100
AcDbEntity
  8
寸法
 62
     0
 48
50.0
370
    -2
100
AcDbBlockReference
  2
_DOTSMALL
 10
6273.620346402044
 20
7916.542247313349
 30
0.0
 41
100.0
 42
100.0
 43
100.0
  0
MTEXT
  5
15ADD
330
14A07
100
AcDbEntity
  8
寸法
 62
     7
 48
50.0
100
AcDbMText
 10
5931.120346402046
 20
8016.542247313349
 30
0.0
 40
120.0
 41
0.0
 71
     5
 72
     1
  1
\A1;685
  7
STYLE1
 73
     1
 44
1.0
1001
ACAD
1000
MTEXTBEGIN
1070
    73
1070
     1
1070
    44
1040
1.0
1070
    74
1070
     0
1000
MTEXTEND
  0
POINT
  5
15ADE
330
14A07
100
AcDbEntity
  8
DEFPOINTS
 62
     0
 48
50.0
100
AcDbPoint
 10
5588.620346402047
 20
8356.365915108472
 30
0.0
  0
POINT
  5
15ADF
330
14A07
100
AcDbEntity
  8
DEFPOINTS
 62
     0
 48
50.0
100
AcDbPoint
 10
6273.620346402044
 20
8356.365915108625
 30
0.0
  0
POINT
  5
15AE0
330
14A07
100
AcDbEntity
  8
DEFPOINTS
 62
     0
 48
50.0
100
AcDbPoint
 10
6273.620346402044
 20
7916.542247313349
 30
0.0
  0
ENDBLK
  5
14A12
330
14A07
100
AcDbEntity
  8
0
 48
50.0
100
AcDbBlockEnd
  0
BLOCK
  5
14A15
330
14A14
100
AcDbEntity
  8
0
 48
50.0
100
AcDbBlockBegin
  2
*D20
 70
     1
 10
0.0
 20
0.0
 30
0.0
  3
*D20
  1

  0
LINE
  5
15AB0
330
14A14
100
AcDbEntity
  8
寸法
 62
     0
 48
50.0
370
    -2
100
AcDbLine
 10
6298.620346402049
 20
9326.365915108555
 30
0.0
 11
6298.620346402049
 21
9582.174134733532
 31
0.0
  0
LINE
  5
15AB1
330
14A14
100
AcDbEntity
  8
寸法
 62
     0
 48
50.0
370
    -2
100
AcDbLine
 10
6408.620346402052
 20
9326.365915108532
 30
0.0
 11
6408.620346402052
 21
9582.174134733532
 31
0.0
  0
LINE
  5
15AB2
330
14A14
100
AcDbEntity
  8
寸法
 62
     0
 48
50.0
370
    -2
100
AcDbLine
 10
6298.620346402049
 20
9522.174134733532
 30
0.0
 11
6198.620346402049
 21
9522.174134733532
 31
0.0
  0
LINE
  5
15AB3
330
14A14
100
AcDbEntity
  8
寸法
 62
     0
 48
50.0
370
    -2
100
AcDbLine
 10
6408.620346402052
 20
9522.174134733532
 30
0.0
 11
6508.620346402053
 21
9522.174134733532
 31
0.0
  0
LINE
  5
15AB4
330
14A14
100
AcDbEntity
  8
寸法
 62
     0
 48
50.0
370
    -2
100
AcDbLine
 10
6298.620346402049
 20
9522.174134733532
 30
0.0
 11
6408.620346402052
 21
9522.174134733532
 31
0.0
  0
INSERT
  5
15AB5
330
14A14
100
AcDbEntity
  8
寸法
 62
     0
 48
50.0
370
    -2
100
AcDbBlockReference
  2
_DOTSMALL
 10
6298.620346402049
 20
9522.174134733532
 30
0.0
 41
100.0
 42
100.0
 43
100.0
  0
INSERT
  5
15AB6
330
14A14
100
AcDbEntity
  8
寸法
 62
     0
 48
50.0
370
    -2
100
AcDbBlockReference
  2
_DOTSMALL
 10
6408.620346402052
 20
9522.174134733532
 30
0.0
 41
100.0
 42
100.0
 43
100.0
 50
180.0
  0
MTEXT
  5
15AB7
330
14A14
100
AcDbEntity
  8
寸法
 62
     7
 48
50.0
100
AcDbMText
 10
6353.620346402051
 20
9622.174134733533
 30
0.0
 40
120.0
 41
0.0
 71
     5
 72
     1
  1
\A1;110
  7
STYLE1
 73
     1
 44
1.0
1001
ACAD
1000
MTEXTBEGIN
1070
    73
1070
     1
1070
    44
1040
1.0
1070
    74
1070
     0
1000
MTEXTEND
  0
POINT
  5
15AB8
330
14A14
100
AcDbEntity
  8
DEFPOINTS
 62
     0
 48
50.0
100
AcDbPoint
 10
6298.620346402049
 20
9306.365915108555
 30
0.0
  0
POINT
  5
15AB9
330
14A14
100
AcDbEntity
  8
DEFPOINTS
 62
     0
 48
50.0
100
AcDbPoint
 10
6408.620346402052
 20
9306.365915108532
 30
0.0
  0
POINT
  5
15ABA
330
14A14
100
AcDbEntity
  8
DEFPOINTS
 62
     0
 48
50.0
100
AcDbPoint
 10
6408.620346402052
 20
9522.174134733532
 30
0.0
  0
ENDBLK
  5
14A21
330
14A14
100
AcDbEntity
  8
0
 48
50.0
100
AcDbBlockEnd
  0
BLOCK
  5
14A24
330
14A23
100
AcDbEntity
  8
0
 48
50.0
100
AcDbBlockBegin
  2
*D21
 70
     1
 10
0.0
 20
0.0
 30
0.0
  3
*D21
  1

  0
LINE
  5
15AA7
330
14A23
100
AcDbEntity
  8
寸法
 62
     0
 48
50.0
370
    -2
100
AcDbLine
 10
7228.620346402049
 20
8336.365915108427
 30
0.0
 11
7228.620346402049
 21
7856.542247313349
 31
0.0
  0
LINE
  5
15AA8
330
14A23
100
AcDbEntity
  8
寸法
 62
     0
 48
50.0
370
    -2
100
AcDbLine
 10
7913.620346402044
 20
8336.365915108391
 30
0.0
 11
7913.620346402044
 21
7856.542247313349
 31
0.0
  0
LINE
  5
15AA9
330
14A23
100
AcDbEntity
  8
寸法
 62
     0
 48
50.0
370
    -2
100
AcDbLine
 10
7228.620346402049
 20
7916.542247313349
 30
0.0
 11
7913.620346402044
 21
7916.542247313349
 31
0.0
  0
INSERT
  5
15AAA
330
14A23
100
AcDbEntity
  8
寸法
 62
     0
 48
50.0
370
    -2
100
AcDbBlockReference
  2
_DOTSMALL
 10
7228.620346402049
 20
7916.542247313349
 30
0.0
 41
100.0
 42
100.0
 43
100.0
 50
180.0
  0
INSERT
  5
15AAB
330
14A23
100
AcDbEntity
  8
寸法
 62
     0
 48
50.0
370
    -2
100
AcDbBlockReference
  2
_DOTSMALL
 10
7913.620346402044
 20
7916.542247313349
 30
0.0
 41
100.0
 42
100.0
 43
100.0
  0
MTEXT
  5
15AAC
330
14A23
100
AcDbEntity
  8
寸法
 62
     7
 48
50.0
100
AcDbMText
 10
7571.120346402046
 20
8116.542247313349
 30
0.0
 40
120.0
 41
0.0
 71
     5
 72
     1
  1
\A1;有効開口部間口\P685
  7
STYLE1
 73
     1
 44
1.0
1001
ACAD
1000
MTEXTBEGIN
1070
    73
1070
     1
1070
    44
1040
1.0
1070
    74
1070
     0
1000
MTEXTEND
  0
POINT
  5
15AAD
330
14A23
100
AcDbEntity
  8
DEFPOINTS
 62
     0
 48
50.0
100
AcDbPoint
 10
7228.620346402049
 20
8356.365915108426
 30
0.0
  0
POINT
  5
15AAE
330
14A23
100
AcDbEntity
  8
DEFPOINTS
 62
     0
 48
50.0
100
AcDbPoint
 10
7913.620346402044
 20
8356.365915108391
 30
0.0
  0
POINT
  5
15AAF
330
14A23
100
AcDbEntity
  8
DEFPOINTS
 62
     0
 48
50.0
100
AcDbPoint
 10
7913.620346402044
 20
7916.542247313349
 30
0.0
  0
ENDBLK
  5
14A2E
330
14A23
100
AcDbEntity
  8
0
 48
50.0
100
AcDbBlockEnd
  0
BLOCK
  5
14A31
330
14A30
100
AcDbEntity
  8
0
 48
50.0
100
AcDbBlockBegin
  2
*D22
 70
     1
 10
0.0
 20
0.0
 30
0.0
  3
*D22
  1

  0
LINE
  5
15A9E
330
14A30
100
AcDbEntity
  8
寸法
 62
     0
 48
50.0
370
    -2
100
AcDbLine
 10
6408.620346402047
 20
8336.365915108471
 30
0.0
 11
6408.620346402047
 21
7856.542247313349
 31
0.0
  0
LINE
  5
15A9F
330
14A30
100
AcDbEntity
  8
寸法
 62
     0
 48
50.0
370
    -2
100
AcDbLine
 10
7093.620346402044
 20
8336.365915108626
 30
0.0
 11
7093.620346402044
 21
7856.542247313349
 31
0.0
  0
LINE
  5
15AA0
330
14A30
100
AcDbEntity
  8
寸法
 62
     0
 48
50.0
370
    -2
100
AcDbLine
 10
6408.620346402047
 20
7916.542247313349
 30
0.0
 11
7093.620346402044
 21
7916.542247313349
 31
0.0
  0
INSERT
  5
15AA1
330
14A30
100
AcDbEntity
  8
寸法
 62
     0
 48
50.0
370
    -2
100
AcDbBlockReference
  2
_DOTSMALL
 10
6408.620346402047
 20
7916.542247313349
 30
0.0
 41
100.0
 42
100.0
 43
100.0
 50
180.0
  0
INSERT
  5
15AA2
330
14A30
100
AcDbEntity
  8
寸法
 62
     0
 48
50.0
370
    -2
100
AcDbBlockReference
  2
_DOTSMALL
 10
7093.620346402044
 20
7916.542247313349
 30
0.0
 41
100.0
 42
100.0
 43
100.0
  0
MTEXT
  5
15AA3
330
14A30
100
AcDbEntity
  8
寸法
 62
     7
 48
50.0
100
AcDbMText
 10
6751.120346402045
 20
8016.542247313349
 30
0.0
 40
120.0
 41
0.0
 71
     5
 72
     1
  1
\A1;685
  7
STYLE1
 73
     1
 44
1.0
1001
ACAD
1000
MTEXTBEGIN
1070
    73
1070
     1
1070
    44
1040
1.0
1070
    74
1070
     0
1000
MTEXTEND
  0
POINT
  5
15AA4
330
14A30
100
AcDbEntity
  8
DEFPOINTS
 62
     0
 48
50.0
100
AcDbPoint
 10
6408.620346402047
 20
8356.365915108472
 30
0.0
  0
POINT
  5
15AA5
330
14A30
100
AcDbEntity
  8
DEFPOINTS
 62
     0
 48
50.0
100
AcDbPoint
 10
7093.620346402044
 20
8356.365915108625
 30
0.0
  0
POINT
  5
15AA6
330
14A30
100
AcDbEntity
  8
DEFPOINTS
 62
     0
 48
50.0
100
AcDbPoint
 10
7093.620346402044
 20
7916.542247313349
 30
0.0
  0
ENDBLK
  5
14A3B
330
14A30
100
AcDbEntity
  8
0
 48
50.0
100
AcDbBlockEnd
  0
BLOCK
  5
14A62
330
14A53
100
AcDbEntity
  8
0
 48
50.0
100
AcDbBlockBegin
  2
*D23
 70
     1
 10
0.0
 20
0.0
 30
0.0
  3
*D23
  1

  0
LINE
  5
15A93
330
14A53
100
AcDbEntity
  8
寸法
 62
     0
 48
50.0
370
    -2
100
AcDbLine
 10
4768.62034640205
 20
9326.365915108437
 30
0.0
 11
4768.62034640205
 21
9582.174134733532
 31
0.0
  0
LINE
  5
15A94
330
14A53
100
AcDbEntity
  8
寸法
 62
     0
 48
50.0
370
    -2
100
AcDbLine
 10
4713.62034640205
 20
9326.365915108434
 30
0.0
 11
4713.62034640205
 21
9582.174134733532
 31
0.0
  0
LINE
  5
15A95
330
14A53
100
AcDbEntity
  8
寸法
 62
     0
 48
50.0
370
    -2
100
AcDbLine
 10
4768.62034640205
 20
9522.174134733532
 30
0.0
 11
4868.62034640205
 21
9522.174134733532
 31
0.0
  0
LINE
  5
15A96
330
14A53
100
AcDbEntity
  8
寸法
 62
     0
 48
50.0
370
    -2
100
AcDbLine
 10
4713.62034640205
 20
9522.174134733532
 30
0.0
 11
4296.649783653571
 21
9522.174134733532
 31
0.0
  0
LINE
  5
15A97
330
14A53
100
AcDbEntity
  8
寸法
 62
     0
 48
50.0
370
    -2
100
AcDbLine
 10
4768.62034640205
 20
9522.174134733532
 30
0.0
 11
4713.62034640205
 21
9522.174134733532
 31
0.0
  0
INSERT
  5
15A98
330
14A53
100
AcDbEntity
  8
寸法
 62
     0
 48
50.0
370
    -2
100
AcDbBlockReference
  2
_DOTSMALL
 10
4768.62034640205
 20
9522.174134733532
 30
0.0
 41
100.0
 42
100.0
 43
100.0
 50
180.0
  0
INSERT
  5
15A99
330
14A53
100
AcDbEntity
  8
寸法
 62
     0
 48
50.0
370
    -2
100
AcDbBlockReference
  2
_DOTSMALL
 10
4713.62034640205
 20
9522.174134733532
 30
0.0
 41
100.0
 42
100.0
 43
100.0
  0
MTEXT
  5
15A9A
330
14A53
100
AcDbEntity
  8
寸法
 62
     7
 48
50.0
100
AcDbMText
 10
4405.135065027811
 20
9622.174134733533
 30
0.0
 40
120.0
 41
0.0
 71
     5
 72
     1
  1
\A1;55
  7
STYLE1
 73
     1
 44
1.0
1001
ACAD
1000
MTEXTBEGIN
1070
    73
1070
     1
1070
    44
1040
1.0
1070
    74
1070
     0
1000
MTEXTEND
  0
POINT
  5
15A9B
330
14A53
100
AcDbEntity
  8
DEFPOINTS
 62
     0
 48
50.0
100
AcDbPoint
 10
4768.62034640205
 20
9306.365915108438
 30
0.0
  0
POINT
  5
15A9C
330
14A53
100
AcDbEntity
  8
DEFPOINTS
 62
     0
 48
50.0
100
AcDbPoint
 10
4713.62034640205
 20
9306.365915108434
 30
0.0
  0
POINT
  5
15A9D
330
14A53
100
AcDbEntity
  8
DEFPOINTS
 62
     0
 48
50.0
100
AcDbPoint
 10
4713.62034640205
 20
9522.174134733532
 30
0.0
  0
ENDBLK
  5
14A6E
330
14A53
100
AcDbEntity
  8
0
 48
50.0
100
AcDbBlockEnd
  0
BLOCK
  5
14CA0
330
14C9F
100
AcDbEntity
  8
0
 48
50.0
100
AcDbBlockBegin
  2
*D24
 70
     1
 10
0.0
 20
0.0
 30
0.0
  3
*D24
  1

  0
LINE
  5
15A8A
330
14C9F
100
AcDbEntity
  8
寸法
 62
     0
 48
50.0
370
    -2
100
AcDbLine
 10
4768.620346402046
 20
8336.365915108471
 30
0.0
 11
4768.620346402046
 21
7856.542247313349
 31
0.0
  0
LINE
  5
15A8B
330
14C9F
100
AcDbEntity
  8
寸法
 62
     0
 48
50.0
370
    -2
100
AcDbLine
 10
5453.620346402043
 20
8336.365915108626
 30
0.0
 11
5453.620346402043
 21
7856.542247313349
 31
0.0
  0
LINE
  5
15A8C
330
14C9F
100
AcDbEntity
  8
寸法
 62
     0
 48
50.0
370
    -2
100
AcDbLine
 10
4768.620346402046
 20
7916.542247313349
 30
0.0
 11
5453.620346402043
 21
7916.542247313349
 31
0.0
  0
INSERT
  5
15A8D
330
14C9F
100
AcDbEntity
  8
寸法
 62
     0
 48
50.0
370
    -2
100
AcDbBlockReference
  2
_DOTSMALL
 10
4768.620346402046
 20
7916.542247313349
 30
0.0
 41
100.0
 42
100.0
 43
100.0
 50
180.0
  0
INSERT
  5
15A8E
330
14C9F
100
AcDbEntity
  8
寸法
 62
     0
 48
50.0
370
    -2
100
AcDbBlockReference
  2
_DOTSMALL
 10
5453.620346402043
 20
7916.542247313349
 30
0.0
 41
100.0
 42
100.0
 43
100.0
  0
MTEXT
  5
15A8F
330
14C9F
100
AcDbEntity
  8
寸法
 62
     7
 48
50.0
100
AcDbMText
 10
5111.120346402046
 20
8016.542247313349
 30
0.0
 40
120.0
 41
0.0
 71
     5
 72
     1
  1
\A1;685
  7
STYLE1
 73
     1
 44
1.0
1001
ACAD
1000
MTEXTBEGIN
1070
    73
1070
     1
1070
    44
1040
1.0
1070
    74
1070
     0
1000
MTEXTEND
  0
POINT
  5
15A90
330
14C9F
100
AcDbEntity
  8
DEFPOINTS
 62
     0
 48
50.0
100
AcDbPoint
 10
4768.620346402046
 20
8356.365915108472
 30
0.0
  0
POINT
  5
15A91
330
14C9F
100
AcDbEntity
  8
DEFPOINTS
 62
     0
 48
50.0
100
AcDbPoint
 10
5453.620346402043
 20
8356.365915108625
 30
0.0
  0
POINT
  5
15A92
330
14C9F
100
AcDbEntity
  8
DEFPOINTS
 62
     0
 48
50.0
100
AcDbPoint
 10
5453.620346402043
 20
7916.542247313349
 30
0.0
  0
ENDBLK
  5
14CAA
330
14C9F
100
AcDbEntity
  8
0
 48
50.0
100
AcDbBlockEnd
  0
BLOCK
  5
14DB9
330
14DB8
100
AcDbEntity
  8
0
100
AcDbBlockBegin
  2
_OPEN
 70
     0
 10
0.0
 20
0.0
 30
0.0
  3
_OPEN
  1

  0
LINE
  5
14DBA
330
14DB8
100
AcDbEntity
  8
0
  6
ByBlock
 62
     0
100
AcDbLine
 10
-1.0
 20
0.1666666666666666
 30
0.0
 11
0.0
 21
0.0
 31
0.0
  0
LINE
  5
14DBB
330
14DB8
100
AcDbEntity
  8
0
  6
ByBlock
 62
     0
100
AcDbLine
 10
0.0
 20
0.0
 30
0.0
 11
-1.0
 21
-0.1666666666666666
 31
0.0
  0
LINE
  5
14DBC
330
14DB8
100
AcDbEntity
  8
0
  6
ByBlock
 62
     0
100
AcDbLine
 10
0.0
 20
0.0
 30
0.0
 11
-1.0
 21
0.0
 31
0.0
  0
ENDBLK
  5
14DBD
330
14DB8
100
AcDbEntity
  8
0
100
AcDbBlockEnd
  0
BLOCK
  5
14DBF
330
14DBE
100
AcDbEntity
  8
0
 48
50.0
100
AcDbBlockBegin
  2
_DOT
 70
     0
 10
0.0
 20
0.0
 30
0.0
  3
_DOT
  1

  0
LWPOLYLINE
  5
14DC0
330
14DBE
100
AcDbEntity
  8
0
  6
ByBlock
 62
     0
 48
50.0
100
AcDbPolyline
 90
        2
 70
     1
 43
0.5
 10
-0.25
 20
0.0
 42
1.0
 10
0.25
 20
0.0
 42
1.0
  0
LINE
  5
14DC1
330
14DBE
100
AcDbEntity
  8
0
  6
ByBlock
 62
     0
 48
50.0
100
AcDbLine
 10
-0.5
 20
0.0
 30
0.0
 11
-1.0
 21
0.0
 31
0.0
  0
ENDBLK
  5
14DC2
330
14DBE
100
AcDbEntity
  8
0
 48
50.0
100
AcDbBlockEnd
  0
BLOCK
  5
157DD
330
157D1
100
AcDbEntity
  8
0
 48
50.0
100
AcDbBlockBegin
  2
*D27
 70
     1
 10
0.0
 20
0.0
 30
0.0
  3
*D27
  1

  0
LINE
  5
15A1F
330
157D1
100
AcDbEntity
  8
寸法
 62
     0
 48
50.0
370
    -2
100
AcDbLine
 10
4713.620346402044
 20
5664.577276893868
 30
0.0
 11
4713.620346402044
 21
5917.118862152105
 31
0.0
  0
LINE
  5
15A20
330
157D1
100
AcDbEntity
  8
寸法
 62
     0
 48
50.0
370
    -2
100
AcDbLine
 10
4663.620346402043
 20
5664.577276893866
 30
0.0
 11
4663.620346402043
 21
5917.118862152105
 31
0.0
  0
LINE
  5
15A21
330
157D1
100
AcDbEntity
  8
寸法
 62
     0
 48
50.0
370
    -2
100
AcDbLine
 10
4713.620346402044
 20
5857.118862152105
 30
0.0
 11
4813.620346402044
 21
5857.118862152105
 31
0.0
  0
LINE
  5
15A22
330
157D1
100
AcDbEntity
  8
寸法
 62
     0
 48
50.0
370
    -2
100
AcDbLine
 10
4663.620346402043
 20
5857.118862152105
 30
0.0
 11
4244.087820933308
 21
5857.118862152105
 31
0.0
  0
LINE
  5
15A23
330
157D1
100
AcDbEntity
  8
寸法
 62
     0
 48
50.0
370
    -2
100
AcDbLine
 10
4713.620346402044
 20
5857.118862152105
 30
0.0
 11
4663.620346402043
 21
5857.118862152105
 31
0.0
  0
INSERT
  5
15A24
330
157D1
100
AcDbEntity
  8
寸法
 62
     0
 48
50.0
370
    -2
100
AcDbBlockReference
  2
_DOTSMALL
 10
4713.620346402044
 20
5857.118862152105
 30
0.0
 41
100.0
 42
100.0
 43
100.0
 50
180.0
  0
INSERT
  5
15A25
330
157D1
100
AcDbEntity
  8
寸法
 62
     0
 48
50.0
370
    -2
100
AcDbBlockReference
  2
_DOTSMALL
 10
4663.620346402043
 20
5857.118862152105
 30
0.0
 41
100.0
 42
100.0
 43
100.0
  0
MTEXT
  5
15A26
330
157D1
100
AcDbEntity
  8
寸法
 62
     7
 48
50.0
100
AcDbMText
 10
4350.135065027796
 20
5957.118862152105
 30
0.0
 40
120.0
 41
0.0
 71
     5
 72
     1
  1
\A1;50
  7
STYLE1
 73
     1
 44
1.0
1001
ACAD
1000
MTEXTBEGIN
1070
    73
1070
     1
1070
    44
1040
1.0
1070
    74
1070
     0
1000
MTEXTEND
  0
POINT
  5
15A27
330
157D1
100
AcDbEntity
  8
DEFPOINTS
 62
     0
 48
50.0
100
AcDbPoint
 10
4713.620346402044
 20
5644.577276893868
 30
0.0
  0
POINT
  5
15A28
330
157D1
100
AcDbEntity
  8
DEFPOINTS
 62
     0
 48
50.0
100
AcDbPoint
 10
4663.620346402043
 20
5644.577276893866
 30
0.0
  0
POINT
  5
15A29
330
157D1
100
AcDbEntity
  8
DEFPOINTS
 62
     0
 48
50.0
100
AcDbPoint
 10
4663.620346402043
 20
5857.118862152105
 30
0.0
  0
ENDBLK
  5
157DE
330
157D1
100
AcDbEntity
  8
0
 48
50.0
100
AcDbBlockEnd
  0
BLOCK
  5
157E9
330
157DF
100
AcDbEntity
  8
0
 48
50.0
100
AcDbBlockBegin
  2
*D28
 70
     1
 10
0.0
 20
0.0
 30
0.0
  3
*D28
  1

  0
LINE
  5
15A2A
330
157DF
100
AcDbEntity
  8
寸法
 62
     0
 48
50.0
370
    -2
100
AcDbLine
 10
7993.620346402048
 20
5664.577276893864
 30
0.0
 11
7993.620346402048
 21
5917.118862152105
 31
0.0
  0
LINE
  5
15A2B
330
157DF
100
AcDbEntity
  8
寸法
 62
     0
 48
50.0
370
    -2
100
AcDbLine
 10
4713.620346402044
 20
5664.577276893868
 30
0.0
 11
4713.620346402044
 21
5917.118862152105
 31
0.0
  0
LINE
  5
15A2C
330
157DF
100
AcDbEntity
  8
寸法
 62
     0
 48
50.0
370
    -2
100
AcDbLine
 10
7993.620346402048
 20
5857.118862152105
 30
0.0
 11
4713.620346402044
 21
5857.118862152105
 31
0.0
  0
INSERT
  5
15A2D
330
157DF
100
AcDbEntity
  8
寸法
 62
     0
 48
50.0
370
    -2
100
AcDbBlockReference
  2
_DOTSMALL
 10
7993.620346402048
 20
5857.118862152105
 30
0.0
 41
100.0
 42
100.0
 43
100.0
  0
INSERT
  5
15A2E
330
157DF
100
AcDbEntity
  8
寸法
 62
     0
 48
50.0
370
    -2
100
AcDbBlockReference
  2
_DOTSMALL
 10
4713.620346402044
 20
5857.118862152105
 30
0.0
 41
100.0
 42
100.0
 43
100.0
 50
180.0
  0
MTEXT
  5
15A2F
330
157DF
100
AcDbEntity
  8
寸法
 62
     7
 48
50.0
100
AcDbMText
 10
6353.620346402045
 20
5957.130673175726
 30
0.0
 40
120.0
 41
0.0
 71
     5
 72
     1
  1
\A1;柱外寸法3280
  7
STYLE1
 73
     1
 44
1.0
1001
ACAD
1000
MTEXTBEGIN
1070
    73
1070
     1
1070
    44
1040
1.0
1070
    74
1070
     0
1000
MTEXTEND
  0
POINT
  5
15A30
330
157DF
100
AcDbEntity
  8
DEFPOINTS
 62
     0
 48
50.0
100
AcDbPoint
 10
7993.620346402048
 20
5644.577276893864
 30
0.0
  0
POINT
  5
15A31
330
157DF
100
AcDbEntity
  8
DEFPOINTS
 62
     0
 48
50.0
100
AcDbPoint
 10
4713.620346402044
 20
5644.577276893868
 30
0.0
  0
POINT
  5
15A32
330
157DF
100
AcDbEntity
  8
DEFPOINTS
 62
     0
 48
50.0
100
AcDbPoint
 10
4713.620346402044
 20
5857.118862152105
 30
0.0
  0
ENDBLK
  5
157EA
330
157DF
100
AcDbEntity
  8
0
 48
50.0
100
AcDbBlockEnd
  0
BLOCK
  5
157F5
330
157EB
100
AcDbEntity
  8
0
 48
50.0
100
AcDbBlockBegin
  2
*D29
 70
     1
 10
0.0
 20
0.0
 30
0.0
  3
*D29
  1

  0
LINE
  5
15A33
330
157EB
100
AcDbEntity
  8
寸法
 62
     0
 48
50.0
370
    -2
100
AcDbLine
 10
4663.620346402043
 20
5664.577276893866
 30
0.0
 11
4663.620346402043
 21
6140.075840589953
 31
0.0
  0
LINE
  5
15A34
330
157EB
100
AcDbEntity
  8
寸法
 62
     0
 48
50.0
370
    -2
100
AcDbLine
 10
8043.620346402049
 20
5664.577276893862
 30
0.0
 11
8043.620346402049
 21
6140.075840589953
 31
0.0
  0
LINE
  5
15A35
330
157EB
100
AcDbEntity
  8
寸法
 62
     0
 48
50.0
370
    -2
100
AcDbLine
 10
4663.620346402043
 20
6080.075840589953
 30
0.0
 11
8043.620346402049
 21
6080.075840589953
 31
0.0
  0
INSERT
  5
15A36
330
157EB
100
AcDbEntity
  8
寸法
 62
     0
 48
50.0
370
    -2
100
AcDbBlockReference
  2
_DOTSMALL
 10
4663.620346402043
 20
6080.075840589953
 30
0.0
 41
100.0
 42
100.0
 43
100.0
 50
180.0
  0
INSERT
  5
15A37
330
157EB
100
AcDbEntity
  8
寸法
 62
     0
 48
50.0
370
    -2
100
AcDbBlockReference
  2
_DOTSMALL
 10
8043.620346402049
 20
6080.075840589953
 30
0.0
 41
100.0
 42
100.0
 43
100.0
  0
MTEXT
  5
15A38
330
157EB
100
AcDbEntity
  8
寸法
 62
     7
 48
50.0
100
AcDbMText
 10
6353.620346402045
 20
6180.075840589953
 30
0.0
 40
120.0
 41
0.0
 71
     5
 72
     1
  1
\A1;3380
  7
STYLE1
 73
     1
 44
1.0
1001
ACAD
1000
MTEXTBEGIN
1070
    73
1070
     1
1070
    44
1040
1.0
1070
    74
1070
     0
1000
MTEXTEND
  0
POINT
  5
15A39
330
157EB
100
AcDbEntity
  8
DEFPOINTS
 62
     0
 48
50.0
100
AcDbPoint
 10
4663.620346402043
 20
5644.577276893866
 30
0.0
  0
POINT
  5
15A3A
330
157EB
100
AcDbEntity
  8
DEFPOINTS
 62
     0
 48
50.0
100
AcDbPoint
 10
8043.620346402049
 20
5644.577276893862
 30
0.0
  0
POINT
  5
15A3B
330
157EB
100
AcDbEntity
  8
DEFPOINTS
 62
     0
 48
50.0
100
AcDbPoint
 10
8043.620346402049
 20
6080.075840589953
 30
0.0
  0
ENDBLK
  5
157F6
330
157EB
100
AcDbEntity
  8
0
 48
50.0
100
AcDbBlockEnd
  0
BLOCK
  5
15836
330
1582A
100
AcDbEntity
  8
0
 48
50.0
100
AcDbBlockBegin
  2
*D30
 70
     1
 10
0.0
 20
0.0
 30
0.0
  3
*D30
  1

  0
LINE
  5
15A14
330
1582A
100
AcDbEntity
  8
寸法
 62
     0
 48
50.0
370
    -2
100
AcDbLine
 10
8043.620346402049
 20
5664.577276893862
 30
0.0
 11
8043.620346402049
 21
5917.118862152103
 31
0.0
  0
LINE
  5
15A15
330
1582A
100
AcDbEntity
  8
寸法
 62
     0
 48
50.0
370
    -2
100
AcDbLine
 10
7993.620346402048
 20
5664.577276893864
 30
0.0
 11
7993.620346402048
 21
5917.118862152103
 31
0.0
  0
LINE
  5
15A16
330
1582A
100
AcDbEntity
  8
寸法
 62
     0
 48
50.0
370
    -2
100
AcDbLine
 10
7993.620346402048
 20
5857.118862152103
 30
0.0
 11
7893.620346402048
 21
5857.118862152103
 31
0.0
  0
LINE
  5
15A17
330
1582A
100
AcDbEntity
  8
寸法
 62
     0
 48
50.0
370
    -2
100
AcDbLine
 10
8043.620346402049
 20
5857.118862152103
 30
0.0
 11
8463.152871870772
 21
5857.118862152103
 31
0.0
  0
LINE
  5
15A18
330
1582A
100
AcDbEntity
  8
寸法
 62
     0
 48
50.0
370
    -2
100
AcDbLine
 10
7993.620346402048
 20
5857.118862152103
 30
0.0
 11
8043.620346402049
 21
5857.118862152103
 31
0.0
  0
INSERT
  5
15A19
330
1582A
100
AcDbEntity
  8
寸法
 62
     0
 48
50.0
370
    -2
100
AcDbBlockReference
  2
_DOTSMALL
 10
7993.620346402048
 20
5857.118862152103
 30
0.0
 41
100.0
 42
100.0
 43
100.0
  0
INSERT
  5
15A1A
330
1582A
100
AcDbEntity
  8
寸法
 62
     0
 48
50.0
370
    -2
100
AcDbBlockReference
  2
_DOTSMALL
 10
8043.620346402049
 20
5857.118862152103
 30
0.0
 41
100.0
 42
100.0
 43
100.0
 50
180.0
  0
MTEXT
  5
15A1B
330
1582A
100
AcDbEntity
  8
寸法
 62
     7
 48
50.0
100
AcDbMText
 10
8357.105627776283
 20
5957.118862152103
 30
0.0
 40
120.0
 41
0.0
 71
     5
 72
     1
  1
\A1;50
  7
STYLE1
 73
     1
 44
1.0
1001
ACAD
1000
MTEXTBEGIN
1070
    73
1070
     1
1070
    44
1040
1.0
1070
    74
1070
     0
1000
MTEXTEND
  0
POINT
  5
15A1C
330
1582A
100
AcDbEntity
  8
DEFPOINTS
 62
     0
 48
50.0
100
AcDbPoint
 10
8043.620346402049
 20
5644.577276893862
 30
0.0
  0
POINT
  5
15A1D
330
1582A
100
AcDbEntity
  8
DEFPOINTS
 62
     0
 48
50.0
100
AcDbPoint
 10
7993.620346402048
 20
5644.577276893864
 30
0.0
  0
POINT
  5
15A1E
330
1582A
100
AcDbEntity
  8
DEFPOINTS
 62
     0
 48
50.0
100
AcDbPoint
 10
7993.620346402048
 20
5857.118862152103
 30
0.0
  0
ENDBLK
  5
15837
330
1582A
100
AcDbEntity
  8
0
 48
50.0
100
AcDbBlockEnd
  0
BLOCK
  5
16DC4
330
16DBA
100
AcDbEntity
  8
0
 48
50.0
100
AcDbBlockBegin
  2
*D31
 70
     1
 10
0.0
 20
0.0
 30
0.0
  3
*D31
  1

  0
LINE
  5
16F42
330
16DBA
100
AcDbEntity
  8
寸法
 62
     0
 48
50.0
370
    -2
100
AcDbLine
 10
10360.49225896242
 20
3569.57727689386
 30
0.0
 11
9458.898380807134
 21
3569.57727689386
 31
0.0
  0
LINE
  5
16F43
330
16DBA
100
AcDbEntity
  8
寸法
 62
     0
 48
50.0
370
    -2
100
AcDbLine
 10
10300.49225896243
 20
5644.577276893866
 30
0.0
 11
9458.898380807138
 21
5644.577276893866
 31
0.0
  0
LINE
  5
16F44
330
16DBA
100
AcDbEntity
  8
寸法
 62
     0
 48
50.0
370
    -2
100
AcDbLine
 10
9518.898380807135
 20
3569.57727689386
 30
0.0
 11
9518.898380807137
 21
5644.577276893866
 31
0.0
  0
INSERT
  5
16F45
330
16DBA
100
AcDbEntity
  8
寸法
 62
     0
 48
50.0
370
    -2
100
AcDbBlockReference
  2
_DOTSMALL
 10
9518.898380807135
 20
3569.57727689386
 30
0.0
 41
100.0
 42
100.0
 43
100.0
 50
270.0
  0
INSERT
  5
16F46
330
16DBA
100
AcDbEntity
  8
寸法
 62
     0
 48
50.0
370
    -2
100
AcDbBlockReference
  2
_DOTSMALL
 10
9518.898380807137
 20
5644.577276893866
 30
0.0
 41
100.0
 42
100.0
 43
100.0
 50
90.0
  0
MTEXT
  5
16F47
330
16DBA
100
AcDbEntity
  8
寸法
 62
     7
 48
50.0
100
AcDbMText
 10
9418.886569783515
 20
4597.155906173022
 30
0.0
 40
120.0
 41
0.0
 71
     5
 72
     1
  1
\A1;2075
  7
STYLE1
 11
0.0000000000000001
 21
1.0
 31
0.0
 73
     1
 44
1.0
1001
ACAD
1000
MTEXTBEGIN
1070
    73
1070
     1
1070
    44
1040
1.0
1070
    74
1070
     0
1000
MTEXTEND
  0
POINT
  5
16F48
330
16DBA
100
AcDbEntity
  8
DEFPOINTS
 62
     0
 48
50.0
100
AcDbPoint
 10
10380.49225896242
 20
3569.57727689386
 30
0.0
  0
POINT
  5
16F49
330
16DBA
100
AcDbEntity
  8
DEFPOINTS
 62
     0
 48
50.0
100
AcDbPoint
 10
10320.49225896243
 20
5644.577276893866
 30
0.0
  0
POINT
  5
16F4A
330
16DBA
100
AcDbEntity
  8
DEFPOINTS
 62
     0
 48
50.0
100
AcDbPoint
 10
9518.898380807137
 20
5644.577276893866
 30
0.0
  0
ENDBLK
  5
16DC5
330
16DBA
100
AcDbEntity
  8
0
 48
50.0
100
AcDbBlockEnd
  0
BLOCK
  5
16DD1
330
16DC6
100
AcDbEntity
  8
0
 48
50.0
100
AcDbBlockBegin
  2
*D32
 70
     1
 10
0.0
 20
0.0
 30
0.0
  3
*D32
  1

  0
LINE
  5
16F38
330
16DC6
100
AcDbEntity
  8
寸法
 62
     0
 48
50.0
370
    -2
100
AcDbLine
 10
10319.89654525353
 20
5643.874983963523
 30
0.0
 11
9703.962106148253
 21
5661.589134237852
 31
0.0
  0
LINE
  5
16F39
330
16DC6
100
AcDbEntity
  8
寸法
 62
     0
 48
50.0
370
    -2
100
AcDbLine
 10
10315.8430896969
 20
5502.93326019781
 30
0.0
 11
9699.908650591629
 21
5520.64741047214
 31
0.0
  0
LINE
  5
16F3A
330
16DC6
100
AcDbEntity
  8
寸法
 62
     0
 48
50.0
370
    -2
100
AcDbLine
 10
9759.883852194057
 20
5518.922535767192
 30
0.0
 11
9763.937307750685
 21
5659.864259532905
 31
0.0
  0
LINE
  5
16F3B
330
16DC6
100
AcDbEntity
  8
寸法
 62
     0
 48
50.0
370
    -2
100
AcDbLine
 10
9763.937307750685
 20
5659.864259532905
 30
0.0
 11
9774.286555980369
 21
6019.71546914749
 31
0.0
  0
INSERT
  5
16F3C
330
16DC6
100
AcDbEntity
  8
寸法
 62
     0
 48
50.0
370
    -2
100
AcDbBlockReference
  2
_DOTSMALL
 10
9759.883852194057
 20
5518.922535767192
 30
0.0
 41
100.0
 42
100.0
 43
100.0
 50
268.3526390256378
  0
INSERT
  5
16F3D
330
16DC6
100
AcDbEntity
  8
寸法
 62
     0
 48
50.0
370
    -2
100
AcDbBlockReference
  2
_DOTSMALL
 10
9763.937307750685
 20
5659.864259532905
 30
0.0
 41
100.0
 42
100.0
 43
100.0
 50
88.35263902563776
  0
MTEXT
  5
16F3E
330
16DC6
100
AcDbEntity
  8
寸法
 62
     7
 48
50.0
100
AcDbMText
 10
9670.5906581156
 20
5892.643990183803
 30
0.0
 40
120.0
 41
0.0
 71
     5
 72
     1
  1
\A1;141
  7
STYLE1
 11
0.0287479117491237
 21
0.9995866933738488
 31
0.0
 73
     1
 44
1.0
1001
ACAD
1000
MTEXTBEGIN
1070
    73
1070
     1
1070
    44
1040
1.0
1070
    74
1070
     0
1000
MTEXTEND
  0
POINT
  5
16F3F
330
16DC6
100
AcDbEntity
  8
DEFPOINTS
 62
     0
 48
50.0
100
AcDbPoint
 10
10339.888279121
 20
5643.300025728541
 30
0.0
  0
POINT
  5
16F40
330
16DC6
100
AcDbEntity
  8
DEFPOINTS
 62
     0
 48
50.0
100
AcDbPoint
 10
10335.83482356438
 20
5502.358301962828
 30
0.0
  0
POINT
  5
16F41
330
16DC6
100
AcDbEntity
  8
DEFPOINTS
 62
     0
 48
50.0
100
AcDbPoint
 10
9759.883852194057
 20
5518.922535767192
 30
0.0
  0
ENDBLK
  5
16DD2
330
16DC6
100
AcDbEntity
  8
0
 48
50.0
100
AcDbBlockEnd
  0
BLOCK
  5
16DDF
330
16DD3
100
AcDbEntity
  8
0
 48
50.0
100
AcDbBlockBegin
  2
*D33
 70
     1
 10
0.0
 20
0.0
 30
0.0
  3
*D33
  1

  0
LINE
  5
16F2D
330
16DD3
100
AcDbEntity
  8
寸法
 62
     0
 48
50.0
370
    -2
100
AcDbLine
 10
10380.49225896242
 20
5660.578895016837
 30
0.0
 11
10380.49225896242
 21
6103.234730473165
 31
0.0
  0
LINE
  5
16F2E
330
16DD3
100
AcDbEntity
  8
寸法
 62
     0
 48
50.0
370
    -2
100
AcDbLine
 10
10320.49225896242
 20
5664.577276893866
 30
0.0
 11
10320.49225896242
 21
6103.234730473165
 31
0.0
  0
LINE
  5
16F2F
330
16DD3
100
AcDbEntity
  8
寸法
 62
     0
 48
50.0
370
    -2
100
AcDbLine
 10
10380.49225896242
 20
6043.234730473165
 30
0.0
 11
10480.49225896242
 21
6043.234730473165
 31
0.0
  0
LINE
  5
16F30
330
16DD3
100
AcDbEntity
  8
寸法
 62
     0
 48
50.0
370
    -2
100
AcDbLine
 10
10320.49225896242
 20
6043.234730473165
 30
0.0
 11
9901.216668411246
 21
6043.234730473165
 31
0.0
  0
LINE
  5
16F31
330
16DD3
100
AcDbEntity
  8
寸法
 62
     0
 48
50.0
370
    -2
100
AcDbLine
 10
10380.49225896242
 20
6043.234730473165
 30
0.0
 11
10320.49225896242
 21
6043.234730473165
 31
0.0
  0
INSERT
  5
16F32
330
16DD3
100
AcDbEntity
  8
寸法
 62
     0
 48
50.0
370
    -2
100
AcDbBlockReference
  2
_DOTSMALL
 10
10380.49225896242
 20
6043.234730473165
 30
0.0
 41
100.0
 42
100.0
 43
100.0
 50
180.0
  0
INSERT
  5
16F33
330
16DD3
100
AcDbEntity
  8
寸法
 62
     0
 48
50.0
370
    -2
100
AcDbBlockReference
  2
_DOTSMALL
 10
10320.49225896242
 20
6043.234730473165
 30
0.0
 41
100.0
 42
100.0
 43
100.0
  0
MTEXT
  5
16F34
330
16DD3
100
AcDbEntity
  8
寸法
 62
     7
 48
50.0
100
AcDbMText
 10
10010.85446368683
 20
6143.234730473165
 30
0.0
 40
120.0
 41
0.0
 71
     5
 72
     1
  1
\A1;60
  7
STYLE1
 73
     1
 44
1.0
1001
ACAD
1000
MTEXTBEGIN
1070
    73
1070
     1
1070
    44
1040
1.0
1070
    74
1070
     0
1000
MTEXTEND
  0
POINT
  5
16F35
330
16DD3
100
AcDbEntity
  8
DEFPOINTS
 62
     0
 48
50.0
100
AcDbPoint
 10
10380.49225896242
 20
5640.578895016837
 30
0.0
  0
POINT
  5
16F36
330
16DD3
100
AcDbEntity
  8
DEFPOINTS
 62
     0
 48
50.0
100
AcDbPoint
 10
10320.49225896242
 20
5644.577276893866
 30
0.0
  0
POINT
  5
16F37
330
16DD3
100
AcDbEntity
  8
DEFPOINTS
 62
     0
 48
50.0
100
AcDbPoint
 10
10320.49225896242
 20
6043.234730473165
 30
0.0
  0
ENDBLK
  5
16DE0
330
16DD3
100
AcDbEntity
  8
0
 48
50.0
100
AcDbBlockEnd
  0
BLOCK
  5
16DEB
330
16DE1
100
AcDbEntity
  8
0
 48
50.0
100
AcDbBlockBegin
  2
*D34
 70
     1
 10
0.0
 20
0.0
 30
0.0
  3
*D34
  1

  0
LINE
  5
16F24
330
16DE1
100
AcDbEntity
  8
寸法
 62
     0
 48
50.0
370
    -2
100
AcDbLine
 10
11330.49225896242
 20
5611.387956505514
 30
0.0
 11
11330.49225896242
 21
6103.234730473165
 31
0.0
  0
LINE
  5
16F25
330
16DE1
100
AcDbEntity
  8
寸法
 62
     0
 48
50.0
370
    -2
100
AcDbLine
 10
10380.49225896242
 20
5660.578895016837
 30
0.0
 11
10380.49225896242
 21
6103.234730473165
 31
0.0
  0
LINE
  5
16F26
330
16DE1
100
AcDbEntity
  8
寸法
 62
     0
 48
50.0
370
    -2
100
AcDbLine
 10
11330.49225896242
 20
6043.234730473165
 30
0.0
 11
10380.49225896242
 21
6043.234730473165
 31
0.0
  0
INSERT
  5
16F27
330
16DE1
100
AcDbEntity
  8
寸法
 62
     0
 48
50.0
370
    -2
100
AcDbBlockReference
  2
_DOTSMALL
 10
11330.49225896242
 20
6043.234730473165
 30
0.0
 41
100.0
 42
100.0
 43
100.0
  0
INSERT
  5
16F28
330
16DE1
100
AcDbEntity
  8
寸法
 62
     0
 48
50.0
370
    -2
100
AcDbBlockReference
  2
_DOTSMALL
 10
10380.49225896242
 20
6043.234730473165
 30
0.0
 41
100.0
 42
100.0
 43
100.0
 50
180.0
  0
MTEXT
  5
16F29
330
16DE1
100
AcDbEntity
  8
寸法
 62
     7
 48
50.0
100
AcDbMText
 10
10877.20406119332
 20
6143.234730473165
 30
0.0
 40
120.0
 41
0.0
 71
     5
 72
     1
  1
\A1;柱外寸法950
  7
STYLE1
 73
     1
 44
1.0
1001
ACAD
1000
MTEXTBEGIN
1070
    73
1070
     1
1070
    44
1040
1.0
1070
    74
1070
     0
1000
MTEXTEND
  0
POINT
  5
16F2A
330
16DE1
100
AcDbEntity
  8
DEFPOINTS
 62
     0
 48
50.0
100
AcDbPoint
 10
11330.49225896242
 20
5591.387956505514
 30
0.0
  0
POINT
  5
16F2B
330
16DE1
100
AcDbEntity
  8
DEFPOINTS
 62
     0
 48
50.0
100
AcDbPoint
 10
10380.49225896242
 20
5640.578895016837
 30
0.0
  0
POINT
  5
16F2C
330
16DE1
100
AcDbEntity
  8
DEFPOINTS
 62
     0
 48
50.0
100
AcDbPoint
 10
10380.49225896242
 20
6043.234730473165
 30
0.0
  0
ENDBLK
  5
16DEC
330
16DE1
100
AcDbEntity
  8
0
 48
50.0
100
AcDbBlockEnd
  0
BLOCK
  5
16DF7
330
16DED
100
AcDbEntity
  8
0
 48
50.0
100
AcDbBlockBegin
  2
*D35
 70
     1
 10
0.0
 20
0.0
 30
0.0
  3
*D35
  1

  0
LINE
  5
16F1B
330
16DED
100
AcDbEntity
  8
寸法
 62
     0
 48
50.0
370
    -2
100
AcDbLine
 10
11410.49225896242
 20
5609.577276893862
 30
0.0
 11
11410.49225896242
 21
6337.937939113255
 31
0.0
  0
LINE
  5
16F1C
330
16DED
100
AcDbEntity
  8
寸法
 62
     0
 48
50.0
370
    -2
100
AcDbLine
 10
10320.49225896242
 20
5664.577276893866
 30
0.0
 11
10320.49225896242
 21
6337.937939113255
 31
0.0
  0
LINE
  5
16F1D
330
16DED
100
AcDbEntity
  8
寸法
 62
     0
 48
50.0
370
    -2
100
AcDbLine
 10
11410.49225896242
 20
6277.937939113255
 30
0.0
 11
10320.49225896242
 21
6277.937939113255
 31
0.0
  0
INSERT
  5
16F1E
330
16DED
100
AcDbEntity
  8
寸法
 62
     0
 48
50.0
370
    -2
100
AcDbBlockReference
  2
_DOTSMALL
 10
11410.49225896242
 20
6277.937939113255
 30
0.0
 41
100.0
 42
100.0
 43
100.0
  0
INSERT
  5
16F1F
330
16DED
100
AcDbEntity
  8
寸法
 62
     0
 48
50.0
370
    -2
100
AcDbBlockReference
  2
_DOTSMALL
 10
10320.49225896242
 20
6277.937939113255
 30
0.0
 41
100.0
 42
100.0
 43
100.0
 50
180.0
  0
MTEXT
  5
16F20
330
16DED
100
AcDbEntity
  8
寸法
 62
     7
 48
50.0
100
AcDbMText
 10
10867.40921937678
 20
6377.937939113255
 30
0.0
 40
120.0
 41
0.0
 71
     5
 72
     1
  1
\A1;1090
  7
STYLE1
 73
     1
 44
1.0
1001
ACAD
1000
MTEXTBEGIN
1070
    73
1070
     1
1070
    44
1040
1.0
1070
    74
1070
     0
1000
MTEXTEND
  0
POINT
  5
16F21
330
16DED
100
AcDbEntity
  8
DEFPOINTS
 62
     0
 48
50.0
100
AcDbPoint
 10
11410.49225896242
 20
5589.577276893862
 30
0.0
  0
POINT
  5
16F22
330
16DED
100
AcDbEntity
  8
DEFPOINTS
 62
     0
 48
50.0
100
AcDbPoint
 10
10320.49225896242
 20
5644.577276893866
 30
0.0
  0
POINT
  5
16F23
330
16DED
100
AcDbEntity
  8
DEFPOINTS
 62
     0
 48
50.0
100
AcDbPoint
 10
10320.49225896242
 20
6277.937939113255
 30
0.0
  0
ENDBLK
  5
16DF8
330
16DED
100
AcDbEntity
  8
0
 48
50.0
100
AcDbBlockEnd
  0
BLOCK
  5
16E04
330
16DF9
100
AcDbEntity
  8
0
 48
50.0
100
AcDbBlockBegin
  2
*D36
 70
     1
 10
0.0
 20
0.0
 30
0.0
  3
*D36
  1

  0
LINE
  5
16F11
330
16DF9
100
AcDbEntity
  8
寸法
 62
     0
 48
50.0
370
    -2
100
AcDbLine
 10
11330.49225896242
 20
5611.387956505514
 30
0.0
 11
11330.49225896242
 21
6103.234730473165
 31
0.0
  0
LINE
  5
16F12
330
16DF9
100
AcDbEntity
  8
寸法
 62
     0
 48
50.0
370
    -2
100
AcDbLine
 10
11410.49225896242
 20
5609.577276893862
 30
0.0
 11
11410.49225896242
 21
6103.234730473165
 31
0.0
  0
LINE
  5
16F13
330
16DF9
100
AcDbEntity
  8
寸法
 62
     0
 48
50.0
370
    -2
100
AcDbLine
 10
11330.49225896242
 20
6043.234730473165
 30
0.0
 11
11410.49225896242
 21
6043.234730473165
 31
0.0
  0
LINE
  5
16F14
330
16DF9
100
AcDbEntity
  8
寸法
 62
     0
 48
50.0
370
    -2
100
AcDbLine
 10
11410.49225896242
 20
6043.234730473165
 30
0.0
 11
11722.5867471514
 21
6043.234730473165
 31
0.0
  0
INSERT
  5
16F15
330
16DF9
100
AcDbEntity
  8
寸法
 62
     0
 48
50.0
370
    -2
100
AcDbBlockReference
  2
_DOTSMALL
 10
11330.49225896242
 20
6043.234730473165
 30
0.0
 41
100.0
 42
100.0
 43
100.0
 50
180.0
  0
INSERT
  5
16F16
330
16DF9
100
AcDbEntity
  8
寸法
 62
     0
 48
50.0
370
    -2
100
AcDbBlockReference
  2
_DOTSMALL
 10
11410.49225896242
 20
6043.234730473165
 30
0.0
 41
100.0
 42
100.0
 43
100.0
  0
MTEXT
  5
16F17
330
16DF9
100
AcDbEntity
  8
寸法
 62
     7
 48
50.0
100
AcDbMText
 10
11616.53950305691
 20
6143.234730473165
 30
0.0
 40
120.0
 41
0.0
 71
     5
 72
     1
  1
\A1;80
  7
STYLE1
 73
     1
 44
1.0
1001
ACAD
1000
MTEXTBEGIN
1070
    73
1070
     1
1070
    44
1040
1.0
1070
    74
1070
     0
1000
MTEXTEND
  0
POINT
  5
16F18
330
16DF9
100
AcDbEntity
  8
DEFPOINTS
 62
     0
 48
50.0
100
AcDbPoint
 10
11330.49225896242
 20
5591.387956505514
 30
0.0
  0
POINT
  5
16F19
330
16DF9
100
AcDbEntity
  8
DEFPOINTS
 62
     0
 48
50.0
100
AcDbPoint
 10
11410.49225896242
 20
5589.577276893862
 30
0.0
  0
POINT
  5
16F1A
330
16DF9
100
AcDbEntity
  8
DEFPOINTS
 62
     0
 48
50.0
100
AcDbPoint
 10
11410.49225896242
 20
6043.234730473165
 30
0.0
  0
ENDBLK
  5
16E05
330
16DF9
100
AcDbEntity
  8
0
 48
50.0
100
AcDbBlockEnd
  0
BLOCK
  5
16E10
330
16E06
100
AcDbEntity
  8
0
 48
50.0
100
AcDbBlockBegin
  2
*D37
 70
     1
 10
0.0
 20
0.0
 30
0.0
  3
*D37
  1

  0
LINE
  5
16F08
330
16E06
100
AcDbEntity
  8
寸法
 62
     0
 48
50.0
370
    -2
100
AcDbLine
 10
11350.49225896242
 20
3569.57727689386
 30
0.0
 11
11900.90079689625
 21
3569.57727689386
 31
0.0
  0
LINE
  5
16F09
330
16E06
100
AcDbEntity
  8
寸法
 62
     0
 48
50.0
370
    -2
100
AcDbLine
 10
11430.49225896243
 20
5589.57727689386
 30
0.0
 11
11900.90079689625
 21
5589.57727689386
 31
0.0
  0
LINE
  5
16F0A
330
16E06
100
AcDbEntity
  8
寸法
 62
     0
 48
50.0
370
    -2
100
AcDbLine
 10
11860.90079689625
 20
3589.577276893861
 30
0.0
 11
11860.90079689625
 21
5569.57727689386
 31
0.0
  0
INSERT
  5
16F0B
330
16E06
100
AcDbEntity
  8
寸法
 62
     0
 48
50.0
370
    -2
100
AcDbBlockReference
  2
_DOT
 10
11860.90079689625
 20
3569.57727689386
 30
0.0
 41
20.0
 42
20.0
 43
20.0
 50
270.0
  0
INSERT
  5
16F0C
330
16E06
100
AcDbEntity
  8
寸法
 62
     0
 48
50.0
370
    -2
100
AcDbBlockReference
  2
_DOT
 10
11860.90079689625
 20
5589.57727689386
 30
0.0
 41
20.0
 42
20.0
 43
20.0
 50
90.0
  0
MTEXT
  5
16F0D
330
16E06
100
AcDbEntity
  8
寸法
 62
     7
 48
50.0
100
AcDbMText
 10
11768.88898587263
 20
4521.501672958286
 30
0.0
 40
120.0
 41
0.0
 71
     5
 72
     1
  1
\A1;2020
  7
STYLE1
 11
0.0000000000000001
 21
1.0
 31
0.0
 73
     1
 44
1.0
1001
ACAD
1000
MTEXTBEGIN
1070
    73
1070
     1
1070
    44
1040
1.0
1070
    74
1070
     0
1000
MTEXTEND
  0
POINT
  5
16F0E
330
16E06
100
AcDbEntity
  8
DEFPOINTS
 62
     0
 48
50.0
100
AcDbPoint
 10
11330.49225896242
 20
3569.57727689386
 30
0.0
  0
POINT
  5
16F0F
330
16E06
100
AcDbEntity
  8
DEFPOINTS
 62
     0
 48
50.0
100
AcDbPoint
 10
11410.49225896243
 20
5589.57727689386
 30
0.0
  0
POINT
  5
16F10
330
16E06
100
AcDbEntity
  8
DEFPOINTS
 62
     0
 48
50.0
100
AcDbPoint
 10
11860.90079689625
 20
5589.57727689386
 30
0.0
  0
ENDBLK
  5
16E11
330
16E06
100
AcDbEntity
  8
0
 48
50.0
100
AcDbBlockEnd
  0
BLOCK
  5
16E1C
330
16E12
100
AcDbEntity
  8
0
 48
50.0
100
AcDbBlockBegin
  2
*D38
 70
     1
 10
0.0
 20
0.0
 30
0.0
  3
*D38
  1

  0
LINE
  5
16EFF
330
16E12
100
AcDbEntity
  8
寸法
 62
     0
 48
50.0
370
    -2
100
AcDbLine
 10
10353.48988891765
 20
5409.577276893862
 30
0.0
 11
9718.529168270224
 21
5409.577276893863
 31
0.0
  0
LINE
  5
16F00
330
16E12
100
AcDbEntity
  8
寸法
 62
     0
 48
50.0
370
    -2
100
AcDbLine
 10
10353.48988891765
 20
3619.577276893864
 30
0.0
 11
9718.529168270222
 21
3619.577276893864
 31
0.0
  0
LINE
  5
16F01
330
16E12
100
AcDbEntity
  8
寸法
 62
     0
 48
50.0
370
    -2
100
AcDbLine
 10
9778.529168270225
 20
5409.577276893863
 30
0.0
 11
9778.529168270223
 21
3619.577276893864
 31
0.0
  0
INSERT
  5
16F02
330
16E12
100
AcDbEntity
  8
寸法
 62
     0
 48
50.0
370
    -2
100
AcDbBlockReference
  2
_DOTSMALL
 10
9778.529168270225
 20
5409.577276893863
 30
0.0
 41
100.0
 42
100.0
 43
100.0
 50
90.0
  0
INSERT
  5
16F03
330
16E12
100
AcDbEntity
  8
寸法
 62
     0
 48
50.0
370
    -2
100
AcDbBlockReference
  2
_DOTSMALL
 10
9778.529168270223
 20
3619.577276893864
 30
0.0
 41
100.0
 42
100.0
 43
100.0
 50
270.0
  0
MTEXT
  5
16F04
330
16E12
100
AcDbEntity
  8
寸法
 62
     7
 48
50.0
100
AcDbMText
 10
9678.529168270223
 20
4524.612288770249
 30
0.0
 40
120.0
 41
0.0
 71
     5
 72
     1
  1
\A1;1790
  7
STYLE1
 11
0.0000000000000001
 21
1.0
 31
0.0
 73
     1
 44
1.0
1001
ACAD
1000
MTEXTBEGIN
1070
    73
1070
     1
1070
    44
1040
1.0
1070
    74
1070
     0
1000
MTEXTEND
  0
POINT
  5
16F05
330
16E12
100
AcDbEntity
  8
DEFPOINTS
 62
     0
 48
50.0
100
AcDbPoint
 10
10373.48988891765
 20
5409.577276893862
 30
0.0
  0
POINT
  5
16F06
330
16E12
100
AcDbEntity
  8
DEFPOINTS
 62
     0
 48
50.0
100
AcDbPoint
 10
10373.48988891765
 20
3619.577276893864
 30
0.0
  0
POINT
  5
16F07
330
16E12
100
AcDbEntity
  8
DEFPOINTS
 62
     0
 48
50.0
100
AcDbPoint
 10
9778.529168270223
 20
3619.577276893864
 30
0.0
  0
ENDBLK
  5
16E1D
330
16E12
100
AcDbEntity
  8
0
 48
50.0
100
AcDbBlockEnd
  0
BLOCK
  5
16E2A
330
16E1E
100
AcDbEntity
  8
0
 48
50.0
100
AcDbBlockBegin
  2
*D39
 70
     1
 10
0.0
 20
0.0
 30
0.0
  3
*D39
  1

  0
LINE
  5
16EF4
330
16E1E
100
AcDbEntity
  8
寸法
 62
     0
 48
50.0
370
    -2
100
AcDbLine
 10
10353.48988891765
 20
3619.577276893864
 30
0.0
 11
9718.529168270222
 21
3619.577276893864
 31
0.0
  0
LINE
  5
16EF5
330
16E1E
100
AcDbEntity
  8
寸法
 62
     0
 48
50.0
370
    -2
100
AcDbLine
 10
10305.49225896242
 20
3569.577276893863
 30
0.0
 11
9718.529168270222
 21
3569.577276893863
 31
0.0
  0
LINE
  5
16EF6
330
16E1E
100
AcDbEntity
  8
寸法
 62
     0
 48
50.0
370
    -2
100
AcDbLine
 10
9778.529168270223
 20
3619.577276893864
 30
0.0
 11
9778.529168270223
 21
3719.577276893864
 31
0.0
  0
LINE
  5
16EF7
330
16E1E
100
AcDbEntity
  8
寸法
 62
     0
 48
50.0
370
    -2
100
AcDbLine
 10
9778.529168270223
 20
3569.577276893863
 30
0.0
 11
9778.529168270223
 21
3157.482788704882
 31
0.0
  0
LINE
  5
16EF8
330
16E1E
100
AcDbEntity
  8
寸法
 62
     0
 48
50.0
370
    -2
100
AcDbLine
 10
9778.529168270223
 20
3619.577276893864
 30
0.0
 11
9778.529168270223
 21
3569.577276893863
 31
0.0
  0
INSERT
  5
16EF9
330
16E1E
100
AcDbEntity
  8
寸法
 62
     0
 48
50.0
370
    -2
100
AcDbBlockReference
  2
_DOTSMALL
 10
9778.529168270223
 20
3619.577276893864
 30
0.0
 41
100.0
 42
100.0
 43
100.0
 50
270.0
  0
INSERT
  5
16EFA
330
16E1E
100
AcDbEntity
  8
寸法
 62
     0
 48
50.0
370
    -2
100
AcDbBlockReference
  2
_DOTSMALL
 10
9778.529168270223
 20
3569.577276893863
 30
0.0
 41
100.0
 42
100.0
 43
100.0
 50
90.0
  0
MTEXT
  5
16EFB
330
16E1E
100
AcDbEntity
  8
寸法
 62
     7
 48
50.0
100
AcDbMText
 10
9678.529168270223
 20
3263.530032799372
 30
0.0
 40
120.0
 41
0.0
 71
     5
 72
     1
  1
\A1;50
  7
STYLE1
 11
0.0000000000000001
 21
1.0
 31
0.0
 73
     1
 44
1.0
1001
ACAD
1000
MTEXTBEGIN
1070
    73
1070
     1
1070
    44
1040
1.0
1070
    74
1070
     0
1000
MTEXTEND
  0
POINT
  5
16EFC
330
16E1E
100
AcDbEntity
  8
DEFPOINTS
 62
     0
 48
50.0
100
AcDbPoint
 10
10373.48988891765
 20
3619.577276893864
 30
0.0
  0
POINT
  5
16EFD
330
16E1E
100
AcDbEntity
  8
DEFPOINTS
 62
     0
 48
50.0
100
AcDbPoint
 10
10325.49225896242
 20
3569.577276893863
 30
0.0
  0
POINT
  5
16EFE
330
16E1E
100
AcDbEntity
  8
DEFPOINTS
 62
     0
 48
50.0
100
AcDbPoint
 10
9778.529168270223
 20
3569.577276893863
 30
0.0
  0
ENDBLK
  5
16E2B
330
16E1E
100
AcDbEntity
  8
0
 48
50.0
100
AcDbBlockEnd
  0
ENDSEC
  0
SECTION
  2
ENTITIES
  0
LINE
  5
10B56
330
747D
100
AcDbEntity
  8
補助
  6
PHANTOM
 62
   230
 48
50.0
100
AcDbLine
 10
140.0
 20
0.0
 30
0.0
 11
139.9999999999995
 21
11409.6
 31
0.0
  0
LINE
  5
10B57
330
747D
100
AcDbEntity
  8
補助
  6
PHANTOM
 62
   230
 48
50.0
100
AcDbLine
 10
139.9999999999995
 20
11409.6
 30
0.0
 11
16307.2
 21
11409.6
 31
0.0
  0
LINE
  5
10B59
330
747D
100
AcDbEntity
  8
仕様書枠
  6
Continuous
 48
50.0
100
AcDbLine
 10
13107.2
 20
1200.0
 30
0.0
 11
13107.2
 21
-0.0000000000000729
 31
0.0
  0
LINE
  5
10B5C
330
747D
100
AcDbEntity
  8
仕様書枠
 48
50.0
100
AcDbLine
 10
16307.2
 20
1200.0
 30
0.0
 11
16307.2
 21
-0.0000000000000909
 31
0.0
  0
LINE
  5
10B5D
330
747D
100
AcDbEntity
  8
仕様書枠
 48
50.0
100
AcDbLine
 10
140.0
 20
0.0
 30
0.0
 11
16307.2
 21
-0.0000000000000909
 31
0.0
  0
LINE
  5
10B5E
330
747D
100
AcDbEntity
  8
補助
  6
PHANTOM
 62
   230
 48
50.0
100
AcDbLine
 10
16307.2
 20
11409.6
 30
0.0
 11
16307.2
 21
1200.0
 31
0.0
  0
LINE
  5
10B6C
330
747D
100
AcDbEntity
  8
仕様書枠
 48
50.0
100
AcDbLine
 10
13107.2
 20
1200.0
 30
0.0
 11
16307.2
 21
1200.0
 31
0.0
  0
LINE
  5
10B6D
330
747D
100
AcDbEntity
  8
補助
  6
PHANTOM
 62
   230
 48
50.0
100
AcDbLine
 10
13107.2
 20
11409.6
 30
0.0
 11
13107.2
 21
4800.0
 31
0.0
  0
LINE
  5
10B6F
330
747D
100
AcDbEntity
  8
補助
  6
PHANTOM
 62
   230
 48
50.0
100
AcDbLine
 10
13107.2
 20
4800.0
 30
0.0
 11
16307.2
 21
4800.0
 31
0.0
  0
LINE
  5
10B72
330
747D
100
AcDbEntity
  8
文字
 62
     7
 48
50.0
100
AcDbLine
 10
13187.2
 20
400.0
 30
0.0
 11
16227.2
 21
400.0
 31
0.0
  0
TEXT
  5
10B73
330
747D
100
AcDbEntity
  8
文字
 62
     7
 48
50.0
100
AcDbText
 10
13162.9790565769
 20
895.0906074299405
 30
0.0
 40
200.0
  1
外 形 図
  7
STYLE2
100
AcDbText
  0
TEXT
  5
10B74
330
747D
100
AcDbEntity
  8
文字
 62
     7
 48
50.0
100
AcDbText
 10
13201.43669998441
 20
477.2740661031255
 30
0.0
 40
160.0
  1
機種名
  7
STYLE2
100
AcDbText
  0
TEXT
  5
10B75
330
747D
100
AcDbEntity
  8
文字
 62
     7
 48
50.0
100
AcDbText
 10
13209.4053442172
 20
228.5435242569016
 30
0.0
 40
100.0
  1
○有効開口寸法 ： 685×1760(mm)
  7
STYLE2
100
AcDbText
  0
TEXT
  5
10B76
330
747D
100
AcDbEntity
  8
文字
 62
     7
 48
50.0
100
AcDbText
 10
13209.4053442172
 20
76.09434707649343
 30
0.0
 40
100.0
  1
○床面積 ： 3.12㎡(0.94坪) 　
  7
STYLE2
100
AcDbText
  0
TEXT
  5
10B79
330
747D
100
AcDbEntity
  8
文字
 62
     7
 48
50.0
100
AcDbText
 10
14524.131837222
 20
1031.557706291228
 30
0.0
 40
100.0
  1
NO.03     <縮尺> S=1/40
  7
STYLE2
100
AcDbText
  0
LINE
  5
10B7B
330
747D
100
AcDbEntity
  8
仕様書枠
 48
50.0
100
AcDbLine
 10
13107.2
 20
800.0
 30
0.0
 11
14251.2
 21
800.0
 31
0.0
  0
LINE
  5
10B88
330
747D
100
AcDbEntity
  8
仕様書枠
  6
Continuous
 48
50.0
100
AcDbLine
 10
14251.2
 20
1200.0
 30
0.0
 11
14251.2
 21
800.0
 31
0.0
  0
TEXT
  5
10EA8
330
747D
100
AcDbEntity
  8
文字
 62
     7
 48
50.0
100
AcDbText
 10
14251.2
 20
838.2527270729188
 30
0.0
 40
100.0
  1
～一般型・多雪地型・豪雪地型～
  7
STYLE2
100
AcDbText
  0
LINE
  5
13A41
330
747D
100
AcDbEntity
  8
Ｇ．Ｌ
100
AcDbLine
 10
3625.353743731561
 20
3469.57727689386
 30
0.0
 11
12217.22713867519
 21
3469.57727689386
 31
0.0
  0
LINE
  5
13A4F
330
747D
100
AcDbEntity
  8
部品1
100
AcDbLine
 10
4713.620346402044
 20
3612.577276893849
 30
0.0
 11
7993.620346402043
 21
3612.577276893881
 31
0.0
  0
LINE
  5
13A54
330
747D
100
AcDbEntity
  8
部品1
100
AcDbLine
 10
4713.620346402044
 20
5409.577276893859
 30
0.0
 11
7993.620346402043
 21
5409.577276893861
 31
0.0
  0
LINE
  5
13A55
330
747D
100
AcDbEntity
  8
部品1
100
AcDbLine
 10
4713.620346402044
 20
3569.57727689386
 30
0.0
 11
7993.620346402043
 21
3569.57727689386
 31
0.0
  0
LINE
  5
13A5E
330
747D
100
AcDbEntity
  8
部品1
100
AcDbLine
 10
6398.620346402044
 20
5407.077276893864
 30
0.0
 11
6398.620346402043
 21
3616.077276893867
 31
0.0
  0
LINE
  5
13A5F
330
747D
100
AcDbEntity
  8
部品1
100
AcDbLine
 10
7950.620346402044
 20
5409.577276893861
 30
0.0
 11
7950.620346402044
 21
3612.577276893881
 31
0.0
  0
LINE
  5
13A60
330
747D
100
AcDbEntity
  8
部品1
100
AcDbLine
 10
4713.620346402044
 20
5503.577276893864
 30
0.0
 11
4713.620346402044
 21
3469.57727689386
 31
0.0
  0
TEXT
  5
13A63
330
747D
100
AcDbEntity
  8
部品1
100
AcDbText
 10
3644.831833102384
 20
3505.684180499763
 30
0.0
 40
125.0
  1
▽G.L
  7
STYLE2
100
AcDbText
  0
LINE
  5
13AB6
330
747D
100
AcDbEntity
  8
部品1
100
AcDbLine
 10
7993.620346402042
 20
5503.57727689386
 30
0.0
 11
7993.620346402043
 21
3469.57727689386
 31
0.0
  0
DIMENSION
  5
13ACA
330
747D
100
AcDbEntity
  8
寸法
100
AcDbDimension
  2
*D1
 10
4395.51581879444
 20
3631.077276893865
 30
0.0
 11
4395.515818794439
 21
4510.077276893862
 31
0.0
 70
   160
  1
有効開口部高サ<>
 71
     5
 42
1759.999999999996
  3
INABA_S40G
100
AcDbAlignedDimension
 13
4713.620346402044
 23
5391.07727689386
 33
0.0
 14
4713.620346402044
 24
3631.077276893865
 34
0.0
 50
90.0
100
AcDbRotatedDimension
1001
ACAD
1000
DSTYLE
1002
{
1070
   288
1070
     1
1002
}
  0
DIMENSION
  5
13B15
330
747D
100
AcDbEntity
  8
寸法
100
AcDbDimension
  2
*D2
 10
7118.62034640205
 20
9522.174134733532
 30
0.0
 11
6763.870346402049
 21
9522.174134733532
 31
0.0
 70
   160
 71
     5
 42
709.999999999999
  3
INABA_S40G
100
AcDbAlignedDimension
 13
6408.62034640205
 23
9306.365915108434
 33
0.0
 14
7118.62034640205
 24
9306.365915108555
 34
0.0
100
AcDbRotatedDimension
1001
ACAD
1000
DSTYLE
1002
{
1002
}
  0
LINE
  5
13B16
330
747D
100
AcDbEntity
  8
部品1
100
AcDbLine
 10
4713.620346402016
 20
9306.365915108385
 30
0.0
 11
7993.62034640205
 21
9306.365915108528
 31
0.0
  0
DIMENSION
  5
13B17
330
747D
100
AcDbEntity
  8
寸法
100
AcDbDimension
  2
*D3
 10
7993.62034640205
 20
9522.174134733509
 30
0.0
 11
8302.10562777629
 21
9522.174134733509
 31
0.0
 70
   160
 71
     5
 42
55.0
  3
INABA_S40G
100
AcDbAlignedDimension
 13
7938.620346402051
 23
9306.365915108528
 33
0.0
 14
7993.62034640205
 24
9306.365915108528
 34
0.0
100
AcDbRotatedDimension
1001
ACAD
1000
DSTYLE
1002
{
1002
}
  0
LINE
  5
13B18
330
747D
100
AcDbEntity
  8
部品1
100
AcDbLine
 10
6381.62034640205
 20
9278.365915108434
 30
0.0
 11
7171.001049420651
 21
9278.365915108482
 31
0.0
  0
LINE
  5
13B20
330
747D
100
AcDbEntity
  8
部品1
100
AcDbLine
 10
7993.620346402025
 20
8356.365915108517
 30
0.0
 11
4713.620346402044
 21
8356.365915108451
 31
0.0
  0
LINE
  5
13B22
330
747D
100
AcDbEntity
  8
部品1
100
AcDbLine
 10
7937.119374977235
 20
8487.866020821368
 30
0.0
 11
7229.120346402027
 21
8487.865915133143
 31
0.0
  0
DIMENSION
  5
13B23
330
747D
100
AcDbEntity
  8
寸法
100
AcDbDimension
  2
*D4
 10
7993.620346402025
 20
7369.264040248284
 30
0.0
 11
6353.620346402035
 21
7369.264040248284
 31
0.0
 70
   160
 71
     5
 42
3279.999999999982
  3
INABA_S40G
100
AcDbAlignedDimension
 13
4713.620346402044
 23
8356.3659151083
 33
0.0
 14
7993.620346402025
 24
8356.365915108485
 34
0.0
100
AcDbRotatedDimension
1001
ACAD
1000
DSTYLE
1002
{
1002
}
  0
TEXT
  5
13B2F
330
747D
100
AcDbEntity
  8
部品1
100
AcDbText
 10
6061.804623116852
 20
6825.893697090123
 30
0.0
 40
135.0
  1
平面図
  7
STYLE2
100
AcDbText
  0
LWPOLYLINE
  5
13B30
330
747D
100
AcDbEntity
  8
部品1
100
AcDbPolyline
 90
        4
 70
     1
 43
0.0
 10
5971.885013287815
 20
7018.787226308646
 10
5971.885013287815
 20
6778.894904763113
 10
6735.355679516255
 20
6778.894904763113
 10
6735.355679516255
 20
7018.787226308646
  0
LINE
  5
13B3E
330
747D
100
AcDbEntity
  8
部品1
100
AcDbLine
 10
6381.620346402026
 20
8411.365915108387
 30
0.0
 11
6381.620346402049
 21
9306.365915108459
 31
0.0
  0
LINE
  5
13B48
330
747D
100
AcDbEntity
  8
部品1
100
AcDbLine
 10
6381.620346402042
 20
8411.365915108401
 30
0.0
 11
6325.620346402027
 21
8411.365915108401
 31
0.0
  0
LINE
  5
13B4B
330
747D
100
AcDbEntity
  8
部品1
100
AcDbLine
 10
6404.620346402044
 20
8356.365915108391
 30
0.0
 11
6353.620346402044
 21
8356.365915108391
 31
0.0
  0
LINE
  5
13B4D
330
747D
100
AcDbEntity
  8
部品1
100
AcDbLine
 10
6381.620346402025
 20
8831.365915108401
 30
0.0
 11
6325.62034640204
 21
8831.365915108401
 31
0.0
  0
LINE
  5
13B4E
330
747D
100
AcDbEntity
  8
部品1
100
AcDbLine
 10
6381.620346402018
 20
9251.365915108406
 30
0.0
 11
6325.62034640205
 21
9251.365915108406
 31
0.0
  0
LINE
  5
13B4F
330
747D
100
AcDbEntity
  8
部品1
100
AcDbLine
 10
6408.62034640205
 20
9306.365915108434
 30
0.0
 11
6408.62034640205
 21
9278.365915108434
 31
0.0
  0
LINE
  5
13B50
330
747D
100
AcDbEntity
  8
部品1
100
AcDbLine
 10
6408.620346402016
 20
9306.365915108401
 30
0.0
 11
6408.620346402017
 21
9278.3659151084
 31
0.0
  0
LINE
  5
13B59
330
747D
100
AcDbEntity
  8
破線
 48
10.0
100
AcDbLine
 10
6433.620411326751
 20
8826.865915108443
 30
0.0
 11
6433.620346402037
 21
8511.365915108443
 31
0.0
  0
LINE
  5
13B74
330
747D
100
AcDbEntity
  8
破線
 48
10.0
100
AcDbLine
 10
7913.620411326718
 20
8826.865915108477
 30
0.0
 11
7913.620346402033
 21
8511.365915108525
 31
0.0
  0
LINE
  5
13B77
330
747D
100
AcDbEntity
  8
破線
 48
10.0
100
AcDbLine
 10
7913.620346402028
 20
8511.365915108525
 30
0.0
 11
7252.620346402037
 21
8511.365915108489
 31
0.0
  0
LINE
  5
13B98
330
747D
100
AcDbEntity
  8
部品1
100
AcDbLine
 10
7938.620346402051
 20
9306.365915108548
 30
0.0
 11
7938.620346402051
 21
9278.365915108548
 31
0.0
  0
LINE
  5
13B99
330
747D
100
AcDbEntity
  8
部品1
100
AcDbLine
 10
7938.620346402051
 20
9306.365915108528
 30
0.0
 11
7938.620346402051
 21
9278.365915108528
 31
0.0
  0
DIMENSION
  5
13B9A
330
747D
100
AcDbEntity
  8
寸法
100
AcDbDimension
  2
*D5
 10
8641.046692136438
 20
8356.365915108517
 30
0.0
 11
8641.046692136434
 21
7978.504448203658
 31
0.0
 70
   160
 71
     5
 42
54.99999999999636
  3
INABA_S40G
100
AcDbAlignedDimension
 13
7993.620346402025
 23
8411.365915108515
 33
0.0
 14
7993.620346402025
 24
8356.365915108517
 34
0.0
 50
90.0
100
AcDbRotatedDimension
1001
ACAD
1000
DSTYLE
1002
{
1002
}
  0
LINE
  5
13BA5
330
747D
100
AcDbEntity
  8
部品1
100
AcDbLine
 10
7965.620346402051
 20
9278.365915108528
 30
0.0
 11
7965.620346402028
 21
8411.365915108515
 31
0.0
  0
DIMENSION
  5
13BA6
330
747D
100
AcDbEntity
  8
寸法
100
AcDbDimension
  2
*D6
 10
8641.046692136463
 20
8411.365915108515
 30
0.0
 11
8641.046692136461
 21
8831.365915108525
 31
0.0
 70
   160
  1
2X420=<>
 71
     5
 42
840.0000000000181
  3
INABA_S40G
100
AcDbAlignedDimension
 13
7993.62034640205
 23
9251.365915108532
 33
0.0
 14
7993.620346402025
 24
8411.365915108515
 34
0.0
 50
90.0
100
AcDbRotatedDimension
1001
ACAD
1000
DSTYLE
1002
{
1002
}
  0
LINE
  5
13BA8
330
747D
100
AcDbEntity
  8
部品1
100
AcDbLine
 10
7993.62034640205
 20
9306.365915108528
 30
0.0
 11
7993.620346402025
 21
8356.365915108517
 31
0.0
  0
DIMENSION
  5
13BA9
330
747D
100
AcDbEntity
  8
寸法
100
AcDbDimension
  2
*D7
 10
8950.158222952138
 20
8356.365915108517
 30
0.0
 11
8950.158222952138
 21
8830.343633667437
 31
0.0
 70
   160
 71
     5
 42
950.000000000011
  3
INABA_S40G
100
AcDbAlignedDimension
 13
7993.62034640205
 23
9306.365915108528
 33
0.0
 14
7993.620346402025
 24
8356.365915108517
 34
0.0
 50
90.0
100
AcDbRotatedDimension
1001
ACAD
1000
DSTYLE
1002
{
1002
}
  0
LINE
  5
13BAA
330
747D
100
AcDbEntity
  8
部品1
100
AcDbLine
 10
7965.620346402058
 20
8411.365915108532
 30
0.0
 11
7993.620346402058
 21
8411.365915108532
 31
0.0
  0
LINE
  5
13BAB
330
747D
100
AcDbEntity
  8
部品1
100
AcDbLine
 10
7965.620346402028
 20
8411.365915108515
 30
0.0
 11
7993.620346402025
 21
8411.365915108515
 31
0.0
  0
LINE
  5
13BAD
330
747D
100
AcDbEntity
  8
部品1
100
AcDbLine
 10
7965.620346402051
 20
8831.365915108532
 30
0.0
 11
7993.62034640205
 21
8831.365915108532
 31
0.0
  0
DIMENSION
  5
13BAE
330
747D
100
AcDbEntity
  8
寸法
100
AcDbDimension
  2
*D8
 10
8641.046692136463
 20
9251.365915108532
 30
0.0
 11
8641.046692136461
 21
9614.851196482769
 31
0.0
 70
   160
 71
     5
 42
54.99999999999636
  3
INABA_S40G
100
AcDbAlignedDimension
 13
7993.62034640205
 23
9306.365915108528
 33
0.0
 14
7993.62034640205
 24
9251.365915108532
 34
0.0
 50
90.0
100
AcDbRotatedDimension
1001
ACAD
1000
DSTYLE
1002
{
1002
}
  0
LINE
  5
13BAF
330
747D
100
AcDbEntity
  8
部品1
100
AcDbLine
 10
7965.620346402051
 20
9251.365915108532
 30
0.0
 11
7993.62034640205
 21
9251.365915108532
 31
0.0
  0
LINE
  5
13E9E
330
747D
100
AcDbEntity
  8
部品1
100
AcDbLine
 10
7203.120346401982
 20
9276.865915108484
 30
0.0
 11
7964.120346401983
 21
9276.865915108476
 31
0.0
  0
LINE
  5
13E9F
330
747D
100
AcDbEntity
  8
細線
 48
50.0
100
AcDbLine
 10
7964.120346401983
 20
8826.865915108475
 30
0.0
 11
7203.120346401982
 21
9276.865915108478
 31
0.0
  0
LINE
  5
13EA0
330
747D
100
AcDbEntity
  8
細線
 48
50.0
100
AcDbLine
 10
7964.120346401983
 20
9276.865915108476
 30
0.0
 11
7203.120346401982
 21
8826.865915108482
 31
0.0
  0
LINE
  5
13EA1
330
747D
100
AcDbEntity
  8
部品1
100
AcDbLine
 10
7203.120346401982
 20
8826.865915108482
 30
0.0
 11
7964.120346401983
 21
8826.865915108475
 31
0.0
  0
DIMENSION
  5
13EA2
330
747D
100
AcDbEntity
  8
寸法
100
AcDbDimension
  2
*D9
 10
7905.426850108018
 20
8607.8188048655
 30
0.0
 11
7582.467408520251
 21
8607.8188048655
 31
0.0
 70
   160
 71
     5
 42
761.0000000000118
  3
INABA_S40G
100
AcDbAlignedDimension
 13
7203.120346401982
 23
8826.865915108482
 33
0.0
 14
7964.120346401995
 24
8826.865915108479
 34
0.0
100
AcDbRotatedDimension
1001
ACAD
1000
DSTYLE
1002
{
1002
}
  0
DIMENSION
  5
13EA3
330
747D
100
AcDbEntity
  8
寸法
100
AcDbDimension
  2
*D10
 10
7085.426856785716
 20
8607.818804865454
 30
0.0
 11
6704.92685678571
 21
8607.818804865454
 31
0.0
 70
   160
 71
     5
 42
761.0000000000118
  3
INABA_S40G
100
AcDbAlignedDimension
 13
6383.120353079682
 23
8826.865915108438
 33
0.0
 14
7144.120353079694
 24
8826.865915108433
 34
0.0
100
AcDbRotatedDimension
1001
ACAD
1000
DSTYLE
1002
{
1002
}
  0
LINE
  5
13EA5
330
747D
100
AcDbEntity
  8
部品1
100
AcDbLine
 10
6383.120353079679
 20
9276.865915108441
 30
0.0
 11
7144.12035307968
 21
9276.865915108547
 31
0.0
  0
LINE
  5
13EA6
330
747D
100
AcDbEntity
  8
部品1
100
AcDbLine
 10
6383.120353079681
 20
8826.865915108438
 30
0.0
 11
7144.12035307968
 21
8826.865915108543
 31
0.0
  0
LINE
  5
13EA7
330
747D
100
AcDbEntity
  8
細線
 48
50.0
100
AcDbLine
 10
7144.12035307968
 20
8826.865915108543
 30
0.0
 11
6383.120353079679
 21
9276.865915108441
 31
0.0
  0
LINE
  5
13EA8
330
747D
100
AcDbEntity
  8
細線
 48
50.0
100
AcDbLine
 10
7144.12035307968
 20
9276.865915108542
 30
0.0
 11
6383.12035307968
 21
8826.865915108438
 31
0.0
  0
LINE
  5
13EA9
330
747D
100
AcDbEntity
  8
部品1
 48
50.0
100
AcDbLine
 10
6383.120353079679
 20
9276.865915108434
 30
0.0
 11
6383.12035307968
 21
8826.865915108438
 31
0.0
  0
LINE
  5
13EB4
330
747D
100
AcDbEntity
  8
部品1
 48
50.0
100
AcDbLine
 10
7144.12035307968
 20
9276.865915108542
 30
0.0
 11
7144.12035307968
 21
8826.865915108543
 31
0.0
  0
LINE
  5
13EB5
330
747D
100
AcDbEntity
  8
部品1
 48
50.0
100
AcDbLine
 10
7203.120346401982
 20
9276.865915108478
 30
0.0
 11
7203.120346401982
 21
8826.865915108482
 31
0.0
  0
DIMENSION
  5
13EBD
330
747D
100
AcDbEntity
  8
寸法
100
AcDbDimension
  2
*D11
 10
8319.478072264008
 20
8731.648099439587
 30
0.0
 11
8219.478072264006
 21
8956.648099439588
 31
0.0
 70
    32
 71
     5
 42
450.0
  3
INABA_S40G
100
AcDbAlignedDimension
 13
7964.120346401983
 23
9276.865915108476
 33
0.0
 14
7964.120346401983
 24
8826.865915108475
 34
0.0
 50
90.0
100
AcDbRotatedDimension
1001
ACAD
1000
DSTYLE
1002
{
1002
}
  0
LINE
  5
13EBE
330
747D
100
AcDbEntity
  8
部品1
100
AcDbLine
 10
7964.120346401983
 20
9276.865915108476
 30
0.0
 11
7964.120346401983
 21
8826.865915108475
 31
0.0
  0
LINE
  5
13F15
330
747D
100
AcDbEntity
  8
部品1
100
AcDbLine
 10
7948.620346402043
 20
5407.07727689386
 30
0.0
 11
7948.620346402044
 21
3616.077276893883
 31
0.0
  0
LINE
  5
13F16
330
747D
100
AcDbEntity
  8
部品1
100
AcDbLine
 10
7218.620346402042
 20
5407.077276893857
 30
0.0
 11
7218.620346402044
 21
3616.077276893875
 31
0.0
  0
LINE
  5
13F17
330
747D
100
AcDbEntity
  8
部品1
100
AcDbLine
 10
7216.620346402044
 20
5409.577276893861
 30
0.0
 11
7216.620346402044
 21
3612.577276893881
 31
0.0
  0
LINE
  5
13F18
330
747D
100
AcDbEntity
  8
部品1
100
AcDbLine
 10
7130.620346402044
 20
5409.577276893861
 30
0.0
 11
7130.620346402044
 21
3612.577276893881
 31
0.0
  0
LINE
  5
13F19
330
747D
100
AcDbEntity
  8
部品1
100
AcDbLine
 10
7128.620346402041
 20
5407.07727689386
 30
0.0
 11
7128.620346402046
 21
3616.077276893881
 31
0.0
  0
LINE
  5
13F1A
330
747D
100
AcDbEntity
  8
部品1
100
AcDbLine
 10
6396.620346402044
 20
5409.577276893861
 30
0.0
 11
6396.620346402044
 21
3612.577276893881
 31
0.0
  0
LINE
  5
13FFF
330
747D
100
AcDbEntity
  8
部品1
100
AcDbLine
 10
6398.620346402044
 20
3616.077276893867
 30
0.0
 11
7108.557898573363
 21
3616.077276893872
 31
0.0
  0
LINE
  5
14000
330
747D
100
AcDbEntity
  8
部品1
100
AcDbLine
 10
7218.620346402044
 20
3616.077276893875
 30
0.0
 11
7928.557898573363
 21
3616.077276893881
 31
0.0
  0
LINE
  5
14001
330
747D
100
AcDbEntity
  8
部品1
100
AcDbLine
 10
6398.620346402044
 20
5407.077276893864
 30
0.0
 11
7108.557898573363
 21
5407.077276893862
 31
0.0
  0
LINE
  5
14002
330
747D
100
AcDbEntity
  8
部品1
100
AcDbLine
 10
7218.620346402042
 20
5407.077276893857
 30
0.0
 11
7928.557898573362
 21
5407.07727689386
 31
0.0
  0
LINE
  5
14026
330
747D
100
AcDbEntity
  8
破線
 48
10.0
100
AcDbLine
 10
7252.620346402037
 20
8511.365915108489
 30
0.0
 11
7252.620333970927
 21
8826.865915108482
 31
0.0
  0
LINE
  5
14027
330
747D
100
AcDbEntity
  8
破線
 48
10.0
100
AcDbLine
 10
7094.620346402037
 20
8511.365915108479
 30
0.0
 11
7094.620338047484
 21
8826.865915108536
 31
0.0
  0
LINE
  5
14028
330
747D
100
AcDbEntity
  8
破線
 48
10.0
100
AcDbLine
 10
7094.620346402037
 20
8511.365915108482
 30
0.0
 11
6433.620346402037
 21
8511.365915108443
 31
0.0
  0
LINE
  5
1402D
330
747D
100
AcDbEntity
  8
部品1
100
AcDbLine
 10
7948.620346402043
 20
8382.365915108525
 30
0.0
 11
7218.620346402042
 21
8382.365915108463
 31
0.0
  0
LINE
  5
1409C
330
747D
100
AcDbEntity
  8
部品1
 48
2.83
100
AcDbLine
 10
7961.620346402025
 20
8411.365915108488
 30
0.0
 11
7938.620346402024
 21
8411.365915108484
 31
0.0
  0
LINE
  5
1409F
330
747D
100
AcDbEntity
  8
部品1
 48
2.83
100
AcDbLine
 10
7993.620346402025
 20
8411.365915108484
 30
0.0
 11
7970.620346402025
 21
8411.365915108488
 31
0.0
  0
LINE
  5
140A0
330
747D
100
AcDbEntity
  8
部品1
 48
2.83
100
AcDbLine
 10
7938.620346402025
 20
8411.365915108484
 30
0.0
 11
7938.620346402024
 21
8385.865915108487
 31
0.0
  0
LINE
  5
140A1
330
747D
100
AcDbEntity
  8
部品1
 48
2.83
100
AcDbLine
 10
7950.620346402025
 20
8385.865915108487
 30
0.0
 11
7950.620346402025
 21
8356.365915108487
 31
0.0
  0
LINE
  5
140A3
330
747D
100
AcDbEntity
  8
部品1
 48
2.83
100
AcDbLine
 10
6385.620346402045
 20
8411.365915108355
 30
0.0
 11
6408.620346402044
 21
8411.365915108353
 31
0.0
  0
LINE
  5
140A5
330
747D
100
AcDbEntity
  8
部品1
 48
2.83
100
AcDbLine
 10
6396.620346402045
 20
8356.365915108355
 30
0.0
 11
6353.620346402044
 21
8356.365915108353
 31
0.0
  0
LINE
  5
140A7
330
747D
100
AcDbEntity
  8
部品1
 48
2.83
100
AcDbLine
 10
6408.620346402044
 20
8411.365915108353
 30
0.0
 11
6408.620346402047
 21
8385.865915108356
 31
0.0
  0
LINE
  5
140A8
330
747D
100
AcDbEntity
  8
部品1
 48
2.83
100
AcDbLine
 10
6396.620346402045
 20
8385.865915108356
 30
0.0
 11
6396.620346402045
 21
8356.365915108355
 31
0.0
  0
LINE
  5
140AA
330
747D
100
AcDbEntity
  8
部品1
 48
50.0
100
AcDbLine
 10
7201.62034640203
 20
8411.365915108472
 30
0.0
 11
7201.620346401975
 21
9306.365915108482
 31
0.0
  0
LINE
  5
140AB
330
747D
100
AcDbEntity
  8
部品1
 48
50.0
100
AcDbLine
 10
7145.62034640203
 20
8411.365915108472
 30
0.0
 11
7145.620346401976
 21
9278.365915108482
 31
0.0
  0
LINE
  5
140D8
330
747D
100
AcDbEntity
  8
部品1
100
AcDbLine
 10
7128.620346402043
 20
8382.365915108525
 30
0.0
 11
7128.620346402043
 21
8356.365915108469
 31
0.0
  0
LINE
  5
140D9
330
747D
100
AcDbEntity
  8
部品1
100
AcDbLine
 10
7130.620346402043
 20
8385.865915108418
 30
0.0
 11
7130.620346402041
 21
8356.365915108467
 31
0.0
  0
LINE
  5
140DA
330
747D
100
AcDbEntity
  8
部品1
100
AcDbLine
 10
7216.620346402044
 20
8385.865915108425
 30
0.0
 11
7216.620346402045
 21
8356.365915108472
 31
0.0
  0
LINE
  5
140DB
330
747D
100
AcDbEntity
  8
部品1
100
AcDbLine
 10
7218.620346402042
 20
8382.365915108463
 30
0.0
 11
7218.620346402042
 21
8356.365915108474
 31
0.0
  0
LINE
  5
140DC
330
747D
100
AcDbEntity
  8
部品1
100
AcDbLine
 10
7948.620346402043
 20
8382.365915108525
 30
0.0
 11
7948.620346402043
 21
8356.365915108517
 31
0.0
  0
LINE
  5
140E0
330
747D
100
AcDbEntity
  8
部品1
100
AcDbLine
 10
6398.620346402044
 20
8382.365915108461
 30
0.0
 11
6398.620346402044
 21
8356.365915108424
 31
0.0
  0
LINE
  5
140EC
330
747D
100
AcDbEntity
  8
部品1
 48
5.0
100
AcDbLine
 10
7216.620346402045
 20
8385.865915108473
 30
0.0
 11
7216.620346402045
 21
8356.365915108472
 31
0.0
  0
LINE
  5
140EF
330
747D
100
AcDbEntity
  8
部品1
 48
5.0
100
AcDbLine
 10
7130.620346402046
 20
8385.865915108473
 30
0.0
 11
7130.620346402046
 21
8356.365915108472
 31
0.0
  0
LINE
  5
1411A
330
747D
100
AcDbEntity
  8
部品1
 48
5.0
100
AcDbLine
 10
7228.620346402045
 20
8411.365915108472
 30
0.0
 11
7228.620346402045
 21
8385.865915108473
 31
0.0
  0
LINE
  5
14127
330
747D
100
AcDbEntity
  8
部品1
 48
5.0
100
AcDbLine
 10
7197.620346402047
 20
8411.365915108472
 30
0.0
 11
7197.620346402046
 21
8385.865915108473
 31
0.0
  0
LINE
  5
14130
330
747D
100
AcDbEntity
  8
部品1
 48
5.0
100
AcDbLine
 10
7149.620346402045
 20
8411.365915108472
 30
0.0
 11
7149.620346402045
 21
8385.865915108473
 31
0.0
  0
LINE
  5
14139
330
747D
100
AcDbEntity
  8
部品1
 48
5.0
100
AcDbLine
 10
7118.620346402045
 20
8411.365915108474
 30
0.0
 11
7118.620346402046
 21
8385.865915108473
 31
0.0
  0
LINE
  5
1413B
330
747D
100
AcDbEntity
  8
部品1
 48
5.0
100
AcDbLine
 10
6377.620346402046
 20
8385.865915108356
 30
0.0
 11
7149.620346402045
 21
8385.865915108473
 31
0.0
  0
LINE
  5
14151
330
747D
100
AcDbEntity
  8
部品1
 48
5.0
100
AcDbLine
 10
7141.620346402046
 20
8411.365915108472
 30
0.0
 11
7118.620346402043
 21
8411.365915108472
 31
0.0
  0
LINE
  5
14156
330
747D
100
AcDbEntity
  8
部品1
 48
5.0
100
AcDbLine
 10
7145.62034640203
 20
8411.365915108472
 30
0.0
 11
7201.62034640203
 21
8411.365915108472
 31
0.0
  0
LINE
  5
1415B
330
747D
100
AcDbEntity
  8
部品1
 48
5.0
100
AcDbLine
 10
7205.620346402046
 20
8411.365915108472
 30
0.0
 11
7228.620346402045
 21
8411.365915108472
 31
0.0
  0
LINE
  5
1415F
330
747D
100
AcDbEntity
  8
部品1
 48
5.0
100
AcDbLine
 10
7950.620346402025
 20
8385.865915108473
 30
0.0
 11
7197.620346402046
 21
8385.865915108473
 31
0.0
  0
LINE
  5
14186
330
747D
100
AcDbEntity
  8
部品1
100
AcDbLine
 10
7128.620346402043
 20
8382.365915108525
 30
0.0
 11
6398.620346402044
 21
8382.365915108461
 31
0.0
  0
ARC
  5
142A6
330
747D
100
AcDbEntity
  8
部品1
 48
0.2
100
AcDbCircle
 10
7120.682794230721
 20
8357.363545063693
 30
0.0
 40
8.0
100
AcDbArc
 50
270.0
 51
352.8363522778074
  0
ARC
  5
142AA
330
747D
100
AcDbEntity
  8
部品1
 48
0.2
100
AcDbCircle
 10
7115.682794230721
 20
8357.363545063693
 30
0.0
 40
8.0
100
AcDbArc
 50
187.1636477221926
 51
269.9999999999992
  0
ARC
  5
142AB
330
747D
100
AcDbEntity
  8
細線
 48
0.2
100
AcDbCircle
 10
7120.682794230721
 20
8357.363545063693
 30
0.0
 40
4.049999999999999
100
AcDbArc
 50
194.2603506853988
 51
345.7396493146012
  0
LINE
  5
142AD
330
747D
100
AcDbEntity
  8
部品1
 48
0.2
100
AcDbLine
 10
7115.682794230721
 20
8349.363545063692
 30
0.0
 11
7120.682794230721
 21
8349.363545063692
 31
0.0
  0
LINE
  5
142D9
330
747D
100
AcDbEntity
  8
部品1
 48
0.2
100
AcDbLine
 10
7935.682794230723
 20
8349.363545063713
 30
0.0
 11
7940.682794230723
 21
8349.363545063713
 31
0.0
  0
ARC
  5
142DA
330
747D
100
AcDbEntity
  8
部品1
 48
0.2
100
AcDbCircle
 10
7940.682794230723
 20
8357.363545063712
 30
0.0
 40
8.0
100
AcDbArc
 50
270.0
 51
352.8363522778074
  0
ARC
  5
142DB
330
747D
100
AcDbEntity
  8
部品1
 48
0.2
100
AcDbCircle
 10
7935.682794230723
 20
8357.363545063712
 30
0.0
 40
8.0
100
AcDbArc
 50
187.1636477221926
 51
269.9999999999992
  0
ARC
  5
142DC
330
747D
100
AcDbEntity
  8
細線
 48
0.2
100
AcDbCircle
 10
7940.682794230723
 20
8357.363545063712
 30
0.0
 40
4.049999999999999
100
AcDbArc
 50
194.2603506853988
 51
345.7396493146012
  0
LINE
  5
142DF
330
747D
100
AcDbEntity
  8
細線
 48
50.0
100
AcDbLine
 10
7124.545551425022
 20
5404.827276893862
 30
0.0
 11
7124.545551425022
 21
5402.827276893862
 31
0.0
  0
LINE
  5
142E0
330
747D
100
AcDbEntity
  8
細線
 48
50.0
100
AcDbLine
 10
7116.695141379058
 20
5404.827276893862
 30
0.0
 11
7116.69514137906
 21
5402.827276893862
 31
0.0
  0
LINE
  5
142E1
330
747D
100
AcDbEntity
  8
細線
 48
0.2
100
AcDbLine
 10
7126.24188986987
 20
5408.027276893863
 30
0.0
 11
7114.873907276858
 21
5408.027276893863
 31
0.0
  0
ARC
  5
142E2
330
747D
100
AcDbEntity
  8
細線
 48
0.2
100
AcDbCircle
 10
7120.557898573363
 20
5390.527276893865
 30
0.0
 40
18.49999999999796
100
AcDbArc
 50
73.39845040097829
 51
106.6015495990228
  0
LINE
  5
142E5
330
747D
100
AcDbEntity
  8
細線
 48
0.1
100
AcDbLine
 10
7128.557898573362
 20
5407.327276893862
 30
0.0
 11
7128.557898573362
 21
5400.327276893862
 31
0.0
  0
ARC
  5
142E7
330
747D
100
AcDbEntity
  8
細線
 48
0.2
100
AcDbCircle
 10
7125.557898573362
 20
5407.29778672511
 30
0.0
 40
1.0
100
AcDbArc
 50
0.0
 51
73.39845040097829
  0
ARC
  5
142E9
330
747D
100
AcDbEntity
  8
細線
 48
0.2
100
AcDbCircle
 10
7115.557898573363
 20
5407.29778672511
 30
0.0
 40
1.0
100
AcDbArc
 50
106.6015495990225
 51
180.0000000000016
  0
LINE
  5
142EC
330
747D
100
AcDbEntity
  8
部品1
 48
0.2
100
AcDbLine
 10
7128.557898573362
 20
5400.327276893862
 30
0.0
 11
7108.557898573362
 21
5400.327276893862
 31
0.0
  0
LINE
  5
142ED
330
747D
100
AcDbEntity
  8
細線
 48
0.2
100
AcDbLine
 10
7128.557898573362
 20
5404.827276893862
 30
0.0
 11
7108.557898573363
 21
5404.827276893862
 31
0.0
  0
LINE
  5
142EE
330
747D
100
AcDbEntity
  8
細線
 48
0.2
100
AcDbLine
 10
7128.557898573362
 20
5402.827276893862
 30
0.0
 11
7108.557898573363
 21
5402.827276893862
 31
0.0
  0
LINE
  5
142EF
330
747D
100
AcDbEntity
  8
細線
 48
0.2
100
AcDbLine
 10
7128.557898573362
 20
5407.327276893862
 30
0.0
 11
7108.557898573363
 21
5407.327276893862
 31
0.0
  0
LINE
  5
14328
330
747D
100
AcDbEntity
  8
部品1
 48
50.0
100
AcDbLine
 10
7108.557898573362
 20
5400.327276893862
 30
0.0
 11
7108.557898573362
 21
5407.077276893862
 31
0.0
  0
LINE
  5
14329
330
747D
100
AcDbEntity
  8
部品1
100
AcDbLine
 10
7128.557898573363
 20
5407.077276893862
 30
0.0
 11
7128.620346402043
 21
5407.07727689386
 31
0.0
  0
LINE
  5
1432A
330
747D
100
AcDbEntity
  8
細線
 48
50.0
100
AcDbLine
 10
7108.557898573362
 20
5407.077276893862
 30
0.0
 11
7108.557898573362
 21
5407.327276893862
 31
0.0
  0
ARC
  5
1432B
330
747D
100
AcDbEntity
  8
細線
 48
0.2
100
AcDbCircle
 10
7945.557898573362
 20
5407.29778672511
 30
0.0
 40
1.0
100
AcDbArc
 50
0.0
 51
73.39845040097829
  0
LINE
  5
1432C
330
747D
100
AcDbEntity
  8
細線
 48
0.1
100
AcDbLine
 10
7948.557898573362
 20
5407.327276893862
 30
0.0
 11
7948.557898573362
 21
5400.327276893862
 31
0.0
  0
LINE
  5
1432D
330
747D
100
AcDbEntity
  8
細線
 48
50.0
100
AcDbLine
 10
7936.695141379058
 20
5404.827276893862
 30
0.0
 11
7936.69514137906
 21
5402.827276893862
 31
0.0
  0
LINE
  5
1432E
330
747D
100
AcDbEntity
  8
細線
 48
50.0
100
AcDbLine
 10
7944.545551425022
 20
5404.827276893862
 30
0.0
 11
7944.545551425022
 21
5402.827276893862
 31
0.0
  0
LINE
  5
1432F
330
747D
100
AcDbEntity
  8
細線
 48
0.2
100
AcDbLine
 10
7948.557898573362
 20
5407.327276893862
 30
0.0
 11
7928.557898573363
 21
5407.327276893862
 31
0.0
  0
LINE
  5
14330
330
747D
100
AcDbEntity
  8
細線
 48
0.2
100
AcDbLine
 10
7948.557898573362
 20
5402.827276893862
 30
0.0
 11
7928.557898573363
 21
5402.827276893862
 31
0.0
  0
LINE
  5
14331
330
747D
100
AcDbEntity
  8
細線
 48
0.2
100
AcDbLine
 10
7948.557898573362
 20
5404.827276893862
 30
0.0
 11
7928.557898573363
 21
5404.827276893862
 31
0.0
  0
ARC
  5
14332
330
747D
100
AcDbEntity
  8
細線
 48
0.2
100
AcDbCircle
 10
7935.557898573361
 20
5407.29778672511
 30
0.0
 40
1.0
100
AcDbArc
 50
106.6015495990225
 51
180.0000000000016
  0
ARC
  5
14333
330
747D
100
AcDbEntity
  8
細線
 48
0.2
100
AcDbCircle
 10
7940.557898573363
 20
5390.527276893865
 30
0.0
 40
18.49999999999796
100
AcDbArc
 50
73.39845040097829
 51
106.6015495990228
  0
LINE
  5
14334
330
747D
100
AcDbEntity
  8
細線
 48
0.2
100
AcDbLine
 10
7946.24188986987
 20
5408.027276893863
 30
0.0
 11
7934.873907276858
 21
5408.027276893863
 31
0.0
  0
LINE
  5
14335
330
747D
100
AcDbEntity
  8
細線
 48
50.0
100
AcDbLine
 10
7928.557898573362
 20
5407.077276893862
 30
0.0
 11
7928.557898573362
 21
5407.327276893862
 31
0.0
  0
LINE
  5
14336
330
747D
100
AcDbEntity
  8
部品1
 48
50.0
100
AcDbLine
 10
7928.557898573362
 20
5400.327276893862
 30
0.0
 11
7928.557898573362
 21
5407.077276893862
 31
0.0
  0
LINE
  5
14337
330
747D
100
AcDbEntity
  8
部品1
100
AcDbLine
 10
7948.557898573362
 20
5407.077276893862
 30
0.0
 11
7948.620346402043
 21
5407.07727689386
 31
0.0
  0
LINE
  5
14338
330
747D
100
AcDbEntity
  8
部品1
 48
0.2
100
AcDbLine
 10
7948.557898573362
 20
5400.327276893862
 30
0.0
 11
7928.557898573362
 21
5400.327276893862
 31
0.0
  0
LINE
  5
14339
330
747D
100
AcDbEntity
  8
部品1
100
AcDbLine
 10
7948.557898573362
 20
5407.077276893859
 30
0.0
 11
7948.620346402043
 21
5407.07727689386
 31
0.0
  0
ARC
  5
1433A
330
747D
100
AcDbEntity
  8
細線
 48
0.2
100
AcDbCircle
 10
7125.557898573362
 20
3615.856767062631
 30
0.0
 40
1.0
100
AcDbArc
 50
286.6015495990217
 51
0.0
  0
LINE
  5
1433B
330
747D
100
AcDbEntity
  8
細線
 48
0.1
100
AcDbLine
 10
7128.557898573362
 20
3615.827276893879
 30
0.0
 11
7128.557898573362
 21
3622.827276893879
 31
0.0
  0
LINE
  5
1433C
330
747D
100
AcDbEntity
  8
細線
 48
50.0
100
AcDbLine
 10
7116.695141379058
 20
3618.327276893881
 30
0.0
 11
7116.69514137906
 21
3620.327276893879
 31
0.0
  0
LINE
  5
1433D
330
747D
100
AcDbEntity
  8
細線
 48
50.0
100
AcDbLine
 10
7124.545551425022
 20
3618.327276893881
 30
0.0
 11
7124.545551425022
 21
3620.327276893879
 31
0.0
  0
LINE
  5
1433E
330
747D
100
AcDbEntity
  8
細線
 48
0.2
100
AcDbLine
 10
7128.557898573362
 20
3615.827276893879
 30
0.0
 11
7108.557898573363
 21
3615.827276893879
 31
0.0
  0
LINE
  5
1433F
330
747D
100
AcDbEntity
  8
細線
 48
0.2
100
AcDbLine
 10
7128.557898573362
 20
3620.327276893879
 30
0.0
 11
7108.557898573363
 21
3620.327276893879
 31
0.0
  0
LINE
  5
14340
330
747D
100
AcDbEntity
  8
細線
 48
0.2
100
AcDbLine
 10
7128.557898573362
 20
3618.327276893879
 30
0.0
 11
7108.557898573363
 21
3618.327276893881
 31
0.0
  0
ARC
  5
14341
330
747D
100
AcDbEntity
  8
細線
 48
0.2
100
AcDbCircle
 10
7115.557898573363
 20
3615.856767062631
 30
0.0
 40
1.0
100
AcDbArc
 50
179.9999999999984
 51
253.3984504009775
  0
ARC
  5
14342
330
747D
100
AcDbEntity
  8
細線
 48
0.2
100
AcDbCircle
 10
7120.557898573363
 20
3632.627276893876
 30
0.0
 40
18.49999999999796
100
AcDbArc
 50
253.3984504009772
 51
286.6015495990217
  0
LINE
  5
14343
330
747D
100
AcDbEntity
  8
細線
 48
0.2
100
AcDbLine
 10
7126.24188986987
 20
3615.127276893878
 30
0.0
 11
7114.873907276858
 21
3615.127276893878
 31
0.0
  0
LINE
  5
14344
330
747D
100
AcDbEntity
  8
細線
 48
50.0
100
AcDbLine
 10
7108.557898573362
 20
3616.077276893881
 30
0.0
 11
7108.557898573362
 21
3615.827276893879
 31
0.0
  0
LINE
  5
14345
330
747D
100
AcDbEntity
  8
部品1
 48
50.0
100
AcDbLine
 10
7108.557898573362
 20
3622.827276893879
 30
0.0
 11
7108.557898573362
 21
3616.077276893881
 31
0.0
  0
LINE
  5
14346
330
747D
100
AcDbEntity
  8
部品1
100
AcDbLine
 10
7128.557898573363
 20
3616.077276893881
 30
0.0
 11
7128.620346402043
 21
3616.077276893881
 31
0.0
  0
LINE
  5
14347
330
747D
100
AcDbEntity
  8
部品1
 48
0.2
100
AcDbLine
 10
7128.557898573362
 20
3622.827276893879
 30
0.0
 11
7108.557898573362
 21
3622.827276893879
 31
0.0
  0
LINE
  5
14348
330
747D
100
AcDbEntity
  8
部品1
100
AcDbLine
 10
7948.557898573362
 20
3616.077276893883
 30
0.0
 11
7948.620346402043
 21
3616.077276893883
 31
0.0
  0
LINE
  5
14349
330
747D
100
AcDbEntity
  8
部品1
 48
0.2
100
AcDbLine
 10
7948.557898573362
 20
3622.827276893879
 30
0.0
 11
7928.557898573362
 21
3622.827276893879
 31
0.0
  0
LINE
  5
1434A
330
747D
100
AcDbEntity
  8
部品1
100
AcDbLine
 10
7948.557898573362
 20
3616.077276893881
 30
0.0
 11
7948.620346402043
 21
3616.077276893881
 31
0.0
  0
LINE
  5
1434B
330
747D
100
AcDbEntity
  8
部品1
 48
50.0
100
AcDbLine
 10
7928.557898573362
 20
3622.827276893879
 30
0.0
 11
7928.557898573362
 21
3616.077276893881
 31
0.0
  0
LINE
  5
1434C
330
747D
100
AcDbEntity
  8
細線
 48
50.0
100
AcDbLine
 10
7928.557898573362
 20
3616.077276893881
 30
0.0
 11
7928.557898573362
 21
3615.827276893879
 31
0.0
  0
LINE
  5
1434D
330
747D
100
AcDbEntity
  8
細線
 48
0.2
100
AcDbLine
 10
7946.24188986987
 20
3615.127276893878
 30
0.0
 11
7934.873907276858
 21
3615.127276893878
 31
0.0
  0
ARC
  5
1434E
330
747D
100
AcDbEntity
  8
細線
 48
0.2
100
AcDbCircle
 10
7940.557898573363
 20
3632.627276893876
 30
0.0
 40
18.49999999999796
100
AcDbArc
 50
253.3984504009772
 51
286.6015495990217
  0
ARC
  5
1434F
330
747D
100
AcDbEntity
  8
細線
 48
0.2
100
AcDbCircle
 10
7935.557898573361
 20
3615.856767062631
 30
0.0
 40
1.0
100
AcDbArc
 50
179.9999999999984
 51
253.3984504009775
  0
LINE
  5
14350
330
747D
100
AcDbEntity
  8
細線
 48
0.2
100
AcDbLine
 10
7948.557898573362
 20
3618.327276893879
 30
0.0
 11
7928.557898573363
 21
3618.327276893881
 31
0.0
  0
LINE
  5
14351
330
747D
100
AcDbEntity
  8
細線
 48
0.2
100
AcDbLine
 10
7948.557898573362
 20
3620.327276893879
 30
0.0
 11
7928.557898573363
 21
3620.327276893879
 31
0.0
  0
LINE
  5
14352
330
747D
100
AcDbEntity
  8
細線
 48
0.2
100
AcDbLine
 10
7948.557898573362
 20
3615.827276893879
 30
0.0
 11
7928.557898573363
 21
3615.827276893879
 31
0.0
  0
LINE
  5
14353
330
747D
100
AcDbEntity
  8
細線
 48
50.0
100
AcDbLine
 10
7944.545551425022
 20
3618.327276893881
 30
0.0
 11
7944.545551425022
 21
3620.327276893879
 31
0.0
  0
LINE
  5
14354
330
747D
100
AcDbEntity
  8
細線
 48
50.0
100
AcDbLine
 10
7936.695141379058
 20
3618.327276893881
 30
0.0
 11
7936.69514137906
 21
3620.327276893879
 31
0.0
  0
LINE
  5
14355
330
747D
100
AcDbEntity
  8
細線
 48
0.1
100
AcDbLine
 10
7948.557898573362
 20
3615.827276893879
 30
0.0
 11
7948.557898573362
 21
3622.827276893879
 31
0.0
  0
ARC
  5
14356
330
747D
100
AcDbEntity
  8
細線
 48
0.2
100
AcDbCircle
 10
7945.557898573362
 20
3615.856767062631
 30
0.0
 40
1.0
100
AcDbArc
 50
286.6015495990217
 51
0.0
  0
LINE
  5
14357
330
747D
100
AcDbEntity
  8
部品1
100
AcDbLine
 10
7128.557898573363
 20
3616.077276893872
 30
0.0
 11
7128.620346402043
 21
3616.077276893872
 31
0.0
  0
LINE
  5
14358
330
747D
100
AcDbEntity
  8
部品1
100
AcDbLine
 10
7948.557898573362
 20
3616.077276893881
 30
0.0
 11
7948.620346402043
 21
3616.077276893881
 31
0.0
  0
LINE
  5
1439F
330
747D
100
AcDbEntity
  8
部品1
 48
5.0
100
AcDbLine
 10
7937.119374977095
 20
8487.86591510853
 30
0.0
 11
7937.119867908406
 21
8826.865915108475
 31
0.0
  0
LINE
  5
143A0
330
747D
100
AcDbEntity
  8
部品1
 48
5.0
100
AcDbLine
 10
6410.121317827007
 20
8487.86591510853
 30
0.0
 11
6410.120824895696
 21
8826.865915108443
 31
0.0
  0
LINE
  5
143A2
330
747D
100
AcDbEntity
  8
部品1
 48
50.0
100
AcDbLine
 10
7229.120346402027
 20
8487.865915133143
 30
0.0
 11
7201.62034640203
 21
8459.865915108471
 31
0.0
  0
LINE
  5
143A3
330
747D
100
AcDbEntity
  8
部品1
 48
50.0
100
AcDbLine
 10
7145.62034640203
 20
8459.865915108471
 30
0.0
 11
7118.120346402029
 21
8487.865915108482
 31
0.0
  0
LINE
  5
143A4
330
747D
100
AcDbEntity
  8
部品1
100
AcDbLine
 10
7118.120346402029
 20
8487.865915108482
 30
0.0
 11
6410.121317828438
 21
8487.864832799994
 31
0.0
  0
LINE
  5
14407
330
747D
100
AcDbEntity
  8
部品1
 48
50.0
100
AcDbLine
 10
7118.120346402029
 20
8487.865915108482
 30
0.0
 11
7118.120346402005
 21
8826.865915108538
 31
0.0
  0
LINE
  5
14408
330
747D
100
AcDbEntity
  8
部品1
 48
50.0
100
AcDbLine
 10
7229.120340057743
 20
8487.865915133141
 30
0.0
 11
7229.120343030605
 21
8826.865915108482
 31
0.0
  0
LINE
  5
14409
330
747D
100
AcDbEntity
  8
部品1
 48
50.0
100
AcDbLine
 10
7965.620346402028
 20
8458.846849916119
 30
0.0
 11
7937.119374977235
 21
8487.866020821368
 31
0.0
  0
LINE
  5
1440A
330
747D
100
AcDbEntity
  8
部品1
 48
50.0
100
AcDbLine
 10
6410.121317828438
 20
8487.864832799994
 30
0.0
 11
6381.620346402026
 21
8458.845661867529
 31
0.0
  0
LINE
  5
1440B
330
747D
100
AcDbEntity
  8
部品1
 48
50.0
100
AcDbLine
 10
7964.120339724376
 20
9276.865915108478
 30
0.0
 11
7965.620346402051
 21
9278.365915108528
 31
0.0
  0
LINE
  5
1440C
330
747D
100
AcDbEntity
  8
部品1
 48
50.0
100
AcDbLine
 10
7203.120346401982
 20
9276.81139358822
 30
0.0
 11
7201.620346401977
 21
9278.365915108482
 31
0.0
  0
LINE
  5
1440D
330
747D
100
AcDbEntity
  8
部品1
 48
50.0
100
AcDbLine
 10
7144.120353079681
 20
9276.811402448727
 30
0.0
 11
7145.620346401976
 21
9278.365915108478
 31
0.0
  0
LINE
  5
1440E
330
747D
100
AcDbEntity
  8
部品1
 48
50.0
100
AcDbLine
 10
6383.120353079674
 20
9276.865915108441
 30
0.0
 11
6381.62034640205
 21
9278.365915108434
 31
0.0
  0
LINE
  5
144C7
330
747D
100
AcDbEntity
  8
部品1
 48
5.0
100
AcDbLine
 10
7228.620346402053
 20
9306.365915108484
 30
0.0
 11
7228.620346402047
 21
9278.365915108485
 31
0.0
  0
LINE
  5
144D0
330
747D
100
AcDbEntity
  8
部品1
 48
5.0
100
AcDbLine
 10
7118.620346402048
 20
9278.365915108478
 30
0.0
 11
7118.62034640205
 21
9306.365915108477
 31
0.0
  0
LINE
  5
144D2
330
747D
100
AcDbEntity
  8
部品1
 48
5.0
100
AcDbLine
 10
7148.329620849223
 20
9306.365915108477
 30
0.0
 11
7171.001049420652
 21
9278.365915108482
 31
0.0
  0
LINE
  5
144D8
330
747D
100
AcDbEntity
  8
部品1
 48
5.0
100
AcDbLine
 10
7201.620346401978
 20
9251.365915108481
 30
0.0
 11
7145.620346401978
 21
9251.365915108481
 31
0.0
  0
LINE
  5
144E9
330
747D
100
AcDbEntity
  8
部品1
 48
50.0
100
AcDbLine
 10
7173.620346402031
 20
8411.365915108472
 30
0.0
 11
7173.620346402031
 21
9251.365915108481
 31
0.0
  0
LINE
  5
144EA
330
747D
100
AcDbEntity
  8
部品1
100
AcDbLine
 10
7201.620346401975
 20
9278.365915108484
 30
0.0
 11
7965.620346402051
 21
9278.365915108528
 31
0.0
  0
DIMENSION
  5
14548
330
747D
100
AcDbEntity
  8
寸法
 48
50.0
100
AcDbDimension
  2
*D12
 10
7228.620346402053
 20
9522.174134733532
 30
0.0
 11
7173.62034640205
 21
9622.174134733533
 31
0.0
 70
    32
 71
     5
 42
110.0000000000036
  3
INABA_S40G
100
AcDbAlignedDimension
 13
7118.62034640205
 23
9306.365915108555
 33
0.0
 14
7228.620346402053
 24
9306.365915108532
 34
0.0
100
AcDbRotatedDimension
  0
DIMENSION
  5
14562
330
747D
100
AcDbEntity
  8
寸法
 48
50.0
100
AcDbDimension
  2
*D13
 10
7228.620346402053
 20
9522.174134733532
 30
0.0
 11
7583.620346402051
 21
9622.174134733533
 31
0.0
 70
    32
 71
     5
 42
709.9999999999981
  3
INABA_S40G
100
AcDbAlignedDimension
 13
7938.620346402051
 23
9306.365915108548
 33
0.0
 14
7228.620346402053
 24
9306.365915108532
 34
0.0
100
AcDbRotatedDimension
  0
LINE
  5
1456D
330
747D
100
AcDbEntity
  8
部品1
 48
5.0
100
AcDbLine
 10
7173.620346402031
 20
8831.365915108476
 30
0.0
 11
7145.620346401978
 21
8831.365915108483
 31
0.0
  0
LINE
  5
146C2
330
747D
100
AcDbEntity
  8
部品1
 48
50.0
100
AcDbLine
 10
7173.620346402021
 20
8831.365915108483
 30
0.0
 11
7201.620346402005
 21
8831.365915108483
 31
0.0
  0
LINE
  5
146C3
330
747D
100
AcDbEntity
  8
部品1
 48
50.0
100
AcDbLine
 10
7173.620346402021
 20
8869.365915108481
 30
0.0
 11
7201.620346402005
 21
8869.365915108483
 31
0.0
  0
ARC
  5
1475B
330
747D
100
AcDbEntity
  8
想像線
 48
10.0
100
AcDbCircle
 10
7121.268295724885
 20
8358.060808484042
 30
0.0
 40
722.6499369155593
100
AcDbArc
 50
180.1343808685509
 51
270.5829222700353
  0
LINE
  5
1475C
330
747D
100
AcDbEntity
  8
想像線
 48
10.0
100
AcDbLine
 10
7128.620346402043
 20
8356.365915108472
 30
0.0
 11
7128.620346402043
 21
7635.448271452681
 31
0.0
  0
LINE
  5
14760
330
747D
100
AcDbEntity
  8
想像線
 48
10.0
100
AcDbLine
 10
7948.620346402043
 20
8356.365915108483
 30
0.0
 11
7948.620346402043
 21
7635.448271452691
 31
0.0
  0
ARC
  5
14761
330
747D
100
AcDbEntity
  8
想像線
 48
10.0
100
AcDbCircle
 10
7941.268295724885
 20
8358.06080848406
 30
0.0
 40
722.6499369155619
100
AcDbArc
 50
180.1343808685487
 51
270.5829222700353
  0
LINE
  5
148D5
330
747D
100
AcDbEntity
  8
細線
 48
50.0
100
AcDbLine
 10
6793.620346402052
 20
9284.865915108465
 30
0.0
 11
6733.620346402052
 21
9284.86591510846
 31
0.0
  0
LINE
  5
148D6
330
747D
100
AcDbEntity
  8
細線
 48
50.0
100
AcDbLine
 10
6733.620346402052
 20
9284.865915108461
 30
0.0
 11
6733.620346402048
 21
9306.365915108459
 31
0.0
  0
LINE
  5
148D7
330
747D
100
AcDbEntity
  8
細線
 48
50.0
100
AcDbLine
 10
6793.620346402052
 20
9284.865915108465
 30
0.0
 11
6793.620346402049
 21
9306.365915108466
 31
0.0
  0
LINE
  5
148D8
330
747D
100
AcDbEntity
  8
細線
 48
50.0
100
AcDbLine
 10
7613.620346402052
 20
9284.865915108545
 30
0.0
 11
7553.620346402052
 21
9284.865915108541
 31
0.0
  0
LINE
  5
148D9
330
747D
100
AcDbEntity
  8
細線
 48
50.0
100
AcDbLine
 10
7613.620346402052
 20
9284.865915108545
 30
0.0
 11
7613.62034640205
 21
9306.365915108548
 31
0.0
  0
LINE
  5
148DA
330
747D
100
AcDbEntity
  8
細線
 48
50.0
100
AcDbLine
 10
7553.620346402052
 20
9284.865915108543
 30
0.0
 11
7553.620346402048
 21
9306.365915108541
 31
0.0
  0
LINE
  5
14933
330
747D
100
AcDbEntity
  8
細線
 48
50.0
100
AcDbLine
 10
6522.620346402044
 20
8382.365915108437
 30
0.0
 11
6522.620346402044
 21
8356.365915108391
 31
0.0
  0
LINE
  5
14934
330
747D
100
AcDbEntity
  8
細線
 48
50.0
100
AcDbLine
 10
6708.620346402044
 20
8382.365915108428
 30
0.0
 11
6708.620346402044
 21
8356.365915108391
 31
0.0
  0
LINE
  5
14935
330
747D
100
AcDbEntity
  8
細線
 48
50.0
100
AcDbLine
 10
6748.620346402043
 20
8382.365915108428
 30
0.0
 11
6748.620346402043
 21
8356.365915108391
 31
0.0
  0
LINE
  5
14936
330
747D
100
AcDbEntity
  8
細線
 48
50.0
100
AcDbLine
 10
6975.620346402044
 20
8382.365915108641
 30
0.0
 11
6975.620346402044
 21
8356.365915108602
 31
0.0
  0
LINE
  5
14937
330
747D
100
AcDbEntity
  8
細線
 48
50.0
100
AcDbLine
 10
6935.620346402044
 20
8382.365915108641
 30
0.0
 11
6935.620346402044
 21
8356.365915108602
 31
0.0
  0
LINE
  5
14938
330
747D
100
AcDbEntity
  8
細線
 48
50.0
100
AcDbLine
 10
7342.620346402043
 20
8382.365915108437
 30
0.0
 11
7342.620346402043
 21
8356.365915108391
 31
0.0
  0
LINE
  5
14939
330
747D
100
AcDbEntity
  8
細線
 48
50.0
100
AcDbLine
 10
7568.620346402044
 20
8382.365915108428
 30
0.0
 11
7568.620346402044
 21
8356.365915108391
 31
0.0
  0
LINE
  5
1493A
330
747D
100
AcDbEntity
  8
細線
 48
50.0
100
AcDbLine
 10
7528.620346402043
 20
8382.365915108428
 30
0.0
 11
7528.620346402043
 21
8356.365915108391
 31
0.0
  0
LINE
  5
1493B
330
747D
100
AcDbEntity
  8
細線
 48
50.0
100
AcDbLine
 10
7755.620346402044
 20
8382.365915108641
 30
0.0
 11
7755.620346402044
 21
8356.365915108602
 31
0.0
  0
LINE
  5
1493C
330
747D
100
AcDbEntity
  8
細線
 48
50.0
100
AcDbLine
 10
7795.620346402043
 20
8382.365915108641
 30
0.0
 11
7795.620346402043
 21
8356.365915108602
 31
0.0
  0
ARC
  5
14948
330
747D
100
AcDbEntity
  8
想像線
 48
10.0
100
AcDbCircle
 10
5481.268295724884
 20
8358.060808484042
 30
0.0
 40
722.6499369155593
100
AcDbArc
 50
180.1343808685509
 51
270.5829222700353
  0
LINE
  5
14949
330
747D
100
AcDbEntity
  8
部品1
100
AcDbLine
 10
5478.120346402028
 20
8487.865915108482
 30
0.0
 11
4770.121317828437
 21
8487.864832799994
 31
0.0
  0
LINE
  5
1494A
330
747D
100
AcDbEntity
  8
部品1
100
AcDbLine
 10
5488.620346402043
 20
8382.365915108525
 30
0.0
 11
4758.620346402043
 21
8382.365915108461
 31
0.0
  0
LINE
  5
1494B
330
747D
100
AcDbEntity
  8
部品1
 48
5.0
100
AcDbLine
 10
4756.620346402044
 20
8385.865915108356
 30
0.0
 11
5509.620346402045
 21
8385.865915108473
 31
0.0
  0
LINE
  5
1494C
330
747D
100
AcDbEntity
  8
破線
 48
10.0
100
AcDbLine
 10
5454.620346402037
 20
8511.365915108482
 30
0.0
 11
4793.620346402037
 21
8511.365915108443
 31
0.0
  0
LINE
  5
1494D
330
747D
100
AcDbEntity
  8
細線
 48
50.0
100
AcDbLine
 10
5504.12035307968
 20
9276.865915108542
 30
0.0
 11
4743.12035307968
 21
8826.865915108438
 31
0.0
  0
LINE
  5
1494E
330
747D
100
AcDbEntity
  8
細線
 48
50.0
100
AcDbLine
 10
5504.120353079679
 20
8826.865915108543
 30
0.0
 11
4743.120353079679
 21
9276.865915108441
 31
0.0
  0
LINE
  5
1494F
330
747D
100
AcDbEntity
  8
部品1
100
AcDbLine
 10
4743.120353079681
 20
8826.865915108438
 30
0.0
 11
5504.120353079679
 21
8826.865915108543
 31
0.0
  0
LINE
  5
14950
330
747D
100
AcDbEntity
  8
部品1
100
AcDbLine
 10
4743.120353079679
 20
9276.865915108441
 30
0.0
 11
5504.12035307968
 21
9276.865915108547
 31
0.0
  0
DIMENSION
  5
14951
330
747D
100
AcDbEntity
  8
寸法
100
AcDbDimension
  2
*D16
 10
5445.426856785716
 20
8607.818804865454
 30
0.0
 11
5064.92685678571
 21
8607.818804865454
 31
0.0
 70
   160
 71
     5
 42
761.0000000000118
  3
INABA_S40G
100
AcDbAlignedDimension
 13
4743.120353079682
 23
8826.865915108438
 33
0.0
 14
5504.120353079694
 24
8826.865915108433
 34
0.0
100
AcDbRotatedDimension
1001
ACAD
1000
DSTYLE
1002
{
1002
}
  0
LINE
  5
14953
330
747D
100
AcDbEntity
  8
部品1
100
AcDbLine
 10
4741.62034640205
 20
9278.365915108434
 30
0.0
 11
5531.001049420652
 21
9278.365915108482
 31
0.0
  0
LINE
  5
14955
330
747D
100
AcDbEntity
  8
部品1
 48
5.0
100
AcDbLine
 10
4770.121317827007
 20
8487.86591510853
 30
0.0
 11
4770.120824895696
 21
8826.865915108443
 31
0.0
  0
LINE
  5
14956
330
747D
100
AcDbEntity
  8
破線
 48
10.0
100
AcDbLine
 10
4793.620411326751
 20
8826.865915108443
 30
0.0
 11
4793.620346402037
 21
8511.365915108443
 31
0.0
  0
LINE
  5
14957
330
747D
100
AcDbEntity
  8
部品1
100
AcDbLine
 10
4713.620346402016
 20
9306.365915108401
 30
0.0
 11
4713.620346402044
 21
8356.365915108391
 31
0.0
  0
LINE
  5
14958
330
747D
100
AcDbEntity
  8
部品1
100
AcDbLine
 10
4741.620346402025
 20
8411.365915108387
 30
0.0
 11
4741.62034640205
 21
9278.365915108434
 31
0.0
  0
LINE
  5
14959
330
747D
100
AcDbEntity
  8
部品1
 48
2.83
100
AcDbLine
 10
4713.620346402044
 20
8411.365915108353
 30
0.0
 11
4736.620346402044
 21
8411.365915108355
 31
0.0
  0
LINE
  5
1495C
330
747D
100
AcDbEntity
  8
部品1
100
AcDbLine
 10
4741.620346402025
 20
8411.365915108353
 30
0.0
 11
4713.620346402041
 21
8411.365915108353
 31
0.0
  0
LINE
  5
1495D
330
747D
100
AcDbEntity
  8
部品1
100
AcDbLine
 10
4741.620346402025
 20
8411.365915108387
 30
0.0
 11
4713.620346402041
 21
8411.365915108387
 31
0.0
  0
LINE
  5
1495E
330
747D
100
AcDbEntity
  8
部品1
100
AcDbLine
 10
4741.620346402042
 20
8411.365915108401
 30
0.0
 11
4713.620346402041
 21
8411.365915108401
 31
0.0
  0
LINE
  5
1495F
330
747D
100
AcDbEntity
  8
部品1
 48
2.83
100
AcDbLine
 10
4713.620346402044
 20
8356.365915108353
 30
0.0
 11
4713.620346402044
 21
8411.365915108353
 31
0.0
  0
LINE
  5
14960
330
747D
100
AcDbEntity
  8
部品1
100
AcDbLine
 10
4713.620346402041
 20
8411.365915108353
 30
0.0
 11
4713.620346402044
 21
8356.365915108353
 31
0.0
  0
LINE
  5
14961
330
747D
100
AcDbEntity
  8
細線
 48
50.0
100
AcDbLine
 10
4882.620346402044
 20
8382.365915108437
 30
0.0
 11
4882.620346402044
 21
8356.365915108391
 31
0.0
  0
LINE
  5
14962
330
747D
100
AcDbEntity
  8
部品1
 48
50.0
100
AcDbLine
 10
4770.121317828437
 20
8487.864832799994
 30
0.0
 11
4741.620346402026
 21
8458.845661867529
 31
0.0
  0
LINE
  5
14963
330
747D
100
AcDbEntity
  8
部品1
100
AcDbLine
 10
4758.620346402043
 20
8382.365915108461
 30
0.0
 11
4758.620346402043
 21
8356.365915108424
 31
0.0
  0
LINE
  5
14964
330
747D
100
AcDbEntity
  8
部品1
 48
2.83
100
AcDbLine
 10
4756.620346402044
 20
8385.865915108356
 30
0.0
 11
4756.620346402044
 21
8356.365915108355
 31
0.0
  0
LINE
  5
14965
330
747D
100
AcDbEntity
  8
部品1
 48
2.83
100
AcDbLine
 10
4768.620346402044
 20
8411.365915108353
 30
0.0
 11
4768.620346402046
 21
8385.865915108356
 31
0.0
  0
LINE
  5
14966
330
747D
100
AcDbEntity
  8
部品1
 48
2.83
100
AcDbLine
 10
4745.620346402044
 20
8411.365915108355
 30
0.0
 11
4768.620346402044
 21
8411.365915108353
 31
0.0
  0
LINE
  5
14967
330
747D
100
AcDbEntity
  8
部品1
 48
50.0
100
AcDbLine
 10
4743.120353079679
 20
9276.865915108434
 30
0.0
 11
4743.12035307968
 21
8826.865915108438
 31
0.0
  0
LINE
  5
14968
330
747D
100
AcDbEntity
  8
部品1
100
AcDbLine
 10
4741.620346402025
 20
8831.365915108401
 30
0.0
 11
4713.620346402024
 21
8831.365915108401
 31
0.0
  0
LINE
  5
14969
330
747D
100
AcDbEntity
  8
部品1
100
AcDbLine
 10
4741.620346402017
 20
9251.365915108406
 30
0.0
 11
4713.620346402017
 21
9251.365915108406
 31
0.0
  0
LINE
  5
1496A
330
747D
100
AcDbEntity
  8
部品1
 48
50.0
100
AcDbLine
 10
4743.120353079674
 20
9276.865915108441
 30
0.0
 11
4741.62034640205
 21
9278.365915108434
 31
0.0
  0
LINE
  5
1496B
330
747D
100
AcDbEntity
  8
部品1
100
AcDbLine
 10
4768.620346402015
 20
9306.365915108401
 30
0.0
 11
4768.620346402017
 21
9278.3659151084
 31
0.0
  0
LINE
  5
1496C
330
747D
100
AcDbEntity
  8
部品1
100
AcDbLine
 10
4768.62034640205
 20
9306.365915108434
 30
0.0
 11
4768.62034640205
 21
9278.365915108434
 31
0.0
  0
ARC
  5
1496D
330
747D
100
AcDbEntity
  8
想像線
 48
10.0
100
AcDbCircle
 10
6301.268295724884
 20
8358.06080848406
 30
0.0
 40
722.6499369155619
100
AcDbArc
 50
180.1343808685487
 51
270.5829222700353
  0
LINE
  5
1496E
330
747D
100
AcDbEntity
  8
想像線
 48
10.0
100
AcDbLine
 10
6308.620346402043
 20
8356.365915108483
 30
0.0
 11
6308.620346402043
 21
7635.448271452691
 31
0.0
  0
LINE
  5
1496F
330
747D
100
AcDbEntity
  8
想像線
 48
10.0
100
AcDbLine
 10
5488.620346402043
 20
8356.365915108472
 30
0.0
 11
5488.620346402043
 21
7635.448271452681
 31
0.0
  0
LINE
  5
14970
330
747D
100
AcDbEntity
  8
部品1
 48
50.0
100
AcDbLine
 10
5533.62034640203
 20
8411.365915108472
 30
0.0
 11
5533.62034640203
 21
9251.365915108481
 31
0.0
  0
LINE
  5
14971
330
747D
100
AcDbEntity
  8
部品1
 48
50.0
100
AcDbLine
 10
5589.120340057743
 20
8487.865915133141
 30
0.0
 11
5589.120343030606
 21
8826.865915108482
 31
0.0
  0
LINE
  5
14972
330
747D
100
AcDbEntity
  8
部品1
 48
50.0
100
AcDbLine
 10
5478.120346402028
 20
8487.865915108482
 30
0.0
 11
5478.120346402004
 21
8826.865915108538
 31
0.0
  0
LINE
  5
14973
330
747D
100
AcDbEntity
  8
部品1
 48
5.0
100
AcDbLine
 10
6297.119374977095
 20
8487.86591510853
 30
0.0
 11
6297.119867908405
 21
8826.865915108475
 31
0.0
  0
LINE
  5
14974
330
747D
100
AcDbEntity
  8
部品1
 48
50.0
100
AcDbLine
 10
5505.62034640203
 20
8411.365915108472
 30
0.0
 11
5505.620346401976
 21
9278.365915108482
 31
0.0
  0
LINE
  5
14975
330
747D
100
AcDbEntity
  8
部品1
 48
50.0
100
AcDbLine
 10
5561.62034640203
 20
8411.365915108472
 30
0.0
 11
5561.620346401975
 21
9306.365915108482
 31
0.0
  0
LINE
  5
14976
330
747D
100
AcDbEntity
  8
破線
 48
10.0
100
AcDbLine
 10
5454.620346402037
 20
8511.365915108479
 30
0.0
 11
5454.620338047484
 21
8826.865915108536
 31
0.0
  0
LINE
  5
14977
330
747D
100
AcDbEntity
  8
破線
 48
10.0
100
AcDbLine
 10
5612.620346402036
 20
8511.365915108489
 30
0.0
 11
5612.620333970927
 21
8826.865915108482
 31
0.0
  0
DIMENSION
  5
14978
330
747D
100
AcDbEntity
  8
寸法
100
AcDbDimension
  2
*D15
 10
6265.426850108017
 20
8607.8188048655
 30
0.0
 11
5942.467408520252
 21
8607.8188048655
 31
0.0
 70
   160
 71
     5
 42
761.0000000000118
  3
INABA_S40G
100
AcDbAlignedDimension
 13
5563.120346401983
 23
8826.865915108482
 33
0.0
 14
6324.120346401994
 24
8826.865915108479
 34
0.0
100
AcDbRotatedDimension
1001
ACAD
1000
DSTYLE
1002
{
1002
}
  0
LINE
  5
1497A
330
747D
100
AcDbEntity
  8
部品1
100
AcDbLine
 10
6325.62034640205
 20
9278.365915108528
 30
0.0
 11
6325.620346402027
 21
8411.365915108515
 31
0.0
  0
LINE
  5
1497B
330
747D
100
AcDbEntity
  8
破線
 48
10.0
100
AcDbLine
 10
6273.620411326718
 20
8826.865915108477
 30
0.0
 11
6273.620346402033
 21
8511.365915108525
 31
0.0
  0
DIMENSION
  5
1497C
330
747D
100
AcDbEntity
  8
寸法
 48
50.0
100
AcDbDimension
  2
*D19
 10
6273.620346402044
 20
7916.542247313349
 30
0.0
 11
5931.120346402046
 21
8016.542247313349
 31
0.0
 70
    32
 71
     5
 42
684.9999999999972
  3
INABA_S40G
100
AcDbAlignedDimension
 13
5588.620346402047
 23
8356.365915108472
 33
0.0
 14
6273.620346402044
 24
8356.365915108625
 34
0.0
100
AcDbRotatedDimension
  0
LINE
  5
1497D
330
747D
100
AcDbEntity
  8
部品1
 48
5.0
100
AcDbLine
 10
6329.620346402045
 20
8385.865915108473
 30
0.0
 11
5557.620346402046
 21
8385.865915108473
 31
0.0
  0
LINE
  5
1497E
330
747D
100
AcDbEntity
  8
部品1
100
AcDbLine
 10
6308.620346402043
 20
8382.365915108525
 30
0.0
 11
5578.620346402043
 21
8382.365915108463
 31
0.0
  0
LINE
  5
1497F
330
747D
100
AcDbEntity
  8
破線
 48
10.0
100
AcDbLine
 10
6273.620346402029
 20
8511.365915108525
 30
0.0
 11
5612.620346402036
 21
8511.365915108489
 31
0.0
  0
LINE
  5
14980
330
747D
100
AcDbEntity
  8
部品1
100
AcDbLine
 10
6297.119374977235
 20
8487.866020821368
 30
0.0
 11
5589.120346402027
 21
8487.865915133143
 31
0.0
  0
LINE
  5
14981
330
747D
100
AcDbEntity
  8
細線
 48
50.0
100
AcDbLine
 10
5108.620346402044
 20
8382.365915108428
 30
0.0
 11
5108.620346402044
 21
8356.365915108391
 31
0.0
  0
LINE
  5
14982
330
747D
100
AcDbEntity
  8
細線
 48
50.0
100
AcDbLine
 10
5068.620346402044
 20
8382.365915108428
 30
0.0
 11
5068.620346402044
 21
8356.365915108391
 31
0.0
  0
LINE
  5
14983
330
747D
100
AcDbEntity
  8
細線
 48
50.0
100
AcDbLine
 10
5295.620346402044
 20
8382.365915108641
 30
0.0
 11
5295.620346402044
 21
8356.365915108602
 31
0.0
  0
LINE
  5
14984
330
747D
100
AcDbEntity
  8
細線
 48
50.0
100
AcDbLine
 10
5335.620346402044
 20
8382.365915108641
 30
0.0
 11
5335.620346402044
 21
8356.365915108602
 31
0.0
  0
LINE
  5
14985
330
747D
100
AcDbEntity
  8
部品1
 48
5.0
100
AcDbLine
 10
5505.62034640203
 20
8411.365915108472
 30
0.0
 11
5561.62034640203
 21
8411.365915108472
 31
0.0
  0
LINE
  5
14987
330
747D
100
AcDbEntity
  8
部品1
 48
50.0
100
AcDbLine
 10
5505.62034640203
 20
8459.865915108471
 30
0.0
 11
5478.120346402028
 21
8487.865915108482
 31
0.0
  0
LINE
  5
14988
330
747D
100
AcDbEntity
  8
部品1
 48
0.2
100
AcDbLine
 10
5475.682794230722
 20
8349.363545063692
 30
0.0
 11
5480.682794230722
 21
8349.363545063692
 31
0.0
  0
ARC
  5
14989
330
747D
100
AcDbEntity
  8
細線
 48
0.2
100
AcDbCircle
 10
5480.682794230722
 20
8357.363545063693
 30
0.0
 40
4.049999999999999
100
AcDbArc
 50
194.2603506853988
 51
345.7396493146012
  0
ARC
  5
1498A
330
747D
100
AcDbEntity
  8
部品1
 48
0.2
100
AcDbCircle
 10
5475.682794230722
 20
8357.363545063693
 30
0.0
 40
8.0
100
AcDbArc
 50
187.1636477221926
 51
269.9999999999992
  0
ARC
  5
1498B
330
747D
100
AcDbEntity
  8
部品1
 48
0.2
100
AcDbCircle
 10
5480.682794230722
 20
8357.363545063693
 30
0.0
 40
8.0
100
AcDbArc
 50
270.0
 51
352.8363522778074
  0
LINE
  5
1498C
330
747D
100
AcDbEntity
  8
部品1
 48
5.0
100
AcDbLine
 10
5501.620346402045
 20
8411.365915108472
 30
0.0
 11
5478.620346402044
 21
8411.365915108472
 31
0.0
  0
LINE
  5
1498D
330
747D
100
AcDbEntity
  8
部品1
 48
5.0
100
AcDbLine
 10
5478.620346402045
 20
8411.365915108474
 30
0.0
 11
5478.620346402046
 21
8385.865915108473
 31
0.0
  0
LINE
  5
1498E
330
747D
100
AcDbEntity
  8
部品1
 48
5.0
100
AcDbLine
 10
5509.620346402045
 20
8411.365915108472
 30
0.0
 11
5509.620346402045
 21
8385.865915108473
 31
0.0
  0
LINE
  5
1498F
330
747D
100
AcDbEntity
  8
部品1
 48
5.0
100
AcDbLine
 10
5490.620346402046
 20
8385.865915108473
 30
0.0
 11
5490.620346402046
 21
8356.365915108472
 31
0.0
  0
LINE
  5
14990
330
747D
100
AcDbEntity
  8
部品1
100
AcDbLine
 10
5490.620346402042
 20
8385.865915108418
 30
0.0
 11
5490.620346402041
 21
8356.365915108467
 31
0.0
  0
LINE
  5
14991
330
747D
100
AcDbEntity
  8
部品1
100
AcDbLine
 10
5488.620346402043
 20
8382.365915108525
 30
0.0
 11
5488.620346402043
 21
8356.365915108469
 31
0.0
  0
LINE
  5
14992
330
747D
100
AcDbEntity
  8
細線
 48
50.0
100
AcDbLine
 10
5702.620346402044
 20
8382.365915108437
 30
0.0
 11
5702.620346402044
 21
8356.365915108391
 31
0.0
  0
LINE
  5
14993
330
747D
100
AcDbEntity
  8
部品1
 48
50.0
100
AcDbLine
 10
5589.120346402027
 20
8487.865915133143
 30
0.0
 11
5561.62034640203
 21
8459.865915108471
 31
0.0
  0
LINE
  5
14994
330
747D
100
AcDbEntity
  8
部品1
 48
5.0
100
AcDbLine
 10
5565.620346402045
 20
8411.365915108472
 30
0.0
 11
5588.620346402045
 21
8411.365915108472
 31
0.0
  0
LINE
  5
14995
330
747D
100
AcDbEntity
  8
部品1
 48
5.0
100
AcDbLine
 10
5557.620346402046
 20
8411.365915108472
 30
0.0
 11
5557.620346402046
 21
8385.865915108473
 31
0.0
  0
LINE
  5
14996
330
747D
100
AcDbEntity
  8
部品1
 48
5.0
100
AcDbLine
 10
5588.620346402045
 20
8411.365915108472
 30
0.0
 11
5588.620346402047
 21
8385.865915108473
 31
0.0
  0
LINE
  5
14997
330
747D
100
AcDbEntity
  8
部品1
 48
5.0
100
AcDbLine
 10
5576.620346402045
 20
8385.865915108473
 30
0.0
 11
5576.620346402045
 21
8356.365915108472
 31
0.0
  0
LINE
  5
14998
330
747D
100
AcDbEntity
  8
部品1
100
AcDbLine
 10
5578.620346402043
 20
8382.365915108463
 30
0.0
 11
5578.620346402042
 21
8356.365915108474
 31
0.0
  0
LINE
  5
14999
330
747D
100
AcDbEntity
  8
部品1
100
AcDbLine
 10
5576.620346402044
 20
8385.865915108425
 30
0.0
 11
5576.620346402045
 21
8356.365915108472
 31
0.0
  0
LINE
  5
1499A
330
747D
100
AcDbEntity
  8
細線
 48
50.0
100
AcDbLine
 10
5888.620346402044
 20
8382.365915108428
 30
0.0
 11
5888.620346402044
 21
8356.365915108391
 31
0.0
  0
LINE
  5
1499B
330
747D
100
AcDbEntity
  8
細線
 48
50.0
100
AcDbLine
 10
5928.620346402044
 20
8382.365915108428
 30
0.0
 11
5928.620346402044
 21
8356.365915108391
 31
0.0
  0
LINE
  5
1499C
330
747D
100
AcDbEntity
  8
細線
 48
50.0
100
AcDbLine
 10
6155.620346402043
 20
8382.365915108641
 30
0.0
 11
6155.620346402043
 21
8356.365915108602
 31
0.0
  0
LINE
  5
1499D
330
747D
100
AcDbEntity
  8
細線
 48
50.0
100
AcDbLine
 10
6115.620346402043
 20
8382.365915108641
 30
0.0
 11
6115.620346402043
 21
8356.365915108602
 31
0.0
  0
LINE
  5
1499E
330
747D
100
AcDbEntity
  8
部品1
 48
50.0
100
AcDbLine
 10
6325.620346402027
 20
8458.846849916119
 30
0.0
 11
6297.119374977235
 21
8487.866020821368
 31
0.0
  0
ARC
  5
1499F
330
747D
100
AcDbEntity
  8
細線
 48
0.2
100
AcDbCircle
 10
6300.682794230723
 20
8357.363545063712
 30
0.0
 40
4.049999999999999
100
AcDbArc
 50
194.2603506853988
 51
345.7396493146012
  0
ARC
  5
149A0
330
747D
100
AcDbEntity
  8
部品1
 48
0.2
100
AcDbCircle
 10
6295.682794230723
 20
8357.363545063712
 30
0.0
 40
8.0
100
AcDbArc
 50
187.1636477221926
 51
269.9999999999992
  0
ARC
  5
149A1
330
747D
100
AcDbEntity
  8
部品1
 48
0.2
100
AcDbCircle
 10
6300.682794230723
 20
8357.363545063712
 30
0.0
 40
8.0
100
AcDbArc
 50
270.0
 51
352.8363522778074
  0
LINE
  5
149A2
330
747D
100
AcDbEntity
  8
部品1
 48
0.2
100
AcDbLine
 10
6295.682794230723
 20
8349.363545063713
 30
0.0
 11
6300.682794230723
 21
8349.363545063713
 31
0.0
  0
LINE
  5
149A3
330
747D
100
AcDbEntity
  8
部品1
100
AcDbLine
 10
6308.620346402043
 20
8382.365915108525
 30
0.0
 11
6308.620346402044
 21
8356.365915108517
 31
0.0
  0
LINE
  5
149A4
330
747D
100
AcDbEntity
  8
部品1
 48
2.83
100
AcDbLine
 10
6310.620346402025
 20
8385.865915108487
 30
0.0
 11
6310.620346402025
 21
8356.365915108487
 31
0.0
  0
LINE
  5
149A5
330
747D
100
AcDbEntity
  8
部品1
 48
2.83
100
AcDbLine
 10
6298.620346402025
 20
8411.365915108484
 30
0.0
 11
6298.620346402024
 21
8385.865915108487
 31
0.0
  0
LINE
  5
149A7
330
747D
100
AcDbEntity
  8
部品1
 48
2.83
100
AcDbLine
 10
6321.620346402024
 20
8411.365915108488
 30
0.0
 11
6298.620346402024
 21
8411.365915108484
 31
0.0
  0
LINE
  5
149AA
330
747D
100
AcDbEntity
  8
部品1
100
AcDbLine
 10
5561.620346401975
 20
9278.365915108484
 30
0.0
 11
6351.001049420652
 21
9278.365915108482
 31
0.0
  0
LINE
  5
149AB
330
747D
100
AcDbEntity
  8
部品1
100
AcDbLine
 10
5563.120346401982
 20
8826.865915108482
 30
0.0
 11
6324.120346401984
 21
8826.865915108475
 31
0.0
  0
LINE
  5
149AC
330
747D
100
AcDbEntity
  8
細線
 48
50.0
100
AcDbLine
 10
6324.120346401984
 20
9276.865915108476
 30
0.0
 11
5563.120346401982
 21
8826.865915108482
 31
0.0
  0
LINE
  5
149AD
330
747D
100
AcDbEntity
  8
細線
 48
50.0
100
AcDbLine
 10
6324.120346401984
 20
8826.865915108475
 30
0.0
 11
5563.120346401983
 21
9276.865915108478
 31
0.0
  0
LINE
  5
149AE
330
747D
100
AcDbEntity
  8
部品1
100
AcDbLine
 10
5563.120346401983
 20
9276.865915108484
 30
0.0
 11
6324.120346401984
 21
9276.865915108476
 31
0.0
  0
LINE
  5
149AF
330
747D
100
AcDbEntity
  8
部品1
 48
50.0
100
AcDbLine
 10
5563.120346401983
 20
9276.865915108478
 30
0.0
 11
5563.120346401983
 21
8826.865915108482
 31
0.0
  0
LINE
  5
149B0
330
747D
100
AcDbEntity
  8
部品1
 48
50.0
100
AcDbLine
 10
5504.12035307968
 20
9276.865915108542
 30
0.0
 11
5504.12035307968
 21
8826.865915108543
 31
0.0
  0
LINE
  5
149B1
330
747D
100
AcDbEntity
  8
部品1
 48
50.0
100
AcDbLine
 10
5533.62034640202
 20
8869.365915108481
 30
0.0
 11
5561.620346402005
 21
8869.365915108483
 31
0.0
  0
LINE
  5
149B2
330
747D
100
AcDbEntity
  8
部品1
 48
50.0
100
AcDbLine
 10
5533.62034640202
 20
8831.365915108483
 30
0.0
 11
5561.620346402005
 21
8831.365915108483
 31
0.0
  0
LINE
  5
149B3
330
747D
100
AcDbEntity
  8
部品1
 48
5.0
100
AcDbLine
 10
5533.62034640203
 20
8831.365915108476
 30
0.0
 11
5505.620346401977
 21
8831.365915108483
 31
0.0
  0
LINE
  5
149B4
330
747D
100
AcDbEntity
  8
細線
 48
50.0
100
AcDbLine
 10
5153.620346402052
 20
9284.865915108465
 30
0.0
 11
5153.62034640205
 21
9306.365915108466
 31
0.0
  0
LINE
  5
149B5
330
747D
100
AcDbEntity
  8
細線
 48
50.0
100
AcDbLine
 10
5093.620346402052
 20
9284.865915108461
 30
0.0
 11
5093.620346402049
 21
9306.365915108459
 31
0.0
  0
LINE
  5
149B6
330
747D
100
AcDbEntity
  8
細線
 48
50.0
100
AcDbLine
 10
5153.620346402052
 20
9284.865915108465
 30
0.0
 11
5093.620346402051
 21
9284.86591510846
 31
0.0
  0
LINE
  5
149B7
330
747D
100
AcDbEntity
  8
部品1
 48
5.0
100
AcDbLine
 10
5561.620346401978
 20
9251.365915108481
 30
0.0
 11
5505.620346401977
 21
9251.365915108481
 31
0.0
  0
LINE
  5
149B8
330
747D
100
AcDbEntity
  8
部品1
 48
5.0
100
AcDbLine
 10
5508.329620849224
 20
9306.365915108477
 30
0.0
 11
5531.001049420653
 21
9278.365915108482
 31
0.0
  0
LINE
  5
149B9
330
747D
100
AcDbEntity
  8
部品1
 48
5.0
100
AcDbLine
 10
5478.620346402048
 20
9278.365915108478
 30
0.0
 11
5478.620346402049
 21
9306.365915108477
 31
0.0
  0
LINE
  5
149BA
330
747D
100
AcDbEntity
  8
部品1
 48
50.0
100
AcDbLine
 10
5504.120353079681
 20
9276.811402448727
 30
0.0
 11
5505.620346401976
 21
9278.365915108478
 31
0.0
  0
LINE
  5
149BB
330
747D
100
AcDbEntity
  8
部品1
 48
5.0
100
AcDbLine
 10
5588.620346402052
 20
9306.365915108484
 30
0.0
 11
5588.620346402048
 21
9278.365915108485
 31
0.0
  0
LINE
  5
149BC
330
747D
100
AcDbEntity
  8
部品1
 48
50.0
100
AcDbLine
 10
5563.120346401983
 20
9276.81139358822
 30
0.0
 11
5561.620346401976
 21
9278.365915108482
 31
0.0
  0
LINE
  5
149BD
330
747D
100
AcDbEntity
  8
部品1
100
AcDbLine
 10
6324.120346401984
 20
9276.865915108476
 30
0.0
 11
6324.120346401984
 21
8826.865915108475
 31
0.0
  0
LINE
  5
149BF
330
747D
100
AcDbEntity
  8
細線
 48
50.0
100
AcDbLine
 10
5913.620346402051
 20
9284.865915108543
 30
0.0
 11
5913.620346402049
 21
9306.365915108541
 31
0.0
  0
LINE
  5
149C0
330
747D
100
AcDbEntity
  8
細線
 48
50.0
100
AcDbLine
 10
5973.620346402052
 20
9284.865915108545
 30
0.0
 11
5973.620346402049
 21
9306.365915108548
 31
0.0
  0
LINE
  5
149C1
330
747D
100
AcDbEntity
  8
細線
 48
50.0
100
AcDbLine
 10
5973.620346402052
 20
9284.865915108545
 30
0.0
 11
5913.620346402051
 21
9284.865915108541
 31
0.0
  0
LINE
  5
149C2
330
747D
100
AcDbEntity
  8
部品1
 48
50.0
100
AcDbLine
 10
6324.120339724375
 20
9276.865915108478
 30
0.0
 11
6325.62034640205
 21
9278.365915108528
 31
0.0
  0
LINE
  5
149C4
330
747D
100
AcDbEntity
  8
部品1
100
AcDbLine
 10
6298.620346402051
 20
9306.365915108528
 30
0.0
 11
6298.620346402051
 21
9278.365915108528
 31
0.0
  0
LINE
  5
149C5
330
747D
100
AcDbEntity
  8
部品1
100
AcDbLine
 10
6298.620346402051
 20
9306.365915108548
 30
0.0
 11
6298.620346402051
 21
9278.365915108548
 31
0.0
  0
DIMENSION
  5
149C6
330
747D
100
AcDbEntity
  8
寸法
 48
50.0
100
AcDbDimension
  2
*D18
 10
5588.620346402052
 20
9522.174134733532
 30
0.0
 11
5943.620346402052
 21
9622.174134733533
 31
0.0
 70
    32
 71
     5
 42
709.9999999999981
  3
INABA_S40G
100
AcDbAlignedDimension
 13
6298.620346402051
 23
9306.365915108548
 33
0.0
 14
5588.620346402052
 24
9306.365915108532
 34
0.0
100
AcDbRotatedDimension
  0
DIMENSION
  5
149C7
330
747D
100
AcDbEntity
  8
寸法
 48
50.0
100
AcDbDimension
  2
*D17
 10
5588.620346402052
 20
9522.174134733532
 30
0.0
 11
5533.620346402051
 21
9622.174134733533
 31
0.0
 70
    32
 71
     5
 42
110.0000000000036
  3
INABA_S40G
100
AcDbAlignedDimension
 13
5478.620346402049
 23
9306.365915108555
 33
0.0
 14
5588.620346402052
 24
9306.365915108532
 34
0.0
100
AcDbRotatedDimension
  0
DIMENSION
  5
149C8
330
747D
100
AcDbEntity
  8
寸法
100
AcDbDimension
  2
*D14
 10
5478.620346402049
 20
9522.174134733532
 30
0.0
 11
5123.870346402049
 21
9522.174134733532
 31
0.0
 70
   160
 71
     5
 42
709.999999999999
  3
INABA_S40G
100
AcDbAlignedDimension
 13
4768.62034640205
 23
9306.365915108434
 33
0.0
 14
5478.620346402049
 24
9306.365915108555
 34
0.0
100
AcDbRotatedDimension
1001
ACAD
1000
DSTYLE
1002
{
1002
}
  0
DIMENSION
  5
14A13
330
747D
100
AcDbEntity
  8
寸法
 48
50.0
100
AcDbDimension
  2
*D20
 10
6408.620346402052
 20
9522.174134733532
 30
0.0
 11
6353.620346402051
 21
9622.174134733533
 31
0.0
 70
    32
 71
     5
 42
110.0000000000036
  3
INABA_S40G
100
AcDbAlignedDimension
 13
6298.620346402049
 23
9306.365915108555
 33
0.0
 14
6408.620346402052
 24
9306.365915108532
 34
0.0
100
AcDbRotatedDimension
  0
DIMENSION
  5
14A22
330
747D
100
AcDbEntity
  8
寸法
 48
50.0
100
AcDbDimension
  2
*D21
 10
7913.620346402044
 20
7916.542247313349
 30
0.0
 11
7571.120346402046
 21
7916.542247313349
 31
0.0
 70
   160
  1
有効開口部間口\P<>
 71
     5
 42
684.9999999999954
  3
INABA_S40G
100
AcDbAlignedDimension
 13
7228.620346402049
 23
8356.365915108426
 33
0.0
 14
7913.620346402044
 24
8356.365915108391
 34
0.0
100
AcDbRotatedDimension
  0
DIMENSION
  5
14A2F
330
747D
100
AcDbEntity
  8
寸法
 48
50.0
100
AcDbDimension
  2
*D22
 10
7093.620346402044
 20
7916.542247313349
 30
0.0
 11
6751.120346402045
 21
8016.542247313349
 31
0.0
 70
    32
 71
     5
 42
684.9999999999972
  3
INABA_S40G
100
AcDbAlignedDimension
 13
6408.620346402047
 23
8356.365915108472
 33
0.0
 14
7093.620346402044
 24
8356.365915108625
 34
0.0
100
AcDbRotatedDimension
  0
DIMENSION
  5
14A61
330
747D
100
AcDbEntity
  8
寸法
 48
50.0
100
AcDbDimension
  2
*D23
 10
4713.62034640205
 20
9522.174134733532
 30
0.0
 11
4405.135065027811
 21
9522.174134733532
 31
0.0
 70
   160
 71
     5
 42
55.0
  3
INABA_S40G
100
AcDbAlignedDimension
 13
4768.62034640205
 23
9306.365915108438
 33
0.0
 14
4713.62034640205
 24
9306.365915108434
 34
0.0
100
AcDbRotatedDimension
  0
LINE
  5
14A6F
330
747D
100
AcDbEntity
  8
部品1
 48
5.0
100
AcDbLine
 10
6328.329620849224
 20
9306.365915108477
 30
0.0
 11
6351.001049420652
 21
9278.365915108482
 31
0.0
  0
LINE
  5
14A70
330
747D
100
AcDbEntity
  8
部品1
 48
50.0
100
AcDbLine
 10
6353.620346402021
 20
8869.365915108481
 30
0.0
 11
6381.620346402005
 21
8869.365915108483
 31
0.0
  0
LINE
  5
14A71
330
747D
100
AcDbEntity
  8
部品1
 48
50.0
100
AcDbLine
 10
6353.62034640203
 20
8411.365915108472
 30
0.0
 11
6353.62034640203
 21
9251.365915108481
 31
0.0
  0
LINE
  5
14A72
330
747D
100
AcDbEntity
  8
部品1
 48
5.0
100
AcDbLine
 10
6329.620346402045
 20
8411.365915108472
 30
0.0
 11
6329.620346402045
 21
8385.865915108473
 31
0.0
  0
LINE
  5
14A73
330
747D
100
AcDbEntity
  8
部品1
 48
5.0
100
AcDbLine
 10
6377.620346402046
 20
8411.365915108472
 30
0.0
 11
6377.620346402046
 21
8385.865915108473
 31
0.0
  0
LINE
  5
14AAB
330
747D
100
AcDbEntity
  8
細線
 48
50.0
100
AcDbLine
 10
5468.557898573362
 20
5407.077276893862
 30
0.0
 11
5468.557898573362
 21
5407.327276893862
 31
0.0
  0
LINE
  5
14AAC
330
747D
100
AcDbEntity
  8
部品1
100
AcDbLine
 10
5488.557898573363
 20
5407.077276893862
 30
0.0
 11
5488.620346402043
 21
5407.07727689386
 31
0.0
  0
LINE
  5
14AAD
330
747D
100
AcDbEntity
  8
部品1
 48
50.0
100
AcDbLine
 10
5468.557898573362
 20
5400.327276893862
 30
0.0
 11
5468.557898573362
 21
5407.077276893862
 31
0.0
  0
LINE
  5
14AAE
330
747D
100
AcDbEntity
  8
細線
 48
0.2
100
AcDbLine
 10
5488.557898573361
 20
5407.327276893862
 30
0.0
 11
5468.557898573362
 21
5407.327276893862
 31
0.0
  0
LINE
  5
14AAF
330
747D
100
AcDbEntity
  8
細線
 48
0.2
100
AcDbLine
 10
5488.557898573361
 20
5402.827276893862
 30
0.0
 11
5468.557898573362
 21
5402.827276893862
 31
0.0
  0
LINE
  5
14AB0
330
747D
100
AcDbEntity
  8
細線
 48
0.2
100
AcDbLine
 10
5488.557898573361
 20
5404.827276893862
 30
0.0
 11
5468.557898573362
 21
5404.827276893862
 31
0.0
  0
LINE
  5
14AB1
330
747D
100
AcDbEntity
  8
部品1
 48
0.2
100
AcDbLine
 10
5488.557898573361
 20
5400.327276893862
 30
0.0
 11
5468.557898573362
 21
5400.327276893862
 31
0.0
  0
ARC
  5
14AB2
330
747D
100
AcDbEntity
  8
細線
 48
0.2
100
AcDbCircle
 10
5475.557898573362
 20
5407.29778672511
 30
0.0
 40
1.0
100
AcDbArc
 50
106.6015495990225
 51
180.0000000000016
  0
ARC
  5
14AB3
330
747D
100
AcDbEntity
  8
細線
 48
0.2
100
AcDbCircle
 10
5485.557898573362
 20
5407.29778672511
 30
0.0
 40
1.0
100
AcDbArc
 50
0.0
 51
73.39845040097829
  0
LINE
  5
14AB4
330
747D
100
AcDbEntity
  8
細線
 48
0.1
100
AcDbLine
 10
5488.557898573361
 20
5407.327276893862
 30
0.0
 11
5488.557898573361
 21
5400.327276893862
 31
0.0
  0
ARC
  5
14AB5
330
747D
100
AcDbEntity
  8
細線
 48
0.2
100
AcDbCircle
 10
5480.557898573362
 20
5390.527276893865
 30
0.0
 40
18.49999999999796
100
AcDbArc
 50
73.39845040097829
 51
106.6015495990228
  0
LINE
  5
14AB6
330
747D
100
AcDbEntity
  8
細線
 48
0.2
100
AcDbLine
 10
5486.241889869869
 20
5408.027276893863
 30
0.0
 11
5474.873907276858
 21
5408.027276893863
 31
0.0
  0
LINE
  5
14AB7
330
747D
100
AcDbEntity
  8
細線
 48
50.0
100
AcDbLine
 10
5476.695141379058
 20
5404.827276893862
 30
0.0
 11
5476.695141379059
 21
5402.827276893862
 31
0.0
  0
LINE
  5
14AB8
330
747D
100
AcDbEntity
  8
細線
 48
50.0
100
AcDbLine
 10
5484.545551425022
 20
5404.827276893862
 30
0.0
 11
5484.545551425022
 21
5402.827276893862
 31
0.0
  0
LINE
  5
14ACA
330
747D
100
AcDbEntity
  8
部品1
100
AcDbLine
 10
4758.620346402043
 20
5407.077276893864
 30
0.0
 11
5468.557898573362
 21
5407.077276893862
 31
0.0
  0
LINE
  5
14ACB
330
747D
100
AcDbEntity
  8
部品1
100
AcDbLine
 10
4758.620346402043
 20
3616.077276893867
 30
0.0
 11
5468.557898573362
 21
3616.077276893872
 31
0.0
  0
LINE
  5
14ACC
330
747D
100
AcDbEntity
  8
部品1
100
AcDbLine
 10
4756.620346402043
 20
5409.577276893861
 30
0.0
 11
4756.620346402043
 21
3612.577276893881
 31
0.0
  0
LINE
  5
14ACD
330
747D
100
AcDbEntity
  8
部品1
100
AcDbLine
 10
4758.620346402043
 20
5407.077276893864
 30
0.0
 11
4758.620346402042
 21
3616.077276893867
 31
0.0
  0
LINE
  5
14AF5
330
747D
100
AcDbEntity
  8
部品1
100
AcDbLine
 10
5488.620346402042
 20
5407.07727689386
 30
0.0
 11
5488.620346402045
 21
3616.077276893881
 31
0.0
  0
LINE
  5
14AF6
330
747D
100
AcDbEntity
  8
部品1
100
AcDbLine
 10
5490.620346402043
 20
5409.577276893861
 30
0.0
 11
5490.620346402043
 21
3612.577276893881
 31
0.0
  0
LINE
  5
14AF7
330
747D
100
AcDbEntity
  8
部品1
100
AcDbLine
 10
5576.620346402044
 20
5409.577276893861
 30
0.0
 11
5576.620346402044
 21
3612.577276893881
 31
0.0
  0
LINE
  5
14AF8
330
747D
100
AcDbEntity
  8
部品1
100
AcDbLine
 10
5578.620346402043
 20
5407.077276893857
 30
0.0
 11
5578.620346402043
 21
3616.077276893875
 31
0.0
  0
LINE
  5
14AF9
330
747D
100
AcDbEntity
  8
部品1
100
AcDbLine
 10
6308.620346402043
 20
5407.07727689386
 30
0.0
 11
6308.620346402045
 21
3616.077276893883
 31
0.0
  0
LINE
  5
14AFA
330
747D
100
AcDbEntity
  8
部品1
100
AcDbLine
 10
6310.620346402044
 20
5409.577276893861
 30
0.0
 11
6310.620346402044
 21
3612.577276893881
 31
0.0
  0
LINE
  5
14AFB
330
747D
100
AcDbEntity
  8
部品1
100
AcDbLine
 10
5578.620346402043
 20
3616.077276893875
 30
0.0
 11
6288.557898573363
 21
3616.077276893881
 31
0.0
  0
LINE
  5
14AFC
330
747D
100
AcDbEntity
  8
部品1
 48
50.0
100
AcDbLine
 10
5468.557898573362
 20
3622.827276893879
 30
0.0
 11
5468.557898573362
 21
3616.077276893881
 31
0.0
  0
LINE
  5
14AFD
330
747D
100
AcDbEntity
  8
細線
 48
50.0
100
AcDbLine
 10
5484.545551425022
 20
3618.327276893881
 30
0.0
 11
5484.545551425022
 21
3620.327276893879
 31
0.0
  0
LINE
  5
14AFE
330
747D
100
AcDbEntity
  8
細線
 48
50.0
100
AcDbLine
 10
5476.695141379058
 20
3618.327276893881
 30
0.0
 11
5476.695141379059
 21
3620.327276893879
 31
0.0
  0
LINE
  5
14AFF
330
747D
100
AcDbEntity
  8
細線
 48
0.1
100
AcDbLine
 10
5488.557898573361
 20
3615.827276893879
 30
0.0
 11
5488.557898573361
 21
3622.827276893879
 31
0.0
  0
LINE
  5
14B00
330
747D
100
AcDbEntity
  8
部品1
100
AcDbLine
 10
5488.557898573363
 20
3616.077276893872
 30
0.0
 11
5488.620346402043
 21
3616.077276893872
 31
0.0
  0
LINE
  5
14B01
330
747D
100
AcDbEntity
  8
部品1
100
AcDbLine
 10
5488.557898573363
 20
3616.077276893881
 30
0.0
 11
5488.620346402043
 21
3616.077276893881
 31
0.0
  0
LINE
  5
14B02
330
747D
100
AcDbEntity
  8
細線
 48
50.0
100
AcDbLine
 10
5468.557898573362
 20
3616.077276893881
 30
0.0
 11
5468.557898573362
 21
3615.827276893879
 31
0.0
  0
LINE
  5
14B03
330
747D
100
AcDbEntity
  8
細線
 48
0.2
100
AcDbLine
 10
5486.241889869869
 20
3615.127276893878
 30
0.0
 11
5474.873907276858
 21
3615.127276893878
 31
0.0
  0
ARC
  5
14B04
330
747D
100
AcDbEntity
  8
細線
 48
0.2
100
AcDbCircle
 10
5480.557898573362
 20
3632.627276893876
 30
0.0
 40
18.49999999999796
100
AcDbArc
 50
253.3984504009772
 51
286.6015495990217
  0
ARC
  5
14B05
330
747D
100
AcDbEntity
  8
細線
 48
0.2
100
AcDbCircle
 10
5475.557898573362
 20
3615.856767062631
 30
0.0
 40
1.0
100
AcDbArc
 50
179.9999999999984
 51
253.3984504009775
  0
LINE
  5
14B06
330
747D
100
AcDbEntity
  8
細線
 48
0.2
100
AcDbLine
 10
5488.557898573361
 20
3618.327276893879
 30
0.0
 11
5468.557898573362
 21
3618.327276893881
 31
0.0
  0
LINE
  5
14B07
330
747D
100
AcDbEntity
  8
細線
 48
0.2
100
AcDbLine
 10
5488.557898573361
 20
3615.827276893879
 30
0.0
 11
5468.557898573362
 21
3615.827276893879
 31
0.0
  0
ARC
  5
14B08
330
747D
100
AcDbEntity
  8
細線
 48
0.2
100
AcDbCircle
 10
5485.557898573362
 20
3615.856767062631
 30
0.0
 40
1.0
100
AcDbArc
 50
286.6015495990217
 51
0.0
  0
LINE
  5
14B09
330
747D
100
AcDbEntity
  8
部品1
 48
0.2
100
AcDbLine
 10
5488.557898573361
 20
3622.827276893879
 30
0.0
 11
5468.557898573362
 21
3622.827276893879
 31
0.0
  0
LINE
  5
14B0A
330
747D
100
AcDbEntity
  8
細線
 48
0.2
100
AcDbLine
 10
5488.557898573361
 20
3620.327276893879
 30
0.0
 11
5468.557898573362
 21
3620.327276893879
 31
0.0
  0
LINE
  5
14B0B
330
747D
100
AcDbEntity
  8
細線
 48
0.1
100
AcDbLine
 10
6308.557898573361
 20
3615.827276893879
 30
0.0
 11
6308.557898573361
 21
3622.827276893879
 31
0.0
  0
LINE
  5
14B0C
330
747D
100
AcDbEntity
  8
細線
 48
50.0
100
AcDbLine
 10
6296.695141379059
 20
3618.327276893881
 30
0.0
 11
6296.69514137906
 21
3620.327276893879
 31
0.0
  0
LINE
  5
14B0D
330
747D
100
AcDbEntity
  8
細線
 48
50.0
100
AcDbLine
 10
6304.545551425023
 20
3618.327276893881
 30
0.0
 11
6304.545551425023
 21
3620.327276893879
 31
0.0
  0
LINE
  5
14B0E
330
747D
100
AcDbEntity
  8
部品1
 48
50.0
100
AcDbLine
 10
6288.557898573362
 20
3622.827276893879
 30
0.0
 11
6288.557898573362
 21
3616.077276893881
 31
0.0
  0
LINE
  5
14B0F
330
747D
100
AcDbEntity
  8
部品1
100
AcDbLine
 10
6308.557898573362
 20
3616.077276893881
 30
0.0
 11
6308.620346402043
 21
3616.077276893881
 31
0.0
  0
ARC
  5
14B10
330
747D
100
AcDbEntity
  8
細線
 48
0.2
100
AcDbCircle
 10
6305.557898573361
 20
3615.856767062631
 30
0.0
 40
1.0
100
AcDbArc
 50
286.6015495990217
 51
0.0
  0
LINE
  5
14B11
330
747D
100
AcDbEntity
  8
細線
 48
0.2
100
AcDbLine
 10
6308.557898573361
 20
3615.827276893879
 30
0.0
 11
6288.557898573363
 21
3615.827276893879
 31
0.0
  0
LINE
  5
14B12
330
747D
100
AcDbEntity
  8
細線
 48
0.2
100
AcDbLine
 10
6308.557898573361
 20
3618.327276893879
 30
0.0
 11
6288.557898573363
 21
3618.327276893881
 31
0.0
  0
ARC
  5
14B13
330
747D
100
AcDbEntity
  8
細線
 48
0.2
100
AcDbCircle
 10
6295.557898573362
 20
3615.856767062631
 30
0.0
 40
1.0
100
AcDbArc
 50
179.9999999999984
 51
253.3984504009775
  0
ARC
  5
14B14
330
747D
100
AcDbEntity
  8
細線
 48
0.2
100
AcDbCircle
 10
6300.557898573362
 20
3632.627276893876
 30
0.0
 40
18.49999999999796
100
AcDbArc
 50
253.3984504009772
 51
286.6015495990217
  0
LINE
  5
14B15
330
747D
100
AcDbEntity
  8
細線
 48
0.2
100
AcDbLine
 10
6306.24188986987
 20
3615.127276893878
 30
0.0
 11
6294.873907276858
 21
3615.127276893878
 31
0.0
  0
LINE
  5
14B16
330
747D
100
AcDbEntity
  8
細線
 48
50.0
100
AcDbLine
 10
6288.557898573362
 20
3616.077276893881
 30
0.0
 11
6288.557898573362
 21
3615.827276893879
 31
0.0
  0
LINE
  5
14B17
330
747D
100
AcDbEntity
  8
部品1
100
AcDbLine
 10
6308.557898573362
 20
3616.077276893881
 30
0.0
 11
6308.620346402044
 21
3616.077276893881
 31
0.0
  0
LINE
  5
14B18
330
747D
100
AcDbEntity
  8
部品1
100
AcDbLine
 10
6308.557898573362
 20
3616.077276893883
 30
0.0
 11
6308.620346402044
 21
3616.077276893883
 31
0.0
  0
LINE
  5
14B19
330
747D
100
AcDbEntity
  8
細線
 48
0.2
100
AcDbLine
 10
6308.557898573361
 20
3620.327276893879
 30
0.0
 11
6288.557898573363
 21
3620.327276893879
 31
0.0
  0
LINE
  5
14B1A
330
747D
100
AcDbEntity
  8
部品1
 48
0.2
100
AcDbLine
 10
6308.557898573361
 20
3622.827276893879
 30
0.0
 11
6288.557898573362
 21
3622.827276893879
 31
0.0
  0
LINE
  5
14B42
330
747D
100
AcDbEntity
  8
部品1
100
AcDbLine
 10
5578.620346402043
 20
5407.077276893857
 30
0.0
 11
6288.557898573362
 21
5407.07727689386
 31
0.0
  0
LINE
  5
14B43
330
747D
100
AcDbEntity
  8
部品1
100
AcDbLine
 10
6308.557898573362
 20
5407.077276893859
 30
0.0
 11
6308.620346402044
 21
5407.07727689386
 31
0.0
  0
LINE
  5
14B44
330
747D
100
AcDbEntity
  8
部品1
 48
0.2
100
AcDbLine
 10
6308.557898573361
 20
5400.327276893862
 30
0.0
 11
6288.557898573362
 21
5400.327276893862
 31
0.0
  0
LINE
  5
14B45
330
747D
100
AcDbEntity
  8
部品1
100
AcDbLine
 10
6308.557898573362
 20
5407.077276893862
 30
0.0
 11
6308.620346402044
 21
5407.07727689386
 31
0.0
  0
LINE
  5
14B46
330
747D
100
AcDbEntity
  8
部品1
 48
50.0
100
AcDbLine
 10
6288.557898573362
 20
5400.327276893862
 30
0.0
 11
6288.557898573362
 21
5407.077276893862
 31
0.0
  0
LINE
  5
14B47
330
747D
100
AcDbEntity
  8
細線
 48
50.0
100
AcDbLine
 10
6288.557898573362
 20
5407.077276893862
 30
0.0
 11
6288.557898573362
 21
5407.327276893862
 31
0.0
  0
LINE
  5
14B48
330
747D
100
AcDbEntity
  8
細線
 48
0.2
100
AcDbLine
 10
6306.24188986987
 20
5408.027276893863
 30
0.0
 11
6294.873907276858
 21
5408.027276893863
 31
0.0
  0
ARC
  5
14B49
330
747D
100
AcDbEntity
  8
細線
 48
0.2
100
AcDbCircle
 10
6300.557898573362
 20
5390.527276893865
 30
0.0
 40
18.49999999999796
100
AcDbArc
 50
73.39845040097829
 51
106.6015495990228
  0
ARC
  5
14B4A
330
747D
100
AcDbEntity
  8
細線
 48
0.2
100
AcDbCircle
 10
6295.557898573362
 20
5407.29778672511
 30
0.0
 40
1.0
100
AcDbArc
 50
106.6015495990225
 51
180.0000000000016
  0
LINE
  5
14B4B
330
747D
100
AcDbEntity
  8
細線
 48
0.2
100
AcDbLine
 10
6308.557898573361
 20
5404.827276893862
 30
0.0
 11
6288.557898573363
 21
5404.827276893862
 31
0.0
  0
LINE
  5
14B4C
330
747D
100
AcDbEntity
  8
細線
 48
0.2
100
AcDbLine
 10
6308.557898573361
 20
5402.827276893862
 30
0.0
 11
6288.557898573363
 21
5402.827276893862
 31
0.0
  0
LINE
  5
14B4D
330
747D
100
AcDbEntity
  8
細線
 48
0.2
100
AcDbLine
 10
6308.557898573361
 20
5407.327276893862
 30
0.0
 11
6288.557898573363
 21
5407.327276893862
 31
0.0
  0
LINE
  5
14B4E
330
747D
100
AcDbEntity
  8
細線
 48
50.0
100
AcDbLine
 10
6304.545551425023
 20
5404.827276893862
 30
0.0
 11
6304.545551425023
 21
5402.827276893862
 31
0.0
  0
LINE
  5
14B4F
330
747D
100
AcDbEntity
  8
細線
 48
50.0
100
AcDbLine
 10
6296.695141379059
 20
5404.827276893862
 30
0.0
 11
6296.69514137906
 21
5402.827276893862
 31
0.0
  0
LINE
  5
14B50
330
747D
100
AcDbEntity
  8
細線
 48
0.1
100
AcDbLine
 10
6308.557898573361
 20
5407.327276893862
 30
0.0
 11
6308.557898573361
 21
5400.327276893862
 31
0.0
  0
ARC
  5
14B51
330
747D
100
AcDbEntity
  8
細線
 48
0.2
100
AcDbCircle
 10
6305.557898573361
 20
5407.29778672511
 30
0.0
 40
1.0
100
AcDbArc
 50
0.0
 51
73.39845040097829
  0
LINE
  5
14B89
330
747D
100
AcDbEntity
  8
細線
 48
50.0
100
AcDbLine
 10
6353.620346402045
 20
5503.577276893861
 30
0.0
 11
6353.620346402044
 21
5409.577276893861
 31
0.0
  0
LINE
  5
14B8A
330
747D
100
AcDbEntity
  8
部品1
 48
50.0
100
AcDbLine
 10
6353.620346402044
 20
3612.577276893864
 30
0.0
 11
6353.620346402044
 21
3569.577276893862
 31
0.0
  0
LINE
  5
14B8B
330
747D
100
AcDbEntity
  8
細線
 48
50.0
100
AcDbLine
 10
6343.620346402044
 20
5503.577276893862
 30
0.0
 11
6343.620346402044
 21
5644.577276893862
 31
0.0
  0
LINE
  5
14BD3
330
747D
100
AcDbEntity
  8
細線
100
AcDbLine
 10
4810.827885580787
 20
4470.577276893862
 30
0.0
 11
4810.827885580787
 21
4552.577276893862
 31
0.0
  0
LINE
  5
14BD4
330
747D
100
AcDbEntity
  8
細線
100
AcDbLine
 10
4792.620346402041
 20
4561.577276893863
 30
0.0
 11
4792.620346402041
 21
4461.577276893863
 31
0.0
  0
ARC
  5
14BD5
330
747D
100
AcDbEntity
  8
細線
100
AcDbCircle
 10
5068.620346402042
 20
4511.577276893863
 30
0.0
 40
298.5
100
AcDbArc
 50
169.578549027269
 51
190.4214509727309
  0
ARC
  5
14BD6
330
747D
100
AcDbEntity
  8
細線
100
AcDbCircle
 10
5068.620346402042
 20
4511.577276893863
 30
0.0
 40
294.0
100
AcDbArc
 50
171.212062677364
 51
188.7879373226359
  0
ARC
  5
14BD7
330
747D
100
AcDbEntity
  8
細線
100
AcDbCircle
 10
4506.017564494118
 20
4511.577276893863
 30
0.0
 40
294.0
100
AcDbArc
 50
351.900449161722
 51
8.099550838278029
  0
LINE
  5
14BD8
330
747D
100
AcDbEntity
  8
細線
100
AcDbLine
 10
4820.620346402042
 20
4467.577276893863
 30
0.0
 11
4820.620346402042
 21
4555.577276893862
 31
0.0
  0
LINE
  5
14BD9
330
747D
100
AcDbEntity
  8
細線
100
AcDbLine
 10
4825.120346402042
 20
4458.577276893863
 30
0.0
 11
4825.120346402042
 21
4564.577276893863
 31
0.0
  0
ARC
  5
14BDA
330
747D
100
AcDbEntity
  8
部品1
100
AcDbCircle
 10
5068.620346402042
 20
4511.577276893863
 30
0.0
 40
300.0
100
AcDbArc
 50
169.4161974034894
 51
190.5838025965105
  0
LINE
  5
14BDB
330
747D
100
AcDbEntity
  8
部品1
100
AcDbLine
 10
4826.620346402042
 20
4457.577276893863
 30
0.0
 11
4826.620346402042
 21
4565.577276893863
 31
0.0
  0
ARC
  5
14BDC
330
747D
100
AcDbEntity
  8
細線
100
AcDbCircle
 10
4814.620346402041
 20
4467.577276893863
 30
0.0
 40
6.0
100
AcDbArc
 50
270.0
 51
0.0
  0
LINE
  5
14BDD
330
747D
100
AcDbEntity
  8
細線
100
AcDbLine
 10
4780.453727932796
 20
4453.077276893863
 30
0.0
 11
4819.620346402042
 21
4453.077276893863
 31
0.0
  0
LINE
  5
14BDE
330
747D
100
AcDbEntity
  8
細線
100
AcDbLine
 10
4792.620346402041
 20
4467.577276893863
 30
0.0
 11
4794.114770311876
 21
4467.577276893863
 31
0.0
  0
ARC
  5
14BDF
330
747D
100
AcDbEntity
  8
細線
100
AcDbCircle
 10
4794.114770311876
 20
4470.577276893862
 30
0.0
 40
3.0
100
AcDbArc
 50
270.0
 51
351.9004491617184
  0
LINE
  5
14BE0
330
747D
100
AcDbEntity
  8
細線
100
AcDbLine
 10
4792.620346402041
 20
4464.577276893863
 30
0.0
 11
4804.827885580788
 21
4464.577276893863
 31
0.0
  0
ARC
  5
14BE1
330
747D
100
AcDbEntity
  8
細線
100
AcDbCircle
 10
4784.001302766519
 20
4467.577276893863
 30
0.0
 40
6.0
100
AcDbArc
 50
188.7879373226349
 51
270.0
  0
ARC
  5
14BE2
330
747D
100
AcDbEntity
  8
細線
100
AcDbCircle
 10
4780.453727932796
 20
4458.577276893863
 30
0.0
 40
5.5
100
AcDbArc
 50
190.4214509727298
 51
269.9999999999997
  0
LINE
  5
14BE3
330
747D
100
AcDbEntity
  8
細線
100
AcDbLine
 10
4792.620346402041
 20
4467.577784792424
 30
0.0
 11
4779.141641903219
 21
4467.577784792424
 31
0.0
  0
ARC
  5
14BE4
330
747D
100
AcDbEntity
  8
細線
100
AcDbCircle
 10
4804.827885580788
 20
4470.577276893862
 30
0.0
 40
6.0
100
AcDbArc
 50
270.0
 51
360.0
  0
LINE
  5
14BE5
330
747D
100
AcDbEntity
  8
細線
100
AcDbLine
 10
4784.001302766519
 20
4461.577276893863
 30
0.0
 11
4814.620346402041
 21
4461.577276893863
 31
0.0
  0
ARC
  5
14BE6
330
747D
100
AcDbEntity
  8
細線
100
AcDbCircle
 10
4819.620346402042
 20
4458.577276893863
 30
0.0
 40
5.5
100
AcDbArc
 50
270.0
 51
0.0
  0
ARC
  5
14BE7
330
747D
100
AcDbEntity
  8
部品1
100
AcDbCircle
 10
4779.622076511026
 20
4457.577276893863
 30
0.0
 40
6.0
100
AcDbArc
 50
190.5838025965097
 51
270.0
  0
ARC
  5
14BE8
330
747D
100
AcDbEntity
  8
部品1
100
AcDbCircle
 10
4820.620346402042
 20
4457.577276893863
 30
0.0
 40
6.0
100
AcDbArc
 50
270.0
 51
0.0
  0
LINE
  5
14BE9
330
747D
100
AcDbEntity
  8
部品1
100
AcDbLine
 10
4779.622076511026
 20
4451.577276893863
 30
0.0
 11
4820.620346402042
 21
4451.577276893863
 31
0.0
  0
ARC
  5
14BEA
330
747D
100
AcDbEntity
  8
細線
100
AcDbCircle
 10
4814.620346402041
 20
4555.577276893862
 30
0.0
 40
6.0
100
AcDbArc
 50
0.0
 51
90.0
  0
LINE
  5
14BEB
330
747D
100
AcDbEntity
  8
細線
100
AcDbLine
 10
4819.620346402042
 20
4570.077276893863
 30
0.0
 11
4780.453727932796
 21
4570.077276893863
 31
0.0
  0
LINE
  5
14BEC
330
747D
100
AcDbEntity
  8
細線
100
AcDbLine
 10
4794.114770311875
 20
4555.577276893862
 30
0.0
 11
4792.620346402041
 21
4555.577276893862
 31
0.0
  0
ARC
  5
14BED
330
747D
100
AcDbEntity
  8
細線
100
AcDbCircle
 10
4794.114770311875
 20
4552.577276893862
 30
0.0
 40
3.0
100
AcDbArc
 50
8.099550838277986
 51
90.0
  0
LINE
  5
14BEE
330
747D
100
AcDbEntity
  8
細線
100
AcDbLine
 10
4804.827885580788
 20
4558.577276893863
 30
0.0
 11
4792.620346402041
 21
4558.577276893863
 31
0.0
  0
ARC
  5
14BEF
330
747D
100
AcDbEntity
  8
細線
100
AcDbCircle
 10
4784.001302766519
 20
4555.577276893862
 30
0.0
 40
6.0
100
AcDbArc
 50
90.0
 51
171.2120626773636
  0
LINE
  5
14BF0
330
747D
100
AcDbEntity
  8
細線
100
AcDbLine
 10
4792.620346402041
 20
4555.5767689953
 30
0.0
 11
4779.857019186074
 21
4555.5767689953
 31
0.0
  0
ARC
  5
14BF1
330
747D
100
AcDbEntity
  8
細線
100
AcDbCircle
 10
4780.453727932796
 20
4564.577276893863
 30
0.0
 40
5.5
100
AcDbArc
 50
89.99999999999969
 51
169.5785490272683
  0
ARC
  5
14BF2
330
747D
100
AcDbEntity
  8
細線
100
AcDbCircle
 10
4804.827885580788
 20
4552.577276893862
 30
0.0
 40
6.0
100
AcDbArc
 50
0.0
 51
90.0
  0
LINE
  5
14BF3
330
747D
100
AcDbEntity
  8
細線
100
AcDbLine
 10
4814.620346402041
 20
4561.577276893863
 30
0.0
 11
4784.001302766519
 21
4561.577276893863
 31
0.0
  0
ARC
  5
14BF4
330
747D
100
AcDbEntity
  8
細線
100
AcDbCircle
 10
4819.620346402042
 20
4564.577276893863
 30
0.0
 40
5.5
100
AcDbArc
 50
0.0
 51
90.0
  0
LINE
  5
14BF5
330
747D
100
AcDbEntity
  8
部品1
100
AcDbLine
 10
4820.620346402042
 20
4571.577276893863
 30
0.0
 11
4779.622076511026
 21
4571.577276893863
 31
0.0
  0
ARC
  5
14BF6
330
747D
100
AcDbEntity
  8
部品1
100
AcDbCircle
 10
4779.622076511026
 20
4565.577276893863
 30
0.0
 40
6.0
100
AcDbArc
 50
90.0
 51
169.4161974034886
  0
ARC
  5
14BF7
330
747D
100
AcDbEntity
  8
部品1
100
AcDbCircle
 10
4820.620346402042
 20
4565.577276893863
 30
0.0
 40
6.0
100
AcDbArc
 50
0.0
 51
90.0
  0
CIRCLE
  5
14BF8
330
747D
100
AcDbEntity
  8
細線
 48
20.0
100
AcDbCircle
 10
4800.121211456535
 20
4612.077276893863
 30
0.0
 40
20.0
  0
CIRCLE
  5
14BF9
330
747D
100
AcDbEntity
  8
細線
 48
20.0
100
AcDbCircle
 10
4800.121211456535
 20
4612.077276893863
 30
0.0
 40
10.0
  0
LINE
  5
14BFA
330
747D
100
AcDbEntity
  8
細線
100
AcDbLine
 10
5630.827885580788
 20
4470.577276893862
 30
0.0
 11
5630.827885580788
 21
4552.577276893862
 31
0.0
  0
LINE
  5
14BFB
330
747D
100
AcDbEntity
  8
細線
100
AcDbLine
 10
5640.620346402042
 20
4467.577276893863
 30
0.0
 11
5640.620346402042
 21
4555.577276893862
 31
0.0
  0
LINE
  5
14BFC
330
747D
100
AcDbEntity
  8
細線
100
AcDbLine
 10
5645.120346402041
 20
4458.577276893863
 30
0.0
 11
5645.120346402041
 21
4564.577276893863
 31
0.0
  0
LINE
  5
14BFD
330
747D
100
AcDbEntity
  8
部品1
100
AcDbLine
 10
5646.620346402041
 20
4457.577276893863
 30
0.0
 11
5646.620346402041
 21
4565.577276893863
 31
0.0
  0
LINE
  5
14BFE
330
747D
100
AcDbEntity
  8
細線
100
AcDbLine
 10
5612.620346402042
 20
4561.577276893863
 30
0.0
 11
5612.620346402042
 21
4461.577276893863
 31
0.0
  0
ARC
  5
14BFF
330
747D
100
AcDbEntity
  8
細線
100
AcDbCircle
 10
5888.620346402042
 20
4511.577276893863
 30
0.0
 40
298.5
100
AcDbArc
 50
169.578549027269
 51
190.4214509727309
  0
ARC
  5
14C00
330
747D
100
AcDbEntity
  8
細線
100
AcDbCircle
 10
5888.620346402042
 20
4511.577276893863
 30
0.0
 40
294.0
100
AcDbArc
 50
171.212062677364
 51
188.7879373226359
  0
ARC
  5
14C01
330
747D
100
AcDbEntity
  8
細線
100
AcDbCircle
 10
5326.017564494117
 20
4511.577276893863
 30
0.0
 40
294.0
100
AcDbArc
 50
351.900449161722
 51
8.099550838278029
  0
ARC
  5
14C02
330
747D
100
AcDbEntity
  8
部品1
100
AcDbCircle
 10
5888.620346402042
 20
4511.577276893863
 30
0.0
 40
300.0
100
AcDbArc
 50
169.4161974034894
 51
190.5838025965105
  0
ARC
  5
14C03
330
747D
100
AcDbEntity
  8
細線
100
AcDbCircle
 10
5634.620346402042
 20
4467.577276893863
 30
0.0
 40
6.0
100
AcDbArc
 50
270.0
 51
0.0
  0
ARC
  5
14C04
330
747D
100
AcDbEntity
  8
細線
100
AcDbCircle
 10
5624.827885580788
 20
4470.577276893862
 30
0.0
 40
6.0
100
AcDbArc
 50
270.0
 51
360.0
  0
ARC
  5
14C05
330
747D
100
AcDbEntity
  8
細線
100
AcDbCircle
 10
5639.620346402042
 20
4458.577276893863
 30
0.0
 40
5.5
100
AcDbArc
 50
270.0
 51
0.0
  0
ARC
  5
14C06
330
747D
100
AcDbEntity
  8
部品1
100
AcDbCircle
 10
5640.620346402042
 20
4457.577276893863
 30
0.0
 40
6.0
100
AcDbArc
 50
270.0
 51
0.0
  0
LINE
  5
14C07
330
747D
100
AcDbEntity
  8
細線
100
AcDbLine
 10
5612.620346402042
 20
4467.577276893863
 30
0.0
 11
5614.114770311877
 21
4467.577276893863
 31
0.0
  0
ARC
  5
14C08
330
747D
100
AcDbEntity
  8
細線
100
AcDbCircle
 10
5614.114770311877
 20
4470.577276893862
 30
0.0
 40
3.0
100
AcDbArc
 50
270.0
 51
351.9004491617184
  0
ARC
  5
14C09
330
747D
100
AcDbEntity
  8
細線
100
AcDbCircle
 10
5604.001302766519
 20
4467.577276893863
 30
0.0
 40
6.0
100
AcDbArc
 50
188.7879373226349
 51
270.0
  0
ARC
  5
14C0A
330
747D
100
AcDbEntity
  8
細線
100
AcDbCircle
 10
5600.453727932796
 20
4458.577276893863
 30
0.0
 40
5.5
100
AcDbArc
 50
190.4214509727298
 51
269.9999999999997
  0
LINE
  5
14C0B
330
747D
100
AcDbEntity
  8
細線
100
AcDbLine
 10
5612.620346402042
 20
4467.577784792424
 30
0.0
 11
5599.141641903219
 21
4467.577784792424
 31
0.0
  0
ARC
  5
14C0C
330
747D
100
AcDbEntity
  8
部品1
100
AcDbCircle
 10
5599.622076511026
 20
4457.577276893863
 30
0.0
 40
6.0
100
AcDbArc
 50
190.5838025965097
 51
270.0
  0
LINE
  5
14C0D
330
747D
100
AcDbEntity
  8
細線
100
AcDbLine
 10
5600.453727932796
 20
4453.077276893863
 30
0.0
 11
5639.620346402042
 21
4453.077276893863
 31
0.0
  0
LINE
  5
14C0E
330
747D
100
AcDbEntity
  8
細線
100
AcDbLine
 10
5612.620346402042
 20
4464.577276893863
 30
0.0
 11
5624.827885580788
 21
4464.577276893863
 31
0.0
  0
LINE
  5
14C0F
330
747D
100
AcDbEntity
  8
細線
100
AcDbLine
 10
5604.001302766519
 20
4461.577276893863
 30
0.0
 11
5634.620346402042
 21
4461.577276893863
 31
0.0
  0
LINE
  5
14C10
330
747D
100
AcDbEntity
  8
部品1
100
AcDbLine
 10
5599.622076511026
 20
4451.577276893863
 30
0.0
 11
5640.620346402042
 21
4451.577276893863
 31
0.0
  0
ARC
  5
14C11
330
747D
100
AcDbEntity
  8
細線
100
AcDbCircle
 10
5634.620346402042
 20
4555.577276893862
 30
0.0
 40
6.0
100
AcDbArc
 50
0.0
 51
90.0
  0
ARC
  5
14C12
330
747D
100
AcDbEntity
  8
細線
100
AcDbCircle
 10
5624.827885580788
 20
4552.577276893862
 30
0.0
 40
6.0
100
AcDbArc
 50
0.0
 51
90.0
  0
ARC
  5
14C13
330
747D
100
AcDbEntity
  8
細線
100
AcDbCircle
 10
5639.620346402042
 20
4564.577276893863
 30
0.0
 40
5.5
100
AcDbArc
 50
0.0
 51
90.0
  0
ARC
  5
14C14
330
747D
100
AcDbEntity
  8
部品1
100
AcDbCircle
 10
5640.620346402042
 20
4565.577276893863
 30
0.0
 40
6.0
100
AcDbArc
 50
0.0
 51
90.0
  0
LINE
  5
14C15
330
747D
100
AcDbEntity
  8
細線
100
AcDbLine
 10
5614.114770311875
 20
4555.577276893862
 30
0.0
 11
5612.620346402042
 21
4555.577276893862
 31
0.0
  0
ARC
  5
14C16
330
747D
100
AcDbEntity
  8
細線
100
AcDbCircle
 10
5614.114770311875
 20
4552.577276893862
 30
0.0
 40
3.0
100
AcDbArc
 50
8.099550838277986
 51
90.0
  0
ARC
  5
14C17
330
747D
100
AcDbEntity
  8
細線
100
AcDbCircle
 10
5604.001302766519
 20
4555.577276893862
 30
0.0
 40
6.0
100
AcDbArc
 50
90.0
 51
171.2120626773636
  0
LINE
  5
14C18
330
747D
100
AcDbEntity
  8
細線
100
AcDbLine
 10
5612.620346402042
 20
4555.5767689953
 30
0.0
 11
5599.857019186075
 21
4555.5767689953
 31
0.0
  0
ARC
  5
14C19
330
747D
100
AcDbEntity
  8
細線
100
AcDbCircle
 10
5600.453727932796
 20
4564.577276893863
 30
0.0
 40
5.5
100
AcDbArc
 50
89.99999999999969
 51
169.5785490272683
  0
ARC
  5
14C1A
330
747D
100
AcDbEntity
  8
部品1
100
AcDbCircle
 10
5599.622076511026
 20
4565.577276893863
 30
0.0
 40
6.0
100
AcDbArc
 50
90.0
 51
169.4161974034886
  0
LINE
  5
14C1B
330
747D
100
AcDbEntity
  8
細線
100
AcDbLine
 10
5639.620346402042
 20
4570.077276893863
 30
0.0
 11
5600.453727932796
 21
4570.077276893863
 31
0.0
  0
LINE
  5
14C1C
330
747D
100
AcDbEntity
  8
細線
100
AcDbLine
 10
5624.827885580788
 20
4558.577276893863
 30
0.0
 11
5612.620346402042
 21
4558.577276893863
 31
0.0
  0
LINE
  5
14C1D
330
747D
100
AcDbEntity
  8
細線
100
AcDbLine
 10
5634.620346402042
 20
4561.577276893863
 30
0.0
 11
5604.001302766519
 21
4561.577276893863
 31
0.0
  0
LINE
  5
14C1E
330
747D
100
AcDbEntity
  8
部品1
100
AcDbLine
 10
5640.620346402042
 20
4571.577276893863
 30
0.0
 11
5599.622076511026
 21
4571.577276893863
 31
0.0
  0
CIRCLE
  5
14C1F
330
747D
100
AcDbEntity
  8
細線
 48
20.0
100
AcDbCircle
 10
5620.121211456535
 20
4612.077276893863
 30
0.0
 40
20.0
  0
CIRCLE
  5
14C20
330
747D
100
AcDbEntity
  8
細線
 48
20.0
100
AcDbCircle
 10
5620.121211456535
 20
4612.077276893863
 30
0.0
 40
10.0
  0
ARC
  5
14C21
330
747D
100
AcDbEntity
  8
部品1
100
AcDbCircle
 10
6708.620346402041
 20
4511.577276893863
 30
0.0
 40
300.0
100
AcDbArc
 50
169.4161974034894
 51
190.5838025965105
  0
ARC
  5
14C22
330
747D
100
AcDbEntity
  8
細線
100
AcDbCircle
 10
6146.017564494117
 20
4511.577276893863
 30
0.0
 40
294.0
100
AcDbArc
 50
351.900449161722
 51
8.099550838278029
  0
ARC
  5
14C23
330
747D
100
AcDbEntity
  8
細線
100
AcDbCircle
 10
6708.620346402041
 20
4511.577276893863
 30
0.0
 40
294.0
100
AcDbArc
 50
171.212062677364
 51
188.7879373226359
  0
ARC
  5
14C24
330
747D
100
AcDbEntity
  8
細線
100
AcDbCircle
 10
6708.620346402041
 20
4511.577276893863
 30
0.0
 40
298.5
100
AcDbArc
 50
169.578549027269
 51
190.4214509727309
  0
LINE
  5
14C25
330
747D
100
AcDbEntity
  8
細線
100
AcDbLine
 10
6432.620346402043
 20
4561.577276893863
 30
0.0
 11
6432.620346402043
 21
4461.577276893863
 31
0.0
  0
LINE
  5
14C26
330
747D
100
AcDbEntity
  8
部品1
100
AcDbLine
 10
6466.620346402041
 20
4457.577276893863
 30
0.0
 11
6466.620346402041
 21
4565.577276893863
 31
0.0
  0
LINE
  5
14C27
330
747D
100
AcDbEntity
  8
細線
100
AcDbLine
 10
6465.120346402042
 20
4458.577276893863
 30
0.0
 11
6465.120346402042
 21
4564.577276893863
 31
0.0
  0
LINE
  5
14C28
330
747D
100
AcDbEntity
  8
細線
100
AcDbLine
 10
6460.620346402042
 20
4467.577276893863
 30
0.0
 11
6460.620346402042
 21
4555.577276893862
 31
0.0
  0
LINE
  5
14C29
330
747D
100
AcDbEntity
  8
細線
100
AcDbLine
 10
6450.827885580787
 20
4470.577276893862
 30
0.0
 11
6450.827885580787
 21
4552.577276893862
 31
0.0
  0
LINE
  5
14C2A
330
747D
100
AcDbEntity
  8
部品1
100
AcDbLine
 10
6419.622076511027
 20
4451.577276893863
 30
0.0
 11
6460.620346402042
 21
4451.577276893863
 31
0.0
  0
LINE
  5
14C2B
330
747D
100
AcDbEntity
  8
細線
100
AcDbLine
 10
6424.001302766519
 20
4461.577276893863
 30
0.0
 11
6454.620346402042
 21
4461.577276893863
 31
0.0
  0
LINE
  5
14C2C
330
747D
100
AcDbEntity
  8
細線
100
AcDbLine
 10
6432.620346402043
 20
4464.577276893863
 30
0.0
 11
6444.827885580787
 21
4464.577276893863
 31
0.0
  0
LINE
  5
14C2D
330
747D
100
AcDbEntity
  8
細線
100
AcDbLine
 10
6420.453727932796
 20
4453.077276893863
 30
0.0
 11
6459.620346402042
 21
4453.077276893863
 31
0.0
  0
ARC
  5
14C2E
330
747D
100
AcDbEntity
  8
部品1
100
AcDbCircle
 10
6419.622076511027
 20
4457.577276893863
 30
0.0
 40
6.0
100
AcDbArc
 50
190.5838025965097
 51
270.0
  0
LINE
  5
14C2F
330
747D
100
AcDbEntity
  8
細線
100
AcDbLine
 10
6432.620346402043
 20
4467.577784792424
 30
0.0
 11
6419.14164190322
 21
4467.577784792424
 31
0.0
  0
ARC
  5
14C30
330
747D
100
AcDbEntity
  8
細線
100
AcDbCircle
 10
6420.453727932796
 20
4458.577276893863
 30
0.0
 40
5.5
100
AcDbArc
 50
190.4214509727298
 51
269.9999999999997
  0
ARC
  5
14C31
330
747D
100
AcDbEntity
  8
細線
100
AcDbCircle
 10
6424.001302766519
 20
4467.577276893863
 30
0.0
 40
6.0
100
AcDbArc
 50
188.7879373226349
 51
270.0
  0
ARC
  5
14C32
330
747D
100
AcDbEntity
  8
細線
100
AcDbCircle
 10
6434.114770311876
 20
4470.577276893862
 30
0.0
 40
3.0
100
AcDbArc
 50
270.0
 51
351.9004491617184
  0
LINE
  5
14C33
330
747D
100
AcDbEntity
  8
細線
100
AcDbLine
 10
6432.620346402043
 20
4467.577276893863
 30
0.0
 11
6434.114770311876
 21
4467.577276893863
 31
0.0
  0
ARC
  5
14C34
330
747D
100
AcDbEntity
  8
部品1
100
AcDbCircle
 10
6460.620346402042
 20
4457.577276893863
 30
0.0
 40
6.0
100
AcDbArc
 50
270.0
 51
0.0
  0
ARC
  5
14C35
330
747D
100
AcDbEntity
  8
細線
100
AcDbCircle
 10
6459.620346402042
 20
4458.577276893863
 30
0.0
 40
5.5
100
AcDbArc
 50
270.0
 51
0.0
  0
ARC
  5
14C36
330
747D
100
AcDbEntity
  8
細線
100
AcDbCircle
 10
6444.827885580787
 20
4470.577276893862
 30
0.0
 40
6.0
100
AcDbArc
 50
270.0
 51
360.0
  0
ARC
  5
14C37
330
747D
100
AcDbEntity
  8
細線
100
AcDbCircle
 10
6454.620346402042
 20
4467.577276893863
 30
0.0
 40
6.0
100
AcDbArc
 50
270.0
 51
0.0
  0
CIRCLE
  5
14C38
330
747D
100
AcDbEntity
  8
細線
 48
20.0
100
AcDbCircle
 10
6440.121211456535
 20
4612.077276893863
 30
0.0
 40
10.0
  0
CIRCLE
  5
14C39
330
747D
100
AcDbEntity
  8
細線
 48
20.0
100
AcDbCircle
 10
6440.121211456535
 20
4612.077276893863
 30
0.0
 40
20.0
  0
LINE
  5
14C3A
330
747D
100
AcDbEntity
  8
部品1
100
AcDbLine
 10
6460.620346402042
 20
4571.577276893863
 30
0.0
 11
6419.622076511027
 21
4571.577276893863
 31
0.0
  0
LINE
  5
14C3B
330
747D
100
AcDbEntity
  8
細線
100
AcDbLine
 10
6454.620346402042
 20
4561.577276893863
 30
0.0
 11
6424.001302766519
 21
4561.577276893863
 31
0.0
  0
LINE
  5
14C3C
330
747D
100
AcDbEntity
  8
細線
100
AcDbLine
 10
6444.827885580787
 20
4558.577276893863
 30
0.0
 11
6432.620346402043
 21
4558.577276893863
 31
0.0
  0
LINE
  5
14C3D
330
747D
100
AcDbEntity
  8
細線
100
AcDbLine
 10
6459.620346402042
 20
4570.077276893863
 30
0.0
 11
6420.453727932796
 21
4570.077276893863
 31
0.0
  0
ARC
  5
14C3E
330
747D
100
AcDbEntity
  8
部品1
100
AcDbCircle
 10
6419.622076511027
 20
4565.577276893863
 30
0.0
 40
6.0
100
AcDbArc
 50
90.0
 51
169.4161974034886
  0
ARC
  5
14C3F
330
747D
100
AcDbEntity
  8
細線
100
AcDbCircle
 10
6420.453727932796
 20
4564.577276893863
 30
0.0
 40
5.5
100
AcDbArc
 50
89.99999999999969
 51
169.5785490272683
  0
LINE
  5
14C40
330
747D
100
AcDbEntity
  8
細線
100
AcDbLine
 10
6432.620346402043
 20
4555.5767689953
 30
0.0
 11
6419.857019186074
 21
4555.5767689953
 31
0.0
  0
ARC
  5
14C41
330
747D
100
AcDbEntity
  8
細線
100
AcDbCircle
 10
6424.001302766519
 20
4555.577276893862
 30
0.0
 40
6.0
100
AcDbArc
 50
90.0
 51
171.2120626773636
  0
ARC
  5
14C42
330
747D
100
AcDbEntity
  8
細線
100
AcDbCircle
 10
6434.114770311875
 20
4552.577276893862
 30
0.0
 40
3.0
100
AcDbArc
 50
8.099550838277986
 51
90.0
  0
LINE
  5
14C43
330
747D
100
AcDbEntity
  8
細線
100
AcDbLine
 10
6434.114770311875
 20
4555.577276893862
 30
0.0
 11
6432.620346402043
 21
4555.577276893862
 31
0.0
  0
ARC
  5
14C44
330
747D
100
AcDbEntity
  8
部品1
100
AcDbCircle
 10
6460.620346402042
 20
4565.577276893863
 30
0.0
 40
6.0
100
AcDbArc
 50
0.0
 51
90.0
  0
ARC
  5
14C45
330
747D
100
AcDbEntity
  8
細線
100
AcDbCircle
 10
6459.620346402042
 20
4564.577276893863
 30
0.0
 40
5.5
100
AcDbArc
 50
0.0
 51
90.0
  0
ARC
  5
14C46
330
747D
100
AcDbEntity
  8
細線
100
AcDbCircle
 10
6444.827885580787
 20
4552.577276893862
 30
0.0
 40
6.0
100
AcDbArc
 50
0.0
 51
90.0
  0
ARC
  5
14C47
330
747D
100
AcDbEntity
  8
細線
100
AcDbCircle
 10
6454.620346402042
 20
4555.577276893862
 30
0.0
 40
6.0
100
AcDbArc
 50
0.0
 51
90.0
  0
LINE
  5
14C48
330
747D
100
AcDbEntity
  8
細線
100
AcDbLine
 10
7270.827885580787
 20
4470.577276893862
 30
0.0
 11
7270.827885580787
 21
4552.577276893862
 31
0.0
  0
LINE
  5
14C49
330
747D
100
AcDbEntity
  8
細線
100
AcDbLine
 10
7280.620346402042
 20
4467.577276893863
 30
0.0
 11
7280.620346402042
 21
4555.577276893862
 31
0.0
  0
LINE
  5
14C4A
330
747D
100
AcDbEntity
  8
細線
100
AcDbLine
 10
7285.120346402042
 20
4458.577276893863
 30
0.0
 11
7285.120346402042
 21
4564.577276893863
 31
0.0
  0
LINE
  5
14C4B
330
747D
100
AcDbEntity
  8
部品1
100
AcDbLine
 10
7286.620346402042
 20
4457.577276893863
 30
0.0
 11
7286.620346402042
 21
4565.577276893863
 31
0.0
  0
LINE
  5
14C4C
330
747D
100
AcDbEntity
  8
細線
100
AcDbLine
 10
7252.620346402043
 20
4561.577276893863
 30
0.0
 11
7252.620346402043
 21
4461.577276893863
 31
0.0
  0
ARC
  5
14C4D
330
747D
100
AcDbEntity
  8
細線
100
AcDbCircle
 10
7528.620346402042
 20
4511.577276893863
 30
0.0
 40
298.5
100
AcDbArc
 50
169.578549027269
 51
190.4214509727309
  0
ARC
  5
14C4E
330
747D
100
AcDbEntity
  8
細線
100
AcDbCircle
 10
7528.620346402042
 20
4511.577276893863
 30
0.0
 40
294.0
100
AcDbArc
 50
171.212062677364
 51
188.7879373226359
  0
ARC
  5
14C4F
330
747D
100
AcDbEntity
  8
細線
100
AcDbCircle
 10
6966.017564494118
 20
4511.577276893863
 30
0.0
 40
294.0
100
AcDbArc
 50
351.900449161722
 51
8.099550838278029
  0
ARC
  5
14C50
330
747D
100
AcDbEntity
  8
部品1
100
AcDbCircle
 10
7528.620346402042
 20
4511.577276893863
 30
0.0
 40
300.0
100
AcDbArc
 50
169.4161974034894
 51
190.5838025965105
  0
ARC
  5
14C51
330
747D
100
AcDbEntity
  8
細線
100
AcDbCircle
 10
7274.620346402042
 20
4467.577276893863
 30
0.0
 40
6.0
100
AcDbArc
 50
270.0
 51
0.0
  0
ARC
  5
14C52
330
747D
100
AcDbEntity
  8
細線
100
AcDbCircle
 10
7264.827885580787
 20
4470.577276893862
 30
0.0
 40
6.0
100
AcDbArc
 50
270.0
 51
360.0
  0
ARC
  5
14C53
330
747D
100
AcDbEntity
  8
細線
100
AcDbCircle
 10
7279.620346402042
 20
4458.577276893863
 30
0.0
 40
5.5
100
AcDbArc
 50
270.0
 51
0.0
  0
ARC
  5
14C54
330
747D
100
AcDbEntity
  8
部品1
100
AcDbCircle
 10
7280.620346402042
 20
4457.577276893863
 30
0.0
 40
6.0
100
AcDbArc
 50
270.0
 51
0.0
  0
LINE
  5
14C55
330
747D
100
AcDbEntity
  8
細線
100
AcDbLine
 10
7252.620346402043
 20
4467.577276893863
 30
0.0
 11
7254.114770311876
 21
4467.577276893863
 31
0.0
  0
ARC
  5
14C56
330
747D
100
AcDbEntity
  8
細線
100
AcDbCircle
 10
7254.114770311876
 20
4470.577276893862
 30
0.0
 40
3.0
100
AcDbArc
 50
270.0
 51
351.9004491617184
  0
ARC
  5
14C57
330
747D
100
AcDbEntity
  8
細線
100
AcDbCircle
 10
7244.001302766519
 20
4467.577276893863
 30
0.0
 40
6.0
100
AcDbArc
 50
188.7879373226349
 51
270.0
  0
ARC
  5
14C58
330
747D
100
AcDbEntity
  8
細線
100
AcDbCircle
 10
7240.453727932797
 20
4458.577276893863
 30
0.0
 40
5.5
100
AcDbArc
 50
190.4214509727298
 51
269.9999999999997
  0
LINE
  5
14C59
330
747D
100
AcDbEntity
  8
細線
100
AcDbLine
 10
7252.620346402043
 20
4467.577784792424
 30
0.0
 11
7239.14164190322
 21
4467.577784792424
 31
0.0
  0
ARC
  5
14C5A
330
747D
100
AcDbEntity
  8
部品1
100
AcDbCircle
 10
7239.622076511027
 20
4457.577276893863
 30
0.0
 40
6.0
100
AcDbArc
 50
190.5838025965097
 51
270.0
  0
LINE
  5
14C5B
330
747D
100
AcDbEntity
  8
細線
100
AcDbLine
 10
7240.453727932797
 20
4453.077276893863
 30
0.0
 11
7279.620346402042
 21
4453.077276893863
 31
0.0
  0
LINE
  5
14C5C
330
747D
100
AcDbEntity
  8
細線
100
AcDbLine
 10
7252.620346402043
 20
4464.577276893863
 30
0.0
 11
7264.827885580787
 21
4464.577276893863
 31
0.0
  0
LINE
  5
14C5D
330
747D
100
AcDbEntity
  8
細線
100
AcDbLine
 10
7244.001302766519
 20
4461.577276893863
 30
0.0
 11
7274.620346402042
 21
4461.577276893863
 31
0.0
  0
LINE
  5
14C5E
330
747D
100
AcDbEntity
  8
部品1
100
AcDbLine
 10
7239.622076511027
 20
4451.577276893863
 30
0.0
 11
7280.620346402042
 21
4451.577276893863
 31
0.0
  0
ARC
  5
14C5F
330
747D
100
AcDbEntity
  8
細線
100
AcDbCircle
 10
7274.620346402042
 20
4555.577276893862
 30
0.0
 40
6.0
100
AcDbArc
 50
0.0
 51
90.0
  0
ARC
  5
14C60
330
747D
100
AcDbEntity
  8
細線
100
AcDbCircle
 10
7264.827885580787
 20
4552.577276893862
 30
0.0
 40
6.0
100
AcDbArc
 50
0.0
 51
90.0
  0
ARC
  5
14C61
330
747D
100
AcDbEntity
  8
細線
100
AcDbCircle
 10
7279.620346402042
 20
4564.577276893863
 30
0.0
 40
5.5
100
AcDbArc
 50
0.0
 51
90.0
  0
ARC
  5
14C62
330
747D
100
AcDbEntity
  8
部品1
100
AcDbCircle
 10
7280.620346402042
 20
4565.577276893863
 30
0.0
 40
6.0
100
AcDbArc
 50
0.0
 51
90.0
  0
LINE
  5
14C63
330
747D
100
AcDbEntity
  8
細線
100
AcDbLine
 10
7254.114770311876
 20
4555.577276893862
 30
0.0
 11
7252.620346402043
 21
4555.577276893862
 31
0.0
  0
ARC
  5
14C64
330
747D
100
AcDbEntity
  8
細線
100
AcDbCircle
 10
7254.114770311876
 20
4552.577276893862
 30
0.0
 40
3.0
100
AcDbArc
 50
8.099550838277986
 51
90.0
  0
ARC
  5
14C65
330
747D
100
AcDbEntity
  8
細線
100
AcDbCircle
 10
7244.001302766519
 20
4555.577276893862
 30
0.0
 40
6.0
100
AcDbArc
 50
90.0
 51
171.2120626773636
  0
LINE
  5
14C66
330
747D
100
AcDbEntity
  8
細線
100
AcDbLine
 10
7252.620346402043
 20
4555.5767689953
 30
0.0
 11
7239.857019186074
 21
4555.5767689953
 31
0.0
  0
ARC
  5
14C67
330
747D
100
AcDbEntity
  8
細線
100
AcDbCircle
 10
7240.453727932797
 20
4564.577276893863
 30
0.0
 40
5.5
100
AcDbArc
 50
89.99999999999969
 51
169.5785490272683
  0
ARC
  5
14C68
330
747D
100
AcDbEntity
  8
部品1
100
AcDbCircle
 10
7239.622076511027
 20
4565.577276893863
 30
0.0
 40
6.0
100
AcDbArc
 50
90.0
 51
169.4161974034886
  0
LINE
  5
14C69
330
747D
100
AcDbEntity
  8
細線
100
AcDbLine
 10
7279.620346402042
 20
4570.077276893863
 30
0.0
 11
7240.453727932797
 21
4570.077276893863
 31
0.0
  0
LINE
  5
14C6A
330
747D
100
AcDbEntity
  8
細線
100
AcDbLine
 10
7264.827885580787
 20
4558.577276893863
 30
0.0
 11
7252.620346402043
 21
4558.577276893863
 31
0.0
  0
LINE
  5
14C6B
330
747D
100
AcDbEntity
  8
細線
100
AcDbLine
 10
7274.620346402042
 20
4561.577276893863
 30
0.0
 11
7244.001302766519
 21
4561.577276893863
 31
0.0
  0
LINE
  5
14C6C
330
747D
100
AcDbEntity
  8
部品1
100
AcDbLine
 10
7280.620346402042
 20
4571.577276893863
 30
0.0
 11
7239.622076511027
 21
4571.577276893863
 31
0.0
  0
CIRCLE
  5
14C6D
330
747D
100
AcDbEntity
  8
細線
 48
20.0
100
AcDbCircle
 10
7260.121211456535
 20
4612.077276893863
 30
0.0
 40
20.0
  0
CIRCLE
  5
14C6E
330
747D
100
AcDbEntity
  8
細線
 48
20.0
100
AcDbCircle
 10
7260.121211456535
 20
4612.077276893863
 30
0.0
 40
10.0
  0
DIMENSION
  5
14C9E
330
747D
100
AcDbEntity
  8
寸法
 48
50.0
100
AcDbDimension
  2
*D24
 10
5453.620346402043
 20
7916.542247313349
 30
0.0
 11
5111.120346402046
 21
8016.542247313349
 31
0.0
 70
    32
 71
     5
 42
684.9999999999972
  3
INABA_S40G
100
AcDbAlignedDimension
 13
4768.620346402046
 23
8356.365915108472
 33
0.0
 14
5453.620346402043
 24
8356.365915108625
 34
0.0
100
AcDbRotatedDimension
  0
LWPOLYLINE
  5
1515E
330
747D
100
AcDbEntity
  8
部品1
100
AcDbPolyline
 90
        4
 70
     1
 43
0.0
 10
5971.885013287828
 20
2866.500696077143
 10
5971.885013287828
 20
2626.608374531611
 10
6735.355679516264
 20
2626.608374531611
 10
6735.355679516264
 20
2866.500696077143
  0
TEXT
  5
1515F
330
747D
100
AcDbEntity
  8
部品1
100
AcDbText
 10
6062.410417025779
 20
2673.607166858619
 30
0.0
 40
135.0
  1
正面図
  7
STYLE2
100
AcDbText
  0
TEXT
  5
1519B
330
747D
100
AcDbEntity
  8
文字
 62
     7
 48
50.0
100
AcDbText
 10
14271.39351435261
 20
483.8967129911411
 30
0.0
 40
160.0
  1
ＮＸＮ－０８ＤＬ－４
  7
STYLE2
100
AcDbText
  0
TEXT
  5
1519C
330
747D
100
AcDbEntity
  8
文字
 62
     7
 48
50.0
100
AcDbText
 10
13583.11819016568
 20
9230.013745883733
 30
0.0
 40
100.0
  1
棚板
  7
STYLE1
100
AcDbText
  0
TEXT
  5
1519D
330
747D
100
AcDbEntity
  8
文字
 62
     7
 48
50.0
100
AcDbText
 10
15022.63965474515
 20
9230.013745883729
 30
0.0
 40
100.0
  1
F12            0.6
  7
STYLE1
100
AcDbText
  0
TEXT
  5
1519E
330
747D
100
AcDbEntity
  8
文字
 62
     7
 48
50.0
100
AcDbText
 10
13583.11819016568
 20
9400.013745883729
 30
0.0
 40
100.0
  1
扉
  7
STYLE1
100
AcDbText
  0
TEXT
  5
1519F
330
747D
100
AcDbEntity
  8
文字
 62
     7
 48
50.0
100
AcDbText
 10
15022.63965474515
 20
9400.013745883725
 30
0.0
 40
100.0
  1
F12            0.8
  7
STYLE1
100
AcDbText
  0
TEXT
  5
151A0
330
747D
100
AcDbEntity
  8
文字
 62
     7
 48
50.0
100
AcDbText
 10
15022.63965474517
 20
10760.01374588372
 30
0.0
 40
100.0
  1
F12            1.0
  7
STYLE1
100
AcDbText
  0
TEXT
  5
151A1
330
747D
100
AcDbEntity
  8
文字
 62
     7
 48
50.0
100
AcDbText
 10
13583.1181901657
 20
10760.01374588373
 30
0.0
 40
100.0
  1
床パネル
 41
0.9
  7
STYLE1
100
AcDbText
  0
LINE
  5
151A2
330
747D
100
AcDbEntity
  8
仕様書枠
 48
50.0
100
AcDbLine
 10
16307.19999999999
 20
8689.600000000003
 30
0.0
 11
13127.2
 21
8689.600000000007
 31
0.0
  0
LINE
  5
151A3
330
747D
100
AcDbEntity
  8
仕様書枠
 48
50.0
100
AcDbLine
 10
13127.2
 20
11409.6
 30
0.0
 11
13127.2
 21
8349.600000000007
 31
0.0
  0
TEXT
  5
151A4
330
747D
100
AcDbEntity
  8
文字
 62
     7
 48
50.0
100
AcDbText
 10
13229.83081656554
 20
8380.013745883733
 30
0.0
 40
100.0
  1
Y10→溶融亜鉛-5％アルミニウム合金めっき鋼板(JIS G 3317)
 41
0.9
  7
STYLE1
100
AcDbText
  0
TEXT
  5
151A5
330
747D
100
AcDbEntity
  8
文字
 62
     7
 48
50.0
100
AcDbText
 10
13229.83081656554
 20
8550.013745883733
 30
0.0
 40
100.0
  1
F12→溶融亜鉛めっき鋼板(JIS G 3302)
  7
STYLE1
100
AcDbText
  0
LINE
  5
151A6
330
747D
100
AcDbEntity
  8
仕様書枠
 48
50.0
100
AcDbLine
 10
16307.19999999999
 20
8689.600000000003
 30
0.0
 11
13127.19999999999
 21
8689.600000000003
 31
0.0
  0
TEXT
  5
151A7
330
747D
100
AcDbEntity
  8
文字
 62
     7
 48
50.0
100
AcDbText
 10
15022.63965474516
 20
9570.013745883725
 30
0.0
 40
100.0
  1
F12            0.6
  7
STYLE1
100
AcDbText
  0
TEXT
  5
151A8
330
747D
100
AcDbEntity
  8
文字
 62
     7
 48
50.0
100
AcDbText
 10
15022.63965474517
 20
9740.013745883725
 30
0.0
 40
100.0
  1
Y10            0.5
  7
STYLE1
100
AcDbText
  0
TEXT
  5
151A9
330
747D
100
AcDbEntity
  8
文字
 62
     7
 48
50.0
100
AcDbText
 10
15022.63965474517
 20
10080.01374588372
 30
0.0
 40
100.0
  1
Y10            0.7
  7
STYLE1
100
AcDbText
  0
TEXT
  5
151AA
330
747D
100
AcDbEntity
  8
文字
 62
     7
 48
50.0
100
AcDbText
 10
15022.63965474517
 20
10250.01374588372
 30
0.0
 40
100.0
  1
Y10            0.7
  7
STYLE1
100
AcDbText
  0
TEXT
  5
151AB
330
747D
100
AcDbEntity
  8
文字
 62
     7
 48
50.0
100
AcDbText
 10
15022.63965474517
 20
10420.01374588372
 30
0.0
 40
100.0
  1
Y10            1.0
  7
STYLE1
100
AcDbText
  0
TEXT
  5
151AC
330
747D
100
AcDbEntity
  8
文字
 62
     7
 48
50.0
100
AcDbText
 10
15022.63965474517
 20
10590.01374588372
 30
0.0
 40
100.0
  1
Y10            1.0
  7
STYLE1
100
AcDbText
  0
TEXT
  5
151AD
330
747D
100
AcDbEntity
  8
文字
 62
     7
 48
50.0
100
AcDbText
 10
15022.63965474518
 20
10930.01374588372
 30
0.0
 40
100.0
  1
F12            1.0
  7
STYLE1
100
AcDbText
  0
TEXT
  5
151AE
330
747D
100
AcDbEntity
  8
文字
 62
     7
 48
50.0
100
AcDbText
 10
15022.63965474517
 20
11100.01374588372
 30
0.0
 40
100.0
  1
F12            1.2
  7
STYLE1
100
AcDbText
  0
TEXT
  5
151AF
330
747D
100
AcDbEntity
  8
文字
 62
     7
 48
50.0
100
AcDbText
 10
13248.77747366447
 20
9230.013745883729
 30
0.0
 40
100.0
  1
12
  7
STYLE1
100
AcDbText
  0
TEXT
  5
151B0
330
747D
100
AcDbEntity
  8
文字
 62
     7
 48
50.0
100
AcDbText
 10
13248.77747366447
 20
9060.013745883729
 30
0.0
 40
100.0
  1
13
  7
STYLE1
100
AcDbText
  0
LINE
  5
151B1
330
747D
100
AcDbEntity
  8
仕様書枠
 48
50.0
100
AcDbLine
 10
16307.19999999999
 20
8519.600000000004
 30
0.0
 11
13127.2
 21
8519.600000000009
 31
0.0
  0
LINE
  5
151B2
330
747D
100
AcDbEntity
  8
仕様書枠
 48
50.0
100
AcDbLine
 10
16307.19999999999
 20
9199.600000000001
 30
0.0
 11
13127.2
 21
9199.600000000001
 31
0.0
  0
TEXT
  5
151B3
330
747D
100
AcDbEntity
  8
文字
 62
     7
 48
50.0
100
AcDbText
 10
13248.77747366447
 20
9400.013745883729
 30
0.0
 40
100.0
  1
11
  7
STYLE1
100
AcDbText
  0
LINE
  5
151B4
330
747D
100
AcDbEntity
  8
仕様書枠
 48
50.0
100
AcDbLine
 10
16307.2
 20
9879.600000000001
 30
0.0
 11
13127.2
 21
9879.600000000001
 31
0.0
  0
LINE
  5
151B5
330
747D
100
AcDbEntity
  8
仕様書枠
 48
50.0
100
AcDbLine
 10
16307.2
 20
10219.6
 30
0.0
 11
13127.2
 21
10219.6
 31
0.0
  0
LINE
  5
151B6
330
747D
100
AcDbEntity
  8
仕様書枠
 48
50.0
100
AcDbLine
 10
16307.19999999999
 20
9539.6
 30
0.0
 11
13127.2
 21
9539.6
 31
0.0
  0
LINE
  5
151B7
330
747D
100
AcDbEntity
  8
仕様書枠
 48
50.0
100
AcDbLine
 10
16307.19999999999
 20
9369.600000000001
 30
0.0
 11
13127.2
 21
9369.600000000001
 31
0.0
  0
LINE
  5
151B8
330
747D
100
AcDbEntity
  8
仕様書枠
 48
50.0
100
AcDbLine
 10
16307.19999999999
 20
9709.600000000001
 30
0.0
 11
13127.2
 21
9709.600000000001
 31
0.0
  0
TEXT
  5
151B9
330
747D
100
AcDbEntity
  8
文字
 62
     7
 48
50.0
100
AcDbText
 10
13271.19032244792
 20
10250.01374588373
 30
0.0
 40
100.0
  1
6
  7
STYLE1
100
AcDbText
  0
TEXT
  5
151BA
330
747D
100
AcDbEntity
  8
文字
 62
     7
 48
50.0
100
AcDbText
 10
13271.19032244792
 20
10080.01374588373
 30
0.0
 40
100.0
  1
7
  7
STYLE1
100
AcDbText
  0
TEXT
  5
151BB
330
747D
100
AcDbEntity
  8
文字
 62
     7
 48
50.0
100
AcDbText
 10
13271.19032244792
 20
9740.013745883729
 30
0.0
 40
100.0
  1
9
  7
STYLE1
100
AcDbText
  0
TEXT
  5
151BC
330
747D
100
AcDbEntity
  8
文字
 62
     7
 48
50.0
100
AcDbText
 10
13271.19032244792
 20
9910.01374588373
 30
0.0
 40
100.0
  1
8
  7
STYLE1
100
AcDbText
  0
TEXT
  5
151BD
330
747D
100
AcDbEntity
  8
文字
 62
     7
 48
50.0
100
AcDbText
 10
13583.1181901657
 20
10080.01374588373
 30
0.0
 40
100.0
  1
鼻隠シ前後
  7
STYLE1
100
AcDbText
  0
TEXT
  5
151BE
330
747D
100
AcDbEntity
  8
文字
 62
     7
 48
50.0
100
AcDbText
 10
13583.11819016569
 20
9740.013745883729
 30
0.0
 40
100.0
  1
屋根パネル
  7
STYLE1
100
AcDbText
  0
TEXT
  5
151BF
330
747D
100
AcDbEntity
  8
文字
 62
     7
 48
50.0
100
AcDbText
 10
13583.11819016569
 20
9570.013745883729
 30
0.0
 40
100.0
  1
壁パネル
  7
STYLE1
100
AcDbText
  0
TEXT
  5
151C0
330
747D
100
AcDbEntity
  8
文字
 62
     7
 48
50.0
100
AcDbText
 10
13248.77747366447
 20
9570.013745883729
 30
0.0
 40
100.0
  1
10
  7
STYLE1
100
AcDbText
  0
TEXT
  5
151C1
330
747D
100
AcDbEntity
  8
文字
 62
     7
 48
50.0
100
AcDbText
 10
13583.1181901657
 20
10250.01374588373
 30
0.0
 40
100.0
  1
妻板左右
  7
STYLE1
100
AcDbText
  0
TEXT
  5
151C2
330
747D
100
AcDbEntity
  8
文字
 62
     7
 48
50.0
100
AcDbText
 10
13271.19032244792
 20
10420.01374588373
 30
0.0
 40
100.0
  1
5
  7
STYLE1
100
AcDbText
  0
TEXT
  5
151C3
330
747D
100
AcDbEntity
  8
文字
 62
     7
 48
50.0
100
AcDbText
 10
13583.1181901657
 20
10420.01374588373
 30
0.0
 40
100.0
  1
桁後
  7
STYLE1
100
AcDbText
  0
TEXT
  5
151C4
330
747D
100
AcDbEntity
  8
文字
 62
     7
 48
50.0
100
AcDbText
 10
13583.1181901657
 20
10590.01374588373
 30
0.0
 40
100.0
  1
鴨居
  7
STYLE1
100
AcDbText
  0
TEXT
  5
151C5
330
747D
100
AcDbEntity
  8
文字
 62
     7
 48
50.0
100
AcDbText
 10
13583.1181901657
 20
10930.01374588373
 30
0.0
 40
100.0
  1
柱
  7
STYLE1
100
AcDbText
  0
TEXT
  5
151C6
330
747D
100
AcDbEntity
  8
文字
 62
     7
 48
50.0
100
AcDbText
 10
13583.11819016569
 20
11100.01374588373
 30
0.0
 40
100.0
  1
土台枠
  7
STYLE1
100
AcDbText
  0
TEXT
  5
151C7
330
747D
100
AcDbEntity
  8
文字
 62
     7
 48
50.0
100
AcDbText
 10
14859.79774614482
 20
11270.01374588373
 30
0.0
 40
100.0
  1
材料（材質）　　単位mm
  7
STYLE1
100
AcDbText
  0
TEXT
  5
151C8
330
747D
100
AcDbEntity
  8
文字
 62
     7
 48
50.0
100
AcDbText
 10
13732.03840939435
 20
11270.01374588373
 30
0.0
 40
100.0
  1
部　　品　　名
  7
STYLE1
100
AcDbText
  0
TEXT
  5
151C9
330
747D
100
AcDbEntity
  8
文字
 62
     7
 48
50.0
100
AcDbText
 10
13271.19032244792
 20
10760.01374588373
 30
0.0
 40
100.0
  1
3
  7
STYLE1
100
AcDbText
  0
TEXT
  5
151CA
330
747D
100
AcDbEntity
  8
文字
 62
     7
 48
50.0
100
AcDbText
 10
13271.19032244792
 20
10590.01374588373
 30
0.0
 40
100.0
  1
4
  7
STYLE1
100
AcDbText
  0
TEXT
  5
151CB
330
747D
100
AcDbEntity
  8
文字
 62
     7
 48
50.0
100
AcDbText
 10
13271.19032244792
 20
10930.01374588373
 30
0.0
 40
100.0
  1
2
  7
STYLE1
100
AcDbText
  0
TEXT
  5
151CC
330
747D
100
AcDbEntity
  8
文字
 62
     7
 48
50.0
100
AcDbText
 10
13271.19032244792
 20
11100.01374588373
 30
0.0
 40
100.0
  1
1
  7
STYLE1
100
AcDbText
  0
TEXT
  5
151CD
330
747D
100
AcDbEntity
  8
文字
 62
     7
 48
50.0
100
AcDbText
 10
13197.42518560407
 20
11270.01374588373
 30
0.0
 40
100.0
  1
品番
  7
STYLE1
100
AcDbText
  0
LINE
  5
151CE
330
747D
100
AcDbEntity
  8
仕様書枠
 48
50.0
100
AcDbLine
 10
16307.19999999999
 20
10729.6
 30
0.0
 11
13127.2
 21
10729.6
 31
0.0
  0
LINE
  5
151CF
330
747D
100
AcDbEntity
  8
仕様書枠
 48
50.0
100
AcDbLine
 10
16307.19999999999
 20
10389.6
 30
0.0
 11
13127.2
 21
10389.6
 31
0.0
  0
LINE
  5
151D0
330
747D
100
AcDbEntity
  8
仕様書枠
 48
50.0
100
AcDbLine
 10
16307.19999999999
 20
10559.6
 30
0.0
 11
13127.2
 21
10559.6
 31
0.0
  0
LINE
  5
151D1
330
747D
100
AcDbEntity
  8
仕様書枠
 48
50.0
100
AcDbLine
 10
16307.2
 20
11069.6
 30
0.0
 11
13127.2
 21
11069.6
 31
0.0
  0
LINE
  5
151D2
330
747D
100
AcDbEntity
  8
仕様書枠
 48
50.0
100
AcDbLine
 10
16307.2
 20
10899.6
 30
0.0
 11
13127.2
 21
10899.6
 31
0.0
  0
LINE
  5
151D3
330
747D
100
AcDbEntity
  8
仕様書枠
 48
50.0
100
AcDbLine
 10
16307.2
 20
11239.6
 30
0.0
 11
13127.2
 21
11239.6
 31
0.0
  0
LINE
  5
151D4
330
747D
100
AcDbEntity
  8
仕様書枠
 48
50.0
100
AcDbLine
 10
13490.2
 20
11409.6
 30
0.0
 11
13490.20000000002
 21
8859.6
 31
0.0
  0
LINE
  5
151D5
330
747D
100
AcDbEntity
  8
仕様書枠
 48
50.0
100
AcDbLine
 10
14785.2
 20
11409.59999999999
 30
0.0
 11
14785.19999999999
 21
8859.6
 31
0.0
  0
LINE
  5
151D6
330
747D
100
AcDbEntity
  8
仕様書枠
 48
50.0
100
AcDbLine
 10
16307.19999999999
 20
8349.600000000007
 30
0.0
 11
16307.2
 21
11409.6
 31
0.0
  0
LINE
  5
151D7
330
747D
100
AcDbEntity
  8
仕様書枠
 48
50.0
100
AcDbLine
 10
16307.2
 20
11409.6
 30
0.0
 11
13127.2
 21
11409.6
 31
0.0
  0
LINE
  5
151D8
330
747D
100
AcDbEntity
  8
仕様書枠
 48
50.0
100
AcDbLine
 10
16307.2
 20
10049.6
 30
0.0
 11
13127.2
 21
10049.6
 31
0.0
  0
TEXT
  5
151D9
330
747D
100
AcDbEntity
  8
文字
 62
     7
 48
50.0
100
AcDbText
 10
15022.63965474514
 20
9060.013745883722
 30
0.0
 40
100.0
  1
F12            2.3
  7
STYLE1
100
AcDbText
  0
TEXT
  5
151DA
330
747D
100
AcDbEntity
  8
文字
 62
     7
 48
50.0
100
AcDbText
 10
13583.11819016568
 20
9060.013745883729
 30
0.0
 40
100.0
  1
アンカープレート
  7
STYLE1
100
AcDbText
  0
TEXT
  5
151DB
330
747D
100
AcDbEntity
  8
文字
 62
     7
 48
50.0
100
AcDbText
 10
15022.63965474517
 20
9910.01374588373
 30
0.0
 40
100.0
  1
F12,Y10       0.7+1.0
  7
STYLE1
100
AcDbText
  0
TEXT
  5
151DC
330
747D
100
AcDbEntity
  8
文字
 62
     7
 48
50.0
100
AcDbText
 10
13583.1181901657
 20
9910.01374588373
 30
0.0
 40
100.0
  1
梁中・梁中央
 41
0.9
  7
STYLE1
100
AcDbText
  0
DIMENSION
  5
157B1
330
747D
100
AcDbEntity
  8
寸法
 48
50.0
100
AcDbDimension
  2
*D29
 10
8043.620346402049
 20
6080.075840589953
 30
0.0
 11
6353.620346402045
 21
6080.075840589953
 31
0.0
 70
   160
 71
     5
 42
3380.000000000004
  3
INABA_S40G
100
AcDbAlignedDimension
 13
4663.620346402043
 23
5644.577276893866
 33
0.0
 14
8043.620346402049
 24
5644.577276893862
 34
0.0
100
AcDbRotatedDimension
  0
DIMENSION
  5
157B2
330
747D
100
AcDbEntity
  8
寸法
 48
50.0
100
AcDbDimension
  2
*D28
 10
4713.620346402044
 20
5857.118862152105
 30
0.0
 11
6353.620346402045
 21
5857.118862152105
 31
0.0
 70
   160
  1
柱外寸法<>
 71
     5
 42
3280.000000000004
  3
INABA_S40G
100
AcDbAlignedDimension
 13
7993.620346402048
 23
5644.577276893864
 33
0.0
 14
4713.620346402044
 24
5644.577276893868
 34
0.0
100
AcDbRotatedDimension
  0
DIMENSION
  5
157B4
330
747D
100
AcDbEntity
  8
寸法
 48
50.0
100
AcDbDimension
  2
*D27
 10
4663.620346402043
 20
5857.118862152105
 30
0.0
 11
4350.135065027796
 21
5857.118862152105
 31
0.0
 70
   160
 71
     5
 42
50.0
  3
INABA_S40G
100
AcDbAlignedDimension
 13
4713.620346402044
 23
5644.577276893868
 33
0.0
 14
4663.620346402043
 24
5644.577276893866
 34
0.0
100
AcDbRotatedDimension
1001
ACAD
1000
DSTYLE
1002
{
1002
}
  0
LINE
  5
157B5
330
747D
100
AcDbEntity
  8
細線
 48
50.0
100
AcDbLine
 10
4696.620346402044
 20
5644.577276893866
 30
0.0
 11
4696.620346402044
 21
5503.577276893864
 31
0.0
  0
ARC
  5
157B6
330
747D
100
AcDbEntity
  8
部品1
100
AcDbCircle
 10
4671.028767508473
 20
5637.577276893865
 30
0.0
 40
7.0
100
AcDbArc
 50
90.0
 51
183.2473427903377
  0
ARC
  5
157B7
330
747D
100
AcDbEntity
  8
部品1
100
AcDbCircle
 10
4684.244090969507
 20
5510.577276893867
 30
0.0
 40
7.0
100
AcDbArc
 50
183.2473427903377
 51
270.0
  0
ARC
  5
157B8
330
747D
100
AcDbEntity
  8
部品1
 48
50.0
100
AcDbCircle
 10
4665.872280758831
 20
5617.244276055552
 30
0.0
 40
0.7
100
AcDbArc
 50
183.2473427903897
 51
262.3418727926365
  0
ARC
  5
157B9
330
747D
100
AcDbEntity
  8
部品1
 48
50.0
100
AcDbCircle
 10
4674.108311283671
 20
5525.044276055548
 30
0.0
 40
0.7
100
AcDbArc
 50
183.2473427902922
 51
262.3418727926365
  0
ARC
  5
157BA
330
747D
100
AcDbEntity
  8
部品1
 48
50.0
100
AcDbCircle
 10
4673.61524217511
 20
5521.377276893865
 30
0.0
 40
3.0
100
AcDbArc
 50
3.247342790337682
 51
82.34187279263654
  0
ARC
  5
157BB
330
747D
100
AcDbEntity
  8
部品1
 48
50.0
100
AcDbCircle
 10
4665.379211650266
 20
5613.577276893865
 30
0.0
 40
3.0
100
AcDbArc
 50
3.247342790337682
 51
82.34187279263654
  0
LINE
  5
157BC
330
747D
100
AcDbEntity
  8
部品1
100
AcDbLine
 10
4668.374394546452
 20
5613.747216348969
 30
0.0
 11
4673.409435274563
 21
5525.004623516025
 31
0.0
  0
LINE
  5
157BD
330
747D
100
AcDbEntity
  8
部品1
100
AcDbLine
 10
4676.6104250713
 20
5521.547216348968
 30
0.0
 11
4677.255330878408
 21
5510.180751498626
 31
0.0
  0
LINE
  5
157BE
330
747D
100
AcDbEntity
  8
部品1
100
AcDbLine
 10
4664.040007417374
 20
5637.180751498624
 30
0.0
 11
4665.173404749722
 21
5617.204623516026
 31
0.0
  0
LINE
  5
157BF
330
747D
100
AcDbEntity
  8
部品1
 48
50.0
100
AcDbLine
 10
8036.211925295615
 20
5644.57727689386
 30
0.0
 11
4671.028767508473
 21
5644.577276893862
 31
0.0
  0
LINE
  5
157C0
330
747D
100
AcDbEntity
  8
細線
 48
50.0
100
AcDbLine
 10
8041.461695388667
 20
5616.550519457461
 30
0.0
 11
4665.778997412457
 21
5616.55051945786
 31
0.0
  0
LINE
  5
157C1
330
747D
100
AcDbEntity
  8
細線
 48
50.0
100
AcDbLine
 10
8033.225664863859
 20
5524.350519457463
 30
0.0
 11
4674.01502793729
 21
5524.35051945786
 31
0.0
  0
LINE
  5
157C2
330
747D
100
AcDbEntity
  8
部品1
 48
50.0
100
AcDbLine
 10
8022.996601834581
 20
5503.57727689386
 30
0.0
 11
4684.244090969507
 21
5503.577276893864
 31
0.0
  0
DIMENSION
  5
1581F
330
747D
100
AcDbEntity
  8
寸法
 48
50.0
100
AcDbDimension
  2
*D30
 10
7993.620346402048
 20
5857.118862152103
 30
0.0
 11
8357.105627776283
 21
5857.118862152103
 31
0.0
 70
   160
 71
     5
 42
50.0
  3
INABA_S40G
100
AcDbAlignedDimension
 13
8043.620346402049
 23
5644.577276893862
 33
0.0
 14
7993.620346402048
 24
5644.577276893864
 34
0.0
100
AcDbRotatedDimension
  0
LINE
  5
15820
330
747D
100
AcDbEntity
  8
部品1
100
AcDbLine
 10
8043.200685386713
 20
5637.180751498623
 30
0.0
 11
8042.067288054367
 21
5617.204623516023
 31
0.0
  0
LINE
  5
15821
330
747D
100
AcDbEntity
  8
細線
 48
50.0
100
AcDbLine
 10
8010.620346402047
 20
5644.577276893862
 30
0.0
 11
8010.620346402047
 21
5503.577276893862
 31
0.0
  0
LINE
  5
15822
330
747D
100
AcDbEntity
  8
部品1
100
AcDbLine
 10
8030.630267732792
 20
5521.547216348965
 30
0.0
 11
8029.98536192568
 21
5510.180751498625
 31
0.0
  0
LINE
  5
15823
330
747D
100
AcDbEntity
  8
部品1
100
AcDbLine
 10
8038.866298257635
 20
5613.747216348965
 30
0.0
 11
8033.831257529525
 21
5525.004623516022
 31
0.0
  0
ARC
  5
15824
330
747D
100
AcDbEntity
  8
部品1
 48
50.0
100
AcDbCircle
 10
8041.861481153821
 20
5613.577276893864
 30
0.0
 40
3.0
100
AcDbArc
 50
97.65812720736347
 51
176.7526572096623
  0
ARC
  5
15825
330
747D
100
AcDbEntity
  8
部品1
 48
50.0
100
AcDbCircle
 10
8033.625450628978
 20
5521.377276893861
 30
0.0
 40
3.0
100
AcDbArc
 50
97.65812720736347
 51
176.7526572096623
  0
ARC
  5
15826
330
747D
100
AcDbEntity
  8
部品1
 48
50.0
100
AcDbCircle
 10
8033.132381520415
 20
5525.044276055545
 30
0.0
 40
0.7
100
AcDbArc
 50
277.6581272073635
 51
356.7526572097079
  0
ARC
  5
15827
330
747D
100
AcDbEntity
  8
部品1
 48
50.0
100
AcDbCircle
 10
8041.36841204526
 20
5617.24427605555
 30
0.0
 40
0.7
100
AcDbArc
 50
277.6581272073635
 51
356.7526572096103
  0
ARC
  5
15828
330
747D
100
AcDbEntity
  8
部品1
100
AcDbCircle
 10
8022.996601834581
 20
5510.577276893864
 30
0.0
 40
7.0
100
AcDbArc
 50
270.0
 51
356.7526572096623
  0
ARC
  5
15829
330
747D
100
AcDbEntity
  8
部品1
100
AcDbCircle
 10
8036.211925295615
 20
5637.577276893862
 30
0.0
 40
7.0
100
AcDbArc
 50
356.7526572096623
 51
90.0
  0
ARC
  5
1664D
330
747D
100
AcDbEntity
  8
部品1
 48
0.01
100
AcDbCircle
 10
6851.620346402054
 20
5442.077276893859
 30
0.0
 40
2.0
100
AcDbArc
 50
270.0
 51
0.0
  0
ARC
  5
1664E
330
747D
100
AcDbEntity
  8
部品1
 48
0.01
100
AcDbCircle
 10
6851.620346402054
 20
5473.577276893859
 30
0.0
 40
2.0
100
AcDbArc
 50
0.0
 51
90.0
  0
ARC
  5
1664F
330
747D
100
AcDbEntity
  8
部品1
 48
0.01
100
AcDbCircle
 10
6675.620346402053
 20
5442.077276893859
 30
0.0
 40
2.0
100
AcDbArc
 50
180.0
 51
270.0
  0
ARC
  5
16650
330
747D
100
AcDbEntity
  8
部品1
 48
0.01
100
AcDbCircle
 10
6675.620346402053
 20
5473.577276893859
 30
0.0
 40
2.0
100
AcDbArc
 50
90.0
 51
180.0
  0
LINE
  5
16651
330
747D
100
AcDbEntity
  8
細線
100
AcDbLine
 10
6763.620346402053
 20
5446.077276893859
 30
0.0
 11
6837.620346402053
 21
5446.077276893859
 31
0.0
  0
LINE
  5
16652
330
747D
100
AcDbEntity
  8
細線
100
AcDbLine
 10
6763.620346402053
 20
5469.077276893859
 30
0.0
 11
6689.620346402053
 21
5469.077276893859
 31
0.0
  0
LINE
  5
16653
330
747D
100
AcDbEntity
  8
細線
100
AcDbLine
 10
6689.620346402053
 20
5446.077276893859
 30
0.0
 11
6763.620346402053
 21
5446.077276893859
 31
0.0
  0
LINE
  5
16654
330
747D
100
AcDbEntity
  8
細線
100
AcDbLine
 10
6837.620346402053
 20
5469.077276893859
 30
0.0
 11
6763.620346402053
 21
5469.077276893859
 31
0.0
  0
LINE
  5
16655
330
747D
100
AcDbEntity
  8
細線
100
AcDbLine
 10
6837.620346402053
 20
5446.077276893859
 30
0.0
 11
6837.620346402053
 21
5469.077276893859
 31
0.0
  0
LINE
  5
16656
330
747D
100
AcDbEntity
  8
細線
100
AcDbLine
 10
6689.620346402053
 20
5469.077276893859
 30
0.0
 11
6689.620346402053
 21
5446.077276893859
 31
0.0
  0
LINE
  5
16657
330
747D
100
AcDbEntity
  8
部品1
 48
0.01
100
AcDbLine
 10
6853.620346402053
 20
5442.077276893859
 30
0.0
 11
6853.620346402053
 21
5473.577276893859
 31
0.0
  0
LINE
  5
16658
330
747D
100
AcDbEntity
  8
部品1
 48
0.01
100
AcDbLine
 10
6675.620346402053
 20
5440.077276893859
 30
0.0
 11
6851.620346402054
 21
5440.077276893859
 31
0.0
  0
LINE
  5
16659
330
747D
100
AcDbEntity
  8
部品1
 48
0.01
100
AcDbLine
 10
6673.620346402053
 20
5473.577276893859
 30
0.0
 11
6673.620346402053
 21
5442.077276893859
 31
0.0
  0
LINE
  5
1665A
330
747D
100
AcDbEntity
  8
部品1
 48
0.01
100
AcDbLine
 10
6851.620346402054
 20
5475.577276893858
 30
0.0
 11
6675.620346402053
 21
5475.577276893858
 31
0.0
  0
LINE
  5
1665B
330
747D
100
AcDbEntity
  8
細線
100
AcDbLine
 10
6689.620346402053
 20
5463.077276893859
 30
0.0
 11
6763.620346402053
 21
5463.077276893859
 31
0.0
  0
LINE
  5
1665C
330
747D
100
AcDbEntity
  8
細線
100
AcDbLine
 10
6689.620346402053
 20
5457.077276893858
 30
0.0
 11
6763.620346402053
 21
5457.077276893858
 31
0.0
  0
LINE
  5
1665D
330
747D
100
AcDbEntity
  8
細線
100
AcDbLine
 10
6689.620346402053
 20
5451.077276893858
 30
0.0
 11
6763.620346402053
 21
5451.077276893858
 31
0.0
  0
LINE
  5
1665E
330
747D
100
AcDbEntity
  8
細線
100
AcDbLine
 10
6689.620346402053
 20
5463.077276893859
 30
0.0
 11
6758.620346402053
 21
5463.077276893859
 31
0.0
  0
LINE
  5
1665F
330
747D
100
AcDbEntity
  8
細線
100
AcDbLine
 10
6837.620346402053
 20
5463.077276893859
 30
0.0
 11
6763.620346402053
 21
5463.077276893859
 31
0.0
  0
LINE
  5
16660
330
747D
100
AcDbEntity
  8
細線
100
AcDbLine
 10
6837.620346402053
 20
5451.077276893858
 30
0.0
 11
6763.620346402053
 21
5451.077276893858
 31
0.0
  0
LINE
  5
16661
330
747D
100
AcDbEntity
  8
細線
100
AcDbLine
 10
6837.620346402053
 20
5457.077276893858
 30
0.0
 11
6763.620346402053
 21
5457.077276893858
 31
0.0
  0
LINE
  5
16662
330
747D
100
AcDbEntity
  8
細線
100
AcDbLine
 10
6763.620346402053
 20
5469.077276893859
 30
0.0
 11
6763.620346402053
 21
5446.077276893859
 31
0.0
  0
LINE
  5
16663
330
747D
100
AcDbEntity
  8
細線
100
AcDbLine
 10
5943.620346402051
 20
5469.077276893859
 30
0.0
 11
5943.620346402051
 21
5446.077276893859
 31
0.0
  0
LINE
  5
16664
330
747D
100
AcDbEntity
  8
細線
100
AcDbLine
 10
6017.620346402051
 20
5457.077276893858
 30
0.0
 11
5943.620346402051
 21
5457.077276893858
 31
0.0
  0
LINE
  5
16665
330
747D
100
AcDbEntity
  8
細線
100
AcDbLine
 10
6017.620346402051
 20
5451.077276893858
 30
0.0
 11
5943.620346402051
 21
5451.077276893858
 31
0.0
  0
LINE
  5
16666
330
747D
100
AcDbEntity
  8
細線
100
AcDbLine
 10
6017.620346402051
 20
5463.077276893859
 30
0.0
 11
5943.620346402051
 21
5463.077276893859
 31
0.0
  0
LINE
  5
16667
330
747D
100
AcDbEntity
  8
細線
100
AcDbLine
 10
5869.620346402051
 20
5463.077276893859
 30
0.0
 11
5938.620346402051
 21
5463.077276893859
 31
0.0
  0
LINE
  5
16668
330
747D
100
AcDbEntity
  8
細線
100
AcDbLine
 10
5869.620346402051
 20
5451.077276893858
 30
0.0
 11
5943.620346402051
 21
5451.077276893858
 31
0.0
  0
LINE
  5
16669
330
747D
100
AcDbEntity
  8
細線
100
AcDbLine
 10
5869.620346402051
 20
5457.077276893858
 30
0.0
 11
5943.620346402051
 21
5457.077276893858
 31
0.0
  0
LINE
  5
1666A
330
747D
100
AcDbEntity
  8
細線
100
AcDbLine
 10
5869.620346402051
 20
5463.077276893859
 30
0.0
 11
5943.620346402051
 21
5463.077276893859
 31
0.0
  0
LINE
  5
1666B
330
747D
100
AcDbEntity
  8
部品1
 48
0.01
100
AcDbLine
 10
6031.620346402051
 20
5475.577276893858
 30
0.0
 11
5855.620346402051
 21
5475.577276893858
 31
0.0
  0
LINE
  5
1666C
330
747D
100
AcDbEntity
  8
部品1
 48
0.01
100
AcDbLine
 10
5853.620346402051
 20
5473.577276893859
 30
0.0
 11
5853.620346402051
 21
5442.077276893859
 31
0.0
  0
LINE
  5
1666D
330
747D
100
AcDbEntity
  8
部品1
 48
0.01
100
AcDbLine
 10
5855.620346402051
 20
5440.077276893859
 30
0.0
 11
6031.620346402051
 21
5440.077276893859
 31
0.0
  0
LINE
  5
1666E
330
747D
100
AcDbEntity
  8
部品1
 48
0.01
100
AcDbLine
 10
6033.620346402051
 20
5442.077276893859
 30
0.0
 11
6033.620346402051
 21
5473.577276893859
 31
0.0
  0
LINE
  5
1666F
330
747D
100
AcDbEntity
  8
細線
100
AcDbLine
 10
5869.620346402051
 20
5469.077276893859
 30
0.0
 11
5869.620346402051
 21
5446.077276893859
 31
0.0
  0
LINE
  5
16670
330
747D
100
AcDbEntity
  8
細線
100
AcDbLine
 10
6017.620346402051
 20
5446.077276893859
 30
0.0
 11
6017.620346402051
 21
5469.077276893859
 31
0.0
  0
LINE
  5
16671
330
747D
100
AcDbEntity
  8
細線
100
AcDbLine
 10
6017.620346402051
 20
5469.077276893859
 30
0.0
 11
5943.620346402051
 21
5469.077276893859
 31
0.0
  0
LINE
  5
16672
330
747D
100
AcDbEntity
  8
細線
100
AcDbLine
 10
5869.620346402051
 20
5446.077276893859
 30
0.0
 11
5943.620346402051
 21
5446.077276893859
 31
0.0
  0
LINE
  5
16673
330
747D
100
AcDbEntity
  8
細線
100
AcDbLine
 10
5943.620346402051
 20
5469.077276893859
 30
0.0
 11
5869.620346402051
 21
5469.077276893859
 31
0.0
  0
LINE
  5
16674
330
747D
100
AcDbEntity
  8
細線
100
AcDbLine
 10
5943.620346402051
 20
5446.077276893859
 30
0.0
 11
6017.620346402051
 21
5446.077276893859
 31
0.0
  0
ARC
  5
16675
330
747D
100
AcDbEntity
  8
部品1
 48
0.01
100
AcDbCircle
 10
5855.620346402051
 20
5473.577276893859
 30
0.0
 40
2.0
100
AcDbArc
 50
90.0
 51
180.0
  0
ARC
  5
16676
330
747D
100
AcDbEntity
  8
部品1
 48
0.01
100
AcDbCircle
 10
5855.620346402051
 20
5442.077276893859
 30
0.0
 40
2.0
100
AcDbArc
 50
180.0
 51
270.0
  0
ARC
  5
16677
330
747D
100
AcDbEntity
  8
部品1
 48
0.01
100
AcDbCircle
 10
6031.620346402051
 20
5473.577276893859
 30
0.0
 40
2.0
100
AcDbArc
 50
0.0
 51
90.0
  0
ARC
  5
16678
330
747D
100
AcDbEntity
  8
部品1
 48
0.01
100
AcDbCircle
 10
6031.620346402051
 20
5442.077276893859
 30
0.0
 40
2.0
100
AcDbArc
 50
270.0
 51
0.0
  0
ARC
  5
16679
330
747D
100
AcDbEntity
  8
部品1
 48
0.01
100
AcDbCircle
 10
5211.62034640205
 20
5442.077276893859
 30
0.0
 40
2.0
100
AcDbArc
 50
270.0
 51
0.0
  0
ARC
  5
1667A
330
747D
100
AcDbEntity
  8
部品1
 48
0.01
100
AcDbCircle
 10
5211.62034640205
 20
5473.577276893859
 30
0.0
 40
2.0
100
AcDbArc
 50
0.0
 51
90.0
  0
ARC
  5
1667B
330
747D
100
AcDbEntity
  8
部品1
 48
0.01
100
AcDbCircle
 10
5035.620346402051
 20
5442.077276893859
 30
0.0
 40
2.0
100
AcDbArc
 50
180.0
 51
270.0
  0
ARC
  5
1667C
330
747D
100
AcDbEntity
  8
部品1
 48
0.01
100
AcDbCircle
 10
5035.620346402051
 20
5473.577276893859
 30
0.0
 40
2.0
100
AcDbArc
 50
90.0
 51
180.0
  0
LINE
  5
1667D
330
747D
100
AcDbEntity
  8
細線
100
AcDbLine
 10
5123.620346402051
 20
5446.077276893859
 30
0.0
 11
5197.62034640205
 21
5446.077276893859
 31
0.0
  0
LINE
  5
1667E
330
747D
100
AcDbEntity
  8
細線
100
AcDbLine
 10
5123.620346402051
 20
5469.077276893859
 30
0.0
 11
5049.620346402051
 21
5469.077276893859
 31
0.0
  0
LINE
  5
1667F
330
747D
100
AcDbEntity
  8
細線
100
AcDbLine
 10
5049.620346402051
 20
5446.077276893859
 30
0.0
 11
5123.620346402051
 21
5446.077276893859
 31
0.0
  0
LINE
  5
16680
330
747D
100
AcDbEntity
  8
細線
100
AcDbLine
 10
5197.62034640205
 20
5469.077276893859
 30
0.0
 11
5123.620346402051
 21
5469.077276893859
 31
0.0
  0
LINE
  5
16681
330
747D
100
AcDbEntity
  8
細線
100
AcDbLine
 10
5197.62034640205
 20
5446.077276893859
 30
0.0
 11
5197.62034640205
 21
5469.077276893859
 31
0.0
  0
LINE
  5
16682
330
747D
100
AcDbEntity
  8
細線
100
AcDbLine
 10
5049.620346402051
 20
5469.077276893859
 30
0.0
 11
5049.620346402051
 21
5446.077276893859
 31
0.0
  0
LINE
  5
16683
330
747D
100
AcDbEntity
  8
部品1
 48
0.01
100
AcDbLine
 10
5213.620346402051
 20
5442.077276893859
 30
0.0
 11
5213.620346402051
 21
5473.577276893859
 31
0.0
  0
LINE
  5
16684
330
747D
100
AcDbEntity
  8
部品1
 48
0.01
100
AcDbLine
 10
5035.620346402051
 20
5440.077276893859
 30
0.0
 11
5211.62034640205
 21
5440.077276893859
 31
0.0
  0
LINE
  5
16685
330
747D
100
AcDbEntity
  8
部品1
 48
0.01
100
AcDbLine
 10
5033.620346402051
 20
5473.577276893859
 30
0.0
 11
5033.620346402051
 21
5442.077276893859
 31
0.0
  0
LINE
  5
16686
330
747D
100
AcDbEntity
  8
部品1
 48
0.01
100
AcDbLine
 10
5211.62034640205
 20
5475.577276893858
 30
0.0
 11
5035.620346402051
 21
5475.577276893858
 31
0.0
  0
LINE
  5
16687
330
747D
100
AcDbEntity
  8
細線
100
AcDbLine
 10
5049.620346402051
 20
5463.077276893859
 30
0.0
 11
5123.620346402051
 21
5463.077276893859
 31
0.0
  0
LINE
  5
16688
330
747D
100
AcDbEntity
  8
細線
100
AcDbLine
 10
5049.620346402051
 20
5457.077276893858
 30
0.0
 11
5123.620346402051
 21
5457.077276893858
 31
0.0
  0
LINE
  5
16689
330
747D
100
AcDbEntity
  8
細線
100
AcDbLine
 10
5049.620346402051
 20
5451.077276893858
 30
0.0
 11
5123.620346402051
 21
5451.077276893858
 31
0.0
  0
LINE
  5
1668A
330
747D
100
AcDbEntity
  8
細線
100
AcDbLine
 10
5049.620346402051
 20
5463.077276893859
 30
0.0
 11
5118.62034640205
 21
5463.077276893859
 31
0.0
  0
LINE
  5
1668B
330
747D
100
AcDbEntity
  8
細線
100
AcDbLine
 10
5197.62034640205
 20
5463.077276893859
 30
0.0
 11
5123.620346402051
 21
5463.077276893859
 31
0.0
  0
LINE
  5
1668C
330
747D
100
AcDbEntity
  8
細線
100
AcDbLine
 10
5197.62034640205
 20
5451.077276893858
 30
0.0
 11
5123.620346402051
 21
5451.077276893858
 31
0.0
  0
LINE
  5
1668D
330
747D
100
AcDbEntity
  8
細線
100
AcDbLine
 10
5197.62034640205
 20
5457.077276893858
 30
0.0
 11
5123.620346402051
 21
5457.077276893858
 31
0.0
  0
LINE
  5
1668E
330
747D
100
AcDbEntity
  8
細線
100
AcDbLine
 10
5123.620346402051
 20
5469.077276893859
 30
0.0
 11
5123.620346402051
 21
5446.077276893859
 31
0.0
  0
LINE
  5
1668F
330
747D
100
AcDbEntity
  8
細線
100
AcDbLine
 10
7583.620346402053
 20
5469.077276893859
 30
0.0
 11
7583.620346402053
 21
5446.077276893859
 31
0.0
  0
LINE
  5
16690
330
747D
100
AcDbEntity
  8
細線
100
AcDbLine
 10
7657.620346402052
 20
5457.077276893858
 30
0.0
 11
7583.620346402053
 21
5457.077276893858
 31
0.0
  0
LINE
  5
16691
330
747D
100
AcDbEntity
  8
細線
100
AcDbLine
 10
7657.620346402052
 20
5451.077276893858
 30
0.0
 11
7583.620346402053
 21
5451.077276893858
 31
0.0
  0
LINE
  5
16692
330
747D
100
AcDbEntity
  8
細線
100
AcDbLine
 10
7657.620346402052
 20
5463.077276893859
 30
0.0
 11
7583.620346402053
 21
5463.077276893859
 31
0.0
  0
LINE
  5
16693
330
747D
100
AcDbEntity
  8
細線
100
AcDbLine
 10
7509.620346402053
 20
5463.077276893859
 30
0.0
 11
7578.620346402053
 21
5463.077276893859
 31
0.0
  0
LINE
  5
16694
330
747D
100
AcDbEntity
  8
細線
100
AcDbLine
 10
7509.620346402053
 20
5451.077276893858
 30
0.0
 11
7583.620346402053
 21
5451.077276893858
 31
0.0
  0
LINE
  5
16695
330
747D
100
AcDbEntity
  8
細線
100
AcDbLine
 10
7509.620346402053
 20
5457.077276893858
 30
0.0
 11
7583.620346402053
 21
5457.077276893858
 31
0.0
  0
LINE
  5
16696
330
747D
100
AcDbEntity
  8
細線
100
AcDbLine
 10
7509.620346402053
 20
5463.077276893859
 30
0.0
 11
7583.620346402053
 21
5463.077276893859
 31
0.0
  0
LINE
  5
16697
330
747D
100
AcDbEntity
  8
部品1
 48
0.01
100
AcDbLine
 10
7671.620346402052
 20
5475.577276893858
 30
0.0
 11
7495.620346402053
 21
5475.577276893858
 31
0.0
  0
LINE
  5
16698
330
747D
100
AcDbEntity
  8
部品1
 48
0.01
100
AcDbLine
 10
7493.620346402052
 20
5473.577276893859
 30
0.0
 11
7493.620346402052
 21
5442.077276893859
 31
0.0
  0
LINE
  5
16699
330
747D
100
AcDbEntity
  8
部品1
 48
0.01
100
AcDbLine
 10
7495.620346402053
 20
5440.077276893859
 30
0.0
 11
7671.620346402052
 21
5440.077276893859
 31
0.0
  0
LINE
  5
1669A
330
747D
100
AcDbEntity
  8
部品1
 48
0.01
100
AcDbLine
 10
7673.620346402053
 20
5442.077276893859
 30
0.0
 11
7673.620346402053
 21
5473.577276893859
 31
0.0
  0
LINE
  5
1669B
330
747D
100
AcDbEntity
  8
細線
100
AcDbLine
 10
7509.620346402053
 20
5469.077276893859
 30
0.0
 11
7509.620346402053
 21
5446.077276893859
 31
0.0
  0
LINE
  5
1669C
330
747D
100
AcDbEntity
  8
細線
100
AcDbLine
 10
7657.620346402052
 20
5446.077276893859
 30
0.0
 11
7657.620346402052
 21
5469.077276893859
 31
0.0
  0
LINE
  5
1669D
330
747D
100
AcDbEntity
  8
細線
100
AcDbLine
 10
7657.620346402052
 20
5469.077276893859
 30
0.0
 11
7583.620346402053
 21
5469.077276893859
 31
0.0
  0
LINE
  5
1669E
330
747D
100
AcDbEntity
  8
細線
100
AcDbLine
 10
7509.620346402053
 20
5446.077276893859
 30
0.0
 11
7583.620346402053
 21
5446.077276893859
 31
0.0
  0
LINE
  5
1669F
330
747D
100
AcDbEntity
  8
細線
100
AcDbLine
 10
7583.620346402053
 20
5469.077276893859
 30
0.0
 11
7509.620346402053
 21
5469.077276893859
 31
0.0
  0
LINE
  5
166A0
330
747D
100
AcDbEntity
  8
細線
100
AcDbLine
 10
7583.620346402053
 20
5446.077276893859
 30
0.0
 11
7657.620346402052
 21
5446.077276893859
 31
0.0
  0
ARC
  5
166A1
330
747D
100
AcDbEntity
  8
部品1
 48
0.01
100
AcDbCircle
 10
7495.620346402053
 20
5473.577276893859
 30
0.0
 40
2.0
100
AcDbArc
 50
90.0
 51
180.0
  0
ARC
  5
166A2
330
747D
100
AcDbEntity
  8
部品1
 48
0.01
100
AcDbCircle
 10
7495.620346402053
 20
5442.077276893859
 30
0.0
 40
2.0
100
AcDbArc
 50
180.0
 51
270.0
  0
ARC
  5
166A3
330
747D
100
AcDbEntity
  8
部品1
 48
0.01
100
AcDbCircle
 10
7671.620346402052
 20
5473.577276893859
 30
0.0
 40
2.0
100
AcDbArc
 50
0.0
 51
90.0
  0
ARC
  5
166A4
330
747D
100
AcDbEntity
  8
部品1
 48
0.01
100
AcDbCircle
 10
7671.620346402052
 20
5442.077276893859
 30
0.0
 40
2.0
100
AcDbArc
 50
270.0
 51
0.0
  0
MTEXT
  5
167FD
330
747D
100
AcDbEntity
  8
寸法
 62
     7
 48
50.0
100
AcDbMText
 10
5958.900144012621
 20
8896.479662645715
 30
0.0
 40
96.0
 41
0.0
 71
     5
 72
     1
  1
棚 2段
  7
STYLE1
 73
     1
 44
1.0
1001
ACAD
1000
MTEXTBEGIN
1070
    73
1070
     1
1070
    44
1040
1.0
1070
    74
1070
     0
1000
MTEXTEND
  0
MTEXT
  5
167FE
330
747D
100
AcDbEntity
  8
寸法
 62
     7
 48
50.0
100
AcDbMText
 10
5138.900150690318
 20
8896.479662645729
 30
0.0
 40
96.0
 41
0.0
 71
     5
 72
     1
  1
棚 2段
  7
STYLE1
 73
     1
 44
1.0
1001
ACAD
1000
MTEXTBEGIN
1070
    73
1070
     1
1070
    44
1040
1.0
1070
    74
1070
     0
1000
MTEXTEND
  0
MTEXT
  5
169D8
330
747D
100
AcDbEntity
  8
寸法
 62
     7
 48
50.0
100
AcDbMText
 10
7598.900144012623
 20
8896.479662645715
 30
0.0
 40
96.0
 41
0.0
 71
     5
 72
     1
  1
棚 2段
  7
STYLE1
 73
     1
 44
1.0
1001
ACAD
1000
MTEXTBEGIN
1070
    73
1070
     1
1070
    44
1040
1.0
1070
    74
1070
     0
1000
MTEXTEND
  0
MTEXT
  5
169D9
330
747D
100
AcDbEntity
  8
寸法
 62
     7
 48
50.0
100
AcDbMText
 10
6778.90015069032
 20
8896.479662645727
 30
0.0
 40
96.0
 41
0.0
 71
     5
 72
     1
  1
棚 2段
  7
STYLE1
 73
     1
 44
1.0
1001
ACAD
1000
MTEXTBEGIN
1070
    73
1070
     1
1070
    44
1040
1.0
1070
    74
1070
     0
1000
MTEXTEND
  0
LWPOLYLINE
  5
16C2F
330
747D
100
AcDbEntity
  8
部品1
100
AcDbPolyline
 90
        4
 70
     1
 43
0.0
 10
10473.7569258482
 20
2866.500696077143
 10
10473.7569258482
 20
2626.60837453161
 10
11237.22759207664
 20
2626.60837453161
 10
11237.22759207664
 20
2866.500696077143
  0
TEXT
  5
16C30
330
747D
100
AcDbEntity
  8
部品1
100
AcDbText
 10
10563.20302727181
 20
2673.607166858619
 30
0.0
 40
135.0
  1
側面図
  7
STYLE2
100
AcDbText
  0
DIMENSION
  5
16C31
330
747D
100
AcDbEntity
  8
寸法
100
AcDbDimension
  2
*D31
 10
9518.898380807137
 20
5644.577276893866
 30
0.0
 11
9518.898380807135
 21
4597.155906173022
 31
0.0
 70
   160
 71
     5
 42
2075.000000000006
  3
INABA_S40G
100
AcDbAlignedDimension
 13
10380.49225896242
 23
3569.57727689386
 33
0.0
 14
10320.49225896243
 24
5644.577276893866
 34
0.0
 50
90.0
100
AcDbRotatedDimension
1001
ACAD
1000
DSTYLE
1002
{
1070
   174
1070
     0
1070
   272
1070
     1
1070
   288
1070
     0
1070
   341
1005
0
1002
}
  0
TEXT
  5
16C32
330
747D
100
AcDbEntity
  8
部品1
 48
50.0
100
AcDbText
 10
10703.76009418615
 20
5811.329438147573
 30
0.0
 40
120.0
  1
1000
  7
STYLE1
100
AcDbText
  0
LINE
  5
16C33
330
747D
100
AcDbEntity
  8
部品1
100
AcDbLine
 10
10328.03724531939
 20
5643.295012228128
 30
0.0
 11
11403.10413582388
 21
5588.218074603001
 31
0.0
  0
LINE
  5
16C34
330
747D
100
AcDbEntity
  8
部品1
100
AcDbLine
 10
10335.83482356438
 20
5502.358301962828
 30
0.0
 11
11385.15595950227
 21
5463.329876728623
 31
0.0
  0
LINE
  5
16C35
330
747D
100
AcDbEntity
  8
細線
 48
50.0
100
AcDbLine
 10
10353.49225896242
 20
5641.976953269266
 30
0.0
 11
10348.20315740691
 21
5501.891320641911
 31
0.0
  0
LINE
  5
16C36
330
747D
100
AcDbEntity
  8
細線
 48
50.0
100
AcDbLine
 10
11377.49225896242
 20
5589.544255929157
 30
0.0
 11
11372.74457607442
 21
5463.798483438413
 31
0.0
  0
LINE
  5
16C37
330
747D
100
AcDbEntity
  8
部品1
 48
50.0
100
AcDbLine
 10
10320.67654487553
 20
5636.170823058553
 30
0.0
 11
10321.05680465334
 21
5616.243858612143
 31
0.0
  0
LINE
  5
16C38
330
747D
100
AcDbEntity
  8
部品1
 48
50.0
100
AcDbLine
 10
10324.12557675959
 20
5612.668577118669
 30
0.0
 11
10325.82947825095
 21
5523.378080412023
 31
0.0
  0
LINE
  5
16C39
330
747D
100
AcDbEntity
  8
細線
 48
50.0
100
AcDbLine
 10
10321.53168206324
 20
5615.594358735223
 30
0.0
 11
11407.16766680841
 21
5559.970154094395
 31
0.0
  0
LINE
  5
16C3A
330
747D
100
AcDbEntity
  8
細線
 48
50.0
100
AcDbLine
 10
10326.29215730052
 20
5522.73284703736
 30
0.0
 11
11396.29582173116
 21
5482.923528062865
 31
0.0
  0
LINE
  5
16C3B
330
747D
100
AcDbEntity
  8
部品1
 48
50.0
100
AcDbLine
 10
10328.89825035719
 20
5519.802798918551
 30
0.0
 11
10329.10020297763
 21
5509.219763525457
 31
0.0
  0
ARC
  5
16C3C
330
747D
100
AcDbEntity
  8
部品1
 48
50.0
100
AcDbCircle
 10
10327.67527070387
 20
5636.304377465982
 30
0.0
 40
7.0
100
AcDbArc
 50
87.03587545304044
 51
181.093224029263
  0
ARC
  5
16C3D
330
747D
100
AcDbEntity
  8
部品1
 48
50.0
100
AcDbCircle
 10
10336.09892880597
 20
5509.353317932886
 30
0.0
 40
7.0
100
AcDbArc
 50
181.093224029263
 51
267.8377559871574
  0
ARC
  5
16C3E
330
747D
100
AcDbEntity
  8
部品1
100
AcDbCircle
 10
10325.89879643076
 20
5519.745561315367
 30
0.0
 40
3.0
100
AcDbArc
 50
1.093224029263039
 51
80.18775403148449
  0
ARC
  5
16C3F
330
747D
100
AcDbEntity
  8
部品1
100
AcDbCircle
 10
10321.12612283316
 20
5612.611339515486
 30
0.0
 40
3.0
100
AcDbArc
 50
1.093224029263039
 51
80.18775403148449
  0
ARC
  5
16C40
330
747D
100
AcDbEntity
  8
部品1
100
AcDbCircle
 10
10321.75667723618
 20
5616.257214052884
 30
0.0
 40
0.7
100
AcDbArc
 50
181.0932240292109
 51
260.1877540314845
  0
ARC
  5
16C41
330
747D
100
AcDbEntity
  8
部品1
100
AcDbCircle
 10
10326.52935083379
 20
5523.391435852765
 30
0.0
 40
0.7
100
AcDbArc
 50
181.0932240292109
 51
260.1877540314845
  0
LINE
  5
16C42
330
747D
100
AcDbEntity
  8
部品1
 48
50.0
100
AcDbLine
 10
11409.70616177312
 20
5580.51842916808
 30
0.0
 11
11407.67554058216
 21
5560.573387910299
 31
0.0
  0
LINE
  5
16C43
330
747D
100
AcDbEntity
  8
部品1
 48
50.0
100
AcDbLine
 10
11404.32297409767
 20
5557.262753837391
 30
0.0
 11
11396.81619483284
 21
5483.530133092378
 31
0.0
  0
LINE
  5
16C44
330
747D
100
AcDbEntity
  8
部品1
 48
50.0
100
AcDbLine
 10
11393.46362834835
 20
5480.219499019465
 30
0.0
 11
11392.38406530861
 21
5469.615882025906
 31
0.0
  0
ARC
  5
16C45
330
747D
100
AcDbEntity
  8
部品1
 48
50.0
100
AcDbCircle
 10
11402.74216120837
 20
5581.227439840853
 30
0.0
 40
7.0
100
AcDbArc
 50
354.1866997665479
 51
87.03587545304044
  0
ARC
  5
16C46
330
747D
100
AcDbEntity
  8
部品1
 48
50.0
100
AcDbCircle
 10
11385.42006474385
 20
5470.32489269868
 30
0.0
 40
7.0
100
AcDbArc
 50
267.8377559871574
 51
354.1866997665479
  0
ARC
  5
16C47
330
747D
100
AcDbEntity
  8
部品1
100
AcDbCircle
 10
11396.44820001896
 20
5479.915637302564
 30
0.0
 40
3.0
100
AcDbArc
 50
95.09216976420788
 51
174.1866997665479
  0
ARC
  5
16C48
330
747D
100
AcDbEntity
  8
部品1
100
AcDbCircle
 10
11407.30754576828
 20
5556.958892120487
 30
0.0
 40
3.0
100
AcDbArc
 50
95.09216976442012
 51
174.1866997665479
  0
ARC
  5
16C49
330
747D
100
AcDbEntity
  8
部品1
100
AcDbCircle
 10
11406.97914052568
 20
5560.644288977577
 30
0.0
 40
0.7
100
AcDbArc
 50
275.0921697642079
 51
354.1866997665479
  0
ARC
  5
16C4A
330
747D
100
AcDbEntity
  8
部品1
100
AcDbCircle
 10
11396.11979477636
 20
5483.601034159654
 30
0.0
 40
0.7
100
AcDbArc
 50
275.0921697642079
 51
354.1866997667061
  0
LINE
  5
16C4B
330
747D
100
AcDbEntity
  8
部品1
 48
50.0
100
AcDbLine
 10
10715.49225896242
 20
5775.44541599514
 30
0.0
 11
11015.49225896242
 21
5775.44541599514
 31
0.0
  0
LINE
  5
16C4C
330
747D
100
AcDbEntity
  8
部品1
 48
50.0
100
AcDbLine
 10
11015.49225896242
 20
5775.44541599514
 30
0.0
 11
11015.49225896242
 21
5759.245415995142
 31
0.0
  0
TEXT
  5
16C4D
330
747D
100
AcDbEntity
  8
部品1
 48
50.0
100
AcDbText
 10
11192.58510625029
 20
5673.828179929291
 30
0.0
 40
120.0
  1
104
 50
90.0
  7
STYLE1
100
AcDbText
  0
LINE
  5
16C4E
330
747D
100
AcDbEntity
  8
部品1
 48
50.0
100
AcDbLine
 10
10715.49225896242
 20
5775.44541599514
 30
0.0
 11
11015.49225896242
 21
5759.245415995142
 31
0.0
  0
DIMENSION
  5
16C4F
330
747D
100
AcDbEntity
  8
寸法
 48
50.0
100
AcDbDimension
  2
*D32
 10
9759.883852194057
 20
5518.922535767192
 30
0.0
 11
9770.549327452982
 21
5889.769199008891
 31
0.0
 70
   161
 71
     5
 42
141.0
  3
INABA_S40G
100
AcDbAlignedDimension
 13
10339.888279121
 23
5643.300025728541
 33
0.0
 14
10335.83482356438
 24
5502.358301962828
 34
0.0
1001
ACAD
1000
DSTYLE
1002
{
1070
   174
1070
     0
1070
   272
1070
     1
1070
   288
1070
     0
1070
   341
1005
0
1002
}
  0
DIMENSION
  5
16C50
330
747D
100
AcDbEntity
  8
寸法
 48
50.0
100
AcDbDimension
  2
*D33
 10
10320.49225896242
 20
6043.234730473165
 30
0.0
 11
10010.85446368683
 21
6043.234730473165
 31
0.0
 70
   160
 71
     5
 42
60.0
  3
INABA_S40G
100
AcDbAlignedDimension
 13
10380.49225896242
 23
5640.578895016837
 33
0.0
 14
10320.49225896242
 24
5644.577276893866
 34
0.0
100
AcDbRotatedDimension
1001
ACAD
1000
DSTYLE
1002
{
1070
   174
1070
     0
1070
   272
1070
     1
1070
   288
1070
     0
1070
   341
1005
0
1002
}
  0
DIMENSION
  5
16C51
330
747D
100
AcDbEntity
  8
寸法
 48
50.0
100
AcDbDimension
  2
*D34
 10
10380.49225896242
 20
6043.234730473165
 30
0.0
 11
10877.20406119332
 21
6043.234730473165
 31
0.0
 70
   160
  1
柱外寸法<>
 71
     5
 42
950.0
  3
INABA_S40G
100
AcDbAlignedDimension
 13
11330.49225896242
 23
5591.387956505514
 33
0.0
 14
10380.49225896242
 24
5640.578895016837
 34
0.0
100
AcDbRotatedDimension
1001
ACAD
1000
DSTYLE
1002
{
1070
   174
1070
     0
1070
   272
1070
     1
1070
   288
1070
     0
1070
   341
1005
0
1002
}
  0
DIMENSION
  5
16C52
330
747D
100
AcDbEntity
  8
寸法
 48
50.0
100
AcDbDimension
  2
*D35
 10
10320.49225896242
 20
6277.937939113255
 30
0.0
 11
10867.40921937678
 21
6277.937939113255
 31
0.0
 70
   160
 71
     5
 42
1090.0
  3
INABA_S40G
100
AcDbAlignedDimension
 13
11410.49225896242
 23
5589.577276893862
 33
0.0
 14
10320.49225896242
 24
5644.577276893866
 34
0.0
100
AcDbRotatedDimension
1001
ACAD
1000
DSTYLE
1002
{
1070
   174
1070
     0
1070
   272
1070
     1
1070
   288
1070
     0
1070
   341
1005
0
1002
}
  0
DIMENSION
  5
16C53
330
747D
100
AcDbEntity
  8
寸法
 48
50.0
100
AcDbDimension
  2
*D36
 10
11410.49225896242
 20
6043.234730473165
 30
0.0
 11
11616.53950305691
 21
6043.234730473165
 31
0.0
 70
   160
 71
     5
 42
80.0
  3
INABA_S40G
100
AcDbAlignedDimension
 13
11330.49225896242
 23
5591.387956505514
 33
0.0
 14
11410.49225896242
 24
5589.577276893862
 34
0.0
100
AcDbRotatedDimension
1001
ACAD
1000
DSTYLE
1002
{
1070
   174
1070
     0
1070
   272
1070
     1
1070
   288
1070
     0
1070
   341
1005
0
1002
}
  0
LINE
  5
16C54
330
747D
100
AcDbEntity
  8
細線
 48
50.0
100
AcDbLine
 10
10512.99225896243
 20
5409.577276893861
 30
0.0
 11
10512.99225896243
 21
3619.57727689386
 31
0.0
  0
LINE
  5
16C55
330
747D
100
AcDbEntity
  8
細線
 48
50.0
100
AcDbLine
 10
10497.99225896243
 20
5409.577276893861
 30
0.0
 11
10497.99225896243
 21
3619.57727689386
 31
0.0
  0
LINE
  5
16C56
330
747D
100
AcDbEntity
  8
細線
 48
50.0
100
AcDbLine
 10
10637.99225896243
 20
5409.577276893861
 30
0.0
 11
10637.99225896243
 21
3619.57727689386
 31
0.0
  0
LINE
  5
16C57
330
747D
100
AcDbEntity
  8
細線
 48
50.0
100
AcDbLine
 10
10652.99225896243
 20
5409.577276893861
 30
0.0
 11
10652.99225896243
 21
3619.57727689386
 31
0.0
  0
LINE
  5
16C58
330
747D
100
AcDbEntity
  8
細線
 48
50.0
100
AcDbLine
 10
10792.99225896243
 20
5409.577276893861
 30
0.0
 11
10792.99225896243
 21
3619.57727689386
 31
0.0
  0
LINE
  5
16C59
330
747D
100
AcDbEntity
  8
細線
 48
50.0
100
AcDbLine
 10
10777.99225896243
 20
5409.577276893861
 30
0.0
 11
10777.99225896243
 21
3619.57727689386
 31
0.0
  0
LINE
  5
16C5A
330
747D
100
AcDbEntity
  8
細線
 48
50.0
100
AcDbLine
 10
10932.99225896243
 20
5409.577276893861
 30
0.0
 11
10932.99225896243
 21
3619.57727689386
 31
0.0
  0
LINE
  5
16C5B
330
747D
100
AcDbEntity
  8
細線
 48
50.0
100
AcDbLine
 10
10917.99225896243
 20
5409.577276893861
 30
0.0
 11
10917.99225896243
 21
3619.57727689386
 31
0.0
  0
LINE
  5
16C5C
330
747D
100
AcDbEntity
  8
細線
 48
50.0
100
AcDbLine
 10
11057.99225896243
 20
5409.577276893861
 30
0.0
 11
11057.99225896243
 21
3619.57727689386
 31
0.0
  0
LINE
  5
16C5D
330
747D
100
AcDbEntity
  8
細線
 48
50.0
100
AcDbLine
 10
11072.99225896243
 20
5409.577276893861
 30
0.0
 11
11072.99225896243
 21
3619.57727689386
 31
0.0
  0
LINE
  5
16C5E
330
747D
100
AcDbEntity
  8
細線
 48
50.0
100
AcDbLine
 10
11212.99225896243
 20
5409.577276893861
 30
0.0
 11
11212.99225896243
 21
3619.57727689386
 31
0.0
  0
LINE
  5
16C5F
330
747D
100
AcDbEntity
  8
細線
 48
50.0
100
AcDbLine
 10
11197.99225896243
 20
5409.577276893861
 30
0.0
 11
11197.99225896243
 21
3619.57727689386
 31
0.0
  0
LINE
  5
16C60
330
747D
100
AcDbEntity
  8
部品1
100
AcDbLine
 10
10373.48988891765
 20
5409.577276893861
 30
0.0
 11
11330.49225896242
 21
5409.577276893861
 31
0.0
  0
LINE
  5
16C61
330
747D
100
AcDbEntity
  8
部品1
100
AcDbLine
 10
10380.49225896242
 20
3569.57727689386
 30
0.0
 11
11330.49225896242
 21
3569.57727689386
 31
0.0
  0
LINE
  5
16C62
330
747D
100
AcDbEntity
  8
部品1
100
AcDbLine
 10
10380.49225896242
 20
3619.57727689386
 30
0.0
 11
11330.49225896242
 21
3619.57727689386
 31
0.0
  0
LINE
  5
16C63
330
747D
100
AcDbEntity
  8
部品1
100
AcDbLine
 10
10855.49225896242
 20
5409.577276893861
 30
0.0
 11
10855.49225896242
 21
3619.57727689386
 31
0.0
  0
LINE
  5
16C64
330
747D
100
AcDbEntity
  8
部品1
100
AcDbLine
 10
10435.49225896242
 20
5409.577276893861
 30
0.0
 11
10435.49225896242
 21
3619.57727689386
 31
0.0
  0
LINE
  5
16C65
330
747D
100
AcDbEntity
  8
部品1
100
AcDbLine
 10
11275.49225896242
 20
5409.577276893861
 30
0.0
 11
11275.49225896243
 21
3619.57727689386
 31
0.0
  0
LINE
  5
16C66
330
747D
100
AcDbEntity
  8
部品1
100
AcDbLine
 10
10380.49225896242
 20
5500.697314378673
 30
0.0
 11
10380.49225896242
 21
3469.57727689386
 31
0.0
  0
LINE
  5
16C67
330
747D
100
AcDbEntity
  8
部品1
100
AcDbLine
 10
11330.49225896242
 20
5465.363037099148
 30
0.0
 11
11330.49225896242
 21
3469.57727689386
 31
0.0
  0
DIMENSION
  5
16C68
330
747D
100
AcDbEntity
  8
寸法
 48
50.0
100
AcDbDimension
  2
*D37
 10
11860.90079689625
 20
5589.57727689386
 30
0.0
 11
11860.90079689625
 21
4521.501672958286
 31
0.0
 70
   160
 71
     5
 42
2020.0
  3
INABA_S40
100
AcDbAlignedDimension
 13
11330.49225896242
 23
3569.57727689386
 33
0.0
 14
11410.49225896243
 24
5589.57727689386
 34
0.0
 50
90.0
100
AcDbRotatedDimension
1001
ACAD
1000
DSTYLE
1002
{
1070
    41
1040
0.5
1070
    44
1040
1.0
1070
   147
1040
0.8
1070
   271
1070
     2
1070
   272
1070
     2
1070
   289
1070
     3
1070
   340
1005
F706
1070
   343
1005
14DBE
1070
   344
1005
14DBE
1002
}
  0
DIMENSION
  5
16C69
330
747D
100
AcDbEntity
  8
寸法
100
AcDbDimension
  2
*D38
 10
9778.529168270223
 20
3619.577276893864
 30
0.0
 11
9778.529168270223
 21
4524.612288770249
 31
0.0
 70
   160
 71
     5
 42
1789.999999999998
  3
INABA_S40G
100
AcDbAlignedDimension
 13
10373.48988891765
 23
5409.577276893862
 33
0.0
 14
10373.48988891765
 24
3619.577276893864
 34
0.0
 50
90.0
100
AcDbRotatedDimension
1001
ACAD
1000
DSTYLE
1002
{
1070
   288
1070
     1
1002
}
  0
DIMENSION
  5
16C6A
330
747D
100
AcDbEntity
  8
寸法
100
AcDbDimension
  2
*D39
 10
9778.529168270223
 20
3569.577276893863
 30
0.0
 11
9778.529168270223
 21
3263.530032799372
 31
0.0
 70
   160
 71
     5
 42
50.00000000000182
  3
INABA_S40G
100
AcDbAlignedDimension
 13
10373.48988891765
 23
3619.577276893864
 33
0.0
 14
10325.49225896242
 24
3569.577276893863
 34
0.0
 50
90.0
100
AcDbRotatedDimension
1001
ACAD
1000
DSTYLE
1002
{
1070
   174
1070
     0
1070
   272
1070
     1
1070
   288
1070
     0
1070
   341
1005
0
1002
}
  0
LINE
  5
16C6B
330
747D
100
AcDbEntity
  8
部品1
 48
50.0
100
AcDbLine
 10
10373.48988891765
 20
3630.327276893864
 30
0.0
 11
10380.49225896242
 21
3630.327276893864
 31
0.0
  0
LINE
  5
16C6C
330
747D
100
AcDbEntity
  8
部品1
 48
0.2
100
AcDbLine
 10
10373.48988891765
 20
3630.327276893864
 30
0.0
 11
10373.48988891765
 21
3619.577276893864
 31
0.0
  0
LINE
  5
16C6D
330
747D
100
AcDbEntity
  8
部品1
 48
50.0
100
AcDbLine
 10
10373.48988891765
 20
3619.577276893864
 30
0.0
 11
10380.49225896242
 21
3619.577276893864
 31
0.0
  0
LINE
  5
16C6E
330
747D
100
AcDbEntity
  8
部品1
 48
0.2
100
AcDbLine
 10
10373.48988891765
 20
5409.577276893861
 30
0.0
 11
10373.48988891765
 21
5398.827276893862
 31
0.0
  0
LINE
  5
16C6F
330
747D
100
AcDbEntity
  8
部品1
 48
50.0
100
AcDbLine
 10
10373.48988891765
 20
5398.827276893861
 30
0.0
 11
10380.49225896242
 21
5398.827276893861
 31
0.0
  0
LINE
  5
16F74
330
747D
100
AcDbEntity
  8
仕様書枠
 48
50.0
100
AcDbLine
 10
16307.19999999999
 20
9029.6
 30
0.0
 11
13127.2
 21
9029.6
 31
0.0
  0
TEXT
  5
16F7D
330
747D
100
AcDbEntity
  8
文字
 62
     7
 48
50.0
100
AcDbText
 10
13583.11819016568
 20
8890.013745883727
 30
0.0
 40
100.0
  1
※豪雪補強
  7
STYLE1
100
AcDbText
  0
TEXT
  5
16F7E
330
747D
100
AcDbEntity
  8
文字
 62
     7
 48
50.0
100
AcDbText
 10
13229.83081656553
 20
8720.013745883727
 30
0.0
 40
100.0
  1
※豪雪補強は豪雪地型のみ取付
 41
0.9
  7
STYLE1
100
AcDbText
  0
TEXT
  5
16F7F
330
747D
100
AcDbEntity
  8
文字
 62
     7
 48
50.0
100
AcDbText
 10
13248.77747366447
 20
8890.013745883729
 30
0.0
 40
100.0
  1
14
  7
STYLE1
100
AcDbText
  0
TEXT
  5
16F80
330
747D
100
AcDbEntity
  8
文字
 62
     7
 48
50.0
100
AcDbText
 10
15022.63965474514
 20
8890.013745883722
 30
0.0
 40
100.0
  1
F12            1.0
  7
STYLE1
100
AcDbText
  0
LINE
  5
16F81
330
747D
100
AcDbEntity
  8
仕様書枠
 48
50.0
100
AcDbLine
 10
16307.19999999999
 20
8859.6
 30
0.0
 11
13127.2
 21
8859.6
 31
0.0
  0
LINE
  5
16F82
330
747D
100
AcDbEntity
  8
仕様書枠
 48
50.0
100
AcDbLine
 10
16307.19999999999
 20
8349.600000000004
 30
0.0
 11
13127.2
 21
8349.600000000007
 31
0.0
  0
ENDSEC
  0
SECTION
  2
OBJECTS
  0
DICTIONARY
  5
7471
330
0
100
AcDbDictionary
281
     1
  3
ACAD_COLOR
350
14CB0
  3
ACAD_GROUP
350
7472
  3
ACAD_LAYOUT
350
14CB1
  3
ACAD_MATERIAL
350
14CAF
  3
ACAD_MLINESTYLE
350
7473
  3
ACAD_PLOTSETTINGS
350
14CB2
  3
ACAD_PLOTSTYLENAME
350
14CAD
  3
ACDBHEADERROUNDTRIPXREC
350
16FA4
  3
AcDbVariableDictionary
350
16FA0
  3
CONTENTDICTIONARY
350
E71C
  3
DRAWINGVARIABLESDICT
350
F3B9
  0
DICTIONARY
  5
14E5F
330
7467
100
AcDbDictionary
280
     1
281
     1
  3
ACAD_LAYERSTATES
360
14E60
  0
DICTIONARY
  5
14CB0
102
{ACAD_REACTORS
330
7471
102
}
330
7471
100
AcDbDictionary
281
     1
  0
DICTIONARY
  5
7472
102
{ACAD_REACTORS
330
7471
102
}
330
7471
100
AcDbDictionary
281
     1
  0
DICTIONARY
  5
14CB1
102
{ACAD_REACTORS
330
7471
102
}
330
7471
100
AcDbDictionary
281
     1
  3
Model
350
14CB3
  3
レイアウト1
350
14CB4
  0
DICTIONARY
  5
14CAF
102
{ACAD_REACTORS
330
7471
102
}
330
7471
100
AcDbDictionary
281
     1
  0
DICTIONARY
  5
7473
102
{ACAD_REACTORS
330
7471
102
}
330
7471
100
AcDbDictionary
281
     1
  3
STANDARD
350
7480
  0
DICTIONARY
  5
14CB2
102
{ACAD_REACTORS
330
7471
102
}
330
7471
100
AcDbDictionary
281
     1
  0
ACDBDICTIONARYWDFLT
  5
14CAD
102
{ACAD_REACTORS
330
7471
102
}
330
7471
100
AcDbDictionary
281
     1
  3
Normal
350
14CAE
100
AcDbDictionaryWithDefault
340
14CAE
  0
DICTIONARY
  5
16FA4
102
{ACAD_REACTORS
330
7471
102
}
330
7471
100
AcDbDictionary
281
     1
  3
COLORDICT
350
16FA6
  3
MATERIALDICT
350
16FA5
  0
DICTIONARY
  5
16FA0
102
{ACAD_REACTORS
330
7471
102
}
330
7471
100
AcDbDictionary
281
     1
  3
DIMASSOC
350
16FA1
  3
PROJECTNAME
350
16FA2
  0
DICTIONARY
  5
E71C
102
{ACAD_REACTORS
330
7471
102
}
330
7471
100
AcDbDictionary
281
     1
  0
DICTIONARY
  5
F3B9
102
{ACAD_REACTORS
330
7471
102
}
330
7471
100
AcDbDictionary
281
     1
1001
DRAWINGVARIABLESXDATA
1000
POLARMODE
1000
1
  0
DICTIONARY
  5
14E60
102
{ACAD_REACTORS
330
14E5F
102
}
330
14E5F
100
AcDbDictionary
281
     1
  0
LAYOUT
  5
14CB3
102
{ACAD_XDICTIONARY
360
16FA7
102
}
102
{ACAD_REACTORS
330
14CB1
102
}
330
14CB1
100
AcDbPlotSettings
  1

  2
Microsoft Office Document Image Writer
  4

  6

 40
0.0
 41
0.0
 42
0.0
 43
0.0
 44
0.0
 45
0.0
 46
0.0
 47
0.0
 48
0.0
 49
0.0
140
0.0
141
0.0
142
1.0
143
1.0
 70
  1712
 72
     0
 73
     0
 74
     0
  7

 75
     0
147
1.0
148
0.0
149
0.0
100
AcDbLayout
  1
Model
 70
     1
 71
     0
 10
0.0
 20
0.0
 11
12.0
 21
9.0
 12
0.0
 22
0.0
 32
0.0
 14
0.0
 24
0.0
 34
0.0
 15
0.0
 25
0.0
 35
0.0
146
0.0
 13
0.0
 23
0.0
 33
0.0
 16
1.0
 26
0.0
 36
0.0
 17
0.0
 27
1.0
 37
0.0
 76
     0
330
747D
  0
LAYOUT
  5
14CB4
102
{ACAD_XDICTIONARY
360
16FA9
102
}
102
{ACAD_REACTORS
330
14CB1
102
}
330
14CB1
100
AcDbPlotSettings
  1

  2
Microsoft Office Document Image Writer
  4

  6

 40
0.0
 41
0.0
 42
0.0
 43
0.0
 44
0.0
 45
0.0
 46
0.0
 47
0.0
 48
0.0
 49
0.0
140
0.0
141
0.0
142
1.0
143
1.0
 70
   688
 72
     0
 73
     0
 74
     5
  7

 75
    16
147
1.0
148
0.0
149
0.0
100
AcDbLayout
  1
レイアウト1
 70
     0
 71
     1
 10
0.0
 20
0.0
 11
420.0
 21
297.0
 12
0.0
 22
0.0
 32
0.0
 14
1.000000000000000E+20
 24
1.000000000000000E+20
 34
1.000000000000000E+20
 15
-1.000000000000000E+20
 25
-1.000000000000000E+20
 35
-1.000000000000000E+20
146
0.0
 13
0.0
 23
0.0
 33
0.0
 16
1.0
 26
0.0
 36
0.0
 17
0.0
 27
1.0
 37
0.0
 76
     0
330
747A
  0
MLINESTYLE
  5
7480
102
{ACAD_REACTORS
330
7473
102
}
330
7473
100
AcDbMlineStyle
  2
STANDARD
 70
     0
  3

 62
     0
 51
90.0
 52
90.0
 71
     2
 49
0.5
 62
   256
  6
BYLAYER
 49
-0.5
 62
   256
  6
BYLAYER
  0
ACDBPLACEHOLDER
  5
14CAE
102
{ACAD_REACTORS
330
14CAD
102
}
330
14CAD
  0
XRECORD
  5
16FA6
102
{ACAD_REACTORS
330
16FA4
102
}
330
16FA4
100
AcDbXrecord
280
     1
340
14CB0
  0
XRECORD
  5
16FA5
102
{ACAD_REACTORS
330
16FA4
102
}
330
16FA4
100
AcDbXrecord
280
     1
340
14CAF
  0
DICTIONARYVAR
  5
16FA1
102
{ACAD_REACTORS
330
16FA0
102
}
330
16FA0
100
DictionaryVariables
280
     0
  1
1
  0
DICTIONARYVAR
  5
16FA2
102
{ACAD_REACTORS
330
16FA0
102
}
330
16FA0
100
DictionaryVariables
280
     0
  1

  0
DICTIONARY
  5
16FA7
330
14CB3
100
AcDbDictionary
280
     1
281
     1
  3
ACAD_XREC_ROUNDTRIP
360
16FA8
  0
DICTIONARY
  5
16FA9
330
14CB4
100
AcDbDictionary
280
     1
281
     1
  3
ACAD_XREC_ROUNDTRIP
360
16FAA
  0
XRECORD
  5
16FA8
102
{ACAD_REACTORS
330
16FA7
102
}
330
16FA7
100
AcDbXrecord
280
     1
102
SHADEPLOT
 70
     0
102
SHADEPLOTRESLEVEL
 70
     2
102
SHADEPLOTCUSTOMDPI
 70
   300
  0
XRECORD
  5
16FAA
102
{ACAD_REACTORS
330
16FA9
102
}
330
16FA9
100
AcDbXrecord
280
     1
102
SHADEPLOT
 70
     0
102
SHADEPLOTRESLEVEL
 70
     2
102
SHADEPLOTCUSTOMDPI
 70
   300
  0
ENDSEC
  0
EOF
