  0
SECTION
  2
HEADER
  9
$ACADVER
  1
AC1015
  9
$ACADMAINTVER
 70
    20
  9
$DWGCODEPAGE
  3
ANSI_932
  9
$INSBASE
 10
0.0
 20
0.0
 30
0.0
  9
$EXTMIN
 10
139.9999999999995
 20
-0.0000000000000909
 30
0.0
  9
$EXTMAX
 10
16307.2
 20
11409.6
 30
0.0
  9
$LIMMIN
 10
0.0
 20
0.0
  9
$LIMMAX
 10
16800.0
 20
11880.0
  9
$ORTHOMODE
 70
     0
  9
$REGENMODE
 70
     1
  9
$FILLMODE
 70
     1
  9
$QTEXTMODE
 70
     0
  9
$MIRRTEXT
 70
     1
  9
$LTSCALE
 40
20.0
  9
$ATTMODE
 70
     1
  9
$TEXTSIZE
 40
100.0
  9
$TRACEWID
 40
1.0
  9
$TEXTSTYLE
  7
STYLE3
  9
$CLAYER
  8
寸法
  9
$CELTYPE
  6
BYLAYER
  9
$CECOLOR
 62
   256
  9
$CELTSCALE
 40
50.0
  9
$DISPSILH
 70
     0
  9
$DIMSCALE
 40
40.0
  9
$DIMASZ
 40
2.5
  9
$DIMEXO
 40
0.5
  9
$DIMDLI
 40
7.0
  9
$DIMRND
 40
0.0
  9
$DIMDLE
 40
0.0
  9
$DIMEXE
 40
1.5
  9
$DIMTP
 40
0.0
  9
$DIMTM
 40
0.0
  9
$DIMTXT
 40
3.0
  9
$DIMCEN
 40
0.0
  9
$DIMTSZ
 40
0.0
  9
$DIMTOL
 70
     0
  9
$DIMLIM
 70
     0
  9
$DIMTIH
 70
     0
  9
$DIMTOH
 70
     0
  9
$DIMSE1
 70
     0
  9
$DIMSE2
 70
     0
  9
$DIMTAD
 70
     3
  9
$DIMZIN
 70
     8
  9
$DIMBLK
  1

  9
$DIMASO
 70
     1
  9
$DIMSHO
 70
     1
  9
$DIMPOST
  1

  9
$DIMAPOST
  1

  9
$DIMALT
 70
     0
  9
$DIMALTD
 70
     2
  9
$DIMALTF
 40
0.0394
  9
$DIMLFAC
 40
1.0
  9
$DIMTOFL
 70
     1
  9
$DIMTVP
 40
0.0
  9
$DIMTIX
 70
     1
  9
$DIMSOXD
 70
     0
  9
$DIMSAH
 70
     1
  9
$DIMBLK1
  1
DOTSMALL
  9
$DIMBLK2
  1
DOTSMALL
  9
$DIMSTYLE
  2
INABA_S40G
  9
$DIMCLRD
 70
     0
  9
$DIMCLRE
 70
     0
  9
$DIMCLRT
 70
     7
  9
$DIMTFAC
 40
1.0
  9
$DIMGAP
 40
1.0
  9
$DIMJUST
 70
     0
  9
$DIMSD1
 70
     0
  9
$DIMSD2
 70
     0
  9
$DIMTOLJ
 70
     1
  9
$DIMTZIN
 70
     0
  9
$DIMALTZ
 70
     0
  9
$DIMALTTZ
 70
     0
  9
$DIMUPT
 70
     0
  9
$DIMDEC
 70
     1
  9
$DIMTDEC
 70
     4
  9
$DIMALTU
 70
     2
  9
$DIMALTTD
 70
     2
  9
$DIMTXSTY
  7
STYLE1
  9
$DIMAUNIT
 70
     0
  9
$DIMADEC
 70
     0
  9
$DIMALTRND
 40
0.0
  9
$DIMAZIN
 70
     0
  9
$DIMDSEP
 70
    46
  9
$DIMATFIT
 70
     3
  9
$DIMFRAC
 70
     0
  9
$DIMLDRBLK
  1

  9
$DIMLUNIT
 70
     2
  9
$DIMLWD
 70
    -2
  9
$DIMLWE
 70
    -2
  9
$DIMTMOVE
 70
     0
  9
$LUNITS
 70
     2
  9
$LUPREC
 70
     1
  9
$SKETCHINC
 40
1.0
  9
$FILLETRAD
 40
5.0
  9
$AUNITS
 70
     0
  9
$AUPREC
 70
     0
  9
$MENU
  1
acad
  9
$ELEVATION
 40
0.0
  9
$PELEVATION
 40
0.0
  9
$THICKNESS
 40
0.0
  9
$LIMCHECK
 70
     0
  9
$CHAMFERA
 40
0.0
  9
$CHAMFERB
 40
0.0
  9
$CHAMFERC
 40
0.0
  9
$CHAMFERD
 40
0.0
  9
$SKPOLY
 70
     0
  9
$TDCREATE
 40
2452116.684896065
  9
$TDUCREATE
 40
2452116.309896065
  9
$TDUPDATE
 40
2455575.689475544
  9
$TDUUPDATE
 40
2455575.314475544
  9
$TDINDWG
 40
0.5155806829
  9
$TDUSRTIMER
 40
0.5155806829
  9
$USRTIMER
 70
     1
  9
$ANGBASE
 50
0.0
  9
$ANGDIR
 70
     0
  9
$PDMODE
 70
     3
  9
$PDSIZE
 40
2.0
  9
$PLINEWID
 40
0.0
  9
$SPLFRAME
 70
     0
  9
$SPLINETYPE
 70
     6
  9
$SPLINESEGS
 70
     8
  9
$HANDSEED
  5
17C7F
  9
$SURFTAB1
 70
     6
  9
$SURFTAB2
 70
     6
  9
$SURFTYPE
 70
     6
  9
$SURFU
 70
     6
  9
$SURFV
 70
     6
  9
$UCSBASE
  2

  9
$UCSNAME
  2

  9
$UCSORG
 10
0.0
 20
0.0
 30
0.0
  9
$UCSXDIR
 10
1.0
 20
0.0
 30
0.0
  9
$UCSYDIR
 10
0.0
 20
1.0
 30
0.0
  9
$UCSORTHOREF
  2

  9
$UCSORTHOVIEW
 70
     0
  9
$UCSORGTOP
 10
0.0
 20
0.0
 30
0.0
  9
$UCSORGBOTTOM
 10
0.0
 20
0.0
 30
0.0
  9
$UCSORGLEFT
 10
0.0
 20
0.0
 30
0.0
  9
$UCSORGRIGHT
 10
0.0
 20
0.0
 30
0.0
  9
$UCSORGFRONT
 10
0.0
 20
0.0
 30
0.0
  9
$UCSORGBACK
 10
0.0
 20
0.0
 30
0.0
  9
$PUCSBASE
  2

  9
$PUCSNAME
  2

  9
$PUCSORG
 10
0.0
 20
0.0
 30
0.0
  9
$PUCSXDIR
 10
1.0
 20
0.0
 30
0.0
  9
$PUCSYDIR
 10
0.0
 20
1.0
 30
0.0
  9
$PUCSORTHOREF
  2

  9
$PUCSORTHOVIEW
 70
     0
  9
$PUCSORGTOP
 10
0.0
 20
0.0
 30
0.0
  9
$PUCSORGBOTTOM
 10
0.0
 20
0.0
 30
0.0
  9
$PUCSORGLEFT
 10
0.0
 20
0.0
 30
0.0
  9
$PUCSORGRIGHT
 10
0.0
 20
0.0
 30
0.0
  9
$PUCSORGFRONT
 10
0.0
 20
0.0
 30
0.0
  9
$PUCSORGBACK
 10
0.0
 20
0.0
 30
0.0
  9
$USERI1
 70
     0
  9
$USERI2
 70
     0
  9
$USERI3
 70
     0
  9
$USERI4
 70
     0
  9
$USERI5
 70
     0
  9
$USERR1
 40
0.0
  9
$USERR2
 40
0.0
  9
$USERR3
 40
0.0
  9
$USERR4
 40
0.0
  9
$USERR5
 40
0.0
  9
$WORLDVIEW
 70
     1
  9
$SHADEDGE
 70
     3
  9
$SHADEDIF
 70
    70
  9
$TILEMODE
 70
     1
  9
$MAXACTVP
 70
    16
  9
$PINSBASE
 10
0.0
 20
0.0
 30
0.0
  9
$PLIMCHECK
 70
     0
  9
$PEXTMIN
 10
1.000000000000000E+20
 20
1.000000000000000E+20
 30
1.000000000000000E+20
  9
$PEXTMAX
 10
-1.000000000000000E+20
 20
-1.000000000000000E+20
 30
-1.000000000000000E+20
  9
$PLIMMIN
 10
0.0
 20
0.0
  9
$PLIMMAX
 10
420.0
 20
297.0
  9
$UNITMODE
 70
     0
  9
$VISRETAIN
 70
     0
  9
$PLINEGEN
 70
     0
  9
$PSLTSCALE
 70
     0
  9
$TREEDEPTH
 70
  3020
  9
$CMLSTYLE
  2
STANDARD
  9
$CMLJUST
 70
     0
  9
$CMLSCALE
 40
1.0
  9
$PROXYGRAPHICS
 70
     1
  9
$MEASUREMENT
 70
     1
  9
$CELWEIGHT
370
    -1
  9
$ENDCAPS
280
     0
  9
$JOINSTYLE
280
     0
  9
$LWDISPLAY
290
     0
  9
$INSUNITS
 70
     0
  9
$HYPERLINKBASE
  1

  9
$STYLESHEET
  1

  9
$XEDIT
290
     1
  9
$CEPSNTYPE
380
     0
  9
$PSTYLEMODE
290
     1
  9
$FINGERPRINTGUID
  2
{AE2ADF1E-CF9A-4974-B35A-E143B020C9F5}
  9
$VERSIONGUID
  2
{FF9336A0-FC10-473A-8464-58E3101FEE42}
  9
$EXTNAMES
290
     1
  9
$PSVPSCALE
 40
0.0
  9
$OLESTARTUP
290
     0
  0
ENDSEC
  0
SECTION
  2
CLASSES
  0
CLASS
  1
ACDBDICTIONARYWDFLT
  2
AcDbDictionaryWithDefault
  3
ObjectDBX Classes
 90
        0
280
     0
281
     0
  0
CLASS
  1
DICTIONARYVAR
  2
AcDbDictionaryVar
  3
ObjectDBX Classes
 90
        0
280
     0
281
     0
  0
CLASS
  1
ACDBPLACEHOLDER
  2
AcDbPlaceHolder
  3
ObjectDBX Classes
 90
        0
280
     0
281
     0
  0
CLASS
  1
LAYOUT
  2
AcDbLayout
  3
ObjectDBX Classes
 90
        0
280
     0
281
     0
  0
ENDSEC
  0
SECTION
  2
TABLES
  0
TABLE
  2
VPORT
  5
746D
330
0
100
AcDbSymbolTable
 70
     2
  0
VPORT
  5
17C77
330
746D
100
AcDbSymbolTableRecord
100
AcDbViewportTableRecord
  2
*Active
 70
     0
 10
0.0
 20
0.0
 11
1.0
 21
1.0
 12
9076.91645855874
 22
6347.66611132684
 13
0.0
 23
0.0
 14
10.0
 24
10.0
 15
10.0
 25
10.0
 16
0.0
 26
0.0
 36
1.0
 17
0.0
 27
0.0
 37
0.0
 40
12783.46462244035
 41
1.525925925925925
 42
50.0
 43
0.0
 44
0.0
 50
0.0
 51
0.0
 71
     0
 72
     0
 73
     1
 74
     0
 75
     0
 76
     0
 77
     0
 78
     0
281
     0
 65
     1
110
0.0
120
0.0
130
0.0
111
1.0
121
0.0
131
0.0
112
0.0
122
1.0
132
0.0
 79
     0
146
0.0
  0
ENDTAB
  0
TABLE
  2
LTYPE
  5
746A
330
0
100
AcDbSymbolTable
 70
     4
  0
LTYPE
  5
7477
330
746A
100
AcDbSymbolTableRecord
100
AcDbLinetypeTableRecord
  2
BYBLOCK
 70
     0
  3

 72
    65
 73
     0
 40
0.0
  0
LTYPE
  5
7478
330
746A
100
AcDbSymbolTableRecord
100
AcDbLinetypeTableRecord
  2
BYLAYER
 70
     0
  3

 72
    65
 73
     0
 40
0.0
  0
LTYPE
  5
7479
330
746A
100
AcDbSymbolTableRecord
100
AcDbLinetypeTableRecord
  2
CONTINUOUS
 70
     0
  3
Solid line
 72
    65
 73
     0
 40
0.0
  0
LTYPE
  5
7816
330
746A
100
AcDbSymbolTableRecord
100
AcDbLinetypeTableRecord
  2
CENTER
 70
     0
  3
____ _ ____ _ ____ _ ____ _ ____ _ ____ _ ____ 
 72
    65
 73
     4
 40
2.0
 49
1.25
 74
     0
 49
-0.25
 74
     0
 49
0.25
 74
     0
 49
-0.25
 74
     0
  0
LTYPE
  5
781A
330
746A
100
AcDbSymbolTableRecord
100
AcDbLinetypeTableRecord
  2
HIDDEN
 70
     0
  3
__ __ __ __ __ __ __ __ __ __ __ __ __ __ __ __
 72
    65
 73
     2
 40
0.375
 49
0.25
 74
     0
 49
-0.125
 74
     0
  0
LTYPE
  5
781B
330
746A
100
AcDbSymbolTableRecord
100
AcDbLinetypeTableRecord
  2
PHANTOM
 70
     0
  3
______  __  __  ______  __  __  ______  __  __ 
 72
    65
 73
     6
 40
2.5
 49
1.25
 74
     0
 49
-0.25
 74
     0
 49
0.25
 74
     0
 49
-0.25
 74
     0
 49
0.25
 74
     0
 49
-0.25
 74
     0
  0
ENDTAB
  0
TABLE
  2
LAYER
  5
7467
102
{ACAD_XDICTIONARY
360
15EBF
102
}
330
0
100
AcDbSymbolTable
 70
    13
  0
LAYER
  5
7474
330
7467
100
AcDbSymbolTableRecord
100
AcDbLayerTableRecord
  2
0
 70
     0
 62
     7
  6
CONTINUOUS
370
    -3
390
15D41
  0
LAYER
  5
DEB2
330
7467
100
AcDbSymbolTableRecord
100
AcDbLayerTableRecord
  2
センター
 70
     0
 62
     3
  6
CENTER
370
    -3
390
15D41
  0
LAYER
  5
DEB3
330
7467
100
AcDbSymbolTableRecord
100
AcDbLayerTableRecord
  2
寸法
 70
     0
 62
     4
  6
CONTINUOUS
370
    -3
390
15D41
  0
LAYER
  5
DEB4
330
7467
100
AcDbSymbolTableRecord
100
AcDbLayerTableRecord
  2
部品1
 70
     0
 62
     7
  6
CONTINUOUS
370
    -3
390
15D41
  0
LAYER
  5
DEB5
330
7467
100
AcDbSymbolTableRecord
100
AcDbLayerTableRecord
  2
補助
 70
     0
 62
    -1
  6
CONTINUOUS
370
    -3
390
15D41
  0
LAYER
  5
DEB6
330
7467
100
AcDbSymbolTableRecord
100
AcDbLayerTableRecord
  2
文字
 70
     0
 62
     7
  6
CONTINUOUS
370
    -3
390
15D41
  0
LAYER
  5
F255
330
7467
100
AcDbSymbolTableRecord
100
AcDbLayerTableRecord
  2
DEFPOINTS
 70
     0
 62
     7
  6
CONTINUOUS
290
     0
370
    -3
390
15D41
  0
LAYER
  5
10B54
330
7467
100
AcDbSymbolTableRecord
100
AcDbLayerTableRecord
  2
仕様書枠
 70
     0
 62
   230
  6
CONTINUOUS
370
    -3
390
15D41
  0
LAYER
  5
11729
330
7467
100
AcDbSymbolTableRecord
100
AcDbLayerTableRecord
  2
Ｇ．Ｌ
 70
     0
 62
    30
  6
CONTINUOUS
370
    -3
390
15D41
  0
LAYER
  5
1173F
330
7467
100
AcDbSymbolTableRecord
100
AcDbLayerTableRecord
  2
細線
 70
     0
 62
     5
  6
CONTINUOUS
370
    -3
390
15D41
  0
LAYER
  5
11740
330
7467
100
AcDbSymbolTableRecord
100
AcDbLayerTableRecord
  2
点線
 70
     0
 62
     2
  6
HIDDEN
370
    -3
390
15D41
  0
LAYER
  5
118A1
330
7467
100
AcDbSymbolTableRecord
100
AcDbLayerTableRecord
  2
想像線
 70
     0
 62
     6
  6
PHANTOM
370
    -3
390
15D41
  0
LAYER
  5
123C1
330
7467
100
AcDbSymbolTableRecord
100
AcDbLayerTableRecord
  2
破線
 70
     0
 62
     2
  6
HIDDEN
370
    -3
390
15D41
  0
ENDTAB
  0
TABLE
  2
STYLE
  5
7468
330
0
100
AcDbSymbolTable
 70
     4
  0
STYLE
  5
7475
330
7468
100
AcDbSymbolTableRecord
100
AcDbTextStyleTableRecord
  2
STANDARD
 70
     0
 40
0.0
 41
1.0
 50
0.0
 71
     0
 42
4.0
  3
txt
  4
C:\AutoCAD LT\bigfont.shx
  0
STYLE
  5
F706
330
7468
100
AcDbSymbolTableRecord
100
AcDbTextStyleTableRecord
  2
STYLE1
 70
     0
 40
0.0
 41
1.0
 50
0.0
 71
     0
 42
4.0
  3
isocp.shx
  4
bigfont.shx
  0
STYLE
  5
103BF
330
7468
100
AcDbSymbolTableRecord
100
AcDbTextStyleTableRecord
  2
STYLE2
 70
     0
 40
0.0
 41
1.0
 50
0.0
 71
     0
 42
100.0
  3
MS PGothic.ttf
  4

1001
ACAD
1000
MS PGothic
1071
    32818
  0
STYLE
  5
10BAA
330
7468
100
AcDbSymbolTableRecord
100
AcDbTextStyleTableRecord
  2
STYLE3
 70
     0
 40
0.0
 41
1.0
 50
0.0
 71
     0
 42
100.0
  3

  4

1001
ACAD
1000
DFPGothic-EB
1071
    32818
  0
ENDTAB
  0
TABLE
  2
VIEW
  5
746B
330
0
100
AcDbSymbolTable
 70
     0
  0
ENDTAB
  0
TABLE
  2
UCS
  5
746C
330
0
100
AcDbSymbolTable
 70
     0
  0
ENDTAB
  0
TABLE
  2
APPID
  5
746E
330
0
100
AcDbSymbolTable
 70
     6
  0
APPID
  5
7476
330
746E
100
AcDbSymbolTableRecord
100
AcDbRegAppTableRecord
  2
ACAD
 70
     0
  0
APPID
  5
DEA9
330
746E
100
AcDbSymbolTableRecord
100
AcDbRegAppTableRecord
  2
CONTENTBLOCKICON
 70
     0
  0
APPID
  5
DEAA
330
746E
100
AcDbSymbolTableRecord
100
AcDbRegAppTableRecord
  2
CONTENTBLOCKDESCRIPTION
 70
     0
  0
APPID
  5
E71D
330
746E
100
AcDbSymbolTableRecord
100
AcDbRegAppTableRecord
  2
CONTENTTABDATA
 70
     0
  0
APPID
  5
E71E
330
746E
100
AcDbSymbolTableRecord
100
AcDbRegAppTableRecord
  2
CONTENTCURRENTTAB
 70
     0
  0
APPID
  5
F3BA
330
746E
100
AcDbSymbolTableRecord
100
AcDbRegAppTableRecord
  2
DRAWINGVARIABLESXDATA
 70
     0
  0
ENDTAB
  0
TABLE
  2
DIMSTYLE
  5
746F
330
0
100
AcDbSymbolTable
 70
     3
100
AcDbDimStyleTable
 71
     1
340
F71F
  0
DIMSTYLE
105
7484
330
746F
100
AcDbSymbolTableRecord
100
AcDbDimStyleTableRecord
  2
JIS
 70
     0
 41
2.5
 42
1.0
 43
7.0
 44
1.0
 73
     0
 74
     0
 77
     1
 78
     8
140
2.5
141
0.0
143
0.0394
147
0.0
172
     1
174
     1
175
     1
340
7475
  0
DIMSTYLE
105
F71F
102
{ACAD_REACTORS
330
15673
330
1567B
330
1567C
330
1567D
330
15694
330
15695
330
15696
330
15697
330
15698
330
15699
330
1569A
330
1569B
330
1569C
330
156E2
330
156E9
330
1572B
330
15CD9
330
15CF1
330
15D24
330
15D31
330
1709E
330
1709D
330
1709C
330
170F0
330
1796F
330
17970
330
179CE
330
179CF
330
179D0
330
179D1
330
179D2
330
179F0
102
}
330
746F
100
AcDbSymbolTableRecord
100
AcDbDimStyleTableRecord
  2
INABA_S40G
 70
     0
 40
40.0
 41
2.5
 42
0.5
 43
7.0
 44
1.5
 73
     0
 74
     0
 77
     3
 78
     8
140
3.0
141
0.0
143
0.0394
147
1.0
172
     1
173
     1
174
     1
178
     7
271
     1
340
F706
341
F770
343
F770
344
F770
  0
DIMSTYLE
105
15EBE
102
{ACAD_REACTORS
330
179B9
102
}
330
746F
100
AcDbSymbolTableRecord
100
AcDbDimStyleTableRecord
  2
INABA_S40
 70
     0
 40
40.0
 41
2.5
 42
0.5
 43
7.0
 44
1.5
 73
     0
 74
     0
 77
     3
 78
     8
140
3.0
141
0.0
143
0.0394
147
1.0
172
     1
173
     1
174
     1
175
     1
178
     7
289
     0
340
7475
341
15E19
343
15E19
344
15E19
  0
ENDTAB
  0
TABLE
  2
BLOCK_RECORD
  5
7466
330
0
100
AcDbSymbolTable
 70
    37
  0
BLOCK_RECORD
  5
747D
330
7466
100
AcDbSymbolTableRecord
100
AcDbBlockTableRecord
  2
*MODEL_SPACE
340
15D46
  0
BLOCK_RECORD
  5
747A
330
7466
100
AcDbSymbolTableRecord
100
AcDbBlockTableRecord
  2
*PAPER_SPACE
340
15D47
  0
BLOCK_RECORD
  5
F770
330
7466
100
AcDbSymbolTableRecord
100
AcDbBlockTableRecord
  2
_DOTSMALL
340
0
102
{BLKREFS
331
17308
331
17309
331
17313
331
17314
331
1731C
331
1731D
331
17325
331
17326
331
1737C
331
1737D
331
17385
331
17386
331
1738E
331
1738F
331
17397
331
17398
331
173A0
331
173A1
331
173A9
331
173AA
331
173B2
331
173B3
331
173BB
331
173BC
331
173C4
331
173C5
331
173CF
331
173D0
331
173DA
331
173DB
331
173E3
331
173E4
331
173EE
331
173EF
331
173F9
331
173FA
331
17404
331
17405
331
1740D
331
1740E
331
17418
331
17419
331
17421
331
17422
331
1742A
331
1742B
331
17433
331
17434
331
17BD0
331
17BD1
331
17BDA
331
17BDB
331
17BE5
331
17BE6
331
17BEE
331
17BEF
331
17BF7
331
17BF8
331
17C01
331
17C02
331
17C13
331
17C14
331
17C1E
331
17C1F
102
}
  0
BLOCK_RECORD
  5
1589B
330
7466
100
AcDbSymbolTableRecord
100
AcDbBlockTableRecord
  2
*D1
340
0
  0
BLOCK_RECORD
  5
158B3
330
7466
100
AcDbSymbolTableRecord
100
AcDbBlockTableRecord
  2
*D2
340
0
  0
BLOCK_RECORD
  5
158BF
330
7466
100
AcDbSymbolTableRecord
100
AcDbBlockTableRecord
  2
*D3
340
0
  0
BLOCK_RECORD
  5
158CB
330
7466
100
AcDbSymbolTableRecord
100
AcDbBlockTableRecord
  2
*D4
340
0
  0
BLOCK_RECORD
  5
158D9
330
7466
100
AcDbSymbolTableRecord
100
AcDbBlockTableRecord
  2
*D5
340
0
  0
BLOCK_RECORD
  5
158E5
330
7466
100
AcDbSymbolTableRecord
100
AcDbBlockTableRecord
  2
*D6
340
0
  0
BLOCK_RECORD
  5
158F3
330
7466
100
AcDbSymbolTableRecord
100
AcDbBlockTableRecord
  2
*D7
340
0
  0
BLOCK_RECORD
  5
15901
330
7466
100
AcDbSymbolTableRecord
100
AcDbBlockTableRecord
  2
*D8
340
0
  0
BLOCK_RECORD
  5
1590F
330
7466
100
AcDbSymbolTableRecord
100
AcDbBlockTableRecord
  2
*D9
340
0
  0
BLOCK_RECORD
  5
1591B
330
7466
100
AcDbSymbolTableRecord
100
AcDbBlockTableRecord
  2
*D10
340
0
  0
BLOCK_RECORD
  5
15929
330
7466
100
AcDbSymbolTableRecord
100
AcDbBlockTableRecord
  2
*D11
340
0
  0
BLOCK_RECORD
  5
15937
330
7466
100
AcDbSymbolTableRecord
100
AcDbBlockTableRecord
  2
*D12
340
0
  0
BLOCK_RECORD
  5
15943
330
7466
100
AcDbSymbolTableRecord
100
AcDbBlockTableRecord
  2
*D13
340
0
  0
BLOCK_RECORD
  5
15973
330
7466
100
AcDbSymbolTableRecord
100
AcDbBlockTableRecord
  2
*D14
340
0
  0
BLOCK_RECORD
  5
1597F
330
7466
100
AcDbSymbolTableRecord
100
AcDbBlockTableRecord
  2
*D15
340
0
  0
BLOCK_RECORD
  5
1598B
330
7466
100
AcDbSymbolTableRecord
100
AcDbBlockTableRecord
  2
*D16
340
0
  0
BLOCK_RECORD
  5
15CDA
330
7466
100
AcDbSymbolTableRecord
100
AcDbBlockTableRecord
  2
*D17
340
0
  0
BLOCK_RECORD
  5
15CF2
330
7466
100
AcDbSymbolTableRecord
100
AcDbBlockTableRecord
  2
*D18
340
0
  0
BLOCK_RECORD
  5
15D25
330
7466
100
AcDbSymbolTableRecord
100
AcDbBlockTableRecord
  2
*D19
340
0
  0
BLOCK_RECORD
  5
15D32
330
7466
100
AcDbSymbolTableRecord
100
AcDbBlockTableRecord
  2
*D20
340
0
  0
BLOCK_RECORD
  5
15E19
330
7466
100
AcDbSymbolTableRecord
100
AcDbBlockTableRecord
  2
_OPEN
340
0
  0
BLOCK_RECORD
  5
15E1F
330
7466
100
AcDbSymbolTableRecord
100
AcDbBlockTableRecord
  2
_DOT
340
0
102
{BLKREFS
331
17C0A
331
17C0B
102
}
  0
BLOCK_RECORD
  5
170AD
330
7466
100
AcDbSymbolTableRecord
100
AcDbBlockTableRecord
  2
*D23
340
0
  0
BLOCK_RECORD
  5
170BB
330
7466
100
AcDbSymbolTableRecord
100
AcDbBlockTableRecord
  2
*D24
340
0
  0
BLOCK_RECORD
  5
170C7
330
7466
100
AcDbSymbolTableRecord
100
AcDbBlockTableRecord
  2
*D25
340
0
  0
BLOCK_RECORD
  5
170FB
330
7466
100
AcDbSymbolTableRecord
100
AcDbBlockTableRecord
  2
*D26
340
0
  0
BLOCK_RECORD
  5
17A93
330
7466
100
AcDbSymbolTableRecord
100
AcDbBlockTableRecord
  2
*D27
340
0
  0
BLOCK_RECORD
  5
17AA1
330
7466
100
AcDbSymbolTableRecord
100
AcDbBlockTableRecord
  2
*D28
340
0
  0
BLOCK_RECORD
  5
17AE1
330
7466
100
AcDbSymbolTableRecord
100
AcDbBlockTableRecord
  2
*D29
340
0
  0
BLOCK_RECORD
  5
17AED
330
7466
100
AcDbSymbolTableRecord
100
AcDbBlockTableRecord
  2
*D30
340
0
  0
BLOCK_RECORD
  5
17AFA
330
7466
100
AcDbSymbolTableRecord
100
AcDbBlockTableRecord
  2
*D31
340
0
  0
BLOCK_RECORD
  5
17B06
330
7466
100
AcDbSymbolTableRecord
100
AcDbBlockTableRecord
  2
*D32
340
0
  0
BLOCK_RECORD
  5
17B12
330
7466
100
AcDbSymbolTableRecord
100
AcDbBlockTableRecord
  2
*D33
340
0
  0
BLOCK_RECORD
  5
17B20
330
7466
100
AcDbSymbolTableRecord
100
AcDbBlockTableRecord
  2
*D34
340
0
  0
BLOCK_RECORD
  5
17B2D
330
7466
100
AcDbSymbolTableRecord
100
AcDbBlockTableRecord
  2
*D35
340
0
  0
BLOCK_RECORD
  5
17C45
330
7466
100
AcDbSymbolTableRecord
100
AcDbBlockTableRecord
  2
A$C234373F2
340
0
  0
ENDTAB
  0
ENDSEC
  0
SECTION
  2
BLOCKS
  0
BLOCK
  5
7489
330
747D
100
AcDbEntity
  8
0
100
AcDbBlockBegin
  2
*MODEL_SPACE
 70
     0
 10
0.0
 20
0.0
 30
0.0
  3
*MODEL_SPACE
  1

  0
ENDBLK
  5
748A
330
747D
100
AcDbEntity
  8
0
100
AcDbBlockEnd
  0
BLOCK
  5
7487
330
747A
100
AcDbEntity
 67
     1
  8
0
100
AcDbBlockBegin
  2
*PAPER_SPACE
 70
     0
 10
0.0
 20
0.0
 30
0.0
  3
*PAPER_SPACE
  1

  0
ENDBLK
  5
7488
330
747A
100
AcDbEntity
 67
     1
  8
0
100
AcDbBlockEnd
  0
BLOCK
  5
F771
330
F770
100
AcDbEntity
  8
0
 48
50.0
100
AcDbBlockBegin
  2
_DOTSMALL
 70
     0
 10
0.0
 20
0.0
 30
0.0
  3
_DOTSMALL
  1

  0
LWPOLYLINE
  5
F772
330
F770
100
AcDbEntity
  8
0
  6
ByBlock
 62
     0
 48
50.0
100
AcDbPolyline
 90
        2
 70
     1
 43
0.5
 10
-0.0625
 20
0.0
 42
1.0
 10
0.0625
 20
0.0
 42
1.0
  0
ENDBLK
  5
F776
330
F770
100
AcDbEntity
  8
0
 48
50.0
100
AcDbBlockEnd
  0
BLOCK
  5
15A49
330
1589B
100
AcDbEntity
  8
0
 48
50.0
100
AcDbBlockBegin
  2
*D1
 70
     1
 10
0.0
 20
0.0
 30
0.0
  3
*D1
  1

  0
LINE
  5
17430
330
1589B
100
AcDbEntity
  8
寸法
 62
     0
 48
50.0
370
    -2
100
AcDbLine
 10
6509.37556087636
 20
8340.766456979688
 30
0.0
 11
6509.37556087636
 21
7860.942789184609
 31
0.0
  0
LINE
  5
17431
330
1589B
100
AcDbEntity
  8
寸法
 62
     0
 48
50.0
370
    -2
100
AcDbLine
 10
7194.375560876356
 20
8340.76645697965
 30
0.0
 11
7194.375560876356
 21
7860.942789184609
 31
0.0
  0
LINE
  5
17432
330
1589B
100
AcDbEntity
  8
寸法
 62
     0
 48
50.0
370
    -2
100
AcDbLine
 10
6509.37556087636
 20
7920.942789184611
 30
0.0
 11
7194.375560876356
 21
7920.942789184611
 31
0.0
  0
INSERT
  5
17433
330
1589B
100
AcDbEntity
  8
寸法
 62
     0
 48
50.0
370
    -2
100
AcDbBlockReference
  2
_DOTSMALL
 10
6509.37556087636
 20
7920.942789184611
 30
0.0
 41
100.0
 42
100.0
 43
100.0
 50
180.0
  0
INSERT
  5
17434
330
1589B
100
AcDbEntity
  8
寸法
 62
     0
 48
50.0
370
    -2
100
AcDbBlockReference
  2
_DOTSMALL
 10
7194.375560876356
 20
7920.942789184611
 30
0.0
 41
100.0
 42
100.0
 43
100.0
  0
MTEXT
  5
17435
330
1589B
100
AcDbEntity
  8
寸法
 62
     7
 48
50.0
100
AcDbMText
 10
6851.875560876358
 20
8120.94278918461
 30
0.0
 40
120.0
 41
0.0
 71
     5
 72
     1
  1
\A1;有効開口部間口\P685
  7
STYLE1
 73
     1
 44
1.0
1001
ACAD
1000
MTEXTBEGIN
1070
    73
1070
     1
1070
    44
1040
1.0
1070
    74
1070
     0
1000
MTEXTEND
  0
POINT
  5
17436
330
1589B
100
AcDbEntity
  8
DEFPOINTS
 62
     0
 48
50.0
100
AcDbPoint
 10
6509.37556087636
 20
8360.766456979687
 30
0.0
  0
POINT
  5
17437
330
1589B
100
AcDbEntity
  8
DEFPOINTS
 62
     0
 48
50.0
100
AcDbPoint
 10
7194.375560876356
 20
8360.766456979652
 30
0.0
  0
POINT
  5
17438
330
1589B
100
AcDbEntity
  8
DEFPOINTS
 62
     0
 48
50.0
100
AcDbPoint
 10
7194.375560876356
 20
7920.942789184611
 30
0.0
  0
ENDBLK
  5
15A53
330
1589B
100
AcDbEntity
  8
0
 48
50.0
100
AcDbBlockEnd
  0
BLOCK
  5
15A5F
330
158B3
100
AcDbEntity
  8
0
 48
50.0
100
AcDbBlockBegin
  2
*D2
 70
     1
 10
0.0
 20
0.0
 30
0.0
  3
*D2
  1

  0
LINE
  5
17427
330
158B3
100
AcDbEntity
  8
寸法
 62
     0
 48
50.0
370
    -2
100
AcDbLine
 10
4814.375560876356
 20
8340.766456979613
 30
0.0
 11
4814.375560876356
 21
7313.664582119542
 31
0.0
  0
LINE
  5
17428
330
158B3
100
AcDbEntity
  8
寸法
 62
     0
 48
50.0
370
    -2
100
AcDbLine
 10
7274.37556087634
 20
8340.766456979746
 30
0.0
 11
7274.37556087634
 21
7313.664582119542
 31
0.0
  0
LINE
  5
17429
330
158B3
100
AcDbEntity
  8
寸法
 62
     0
 48
50.0
370
    -2
100
AcDbLine
 10
4814.375560876356
 20
7373.664582119542
 30
0.0
 11
7274.37556087634
 21
7373.664582119542
 31
0.0
  0
INSERT
  5
1742A
330
158B3
100
AcDbEntity
  8
寸法
 62
     0
 48
50.0
370
    -2
100
AcDbBlockReference
  2
_DOTSMALL
 10
4814.375560876356
 20
7373.664582119542
 30
0.0
 41
100.0
 42
100.0
 43
100.0
 50
180.0
  0
INSERT
  5
1742B
330
158B3
100
AcDbEntity
  8
寸法
 62
     0
 48
50.0
370
    -2
100
AcDbBlockReference
  2
_DOTSMALL
 10
7274.37556087634
 20
7373.664582119542
 30
0.0
 41
100.0
 42
100.0
 43
100.0
  0
MTEXT
  5
1742C
330
158B3
100
AcDbEntity
  8
寸法
 62
     7
 48
50.0
100
AcDbMText
 10
6044.375560876347
 20
7473.676393143164
 30
0.0
 40
120.0
 41
0.0
 71
     5
 72
     1
  1
\A1;2460
  7
STYLE1
 73
     1
 44
1.0
1001
ACAD
1000
MTEXTBEGIN
1070
    73
1070
     1
1070
    44
1040
1.0
1070
    74
1070
     0
1000
MTEXTEND
  0
POINT
  5
1742D
330
158B3
100
AcDbEntity
  8
DEFPOINTS
 62
     0
 48
50.0
100
AcDbPoint
 10
4814.375560876356
 20
8360.766456979614
 30
0.0
  0
POINT
  5
1742E
330
158B3
100
AcDbEntity
  8
DEFPOINTS
 62
     0
 48
50.0
100
AcDbPoint
 10
7274.37556087634
 20
8360.766456979744
 30
0.0
  0
POINT
  5
1742F
330
158B3
100
AcDbEntity
  8
DEFPOINTS
 62
     0
 48
50.0
100
AcDbPoint
 10
7274.37556087634
 20
7373.664582119542
 30
0.0
  0
ENDBLK
  5
15A69
330
158B3
100
AcDbEntity
  8
0
 48
50.0
100
AcDbBlockEnd
  0
BLOCK
  5
15A6A
330
158BF
100
AcDbEntity
  8
0
 48
50.0
100
AcDbBlockBegin
  2
*D3
 70
     1
 10
0.0
 20
0.0
 30
0.0
  3
*D3
  1

  0
LINE
  5
1741E
330
158BF
100
AcDbEntity
  8
寸法
 62
     0
 48
50.0
370
    -2
100
AcDbLine
 10
4869.375560876363
 20
9330.766456979723
 30
0.0
 11
4869.375560876363
 21
9586.574676604792
 31
0.0
  0
LINE
  5
1741F
330
158BF
100
AcDbEntity
  8
寸法
 62
     0
 48
50.0
370
    -2
100
AcDbLine
 10
5579.375560876362
 20
9330.76645697981
 30
0.0
 11
5579.375560876362
 21
9586.574676604792
 31
0.0
  0
LINE
  5
17420
330
158BF
100
AcDbEntity
  8
寸法
 62
     0
 48
50.0
370
    -2
100
AcDbLine
 10
4869.375560876363
 20
9526.574676604793
 30
0.0
 11
5579.375560876362
 21
9526.574676604793
 31
0.0
  0
INSERT
  5
17421
330
158BF
100
AcDbEntity
  8
寸法
 62
     0
 48
50.0
370
    -2
100
AcDbBlockReference
  2
_DOTSMALL
 10
4869.375560876363
 20
9526.574676604793
 30
0.0
 41
100.0
 42
100.0
 43
100.0
 50
180.0
  0
INSERT
  5
17422
330
158BF
100
AcDbEntity
  8
寸法
 62
     0
 48
50.0
370
    -2
100
AcDbBlockReference
  2
_DOTSMALL
 10
5579.375560876362
 20
9526.574676604793
 30
0.0
 41
100.0
 42
100.0
 43
100.0
  0
MTEXT
  5
17423
330
158BF
100
AcDbEntity
  8
寸法
 62
     7
 48
50.0
100
AcDbMText
 10
5224.625560876362
 20
9626.574676604793
 30
0.0
 40
120.0
 41
0.0
 71
     5
 72
     1
  1
\A1;710
  7
STYLE1
 73
     1
 44
1.0
1001
ACAD
1000
MTEXTBEGIN
1070
    73
1070
     1
1070
    44
1040
1.0
1070
    74
1070
     0
1000
MTEXTEND
  0
POINT
  5
17424
330
158BF
100
AcDbEntity
  8
DEFPOINTS
 62
     0
 48
50.0
100
AcDbPoint
 10
4869.375560876363
 20
9310.766456979724
 30
0.0
  0
POINT
  5
17425
330
158BF
100
AcDbEntity
  8
DEFPOINTS
 62
     0
 48
50.0
100
AcDbPoint
 10
5579.375560876362
 20
9310.766456979811
 30
0.0
  0
POINT
  5
17426
330
158BF
100
AcDbEntity
  8
DEFPOINTS
 62
     0
 48
50.0
100
AcDbPoint
 10
5579.375560876362
 20
9526.574676604793
 30
0.0
  0
ENDBLK
  5
15A74
330
158BF
100
AcDbEntity
  8
0
 48
50.0
100
AcDbBlockEnd
  0
BLOCK
  5
15A75
330
158CB
100
AcDbEntity
  8
0
 48
50.0
100
AcDbBlockBegin
  2
*D4
 70
     1
 10
0.0
 20
0.0
 30
0.0
  3
*D4
  1

  0
LINE
  5
17413
330
158CB
100
AcDbEntity
  8
寸法
 62
     0
 48
50.0
370
    -2
100
AcDbLine
 10
4814.375560876328
 20
9330.766456979693
 30
0.0
 11
4814.375560876328
 21
9586.574676604675
 31
0.0
  0
LINE
  5
17414
330
158CB
100
AcDbEntity
  8
寸法
 62
     0
 48
50.0
370
    -2
100
AcDbLine
 10
4869.375560876363
 20
9330.766456979693
 30
0.0
 11
4869.375560876363
 21
9586.574676604675
 31
0.0
  0
LINE
  5
17415
330
158CB
100
AcDbEntity
  8
寸法
 62
     0
 48
50.0
370
    -2
100
AcDbLine
 10
4869.375560876363
 20
9526.574676604676
 30
0.0
 11
4969.375560876364
 21
9526.574676604676
 31
0.0
  0
LINE
  5
17416
330
158CB
100
AcDbEntity
  8
寸法
 62
     0
 48
50.0
370
    -2
100
AcDbLine
 10
4814.375560876328
 20
9526.574676604676
 30
0.0
 11
4397.40499812785
 21
9526.574676604676
 31
0.0
  0
LINE
  5
17417
330
158CB
100
AcDbEntity
  8
寸法
 62
     0
 48
50.0
370
    -2
100
AcDbLine
 10
4869.375560876363
 20
9526.574676604676
 30
0.0
 11
4814.375560876328
 21
9526.574676604676
 31
0.0
  0
INSERT
  5
17418
330
158CB
100
AcDbEntity
  8
寸法
 62
     0
 48
50.0
370
    -2
100
AcDbBlockReference
  2
_DOTSMALL
 10
4869.375560876363
 20
9526.574676604676
 30
0.0
 41
100.0
 42
100.0
 43
100.0
 50
180.0
  0
INSERT
  5
17419
330
158CB
100
AcDbEntity
  8
寸法
 62
     0
 48
50.0
370
    -2
100
AcDbBlockReference
  2
_DOTSMALL
 10
4814.375560876328
 20
9526.574676604676
 30
0.0
 41
100.0
 42
100.0
 43
100.0
  0
MTEXT
  5
1741A
330
158CB
100
AcDbEntity
  8
寸法
 62
     7
 48
50.0
100
AcDbMText
 10
4505.890279502089
 20
9626.574676604676
 30
0.0
 40
120.0
 41
0.0
 71
     5
 72
     1
  1
\A1;55
  7
STYLE1
 73
     1
 44
1.0
1001
ACAD
1000
MTEXTBEGIN
1070
    73
1070
     1
1070
    44
1040
1.0
1070
    74
1070
     0
1000
MTEXTEND
  0
POINT
  5
1741B
330
158CB
100
AcDbEntity
  8
DEFPOINTS
 62
     0
 48
50.0
100
AcDbPoint
 10
4814.375560876328
 20
9310.766456979694
 30
0.0
  0
POINT
  5
1741C
330
158CB
100
AcDbEntity
  8
DEFPOINTS
 62
     0
 48
50.0
100
AcDbPoint
 10
4869.375560876363
 20
9310.766456979694
 30
0.0
  0
POINT
  5
1741D
330
158CB
100
AcDbEntity
  8
DEFPOINTS
 62
     0
 48
50.0
100
AcDbPoint
 10
4869.375560876363
 20
9526.574676604676
 30
0.0
  0
ENDBLK
  5
15A81
330
158CB
100
AcDbEntity
  8
0
 48
50.0
100
AcDbBlockEnd
  0
BLOCK
  5
15A82
330
158D9
100
AcDbEntity
  8
0
 48
50.0
100
AcDbBlockBegin
  2
*D5
 70
     1
 10
0.0
 20
0.0
 30
0.0
  3
*D5
  1

  0
LINE
  5
1740A
330
158D9
100
AcDbEntity
  8
寸法
 62
     0
 48
50.0
370
    -2
100
AcDbLine
 10
5689.375560876364
 20
9330.766456979723
 30
0.0
 11
5689.375560876364
 21
9586.574676604792
 31
0.0
  0
LINE
  5
1740B
330
158D9
100
AcDbEntity
  8
寸法
 62
     0
 48
50.0
370
    -2
100
AcDbLine
 10
6399.375560876362
 20
9330.76645697981
 30
0.0
 11
6399.375560876362
 21
9586.574676604792
 31
0.0
  0
LINE
  5
1740C
330
158D9
100
AcDbEntity
  8
寸法
 62
     0
 48
50.0
370
    -2
100
AcDbLine
 10
5689.375560876364
 20
9526.574676604793
 30
0.0
 11
6399.375560876362
 21
9526.574676604793
 31
0.0
  0
INSERT
  5
1740D
330
158D9
100
AcDbEntity
  8
寸法
 62
     0
 48
50.0
370
    -2
100
AcDbBlockReference
  2
_DOTSMALL
 10
5689.375560876364
 20
9526.574676604793
 30
0.0
 41
100.0
 42
100.0
 43
100.0
 50
180.0
  0
INSERT
  5
1740E
330
158D9
100
AcDbEntity
  8
寸法
 62
     0
 48
50.0
370
    -2
100
AcDbBlockReference
  2
_DOTSMALL
 10
6399.375560876362
 20
9526.574676604793
 30
0.0
 41
100.0
 42
100.0
 43
100.0
  0
MTEXT
  5
1740F
330
158D9
100
AcDbEntity
  8
寸法
 62
     7
 48
50.0
100
AcDbMText
 10
6044.625560876362
 20
9626.574676604793
 30
0.0
 40
120.0
 41
0.0
 71
     5
 72
     1
  1
\A1;710
  7
STYLE1
 73
     1
 44
1.0
1001
ACAD
1000
MTEXTBEGIN
1070
    73
1070
     1
1070
    44
1040
1.0
1070
    74
1070
     0
1000
MTEXTEND
  0
POINT
  5
17410
330
158D9
100
AcDbEntity
  8
DEFPOINTS
 62
     0
 48
50.0
100
AcDbPoint
 10
5689.375560876364
 20
9310.766456979724
 30
0.0
  0
POINT
  5
17411
330
158D9
100
AcDbEntity
  8
DEFPOINTS
 62
     0
 48
50.0
100
AcDbPoint
 10
6399.375560876362
 20
9310.766456979811
 30
0.0
  0
POINT
  5
17412
330
158D9
100
AcDbEntity
  8
DEFPOINTS
 62
     0
 48
50.0
100
AcDbPoint
 10
6399.375560876362
 20
9526.574676604793
 30
0.0
  0
ENDBLK
  5
15A8C
330
158D9
100
AcDbEntity
  8
0
 48
50.0
100
AcDbBlockEnd
  0
BLOCK
  5
15A8D
330
158E5
100
AcDbEntity
  8
0
 48
50.0
100
AcDbBlockBegin
  2
*D6
 70
     1
 10
0.0
 20
0.0
 30
0.0
  3
*D6
  1

  0
LINE
  5
173FF
330
158E5
100
AcDbEntity
  8
寸法
 62
     0
 48
50.0
370
    -2
100
AcDbLine
 10
7219.375560876364
 20
9330.766456979789
 30
0.0
 11
7219.375560876364
 21
9586.574676604771
 31
0.0
  0
LINE
  5
17400
330
158E5
100
AcDbEntity
  8
寸法
 62
     0
 48
50.0
370
    -2
100
AcDbLine
 10
7274.375560876364
 20
9330.766456979789
 30
0.0
 11
7274.375560876364
 21
9586.574676604771
 31
0.0
  0
LINE
  5
17401
330
158E5
100
AcDbEntity
  8
寸法
 62
     0
 48
50.0
370
    -2
100
AcDbLine
 10
7219.375560876364
 20
9526.574676604772
 30
0.0
 11
7119.375560876363
 21
9526.574676604772
 31
0.0
  0
LINE
  5
17402
330
158E5
100
AcDbEntity
  8
寸法
 62
     0
 48
50.0
370
    -2
100
AcDbLine
 10
7274.375560876364
 20
9526.574676604772
 30
0.0
 11
7691.346123624841
 21
9526.574676604772
 31
0.0
  0
LINE
  5
17403
330
158E5
100
AcDbEntity
  8
寸法
 62
     0
 48
50.0
370
    -2
100
AcDbLine
 10
7219.375560876364
 20
9526.574676604772
 30
0.0
 11
7274.375560876364
 21
9526.574676604772
 31
0.0
  0
INSERT
  5
17404
330
158E5
100
AcDbEntity
  8
寸法
 62
     0
 48
50.0
370
    -2
100
AcDbBlockReference
  2
_DOTSMALL
 10
7219.375560876364
 20
9526.574676604772
 30
0.0
 41
100.0
 42
100.0
 43
100.0
  0
INSERT
  5
17405
330
158E5
100
AcDbEntity
  8
寸法
 62
     0
 48
50.0
370
    -2
100
AcDbBlockReference
  2
_DOTSMALL
 10
7274.375560876364
 20
9526.574676604772
 30
0.0
 41
100.0
 42
100.0
 43
100.0
 50
180.0
  0
MTEXT
  5
17406
330
158E5
100
AcDbEntity
  8
寸法
 62
     7
 48
50.0
100
AcDbMText
 10
7582.860842250602
 20
9626.574676604771
 30
0.0
 40
120.0
 41
0.0
 71
     5
 72
     1
  1
\A1;55
  7
STYLE1
 73
     1
 44
1.0
1001
ACAD
1000
MTEXTBEGIN
1070
    73
1070
     1
1070
    44
1040
1.0
1070
    74
1070
     0
1000
MTEXTEND
  0
POINT
  5
17407
330
158E5
100
AcDbEntity
  8
DEFPOINTS
 62
     0
 48
50.0
100
AcDbPoint
 10
7219.375560876364
 20
9310.76645697979
 30
0.0
  0
POINT
  5
17408
330
158E5
100
AcDbEntity
  8
DEFPOINTS
 62
     0
 48
50.0
100
AcDbPoint
 10
7274.375560876364
 20
9310.76645697979
 30
0.0
  0
POINT
  5
17409
330
158E5
100
AcDbEntity
  8
DEFPOINTS
 62
     0
 48
50.0
100
AcDbPoint
 10
7274.375560876364
 20
9526.574676604772
 30
0.0
  0
ENDBLK
  5
15A99
330
158E5
100
AcDbEntity
  8
0
 48
50.0
100
AcDbBlockEnd
  0
BLOCK
  5
15A9A
330
158F3
100
AcDbEntity
  8
0
 48
50.0
100
AcDbBlockBegin
  2
*D7
 70
     1
 10
0.0
 20
0.0
 30
0.0
  3
*D7
  1

  0
LINE
  5
173F4
330
158F3
100
AcDbEntity
  8
寸法
 62
     0
 48
50.0
370
    -2
100
AcDbLine
 10
7294.375560876364
 20
9310.76645697979
 30
0.0
 11
7981.801906610775
 21
9310.76645697979
 31
0.0
  0
LINE
  5
173F5
330
158F3
100
AcDbEntity
  8
寸法
 62
     0
 48
50.0
370
    -2
100
AcDbLine
 10
7294.375560876364
 20
9255.76645697979
 30
0.0
 11
7981.801906610775
 21
9255.76645697979
 31
0.0
  0
LINE
  5
173F6
330
158F3
100
AcDbEntity
  8
寸法
 62
     0
 48
50.0
370
    -2
100
AcDbLine
 10
7921.801906610774
 20
9255.76645697979
 30
0.0
 11
7921.801906610774
 21
9155.766456979788
 31
0.0
  0
LINE
  5
173F7
330
158F3
100
AcDbEntity
  8
寸法
 62
     0
 48
50.0
370
    -2
100
AcDbLine
 10
7921.801906610774
 20
9310.76645697979
 30
0.0
 11
7921.801906610774
 21
9727.737019728266
 31
0.0
  0
LINE
  5
173F8
330
158F3
100
AcDbEntity
  8
寸法
 62
     0
 48
50.0
370
    -2
100
AcDbLine
 10
7921.801906610774
 20
9255.76645697979
 30
0.0
 11
7921.801906610774
 21
9310.76645697979
 31
0.0
  0
INSERT
  5
173F9
330
158F3
100
AcDbEntity
  8
寸法
 62
     0
 48
50.0
370
    -2
100
AcDbBlockReference
  2
_DOTSMALL
 10
7921.801906610774
 20
9255.76645697979
 30
0.0
 41
100.0
 42
100.0
 43
100.0
 50
90.0
  0
INSERT
  5
173FA
330
158F3
100
AcDbEntity
  8
寸法
 62
     0
 48
50.0
370
    -2
100
AcDbBlockReference
  2
_DOTSMALL
 10
7921.801906610774
 20
9310.76645697979
 30
0.0
 41
100.0
 42
100.0
 43
100.0
 50
270.0
  0
MTEXT
  5
173FB
330
158F3
100
AcDbEntity
  8
寸法
 62
     7
 48
50.0
100
AcDbMText
 10
7821.801906610774
 20
9619.25173835403
 30
0.0
 40
120.0
 41
0.0
 71
     5
 72
     1
  1
\A1;55
  7
STYLE1
 11
0.0000000000000001
 21
1.0
 31
0.0
 73
     1
 44
1.0
1001
ACAD
1000
MTEXTBEGIN
1070
    73
1070
     1
1070
    44
1040
1.0
1070
    74
1070
     0
1000
MTEXTEND
  0
POINT
  5
173FC
330
158F3
100
AcDbEntity
  8
DEFPOINTS
 62
     0
 48
50.0
100
AcDbPoint
 10
7274.375560876364
 20
9310.76645697979
 30
0.0
  0
POINT
  5
173FD
330
158F3
100
AcDbEntity
  8
DEFPOINTS
 62
     0
 48
50.0
100
AcDbPoint
 10
7274.375560876364
 20
9255.76645697979
 30
0.0
  0
POINT
  5
173FE
330
158F3
100
AcDbEntity
  8
DEFPOINTS
 62
     0
 48
50.0
100
AcDbPoint
 10
7921.801906610774
 20
9255.76645697979
 30
0.0
  0
ENDBLK
  5
15AA6
330
158F3
100
AcDbEntity
  8
0
 48
50.0
100
AcDbBlockEnd
  0
BLOCK
  5
15AA7
330
15901
100
AcDbEntity
  8
0
 48
50.0
100
AcDbBlockBegin
  2
*D8
 70
     1
 10
0.0
 20
0.0
 30
0.0
  3
*D8
  1

  0
LINE
  5
173E9
330
15901
100
AcDbEntity
  8
寸法
 62
     0
 48
50.0
370
    -2
100
AcDbLine
 10
6399.375560876362
 20
9330.76645697981
 30
0.0
 11
6399.375560876362
 21
9586.574676604792
 31
0.0
  0
LINE
  5
173EA
330
15901
100
AcDbEntity
  8
寸法
 62
     0
 48
50.0
370
    -2
100
AcDbLine
 10
6509.375560876366
 20
9330.766456979789
 30
0.0
 11
6509.375560876366
 21
9586.574676604792
 31
0.0
  0
LINE
  5
173EB
330
15901
100
AcDbEntity
  8
寸法
 62
     0
 48
50.0
370
    -2
100
AcDbLine
 10
6399.375560876362
 20
9526.574676604793
 30
0.0
 11
6299.375560876362
 21
9526.574676604793
 31
0.0
  0
LINE
  5
173EC
330
15901
100
AcDbEntity
  8
寸法
 62
     0
 48
50.0
370
    -2
100
AcDbLine
 10
6509.375560876366
 20
9526.574676604793
 30
0.0
 11
6609.375560876365
 21
9526.574676604793
 31
0.0
  0
LINE
  5
173ED
330
15901
100
AcDbEntity
  8
寸法
 62
     0
 48
50.0
370
    -2
100
AcDbLine
 10
6399.375560876362
 20
9526.574676604793
 30
0.0
 11
6509.375560876366
 21
9526.574676604793
 31
0.0
  0
INSERT
  5
173EE
330
15901
100
AcDbEntity
  8
寸法
 62
     0
 48
50.0
370
    -2
100
AcDbBlockReference
  2
_DOTSMALL
 10
6399.375560876362
 20
9526.574676604793
 30
0.0
 41
100.0
 42
100.0
 43
100.0
  0
INSERT
  5
173EF
330
15901
100
AcDbEntity
  8
寸法
 62
     0
 48
50.0
370
    -2
100
AcDbBlockReference
  2
_DOTSMALL
 10
6509.375560876366
 20
9526.574676604793
 30
0.0
 41
100.0
 42
100.0
 43
100.0
 50
180.0
  0
MTEXT
  5
173F0
330
15901
100
AcDbEntity
  8
寸法
 62
     7
 48
50.0
100
AcDbMText
 10
6454.375560876364
 20
9626.574676604793
 30
0.0
 40
120.0
 41
0.0
 71
     5
 72
     1
  1
\A1;110
  7
STYLE1
 73
     1
 44
1.0
1001
ACAD
1000
MTEXTBEGIN
1070
    73
1070
     1
1070
    44
1040
1.0
1070
    74
1070
     0
1000
MTEXTEND
  0
POINT
  5
173F1
330
15901
100
AcDbEntity
  8
DEFPOINTS
 62
     0
 48
50.0
100
AcDbPoint
 10
6399.375560876362
 20
9310.766456979811
 30
0.0
  0
POINT
  5
173F2
330
15901
100
AcDbEntity
  8
DEFPOINTS
 62
     0
 48
50.0
100
AcDbPoint
 10
6509.375560876366
 20
9310.76645697979
 30
0.0
  0
POINT
  5
173F3
330
15901
100
AcDbEntity
  8
DEFPOINTS
 62
     0
 48
50.0
100
AcDbPoint
 10
6509.375560876366
 20
9526.574676604793
 30
0.0
  0
ENDBLK
  5
15AB3
330
15901
100
AcDbEntity
  8
0
 48
50.0
100
AcDbBlockEnd
  0
BLOCK
  5
15AB4
330
1590F
100
AcDbEntity
  8
0
 48
50.0
100
AcDbBlockBegin
  2
*D9
 70
     1
 10
0.0
 20
0.0
 30
0.0
  3
*D9
  1

  0
LINE
  5
173E0
330
1590F
100
AcDbEntity
  8
寸法
 62
     0
 48
50.0
370
    -2
100
AcDbLine
 10
7219.375560876364
 20
9330.766456979803
 30
0.0
 11
7219.375560876364
 21
9586.574676604792
 31
0.0
  0
LINE
  5
173E1
330
1590F
100
AcDbEntity
  8
寸法
 62
     0
 48
50.0
370
    -2
100
AcDbLine
 10
6509.375560876366
 20
9330.766456979789
 30
0.0
 11
6509.375560876366
 21
9586.574676604792
 31
0.0
  0
LINE
  5
173E2
330
1590F
100
AcDbEntity
  8
寸法
 62
     0
 48
50.0
370
    -2
100
AcDbLine
 10
7219.375560876364
 20
9526.574676604793
 30
0.0
 11
6509.375560876366
 21
9526.574676604793
 31
0.0
  0
INSERT
  5
173E3
330
1590F
100
AcDbEntity
  8
寸法
 62
     0
 48
50.0
370
    -2
100
AcDbBlockReference
  2
_DOTSMALL
 10
7219.375560876364
 20
9526.574676604793
 30
0.0
 41
100.0
 42
100.0
 43
100.0
  0
INSERT
  5
173E4
330
1590F
100
AcDbEntity
  8
寸法
 62
     0
 48
50.0
370
    -2
100
AcDbBlockReference
  2
_DOTSMALL
 10
6509.375560876366
 20
9526.574676604793
 30
0.0
 41
100.0
 42
100.0
 43
100.0
 50
180.0
  0
MTEXT
  5
173E5
330
1590F
100
AcDbEntity
  8
寸法
 62
     7
 48
50.0
100
AcDbMText
 10
6864.375560876365
 20
9626.574676604793
 30
0.0
 40
120.0
 41
0.0
 71
     5
 72
     1
  1
\A1;710
  7
STYLE1
 73
     1
 44
1.0
1001
ACAD
1000
MTEXTBEGIN
1070
    73
1070
     1
1070
    44
1040
1.0
1070
    74
1070
     0
1000
MTEXTEND
  0
POINT
  5
173E6
330
1590F
100
AcDbEntity
  8
DEFPOINTS
 62
     0
 48
50.0
100
AcDbPoint
 10
7219.375560876364
 20
9310.766456979804
 30
0.0
  0
POINT
  5
173E7
330
1590F
100
AcDbEntity
  8
DEFPOINTS
 62
     0
 48
50.0
100
AcDbPoint
 10
6509.375560876366
 20
9310.76645697979
 30
0.0
  0
POINT
  5
173E8
330
1590F
100
AcDbEntity
  8
DEFPOINTS
 62
     0
 48
50.0
100
AcDbPoint
 10
6509.375560876366
 20
9526.574676604793
 30
0.0
  0
ENDBLK
  5
15ABE
330
1590F
100
AcDbEntity
  8
0
 48
50.0
100
AcDbBlockEnd
  0
BLOCK
  5
15ABF
330
1591B
100
AcDbEntity
  8
0
 48
50.0
100
AcDbBlockBegin
  2
*D10
 70
     1
 10
0.0
 20
0.0
 30
0.0
  3
*D10
  1

  0
LINE
  5
173D5
330
1591B
100
AcDbEntity
  8
寸法
 62
     0
 48
50.0
370
    -2
100
AcDbLine
 10
5579.375560876362
 20
9330.76645697981
 30
0.0
 11
5579.375560876362
 21
9586.574676604792
 31
0.0
  0
LINE
  5
173D6
330
1591B
100
AcDbEntity
  8
寸法
 62
     0
 48
50.0
370
    -2
100
AcDbLine
 10
5689.375560876366
 20
9330.766456979789
 30
0.0
 11
5689.375560876366
 21
9586.574676604792
 31
0.0
  0
LINE
  5
173D7
330
1591B
100
AcDbEntity
  8
寸法
 62
     0
 48
50.0
370
    -2
100
AcDbLine
 10
5579.375560876362
 20
9526.574676604793
 30
0.0
 11
5479.375560876363
 21
9526.574676604793
 31
0.0
  0
LINE
  5
173D8
330
1591B
100
AcDbEntity
  8
寸法
 62
     0
 48
50.0
370
    -2
100
AcDbLine
 10
5689.375560876366
 20
9526.574676604793
 30
0.0
 11
5789.375560876366
 21
9526.574676604793
 31
0.0
  0
LINE
  5
173D9
330
1591B
100
AcDbEntity
  8
寸法
 62
     0
 48
50.0
370
    -2
100
AcDbLine
 10
5579.375560876362
 20
9526.574676604793
 30
0.0
 11
5689.375560876366
 21
9526.574676604793
 31
0.0
  0
INSERT
  5
173DA
330
1591B
100
AcDbEntity
  8
寸法
 62
     0
 48
50.0
370
    -2
100
AcDbBlockReference
  2
_DOTSMALL
 10
5579.375560876362
 20
9526.574676604793
 30
0.0
 41
100.0
 42
100.0
 43
100.0
  0
INSERT
  5
173DB
330
1591B
100
AcDbEntity
  8
寸法
 62
     0
 48
50.0
370
    -2
100
AcDbBlockReference
  2
_DOTSMALL
 10
5689.375560876366
 20
9526.574676604793
 30
0.0
 41
100.0
 42
100.0
 43
100.0
 50
180.0
  0
MTEXT
  5
173DC
330
1591B
100
AcDbEntity
  8
寸法
 62
     7
 48
50.0
100
AcDbMText
 10
5634.375560876364
 20
9626.574676604793
 30
0.0
 40
120.0
 41
0.0
 71
     5
 72
     1
  1
\A1;110
  7
STYLE1
 73
     1
 44
1.0
1001
ACAD
1000
MTEXTBEGIN
1070
    73
1070
     1
1070
    44
1040
1.0
1070
    74
1070
     0
1000
MTEXTEND
  0
POINT
  5
173DD
330
1591B
100
AcDbEntity
  8
DEFPOINTS
 62
     0
 48
50.0
100
AcDbPoint
 10
5579.375560876362
 20
9310.766456979811
 30
0.0
  0
POINT
  5
173DE
330
1591B
100
AcDbEntity
  8
DEFPOINTS
 62
     0
 48
50.0
100
AcDbPoint
 10
5689.375560876366
 20
9310.76645697979
 30
0.0
  0
POINT
  5
173DF
330
1591B
100
AcDbEntity
  8
DEFPOINTS
 62
     0
 48
50.0
100
AcDbPoint
 10
5689.375560876366
 20
9526.574676604793
 30
0.0
  0
ENDBLK
  5
15ACB
330
1591B
100
AcDbEntity
  8
0
 48
50.0
100
AcDbBlockEnd
  0
BLOCK
  5
15ACC
330
15929
100
AcDbEntity
  8
0
 48
50.0
100
AcDbBlockBegin
  2
*D11
 70
     1
 10
0.0
 20
0.0
 30
0.0
  3
*D11
  1

  0
LINE
  5
173CA
330
15929
100
AcDbEntity
  8
寸法
 62
     0
 48
50.0
370
    -2
100
AcDbLine
 10
7294.375560876338
 20
8415.766456979774
 30
0.0
 11
7981.801906610749
 21
8415.766456979774
 31
0.0
  0
LINE
  5
173CB
330
15929
100
AcDbEntity
  8
寸法
 62
     0
 48
50.0
370
    -2
100
AcDbLine
 10
7294.375560876338
 20
8360.766456979774
 30
0.0
 11
7981.801906610749
 21
8360.766456979774
 31
0.0
  0
LINE
  5
173CC
330
15929
100
AcDbEntity
  8
寸法
 62
     0
 48
50.0
370
    -2
100
AcDbLine
 10
7921.801906610749
 20
8415.766456979774
 30
0.0
 11
7921.801906610749
 21
8515.766456979774
 31
0.0
  0
LINE
  5
173CD
330
15929
100
AcDbEntity
  8
寸法
 62
     0
 48
50.0
370
    -2
100
AcDbLine
 10
7921.801906610749
 20
8360.766456979774
 30
0.0
 11
7921.801906610749
 21
7874.419708700677
 31
0.0
  0
LINE
  5
173CE
330
15929
100
AcDbEntity
  8
寸法
 62
     0
 48
50.0
370
    -2
100
AcDbLine
 10
7921.801906610749
 20
8415.766456979774
 30
0.0
 11
7921.801906610749
 21
8360.766456979774
 31
0.0
  0
INSERT
  5
173CF
330
15929
100
AcDbEntity
  8
寸法
 62
     0
 48
50.0
370
    -2
100
AcDbBlockReference
  2
_DOTSMALL
 10
7921.801906610749
 20
8415.766456979774
 30
0.0
 41
100.0
 42
100.0
 43
100.0
 50
270.0
  0
INSERT
  5
173D0
330
15929
100
AcDbEntity
  8
寸法
 62
     0
 48
50.0
370
    -2
100
AcDbBlockReference
  2
_DOTSMALL
 10
7921.801906610749
 20
8360.766456979774
 30
0.0
 41
100.0
 42
100.0
 43
100.0
 50
90.0
  0
MTEXT
  5
173D1
330
15929
100
AcDbEntity
  8
寸法
 62
     7
 48
50.0
100
AcDbMText
 10
7821.801906610748
 20
7982.904990074915
 30
0.0
 40
120.0
 41
0.0
 71
     5
 72
     1
  1
\A1;55
  7
STYLE1
 11
0.0000000000000001
 21
1.0
 31
0.0
 73
     1
 44
1.0
1001
ACAD
1000
MTEXTBEGIN
1070
    73
1070
     1
1070
    44
1040
1.0
1070
    74
1070
     0
1000
MTEXTEND
  0
POINT
  5
173D2
330
15929
100
AcDbEntity
  8
DEFPOINTS
 62
     0
 48
50.0
100
AcDbPoint
 10
7274.37556087634
 20
8415.766456979774
 30
0.0
  0
POINT
  5
173D3
330
15929
100
AcDbEntity
  8
DEFPOINTS
 62
     0
 48
50.0
100
AcDbPoint
 10
7274.37556087634
 20
8360.766456979774
 30
0.0
  0
POINT
  5
173D4
330
15929
100
AcDbEntity
  8
DEFPOINTS
 62
     0
 48
50.0
100
AcDbPoint
 10
7921.801906610749
 20
8360.766456979774
 30
0.0
  0
ENDBLK
  5
15AD8
330
15929
100
AcDbEntity
  8
0
 48
50.0
100
AcDbBlockEnd
  0
BLOCK
  5
15AD9
330
15937
100
AcDbEntity
  8
0
 48
50.0
100
AcDbBlockBegin
  2
*D12
 70
     1
 10
0.0
 20
0.0
 30
0.0
  3
*D12
  1

  0
LINE
  5
173C1
330
15937
100
AcDbEntity
  8
寸法
 62
     0
 48
50.0
370
    -2
100
AcDbLine
 10
7294.375560876364
 20
9255.76645697979
 30
0.0
 11
7981.801906610775
 21
9255.76645697979
 31
0.0
  0
LINE
  5
173C2
330
15937
100
AcDbEntity
  8
寸法
 62
     0
 48
50.0
370
    -2
100
AcDbLine
 10
7294.375560876338
 20
8415.766456979774
 30
0.0
 11
7981.801906610775
 21
8415.766456979774
 31
0.0
  0
LINE
  5
173C3
330
15937
100
AcDbEntity
  8
寸法
 62
     0
 48
50.0
370
    -2
100
AcDbLine
 10
7921.801906610774
 20
9255.76645697979
 30
0.0
 11
7921.801906610774
 21
8415.766456979774
 31
0.0
  0
INSERT
  5
173C4
330
15937
100
AcDbEntity
  8
寸法
 62
     0
 48
50.0
370
    -2
100
AcDbBlockReference
  2
_DOTSMALL
 10
7921.801906610774
 20
9255.76645697979
 30
0.0
 41
100.0
 42
100.0
 43
100.0
 50
90.0
  0
INSERT
  5
173C5
330
15937
100
AcDbEntity
  8
寸法
 62
     0
 48
50.0
370
    -2
100
AcDbBlockReference
  2
_DOTSMALL
 10
7921.801906610774
 20
8415.766456979774
 30
0.0
 41
100.0
 42
100.0
 43
100.0
 50
270.0
  0
MTEXT
  5
173C6
330
15937
100
AcDbEntity
  8
寸法
 62
     7
 48
50.0
100
AcDbMText
 10
7821.790095587151
 20
8835.766456979783
 30
0.0
 40
120.0
 41
0.0
 71
     5
 72
     1
  1
\A1;2X420=840
  7
STYLE1
 11
0.0000000000000001
 21
1.0
 31
0.0
 73
     1
 44
1.0
1001
ACAD
1000
MTEXTBEGIN
1070
    73
1070
     1
1070
    44
1040
1.0
1070
    74
1070
     0
1000
MTEXTEND
  0
POINT
  5
173C7
330
15937
100
AcDbEntity
  8
DEFPOINTS
 62
     0
 48
50.0
100
AcDbPoint
 10
7274.375560876364
 20
9255.76645697979
 30
0.0
  0
POINT
  5
173C8
330
15937
100
AcDbEntity
  8
DEFPOINTS
 62
     0
 48
50.0
100
AcDbPoint
 10
7274.37556087634
 20
8415.766456979774
 30
0.0
  0
POINT
  5
173C9
330
15937
100
AcDbEntity
  8
DEFPOINTS
 62
     0
 48
50.0
100
AcDbPoint
 10
7921.801906610774
 20
8415.766456979774
 30
0.0
  0
ENDBLK
  5
15AE3
330
15937
100
AcDbEntity
  8
0
 48
50.0
100
AcDbBlockEnd
  0
BLOCK
  5
15AE4
330
15943
100
AcDbEntity
  8
0
 48
50.0
100
AcDbBlockBegin
  2
*D13
 70
     1
 10
0.0
 20
0.0
 30
0.0
  3
*D13
  1

  0
LINE
  5
173B8
330
15943
100
AcDbEntity
  8
寸法
 62
     0
 48
50.0
370
    -2
100
AcDbLine
 10
7294.375560876364
 20
9310.76645697979
 30
0.0
 11
8290.913437426452
 21
9310.76645697979
 31
0.0
  0
LINE
  5
173B9
330
15943
100
AcDbEntity
  8
寸法
 62
     0
 48
50.0
370
    -2
100
AcDbLine
 10
7294.375560876338
 20
8360.766456979774
 30
0.0
 11
8290.913437426452
 21
8360.766456979774
 31
0.0
  0
LINE
  5
173BA
330
15943
100
AcDbEntity
  8
寸法
 62
     0
 48
50.0
370
    -2
100
AcDbLine
 10
8230.913437426453
 20
9310.76645697979
 30
0.0
 11
8230.913437426453
 21
8360.766456979774
 31
0.0
  0
INSERT
  5
173BB
330
15943
100
AcDbEntity
  8
寸法
 62
     0
 48
50.0
370
    -2
100
AcDbBlockReference
  2
_DOTSMALL
 10
8230.913437426453
 20
9310.76645697979
 30
0.0
 41
100.0
 42
100.0
 43
100.0
 50
90.0
  0
INSERT
  5
173BC
330
15943
100
AcDbEntity
  8
寸法
 62
     0
 48
50.0
370
    -2
100
AcDbBlockReference
  2
_DOTSMALL
 10
8230.913437426453
 20
8360.766456979774
 30
0.0
 41
100.0
 42
100.0
 43
100.0
 50
270.0
  0
MTEXT
  5
173BD
330
15943
100
AcDbEntity
  8
寸法
 62
     7
 48
50.0
100
AcDbMText
 10
8130.913437426452
 20
8834.744175538693
 30
0.0
 40
120.0
 41
0.0
 71
     5
 72
     1
  1
\A1;950
  7
STYLE1
 11
0.0000000000000001
 21
1.0
 31
0.0
 73
     1
 44
1.0
1001
ACAD
1000
MTEXTBEGIN
1070
    73
1070
     1
1070
    44
1040
1.0
1070
    74
1070
     0
1000
MTEXTEND
  0
POINT
  5
173BE
330
15943
100
AcDbEntity
  8
DEFPOINTS
 62
     0
 48
50.0
100
AcDbPoint
 10
7274.375560876364
 20
9310.76645697979
 30
0.0
  0
POINT
  5
173BF
330
15943
100
AcDbEntity
  8
DEFPOINTS
 62
     0
 48
50.0
100
AcDbPoint
 10
7274.37556087634
 20
8360.766456979774
 30
0.0
  0
POINT
  5
173C0
330
15943
100
AcDbEntity
  8
DEFPOINTS
 62
     0
 48
50.0
100
AcDbPoint
 10
8230.913437426453
 20
8360.766456979774
 30
0.0
  0
ENDBLK
  5
15AEE
330
15943
100
AcDbEntity
  8
0
 48
50.0
100
AcDbBlockEnd
  0
BLOCK
  5
15B10
330
15973
100
AcDbEntity
  8
0
 48
50.0
100
AcDbBlockBegin
  2
*D14
 70
     1
 10
0.0
 20
0.0
 30
0.0
  3
*D14
  1

  0
LINE
  5
173AF
330
15973
100
AcDbEntity
  8
寸法
 62
     0
 48
50.0
370
    -2
100
AcDbLine
 10
6478.516577027673
 20
8811.266456979742
 30
0.0
 11
6409.105113036449
 21
8552.219346736759
 31
0.0
  0
LINE
  5
173B0
330
15973
100
AcDbEntity
  8
寸法
 62
     0
 48
50.0
370
    -2
100
AcDbLine
 10
7239.516577027686
 20
8811.266456979739
 30
0.0
 11
7170.105113036462
 21
8552.219346736759
 31
0.0
  0
LINE
  5
173B1
330
15973
100
AcDbEntity
  8
寸法
 62
     0
 48
50.0
370
    -2
100
AcDbLine
 10
6425.182064582317
 20
8612.219346736758
 30
0.0
 11
7186.18206458233
 21
8612.219346736758
 31
0.0
  0
INSERT
  5
173B2
330
15973
100
AcDbEntity
  8
寸法
 62
     0
 48
50.0
370
    -2
100
AcDbBlockReference
  2
_DOTSMALL
 10
6425.182064582317
 20
8612.219346736758
 30
0.0
 41
100.0
 42
100.0
 43
100.0
 50
180.0
  0
INSERT
  5
173B3
330
15973
100
AcDbEntity
  8
寸法
 62
     0
 48
50.0
370
    -2
100
AcDbBlockReference
  2
_DOTSMALL
 10
7186.18206458233
 20
8612.219346736758
 30
0.0
 41
100.0
 42
100.0
 43
100.0
  0
MTEXT
  5
173B4
330
15973
100
AcDbEntity
  8
寸法
 62
     7
 48
50.0
100
AcDbMText
 10
6863.222622994564
 20
8712.219346736757
 30
0.0
 40
120.0
 41
0.0
 71
     5
 72
     1
  1
\A1;761
  7
STYLE1
 73
     1
 44
1.0
1001
ACAD
1000
MTEXTBEGIN
1070
    73
1070
     1
1070
    44
1040
1.0
1070
    74
1070
     0
1000
MTEXTEND
  0
POINT
  5
173B5
330
15973
100
AcDbEntity
  8
DEFPOINTS
 62
     0
 48
50.0
100
AcDbPoint
 10
6483.875560876296
 20
8831.266456979742
 30
0.0
  0
POINT
  5
173B6
330
15973
100
AcDbEntity
  8
DEFPOINTS
 62
     0
 48
50.0
100
AcDbPoint
 10
7244.875560876308
 20
8831.266456979738
 30
0.0
  0
POINT
  5
173B7
330
15973
100
AcDbEntity
  8
DEFPOINTS
 62
     0
 48
50.0
100
AcDbPoint
 10
7186.18206458233
 20
8612.219346736758
 30
0.0
  0
ENDBLK
  5
15B1A
330
15973
100
AcDbEntity
  8
0
 48
50.0
100
AcDbBlockEnd
  0
BLOCK
  5
15B1B
330
1597F
100
AcDbEntity
  8
0
 48
50.0
100
AcDbBlockBegin
  2
*D15
 70
     1
 10
0.0
 20
0.0
 30
0.0
  3
*D15
  1

  0
LINE
  5
173A6
330
1597F
100
AcDbEntity
  8
寸法
 62
     0
 48
50.0
370
    -2
100
AcDbLine
 10
7264.875560876297
 20
9275.907473131111
 30
0.0
 11
7660.233286738321
 21
9169.971689764977
 31
0.0
  0
LINE
  5
173A7
330
1597F
100
AcDbEntity
  8
寸法
 62
     0
 48
50.0
370
    -2
100
AcDbLine
 10
7264.875560876297
 20
8825.907473131112
 30
0.0
 11
7660.233286738321
 21
8719.971689764978
 31
0.0
  0
LINE
  5
173A8
330
1597F
100
AcDbEntity
  8
寸法
 62
     0
 48
50.0
370
    -2
100
AcDbLine
 10
7600.233286738322
 20
9186.048641310845
 30
0.0
 11
7600.233286738322
 21
8736.048641310844
 31
0.0
  0
INSERT
  5
173A9
330
1597F
100
AcDbEntity
  8
寸法
 62
     0
 48
50.0
370
    -2
100
AcDbBlockReference
  2
_DOTSMALL
 10
7600.233286738322
 20
9186.048641310845
 30
0.0
 41
100.0
 42
100.0
 43
100.0
 50
90.0
  0
INSERT
  5
173AA
330
1597F
100
AcDbEntity
  8
寸法
 62
     0
 48
50.0
370
    -2
100
AcDbBlockReference
  2
_DOTSMALL
 10
7600.233286738322
 20
8736.048641310844
 30
0.0
 41
100.0
 42
100.0
 43
100.0
 50
270.0
  0
MTEXT
  5
173AB
330
1597F
100
AcDbEntity
  8
寸法
 62
     7
 48
50.0
100
AcDbMText
 10
7500.23328673832
 20
8961.048641310846
 30
0.0
 40
120.0
 41
0.0
 71
     5
 72
     1
  1
\A1;450
  7
STYLE1
 11
0.0000000000000001
 21
1.0
 31
0.0
 73
     1
 44
1.0
1001
ACAD
1000
MTEXTBEGIN
1070
    73
1070
     1
1070
    44
1040
1.0
1070
    74
1070
     0
1000
MTEXTEND
  0
POINT
  5
173AC
330
1597F
100
AcDbEntity
  8
DEFPOINTS
 62
     0
 48
50.0
100
AcDbPoint
 10
7244.875560876296
 20
9281.266456979734
 30
0.0
  0
POINT
  5
173AD
330
1597F
100
AcDbEntity
  8
DEFPOINTS
 62
     0
 48
50.0
100
AcDbPoint
 10
7244.875560876296
 20
8831.266456979735
 30
0.0
  0
POINT
  5
173AE
330
1597F
100
AcDbEntity
  8
DEFPOINTS
 62
     0
 48
50.0
100
AcDbPoint
 10
7600.233286738322
 20
8736.048641310844
 30
0.0
  0
ENDBLK
  5
15B25
330
1597F
100
AcDbEntity
  8
0
 48
50.0
100
AcDbBlockEnd
  0
BLOCK
  5
15B26
330
1598B
100
AcDbEntity
  8
0
 48
50.0
100
AcDbBlockBegin
  2
*D16
 70
     1
 10
0.0
 20
0.0
 30
0.0
  3
*D16
  1

  0
LINE
  5
1739D
330
1598B
100
AcDbEntity
  8
寸法
 62
     0
 48
50.0
370
    -2
100
AcDbLine
 10
4794.375560876339
 20
5391.07727689386
 30
0.0
 11
4436.271033268736
 21
5391.07727689386
 31
0.0
  0
LINE
  5
1739E
330
1598B
100
AcDbEntity
  8
寸法
 62
     0
 48
50.0
370
    -2
100
AcDbLine
 10
4794.375560876339
 20
3631.077276893865
 30
0.0
 11
4436.271033268736
 21
3631.077276893865
 31
0.0
  0
LINE
  5
1739F
330
1598B
100
AcDbEntity
  8
寸法
 62
     0
 48
50.0
370
    -2
100
AcDbLine
 10
4496.271033268736
 20
5391.07727689386
 30
0.0
 11
4496.271033268736
 21
3631.077276893865
 31
0.0
  0
INSERT
  5
173A0
330
1598B
100
AcDbEntity
  8
寸法
 62
     0
 48
50.0
370
    -2
100
AcDbBlockReference
  2
_DOTSMALL
 10
4496.271033268736
 20
5391.07727689386
 30
0.0
 41
100.0
 42
100.0
 43
100.0
 50
90.0
  0
INSERT
  5
173A1
330
1598B
100
AcDbEntity
  8
寸法
 62
     0
 48
50.0
370
    -2
100
AcDbBlockReference
  2
_DOTSMALL
 10
4496.271033268736
 20
3631.077276893865
 30
0.0
 41
100.0
 42
100.0
 43
100.0
 50
270.0
  0
MTEXT
  5
173A2
330
1598B
100
AcDbEntity
  8
寸法
 62
     7
 48
50.0
100
AcDbMText
 10
4396.271033268735
 20
4510.077276893862
 30
0.0
 40
120.0
 41
0.0
 71
     5
 72
     1
  1
\A1;有効開口部高サ1760
  7
STYLE1
 11
0.0000000000000001
 21
1.0
 31
0.0
 73
     1
 44
1.0
1001
ACAD
1000
MTEXTBEGIN
1070
    73
1070
     1
1070
    44
1040
1.0
1070
    74
1070
     0
1000
MTEXTEND
  0
POINT
  5
173A3
330
1598B
100
AcDbEntity
  8
DEFPOINTS
 62
     0
 48
50.0
100
AcDbPoint
 10
4814.37556087634
 20
5391.07727689386
 30
0.0
  0
POINT
  5
173A4
330
1598B
100
AcDbEntity
  8
DEFPOINTS
 62
     0
 48
50.0
100
AcDbPoint
 10
4814.37556087634
 20
3631.077276893865
 30
0.0
  0
POINT
  5
173A5
330
1598B
100
AcDbEntity
  8
DEFPOINTS
 62
     0
 48
50.0
100
AcDbPoint
 10
4496.271033268736
 20
3631.077276893865
 30
0.0
  0
ENDBLK
  5
15B30
330
1598B
100
AcDbEntity
  8
0
 48
50.0
100
AcDbBlockEnd
  0
BLOCK
  5
15CE6
330
15CDA
100
AcDbEntity
  8
0
 48
50.0
100
AcDbBlockBegin
  2
*D17
 70
     1
 10
0.0
 20
0.0
 30
0.0
  3
*D17
  1

  0
LINE
  5
17394
330
15CDA
100
AcDbEntity
  8
寸法
 62
     0
 48
50.0
370
    -2
100
AcDbLine
 10
5689.37556087636
 20
8340.766456979688
 30
0.0
 11
5689.37556087636
 21
7860.942789184609
 31
0.0
  0
LINE
  5
17395
330
15CDA
100
AcDbEntity
  8
寸法
 62
     0
 48
50.0
370
    -2
100
AcDbLine
 10
6374.375560876355
 20
8340.76645697965
 30
0.0
 11
6374.375560876355
 21
7860.942789184609
 31
0.0
  0
LINE
  5
17396
330
15CDA
100
AcDbEntity
  8
寸法
 62
     0
 48
50.0
370
    -2
100
AcDbLine
 10
5689.37556087636
 20
7920.942789184611
 30
0.0
 11
6374.375560876355
 21
7920.942789184611
 31
0.0
  0
INSERT
  5
17397
330
15CDA
100
AcDbEntity
  8
寸法
 62
     0
 48
50.0
370
    -2
100
AcDbBlockReference
  2
_DOTSMALL
 10
5689.37556087636
 20
7920.942789184611
 30
0.0
 41
100.0
 42
100.0
 43
100.0
 50
180.0
  0
INSERT
  5
17398
330
15CDA
100
AcDbEntity
  8
寸法
 62
     0
 48
50.0
370
    -2
100
AcDbBlockReference
  2
_DOTSMALL
 10
6374.375560876355
 20
7920.942789184611
 30
0.0
 41
100.0
 42
100.0
 43
100.0
  0
MTEXT
  5
17399
330
15CDA
100
AcDbEntity
  8
寸法
 62
     7
 48
50.0
100
AcDbMText
 10
6031.875560876359
 20
8020.94278918461
 30
0.0
 40
120.0
 41
0.0
 71
     5
 72
     1
  1
\A1;685
  7
STYLE1
 73
     1
 44
1.0
1001
ACAD
1000
MTEXTBEGIN
1070
    73
1070
     1
1070
    44
1040
1.0
1070
    74
1070
     0
1000
MTEXTEND
  0
POINT
  5
1739A
330
15CDA
100
AcDbEntity
  8
DEFPOINTS
 62
     0
 48
50.0
100
AcDbPoint
 10
5689.37556087636
 20
8360.766456979687
 30
0.0
  0
POINT
  5
1739B
330
15CDA
100
AcDbEntity
  8
DEFPOINTS
 62
     0
 48
50.0
100
AcDbPoint
 10
6374.375560876355
 20
8360.766456979652
 30
0.0
  0
POINT
  5
1739C
330
15CDA
100
AcDbEntity
  8
DEFPOINTS
 62
     0
 48
50.0
100
AcDbPoint
 10
6374.375560876355
 20
7920.942789184611
 30
0.0
  0
ENDBLK
  5
15CF0
330
15CDA
100
AcDbEntity
  8
0
 48
50.0
100
AcDbBlockEnd
  0
BLOCK
  5
15CF3
330
15CF2
100
AcDbEntity
  8
0
 48
50.0
100
AcDbBlockBegin
  2
*D18
 70
     1
 10
0.0
 20
0.0
 30
0.0
  3
*D18
  1

  0
LINE
  5
1738B
330
15CF2
100
AcDbEntity
  8
寸法
 62
     0
 48
50.0
370
    -2
100
AcDbLine
 10
4869.37556087636
 20
8340.766456979688
 30
0.0
 11
4869.37556087636
 21
7860.942789184609
 31
0.0
  0
LINE
  5
1738C
330
15CF2
100
AcDbEntity
  8
寸法
 62
     0
 48
50.0
370
    -2
100
AcDbLine
 10
5554.375560876356
 20
8340.76645697965
 30
0.0
 11
5554.375560876356
 21
7860.942789184609
 31
0.0
  0
LINE
  5
1738D
330
15CF2
100
AcDbEntity
  8
寸法
 62
     0
 48
50.0
370
    -2
100
AcDbLine
 10
4869.37556087636
 20
7920.942789184611
 30
0.0
 11
5554.375560876356
 21
7920.942789184611
 31
0.0
  0
INSERT
  5
1738E
330
15CF2
100
AcDbEntity
  8
寸法
 62
     0
 48
50.0
370
    -2
100
AcDbBlockReference
  2
_DOTSMALL
 10
4869.37556087636
 20
7920.942789184611
 30
0.0
 41
100.0
 42
100.0
 43
100.0
 50
180.0
  0
INSERT
  5
1738F
330
15CF2
100
AcDbEntity
  8
寸法
 62
     0
 48
50.0
370
    -2
100
AcDbBlockReference
  2
_DOTSMALL
 10
5554.375560876356
 20
7920.942789184611
 30
0.0
 41
100.0
 42
100.0
 43
100.0
  0
MTEXT
  5
17390
330
15CF2
100
AcDbEntity
  8
寸法
 62
     7
 48
50.0
100
AcDbMText
 10
5211.875560876358
 20
8020.94278918461
 30
0.0
 40
120.0
 41
0.0
 71
     5
 72
     1
  1
\A1;685
  7
STYLE1
 73
     1
 44
1.0
1001
ACAD
1000
MTEXTBEGIN
1070
    73
1070
     1
1070
    44
1040
1.0
1070
    74
1070
     0
1000
MTEXTEND
  0
POINT
  5
17391
330
15CF2
100
AcDbEntity
  8
DEFPOINTS
 62
     0
 48
50.0
100
AcDbPoint
 10
4869.37556087636
 20
8360.766456979687
 30
0.0
  0
POINT
  5
17392
330
15CF2
100
AcDbEntity
  8
DEFPOINTS
 62
     0
 48
50.0
100
AcDbPoint
 10
5554.375560876356
 20
8360.766456979652
 30
0.0
  0
POINT
  5
17393
330
15CF2
100
AcDbEntity
  8
DEFPOINTS
 62
     0
 48
50.0
100
AcDbPoint
 10
5554.375560876356
 20
7920.942789184611
 30
0.0
  0
ENDBLK
  5
15CFD
330
15CF2
100
AcDbEntity
  8
0
 48
50.0
100
AcDbBlockEnd
  0
BLOCK
  5
15D26
330
15D25
100
AcDbEntity
  8
0
 48
50.0
100
AcDbBlockBegin
  2
*D19
 70
     1
 10
0.0
 20
0.0
 30
0.0
  3
*D19
  1

  0
LINE
  5
17382
330
15D25
100
AcDbEntity
  8
寸法
 62
     0
 48
50.0
370
    -2
100
AcDbLine
 10
5658.516577027674
 20
8811.266456979742
 30
0.0
 11
5589.105113036449
 21
8552.219346736759
 31
0.0
  0
LINE
  5
17383
330
15D25
100
AcDbEntity
  8
寸法
 62
     0
 48
50.0
370
    -2
100
AcDbLine
 10
6419.516577027685
 20
8811.266456979739
 30
0.0
 11
6350.105113036462
 21
8552.219346736759
 31
0.0
  0
LINE
  5
17384
330
15D25
100
AcDbEntity
  8
寸法
 62
     0
 48
50.0
370
    -2
100
AcDbLine
 10
5605.182064582317
 20
8612.219346736758
 30
0.0
 11
6366.18206458233
 21
8612.219346736758
 31
0.0
  0
INSERT
  5
17385
330
15D25
100
AcDbEntity
  8
寸法
 62
     0
 48
50.0
370
    -2
100
AcDbBlockReference
  2
_DOTSMALL
 10
5605.182064582317
 20
8612.219346736758
 30
0.0
 41
100.0
 42
100.0
 43
100.0
 50
180.0
  0
INSERT
  5
17386
330
15D25
100
AcDbEntity
  8
寸法
 62
     0
 48
50.0
370
    -2
100
AcDbBlockReference
  2
_DOTSMALL
 10
6366.18206458233
 20
8612.219346736758
 30
0.0
 41
100.0
 42
100.0
 43
100.0
  0
MTEXT
  5
17387
330
15D25
100
AcDbEntity
  8
寸法
 62
     7
 48
50.0
100
AcDbMText
 10
6043.222622994565
 20
8712.219346736757
 30
0.0
 40
120.0
 41
0.0
 71
     5
 72
     1
  1
\A1;761
  7
STYLE1
 73
     1
 44
1.0
1001
ACAD
1000
MTEXTBEGIN
1070
    73
1070
     1
1070
    44
1040
1.0
1070
    74
1070
     0
1000
MTEXTEND
  0
POINT
  5
17388
330
15D25
100
AcDbEntity
  8
DEFPOINTS
 62
     0
 48
50.0
100
AcDbPoint
 10
5663.875560876295
 20
8831.266456979742
 30
0.0
  0
POINT
  5
17389
330
15D25
100
AcDbEntity
  8
DEFPOINTS
 62
     0
 48
50.0
100
AcDbPoint
 10
6424.875560876308
 20
8831.266456979738
 30
0.0
  0
POINT
  5
1738A
330
15D25
100
AcDbEntity
  8
DEFPOINTS
 62
     0
 48
50.0
100
AcDbPoint
 10
6366.18206458233
 20
8612.219346736758
 30
0.0
  0
ENDBLK
  5
15D30
330
15D25
100
AcDbEntity
  8
0
 48
50.0
100
AcDbBlockEnd
  0
BLOCK
  5
15D33
330
15D32
100
AcDbEntity
  8
0
 48
50.0
100
AcDbBlockBegin
  2
*D20
 70
     1
 10
0.0
 20
0.0
 30
0.0
  3
*D20
  1

  0
LINE
  5
17379
330
15D32
100
AcDbEntity
  8
寸法
 62
     0
 48
50.0
370
    -2
100
AcDbLine
 10
4838.516577027673
 20
8811.266456979742
 30
0.0
 11
4769.105113036449
 21
8552.219346736759
 31
0.0
  0
LINE
  5
1737A
330
15D32
100
AcDbEntity
  8
寸法
 62
     0
 48
50.0
370
    -2
100
AcDbLine
 10
5599.516577027685
 20
8811.266456979739
 30
0.0
 11
5530.105113036462
 21
8552.219346736759
 31
0.0
  0
LINE
  5
1737B
330
15D32
100
AcDbEntity
  8
寸法
 62
     0
 48
50.0
370
    -2
100
AcDbLine
 10
4785.182064582317
 20
8612.219346736758
 30
0.0
 11
5546.18206458233
 21
8612.219346736758
 31
0.0
  0
INSERT
  5
1737C
330
15D32
100
AcDbEntity
  8
寸法
 62
     0
 48
50.0
370
    -2
100
AcDbBlockReference
  2
_DOTSMALL
 10
4785.182064582317
 20
8612.219346736758
 30
0.0
 41
100.0
 42
100.0
 43
100.0
 50
180.0
  0
INSERT
  5
1737D
330
15D32
100
AcDbEntity
  8
寸法
 62
     0
 48
50.0
370
    -2
100
AcDbBlockReference
  2
_DOTSMALL
 10
5546.18206458233
 20
8612.219346736758
 30
0.0
 41
100.0
 42
100.0
 43
100.0
  0
MTEXT
  5
1737E
330
15D32
100
AcDbEntity
  8
寸法
 62
     7
 48
50.0
100
AcDbMText
 10
5223.222622994565
 20
8712.219346736757
 30
0.0
 40
120.0
 41
0.0
 71
     5
 72
     1
  1
\A1;761
  7
STYLE1
 73
     1
 44
1.0
1001
ACAD
1000
MTEXTBEGIN
1070
    73
1070
     1
1070
    44
1040
1.0
1070
    74
1070
     0
1000
MTEXTEND
  0
POINT
  5
1737F
330
15D32
100
AcDbEntity
  8
DEFPOINTS
 62
     0
 48
50.0
100
AcDbPoint
 10
4843.875560876296
 20
8831.266456979742
 30
0.0
  0
POINT
  5
17380
330
15D32
100
AcDbEntity
  8
DEFPOINTS
 62
     0
 48
50.0
100
AcDbPoint
 10
5604.875560876308
 20
8831.266456979738
 30
0.0
  0
POINT
  5
17381
330
15D32
100
AcDbEntity
  8
DEFPOINTS
 62
     0
 48
50.0
100
AcDbPoint
 10
5546.18206458233
 20
8612.219346736758
 30
0.0
  0
ENDBLK
  5
15D3D
330
15D32
100
AcDbEntity
  8
0
 48
50.0
100
AcDbBlockEnd
  0
BLOCK
  5
15E1A
330
15E19
100
AcDbEntity
  8
0
100
AcDbBlockBegin
  2
_OPEN
 70
     0
 10
0.0
 20
0.0
 30
0.0
  3
_OPEN
  1

  0
LINE
  5
15E1B
330
15E19
100
AcDbEntity
  8
0
  6
ByBlock
 62
     0
100
AcDbLine
 10
-1.0
 20
0.1666666666666666
 30
0.0
 11
0.0
 21
0.0
 31
0.0
  0
LINE
  5
15E1C
330
15E19
100
AcDbEntity
  8
0
  6
ByBlock
 62
     0
100
AcDbLine
 10
0.0
 20
0.0
 30
0.0
 11
-1.0
 21
-0.1666666666666666
 31
0.0
  0
LINE
  5
15E1D
330
15E19
100
AcDbEntity
  8
0
  6
ByBlock
 62
     0
100
AcDbLine
 10
0.0
 20
0.0
 30
0.0
 11
-1.0
 21
0.0
 31
0.0
  0
ENDBLK
  5
15E1E
330
15E19
100
AcDbEntity
  8
0
100
AcDbBlockEnd
  0
BLOCK
  5
15E20
330
15E1F
100
AcDbEntity
  8
0
 48
50.0
100
AcDbBlockBegin
  2
_DOT
 70
     0
 10
0.0
 20
0.0
 30
0.0
  3
_DOT
  1

  0
LWPOLYLINE
  5
15E21
330
15E1F
100
AcDbEntity
  8
0
  6
ByBlock
 62
     0
 48
50.0
100
AcDbPolyline
 90
        2
 70
     1
 43
0.5
 10
-0.25
 20
0.0
 42
1.0
 10
0.25
 20
0.0
 42
1.0
  0
LINE
  5
15E22
330
15E1F
100
AcDbEntity
  8
0
  6
ByBlock
 62
     0
 48
50.0
100
AcDbLine
 10
-0.5
 20
0.0
 30
0.0
 11
-1.0
 21
0.0
 31
0.0
  0
ENDBLK
  5
15E23
330
15E1F
100
AcDbEntity
  8
0
 48
50.0
100
AcDbBlockEnd
  0
BLOCK
  5
170B9
330
170AD
100
AcDbEntity
  8
0
 48
50.0
100
AcDbBlockBegin
  2
*D23
 70
     1
 10
0.0
 20
0.0
 30
0.0
  3
*D23
  1

  0
LINE
  5
1730E
330
170AD
100
AcDbEntity
  8
寸法
 62
     0
 48
50.0
370
    -2
100
AcDbLine
 10
4814.375560876339
 20
5664.577276893869
 30
0.0
 11
4814.375560876339
 21
5917.118862152106
 31
0.0
  0
LINE
  5
1730F
330
170AD
100
AcDbEntity
  8
寸法
 62
     0
 48
50.0
370
    -2
100
AcDbLine
 10
4764.375560876338
 20
5664.577276893867
 30
0.0
 11
4764.375560876338
 21
5917.118862152106
 31
0.0
  0
LINE
  5
17310
330
170AD
100
AcDbEntity
  8
寸法
 62
     0
 48
50.0
370
    -2
100
AcDbLine
 10
4814.375560876339
 20
5857.118862152105
 30
0.0
 11
4914.375560876338
 21
5857.118862152105
 31
0.0
  0
LINE
  5
17311
330
170AD
100
AcDbEntity
  8
寸法
 62
     0
 48
50.0
370
    -2
100
AcDbLine
 10
4764.375560876338
 20
5857.118862152105
 30
0.0
 11
4344.843035407603
 21
5857.118862152105
 31
0.0
  0
LINE
  5
17312
330
170AD
100
AcDbEntity
  8
寸法
 62
     0
 48
50.0
370
    -2
100
AcDbLine
 10
4814.375560876339
 20
5857.118862152105
 30
0.0
 11
4764.375560876338
 21
5857.118862152105
 31
0.0
  0
INSERT
  5
17313
330
170AD
100
AcDbEntity
  8
寸法
 62
     0
 48
50.0
370
    -2
100
AcDbBlockReference
  2
_DOTSMALL
 10
4814.375560876339
 20
5857.118862152105
 30
0.0
 41
100.0
 42
100.0
 43
100.0
 50
180.0
  0
INSERT
  5
17314
330
170AD
100
AcDbEntity
  8
寸法
 62
     0
 48
50.0
370
    -2
100
AcDbBlockReference
  2
_DOTSMALL
 10
4764.375560876338
 20
5857.118862152105
 30
0.0
 41
100.0
 42
100.0
 43
100.0
  0
MTEXT
  5
17315
330
170AD
100
AcDbEntity
  8
寸法
 62
     7
 48
50.0
100
AcDbMText
 10
4450.890279502091
 20
5957.118862152106
 30
0.0
 40
120.0
 41
0.0
 71
     5
 72
     1
  1
\A1;50
  7
STYLE1
 73
     1
 44
1.0
1001
ACAD
1000
MTEXTBEGIN
1070
    73
1070
     1
1070
    44
1040
1.0
1070
    74
1070
     0
1000
MTEXTEND
  0
POINT
  5
17316
330
170AD
100
AcDbEntity
  8
DEFPOINTS
 62
     0
 48
50.0
100
AcDbPoint
 10
4814.375560876339
 20
5644.577276893869
 30
0.0
  0
POINT
  5
17317
330
170AD
100
AcDbEntity
  8
DEFPOINTS
 62
     0
 48
50.0
100
AcDbPoint
 10
4764.375560876338
 20
5644.577276893866
 30
0.0
  0
POINT
  5
17318
330
170AD
100
AcDbEntity
  8
DEFPOINTS
 62
     0
 48
50.0
100
AcDbPoint
 10
4764.375560876338
 20
5857.118862152105
 30
0.0
  0
ENDBLK
  5
170BA
330
170AD
100
AcDbEntity
  8
0
 48
50.0
100
AcDbBlockEnd
  0
BLOCK
  5
170C5
330
170BB
100
AcDbEntity
  8
0
 48
50.0
100
AcDbBlockBegin
  2
*D24
 70
     1
 10
0.0
 20
0.0
 30
0.0
  3
*D24
  1

  0
LINE
  5
17319
330
170BB
100
AcDbEntity
  8
寸法
 62
     0
 48
50.0
370
    -2
100
AcDbLine
 10
7274.375560876342
 20
5664.577276893864
 30
0.0
 11
7274.375560876342
 21
5917.118862152106
 31
0.0
  0
LINE
  5
1731A
330
170BB
100
AcDbEntity
  8
寸法
 62
     0
 48
50.0
370
    -2
100
AcDbLine
 10
4814.375560876339
 20
5664.577276893869
 30
0.0
 11
4814.375560876339
 21
5917.118862152106
 31
0.0
  0
LINE
  5
1731B
330
170BB
100
AcDbEntity
  8
寸法
 62
     0
 48
50.0
370
    -2
100
AcDbLine
 10
7274.375560876342
 20
5857.118862152105
 30
0.0
 11
4814.375560876339
 21
5857.118862152105
 31
0.0
  0
INSERT
  5
1731C
330
170BB
100
AcDbEntity
  8
寸法
 62
     0
 48
50.0
370
    -2
100
AcDbBlockReference
  2
_DOTSMALL
 10
7274.375560876342
 20
5857.118862152105
 30
0.0
 41
100.0
 42
100.0
 43
100.0
  0
INSERT
  5
1731D
330
170BB
100
AcDbEntity
  8
寸法
 62
     0
 48
50.0
370
    -2
100
AcDbBlockReference
  2
_DOTSMALL
 10
4814.375560876339
 20
5857.118862152105
 30
0.0
 41
100.0
 42
100.0
 43
100.0
 50
180.0
  0
MTEXT
  5
1731E
330
170BB
100
AcDbEntity
  8
寸法
 62
     7
 48
50.0
100
AcDbMText
 10
6044.37556087634
 20
5957.130673175727
 30
0.0
 40
120.0
 41
0.0
 71
     5
 72
     1
  1
\A1;柱外寸法2460
  7
STYLE1
 73
     1
 44
1.0
1001
ACAD
1000
MTEXTBEGIN
1070
    73
1070
     1
1070
    44
1040
1.0
1070
    74
1070
     0
1000
MTEXTEND
  0
POINT
  5
1731F
330
170BB
100
AcDbEntity
  8
DEFPOINTS
 62
     0
 48
50.0
100
AcDbPoint
 10
7274.375560876342
 20
5644.577276893864
 30
0.0
  0
POINT
  5
17320
330
170BB
100
AcDbEntity
  8
DEFPOINTS
 62
     0
 48
50.0
100
AcDbPoint
 10
4814.375560876339
 20
5644.577276893869
 30
0.0
  0
POINT
  5
17321
330
170BB
100
AcDbEntity
  8
DEFPOINTS
 62
     0
 48
50.0
100
AcDbPoint
 10
4814.375560876339
 20
5857.118862152105
 30
0.0
  0
ENDBLK
  5
170C6
330
170BB
100
AcDbEntity
  8
0
 48
50.0
100
AcDbBlockEnd
  0
BLOCK
  5
170D1
330
170C7
100
AcDbEntity
  8
0
 48
50.0
100
AcDbBlockBegin
  2
*D25
 70
     1
 10
0.0
 20
0.0
 30
0.0
  3
*D25
  1

  0
LINE
  5
17322
330
170C7
100
AcDbEntity
  8
寸法
 62
     0
 48
50.0
370
    -2
100
AcDbLine
 10
4764.375560876338
 20
5664.577276893867
 30
0.0
 11
4764.375560876338
 21
6140.075840589954
 31
0.0
  0
LINE
  5
17323
330
170C7
100
AcDbEntity
  8
寸法
 62
     0
 48
50.0
370
    -2
100
AcDbLine
 10
7324.375560876342
 20
5664.577276893862
 30
0.0
 11
7324.375560876342
 21
6140.075840589954
 31
0.0
  0
LINE
  5
17324
330
170C7
100
AcDbEntity
  8
寸法
 62
     0
 48
50.0
370
    -2
100
AcDbLine
 10
4764.375560876338
 20
6080.075840589954
 30
0.0
 11
7324.375560876342
 21
6080.075840589954
 31
0.0
  0
INSERT
  5
17325
330
170C7
100
AcDbEntity
  8
寸法
 62
     0
 48
50.0
370
    -2
100
AcDbBlockReference
  2
_DOTSMALL
 10
4764.375560876338
 20
6080.075840589954
 30
0.0
 41
100.0
 42
100.0
 43
100.0
 50
180.0
  0
INSERT
  5
17326
330
170C7
100
AcDbEntity
  8
寸法
 62
     0
 48
50.0
370
    -2
100
AcDbBlockReference
  2
_DOTSMALL
 10
7324.375560876342
 20
6080.075840589954
 30
0.0
 41
100.0
 42
100.0
 43
100.0
  0
MTEXT
  5
17327
330
170C7
100
AcDbEntity
  8
寸法
 62
     7
 48
50.0
100
AcDbMText
 10
6044.37556087634
 20
6180.087651613575
 30
0.0
 40
120.0
 41
0.0
 71
     5
 72
     1
  1
\A1;2560
  7
STYLE1
 73
     1
 44
1.0
1001
ACAD
1000
MTEXTBEGIN
1070
    73
1070
     1
1070
    44
1040
1.0
1070
    74
1070
     0
1000
MTEXTEND
  0
POINT
  5
17328
330
170C7
100
AcDbEntity
  8
DEFPOINTS
 62
     0
 48
50.0
100
AcDbPoint
 10
4764.375560876338
 20
5644.577276893866
 30
0.0
  0
POINT
  5
17329
330
170C7
100
AcDbEntity
  8
DEFPOINTS
 62
     0
 48
50.0
100
AcDbPoint
 10
7324.375560876342
 20
5644.577276893862
 30
0.0
  0
POINT
  5
1732A
330
170C7
100
AcDbEntity
  8
DEFPOINTS
 62
     0
 48
50.0
100
AcDbPoint
 10
7324.375560876342
 20
6080.075840589954
 30
0.0
  0
ENDBLK
  5
170D2
330
170C7
100
AcDbEntity
  8
0
 48
50.0
100
AcDbBlockEnd
  0
BLOCK
  5
17107
330
170FB
100
AcDbEntity
  8
0
 48
50.0
100
AcDbBlockBegin
  2
*D26
 70
     1
 10
0.0
 20
0.0
 30
0.0
  3
*D26
  1

  0
LINE
  5
17303
330
170FB
100
AcDbEntity
  8
寸法
 62
     0
 48
50.0
370
    -2
100
AcDbLine
 10
7324.375560876342
 20
5664.577276893862
 30
0.0
 11
7324.375560876342
 21
5917.118862152103
 31
0.0
  0
LINE
  5
17304
330
170FB
100
AcDbEntity
  8
寸法
 62
     0
 48
50.0
370
    -2
100
AcDbLine
 10
7274.375560876342
 20
5664.577276893864
 30
0.0
 11
7274.375560876342
 21
5917.118862152103
 31
0.0
  0
LINE
  5
17305
330
170FB
100
AcDbEntity
  8
寸法
 62
     0
 48
50.0
370
    -2
100
AcDbLine
 10
7274.375560876342
 20
5857.118862152103
 30
0.0
 11
7174.375560876342
 21
5857.118862152103
 31
0.0
  0
LINE
  5
17306
330
170FB
100
AcDbEntity
  8
寸法
 62
     0
 48
50.0
370
    -2
100
AcDbLine
 10
7324.375560876342
 20
5857.118862152103
 30
0.0
 11
7743.908086345067
 21
5857.118862152103
 31
0.0
  0
LINE
  5
17307
330
170FB
100
AcDbEntity
  8
寸法
 62
     0
 48
50.0
370
    -2
100
AcDbLine
 10
7274.375560876342
 20
5857.118862152103
 30
0.0
 11
7324.375560876342
 21
5857.118862152103
 31
0.0
  0
INSERT
  5
17308
330
170FB
100
AcDbEntity
  8
寸法
 62
     0
 48
50.0
370
    -2
100
AcDbBlockReference
  2
_DOTSMALL
 10
7274.375560876342
 20
5857.118862152103
 30
0.0
 41
100.0
 42
100.0
 43
100.0
  0
INSERT
  5
17309
330
170FB
100
AcDbEntity
  8
寸法
 62
     0
 48
50.0
370
    -2
100
AcDbBlockReference
  2
_DOTSMALL
 10
7324.375560876342
 20
5857.118862152103
 30
0.0
 41
100.0
 42
100.0
 43
100.0
 50
180.0
  0
MTEXT
  5
1730A
330
170FB
100
AcDbEntity
  8
寸法
 62
     7
 48
50.0
100
AcDbMText
 10
7637.860842250579
 20
5957.118862152103
 30
0.0
 40
120.0
 41
0.0
 71
     5
 72
     1
  1
\A1;50
  7
STYLE1
 73
     1
 44
1.0
1001
ACAD
1000
MTEXTBEGIN
1070
    73
1070
     1
1070
    44
1040
1.0
1070
    74
1070
     0
1000
MTEXTEND
  0
POINT
  5
1730B
330
170FB
100
AcDbEntity
  8
DEFPOINTS
 62
     0
 48
50.0
100
AcDbPoint
 10
7324.375560876342
 20
5644.577276893862
 30
0.0
  0
POINT
  5
1730C
330
170FB
100
AcDbEntity
  8
DEFPOINTS
 62
     0
 48
50.0
100
AcDbPoint
 10
7274.375560876342
 20
5644.577276893864
 30
0.0
  0
POINT
  5
1730D
330
170FB
100
AcDbEntity
  8
DEFPOINTS
 62
     0
 48
50.0
100
AcDbPoint
 10
7274.375560876342
 20
5857.118862152103
 30
0.0
  0
ENDBLK
  5
17108
330
170FB
100
AcDbEntity
  8
0
 48
50.0
100
AcDbBlockEnd
  0
BLOCK
  5
17A9F
330
17A93
100
AcDbEntity
  8
0
 48
50.0
100
AcDbBlockBegin
  2
*D27
 70
     1
 10
0.0
 20
0.0
 30
0.0
  3
*D27
  1

  0
LINE
  5
17C19
330
17A93
100
AcDbEntity
  8
寸法
 62
     0
 48
50.0
370
    -2
100
AcDbLine
 10
9634.245103391943
 20
3619.577276893864
 30
0.0
 11
8999.284382744518
 21
3619.577276893865
 31
0.0
  0
LINE
  5
17C1A
330
17A93
100
AcDbEntity
  8
寸法
 62
     0
 48
50.0
370
    -2
100
AcDbLine
 10
9586.247473436721
 20
3569.577276893863
 30
0.0
 11
8999.284382744518
 21
3569.577276893863
 31
0.0
  0
LINE
  5
17C1B
330
17A93
100
AcDbEntity
  8
寸法
 62
     0
 48
50.0
370
    -2
100
AcDbLine
 10
9059.284382744518
 20
3619.577276893865
 30
0.0
 11
9059.284382744518
 21
3719.577276893865
 31
0.0
  0
LINE
  5
17C1C
330
17A93
100
AcDbEntity
  8
寸法
 62
     0
 48
50.0
370
    -2
100
AcDbLine
 10
9059.284382744518
 20
3569.577276893863
 30
0.0
 11
9059.284382744518
 21
3157.482788704883
 31
0.0
  0
LINE
  5
17C1D
330
17A93
100
AcDbEntity
  8
寸法
 62
     0
 48
50.0
370
    -2
100
AcDbLine
 10
9059.284382744518
 20
3619.577276893865
 30
0.0
 11
9059.284382744518
 21
3569.577276893863
 31
0.0
  0
INSERT
  5
17C1E
330
17A93
100
AcDbEntity
  8
寸法
 62
     0
 48
50.0
370
    -2
100
AcDbBlockReference
  2
_DOTSMALL
 10
9059.284382744518
 20
3619.577276893865
 30
0.0
 41
100.0
 42
100.0
 43
100.0
 50
270.0
  0
INSERT
  5
17C1F
330
17A93
100
AcDbEntity
  8
寸法
 62
     0
 48
50.0
370
    -2
100
AcDbBlockReference
  2
_DOTSMALL
 10
9059.284382744518
 20
3569.577276893863
 30
0.0
 41
100.0
 42
100.0
 43
100.0
 50
90.0
  0
MTEXT
  5
17C20
330
17A93
100
AcDbEntity
  8
寸法
 62
     7
 48
50.0
100
AcDbMText
 10
8959.284382744518
 20
3263.530032799372
 30
0.0
 40
120.0
 41
0.0
 71
     5
 72
     1
  1
\A1;50
  7
STYLE1
 11
0.0000000000000001
 21
1.0
 31
0.0
 73
     1
 44
1.0
1001
ACAD
1000
MTEXTBEGIN
1070
    73
1070
     1
1070
    44
1040
1.0
1070
    74
1070
     0
1000
MTEXTEND
  0
POINT
  5
17C21
330
17A93
100
AcDbEntity
  8
DEFPOINTS
 62
     0
 48
50.0
100
AcDbPoint
 10
9654.245103391943
 20
3619.577276893864
 30
0.0
  0
POINT
  5
17C22
330
17A93
100
AcDbEntity
  8
DEFPOINTS
 62
     0
 48
50.0
100
AcDbPoint
 10
9606.247473436722
 20
3569.577276893863
 30
0.0
  0
POINT
  5
17C23
330
17A93
100
AcDbEntity
  8
DEFPOINTS
 62
     0
 48
50.0
100
AcDbPoint
 10
9059.284382744518
 20
3569.577276893863
 30
0.0
  0
ENDBLK
  5
17AA0
330
17A93
100
AcDbEntity
  8
0
 48
50.0
100
AcDbBlockEnd
  0
BLOCK
  5
17AAB
330
17AA1
100
AcDbEntity
  8
0
 48
50.0
100
AcDbBlockBegin
  2
*D28
 70
     1
 10
0.0
 20
0.0
 30
0.0
  3
*D28
  1

  0
LINE
  5
17C10
330
17AA1
100
AcDbEntity
  8
寸法
 62
     0
 48
50.0
370
    -2
100
AcDbLine
 10
9634.245103391943
 20
5409.577276893862
 30
0.0
 11
8999.284382744519
 21
5409.577276893862
 31
0.0
  0
LINE
  5
17C11
330
17AA1
100
AcDbEntity
  8
寸法
 62
     0
 48
50.0
370
    -2
100
AcDbLine
 10
9634.245103391943
 20
3619.577276893864
 30
0.0
 11
8999.284382744518
 21
3619.577276893865
 31
0.0
  0
LINE
  5
17C12
330
17AA1
100
AcDbEntity
  8
寸法
 62
     0
 48
50.0
370
    -2
100
AcDbLine
 10
9059.28438274452
 20
5409.577276893862
 30
0.0
 11
9059.284382744518
 21
3619.577276893865
 31
0.0
  0
INSERT
  5
17C13
330
17AA1
100
AcDbEntity
  8
寸法
 62
     0
 48
50.0
370
    -2
100
AcDbBlockReference
  2
_DOTSMALL
 10
9059.28438274452
 20
5409.577276893862
 30
0.0
 41
100.0
 42
100.0
 43
100.0
 50
90.0
  0
INSERT
  5
17C14
330
17AA1
100
AcDbEntity
  8
寸法
 62
     0
 48
50.0
370
    -2
100
AcDbBlockReference
  2
_DOTSMALL
 10
9059.284382744518
 20
3619.577276893865
 30
0.0
 41
100.0
 42
100.0
 43
100.0
 50
270.0
  0
MTEXT
  5
17C15
330
17AA1
100
AcDbEntity
  8
寸法
 62
     7
 48
50.0
100
AcDbMText
 10
8959.284382744518
 20
4524.612288770249
 30
0.0
 40
120.0
 41
0.0
 71
     5
 72
     1
  1
\A1;1790
  7
STYLE1
 11
0.0000000000000001
 21
1.0
 31
0.0
 73
     1
 44
1.0
1001
ACAD
1000
MTEXTBEGIN
1070
    73
1070
     1
1070
    44
1040
1.0
1070
    74
1070
     0
1000
MTEXTEND
  0
POINT
  5
17C16
330
17AA1
100
AcDbEntity
  8
DEFPOINTS
 62
     0
 48
50.0
100
AcDbPoint
 10
9654.245103391943
 20
5409.577276893862
 30
0.0
  0
POINT
  5
17C17
330
17AA1
100
AcDbEntity
  8
DEFPOINTS
 62
     0
 48
50.0
100
AcDbPoint
 10
9654.245103391943
 20
3619.577276893864
 30
0.0
  0
POINT
  5
17C18
330
17AA1
100
AcDbEntity
  8
DEFPOINTS
 62
     0
 48
50.0
100
AcDbPoint
 10
9059.284382744518
 20
3619.577276893865
 30
0.0
  0
ENDBLK
  5
17AAC
330
17AA1
100
AcDbEntity
  8
0
 48
50.0
100
AcDbBlockEnd
  0
BLOCK
  5
17AEB
330
17AE1
100
AcDbEntity
  8
0
 48
50.0
100
AcDbBlockBegin
  2
*D29
 70
     1
 10
0.0
 20
0.0
 30
0.0
  3
*D29
  1

  0
LINE
  5
17C07
330
17AE1
100
AcDbEntity
  8
寸法
 62
     0
 48
50.0
370
    -2
100
AcDbLine
 10
10631.24747343672
 20
3569.57727689386
 30
0.0
 11
11181.65601137055
 21
3569.57727689386
 31
0.0
  0
LINE
  5
17C08
330
17AE1
100
AcDbEntity
  8
寸法
 62
     0
 48
50.0
370
    -2
100
AcDbLine
 10
10711.24747343673
 20
5589.57727689386
 30
0.0
 11
11181.65601137055
 21
5589.57727689386
 31
0.0
  0
LINE
  5
17C09
330
17AE1
100
AcDbEntity
  8
寸法
 62
     0
 48
50.0
370
    -2
100
AcDbLine
 10
11141.65601137055
 20
3589.577276893861
 30
0.0
 11
11141.65601137055
 21
5569.57727689386
 31
0.0
  0
INSERT
  5
17C0A
330
17AE1
100
AcDbEntity
  8
寸法
 62
     0
 48
50.0
370
    -2
100
AcDbBlockReference
  2
_DOT
 10
11141.65601137055
 20
3569.57727689386
 30
0.0
 41
20.0
 42
20.0
 43
20.0
 50
270.0
  0
INSERT
  5
17C0B
330
17AE1
100
AcDbEntity
  8
寸法
 62
     0
 48
50.0
370
    -2
100
AcDbBlockReference
  2
_DOT
 10
11141.65601137055
 20
5589.57727689386
 30
0.0
 41
20.0
 42
20.0
 43
20.0
 50
90.0
  0
MTEXT
  5
17C0C
330
17AE1
100
AcDbEntity
  8
寸法
 62
     7
 48
50.0
100
AcDbMText
 10
11049.64420034693
 20
4521.501672958286
 30
0.0
 40
120.0
 41
0.0
 71
     5
 72
     1
  1
\A1;2020
  7
STYLE1
 11
0.0000000000000001
 21
1.0
 31
0.0
 73
     1
 44
1.0
1001
ACAD
1000
MTEXTBEGIN
1070
    73
1070
     1
1070
    44
1040
1.0
1070
    74
1070
     0
1000
MTEXTEND
  0
POINT
  5
17C0D
330
17AE1
100
AcDbEntity
  8
DEFPOINTS
 62
     0
 48
50.0
100
AcDbPoint
 10
10611.24747343672
 20
3569.57727689386
 30
0.0
  0
POINT
  5
17C0E
330
17AE1
100
AcDbEntity
  8
DEFPOINTS
 62
     0
 48
50.0
100
AcDbPoint
 10
10691.24747343673
 20
5589.57727689386
 30
0.0
  0
POINT
  5
17C0F
330
17AE1
100
AcDbEntity
  8
DEFPOINTS
 62
     0
 48
50.0
100
AcDbPoint
 10
11141.65601137055
 20
5589.57727689386
 30
0.0
  0
ENDBLK
  5
17AEC
330
17AE1
100
AcDbEntity
  8
0
 48
50.0
100
AcDbBlockEnd
  0
BLOCK
  5
17AF8
330
17AED
100
AcDbEntity
  8
0
 48
50.0
100
AcDbBlockBegin
  2
*D30
 70
     1
 10
0.0
 20
0.0
 30
0.0
  3
*D30
  1

  0
LINE
  5
17BFD
330
17AED
100
AcDbEntity
  8
寸法
 62
     0
 48
50.0
370
    -2
100
AcDbLine
 10
10611.24747343672
 20
5611.387956505514
 30
0.0
 11
10611.24747343672
 21
6103.234730473165
 31
0.0
  0
LINE
  5
17BFE
330
17AED
100
AcDbEntity
  8
寸法
 62
     0
 48
50.0
370
    -2
100
AcDbLine
 10
10691.24747343672
 20
5609.577276893862
 30
0.0
 11
10691.24747343672
 21
6103.234730473165
 31
0.0
  0
LINE
  5
17BFF
330
17AED
100
AcDbEntity
  8
寸法
 62
     0
 48
50.0
370
    -2
100
AcDbLine
 10
10611.24747343672
 20
6043.234730473165
 30
0.0
 11
10691.24747343672
 21
6043.234730473165
 31
0.0
  0
LINE
  5
17C00
330
17AED
100
AcDbEntity
  8
寸法
 62
     0
 48
50.0
370
    -2
100
AcDbLine
 10
10691.24747343672
 20
6043.234730473165
 30
0.0
 11
11003.3419616257
 21
6043.234730473165
 31
0.0
  0
INSERT
  5
17C01
330
17AED
100
AcDbEntity
  8
寸法
 62
     0
 48
50.0
370
    -2
100
AcDbBlockReference
  2
_DOTSMALL
 10
10611.24747343672
 20
6043.234730473165
 30
0.0
 41
100.0
 42
100.0
 43
100.0
 50
180.0
  0
INSERT
  5
17C02
330
17AED
100
AcDbEntity
  8
寸法
 62
     0
 48
50.0
370
    -2
100
AcDbBlockReference
  2
_DOTSMALL
 10
10691.24747343672
 20
6043.234730473165
 30
0.0
 41
100.0
 42
100.0
 43
100.0
  0
MTEXT
  5
17C03
330
17AED
100
AcDbEntity
  8
寸法
 62
     7
 48
50.0
100
AcDbMText
 10
10897.29471753121
 20
6143.234730473165
 30
0.0
 40
120.0
 41
0.0
 71
     5
 72
     1
  1
\A1;80
  7
STYLE1
 73
     1
 44
1.0
1001
ACAD
1000
MTEXTBEGIN
1070
    73
1070
     1
1070
    44
1040
1.0
1070
    74
1070
     0
1000
MTEXTEND
  0
POINT
  5
17C04
330
17AED
100
AcDbEntity
  8
DEFPOINTS
 62
     0
 48
50.0
100
AcDbPoint
 10
10611.24747343672
 20
5591.387956505514
 30
0.0
  0
POINT
  5
17C05
330
17AED
100
AcDbEntity
  8
DEFPOINTS
 62
     0
 48
50.0
100
AcDbPoint
 10
10691.24747343672
 20
5589.577276893862
 30
0.0
  0
POINT
  5
17C06
330
17AED
100
AcDbEntity
  8
DEFPOINTS
 62
     0
 48
50.0
100
AcDbPoint
 10
10691.24747343672
 20
6043.234730473165
 30
0.0
  0
ENDBLK
  5
17AF9
330
17AED
100
AcDbEntity
  8
0
 48
50.0
100
AcDbBlockEnd
  0
BLOCK
  5
17B04
330
17AFA
100
AcDbEntity
  8
0
 48
50.0
100
AcDbBlockBegin
  2
*D31
 70
     1
 10
0.0
 20
0.0
 30
0.0
  3
*D31
  1

  0
LINE
  5
17BF4
330
17AFA
100
AcDbEntity
  8
寸法
 62
     0
 48
50.0
370
    -2
100
AcDbLine
 10
10691.24747343672
 20
5609.577276893862
 30
0.0
 11
10691.24747343672
 21
6337.937939113255
 31
0.0
  0
LINE
  5
17BF5
330
17AFA
100
AcDbEntity
  8
寸法
 62
     0
 48
50.0
370
    -2
100
AcDbLine
 10
9601.247473436721
 20
5664.577276893866
 30
0.0
 11
9601.247473436721
 21
6337.937939113255
 31
0.0
  0
LINE
  5
17BF6
330
17AFA
100
AcDbEntity
  8
寸法
 62
     0
 48
50.0
370
    -2
100
AcDbLine
 10
10691.24747343672
 20
6277.937939113255
 30
0.0
 11
9601.247473436721
 21
6277.937939113255
 31
0.0
  0
INSERT
  5
17BF7
330
17AFA
100
AcDbEntity
  8
寸法
 62
     0
 48
50.0
370
    -2
100
AcDbBlockReference
  2
_DOTSMALL
 10
10691.24747343672
 20
6277.937939113255
 30
0.0
 41
100.0
 42
100.0
 43
100.0
  0
INSERT
  5
17BF8
330
17AFA
100
AcDbEntity
  8
寸法
 62
     0
 48
50.0
370
    -2
100
AcDbBlockReference
  2
_DOTSMALL
 10
9601.247473436721
 20
6277.937939113255
 30
0.0
 41
100.0
 42
100.0
 43
100.0
 50
180.0
  0
MTEXT
  5
17BF9
330
17AFA
100
AcDbEntity
  8
寸法
 62
     7
 48
50.0
100
AcDbMText
 10
10148.16443385108
 20
6377.937939113255
 30
0.0
 40
120.0
 41
0.0
 71
     5
 72
     1
  1
\A1;1090
  7
STYLE1
 73
     1
 44
1.0
1001
ACAD
1000
MTEXTBEGIN
1070
    73
1070
     1
1070
    44
1040
1.0
1070
    74
1070
     0
1000
MTEXTEND
  0
POINT
  5
17BFA
330
17AFA
100
AcDbEntity
  8
DEFPOINTS
 62
     0
 48
50.0
100
AcDbPoint
 10
10691.24747343672
 20
5589.577276893862
 30
0.0
  0
POINT
  5
17BFB
330
17AFA
100
AcDbEntity
  8
DEFPOINTS
 62
     0
 48
50.0
100
AcDbPoint
 10
9601.247473436721
 20
5644.577276893866
 30
0.0
  0
POINT
  5
17BFC
330
17AFA
100
AcDbEntity
  8
DEFPOINTS
 62
     0
 48
50.0
100
AcDbPoint
 10
9601.247473436721
 20
6277.937939113255
 30
0.0
  0
ENDBLK
  5
17B05
330
17AFA
100
AcDbEntity
  8
0
 48
50.0
100
AcDbBlockEnd
  0
BLOCK
  5
17B10
330
17B06
100
AcDbEntity
  8
0
 48
50.0
100
AcDbBlockBegin
  2
*D32
 70
     1
 10
0.0
 20
0.0
 30
0.0
  3
*D32
  1

  0
LINE
  5
17BEB
330
17B06
100
AcDbEntity
  8
寸法
 62
     0
 48
50.0
370
    -2
100
AcDbLine
 10
10611.24747343672
 20
5611.387956505514
 30
0.0
 11
10611.24747343672
 21
6103.234730473165
 31
0.0
  0
LINE
  5
17BEC
330
17B06
100
AcDbEntity
  8
寸法
 62
     0
 48
50.0
370
    -2
100
AcDbLine
 10
9661.247473436722
 20
5660.578895016837
 30
0.0
 11
9661.247473436722
 21
6103.234730473165
 31
0.0
  0
LINE
  5
17BED
330
17B06
100
AcDbEntity
  8
寸法
 62
     0
 48
50.0
370
    -2
100
AcDbLine
 10
10611.24747343672
 20
6043.234730473165
 30
0.0
 11
9661.247473436722
 21
6043.234730473165
 31
0.0
  0
INSERT
  5
17BEE
330
17B06
100
AcDbEntity
  8
寸法
 62
     0
 48
50.0
370
    -2
100
AcDbBlockReference
  2
_DOTSMALL
 10
10611.24747343672
 20
6043.234730473165
 30
0.0
 41
100.0
 42
100.0
 43
100.0
  0
INSERT
  5
17BEF
330
17B06
100
AcDbEntity
  8
寸法
 62
     0
 48
50.0
370
    -2
100
AcDbBlockReference
  2
_DOTSMALL
 10
9661.247473436722
 20
6043.234730473165
 30
0.0
 41
100.0
 42
100.0
 43
100.0
 50
180.0
  0
MTEXT
  5
17BF0
330
17B06
100
AcDbEntity
  8
寸法
 62
     7
 48
50.0
100
AcDbMText
 10
10157.95927566761
 20
6143.234730473165
 30
0.0
 40
120.0
 41
0.0
 71
     5
 72
     1
  1
\A1;柱外寸法950
  7
STYLE1
 73
     1
 44
1.0
1001
ACAD
1000
MTEXTBEGIN
1070
    73
1070
     1
1070
    44
1040
1.0
1070
    74
1070
     0
1000
MTEXTEND
  0
POINT
  5
17BF1
330
17B06
100
AcDbEntity
  8
DEFPOINTS
 62
     0
 48
50.0
100
AcDbPoint
 10
10611.24747343672
 20
5591.387956505514
 30
0.0
  0
POINT
  5
17BF2
330
17B06
100
AcDbEntity
  8
DEFPOINTS
 62
     0
 48
50.0
100
AcDbPoint
 10
9661.247473436722
 20
5640.578895016837
 30
0.0
  0
POINT
  5
17BF3
330
17B06
100
AcDbEntity
  8
DEFPOINTS
 62
     0
 48
50.0
100
AcDbPoint
 10
9661.247473436722
 20
6043.234730473165
 30
0.0
  0
ENDBLK
  5
17B11
330
17B06
100
AcDbEntity
  8
0
 48
50.0
100
AcDbBlockEnd
  0
BLOCK
  5
17B1E
330
17B12
100
AcDbEntity
  8
0
 48
50.0
100
AcDbBlockBegin
  2
*D33
 70
     1
 10
0.0
 20
0.0
 30
0.0
  3
*D33
  1

  0
LINE
  5
17BE0
330
17B12
100
AcDbEntity
  8
寸法
 62
     0
 48
50.0
370
    -2
100
AcDbLine
 10
9661.247473436722
 20
5660.578895016837
 30
0.0
 11
9661.247473436722
 21
6103.234730473165
 31
0.0
  0
LINE
  5
17BE1
330
17B12
100
AcDbEntity
  8
寸法
 62
     0
 48
50.0
370
    -2
100
AcDbLine
 10
9601.247473436721
 20
5664.577276893866
 30
0.0
 11
9601.247473436721
 21
6103.234730473165
 31
0.0
  0
LINE
  5
17BE2
330
17B12
100
AcDbEntity
  8
寸法
 62
     0
 48
50.0
370
    -2
100
AcDbLine
 10
9661.247473436722
 20
6043.234730473165
 30
0.0
 11
9761.247473436721
 21
6043.234730473165
 31
0.0
  0
LINE
  5
17BE3
330
17B12
100
AcDbEntity
  8
寸法
 62
     0
 48
50.0
370
    -2
100
AcDbLine
 10
9601.247473436721
 20
6043.234730473165
 30
0.0
 11
9181.971882885539
 21
6043.234730473165
 31
0.0
  0
LINE
  5
17BE4
330
17B12
100
AcDbEntity
  8
寸法
 62
     0
 48
50.0
370
    -2
100
AcDbLine
 10
9661.247473436722
 20
6043.234730473165
 30
0.0
 11
9601.247473436721
 21
6043.234730473165
 31
0.0
  0
INSERT
  5
17BE5
330
17B12
100
AcDbEntity
  8
寸法
 62
     0
 48
50.0
370
    -2
100
AcDbBlockReference
  2
_DOTSMALL
 10
9661.247473436722
 20
6043.234730473165
 30
0.0
 41
100.0
 42
100.0
 43
100.0
 50
180.0
  0
INSERT
  5
17BE6
330
17B12
100
AcDbEntity
  8
寸法
 62
     0
 48
50.0
370
    -2
100
AcDbBlockReference
  2
_DOTSMALL
 10
9601.247473436721
 20
6043.234730473165
 30
0.0
 41
100.0
 42
100.0
 43
100.0
  0
MTEXT
  5
17BE7
330
17B12
100
AcDbEntity
  8
寸法
 62
     7
 48
50.0
100
AcDbMText
 10
9291.60967816113
 20
6143.234730473165
 30
0.0
 40
120.0
 41
0.0
 71
     5
 72
     1
  1
\A1;60
  7
STYLE1
 73
     1
 44
1.0
1001
ACAD
1000
MTEXTBEGIN
1070
    73
1070
     1
1070
    44
1040
1.0
1070
    74
1070
     0
1000
MTEXTEND
  0
POINT
  5
17BE8
330
17B12
100
AcDbEntity
  8
DEFPOINTS
 62
     0
 48
50.0
100
AcDbPoint
 10
9661.247473436722
 20
5640.578895016837
 30
0.0
  0
POINT
  5
17BE9
330
17B12
100
AcDbEntity
  8
DEFPOINTS
 62
     0
 48
50.0
100
AcDbPoint
 10
9601.247473436721
 20
5644.577276893866
 30
0.0
  0
POINT
  5
17BEA
330
17B12
100
AcDbEntity
  8
DEFPOINTS
 62
     0
 48
50.0
100
AcDbPoint
 10
9601.247473436721
 20
6043.234730473165
 30
0.0
  0
ENDBLK
  5
17B1F
330
17B12
100
AcDbEntity
  8
0
 48
50.0
100
AcDbBlockEnd
  0
BLOCK
  5
17B2B
330
17B20
100
AcDbEntity
  8
0
 48
50.0
100
AcDbBlockBegin
  2
*D34
 70
     1
 10
0.0
 20
0.0
 30
0.0
  3
*D34
  1

  0
LINE
  5
17BD6
330
17B20
100
AcDbEntity
  8
寸法
 62
     0
 48
50.0
370
    -2
100
AcDbLine
 10
9600.651759727824
 20
5643.874983963523
 30
0.0
 11
8984.717320622552
 21
5661.589134237852
 31
0.0
  0
LINE
  5
17BD7
330
17B20
100
AcDbEntity
  8
寸法
 62
     0
 48
50.0
370
    -2
100
AcDbLine
 10
9596.598304171198
 20
5502.93326019781
 30
0.0
 11
8980.663865065926
 21
5520.647410472139
 31
0.0
  0
LINE
  5
17BD8
330
17B20
100
AcDbEntity
  8
寸法
 62
     0
 48
50.0
370
    -2
100
AcDbLine
 10
9040.639066668356
 20
5518.922535767192
 30
0.0
 11
9044.692522224982
 21
5659.864259532905
 31
0.0
  0
LINE
  5
17BD9
330
17B20
100
AcDbEntity
  8
寸法
 62
     0
 48
50.0
370
    -2
100
AcDbLine
 10
9044.692522224982
 20
5659.864259532905
 30
0.0
 11
9055.041770454668
 21
6019.715469147491
 31
0.0
  0
INSERT
  5
17BDA
330
17B20
100
AcDbEntity
  8
寸法
 62
     0
 48
50.0
370
    -2
100
AcDbBlockReference
  2
_DOTSMALL
 10
9040.639066668356
 20
5518.922535767192
 30
0.0
 41
100.0
 42
100.0
 43
100.0
 50
268.3526390256378
  0
INSERT
  5
17BDB
330
17B20
100
AcDbEntity
  8
寸法
 62
     0
 48
50.0
370
    -2
100
AcDbBlockReference
  2
_DOTSMALL
 10
9044.692522224982
 20
5659.864259532905
 30
0.0
 41
100.0
 42
100.0
 43
100.0
 50
88.35263902563776
  0
MTEXT
  5
17BDC
330
17B20
100
AcDbEntity
  8
寸法
 62
     7
 48
50.0
100
AcDbMText
 10
8951.345872589897
 20
5892.643990183803
 30
0.0
 40
120.0
 41
0.0
 71
     5
 72
     1
  1
\A1;141
  7
STYLE1
 11
0.0287479117491237
 21
0.9995866933738488
 31
0.0
 73
     1
 44
1.0
1001
ACAD
1000
MTEXTBEGIN
1070
    73
1070
     1
1070
    44
1040
1.0
1070
    74
1070
     0
1000
MTEXTEND
  0
POINT
  5
17BDD
330
17B20
100
AcDbEntity
  8
DEFPOINTS
 62
     0
 48
50.0
100
AcDbPoint
 10
9620.6434935953
 20
5643.300025728541
 30
0.0
  0
POINT
  5
17BDE
330
17B20
100
AcDbEntity
  8
DEFPOINTS
 62
     0
 48
50.0
100
AcDbPoint
 10
9616.590038038674
 20
5502.358301962827
 30
0.0
  0
POINT
  5
17BDF
330
17B20
100
AcDbEntity
  8
DEFPOINTS
 62
     0
 48
50.0
100
AcDbPoint
 10
9040.639066668356
 20
5518.922535767192
 30
0.0
  0
ENDBLK
  5
17B2C
330
17B20
100
AcDbEntity
  8
0
 48
50.0
100
AcDbBlockEnd
  0
BLOCK
  5
17B37
330
17B2D
100
AcDbEntity
  8
0
 48
50.0
100
AcDbBlockBegin
  2
*D35
 70
     1
 10
0.0
 20
0.0
 30
0.0
  3
*D35
  1

  0
LINE
  5
17BCD
330
17B2D
100
AcDbEntity
  8
寸法
 62
     0
 48
50.0
370
    -2
100
AcDbLine
 10
9641.24747343672
 20
3569.57727689386
 30
0.0
 11
8739.65359528143
 21
3569.577276893861
 31
0.0
  0
LINE
  5
17BCE
330
17B2D
100
AcDbEntity
  8
寸法
 62
     0
 48
50.0
370
    -2
100
AcDbLine
 10
9581.247473436723
 20
5644.577276893866
 30
0.0
 11
8739.653595281431
 21
5644.577276893866
 31
0.0
  0
LINE
  5
17BCF
330
17B2D
100
AcDbEntity
  8
寸法
 62
     0
 48
50.0
370
    -2
100
AcDbLine
 10
8799.65359528143
 20
3569.577276893861
 30
0.0
 11
8799.653595281432
 21
5644.577276893866
 31
0.0
  0
INSERT
  5
17BD0
330
17B2D
100
AcDbEntity
  8
寸法
 62
     0
 48
50.0
370
    -2
100
AcDbBlockReference
  2
_DOTSMALL
 10
8799.65359528143
 20
3569.577276893861
 30
0.0
 41
100.0
 42
100.0
 43
100.0
 50
270.0
  0
INSERT
  5
17BD1
330
17B2D
100
AcDbEntity
  8
寸法
 62
     0
 48
50.0
370
    -2
100
AcDbBlockReference
  2
_DOTSMALL
 10
8799.653595281432
 20
5644.577276893866
 30
0.0
 41
100.0
 42
100.0
 43
100.0
 50
90.0
  0
MTEXT
  5
17BD2
330
17B2D
100
AcDbEntity
  8
寸法
 62
     7
 48
50.0
100
AcDbMText
 10
8699.641784257808
 20
4597.155906173022
 30
0.0
 40
120.0
 41
0.0
 71
     5
 72
     1
  1
\A1;2075
  7
STYLE1
 11
0.0000000000000001
 21
1.0
 31
0.0
 73
     1
 44
1.0
1001
ACAD
1000
MTEXTBEGIN
1070
    73
1070
     1
1070
    44
1040
1.0
1070
    74
1070
     0
1000
MTEXTEND
  0
POINT
  5
17BD3
330
17B2D
100
AcDbEntity
  8
DEFPOINTS
 62
     0
 48
50.0
100
AcDbPoint
 10
9661.247473436722
 20
3569.57727689386
 30
0.0
  0
POINT
  5
17BD4
330
17B2D
100
AcDbEntity
  8
DEFPOINTS
 62
     0
 48
50.0
100
AcDbPoint
 10
9601.247473436725
 20
5644.577276893866
 30
0.0
  0
POINT
  5
17BD5
330
17B2D
100
AcDbEntity
  8
DEFPOINTS
 62
     0
 48
50.0
100
AcDbPoint
 10
8799.653595281432
 20
5644.577276893866
 30
0.0
  0
ENDBLK
  5
17B38
330
17B2D
100
AcDbEntity
  8
0
 48
50.0
100
AcDbBlockEnd
  0
BLOCK
  5
17C47
330
17C45
100
AcDbEntity
  8
0
 48
50.0
100
AcDbBlockBegin
  2
A$C234373F2
 70
     0
 10
0.0
 20
0.0
 30
0.0
  3
A$C234373F2
  1

  0
TEXT
  5
17C46
330
17C45
100
AcDbEntity
  8
文字
 62
     7
 48
50.0
100
AcDbText
 10
-1705.259705948188
 20
-361.7472729270812
 30
0.0
 40
100.0
  1
～一般型・多雪地型～
  7
STYLE2
100
AcDbText
  0
ENDBLK
  5
17C48
330
17C45
100
AcDbEntity
  8
0
 48
50.0
100
AcDbBlockEnd
  0
ENDSEC
  0
SECTION
  2
ENTITIES
  0
LINE
  5
10B56
330
747D
100
AcDbEntity
  8
補助
  6
PHANTOM
 62
   230
 48
50.0
100
AcDbLine
 10
140.0
 20
0.0
 30
0.0
 11
139.9999999999995
 21
11409.6
 31
0.0
  0
LINE
  5
10B57
330
747D
100
AcDbEntity
  8
補助
  6
PHANTOM
 62
   230
 48
50.0
100
AcDbLine
 10
139.9999999999995
 20
11409.6
 30
0.0
 11
16307.2
 21
11409.6
 31
0.0
  0
LINE
  5
10B59
330
747D
100
AcDbEntity
  8
仕様書枠
  6
Continuous
 48
50.0
100
AcDbLine
 10
13107.2
 20
1200.0
 30
0.0
 11
13107.2
 21
-0.0000000000000729
 31
0.0
  0
LINE
  5
10B5C
330
747D
100
AcDbEntity
  8
仕様書枠
 48
50.0
100
AcDbLine
 10
16307.2
 20
1200.0
 30
0.0
 11
16307.2
 21
-0.0000000000000909
 31
0.0
  0
LINE
  5
10B5D
330
747D
100
AcDbEntity
  8
仕様書枠
 48
50.0
100
AcDbLine
 10
140.0
 20
0.0
 30
0.0
 11
16307.2
 21
-0.0000000000000909
 31
0.0
  0
LINE
  5
10B5E
330
747D
100
AcDbEntity
  8
補助
  6
PHANTOM
 62
   230
 48
50.0
100
AcDbLine
 10
16307.2
 20
11409.6
 30
0.0
 11
16307.2
 21
1200.0
 31
0.0
  0
LINE
  5
10B6C
330
747D
100
AcDbEntity
  8
仕様書枠
 48
50.0
100
AcDbLine
 10
13107.2
 20
1200.0
 30
0.0
 11
16307.2
 21
1200.0
 31
0.0
  0
LINE
  5
10B6D
330
747D
100
AcDbEntity
  8
補助
  6
PHANTOM
 62
   230
 48
50.0
100
AcDbLine
 10
13107.2
 20
11409.6
 30
0.0
 11
13107.2
 21
4800.0
 31
0.0
  0
LINE
  5
10B6F
330
747D
100
AcDbEntity
  8
補助
  6
PHANTOM
 62
   230
 48
50.0
100
AcDbLine
 10
13107.2
 20
4800.0
 30
0.0
 11
16307.2
 21
4800.0
 31
0.0
  0
LINE
  5
10B72
330
747D
100
AcDbEntity
  8
文字
 62
     7
 48
50.0
100
AcDbLine
 10
13187.2
 20
400.0
 30
0.0
 11
16227.2
 21
400.0
 31
0.0
  0
TEXT
  5
10B73
330
747D
100
AcDbEntity
  8
文字
 62
     7
 48
50.0
100
AcDbText
 10
13162.9790565769
 20
895.0906074299405
 30
0.0
 40
200.0
  1
外 形 図
  7
STYLE2
100
AcDbText
  0
TEXT
  5
10B74
330
747D
100
AcDbEntity
  8
文字
 62
     7
 48
50.0
100
AcDbText
 10
13201.43669998441
 20
477.2740661031255
 30
0.0
 40
160.0
  1
機種名
  7
STYLE2
100
AcDbText
  0
TEXT
  5
10B75
330
747D
100
AcDbEntity
  8
文字
 62
     7
 48
50.0
100
AcDbText
 10
13209.4053442172
 20
228.5435242569016
 30
0.0
 40
100.0
  1
○有効開口寸法 ： 685×1760(mm)
  7
STYLE2
100
AcDbText
  0
TEXT
  5
10B76
330
747D
100
AcDbEntity
  8
文字
 62
     7
 48
50.0
100
AcDbText
 10
13209.4053442172
 20
76.09434707649343
 30
0.0
 40
100.0
  1
○床面積 ： 2.34㎡(0.71坪) 　
  7
STYLE2
100
AcDbText
  0
TEXT
  5
10B79
330
747D
100
AcDbEntity
  8
文字
 62
     7
 48
50.0
100
AcDbText
 10
14524.131837222
 20
1031.557706291228
 30
0.0
 40
100.0
  1
NO.02     <縮尺> S=1/40
  7
STYLE2
100
AcDbText
  0
LINE
  5
10B7B
330
747D
100
AcDbEntity
  8
仕様書枠
 48
50.0
100
AcDbLine
 10
13107.2
 20
800.0
 30
0.0
 11
14251.2
 21
800.0
 31
0.0
  0
LINE
  5
10B88
330
747D
100
AcDbEntity
  8
仕様書枠
  6
Continuous
 48
50.0
100
AcDbLine
 10
14251.2
 20
1200.0
 30
0.0
 11
14251.2
 21
800.0
 31
0.0
  0
TEXT
  5
10EA8
330
747D
100
AcDbEntity
  8
文字
 62
     7
 48
50.0
100
AcDbText
 10
14251.2
 20
838.2527270729188
 30
0.0
 40
100.0
  1
～一般型・多雪地型・豪雪地型～
  7
STYLE2
100
AcDbText
  0
LINE
  5
13A41
330
747D
100
AcDbEntity
  8
Ｇ．Ｌ
100
AcDbLine
 10
3903.003154314116
 20
3469.57727689386
 30
0.0
 11
11483.32853394827
 21
3469.577276893861
 31
0.0
  0
TEXT
  5
13A63
330
747D
100
AcDbEntity
  8
部品1
100
AcDbText
 10
3922.481243684939
 20
3505.684180499763
 30
0.0
 40
125.0
  1
▽G.L
  7
STYLE2
100
AcDbText
  0
TEXT
  5
14E82
330
747D
100
AcDbEntity
  8
部品1
100
AcDbText
 10
5759.758227934426
 20
6830.294238961444
 30
0.0
 40
135.0
  1
平面図
  7
STYLE2
100
AcDbText
  0
LWPOLYLINE
  5
14E83
330
747D
100
AcDbEntity
  8
部品1
100
AcDbPolyline
 90
        4
 70
     1
 43
0.0
 10
5669.838618105388
 20
7023.18776817997
 10
5669.838618105388
 20
6783.295446634435
 10
6433.309284333829
 20
6783.295446634435
 10
6433.309284333829
 20
7023.18776817997
  0
LINE
  5
1566C
330
747D
100
AcDbEntity
  8
部品1
100
AcDbLine
 10
4842.375560876364
 20
9282.766456979695
 30
0.0
 11
5631.756263894986
 21
9282.766456979716
 31
0.0
  0
LINE
  5
1566D
330
747D
100
AcDbEntity
  8
細線
 48
50.0
100
AcDbLine
 10
5604.875567553992
 20
8831.266456979802
 30
0.0
 11
4843.875567553992
 21
9281.266456979754
 31
0.0
  0
LINE
  5
1566E
330
747D
100
AcDbEntity
  8
部品1
100
AcDbLine
 10
4843.875567553994
 20
8831.266456979752
 30
0.0
 11
5604.875567553992
 21
8831.266456979802
 31
0.0
  0
LINE
  5
1566F
330
747D
100
AcDbEntity
  8
細線
 48
50.0
100
AcDbLine
 10
5604.875567553993
 20
9281.266456979803
 30
0.0
 11
4843.875567553994
 21
8831.266456979752
 31
0.0
  0
LINE
  5
15670
330
747D
100
AcDbEntity
  8
部品1
100
AcDbLine
 10
4843.875567553992
 20
9281.266456979754
 30
0.0
 11
5604.875567553993
 21
9281.266456979803
 31
0.0
  0
LINE
  5
15671
330
747D
100
AcDbEntity
  8
部品1
100
AcDbLine
 10
5685.375560876357
 20
8360.76645697968
 30
0.0
 11
4814.375560876356
 21
8360.766456979652
 31
0.0
  0
LINE
  5
15672
330
747D
100
AcDbEntity
  8
部品1
 48
5.0
100
AcDbLine
 10
4857.375560876357
 20
8390.266456979615
 30
0.0
 11
5610.375560876359
 21
8390.266456979672
 31
0.0
  0
DIMENSION
  5
15673
330
747D
100
AcDbEntity
  8
寸法
 48
50.0
100
AcDbDimension
  2
*D1
 10
7194.375560876356
 20
7920.942789184611
 30
0.0
 11
6851.875560876358
 21
7920.942789184611
 31
0.0
 70
   160
  1
有効開口部間口\P<>
 71
     5
 42
684.9999999999954
  3
INABA_S40G
100
AcDbAlignedDimension
 13
6509.37556087636
 23
8360.766456979687
 33
0.0
 14
7194.375560876356
 24
8360.766456979652
 34
0.0
100
AcDbRotatedDimension
  0
LINE
  5
15674
330
747D
100
AcDbEntity
  8
部品1
100
AcDbLine
 10
5589.375560876356
 20
8386.766456979746
 30
0.0
 11
4859.375560876356
 21
8386.766456979716
 31
0.0
  0
LINE
  5
15675
330
747D
100
AcDbEntity
  8
破線
 48
10.0
100
AcDbLine
 10
5555.37556087635
 20
8515.76645697972
 30
0.0
 11
4894.375560876349
 21
8515.766456979703
 31
0.0
  0
LINE
  5
15676
330
747D
100
AcDbEntity
  8
部品1
100
AcDbLine
 10
5578.876131324522
 20
8492.265876159775
 30
0.0
 11
4870.876532302752
 21
8492.265374671253
 31
0.0
  0
ARC
  5
15678
330
747D
100
AcDbEntity
  8
想像線
 48
10.0
100
AcDbCircle
 10
5582.023510199197
 20
8362.461350355301
 30
0.0
 40
722.6499369155582
100
AcDbArc
 50
180.1343808685482
 51
270.5829222700354
  0
LINE
  5
15679
330
747D
100
AcDbEntity
  8
部品1
100
AcDbLine
 10
4814.375560876364
 20
9310.766456979694
 30
0.0
 11
7274.375560876364
 21
9310.76645697979
 31
0.0
  0
LINE
  5
1567A
330
747D
100
AcDbEntity
  8
部品1
100
AcDbLine
 10
7274.37556087634
 20
8360.766456979774
 30
0.0
 11
4814.375560876356
 21
8360.76645697968
 31
0.0
  0
DIMENSION
  5
1567B
330
747D
100
AcDbEntity
  8
寸法
100
AcDbDimension
  2
*D2
 10
7274.37556087634
 20
7373.664582119542
 30
0.0
 11
6044.375560876347
 21
7373.664582119542
 31
0.0
 70
   160
 71
     5
 42
2459.999999999982
  3
INABA_S40G
100
AcDbAlignedDimension
 13
4814.375560876356
 23
8360.766456979614
 33
0.0
 14
7274.37556087634
 24
8360.766456979744
 34
0.0
100
AcDbRotatedDimension
1001
ACAD
1000
DSTYLE
1002
{
1002
}
  0
DIMENSION
  5
1567C
330
747D
100
AcDbEntity
  8
寸法
100
AcDbDimension
  2
*D3
 10
5579.375560876362
 20
9526.574676604793
 30
0.0
 11
5224.625560876362
 21
9526.574676604793
 31
0.0
 70
   160
 71
     5
 42
709.9999999999981
  3
INABA_S40G
100
AcDbAlignedDimension
 13
4869.375560876363
 23
9310.766456979724
 33
0.0
 14
5579.375560876362
 24
9310.766456979811
 34
0.0
100
AcDbRotatedDimension
1001
ACAD
1000
DSTYLE
1002
{
1002
}
  0
DIMENSION
  5
1567D
330
747D
100
AcDbEntity
  8
寸法
100
AcDbDimension
  2
*D4
 10
4869.375560876363
 20
9526.574676604676
 30
0.0
 11
4505.890279502089
 21
9526.574676604676
 31
0.0
 70
   160
 71
     5
 42
55.00000000003637
  3
INABA_S40G
100
AcDbAlignedDimension
 13
4814.375560876328
 23
9310.766456979694
 33
0.0
 14
4869.375560876363
 24
9310.766456979694
 34
0.0
100
AcDbRotatedDimension
1001
ACAD
1000
DSTYLE
1002
{
1002
}
  0
LINE
  5
1567E
330
747D
100
AcDbEntity
  8
部品1
100
AcDbLine
 10
4842.375560876338
 20
8415.766456979644
 30
0.0
 11
4842.375560876364
 21
9282.766456979695
 31
0.0
  0
LINE
  5
1567F
330
747D
100
AcDbEntity
  8
部品1
100
AcDbLine
 10
4814.375560876328
 20
9310.766456979658
 30
0.0
 11
4814.375560876356
 21
8360.766456979652
 31
0.0
  0
LINE
  5
15680
330
747D
100
AcDbEntity
  8
破線
 48
10.0
100
AcDbLine
 10
4894.375625801065
 20
8831.266456979703
 30
0.0
 11
4894.375560876349
 21
8515.766456979703
 31
0.0
  0
LINE
  5
15681
330
747D
100
AcDbEntity
  8
部品1
 48
5.0
100
AcDbLine
 10
4870.876532301321
 20
8492.266456979789
 30
0.0
 11
4870.87603937001
 21
8831.266456979703
 31
0.0
  0
LINE
  5
15682
330
747D
100
AcDbEntity
  8
部品1
 48
2.83
100
AcDbLine
 10
4857.375560876357
 20
8390.266456979615
 30
0.0
 11
4857.375560876357
 21
8360.766456979614
 31
0.0
  0
LINE
  5
15685
330
747D
100
AcDbEntity
  8
部品1
100
AcDbLine
 10
4859.375560876356
 20
8386.766456979716
 30
0.0
 11
4859.375560876356
 21
8360.76645697968
 31
0.0
  0
LINE
  5
15686
330
747D
100
AcDbEntity
  8
部品1
 48
2.83
100
AcDbLine
 10
4857.375560876357
 20
8360.766456979614
 30
0.0
 11
4814.375560876356
 21
8360.766456979614
 31
0.0
  0
LINE
  5
15687
330
747D
100
AcDbEntity
  8
部品1
 48
2.83
100
AcDbLine
 10
4869.375560876356
 20
8415.766456979614
 30
0.0
 11
4869.37556087636
 21
8390.266456979615
 31
0.0
  0
LINE
  5
15688
330
747D
100
AcDbEntity
  8
部品1
100
AcDbLine
 10
4842.375560876355
 20
8415.766456979659
 30
0.0
 11
4814.375560876355
 21
8415.766456979659
 31
0.0
  0
LINE
  5
15689
330
747D
100
AcDbEntity
  8
部品1
100
AcDbLine
 10
4842.375560876338
 20
8415.766456979644
 30
0.0
 11
4814.375560876355
 21
8415.766456979644
 31
0.0
  0
LINE
  5
1568A
330
747D
100
AcDbEntity
  8
部品1
100
AcDbLine
 10
4842.375560876338
 20
8415.766456979614
 30
0.0
 11
4814.375560876355
 21
8415.766456979614
 31
0.0
  0
LINE
  5
1568B
330
747D
100
AcDbEntity
  8
部品1
 48
2.83
100
AcDbLine
 10
4814.375560876356
 20
8415.766456979614
 30
0.0
 11
4837.375560876356
 21
8415.766456979614
 31
0.0
  0
LINE
  5
1568C
330
747D
100
AcDbEntity
  8
部品1
 48
2.83
100
AcDbLine
 10
4846.375560876357
 20
8415.766456979614
 30
0.0
 11
4869.375560876356
 21
8415.766456979614
 31
0.0
  0
LINE
  5
1568D
330
747D
100
AcDbEntity
  8
部品1
 48
50.0
100
AcDbLine
 10
4870.876532302752
 20
8492.265374671253
 30
0.0
 11
4842.375560876338
 21
8463.246203738789
 31
0.0
  0
LINE
  5
1568E
330
747D
100
AcDbEntity
  8
部品1
 48
50.0
100
AcDbLine
 10
4843.875567553992
 20
9281.266456979754
 30
0.0
 11
4843.875567553994
 21
8831.266456979752
 31
0.0
  0
LINE
  5
1568F
330
747D
100
AcDbEntity
  8
部品1
100
AcDbLine
 10
4842.375560876338
 20
8835.766456979659
 30
0.0
 11
4814.375560876339
 21
8835.766456979659
 31
0.0
  0
LINE
  5
15690
330
747D
100
AcDbEntity
  8
部品1
100
AcDbLine
 10
4869.375560876363
 20
9310.766456979694
 30
0.0
 11
4869.375560876363
 21
9282.766456979695
 31
0.0
  0
LINE
  5
15691
330
747D
100
AcDbEntity
  8
部品1
100
AcDbLine
 10
4869.375560876328
 20
9310.766456979658
 30
0.0
 11
4869.375560876331
 21
9282.766456979658
 31
0.0
  0
LINE
  5
15692
330
747D
100
AcDbEntity
  8
部品1
100
AcDbLine
 10
4842.375560876331
 20
9255.766456979666
 30
0.0
 11
4814.375560876332
 21
9255.766456979666
 31
0.0
  0
LINE
  5
15693
330
747D
100
AcDbEntity
  8
部品1
 48
50.0
100
AcDbLine
 10
4843.875567553987
 20
9281.266456979702
 30
0.0
 11
4842.375560876364
 21
9282.766456979695
 31
0.0
  0
DIMENSION
  5
15694
330
747D
100
AcDbEntity
  8
寸法
100
AcDbDimension
  2
*D5
 10
6399.375560876362
 20
9526.574676604793
 30
0.0
 11
6044.625560876362
 21
9526.574676604793
 31
0.0
 70
   160
 71
     5
 42
709.999999999999
  3
INABA_S40G
100
AcDbAlignedDimension
 13
5689.375560876364
 23
9310.766456979724
 33
0.0
 14
6399.375560876362
 24
9310.766456979811
 34
0.0
100
AcDbRotatedDimension
1001
ACAD
1000
DSTYLE
1002
{
1002
}
  0
DIMENSION
  5
15695
330
747D
100
AcDbEntity
  8
寸法
100
AcDbDimension
  2
*D6
 10
7274.375560876364
 20
9526.574676604772
 30
0.0
 11
7582.860842250602
 21
9526.574676604772
 31
0.0
 70
   160
 71
     5
 42
55.0
  3
INABA_S40G
100
AcDbAlignedDimension
 13
7219.375560876364
 23
9310.76645697979
 33
0.0
 14
7274.375560876364
 24
9310.76645697979
 34
0.0
100
AcDbRotatedDimension
1001
ACAD
1000
DSTYLE
1002
{
1002
}
  0
DIMENSION
  5
15696
330
747D
100
AcDbEntity
  8
寸法
100
AcDbDimension
  2
*D7
 10
7921.801906610774
 20
9255.76645697979
 30
0.0
 11
7921.801906610774
 21
9619.25173835403
 31
0.0
 70
   160
 71
     5
 42
55.0
  3
INABA_S40G
100
AcDbAlignedDimension
 13
7274.375560876364
 23
9310.76645697979
 33
0.0
 14
7274.375560876364
 24
9255.76645697979
 34
0.0
 50
90.0
100
AcDbRotatedDimension
1001
ACAD
1000
DSTYLE
1002
{
1002
}
  0
DIMENSION
  5
15697
330
747D
100
AcDbEntity
  8
寸法
 48
50.0
100
AcDbDimension
  2
*D8
 10
6509.375560876366
 20
9526.574676604793
 30
0.0
 11
6454.375560876364
 21
9626.574676604793
 31
0.0
 70
    32
 71
     5
 42
110.0000000000036
  3
INABA_S40G
100
AcDbAlignedDimension
 13
6399.375560876362
 23
9310.766456979811
 33
0.0
 14
6509.375560876366
 24
9310.76645697979
 34
0.0
100
AcDbRotatedDimension
  0
DIMENSION
  5
15698
330
747D
100
AcDbEntity
  8
寸法
 48
50.0
100
AcDbDimension
  2
*D9
 10
6509.375560876366
 20
9526.574676604793
 30
0.0
 11
6864.375560876365
 21
9626.574676604793
 31
0.0
 70
    32
 71
     5
 42
709.9999999999981
  3
INABA_S40G
100
AcDbAlignedDimension
 13
7219.375560876364
 23
9310.766456979804
 33
0.0
 14
6509.375560876366
 24
9310.76645697979
 34
0.0
100
AcDbRotatedDimension
  0
DIMENSION
  5
15699
330
747D
100
AcDbEntity
  8
寸法
 48
50.0
100
AcDbDimension
  2
*D10
 10
5689.375560876366
 20
9526.574676604793
 30
0.0
 11
5634.375560876364
 21
9626.574676604793
 31
0.0
 70
    32
 71
     5
 42
110.0000000000036
  3
INABA_S40G
100
AcDbAlignedDimension
 13
5579.375560876362
 23
9310.766456979811
 33
0.0
 14
5689.375560876366
 24
9310.76645697979
 34
0.0
100
AcDbRotatedDimension
  0
DIMENSION
  5
1569A
330
747D
100
AcDbEntity
  8
寸法
100
AcDbDimension
  2
*D11
 10
7921.801906610749
 20
8360.766456979774
 30
0.0
 11
7921.801906610749
 21
7982.904990074915
 31
0.0
 70
   160
 71
     5
 42
55.0
  3
INABA_S40G
100
AcDbAlignedDimension
 13
7274.37556087634
 23
8415.766456979774
 33
0.0
 14
7274.37556087634
 24
8360.766456979774
 34
0.0
 50
90.0
100
AcDbRotatedDimension
1001
ACAD
1000
DSTYLE
1002
{
1002
}
  0
DIMENSION
  5
1569B
330
747D
100
AcDbEntity
  8
寸法
100
AcDbDimension
  2
*D12
 10
7921.801906610774
 20
8415.766456979774
 30
0.0
 11
7921.801906610774
 21
8835.766456979783
 31
0.0
 70
   160
  1
2X420=<>
 71
     5
 42
840.0000000000146
  3
INABA_S40G
100
AcDbAlignedDimension
 13
7274.375560876364
 23
9255.76645697979
 33
0.0
 14
7274.37556087634
 24
8415.766456979774
 34
0.0
 50
90.0
100
AcDbRotatedDimension
1001
ACAD
1000
DSTYLE
1002
{
1002
}
  0
DIMENSION
  5
1569C
330
747D
100
AcDbEntity
  8
寸法
100
AcDbDimension
  2
*D13
 10
8230.913437426453
 20
8360.766456979774
 30
0.0
 11
8230.913437426449
 21
8834.744175538693
 31
0.0
 70
   160
 71
     5
 42
950.0000000000145
  3
INABA_S40G
100
AcDbAlignedDimension
 13
7274.375560876364
 23
9310.76645697979
 33
0.0
 14
7274.37556087634
 24
8360.766456979774
 34
0.0
 50
90.0
100
AcDbRotatedDimension
1001
ACAD
1000
DSTYLE
1002
{
1002
}
  0
LINE
  5
1569E
330
747D
100
AcDbEntity
  8
想像線
 48
10.0
100
AcDbLine
 10
6409.375560876355
 20
8360.76645697973
 30
0.0
 11
6409.375560876355
 21
7639.848813323941
 31
0.0
  0
LINE
  5
1569F
330
747D
100
AcDbEntity
  8
想像線
 48
10.0
100
AcDbLine
 10
7229.375560876356
 20
8360.766456979742
 30
0.0
 11
7229.375560876356
 21
7639.848813323948
 31
0.0
  0
ARC
  5
156A0
330
747D
100
AcDbEntity
  8
想像線
 48
10.0
100
AcDbCircle
 10
7222.023510199199
 20
8362.461350355317
 30
0.0
 40
722.6499369155629
100
AcDbArc
 50
180.1343808685487
 51
270.5829222700353
  0
LINE
  5
156A1
330
747D
100
AcDbEntity
  8
想像線
 48
10.0
100
AcDbLine
 10
5589.375560876356
 20
8360.76645697973
 30
0.0
 11
5589.375560876356
 21
7639.848813323941
 31
0.0
  0
ARC
  5
156A3
330
747D
100
AcDbEntity
  8
想像線
 48
10.0
100
AcDbCircle
 10
6402.023510199197
 20
8362.461350355303
 30
0.0
 40
722.6499369155592
100
AcDbArc
 50
180.1343808685487
 51
270.5829222700353
  0
LINE
  5
156A6
330
747D
100
AcDbEntity
  8
部品1
 48
5.0
100
AcDbLine
 10
6422.375560876358
 20
8415.76645697973
 30
0.0
 11
6399.375560876357
 21
8415.76645697973
 31
0.0
  0
ARC
  5
156A7
330
747D
100
AcDbEntity
  8
細線
 48
0.2
100
AcDbCircle
 10
6401.438008705035
 20
8361.764086934952
 30
0.0
 40
4.049999999999999
100
AcDbArc
 50
194.2603506853988
 51
345.7396493146012
  0
LINE
  5
156A8
330
747D
100
AcDbEntity
  8
部品1
 48
0.2
100
AcDbLine
 10
6396.438008705035
 20
8353.764086934953
 30
0.0
 11
6401.438008705035
 21
8353.764086934953
 31
0.0
  0
LINE
  5
156A9
330
747D
100
AcDbEntity
  8
部品1
 48
50.0
100
AcDbLine
 10
6426.375560876343
 20
8464.26645697973
 30
0.0
 11
6398.875560876341
 21
8492.266456979738
 31
0.0
  0
LINE
  5
156AB
330
747D
100
AcDbEntity
  8
部品1
100
AcDbLine
 10
5663.875567553993
 20
9281.266456979754
 30
0.0
 11
6424.875567553994
 21
9281.266456979803
 31
0.0
  0
LINE
  5
156AC
330
747D
100
AcDbEntity
  8
部品1
100
AcDbLine
 10
5663.875567553994
 20
8831.266456979752
 30
0.0
 11
6424.875567553993
 21
8831.266456979802
 31
0.0
  0
LINE
  5
156AD
330
747D
100
AcDbEntity
  8
細線
 48
50.0
100
AcDbLine
 10
6424.875567553993
 20
8831.266456979802
 30
0.0
 11
5663.875567553993
 21
9281.266456979754
 31
0.0
  0
LINE
  5
156AE
330
747D
100
AcDbEntity
  8
細線
 48
50.0
100
AcDbLine
 10
6424.875567553994
 20
9281.266456979803
 30
0.0
 11
5663.875567553994
 21
8831.266456979752
 31
0.0
  0
LINE
  5
156AF
330
747D
100
AcDbEntity
  8
部品1
100
AcDbLine
 10
6409.375560876355
 20
8386.766456979783
 30
0.0
 11
5679.375560876357
 21
8386.766456979753
 31
0.0
  0
LINE
  5
156B0
330
747D
100
AcDbEntity
  8
部品1
100
AcDbLine
 10
5662.375560876311
 20
9282.766456979716
 30
0.0
 11
6451.756263894965
 21
9282.766456979738
 31
0.0
  0
LINE
  5
156B1
330
747D
100
AcDbEntity
  8
部品1
 48
5.0
100
AcDbLine
 10
5658.375560876359
 20
8390.266456979672
 30
0.0
 11
6430.375560876358
 21
8390.26645697973
 31
0.0
  0
LINE
  5
156B2
330
747D
100
AcDbEntity
  8
点線
 48
10.0
100
AcDbLine
 10
6375.37556087635
 20
8515.766456979738
 30
0.0
 11
6375.375552521798
 21
8831.266456979795
 31
0.0
  0
LINE
  5
156B3
330
747D
100
AcDbEntity
  8
部品1
 48
50.0
100
AcDbLine
 10
6398.875560876341
 20
8492.266456979738
 30
0.0
 11
6398.875560876318
 21
8831.266456979795
 31
0.0
  0
LINE
  5
156B4
330
747D
100
AcDbEntity
  8
点線
 48
10.0
100
AcDbLine
 10
5713.375560876349
 20
8515.766456979745
 30
0.0
 11
5713.375548445239
 21
8831.266456979742
 31
0.0
  0
LINE
  5
156B5
330
747D
100
AcDbEntity
  8
点線
 48
10.0
100
AcDbLine
 10
5555.37556087635
 20
8515.766456979738
 30
0.0
 11
5555.375552521798
 21
8831.266456979795
 31
0.0
  0
LINE
  5
156B6
330
747D
100
AcDbEntity
  8
部品1
 48
50.0
100
AcDbLine
 10
5662.375560876343
 20
8415.76645697973
 30
0.0
 11
5662.375560876288
 21
9310.766456979738
 31
0.0
  0
LINE
  5
156B7
330
747D
100
AcDbEntity
  8
部品1
 48
50.0
100
AcDbLine
 10
5606.375560876343
 20
8415.76645697973
 30
0.0
 11
5606.37556087629
 21
9282.766456979738
 31
0.0
  0
LINE
  5
156B8
330
747D
100
AcDbEntity
  8
部品1
 48
50.0
100
AcDbLine
 10
5578.875560876341
 20
8492.266456979738
 30
0.0
 11
5578.875560876317
 21
8831.266456979795
 31
0.0
  0
LINE
  5
156B9
330
747D
100
AcDbEntity
  8
部品1
 48
50.0
100
AcDbLine
 10
5689.875554532055
 20
8492.266457004401
 30
0.0
 11
5689.875557504919
 21
8831.266456979742
 31
0.0
  0
LINE
  5
156BA
330
747D
100
AcDbEntity
  8
部品1
 48
50.0
100
AcDbLine
 10
5634.375560876343
 20
8415.76645697973
 30
0.0
 11
5634.375560876343
 21
9255.766456979738
 31
0.0
  0
LINE
  5
156BB
330
747D
100
AcDbEntity
  8
破線
 48
10.0
100
AcDbLine
 10
6375.37556087635
 20
8515.766456979738
 30
0.0
 11
5713.375560876349
 21
8515.766456979724
 31
0.0
  0
LINE
  5
156BC
330
747D
100
AcDbEntity
  8
部品1
100
AcDbLine
 10
6398.875560876341
 20
8492.266456979738
 30
0.0
 11
5689.875067622459
 21
8492.265954782267
 31
0.0
  0
LINE
  5
156BD
330
747D
100
AcDbEntity
  8
部品1
100
AcDbLine
 10
5677.375560876358
 20
8390.266456979684
 30
0.0
 11
5677.375560876359
 21
8360.76645697973
 31
0.0
  0
LINE
  5
156BE
330
747D
100
AcDbEntity
  8
部品1
 48
5.0
100
AcDbLine
 10
5677.375560876359
 20
8390.26645697973
 30
0.0
 11
5677.375560876359
 21
8360.76645697973
 31
0.0
  0
LINE
  5
156BF
330
747D
100
AcDbEntity
  8
部品1
100
AcDbLine
 10
5591.375560876356
 20
8390.266456979677
 30
0.0
 11
5591.375560876354
 21
8360.766456979723
 31
0.0
  0
LINE
  5
156C0
330
747D
100
AcDbEntity
  8
部品1
 48
5.0
100
AcDbLine
 10
5591.375560876358
 20
8390.26645697973
 30
0.0
 11
5591.375560876358
 21
8360.76645697973
 31
0.0
  0
LINE
  5
156C1
330
747D
100
AcDbEntity
  8
部品1
100
AcDbLine
 10
5679.375560876357
 20
8386.766456979753
 30
0.0
 11
5679.375560876357
 21
8360.766456979716
 31
0.0
  0
LINE
  5
156C2
330
747D
100
AcDbEntity
  8
部品1
100
AcDbLine
 10
5589.375560876356
 20
8386.766456979783
 30
0.0
 11
5589.375560876356
 21
8360.766456979728
 31
0.0
  0
ARC
  5
156C3
330
747D
100
AcDbEntity
  8
部品1
 48
0.2
100
AcDbCircle
 10
5581.438008705035
 20
8361.764086934952
 30
0.0
 40
8.0
100
AcDbArc
 50
270.0
 51
352.8363522778074
  0
ARC
  5
156C4
330
747D
100
AcDbEntity
  8
部品1
 48
0.2
100
AcDbCircle
 10
5576.438008705035
 20
8361.764086934952
 30
0.0
 40
8.0
100
AcDbArc
 50
187.1636477221926
 51
269.9999999999992
  0
ARC
  5
156C5
330
747D
100
AcDbEntity
  8
細線
 48
0.2
100
AcDbCircle
 10
5581.438008705035
 20
8361.764086934952
 30
0.0
 40
4.049999999999999
100
AcDbArc
 50
194.2603506853988
 51
345.7396493146012
  0
LINE
  5
156C6
330
747D
100
AcDbEntity
  8
部品1
 48
0.2
100
AcDbLine
 10
5576.438008705035
 20
8353.764086934953
 30
0.0
 11
5581.438008705035
 21
8353.764086934953
 31
0.0
  0
LINE
  5
156C7
330
747D
100
AcDbEntity
  8
部品1
 48
5.0
100
AcDbLine
 10
5591.375560876358
 20
8360.76645697973
 30
0.0
 11
5677.375560876359
 21
8360.76645697973
 31
0.0
  0
LINE
  5
156C8
330
747D
100
AcDbEntity
  8
部品1
 48
5.0
100
AcDbLine
 10
5689.375560876358
 20
8415.76645697973
 30
0.0
 11
5689.37556087636
 21
8390.26645697973
 31
0.0
  0
LINE
  5
156C9
330
747D
100
AcDbEntity
  8
部品1
 48
5.0
100
AcDbLine
 10
5658.375560876359
 20
8415.76645697973
 30
0.0
 11
5658.375560876359
 21
8390.26645697973
 31
0.0
  0
LINE
  5
156CA
330
747D
100
AcDbEntity
  8
部品1
 48
5.0
100
AcDbLine
 10
5610.375560876359
 20
8415.76645697973
 30
0.0
 11
5610.375560876359
 21
8390.26645697973
 31
0.0
  0
LINE
  5
156CB
330
747D
100
AcDbEntity
  8
部品1
 48
5.0
100
AcDbLine
 10
5579.375560876359
 20
8415.76645697973
 30
0.0
 11
5579.37556087636
 21
8390.26645697973
 31
0.0
  0
LINE
  5
156CC
330
747D
100
AcDbEntity
  8
部品1
 48
5.0
100
AcDbLine
 10
5602.375560876359
 20
8415.76645697973
 30
0.0
 11
5579.375560876357
 21
8415.76645697973
 31
0.0
  0
LINE
  5
156CD
330
747D
100
AcDbEntity
  8
部品1
 48
50.0
100
AcDbLine
 10
5606.375560876343
 20
8464.26645697973
 30
0.0
 11
5578.875560876341
 21
8492.266456979738
 31
0.0
  0
LINE
  5
156CE
330
747D
100
AcDbEntity
  8
部品1
 48
5.0
100
AcDbLine
 10
5606.375560876343
 20
8415.76645697973
 30
0.0
 11
5662.375560876343
 21
8415.76645697973
 31
0.0
  0
LINE
  5
156CF
330
747D
100
AcDbEntity
  8
部品1
 48
5.0
100
AcDbLine
 10
5666.375560876359
 20
8415.76645697973
 30
0.0
 11
5689.375560876358
 21
8415.76645697973
 31
0.0
  0
LINE
  5
156D0
330
747D
100
AcDbEntity
  8
部品1
 48
50.0
100
AcDbLine
 10
5689.87556087634
 20
8492.266457004403
 30
0.0
 11
5662.375560876343
 21
8464.26645697973
 31
0.0
  0
ARC
  5
156D1
330
747D
100
AcDbEntity
  8
部品1
 48
0.2
100
AcDbCircle
 10
6396.438008705035
 20
8361.764086934952
 30
0.0
 40
8.0
100
AcDbArc
 50
187.1636477221926
 51
269.9999999999992
  0
LINE
  5
156D2
330
747D
100
AcDbEntity
  8
部品1
 48
5.0
100
AcDbLine
 10
6399.375560876358
 20
8415.76645697973
 30
0.0
 11
6399.37556087636
 21
8390.26645697973
 31
0.0
  0
LINE
  5
156D3
330
747D
100
AcDbEntity
  8
部品1
 48
50.0
100
AcDbLine
 10
5663.875567553993
 20
9281.266456979754
 30
0.0
 11
5663.875567553994
 21
8831.266456979752
 31
0.0
  0
LINE
  5
156D4
330
747D
100
AcDbEntity
  8
部品1
 48
50.0
100
AcDbLine
 10
5604.875567553993
 20
9281.266456979803
 30
0.0
 11
5604.875567553993
 21
8831.266456979802
 31
0.0
  0
LINE
  5
156D5
330
747D
100
AcDbEntity
  8
部品1
 48
5.0
100
AcDbLine
 10
5634.375560876343
 20
8835.766456979735
 30
0.0
 11
5606.375560876291
 21
8835.766456979738
 31
0.0
  0
LINE
  5
156D6
330
747D
100
AcDbEntity
  8
部品1
 48
50.0
100
AcDbLine
 10
5634.375560876334
 20
8835.766456979738
 30
0.0
 11
5662.375560876317
 21
8835.766456979742
 31
0.0
  0
LINE
  5
156D7
330
747D
100
AcDbEntity
  8
部品1
 48
50.0
100
AcDbLine
 10
5634.375560876334
 20
8873.766456979739
 30
0.0
 11
5662.375560876317
 21
8873.766456979742
 31
0.0
  0
LINE
  5
156D8
330
747D
100
AcDbEntity
  8
部品1
 48
5.0
100
AcDbLine
 10
5689.375560876366
 20
9310.766456979742
 30
0.0
 11
5689.37556087636
 21
9282.766456979745
 31
0.0
  0
LINE
  5
156D9
330
747D
100
AcDbEntity
  8
部品1
 48
50.0
100
AcDbLine
 10
5663.875560876295
 20
9281.211935459479
 30
0.0
 11
5662.37556087629
 21
9282.766456979738
 31
0.0
  0
LINE
  5
156DA
330
747D
100
AcDbEntity
  8
部品1
 48
50.0
100
AcDbLine
 10
5604.875567553994
 20
9281.211944319984
 30
0.0
 11
5606.37556087629
 21
9282.766456979738
 31
0.0
  0
LINE
  5
156DB
330
747D
100
AcDbEntity
  8
部品1
 48
5.0
100
AcDbLine
 10
5579.375560876361
 20
9282.766456979738
 30
0.0
 11
5579.375560876362
 21
9310.766456979738
 31
0.0
  0
LINE
  5
156DC
330
747D
100
AcDbEntity
  8
部品1
 48
5.0
100
AcDbLine
 10
5609.084835323537
 20
9310.766456979738
 30
0.0
 11
5631.756263894966
 21
9282.766456979738
 31
0.0
  0
LINE
  5
156DD
330
747D
100
AcDbEntity
  8
部品1
 48
5.0
100
AcDbLine
 10
5662.375560876292
 20
9255.766456979738
 30
0.0
 11
5606.375560876291
 21
9255.766456979738
 31
0.0
  0
LINE
  5
156DE
330
747D
100
AcDbEntity
  8
部品1
 48
5.0
100
AcDbLine
 10
6399.375560876361
 20
9282.766456979738
 30
0.0
 11
6399.375560876362
 21
9310.766456979738
 31
0.0
  0
LINE
  5
156DF
330
747D
100
AcDbEntity
  8
破線
 48
10.0
100
AcDbLine
 10
7194.375625801033
 20
8831.266456979738
 30
0.0
 11
7194.375560876345
 21
8515.766456979781
 31
0.0
  0
LINE
  5
156E0
330
747D
100
AcDbEntity
  8
部品1
100
AcDbLine
 10
7246.375560876365
 20
9282.766456979789
 30
0.0
 11
7246.375560876341
 21
8415.766456979774
 31
0.0
  0
LINE
  5
156E1
330
747D
100
AcDbEntity
  8
部品1
100
AcDbLine
 10
7274.375560876364
 20
9310.76645697979
 30
0.0
 11
7274.37556087634
 21
8360.766456979774
 31
0.0
  0
DIMENSION
  5
156E2
330
747D
100
AcDbEntity
  8
寸法
100
AcDbDimension
  2
*D14
 10
7186.18206458233
 20
8612.219346736758
 30
0.0
 11
6863.222622994564
 21
8612.219346736758
 31
0.0
 70
   160
 71
     5
 42
761.0000000000118
  3
INABA_S40G
100
AcDbAlignedDimension
 13
6483.875560876296
 23
8831.266456979742
 33
0.0
 14
7244.875560876308
 24
8831.266456979738
 34
0.0
100
AcDbRotatedDimension
1001
ACAD
1000
DSTYLE
1002
{
1002
}
  0
LINE
  5
156E3
330
747D
100
AcDbEntity
  8
点線
 48
10.0
100
AcDbLine
 10
6533.37556087635
 20
8515.766456979745
 30
0.0
 11
6533.375548445239
 21
8831.266456979742
 31
0.0
  0
LINE
  5
156E4
330
747D
100
AcDbEntity
  8
部品1
 48
50.0
100
AcDbLine
 10
6482.375560876343
 20
8415.76645697973
 30
0.0
 11
6482.375560876288
 21
9310.766456979738
 31
0.0
  0
LINE
  5
156E5
330
747D
100
AcDbEntity
  8
部品1
 48
50.0
100
AcDbLine
 10
6426.375560876343
 20
8415.76645697973
 30
0.0
 11
6426.375560876289
 21
9282.766456979738
 31
0.0
  0
LINE
  5
156E6
330
747D
100
AcDbEntity
  8
部品1
 48
5.0
100
AcDbLine
 10
7217.874589451408
 20
8492.266456979789
 30
0.0
 11
7217.875082382718
 21
8831.266456979735
 31
0.0
  0
LINE
  5
156E7
330
747D
100
AcDbEntity
  8
部品1
 48
50.0
100
AcDbLine
 10
6509.875554532055
 20
8492.266457004401
 30
0.0
 11
6509.875557504919
 21
8831.266456979742
 31
0.0
  0
LINE
  5
156E8
330
747D
100
AcDbEntity
  8
部品1
 48
50.0
100
AcDbLine
 10
6454.375560876343
 20
8415.76645697973
 30
0.0
 11
6454.375560876343
 21
9255.766456979738
 31
0.0
  0
DIMENSION
  5
156E9
330
747D
100
AcDbEntity
  8
寸法
100
AcDbDimension
  2
*D15
 10
7600.233286738322
 20
8736.048641310844
 30
0.0
 11
7500.23328673832
 21
8961.048641310846
 31
0.0
 70
    32
 71
     5
 42
450.0
  3
INABA_S40G
100
AcDbAlignedDimension
 13
7244.875560876296
 23
9281.266456979734
 33
0.0
 14
7244.875560876296
 24
8831.266456979735
 34
0.0
 50
90.0
100
AcDbRotatedDimension
1001
ACAD
1000
DSTYLE
1002
{
1002
}
  0
LINE
  5
156EA
330
747D
100
AcDbEntity
  8
部品1
100
AcDbLine
 10
7217.874589451547
 20
8492.266562692629
 30
0.0
 11
6509.875560876341
 21
8492.266457004403
 31
0.0
  0
LINE
  5
156EB
330
747D
100
AcDbEntity
  8
破線
 48
10.0
100
AcDbLine
 10
7194.375560876341
 20
8515.766456979781
 30
0.0
 11
6533.37556087635
 21
8515.766456979745
 31
0.0
  0
LINE
  5
156EC
330
747D
100
AcDbEntity
  8
部品1
100
AcDbLine
 10
7229.375560876356
 20
8386.766456979783
 30
0.0
 11
6499.375560876356
 21
8386.766456979724
 31
0.0
  0
LINE
  5
156ED
330
747D
100
AcDbEntity
  8
部品1
 48
5.0
100
AcDbLine
 10
7231.375560876337
 20
8390.26645697973
 30
0.0
 11
6478.375560876358
 21
8390.26645697973
 31
0.0
  0
LINE
  5
156EE
330
747D
100
AcDbEntity
  8
部品1
100
AcDbLine
 10
6497.375560876358
 20
8390.266456979684
 30
0.0
 11
6497.375560876358
 21
8360.76645697973
 31
0.0
  0
LINE
  5
156EF
330
747D
100
AcDbEntity
  8
部品1
 48
5.0
100
AcDbLine
 10
6497.375560876358
 20
8390.26645697973
 30
0.0
 11
6497.375560876358
 21
8360.76645697973
 31
0.0
  0
LINE
  5
156F0
330
747D
100
AcDbEntity
  8
部品1
100
AcDbLine
 10
6411.375560876355
 20
8390.266456979677
 30
0.0
 11
6411.375560876354
 21
8360.766456979723
 31
0.0
  0
LINE
  5
156F1
330
747D
100
AcDbEntity
  8
部品1
 48
5.0
100
AcDbLine
 10
6411.375560876358
 20
8390.26645697973
 30
0.0
 11
6411.375560876358
 21
8360.76645697973
 31
0.0
  0
LINE
  5
156F2
330
747D
100
AcDbEntity
  8
部品1
100
AcDbLine
 10
6499.375560876356
 20
8386.766456979724
 30
0.0
 11
6499.375560876355
 21
8360.76645697973
 31
0.0
  0
LINE
  5
156F3
330
747D
100
AcDbEntity
  8
部品1
100
AcDbLine
 10
6409.375560876355
 20
8386.766456979783
 30
0.0
 11
6409.375560876355
 21
8360.766456979728
 31
0.0
  0
ARC
  5
156F4
330
747D
100
AcDbEntity
  8
部品1
 48
0.2
100
AcDbCircle
 10
6401.438008705035
 20
8361.764086934952
 30
0.0
 40
8.0
100
AcDbArc
 50
270.0
 51
352.8363522778074
  0
LINE
  5
156F5
330
747D
100
AcDbEntity
  8
部品1
 48
5.0
100
AcDbLine
 10
6411.375560876358
 20
8360.76645697973
 30
0.0
 11
6497.375560876358
 21
8360.76645697973
 31
0.0
  0
LINE
  5
156F6
330
747D
100
AcDbEntity
  8
部品1
 48
5.0
100
AcDbLine
 10
6509.375560876359
 20
8415.76645697973
 30
0.0
 11
6509.37556087636
 21
8390.26645697973
 31
0.0
  0
LINE
  5
156F7
330
747D
100
AcDbEntity
  8
部品1
 48
5.0
100
AcDbLine
 10
6478.37556087636
 20
8415.76645697973
 30
0.0
 11
6478.375560876358
 21
8390.26645697973
 31
0.0
  0
LINE
  5
156F8
330
747D
100
AcDbEntity
  8
部品1
 48
5.0
100
AcDbLine
 10
6430.375560876358
 20
8415.76645697973
 30
0.0
 11
6430.375560876358
 21
8390.26645697973
 31
0.0
  0
LINE
  5
156F9
330
747D
100
AcDbEntity
  8
部品1
 48
5.0
100
AcDbLine
 10
6426.375560876343
 20
8415.76645697973
 30
0.0
 11
6482.375560876343
 21
8415.76645697973
 31
0.0
  0
LINE
  5
156FA
330
747D
100
AcDbEntity
  8
部品1
 48
5.0
100
AcDbLine
 10
6486.375560876358
 20
8415.76645697973
 30
0.0
 11
6509.375560876359
 21
8415.76645697973
 31
0.0
  0
LINE
  5
156FB
330
747D
100
AcDbEntity
  8
部品1
 48
50.0
100
AcDbLine
 10
6509.875560876341
 20
8492.266457004403
 30
0.0
 11
6482.375560876343
 21
8464.26645697973
 31
0.0
  0
LINE
  5
156FC
330
747D
100
AcDbEntity
  8
部品1
 48
2.83
100
AcDbLine
 10
7231.375560876337
 20
8390.266456979745
 30
0.0
 11
7231.375560876337
 21
8360.766456979744
 31
0.0
  0
LINE
  5
156FD
330
747D
100
AcDbEntity
  8
部品1
100
AcDbLine
 10
7229.375560876356
 20
8386.766456979783
 30
0.0
 11
7229.375560876357
 21
8360.766456979774
 31
0.0
  0
LINE
  5
156FE
330
747D
100
AcDbEntity
  8
部品1
 48
0.2
100
AcDbLine
 10
7216.438008705036
 20
8353.764086934971
 30
0.0
 11
7221.438008705035
 21
8353.764086934971
 31
0.0
  0
ARC
  5
156FF
330
747D
100
AcDbEntity
  8
部品1
 48
0.2
100
AcDbCircle
 10
7221.438008705035
 20
8361.764086934972
 30
0.0
 40
8.0
100
AcDbArc
 50
270.0
 51
352.8363522778074
  0
ARC
  5
15700
330
747D
100
AcDbEntity
  8
部品1
 48
0.2
100
AcDbCircle
 10
7216.438008705036
 20
8361.764086934972
 30
0.0
 40
8.0
100
AcDbArc
 50
187.1636477221926
 51
269.9999999999992
  0
ARC
  5
15701
330
747D
100
AcDbEntity
  8
細線
 48
0.2
100
AcDbCircle
 10
7221.438008705035
 20
8361.764086934972
 30
0.0
 40
4.049999999999999
100
AcDbArc
 50
194.2603506853988
 51
345.7396493146012
  0
LINE
  5
15702
330
747D
100
AcDbEntity
  8
部品1
100
AcDbLine
 10
7246.375560876372
 20
8415.766456979788
 30
0.0
 11
7274.375560876372
 21
8415.766456979788
 31
0.0
  0
LINE
  5
15703
330
747D
100
AcDbEntity
  8
部品1
100
AcDbLine
 10
7246.375560876341
 20
8415.766456979774
 30
0.0
 11
7274.37556087634
 21
8415.766456979774
 31
0.0
  0
LINE
  5
15704
330
747D
100
AcDbEntity
  8
部品1
 48
2.83
100
AcDbLine
 10
7242.375560876337
 20
8415.766456979746
 30
0.0
 11
7219.375560876338
 21
8415.766456979746
 31
0.0
  0
LINE
  5
15705
330
747D
100
AcDbEntity
  8
部品1
 48
2.83
100
AcDbLine
 10
7274.375560876338
 20
8415.766456979746
 30
0.0
 11
7251.375560876337
 21
8415.766456979746
 31
0.0
  0
LINE
  5
15706
330
747D
100
AcDbEntity
  8
部品1
 48
2.83
100
AcDbLine
 10
7219.375560876338
 20
8415.766456979746
 30
0.0
 11
7219.375560876338
 21
8390.266456979745
 31
0.0
  0
LINE
  5
15707
330
747D
100
AcDbEntity
  8
部品1
 48
50.0
100
AcDbLine
 10
7246.375560876341
 20
8463.247391787374
 30
0.0
 11
7217.874589451547
 21
8492.266562692629
 31
0.0
  0
LINE
  5
15708
330
747D
100
AcDbEntity
  8
部品1
100
AcDbLine
 10
6483.875560876296
 20
9281.266456979741
 30
0.0
 11
7244.875560876296
 21
9281.266456979734
 31
0.0
  0
LINE
  5
15709
330
747D
100
AcDbEntity
  8
細線
 48
50.0
100
AcDbLine
 10
7244.875560876296
 20
8831.266456979735
 30
0.0
 11
6483.875560876296
 21
9281.266456979738
 31
0.0
  0
LINE
  5
1570A
330
747D
100
AcDbEntity
  8
細線
 48
50.0
100
AcDbLine
 10
7244.875560876296
 20
9281.266456979734
 30
0.0
 11
6483.875560876295
 21
8831.266456979742
 31
0.0
  0
LINE
  5
1570B
330
747D
100
AcDbEntity
  8
部品1
100
AcDbLine
 10
6483.875560876295
 20
8831.266456979742
 30
0.0
 11
7244.875560876296
 21
8831.266456979735
 31
0.0
  0
LINE
  5
1570C
330
747D
100
AcDbEntity
  8
部品1
100
AcDbLine
 10
6482.375560876288
 20
9282.766456979741
 30
0.0
 11
7246.375560876365
 21
9282.766456979789
 31
0.0
  0
LINE
  5
1570D
330
747D
100
AcDbEntity
  8
部品1
 48
50.0
100
AcDbLine
 10
6424.875567553994
 20
9281.266456979803
 30
0.0
 11
6424.875567553994
 21
8831.266456979802
 31
0.0
  0
LINE
  5
1570E
330
747D
100
AcDbEntity
  8
部品1
 48
50.0
100
AcDbLine
 10
6483.875560876296
 20
9281.266456979738
 30
0.0
 11
6483.875560876296
 21
8831.266456979742
 31
0.0
  0
LINE
  5
1570F
330
747D
100
AcDbEntity
  8
部品1
 48
5.0
100
AcDbLine
 10
6454.375560876343
 20
8835.766456979735
 30
0.0
 11
6426.375560876291
 21
8835.766456979738
 31
0.0
  0
LINE
  5
15710
330
747D
100
AcDbEntity
  8
部品1
 48
50.0
100
AcDbLine
 10
6454.375560876335
 20
8835.766456979738
 30
0.0
 11
6482.375560876318
 21
8835.766456979742
 31
0.0
  0
LINE
  5
15711
330
747D
100
AcDbEntity
  8
部品1
 48
50.0
100
AcDbLine
 10
6454.375560876335
 20
8873.766456979739
 30
0.0
 11
6482.375560876318
 21
8873.766456979742
 31
0.0
  0
LINE
  5
15712
330
747D
100
AcDbEntity
  8
部品1
 48
5.0
100
AcDbLine
 10
6509.375560876366
 20
9310.766456979742
 30
0.0
 11
6509.37556087636
 21
9282.766456979745
 31
0.0
  0
LINE
  5
15713
330
747D
100
AcDbEntity
  8
部品1
 48
50.0
100
AcDbLine
 10
6483.875560876296
 20
9281.211935459479
 30
0.0
 11
6482.375560876289
 21
9282.766456979738
 31
0.0
  0
LINE
  5
15714
330
747D
100
AcDbEntity
  8
部品1
 48
50.0
100
AcDbLine
 10
6424.875567553994
 20
9281.211944319984
 30
0.0
 11
6426.375560876289
 21
9282.766456979738
 31
0.0
  0
LINE
  5
15715
330
747D
100
AcDbEntity
  8
部品1
 48
5.0
100
AcDbLine
 10
6429.084835323537
 20
9310.766456979738
 30
0.0
 11
6451.756263894965
 21
9282.766456979738
 31
0.0
  0
LINE
  5
15716
330
747D
100
AcDbEntity
  8
部品1
 48
5.0
100
AcDbLine
 10
6482.375560876291
 20
9255.766456979738
 30
0.0
 11
6426.375560876291
 21
9255.766456979738
 31
0.0
  0
LINE
  5
15717
330
747D
100
AcDbEntity
  8
部品1
100
AcDbLine
 10
7244.875560876296
 20
9281.266456979734
 30
0.0
 11
7244.875560876296
 21
8831.266456979735
 31
0.0
  0
LINE
  5
15718
330
747D
100
AcDbEntity
  8
部品1
100
AcDbLine
 10
7246.375560876365
 20
8835.766456979788
 30
0.0
 11
7274.375560876364
 21
8835.766456979788
 31
0.0
  0
LINE
  5
15719
330
747D
100
AcDbEntity
  8
部品1
100
AcDbLine
 10
7219.375560876364
 20
9310.766456979804
 30
0.0
 11
7219.375560876364
 21
9282.766456979803
 31
0.0
  0
LINE
  5
1571A
330
747D
100
AcDbEntity
  8
部品1
100
AcDbLine
 10
7219.375560876364
 20
9310.76645697979
 30
0.0
 11
7219.375560876364
 21
9282.766456979789
 31
0.0
  0
LINE
  5
1571B
330
747D
100
AcDbEntity
  8
部品1
100
AcDbLine
 10
7246.375560876365
 20
9255.76645697979
 30
0.0
 11
7274.375560876364
 21
9255.76645697979
 31
0.0
  0
LINE
  5
1571C
330
747D
100
AcDbEntity
  8
部品1
 48
50.0
100
AcDbLine
 10
7244.875554198689
 20
9281.266456979738
 30
0.0
 11
7246.375560876365
 21
9282.766456979789
 31
0.0
  0
LINE
  5
1571D
330
747D
100
AcDbEntity
  8
部品1
100
AcDbLine
 10
6411.37556087634
 20
5409.577276893861
 30
0.0
 11
6411.37556087634
 21
3612.577276893881
 31
0.0
  0
LINE
  5
1571E
330
747D
100
AcDbEntity
  8
部品1
100
AcDbLine
 10
6409.375560876338
 20
5407.07727689386
 30
0.0
 11
6409.37556087634
 21
3616.077276893881
 31
0.0
  0
LINE
  5
1571F
330
747D
100
AcDbEntity
  8
部品1
100
AcDbLine
 10
5679.375560876338
 20
5407.077276893859
 30
0.0
 11
5679.375560876338
 21
3616.077276893874
 31
0.0
  0
LINE
  5
15720
330
747D
100
AcDbEntity
  8
部品1
100
AcDbLine
 10
5677.375560876339
 20
5409.577276893861
 30
0.0
 11
5677.375560876339
 21
3612.577276893881
 31
0.0
  0
LINE
  5
15721
330
747D
100
AcDbEntity
  8
部品1
100
AcDbLine
 10
4859.37556087634
 20
5407.077276893862
 30
0.0
 11
4859.37556087634
 21
3616.077276893867
 31
0.0
  0
LINE
  5
15722
330
747D
100
AcDbEntity
  8
部品1
100
AcDbLine
 10
7231.37556087634
 20
5409.577276893861
 30
0.0
 11
7231.37556087634
 21
3612.577276893881
 31
0.0
  0
LINE
  5
15723
330
747D
100
AcDbEntity
  8
部品1
100
AcDbLine
 10
4814.375560876339
 20
5503.577276893864
 30
0.0
 11
4814.37556087634
 21
3469.57727689386
 31
0.0
  0
LINE
  5
15724
330
747D
100
AcDbEntity
  8
部品1
100
AcDbLine
 10
7274.37556087634
 20
5503.577276893862
 30
0.0
 11
7274.37556087634
 21
3469.57727689386
 31
0.0
  0
LINE
  5
15725
330
747D
100
AcDbEntity
  8
部品1
100
AcDbLine
 10
7229.375560876339
 20
5407.07727689386
 30
0.0
 11
7229.375560876341
 21
3616.077276893881
 31
0.0
  0
LINE
  5
15726
330
747D
100
AcDbEntity
  8
部品1
100
AcDbLine
 10
6499.375560876339
 20
5407.07727689386
 30
0.0
 11
6499.375560876341
 21
3616.077276893874
 31
0.0
  0
LINE
  5
15727
330
747D
100
AcDbEntity
  8
部品1
100
AcDbLine
 10
6497.375560876339
 20
5409.577276893861
 30
0.0
 11
6497.375560876339
 21
3612.577276893881
 31
0.0
  0
LINE
  5
15728
330
747D
100
AcDbEntity
  8
部品1
100
AcDbLine
 10
5591.37556087634
 20
5409.577276893861
 30
0.0
 11
5591.37556087634
 21
3612.577276893881
 31
0.0
  0
LINE
  5
15729
330
747D
100
AcDbEntity
  8
部品1
100
AcDbLine
 10
5589.375560876338
 20
5407.07727689386
 30
0.0
 11
5589.375560876341
 21
3616.077276893872
 31
0.0
  0
LINE
  5
1572A
330
747D
100
AcDbEntity
  8
部品1
100
AcDbLine
 10
4857.37556087634
 20
5409.577276893861
 30
0.0
 11
4857.37556087634
 21
3612.577276893881
 31
0.0
  0
DIMENSION
  5
1572B
330
747D
100
AcDbEntity
  8
寸法
100
AcDbDimension
  2
*D16
 10
4496.271033268736
 20
3631.077276893865
 30
0.0
 11
4496.271033268736
 21
4510.077276893862
 31
0.0
 70
   160
  1
有効開口部高サ<>
 71
     5
 42
1759.999999999996
  3
INABA_S40G
100
AcDbAlignedDimension
 13
4814.37556087634
 23
5391.07727689386
 33
0.0
 14
4814.37556087634
 24
3631.077276893865
 34
0.0
 50
90.0
100
AcDbRotatedDimension
1001
ACAD
1000
DSTYLE
1002
{
1070
   288
1070
     1
1002
}
  0
LINE
  5
1572D
330
747D
100
AcDbEntity
  8
部品1
100
AcDbLine
 10
5679.375560876338
 20
3616.077276893874
 30
0.0
 11
6389.313113047659
 21
3616.077276893881
 31
0.0
  0
LINE
  5
1572E
330
747D
100
AcDbEntity
  8
部品1
100
AcDbLine
 10
4814.37556087634
 20
3612.577276893864
 30
0.0
 11
7274.37556087634
 21
3612.577276893881
 31
0.0
  0
LINE
  5
1572F
330
747D
100
AcDbEntity
  8
部品1
100
AcDbLine
 10
4814.37556087634
 20
3569.57727689386
 30
0.0
 11
7274.37556087634
 21
3569.57727689386
 31
0.0
  0
LINE
  5
15732
330
747D
100
AcDbEntity
  8
部品1
100
AcDbLine
 10
4859.375560876339
 20
3616.077276893867
 30
0.0
 11
5569.313113047659
 21
3616.077276893872
 31
0.0
  0
LINE
  5
15734
330
747D
100
AcDbEntity
  8
細線
 48
0.2
100
AcDbLine
 10
5589.313113047658
 20
3620.327276893879
 30
0.0
 11
5569.313113047659
 21
3620.327276893879
 31
0.0
  0
LINE
  5
15735
330
747D
100
AcDbEntity
  8
部品1
 48
0.2
100
AcDbLine
 10
5589.313113047658
 20
3622.827276893879
 30
0.0
 11
5569.313113047658
 21
3622.827276893879
 31
0.0
  0
ARC
  5
15736
330
747D
100
AcDbEntity
  8
細線
 48
0.2
100
AcDbCircle
 10
5586.313113047657
 20
3615.856767062631
 30
0.0
 40
1.0
100
AcDbArc
 50
286.6015495990217
 51
0.0
  0
LINE
  5
15737
330
747D
100
AcDbEntity
  8
細線
 48
0.2
100
AcDbLine
 10
5589.313113047658
 20
3615.827276893879
 30
0.0
 11
5569.313113047659
 21
3615.827276893879
 31
0.0
  0
LINE
  5
15738
330
747D
100
AcDbEntity
  8
細線
 48
0.2
100
AcDbLine
 10
5589.313113047658
 20
3618.327276893879
 30
0.0
 11
5569.313113047659
 21
3618.327276893881
 31
0.0
  0
ARC
  5
15739
330
747D
100
AcDbEntity
  8
細線
 48
0.2
100
AcDbCircle
 10
5576.313113047658
 20
3615.856767062631
 30
0.0
 40
1.0
100
AcDbArc
 50
179.9999999999984
 51
253.3984504009775
  0
ARC
  5
1573A
330
747D
100
AcDbEntity
  8
細線
 48
0.2
100
AcDbCircle
 10
5581.313113047658
 20
3632.627276893876
 30
0.0
 40
18.49999999999796
100
AcDbArc
 50
253.3984504009772
 51
286.6015495990217
  0
LINE
  5
1573B
330
747D
100
AcDbEntity
  8
細線
 48
0.2
100
AcDbLine
 10
5586.997104344166
 20
3615.127276893878
 30
0.0
 11
5575.629121751154
 21
3615.127276893878
 31
0.0
  0
LINE
  5
1573C
330
747D
100
AcDbEntity
  8
細線
 48
50.0
100
AcDbLine
 10
5569.313113047658
 20
3616.077276893881
 30
0.0
 11
5569.313113047658
 21
3615.827276893879
 31
0.0
  0
LINE
  5
1573D
330
747D
100
AcDbEntity
  8
部品1
100
AcDbLine
 10
5589.313113047658
 20
3616.077276893881
 30
0.0
 11
5589.37556087634
 21
3616.077276893881
 31
0.0
  0
LINE
  5
1573E
330
747D
100
AcDbEntity
  8
部品1
100
AcDbLine
 10
5589.313113047658
 20
3616.077276893872
 30
0.0
 11
5589.37556087634
 21
3616.077276893872
 31
0.0
  0
LINE
  5
1573F
330
747D
100
AcDbEntity
  8
細線
 48
0.1
100
AcDbLine
 10
5589.313113047658
 20
3615.827276893879
 30
0.0
 11
5589.313113047658
 21
3622.827276893879
 31
0.0
  0
LINE
  5
15740
330
747D
100
AcDbEntity
  8
細線
 48
50.0
100
AcDbLine
 10
5577.450355853354
 20
3618.327276893881
 30
0.0
 11
5577.450355853355
 21
3620.327276893879
 31
0.0
  0
LINE
  5
15741
330
747D
100
AcDbEntity
  8
細線
 48
50.0
100
AcDbLine
 10
5585.300765899319
 20
3618.327276893881
 30
0.0
 11
5585.300765899319
 21
3620.327276893879
 31
0.0
  0
LINE
  5
15742
330
747D
100
AcDbEntity
  8
部品1
 48
50.0
100
AcDbLine
 10
5569.313113047658
 20
3622.827276893879
 30
0.0
 11
5569.313113047658
 21
3616.077276893881
 31
0.0
  0
LINE
  5
15745
330
747D
100
AcDbEntity
  8
部品1
100
AcDbLine
 10
6499.375560876339
 20
3616.077276893874
 30
0.0
 11
7209.313113047659
 21
3616.077276893881
 31
0.0
  0
LINE
  5
15746
330
747D
100
AcDbEntity
  8
部品1
 48
0.2
100
AcDbLine
 10
6409.313113047658
 20
3622.827276893879
 30
0.0
 11
6389.313113047657
 21
3622.827276893879
 31
0.0
  0
LINE
  5
15747
330
747D
100
AcDbEntity
  8
細線
 48
0.2
100
AcDbLine
 10
6409.313113047658
 20
3620.327276893879
 30
0.0
 11
6389.313113047659
 21
3620.327276893879
 31
0.0
  0
LINE
  5
15748
330
747D
100
AcDbEntity
  8
部品1
100
AcDbLine
 10
6409.313113047659
 20
3616.077276893883
 30
0.0
 11
6409.37556087634
 21
3616.077276893883
 31
0.0
  0
LINE
  5
15749
330
747D
100
AcDbEntity
  8
部品1
100
AcDbLine
 10
6409.313113047659
 20
3616.077276893881
 30
0.0
 11
6409.37556087634
 21
3616.077276893881
 31
0.0
  0
LINE
  5
1574A
330
747D
100
AcDbEntity
  8
細線
 48
50.0
100
AcDbLine
 10
6389.313113047657
 20
3616.077276893881
 30
0.0
 11
6389.313113047657
 21
3615.827276893879
 31
0.0
  0
LINE
  5
1574B
330
747D
100
AcDbEntity
  8
細線
 48
0.2
100
AcDbLine
 10
6406.997104344165
 20
3615.127276893878
 30
0.0
 11
6395.629121751153
 21
3615.127276893878
 31
0.0
  0
ARC
  5
1574C
330
747D
100
AcDbEntity
  8
細線
 48
0.2
100
AcDbCircle
 10
6401.313113047658
 20
3632.627276893876
 30
0.0
 40
18.49999999999796
100
AcDbArc
 50
253.3984504009772
 51
286.6015495990217
  0
ARC
  5
1574D
330
747D
100
AcDbEntity
  8
細線
 48
0.2
100
AcDbCircle
 10
6396.313113047657
 20
3615.856767062631
 30
0.0
 40
1.0
100
AcDbArc
 50
179.9999999999984
 51
253.3984504009775
  0
LINE
  5
1574E
330
747D
100
AcDbEntity
  8
細線
 48
0.2
100
AcDbLine
 10
6409.313113047658
 20
3618.327276893879
 30
0.0
 11
6389.313113047659
 21
3618.327276893881
 31
0.0
  0
LINE
  5
1574F
330
747D
100
AcDbEntity
  8
細線
 48
0.2
100
AcDbLine
 10
6409.313113047658
 20
3615.827276893879
 30
0.0
 11
6389.313113047659
 21
3615.827276893879
 31
0.0
  0
ARC
  5
15750
330
747D
100
AcDbEntity
  8
細線
 48
0.2
100
AcDbCircle
 10
6406.313113047658
 20
3615.856767062631
 30
0.0
 40
1.0
100
AcDbArc
 50
286.6015495990217
 51
0.0
  0
LINE
  5
15751
330
747D
100
AcDbEntity
  8
部品1
100
AcDbLine
 10
6409.313113047659
 20
3616.077276893881
 30
0.0
 11
6409.375560876338
 21
3616.077276893881
 31
0.0
  0
LINE
  5
15752
330
747D
100
AcDbEntity
  8
部品1
 48
50.0
100
AcDbLine
 10
6389.313113047657
 20
3622.827276893879
 30
0.0
 11
6389.313113047657
 21
3616.077276893881
 31
0.0
  0
LINE
  5
15753
330
747D
100
AcDbEntity
  8
細線
 48
50.0
100
AcDbLine
 10
6405.300765899318
 20
3618.327276893881
 30
0.0
 11
6405.300765899318
 21
3620.327276893879
 31
0.0
  0
LINE
  5
15754
330
747D
100
AcDbEntity
  8
細線
 48
50.0
100
AcDbLine
 10
6397.450355853354
 20
3618.327276893881
 30
0.0
 11
6397.450355853355
 21
3620.327276893879
 31
0.0
  0
LINE
  5
15755
330
747D
100
AcDbEntity
  8
細線
 48
0.1
100
AcDbLine
 10
6409.313113047658
 20
3615.827276893879
 30
0.0
 11
6409.313113047658
 21
3622.827276893879
 31
0.0
  0
LINE
  5
15759
330
747D
100
AcDbEntity
  8
部品1
 48
0.2
100
AcDbLine
 10
7229.313113047658
 20
3622.827276893879
 30
0.0
 11
7209.313113047658
 21
3622.827276893879
 31
0.0
  0
LINE
  5
1575A
330
747D
100
AcDbEntity
  8
細線
 48
0.2
100
AcDbLine
 10
7229.313113047658
 20
3620.327276893879
 30
0.0
 11
7209.313113047659
 21
3620.327276893879
 31
0.0
  0
LINE
  5
1575B
330
747D
100
AcDbEntity
  8
部品1
100
AcDbLine
 10
7229.313113047658
 20
3616.077276893883
 30
0.0
 11
7229.375560876339
 21
3616.077276893883
 31
0.0
  0
LINE
  5
1575C
330
747D
100
AcDbEntity
  8
部品1
100
AcDbLine
 10
7229.313113047658
 20
3616.077276893881
 30
0.0
 11
7229.375560876339
 21
3616.077276893881
 31
0.0
  0
LINE
  5
1575D
330
747D
100
AcDbEntity
  8
細線
 48
50.0
100
AcDbLine
 10
7209.313113047658
 20
3616.077276893881
 30
0.0
 11
7209.313113047658
 21
3615.827276893879
 31
0.0
  0
LINE
  5
1575E
330
747D
100
AcDbEntity
  8
細線
 48
0.2
100
AcDbLine
 10
7226.997104344166
 20
3615.127276893878
 30
0.0
 11
7215.629121751153
 21
3615.127276893878
 31
0.0
  0
ARC
  5
1575F
330
747D
100
AcDbEntity
  8
細線
 48
0.2
100
AcDbCircle
 10
7221.313113047658
 20
3632.627276893876
 30
0.0
 40
18.49999999999796
100
AcDbArc
 50
253.3984504009772
 51
286.6015495990217
  0
ARC
  5
15760
330
747D
100
AcDbEntity
  8
細線
 48
0.2
100
AcDbCircle
 10
7216.313113047657
 20
3615.856767062631
 30
0.0
 40
1.0
100
AcDbArc
 50
179.9999999999984
 51
253.3984504009775
  0
LINE
  5
15761
330
747D
100
AcDbEntity
  8
細線
 48
0.2
100
AcDbLine
 10
7229.313113047658
 20
3618.327276893879
 30
0.0
 11
7209.313113047659
 21
3618.327276893881
 31
0.0
  0
LINE
  5
15762
330
747D
100
AcDbEntity
  8
細線
 48
0.2
100
AcDbLine
 10
7229.313113047658
 20
3615.827276893879
 30
0.0
 11
7209.313113047659
 21
3615.827276893879
 31
0.0
  0
ARC
  5
15763
330
747D
100
AcDbEntity
  8
細線
 48
0.2
100
AcDbCircle
 10
7226.313113047658
 20
3615.856767062631
 30
0.0
 40
1.0
100
AcDbArc
 50
286.6015495990217
 51
0.0
  0
LINE
  5
15764
330
747D
100
AcDbEntity
  8
部品1
100
AcDbLine
 10
7229.313113047658
 20
3616.077276893881
 30
0.0
 11
7229.375560876339
 21
3616.077276893881
 31
0.0
  0
LINE
  5
15765
330
747D
100
AcDbEntity
  8
部品1
 48
50.0
100
AcDbLine
 10
7209.313113047658
 20
3622.827276893879
 30
0.0
 11
7209.313113047658
 21
3616.077276893881
 31
0.0
  0
LINE
  5
15766
330
747D
100
AcDbEntity
  8
細線
 48
50.0
100
AcDbLine
 10
7225.300765899318
 20
3618.327276893881
 30
0.0
 11
7225.300765899318
 21
3620.327276893879
 31
0.0
  0
LINE
  5
15767
330
747D
100
AcDbEntity
  8
細線
 48
50.0
100
AcDbLine
 10
7217.450355853355
 20
3618.327276893881
 30
0.0
 11
7217.450355853356
 21
3620.327276893879
 31
0.0
  0
LINE
  5
15768
330
747D
100
AcDbEntity
  8
細線
 48
0.1
100
AcDbLine
 10
7229.313113047658
 20
3615.827276893879
 30
0.0
 11
7229.313113047658
 21
3622.827276893879
 31
0.0
  0
ARC
  5
1576B
330
747D
100
AcDbEntity
  8
細線
100
AcDbCircle
 10
4915.375560876339
 20
4555.577276893862
 30
0.0
 40
6.0
100
AcDbArc
 50
0.0
 51
90.0
  0
LINE
  5
1576C
330
747D
100
AcDbEntity
  8
細線
100
AcDbLine
 10
4920.375560876339
 20
4570.077276893862
 30
0.0
 11
4881.208942407092
 21
4570.077276893862
 31
0.0
  0
LINE
  5
1576D
330
747D
100
AcDbEntity
  8
細線
100
AcDbLine
 10
4894.869984786172
 20
4555.577276893862
 30
0.0
 11
4893.375560876338
 21
4555.577276893862
 31
0.0
  0
ARC
  5
1576E
330
747D
100
AcDbEntity
  8
細線
100
AcDbCircle
 10
4894.869984786172
 20
4552.577276893862
 30
0.0
 40
3.0
100
AcDbArc
 50
8.099550838277986
 51
90.0
  0
LINE
  5
1576F
330
747D
100
AcDbEntity
  8
細線
100
AcDbLine
 10
4905.583100055085
 20
4558.577276893863
 30
0.0
 11
4893.375560876338
 21
4558.577276893863
 31
0.0
  0
ARC
  5
15770
330
747D
100
AcDbEntity
  8
細線
100
AcDbCircle
 10
4884.756517240816
 20
4555.577276893862
 30
0.0
 40
6.0
100
AcDbArc
 50
90.0
 51
171.2120626773636
  0
LINE
  5
15771
330
747D
100
AcDbEntity
  8
細線
100
AcDbLine
 10
4893.375560876338
 20
4555.576768995299
 30
0.0
 11
4880.612233660372
 21
4555.576768995299
 31
0.0
  0
ARC
  5
15772
330
747D
100
AcDbEntity
  8
細線
100
AcDbCircle
 10
4881.208942407092
 20
4564.577276893862
 30
0.0
 40
5.5
100
AcDbArc
 50
89.99999999999969
 51
169.5785490272683
  0
ARC
  5
15773
330
747D
100
AcDbEntity
  8
細線
100
AcDbCircle
 10
4905.583100055085
 20
4552.577276893862
 30
0.0
 40
6.0
100
AcDbArc
 50
0.0
 51
90.0
  0
LINE
  5
15774
330
747D
100
AcDbEntity
  8
細線
100
AcDbLine
 10
4915.375560876339
 20
4561.577276893863
 30
0.0
 11
4884.756517240816
 21
4561.577276893863
 31
0.0
  0
ARC
  5
15775
330
747D
100
AcDbEntity
  8
細線
100
AcDbCircle
 10
4920.375560876339
 20
4564.577276893862
 30
0.0
 40
5.5
100
AcDbArc
 50
0.0
 51
90.0
  0
ARC
  5
15776
330
747D
100
AcDbEntity
  8
細線
100
AcDbCircle
 10
4915.375560876339
 20
4467.577276893861
 30
0.0
 40
6.0
100
AcDbArc
 50
270.0
 51
0.0
  0
LINE
  5
15777
330
747D
100
AcDbEntity
  8
細線
100
AcDbLine
 10
4881.208942407092
 20
4453.077276893862
 30
0.0
 11
4920.375560876339
 21
4453.077276893862
 31
0.0
  0
LINE
  5
15778
330
747D
100
AcDbEntity
  8
細線
100
AcDbLine
 10
4893.375560876338
 20
4467.577276893861
 30
0.0
 11
4894.869984786174
 21
4467.577276893861
 31
0.0
  0
ARC
  5
15779
330
747D
100
AcDbEntity
  8
細線
100
AcDbCircle
 10
4894.869984786174
 20
4470.577276893862
 30
0.0
 40
3.0
100
AcDbArc
 50
270.0
 51
351.9004491617184
  0
LINE
  5
1577A
330
747D
100
AcDbEntity
  8
細線
100
AcDbLine
 10
4893.375560876338
 20
4464.577276893861
 30
0.0
 11
4905.583100055085
 21
4464.577276893861
 31
0.0
  0
ARC
  5
1577B
330
747D
100
AcDbEntity
  8
細線
100
AcDbCircle
 10
4884.756517240816
 20
4467.577276893861
 30
0.0
 40
6.0
100
AcDbArc
 50
188.7879373226349
 51
270.0
  0
ARC
  5
1577C
330
747D
100
AcDbEntity
  8
細線
100
AcDbCircle
 10
4881.208942407092
 20
4458.577276893862
 30
0.0
 40
5.5
100
AcDbArc
 50
190.4214509727298
 51
269.9999999999997
  0
LINE
  5
1577D
330
747D
100
AcDbEntity
  8
細線
100
AcDbLine
 10
4893.375560876338
 20
4467.577784792424
 30
0.0
 11
4879.896856377516
 21
4467.577784792424
 31
0.0
  0
ARC
  5
1577E
330
747D
100
AcDbEntity
  8
細線
100
AcDbCircle
 10
4905.583100055085
 20
4470.577276893862
 30
0.0
 40
6.0
100
AcDbArc
 50
270.0
 51
360.0
  0
LINE
  5
1577F
330
747D
100
AcDbEntity
  8
細線
100
AcDbLine
 10
4884.756517240816
 20
4461.577276893862
 30
0.0
 11
4915.375560876339
 21
4461.577276893862
 31
0.0
  0
ARC
  5
15780
330
747D
100
AcDbEntity
  8
細線
100
AcDbCircle
 10
4920.375560876339
 20
4458.577276893862
 30
0.0
 40
5.5
100
AcDbArc
 50
270.0
 51
0.0
  0
LINE
  5
15781
330
747D
100
AcDbEntity
  8
細線
100
AcDbLine
 10
4911.583100055084
 20
4470.577276893862
 30
0.0
 11
4911.583100055084
 21
4552.577276893862
 31
0.0
  0
LINE
  5
15782
330
747D
100
AcDbEntity
  8
細線
100
AcDbLine
 10
4893.375560876338
 20
4561.577276893863
 30
0.0
 11
4893.375560876338
 21
4461.577276893862
 31
0.0
  0
ARC
  5
15783
330
747D
100
AcDbEntity
  8
細線
100
AcDbCircle
 10
5169.375560876339
 20
4511.577276893862
 30
0.0
 40
298.5
100
AcDbArc
 50
169.578549027269
 51
190.4214509727309
  0
ARC
  5
15784
330
747D
100
AcDbEntity
  8
細線
100
AcDbCircle
 10
5169.375560876339
 20
4511.577276893862
 30
0.0
 40
294.0
100
AcDbArc
 50
171.212062677364
 51
188.7879373226359
  0
ARC
  5
15785
330
747D
100
AcDbEntity
  8
細線
100
AcDbCircle
 10
4606.772778968414
 20
4511.577276893862
 30
0.0
 40
294.0
100
AcDbArc
 50
351.900449161722
 51
8.099550838278029
  0
LINE
  5
15786
330
747D
100
AcDbEntity
  8
細線
100
AcDbLine
 10
4921.375560876338
 20
4467.577276893861
 30
0.0
 11
4921.375560876338
 21
4555.577276893862
 31
0.0
  0
LINE
  5
15787
330
747D
100
AcDbEntity
  8
細線
100
AcDbLine
 10
4925.875560876338
 20
4458.577276893862
 30
0.0
 11
4925.875560876338
 21
4564.577276893862
 31
0.0
  0
LINE
  5
15788
330
747D
100
AcDbEntity
  8
部品1
100
AcDbLine
 10
4921.375560876338
 20
4571.577276893862
 30
0.0
 11
4880.377290985324
 21
4571.577276893862
 31
0.0
  0
ARC
  5
15789
330
747D
100
AcDbEntity
  8
部品1
100
AcDbCircle
 10
4880.377290985324
 20
4565.577276893862
 30
0.0
 40
6.0
100
AcDbArc
 50
90.0
 51
169.4161974034886
  0
ARC
  5
1578A
330
747D
100
AcDbEntity
  8
部品1
100
AcDbCircle
 10
4921.375560876338
 20
4565.577276893862
 30
0.0
 40
6.0
100
AcDbArc
 50
0.0
 51
90.0
  0
ARC
  5
1578B
330
747D
100
AcDbEntity
  8
部品1
100
AcDbCircle
 10
4880.377290985324
 20
4457.577276893863
 30
0.0
 40
6.0
100
AcDbArc
 50
190.5838025965097
 51
270.0
  0
ARC
  5
1578C
330
747D
100
AcDbEntity
  8
部品1
100
AcDbCircle
 10
4921.375560876338
 20
4457.577276893863
 30
0.0
 40
6.0
100
AcDbArc
 50
270.0
 51
0.0
  0
LINE
  5
1578D
330
747D
100
AcDbEntity
  8
部品1
100
AcDbLine
 10
4880.377290985324
 20
4451.577276893862
 30
0.0
 11
4921.375560876338
 21
4451.577276893862
 31
0.0
  0
ARC
  5
1578E
330
747D
100
AcDbEntity
  8
部品1
100
AcDbCircle
 10
5169.375560876339
 20
4511.577276893862
 30
0.0
 40
300.0
100
AcDbArc
 50
169.4161974034894
 51
190.5838025965105
  0
LINE
  5
1578F
330
747D
100
AcDbEntity
  8
部品1
100
AcDbLine
 10
4927.375560876338
 20
4457.577276893863
 30
0.0
 11
4927.375560876338
 21
4565.577276893862
 31
0.0
  0
CIRCLE
  5
157B5
330
747D
100
AcDbEntity
  8
細線
 48
20.0
100
AcDbCircle
 10
4900.876425930831
 20
4612.077276893862
 30
0.0
 40
20.0
  0
CIRCLE
  5
157B6
330
747D
100
AcDbEntity
  8
細線
 48
20.0
100
AcDbCircle
 10
4900.876425930831
 20
4612.077276893862
 30
0.0
 40
10.0
  0
LINE
  5
157E0
330
747D
100
AcDbEntity
  8
部品1
100
AcDbLine
 10
5679.375560876338
 20
5407.077276893859
 30
0.0
 11
6389.313113047657
 21
5407.07727689386
 31
0.0
  0
LINE
  5
157E9
330
747D
100
AcDbEntity
  8
部品1
100
AcDbLine
 10
4814.37556087634
 20
5409.577276893861
 30
0.0
 11
7274.37556087634
 21
5409.577276893861
 31
0.0
  0
LINE
  5
157EE
330
747D
100
AcDbEntity
  8
部品1
100
AcDbLine
 10
4859.375560876339
 20
5407.077276893862
 30
0.0
 11
5569.313113047659
 21
5407.077276893862
 31
0.0
  0
LINE
  5
15808
330
747D
100
AcDbEntity
  8
細線
 48
0.2
100
AcDbLine
 10
5586.997104344166
 20
5408.027276893863
 30
0.0
 11
5575.629121751154
 21
5408.027276893863
 31
0.0
  0
ARC
  5
15809
330
747D
100
AcDbEntity
  8
細線
 48
0.2
100
AcDbCircle
 10
5581.313113047658
 20
5390.527276893865
 30
0.0
 40
18.49999999999796
100
AcDbArc
 50
73.39845040097829
 51
106.6015495990228
  0
ARC
  5
1580A
330
747D
100
AcDbEntity
  8
細線
 48
0.2
100
AcDbCircle
 10
5586.313113047657
 20
5407.29778672511
 30
0.0
 40
1.0
100
AcDbArc
 50
0.0
 51
73.39845040097829
  0
ARC
  5
1580B
330
747D
100
AcDbEntity
  8
細線
 48
0.2
100
AcDbCircle
 10
5576.313113047658
 20
5407.29778672511
 30
0.0
 40
1.0
100
AcDbArc
 50
106.6015495990225
 51
180.0000000000016
  0
LINE
  5
1580C
330
747D
100
AcDbEntity
  8
細線
 48
0.2
100
AcDbLine
 10
5589.313113047658
 20
5404.827276893862
 30
0.0
 11
5569.313113047659
 21
5404.827276893862
 31
0.0
  0
LINE
  5
1580D
330
747D
100
AcDbEntity
  8
細線
 48
0.2
100
AcDbLine
 10
5589.313113047658
 20
5407.327276893862
 30
0.0
 11
5569.313113047659
 21
5407.327276893862
 31
0.0
  0
LINE
  5
1580E
330
747D
100
AcDbEntity
  8
部品1
100
AcDbLine
 10
5589.313113047658
 20
5407.077276893862
 30
0.0
 11
5589.37556087634
 21
5407.07727689386
 31
0.0
  0
LINE
  5
1580F
330
747D
100
AcDbEntity
  8
細線
 48
50.0
100
AcDbLine
 10
5569.313113047658
 20
5407.077276893862
 30
0.0
 11
5569.313113047658
 21
5407.327276893862
 31
0.0
  0
LINE
  5
15810
330
747D
100
AcDbEntity
  8
部品1
 48
0.2
100
AcDbLine
 10
5589.313113047658
 20
5400.327276893862
 30
0.0
 11
5569.313113047658
 21
5400.327276893862
 31
0.0
  0
LINE
  5
15811
330
747D
100
AcDbEntity
  8
細線
 48
0.2
100
AcDbLine
 10
5589.313113047658
 20
5402.827276893862
 30
0.0
 11
5569.313113047659
 21
5402.827276893862
 31
0.0
  0
LINE
  5
15812
330
747D
100
AcDbEntity
  8
細線
 48
50.0
100
AcDbLine
 10
5585.300765899319
 20
5404.827276893862
 30
0.0
 11
5585.300765899319
 21
5402.827276893862
 31
0.0
  0
LINE
  5
15813
330
747D
100
AcDbEntity
  8
細線
 48
50.0
100
AcDbLine
 10
5577.450355853354
 20
5404.827276893862
 30
0.0
 11
5577.450355853355
 21
5402.827276893862
 31
0.0
  0
LINE
  5
15814
330
747D
100
AcDbEntity
  8
細線
 48
0.1
100
AcDbLine
 10
5589.313113047658
 20
5407.327276893862
 30
0.0
 11
5589.313113047658
 21
5400.327276893862
 31
0.0
  0
LINE
  5
15815
330
747D
100
AcDbEntity
  8
部品1
 48
50.0
100
AcDbLine
 10
5569.313113047658
 20
5400.327276893862
 30
0.0
 11
5569.313113047658
 21
5407.077276893862
 31
0.0
  0
LINE
  5
1581A
330
747D
100
AcDbEntity
  8
部品1
100
AcDbLine
 10
6499.375560876339
 20
5407.07727689386
 30
0.0
 11
7209.313113047658
 21
5407.07727689386
 31
0.0
  0
ARC
  5
1581B
330
747D
100
AcDbEntity
  8
細線
 48
0.2
100
AcDbCircle
 10
6406.313113047658
 20
5407.29778672511
 30
0.0
 40
1.0
100
AcDbArc
 50
0.0
 51
73.39845040097829
  0
LINE
  5
1581C
330
747D
100
AcDbEntity
  8
細線
 48
0.2
100
AcDbLine
 10
6409.313113047658
 20
5407.327276893862
 30
0.0
 11
6389.313113047659
 21
5407.327276893862
 31
0.0
  0
LINE
  5
1581D
330
747D
100
AcDbEntity
  8
細線
 48
0.2
100
AcDbLine
 10
6409.313113047658
 20
5404.827276893862
 30
0.0
 11
6389.313113047659
 21
5404.827276893862
 31
0.0
  0
ARC
  5
1581E
330
747D
100
AcDbEntity
  8
細線
 48
0.2
100
AcDbCircle
 10
6396.313113047657
 20
5407.29778672511
 30
0.0
 40
1.0
100
AcDbArc
 50
106.6015495990225
 51
180.0000000000016
  0
ARC
  5
1581F
330
747D
100
AcDbEntity
  8
細線
 48
0.2
100
AcDbCircle
 10
6401.313113047658
 20
5390.527276893865
 30
0.0
 40
18.49999999999796
100
AcDbArc
 50
73.39845040097829
 51
106.6015495990228
  0
LINE
  5
15820
330
747D
100
AcDbEntity
  8
細線
 48
0.2
100
AcDbLine
 10
6406.997104344165
 20
5408.027276893863
 30
0.0
 11
6395.629121751153
 21
5408.027276893863
 31
0.0
  0
LINE
  5
15821
330
747D
100
AcDbEntity
  8
細線
 48
50.0
100
AcDbLine
 10
6389.313113047657
 20
5407.077276893862
 30
0.0
 11
6389.313113047657
 21
5407.327276893862
 31
0.0
  0
LINE
  5
15822
330
747D
100
AcDbEntity
  8
部品1
100
AcDbLine
 10
6409.313113047659
 20
5407.077276893862
 30
0.0
 11
6409.37556087634
 21
5407.07727689386
 31
0.0
  0
LINE
  5
15823
330
747D
100
AcDbEntity
  8
部品1
100
AcDbLine
 10
6409.313113047659
 20
5407.077276893859
 30
0.0
 11
6409.37556087634
 21
5407.07727689386
 31
0.0
  0
LINE
  5
15824
330
747D
100
AcDbEntity
  8
細線
 48
0.2
100
AcDbLine
 10
6409.313113047658
 20
5402.827276893862
 30
0.0
 11
6389.313113047659
 21
5402.827276893862
 31
0.0
  0
LINE
  5
15825
330
747D
100
AcDbEntity
  8
部品1
 48
0.2
100
AcDbLine
 10
6409.313113047658
 20
5400.327276893862
 30
0.0
 11
6389.313113047657
 21
5400.327276893862
 31
0.0
  0
LINE
  5
15826
330
747D
100
AcDbEntity
  8
細線
 48
0.1
100
AcDbLine
 10
6409.313113047658
 20
5407.327276893862
 30
0.0
 11
6409.313113047658
 21
5400.327276893862
 31
0.0
  0
LINE
  5
15827
330
747D
100
AcDbEntity
  8
細線
 48
50.0
100
AcDbLine
 10
6397.450355853354
 20
5404.827276893862
 30
0.0
 11
6397.450355853355
 21
5402.827276893862
 31
0.0
  0
LINE
  5
15828
330
747D
100
AcDbEntity
  8
細線
 48
50.0
100
AcDbLine
 10
6405.300765899318
 20
5404.827276893862
 30
0.0
 11
6405.300765899318
 21
5402.827276893862
 31
0.0
  0
LINE
  5
15829
330
747D
100
AcDbEntity
  8
部品1
 48
50.0
100
AcDbLine
 10
6389.313113047657
 20
5400.327276893862
 30
0.0
 11
6389.313113047657
 21
5407.077276893862
 31
0.0
  0
ARC
  5
15844
330
747D
100
AcDbEntity
  8
細線
 48
0.2
100
AcDbCircle
 10
7226.313113047658
 20
5407.29778672511
 30
0.0
 40
1.0
100
AcDbArc
 50
0.0
 51
73.39845040097829
  0
LINE
  5
15845
330
747D
100
AcDbEntity
  8
細線
 48
0.2
100
AcDbLine
 10
7229.313113047658
 20
5407.327276893862
 30
0.0
 11
7209.313113047659
 21
5407.327276893862
 31
0.0
  0
LINE
  5
15846
330
747D
100
AcDbEntity
  8
細線
 48
0.2
100
AcDbLine
 10
7229.313113047658
 20
5404.827276893862
 30
0.0
 11
7209.313113047659
 21
5404.827276893862
 31
0.0
  0
ARC
  5
15847
330
747D
100
AcDbEntity
  8
細線
 48
0.2
100
AcDbCircle
 10
7216.313113047657
 20
5407.29778672511
 30
0.0
 40
1.0
100
AcDbArc
 50
106.6015495990225
 51
180.0000000000016
  0
ARC
  5
15848
330
747D
100
AcDbEntity
  8
細線
 48
0.2
100
AcDbCircle
 10
7221.313113047658
 20
5390.527276893865
 30
0.0
 40
18.49999999999796
100
AcDbArc
 50
73.39845040097829
 51
106.6015495990228
  0
LINE
  5
15849
330
747D
100
AcDbEntity
  8
細線
 48
0.2
100
AcDbLine
 10
7226.997104344166
 20
5408.027276893863
 30
0.0
 11
7215.629121751153
 21
5408.027276893863
 31
0.0
  0
LINE
  5
1584A
330
747D
100
AcDbEntity
  8
細線
 48
50.0
100
AcDbLine
 10
7209.313113047658
 20
5407.077276893862
 30
0.0
 11
7209.313113047658
 21
5407.327276893862
 31
0.0
  0
LINE
  5
1584B
330
747D
100
AcDbEntity
  8
部品1
100
AcDbLine
 10
7229.313113047658
 20
5407.077276893862
 30
0.0
 11
7229.375560876339
 21
5407.07727689386
 31
0.0
  0
LINE
  5
1584C
330
747D
100
AcDbEntity
  8
部品1
100
AcDbLine
 10
7229.313113047658
 20
5407.077276893859
 30
0.0
 11
7229.375560876339
 21
5407.07727689386
 31
0.0
  0
LINE
  5
1584D
330
747D
100
AcDbEntity
  8
細線
 48
0.2
100
AcDbLine
 10
7229.313113047658
 20
5402.827276893862
 30
0.0
 11
7209.313113047659
 21
5402.827276893862
 31
0.0
  0
LINE
  5
1584E
330
747D
100
AcDbEntity
  8
部品1
 48
0.2
100
AcDbLine
 10
7229.313113047658
 20
5400.327276893862
 30
0.0
 11
7209.313113047658
 21
5400.327276893862
 31
0.0
  0
LINE
  5
1584F
330
747D
100
AcDbEntity
  8
細線
 48
0.1
100
AcDbLine
 10
7229.313113047658
 20
5407.327276893862
 30
0.0
 11
7229.313113047658
 21
5400.327276893862
 31
0.0
  0
LINE
  5
15850
330
747D
100
AcDbEntity
  8
細線
 48
50.0
100
AcDbLine
 10
7217.450355853355
 20
5404.827276893862
 30
0.0
 11
7217.450355853356
 21
5402.827276893862
 31
0.0
  0
LINE
  5
15851
330
747D
100
AcDbEntity
  8
細線
 48
50.0
100
AcDbLine
 10
7225.300765899318
 20
5404.827276893862
 30
0.0
 11
7225.300765899318
 21
5402.827276893862
 31
0.0
  0
LINE
  5
15852
330
747D
100
AcDbEntity
  8
部品1
 48
50.0
100
AcDbLine
 10
7209.313113047658
 20
5400.327276893862
 30
0.0
 11
7209.313113047658
 21
5407.077276893862
 31
0.0
  0
LINE
  5
15BFA
330
747D
100
AcDbEntity
  8
細線
 48
50.0
100
AcDbLine
 10
4983.375560876357
 20
8386.766456979763
 30
0.0
 11
4983.375560876357
 21
8360.766456979716
 31
0.0
  0
LINE
  5
15BFB
330
747D
100
AcDbEntity
  8
細線
 48
50.0
100
AcDbLine
 10
5209.375560876356
 20
8386.766456979753
 30
0.0
 11
5209.375560876356
 21
8360.766456979716
 31
0.0
  0
LINE
  5
15BFC
330
747D
100
AcDbEntity
  8
細線
 48
50.0
100
AcDbLine
 10
5169.375560876357
 20
8386.766456979753
 30
0.0
 11
5169.375560876357
 21
8360.766456979716
 31
0.0
  0
LINE
  5
15BFD
330
747D
100
AcDbEntity
  8
細線
 48
50.0
100
AcDbLine
 10
5396.375560876357
 20
8386.766456979966
 30
0.0
 11
5396.375560876357
 21
8360.766456979929
 31
0.0
  0
LINE
  5
15BFE
330
747D
100
AcDbEntity
  8
細線
 48
50.0
100
AcDbLine
 10
5436.375560876356
 20
8386.766456979966
 30
0.0
 11
5436.375560876356
 21
8360.766456979929
 31
0.0
  0
LINE
  5
15BFF
330
747D
100
AcDbEntity
  8
細線
 48
50.0
100
AcDbLine
 10
5803.375560876357
 20
8386.766456979763
 30
0.0
 11
5803.375560876357
 21
8360.766456979716
 31
0.0
  0
LINE
  5
15C00
330
747D
100
AcDbEntity
  8
細線
 48
50.0
100
AcDbLine
 10
5989.375560876357
 20
8386.766456979753
 30
0.0
 11
5989.375560876357
 21
8360.766456979716
 31
0.0
  0
LINE
  5
15C01
330
747D
100
AcDbEntity
  8
細線
 48
50.0
100
AcDbLine
 10
6029.375560876356
 20
8386.766456979753
 30
0.0
 11
6029.375560876356
 21
8360.766456979716
 31
0.0
  0
LINE
  5
15C02
330
747D
100
AcDbEntity
  8
細線
 48
50.0
100
AcDbLine
 10
6256.375560876357
 20
8386.766456979966
 30
0.0
 11
6256.375560876357
 21
8360.766456979929
 31
0.0
  0
LINE
  5
15C03
330
747D
100
AcDbEntity
  8
細線
 48
50.0
100
AcDbLine
 10
6216.375560876357
 20
8386.766456979966
 30
0.0
 11
6216.375560876357
 21
8360.766456979929
 31
0.0
  0
LINE
  5
15C10
330
747D
100
AcDbEntity
  8
細線
 48
50.0
100
AcDbLine
 10
6623.375560876358
 20
8386.766456979763
 30
0.0
 11
6623.375560876358
 21
8360.766456979716
 31
0.0
  0
LINE
  5
15C11
330
747D
100
AcDbEntity
  8
細線
 48
50.0
100
AcDbLine
 10
6809.375560876357
 20
8386.766456979753
 30
0.0
 11
6809.375560876357
 21
8360.766456979716
 31
0.0
  0
LINE
  5
15C12
330
747D
100
AcDbEntity
  8
細線
 48
50.0
100
AcDbLine
 10
6849.375560876357
 20
8386.766456979753
 30
0.0
 11
6849.375560876357
 21
8360.766456979716
 31
0.0
  0
LINE
  5
15C13
330
747D
100
AcDbEntity
  8
細線
 48
50.0
100
AcDbLine
 10
7076.375560876357
 20
8386.766456979966
 30
0.0
 11
7076.375560876357
 21
8360.766456979929
 31
0.0
  0
LINE
  5
15C14
330
747D
100
AcDbEntity
  8
細線
 48
50.0
100
AcDbLine
 10
7036.375560876357
 20
8386.766456979966
 30
0.0
 11
7036.375560876357
 21
8360.766456979929
 31
0.0
  0
LINE
  5
15C21
330
747D
100
AcDbEntity
  8
細線
 48
50.0
100
AcDbLine
 10
5254.375560876329
 20
9289.266456979728
 30
0.0
 11
5254.375560876327
 21
9310.766456979729
 31
0.0
  0
LINE
  5
15C22
330
747D
100
AcDbEntity
  8
細線
 48
50.0
100
AcDbLine
 10
5194.37556087633
 20
9289.266456979722
 30
0.0
 11
5194.375560876327
 21
9310.766456979722
 31
0.0
  0
LINE
  5
15C23
330
747D
100
AcDbEntity
  8
細線
 48
50.0
100
AcDbLine
 10
5254.375560876329
 20
9289.266456979728
 30
0.0
 11
5194.375560876329
 21
9289.266456979722
 31
0.0
  0
LINE
  5
15C24
330
747D
100
AcDbEntity
  8
細線
 48
50.0
100
AcDbLine
 10
6014.375560876329
 20
9289.266456979806
 30
0.0
 11
6014.375560876327
 21
9310.766456979804
 31
0.0
  0
LINE
  5
15C25
330
747D
100
AcDbEntity
  8
細線
 48
50.0
100
AcDbLine
 10
6074.37556087633
 20
9289.266456979808
 30
0.0
 11
6074.375560876326
 21
9310.766456979809
 31
0.0
  0
LINE
  5
15C26
330
747D
100
AcDbEntity
  8
細線
 48
50.0
100
AcDbLine
 10
6074.37556087633
 20
9289.266456979808
 30
0.0
 11
6014.375560876328
 21
9289.266456979804
 31
0.0
  0
LINE
  5
15C29
330
747D
100
AcDbEntity
  8
細線
 48
50.0
100
AcDbLine
 10
6834.37556087633
 20
9289.266456979806
 30
0.0
 11
6834.375560876328
 21
9310.766456979804
 31
0.0
  0
LINE
  5
15C2A
330
747D
100
AcDbEntity
  8
細線
 48
50.0
100
AcDbLine
 10
6894.37556087633
 20
9289.266456979808
 30
0.0
 11
6894.375560876326
 21
9310.766456979809
 31
0.0
  0
LINE
  5
15C2B
330
747D
100
AcDbEntity
  8
細線
 48
50.0
100
AcDbLine
 10
6894.37556087633
 20
9289.266456979808
 30
0.0
 11
6834.375560876329
 21
9289.266456979804
 31
0.0
  0
LINE
  5
15C75
330
747D
100
AcDbEntity
  8
細線
100
AcDbLine
 10
5731.583100055084
 20
4470.577276893862
 30
0.0
 11
5731.583100055084
 21
4552.577276893862
 31
0.0
  0
LINE
  5
15C76
330
747D
100
AcDbEntity
  8
細線
100
AcDbLine
 10
5713.375560876339
 20
4561.577276893863
 30
0.0
 11
5713.375560876339
 21
4461.577276893862
 31
0.0
  0
ARC
  5
15C77
330
747D
100
AcDbEntity
  8
細線
100
AcDbCircle
 10
5989.375560876339
 20
4511.577276893862
 30
0.0
 40
298.5
100
AcDbArc
 50
169.578549027269
 51
190.4214509727309
  0
ARC
  5
15C78
330
747D
100
AcDbEntity
  8
細線
100
AcDbCircle
 10
5989.375560876339
 20
4511.577276893862
 30
0.0
 40
294.0
100
AcDbArc
 50
171.212062677364
 51
188.7879373226359
  0
ARC
  5
15C79
330
747D
100
AcDbEntity
  8
細線
100
AcDbCircle
 10
5426.772778968414
 20
4511.577276893862
 30
0.0
 40
294.0
100
AcDbArc
 50
351.900449161722
 51
8.099550838278029
  0
LINE
  5
15C7A
330
747D
100
AcDbEntity
  8
細線
100
AcDbLine
 10
5741.375560876338
 20
4467.577276893861
 30
0.0
 11
5741.375560876338
 21
4555.577276893862
 31
0.0
  0
LINE
  5
15C7B
330
747D
100
AcDbEntity
  8
細線
100
AcDbLine
 10
5745.875560876338
 20
4458.577276893862
 30
0.0
 11
5745.875560876338
 21
4564.577276893862
 31
0.0
  0
ARC
  5
15C7C
330
747D
100
AcDbEntity
  8
部品1
100
AcDbCircle
 10
5989.375560876339
 20
4511.577276893862
 30
0.0
 40
300.0
100
AcDbArc
 50
169.4161974034894
 51
190.5838025965105
  0
LINE
  5
15C7D
330
747D
100
AcDbEntity
  8
部品1
100
AcDbLine
 10
5747.375560876339
 20
4457.577276893863
 30
0.0
 11
5747.375560876339
 21
4565.577276893862
 31
0.0
  0
ARC
  5
15C7E
330
747D
100
AcDbEntity
  8
細線
100
AcDbCircle
 10
5735.375560876338
 20
4467.577276893861
 30
0.0
 40
6.0
100
AcDbArc
 50
270.0
 51
0.0
  0
LINE
  5
15C7F
330
747D
100
AcDbEntity
  8
細線
100
AcDbLine
 10
5701.208942407093
 20
4453.077276893862
 30
0.0
 11
5740.375560876339
 21
4453.077276893862
 31
0.0
  0
LINE
  5
15C80
330
747D
100
AcDbEntity
  8
細線
100
AcDbLine
 10
5713.375560876339
 20
4467.577276893861
 30
0.0
 11
5714.869984786173
 21
4467.577276893861
 31
0.0
  0
ARC
  5
15C81
330
747D
100
AcDbEntity
  8
細線
100
AcDbCircle
 10
5714.869984786173
 20
4470.577276893862
 30
0.0
 40
3.0
100
AcDbArc
 50
270.0
 51
351.9004491617184
  0
LINE
  5
15C82
330
747D
100
AcDbEntity
  8
細線
100
AcDbLine
 10
5713.375560876339
 20
4464.577276893861
 30
0.0
 11
5725.583100055084
 21
4464.577276893861
 31
0.0
  0
ARC
  5
15C83
330
747D
100
AcDbEntity
  8
細線
100
AcDbCircle
 10
5704.756517240816
 20
4467.577276893861
 30
0.0
 40
6.0
100
AcDbArc
 50
188.7879373226349
 51
270.0
  0
ARC
  5
15C84
330
747D
100
AcDbEntity
  8
細線
100
AcDbCircle
 10
5701.208942407093
 20
4458.577276893862
 30
0.0
 40
5.5
100
AcDbArc
 50
190.4214509727298
 51
269.9999999999997
  0
LINE
  5
15C85
330
747D
100
AcDbEntity
  8
細線
100
AcDbLine
 10
5713.375560876339
 20
4467.577784792426
 30
0.0
 11
5699.896856377517
 21
4467.577784792426
 31
0.0
  0
ARC
  5
15C86
330
747D
100
AcDbEntity
  8
細線
100
AcDbCircle
 10
5725.583100055084
 20
4470.577276893862
 30
0.0
 40
6.0
100
AcDbArc
 50
270.0
 51
360.0
  0
LINE
  5
15C87
330
747D
100
AcDbEntity
  8
細線
100
AcDbLine
 10
5704.756517240816
 20
4461.577276893862
 30
0.0
 11
5735.375560876338
 21
4461.577276893862
 31
0.0
  0
ARC
  5
15C88
330
747D
100
AcDbEntity
  8
細線
100
AcDbCircle
 10
5740.375560876339
 20
4458.577276893862
 30
0.0
 40
5.5
100
AcDbArc
 50
270.0
 51
0.0
  0
ARC
  5
15C89
330
747D
100
AcDbEntity
  8
部品1
100
AcDbCircle
 10
5700.377290985323
 20
4457.577276893863
 30
0.0
 40
6.0
100
AcDbArc
 50
190.5838025965097
 51
270.0
  0
ARC
  5
15C8A
330
747D
100
AcDbEntity
  8
部品1
100
AcDbCircle
 10
5741.375560876338
 20
4457.577276893863
 30
0.0
 40
6.0
100
AcDbArc
 50
270.0
 51
0.0
  0
LINE
  5
15C8B
330
747D
100
AcDbEntity
  8
部品1
100
AcDbLine
 10
5700.377290985323
 20
4451.577276893862
 30
0.0
 11
5741.375560876338
 21
4451.577276893862
 31
0.0
  0
ARC
  5
15C8C
330
747D
100
AcDbEntity
  8
細線
100
AcDbCircle
 10
5735.375560876338
 20
4555.577276893862
 30
0.0
 40
6.0
100
AcDbArc
 50
0.0
 51
90.0
  0
LINE
  5
15C8D
330
747D
100
AcDbEntity
  8
細線
100
AcDbLine
 10
5740.375560876339
 20
4570.077276893862
 30
0.0
 11
5701.208942407093
 21
4570.077276893862
 31
0.0
  0
LINE
  5
15C8E
330
747D
100
AcDbEntity
  8
細線
100
AcDbLine
 10
5714.869984786172
 20
4555.577276893862
 30
0.0
 11
5713.375560876339
 21
4555.577276893862
 31
0.0
  0
ARC
  5
15C8F
330
747D
100
AcDbEntity
  8
細線
100
AcDbCircle
 10
5714.869984786172
 20
4552.577276893862
 30
0.0
 40
3.0
100
AcDbArc
 50
8.099550838277986
 51
90.0
  0
LINE
  5
15C90
330
747D
100
AcDbEntity
  8
細線
100
AcDbLine
 10
5725.583100055084
 20
4558.577276893863
 30
0.0
 11
5713.375560876339
 21
4558.577276893863
 31
0.0
  0
ARC
  5
15C91
330
747D
100
AcDbEntity
  8
細線
100
AcDbCircle
 10
5704.756517240816
 20
4555.577276893862
 30
0.0
 40
6.0
100
AcDbArc
 50
90.0
 51
171.2120626773636
  0
LINE
  5
15C92
330
747D
100
AcDbEntity
  8
細線
100
AcDbLine
 10
5713.375560876339
 20
4555.576768995299
 30
0.0
 11
5700.612233660371
 21
4555.576768995299
 31
0.0
  0
ARC
  5
15C93
330
747D
100
AcDbEntity
  8
細線
100
AcDbCircle
 10
5701.208942407093
 20
4564.577276893862
 30
0.0
 40
5.5
100
AcDbArc
 50
89.99999999999969
 51
169.5785490272683
  0
ARC
  5
15C94
330
747D
100
AcDbEntity
  8
細線
100
AcDbCircle
 10
5725.583100055084
 20
4552.577276893862
 30
0.0
 40
6.0
100
AcDbArc
 50
0.0
 51
90.0
  0
LINE
  5
15C95
330
747D
100
AcDbEntity
  8
細線
100
AcDbLine
 10
5735.375560876338
 20
4561.577276893863
 30
0.0
 11
5704.756517240816
 21
4561.577276893863
 31
0.0
  0
ARC
  5
15C96
330
747D
100
AcDbEntity
  8
細線
100
AcDbCircle
 10
5740.375560876339
 20
4564.577276893862
 30
0.0
 40
5.5
100
AcDbArc
 50
0.0
 51
90.0
  0
LINE
  5
15C97
330
747D
100
AcDbEntity
  8
部品1
100
AcDbLine
 10
5741.375560876338
 20
4571.577276893862
 30
0.0
 11
5700.377290985323
 21
4571.577276893862
 31
0.0
  0
ARC
  5
15C98
330
747D
100
AcDbEntity
  8
部品1
100
AcDbCircle
 10
5700.377290985323
 20
4565.577276893862
 30
0.0
 40
6.0
100
AcDbArc
 50
90.0
 51
169.4161974034886
  0
ARC
  5
15C99
330
747D
100
AcDbEntity
  8
部品1
100
AcDbCircle
 10
5741.375560876338
 20
4565.577276893862
 30
0.0
 40
6.0
100
AcDbArc
 50
0.0
 51
90.0
  0
CIRCLE
  5
15C9A
330
747D
100
AcDbEntity
  8
細線
 48
20.0
100
AcDbCircle
 10
5720.876425930831
 20
4612.077276893862
 30
0.0
 40
20.0
  0
CIRCLE
  5
15C9B
330
747D
100
AcDbEntity
  8
細線
 48
20.0
100
AcDbCircle
 10
5720.876425930831
 20
4612.077276893862
 30
0.0
 40
10.0
  0
LINE
  5
15C9C
330
747D
100
AcDbEntity
  8
部品1
100
AcDbLine
 10
6567.375560876339
 20
4457.577276893863
 30
0.0
 11
6567.375560876339
 21
4565.577276893862
 31
0.0
  0
ARC
  5
15C9D
330
747D
100
AcDbEntity
  8
部品1
100
AcDbCircle
 10
6809.375560876339
 20
4511.577276893862
 30
0.0
 40
300.0
100
AcDbArc
 50
169.4161974034894
 51
190.5838025965105
  0
LINE
  5
15C9E
330
747D
100
AcDbEntity
  8
細線
100
AcDbLine
 10
6565.875560876339
 20
4458.577276893862
 30
0.0
 11
6565.875560876339
 21
4564.577276893862
 31
0.0
  0
LINE
  5
15C9F
330
747D
100
AcDbEntity
  8
細線
100
AcDbLine
 10
6561.375560876339
 20
4467.577276893861
 30
0.0
 11
6561.375560876339
 21
4555.577276893862
 31
0.0
  0
ARC
  5
15CA0
330
747D
100
AcDbEntity
  8
細線
100
AcDbCircle
 10
6246.772778968414
 20
4511.577276893862
 30
0.0
 40
294.0
100
AcDbArc
 50
351.900449161722
 51
8.099550838278029
  0
ARC
  5
15CA1
330
747D
100
AcDbEntity
  8
細線
100
AcDbCircle
 10
6809.375560876339
 20
4511.577276893862
 30
0.0
 40
294.0
100
AcDbArc
 50
171.212062677364
 51
188.7879373226359
  0
ARC
  5
15CA2
330
747D
100
AcDbEntity
  8
細線
100
AcDbCircle
 10
6809.375560876339
 20
4511.577276893862
 30
0.0
 40
298.5
100
AcDbArc
 50
169.578549027269
 51
190.4214509727309
  0
LINE
  5
15CA3
330
747D
100
AcDbEntity
  8
細線
100
AcDbLine
 10
6533.375560876338
 20
4561.577276893863
 30
0.0
 11
6533.375560876338
 21
4461.577276893862
 31
0.0
  0
LINE
  5
15CA4
330
747D
100
AcDbEntity
  8
細線
100
AcDbLine
 10
6551.583100055085
 20
4470.577276893862
 30
0.0
 11
6551.583100055085
 21
4552.577276893862
 31
0.0
  0
LINE
  5
15CA5
330
747D
100
AcDbEntity
  8
部品1
100
AcDbLine
 10
6520.377290985322
 20
4451.577276893862
 30
0.0
 11
6561.375560876339
 21
4451.577276893862
 31
0.0
  0
ARC
  5
15CA6
330
747D
100
AcDbEntity
  8
部品1
100
AcDbCircle
 10
6561.375560876339
 20
4457.577276893863
 30
0.0
 40
6.0
100
AcDbArc
 50
270.0
 51
0.0
  0
ARC
  5
15CA7
330
747D
100
AcDbEntity
  8
部品1
100
AcDbCircle
 10
6520.377290985322
 20
4457.577276893863
 30
0.0
 40
6.0
100
AcDbArc
 50
190.5838025965097
 51
270.0
  0
ARC
  5
15CA8
330
747D
100
AcDbEntity
  8
細線
100
AcDbCircle
 10
6560.375560876339
 20
4458.577276893862
 30
0.0
 40
5.5
100
AcDbArc
 50
270.0
 51
0.0
  0
LINE
  5
15CA9
330
747D
100
AcDbEntity
  8
細線
100
AcDbLine
 10
6524.756517240816
 20
4461.577276893862
 30
0.0
 11
6555.375560876338
 21
4461.577276893862
 31
0.0
  0
ARC
  5
15CAA
330
747D
100
AcDbEntity
  8
細線
100
AcDbCircle
 10
6545.583100055084
 20
4470.577276893862
 30
0.0
 40
6.0
100
AcDbArc
 50
270.0
 51
360.0
  0
LINE
  5
15CAB
330
747D
100
AcDbEntity
  8
細線
100
AcDbLine
 10
6533.375560876338
 20
4467.577784792426
 30
0.0
 11
6519.896856377517
 21
4467.577784792426
 31
0.0
  0
ARC
  5
15CAC
330
747D
100
AcDbEntity
  8
細線
100
AcDbCircle
 10
6521.208942407092
 20
4458.577276893862
 30
0.0
 40
5.5
100
AcDbArc
 50
190.4214509727298
 51
269.9999999999997
  0
ARC
  5
15CAD
330
747D
100
AcDbEntity
  8
細線
100
AcDbCircle
 10
6524.756517240816
 20
4467.577276893861
 30
0.0
 40
6.0
100
AcDbArc
 50
188.7879373226349
 51
270.0
  0
LINE
  5
15CAE
330
747D
100
AcDbEntity
  8
細線
100
AcDbLine
 10
6533.375560876338
 20
4464.577276893861
 30
0.0
 11
6545.583100055084
 21
4464.577276893861
 31
0.0
  0
ARC
  5
15CAF
330
747D
100
AcDbEntity
  8
細線
100
AcDbCircle
 10
6534.869984786173
 20
4470.577276893862
 30
0.0
 40
3.0
100
AcDbArc
 50
270.0
 51
351.9004491617184
  0
LINE
  5
15CB0
330
747D
100
AcDbEntity
  8
細線
100
AcDbLine
 10
6533.375560876338
 20
4467.577276893861
 30
0.0
 11
6534.869984786173
 21
4467.577276893861
 31
0.0
  0
LINE
  5
15CB1
330
747D
100
AcDbEntity
  8
細線
100
AcDbLine
 10
6521.208942407092
 20
4453.077276893862
 30
0.0
 11
6560.375560876339
 21
4453.077276893862
 31
0.0
  0
ARC
  5
15CB2
330
747D
100
AcDbEntity
  8
細線
100
AcDbCircle
 10
6555.375560876338
 20
4467.577276893861
 30
0.0
 40
6.0
100
AcDbArc
 50
270.0
 51
0.0
  0
CIRCLE
  5
15CB3
330
747D
100
AcDbEntity
  8
細線
 48
20.0
100
AcDbCircle
 10
6540.876425930831
 20
4612.077276893862
 30
0.0
 40
10.0
  0
CIRCLE
  5
15CB4
330
747D
100
AcDbEntity
  8
細線
 48
20.0
100
AcDbCircle
 10
6540.876425930831
 20
4612.077276893862
 30
0.0
 40
20.0
  0
ARC
  5
15CB5
330
747D
100
AcDbEntity
  8
部品1
100
AcDbCircle
 10
6561.375560876339
 20
4565.577276893862
 30
0.0
 40
6.0
100
AcDbArc
 50
0.0
 51
90.0
  0
ARC
  5
15CB6
330
747D
100
AcDbEntity
  8
部品1
100
AcDbCircle
 10
6520.377290985322
 20
4565.577276893862
 30
0.0
 40
6.0
100
AcDbArc
 50
90.0
 51
169.4161974034886
  0
LINE
  5
15CB7
330
747D
100
AcDbEntity
  8
部品1
100
AcDbLine
 10
6561.375560876339
 20
4571.577276893862
 30
0.0
 11
6520.377290985322
 21
4571.577276893862
 31
0.0
  0
ARC
  5
15CB8
330
747D
100
AcDbEntity
  8
細線
100
AcDbCircle
 10
6560.375560876339
 20
4564.577276893862
 30
0.0
 40
5.5
100
AcDbArc
 50
0.0
 51
90.0
  0
LINE
  5
15CB9
330
747D
100
AcDbEntity
  8
細線
100
AcDbLine
 10
6555.375560876338
 20
4561.577276893863
 30
0.0
 11
6524.756517240816
 21
4561.577276893863
 31
0.0
  0
ARC
  5
15CBA
330
747D
100
AcDbEntity
  8
細線
100
AcDbCircle
 10
6545.583100055084
 20
4552.577276893862
 30
0.0
 40
6.0
100
AcDbArc
 50
0.0
 51
90.0
  0
ARC
  5
15CBB
330
747D
100
AcDbEntity
  8
細線
100
AcDbCircle
 10
6521.208942407092
 20
4564.577276893862
 30
0.0
 40
5.5
100
AcDbArc
 50
89.99999999999969
 51
169.5785490272683
  0
LINE
  5
15CBC
330
747D
100
AcDbEntity
  8
細線
100
AcDbLine
 10
6533.375560876338
 20
4555.576768995299
 30
0.0
 11
6520.612233660371
 21
4555.576768995299
 31
0.0
  0
ARC
  5
15CBD
330
747D
100
AcDbEntity
  8
細線
100
AcDbCircle
 10
6524.756517240816
 20
4555.577276893862
 30
0.0
 40
6.0
100
AcDbArc
 50
90.0
 51
171.2120626773636
  0
LINE
  5
15CBE
330
747D
100
AcDbEntity
  8
細線
100
AcDbLine
 10
6545.583100055084
 20
4558.577276893863
 30
0.0
 11
6533.375560876338
 21
4558.577276893863
 31
0.0
  0
ARC
  5
15CBF
330
747D
100
AcDbEntity
  8
細線
100
AcDbCircle
 10
6534.869984786173
 20
4552.577276893862
 30
0.0
 40
3.0
100
AcDbArc
 50
8.099550838277986
 51
90.0
  0
LINE
  5
15CC0
330
747D
100
AcDbEntity
  8
細線
100
AcDbLine
 10
6534.869984786173
 20
4555.577276893862
 30
0.0
 11
6533.375560876338
 21
4555.577276893862
 31
0.0
  0
LINE
  5
15CC1
330
747D
100
AcDbEntity
  8
細線
100
AcDbLine
 10
6560.375560876339
 20
4570.077276893862
 30
0.0
 11
6521.208942407092
 21
4570.077276893862
 31
0.0
  0
ARC
  5
15CC2
330
747D
100
AcDbEntity
  8
細線
100
AcDbCircle
 10
6555.375560876338
 20
4555.577276893862
 30
0.0
 40
6.0
100
AcDbArc
 50
0.0
 51
90.0
  0
DIMENSION
  5
15CD9
330
747D
100
AcDbEntity
  8
寸法
 48
50.0
100
AcDbDimension
  2
*D17
 10
6374.375560876355
 20
7920.942789184611
 30
0.0
 11
6031.875560876359
 21
7920.942789184611
 31
0.0
 70
   160
 71
     5
 42
684.9999999999954
  3
INABA_S40G
100
AcDbAlignedDimension
 13
5689.37556087636
 23
8360.766456979687
 33
0.0
 14
6374.375560876355
 24
8360.766456979652
 34
0.0
100
AcDbRotatedDimension
  0
DIMENSION
  5
15CF1
330
747D
100
AcDbEntity
  8
寸法
 48
50.0
100
AcDbDimension
  2
*D18
 10
5554.375560876356
 20
7920.942789184611
 30
0.0
 11
5211.875560876358
 21
7920.942789184611
 31
0.0
 70
   160
 71
     5
 42
684.9999999999954
  3
INABA_S40G
100
AcDbAlignedDimension
 13
4869.37556087636
 23
8360.766456979687
 33
0.0
 14
5554.375560876356
 24
8360.766456979652
 34
0.0
100
AcDbRotatedDimension
  0
DIMENSION
  5
15D24
330
747D
100
AcDbEntity
  8
寸法
100
AcDbDimension
  2
*D19
 10
6366.18206458233
 20
8612.219346736758
 30
0.0
 11
6043.222622994565
 21
8612.219346736758
 31
0.0
 70
   160
 71
     5
 42
761.0000000000118
  3
INABA_S40G
100
AcDbAlignedDimension
 13
5663.875560876295
 23
8831.266456979742
 33
0.0
 14
6424.875560876308
 24
8831.266456979738
 34
0.0
100
AcDbRotatedDimension
1001
ACAD
1000
DSTYLE
1002
{
1002
}
  0
DIMENSION
  5
15D31
330
747D
100
AcDbEntity
  8
寸法
100
AcDbDimension
  2
*D20
 10
5546.18206458233
 20
8612.219346736758
 30
0.0
 11
5223.222622994565
 21
8612.219346736758
 31
0.0
 70
   160
 71
     5
 42
761.0000000000118
  3
INABA_S40G
100
AcDbAlignedDimension
 13
4843.875560876296
 23
8831.266456979742
 33
0.0
 14
5604.875560876308
 24
8831.266456979738
 34
0.0
100
AcDbRotatedDimension
1001
ACAD
1000
DSTYLE
1002
{
1002
}
  0
TEXT
  5
160B7
330
747D
100
AcDbEntity
  8
文字
 62
     7
 48
50.0
100
AcDbText
 10
13583.11819016569
 20
9910.01374588373
 30
0.0
 40
100.0
  1
梁中央
 41
0.9
  7
STYLE1
100
AcDbText
  0
TEXT
  5
160B8
330
747D
100
AcDbEntity
  8
文字
 62
     7
 48
50.0
100
AcDbText
 10
15022.63965474516
 20
9910.01374588373
 30
0.0
 40
100.0
  1
F12,Y10       0.7+1.0
  7
STYLE1
100
AcDbText
  0
TEXT
  5
160B9
330
747D
100
AcDbEntity
  8
文字
 62
     7
 48
50.0
100
AcDbText
 10
13583.11819016568
 20
9060.013745883729
 30
0.0
 40
100.0
  1
アンカープレート
  7
STYLE1
100
AcDbText
  0
TEXT
  5
160BA
330
747D
100
AcDbEntity
  8
文字
 62
     7
 48
50.0
100
AcDbText
 10
15022.63965474514
 20
9060.013745883722
 30
0.0
 40
100.0
  1
F12            2.3
  7
STYLE1
100
AcDbText
  0
LINE
  5
160BB
330
747D
100
AcDbEntity
  8
仕様書枠
 48
50.0
100
AcDbLine
 10
16307.19999999999
 20
10049.6
 30
0.0
 11
13127.19999999999
 21
10049.6
 31
0.0
  0
LINE
  5
160BC
330
747D
100
AcDbEntity
  8
仕様書枠
 48
50.0
100
AcDbLine
 10
16307.19999999999
 20
11409.6
 30
0.0
 11
13127.2
 21
11409.6
 31
0.0
  0
LINE
  5
160BD
330
747D
100
AcDbEntity
  8
仕様書枠
 48
50.0
100
AcDbLine
 10
16307.19999999999
 20
8349.600000000007
 30
0.0
 11
16307.2
 21
11409.6
 31
0.0
  0
LINE
  5
160BE
330
747D
100
AcDbEntity
  8
仕様書枠
 48
50.0
100
AcDbLine
 10
14785.2
 20
11409.59999999999
 30
0.0
 11
14785.19999999999
 21
8859.6
 31
0.0
  0
LINE
  5
160BF
330
747D
100
AcDbEntity
  8
仕様書枠
 48
50.0
100
AcDbLine
 10
13490.2
 20
11409.6
 30
0.0
 11
13490.20000000001
 21
8859.6
 31
0.0
  0
LINE
  5
160C0
330
747D
100
AcDbEntity
  8
仕様書枠
 48
50.0
100
AcDbLine
 10
16307.19999999999
 20
11239.6
 30
0.0
 11
13127.2
 21
11239.6
 31
0.0
  0
LINE
  5
160C1
330
747D
100
AcDbEntity
  8
仕様書枠
 48
50.0
100
AcDbLine
 10
16307.19999999999
 20
10899.6
 30
0.0
 11
13127.2
 21
10899.6
 31
0.0
  0
LINE
  5
160C2
330
747D
100
AcDbEntity
  8
仕様書枠
 48
50.0
100
AcDbLine
 10
16307.19999999999
 20
11069.6
 30
0.0
 11
13127.2
 21
11069.6
 31
0.0
  0
LINE
  5
160C3
330
747D
100
AcDbEntity
  8
仕様書枠
 48
50.0
100
AcDbLine
 10
16307.19999999999
 20
10559.6
 30
0.0
 11
13127.19999999999
 21
10559.6
 31
0.0
  0
LINE
  5
160C4
330
747D
100
AcDbEntity
  8
仕様書枠
 48
50.0
100
AcDbLine
 10
16307.19999999999
 20
10389.6
 30
0.0
 11
13127.19999999999
 21
10389.6
 31
0.0
  0
LINE
  5
160C5
330
747D
100
AcDbEntity
  8
仕様書枠
 48
50.0
100
AcDbLine
 10
16307.19999999999
 20
10729.6
 30
0.0
 11
13127.19999999999
 21
10729.6
 31
0.0
  0
TEXT
  5
160C6
330
747D
100
AcDbEntity
  8
文字
 62
     7
 48
50.0
100
AcDbText
 10
13197.42518560407
 20
11270.01374588373
 30
0.0
 40
100.0
  1
品番
  7
STYLE1
100
AcDbText
  0
TEXT
  5
160C7
330
747D
100
AcDbEntity
  8
文字
 62
     7
 48
50.0
100
AcDbText
 10
13271.19032244792
 20
11100.01374588373
 30
0.0
 40
100.0
  1
1
  7
STYLE1
100
AcDbText
  0
TEXT
  5
160C8
330
747D
100
AcDbEntity
  8
文字
 62
     7
 48
50.0
100
AcDbText
 10
13271.19032244792
 20
10930.01374588373
 30
0.0
 40
100.0
  1
2
  7
STYLE1
100
AcDbText
  0
TEXT
  5
160C9
330
747D
100
AcDbEntity
  8
文字
 62
     7
 48
50.0
100
AcDbText
 10
13271.19032244792
 20
10590.01374588373
 30
0.0
 40
100.0
  1
4
  7
STYLE1
100
AcDbText
  0
TEXT
  5
160CA
330
747D
100
AcDbEntity
  8
文字
 62
     7
 48
50.0
100
AcDbText
 10
13271.19032244792
 20
10760.01374588373
 30
0.0
 40
100.0
  1
3
  7
STYLE1
100
AcDbText
  0
TEXT
  5
160CB
330
747D
100
AcDbEntity
  8
文字
 62
     7
 48
50.0
100
AcDbText
 10
13732.03840939434
 20
11270.01374588373
 30
0.0
 40
100.0
  1
部　　品　　名
  7
STYLE1
100
AcDbText
  0
TEXT
  5
160CC
330
747D
100
AcDbEntity
  8
文字
 62
     7
 48
50.0
100
AcDbText
 10
14859.79774614482
 20
11270.01374588373
 30
0.0
 40
100.0
  1
材料（材質）　　単位mm
  7
STYLE1
100
AcDbText
  0
TEXT
  5
160CD
330
747D
100
AcDbEntity
  8
文字
 62
     7
 48
50.0
100
AcDbText
 10
13583.11819016569
 20
11100.01374588373
 30
0.0
 40
100.0
  1
土台枠
  7
STYLE1
100
AcDbText
  0
TEXT
  5
160CE
330
747D
100
AcDbEntity
  8
文字
 62
     7
 48
50.0
100
AcDbText
 10
13583.1181901657
 20
10930.01374588373
 30
0.0
 40
100.0
  1
柱
  7
STYLE1
100
AcDbText
  0
TEXT
  5
160CF
330
747D
100
AcDbEntity
  8
文字
 62
     7
 48
50.0
100
AcDbText
 10
13583.11819016569
 20
10590.01374588373
 30
0.0
 40
100.0
  1
鴨居
  7
STYLE1
100
AcDbText
  0
TEXT
  5
160D0
330
747D
100
AcDbEntity
  8
文字
 62
     7
 48
50.0
100
AcDbText
 10
13583.11819016569
 20
10420.01374588373
 30
0.0
 40
100.0
  1
桁後
  7
STYLE1
100
AcDbText
  0
TEXT
  5
160D1
330
747D
100
AcDbEntity
  8
文字
 62
     7
 48
50.0
100
AcDbText
 10
13271.19032244792
 20
10420.01374588373
 30
0.0
 40
100.0
  1
5
  7
STYLE1
100
AcDbText
  0
TEXT
  5
160D2
330
747D
100
AcDbEntity
  8
文字
 62
     7
 48
50.0
100
AcDbText
 10
13583.11819016569
 20
10250.01374588373
 30
0.0
 40
100.0
  1
妻板左右
  7
STYLE1
100
AcDbText
  0
TEXT
  5
160D3
330
747D
100
AcDbEntity
  8
文字
 62
     7
 48
50.0
100
AcDbText
 10
13248.77747366447
 20
9570.013745883729
 30
0.0
 40
100.0
  1
10
  7
STYLE1
100
AcDbText
  0
TEXT
  5
160D4
330
747D
100
AcDbEntity
  8
文字
 62
     7
 48
50.0
100
AcDbText
 10
13583.11819016568
 20
9570.013745883729
 30
0.0
 40
100.0
  1
壁パネル
  7
STYLE1
100
AcDbText
  0
TEXT
  5
160D5
330
747D
100
AcDbEntity
  8
文字
 62
     7
 48
50.0
100
AcDbText
 10
13583.11819016569
 20
9740.013745883729
 30
0.0
 40
100.0
  1
屋根パネル
  7
STYLE1
100
AcDbText
  0
TEXT
  5
160D6
330
747D
100
AcDbEntity
  8
文字
 62
     7
 48
50.0
100
AcDbText
 10
13583.11819016569
 20
10080.01374588373
 30
0.0
 40
100.0
  1
鼻隠シ前後
  7
STYLE1
100
AcDbText
  0
TEXT
  5
160D7
330
747D
100
AcDbEntity
  8
文字
 62
     7
 48
50.0
100
AcDbText
 10
13271.19032244792
 20
9910.01374588373
 30
0.0
 40
100.0
  1
8
  7
STYLE1
100
AcDbText
  0
TEXT
  5
160D8
330
747D
100
AcDbEntity
  8
文字
 62
     7
 48
50.0
100
AcDbText
 10
13271.19032244792
 20
9740.013745883729
 30
0.0
 40
100.0
  1
9
  7
STYLE1
100
AcDbText
  0
TEXT
  5
160D9
330
747D
100
AcDbEntity
  8
文字
 62
     7
 48
50.0
100
AcDbText
 10
13271.19032244792
 20
10080.01374588373
 30
0.0
 40
100.0
  1
7
  7
STYLE1
100
AcDbText
  0
TEXT
  5
160DA
330
747D
100
AcDbEntity
  8
文字
 62
     7
 48
50.0
100
AcDbText
 10
13271.19032244792
 20
10250.01374588373
 30
0.0
 40
100.0
  1
6
  7
STYLE1
100
AcDbText
  0
LINE
  5
160DB
330
747D
100
AcDbEntity
  8
仕様書枠
 48
50.0
100
AcDbLine
 10
16307.19999999999
 20
9709.600000000001
 30
0.0
 11
13127.19999999999
 21
9709.600000000001
 31
0.0
  0
LINE
  5
160DC
330
747D
100
AcDbEntity
  8
仕様書枠
 48
50.0
100
AcDbLine
 10
16307.19999999999
 20
9369.600000000001
 30
0.0
 11
13127.19999999999
 21
9369.600000000001
 31
0.0
  0
LINE
  5
160DD
330
747D
100
AcDbEntity
  8
仕様書枠
 48
50.0
100
AcDbLine
 10
16307.19999999999
 20
9539.6
 30
0.0
 11
13127.19999999999
 21
9539.6
 31
0.0
  0
LINE
  5
160DE
330
747D
100
AcDbEntity
  8
仕様書枠
 48
50.0
100
AcDbLine
 10
16307.19999999999
 20
10219.6
 30
0.0
 11
13127.2
 21
10219.6
 31
0.0
  0
LINE
  5
160DF
330
747D
100
AcDbEntity
  8
仕様書枠
 48
50.0
100
AcDbLine
 10
16307.19999999999
 20
9879.600000000001
 30
0.0
 11
13127.19999999999
 21
9879.600000000001
 31
0.0
  0
TEXT
  5
160E0
330
747D
100
AcDbEntity
  8
文字
 62
     7
 48
50.0
100
AcDbText
 10
13248.77747366447
 20
9400.013745883729
 30
0.0
 40
100.0
  1
11
  7
STYLE1
100
AcDbText
  0
LINE
  5
160E1
330
747D
100
AcDbEntity
  8
仕様書枠
 48
50.0
100
AcDbLine
 10
16307.19999999999
 20
9199.600000000001
 30
0.0
 11
13127.19999999999
 21
9199.600000000001
 31
0.0
  0
LINE
  5
160E2
330
747D
100
AcDbEntity
  8
仕様書枠
 48
50.0
100
AcDbLine
 10
16307.19999999999
 20
8519.600000000004
 30
0.0
 11
13127.19999999999
 21
8519.600000000009
 31
0.0
  0
TEXT
  5
160E3
330
747D
100
AcDbEntity
  8
文字
 62
     7
 48
50.0
100
AcDbText
 10
13248.77747366447
 20
9060.013745883729
 30
0.0
 40
100.0
  1
13
  7
STYLE1
100
AcDbText
  0
TEXT
  5
160E4
330
747D
100
AcDbEntity
  8
文字
 62
     7
 48
50.0
100
AcDbText
 10
13248.77747366447
 20
9230.013745883729
 30
0.0
 40
100.0
  1
12
  7
STYLE1
100
AcDbText
  0
TEXT
  5
160E5
330
747D
100
AcDbEntity
  8
文字
 62
     7
 48
50.0
100
AcDbText
 10
15022.63965474517
 20
11100.01374588372
 30
0.0
 40
100.0
  1
F12            1.2
  7
STYLE1
100
AcDbText
  0
TEXT
  5
160E6
330
747D
100
AcDbEntity
  8
文字
 62
     7
 48
50.0
100
AcDbText
 10
15022.63965474518
 20
10930.01374588372
 30
0.0
 40
100.0
  1
F12            1.0
  7
STYLE1
100
AcDbText
  0
TEXT
  5
160E7
330
747D
100
AcDbEntity
  8
文字
 62
     7
 48
50.0
100
AcDbText
 10
15022.63965474517
 20
10590.01374588372
 30
0.0
 40
100.0
  1
Y10            1.0
  7
STYLE1
100
AcDbText
  0
TEXT
  5
160E8
330
747D
100
AcDbEntity
  8
文字
 62
     7
 48
50.0
100
AcDbText
 10
15022.63965474516
 20
10420.01374588372
 30
0.0
 40
100.0
  1
Y10            1.0
  7
STYLE1
100
AcDbText
  0
TEXT
  5
160E9
330
747D
100
AcDbEntity
  8
文字
 62
     7
 48
50.0
100
AcDbText
 10
15022.63965474517
 20
10250.01374588372
 30
0.0
 40
100.0
  1
Y10            0.7
  7
STYLE1
100
AcDbText
  0
TEXT
  5
160EA
330
747D
100
AcDbEntity
  8
文字
 62
     7
 48
50.0
100
AcDbText
 10
15022.63965474516
 20
10080.01374588372
 30
0.0
 40
100.0
  1
Y10            0.7
  7
STYLE1
100
AcDbText
  0
TEXT
  5
160EB
330
747D
100
AcDbEntity
  8
文字
 62
     7
 48
50.0
100
AcDbText
 10
15022.63965474517
 20
9740.013745883725
 30
0.0
 40
100.0
  1
Y10            0.5
  7
STYLE1
100
AcDbText
  0
TEXT
  5
160EC
330
747D
100
AcDbEntity
  8
文字
 62
     7
 48
50.0
100
AcDbText
 10
15022.63965474515
 20
9570.013745883725
 30
0.0
 40
100.0
  1
F12            0.6
  7
STYLE1
100
AcDbText
  0
LINE
  5
160ED
330
747D
100
AcDbEntity
  8
仕様書枠
 48
50.0
100
AcDbLine
 10
16307.19999999998
 20
8349.600000000007
 30
0.0
 11
13127.19999999999
 21
8349.600000000007
 31
0.0
  0
TEXT
  5
160EE
330
747D
100
AcDbEntity
  8
文字
 62
     7
 48
50.0
100
AcDbText
 10
13229.83081656554
 20
8550.013745883733
 30
0.0
 40
100.0
  1
F12→溶融亜鉛めっき鋼板(JIS G 3302)
  7
STYLE1
100
AcDbText
  0
TEXT
  5
160EF
330
747D
100
AcDbEntity
  8
文字
 62
     7
 48
50.0
100
AcDbText
 10
13229.83081656554
 20
8380.013745883733
 30
0.0
 40
100.0
  1
Y10→溶融亜鉛-5％アルミニウム合金めっき鋼板(JIS G 3317)
 41
0.9
  7
STYLE1
100
AcDbText
  0
LINE
  5
160F0
330
747D
100
AcDbEntity
  8
仕様書枠
 48
50.0
100
AcDbLine
 10
13127.2
 20
11409.6
 30
0.0
 11
13127.19999999999
 21
8349.600000000007
 31
0.0
  0
LINE
  5
160F1
330
747D
100
AcDbEntity
  8
仕様書枠
 48
50.0
100
AcDbLine
 10
16307.19999999999
 20
8689.600000000003
 30
0.0
 11
13127.19999999999
 21
8689.600000000007
 31
0.0
  0
TEXT
  5
160F2
330
747D
100
AcDbEntity
  8
文字
 62
     7
 48
50.0
100
AcDbText
 10
13583.1181901657
 20
10760.01374588373
 30
0.0
 40
100.0
  1
床パネル
 41
0.9
  7
STYLE1
100
AcDbText
  0
TEXT
  5
160F3
330
747D
100
AcDbEntity
  8
文字
 62
     7
 48
50.0
100
AcDbText
 10
15022.63965474517
 20
10760.01374588372
 30
0.0
 40
100.0
  1
F12            1.0
  7
STYLE1
100
AcDbText
  0
TEXT
  5
160F4
330
747D
100
AcDbEntity
  8
文字
 62
     7
 48
50.0
100
AcDbText
 10
15022.63965474515
 20
9400.013745883725
 30
0.0
 40
100.0
  1
F12            0.8
  7
STYLE1
100
AcDbText
  0
TEXT
  5
160F5
330
747D
100
AcDbEntity
  8
文字
 62
     7
 48
50.0
100
AcDbText
 10
13583.11819016568
 20
9400.013745883729
 30
0.0
 40
100.0
  1
扉
  7
STYLE1
100
AcDbText
  0
TEXT
  5
160F6
330
747D
100
AcDbEntity
  8
文字
 62
     7
 48
50.0
100
AcDbText
 10
15022.63965474515
 20
9230.013745883729
 30
0.0
 40
100.0
  1
F12            0.6
  7
STYLE1
100
AcDbText
  0
TEXT
  5
160F7
330
747D
100
AcDbEntity
  8
文字
 62
     7
 48
50.0
100
AcDbText
 10
13583.11819016568
 20
9230.013745883733
 30
0.0
 40
100.0
  1
棚板
  7
STYLE1
100
AcDbText
  0
TEXT
  5
16102
330
747D
100
AcDbEntity
  8
文字
 62
     7
 48
50.0
100
AcDbText
 10
14271.39351435261
 20
483.8967129911411
 30
0.0
 40
160.0
  1
ＮＸＮ－０８ＤＬ－３
  7
STYLE2
100
AcDbText
  0
TEXT
  5
16A3C
330
747D
100
AcDbEntity
  8
部品1
100
AcDbText
 10
5753.165631500074
 20
2673.607166858619
 30
0.0
 40
135.0
  1
正面図
  7
STYLE2
100
AcDbText
  0
LWPOLYLINE
  5
16A3D
330
747D
100
AcDbEntity
  8
部品1
100
AcDbPolyline
 90
        4
 70
     1
 43
0.0
 10
5662.640227762121
 20
2866.500696077143
 10
5662.640227762121
 20
2626.60837453161
 10
6426.11089399056
 20
2626.60837453161
 10
6426.11089399056
 20
2866.500696077143
  0
DIMENSION
  5
1709C
330
747D
100
AcDbEntity
  8
寸法
 48
50.0
100
AcDbDimension
  2
*D25
 10
7324.375560876342
 20
6080.075840589954
 30
0.0
 11
6044.37556087634
 21
6080.075840589954
 31
0.0
 70
   160
 71
     5
 42
2560.000000000004
  3
INABA_S40G
100
AcDbAlignedDimension
 13
4764.375560876338
 23
5644.577276893866
 33
0.0
 14
7324.375560876342
 24
5644.577276893862
 34
0.0
100
AcDbRotatedDimension
  0
DIMENSION
  5
1709D
330
747D
100
AcDbEntity
  8
寸法
 48
50.0
100
AcDbDimension
  2
*D24
 10
4814.375560876339
 20
5857.118862152105
 30
0.0
 11
6044.37556087634
 21
5857.118862152105
 31
0.0
 70
   160
  1
柱外寸法<>
 71
     5
 42
2460.000000000004
  3
INABA_S40G
100
AcDbAlignedDimension
 13
7274.375560876342
 23
5644.577276893864
 33
0.0
 14
4814.375560876339
 24
5644.577276893869
 34
0.0
100
AcDbRotatedDimension
  0
DIMENSION
  5
1709E
330
747D
100
AcDbEntity
  8
寸法
 48
50.0
100
AcDbDimension
  2
*D23
 10
4764.375560876338
 20
5857.118862152105
 30
0.0
 11
4450.890279502091
 21
5857.118862152105
 31
0.0
 70
   160
 71
     5
 42
50.0
  3
INABA_S40G
100
AcDbAlignedDimension
 13
4814.375560876339
 23
5644.577276893869
 33
0.0
 14
4764.375560876338
 24
5644.577276893866
 34
0.0
100
AcDbRotatedDimension
1001
ACAD
1000
DSTYLE
1002
{
1002
}
  0
LINE
  5
1709F
330
747D
100
AcDbEntity
  8
細線
 48
50.0
100
AcDbLine
 10
4797.375560876338
 20
5644.577276893866
 30
0.0
 11
4797.375560876338
 21
5503.577276893864
 31
0.0
  0
ARC
  5
170A0
330
747D
100
AcDbEntity
  8
部品1
100
AcDbCircle
 10
4771.783981982768
 20
5637.577276893866
 30
0.0
 40
7.0
100
AcDbArc
 50
90.0
 51
183.2473427903377
  0
ARC
  5
170A1
330
747D
100
AcDbEntity
  8
部品1
100
AcDbCircle
 10
4784.999305443801
 20
5510.577276893868
 30
0.0
 40
7.0
100
AcDbArc
 50
183.2473427903377
 51
270.0
  0
ARC
  5
170A2
330
747D
100
AcDbEntity
  8
部品1
 48
50.0
100
AcDbCircle
 10
4766.627495233126
 20
5617.244276055553
 30
0.0
 40
0.7
100
AcDbArc
 50
183.2473427903897
 51
262.3418727926349
  0
ARC
  5
170A3
330
747D
100
AcDbEntity
  8
部品1
 48
50.0
100
AcDbCircle
 10
4774.863525757966
 20
5525.044276055549
 30
0.0
 40
0.7
100
AcDbArc
 50
183.2473427902856
 51
262.3418727926349
  0
ARC
  5
170A4
330
747D
100
AcDbEntity
  8
部品1
 48
50.0
100
AcDbCircle
 10
4774.370456649405
 20
5521.377276893865
 30
0.0
 40
3.0
100
AcDbArc
 50
3.247342790337682
 51
82.3418727926348
  0
ARC
  5
170A5
330
747D
100
AcDbEntity
  8
部品1
 48
50.0
100
AcDbCircle
 10
4766.134426124561
 20
5613.577276893866
 30
0.0
 40
3.0
100
AcDbArc
 50
3.247342790337682
 51
82.3418727926348
  0
LINE
  5
170A6
330
747D
100
AcDbEntity
  8
部品1
100
AcDbLine
 10
4769.129609020747
 20
5613.747216348969
 30
0.0
 11
4774.164649748858
 21
5525.004623516026
 31
0.0
  0
LINE
  5
170A7
330
747D
100
AcDbEntity
  8
部品1
100
AcDbLine
 10
4777.365639545594
 20
5521.547216348968
 30
0.0
 11
4778.010545352702
 21
5510.180751498626
 31
0.0
  0
LINE
  5
170A8
330
747D
100
AcDbEntity
  8
部品1
100
AcDbLine
 10
4764.795221891669
 20
5637.180751498625
 30
0.0
 11
4765.928619224018
 21
5617.204623516027
 31
0.0
  0
LINE
  5
170A9
330
747D
100
AcDbEntity
  8
部品1
 48
50.0
100
AcDbLine
 10
7316.967139769909
 20
5644.577276893862
 30
0.0
 11
4771.783981982768
 21
5644.577276893862
 31
0.0
  0
LINE
  5
170AA
330
747D
100
AcDbEntity
  8
細線
 48
50.0
100
AcDbLine
 10
7322.216909863695
 20
5616.55051945756
 30
0.0
 11
4766.534211886752
 21
5616.550519457862
 31
0.0
  0
LINE
  5
170AB
330
747D
100
AcDbEntity
  8
細線
 48
50.0
100
AcDbLine
 10
7313.980879338884
 20
5524.350519457561
 30
0.0
 11
4774.770242411585
 21
5524.350519457861
 31
0.0
  0
LINE
  5
170AC
330
747D
100
AcDbEntity
  8
部品1
 48
50.0
100
AcDbLine
 10
7303.751816308874
 20
5503.577276893862
 30
0.0
 11
4784.999305443801
 21
5503.577276893864
 31
0.0
  0
DIMENSION
  5
170F0
330
747D
100
AcDbEntity
  8
寸法
 48
50.0
100
AcDbDimension
  2
*D26
 10
7274.375560876342
 20
5857.118862152103
 30
0.0
 11
7637.860842250579
 21
5857.118862152103
 31
0.0
 70
   160
 71
     5
 42
50.0
  3
INABA_S40G
100
AcDbAlignedDimension
 13
7324.375560876342
 23
5644.577276893862
 33
0.0
 14
7274.375560876342
 24
5644.577276893864
 34
0.0
100
AcDbRotatedDimension
  0
LINE
  5
170F1
330
747D
100
AcDbEntity
  8
部品1
100
AcDbLine
 10
7323.955899861008
 20
5637.180751498623
 30
0.0
 11
7322.822502528663
 21
5617.204623516023
 31
0.0
  0
LINE
  5
170F2
330
747D
100
AcDbEntity
  8
細線
 48
50.0
100
AcDbLine
 10
7291.375560876343
 20
5644.577276893862
 30
0.0
 11
7291.375560876343
 21
5503.577276893862
 31
0.0
  0
LINE
  5
170F3
330
747D
100
AcDbEntity
  8
部品1
100
AcDbLine
 10
7311.385482207086
 20
5521.547216348965
 30
0.0
 11
7310.740576399973
 21
5510.180751498625
 31
0.0
  0
LINE
  5
170F4
330
747D
100
AcDbEntity
  8
部品1
100
AcDbLine
 10
7319.621512731931
 20
5613.747216348965
 30
0.0
 11
7314.586472003819
 21
5525.004623516022
 31
0.0
  0
ARC
  5
170F5
330
747D
100
AcDbEntity
  8
部品1
 48
50.0
100
AcDbCircle
 10
7322.616695628116
 20
5613.577276893864
 30
0.0
 40
3.0
100
AcDbArc
 50
97.65812720736519
 51
176.7526572096623
  0
ARC
  5
170F6
330
747D
100
AcDbEntity
  8
部品1
 48
50.0
100
AcDbCircle
 10
7314.380665103271
 20
5521.377276893861
 30
0.0
 40
3.0
100
AcDbArc
 50
97.65812720736519
 51
176.7526572096623
  0
ARC
  5
170F7
330
747D
100
AcDbEntity
  8
部品1
 48
50.0
100
AcDbCircle
 10
7313.887595994711
 20
5525.044276055545
 30
0.0
 40
0.7
100
AcDbArc
 50
277.6581272073652
 51
356.7526572097143
  0
ARC
  5
170F8
330
747D
100
AcDbEntity
  8
部品1
 48
50.0
100
AcDbCircle
 10
7322.123626519554
 20
5617.24427605555
 30
0.0
 40
0.7
100
AcDbArc
 50
277.6581272073652
 51
356.7526572096103
  0
ARC
  5
170F9
330
747D
100
AcDbEntity
  8
部品1
100
AcDbCircle
 10
7303.751816308874
 20
5510.577276893864
 30
0.0
 40
7.0
100
AcDbArc
 50
270.0
 51
356.7526572096623
  0
ARC
  5
170FA
330
747D
100
AcDbEntity
  8
部品1
100
AcDbCircle
 10
7316.967139769909
 20
5637.577276893862
 30
0.0
 40
7.0
100
AcDbArc
 50
356.7526572096623
 51
90.0
  0
ARC
  5
1718B
330
747D
100
AcDbEntity
  8
部品1
 48
0.01
100
AcDbCircle
 10
5312.375560876346
 20
5442.077276893859
 30
0.0
 40
2.0
100
AcDbArc
 50
270.0
 51
0.0
  0
ARC
  5
1718C
330
747D
100
AcDbEntity
  8
部品1
 48
0.01
100
AcDbCircle
 10
5312.375560876346
 20
5473.577276893859
 30
0.0
 40
2.0
100
AcDbArc
 50
0.0
 51
90.0
  0
ARC
  5
1718D
330
747D
100
AcDbEntity
  8
部品1
 48
0.01
100
AcDbCircle
 10
5136.375560876346
 20
5442.077276893859
 30
0.0
 40
2.0
100
AcDbArc
 50
180.0
 51
270.0
  0
ARC
  5
1718E
330
747D
100
AcDbEntity
  8
部品1
 48
0.01
100
AcDbCircle
 10
5136.375560876346
 20
5473.577276893859
 30
0.0
 40
2.0
100
AcDbArc
 50
90.0
 51
180.0
  0
LINE
  5
1718F
330
747D
100
AcDbEntity
  8
細線
100
AcDbLine
 10
5224.375560876346
 20
5446.077276893859
 30
0.0
 11
5298.375560876346
 21
5446.077276893859
 31
0.0
  0
LINE
  5
17190
330
747D
100
AcDbEntity
  8
細線
100
AcDbLine
 10
5224.375560876346
 20
5469.077276893859
 30
0.0
 11
5150.375560876346
 21
5469.077276893859
 31
0.0
  0
LINE
  5
17191
330
747D
100
AcDbEntity
  8
細線
100
AcDbLine
 10
5150.375560876346
 20
5446.077276893859
 30
0.0
 11
5224.375560876346
 21
5446.077276893859
 31
0.0
  0
LINE
  5
17192
330
747D
100
AcDbEntity
  8
細線
100
AcDbLine
 10
5298.375560876346
 20
5469.077276893859
 30
0.0
 11
5224.375560876346
 21
5469.077276893859
 31
0.0
  0
LINE
  5
17193
330
747D
100
AcDbEntity
  8
細線
100
AcDbLine
 10
5298.375560876346
 20
5446.077276893859
 30
0.0
 11
5298.375560876346
 21
5469.077276893859
 31
0.0
  0
LINE
  5
17194
330
747D
100
AcDbEntity
  8
細線
100
AcDbLine
 10
5150.375560876346
 20
5469.077276893859
 30
0.0
 11
5150.375560876346
 21
5446.077276893859
 31
0.0
  0
LINE
  5
17195
330
747D
100
AcDbEntity
  8
部品1
 48
0.01
100
AcDbLine
 10
5314.375560876346
 20
5442.077276893859
 30
0.0
 11
5314.375560876346
 21
5473.577276893859
 31
0.0
  0
LINE
  5
17196
330
747D
100
AcDbEntity
  8
部品1
 48
0.01
100
AcDbLine
 10
5136.375560876346
 20
5440.077276893859
 30
0.0
 11
5312.375560876346
 21
5440.077276893859
 31
0.0
  0
LINE
  5
17197
330
747D
100
AcDbEntity
  8
部品1
 48
0.01
100
AcDbLine
 10
5134.375560876346
 20
5473.577276893859
 30
0.0
 11
5134.375560876346
 21
5442.077276893859
 31
0.0
  0
LINE
  5
17198
330
747D
100
AcDbEntity
  8
部品1
 48
0.01
100
AcDbLine
 10
5312.375560876346
 20
5475.577276893858
 30
0.0
 11
5136.375560876346
 21
5475.577276893858
 31
0.0
  0
LINE
  5
17199
330
747D
100
AcDbEntity
  8
細線
100
AcDbLine
 10
5150.375560876346
 20
5463.077276893859
 30
0.0
 11
5224.375560876346
 21
5463.077276893859
 31
0.0
  0
LINE
  5
1719A
330
747D
100
AcDbEntity
  8
細線
100
AcDbLine
 10
5150.375560876346
 20
5457.077276893858
 30
0.0
 11
5224.375560876346
 21
5457.077276893858
 31
0.0
  0
LINE
  5
1719B
330
747D
100
AcDbEntity
  8
細線
100
AcDbLine
 10
5150.375560876346
 20
5451.077276893858
 30
0.0
 11
5224.375560876346
 21
5451.077276893858
 31
0.0
  0
LINE
  5
1719C
330
747D
100
AcDbEntity
  8
細線
100
AcDbLine
 10
5150.375560876346
 20
5463.077276893859
 30
0.0
 11
5219.375560876346
 21
5463.077276893859
 31
0.0
  0
LINE
  5
1719D
330
747D
100
AcDbEntity
  8
細線
100
AcDbLine
 10
5298.375560876346
 20
5463.077276893859
 30
0.0
 11
5224.375560876346
 21
5463.077276893859
 31
0.0
  0
LINE
  5
1719E
330
747D
100
AcDbEntity
  8
細線
100
AcDbLine
 10
5298.375560876346
 20
5451.077276893858
 30
0.0
 11
5224.375560876346
 21
5451.077276893858
 31
0.0
  0
LINE
  5
1719F
330
747D
100
AcDbEntity
  8
細線
100
AcDbLine
 10
5298.375560876346
 20
5457.077276893858
 30
0.0
 11
5224.375560876346
 21
5457.077276893858
 31
0.0
  0
LINE
  5
171A0
330
747D
100
AcDbEntity
  8
細線
100
AcDbLine
 10
5224.375560876346
 20
5469.077276893859
 30
0.0
 11
5224.375560876346
 21
5446.077276893859
 31
0.0
  0
LINE
  5
171A1
330
747D
100
AcDbEntity
  8
細線
100
AcDbLine
 10
6044.375560876345
 20
5469.077276893859
 30
0.0
 11
6044.375560876345
 21
5446.077276893859
 31
0.0
  0
LINE
  5
171A2
330
747D
100
AcDbEntity
  8
細線
100
AcDbLine
 10
6118.375560876344
 20
5457.077276893858
 30
0.0
 11
6044.375560876345
 21
5457.077276893858
 31
0.0
  0
LINE
  5
171A3
330
747D
100
AcDbEntity
  8
細線
100
AcDbLine
 10
6118.375560876344
 20
5451.077276893858
 30
0.0
 11
6044.375560876345
 21
5451.077276893858
 31
0.0
  0
LINE
  5
171A4
330
747D
100
AcDbEntity
  8
細線
100
AcDbLine
 10
6118.375560876344
 20
5463.077276893859
 30
0.0
 11
6044.375560876345
 21
5463.077276893859
 31
0.0
  0
LINE
  5
171A5
330
747D
100
AcDbEntity
  8
細線
100
AcDbLine
 10
5970.375560876345
 20
5463.077276893859
 30
0.0
 11
6039.375560876345
 21
5463.077276893859
 31
0.0
  0
LINE
  5
171A6
330
747D
100
AcDbEntity
  8
細線
100
AcDbLine
 10
5970.375560876345
 20
5451.077276893858
 30
0.0
 11
6044.375560876345
 21
5451.077276893858
 31
0.0
  0
LINE
  5
171A7
330
747D
100
AcDbEntity
  8
細線
100
AcDbLine
 10
5970.375560876345
 20
5457.077276893858
 30
0.0
 11
6044.375560876345
 21
5457.077276893858
 31
0.0
  0
LINE
  5
171A8
330
747D
100
AcDbEntity
  8
細線
100
AcDbLine
 10
5970.375560876345
 20
5463.077276893859
 30
0.0
 11
6044.375560876345
 21
5463.077276893859
 31
0.0
  0
LINE
  5
171A9
330
747D
100
AcDbEntity
  8
部品1
 48
0.01
100
AcDbLine
 10
6132.375560876345
 20
5475.577276893858
 30
0.0
 11
5956.375560876345
 21
5475.577276893858
 31
0.0
  0
LINE
  5
171AA
330
747D
100
AcDbEntity
  8
部品1
 48
0.01
100
AcDbLine
 10
5954.375560876345
 20
5473.577276893859
 30
0.0
 11
5954.375560876345
 21
5442.077276893859
 31
0.0
  0
LINE
  5
171AB
330
747D
100
AcDbEntity
  8
部品1
 48
0.01
100
AcDbLine
 10
5956.375560876345
 20
5440.077276893859
 30
0.0
 11
6132.375560876345
 21
5440.077276893859
 31
0.0
  0
LINE
  5
171AC
330
747D
100
AcDbEntity
  8
部品1
 48
0.01
100
AcDbLine
 10
6134.375560876345
 20
5442.077276893859
 30
0.0
 11
6134.375560876345
 21
5473.577276893859
 31
0.0
  0
LINE
  5
171AD
330
747D
100
AcDbEntity
  8
細線
100
AcDbLine
 10
5970.375560876345
 20
5469.077276893859
 30
0.0
 11
5970.375560876345
 21
5446.077276893859
 31
0.0
  0
LINE
  5
171AE
330
747D
100
AcDbEntity
  8
細線
100
AcDbLine
 10
6118.375560876344
 20
5446.077276893859
 30
0.0
 11
6118.375560876344
 21
5469.077276893859
 31
0.0
  0
LINE
  5
171AF
330
747D
100
AcDbEntity
  8
細線
100
AcDbLine
 10
6118.375560876344
 20
5469.077276893859
 30
0.0
 11
6044.375560876345
 21
5469.077276893859
 31
0.0
  0
LINE
  5
171B0
330
747D
100
AcDbEntity
  8
細線
100
AcDbLine
 10
5970.375560876345
 20
5446.077276893859
 30
0.0
 11
6044.375560876345
 21
5446.077276893859
 31
0.0
  0
LINE
  5
171B1
330
747D
100
AcDbEntity
  8
細線
100
AcDbLine
 10
6044.375560876345
 20
5469.077276893859
 30
0.0
 11
5970.375560876345
 21
5469.077276893859
 31
0.0
  0
LINE
  5
171B2
330
747D
100
AcDbEntity
  8
細線
100
AcDbLine
 10
6044.375560876345
 20
5446.077276893859
 30
0.0
 11
6118.375560876344
 21
5446.077276893859
 31
0.0
  0
ARC
  5
171B3
330
747D
100
AcDbEntity
  8
部品1
 48
0.01
100
AcDbCircle
 10
5956.375560876345
 20
5473.577276893859
 30
0.0
 40
2.0
100
AcDbArc
 50
90.0
 51
180.0
  0
ARC
  5
171B4
330
747D
100
AcDbEntity
  8
部品1
 48
0.01
100
AcDbCircle
 10
5956.375560876345
 20
5442.077276893859
 30
0.0
 40
2.0
100
AcDbArc
 50
180.0
 51
270.0
  0
ARC
  5
171B5
330
747D
100
AcDbEntity
  8
部品1
 48
0.01
100
AcDbCircle
 10
6132.375560876345
 20
5473.577276893859
 30
0.0
 40
2.0
100
AcDbArc
 50
0.0
 51
90.0
  0
ARC
  5
171B6
330
747D
100
AcDbEntity
  8
部品1
 48
0.01
100
AcDbCircle
 10
6132.375560876345
 20
5442.077276893859
 30
0.0
 40
2.0
100
AcDbArc
 50
270.0
 51
0.0
  0
ARC
  5
171B7
330
747D
100
AcDbEntity
  8
部品1
 48
0.01
100
AcDbCircle
 10
6952.375560876348
 20
5442.077276893859
 30
0.0
 40
2.0
100
AcDbArc
 50
270.0
 51
0.0
  0
ARC
  5
171B8
330
747D
100
AcDbEntity
  8
部品1
 48
0.01
100
AcDbCircle
 10
6952.375560876348
 20
5473.577276893859
 30
0.0
 40
2.0
100
AcDbArc
 50
0.0
 51
90.0
  0
ARC
  5
171B9
330
747D
100
AcDbEntity
  8
部品1
 48
0.01
100
AcDbCircle
 10
6776.375560876347
 20
5442.077276893859
 30
0.0
 40
2.0
100
AcDbArc
 50
180.0
 51
270.0
  0
ARC
  5
171BA
330
747D
100
AcDbEntity
  8
部品1
 48
0.01
100
AcDbCircle
 10
6776.375560876347
 20
5473.577276893859
 30
0.0
 40
2.0
100
AcDbArc
 50
90.0
 51
180.0
  0
LINE
  5
171BB
330
747D
100
AcDbEntity
  8
細線
100
AcDbLine
 10
6864.375560876348
 20
5446.077276893859
 30
0.0
 11
6938.375560876348
 21
5446.077276893859
 31
0.0
  0
LINE
  5
171BC
330
747D
100
AcDbEntity
  8
細線
100
AcDbLine
 10
6864.375560876348
 20
5469.077276893859
 30
0.0
 11
6790.375560876348
 21
5469.077276893859
 31
0.0
  0
LINE
  5
171BD
330
747D
100
AcDbEntity
  8
細線
100
AcDbLine
 10
6790.375560876348
 20
5446.077276893859
 30
0.0
 11
6864.375560876348
 21
5446.077276893859
 31
0.0
  0
LINE
  5
171BE
330
747D
100
AcDbEntity
  8
細線
100
AcDbLine
 10
6938.375560876348
 20
5469.077276893859
 30
0.0
 11
6864.375560876348
 21
5469.077276893859
 31
0.0
  0
LINE
  5
171BF
330
747D
100
AcDbEntity
  8
細線
100
AcDbLine
 10
6938.375560876348
 20
5446.077276893859
 30
0.0
 11
6938.375560876348
 21
5469.077276893859
 31
0.0
  0
LINE
  5
171C0
330
747D
100
AcDbEntity
  8
細線
100
AcDbLine
 10
6790.375560876348
 20
5469.077276893859
 30
0.0
 11
6790.375560876348
 21
5446.077276893859
 31
0.0
  0
LINE
  5
171C1
330
747D
100
AcDbEntity
  8
部品1
 48
0.01
100
AcDbLine
 10
6954.375560876347
 20
5442.077276893859
 30
0.0
 11
6954.375560876347
 21
5473.577276893859
 31
0.0
  0
LINE
  5
171C2
330
747D
100
AcDbEntity
  8
部品1
 48
0.01
100
AcDbLine
 10
6776.375560876347
 20
5440.077276893859
 30
0.0
 11
6952.375560876348
 21
5440.077276893859
 31
0.0
  0
LINE
  5
171C3
330
747D
100
AcDbEntity
  8
部品1
 48
0.01
100
AcDbLine
 10
6774.375560876348
 20
5473.577276893859
 30
0.0
 11
6774.375560876348
 21
5442.077276893859
 31
0.0
  0
LINE
  5
171C4
330
747D
100
AcDbEntity
  8
部品1
 48
0.01
100
AcDbLine
 10
6952.375560876348
 20
5475.577276893858
 30
0.0
 11
6776.375560876347
 21
5475.577276893858
 31
0.0
  0
LINE
  5
171C5
330
747D
100
AcDbEntity
  8
細線
100
AcDbLine
 10
6790.375560876348
 20
5463.077276893859
 30
0.0
 11
6864.375560876348
 21
5463.077276893859
 31
0.0
  0
LINE
  5
171C6
330
747D
100
AcDbEntity
  8
細線
100
AcDbLine
 10
6790.375560876348
 20
5457.077276893858
 30
0.0
 11
6864.375560876348
 21
5457.077276893858
 31
0.0
  0
LINE
  5
171C7
330
747D
100
AcDbEntity
  8
細線
100
AcDbLine
 10
6790.375560876348
 20
5451.077276893858
 30
0.0
 11
6864.375560876348
 21
5451.077276893858
 31
0.0
  0
LINE
  5
171C8
330
747D
100
AcDbEntity
  8
細線
100
AcDbLine
 10
6790.375560876348
 20
5463.077276893859
 30
0.0
 11
6859.375560876348
 21
5463.077276893859
 31
0.0
  0
LINE
  5
171C9
330
747D
100
AcDbEntity
  8
細線
100
AcDbLine
 10
6938.375560876348
 20
5463.077276893859
 30
0.0
 11
6864.375560876348
 21
5463.077276893859
 31
0.0
  0
LINE
  5
171CA
330
747D
100
AcDbEntity
  8
細線
100
AcDbLine
 10
6938.375560876348
 20
5451.077276893858
 30
0.0
 11
6864.375560876348
 21
5451.077276893858
 31
0.0
  0
LINE
  5
171CB
330
747D
100
AcDbEntity
  8
細線
100
AcDbLine
 10
6938.375560876348
 20
5457.077276893858
 30
0.0
 11
6864.375560876348
 21
5457.077276893858
 31
0.0
  0
LINE
  5
171CC
330
747D
100
AcDbEntity
  8
細線
100
AcDbLine
 10
6864.375560876348
 20
5469.077276893859
 30
0.0
 11
6864.375560876348
 21
5446.077276893859
 31
0.0
  0
MTEXT
  5
175A5
330
747D
100
AcDbEntity
  8
寸法
 62
     7
 48
50.0
100
AcDbMText
 10
6059.655365164633
 20
8900.880204517013
 30
0.0
 40
96.0
 41
0.0
 71
     5
 72
     1
  1
棚 2段
  7
STYLE1
 73
     1
 44
1.0
1001
ACAD
1000
MTEXTBEGIN
1070
    73
1070
     1
1070
    44
1040
1.0
1070
    74
1070
     0
1000
MTEXTEND
  0
MTEXT
  5
175A6
330
747D
100
AcDbEntity
  8
寸法
 62
     7
 48
50.0
100
AcDbMText
 10
5239.655371842331
 20
8900.880204517028
 30
0.0
 40
96.0
 41
0.0
 71
     5
 72
     1
  1
棚 2段
  7
STYLE1
 73
     1
 44
1.0
1001
ACAD
1000
MTEXTBEGIN
1070
    73
1070
     1
1070
    44
1040
1.0
1070
    74
1070
     0
1000
MTEXTEND
  0
MTEXT
  5
17780
330
747D
100
AcDbEntity
  8
寸法
 62
     7
 48
50.0
100
AcDbMText
 10
6879.655358486935
 20
8900.880204516973
 30
0.0
 40
96.0
 41
0.0
 71
     5
 72
     1
  1
棚 2段
  7
STYLE1
 73
     1
 44
1.0
1001
ACAD
1000
MTEXTBEGIN
1070
    73
1070
     1
1070
    44
1040
1.0
1070
    74
1070
     0
1000
MTEXTEND
  0
LINE
  5
1796A
330
747D
100
AcDbEntity
  8
部品1
 48
50.0
100
AcDbLine
 10
9654.245103391943
 20
5398.827276893861
 30
0.0
 11
9661.247473436722
 21
5398.827276893861
 31
0.0
  0
LINE
  5
1796B
330
747D
100
AcDbEntity
  8
部品1
 48
0.2
100
AcDbLine
 10
9654.245103391943
 20
5409.577276893861
 30
0.0
 11
9654.245103391943
 21
5398.827276893862
 31
0.0
  0
LINE
  5
1796C
330
747D
100
AcDbEntity
  8
部品1
 48
50.0
100
AcDbLine
 10
9654.245103391943
 20
3619.577276893864
 30
0.0
 11
9661.247473436722
 21
3619.577276893864
 31
0.0
  0
LINE
  5
1796D
330
747D
100
AcDbEntity
  8
部品1
 48
0.2
100
AcDbLine
 10
9654.245103391943
 20
3630.327276893864
 30
0.0
 11
9654.245103391943
 21
3619.577276893864
 31
0.0
  0
LINE
  5
1796E
330
747D
100
AcDbEntity
  8
部品1
 48
50.0
100
AcDbLine
 10
9654.245103391943
 20
3630.327276893864
 30
0.0
 11
9661.247473436722
 21
3630.327276893864
 31
0.0
  0
DIMENSION
  5
1796F
330
747D
100
AcDbEntity
  8
寸法
100
AcDbDimension
  2
*D27
 10
9059.284382744518
 20
3569.577276893863
 30
0.0
 11
9059.284382744518
 21
3263.530032799372
 31
0.0
 70
   160
 71
     5
 42
50.00000000000182
  3
INABA_S40G
100
AcDbAlignedDimension
 13
9654.245103391943
 23
3619.577276893864
 33
0.0
 14
9606.247473436722
 24
3569.577276893863
 34
0.0
 50
90.0
100
AcDbRotatedDimension
1001
ACAD
1000
DSTYLE
1002
{
1070
   174
1070
     0
1070
   272
1070
     1
1070
   288
1070
     0
1070
   341
1005
0
1002
}
  0
DIMENSION
  5
17970
330
747D
100
AcDbEntity
  8
寸法
100
AcDbDimension
  2
*D28
 10
9059.284382744518
 20
3619.577276893865
 30
0.0
 11
9059.284382744518
 21
4524.612288770249
 31
0.0
 70
   160
 71
     5
 42
1789.999999999997
  3
INABA_S40G
100
AcDbAlignedDimension
 13
9654.245103391943
 23
5409.577276893862
 33
0.0
 14
9654.245103391943
 24
3619.577276893864
 34
0.0
 50
90.0
100
AcDbRotatedDimension
1001
ACAD
1000
DSTYLE
1002
{
1070
   288
1070
     1
1002
}
  0
DIMENSION
  5
179B9
330
747D
100
AcDbEntity
  8
寸法
 48
50.0
100
AcDbDimension
  2
*D29
 10
11141.65601137055
 20
5589.57727689386
 30
0.0
 11
11141.65601137055
 21
4521.501672958286
 31
0.0
 70
   160
 71
     5
 42
2020.000000000001
  3
INABA_S40
100
AcDbAlignedDimension
 13
10611.24747343672
 23
3569.57727689386
 33
0.0
 14
10691.24747343673
 24
5589.57727689386
 34
0.0
 50
90.0
100
AcDbRotatedDimension
1001
ACAD
1000
DSTYLE
1002
{
1070
    41
1040
0.5
1070
    44
1040
1.0
1070
   147
1040
0.8
1070
   271
1070
     2
1070
   272
1070
     2
1070
   289
1070
     3
1070
   340
1005
F706
1070
   343
1005
15E1F
1070
   344
1005
15E1F
1002
}
  0
LINE
  5
179BA
330
747D
100
AcDbEntity
  8
部品1
100
AcDbLine
 10
10611.24747343672
 20
5465.363037099148
 30
0.0
 11
10611.24747343672
 21
3469.57727689386
 31
0.0
  0
LINE
  5
179BB
330
747D
100
AcDbEntity
  8
部品1
100
AcDbLine
 10
9661.247473436722
 20
5500.697314378673
 30
0.0
 11
9661.247473436722
 21
3469.57727689386
 31
0.0
  0
LINE
  5
179BC
330
747D
100
AcDbEntity
  8
部品1
100
AcDbLine
 10
10556.24747343672
 20
5409.577276893861
 30
0.0
 11
10556.24747343672
 21
3619.57727689386
 31
0.0
  0
LINE
  5
179BD
330
747D
100
AcDbEntity
  8
部品1
100
AcDbLine
 10
9716.247473436721
 20
5409.577276893861
 30
0.0
 11
9716.247473436721
 21
3619.57727689386
 31
0.0
  0
LINE
  5
179BE
330
747D
100
AcDbEntity
  8
部品1
100
AcDbLine
 10
10136.24747343672
 20
5409.577276893861
 30
0.0
 11
10136.24747343672
 21
3619.57727689386
 31
0.0
  0
LINE
  5
179BF
330
747D
100
AcDbEntity
  8
部品1
100
AcDbLine
 10
9661.247473436722
 20
3619.57727689386
 30
0.0
 11
10611.24747343672
 21
3619.57727689386
 31
0.0
  0
LINE
  5
179C0
330
747D
100
AcDbEntity
  8
部品1
100
AcDbLine
 10
9661.247473436722
 20
3569.57727689386
 30
0.0
 11
10611.24747343672
 21
3569.57727689386
 31
0.0
  0
LINE
  5
179C1
330
747D
100
AcDbEntity
  8
部品1
100
AcDbLine
 10
9654.245103391943
 20
5409.577276893861
 30
0.0
 11
10611.24747343672
 21
5409.577276893861
 31
0.0
  0
LINE
  5
179C2
330
747D
100
AcDbEntity
  8
細線
 48
50.0
100
AcDbLine
 10
10478.74747343672
 20
5409.577276893861
 30
0.0
 11
10478.74747343672
 21
3619.57727689386
 31
0.0
  0
LINE
  5
179C3
330
747D
100
AcDbEntity
  8
細線
 48
50.0
100
AcDbLine
 10
10493.74747343672
 20
5409.577276893861
 30
0.0
 11
10493.74747343672
 21
3619.57727689386
 31
0.0
  0
LINE
  5
179C4
330
747D
100
AcDbEntity
  8
細線
 48
50.0
100
AcDbLine
 10
10353.74747343672
 20
5409.577276893861
 30
0.0
 11
10353.74747343672
 21
3619.57727689386
 31
0.0
  0
LINE
  5
179C5
330
747D
100
AcDbEntity
  8
細線
 48
50.0
100
AcDbLine
 10
10338.74747343672
 20
5409.577276893861
 30
0.0
 11
10338.74747343672
 21
3619.57727689386
 31
0.0
  0
LINE
  5
179C6
330
747D
100
AcDbEntity
  8
細線
 48
50.0
100
AcDbLine
 10
10198.74747343672
 20
5409.577276893861
 30
0.0
 11
10198.74747343672
 21
3619.57727689386
 31
0.0
  0
LINE
  5
179C7
330
747D
100
AcDbEntity
  8
細線
 48
50.0
100
AcDbLine
 10
10213.74747343672
 20
5409.577276893861
 30
0.0
 11
10213.74747343672
 21
3619.57727689386
 31
0.0
  0
LINE
  5
179C8
330
747D
100
AcDbEntity
  8
細線
 48
50.0
100
AcDbLine
 10
10058.74747343672
 20
5409.577276893861
 30
0.0
 11
10058.74747343672
 21
3619.57727689386
 31
0.0
  0
LINE
  5
179C9
330
747D
100
AcDbEntity
  8
細線
 48
50.0
100
AcDbLine
 10
10073.74747343672
 20
5409.577276893861
 30
0.0
 11
10073.74747343672
 21
3619.57727689386
 31
0.0
  0
LINE
  5
179CA
330
747D
100
AcDbEntity
  8
細線
 48
50.0
100
AcDbLine
 10
9933.747473436724
 20
5409.577276893861
 30
0.0
 11
9933.747473436724
 21
3619.57727689386
 31
0.0
  0
LINE
  5
179CB
330
747D
100
AcDbEntity
  8
細線
 48
50.0
100
AcDbLine
 10
9918.747473436724
 20
5409.577276893861
 30
0.0
 11
9918.747473436724
 21
3619.57727689386
 31
0.0
  0
LINE
  5
179CC
330
747D
100
AcDbEntity
  8
細線
 48
50.0
100
AcDbLine
 10
9778.747473436725
 20
5409.577276893861
 30
0.0
 11
9778.747473436725
 21
3619.57727689386
 31
0.0
  0
LINE
  5
179CD
330
747D
100
AcDbEntity
  8
細線
 48
50.0
100
AcDbLine
 10
9793.747473436724
 20
5409.577276893861
 30
0.0
 11
9793.747473436724
 21
3619.57727689386
 31
0.0
  0
DIMENSION
  5
179CE
330
747D
100
AcDbEntity
  8
寸法
 48
50.0
100
AcDbDimension
  2
*D30
 10
10691.24747343672
 20
6043.234730473165
 30
0.0
 11
10897.29471753121
 21
6043.234730473165
 31
0.0
 70
   160
 71
     5
 42
80.0
  3
INABA_S40G
100
AcDbAlignedDimension
 13
10611.24747343672
 23
5591.387956505514
 33
0.0
 14
10691.24747343672
 24
5589.577276893862
 34
0.0
100
AcDbRotatedDimension
1001
ACAD
1000
DSTYLE
1002
{
1070
   174
1070
     0
1070
   272
1070
     1
1070
   288
1070
     0
1070
   341
1005
0
1002
}
  0
DIMENSION
  5
179CF
330
747D
100
AcDbEntity
  8
寸法
 48
50.0
100
AcDbDimension
  2
*D31
 10
9601.247473436721
 20
6277.937939113255
 30
0.0
 11
10148.16443385108
 21
6277.937939113255
 31
0.0
 70
   160
 71
     5
 42
1090.0
  3
INABA_S40G
100
AcDbAlignedDimension
 13
10691.24747343672
 23
5589.577276893862
 33
0.0
 14
9601.247473436721
 24
5644.577276893866
 34
0.0
100
AcDbRotatedDimension
1001
ACAD
1000
DSTYLE
1002
{
1070
   174
1070
     0
1070
   272
1070
     1
1070
   288
1070
     0
1070
   341
1005
0
1002
}
  0
DIMENSION
  5
179D0
330
747D
100
AcDbEntity
  8
寸法
 48
50.0
100
AcDbDimension
  2
*D32
 10
9661.247473436722
 20
6043.234730473165
 30
0.0
 11
10157.95927566761
 21
6043.234730473165
 31
0.0
 70
   160
  1
柱外寸法<>
 71
     5
 42
950.0
  3
INABA_S40G
100
AcDbAlignedDimension
 13
10611.24747343672
 23
5591.387956505514
 33
0.0
 14
9661.247473436722
 24
5640.578895016837
 34
0.0
100
AcDbRotatedDimension
1001
ACAD
1000
DSTYLE
1002
{
1070
   174
1070
     0
1070
   272
1070
     1
1070
   288
1070
     0
1070
   341
1005
0
1002
}
  0
DIMENSION
  5
179D1
330
747D
100
AcDbEntity
  8
寸法
 48
50.0
100
AcDbDimension
  2
*D33
 10
9601.247473436721
 20
6043.234730473165
 30
0.0
 11
9291.60967816113
 21
6043.234730473165
 31
0.0
 70
   160
 71
     5
 42
60.0
  3
INABA_S40G
100
AcDbAlignedDimension
 13
9661.247473436722
 23
5640.578895016837
 33
0.0
 14
9601.247473436721
 24
5644.577276893866
 34
0.0
100
AcDbRotatedDimension
1001
ACAD
1000
DSTYLE
1002
{
1070
   174
1070
     0
1070
   272
1070
     1
1070
   288
1070
     0
1070
   341
1005
0
1002
}
  0
DIMENSION
  5
179D2
330
747D
100
AcDbEntity
  8
寸法
 48
50.0
100
AcDbDimension
  2
*D34
 10
9040.639066668356
 20
5518.922535767192
 30
0.0
 11
9051.304541927279
 21
5889.769199008892
 31
0.0
 70
   161
 71
     5
 42
141.0000000000009
  3
INABA_S40G
100
AcDbAlignedDimension
 13
9620.6434935953
 23
5643.300025728541
 33
0.0
 14
9616.590038038674
 24
5502.358301962828
 34
0.0
1001
ACAD
1000
DSTYLE
1002
{
1070
   174
1070
     0
1070
   272
1070
     1
1070
   288
1070
     0
1070
   341
1005
0
1002
}
  0
LINE
  5
179D3
330
747D
100
AcDbEntity
  8
部品1
 48
50.0
100
AcDbLine
 10
9996.247473436721
 20
5775.44541599514
 30
0.0
 11
10296.24747343672
 21
5759.245415995142
 31
0.0
  0
TEXT
  5
179D4
330
747D
100
AcDbEntity
  8
部品1
 48
50.0
100
AcDbText
 10
10473.34032072458
 20
5673.828179929291
 30
0.0
 40
120.0
  1
104
 50
90.0
  7
STYLE1
100
AcDbText
  0
LINE
  5
179D5
330
747D
100
AcDbEntity
  8
部品1
 48
50.0
100
AcDbLine
 10
10296.24747343672
 20
5775.44541599514
 30
0.0
 11
10296.24747343672
 21
5759.245415995142
 31
0.0
  0
LINE
  5
179D6
330
747D
100
AcDbEntity
  8
部品1
 48
50.0
100
AcDbLine
 10
9996.247473436721
 20
5775.44541599514
 30
0.0
 11
10296.24747343672
 21
5775.44541599514
 31
0.0
  0
ARC
  5
179D7
330
747D
100
AcDbEntity
  8
部品1
100
AcDbCircle
 10
10676.87500925065
 20
5483.601034159654
 30
0.0
 40
0.7
100
AcDbArc
 50
275.0921697642079
 51
354.1866997667034
  0
ARC
  5
179D8
330
747D
100
AcDbEntity
  8
部品1
100
AcDbCircle
 10
10687.73435499998
 20
5560.644288977577
 30
0.0
 40
0.7
100
AcDbArc
 50
275.0921697642079
 51
354.1866997665479
  0
ARC
  5
179D9
330
747D
100
AcDbEntity
  8
部品1
100
AcDbCircle
 10
10688.06276024258
 20
5556.958892120487
 30
0.0
 40
3.0
100
AcDbArc
 50
95.09216976442012
 51
174.1866997665479
  0
ARC
  5
179DA
330
747D
100
AcDbEntity
  8
部品1
100
AcDbCircle
 10
10677.20341449325
 20
5479.915637302564
 30
0.0
 40
3.0
100
AcDbArc
 50
95.09216976420788
 51
174.1866997665479
  0
ARC
  5
179DB
330
747D
100
AcDbEntity
  8
部品1
 48
50.0
100
AcDbCircle
 10
10666.17527921815
 20
5470.32489269868
 30
0.0
 40
7.0
100
AcDbArc
 50
267.8377559871574
 51
354.1866997665479
  0
ARC
  5
179DC
330
747D
100
AcDbEntity
  8
部品1
 48
50.0
100
AcDbCircle
 10
10683.49737568266
 20
5581.227439840853
 30
0.0
 40
7.0
100
AcDbArc
 50
354.1866997665479
 51
87.03587545304044
  0
LINE
  5
179DD
330
747D
100
AcDbEntity
  8
部品1
 48
50.0
100
AcDbLine
 10
10674.21884282264
 20
5480.219499019465
 30
0.0
 11
10673.1392797829
 21
5469.615882025906
 31
0.0
  0
LINE
  5
179DE
330
747D
100
AcDbEntity
  8
部品1
 48
50.0
100
AcDbLine
 10
10685.07818857197
 20
5557.262753837391
 30
0.0
 11
10677.57140930713
 21
5483.530133092378
 31
0.0
  0
LINE
  5
179DF
330
747D
100
AcDbEntity
  8
部品1
 48
50.0
100
AcDbLine
 10
10690.46137624742
 20
5580.51842916808
 30
0.0
 11
10688.43075505645
 21
5560.573387910299
 31
0.0
  0
ARC
  5
179E0
330
747D
100
AcDbEntity
  8
部品1
100
AcDbCircle
 10
9607.284565308084
 20
5523.391435852765
 30
0.0
 40
0.7
100
AcDbArc
 50
181.0932240292114
 51
260.1877540314845
  0
ARC
  5
179E1
330
747D
100
AcDbEntity
  8
部品1
100
AcDbCircle
 10
9602.511891710477
 20
5616.257214052884
 30
0.0
 40
0.7
100
AcDbArc
 50
181.0932240292114
 51
260.1877540314845
  0
ARC
  5
179E2
330
747D
100
AcDbEntity
  8
部品1
100
AcDbCircle
 10
9601.881337307455
 20
5612.611339515486
 30
0.0
 40
3.0
100
AcDbArc
 50
1.093224029263536
 51
80.18775403148449
  0
ARC
  5
179E3
330
747D
100
AcDbEntity
  8
部品1
100
AcDbCircle
 10
9606.65401090506
 20
5519.745561315367
 30
0.0
 40
3.0
100
AcDbArc
 50
1.093224029263536
 51
80.18775403148449
  0
ARC
  5
179E4
330
747D
100
AcDbEntity
  8
部品1
 48
50.0
100
AcDbCircle
 10
9616.854143280264
 20
5509.353317932886
 30
0.0
 40
7.0
100
AcDbArc
 50
181.0932240292635
 51
267.8377559871574
  0
ARC
  5
179E5
330
747D
100
AcDbEntity
  8
部品1
 48
50.0
100
AcDbCircle
 10
9608.430485178168
 20
5636.304377465982
 30
0.0
 40
7.0
100
AcDbArc
 50
87.03587545304044
 51
181.0932240292635
  0
LINE
  5
179E6
330
747D
100
AcDbEntity
  8
部品1
 48
50.0
100
AcDbLine
 10
9609.653464831492
 20
5519.802798918551
 30
0.0
 11
9609.855417451925
 21
5509.219763525457
 31
0.0
  0
LINE
  5
179E7
330
747D
100
AcDbEntity
  8
細線
 48
50.0
100
AcDbLine
 10
9607.047371774822
 20
5522.73284703736
 30
0.0
 11
10677.05103620545
 21
5482.923528062865
 31
0.0
  0
LINE
  5
179E8
330
747D
100
AcDbEntity
  8
細線
 48
50.0
100
AcDbLine
 10
9602.286896537535
 20
5615.594358735223
 30
0.0
 11
10687.9228812827
 21
5559.970154094395
 31
0.0
  0
LINE
  5
179E9
330
747D
100
AcDbEntity
  8
部品1
 48
50.0
100
AcDbLine
 10
9604.880791233886
 20
5612.668577118669
 30
0.0
 11
9606.584692725249
 21
5523.378080412023
 31
0.0
  0
LINE
  5
179EA
330
747D
100
AcDbEntity
  8
部品1
 48
50.0
100
AcDbLine
 10
9601.431759349829
 20
5636.170823058553
 30
0.0
 11
9601.81201912764
 21
5616.243858612143
 31
0.0
  0
LINE
  5
179EB
330
747D
100
AcDbEntity
  8
細線
 48
50.0
100
AcDbLine
 10
10658.24747343672
 20
5589.544255929157
 30
0.0
 11
10653.49979054872
 21
5463.798483438413
 31
0.0
  0
LINE
  5
179EC
330
747D
100
AcDbEntity
  8
細線
 48
50.0
100
AcDbLine
 10
9634.247473436722
 20
5641.976953269266
 30
0.0
 11
9628.958371881211
 21
5501.891320641911
 31
0.0
  0
LINE
  5
179ED
330
747D
100
AcDbEntity
  8
部品1
100
AcDbLine
 10
9616.590038038674
 20
5502.358301962828
 30
0.0
 11
10665.91117397656
 21
5463.329876728623
 31
0.0
  0
LINE
  5
179EE
330
747D
100
AcDbEntity
  8
部品1
100
AcDbLine
 10
9608.792459793683
 20
5643.295012228128
 30
0.0
 11
10683.85935029818
 21
5588.218074603001
 31
0.0
  0
TEXT
  5
179EF
330
747D
100
AcDbEntity
  8
部品1
 48
50.0
100
AcDbText
 10
9984.515308660448
 20
5811.329438147573
 30
0.0
 40
120.0
  1
1000
  7
STYLE1
100
AcDbText
  0
DIMENSION
  5
179F0
330
747D
100
AcDbEntity
  8
寸法
100
AcDbDimension
  2
*D35
 10
8799.653595281432
 20
5644.577276893866
 30
0.0
 11
8799.65359528143
 21
4597.155906173022
 31
0.0
 70
   160
 71
     5
 42
2075.000000000005
  3
INABA_S40G
100
AcDbAlignedDimension
 13
9661.247473436722
 23
3569.57727689386
 33
0.0
 14
9601.247473436725
 24
5644.577276893866
 34
0.0
 50
90.0
100
AcDbRotatedDimension
1001
ACAD
1000
DSTYLE
1002
{
1070
   174
1070
     0
1070
   272
1070
     1
1070
   288
1070
     0
1070
   341
1005
0
1002
}
  0
TEXT
  5
17A85
330
747D
100
AcDbEntity
  8
部品1
100
AcDbText
 10
9843.95824174611
 20
2673.607166858619
 30
0.0
 40
135.0
  1
側面図
  7
STYLE2
100
AcDbText
  0
LWPOLYLINE
  5
17A86
330
747D
100
AcDbEntity
  8
部品1
100
AcDbPolyline
 90
        4
 70
     1
 43
0.0
 10
9754.512140322503
 20
2866.500696077143
 10
9754.512140322503
 20
2626.60837453161
 10
10517.98280655094
 20
2626.60837453161
 10
10517.98280655094
 20
2866.500696077143
  0
TEXT
  5
17C51
330
747D
100
AcDbEntity
  8
文字
 62
     7
 48
50.0
100
AcDbText
 10
13583.11819016568
 20
8890.013745883727
 30
0.0
 40
100.0
  1
※豪雪補強
  7
STYLE1
100
AcDbText
  0
TEXT
  5
17C52
330
747D
100
AcDbEntity
  8
文字
 62
     7
 48
50.0
100
AcDbText
 10
13229.83081656553
 20
8720.013745883727
 30
0.0
 40
100.0
  1
※豪雪補強は豪雪地型のみ取付
 41
0.9
  7
STYLE1
100
AcDbText
  0
TEXT
  5
17C53
330
747D
100
AcDbEntity
  8
文字
 62
     7
 48
50.0
100
AcDbText
 10
13248.77747366447
 20
8890.013745883729
 30
0.0
 40
100.0
  1
14
  7
STYLE1
100
AcDbText
  0
TEXT
  5
17C54
330
747D
100
AcDbEntity
  8
文字
 62
     7
 48
50.0
100
AcDbText
 10
15022.63965474514
 20
8890.013745883722
 30
0.0
 40
100.0
  1
F12            1.0
  7
STYLE1
100
AcDbText
  0
LINE
  5
17C55
330
747D
100
AcDbEntity
  8
仕様書枠
 48
50.0
100
AcDbLine
 10
16307.19999999999
 20
9029.6
 30
0.0
 11
13127.19999999999
 21
9029.6
 31
0.0
  0
LINE
  5
17C56
330
747D
100
AcDbEntity
  8
仕様書枠
 48
50.0
100
AcDbLine
 10
16307.19999999999
 20
8859.6
 30
0.0
 11
13127.19999999999
 21
8859.6
 31
0.0
  0
ENDSEC
  0
SECTION
  2
OBJECTS
  0
DICTIONARY
  5
7471
330
0
100
AcDbDictionary
281
     1
  3
ACAD_COLOR
350
15D43
  3
ACAD_GROUP
350
7472
  3
ACAD_LAYOUT
350
15D44
  3
ACAD_MATERIAL
350
15D42
  3
ACAD_MLINESTYLE
350
7473
  3
ACAD_PLOTSETTINGS
350
15D45
  3
ACAD_PLOTSTYLENAME
350
15D40
  3
ACDBHEADERROUNDTRIPXREC
350
17C78
  3
AcDbVariableDictionary
350
17C74
  3
CONTENTDICTIONARY
350
E71C
  3
DRAWINGVARIABLESDICT
350
F3B9
  0
DICTIONARY
  5
15EBF
330
7467
100
AcDbDictionary
280
     1
281
     1
  3
ACAD_LAYERSTATES
360
15EC0
  0
DICTIONARY
  5
15D43
102
{ACAD_REACTORS
330
7471
102
}
330
7471
100
AcDbDictionary
281
     1
  0
DICTIONARY
  5
7472
102
{ACAD_REACTORS
330
7471
102
}
330
7471
100
AcDbDictionary
281
     1
  0
DICTIONARY
  5
15D44
102
{ACAD_REACTORS
330
7471
102
}
330
7471
100
AcDbDictionary
281
     1
  3
Model
350
15D46
  3
レイアウト1
350
15D47
  0
DICTIONARY
  5
15D42
102
{ACAD_REACTORS
330
7471
102
}
330
7471
100
AcDbDictionary
281
     1
  0
DICTIONARY
  5
7473
102
{ACAD_REACTORS
330
7471
102
}
330
7471
100
AcDbDictionary
281
     1
  3
STANDARD
350
7480
  0
DICTIONARY
  5
15D45
102
{ACAD_REACTORS
330
7471
102
}
330
7471
100
AcDbDictionary
281
     1
  0
ACDBDICTIONARYWDFLT
  5
15D40
102
{ACAD_REACTORS
330
7471
102
}
330
7471
100
AcDbDictionary
281
     1
  3
Normal
350
15D41
100
AcDbDictionaryWithDefault
340
15D41
  0
DICTIONARY
  5
17C78
102
{ACAD_REACTORS
330
7471
102
}
330
7471
100
AcDbDictionary
281
     1
  3
COLORDICT
350
17C7A
  3
MATERIALDICT
350
17C79
  0
DICTIONARY
  5
17C74
102
{ACAD_REACTORS
330
7471
102
}
330
7471
100
AcDbDictionary
281
     1
  3
DIMASSOC
350
17C75
  3
PROJECTNAME
350
17C76
  0
DICTIONARY
  5
E71C
102
{ACAD_REACTORS
330
7471
102
}
330
7471
100
AcDbDictionary
281
     1
  0
DICTIONARY
  5
F3B9
102
{ACAD_REACTORS
330
7471
102
}
330
7471
100
AcDbDictionary
281
     1
1001
DRAWINGVARIABLESXDATA
1000
POLARMODE
1000
1
  0
DICTIONARY
  5
15EC0
102
{ACAD_REACTORS
330
15EBF
102
}
330
15EBF
100
AcDbDictionary
281
     1
  0
LAYOUT
  5
15D46
102
{ACAD_XDICTIONARY
360
17C7B
102
}
102
{ACAD_REACTORS
330
15D44
102
}
330
15D44
100
AcDbPlotSettings
  1

  2
Microsoft Office Document Image Writer
  4

  6

 40
0.0
 41
0.0
 42
0.0
 43
0.0
 44
0.0
 45
0.0
 46
0.0
 47
0.0
 48
0.0
 49
0.0
140
0.0
141
0.0
142
1.0
143
1.0
 70
  1712
 72
     0
 73
     0
 74
     0
  7

 75
     0
147
1.0
148
0.0
149
0.0
100
AcDbLayout
  1
Model
 70
     1
 71
     0
 10
0.0
 20
0.0
 11
12.0
 21
9.0
 12
0.0
 22
0.0
 32
0.0
 14
0.0
 24
0.0
 34
0.0
 15
0.0
 25
0.0
 35
0.0
146
0.0
 13
0.0
 23
0.0
 33
0.0
 16
1.0
 26
0.0
 36
0.0
 17
0.0
 27
1.0
 37
0.0
 76
     0
330
747D
  0
LAYOUT
  5
15D47
102
{ACAD_XDICTIONARY
360
17C7D
102
}
102
{ACAD_REACTORS
330
15D44
102
}
330
15D44
100
AcDbPlotSettings
  1

  2
Microsoft Office Document Image Writer
  4

  6

 40
0.0
 41
0.0
 42
0.0
 43
0.0
 44
0.0
 45
0.0
 46
0.0
 47
0.0
 48
0.0
 49
0.0
140
0.0
141
0.0
142
1.0
143
1.0
 70
   688
 72
     0
 73
     0
 74
     5
  7

 75
    16
147
1.0
148
0.0
149
0.0
100
AcDbLayout
  1
レイアウト1
 70
     0
 71
     1
 10
0.0
 20
0.0
 11
420.0
 21
297.0
 12
0.0
 22
0.0
 32
0.0
 14
1.000000000000000E+20
 24
1.000000000000000E+20
 34
1.000000000000000E+20
 15
-1.000000000000000E+20
 25
-1.000000000000000E+20
 35
-1.000000000000000E+20
146
0.0
 13
0.0
 23
0.0
 33
0.0
 16
1.0
 26
0.0
 36
0.0
 17
0.0
 27
1.0
 37
0.0
 76
     0
330
747A
  0
MLINESTYLE
  5
7480
102
{ACAD_REACTORS
330
7473
102
}
330
7473
100
AcDbMlineStyle
  2
STANDARD
 70
     0
  3

 62
     0
 51
90.0
 52
90.0
 71
     2
 49
0.5
 62
   256
  6
BYLAYER
 49
-0.5
 62
   256
  6
BYLAYER
  0
ACDBPLACEHOLDER
  5
15D41
102
{ACAD_REACTORS
330
15D40
102
}
330
15D40
  0
XRECORD
  5
17C7A
102
{ACAD_REACTORS
330
17C78
102
}
330
17C78
100
AcDbXrecord
280
     1
340
15D43
  0
XRECORD
  5
17C79
102
{ACAD_REACTORS
330
17C78
102
}
330
17C78
100
AcDbXrecord
280
     1
340
15D42
  0
DICTIONARYVAR
  5
17C75
102
{ACAD_REACTORS
330
17C74
102
}
330
17C74
100
DictionaryVariables
280
     0
  1
1
  0
DICTIONARYVAR
  5
17C76
102
{ACAD_REACTORS
330
17C74
102
}
330
17C74
100
DictionaryVariables
280
     0
  1

  0
DICTIONARY
  5
17C7B
330
15D46
100
AcDbDictionary
280
     1
281
     1
  3
ACAD_XREC_ROUNDTRIP
360
17C7C
  0
DICTIONARY
  5
17C7D
330
15D47
100
AcDbDictionary
280
     1
281
     1
  3
ACAD_XREC_ROUNDTRIP
360
17C7E
  0
XRECORD
  5
17C7C
102
{ACAD_REACTORS
330
17C7B
102
}
330
17C7B
100
AcDbXrecord
280
     1
102
SHADEPLOT
 70
     0
102
SHADEPLOTRESLEVEL
 70
     2
102
SHADEPLOTCUSTOMDPI
 70
   300
  0
XRECORD
  5
17C7E
102
{ACAD_REACTORS
330
17C7D
102
}
330
17C7D
100
AcDbXrecord
280
     1
102
SHADEPLOT
 70
     0
102
SHADEPLOTRESLEVEL
 70
     2
102
SHADEPLOTCUSTOMDPI
 70
   300
  0
ENDSEC
  0
EOF
