  0
SECTION
  2
HEADER
  9
$ACADVER
  1
AC1015
  9
$ACADMAINTVER
 70
    20
  9
$DWGCODEPAGE
  3
ANSI_932
  9
$INSBASE
 10
0.0
 20
0.0
 30
0.0
  9
$EXTMIN
 10
139.9999999999995
 20
-0.0000000000000909
 30
0.0
  9
$EXTMAX
 10
16307.2
 20
11409.6
 30
0.0
  9
$LIMMIN
 10
0.0
 20
0.0
  9
$LIMMAX
 10
16800.0
 20
11880.0
  9
$ORTHOMODE
 70
     0
  9
$REGENMODE
 70
     1
  9
$FILLMODE
 70
     1
  9
$QTEXTMODE
 70
     0
  9
$MIRRTEXT
 70
     1
  9
$LTSCALE
 40
20.0
  9
$ATTMODE
 70
     1
  9
$TEXTSIZE
 40
100.0
  9
$TRACEWID
 40
1.0
  9
$TEXTSTYLE
  7
STYLE3
  9
$CLAYER
  8
寸法
  9
$CELTYPE
  6
BYLAYER
  9
$CECOLOR
 62
   256
  9
$CELTSCALE
 40
50.0
  9
$DISPSILH
 70
     0
  9
$DIMSCALE
 40
40.0
  9
$DIMASZ
 40
2.5
  9
$DIMEXO
 40
0.5
  9
$DIMDLI
 40
7.0
  9
$DIMRND
 40
0.0
  9
$DIMDLE
 40
0.0
  9
$DIMEXE
 40
1.5
  9
$DIMTP
 40
0.0
  9
$DIMTM
 40
0.0
  9
$DIMTXT
 40
3.0
  9
$DIMCEN
 40
0.0
  9
$DIMTSZ
 40
0.0
  9
$DIMTOL
 70
     0
  9
$DIMLIM
 70
     0
  9
$DIMTIH
 70
     0
  9
$DIMTOH
 70
     0
  9
$DIMSE1
 70
     0
  9
$DIMSE2
 70
     0
  9
$DIMTAD
 70
     3
  9
$DIMZIN
 70
     8
  9
$DIMBLK
  1

  9
$DIMASO
 70
     1
  9
$DIMSHO
 70
     1
  9
$DIMPOST
  1

  9
$DIMAPOST
  1

  9
$DIMALT
 70
     0
  9
$DIMALTD
 70
     2
  9
$DIMALTF
 40
0.0394
  9
$DIMLFAC
 40
1.0
  9
$DIMTOFL
 70
     1
  9
$DIMTVP
 40
0.0
  9
$DIMTIX
 70
     1
  9
$DIMSOXD
 70
     0
  9
$DIMSAH
 70
     1
  9
$DIMBLK1
  1
DOTSMALL
  9
$DIMBLK2
  1
DOTSMALL
  9
$DIMSTYLE
  2
INABA_S40G
  9
$DIMCLRD
 70
     0
  9
$DIMCLRE
 70
     0
  9
$DIMCLRT
 70
     7
  9
$DIMTFAC
 40
1.0
  9
$DIMGAP
 40
1.0
  9
$DIMJUST
 70
     0
  9
$DIMSD1
 70
     0
  9
$DIMSD2
 70
     0
  9
$DIMTOLJ
 70
     1
  9
$DIMTZIN
 70
     0
  9
$DIMALTZ
 70
     0
  9
$DIMALTTZ
 70
     0
  9
$DIMUPT
 70
     0
  9
$DIMDEC
 70
     1
  9
$DIMTDEC
 70
     4
  9
$DIMALTU
 70
     2
  9
$DIMALTTD
 70
     2
  9
$DIMTXSTY
  7
STYLE1
  9
$DIMAUNIT
 70
     0
  9
$DIMADEC
 70
     0
  9
$DIMALTRND
 40
0.0
  9
$DIMAZIN
 70
     0
  9
$DIMDSEP
 70
    46
  9
$DIMATFIT
 70
     3
  9
$DIMFRAC
 70
     0
  9
$DIMLDRBLK
  1

  9
$DIMLUNIT
 70
     2
  9
$DIMLWD
 70
    -2
  9
$DIMLWE
 70
    -2
  9
$DIMTMOVE
 70
     0
  9
$LUNITS
 70
     2
  9
$LUPREC
 70
     1
  9
$SKETCHINC
 40
1.0
  9
$FILLETRAD
 40
5.0
  9
$AUNITS
 70
     0
  9
$AUPREC
 70
     0
  9
$MENU
  1
acad
  9
$ELEVATION
 40
0.0
  9
$PELEVATION
 40
0.0
  9
$THICKNESS
 40
0.0
  9
$LIMCHECK
 70
     0
  9
$CHAMFERA
 40
0.0
  9
$CHAMFERB
 40
0.0
  9
$CHAMFERC
 40
0.0
  9
$CHAMFERD
 40
0.0
  9
$SKPOLY
 70
     0
  9
$TDCREATE
 40
2452116.684896065
  9
$TDUCREATE
 40
2452116.309896065
  9
$TDUPDATE
 40
2455575.689444618
  9
$TDUUPDATE
 40
2455575.314444618
  9
$TDINDWG
 40
0.5736826968
  9
$TDUSRTIMER
 40
0.5736826968
  9
$USRTIMER
 70
     1
  9
$ANGBASE
 50
0.0
  9
$ANGDIR
 70
     0
  9
$PDMODE
 70
     3
  9
$PDSIZE
 40
2.0
  9
$PLINEWID
 40
0.0
  9
$SPLFRAME
 70
     0
  9
$SPLINETYPE
 70
     6
  9
$SPLINESEGS
 70
     8
  9
$HANDSEED
  5
165F0
  9
$SURFTAB1
 70
     6
  9
$SURFTAB2
 70
     6
  9
$SURFTYPE
 70
     6
  9
$SURFU
 70
     6
  9
$SURFV
 70
     6
  9
$UCSBASE
  2

  9
$UCSNAME
  2

  9
$UCSORG
 10
0.0
 20
0.0
 30
0.0
  9
$UCSXDIR
 10
1.0
 20
0.0
 30
0.0
  9
$UCSYDIR
 10
0.0
 20
1.0
 30
0.0
  9
$UCSORTHOREF
  2

  9
$UCSORTHOVIEW
 70
     0
  9
$UCSORGTOP
 10
0.0
 20
0.0
 30
0.0
  9
$UCSORGBOTTOM
 10
0.0
 20
0.0
 30
0.0
  9
$UCSORGLEFT
 10
0.0
 20
0.0
 30
0.0
  9
$UCSORGRIGHT
 10
0.0
 20
0.0
 30
0.0
  9
$UCSORGFRONT
 10
0.0
 20
0.0
 30
0.0
  9
$UCSORGBACK
 10
0.0
 20
0.0
 30
0.0
  9
$PUCSBASE
  2

  9
$PUCSNAME
  2

  9
$PUCSORG
 10
0.0
 20
0.0
 30
0.0
  9
$PUCSXDIR
 10
1.0
 20
0.0
 30
0.0
  9
$PUCSYDIR
 10
0.0
 20
1.0
 30
0.0
  9
$PUCSORTHOREF
  2

  9
$PUCSORTHOVIEW
 70
     0
  9
$PUCSORGTOP
 10
0.0
 20
0.0
 30
0.0
  9
$PUCSORGBOTTOM
 10
0.0
 20
0.0
 30
0.0
  9
$PUCSORGLEFT
 10
0.0
 20
0.0
 30
0.0
  9
$PUCSORGRIGHT
 10
0.0
 20
0.0
 30
0.0
  9
$PUCSORGFRONT
 10
0.0
 20
0.0
 30
0.0
  9
$PUCSORGBACK
 10
0.0
 20
0.0
 30
0.0
  9
$USERI1
 70
     0
  9
$USERI2
 70
     0
  9
$USERI3
 70
     0
  9
$USERI4
 70
     0
  9
$USERI5
 70
     0
  9
$USERR1
 40
0.0
  9
$USERR2
 40
0.0
  9
$USERR3
 40
0.0
  9
$USERR4
 40
0.0
  9
$USERR5
 40
0.0
  9
$WORLDVIEW
 70
     1
  9
$SHADEDGE
 70
     3
  9
$SHADEDIF
 70
    70
  9
$TILEMODE
 70
     1
  9
$MAXACTVP
 70
    16
  9
$PINSBASE
 10
0.0
 20
0.0
 30
0.0
  9
$PLIMCHECK
 70
     0
  9
$PEXTMIN
 10
1.000000000000000E+20
 20
1.000000000000000E+20
 30
1.000000000000000E+20
  9
$PEXTMAX
 10
-1.000000000000000E+20
 20
-1.000000000000000E+20
 30
-1.000000000000000E+20
  9
$PLIMMIN
 10
0.0
 20
0.0
  9
$PLIMMAX
 10
420.0
 20
297.0
  9
$UNITMODE
 70
     0
  9
$VISRETAIN
 70
     0
  9
$PLINEGEN
 70
     0
  9
$PSLTSCALE
 70
     0
  9
$TREEDEPTH
 70
  3020
  9
$CMLSTYLE
  2
STANDARD
  9
$CMLJUST
 70
     0
  9
$CMLSCALE
 40
1.0
  9
$PROXYGRAPHICS
 70
     1
  9
$MEASUREMENT
 70
     1
  9
$CELWEIGHT
370
    -1
  9
$ENDCAPS
280
     0
  9
$JOINSTYLE
280
     0
  9
$LWDISPLAY
290
     0
  9
$INSUNITS
 70
     0
  9
$HYPERLINKBASE
  1

  9
$STYLESHEET
  1

  9
$XEDIT
290
     1
  9
$CEPSNTYPE
380
     0
  9
$PSTYLEMODE
290
     1
  9
$FINGERPRINTGUID
  2
{9F3B1010-CED9-4988-A37B-3D87A326296A}
  9
$VERSIONGUID
  2
{7DD723DA-62CF-41C4-9F6E-B1A6828FAE0B}
  9
$EXTNAMES
290
     1
  9
$PSVPSCALE
 40
0.0
  9
$OLESTARTUP
290
     0
  0
ENDSEC
  0
SECTION
  2
CLASSES
  0
CLASS
  1
ACDBDICTIONARYWDFLT
  2
AcDbDictionaryWithDefault
  3
ObjectDBX Classes
 90
        0
280
     0
281
     0
  0
CLASS
  1
DICTIONARYVAR
  2
AcDbDictionaryVar
  3
ObjectDBX Classes
 90
        0
280
     0
281
     0
  0
CLASS
  1
ACDBPLACEHOLDER
  2
AcDbPlaceHolder
  3
ObjectDBX Classes
 90
        0
280
     0
281
     0
  0
CLASS
  1
LAYOUT
  2
AcDbLayout
  3
ObjectDBX Classes
 90
        0
280
     0
281
     0
  0
ENDSEC
  0
SECTION
  2
TABLES
  0
TABLE
  2
VPORT
  5
746D
330
0
100
AcDbSymbolTable
 70
     2
  0
VPORT
  5
165E8
330
746D
100
AcDbSymbolTableRecord
100
AcDbViewportTableRecord
  2
*Active
 70
     0
 10
0.0
 20
0.0
 11
1.0
 21
1.0
 12
9076.945174409898
 22
6347.517243045213
 13
0.0
 23
0.0
 14
10.0
 24
10.0
 15
10.0
 25
10.0
 16
0.0
 26
0.0
 36
1.0
 17
0.0
 27
0.0
 37
0.0
 40
12783.89489347075
 41
1.525925925925926
 42
50.0
 43
0.0
 44
0.0
 50
0.0
 51
0.0
 71
     0
 72
     0
 73
     1
 74
     0
 75
     0
 76
     0
 77
     0
 78
     0
281
     0
 65
     1
110
0.0
120
0.0
130
0.0
111
1.0
121
0.0
131
0.0
112
0.0
122
1.0
132
0.0
 79
     0
146
0.0
  0
ENDTAB
  0
TABLE
  2
LTYPE
  5
746A
330
0
100
AcDbSymbolTable
 70
     4
  0
LTYPE
  5
7477
330
746A
100
AcDbSymbolTableRecord
100
AcDbLinetypeTableRecord
  2
BYBLOCK
 70
     0
  3

 72
    65
 73
     0
 40
0.0
  0
LTYPE
  5
7478
330
746A
100
AcDbSymbolTableRecord
100
AcDbLinetypeTableRecord
  2
BYLAYER
 70
     0
  3

 72
    65
 73
     0
 40
0.0
  0
LTYPE
  5
7479
330
746A
100
AcDbSymbolTableRecord
100
AcDbLinetypeTableRecord
  2
CONTINUOUS
 70
     0
  3
Solid line
 72
    65
 73
     0
 40
0.0
  0
LTYPE
  5
7816
330
746A
100
AcDbSymbolTableRecord
100
AcDbLinetypeTableRecord
  2
CENTER
 70
     0
  3
____ _ ____ _ ____ _ ____ _ ____ _ ____ _ ____ 
 72
    65
 73
     4
 40
2.0
 49
1.25
 74
     0
 49
-0.25
 74
     0
 49
0.25
 74
     0
 49
-0.25
 74
     0
  0
LTYPE
  5
781A
330
746A
100
AcDbSymbolTableRecord
100
AcDbLinetypeTableRecord
  2
HIDDEN
 70
     0
  3
__ __ __ __ __ __ __ __ __ __ __ __ __ __ __ __
 72
    65
 73
     2
 40
0.375
 49
0.25
 74
     0
 49
-0.125
 74
     0
  0
LTYPE
  5
781B
330
746A
100
AcDbSymbolTableRecord
100
AcDbLinetypeTableRecord
  2
PHANTOM
 70
     0
  3
______  __  __  ______  __  __  ______  __  __ 
 72
    65
 73
     6
 40
2.5
 49
1.25
 74
     0
 49
-0.25
 74
     0
 49
0.25
 74
     0
 49
-0.25
 74
     0
 49
0.25
 74
     0
 49
-0.25
 74
     0
  0
ENDTAB
  0
TABLE
  2
LAYER
  5
7467
102
{ACAD_XDICTIONARY
360
14BE0
102
}
330
0
100
AcDbSymbolTable
 70
    12
  0
LAYER
  5
7474
330
7467
100
AcDbSymbolTableRecord
100
AcDbLayerTableRecord
  2
0
 70
     0
 62
     7
  6
CONTINUOUS
370
    -3
390
14A2F
  0
LAYER
  5
DEB2
330
7467
100
AcDbSymbolTableRecord
100
AcDbLayerTableRecord
  2
センター
 70
     0
 62
     3
  6
CENTER
370
    -3
390
14A2F
  0
LAYER
  5
DEB3
330
7467
100
AcDbSymbolTableRecord
100
AcDbLayerTableRecord
  2
寸法
 70
     0
 62
     4
  6
CONTINUOUS
370
    -3
390
14A2F
  0
LAYER
  5
DEB4
330
7467
100
AcDbSymbolTableRecord
100
AcDbLayerTableRecord
  2
部品1
 70
     0
 62
     7
  6
CONTINUOUS
370
    -3
390
14A2F
  0
LAYER
  5
DEB5
330
7467
100
AcDbSymbolTableRecord
100
AcDbLayerTableRecord
  2
補助
 70
     0
 62
    -1
  6
CONTINUOUS
370
    -3
390
14A2F
  0
LAYER
  5
DEB6
330
7467
100
AcDbSymbolTableRecord
100
AcDbLayerTableRecord
  2
文字
 70
     0
 62
     7
  6
CONTINUOUS
370
    -3
390
14A2F
  0
LAYER
  5
F255
330
7467
100
AcDbSymbolTableRecord
100
AcDbLayerTableRecord
  2
DEFPOINTS
 70
     0
 62
     7
  6
CONTINUOUS
290
     0
370
    -3
390
14A2F
  0
LAYER
  5
10B54
330
7467
100
AcDbSymbolTableRecord
100
AcDbLayerTableRecord
  2
仕様書枠
 70
     0
 62
   230
  6
CONTINUOUS
370
    -3
390
14A2F
  0
LAYER
  5
11729
330
7467
100
AcDbSymbolTableRecord
100
AcDbLayerTableRecord
  2
Ｇ．Ｌ
 70
     0
 62
    30
  6
CONTINUOUS
370
    -3
390
14A2F
  0
LAYER
  5
1173F
330
7467
100
AcDbSymbolTableRecord
100
AcDbLayerTableRecord
  2
細線
 70
     0
 62
     5
  6
CONTINUOUS
370
    -3
390
14A2F
  0
LAYER
  5
118A1
330
7467
100
AcDbSymbolTableRecord
100
AcDbLayerTableRecord
  2
想像線
 70
     0
 62
     6
  6
PHANTOM
370
    -3
390
14A2F
  0
LAYER
  5
123C1
330
7467
100
AcDbSymbolTableRecord
100
AcDbLayerTableRecord
  2
破線
 70
     0
 62
     2
  6
HIDDEN
370
    -3
390
14A2F
  0
ENDTAB
  0
TABLE
  2
STYLE
  5
7468
330
0
100
AcDbSymbolTable
 70
     5
  0
STYLE
  5
7475
330
7468
100
AcDbSymbolTableRecord
100
AcDbTextStyleTableRecord
  2
STANDARD
 70
     0
 40
0.0
 41
1.0
 50
0.0
 71
     0
 42
4.0
  3
txt
  4
C:\AutoCAD LT\bigfont.shx
  0
STYLE
  5
F706
330
7468
100
AcDbSymbolTableRecord
100
AcDbTextStyleTableRecord
  2
STYLE1
 70
     0
 40
0.0
 41
1.0
 50
0.0
 71
     0
 42
4.0
  3
isocp.shx
  4
bigfont.shx
  0
STYLE
  5
103BF
330
7468
100
AcDbSymbolTableRecord
100
AcDbTextStyleTableRecord
  2
STYLE2
 70
     0
 40
0.0
 41
1.0
 50
0.0
 71
     0
 42
100.0
  3
MS PGothic.ttf
  4

1001
ACAD
1000
MS PGothic
1071
    32818
  0
STYLE
  5
10BAA
330
7468
100
AcDbSymbolTableRecord
100
AcDbTextStyleTableRecord
  2
STYLE3
 70
     0
 40
0.0
 41
1.0
 50
0.0
 71
     0
 42
100.0
  3

  4

1001
ACAD
1000
DFPGothic-EB
1071
    32818
  0
STYLE
  5
14BDE
330
7468
100
AcDbSymbolTableRecord
100
AcDbTextStyleTableRecord
  2
MSGOTHIC
 70
     0
 40
0.0
 41
1.0
 50
0.0
 71
     0
 42
3.5
  3
msgothi2.ttf
  4

  0
ENDTAB
  0
TABLE
  2
VIEW
  5
746B
330
0
100
AcDbSymbolTable
 70
     0
  0
ENDTAB
  0
TABLE
  2
UCS
  5
746C
330
0
100
AcDbSymbolTable
 70
     0
  0
ENDTAB
  0
TABLE
  2
APPID
  5
746E
330
0
100
AcDbSymbolTable
 70
     6
  0
APPID
  5
7476
330
746E
100
AcDbSymbolTableRecord
100
AcDbRegAppTableRecord
  2
ACAD
 70
     0
  0
APPID
  5
DEA9
330
746E
100
AcDbSymbolTableRecord
100
AcDbRegAppTableRecord
  2
CONTENTBLOCKICON
 70
     0
  0
APPID
  5
DEAA
330
746E
100
AcDbSymbolTableRecord
100
AcDbRegAppTableRecord
  2
CONTENTBLOCKDESCRIPTION
 70
     0
  0
APPID
  5
E71D
330
746E
100
AcDbSymbolTableRecord
100
AcDbRegAppTableRecord
  2
CONTENTTABDATA
 70
     0
  0
APPID
  5
E71E
330
746E
100
AcDbSymbolTableRecord
100
AcDbRegAppTableRecord
  2
CONTENTCURRENTTAB
 70
     0
  0
APPID
  5
F3BA
330
746E
100
AcDbSymbolTableRecord
100
AcDbRegAppTableRecord
  2
DRAWINGVARIABLESXDATA
 70
     0
  0
ENDTAB
  0
TABLE
  2
DIMSTYLE
  5
746F
330
0
100
AcDbSymbolTable
 70
     3
100
AcDbDimStyleTable
 71
     1
340
F71F
  0
DIMSTYLE
105
7484
330
746F
100
AcDbSymbolTableRecord
100
AcDbDimStyleTableRecord
  2
JIS
 70
     0
 41
2.5
 42
1.0
 43
7.0
 44
1.0
 73
     0
 74
     0
 77
     1
 78
     8
140
2.5
141
0.0
143
0.0394
147
0.0
172
     1
174
     1
175
     1
340
7475
  0
DIMSTYLE
105
F71F
102
{ACAD_REACTORS
330
13ACA
330
13B15
330
13B17
330
13B23
330
13B3C
330
13B9A
330
13BA6
330
13BA9
330
13BAE
330
13EA2
330
13EBD
330
14548
330
14562
330
149B4
330
149D6
330
14A1F
330
14F41
330
14F5F
330
14F60
330
14F61
330
14F62
330
14F63
330
15980
330
1597F
330
15981
330
159D3
330
16552
330
16553
102
}
330
746F
100
AcDbSymbolTableRecord
100
AcDbDimStyleTableRecord
  2
INABA_S40G
 70
     0
 40
40.0
 41
2.5
 42
0.5
 43
7.0
 44
1.5
 73
     0
 74
     0
 77
     3
 78
     8
140
3.0
141
0.0
143
0.0394
147
1.0
172
     1
173
     1
174
     1
178
     7
271
     1
340
F706
341
F770
343
F770
344
F770
  0
DIMSTYLE
105
14BDF
102
{ACAD_REACTORS
330
15008
102
}
330
746F
100
AcDbSymbolTableRecord
100
AcDbDimStyleTableRecord
  2
INABA_S40
 70
     0
 40
40.0
 41
2.5
 42
0.5
 43
7.0
 44
1.5
 73
     0
 74
     0
 77
     3
 78
     8
140
3.0
141
0.0
143
0.0394
147
1.0
172
     1
173
     1
174
     1
175
     1
178
     7
289
     0
340
7475
341
14A3D
343
14A3D
344
14A3D
  0
ENDTAB
  0
TABLE
  2
BLOCK_RECORD
  5
7466
330
0
100
AcDbSymbolTable
 70
    32
  0
BLOCK_RECORD
  5
747D
330
7466
100
AcDbSymbolTableRecord
100
AcDbBlockTableRecord
  2
*MODEL_SPACE
340
14A34
  0
BLOCK_RECORD
  5
747A
330
7466
100
AcDbSymbolTableRecord
100
AcDbBlockTableRecord
  2
*PAPER_SPACE
340
14A35
  0
BLOCK_RECORD
  5
F770
330
7466
100
AcDbSymbolTableRecord
100
AcDbBlockTableRecord
  2
_DOTSMALL
340
0
102
{BLKREFS
331
15C52
331
15C53
331
15C5D
331
15C5E
331
15C66
331
15C67
331
15C6F
331
15C70
331
15C96
331
15C97
331
15C9F
331
15CA0
331
15CA8
331
15CA9
331
15CB3
331
15CB4
331
15CBD
331
15CBE
331
15CCF
331
15CD0
331
15CD8
331
15CD9
331
15CE1
331
15CE2
331
15CEA
331
15CEB
331
15CF5
331
15CF6
331
15CFE
331
15CFF
331
15D07
331
15D08
331
15D12
331
15D13
331
15D1B
331
15D1C
331
15D24
331
15D25
331
15D2F
331
15D30
331
15D3A
331
15D3B
331
15D43
331
15D44
331
15D4E
331
15D4F
331
15D57
331
15D58
331
15D60
331
15D61
331
15DAE
331
15DAF
331
16576
331
16577
331
16581
331
16582
102
}
  0
BLOCK_RECORD
  5
13C12
330
7466
100
AcDbSymbolTableRecord
100
AcDbBlockTableRecord
  2
*D1
340
0
  0
BLOCK_RECORD
  5
13C5D
330
7466
100
AcDbSymbolTableRecord
100
AcDbBlockTableRecord
  2
*D2
340
0
  0
BLOCK_RECORD
  5
13C69
330
7466
100
AcDbSymbolTableRecord
100
AcDbBlockTableRecord
  2
*D3
340
0
  0
BLOCK_RECORD
  5
13C83
330
7466
100
AcDbSymbolTableRecord
100
AcDbBlockTableRecord
  2
*D4
340
0
  0
BLOCK_RECORD
  5
13CCF
330
7466
100
AcDbSymbolTableRecord
100
AcDbBlockTableRecord
  2
*D5
340
0
  0
BLOCK_RECORD
  5
13CDD
330
7466
100
AcDbSymbolTableRecord
100
AcDbBlockTableRecord
  2
*D6
340
0
  0
BLOCK_RECORD
  5
13CF8
330
7466
100
AcDbSymbolTableRecord
100
AcDbBlockTableRecord
  2
*D7
340
0
  0
BLOCK_RECORD
  5
13D10
330
7466
100
AcDbSymbolTableRecord
100
AcDbBlockTableRecord
  2
*D8
340
0
  0
BLOCK_RECORD
  5
13D1C
330
7466
100
AcDbSymbolTableRecord
100
AcDbBlockTableRecord
  2
*D9
340
0
  0
BLOCK_RECORD
  5
13EC4
330
7466
100
AcDbSymbolTableRecord
100
AcDbBlockTableRecord
  2
*D10
340
0
  0
BLOCK_RECORD
  5
13EDC
330
7466
100
AcDbSymbolTableRecord
100
AcDbBlockTableRecord
  2
*D11
340
0
  0
BLOCK_RECORD
  5
1453A
330
7466
100
AcDbSymbolTableRecord
100
AcDbBlockTableRecord
  2
*D12
340
0
  0
BLOCK_RECORD
  5
14556
330
7466
100
AcDbSymbolTableRecord
100
AcDbBlockTableRecord
  2
*D13
340
0
  0
BLOCK_RECORD
  5
149B5
330
7466
100
AcDbSymbolTableRecord
100
AcDbBlockTableRecord
  2
*D14
340
0
  0
BLOCK_RECORD
  5
149D7
330
7466
100
AcDbSymbolTableRecord
100
AcDbBlockTableRecord
  2
*D15
340
0
  0
BLOCK_RECORD
  5
14A20
330
7466
100
AcDbSymbolTableRecord
100
AcDbBlockTableRecord
  2
*D16
340
0
  0
BLOCK_RECORD
  5
14A3D
330
7466
100
AcDbSymbolTableRecord
100
AcDbBlockTableRecord
  2
_OPEN
340
0
  0
BLOCK_RECORD
  5
14A43
330
7466
100
AcDbSymbolTableRecord
100
AcDbBlockTableRecord
  2
_DOT
340
0
102
{BLKREFS
331
15DC0
331
15DC1
102
}
  0
BLOCK_RECORD
  5
15218
330
7466
100
AcDbSymbolTableRecord
100
AcDbBlockTableRecord
  2
*D19
340
0
  0
BLOCK_RECORD
  5
15224
330
7466
100
AcDbSymbolTableRecord
100
AcDbBlockTableRecord
  2
*D20
340
0
  0
BLOCK_RECORD
  5
15231
330
7466
100
AcDbSymbolTableRecord
100
AcDbBlockTableRecord
  2
*D21
340
0
  0
BLOCK_RECORD
  5
1523F
330
7466
100
AcDbSymbolTableRecord
100
AcDbBlockTableRecord
  2
*D22
340
0
  0
BLOCK_RECORD
  5
1524B
330
7466
100
AcDbSymbolTableRecord
100
AcDbBlockTableRecord
  2
*D23
340
0
  0
BLOCK_RECORD
  5
15257
330
7466
100
AcDbSymbolTableRecord
100
AcDbBlockTableRecord
  2
*D24
340
0
  0
BLOCK_RECORD
  5
152B0
330
7466
100
AcDbSymbolTableRecord
100
AcDbBlockTableRecord
  2
*D25
340
0
  0
BLOCK_RECORD
  5
15990
330
7466
100
AcDbSymbolTableRecord
100
AcDbBlockTableRecord
  2
*D26
340
0
  0
BLOCK_RECORD
  5
1599C
330
7466
100
AcDbSymbolTableRecord
100
AcDbBlockTableRecord
  2
*D27
340
0
  0
BLOCK_RECORD
  5
159A8
330
7466
100
AcDbSymbolTableRecord
100
AcDbBlockTableRecord
  2
*D28
340
0
  0
BLOCK_RECORD
  5
159DE
330
7466
100
AcDbSymbolTableRecord
100
AcDbBlockTableRecord
  2
*D29
340
0
  0
BLOCK_RECORD
  5
16559
330
7466
100
AcDbSymbolTableRecord
100
AcDbBlockTableRecord
  2
*D30
340
0
  0
BLOCK_RECORD
  5
16565
330
7466
100
AcDbSymbolTableRecord
100
AcDbBlockTableRecord
  2
*D31
340
0
  0
ENDTAB
  0
ENDSEC
  0
SECTION
  2
BLOCKS
  0
BLOCK
  5
7489
330
747D
100
AcDbEntity
  8
0
100
AcDbBlockBegin
  2
*MODEL_SPACE
 70
     0
 10
0.0
 20
0.0
 30
0.0
  3
*MODEL_SPACE
  1

  0
ENDBLK
  5
748A
330
747D
100
AcDbEntity
  8
0
100
AcDbBlockEnd
  0
BLOCK
  5
7487
330
747A
100
AcDbEntity
 67
     1
  8
0
100
AcDbBlockBegin
  2
*PAPER_SPACE
 70
     0
 10
0.0
 20
0.0
 30
0.0
  3
*PAPER_SPACE
  1

  0
ENDBLK
  5
7488
330
747A
100
AcDbEntity
 67
     1
  8
0
100
AcDbBlockEnd
  0
BLOCK
  5
F771
330
F770
100
AcDbEntity
  8
0
 48
50.0
100
AcDbBlockBegin
  2
_DOTSMALL
 70
     0
 10
0.0
 20
0.0
 30
0.0
  3
_DOTSMALL
  1

  0
LWPOLYLINE
  5
F772
330
F770
100
AcDbEntity
  8
0
  6
ByBlock
 62
     0
 48
50.0
100
AcDbPolyline
 90
        2
 70
     1
 43
0.5
 10
-0.0625
 20
0.0
 42
1.0
 10
0.0625
 20
0.0
 42
1.0
  0
ENDBLK
  5
F776
330
F770
100
AcDbEntity
  8
0
 48
50.0
100
AcDbBlockEnd
  0
BLOCK
  5
1488F
330
13C12
100
AcDbEntity
  8
0
 48
50.0
100
AcDbBlockBegin
  2
*D1
 70
     1
 10
0.0
 20
0.0
 30
0.0
  3
*D1
  1

  0
LINE
  5
15D5D
330
13C12
100
AcDbEntity
  8
寸法
 62
     0
 48
50.0
370
    -2
100
AcDbLine
 10
5509.295015675678
 20
5391.07727689386
 30
0.0
 11
5151.190488068075
 21
5391.07727689386
 31
0.0
  0
LINE
  5
15D5E
330
13C12
100
AcDbEntity
  8
寸法
 62
     0
 48
50.0
370
    -2
100
AcDbLine
 10
5509.295015675678
 20
3631.077276893865
 30
0.0
 11
5151.190488068075
 21
3631.077276893865
 31
0.0
  0
LINE
  5
15D5F
330
13C12
100
AcDbEntity
  8
寸法
 62
     0
 48
50.0
370
    -2
100
AcDbLine
 10
5211.190488068075
 20
5391.07727689386
 30
0.0
 11
5211.190488068075
 21
3631.077276893865
 31
0.0
  0
INSERT
  5
15D60
330
13C12
100
AcDbEntity
  8
寸法
 62
     0
 48
50.0
370
    -2
100
AcDbBlockReference
  2
_DOTSMALL
 10
5211.190488068075
 20
5391.07727689386
 30
0.0
 41
100.0
 42
100.0
 43
100.0
 50
90.0
  0
INSERT
  5
15D61
330
13C12
100
AcDbEntity
  8
寸法
 62
     0
 48
50.0
370
    -2
100
AcDbBlockReference
  2
_DOTSMALL
 10
5211.190488068075
 20
3631.077276893865
 30
0.0
 41
100.0
 42
100.0
 43
100.0
 50
270.0
  0
MTEXT
  5
15D62
330
13C12
100
AcDbEntity
  8
寸法
 62
     7
 48
50.0
100
AcDbMText
 10
5111.190488068074
 20
4510.077276893862
 30
0.0
 40
120.0
 41
0.0
 71
     5
 72
     1
  1
\A1;有効開口部高サ1760
  7
STYLE1
 11
0.0000000000000001
 21
1.0
 31
0.0
 73
     1
 44
1.0
1001
ACAD
1000
MTEXTBEGIN
1070
    73
1070
     1
1070
    44
1040
1.0
1070
    74
1070
     0
1000
MTEXTEND
  0
POINT
  5
15D63
330
13C12
100
AcDbEntity
  8
DEFPOINTS
 62
     0
 48
50.0
100
AcDbPoint
 10
5529.295015675678
 20
5391.07727689386
 30
0.0
  0
POINT
  5
15D64
330
13C12
100
AcDbEntity
  8
DEFPOINTS
 62
     0
 48
50.0
100
AcDbPoint
 10
5529.295015675678
 20
3631.077276893865
 30
0.0
  0
POINT
  5
15D65
330
13C12
100
AcDbEntity
  8
DEFPOINTS
 62
     0
 48
50.0
100
AcDbPoint
 10
5211.190488068075
 20
3631.077276893865
 30
0.0
  0
ENDBLK
  5
14899
330
13C12
100
AcDbEntity
  8
0
 48
50.0
100
AcDbBlockEnd
  0
BLOCK
  5
14695
330
13C5D
100
AcDbEntity
  8
0
 48
50.0
100
AcDbBlockBegin
  2
*D2
 70
     1
 10
0.0
 20
0.0
 30
0.0
  3
*D2
  1

  0
LINE
  5
15D54
330
13C5D
100
AcDbEntity
  8
寸法
 62
     0
 48
50.0
370
    -2
100
AcDbLine
 10
5584.295015675684
 20
9326.365915108434
 30
0.0
 11
5584.295015675684
 21
9582.174134733532
 31
0.0
  0
LINE
  5
15D55
330
13C5D
100
AcDbEntity
  8
寸法
 62
     0
 48
50.0
370
    -2
100
AcDbLine
 10
6294.295015675683
 20
9326.365915108555
 30
0.0
 11
6294.295015675683
 21
9582.174134733532
 31
0.0
  0
LINE
  5
15D56
330
13C5D
100
AcDbEntity
  8
寸法
 62
     0
 48
50.0
370
    -2
100
AcDbLine
 10
5584.295015675684
 20
9522.174134733532
 30
0.0
 11
6294.295015675683
 21
9522.174134733532
 31
0.0
  0
INSERT
  5
15D57
330
13C5D
100
AcDbEntity
  8
寸法
 62
     0
 48
50.0
370
    -2
100
AcDbBlockReference
  2
_DOTSMALL
 10
5584.295015675684
 20
9522.174134733532
 30
0.0
 41
100.0
 42
100.0
 43
100.0
 50
180.0
  0
INSERT
  5
15D58
330
13C5D
100
AcDbEntity
  8
寸法
 62
     0
 48
50.0
370
    -2
100
AcDbBlockReference
  2
_DOTSMALL
 10
6294.295015675683
 20
9522.174134733532
 30
0.0
 41
100.0
 42
100.0
 43
100.0
  0
MTEXT
  5
15D59
330
13C5D
100
AcDbEntity
  8
寸法
 62
     7
 48
50.0
100
AcDbMText
 10
5939.545015675683
 20
9622.174134733533
 30
0.0
 40
120.0
 41
0.0
 71
     5
 72
     1
  1
\A1;710
  7
STYLE1
 73
     1
 44
1.0
1001
ACAD
1000
MTEXTBEGIN
1070
    73
1070
     1
1070
    44
1040
1.0
1070
    74
1070
     0
1000
MTEXTEND
  0
POINT
  5
15D5A
330
13C5D
100
AcDbEntity
  8
DEFPOINTS
 62
     0
 48
50.0
100
AcDbPoint
 10
5584.295015675684
 20
9306.365915108434
 30
0.0
  0
POINT
  5
15D5B
330
13C5D
100
AcDbEntity
  8
DEFPOINTS
 62
     0
 48
50.0
100
AcDbPoint
 10
6294.295015675683
 20
9306.365915108555
 30
0.0
  0
POINT
  5
15D5C
330
13C5D
100
AcDbEntity
  8
DEFPOINTS
 62
     0
 48
50.0
100
AcDbPoint
 10
6294.295015675683
 20
9522.174134733532
 30
0.0
  0
ENDBLK
  5
1469F
330
13C5D
100
AcDbEntity
  8
0
 48
50.0
100
AcDbBlockEnd
  0
BLOCK
  5
13DD4
330
13C69
100
AcDbEntity
  8
0
 48
50.0
100
AcDbBlockBegin
  2
*D3
 70
     1
 10
0.0
 20
0.0
 30
0.0
  3
*D3
  1

  0
LINE
  5
15D49
330
13C69
100
AcDbEntity
  8
寸法
 62
     0
 48
50.0
370
    -2
100
AcDbLine
 10
7114.295015675685
 20
9326.36591510853
 30
0.0
 11
7114.295015675685
 21
9582.174134733511
 31
0.0
  0
LINE
  5
15D4A
330
13C69
100
AcDbEntity
  8
寸法
 62
     0
 48
50.0
370
    -2
100
AcDbLine
 10
7169.295015675685
 20
9326.36591510853
 30
0.0
 11
7169.295015675685
 21
9582.174134733511
 31
0.0
  0
LINE
  5
15D4B
330
13C69
100
AcDbEntity
  8
寸法
 62
     0
 48
50.0
370
    -2
100
AcDbLine
 10
7114.295015675685
 20
9522.174134733509
 30
0.0
 11
7014.295015675685
 21
9522.174134733509
 31
0.0
  0
LINE
  5
15D4C
330
13C69
100
AcDbEntity
  8
寸法
 62
     0
 48
50.0
370
    -2
100
AcDbLine
 10
7169.295015675685
 20
9522.174134733509
 30
0.0
 11
7586.265578424162
 21
9522.174134733509
 31
0.0
  0
LINE
  5
15D4D
330
13C69
100
AcDbEntity
  8
寸法
 62
     0
 48
50.0
370
    -2
100
AcDbLine
 10
7114.295015675685
 20
9522.174134733509
 30
0.0
 11
7169.295015675685
 21
9522.174134733509
 31
0.0
  0
INSERT
  5
15D4E
330
13C69
100
AcDbEntity
  8
寸法
 62
     0
 48
50.0
370
    -2
100
AcDbBlockReference
  2
_DOTSMALL
 10
7114.295015675685
 20
9522.174134733509
 30
0.0
 41
100.0
 42
100.0
 43
100.0
  0
INSERT
  5
15D4F
330
13C69
100
AcDbEntity
  8
寸法
 62
     0
 48
50.0
370
    -2
100
AcDbBlockReference
  2
_DOTSMALL
 10
7169.295015675685
 20
9522.174134733509
 30
0.0
 41
100.0
 42
100.0
 43
100.0
 50
180.0
  0
MTEXT
  5
15D50
330
13C69
100
AcDbEntity
  8
寸法
 62
     7
 48
50.0
100
AcDbMText
 10
7477.780297049924
 20
9622.17413473351
 30
0.0
 40
120.0
 41
0.0
 71
     5
 72
     1
  1
\A1;55
  7
STYLE1
 73
     1
 44
1.0
1001
ACAD
1000
MTEXTBEGIN
1070
    73
1070
     1
1070
    44
1040
1.0
1070
    74
1070
     0
1000
MTEXTEND
  0
POINT
  5
15D51
330
13C69
100
AcDbEntity
  8
DEFPOINTS
 62
     0
 48
50.0
100
AcDbPoint
 10
7114.295015675685
 20
9306.365915108528
 30
0.0
  0
POINT
  5
15D52
330
13C69
100
AcDbEntity
  8
DEFPOINTS
 62
     0
 48
50.0
100
AcDbPoint
 10
7169.295015675685
 20
9306.365915108528
 30
0.0
  0
POINT
  5
15D53
330
13C69
100
AcDbEntity
  8
DEFPOINTS
 62
     0
 48
50.0
100
AcDbPoint
 10
7169.295015675685
 20
9522.174134733509
 30
0.0
  0
ENDBLK
  5
13DE0
330
13C69
100
AcDbEntity
  8
0
 48
50.0
100
AcDbBlockEnd
  0
BLOCK
  5
1477E
330
13C83
100
AcDbEntity
  8
0
 48
50.0
100
AcDbBlockBegin
  2
*D4
 70
     1
 10
0.0
 20
0.0
 30
0.0
  3
*D4
  1

  0
LINE
  5
15D40
330
13C83
100
AcDbEntity
  8
寸法
 62
     0
 48
50.0
370
    -2
100
AcDbLine
 10
5529.295015675678
 20
8336.365915108354
 30
0.0
 11
5529.295015675678
 21
7309.264040248283
 31
0.0
  0
LINE
  5
15D41
330
13C83
100
AcDbEntity
  8
寸法
 62
     0
 48
50.0
370
    -2
100
AcDbLine
 10
7169.295015675659
 20
8336.365915108485
 30
0.0
 11
7169.295015675659
 21
7309.264040248283
 31
0.0
  0
LINE
  5
15D42
330
13C83
100
AcDbEntity
  8
寸法
 62
     0
 48
50.0
370
    -2
100
AcDbLine
 10
5529.295015675678
 20
7369.264040248284
 30
0.0
 11
7169.295015675659
 21
7369.264040248284
 31
0.0
  0
INSERT
  5
15D43
330
13C83
100
AcDbEntity
  8
寸法
 62
     0
 48
50.0
370
    -2
100
AcDbBlockReference
  2
_DOTSMALL
 10
5529.295015675678
 20
7369.264040248284
 30
0.0
 41
100.0
 42
100.0
 43
100.0
 50
180.0
  0
INSERT
  5
15D44
330
13C83
100
AcDbEntity
  8
寸法
 62
     0
 48
50.0
370
    -2
100
AcDbBlockReference
  2
_DOTSMALL
 10
7169.295015675659
 20
7369.264040248284
 30
0.0
 41
100.0
 42
100.0
 43
100.0
  0
MTEXT
  5
15D45
330
13C83
100
AcDbEntity
  8
寸法
 62
     7
 48
50.0
100
AcDbMText
 10
6341.046557518661
 20
7469.264040248283
 30
0.0
 40
120.0
 41
0.0
 71
     5
 72
     1
  1
\A1;1640
  7
STYLE1
 73
     1
 44
1.0
1001
ACAD
1000
MTEXTBEGIN
1070
    73
1070
     1
1070
    44
1040
1.0
1070
    74
1070
     0
1000
MTEXTEND
  0
POINT
  5
15D46
330
13C83
100
AcDbEntity
  8
DEFPOINTS
 62
     0
 48
50.0
100
AcDbPoint
 10
5529.295015675678
 20
8356.365915108353
 30
0.0
  0
POINT
  5
15D47
330
13C83
100
AcDbEntity
  8
DEFPOINTS
 62
     0
 48
50.0
100
AcDbPoint
 10
7169.295015675659
 20
8356.365915108485
 30
0.0
  0
POINT
  5
15D48
330
13C83
100
AcDbEntity
  8
DEFPOINTS
 62
     0
 48
50.0
100
AcDbPoint
 10
7169.295015675659
 20
7369.264040248284
 30
0.0
  0
ENDBLK
  5
14788
330
13C83
100
AcDbEntity
  8
0
 48
50.0
100
AcDbBlockEnd
  0
BLOCK
  5
13E32
330
13CCF
100
AcDbEntity
  8
0
 48
50.0
100
AcDbBlockBegin
  2
*D5
 70
     1
 10
0.0
 20
0.0
 30
0.0
  3
*D5
  1

  0
LINE
  5
15D35
330
13CCF
100
AcDbEntity
  8
寸法
 62
     0
 48
50.0
370
    -2
100
AcDbLine
 10
5529.29501567565
 20
9326.365915108434
 30
0.0
 11
5529.29501567565
 21
9582.174134733415
 31
0.0
  0
LINE
  5
15D36
330
13CCF
100
AcDbEntity
  8
寸法
 62
     0
 48
50.0
370
    -2
100
AcDbLine
 10
5584.295015675684
 20
9326.365915108434
 30
0.0
 11
5584.295015675684
 21
9582.174134733415
 31
0.0
  0
LINE
  5
15D37
330
13CCF
100
AcDbEntity
  8
寸法
 62
     0
 48
50.0
370
    -2
100
AcDbLine
 10
5584.295015675684
 20
9522.174134733417
 30
0.0
 11
5684.295015675684
 21
9522.174134733417
 31
0.0
  0
LINE
  5
15D38
330
13CCF
100
AcDbEntity
  8
寸法
 62
     0
 48
50.0
370
    -2
100
AcDbLine
 10
5529.29501567565
 20
9522.174134733417
 30
0.0
 11
5112.324452927172
 21
9522.174134733417
 31
0.0
  0
LINE
  5
15D39
330
13CCF
100
AcDbEntity
  8
寸法
 62
     0
 48
50.0
370
    -2
100
AcDbLine
 10
5584.295015675684
 20
9522.174134733417
 30
0.0
 11
5529.29501567565
 21
9522.174134733417
 31
0.0
  0
INSERT
  5
15D3A
330
13CCF
100
AcDbEntity
  8
寸法
 62
     0
 48
50.0
370
    -2
100
AcDbBlockReference
  2
_DOTSMALL
 10
5584.295015675684
 20
9522.174134733417
 30
0.0
 41
100.0
 42
100.0
 43
100.0
 50
180.0
  0
INSERT
  5
15D3B
330
13CCF
100
AcDbEntity
  8
寸法
 62
     0
 48
50.0
370
    -2
100
AcDbBlockReference
  2
_DOTSMALL
 10
5529.29501567565
 20
9522.174134733417
 30
0.0
 41
100.0
 42
100.0
 43
100.0
  0
MTEXT
  5
15D3C
330
13CCF
100
AcDbEntity
  8
寸法
 62
     7
 48
50.0
100
AcDbMText
 10
5220.809734301411
 20
9622.174134733416
 30
0.0
 40
120.0
 41
0.0
 71
     5
 72
     1
  1
\A1;55
  7
STYLE1
 73
     1
 44
1.0
1001
ACAD
1000
MTEXTBEGIN
1070
    73
1070
     1
1070
    44
1040
1.0
1070
    74
1070
     0
1000
MTEXTEND
  0
POINT
  5
15D3D
330
13CCF
100
AcDbEntity
  8
DEFPOINTS
 62
     0
 48
50.0
100
AcDbPoint
 10
5529.29501567565
 20
9306.365915108434
 30
0.0
  0
POINT
  5
15D3E
330
13CCF
100
AcDbEntity
  8
DEFPOINTS
 62
     0
 48
50.0
100
AcDbPoint
 10
5584.295015675684
 20
9306.365915108434
 30
0.0
  0
POINT
  5
15D3F
330
13CCF
100
AcDbEntity
  8
DEFPOINTS
 62
     0
 48
50.0
100
AcDbPoint
 10
5584.295015675684
 20
9522.174134733417
 30
0.0
  0
ENDBLK
  5
13E3E
330
13CCF
100
AcDbEntity
  8
0
 48
50.0
100
AcDbBlockEnd
  0
BLOCK
  5
13E3F
330
13CDD
100
AcDbEntity
  8
0
 48
50.0
100
AcDbBlockBegin
  2
*D6
 70
     1
 10
0.0
 20
0.0
 30
0.0
  3
*D6
  1

  0
LINE
  5
15D2A
330
13CDD
100
AcDbEntity
  8
寸法
 62
     0
 48
50.0
370
    -2
100
AcDbLine
 10
7189.29501567566
 20
8411.365915108515
 30
0.0
 11
7876.721361410069
 21
8411.365915108515
 31
0.0
  0
LINE
  5
15D2B
330
13CDD
100
AcDbEntity
  8
寸法
 62
     0
 48
50.0
370
    -2
100
AcDbLine
 10
7189.29501567566
 20
8356.365915108517
 30
0.0
 11
7876.721361410069
 21
8356.365915108517
 31
0.0
  0
LINE
  5
15D2C
330
13CDD
100
AcDbEntity
  8
寸法
 62
     0
 48
50.0
370
    -2
100
AcDbLine
 10
7816.721361410071
 20
8411.365915108515
 30
0.0
 11
7816.721361410071
 21
8511.365915108514
 31
0.0
  0
LINE
  5
15D2D
330
13CDD
100
AcDbEntity
  8
寸法
 62
     0
 48
50.0
370
    -2
100
AcDbLine
 10
7816.721361410071
 20
8356.365915108517
 30
0.0
 11
7816.721361410071
 21
7870.019166829418
 31
0.0
  0
LINE
  5
15D2E
330
13CDD
100
AcDbEntity
  8
寸法
 62
     0
 48
50.0
370
    -2
100
AcDbLine
 10
7816.721361410071
 20
8411.365915108515
 30
0.0
 11
7816.721361410071
 21
8356.365915108517
 31
0.0
  0
INSERT
  5
15D2F
330
13CDD
100
AcDbEntity
  8
寸法
 62
     0
 48
50.0
370
    -2
100
AcDbBlockReference
  2
_DOTSMALL
 10
7816.721361410071
 20
8411.365915108515
 30
0.0
 41
100.0
 42
100.0
 43
100.0
 50
270.0
  0
INSERT
  5
15D30
330
13CDD
100
AcDbEntity
  8
寸法
 62
     0
 48
50.0
370
    -2
100
AcDbBlockReference
  2
_DOTSMALL
 10
7816.721361410071
 20
8356.365915108517
 30
0.0
 41
100.0
 42
100.0
 43
100.0
 50
90.0
  0
MTEXT
  5
15D31
330
13CDD
100
AcDbEntity
  8
寸法
 62
     7
 48
50.0
100
AcDbMText
 10
7716.721361410069
 20
7978.504448203658
 30
0.0
 40
120.0
 41
0.0
 71
     5
 72
     1
  1
\A1;55
  7
STYLE1
 11
0.0000000000000001
 21
1.0
 31
0.0
 73
     1
 44
1.0
1001
ACAD
1000
MTEXTBEGIN
1070
    73
1070
     1
1070
    44
1040
1.0
1070
    74
1070
     0
1000
MTEXTEND
  0
POINT
  5
15D32
330
13CDD
100
AcDbEntity
  8
DEFPOINTS
 62
     0
 48
50.0
100
AcDbPoint
 10
7169.295015675659
 20
8411.365915108515
 30
0.0
  0
POINT
  5
15D33
330
13CDD
100
AcDbEntity
  8
DEFPOINTS
 62
     0
 48
50.0
100
AcDbPoint
 10
7169.295015675659
 20
8356.365915108517
 30
0.0
  0
POINT
  5
15D34
330
13CDD
100
AcDbEntity
  8
DEFPOINTS
 62
     0
 48
50.0
100
AcDbPoint
 10
7816.721361410071
 20
8356.365915108517
 30
0.0
  0
ENDBLK
  5
13E4B
330
13CDD
100
AcDbEntity
  8
0
 48
50.0
100
AcDbBlockEnd
  0
BLOCK
  5
13E58
330
13CF8
100
AcDbEntity
  8
0
 48
50.0
100
AcDbBlockBegin
  2
*D7
 70
     1
 10
0.0
 20
0.0
 30
0.0
  3
*D7
  1

  0
LINE
  5
15D21
330
13CF8
100
AcDbEntity
  8
寸法
 62
     0
 48
50.0
370
    -2
100
AcDbLine
 10
7189.295015675686
 20
9251.365915108532
 30
0.0
 11
7876.721361410095
 21
9251.365915108532
 31
0.0
  0
LINE
  5
15D22
330
13CF8
100
AcDbEntity
  8
寸法
 62
     0
 48
50.0
370
    -2
100
AcDbLine
 10
7189.29501567566
 20
8411.365915108515
 30
0.0
 11
7876.721361410095
 21
8411.365915108515
 31
0.0
  0
LINE
  5
15D23
330
13CF8
100
AcDbEntity
  8
寸法
 62
     0
 48
50.0
370
    -2
100
AcDbLine
 10
7816.721361410095
 20
9251.365915108532
 30
0.0
 11
7816.721361410095
 21
8411.365915108515
 31
0.0
  0
INSERT
  5
15D24
330
13CF8
100
AcDbEntity
  8
寸法
 62
     0
 48
50.0
370
    -2
100
AcDbBlockReference
  2
_DOTSMALL
 10
7816.721361410095
 20
9251.365915108532
 30
0.0
 41
100.0
 42
100.0
 43
100.0
 50
90.0
  0
INSERT
  5
15D25
330
13CF8
100
AcDbEntity
  8
寸法
 62
     0
 48
50.0
370
    -2
100
AcDbBlockReference
  2
_DOTSMALL
 10
7816.721361410095
 20
8411.365915108515
 30
0.0
 41
100.0
 42
100.0
 43
100.0
 50
270.0
  0
MTEXT
  5
15D26
330
13CF8
100
AcDbEntity
  8
寸法
 62
     7
 48
50.0
100
AcDbMText
 10
7716.709550386473
 20
8831.365915108525
 30
0.0
 40
120.0
 41
0.0
 71
     5
 72
     1
  1
\A1;2X420=840
  7
STYLE1
 11
0.0000000000000001
 21
1.0
 31
0.0
 73
     1
 44
1.0
1001
ACAD
1000
MTEXTBEGIN
1070
    73
1070
     1
1070
    44
1040
1.0
1070
    74
1070
     0
1000
MTEXTEND
  0
POINT
  5
15D27
330
13CF8
100
AcDbEntity
  8
DEFPOINTS
 62
     0
 48
50.0
100
AcDbPoint
 10
7169.295015675685
 20
9251.365915108532
 30
0.0
  0
POINT
  5
15D28
330
13CF8
100
AcDbEntity
  8
DEFPOINTS
 62
     0
 48
50.0
100
AcDbPoint
 10
7169.295015675659
 20
8411.365915108515
 30
0.0
  0
POINT
  5
15D29
330
13CF8
100
AcDbEntity
  8
DEFPOINTS
 62
     0
 48
50.0
100
AcDbPoint
 10
7816.721361410095
 20
8411.365915108515
 30
0.0
  0
ENDBLK
  5
13E62
330
13CF8
100
AcDbEntity
  8
0
 48
50.0
100
AcDbBlockEnd
  0
BLOCK
  5
13E6E
330
13D10
100
AcDbEntity
  8
0
 48
50.0
100
AcDbBlockBegin
  2
*D8
 70
     1
 10
0.0
 20
0.0
 30
0.0
  3
*D8
  1

  0
LINE
  5
15D18
330
13D10
100
AcDbEntity
  8
寸法
 62
     0
 48
50.0
370
    -2
100
AcDbLine
 10
7189.295015675686
 20
9306.365915108528
 30
0.0
 11
8185.832892225773
 21
9306.365915108528
 31
0.0
  0
LINE
  5
15D19
330
13D10
100
AcDbEntity
  8
寸法
 62
     0
 48
50.0
370
    -2
100
AcDbLine
 10
7189.29501567566
 20
8356.365915108517
 30
0.0
 11
8185.832892225773
 21
8356.365915108517
 31
0.0
  0
LINE
  5
15D1A
330
13D10
100
AcDbEntity
  8
寸法
 62
     0
 48
50.0
370
    -2
100
AcDbLine
 10
8125.832892225773
 20
9306.365915108528
 30
0.0
 11
8125.832892225773
 21
8356.365915108517
 31
0.0
  0
INSERT
  5
15D1B
330
13D10
100
AcDbEntity
  8
寸法
 62
     0
 48
50.0
370
    -2
100
AcDbBlockReference
  2
_DOTSMALL
 10
8125.832892225773
 20
9306.365915108528
 30
0.0
 41
100.0
 42
100.0
 43
100.0
 50
90.0
  0
INSERT
  5
15D1C
330
13D10
100
AcDbEntity
  8
寸法
 62
     0
 48
50.0
370
    -2
100
AcDbBlockReference
  2
_DOTSMALL
 10
8125.832892225773
 20
8356.365915108517
 30
0.0
 41
100.0
 42
100.0
 43
100.0
 50
270.0
  0
MTEXT
  5
15D1D
330
13D10
100
AcDbEntity
  8
寸法
 62
     7
 48
50.0
100
AcDbMText
 10
8025.832892225771
 20
8830.343633667437
 30
0.0
 40
120.0
 41
0.0
 71
     5
 72
     1
  1
\A1;950
  7
STYLE1
 11
0.0000000000000001
 21
1.0
 31
0.0
 73
     1
 44
1.0
1001
ACAD
1000
MTEXTBEGIN
1070
    73
1070
     1
1070
    44
1040
1.0
1070
    74
1070
     0
1000
MTEXTEND
  0
POINT
  5
15D1E
330
13D10
100
AcDbEntity
  8
DEFPOINTS
 62
     0
 48
50.0
100
AcDbPoint
 10
7169.295015675685
 20
9306.365915108528
 30
0.0
  0
POINT
  5
15D1F
330
13D10
100
AcDbEntity
  8
DEFPOINTS
 62
     0
 48
50.0
100
AcDbPoint
 10
7169.295015675659
 20
8356.365915108517
 30
0.0
  0
POINT
  5
15D20
330
13D10
100
AcDbEntity
  8
DEFPOINTS
 62
     0
 48
50.0
100
AcDbPoint
 10
8125.832892225773
 20
8356.365915108517
 30
0.0
  0
ENDBLK
  5
13E78
330
13D10
100
AcDbEntity
  8
0
 48
50.0
100
AcDbBlockEnd
  0
BLOCK
  5
13E79
330
13D1C
100
AcDbEntity
  8
0
 48
50.0
100
AcDbBlockBegin
  2
*D9
 70
     1
 10
0.0
 20
0.0
 30
0.0
  3
*D9
  1

  0
LINE
  5
15D0D
330
13D1C
100
AcDbEntity
  8
寸法
 62
     0
 48
50.0
370
    -2
100
AcDbLine
 10
7189.295015675686
 20
9306.365915108528
 30
0.0
 11
7876.721361410095
 21
9306.365915108528
 31
0.0
  0
LINE
  5
15D0E
330
13D1C
100
AcDbEntity
  8
寸法
 62
     0
 48
50.0
370
    -2
100
AcDbLine
 10
7189.295015675686
 20
9251.365915108532
 30
0.0
 11
7876.721361410095
 21
9251.365915108532
 31
0.0
  0
LINE
  5
15D0F
330
13D1C
100
AcDbEntity
  8
寸法
 62
     0
 48
50.0
370
    -2
100
AcDbLine
 10
7816.721361410095
 20
9251.365915108532
 30
0.0
 11
7816.721361410095
 21
9151.365915108533
 31
0.0
  0
LINE
  5
15D10
330
13D1C
100
AcDbEntity
  8
寸法
 62
     0
 48
50.0
370
    -2
100
AcDbLine
 10
7816.721361410095
 20
9306.365915108528
 30
0.0
 11
7816.721361410095
 21
9723.336477857005
 31
0.0
  0
LINE
  5
15D11
330
13D1C
100
AcDbEntity
  8
寸法
 62
     0
 48
50.0
370
    -2
100
AcDbLine
 10
7816.721361410095
 20
9251.365915108532
 30
0.0
 11
7816.721361410095
 21
9306.365915108528
 31
0.0
  0
INSERT
  5
15D12
330
13D1C
100
AcDbEntity
  8
寸法
 62
     0
 48
50.0
370
    -2
100
AcDbBlockReference
  2
_DOTSMALL
 10
7816.721361410095
 20
9251.365915108532
 30
0.0
 41
100.0
 42
100.0
 43
100.0
 50
90.0
  0
INSERT
  5
15D13
330
13D1C
100
AcDbEntity
  8
寸法
 62
     0
 48
50.0
370
    -2
100
AcDbBlockReference
  2
_DOTSMALL
 10
7816.721361410095
 20
9306.365915108528
 30
0.0
 41
100.0
 42
100.0
 43
100.0
 50
270.0
  0
MTEXT
  5
15D14
330
13D1C
100
AcDbEntity
  8
寸法
 62
     7
 48
50.0
100
AcDbMText
 10
7716.721361410094
 20
9614.851196482769
 30
0.0
 40
120.0
 41
0.0
 71
     5
 72
     1
  1
\A1;55
  7
STYLE1
 11
0.0000000000000001
 21
1.0
 31
0.0
 73
     1
 44
1.0
1001
ACAD
1000
MTEXTBEGIN
1070
    73
1070
     1
1070
    44
1040
1.0
1070
    74
1070
     0
1000
MTEXTEND
  0
POINT
  5
15D15
330
13D1C
100
AcDbEntity
  8
DEFPOINTS
 62
     0
 48
50.0
100
AcDbPoint
 10
7169.295015675685
 20
9306.365915108528
 30
0.0
  0
POINT
  5
15D16
330
13D1C
100
AcDbEntity
  8
DEFPOINTS
 62
     0
 48
50.0
100
AcDbPoint
 10
7169.295015675685
 20
9251.365915108532
 30
0.0
  0
POINT
  5
15D17
330
13D1C
100
AcDbEntity
  8
DEFPOINTS
 62
     0
 48
50.0
100
AcDbPoint
 10
7816.721361410095
 20
9251.365915108532
 30
0.0
  0
ENDBLK
  5
13E85
330
13D1C
100
AcDbEntity
  8
0
 48
50.0
100
AcDbBlockEnd
  0
BLOCK
  5
140CC
330
13EC4
100
AcDbEntity
  8
0
 48
50.0
100
AcDbBlockBegin
  2
*D10
 70
     1
 10
0.0
 20
0.0
 30
0.0
  3
*D10
  1

  0
LINE
  5
15D04
330
13EC4
100
AcDbEntity
  8
寸法
 62
     0
 48
50.0
370
    -2
100
AcDbLine
 10
6373.436031826995
 20
8806.865915108483
 30
0.0
 11
6304.024567835771
 21
8547.818804865499
 31
0.0
  0
LINE
  5
15D05
330
13EC4
100
AcDbEntity
  8
寸法
 62
     0
 48
50.0
370
    -2
100
AcDbLine
 10
7134.436031827006
 20
8806.865915108479
 30
0.0
 11
7065.024567835783
 21
8547.818804865499
 31
0.0
  0
LINE
  5
15D06
330
13EC4
100
AcDbEntity
  8
寸法
 62
     0
 48
50.0
370
    -2
100
AcDbLine
 10
6320.101519381638
 20
8607.8188048655
 30
0.0
 11
7081.101519381651
 21
8607.8188048655
 31
0.0
  0
INSERT
  5
15D07
330
13EC4
100
AcDbEntity
  8
寸法
 62
     0
 48
50.0
370
    -2
100
AcDbBlockReference
  2
_DOTSMALL
 10
6320.101519381638
 20
8607.8188048655
 30
0.0
 41
100.0
 42
100.0
 43
100.0
 50
180.0
  0
INSERT
  5
15D08
330
13EC4
100
AcDbEntity
  8
寸法
 62
     0
 48
50.0
370
    -2
100
AcDbBlockReference
  2
_DOTSMALL
 10
7081.101519381651
 20
8607.8188048655
 30
0.0
 41
100.0
 42
100.0
 43
100.0
  0
MTEXT
  5
15D09
330
13EC4
100
AcDbEntity
  8
寸法
 62
     7
 48
50.0
100
AcDbMText
 10
6758.142077793886
 20
8707.8188048655
 30
0.0
 40
120.0
 41
0.0
 71
     5
 72
     1
  1
\A1;761
  7
STYLE1
 73
     1
 44
1.0
1001
ACAD
1000
MTEXTBEGIN
1070
    73
1070
     1
1070
    44
1040
1.0
1070
    74
1070
     0
1000
MTEXTEND
  0
POINT
  5
15D0A
330
13EC4
100
AcDbEntity
  8
DEFPOINTS
 62
     0
 48
50.0
100
AcDbPoint
 10
6378.795015675617
 20
8826.865915108482
 30
0.0
  0
POINT
  5
15D0B
330
13EC4
100
AcDbEntity
  8
DEFPOINTS
 62
     0
 48
50.0
100
AcDbPoint
 10
7139.79501567563
 20
8826.865915108479
 30
0.0
  0
POINT
  5
15D0C
330
13EC4
100
AcDbEntity
  8
DEFPOINTS
 62
     0
 48
50.0
100
AcDbPoint
 10
7081.101519381651
 20
8607.8188048655
 30
0.0
  0
ENDBLK
  5
140D6
330
13EC4
100
AcDbEntity
  8
0
 48
50.0
100
AcDbBlockEnd
  0
BLOCK
  5
13EDD
330
13EDC
100
AcDbEntity
  8
0
 48
50.0
100
AcDbBlockBegin
  2
*D11
 70
     1
 10
0.0
 20
0.0
 30
0.0
  3
*D11
  1

  0
LINE
  5
15CFB
330
13EDC
100
AcDbEntity
  8
寸法
 62
     0
 48
50.0
370
    -2
100
AcDbLine
 10
7159.795015675618
 20
9271.506931259853
 30
0.0
 11
7555.152741537643
 21
9165.57114789372
 31
0.0
  0
LINE
  5
15CFC
330
13EDC
100
AcDbEntity
  8
寸法
 62
     0
 48
50.0
370
    -2
100
AcDbLine
 10
7159.795015675618
 20
8821.506931259852
 30
0.0
 11
7555.152741537643
 21
8715.571147893719
 31
0.0
  0
LINE
  5
15CFD
330
13EDC
100
AcDbEntity
  8
寸法
 62
     0
 48
50.0
370
    -2
100
AcDbLine
 10
7495.152741537641
 20
9181.648099439586
 30
0.0
 11
7495.152741537641
 21
8731.648099439587
 31
0.0
  0
INSERT
  5
15CFE
330
13EDC
100
AcDbEntity
  8
寸法
 62
     0
 48
50.0
370
    -2
100
AcDbBlockReference
  2
_DOTSMALL
 10
7495.152741537641
 20
9181.648099439586
 30
0.0
 41
100.0
 42
100.0
 43
100.0
 50
90.0
  0
INSERT
  5
15CFF
330
13EDC
100
AcDbEntity
  8
寸法
 62
     0
 48
50.0
370
    -2
100
AcDbBlockReference
  2
_DOTSMALL
 10
7495.152741537641
 20
8731.648099439587
 30
0.0
 41
100.0
 42
100.0
 43
100.0
 50
270.0
  0
MTEXT
  5
15D00
330
13EDC
100
AcDbEntity
  8
寸法
 62
     7
 48
50.0
100
AcDbMText
 10
7395.152741537642
 20
8956.648099439588
 30
0.0
 40
120.0
 41
0.0
 71
     5
 72
     1
  1
\A1;450
  7
STYLE1
 11
0.0000000000000001
 21
1.0
 31
0.0
 73
     1
 44
1.0
1001
ACAD
1000
MTEXTBEGIN
1070
    73
1070
     1
1070
    44
1040
1.0
1070
    74
1070
     0
1000
MTEXTEND
  0
POINT
  5
15D01
330
13EDC
100
AcDbEntity
  8
DEFPOINTS
 62
     0
 48
50.0
100
AcDbPoint
 10
7139.795015675618
 20
9276.865915108476
 30
0.0
  0
POINT
  5
15D02
330
13EDC
100
AcDbEntity
  8
DEFPOINTS
 62
     0
 48
50.0
100
AcDbPoint
 10
7139.795015675618
 20
8826.865915108475
 30
0.0
  0
POINT
  5
15D03
330
13EDC
100
AcDbEntity
  8
DEFPOINTS
 62
     0
 48
50.0
100
AcDbPoint
 10
7495.152741537641
 20
8731.648099439587
 30
0.0
  0
ENDBLK
  5
13EE7
330
13EDC
100
AcDbEntity
  8
0
 48
50.0
100
AcDbBlockEnd
  0
BLOCK
  5
146AB
330
1453A
100
AcDbEntity
  8
0
 48
50.0
100
AcDbBlockBegin
  2
*D12
 70
     1
 10
0.0
 20
0.0
 30
0.0
  3
*D12
  1

  0
LINE
  5
15CF0
330
1453A
100
AcDbEntity
  8
寸法
 62
     0
 48
50.0
370
    -2
100
AcDbLine
 10
6294.295015675683
 20
9326.365915108555
 30
0.0
 11
6294.295015675683
 21
9582.174134733532
 31
0.0
  0
LINE
  5
15CF1
330
1453A
100
AcDbEntity
  8
寸法
 62
     0
 48
50.0
370
    -2
100
AcDbLine
 10
6404.295015675687
 20
9326.365915108532
 30
0.0
 11
6404.295015675687
 21
9582.174134733532
 31
0.0
  0
LINE
  5
15CF2
330
1453A
100
AcDbEntity
  8
寸法
 62
     0
 48
50.0
370
    -2
100
AcDbLine
 10
6294.295015675683
 20
9522.174134733532
 30
0.0
 11
6194.295015675684
 21
9522.174134733532
 31
0.0
  0
LINE
  5
15CF3
330
1453A
100
AcDbEntity
  8
寸法
 62
     0
 48
50.0
370
    -2
100
AcDbLine
 10
6404.295015675687
 20
9522.174134733532
 30
0.0
 11
6504.295015675687
 21
9522.174134733532
 31
0.0
  0
LINE
  5
15CF4
330
1453A
100
AcDbEntity
  8
寸法
 62
     0
 48
50.0
370
    -2
100
AcDbLine
 10
6294.295015675683
 20
9522.174134733532
 30
0.0
 11
6404.295015675687
 21
9522.174134733532
 31
0.0
  0
INSERT
  5
15CF5
330
1453A
100
AcDbEntity
  8
寸法
 62
     0
 48
50.0
370
    -2
100
AcDbBlockReference
  2
_DOTSMALL
 10
6294.295015675683
 20
9522.174134733532
 30
0.0
 41
100.0
 42
100.0
 43
100.0
  0
INSERT
  5
15CF6
330
1453A
100
AcDbEntity
  8
寸法
 62
     0
 48
50.0
370
    -2
100
AcDbBlockReference
  2
_DOTSMALL
 10
6404.295015675687
 20
9522.174134733532
 30
0.0
 41
100.0
 42
100.0
 43
100.0
 50
180.0
  0
MTEXT
  5
15CF7
330
1453A
100
AcDbEntity
  8
寸法
 62
     7
 48
50.0
100
AcDbMText
 10
6349.295015675686
 20
9622.174134733533
 30
0.0
 40
120.0
 41
0.0
 71
     5
 72
     1
  1
\A1;110
  7
STYLE1
 73
     1
 44
1.0
1001
ACAD
1000
MTEXTBEGIN
1070
    73
1070
     1
1070
    44
1040
1.0
1070
    74
1070
     0
1000
MTEXTEND
  0
POINT
  5
15CF8
330
1453A
100
AcDbEntity
  8
DEFPOINTS
 62
     0
 48
50.0
100
AcDbPoint
 10
6294.295015675683
 20
9306.365915108555
 30
0.0
  0
POINT
  5
15CF9
330
1453A
100
AcDbEntity
  8
DEFPOINTS
 62
     0
 48
50.0
100
AcDbPoint
 10
6404.295015675687
 20
9306.365915108532
 30
0.0
  0
POINT
  5
15CFA
330
1453A
100
AcDbEntity
  8
DEFPOINTS
 62
     0
 48
50.0
100
AcDbPoint
 10
6404.295015675687
 20
9522.174134733532
 30
0.0
  0
ENDBLK
  5
146B7
330
1453A
100
AcDbEntity
  8
0
 48
50.0
100
AcDbBlockEnd
  0
BLOCK
  5
146A0
330
14556
100
AcDbEntity
  8
0
 48
50.0
100
AcDbBlockBegin
  2
*D13
 70
     1
 10
0.0
 20
0.0
 30
0.0
  3
*D13
  1

  0
LINE
  5
15CE7
330
14556
100
AcDbEntity
  8
寸法
 62
     0
 48
50.0
370
    -2
100
AcDbLine
 10
7114.295015675685
 20
9326.365915108546
 30
0.0
 11
7114.295015675685
 21
9582.174134733532
 31
0.0
  0
LINE
  5
15CE8
330
14556
100
AcDbEntity
  8
寸法
 62
     0
 48
50.0
370
    -2
100
AcDbLine
 10
6404.295015675687
 20
9326.365915108532
 30
0.0
 11
6404.295015675687
 21
9582.174134733532
 31
0.0
  0
LINE
  5
15CE9
330
14556
100
AcDbEntity
  8
寸法
 62
     0
 48
50.0
370
    -2
100
AcDbLine
 10
7114.295015675685
 20
9522.174134733532
 30
0.0
 11
6404.295015675687
 21
9522.174134733532
 31
0.0
  0
INSERT
  5
15CEA
330
14556
100
AcDbEntity
  8
寸法
 62
     0
 48
50.0
370
    -2
100
AcDbBlockReference
  2
_DOTSMALL
 10
7114.295015675685
 20
9522.174134733532
 30
0.0
 41
100.0
 42
100.0
 43
100.0
  0
INSERT
  5
15CEB
330
14556
100
AcDbEntity
  8
寸法
 62
     0
 48
50.0
370
    -2
100
AcDbBlockReference
  2
_DOTSMALL
 10
6404.295015675687
 20
9522.174134733532
 30
0.0
 41
100.0
 42
100.0
 43
100.0
 50
180.0
  0
MTEXT
  5
15CEC
330
14556
100
AcDbEntity
  8
寸法
 62
     7
 48
50.0
100
AcDbMText
 10
6759.295015675686
 20
9622.174134733533
 30
0.0
 40
120.0
 41
0.0
 71
     5
 72
     1
  1
\A1;710
  7
STYLE1
 73
     1
 44
1.0
1001
ACAD
1000
MTEXTBEGIN
1070
    73
1070
     1
1070
    44
1040
1.0
1070
    74
1070
     0
1000
MTEXTEND
  0
POINT
  5
15CED
330
14556
100
AcDbEntity
  8
DEFPOINTS
 62
     0
 48
50.0
100
AcDbPoint
 10
7114.295015675685
 20
9306.365915108548
 30
0.0
  0
POINT
  5
15CEE
330
14556
100
AcDbEntity
  8
DEFPOINTS
 62
     0
 48
50.0
100
AcDbPoint
 10
6404.295015675687
 20
9306.365915108532
 30
0.0
  0
POINT
  5
15CEF
330
14556
100
AcDbEntity
  8
DEFPOINTS
 62
     0
 48
50.0
100
AcDbPoint
 10
6404.295015675687
 20
9522.174134733532
 30
0.0
  0
ENDBLK
  5
146AA
330
14556
100
AcDbEntity
  8
0
 48
50.0
100
AcDbBlockEnd
  0
BLOCK
  5
149B6
330
149B5
100
AcDbEntity
  8
0
 48
50.0
100
AcDbBlockBegin
  2
*D14
 70
     1
 10
0.0
 20
0.0
 30
0.0
  3
*D14
  1

  0
LINE
  5
15CDE
330
149B5
100
AcDbEntity
  8
寸法
 62
     0
 48
50.0
370
    -2
100
AcDbLine
 10
6404.295015675682
 20
8336.365915108427
 30
0.0
 11
6404.295015675682
 21
7856.542247313349
 31
0.0
  0
LINE
  5
15CDF
330
149B5
100
AcDbEntity
  8
寸法
 62
     0
 48
50.0
370
    -2
100
AcDbLine
 10
7089.295015675677
 20
8336.365915108391
 30
0.0
 11
7089.295015675677
 21
7856.542247313349
 31
0.0
  0
LINE
  5
15CE0
330
149B5
100
AcDbEntity
  8
寸法
 62
     0
 48
50.0
370
    -2
100
AcDbLine
 10
6404.295015675682
 20
7916.542247313349
 30
0.0
 11
7089.295015675677
 21
7916.542247313349
 31
0.0
  0
INSERT
  5
15CE1
330
149B5
100
AcDbEntity
  8
寸法
 62
     0
 48
50.0
370
    -2
100
AcDbBlockReference
  2
_DOTSMALL
 10
6404.295015675682
 20
7916.542247313349
 30
0.0
 41
100.0
 42
100.0
 43
100.0
 50
180.0
  0
INSERT
  5
15CE2
330
149B5
100
AcDbEntity
  8
寸法
 62
     0
 48
50.0
370
    -2
100
AcDbBlockReference
  2
_DOTSMALL
 10
7089.295015675677
 20
7916.542247313349
 30
0.0
 41
100.0
 42
100.0
 43
100.0
  0
MTEXT
  5
15CE3
330
149B5
100
AcDbEntity
  8
寸法
 62
     7
 48
50.0
100
AcDbMText
 10
6746.795015675679
 20
8116.542247313349
 30
0.0
 40
120.0
 41
0.0
 71
     5
 72
     1
  1
\A1;有効開口部間口\P685
  7
STYLE1
 73
     1
 44
1.0
1001
ACAD
1000
MTEXTBEGIN
1070
    73
1070
     1
1070
    44
1040
1.0
1070
    74
1070
     0
1000
MTEXTEND
  0
POINT
  5
15CE4
330
149B5
100
AcDbEntity
  8
DEFPOINTS
 62
     0
 48
50.0
100
AcDbPoint
 10
6404.295015675682
 20
8356.365915108426
 30
0.0
  0
POINT
  5
15CE5
330
149B5
100
AcDbEntity
  8
DEFPOINTS
 62
     0
 48
50.0
100
AcDbPoint
 10
7089.295015675677
 20
8356.365915108391
 30
0.0
  0
POINT
  5
15CE6
330
149B5
100
AcDbEntity
  8
DEFPOINTS
 62
     0
 48
50.0
100
AcDbPoint
 10
7089.295015675677
 20
7916.542247313349
 30
0.0
  0
ENDBLK
  5
149C0
330
149B5
100
AcDbEntity
  8
0
 48
50.0
100
AcDbBlockEnd
  0
BLOCK
  5
149E3
330
149D7
100
AcDbEntity
  8
0
 48
50.0
100
AcDbBlockBegin
  2
*D15
 70
     1
 10
0.0
 20
0.0
 30
0.0
  3
*D15
  1

  0
LINE
  5
15CD5
330
149D7
100
AcDbEntity
  8
寸法
 62
     0
 48
50.0
370
    -2
100
AcDbLine
 10
5584.295015675682
 20
8336.365915108427
 30
0.0
 11
5584.295015675682
 21
7856.542247313349
 31
0.0
  0
LINE
  5
15CD6
330
149D7
100
AcDbEntity
  8
寸法
 62
     0
 48
50.0
370
    -2
100
AcDbLine
 10
6269.295015675677
 20
8336.365915108391
 30
0.0
 11
6269.295015675677
 21
7856.542247313349
 31
0.0
  0
LINE
  5
15CD7
330
149D7
100
AcDbEntity
  8
寸法
 62
     0
 48
50.0
370
    -2
100
AcDbLine
 10
5584.295015675682
 20
7916.542247313349
 30
0.0
 11
6269.295015675677
 21
7916.542247313349
 31
0.0
  0
INSERT
  5
15CD8
330
149D7
100
AcDbEntity
  8
寸法
 62
     0
 48
50.0
370
    -2
100
AcDbBlockReference
  2
_DOTSMALL
 10
5584.295015675682
 20
7916.542247313349
 30
0.0
 41
100.0
 42
100.0
 43
100.0
 50
180.0
  0
INSERT
  5
15CD9
330
149D7
100
AcDbEntity
  8
寸法
 62
     0
 48
50.0
370
    -2
100
AcDbBlockReference
  2
_DOTSMALL
 10
6269.295015675677
 20
7916.542247313349
 30
0.0
 41
100.0
 42
100.0
 43
100.0
  0
MTEXT
  5
15CDA
330
149D7
100
AcDbEntity
  8
寸法
 62
     7
 48
50.0
100
AcDbMText
 10
5926.795015675679
 20
8016.542247313349
 30
0.0
 40
120.0
 41
0.0
 71
     5
 72
     1
  1
\A1;685
  7
STYLE1
 73
     1
 44
1.0
1001
ACAD
1000
MTEXTBEGIN
1070
    73
1070
     1
1070
    44
1040
1.0
1070
    74
1070
     0
1000
MTEXTEND
  0
POINT
  5
15CDB
330
149D7
100
AcDbEntity
  8
DEFPOINTS
 62
     0
 48
50.0
100
AcDbPoint
 10
5584.295015675682
 20
8356.365915108426
 30
0.0
  0
POINT
  5
15CDC
330
149D7
100
AcDbEntity
  8
DEFPOINTS
 62
     0
 48
50.0
100
AcDbPoint
 10
6269.295015675677
 20
8356.365915108391
 30
0.0
  0
POINT
  5
15CDD
330
149D7
100
AcDbEntity
  8
DEFPOINTS
 62
     0
 48
50.0
100
AcDbPoint
 10
6269.295015675677
 20
7916.542247313349
 30
0.0
  0
ENDBLK
  5
149ED
330
149D7
100
AcDbEntity
  8
0
 48
50.0
100
AcDbBlockEnd
  0
BLOCK
  5
14A21
330
14A20
100
AcDbEntity
  8
0
 48
50.0
100
AcDbBlockBegin
  2
*D16
 70
     1
 10
0.0
 20
0.0
 30
0.0
  3
*D16
  1

  0
LINE
  5
15CCC
330
14A20
100
AcDbEntity
  8
寸法
 62
     0
 48
50.0
370
    -2
100
AcDbLine
 10
5553.436031826994
 20
8806.865915108483
 30
0.0
 11
5484.024567835771
 21
8547.818804865499
 31
0.0
  0
LINE
  5
15CCD
330
14A20
100
AcDbEntity
  8
寸法
 62
     0
 48
50.0
370
    -2
100
AcDbLine
 10
6314.436031827007
 20
8806.865915108479
 30
0.0
 11
6245.024567835783
 21
8547.818804865499
 31
0.0
  0
LINE
  5
15CCE
330
14A20
100
AcDbEntity
  8
寸法
 62
     0
 48
50.0
370
    -2
100
AcDbLine
 10
5500.101519381638
 20
8607.8188048655
 30
0.0
 11
6261.101519381651
 21
8607.8188048655
 31
0.0
  0
INSERT
  5
15CCF
330
14A20
100
AcDbEntity
  8
寸法
 62
     0
 48
50.0
370
    -2
100
AcDbBlockReference
  2
_DOTSMALL
 10
5500.101519381638
 20
8607.8188048655
 30
0.0
 41
100.0
 42
100.0
 43
100.0
 50
180.0
  0
INSERT
  5
15CD0
330
14A20
100
AcDbEntity
  8
寸法
 62
     0
 48
50.0
370
    -2
100
AcDbBlockReference
  2
_DOTSMALL
 10
6261.101519381651
 20
8607.8188048655
 30
0.0
 41
100.0
 42
100.0
 43
100.0
  0
MTEXT
  5
15CD1
330
14A20
100
AcDbEntity
  8
寸法
 62
     7
 48
50.0
100
AcDbMText
 10
5938.142077793886
 20
8707.8188048655
 30
0.0
 40
120.0
 41
0.0
 71
     5
 72
     1
  1
\A1;761
  7
STYLE1
 73
     1
 44
1.0
1001
ACAD
1000
MTEXTBEGIN
1070
    73
1070
     1
1070
    44
1040
1.0
1070
    74
1070
     0
1000
MTEXTEND
  0
POINT
  5
15CD2
330
14A20
100
AcDbEntity
  8
DEFPOINTS
 62
     0
 48
50.0
100
AcDbPoint
 10
5558.795015675617
 20
8826.865915108482
 30
0.0
  0
POINT
  5
15CD3
330
14A20
100
AcDbEntity
  8
DEFPOINTS
 62
     0
 48
50.0
100
AcDbPoint
 10
6319.795015675629
 20
8826.865915108479
 30
0.0
  0
POINT
  5
15CD4
330
14A20
100
AcDbEntity
  8
DEFPOINTS
 62
     0
 48
50.0
100
AcDbPoint
 10
6261.101519381651
 20
8607.8188048655
 30
0.0
  0
ENDBLK
  5
14A2B
330
14A20
100
AcDbEntity
  8
0
 48
50.0
100
AcDbBlockEnd
  0
BLOCK
  5
14A3E
330
14A3D
100
AcDbEntity
  8
0
100
AcDbBlockBegin
  2
_OPEN
 70
     0
 10
0.0
 20
0.0
 30
0.0
  3
_OPEN
  1

  0
LINE
  5
14A3F
330
14A3D
100
AcDbEntity
  8
0
  6
ByBlock
 62
     0
100
AcDbLine
 10
-1.0
 20
0.1666666666666666
 30
0.0
 11
0.0
 21
0.0
 31
0.0
  0
LINE
  5
14A40
330
14A3D
100
AcDbEntity
  8
0
  6
ByBlock
 62
     0
100
AcDbLine
 10
0.0
 20
0.0
 30
0.0
 11
-1.0
 21
-0.1666666666666666
 31
0.0
  0
LINE
  5
14A41
330
14A3D
100
AcDbEntity
  8
0
  6
ByBlock
 62
     0
100
AcDbLine
 10
0.0
 20
0.0
 30
0.0
 11
-1.0
 21
0.0
 31
0.0
  0
ENDBLK
  5
14A42
330
14A3D
100
AcDbEntity
  8
0
100
AcDbBlockEnd
  0
BLOCK
  5
14A44
330
14A43
100
AcDbEntity
  8
0
 48
50.0
100
AcDbBlockBegin
  2
_DOT
 70
     0
 10
0.0
 20
0.0
 30
0.0
  3
_DOT
  1

  0
LWPOLYLINE
  5
14A45
330
14A43
100
AcDbEntity
  8
0
  6
ByBlock
 62
     0
 48
50.0
100
AcDbPolyline
 90
        2
 70
     1
 43
0.5
 10
-0.25
 20
0.0
 42
1.0
 10
0.25
 20
0.0
 42
1.0
  0
LINE
  5
14A46
330
14A43
100
AcDbEntity
  8
0
  6
ByBlock
 62
     0
 48
50.0
100
AcDbLine
 10
-0.5
 20
0.0
 30
0.0
 11
-1.0
 21
0.0
 31
0.0
  0
ENDBLK
  5
14A47
330
14A43
100
AcDbEntity
  8
0
 48
50.0
100
AcDbBlockEnd
  0
BLOCK
  5
15222
330
15218
100
AcDbEntity
  8
0
 48
50.0
100
AcDbBlockBegin
  2
*D19
 70
     1
 10
0.0
 20
0.0
 30
0.0
  3
*D19
  1

  0
LINE
  5
15DAB
330
15218
100
AcDbEntity
  8
寸法
 62
     0
 48
50.0
370
    -2
100
AcDbLine
 10
9536.16692823606
 20
3569.577276893861
 30
0.0
 11
8634.573050080769
 21
3569.577276893862
 31
0.0
  0
LINE
  5
15DAC
330
15218
100
AcDbEntity
  8
寸法
 62
     0
 48
50.0
370
    -2
100
AcDbLine
 10
9476.166928236061
 20
5644.577276893866
 30
0.0
 11
8634.573050080772
 21
5644.577276893866
 31
0.0
  0
LINE
  5
15DAD
330
15218
100
AcDbEntity
  8
寸法
 62
     0
 48
50.0
370
    -2
100
AcDbLine
 10
8694.573050080769
 20
3569.577276893862
 30
0.0
 11
8694.573050080771
 21
5644.577276893866
 31
0.0
  0
INSERT
  5
15DAE
330
15218
100
AcDbEntity
  8
寸法
 62
     0
 48
50.0
370
    -2
100
AcDbBlockReference
  2
_DOTSMALL
 10
8694.573050080769
 20
3569.577276893862
 30
0.0
 41
100.0
 42
100.0
 43
100.0
 50
270.0
  0
INSERT
  5
15DAF
330
15218
100
AcDbEntity
  8
寸法
 62
     0
 48
50.0
370
    -2
100
AcDbBlockReference
  2
_DOTSMALL
 10
8694.573050080771
 20
5644.577276893866
 30
0.0
 41
100.0
 42
100.0
 43
100.0
 50
90.0
  0
MTEXT
  5
15DB0
330
15218
100
AcDbEntity
  8
寸法
 62
     7
 48
50.0
100
AcDbMText
 10
8594.561239057147
 20
4597.155906173022
 30
0.0
 40
120.0
 41
0.0
 71
     5
 72
     1
  1
\A1;2075
  7
STYLE1
 11
0.0000000000000001
 21
1.0
 31
0.0
 73
     1
 44
1.0
1001
ACAD
1000
MTEXTBEGIN
1070
    73
1070
     1
1070
    44
1040
1.0
1070
    74
1070
     0
1000
MTEXTEND
  0
POINT
  5
15DB1
330
15218
100
AcDbEntity
  8
DEFPOINTS
 62
     0
 48
50.0
100
AcDbPoint
 10
9556.166928236059
 20
3569.577276893861
 30
0.0
  0
POINT
  5
15DB2
330
15218
100
AcDbEntity
  8
DEFPOINTS
 62
     0
 48
50.0
100
AcDbPoint
 10
9496.166928236062
 20
5644.577276893866
 30
0.0
  0
POINT
  5
15DB3
330
15218
100
AcDbEntity
  8
DEFPOINTS
 62
     0
 48
50.0
100
AcDbPoint
 10
8694.573050080771
 20
5644.577276893866
 30
0.0
  0
ENDBLK
  5
15223
330
15218
100
AcDbEntity
  8
0
 48
50.0
100
AcDbBlockEnd
  0
BLOCK
  5
1522F
330
15224
100
AcDbEntity
  8
0
 48
50.0
100
AcDbBlockBegin
  2
*D20
 70
     1
 10
0.0
 20
0.0
 30
0.0
  3
*D20
  1

  0
LINE
  5
15CB9
330
15224
100
AcDbEntity
  8
寸法
 62
     0
 48
50.0
370
    -2
100
AcDbLine
 10
9495.571214527158
 20
5643.874983963521
 30
0.0
 11
8879.636775421893
 21
5661.589134237843
 31
0.0
  0
LINE
  5
15CBA
330
15224
100
AcDbEntity
  8
寸法
 62
     0
 48
50.0
370
    -2
100
AcDbLine
 10
9491.517758970532
 20
5502.93326019781
 30
0.0
 11
8875.583319865269
 21
5520.64741047213
 31
0.0
  0
LINE
  5
15CBB
330
15224
100
AcDbEntity
  8
寸法
 62
     0
 48
50.0
370
    -2
100
AcDbLine
 10
8935.558521467703
 20
5518.922535767183
 30
0.0
 11
8939.611977024325
 21
5659.864259532895
 31
0.0
  0
LINE
  5
15CBC
330
15224
100
AcDbEntity
  8
寸法
 62
     0
 48
50.0
370
    -2
100
AcDbLine
 10
8939.611977024325
 20
5659.864259532895
 30
0.0
 11
8949.961225254005
 21
6019.715469147481
 31
0.0
  0
INSERT
  5
15CBD
330
15224
100
AcDbEntity
  8
寸法
 62
     0
 48
50.0
370
    -2
100
AcDbBlockReference
  2
_DOTSMALL
 10
8935.558521467703
 20
5518.922535767183
 30
0.0
 41
100.0
 42
100.0
 43
100.0
 50
268.3526390256385
  0
INSERT
  5
15CBE
330
15224
100
AcDbEntity
  8
寸法
 62
     0
 48
50.0
370
    -2
100
AcDbBlockReference
  2
_DOTSMALL
 10
8939.611977024325
 20
5659.864259532895
 30
0.0
 41
100.0
 42
100.0
 43
100.0
 50
88.35263902563855
  0
MTEXT
  5
15CBF
330
15224
100
AcDbEntity
  8
寸法
 62
     7
 48
50.0
100
AcDbMText
 10
8846.265327389238
 20
5892.643990183795
 30
0.0
 40
120.0
 41
0.0
 71
     5
 72
     1
  1
\A1;141
  7
STYLE1
 11
0.0287479117491103
 21
0.999586693373849
 31
0.0
 73
     1
 44
1.0
1001
ACAD
1000
MTEXTBEGIN
1070
    73
1070
     1
1070
    44
1040
1.0
1070
    74
1070
     0
1000
MTEXTEND
  0
POINT
  5
15CC0
330
15224
100
AcDbEntity
  8
DEFPOINTS
 62
     0
 48
50.0
100
AcDbPoint
 10
9515.562948394636
 20
5643.300025728539
 30
0.0
  0
POINT
  5
15CC1
330
15224
100
AcDbEntity
  8
DEFPOINTS
 62
     0
 48
50.0
100
AcDbPoint
 10
9511.50949283801
 20
5502.358301962827
 30
0.0
  0
POINT
  5
15CC2
330
15224
100
AcDbEntity
  8
DEFPOINTS
 62
     0
 48
50.0
100
AcDbPoint
 10
8935.558521467703
 20
5518.922535767183
 30
0.0
  0
ENDBLK
  5
15230
330
15224
100
AcDbEntity
  8
0
 48
50.0
100
AcDbBlockEnd
  0
BLOCK
  5
1523D
330
15231
100
AcDbEntity
  8
0
 48
50.0
100
AcDbBlockBegin
  2
*D21
 70
     1
 10
0.0
 20
0.0
 30
0.0
  3
*D21
  1

  0
LINE
  5
15CAE
330
15231
100
AcDbEntity
  8
寸法
 62
     0
 48
50.0
370
    -2
100
AcDbLine
 10
9556.166928236059
 20
5660.578895016837
 30
0.0
 11
9556.166928236059
 21
6103.234730473165
 31
0.0
  0
LINE
  5
15CAF
330
15231
100
AcDbEntity
  8
寸法
 62
     0
 48
50.0
370
    -2
100
AcDbLine
 10
9496.166928236061
 20
5664.577276893866
 30
0.0
 11
9496.166928236061
 21
6103.234730473165
 31
0.0
  0
LINE
  5
15CB0
330
15231
100
AcDbEntity
  8
寸法
 62
     0
 48
50.0
370
    -2
100
AcDbLine
 10
9556.166928236059
 20
6043.234730473165
 30
0.0
 11
9656.166928236061
 21
6043.234730473165
 31
0.0
  0
LINE
  5
15CB1
330
15231
100
AcDbEntity
  8
寸法
 62
     0
 48
50.0
370
    -2
100
AcDbLine
 10
9496.166928236061
 20
6043.234730473165
 30
0.0
 11
9076.89133768488
 21
6043.234730473165
 31
0.0
  0
LINE
  5
15CB2
330
15231
100
AcDbEntity
  8
寸法
 62
     0
 48
50.0
370
    -2
100
AcDbLine
 10
9556.166928236059
 20
6043.234730473165
 30
0.0
 11
9496.166928236061
 21
6043.234730473165
 31
0.0
  0
INSERT
  5
15CB3
330
15231
100
AcDbEntity
  8
寸法
 62
     0
 48
50.0
370
    -2
100
AcDbBlockReference
  2
_DOTSMALL
 10
9556.166928236059
 20
6043.234730473165
 30
0.0
 41
100.0
 42
100.0
 43
100.0
 50
180.0
  0
INSERT
  5
15CB4
330
15231
100
AcDbEntity
  8
寸法
 62
     0
 48
50.0
370
    -2
100
AcDbBlockReference
  2
_DOTSMALL
 10
9496.166928236061
 20
6043.234730473165
 30
0.0
 41
100.0
 42
100.0
 43
100.0
  0
MTEXT
  5
15CB5
330
15231
100
AcDbEntity
  8
寸法
 62
     7
 48
50.0
100
AcDbMText
 10
9186.529132960471
 20
6143.234730473165
 30
0.0
 40
120.0
 41
0.0
 71
     5
 72
     1
  1
\A1;60
  7
STYLE1
 73
     1
 44
1.0
1001
ACAD
1000
MTEXTBEGIN
1070
    73
1070
     1
1070
    44
1040
1.0
1070
    74
1070
     0
1000
MTEXTEND
  0
POINT
  5
15CB6
330
15231
100
AcDbEntity
  8
DEFPOINTS
 62
     0
 48
50.0
100
AcDbPoint
 10
9556.166928236059
 20
5640.578895016837
 30
0.0
  0
POINT
  5
15CB7
330
15231
100
AcDbEntity
  8
DEFPOINTS
 62
     0
 48
50.0
100
AcDbPoint
 10
9496.166928236061
 20
5644.577276893866
 30
0.0
  0
POINT
  5
15CB8
330
15231
100
AcDbEntity
  8
DEFPOINTS
 62
     0
 48
50.0
100
AcDbPoint
 10
9496.166928236061
 20
6043.234730473165
 30
0.0
  0
ENDBLK
  5
1523E
330
15231
100
AcDbEntity
  8
0
 48
50.0
100
AcDbBlockEnd
  0
BLOCK
  5
15249
330
1523F
100
AcDbEntity
  8
0
 48
50.0
100
AcDbBlockBegin
  2
*D22
 70
     1
 10
0.0
 20
0.0
 30
0.0
  3
*D22
  1

  0
LINE
  5
15CA5
330
1523F
100
AcDbEntity
  8
寸法
 62
     0
 48
50.0
370
    -2
100
AcDbLine
 10
10506.16692823606
 20
5611.387956505514
 30
0.0
 11
10506.16692823606
 21
6103.234730473165
 31
0.0
  0
LINE
  5
15CA6
330
1523F
100
AcDbEntity
  8
寸法
 62
     0
 48
50.0
370
    -2
100
AcDbLine
 10
9556.166928236059
 20
5660.578895016837
 30
0.0
 11
9556.166928236059
 21
6103.234730473165
 31
0.0
  0
LINE
  5
15CA7
330
1523F
100
AcDbEntity
  8
寸法
 62
     0
 48
50.0
370
    -2
100
AcDbLine
 10
10506.16692823606
 20
6043.234730473165
 30
0.0
 11
9556.166928236059
 21
6043.234730473165
 31
0.0
  0
INSERT
  5
15CA8
330
1523F
100
AcDbEntity
  8
寸法
 62
     0
 48
50.0
370
    -2
100
AcDbBlockReference
  2
_DOTSMALL
 10
10506.16692823606
 20
6043.234730473165
 30
0.0
 41
100.0
 42
100.0
 43
100.0
  0
INSERT
  5
15CA9
330
1523F
100
AcDbEntity
  8
寸法
 62
     0
 48
50.0
370
    -2
100
AcDbBlockReference
  2
_DOTSMALL
 10
9556.166928236059
 20
6043.234730473165
 30
0.0
 41
100.0
 42
100.0
 43
100.0
 50
180.0
  0
MTEXT
  5
15CAA
330
1523F
100
AcDbEntity
  8
寸法
 62
     7
 48
50.0
100
AcDbMText
 10
10052.87873046695
 20
6143.234730473165
 30
0.0
 40
120.0
 41
0.0
 71
     5
 72
     1
  1
\A1;柱外寸法950
  7
STYLE1
 73
     1
 44
1.0
1001
ACAD
1000
MTEXTBEGIN
1070
    73
1070
     1
1070
    44
1040
1.0
1070
    74
1070
     0
1000
MTEXTEND
  0
POINT
  5
15CAB
330
1523F
100
AcDbEntity
  8
DEFPOINTS
 62
     0
 48
50.0
100
AcDbPoint
 10
10506.16692823606
 20
5591.387956505514
 30
0.0
  0
POINT
  5
15CAC
330
1523F
100
AcDbEntity
  8
DEFPOINTS
 62
     0
 48
50.0
100
AcDbPoint
 10
9556.166928236059
 20
5640.578895016837
 30
0.0
  0
POINT
  5
15CAD
330
1523F
100
AcDbEntity
  8
DEFPOINTS
 62
     0
 48
50.0
100
AcDbPoint
 10
9556.166928236059
 20
6043.234730473165
 30
0.0
  0
ENDBLK
  5
1524A
330
1523F
100
AcDbEntity
  8
0
 48
50.0
100
AcDbBlockEnd
  0
BLOCK
  5
15255
330
1524B
100
AcDbEntity
  8
0
 48
50.0
100
AcDbBlockBegin
  2
*D23
 70
     1
 10
0.0
 20
0.0
 30
0.0
  3
*D23
  1

  0
LINE
  5
15C9C
330
1524B
100
AcDbEntity
  8
寸法
 62
     0
 48
50.0
370
    -2
100
AcDbLine
 10
10586.16692823606
 20
5609.577276893862
 30
0.0
 11
10586.16692823606
 21
6337.937939113255
 31
0.0
  0
LINE
  5
15C9D
330
1524B
100
AcDbEntity
  8
寸法
 62
     0
 48
50.0
370
    -2
100
AcDbLine
 10
9496.166928236061
 20
5664.577276893866
 30
0.0
 11
9496.166928236061
 21
6337.937939113255
 31
0.0
  0
LINE
  5
15C9E
330
1524B
100
AcDbEntity
  8
寸法
 62
     0
 48
50.0
370
    -2
100
AcDbLine
 10
10586.16692823606
 20
6277.937939113255
 30
0.0
 11
9496.166928236061
 21
6277.937939113255
 31
0.0
  0
INSERT
  5
15C9F
330
1524B
100
AcDbEntity
  8
寸法
 62
     0
 48
50.0
370
    -2
100
AcDbBlockReference
  2
_DOTSMALL
 10
10586.16692823606
 20
6277.937939113255
 30
0.0
 41
100.0
 42
100.0
 43
100.0
  0
INSERT
  5
15CA0
330
1524B
100
AcDbEntity
  8
寸法
 62
     0
 48
50.0
370
    -2
100
AcDbBlockReference
  2
_DOTSMALL
 10
9496.166928236061
 20
6277.937939113255
 30
0.0
 41
100.0
 42
100.0
 43
100.0
 50
180.0
  0
MTEXT
  5
15CA1
330
1524B
100
AcDbEntity
  8
寸法
 62
     7
 48
50.0
100
AcDbMText
 10
10043.08388865042
 20
6377.937939113255
 30
0.0
 40
120.0
 41
0.0
 71
     5
 72
     1
  1
\A1;1090
  7
STYLE1
 73
     1
 44
1.0
1001
ACAD
1000
MTEXTBEGIN
1070
    73
1070
     1
1070
    44
1040
1.0
1070
    74
1070
     0
1000
MTEXTEND
  0
POINT
  5
15CA2
330
1524B
100
AcDbEntity
  8
DEFPOINTS
 62
     0
 48
50.0
100
AcDbPoint
 10
10586.16692823606
 20
5589.577276893862
 30
0.0
  0
POINT
  5
15CA3
330
1524B
100
AcDbEntity
  8
DEFPOINTS
 62
     0
 48
50.0
100
AcDbPoint
 10
9496.166928236061
 20
5644.577276893866
 30
0.0
  0
POINT
  5
15CA4
330
1524B
100
AcDbEntity
  8
DEFPOINTS
 62
     0
 48
50.0
100
AcDbPoint
 10
9496.166928236061
 20
6277.937939113255
 30
0.0
  0
ENDBLK
  5
15256
330
1524B
100
AcDbEntity
  8
0
 48
50.0
100
AcDbBlockEnd
  0
BLOCK
  5
15262
330
15257
100
AcDbEntity
  8
0
 48
50.0
100
AcDbBlockBegin
  2
*D24
 70
     1
 10
0.0
 20
0.0
 30
0.0
  3
*D24
  1

  0
LINE
  5
15C92
330
15257
100
AcDbEntity
  8
寸法
 62
     0
 48
50.0
370
    -2
100
AcDbLine
 10
10506.16692823606
 20
5611.387956505514
 30
0.0
 11
10506.16692823606
 21
6103.234730473165
 31
0.0
  0
LINE
  5
15C93
330
15257
100
AcDbEntity
  8
寸法
 62
     0
 48
50.0
370
    -2
100
AcDbLine
 10
10586.16692823606
 20
5609.577276893862
 30
0.0
 11
10586.16692823606
 21
6103.234730473165
 31
0.0
  0
LINE
  5
15C94
330
15257
100
AcDbEntity
  8
寸法
 62
     0
 48
50.0
370
    -2
100
AcDbLine
 10
10506.16692823606
 20
6043.234730473165
 30
0.0
 11
10586.16692823606
 21
6043.234730473165
 31
0.0
  0
LINE
  5
15C95
330
15257
100
AcDbEntity
  8
寸法
 62
     0
 48
50.0
370
    -2
100
AcDbLine
 10
10586.16692823606
 20
6043.234730473165
 30
0.0
 11
10898.26141642503
 21
6043.234730473165
 31
0.0
  0
INSERT
  5
15C96
330
15257
100
AcDbEntity
  8
寸法
 62
     0
 48
50.0
370
    -2
100
AcDbBlockReference
  2
_DOTSMALL
 10
10506.16692823606
 20
6043.234730473165
 30
0.0
 41
100.0
 42
100.0
 43
100.0
 50
180.0
  0
INSERT
  5
15C97
330
15257
100
AcDbEntity
  8
寸法
 62
     0
 48
50.0
370
    -2
100
AcDbBlockReference
  2
_DOTSMALL
 10
10586.16692823606
 20
6043.234730473165
 30
0.0
 41
100.0
 42
100.0
 43
100.0
  0
MTEXT
  5
15C98
330
15257
100
AcDbEntity
  8
寸法
 62
     7
 48
50.0
100
AcDbMText
 10
10792.21417233055
 20
6143.234730473165
 30
0.0
 40
120.0
 41
0.0
 71
     5
 72
     1
  1
\A1;80
  7
STYLE1
 73
     1
 44
1.0
1001
ACAD
1000
MTEXTBEGIN
1070
    73
1070
     1
1070
    44
1040
1.0
1070
    74
1070
     0
1000
MTEXTEND
  0
POINT
  5
15C99
330
15257
100
AcDbEntity
  8
DEFPOINTS
 62
     0
 48
50.0
100
AcDbPoint
 10
10506.16692823606
 20
5591.387956505514
 30
0.0
  0
POINT
  5
15C9A
330
15257
100
AcDbEntity
  8
DEFPOINTS
 62
     0
 48
50.0
100
AcDbPoint
 10
10586.16692823606
 20
5589.577276893862
 30
0.0
  0
POINT
  5
15C9B
330
15257
100
AcDbEntity
  8
DEFPOINTS
 62
     0
 48
50.0
100
AcDbPoint
 10
10586.16692823606
 20
6043.234730473165
 30
0.0
  0
ENDBLK
  5
15263
330
15257
100
AcDbEntity
  8
0
 48
50.0
100
AcDbBlockEnd
  0
BLOCK
  5
152BA
330
152B0
100
AcDbEntity
  8
0
 48
50.0
100
AcDbBlockBegin
  2
*D25
 70
     1
 10
0.0
 20
0.0
 30
0.0
  3
*D25
  1

  0
LINE
  5
15DBD
330
152B0
100
AcDbEntity
  8
寸法
 62
     0
 48
50.0
370
    -2
100
AcDbLine
 10
10526.16692823606
 20
3569.577276893861
 30
0.0
 11
11076.57546616989
 21
3569.577276893861
 31
0.0
  0
LINE
  5
15DBE
330
152B0
100
AcDbEntity
  8
寸法
 62
     0
 48
50.0
370
    -2
100
AcDbLine
 10
10606.16692823607
 20
5589.57727689386
 30
0.0
 11
11076.57546616989
 21
5589.57727689386
 31
0.0
  0
LINE
  5
15DBF
330
152B0
100
AcDbEntity
  8
寸法
 62
     0
 48
50.0
370
    -2
100
AcDbLine
 10
11036.57546616989
 20
3589.577276893861
 30
0.0
 11
11036.57546616989
 21
5569.57727689386
 31
0.0
  0
INSERT
  5
15DC0
330
152B0
100
AcDbEntity
  8
寸法
 62
     0
 48
50.0
370
    -2
100
AcDbBlockReference
  2
_DOT
 10
11036.57546616989
 20
3569.577276893861
 30
0.0
 41
20.0
 42
20.0
 43
20.0
 50
270.0
  0
INSERT
  5
15DC1
330
152B0
100
AcDbEntity
  8
寸法
 62
     0
 48
50.0
370
    -2
100
AcDbBlockReference
  2
_DOT
 10
11036.57546616989
 20
5589.57727689386
 30
0.0
 41
20.0
 42
20.0
 43
20.0
 50
90.0
  0
MTEXT
  5
15DC2
330
152B0
100
AcDbEntity
  8
寸法
 62
     7
 48
50.0
100
AcDbMText
 10
10944.56365514626
 20
4521.501672958286
 30
0.0
 40
120.0
 41
0.0
 71
     5
 72
     1
  1
\A1;2020
  7
STYLE1
 11
0.0000000000000001
 21
1.0
 31
0.0
 73
     1
 44
1.0
1001
ACAD
1000
MTEXTBEGIN
1070
    73
1070
     1
1070
    44
1040
1.0
1070
    74
1070
     0
1000
MTEXTEND
  0
POINT
  5
15DC3
330
152B0
100
AcDbEntity
  8
DEFPOINTS
 62
     0
 48
50.0
100
AcDbPoint
 10
10506.16692823606
 20
3569.577276893861
 30
0.0
  0
POINT
  5
15DC4
330
152B0
100
AcDbEntity
  8
DEFPOINTS
 62
     0
 48
50.0
100
AcDbPoint
 10
10586.16692823607
 20
5589.57727689386
 30
0.0
  0
POINT
  5
15DC5
330
152B0
100
AcDbEntity
  8
DEFPOINTS
 62
     0
 48
50.0
100
AcDbPoint
 10
11036.57546616989
 20
5589.57727689386
 30
0.0
  0
ENDBLK
  5
152BB
330
152B0
100
AcDbEntity
  8
0
 48
50.0
100
AcDbBlockEnd
  0
BLOCK
  5
1599A
330
15990
100
AcDbEntity
  8
0
 48
50.0
100
AcDbBlockBegin
  2
*D26
 70
     1
 10
0.0
 20
0.0
 30
0.0
  3
*D26
  1

  0
LINE
  5
15C63
330
15990
100
AcDbEntity
  8
寸法
 62
     0
 48
50.0
370
    -2
100
AcDbLine
 10
7169.295015675682
 20
5664.577276893864
 30
0.0
 11
7169.295015675682
 21
5917.118862152106
 31
0.0
  0
LINE
  5
15C64
330
15990
100
AcDbEntity
  8
寸法
 62
     0
 48
50.0
370
    -2
100
AcDbLine
 10
5529.295015675678
 20
5664.577276893869
 30
0.0
 11
5529.295015675678
 21
5917.118862152106
 31
0.0
  0
LINE
  5
15C65
330
15990
100
AcDbEntity
  8
寸法
 62
     0
 48
50.0
370
    -2
100
AcDbLine
 10
7169.295015675682
 20
5857.118862152105
 30
0.0
 11
5529.295015675678
 21
5857.118862152105
 31
0.0
  0
INSERT
  5
15C66
330
15990
100
AcDbEntity
  8
寸法
 62
     0
 48
50.0
370
    -2
100
AcDbBlockReference
  2
_DOTSMALL
 10
7169.295015675682
 20
5857.118862152105
 30
0.0
 41
100.0
 42
100.0
 43
100.0
  0
INSERT
  5
15C67
330
15990
100
AcDbEntity
  8
寸法
 62
     0
 48
50.0
370
    -2
100
AcDbBlockReference
  2
_DOTSMALL
 10
5529.295015675678
 20
5857.118862152105
 30
0.0
 41
100.0
 42
100.0
 43
100.0
 50
180.0
  0
MTEXT
  5
15C68
330
15990
100
AcDbEntity
  8
寸法
 62
     7
 48
50.0
100
AcDbMText
 10
6365.668421079783
 20
5957.118862152106
 30
0.0
 40
120.0
 41
0.0
 71
     5
 72
     1
  1
\A1;柱外寸法1640
  7
STYLE1
 73
     1
 44
1.0
1001
ACAD
1000
MTEXTBEGIN
1070
    73
1070
     1
1070
    44
1040
1.0
1070
    74
1070
     0
1000
MTEXTEND
  0
POINT
  5
15C69
330
15990
100
AcDbEntity
  8
DEFPOINTS
 62
     0
 48
50.0
100
AcDbPoint
 10
7169.295015675682
 20
5644.577276893864
 30
0.0
  0
POINT
  5
15C6A
330
15990
100
AcDbEntity
  8
DEFPOINTS
 62
     0
 48
50.0
100
AcDbPoint
 10
5529.295015675678
 20
5644.577276893869
 30
0.0
  0
POINT
  5
15C6B
330
15990
100
AcDbEntity
  8
DEFPOINTS
 62
     0
 48
50.0
100
AcDbPoint
 10
5529.295015675678
 20
5857.118862152105
 30
0.0
  0
ENDBLK
  5
1599B
330
15990
100
AcDbEntity
  8
0
 48
50.0
100
AcDbBlockEnd
  0
BLOCK
  5
159A6
330
1599C
100
AcDbEntity
  8
0
 48
50.0
100
AcDbBlockBegin
  2
*D27
 70
     1
 10
0.0
 20
0.0
 30
0.0
  3
*D27
  1

  0
LINE
  5
15C6C
330
1599C
100
AcDbEntity
  8
寸法
 62
     0
 48
50.0
370
    -2
100
AcDbLine
 10
5479.295015675678
 20
5664.577276893867
 30
0.0
 11
5479.295015675678
 21
6140.075840589954
 31
0.0
  0
LINE
  5
15C6D
330
1599C
100
AcDbEntity
  8
寸法
 62
     0
 48
50.0
370
    -2
100
AcDbLine
 10
7219.295015675682
 20
5664.577276893862
 30
0.0
 11
7219.295015675682
 21
6140.075840589954
 31
0.0
  0
LINE
  5
15C6E
330
1599C
100
AcDbEntity
  8
寸法
 62
     0
 48
50.0
370
    -2
100
AcDbLine
 10
5479.295015675678
 20
6080.075840589954
 30
0.0
 11
7219.295015675682
 21
6080.075840589954
 31
0.0
  0
INSERT
  5
15C6F
330
1599C
100
AcDbEntity
  8
寸法
 62
     0
 48
50.0
370
    -2
100
AcDbBlockReference
  2
_DOTSMALL
 10
5479.295015675678
 20
6080.075840589954
 30
0.0
 41
100.0
 42
100.0
 43
100.0
 50
180.0
  0
INSERT
  5
15C70
330
1599C
100
AcDbEntity
  8
寸法
 62
     0
 48
50.0
370
    -2
100
AcDbBlockReference
  2
_DOTSMALL
 10
7219.295015675682
 20
6080.075840589954
 30
0.0
 41
100.0
 42
100.0
 43
100.0
  0
MTEXT
  5
15C71
330
1599C
100
AcDbEntity
  8
寸法
 62
     7
 48
50.0
100
AcDbMText
 10
6331.393491511874
 20
6180.075840589954
 30
0.0
 40
120.0
 41
0.0
 71
     5
 72
     1
  1
\A1;1740
  7
STYLE1
 73
     1
 44
1.0
1001
ACAD
1000
MTEXTBEGIN
1070
    73
1070
     1
1070
    44
1040
1.0
1070
    74
1070
     0
1000
MTEXTEND
  0
POINT
  5
15C72
330
1599C
100
AcDbEntity
  8
DEFPOINTS
 62
     0
 48
50.0
100
AcDbPoint
 10
5479.295015675678
 20
5644.577276893866
 30
0.0
  0
POINT
  5
15C73
330
1599C
100
AcDbEntity
  8
DEFPOINTS
 62
     0
 48
50.0
100
AcDbPoint
 10
7219.295015675682
 20
5644.577276893862
 30
0.0
  0
POINT
  5
15C74
330
1599C
100
AcDbEntity
  8
DEFPOINTS
 62
     0
 48
50.0
100
AcDbPoint
 10
7219.295015675682
 20
6080.075840589954
 30
0.0
  0
ENDBLK
  5
159A7
330
1599C
100
AcDbEntity
  8
0
 48
50.0
100
AcDbBlockEnd
  0
BLOCK
  5
159B4
330
159A8
100
AcDbEntity
  8
0
 48
50.0
100
AcDbBlockBegin
  2
*D28
 70
     1
 10
0.0
 20
0.0
 30
0.0
  3
*D28
  1

  0
LINE
  5
15C58
330
159A8
100
AcDbEntity
  8
寸法
 62
     0
 48
50.0
370
    -2
100
AcDbLine
 10
5529.295015675678
 20
5664.577276893869
 30
0.0
 11
5529.295015675678
 21
5917.118862152106
 31
0.0
  0
LINE
  5
15C59
330
159A8
100
AcDbEntity
  8
寸法
 62
     0
 48
50.0
370
    -2
100
AcDbLine
 10
5479.295015675678
 20
5664.577276893867
 30
0.0
 11
5479.295015675678
 21
5917.118862152106
 31
0.0
  0
LINE
  5
15C5A
330
159A8
100
AcDbEntity
  8
寸法
 62
     0
 48
50.0
370
    -2
100
AcDbLine
 10
5529.295015675678
 20
5857.118862152105
 30
0.0
 11
5629.295015675678
 21
5857.118862152105
 31
0.0
  0
LINE
  5
15C5B
330
159A8
100
AcDbEntity
  8
寸法
 62
     0
 48
50.0
370
    -2
100
AcDbLine
 10
5479.295015675678
 20
5857.118862152105
 30
0.0
 11
5059.762490206942
 21
5857.118862152105
 31
0.0
  0
LINE
  5
15C5C
330
159A8
100
AcDbEntity
  8
寸法
 62
     0
 48
50.0
370
    -2
100
AcDbLine
 10
5529.295015675678
 20
5857.118862152105
 30
0.0
 11
5479.295015675678
 21
5857.118862152105
 31
0.0
  0
INSERT
  5
15C5D
330
159A8
100
AcDbEntity
  8
寸法
 62
     0
 48
50.0
370
    -2
100
AcDbBlockReference
  2
_DOTSMALL
 10
5529.295015675678
 20
5857.118862152105
 30
0.0
 41
100.0
 42
100.0
 43
100.0
 50
180.0
  0
INSERT
  5
15C5E
330
159A8
100
AcDbEntity
  8
寸法
 62
     0
 48
50.0
370
    -2
100
AcDbBlockReference
  2
_DOTSMALL
 10
5479.295015675678
 20
5857.118862152105
 30
0.0
 41
100.0
 42
100.0
 43
100.0
  0
MTEXT
  5
15C5F
330
159A8
100
AcDbEntity
  8
寸法
 62
     7
 48
50.0
100
AcDbMText
 10
5165.80973430143
 20
5957.118862152106
 30
0.0
 40
120.0
 41
0.0
 71
     5
 72
     1
  1
\A1;50
  7
STYLE1
 73
     1
 44
1.0
1001
ACAD
1000
MTEXTBEGIN
1070
    73
1070
     1
1070
    44
1040
1.0
1070
    74
1070
     0
1000
MTEXTEND
  0
POINT
  5
15C60
330
159A8
100
AcDbEntity
  8
DEFPOINTS
 62
     0
 48
50.0
100
AcDbPoint
 10
5529.295015675678
 20
5644.577276893869
 30
0.0
  0
POINT
  5
15C61
330
159A8
100
AcDbEntity
  8
DEFPOINTS
 62
     0
 48
50.0
100
AcDbPoint
 10
5479.295015675678
 20
5644.577276893866
 30
0.0
  0
POINT
  5
15C62
330
159A8
100
AcDbEntity
  8
DEFPOINTS
 62
     0
 48
50.0
100
AcDbPoint
 10
5479.295015675678
 20
5857.118862152105
 30
0.0
  0
ENDBLK
  5
159B5
330
159A8
100
AcDbEntity
  8
0
 48
50.0
100
AcDbBlockEnd
  0
BLOCK
  5
159EA
330
159DE
100
AcDbEntity
  8
0
 48
50.0
100
AcDbBlockBegin
  2
*D29
 70
     1
 10
0.0
 20
0.0
 30
0.0
  3
*D29
  1

  0
LINE
  5
15C4D
330
159DE
100
AcDbEntity
  8
寸法
 62
     0
 48
50.0
370
    -2
100
AcDbLine
 10
7219.295015675682
 20
5664.577276893862
 30
0.0
 11
7219.295015675682
 21
5917.118862152103
 31
0.0
  0
LINE
  5
15C4E
330
159DE
100
AcDbEntity
  8
寸法
 62
     0
 48
50.0
370
    -2
100
AcDbLine
 10
7169.295015675682
 20
5664.577276893864
 30
0.0
 11
7169.295015675682
 21
5917.118862152103
 31
0.0
  0
LINE
  5
15C4F
330
159DE
100
AcDbEntity
  8
寸法
 62
     0
 48
50.0
370
    -2
100
AcDbLine
 10
7169.295015675682
 20
5857.118862152103
 30
0.0
 11
7069.295015675682
 21
5857.118862152103
 31
0.0
  0
LINE
  5
15C50
330
159DE
100
AcDbEntity
  8
寸法
 62
     0
 48
50.0
370
    -2
100
AcDbLine
 10
7219.295015675682
 20
5857.118862152103
 30
0.0
 11
7638.827541144405
 21
5857.118862152103
 31
0.0
  0
LINE
  5
15C51
330
159DE
100
AcDbEntity
  8
寸法
 62
     0
 48
50.0
370
    -2
100
AcDbLine
 10
7169.295015675682
 20
5857.118862152103
 30
0.0
 11
7219.295015675682
 21
5857.118862152103
 31
0.0
  0
INSERT
  5
15C52
330
159DE
100
AcDbEntity
  8
寸法
 62
     0
 48
50.0
370
    -2
100
AcDbBlockReference
  2
_DOTSMALL
 10
7169.295015675682
 20
5857.118862152103
 30
0.0
 41
100.0
 42
100.0
 43
100.0
  0
INSERT
  5
15C53
330
159DE
100
AcDbEntity
  8
寸法
 62
     0
 48
50.0
370
    -2
100
AcDbBlockReference
  2
_DOTSMALL
 10
7219.295015675682
 20
5857.118862152103
 30
0.0
 41
100.0
 42
100.0
 43
100.0
 50
180.0
  0
MTEXT
  5
15C54
330
159DE
100
AcDbEntity
  8
寸法
 62
     7
 48
50.0
100
AcDbMText
 10
7532.780297049917
 20
5957.118862152103
 30
0.0
 40
120.0
 41
0.0
 71
     5
 72
     1
  1
\A1;50
  7
STYLE1
 73
     1
 44
1.0
1001
ACAD
1000
MTEXTBEGIN
1070
    73
1070
     1
1070
    44
1040
1.0
1070
    74
1070
     0
1000
MTEXTEND
  0
POINT
  5
15C55
330
159DE
100
AcDbEntity
  8
DEFPOINTS
 62
     0
 48
50.0
100
AcDbPoint
 10
7219.295015675682
 20
5644.577276893862
 30
0.0
  0
POINT
  5
15C56
330
159DE
100
AcDbEntity
  8
DEFPOINTS
 62
     0
 48
50.0
100
AcDbPoint
 10
7169.295015675682
 20
5644.577276893864
 30
0.0
  0
POINT
  5
15C57
330
159DE
100
AcDbEntity
  8
DEFPOINTS
 62
     0
 48
50.0
100
AcDbPoint
 10
7169.295015675682
 20
5857.118862152103
 30
0.0
  0
ENDBLK
  5
159EB
330
159DE
100
AcDbEntity
  8
0
 48
50.0
100
AcDbBlockEnd
  0
BLOCK
  5
16563
330
16559
100
AcDbEntity
  8
0
 48
50.0
100
AcDbBlockBegin
  2
*D30
 70
     1
 10
0.0
 20
0.0
 30
0.0
  3
*D30
  1

  0
LINE
  5
16573
330
16559
100
AcDbEntity
  8
寸法
 62
     0
 48
50.0
370
    -2
100
AcDbLine
 10
9529.164558191281
 20
5409.577276893862
 30
0.0
 11
8894.203837543859
 21
5409.577276893862
 31
0.0
  0
LINE
  5
16574
330
16559
100
AcDbEntity
  8
寸法
 62
     0
 48
50.0
370
    -2
100
AcDbLine
 10
9529.164558191281
 20
3619.577276893864
 30
0.0
 11
8894.203837543857
 21
3619.577276893865
 31
0.0
  0
LINE
  5
16575
330
16559
100
AcDbEntity
  8
寸法
 62
     0
 48
50.0
370
    -2
100
AcDbLine
 10
8954.203837543859
 20
5409.577276893862
 30
0.0
 11
8954.203837543856
 21
3619.577276893865
 31
0.0
  0
INSERT
  5
16576
330
16559
100
AcDbEntity
  8
寸法
 62
     0
 48
50.0
370
    -2
100
AcDbBlockReference
  2
_DOTSMALL
 10
8954.203837543859
 20
5409.577276893862
 30
0.0
 41
100.0
 42
100.0
 43
100.0
 50
90.0
  0
INSERT
  5
16577
330
16559
100
AcDbEntity
  8
寸法
 62
     0
 48
50.0
370
    -2
100
AcDbBlockReference
  2
_DOTSMALL
 10
8954.203837543856
 20
3619.577276893865
 30
0.0
 41
100.0
 42
100.0
 43
100.0
 50
270.0
  0
MTEXT
  5
16578
330
16559
100
AcDbEntity
  8
寸法
 62
     7
 48
50.0
100
AcDbMText
 10
8854.203837543856
 20
4524.612288770249
 30
0.0
 40
120.0
 41
0.0
 71
     5
 72
     1
  1
\A1;1790
  7
STYLE1
 11
0.0000000000000001
 21
1.0
 31
0.0
 73
     1
 44
1.0
1001
ACAD
1000
MTEXTBEGIN
1070
    73
1070
     1
1070
    44
1040
1.0
1070
    74
1070
     0
1000
MTEXTEND
  0
POINT
  5
16579
330
16559
100
AcDbEntity
  8
DEFPOINTS
 62
     0
 48
50.0
100
AcDbPoint
 10
9549.164558191282
 20
5409.577276893862
 30
0.0
  0
POINT
  5
1657A
330
16559
100
AcDbEntity
  8
DEFPOINTS
 62
     0
 48
50.0
100
AcDbPoint
 10
9549.164558191282
 20
3619.577276893864
 30
0.0
  0
POINT
  5
1657B
330
16559
100
AcDbEntity
  8
DEFPOINTS
 62
     0
 48
50.0
100
AcDbPoint
 10
8954.203837543856
 20
3619.577276893865
 30
0.0
  0
ENDBLK
  5
16564
330
16559
100
AcDbEntity
  8
0
 48
50.0
100
AcDbBlockEnd
  0
BLOCK
  5
16571
330
16565
100
AcDbEntity
  8
0
 48
50.0
100
AcDbBlockBegin
  2
*D31
 70
     1
 10
0.0
 20
0.0
 30
0.0
  3
*D31
  1

  0
LINE
  5
1657C
330
16565
100
AcDbEntity
  8
寸法
 62
     0
 48
50.0
370
    -2
100
AcDbLine
 10
9529.164558191281
 20
3619.577276893864
 30
0.0
 11
8894.203837543857
 21
3619.577276893865
 31
0.0
  0
LINE
  5
1657D
330
16565
100
AcDbEntity
  8
寸法
 62
     0
 48
50.0
370
    -2
100
AcDbLine
 10
9481.16692823606
 20
3569.577276893863
 30
0.0
 11
8894.203837543857
 21
3569.577276893863
 31
0.0
  0
LINE
  5
1657E
330
16565
100
AcDbEntity
  8
寸法
 62
     0
 48
50.0
370
    -2
100
AcDbLine
 10
8954.203837543856
 20
3619.577276893865
 30
0.0
 11
8954.203837543856
 21
3719.577276893865
 31
0.0
  0
LINE
  5
1657F
330
16565
100
AcDbEntity
  8
寸法
 62
     0
 48
50.0
370
    -2
100
AcDbLine
 10
8954.203837543856
 20
3569.577276893863
 30
0.0
 11
8954.203837543856
 21
3157.482788704883
 31
0.0
  0
LINE
  5
16580
330
16565
100
AcDbEntity
  8
寸法
 62
     0
 48
50.0
370
    -2
100
AcDbLine
 10
8954.203837543856
 20
3619.577276893865
 30
0.0
 11
8954.203837543856
 21
3569.577276893863
 31
0.0
  0
INSERT
  5
16581
330
16565
100
AcDbEntity
  8
寸法
 62
     0
 48
50.0
370
    -2
100
AcDbBlockReference
  2
_DOTSMALL
 10
8954.203837543856
 20
3619.577276893865
 30
0.0
 41
100.0
 42
100.0
 43
100.0
 50
270.0
  0
INSERT
  5
16582
330
16565
100
AcDbEntity
  8
寸法
 62
     0
 48
50.0
370
    -2
100
AcDbBlockReference
  2
_DOTSMALL
 10
8954.203837543856
 20
3569.577276893863
 30
0.0
 41
100.0
 42
100.0
 43
100.0
 50
90.0
  0
MTEXT
  5
16583
330
16565
100
AcDbEntity
  8
寸法
 62
     7
 48
50.0
100
AcDbMText
 10
8854.203837543856
 20
3263.530032799372
 30
0.0
 40
120.0
 41
0.0
 71
     5
 72
     1
  1
\A1;50
  7
STYLE1
 11
0.0000000000000001
 21
1.0
 31
0.0
 73
     1
 44
1.0
1001
ACAD
1000
MTEXTBEGIN
1070
    73
1070
     1
1070
    44
1040
1.0
1070
    74
1070
     0
1000
MTEXTEND
  0
POINT
  5
16584
330
16565
100
AcDbEntity
  8
DEFPOINTS
 62
     0
 48
50.0
100
AcDbPoint
 10
9549.164558191282
 20
3619.577276893864
 30
0.0
  0
POINT
  5
16585
330
16565
100
AcDbEntity
  8
DEFPOINTS
 62
     0
 48
50.0
100
AcDbPoint
 10
9501.16692823606
 20
3569.577276893863
 30
0.0
  0
POINT
  5
16586
330
16565
100
AcDbEntity
  8
DEFPOINTS
 62
     0
 48
50.0
100
AcDbPoint
 10
8954.203837543856
 20
3569.577276893863
 30
0.0
  0
ENDBLK
  5
16572
330
16565
100
AcDbEntity
  8
0
 48
50.0
100
AcDbBlockEnd
  0
ENDSEC
  0
SECTION
  2
ENTITIES
  0
LINE
  5
10B56
330
747D
100
AcDbEntity
  8
補助
  6
PHANTOM
 62
   230
 48
50.0
100
AcDbLine
 10
140.0
 20
0.0
 30
0.0
 11
139.9999999999995
 21
11409.6
 31
0.0
  0
LINE
  5
10B57
330
747D
100
AcDbEntity
  8
補助
  6
PHANTOM
 62
   230
 48
50.0
100
AcDbLine
 10
139.9999999999995
 20
11409.6
 30
0.0
 11
16307.2
 21
11409.6
 31
0.0
  0
LINE
  5
10B59
330
747D
100
AcDbEntity
  8
仕様書枠
  6
Continuous
 48
50.0
100
AcDbLine
 10
13107.2
 20
1200.0
 30
0.0
 11
13107.2
 21
-0.0000000000000729
 31
0.0
  0
LINE
  5
10B5C
330
747D
100
AcDbEntity
  8
仕様書枠
 48
50.0
100
AcDbLine
 10
16307.2
 20
1200.0
 30
0.0
 11
16307.2
 21
-0.0000000000000909
 31
0.0
  0
LINE
  5
10B5D
330
747D
100
AcDbEntity
  8
仕様書枠
 48
50.0
100
AcDbLine
 10
140.0
 20
0.0
 30
0.0
 11
16307.2
 21
-0.0000000000000909
 31
0.0
  0
LINE
  5
10B5E
330
747D
100
AcDbEntity
  8
補助
  6
PHANTOM
 62
   230
 48
50.0
100
AcDbLine
 10
16307.2
 20
11409.6
 30
0.0
 11
16307.2
 21
1200.0
 31
0.0
  0
LINE
  5
10B6C
330
747D
100
AcDbEntity
  8
仕様書枠
 48
50.0
100
AcDbLine
 10
13107.2
 20
1200.0
 30
0.0
 11
16307.2
 21
1200.0
 31
0.0
  0
LINE
  5
10B6D
330
747D
100
AcDbEntity
  8
補助
  6
PHANTOM
 62
   230
 48
50.0
100
AcDbLine
 10
13107.2
 20
11409.6
 30
0.0
 11
13107.2
 21
4800.0
 31
0.0
  0
LINE
  5
10B6F
330
747D
100
AcDbEntity
  8
補助
  6
PHANTOM
 62
   230
 48
50.0
100
AcDbLine
 10
13107.2
 20
4800.0
 30
0.0
 11
16307.2
 21
4800.0
 31
0.0
  0
LINE
  5
10B72
330
747D
100
AcDbEntity
  8
文字
 62
     7
 48
50.0
100
AcDbLine
 10
13187.2
 20
400.0
 30
0.0
 11
16227.2
 21
400.0
 31
0.0
  0
TEXT
  5
10B73
330
747D
100
AcDbEntity
  8
文字
 62
     7
 48
50.0
100
AcDbText
 10
13162.9790565769
 20
895.0906074299405
 30
0.0
 40
200.0
  1
外 形 図
  7
STYLE2
100
AcDbText
  0
TEXT
  5
10B74
330
747D
100
AcDbEntity
  8
文字
 62
     7
 48
50.0
100
AcDbText
 10
13201.43669998441
 20
477.2740661031255
 30
0.0
 40
160.0
  1
機種名
  7
STYLE2
100
AcDbText
  0
TEXT
  5
10B75
330
747D
100
AcDbEntity
  8
文字
 62
     7
 48
50.0
100
AcDbText
 10
13209.4053442172
 20
228.5435242569016
 30
0.0
 40
100.0
  1
○有効開口寸法 ： 685×1760(mm)
  7
STYLE2
100
AcDbText
  0
TEXT
  5
10B76
330
747D
100
AcDbEntity
  8
文字
 62
     7
 48
50.0
100
AcDbText
 10
13209.4053442172
 20
76.09434707649343
 30
0.0
 40
100.0
  1
○床面積 ： 1.56㎡(0.47坪) 　
  7
STYLE2
100
AcDbText
  0
TEXT
  5
10B79
330
747D
100
AcDbEntity
  8
文字
 62
     7
 48
50.0
100
AcDbText
 10
14524.131837222
 20
1031.557706291228
 30
0.0
 40
100.0
  1
NO.01     <縮尺> S=1/40
  7
STYLE2
100
AcDbText
  0
LINE
  5
10B7B
330
747D
100
AcDbEntity
  8
仕様書枠
 48
50.0
100
AcDbLine
 10
13107.2
 20
800.0
 30
0.0
 11
14251.2
 21
800.0
 31
0.0
  0
LINE
  5
10B88
330
747D
100
AcDbEntity
  8
仕様書枠
  6
Continuous
 48
50.0
100
AcDbLine
 10
14251.2
 20
1200.0
 30
0.0
 11
14251.2
 21
800.0
 31
0.0
  0
TEXT
  5
10EA8
330
747D
100
AcDbEntity
  8
文字
 62
     7
 48
50.0
100
AcDbText
 10
14251.2
 20
838.2527270729188
 30
0.0
 40
100.0
  1
～一般型・多雪地型・豪雪地型～
  7
STYLE2
100
AcDbText
  0
LINE
  5
13A41
330
747D
100
AcDbEntity
  8
Ｇ．Ｌ
100
AcDbLine
 10
4191.75935683804
 20
3469.57727689386
 30
0.0
 11
11289.8444124174
 21
3469.57727689386
 31
0.0
  0
LINE
  5
13A4F
330
747D
100
AcDbEntity
  8
部品1
100
AcDbLine
 10
5529.295015675678
 20
3612.577276893864
 30
0.0
 11
7169.295015675678
 21
3612.577276893881
 31
0.0
  0
LINE
  5
13A54
330
747D
100
AcDbEntity
  8
部品1
100
AcDbLine
 10
5529.295015675678
 20
5409.577276893861
 30
0.0
 11
7169.295015675678
 21
5409.577276893861
 31
0.0
  0
LINE
  5
13A55
330
747D
100
AcDbEntity
  8
部品1
100
AcDbLine
 10
5529.295015675678
 20
3569.57727689386
 30
0.0
 11
7169.295015675678
 21
3569.57727689386
 31
0.0
  0
LINE
  5
13A5E
330
747D
100
AcDbEntity
  8
部品1
100
AcDbLine
 10
5574.295015675677
 20
5407.077276893864
 30
0.0
 11
5574.295015675676
 21
3616.077276893867
 31
0.0
  0
LINE
  5
13A5F
330
747D
100
AcDbEntity
  8
部品1
100
AcDbLine
 10
7126.295015675679
 20
5409.577276893861
 30
0.0
 11
7126.295015675679
 21
3612.577276893881
 31
0.0
  0
LINE
  5
13A60
330
747D
100
AcDbEntity
  8
部品1
100
AcDbLine
 10
5529.295015675677
 20
5503.577276893864
 30
0.0
 11
5529.295015675678
 21
3469.57727689386
 31
0.0
  0
TEXT
  5
13A63
330
747D
100
AcDbEntity
  8
部品1
100
AcDbText
 10
4460.506502376018
 20
3505.684180499763
 30
0.0
 40
125.0
  1
▽G.L
  7
STYLE2
100
AcDbText
  0
LWPOLYLINE
  5
13A6B
330
747D
100
AcDbEntity
  8
部品1
100
AcDbPolyline
 90
        4
 70
     1
 43
0.0
 10
5959.311224404441
 20
2866.500696077142
 10
5959.311224404441
 20
2626.60837453161
 10
6722.78189063288
 20
2626.60837453161
 10
6722.78189063288
 20
2866.500696077142
  0
TEXT
  5
13A6C
330
747D
100
AcDbEntity
  8
部品1
100
AcDbText
 10
6049.836628142397
 20
2673.607166858619
 30
0.0
 40
135.0
  1
正面図
  7
STYLE2
100
AcDbText
  0
LINE
  5
13AB6
330
747D
100
AcDbEntity
  8
部品1
100
AcDbLine
 10
7169.295015675676
 20
5503.577276893864
 30
0.0
 11
7169.295015675678
 21
3469.57727689386
 31
0.0
  0
DIMENSION
  5
13ACA
330
747D
100
AcDbEntity
  8
寸法
100
AcDbDimension
  2
*D1
 10
5211.190488068075
 20
3631.077276893865
 30
0.0
 11
5211.190488068074
 21
4510.077276893862
 31
0.0
 70
   160
  1
有効開口部高サ<>
 71
     5
 42
1759.999999999995
  3
INABA_S40G
100
AcDbAlignedDimension
 13
5529.295015675678
 23
5391.07727689386
 33
0.0
 14
5529.295015675678
 24
3631.077276893865
 34
0.0
 50
90.0
100
AcDbRotatedDimension
1001
ACAD
1000
DSTYLE
1002
{
1070
   288
1070
     1
1002
}
  0
LWPOLYLINE
  5
13AD7
330
747D
100
AcDbEntity
  8
部品1
100
AcDbPolyline
 90
        4
 70
     1
 43
0.0
 10
9649.431595121839
 20
2866.500696077142
 10
9649.431595121839
 20
2626.60837453161
 10
10412.90226135028
 20
2626.60837453161
 10
10412.90226135028
 20
2866.500696077142
  0
TEXT
  5
13AD8
330
747D
100
AcDbEntity
  8
部品1
100
AcDbText
 10
9738.877696545447
 20
2673.607166858619
 30
0.0
 40
135.0
  1
側面図
  7
STYLE2
100
AcDbText
  0
DIMENSION
  5
13B15
330
747D
100
AcDbEntity
  8
寸法
100
AcDbDimension
  2
*D2
 10
6294.295015675683
 20
9522.174134733532
 30
0.0
 11
5939.545015675683
 21
9522.174134733532
 31
0.0
 70
   160
 71
     5
 42
709.999999999999
  3
INABA_S40G
100
AcDbAlignedDimension
 13
5584.295015675684
 23
9306.365915108434
 33
0.0
 14
6294.295015675683
 24
9306.365915108555
 34
0.0
100
AcDbRotatedDimension
1001
ACAD
1000
DSTYLE
1002
{
1002
}
  0
LINE
  5
13B16
330
747D
100
AcDbEntity
  8
部品1
100
AcDbLine
 10
5529.295015675685
 20
9306.365915108434
 30
0.0
 11
7169.295015675685
 21
9306.365915108528
 31
0.0
  0
DIMENSION
  5
13B17
330
747D
100
AcDbEntity
  8
寸法
100
AcDbDimension
  2
*D3
 10
7169.295015675685
 20
9522.174134733509
 30
0.0
 11
7477.780297049924
 21
9522.174134733509
 31
0.0
 70
   160
 71
     5
 42
55.0
  3
INABA_S40G
100
AcDbAlignedDimension
 13
7114.295015675685
 23
9306.365915108528
 33
0.0
 14
7169.295015675685
 24
9306.365915108528
 34
0.0
100
AcDbRotatedDimension
1001
ACAD
1000
DSTYLE
1002
{
1002
}
  0
LINE
  5
13B18
330
747D
100
AcDbEntity
  8
部品1
100
AcDbLine
 10
5557.295015675684
 20
9278.365915108434
 30
0.0
 11
6346.675718694286
 21
9278.365915108482
 31
0.0
  0
LINE
  5
13B20
330
747D
100
AcDbEntity
  8
部品1
100
AcDbLine
 10
7169.295015675659
 20
8356.365915108517
 30
0.0
 11
5529.295015675678
 21
8356.365915108424
 31
0.0
  0
LINE
  5
13B22
330
747D
100
AcDbEntity
  8
部品1
100
AcDbLine
 10
7112.794044250868
 20
8487.866020821368
 30
0.0
 11
6404.795015675661
 21
8487.865915133143
 31
0.0
  0
DIMENSION
  5
13B23
330
747D
100
AcDbEntity
  8
寸法
100
AcDbDimension
  2
*D4
 10
7169.295015675659
 20
7369.264040248284
 30
0.0
 11
6341.046557518661
 21
7369.264040248284
 31
0.0
 70
   160
 71
     5
 42
1639.999999999982
  3
INABA_S40G
100
AcDbAlignedDimension
 13
5529.295015675678
 23
8356.365915108353
 33
0.0
 14
7169.295015675659
 24
8356.365915108485
 34
0.0
100
AcDbRotatedDimension
1001
ACAD
1000
DSTYLE
1002
{
1002
}
  0
TEXT
  5
13B2F
330
747D
100
AcDbEntity
  8
部品1
100
AcDbText
 10
6049.23083423348
 20
6825.893697090123
 30
0.0
 40
135.0
  1
平面図
  7
STYLE2
100
AcDbText
  0
LWPOLYLINE
  5
13B30
330
747D
100
AcDbEntity
  8
部品1
100
AcDbPolyline
 90
        4
 70
     1
 43
0.0
 10
5959.311224404441
 20
7018.787226308646
 10
5959.311224404441
 20
6778.894904763113
 10
6722.78189063288
 20
6778.894904763113
 10
6722.78189063288
 20
7018.787226308646
  0
DIMENSION
  5
13B3C
330
747D
100
AcDbEntity
  8
寸法
100
AcDbDimension
  2
*D5
 10
5584.295015675684
 20
9522.174134733417
 30
0.0
 11
5220.809734301411
 21
9522.174134733417
 31
0.0
 70
   160
 71
     5
 42
55.00000000003456
  3
INABA_S40G
100
AcDbAlignedDimension
 13
5529.29501567565
 23
9306.365915108434
 33
0.0
 14
5584.295015675684
 24
9306.365915108434
 34
0.0
100
AcDbRotatedDimension
1001
ACAD
1000
DSTYLE
1002
{
1002
}
  0
LINE
  5
13B3E
330
747D
100
AcDbEntity
  8
部品1
100
AcDbLine
 10
5557.295015675659
 20
8411.365915108387
 30
0.0
 11
5557.295015675684
 21
9278.365915108434
 31
0.0
  0
LINE
  5
13B3F
330
747D
100
AcDbEntity
  8
部品1
100
AcDbLine
 10
5529.29501567565
 20
9306.365915108401
 30
0.0
 11
5529.295015675678
 21
8356.365915108391
 31
0.0
  0
LINE
  5
13B47
330
747D
100
AcDbEntity
  8
部品1
100
AcDbLine
 10
5529.295015675676
 20
8411.365915108353
 30
0.0
 11
5529.295015675678
 21
8356.365915108353
 31
0.0
  0
LINE
  5
13B48
330
747D
100
AcDbEntity
  8
部品1
100
AcDbLine
 10
5557.295015675676
 20
8411.365915108401
 30
0.0
 11
5529.295015675676
 21
8411.365915108401
 31
0.0
  0
LINE
  5
13B49
330
747D
100
AcDbEntity
  8
部品1
100
AcDbLine
 10
5557.295015675659
 20
8411.365915108387
 30
0.0
 11
5529.295015675676
 21
8411.365915108387
 31
0.0
  0
LINE
  5
13B4A
330
747D
100
AcDbEntity
  8
部品1
100
AcDbLine
 10
5557.295015675659
 20
8411.365915108353
 30
0.0
 11
5529.295015675676
 21
8411.365915108353
 31
0.0
  0
LINE
  5
13B4B
330
747D
100
AcDbEntity
  8
部品1
100
AcDbLine
 10
5580.295015675678
 20
8356.365915108391
 30
0.0
 11
5529.295015675678
 21
8356.365915108391
 31
0.0
  0
LINE
  5
13B4D
330
747D
100
AcDbEntity
  8
部品1
100
AcDbLine
 10
5557.295015675659
 20
8831.365915108401
 30
0.0
 11
5529.295015675659
 21
8831.365915108401
 31
0.0
  0
LINE
  5
13B4E
330
747D
100
AcDbEntity
  8
部品1
100
AcDbLine
 10
5557.295015675652
 20
9251.365915108406
 30
0.0
 11
5529.295015675652
 21
9251.365915108406
 31
0.0
  0
LINE
  5
13B4F
330
747D
100
AcDbEntity
  8
部品1
100
AcDbLine
 10
5584.295015675684
 20
9306.365915108434
 30
0.0
 11
5584.295015675684
 21
9278.365915108434
 31
0.0
  0
LINE
  5
13B50
330
747D
100
AcDbEntity
  8
部品1
100
AcDbLine
 10
5584.29501567565
 20
9306.365915108401
 30
0.0
 11
5584.295015675651
 21
9278.3659151084
 31
0.0
  0
LINE
  5
13B59
330
747D
100
AcDbEntity
  8
破線
 48
10.0
100
AcDbLine
 10
5609.295080600386
 20
8826.865915108443
 30
0.0
 11
5609.295015675671
 21
8511.365915108443
 31
0.0
  0
LINE
  5
13B74
330
747D
100
AcDbEntity
  8
破線
 48
10.0
100
AcDbLine
 10
7089.295080600352
 20
8826.865915108477
 30
0.0
 11
7089.295015675666
 21
8511.365915108525
 31
0.0
  0
LINE
  5
13B77
330
747D
100
AcDbEntity
  8
破線
 48
10.0
100
AcDbLine
 10
7089.295015675663
 20
8511.365915108525
 30
0.0
 11
6428.295015675671
 21
8511.365915108489
 31
0.0
  0
LINE
  5
13B98
330
747D
100
AcDbEntity
  8
部品1
100
AcDbLine
 10
7114.295015675685
 20
9306.365915108548
 30
0.0
 11
7114.295015675685
 21
9278.365915108548
 31
0.0
  0
LINE
  5
13B99
330
747D
100
AcDbEntity
  8
部品1
100
AcDbLine
 10
7114.295015675685
 20
9306.365915108528
 30
0.0
 11
7114.295015675685
 21
9278.365915108528
 31
0.0
  0
DIMENSION
  5
13B9A
330
747D
100
AcDbEntity
  8
寸法
100
AcDbDimension
  2
*D6
 10
7816.721361410071
 20
8356.365915108517
 30
0.0
 11
7816.721361410069
 21
7978.504448203658
 31
0.0
 70
   160
 71
     5
 42
54.99999999999636
  3
INABA_S40G
100
AcDbAlignedDimension
 13
7169.295015675659
 23
8411.365915108515
 33
0.0
 14
7169.295015675659
 24
8356.365915108517
 34
0.0
 50
90.0
100
AcDbRotatedDimension
1001
ACAD
1000
DSTYLE
1002
{
1002
}
  0
LINE
  5
13BA5
330
747D
100
AcDbEntity
  8
部品1
100
AcDbLine
 10
7141.295015675685
 20
9278.365915108528
 30
0.0
 11
7141.295015675662
 21
8411.365915108515
 31
0.0
  0
DIMENSION
  5
13BA6
330
747D
100
AcDbEntity
  8
寸法
100
AcDbDimension
  2
*D7
 10
7816.721361410095
 20
8411.365915108515
 30
0.0
 11
7816.721361410094
 21
8831.365915108525
 31
0.0
 70
   160
  1
2X420=<>
 71
     5
 42
840.0000000000181
  3
INABA_S40G
100
AcDbAlignedDimension
 13
7169.295015675685
 23
9251.365915108532
 33
0.0
 14
7169.295015675659
 24
8411.365915108515
 34
0.0
 50
90.0
100
AcDbRotatedDimension
1001
ACAD
1000
DSTYLE
1002
{
1002
}
  0
LINE
  5
13BA8
330
747D
100
AcDbEntity
  8
部品1
100
AcDbLine
 10
7169.295015675685
 20
9306.365915108528
 30
0.0
 11
7169.295015675659
 21
8356.365915108517
 31
0.0
  0
DIMENSION
  5
13BA9
330
747D
100
AcDbEntity
  8
寸法
100
AcDbDimension
  2
*D8
 10
8125.832892225773
 20
8356.365915108517
 30
0.0
 11
8125.832892225771
 21
8830.343633667437
 31
0.0
 70
   160
 71
     5
 42
950.000000000011
  3
INABA_S40G
100
AcDbAlignedDimension
 13
7169.295015675685
 23
9306.365915108528
 33
0.0
 14
7169.295015675659
 24
8356.365915108517
 34
0.0
 50
90.0
100
AcDbRotatedDimension
1001
ACAD
1000
DSTYLE
1002
{
1002
}
  0
LINE
  5
13BAA
330
747D
100
AcDbEntity
  8
部品1
100
AcDbLine
 10
7141.295015675692
 20
8411.365915108532
 30
0.0
 11
7169.295015675692
 21
8411.365915108532
 31
0.0
  0
LINE
  5
13BAB
330
747D
100
AcDbEntity
  8
部品1
100
AcDbLine
 10
7141.295015675662
 20
8411.365915108515
 30
0.0
 11
7169.295015675659
 21
8411.365915108515
 31
0.0
  0
LINE
  5
13BAD
330
747D
100
AcDbEntity
  8
部品1
100
AcDbLine
 10
7141.295015675685
 20
8831.365915108532
 30
0.0
 11
7169.295015675685
 21
8831.365915108532
 31
0.0
  0
DIMENSION
  5
13BAE
330
747D
100
AcDbEntity
  8
寸法
100
AcDbDimension
  2
*D9
 10
7816.721361410095
 20
9251.365915108532
 30
0.0
 11
7816.721361410094
 21
9614.851196482769
 31
0.0
 70
   160
 71
     5
 42
54.99999999999636
  3
INABA_S40G
100
AcDbAlignedDimension
 13
7169.295015675685
 23
9306.365915108528
 33
0.0
 14
7169.295015675685
 24
9251.365915108532
 34
0.0
 50
90.0
100
AcDbRotatedDimension
1001
ACAD
1000
DSTYLE
1002
{
1002
}
  0
LINE
  5
13BAF
330
747D
100
AcDbEntity
  8
部品1
100
AcDbLine
 10
7141.295015675685
 20
9251.365915108532
 30
0.0
 11
7169.295015675685
 21
9251.365915108532
 31
0.0
  0
LINE
  5
13E9E
330
747D
100
AcDbEntity
  8
部品1
100
AcDbLine
 10
6378.795015675617
 20
9276.865915108484
 30
0.0
 11
7139.795015675618
 21
9276.865915108476
 31
0.0
  0
LINE
  5
13E9F
330
747D
100
AcDbEntity
  8
細線
 48
50.0
100
AcDbLine
 10
7139.795015675618
 20
8826.865915108475
 30
0.0
 11
6378.795015675617
 21
9276.865915108478
 31
0.0
  0
LINE
  5
13EA0
330
747D
100
AcDbEntity
  8
細線
 48
50.0
100
AcDbLine
 10
7139.795015675618
 20
9276.865915108476
 30
0.0
 11
6378.795015675616
 21
8826.865915108482
 31
0.0
  0
LINE
  5
13EA1
330
747D
100
AcDbEntity
  8
部品1
100
AcDbLine
 10
6378.795015675616
 20
8826.865915108482
 30
0.0
 11
7139.795015675618
 21
8826.865915108475
 31
0.0
  0
DIMENSION
  5
13EA2
330
747D
100
AcDbEntity
  8
寸法
100
AcDbDimension
  2
*D10
 10
7081.101519381651
 20
8607.8188048655
 30
0.0
 11
6758.142077793886
 21
8607.8188048655
 31
0.0
 70
   160
 71
     5
 42
761.0000000000118
  3
INABA_S40G
100
AcDbAlignedDimension
 13
6378.795015675617
 23
8826.865915108482
 33
0.0
 14
7139.79501567563
 24
8826.865915108479
 34
0.0
100
AcDbRotatedDimension
1001
ACAD
1000
DSTYLE
1002
{
1002
}
  0
LINE
  5
13EA5
330
747D
100
AcDbEntity
  8
部品1
100
AcDbLine
 10
5558.795022353313
 20
9276.865915108441
 30
0.0
 11
6319.795022353314
 21
9276.865915108547
 31
0.0
  0
LINE
  5
13EA6
330
747D
100
AcDbEntity
  8
部品1
100
AcDbLine
 10
5558.795022353315
 20
8826.865915108438
 30
0.0
 11
6319.795022353313
 21
8826.865915108543
 31
0.0
  0
LINE
  5
13EA7
330
747D
100
AcDbEntity
  8
細線
 48
50.0
100
AcDbLine
 10
6319.795022353313
 20
8826.865915108543
 30
0.0
 11
5558.795022353313
 21
9276.865915108441
 31
0.0
  0
LINE
  5
13EA8
330
747D
100
AcDbEntity
  8
細線
 48
50.0
100
AcDbLine
 10
6319.795022353314
 20
9276.865915108542
 30
0.0
 11
5558.795022353314
 21
8826.865915108438
 31
0.0
  0
LINE
  5
13EA9
330
747D
100
AcDbEntity
  8
部品1
 48
50.0
100
AcDbLine
 10
5558.795022353313
 20
9276.865915108434
 30
0.0
 11
5558.795022353314
 21
8826.865915108438
 31
0.0
  0
LINE
  5
13EB4
330
747D
100
AcDbEntity
  8
部品1
 48
50.0
100
AcDbLine
 10
6319.795022353314
 20
9276.865915108542
 30
0.0
 11
6319.795022353314
 21
8826.865915108543
 31
0.0
  0
LINE
  5
13EB5
330
747D
100
AcDbEntity
  8
部品1
 48
50.0
100
AcDbLine
 10
6378.795015675617
 20
9276.865915108478
 30
0.0
 11
6378.795015675617
 21
8826.865915108482
 31
0.0
  0
DIMENSION
  5
13EBD
330
747D
100
AcDbEntity
  8
寸法
100
AcDbDimension
  2
*D11
 10
7495.152741537641
 20
8731.648099439587
 30
0.0
 11
7395.152741537642
 21
8956.648099439588
 31
0.0
 70
    32
 71
     5
 42
450.0
  3
INABA_S40G
100
AcDbAlignedDimension
 13
7139.795015675618
 23
9276.865915108476
 33
0.0
 14
7139.795015675618
 24
8826.865915108475
 34
0.0
 50
90.0
100
AcDbRotatedDimension
1001
ACAD
1000
DSTYLE
1002
{
1002
}
  0
LINE
  5
13EBE
330
747D
100
AcDbEntity
  8
部品1
100
AcDbLine
 10
7139.795015675618
 20
9276.865915108476
 30
0.0
 11
7139.795015675618
 21
8826.865915108475
 31
0.0
  0
LINE
  5
13F15
330
747D
100
AcDbEntity
  8
部品1
100
AcDbLine
 10
7124.295015675677
 20
5407.07727689386
 30
0.0
 11
7124.295015675679
 21
3616.077276893883
 31
0.0
  0
LINE
  5
13F16
330
747D
100
AcDbEntity
  8
部品1
100
AcDbLine
 10
6394.295015675677
 20
5407.077276893857
 30
0.0
 11
6394.295015675678
 21
3616.077276893875
 31
0.0
  0
LINE
  5
13F17
330
747D
100
AcDbEntity
  8
部品1
100
AcDbLine
 10
6392.295015675678
 20
5409.577276893861
 30
0.0
 11
6392.295015675678
 21
3612.577276893881
 31
0.0
  0
LINE
  5
13F18
330
747D
100
AcDbEntity
  8
部品1
100
AcDbLine
 10
6306.295015675678
 20
5409.577276893861
 30
0.0
 11
6306.295015675678
 21
3612.577276893881
 31
0.0
  0
LINE
  5
13F19
330
747D
100
AcDbEntity
  8
部品1
100
AcDbLine
 10
6304.295015675676
 20
5407.07727689386
 30
0.0
 11
6304.29501567568
 21
3616.077276893881
 31
0.0
  0
LINE
  5
13F1A
330
747D
100
AcDbEntity
  8
部品1
100
AcDbLine
 10
5572.295015675678
 20
5409.577276893861
 30
0.0
 11
5572.295015675678
 21
3612.577276893881
 31
0.0
  0
LINE
  5
13FFF
330
747D
100
AcDbEntity
  8
部品1
100
AcDbLine
 10
5574.295015675677
 20
3616.077276893867
 30
0.0
 11
6284.232567846997
 21
3616.077276893872
 31
0.0
  0
LINE
  5
14000
330
747D
100
AcDbEntity
  8
部品1
100
AcDbLine
 10
6394.295015675678
 20
3616.077276893875
 30
0.0
 11
7104.232567846996
 21
3616.077276893881
 31
0.0
  0
LINE
  5
14001
330
747D
100
AcDbEntity
  8
部品1
100
AcDbLine
 10
5574.295015675677
 20
5407.077276893864
 30
0.0
 11
6284.232567846997
 21
5407.077276893862
 31
0.0
  0
LINE
  5
14002
330
747D
100
AcDbEntity
  8
部品1
100
AcDbLine
 10
6394.295015675677
 20
5407.077276893857
 30
0.0
 11
7104.232567846996
 21
5407.07727689386
 31
0.0
  0
LINE
  5
14026
330
747D
100
AcDbEntity
  8
破線
 48
10.0
100
AcDbLine
 10
6428.295015675671
 20
8511.365915108489
 30
0.0
 11
6428.295003244561
 21
8826.865915108482
 31
0.0
  0
LINE
  5
14027
330
747D
100
AcDbEntity
  8
破線
 48
10.0
100
AcDbLine
 10
6270.295015675671
 20
8511.365915108479
 30
0.0
 11
6270.295007321119
 21
8826.865915108536
 31
0.0
  0
LINE
  5
14028
330
747D
100
AcDbEntity
  8
破線
 48
10.0
100
AcDbLine
 10
6270.295015675671
 20
8511.365915108482
 30
0.0
 11
5609.295015675671
 21
8511.365915108443
 31
0.0
  0
LINE
  5
1402D
330
747D
100
AcDbEntity
  8
部品1
100
AcDbLine
 10
7124.295015675677
 20
8382.365915108525
 30
0.0
 11
6394.295015675677
 21
8382.365915108463
 31
0.0
  0
LINE
  5
1409C
330
747D
100
AcDbEntity
  8
部品1
 48
2.83
100
AcDbLine
 10
7137.295015675658
 20
8411.365915108488
 30
0.0
 11
7114.295015675658
 21
8411.365915108484
 31
0.0
  0
LINE
  5
1409F
330
747D
100
AcDbEntity
  8
部品1
 48
2.83
100
AcDbLine
 10
7169.295015675659
 20
8411.365915108484
 30
0.0
 11
7146.295015675659
 21
8411.365915108488
 31
0.0
  0
LINE
  5
140A0
330
747D
100
AcDbEntity
  8
部品1
 48
2.83
100
AcDbLine
 10
7114.29501567566
 20
8411.365915108484
 30
0.0
 11
7114.295015675658
 21
8385.865915108487
 31
0.0
  0
LINE
  5
140A1
330
747D
100
AcDbEntity
  8
部品1
 48
2.83
100
AcDbLine
 10
7126.295015675658
 20
8385.865915108487
 30
0.0
 11
7126.295015675658
 21
8356.365915108487
 31
0.0
  0
LINE
  5
140A3
330
747D
100
AcDbEntity
  8
部品1
 48
2.83
100
AcDbLine
 10
5561.295015675678
 20
8411.365915108355
 30
0.0
 11
5584.295015675678
 21
8411.365915108353
 31
0.0
  0
LINE
  5
140A5
330
747D
100
AcDbEntity
  8
部品1
 48
2.83
100
AcDbLine
 10
5572.295015675678
 20
8356.365915108355
 30
0.0
 11
5529.295015675678
 21
8356.365915108353
 31
0.0
  0
LINE
  5
140A6
330
747D
100
AcDbEntity
  8
部品1
 48
2.83
100
AcDbLine
 10
5529.295015675678
 20
8411.365915108353
 30
0.0
 11
5552.295015675679
 21
8411.365915108355
 31
0.0
  0
LINE
  5
140A7
330
747D
100
AcDbEntity
  8
部品1
 48
2.83
100
AcDbLine
 10
5584.295015675678
 20
8411.365915108353
 30
0.0
 11
5584.295015675681
 21
8385.865915108356
 31
0.0
  0
LINE
  5
140A8
330
747D
100
AcDbEntity
  8
部品1
 48
2.83
100
AcDbLine
 10
5572.295015675678
 20
8385.865915108356
 30
0.0
 11
5572.295015675678
 21
8356.365915108355
 31
0.0
  0
LINE
  5
140A9
330
747D
100
AcDbEntity
  8
部品1
 48
2.83
100
AcDbLine
 10
5529.295015675678
 20
8356.365915108353
 30
0.0
 11
5529.295015675678
 21
8411.365915108353
 31
0.0
  0
LINE
  5
140AA
330
747D
100
AcDbEntity
  8
部品1
 48
50.0
100
AcDbLine
 10
6377.295015675664
 20
8411.365915108472
 30
0.0
 11
6377.295015675609
 21
9306.365915108482
 31
0.0
  0
LINE
  5
140AB
330
747D
100
AcDbEntity
  8
部品1
 48
50.0
100
AcDbLine
 10
6321.295015675664
 20
8411.365915108472
 30
0.0
 11
6321.295015675611
 21
9278.365915108482
 31
0.0
  0
LINE
  5
140D8
330
747D
100
AcDbEntity
  8
部品1
100
AcDbLine
 10
6304.295015675677
 20
8382.365915108525
 30
0.0
 11
6304.295015675677
 21
8356.365915108469
 31
0.0
  0
LINE
  5
140D9
330
747D
100
AcDbEntity
  8
部品1
100
AcDbLine
 10
6306.295015675677
 20
8385.865915108418
 30
0.0
 11
6306.295015675676
 21
8356.365915108467
 31
0.0
  0
LINE
  5
140DA
330
747D
100
AcDbEntity
  8
部品1
100
AcDbLine
 10
6392.295015675679
 20
8385.865915108425
 30
0.0
 11
6392.29501567568
 21
8356.365915108472
 31
0.0
  0
LINE
  5
140DB
330
747D
100
AcDbEntity
  8
部品1
100
AcDbLine
 10
6394.295015675677
 20
8382.365915108463
 30
0.0
 11
6394.295015675676
 21
8356.365915108474
 31
0.0
  0
LINE
  5
140DC
330
747D
100
AcDbEntity
  8
部品1
100
AcDbLine
 10
7124.295015675677
 20
8382.365915108525
 30
0.0
 11
7124.295015675677
 21
8356.365915108517
 31
0.0
  0
LINE
  5
140E0
330
747D
100
AcDbEntity
  8
部品1
100
AcDbLine
 10
5574.295015675677
 20
8382.365915108461
 30
0.0
 11
5574.295015675677
 21
8356.365915108424
 31
0.0
  0
LINE
  5
140EC
330
747D
100
AcDbEntity
  8
部品1
 48
5.0
100
AcDbLine
 10
6392.29501567568
 20
8385.865915108473
 30
0.0
 11
6392.29501567568
 21
8356.365915108472
 31
0.0
  0
LINE
  5
140EF
330
747D
100
AcDbEntity
  8
部品1
 48
5.0
100
AcDbLine
 10
6306.295015675679
 20
8385.865915108473
 30
0.0
 11
6306.295015675679
 21
8356.365915108472
 31
0.0
  0
LINE
  5
14111
330
747D
100
AcDbEntity
  8
部品1
 48
5.0
100
AcDbLine
 10
6306.295015675679
 20
8356.365915108472
 30
0.0
 11
6392.29501567568
 21
8356.365915108472
 31
0.0
  0
LINE
  5
1411A
330
747D
100
AcDbEntity
  8
部品1
 48
5.0
100
AcDbLine
 10
6404.29501567568
 20
8411.365915108472
 30
0.0
 11
6404.29501567568
 21
8385.865915108473
 31
0.0
  0
LINE
  5
14127
330
747D
100
AcDbEntity
  8
部品1
 48
5.0
100
AcDbLine
 10
6373.29501567568
 20
8411.365915108472
 30
0.0
 11
6373.29501567568
 21
8385.865915108473
 31
0.0
  0
LINE
  5
14130
330
747D
100
AcDbEntity
  8
部品1
 48
5.0
100
AcDbLine
 10
6325.295015675679
 20
8411.365915108472
 30
0.0
 11
6325.295015675679
 21
8385.865915108473
 31
0.0
  0
LINE
  5
14139
330
747D
100
AcDbEntity
  8
部品1
 48
5.0
100
AcDbLine
 10
6294.29501567568
 20
8411.365915108474
 30
0.0
 11
6294.295015675681
 21
8385.865915108473
 31
0.0
  0
LINE
  5
1413B
330
747D
100
AcDbEntity
  8
部品1
 48
5.0
100
AcDbLine
 10
5572.295015675678
 20
8385.865915108356
 30
0.0
 11
6325.295015675679
 21
8385.865915108473
 31
0.0
  0
LINE
  5
14151
330
747D
100
AcDbEntity
  8
部品1
 48
5.0
100
AcDbLine
 10
6317.295015675679
 20
8411.365915108472
 30
0.0
 11
6294.295015675678
 21
8411.365915108472
 31
0.0
  0
LINE
  5
14156
330
747D
100
AcDbEntity
  8
部品1
 48
5.0
100
AcDbLine
 10
6321.295015675664
 20
8411.365915108472
 30
0.0
 11
6377.295015675664
 21
8411.365915108472
 31
0.0
  0
LINE
  5
1415B
330
747D
100
AcDbEntity
  8
部品1
 48
5.0
100
AcDbLine
 10
6381.29501567568
 20
8411.365915108472
 30
0.0
 11
6404.29501567568
 21
8411.365915108472
 31
0.0
  0
LINE
  5
1415F
330
747D
100
AcDbEntity
  8
部品1
 48
5.0
100
AcDbLine
 10
7126.295015675658
 20
8385.865915108473
 30
0.0
 11
6373.29501567568
 21
8385.865915108473
 31
0.0
  0
LINE
  5
14186
330
747D
100
AcDbEntity
  8
部品1
100
AcDbLine
 10
6304.295015675677
 20
8382.365915108525
 30
0.0
 11
5574.295015675677
 21
8382.365915108461
 31
0.0
  0
ARC
  5
14253
330
747D
100
AcDbEntity
  8
細線
100
AcDbCircle
 10
6449.794150621184
 20
4555.577276893862
 30
0.0
 40
6.0
100
AcDbArc
 50
0.0
 51
90.0
  0
LINE
  5
14254
330
747D
100
AcDbEntity
  8
細線
100
AcDbLine
 10
6454.794150621184
 20
4570.077276893862
 30
0.0
 11
6415.627532151939
 21
4570.077276893862
 31
0.0
  0
LINE
  5
14255
330
747D
100
AcDbEntity
  8
部品1
100
AcDbLine
 10
6455.794150621184
 20
4571.577276893862
 30
0.0
 11
6414.795880730169
 21
4571.577276893862
 31
0.0
  0
ARC
  5
14256
330
747D
100
AcDbEntity
  8
細線
100
AcDbCircle
 10
6449.794150621184
 20
4467.577276893861
 30
0.0
 40
6.0
100
AcDbArc
 50
270.0
 51
0.0
  0
LINE
  5
14257
330
747D
100
AcDbEntity
  8
細線
100
AcDbLine
 10
6415.627532151939
 20
4453.077276893862
 30
0.0
 11
6454.794150621184
 21
4453.077276893862
 31
0.0
  0
LINE
  5
14258
330
747D
100
AcDbEntity
  8
部品1
100
AcDbLine
 10
6414.795880730169
 20
4451.577276893862
 30
0.0
 11
6455.794150621184
 21
4451.577276893862
 31
0.0
  0
ARC
  5
14259
330
747D
100
AcDbEntity
  8
部品1
100
AcDbCircle
 10
6414.795880730169
 20
4565.577276893862
 30
0.0
 40
6.0
100
AcDbArc
 50
90.0
 51
169.4161974034886
  0
LINE
  5
1425A
330
747D
100
AcDbEntity
  8
細線
100
AcDbLine
 10
6429.288574531017
 20
4555.577276893862
 30
0.0
 11
6427.794150621185
 21
4555.577276893862
 31
0.0
  0
ARC
  5
1425B
330
747D
100
AcDbEntity
  8
細線
100
AcDbCircle
 10
6429.288574531017
 20
4552.577276893862
 30
0.0
 40
3.0
100
AcDbArc
 50
8.099550838277986
 51
90.0
  0
LINE
  5
1425C
330
747D
100
AcDbEntity
  8
細線
100
AcDbLine
 10
6440.001689799931
 20
4558.577276893863
 30
0.0
 11
6427.794150621185
 21
4558.577276893863
 31
0.0
  0
ARC
  5
1425D
330
747D
100
AcDbEntity
  8
細線
100
AcDbCircle
 10
6419.175106985662
 20
4555.577276893862
 30
0.0
 40
6.0
100
AcDbArc
 50
90.0
 51
171.2120626773636
  0
LINE
  5
1425E
330
747D
100
AcDbEntity
  8
細線
100
AcDbLine
 10
6427.794150621185
 20
4555.576768995299
 30
0.0
 11
6415.030823405217
 21
4555.576768995299
 31
0.0
  0
ARC
  5
1425F
330
747D
100
AcDbEntity
  8
細線
100
AcDbCircle
 10
6415.627532151939
 20
4564.577276893862
 30
0.0
 40
5.5
100
AcDbArc
 50
89.99999999999969
 51
169.5785490272683
  0
ARC
  5
14260
330
747D
100
AcDbEntity
  8
細線
100
AcDbCircle
 10
6440.001689799931
 20
4552.577276893862
 30
0.0
 40
6.0
100
AcDbArc
 50
0.0
 51
90.0
  0
LINE
  5
14261
330
747D
100
AcDbEntity
  8
細線
100
AcDbLine
 10
6449.794150621184
 20
4561.577276893863
 30
0.0
 11
6419.175106985662
 21
4561.577276893863
 31
0.0
  0
LINE
  5
14262
330
747D
100
AcDbEntity
  8
細線
100
AcDbLine
 10
6427.794150621185
 20
4467.577276893861
 30
0.0
 11
6429.28857453102
 21
4467.577276893861
 31
0.0
  0
ARC
  5
14263
330
747D
100
AcDbEntity
  8
細線
100
AcDbCircle
 10
6429.28857453102
 20
4470.577276893862
 30
0.0
 40
3.0
100
AcDbArc
 50
270.0
 51
351.9004491617184
  0
LINE
  5
14264
330
747D
100
AcDbEntity
  8
細線
100
AcDbLine
 10
6427.794150621185
 20
4464.577276893861
 30
0.0
 11
6440.001689799931
 21
4464.577276893861
 31
0.0
  0
ARC
  5
14265
330
747D
100
AcDbEntity
  8
細線
100
AcDbCircle
 10
6419.175106985662
 20
4467.577276893861
 30
0.0
 40
6.0
100
AcDbArc
 50
188.7879373226349
 51
270.0
  0
ARC
  5
14266
330
747D
100
AcDbEntity
  8
部品1
100
AcDbCircle
 10
6414.795880730169
 20
4457.577276893863
 30
0.0
 40
6.0
100
AcDbArc
 50
190.5838025965097
 51
270.0
  0
ARC
  5
14267
330
747D
100
AcDbEntity
  8
細線
100
AcDbCircle
 10
6415.627532151939
 20
4458.577276893862
 30
0.0
 40
5.5
100
AcDbArc
 50
190.4214509727298
 51
269.9999999999997
  0
LINE
  5
14268
330
747D
100
AcDbEntity
  8
細線
100
AcDbLine
 10
6427.794150621185
 20
4467.577784792424
 30
0.0
 11
6414.315446122362
 21
4467.577784792424
 31
0.0
  0
ARC
  5
14269
330
747D
100
AcDbEntity
  8
細線
100
AcDbCircle
 10
6440.001689799931
 20
4470.577276893862
 30
0.0
 40
6.0
100
AcDbArc
 50
270.0
 51
360.0
  0
LINE
  5
1426A
330
747D
100
AcDbEntity
  8
細線
100
AcDbLine
 10
6419.175106985662
 20
4461.577276893862
 30
0.0
 11
6449.794150621184
 21
4461.577276893862
 31
0.0
  0
LINE
  5
1426B
330
747D
100
AcDbEntity
  8
細線
100
AcDbLine
 10
6446.001689799931
 20
4470.577276893862
 30
0.0
 11
6446.001689799931
 21
4552.577276893862
 31
0.0
  0
LINE
  5
1426C
330
747D
100
AcDbEntity
  8
細線
100
AcDbLine
 10
6427.794150621185
 20
4561.577276893863
 30
0.0
 11
6427.794150621185
 21
4461.577276893862
 31
0.0
  0
ARC
  5
1426D
330
747D
100
AcDbEntity
  8
部品1
100
AcDbCircle
 10
6703.794150621185
 20
4511.577276893862
 30
0.0
 40
300.0
100
AcDbArc
 50
169.4161974034894
 51
190.5838025965105
  0
ARC
  5
1426E
330
747D
100
AcDbEntity
  8
細線
100
AcDbCircle
 10
6703.794150621185
 20
4511.577276893862
 30
0.0
 40
298.5
100
AcDbArc
 50
169.578549027269
 51
190.4214509727309
  0
ARC
  5
1426F
330
747D
100
AcDbEntity
  8
細線
100
AcDbCircle
 10
6703.794150621185
 20
4511.577276893862
 30
0.0
 40
294.0
100
AcDbArc
 50
171.212062677364
 51
188.7879373226359
  0
ARC
  5
14270
330
747D
100
AcDbEntity
  8
細線
100
AcDbCircle
 10
6141.19136871326
 20
4511.577276893862
 30
0.0
 40
294.0
100
AcDbArc
 50
351.900449161722
 51
8.099550838278029
  0
ARC
  5
14271
330
747D
100
AcDbEntity
  8
細線
100
AcDbCircle
 10
6454.794150621184
 20
4564.577276893862
 30
0.0
 40
5.5
100
AcDbArc
 50
0.0
 51
90.0
  0
ARC
  5
14272
330
747D
100
AcDbEntity
  8
部品1
100
AcDbCircle
 10
6455.794150621184
 20
4565.577276893862
 30
0.0
 40
6.0
100
AcDbArc
 50
0.0
 51
90.0
  0
ARC
  5
14273
330
747D
100
AcDbEntity
  8
細線
100
AcDbCircle
 10
6454.794150621184
 20
4458.577276893862
 30
0.0
 40
5.5
100
AcDbArc
 50
270.0
 51
0.0
  0
ARC
  5
14274
330
747D
100
AcDbEntity
  8
部品1
100
AcDbCircle
 10
6455.794150621184
 20
4457.577276893863
 30
0.0
 40
6.0
100
AcDbArc
 50
270.0
 51
0.0
  0
LINE
  5
14275
330
747D
100
AcDbEntity
  8
細線
100
AcDbLine
 10
6455.794150621184
 20
4467.577276893861
 30
0.0
 11
6455.794150621184
 21
4555.577276893862
 31
0.0
  0
LINE
  5
14276
330
747D
100
AcDbEntity
  8
細線
100
AcDbLine
 10
6460.294150621185
 20
4458.577276893862
 30
0.0
 11
6460.294150621185
 21
4564.577276893862
 31
0.0
  0
LINE
  5
14277
330
747D
100
AcDbEntity
  8
部品1
100
AcDbLine
 10
6461.794150621185
 20
4457.577276893863
 30
0.0
 11
6461.794150621185
 21
4565.577276893862
 31
0.0
  0
LINE
  5
1427A
330
747D
100
AcDbEntity
  8
細線
100
AcDbLine
 10
5630.502554854423
 20
4470.577276893861
 30
0.0
 11
5630.502554854423
 21
4552.577276893861
 31
0.0
  0
LINE
  5
1427B
330
747D
100
AcDbEntity
  8
細線
100
AcDbLine
 10
5612.295015675678
 20
4561.57727689386
 30
0.0
 11
5612.295015675678
 21
4461.57727689386
 31
0.0
  0
ARC
  5
1427C
330
747D
100
AcDbEntity
  8
部品1
100
AcDbCircle
 10
5888.295015675677
 20
4511.57727689386
 30
0.0
 40
300.0
100
AcDbArc
 50
169.4161974034894
 51
190.5838025965105
  0
ARC
  5
1427D
330
747D
100
AcDbEntity
  8
細線
100
AcDbCircle
 10
5888.295015675677
 20
4511.57727689386
 30
0.0
 40
298.5
100
AcDbArc
 50
169.578549027269
 51
190.4214509727309
  0
ARC
  5
1427E
330
747D
100
AcDbEntity
  8
細線
100
AcDbCircle
 10
5888.295015675677
 20
4511.57727689386
 30
0.0
 40
294.0
100
AcDbArc
 50
171.212062677364
 51
188.7879373226359
  0
ARC
  5
1427F
330
747D
100
AcDbEntity
  8
細線
100
AcDbCircle
 10
5325.692233767753
 20
4511.57727689386
 30
0.0
 40
294.0
100
AcDbArc
 50
351.900449161722
 51
8.099550838278029
  0
LINE
  5
14280
330
747D
100
AcDbEntity
  8
細線
100
AcDbLine
 10
5640.295015675678
 20
4467.577276893861
 30
0.0
 11
5640.295015675678
 21
4555.57727689386
 31
0.0
  0
LINE
  5
14281
330
747D
100
AcDbEntity
  8
細線
100
AcDbLine
 10
5644.795015675678
 20
4458.57727689386
 30
0.0
 11
5644.795015675678
 21
4564.57727689386
 31
0.0
  0
LINE
  5
14282
330
747D
100
AcDbEntity
  8
部品1
100
AcDbLine
 10
5646.295015675678
 20
4457.57727689386
 30
0.0
 11
5646.295015675678
 21
4565.57727689386
 31
0.0
  0
ARC
  5
14283
330
747D
100
AcDbEntity
  8
細線
100
AcDbCircle
 10
5603.675972040155
 20
4467.577276893861
 30
0.0
 40
6.0
100
AcDbArc
 50
188.7879373226349
 51
270.0
  0
LINE
  5
14284
330
747D
100
AcDbEntity
  8
細線
100
AcDbLine
 10
5612.295015675678
 20
4467.577784792424
 30
0.0
 11
5598.816311176856
 21
4467.577784792424
 31
0.0
  0
LINE
  5
14285
330
747D
100
AcDbEntity
  8
細線
100
AcDbLine
 10
5600.128397206432
 20
4453.07727689386
 30
0.0
 11
5639.295015675678
 21
4453.07727689386
 31
0.0
  0
LINE
  5
14286
330
747D
100
AcDbEntity
  8
部品1
100
AcDbLine
 10
5599.296745784663
 20
4451.57727689386
 30
0.0
 11
5640.295015675678
 21
4451.57727689386
 31
0.0
  0
ARC
  5
14287
330
747D
100
AcDbEntity
  8
部品1
100
AcDbCircle
 10
5599.296745784663
 20
4457.57727689386
 30
0.0
 40
6.0
100
AcDbArc
 50
190.5838025965097
 51
270.0
  0
ARC
  5
14288
330
747D
100
AcDbEntity
  8
細線
100
AcDbCircle
 10
5600.128397206432
 20
4458.57727689386
 30
0.0
 40
5.5
100
AcDbArc
 50
190.4214509727298
 51
269.9999999999997
  0
ARC
  5
14289
330
747D
100
AcDbEntity
  8
細線
100
AcDbCircle
 10
5639.295015675678
 20
4458.57727689386
 30
0.0
 40
5.5
100
AcDbArc
 50
270.0
 51
0.0
  0
ARC
  5
1428A
330
747D
100
AcDbEntity
  8
部品1
100
AcDbCircle
 10
5640.295015675678
 20
4457.57727689386
 30
0.0
 40
6.0
100
AcDbArc
 50
270.0
 51
0.0
  0
LINE
  5
1428B
330
747D
100
AcDbEntity
  8
細線
100
AcDbLine
 10
5612.295015675678
 20
4467.577276893861
 30
0.0
 11
5613.789439585513
 21
4467.577276893861
 31
0.0
  0
ARC
  5
1428C
330
747D
100
AcDbEntity
  8
細線
100
AcDbCircle
 10
5613.789439585513
 20
4470.577276893861
 30
0.0
 40
3.0
100
AcDbArc
 50
270.0
 51
351.9004491617184
  0
LINE
  5
1428D
330
747D
100
AcDbEntity
  8
細線
100
AcDbLine
 10
5612.295015675678
 20
4464.57727689386
 30
0.0
 11
5624.502554854423
 21
4464.57727689386
 31
0.0
  0
ARC
  5
1428E
330
747D
100
AcDbEntity
  8
細線
100
AcDbCircle
 10
5624.502554854423
 20
4470.577276893861
 30
0.0
 40
6.0
100
AcDbArc
 50
270.0
 51
360.0
  0
LINE
  5
1428F
330
747D
100
AcDbEntity
  8
細線
100
AcDbLine
 10
5603.675972040155
 20
4461.57727689386
 30
0.0
 11
5634.295015675678
 21
4461.57727689386
 31
0.0
  0
ARC
  5
14290
330
747D
100
AcDbEntity
  8
細線
100
AcDbCircle
 10
5634.295015675678
 20
4467.577276893861
 30
0.0
 40
6.0
100
AcDbArc
 50
270.0
 51
0.0
  0
ARC
  5
14291
330
747D
100
AcDbEntity
  8
細線
100
AcDbCircle
 10
5603.675972040155
 20
4555.57727689386
 30
0.0
 40
6.0
100
AcDbArc
 50
90.0
 51
171.2120626773636
  0
LINE
  5
14292
330
747D
100
AcDbEntity
  8
細線
100
AcDbLine
 10
5612.295015675678
 20
4555.576768995299
 30
0.0
 11
5599.531688459711
 21
4555.576768995299
 31
0.0
  0
LINE
  5
14293
330
747D
100
AcDbEntity
  8
細線
100
AcDbLine
 10
5639.295015675678
 20
4570.077276893861
 30
0.0
 11
5600.128397206432
 21
4570.077276893861
 31
0.0
  0
LINE
  5
14294
330
747D
100
AcDbEntity
  8
部品1
100
AcDbLine
 10
5640.295015675678
 20
4571.577276893861
 30
0.0
 11
5599.296745784663
 21
4571.577276893861
 31
0.0
  0
ARC
  5
14295
330
747D
100
AcDbEntity
  8
部品1
100
AcDbCircle
 10
5599.296745784663
 20
4565.57727689386
 30
0.0
 40
6.0
100
AcDbArc
 50
90.0
 51
169.4161974034886
  0
ARC
  5
14296
330
747D
100
AcDbEntity
  8
細線
100
AcDbCircle
 10
5600.128397206432
 20
4564.57727689386
 30
0.0
 40
5.5
100
AcDbArc
 50
89.99999999999969
 51
169.5785490272683
  0
ARC
  5
14297
330
747D
100
AcDbEntity
  8
細線
100
AcDbCircle
 10
5639.295015675678
 20
4564.57727689386
 30
0.0
 40
5.5
100
AcDbArc
 50
0.0
 51
90.0
  0
ARC
  5
14298
330
747D
100
AcDbEntity
  8
部品1
100
AcDbCircle
 10
5640.295015675678
 20
4565.57727689386
 30
0.0
 40
6.0
100
AcDbArc
 50
0.0
 51
90.0
  0
LINE
  5
14299
330
747D
100
AcDbEntity
  8
細線
100
AcDbLine
 10
5613.789439585511
 20
4555.57727689386
 30
0.0
 11
5612.295015675678
 21
4555.57727689386
 31
0.0
  0
ARC
  5
1429A
330
747D
100
AcDbEntity
  8
細線
100
AcDbCircle
 10
5613.789439585511
 20
4552.577276893861
 30
0.0
 40
3.0
100
AcDbArc
 50
8.099550838277986
 51
90.0
  0
LINE
  5
1429B
330
747D
100
AcDbEntity
  8
細線
100
AcDbLine
 10
5624.502554854423
 20
4558.57727689386
 30
0.0
 11
5612.295015675678
 21
4558.57727689386
 31
0.0
  0
ARC
  5
1429C
330
747D
100
AcDbEntity
  8
細線
100
AcDbCircle
 10
5624.502554854423
 20
4552.577276893861
 30
0.0
 40
6.0
100
AcDbArc
 50
0.0
 51
90.0
  0
LINE
  5
1429D
330
747D
100
AcDbEntity
  8
細線
100
AcDbLine
 10
5634.295015675678
 20
4561.57727689386
 30
0.0
 11
5603.675972040155
 21
4561.57727689386
 31
0.0
  0
ARC
  5
142A0
330
747D
100
AcDbEntity
  8
細線
100
AcDbCircle
 10
5634.295015675678
 20
4555.57727689386
 30
0.0
 40
6.0
100
AcDbArc
 50
0.0
 51
90.0
  0
ARC
  5
142A6
330
747D
100
AcDbEntity
  8
部品1
 48
0.2
100
AcDbCircle
 10
6296.357463504357
 20
8357.363545063693
 30
0.0
 40
8.0
100
AcDbArc
 50
270.0
 51
352.8363522778074
  0
ARC
  5
142AA
330
747D
100
AcDbEntity
  8
部品1
 48
0.2
100
AcDbCircle
 10
6291.357463504356
 20
8357.363545063693
 30
0.0
 40
8.0
100
AcDbArc
 50
187.1636477221926
 51
269.9999999999992
  0
ARC
  5
142AB
330
747D
100
AcDbEntity
  8
細線
 48
0.2
100
AcDbCircle
 10
6296.357463504357
 20
8357.363545063693
 30
0.0
 40
4.049999999999999
100
AcDbArc
 50
194.2603506853988
 51
345.7396493146012
  0
LINE
  5
142AD
330
747D
100
AcDbEntity
  8
部品1
 48
0.2
100
AcDbLine
 10
6291.357463504356
 20
8349.363545063692
 30
0.0
 11
6296.357463504357
 21
8349.363545063692
 31
0.0
  0
LINE
  5
142D9
330
747D
100
AcDbEntity
  8
部品1
 48
0.2
100
AcDbLine
 10
7111.357463504358
 20
8349.363545063713
 30
0.0
 11
7116.357463504357
 21
8349.363545063713
 31
0.0
  0
ARC
  5
142DA
330
747D
100
AcDbEntity
  8
部品1
 48
0.2
100
AcDbCircle
 10
7116.357463504357
 20
8357.363545063712
 30
0.0
 40
8.0
100
AcDbArc
 50
270.0
 51
352.8363522778074
  0
ARC
  5
142DB
330
747D
100
AcDbEntity
  8
部品1
 48
0.2
100
AcDbCircle
 10
7111.357463504358
 20
8357.363545063712
 30
0.0
 40
8.0
100
AcDbArc
 50
187.1636477221926
 51
269.9999999999992
  0
ARC
  5
142DC
330
747D
100
AcDbEntity
  8
細線
 48
0.2
100
AcDbCircle
 10
7116.357463504357
 20
8357.363545063712
 30
0.0
 40
4.049999999999999
100
AcDbArc
 50
194.2603506853988
 51
345.7396493146012
  0
LINE
  5
142DF
330
747D
100
AcDbEntity
  8
細線
 48
50.0
100
AcDbLine
 10
6300.220220698657
 20
5404.827276893862
 30
0.0
 11
6300.220220698657
 21
5402.827276893862
 31
0.0
  0
LINE
  5
142E0
330
747D
100
AcDbEntity
  8
細線
 48
50.0
100
AcDbLine
 10
6292.369810652693
 20
5404.827276893862
 30
0.0
 11
6292.369810652694
 21
5402.827276893862
 31
0.0
  0
LINE
  5
142E1
330
747D
100
AcDbEntity
  8
細線
 48
0.2
100
AcDbLine
 10
6301.916559143504
 20
5408.027276893863
 30
0.0
 11
6290.548576550492
 21
5408.027276893863
 31
0.0
  0
ARC
  5
142E2
330
747D
100
AcDbEntity
  8
細線
 48
0.2
100
AcDbCircle
 10
6296.232567846995
 20
5390.527276893865
 30
0.0
 40
18.49999999999796
100
AcDbArc
 50
73.39845040097829
 51
106.6015495990228
  0
LINE
  5
142E5
330
747D
100
AcDbEntity
  8
細線
 48
0.1
100
AcDbLine
 10
6304.232567846996
 20
5407.327276893862
 30
0.0
 11
6304.232567846996
 21
5400.327276893862
 31
0.0
  0
ARC
  5
142E7
330
747D
100
AcDbEntity
  8
細線
 48
0.2
100
AcDbCircle
 10
6301.232567846996
 20
5407.29778672511
 30
0.0
 40
1.0
100
AcDbArc
 50
0.0
 51
73.39845040097829
  0
ARC
  5
142E9
330
747D
100
AcDbEntity
  8
細線
 48
0.2
100
AcDbCircle
 10
6291.232567846996
 20
5407.29778672511
 30
0.0
 40
1.0
100
AcDbArc
 50
106.6015495990225
 51
180.0000000000016
  0
LINE
  5
142EC
330
747D
100
AcDbEntity
  8
部品1
 48
0.2
100
AcDbLine
 10
6304.232567846996
 20
5400.327276893862
 30
0.0
 11
6284.232567846996
 21
5400.327276893862
 31
0.0
  0
LINE
  5
142ED
330
747D
100
AcDbEntity
  8
細線
 48
0.2
100
AcDbLine
 10
6304.232567846996
 20
5404.827276893862
 30
0.0
 11
6284.232567846997
 21
5404.827276893862
 31
0.0
  0
LINE
  5
142EE
330
747D
100
AcDbEntity
  8
細線
 48
0.2
100
AcDbLine
 10
6304.232567846996
 20
5402.827276893862
 30
0.0
 11
6284.232567846997
 21
5402.827276893862
 31
0.0
  0
LINE
  5
142EF
330
747D
100
AcDbEntity
  8
細線
 48
0.2
100
AcDbLine
 10
6304.232567846996
 20
5407.327276893862
 30
0.0
 11
6284.232567846997
 21
5407.327276893862
 31
0.0
  0
LINE
  5
14328
330
747D
100
AcDbEntity
  8
部品1
 48
50.0
100
AcDbLine
 10
6284.232567846996
 20
5400.327276893862
 30
0.0
 11
6284.232567846996
 21
5407.077276893862
 31
0.0
  0
LINE
  5
14329
330
747D
100
AcDbEntity
  8
部品1
100
AcDbLine
 10
6304.232567846997
 20
5407.077276893862
 30
0.0
 11
6304.295015675678
 21
5407.07727689386
 31
0.0
  0
LINE
  5
1432A
330
747D
100
AcDbEntity
  8
細線
 48
50.0
100
AcDbLine
 10
6284.232567846996
 20
5407.077276893862
 30
0.0
 11
6284.232567846996
 21
5407.327276893862
 31
0.0
  0
ARC
  5
1432B
330
747D
100
AcDbEntity
  8
細線
 48
0.2
100
AcDbCircle
 10
7121.232567846996
 20
5407.29778672511
 30
0.0
 40
1.0
100
AcDbArc
 50
0.0
 51
73.39845040097829
  0
LINE
  5
1432C
330
747D
100
AcDbEntity
  8
細線
 48
0.1
100
AcDbLine
 10
7124.232567846997
 20
5407.327276893862
 30
0.0
 11
7124.232567846997
 21
5400.327276893862
 31
0.0
  0
LINE
  5
1432D
330
747D
100
AcDbEntity
  8
細線
 48
50.0
100
AcDbLine
 10
7112.369810652693
 20
5404.827276893862
 30
0.0
 11
7112.369810652693
 21
5402.827276893862
 31
0.0
  0
LINE
  5
1432E
330
747D
100
AcDbEntity
  8
細線
 48
50.0
100
AcDbLine
 10
7120.220220698657
 20
5404.827276893862
 30
0.0
 11
7120.220220698657
 21
5402.827276893862
 31
0.0
  0
LINE
  5
1432F
330
747D
100
AcDbEntity
  8
細線
 48
0.2
100
AcDbLine
 10
7124.232567846997
 20
5407.327276893862
 30
0.0
 11
7104.232567846996
 21
5407.327276893862
 31
0.0
  0
LINE
  5
14330
330
747D
100
AcDbEntity
  8
細線
 48
0.2
100
AcDbLine
 10
7124.232567846997
 20
5402.827276893862
 30
0.0
 11
7104.232567846996
 21
5402.827276893862
 31
0.0
  0
LINE
  5
14331
330
747D
100
AcDbEntity
  8
細線
 48
0.2
100
AcDbLine
 10
7124.232567846997
 20
5404.827276893862
 30
0.0
 11
7104.232567846996
 21
5404.827276893862
 31
0.0
  0
ARC
  5
14332
330
747D
100
AcDbEntity
  8
細線
 48
0.2
100
AcDbCircle
 10
7111.232567846996
 20
5407.29778672511
 30
0.0
 40
1.0
100
AcDbArc
 50
106.6015495990225
 51
180.0000000000016
  0
ARC
  5
14333
330
747D
100
AcDbEntity
  8
細線
 48
0.2
100
AcDbCircle
 10
7116.232567846997
 20
5390.527276893865
 30
0.0
 40
18.49999999999796
100
AcDbArc
 50
73.39845040097829
 51
106.6015495990228
  0
LINE
  5
14334
330
747D
100
AcDbEntity
  8
細線
 48
0.2
100
AcDbLine
 10
7121.916559143504
 20
5408.027276893863
 30
0.0
 11
7110.548576550492
 21
5408.027276893863
 31
0.0
  0
LINE
  5
14335
330
747D
100
AcDbEntity
  8
細線
 48
50.0
100
AcDbLine
 10
7104.232567846996
 20
5407.077276893862
 30
0.0
 11
7104.232567846996
 21
5407.327276893862
 31
0.0
  0
LINE
  5
14336
330
747D
100
AcDbEntity
  8
部品1
 48
50.0
100
AcDbLine
 10
7104.232567846996
 20
5400.327276893862
 30
0.0
 11
7104.232567846996
 21
5407.077276893862
 31
0.0
  0
LINE
  5
14337
330
747D
100
AcDbEntity
  8
部品1
100
AcDbLine
 10
7124.232567846997
 20
5407.077276893862
 30
0.0
 11
7124.295015675677
 21
5407.07727689386
 31
0.0
  0
LINE
  5
14338
330
747D
100
AcDbEntity
  8
部品1
 48
0.2
100
AcDbLine
 10
7124.232567846997
 20
5400.327276893862
 30
0.0
 11
7104.232567846996
 21
5400.327276893862
 31
0.0
  0
LINE
  5
14339
330
747D
100
AcDbEntity
  8
部品1
100
AcDbLine
 10
7124.232567846997
 20
5407.077276893859
 30
0.0
 11
7124.295015675677
 21
5407.07727689386
 31
0.0
  0
ARC
  5
1433A
330
747D
100
AcDbEntity
  8
細線
 48
0.2
100
AcDbCircle
 10
6301.232567846996
 20
3615.856767062631
 30
0.0
 40
1.0
100
AcDbArc
 50
286.6015495990217
 51
0.0
  0
LINE
  5
1433B
330
747D
100
AcDbEntity
  8
細線
 48
0.1
100
AcDbLine
 10
6304.232567846996
 20
3615.827276893879
 30
0.0
 11
6304.232567846996
 21
3622.827276893879
 31
0.0
  0
LINE
  5
1433C
330
747D
100
AcDbEntity
  8
細線
 48
50.0
100
AcDbLine
 10
6292.369810652693
 20
3618.327276893881
 30
0.0
 11
6292.369810652694
 21
3620.327276893879
 31
0.0
  0
LINE
  5
1433D
330
747D
100
AcDbEntity
  8
細線
 48
50.0
100
AcDbLine
 10
6300.220220698657
 20
3618.327276893881
 30
0.0
 11
6300.220220698657
 21
3620.327276893879
 31
0.0
  0
LINE
  5
1433E
330
747D
100
AcDbEntity
  8
細線
 48
0.2
100
AcDbLine
 10
6304.232567846996
 20
3615.827276893879
 30
0.0
 11
6284.232567846997
 21
3615.827276893879
 31
0.0
  0
LINE
  5
1433F
330
747D
100
AcDbEntity
  8
細線
 48
0.2
100
AcDbLine
 10
6304.232567846996
 20
3620.327276893879
 30
0.0
 11
6284.232567846997
 21
3620.327276893879
 31
0.0
  0
LINE
  5
14340
330
747D
100
AcDbEntity
  8
細線
 48
0.2
100
AcDbLine
 10
6304.232567846996
 20
3618.327276893879
 30
0.0
 11
6284.232567846997
 21
3618.327276893881
 31
0.0
  0
ARC
  5
14341
330
747D
100
AcDbEntity
  8
細線
 48
0.2
100
AcDbCircle
 10
6291.232567846996
 20
3615.856767062631
 30
0.0
 40
1.0
100
AcDbArc
 50
179.9999999999984
 51
253.3984504009775
  0
ARC
  5
14342
330
747D
100
AcDbEntity
  8
細線
 48
0.2
100
AcDbCircle
 10
6296.232567846995
 20
3632.627276893876
 30
0.0
 40
18.49999999999796
100
AcDbArc
 50
253.3984504009772
 51
286.6015495990217
  0
LINE
  5
14343
330
747D
100
AcDbEntity
  8
細線
 48
0.2
100
AcDbLine
 10
6301.916559143504
 20
3615.127276893878
 30
0.0
 11
6290.548576550492
 21
3615.127276893878
 31
0.0
  0
LINE
  5
14344
330
747D
100
AcDbEntity
  8
細線
 48
50.0
100
AcDbLine
 10
6284.232567846996
 20
3616.077276893881
 30
0.0
 11
6284.232567846996
 21
3615.827276893879
 31
0.0
  0
LINE
  5
14345
330
747D
100
AcDbEntity
  8
部品1
 48
50.0
100
AcDbLine
 10
6284.232567846996
 20
3622.827276893879
 30
0.0
 11
6284.232567846996
 21
3616.077276893881
 31
0.0
  0
LINE
  5
14346
330
747D
100
AcDbEntity
  8
部品1
100
AcDbLine
 10
6304.232567846997
 20
3616.077276893881
 30
0.0
 11
6304.295015675678
 21
3616.077276893881
 31
0.0
  0
LINE
  5
14347
330
747D
100
AcDbEntity
  8
部品1
 48
0.2
100
AcDbLine
 10
6304.232567846996
 20
3622.827276893879
 30
0.0
 11
6284.232567846996
 21
3622.827276893879
 31
0.0
  0
LINE
  5
14348
330
747D
100
AcDbEntity
  8
部品1
100
AcDbLine
 10
7124.232567846997
 20
3616.077276893883
 30
0.0
 11
7124.295015675677
 21
3616.077276893883
 31
0.0
  0
LINE
  5
14349
330
747D
100
AcDbEntity
  8
部品1
 48
0.2
100
AcDbLine
 10
7124.232567846997
 20
3622.827276893879
 30
0.0
 11
7104.232567846996
 21
3622.827276893879
 31
0.0
  0
LINE
  5
1434A
330
747D
100
AcDbEntity
  8
部品1
100
AcDbLine
 10
7124.232567846997
 20
3616.077276893881
 30
0.0
 11
7124.295015675677
 21
3616.077276893881
 31
0.0
  0
LINE
  5
1434B
330
747D
100
AcDbEntity
  8
部品1
 48
50.0
100
AcDbLine
 10
7104.232567846996
 20
3622.827276893879
 30
0.0
 11
7104.232567846996
 21
3616.077276893881
 31
0.0
  0
LINE
  5
1434C
330
747D
100
AcDbEntity
  8
細線
 48
50.0
100
AcDbLine
 10
7104.232567846996
 20
3616.077276893881
 30
0.0
 11
7104.232567846996
 21
3615.827276893879
 31
0.0
  0
LINE
  5
1434D
330
747D
100
AcDbEntity
  8
細線
 48
0.2
100
AcDbLine
 10
7121.916559143504
 20
3615.127276893878
 30
0.0
 11
7110.548576550492
 21
3615.127276893878
 31
0.0
  0
ARC
  5
1434E
330
747D
100
AcDbEntity
  8
細線
 48
0.2
100
AcDbCircle
 10
7116.232567846997
 20
3632.627276893876
 30
0.0
 40
18.49999999999796
100
AcDbArc
 50
253.3984504009772
 51
286.6015495990217
  0
ARC
  5
1434F
330
747D
100
AcDbEntity
  8
細線
 48
0.2
100
AcDbCircle
 10
7111.232567846996
 20
3615.856767062631
 30
0.0
 40
1.0
100
AcDbArc
 50
179.9999999999984
 51
253.3984504009775
  0
LINE
  5
14350
330
747D
100
AcDbEntity
  8
細線
 48
0.2
100
AcDbLine
 10
7124.232567846997
 20
3618.327276893879
 30
0.0
 11
7104.232567846996
 21
3618.327276893881
 31
0.0
  0
LINE
  5
14351
330
747D
100
AcDbEntity
  8
細線
 48
0.2
100
AcDbLine
 10
7124.232567846997
 20
3620.327276893879
 30
0.0
 11
7104.232567846996
 21
3620.327276893879
 31
0.0
  0
LINE
  5
14352
330
747D
100
AcDbEntity
  8
細線
 48
0.2
100
AcDbLine
 10
7124.232567846997
 20
3615.827276893879
 30
0.0
 11
7104.232567846996
 21
3615.827276893879
 31
0.0
  0
LINE
  5
14353
330
747D
100
AcDbEntity
  8
細線
 48
50.0
100
AcDbLine
 10
7120.220220698657
 20
3618.327276893881
 30
0.0
 11
7120.220220698657
 21
3620.327276893879
 31
0.0
  0
LINE
  5
14354
330
747D
100
AcDbEntity
  8
細線
 48
50.0
100
AcDbLine
 10
7112.369810652693
 20
3618.327276893881
 30
0.0
 11
7112.369810652693
 21
3620.327276893879
 31
0.0
  0
LINE
  5
14355
330
747D
100
AcDbEntity
  8
細線
 48
0.1
100
AcDbLine
 10
7124.232567846997
 20
3615.827276893879
 30
0.0
 11
7124.232567846997
 21
3622.827276893879
 31
0.0
  0
ARC
  5
14356
330
747D
100
AcDbEntity
  8
細線
 48
0.2
100
AcDbCircle
 10
7121.232567846996
 20
3615.856767062631
 30
0.0
 40
1.0
100
AcDbArc
 50
286.6015495990217
 51
0.0
  0
LINE
  5
14357
330
747D
100
AcDbEntity
  8
部品1
100
AcDbLine
 10
6304.232567846997
 20
3616.077276893872
 30
0.0
 11
6304.295015675678
 21
3616.077276893872
 31
0.0
  0
LINE
  5
14358
330
747D
100
AcDbEntity
  8
部品1
100
AcDbLine
 10
7124.232567846997
 20
3616.077276893881
 30
0.0
 11
7124.295015675677
 21
3616.077276893881
 31
0.0
  0
LINE
  5
1439F
330
747D
100
AcDbEntity
  8
部品1
 48
5.0
100
AcDbLine
 10
7112.79404425073
 20
8487.86591510853
 30
0.0
 11
7112.79453718204
 21
8826.865915108475
 31
0.0
  0
LINE
  5
143A0
330
747D
100
AcDbEntity
  8
部品1
 48
5.0
100
AcDbLine
 10
5585.795987100642
 20
8487.86591510853
 30
0.0
 11
5585.795494169331
 21
8826.865915108443
 31
0.0
  0
LINE
  5
143A2
330
747D
100
AcDbEntity
  8
部品1
 48
50.0
100
AcDbLine
 10
6404.795015675661
 20
8487.865915133143
 30
0.0
 11
6377.295015675664
 21
8459.865915108471
 31
0.0
  0
LINE
  5
143A3
330
747D
100
AcDbEntity
  8
部品1
 48
50.0
100
AcDbLine
 10
6321.295015675664
 20
8459.865915108471
 30
0.0
 11
6293.795015675662
 21
8487.865915108482
 31
0.0
  0
LINE
  5
143A4
330
747D
100
AcDbEntity
  8
部品1
100
AcDbLine
 10
6293.795015675662
 20
8487.865915108482
 30
0.0
 11
5585.795987102073
 21
8487.864832799994
 31
0.0
  0
LINE
  5
14407
330
747D
100
AcDbEntity
  8
部品1
 48
50.0
100
AcDbLine
 10
6293.795015675662
 20
8487.865915108482
 30
0.0
 11
6293.795015675638
 21
8826.865915108538
 31
0.0
  0
LINE
  5
14408
330
747D
100
AcDbEntity
  8
部品1
 48
50.0
100
AcDbLine
 10
6404.795009331377
 20
8487.865915133141
 30
0.0
 11
6404.79501230424
 21
8826.865915108482
 31
0.0
  0
LINE
  5
14409
330
747D
100
AcDbEntity
  8
部品1
 48
50.0
100
AcDbLine
 10
7141.295015675662
 20
8458.846849916119
 30
0.0
 11
7112.794044250868
 21
8487.866020821368
 31
0.0
  0
LINE
  5
1440A
330
747D
100
AcDbEntity
  8
部品1
 48
50.0
100
AcDbLine
 10
5585.795987102073
 20
8487.864832799994
 30
0.0
 11
5557.29501567566
 21
8458.845661867529
 31
0.0
  0
LINE
  5
1440B
330
747D
100
AcDbEntity
  8
部品1
 48
50.0
100
AcDbLine
 10
7139.79500899801
 20
9276.865915108478
 30
0.0
 11
7141.295015675685
 21
9278.365915108528
 31
0.0
  0
LINE
  5
1440C
330
747D
100
AcDbEntity
  8
部品1
 48
50.0
100
AcDbLine
 10
6378.795015675617
 20
9276.81139358822
 30
0.0
 11
6377.295015675611
 21
9278.365915108482
 31
0.0
  0
LINE
  5
1440D
330
747D
100
AcDbEntity
  8
部品1
 48
50.0
100
AcDbLine
 10
6319.795022353315
 20
9276.811402448727
 30
0.0
 11
6321.295015675611
 21
9278.365915108478
 31
0.0
  0
LINE
  5
1440E
330
747D
100
AcDbEntity
  8
部品1
 48
50.0
100
AcDbLine
 10
5558.795022353308
 20
9276.865915108441
 30
0.0
 11
5557.295015675684
 21
9278.365915108434
 31
0.0
  0
LINE
  5
144C7
330
747D
100
AcDbEntity
  8
部品1
 48
5.0
100
AcDbLine
 10
6404.295015675687
 20
9306.365915108484
 30
0.0
 11
6404.295015675682
 21
9278.365915108485
 31
0.0
  0
LINE
  5
144D0
330
747D
100
AcDbEntity
  8
部品1
 48
5.0
100
AcDbLine
 10
6294.295015675682
 20
9278.365915108478
 30
0.0
 11
6294.295015675683
 21
9306.365915108477
 31
0.0
  0
LINE
  5
144D2
330
747D
100
AcDbEntity
  8
部品1
 48
5.0
100
AcDbLine
 10
6324.004290122858
 20
9306.365915108477
 30
0.0
 11
6346.675718694287
 21
9278.365915108482
 31
0.0
  0
LINE
  5
144D8
330
747D
100
AcDbEntity
  8
部品1
 48
5.0
100
AcDbLine
 10
6377.295015675612
 20
9251.365915108481
 30
0.0
 11
6321.295015675612
 21
9251.365915108481
 31
0.0
  0
LINE
  5
144E9
330
747D
100
AcDbEntity
  8
部品1
 48
50.0
100
AcDbLine
 10
6349.295015675664
 20
8411.365915108472
 30
0.0
 11
6349.295015675664
 21
9251.365915108481
 31
0.0
  0
LINE
  5
144EA
330
747D
100
AcDbEntity
  8
部品1
100
AcDbLine
 10
6377.295015675609
 20
9278.365915108484
 30
0.0
 11
7141.295015675685
 21
9278.365915108528
 31
0.0
  0
DIMENSION
  5
14548
330
747D
100
AcDbEntity
  8
寸法
 48
50.0
100
AcDbDimension
  2
*D12
 10
6404.295015675687
 20
9522.174134733532
 30
0.0
 11
6349.295015675686
 21
9622.174134733533
 31
0.0
 70
    32
 71
     5
 42
110.0000000000036
  3
INABA_S40G
100
AcDbAlignedDimension
 13
6294.295015675683
 23
9306.365915108555
 33
0.0
 14
6404.295015675687
 24
9306.365915108532
 34
0.0
100
AcDbRotatedDimension
  0
DIMENSION
  5
14562
330
747D
100
AcDbEntity
  8
寸法
 48
50.0
100
AcDbDimension
  2
*D13
 10
6404.295015675687
 20
9522.174134733532
 30
0.0
 11
6759.295015675686
 21
9622.174134733533
 31
0.0
 70
    32
 71
     5
 42
709.9999999999981
  3
INABA_S40G
100
AcDbAlignedDimension
 13
7114.295015675685
 23
9306.365915108548
 33
0.0
 14
6404.295015675687
 24
9306.365915108532
 34
0.0
100
AcDbRotatedDimension
  0
LINE
  5
1456D
330
747D
100
AcDbEntity
  8
部品1
 48
5.0
100
AcDbLine
 10
6349.295015675664
 20
8831.365915108476
 30
0.0
 11
6321.295015675612
 21
8831.365915108483
 31
0.0
  0
LINE
  5
146C2
330
747D
100
AcDbEntity
  8
部品1
 48
50.0
100
AcDbLine
 10
6349.295015675655
 20
8831.365915108483
 30
0.0
 11
6377.295015675638
 21
8831.365915108483
 31
0.0
  0
LINE
  5
146C3
330
747D
100
AcDbEntity
  8
部品1
 48
50.0
100
AcDbLine
 10
6349.295015675655
 20
8869.365915108481
 30
0.0
 11
6377.295015675638
 21
8869.365915108483
 31
0.0
  0
ARC
  5
1475B
330
747D
100
AcDbEntity
  8
想像線
 48
10.0
100
AcDbCircle
 10
6296.942964998518
 20
8358.060808484042
 30
0.0
 40
722.6499369155593
100
AcDbArc
 50
180.1343808685509
 51
270.5829222700353
  0
LINE
  5
1475C
330
747D
100
AcDbEntity
  8
想像線
 48
10.0
100
AcDbLine
 10
6304.295015675677
 20
8356.365915108472
 30
0.0
 11
6304.295015675677
 21
7635.448271452681
 31
0.0
  0
LINE
  5
14760
330
747D
100
AcDbEntity
  8
想像線
 48
10.0
100
AcDbLine
 10
7124.295015675677
 20
8356.365915108483
 30
0.0
 11
7124.295015675677
 21
7635.448271452691
 31
0.0
  0
ARC
  5
14761
330
747D
100
AcDbEntity
  8
想像線
 48
10.0
100
AcDbCircle
 10
7116.942964998519
 20
8358.06080848406
 30
0.0
 40
722.6499369155619
100
AcDbArc
 50
180.1343808685487
 51
270.5829222700353
  0
LINE
  5
148D5
330
747D
100
AcDbEntity
  8
細線
 48
50.0
100
AcDbLine
 10
5969.295015675687
 20
9284.865915108465
 30
0.0
 11
5909.295015675684
 21
9284.86591510846
 31
0.0
  0
LINE
  5
148D6
330
747D
100
AcDbEntity
  8
細線
 48
50.0
100
AcDbLine
 10
5909.295015675686
 20
9284.865915108461
 30
0.0
 11
5909.295015675684
 21
9306.365915108459
 31
0.0
  0
LINE
  5
148D7
330
747D
100
AcDbEntity
  8
細線
 48
50.0
100
AcDbLine
 10
5969.295015675687
 20
9284.865915108465
 30
0.0
 11
5969.295015675683
 21
9306.365915108466
 31
0.0
  0
LINE
  5
148D8
330
747D
100
AcDbEntity
  8
細線
 48
50.0
100
AcDbLine
 10
6789.295015675687
 20
9284.865915108545
 30
0.0
 11
6729.295015675686
 21
9284.865915108541
 31
0.0
  0
LINE
  5
148D9
330
747D
100
AcDbEntity
  8
細線
 48
50.0
100
AcDbLine
 10
6789.295015675687
 20
9284.865915108545
 30
0.0
 11
6789.295015675683
 21
9306.365915108548
 31
0.0
  0
LINE
  5
148DA
330
747D
100
AcDbEntity
  8
細線
 48
50.0
100
AcDbLine
 10
6729.295015675686
 20
9284.865915108543
 30
0.0
 11
6729.295015675683
 21
9306.365915108541
 31
0.0
  0
LINE
  5
14933
330
747D
100
AcDbEntity
  8
細線
 48
50.0
100
AcDbLine
 10
5698.295015675678
 20
8382.365915108437
 30
0.0
 11
5698.295015675678
 21
8356.365915108391
 31
0.0
  0
LINE
  5
14934
330
747D
100
AcDbEntity
  8
細線
 48
50.0
100
AcDbLine
 10
5884.295015675678
 20
8382.365915108428
 30
0.0
 11
5884.295015675678
 21
8356.365915108391
 31
0.0
  0
LINE
  5
14935
330
747D
100
AcDbEntity
  8
細線
 48
50.0
100
AcDbLine
 10
5924.295015675678
 20
8382.365915108428
 30
0.0
 11
5924.295015675678
 21
8356.365915108391
 31
0.0
  0
LINE
  5
14936
330
747D
100
AcDbEntity
  8
細線
 48
50.0
100
AcDbLine
 10
6151.295015675678
 20
8382.365915108641
 30
0.0
 11
6151.295015675678
 21
8356.365915108602
 31
0.0
  0
LINE
  5
14937
330
747D
100
AcDbEntity
  8
細線
 48
50.0
100
AcDbLine
 10
6111.295015675678
 20
8382.365915108641
 30
0.0
 11
6111.295015675678
 21
8356.365915108602
 31
0.0
  0
LINE
  5
14938
330
747D
100
AcDbEntity
  8
細線
 48
50.0
100
AcDbLine
 10
6518.295015675677
 20
8382.365915108437
 30
0.0
 11
6518.295015675677
 21
8356.365915108391
 31
0.0
  0
LINE
  5
14939
330
747D
100
AcDbEntity
  8
細線
 48
50.0
100
AcDbLine
 10
6744.295015675678
 20
8382.365915108428
 30
0.0
 11
6744.295015675678
 21
8356.365915108391
 31
0.0
  0
LINE
  5
1493A
330
747D
100
AcDbEntity
  8
細線
 48
50.0
100
AcDbLine
 10
6704.295015675677
 20
8382.365915108428
 30
0.0
 11
6704.295015675677
 21
8356.365915108391
 31
0.0
  0
LINE
  5
1493B
330
747D
100
AcDbEntity
  8
細線
 48
50.0
100
AcDbLine
 10
6931.295015675678
 20
8382.365915108641
 30
0.0
 11
6931.295015675678
 21
8356.365915108602
 31
0.0
  0
LINE
  5
1493C
330
747D
100
AcDbEntity
  8
細線
 48
50.0
100
AcDbLine
 10
6971.295015675678
 20
8382.365915108641
 30
0.0
 11
6971.295015675678
 21
8356.365915108602
 31
0.0
  0
CIRCLE
  5
14961
330
747D
100
AcDbEntity
  8
細線
 48
50.0
100
AcDbCircle
 10
6435.295015675677
 20
4612.077276893862
 30
0.0
 40
20.0
  0
CIRCLE
  5
1498B
330
747D
100
AcDbEntity
  8
細線
 48
50.0
100
AcDbCircle
 10
6435.295015675677
 20
4612.077276893862
 30
0.0
 40
10.0
  0
CIRCLE
  5
149A8
330
747D
100
AcDbEntity
  8
細線
 48
50.0
100
AcDbCircle
 10
5619.79588073017
 20
4612.07727689386
 30
0.0
 40
10.0
  0
CIRCLE
  5
149A9
330
747D
100
AcDbEntity
  8
細線
 48
50.0
100
AcDbCircle
 10
5619.79588073017
 20
4612.07727689386
 30
0.0
 40
20.0
  0
DIMENSION
  5
149B4
330
747D
100
AcDbEntity
  8
寸法
 48
50.0
100
AcDbDimension
  2
*D14
 10
7089.295015675677
 20
7916.542247313349
 30
0.0
 11
6746.795015675679
 21
7916.542247313349
 31
0.0
 70
   160
  1
有効開口部間口\P<>
 71
     5
 42
684.9999999999954
  3
INABA_S40G
100
AcDbAlignedDimension
 13
6404.295015675682
 23
8356.365915108426
 33
0.0
 14
7089.295015675677
 24
8356.365915108391
 34
0.0
100
AcDbRotatedDimension
  0
DIMENSION
  5
149D6
330
747D
100
AcDbEntity
  8
寸法
 48
50.0
100
AcDbDimension
  2
*D15
 10
6269.295015675677
 20
7916.542247313349
 30
0.0
 11
5926.795015675679
 21
7916.542247313349
 31
0.0
 70
   160
 71
     5
 42
684.9999999999954
  3
INABA_S40G
100
AcDbAlignedDimension
 13
5584.295015675682
 23
8356.365915108426
 33
0.0
 14
6269.295015675677
 24
8356.365915108391
 34
0.0
100
AcDbRotatedDimension
  0
DIMENSION
  5
14A1F
330
747D
100
AcDbEntity
  8
寸法
100
AcDbDimension
  2
*D16
 10
6261.101519381651
 20
8607.8188048655
 30
0.0
 11
5938.142077793886
 21
8607.8188048655
 31
0.0
 70
   160
 71
     5
 42
761.0000000000118
  3
INABA_S40G
100
AcDbAlignedDimension
 13
5558.795015675617
 23
8826.865915108482
 33
0.0
 14
6319.795015675629
 24
8826.865915108479
 34
0.0
100
AcDbRotatedDimension
1001
ACAD
1000
DSTYLE
1002
{
1002
}
  0
DIMENSION
  5
14F41
330
747D
100
AcDbEntity
  8
寸法
100
AcDbDimension
  2
*D19
 10
8694.573050080771
 20
5644.577276893866
 30
0.0
 11
8694.573050080769
 21
4597.155906173022
 31
0.0
 70
   160
 71
     5
 42
2075.000000000005
  3
INABA_S40G
100
AcDbAlignedDimension
 13
9556.166928236059
 23
3569.577276893861
 33
0.0
 14
9496.166928236062
 24
5644.577276893866
 34
0.0
 50
90.0
100
AcDbRotatedDimension
1001
ACAD
1000
DSTYLE
1002
{
1070
   174
1070
     0
1070
   272
1070
     1
1070
   288
1070
     0
1070
   341
1005
0
1002
}
  0
TEXT
  5
14F42
330
747D
100
AcDbEntity
  8
部品1
 48
50.0
100
AcDbText
 10
9879.434763459787
 20
5811.329438147573
 30
0.0
 40
120.0
  1
1000
  7
STYLE1
100
AcDbText
  0
LINE
  5
14F43
330
747D
100
AcDbEntity
  8
部品1
100
AcDbLine
 10
9503.71191459302
 20
5643.295012228128
 30
0.0
 11
10578.77880509752
 21
5588.218074603001
 31
0.0
  0
LINE
  5
14F44
330
747D
100
AcDbEntity
  8
部品1
100
AcDbLine
 10
9511.509492838014
 20
5502.358301962828
 30
0.0
 11
10560.8306287759
 21
5463.329876728623
 31
0.0
  0
LINE
  5
14F45
330
747D
100
AcDbEntity
  8
細線
 48
50.0
100
AcDbLine
 10
9529.16692823606
 20
5641.976953269266
 30
0.0
 11
9523.87782668055
 21
5501.891320641911
 31
0.0
  0
LINE
  5
14F46
330
747D
100
AcDbEntity
  8
細線
 48
50.0
100
AcDbLine
 10
10553.16692823606
 20
5589.544255929157
 30
0.0
 11
10548.41924534806
 21
5463.798483438413
 31
0.0
  0
LINE
  5
14F47
330
747D
100
AcDbEntity
  8
部品1
 48
50.0
100
AcDbLine
 10
9496.351214149166
 20
5636.170823058553
 30
0.0
 11
9496.731473926978
 21
5616.243858612143
 31
0.0
  0
LINE
  5
14F48
330
747D
100
AcDbEntity
  8
部品1
 48
50.0
100
AcDbLine
 10
9499.800246033222
 20
5612.668577118669
 30
0.0
 11
9501.50414752459
 21
5523.378080412023
 31
0.0
  0
LINE
  5
14F49
330
747D
100
AcDbEntity
  8
細線
 48
50.0
100
AcDbLine
 10
9497.206351336872
 20
5615.594358735223
 30
0.0
 11
10582.84233608204
 21
5559.970154094395
 31
0.0
  0
LINE
  5
14F4A
330
747D
100
AcDbEntity
  8
細線
 48
50.0
100
AcDbLine
 10
9501.966826574159
 20
5522.73284703736
 30
0.0
 11
10571.97049100479
 21
5482.923528062865
 31
0.0
  0
LINE
  5
14F4B
330
747D
100
AcDbEntity
  8
部品1
 48
50.0
100
AcDbLine
 10
9504.572919630829
 20
5519.802798918551
 30
0.0
 11
9504.774872251262
 21
5509.219763525457
 31
0.0
  0
ARC
  5
14F4C
330
747D
100
AcDbEntity
  8
部品1
 48
50.0
100
AcDbCircle
 10
9503.349939977505
 20
5636.304377465982
 30
0.0
 40
7.0
100
AcDbArc
 50
87.03587545303976
 51
181.0932240292635
  0
ARC
  5
14F4D
330
747D
100
AcDbEntity
  8
部品1
 48
50.0
100
AcDbCircle
 10
9511.773598079601
 20
5509.353317932886
 30
0.0
 40
7.0
100
AcDbArc
 50
181.0932240292635
 51
267.8377559871574
  0
ARC
  5
14F4E
330
747D
100
AcDbEntity
  8
部品1
100
AcDbCircle
 10
9501.573465704398
 20
5519.745561315367
 30
0.0
 40
3.0
100
AcDbArc
 50
1.093224029263536
 51
80.18775403148559
  0
ARC
  5
14F4F
330
747D
100
AcDbEntity
  8
部品1
100
AcDbCircle
 10
9496.800792106794
 20
5612.611339515486
 30
0.0
 40
3.0
100
AcDbArc
 50
1.093224029263536
 51
80.18775403148559
  0
ARC
  5
14F50
330
747D
100
AcDbEntity
  8
部品1
100
AcDbCircle
 10
9497.431346509815
 20
5616.257214052884
 30
0.0
 40
0.7
100
AcDbArc
 50
181.0932240292114
 51
260.1877540314855
  0
ARC
  5
14F51
330
747D
100
AcDbEntity
  8
部品1
100
AcDbCircle
 10
9502.204020107424
 20
5523.391435852765
 30
0.0
 40
0.7
100
AcDbArc
 50
181.0932240292114
 51
260.1877540314855
  0
LINE
  5
14F52
330
747D
100
AcDbEntity
  8
部品1
 48
50.0
100
AcDbLine
 10
10585.38083104676
 20
5580.51842916808
 30
0.0
 11
10583.35020985579
 21
5560.573387910299
 31
0.0
  0
LINE
  5
14F53
330
747D
100
AcDbEntity
  8
部品1
 48
50.0
100
AcDbLine
 10
10579.99764337131
 20
5557.262753837391
 30
0.0
 11
10572.49086410647
 21
5483.530133092378
 31
0.0
  0
LINE
  5
14F54
330
747D
100
AcDbEntity
  8
部品1
 48
50.0
100
AcDbLine
 10
10569.13829762198
 20
5480.219499019465
 30
0.0
 11
10568.05873458224
 21
5469.615882025906
 31
0.0
  0
ARC
  5
14F55
330
747D
100
AcDbEntity
  8
部品1
 48
50.0
100
AcDbCircle
 10
10578.416830482
 20
5581.227439840853
 30
0.0
 40
7.0
100
AcDbArc
 50
354.1866997665565
 51
87.03587545303976
  0
ARC
  5
14F56
330
747D
100
AcDbEntity
  8
部品1
 48
50.0
100
AcDbCircle
 10
10561.09473401749
 20
5470.32489269868
 30
0.0
 40
7.0
100
AcDbArc
 50
267.8377559871574
 51
354.1866997665565
  0
ARC
  5
14F57
330
747D
100
AcDbEntity
  8
部品1
100
AcDbCircle
 10
10572.12286929259
 20
5479.915637302564
 30
0.0
 40
3.0
100
AcDbArc
 50
95.0921697642102
 51
174.1866997665564
  0
ARC
  5
14F58
330
747D
100
AcDbEntity
  8
部品1
100
AcDbCircle
 10
10582.98221504192
 20
5556.958892120487
 30
0.0
 40
3.0
100
AcDbArc
 50
95.09216976441955
 51
174.1866997665564
  0
ARC
  5
14F59
330
747D
100
AcDbEntity
  8
部品1
100
AcDbCircle
 10
10582.65380979931
 20
5560.644288977577
 30
0.0
 40
0.7
100
AcDbArc
 50
275.0921697642102
 51
354.1866997665565
  0
ARC
  5
14F5A
330
747D
100
AcDbEntity
  8
部品1
100
AcDbCircle
 10
10571.79446404999
 20
5483.601034159654
 30
0.0
 40
0.7
100
AcDbArc
 50
275.0921697642102
 51
354.186699766712
  0
LINE
  5
14F5B
330
747D
100
AcDbEntity
  8
部品1
 48
50.0
100
AcDbLine
 10
9891.16692823606
 20
5775.44541599514
 30
0.0
 11
10191.16692823606
 21
5775.44541599514
 31
0.0
  0
LINE
  5
14F5C
330
747D
100
AcDbEntity
  8
部品1
 48
50.0
100
AcDbLine
 10
10191.16692823606
 20
5775.44541599514
 30
0.0
 11
10191.16692823606
 21
5759.245415995142
 31
0.0
  0
TEXT
  5
14F5D
330
747D
100
AcDbEntity
  8
部品1
 48
50.0
100
AcDbText
 10
10368.25977552392
 20
5673.828179929291
 30
0.0
 40
120.0
  1
104
 50
90.0
  7
STYLE1
100
AcDbText
  0
LINE
  5
14F5E
330
747D
100
AcDbEntity
  8
部品1
 48
50.0
100
AcDbLine
 10
9891.16692823606
 20
5775.44541599514
 30
0.0
 11
10191.16692823606
 21
5759.245415995142
 31
0.0
  0
DIMENSION
  5
14F5F
330
747D
100
AcDbEntity
  8
寸法
 48
50.0
100
AcDbDimension
  2
*D20
 10
8935.558521467703
 20
5518.922535767183
 30
0.0
 11
8946.223996726621
 21
5889.769199008884
 31
0.0
 70
   161
 71
     5
 42
141.0
  3
INABA_S40G
100
AcDbAlignedDimension
 13
9515.562948394638
 23
5643.300025728541
 33
0.0
 14
9511.509492838014
 24
5502.358301962828
 34
0.0
1001
ACAD
1000
DSTYLE
1002
{
1070
   174
1070
     0
1070
   272
1070
     1
1070
   288
1070
     0
1070
   341
1005
0
1002
}
  0
DIMENSION
  5
14F60
330
747D
100
AcDbEntity
  8
寸法
 48
50.0
100
AcDbDimension
  2
*D21
 10
9496.166928236061
 20
6043.234730473165
 30
0.0
 11
9186.529132960471
 21
6043.234730473165
 31
0.0
 70
   160
 71
     5
 42
60.0
  3
INABA_S40G
100
AcDbAlignedDimension
 13
9556.166928236059
 23
5640.578895016837
 33
0.0
 14
9496.166928236061
 24
5644.577276893866
 34
0.0
100
AcDbRotatedDimension
1001
ACAD
1000
DSTYLE
1002
{
1070
   174
1070
     0
1070
   272
1070
     1
1070
   288
1070
     0
1070
   341
1005
0
1002
}
  0
DIMENSION
  5
14F61
330
747D
100
AcDbEntity
  8
寸法
 48
50.0
100
AcDbDimension
  2
*D22
 10
9556.166928236059
 20
6043.234730473165
 30
0.0
 11
10052.87873046695
 21
6043.234730473165
 31
0.0
 70
   160
  1
柱外寸法<>
 71
     5
 42
950.0
  3
INABA_S40G
100
AcDbAlignedDimension
 13
10506.16692823606
 23
5591.387956505514
 33
0.0
 14
9556.166928236059
 24
5640.578895016837
 34
0.0
100
AcDbRotatedDimension
1001
ACAD
1000
DSTYLE
1002
{
1070
   174
1070
     0
1070
   272
1070
     1
1070
   288
1070
     0
1070
   341
1005
0
1002
}
  0
DIMENSION
  5
14F62
330
747D
100
AcDbEntity
  8
寸法
 48
50.0
100
AcDbDimension
  2
*D23
 10
9496.166928236061
 20
6277.937939113255
 30
0.0
 11
10043.08388865042
 21
6277.937939113255
 31
0.0
 70
   160
 71
     5
 42
1090.0
  3
INABA_S40G
100
AcDbAlignedDimension
 13
10586.16692823606
 23
5589.577276893862
 33
0.0
 14
9496.166928236061
 24
5644.577276893866
 34
0.0
100
AcDbRotatedDimension
1001
ACAD
1000
DSTYLE
1002
{
1070
   174
1070
     0
1070
   272
1070
     1
1070
   288
1070
     0
1070
   341
1005
0
1002
}
  0
DIMENSION
  5
14F63
330
747D
100
AcDbEntity
  8
寸法
 48
50.0
100
AcDbDimension
  2
*D24
 10
10586.16692823606
 20
6043.234730473165
 30
0.0
 11
10792.21417233055
 21
6043.234730473165
 31
0.0
 70
   160
 71
     5
 42
80.0
  3
INABA_S40G
100
AcDbAlignedDimension
 13
10506.16692823606
 23
5591.387956505514
 33
0.0
 14
10586.16692823606
 24
5589.577276893862
 34
0.0
100
AcDbRotatedDimension
1001
ACAD
1000
DSTYLE
1002
{
1070
   174
1070
     0
1070
   272
1070
     1
1070
   288
1070
     0
1070
   341
1005
0
1002
}
  0
LINE
  5
14F64
330
747D
100
AcDbEntity
  8
細線
 48
50.0
100
AcDbLine
 10
9688.666928236061
 20
5409.577276893861
 30
0.0
 11
9688.666928236065
 21
3619.57727689386
 31
0.0
  0
LINE
  5
14F65
330
747D
100
AcDbEntity
  8
細線
 48
50.0
100
AcDbLine
 10
9673.666928236063
 20
5409.577276893861
 30
0.0
 11
9673.666928236064
 21
3619.57727689386
 31
0.0
  0
LINE
  5
14F66
330
747D
100
AcDbEntity
  8
細線
 48
50.0
100
AcDbLine
 10
9813.666928236061
 20
5409.577276893861
 30
0.0
 11
9813.666928236065
 21
3619.57727689386
 31
0.0
  0
LINE
  5
14F67
330
747D
100
AcDbEntity
  8
細線
 48
50.0
100
AcDbLine
 10
9828.666928236062
 20
5409.577276893861
 30
0.0
 11
9828.666928236064
 21
3619.57727689386
 31
0.0
  0
LINE
  5
14F68
330
747D
100
AcDbEntity
  8
細線
 48
50.0
100
AcDbLine
 10
9968.666928236062
 20
5409.577276893861
 30
0.0
 11
9968.666928236064
 21
3619.57727689386
 31
0.0
  0
LINE
  5
14F69
330
747D
100
AcDbEntity
  8
細線
 48
50.0
100
AcDbLine
 10
9953.666928236062
 20
5409.577276893861
 30
0.0
 11
9953.666928236064
 21
3619.57727689386
 31
0.0
  0
LINE
  5
14F6A
330
747D
100
AcDbEntity
  8
細線
 48
50.0
100
AcDbLine
 10
10108.66692823606
 20
5409.577276893861
 30
0.0
 11
10108.66692823606
 21
3619.57727689386
 31
0.0
  0
LINE
  5
14F6B
330
747D
100
AcDbEntity
  8
細線
 48
50.0
100
AcDbLine
 10
10093.66692823606
 20
5409.577276893861
 30
0.0
 11
10093.66692823606
 21
3619.57727689386
 31
0.0
  0
LINE
  5
14F6C
330
747D
100
AcDbEntity
  8
細線
 48
50.0
100
AcDbLine
 10
10233.66692823606
 20
5409.577276893861
 30
0.0
 11
10233.66692823606
 21
3619.57727689386
 31
0.0
  0
LINE
  5
14F6D
330
747D
100
AcDbEntity
  8
細線
 48
50.0
100
AcDbLine
 10
10248.66692823606
 20
5409.577276893861
 30
0.0
 11
10248.66692823606
 21
3619.57727689386
 31
0.0
  0
LINE
  5
14F6E
330
747D
100
AcDbEntity
  8
細線
 48
50.0
100
AcDbLine
 10
10388.66692823606
 20
5409.577276893861
 30
0.0
 11
10388.66692823606
 21
3619.57727689386
 31
0.0
  0
LINE
  5
14F6F
330
747D
100
AcDbEntity
  8
細線
 48
50.0
100
AcDbLine
 10
10373.66692823606
 20
5409.577276893861
 30
0.0
 11
10373.66692823606
 21
3619.57727689386
 31
0.0
  0
TEXT
  5
14F8A
330
747D
100
AcDbEntity
  8
文字
 62
     7
 48
50.0
100
AcDbText
 10
14271.39351435261
 20
483.8967129911411
 30
0.0
 40
160.0
  1
ＮＸＮ－０８ＤＬ－２
  7
STYLE2
100
AcDbText
  0
LINE
  5
14FD1
330
747D
100
AcDbEntity
  8
部品1
100
AcDbLine
 10
9549.164558191282
 20
5409.577276893861
 30
0.0
 11
10506.16692823606
 21
5409.577276893861
 31
0.0
  0
LINE
  5
14FDC
330
747D
100
AcDbEntity
  8
部品1
100
AcDbLine
 10
9556.166928236059
 20
3569.57727689386
 30
0.0
 11
10506.16692823606
 21
3569.57727689386
 31
0.0
  0
LINE
  5
14FDD
330
747D
100
AcDbEntity
  8
部品1
100
AcDbLine
 10
9556.166928236059
 20
3619.57727689386
 30
0.0
 11
10506.16692823606
 21
3619.57727689386
 31
0.0
  0
LINE
  5
14FDE
330
747D
100
AcDbEntity
  8
部品1
100
AcDbLine
 10
10031.16692823606
 20
5409.577276893861
 30
0.0
 11
10031.16692823606
 21
3619.57727689386
 31
0.0
  0
LINE
  5
14FDF
330
747D
100
AcDbEntity
  8
部品1
100
AcDbLine
 10
9611.166928236059
 20
5409.577276893861
 30
0.0
 11
9611.166928236059
 21
3619.57727689386
 31
0.0
  0
LINE
  5
14FE1
330
747D
100
AcDbEntity
  8
部品1
100
AcDbLine
 10
10451.16692823605
 20
5409.577276893861
 30
0.0
 11
10451.16692823606
 21
3619.57727689386
 31
0.0
  0
LINE
  5
14FFD
330
747D
100
AcDbEntity
  8
部品1
100
AcDbLine
 10
9556.166928236059
 20
5500.697314378673
 30
0.0
 11
9556.166928236059
 21
3469.57727689386
 31
0.0
  0
LINE
  5
15002
330
747D
100
AcDbEntity
  8
部品1
100
AcDbLine
 10
10506.16692823606
 20
5465.363037099148
 30
0.0
 11
10506.16692823606
 21
3469.57727689386
 31
0.0
  0
DIMENSION
  5
15008
330
747D
100
AcDbEntity
  8
寸法
 48
50.0
100
AcDbDimension
  2
*D25
 10
11036.57546616989
 20
5589.57727689386
 30
0.0
 11
11036.57546616989
 21
4521.501672958286
 31
0.0
 70
   160
 71
     5
 42
2020.0
  3
INABA_S40
100
AcDbAlignedDimension
 13
10506.16692823606
 23
3569.577276893861
 33
0.0
 14
10586.16692823607
 24
5589.57727689386
 34
0.0
 50
90.0
100
AcDbRotatedDimension
1001
ACAD
1000
DSTYLE
1002
{
1070
    41
1040
0.5
1070
    44
1040
1.0
1070
   147
1040
0.8
1070
   271
1070
     2
1070
   272
1070
     2
1070
   289
1070
     3
1070
   340
1005
F706
1070
   343
1005
14A43
1070
   344
1005
14A43
1002
}
  0
TEXT
  5
15491
330
747D
100
AcDbEntity
  8
文字
 62
     7
 48
50.0
100
AcDbText
 10
13583.11819016568
 20
9230.013745883733
 30
0.0
 40
100.0
  1
棚板
  7
STYLE1
100
AcDbText
  0
TEXT
  5
15492
330
747D
100
AcDbEntity
  8
文字
 62
     7
 48
50.0
100
AcDbText
 10
15022.63965474515
 20
9230.013745883729
 30
0.0
 40
100.0
  1
F12            0.6
  7
STYLE1
100
AcDbText
  0
TEXT
  5
15493
330
747D
100
AcDbEntity
  8
文字
 62
     7
 48
50.0
100
AcDbText
 10
13583.11819016568
 20
9400.013745883731
 30
0.0
 40
100.0
  1
扉
  7
STYLE1
100
AcDbText
  0
TEXT
  5
15494
330
747D
100
AcDbEntity
  8
文字
 62
     7
 48
50.0
100
AcDbText
 10
15022.63965474515
 20
9400.013745883727
 30
0.0
 40
100.0
  1
F12            0.8
  7
STYLE1
100
AcDbText
  0
TEXT
  5
15497
330
747D
100
AcDbEntity
  8
文字
 62
     7
 48
50.0
100
AcDbText
 10
15022.63965474517
 20
10760.01374588372
 30
0.0
 40
100.0
  1
F12            1.0
  7
STYLE1
100
AcDbText
  0
TEXT
  5
1549B
330
747D
100
AcDbEntity
  8
文字
 62
     7
 48
50.0
100
AcDbText
 10
13583.1181901657
 20
10760.01374588373
 30
0.0
 40
100.0
  1
床パネル
 41
0.9
  7
STYLE1
100
AcDbText
  0
LINE
  5
1549C
330
747D
100
AcDbEntity
  8
仕様書枠
 48
50.0
100
AcDbLine
 10
16307.19999999999
 20
9029.600000000002
 30
0.0
 11
13127.19999999999
 21
9029.600000000003
 31
0.0
  0
LINE
  5
1549D
330
747D
100
AcDbEntity
  8
仕様書枠
 48
50.0
100
AcDbLine
 10
13127.2
 20
11409.6
 30
0.0
 11
13127.19999999999
 21
8349.600000000009
 31
0.0
  0
TEXT
  5
1549E
330
747D
100
AcDbEntity
  8
文字
 62
     7
 48
50.0
100
AcDbText
 10
13229.83081656554
 20
8380.013745883735
 30
0.0
 40
100.0
  1
Y10→溶融亜鉛-5％アルミニウム合金めっき鋼板(JIS G 3317)
 41
0.9
  7
STYLE1
100
AcDbText
  0
TEXT
  5
1549F
330
747D
100
AcDbEntity
  8
文字
 62
     7
 48
50.0
100
AcDbText
 10
13229.83081656554
 20
8550.013745883735
 30
0.0
 40
100.0
  1
F12→溶融亜鉛めっき鋼板(JIS G 3302)
  7
STYLE1
100
AcDbText
  0
LINE
  5
154A1
330
747D
100
AcDbEntity
  8
仕様書枠
 48
50.0
100
AcDbLine
 10
16307.19999999998
 20
8689.600000000003
 30
0.0
 11
13127.19999999999
 21
8689.600000000005
 31
0.0
  0
TEXT
  5
154A2
330
747D
100
AcDbEntity
  8
文字
 62
     7
 48
50.0
100
AcDbText
 10
15022.63965474515
 20
9570.013745883727
 30
0.0
 40
100.0
  1
F12            0.6
  7
STYLE1
100
AcDbText
  0
TEXT
  5
154A3
330
747D
100
AcDbEntity
  8
文字
 62
     7
 48
50.0
100
AcDbText
 10
15022.63965474517
 20
9740.013745883729
 30
0.0
 40
100.0
  1
Y10            0.5
  7
STYLE1
100
AcDbText
  0
TEXT
  5
154A4
330
747D
100
AcDbEntity
  8
文字
 62
     7
 48
50.0
100
AcDbText
 10
15022.63965474516
 20
10080.01374588372
 30
0.0
 40
100.0
  1
Y10            0.7
  7
STYLE1
100
AcDbText
  0
TEXT
  5
154A5
330
747D
100
AcDbEntity
  8
文字
 62
     7
 48
50.0
100
AcDbText
 10
15022.63965474517
 20
10250.01374588373
 30
0.0
 40
100.0
  1
Y10            0.7
  7
STYLE1
100
AcDbText
  0
TEXT
  5
154A6
330
747D
100
AcDbEntity
  8
文字
 62
     7
 48
50.0
100
AcDbText
 10
15022.63965474516
 20
10420.01374588372
 30
0.0
 40
100.0
  1
Y10            1.0
  7
STYLE1
100
AcDbText
  0
TEXT
  5
154A7
330
747D
100
AcDbEntity
  8
文字
 62
     7
 48
50.0
100
AcDbText
 10
15022.63965474517
 20
10590.01374588373
 30
0.0
 40
100.0
  1
Y10            1.0
  7
STYLE1
100
AcDbText
  0
TEXT
  5
154A8
330
747D
100
AcDbEntity
  8
文字
 62
     7
 48
50.0
100
AcDbText
 10
15022.63965474518
 20
10930.01374588372
 30
0.0
 40
100.0
  1
F12            1.0
  7
STYLE1
100
AcDbText
  0
TEXT
  5
154A9
330
747D
100
AcDbEntity
  8
文字
 62
     7
 48
50.0
100
AcDbText
 10
15022.63965474517
 20
11100.01374588373
 30
0.0
 40
100.0
  1
F12            1.2
  7
STYLE1
100
AcDbText
  0
TEXT
  5
154AA
330
747D
100
AcDbEntity
  8
文字
 62
     7
 48
50.0
100
AcDbText
 10
13248.77747366447
 20
9230.013745883731
 30
0.0
 40
100.0
  1
12
  7
STYLE1
100
AcDbText
  0
TEXT
  5
154AB
330
747D
100
AcDbEntity
  8
文字
 62
     7
 48
50.0
100
AcDbText
 10
13248.77747366447
 20
9060.013745883731
 30
0.0
 40
100.0
  1
13
  7
STYLE1
100
AcDbText
  0
LINE
  5
154AC
330
747D
100
AcDbEntity
  8
仕様書枠
 48
50.0
100
AcDbLine
 10
16307.19999999999
 20
8859.600000000002
 30
0.0
 11
13127.19999999999
 21
8859.600000000005
 31
0.0
  0
LINE
  5
154AD
330
747D
100
AcDbEntity
  8
仕様書枠
 48
50.0
100
AcDbLine
 10
16307.19999999999
 20
9199.600000000001
 30
0.0
 11
13127.19999999999
 21
9199.600000000001
 31
0.0
  0
TEXT
  5
154AE
330
747D
100
AcDbEntity
  8
文字
 62
     7
 48
50.0
100
AcDbText
 10
13248.77747366447
 20
9400.013745883729
 30
0.0
 40
100.0
  1
11
  7
STYLE1
100
AcDbText
  0
LINE
  5
154AF
330
747D
100
AcDbEntity
  8
仕様書枠
 48
50.0
100
AcDbLine
 10
16307.19999999999
 20
9879.600000000001
 30
0.0
 11
13127.19999999999
 21
9879.600000000003
 31
0.0
  0
LINE
  5
154B0
330
747D
100
AcDbEntity
  8
仕様書枠
 48
50.0
100
AcDbLine
 10
16307.19999999999
 20
10219.6
 30
0.0
 11
13127.2
 21
10219.6
 31
0.0
  0
LINE
  5
154B1
330
747D
100
AcDbEntity
  8
仕様書枠
 48
50.0
100
AcDbLine
 10
16307.19999999999
 20
9539.6
 30
0.0
 11
13127.19999999999
 21
9539.600000000003
 31
0.0
  0
LINE
  5
154B2
330
747D
100
AcDbEntity
  8
仕様書枠
 48
50.0
100
AcDbLine
 10
16307.19999999999
 20
9369.600000000001
 30
0.0
 11
13127.19999999999
 21
9369.600000000003
 31
0.0
  0
LINE
  5
154B3
330
747D
100
AcDbEntity
  8
仕様書枠
 48
50.0
100
AcDbLine
 10
16307.19999999999
 20
9709.600000000001
 30
0.0
 11
13127.19999999999
 21
9709.600000000001
 31
0.0
  0
TEXT
  5
154B4
330
747D
100
AcDbEntity
  8
文字
 62
     7
 48
50.0
100
AcDbText
 10
13271.19032244792
 20
10250.01374588373
 30
0.0
 40
100.0
  1
6
  7
STYLE1
100
AcDbText
  0
TEXT
  5
154B5
330
747D
100
AcDbEntity
  8
文字
 62
     7
 48
50.0
100
AcDbText
 10
13271.19032244792
 20
10080.01374588373
 30
0.0
 40
100.0
  1
7
  7
STYLE1
100
AcDbText
  0
TEXT
  5
154B6
330
747D
100
AcDbEntity
  8
文字
 62
     7
 48
50.0
100
AcDbText
 10
13271.19032244792
 20
9740.013745883731
 30
0.0
 40
100.0
  1
9
  7
STYLE1
100
AcDbText
  0
TEXT
  5
154B7
330
747D
100
AcDbEntity
  8
文字
 62
     7
 48
50.0
100
AcDbText
 10
13271.19032244792
 20
9910.01374588373
 30
0.0
 40
100.0
  1
8
  7
STYLE1
100
AcDbText
  0
TEXT
  5
154B8
330
747D
100
AcDbEntity
  8
文字
 62
     7
 48
50.0
100
AcDbText
 10
13583.11819016569
 20
10080.01374588373
 30
0.0
 40
100.0
  1
鼻隠シ前後
  7
STYLE1
100
AcDbText
  0
TEXT
  5
154B9
330
747D
100
AcDbEntity
  8
文字
 62
     7
 48
50.0
100
AcDbText
 10
13583.11819016569
 20
9740.013745883729
 30
0.0
 40
100.0
  1
屋根パネル
  7
STYLE1
100
AcDbText
  0
TEXT
  5
154BA
330
747D
100
AcDbEntity
  8
文字
 62
     7
 48
50.0
100
AcDbText
 10
13583.11819016568
 20
9570.013745883731
 30
0.0
 40
100.0
  1
壁パネル
  7
STYLE1
100
AcDbText
  0
TEXT
  5
154BB
330
747D
100
AcDbEntity
  8
文字
 62
     7
 48
50.0
100
AcDbText
 10
13248.77747366447
 20
9570.013745883729
 30
0.0
 40
100.0
  1
10
  7
STYLE1
100
AcDbText
  0
TEXT
  5
154BC
330
747D
100
AcDbEntity
  8
文字
 62
     7
 48
50.0
100
AcDbText
 10
13583.11819016569
 20
10250.01374588373
 30
0.0
 40
100.0
  1
妻板左右
  7
STYLE1
100
AcDbText
  0
TEXT
  5
154BD
330
747D
100
AcDbEntity
  8
文字
 62
     7
 48
50.0
100
AcDbText
 10
13271.19032244792
 20
10420.01374588373
 30
0.0
 40
100.0
  1
5
  7
STYLE1
100
AcDbText
  0
TEXT
  5
154BE
330
747D
100
AcDbEntity
  8
文字
 62
     7
 48
50.0
100
AcDbText
 10
13583.11819016569
 20
10420.01374588373
 30
0.0
 40
100.0
  1
桁後
  7
STYLE1
100
AcDbText
  0
TEXT
  5
154BF
330
747D
100
AcDbEntity
  8
文字
 62
     7
 48
50.0
100
AcDbText
 10
13583.11819016569
 20
10590.01374588373
 30
0.0
 40
100.0
  1
鴨居
  7
STYLE1
100
AcDbText
  0
TEXT
  5
154C0
330
747D
100
AcDbEntity
  8
文字
 62
     7
 48
50.0
100
AcDbText
 10
13583.1181901657
 20
10930.01374588373
 30
0.0
 40
100.0
  1
柱
  7
STYLE1
100
AcDbText
  0
TEXT
  5
154C1
330
747D
100
AcDbEntity
  8
文字
 62
     7
 48
50.0
100
AcDbText
 10
13583.11819016569
 20
11100.01374588373
 30
0.0
 40
100.0
  1
土台枠
  7
STYLE1
100
AcDbText
  0
TEXT
  5
154C2
330
747D
100
AcDbEntity
  8
文字
 62
     7
 48
50.0
100
AcDbText
 10
14859.79774614482
 20
11270.01374588373
 30
0.0
 40
100.0
  1
材料（材質）　　単位mm
  7
STYLE1
100
AcDbText
  0
TEXT
  5
154C3
330
747D
100
AcDbEntity
  8
文字
 62
     7
 48
50.0
100
AcDbText
 10
13732.03840939434
 20
11270.01374588373
 30
0.0
 40
100.0
  1
部　　品　　名
  7
STYLE1
100
AcDbText
  0
TEXT
  5
154C4
330
747D
100
AcDbEntity
  8
文字
 62
     7
 48
50.0
100
AcDbText
 10
13271.19032244792
 20
10760.01374588373
 30
0.0
 40
100.0
  1
3
  7
STYLE1
100
AcDbText
  0
TEXT
  5
154C5
330
747D
100
AcDbEntity
  8
文字
 62
     7
 48
50.0
100
AcDbText
 10
13271.19032244792
 20
10590.01374588373
 30
0.0
 40
100.0
  1
4
  7
STYLE1
100
AcDbText
  0
TEXT
  5
154C6
330
747D
100
AcDbEntity
  8
文字
 62
     7
 48
50.0
100
AcDbText
 10
13271.19032244792
 20
10930.01374588373
 30
0.0
 40
100.0
  1
2
  7
STYLE1
100
AcDbText
  0
TEXT
  5
154C7
330
747D
100
AcDbEntity
  8
文字
 62
     7
 48
50.0
100
AcDbText
 10
13271.19032244792
 20
11100.01374588373
 30
0.0
 40
100.0
  1
1
  7
STYLE1
100
AcDbText
  0
TEXT
  5
154C8
330
747D
100
AcDbEntity
  8
文字
 62
     7
 48
50.0
100
AcDbText
 10
13197.42518560407
 20
11270.01374588373
 30
0.0
 40
100.0
  1
品番
  7
STYLE1
100
AcDbText
  0
LINE
  5
154C9
330
747D
100
AcDbEntity
  8
仕様書枠
 48
50.0
100
AcDbLine
 10
16307.19999999999
 20
10729.6
 30
0.0
 11
13127.19999999999
 21
10729.6
 31
0.0
  0
LINE
  5
154CA
330
747D
100
AcDbEntity
  8
仕様書枠
 48
50.0
100
AcDbLine
 10
16307.19999999999
 20
10389.6
 30
0.0
 11
13127.19999999999
 21
10389.6
 31
0.0
  0
LINE
  5
154CB
330
747D
100
AcDbEntity
  8
仕様書枠
 48
50.0
100
AcDbLine
 10
16307.19999999999
 20
10559.6
 30
0.0
 11
13127.19999999999
 21
10559.6
 31
0.0
  0
LINE
  5
154CC
330
747D
100
AcDbEntity
  8
仕様書枠
 48
50.0
100
AcDbLine
 10
16307.19999999999
 20
11069.6
 30
0.0
 11
13127.2
 21
11069.6
 31
0.0
  0
LINE
  5
154CD
330
747D
100
AcDbEntity
  8
仕様書枠
 48
50.0
100
AcDbLine
 10
16307.19999999999
 20
10899.6
 30
0.0
 11
13127.2
 21
10899.6
 31
0.0
  0
LINE
  5
154CE
330
747D
100
AcDbEntity
  8
仕様書枠
 48
50.0
100
AcDbLine
 10
16307.19999999999
 20
11239.6
 30
0.0
 11
13127.2
 21
11239.6
 31
0.0
  0
LINE
  5
154CF
330
747D
100
AcDbEntity
  8
仕様書枠
 48
50.0
100
AcDbLine
 10
13490.2
 20
11409.6
 30
0.0
 11
13490.20000000001
 21
8859.600000000002
 31
0.0
  0
LINE
  5
154D0
330
747D
100
AcDbEntity
  8
仕様書枠
 48
50.0
100
AcDbLine
 10
14785.2
 20
11409.6
 30
0.0
 11
14785.19999999999
 21
8859.600000000005
 31
0.0
  0
LINE
  5
154D1
330
747D
100
AcDbEntity
  8
仕様書枠
 48
50.0
100
AcDbLine
 10
16307.19999999999
 20
8349.600000000007
 30
0.0
 11
16307.2
 21
11409.6
 31
0.0
  0
LINE
  5
154D2
330
747D
100
AcDbEntity
  8
仕様書枠
 48
50.0
100
AcDbLine
 10
16307.19999999999
 20
11409.6
 30
0.0
 11
13127.2
 21
11409.6
 31
0.0
  0
LINE
  5
154D3
330
747D
100
AcDbEntity
  8
仕様書枠
 48
50.0
100
AcDbLine
 10
16307.19999999999
 20
10049.6
 30
0.0
 11
13127.19999999999
 21
10049.6
 31
0.0
  0
TEXT
  5
154D4
330
747D
100
AcDbEntity
  8
文字
 62
     7
 48
50.0
100
AcDbText
 10
15022.63965474514
 20
9060.013745883724
 30
0.0
 40
100.0
  1
F12            2.3
  7
STYLE1
100
AcDbText
  0
TEXT
  5
154D5
330
747D
100
AcDbEntity
  8
文字
 62
     7
 48
50.0
100
AcDbText
 10
13583.11819016568
 20
9060.013745883729
 30
0.0
 40
100.0
  1
アンカープレート
  7
STYLE1
100
AcDbText
  0
TEXT
  5
15581
330
747D
100
AcDbEntity
  8
文字
 62
     7
 48
50.0
100
AcDbText
 10
15022.63965474516
 20
9910.01374588373
 30
0.0
 40
100.0
  1
F12,Y10       0.7+1.0
  7
STYLE1
100
AcDbText
  0
TEXT
  5
15582
330
747D
100
AcDbEntity
  8
文字
 62
     7
 48
50.0
100
AcDbText
 10
13583.11819016569
 20
9910.01374588373
 30
0.0
 40
100.0
  1
梁中央
 41
0.9
  7
STYLE1
100
AcDbText
  0
DIMENSION
  5
1597F
330
747D
100
AcDbEntity
  8
寸法
 48
50.0
100
AcDbDimension
  2
*D27
 10
7219.295015675682
 20
6080.075840589954
 30
0.0
 11
6331.393491511874
 21
6080.075840589954
 31
0.0
 70
   160
 71
     5
 42
1740.000000000003
  3
INABA_S40G
100
AcDbAlignedDimension
 13
5479.295015675678
 23
5644.577276893866
 33
0.0
 14
7219.295015675682
 24
5644.577276893862
 34
0.0
100
AcDbRotatedDimension
  0
DIMENSION
  5
15980
330
747D
100
AcDbEntity
  8
寸法
 48
50.0
100
AcDbDimension
  2
*D26
 10
5529.295015675678
 20
5857.118862152105
 30
0.0
 11
6365.668421079783
 21
5857.118862152105
 31
0.0
 70
   160
  1
柱外寸法<>
 71
     5
 42
1640.000000000004
  3
INABA_S40G
100
AcDbAlignedDimension
 13
7169.295015675682
 23
5644.577276893864
 33
0.0
 14
5529.295015675678
 24
5644.577276893869
 34
0.0
100
AcDbRotatedDimension
  0
DIMENSION
  5
15981
330
747D
100
AcDbEntity
  8
寸法
 48
50.0
100
AcDbDimension
  2
*D28
 10
5479.295015675678
 20
5857.118862152105
 30
0.0
 11
5165.80973430143
 21
5857.118862152105
 31
0.0
 70
   160
 71
     5
 42
50.0
  3
INABA_S40G
100
AcDbAlignedDimension
 13
5529.295015675678
 23
5644.577276893869
 33
0.0
 14
5479.295015675678
 24
5644.577276893866
 34
0.0
100
AcDbRotatedDimension
1001
ACAD
1000
DSTYLE
1002
{
1002
}
  0
LINE
  5
15982
330
747D
100
AcDbEntity
  8
細線
 48
50.0
100
AcDbLine
 10
5512.295015675678
 20
5644.577276893866
 30
0.0
 11
5512.295015675678
 21
5503.577276893864
 31
0.0
  0
ARC
  5
15983
330
747D
100
AcDbEntity
  8
部品1
100
AcDbCircle
 10
5486.703436782107
 20
5637.577276893865
 30
0.0
 40
7.0
100
AcDbArc
 50
90.0
 51
183.247342790341
  0
ARC
  5
15984
330
747D
100
AcDbEntity
  8
部品1
100
AcDbCircle
 10
5499.918760243141
 20
5510.577276893868
 30
0.0
 40
7.0
100
AcDbArc
 50
183.247342790341
 51
270.0
  0
ARC
  5
15985
330
747D
100
AcDbEntity
  8
部品1
 48
50.0
100
AcDbCircle
 10
5481.546950032465
 20
5617.244276055552
 30
0.0
 40
0.7
100
AcDbArc
 50
183.2473427903929
 51
262.3418727926361
  0
ARC
  5
15986
330
747D
100
AcDbEntity
  8
部品1
 48
50.0
100
AcDbCircle
 10
5489.782980557305
 20
5525.044276055548
 30
0.0
 40
0.7
100
AcDbArc
 50
183.2473427902889
 51
262.3418727926361
  0
ARC
  5
15987
330
747D
100
AcDbEntity
  8
部品1
 48
50.0
100
AcDbCircle
 10
5489.289911448745
 20
5521.377276893865
 30
0.0
 40
3.0
100
AcDbArc
 50
3.247342790340932
 51
82.34187279263609
  0
ARC
  5
15988
330
747D
100
AcDbEntity
  8
部品1
 48
50.0
100
AcDbCircle
 10
5481.053880923901
 20
5613.577276893867
 30
0.0
 40
3.0
100
AcDbArc
 50
3.247342790340932
 51
82.34187279263609
  0
LINE
  5
15989
330
747D
100
AcDbEntity
  8
部品1
100
AcDbLine
 10
5484.049063820086
 20
5613.747216348969
 30
0.0
 11
5489.084104548197
 21
5525.004623516025
 31
0.0
  0
LINE
  5
1598A
330
747D
100
AcDbEntity
  8
部品1
100
AcDbLine
 10
5492.285094344934
 20
5521.547216348968
 30
0.0
 11
5492.930000152043
 21
5510.180751498626
 31
0.0
  0
LINE
  5
1598B
330
747D
100
AcDbEntity
  8
部品1
100
AcDbLine
 10
5479.714676691008
 20
5637.180751498625
 30
0.0
 11
5480.848074023357
 21
5617.204623516026
 31
0.0
  0
LINE
  5
1598C
330
747D
100
AcDbEntity
  8
部品1
 48
50.0
100
AcDbLine
 10
7211.886594569249
 20
5644.577276893862
 30
0.0
 11
5486.703436782107
 21
5644.577276893862
 31
0.0
  0
LINE
  5
1598D
330
747D
100
AcDbEntity
  8
細線
 48
50.0
100
AcDbLine
 10
7217.13636466376
 20
5616.550519457656
 30
0.0
 11
5481.453666686092
 21
5616.550519457862
 31
0.0
  0
LINE
  5
1598E
330
747D
100
AcDbEntity
  8
細線
 48
50.0
100
AcDbLine
 10
7208.900334138942
 20
5524.350519457658
 30
0.0
 11
5489.689697210924
 21
5524.35051945786
 31
0.0
  0
LINE
  5
1598F
330
747D
100
AcDbEntity
  8
部品1
 48
50.0
100
AcDbLine
 10
7198.671271108215
 20
5503.577276893864
 30
0.0
 11
5499.918760243141
 21
5503.577276893864
 31
0.0
  0
DIMENSION
  5
159D3
330
747D
100
AcDbEntity
  8
寸法
 48
50.0
100
AcDbDimension
  2
*D29
 10
7169.295015675682
 20
5857.118862152103
 30
0.0
 11
7532.780297049917
 21
5857.118862152103
 31
0.0
 70
   160
 71
     5
 42
50.0
  3
INABA_S40G
100
AcDbAlignedDimension
 13
7219.295015675682
 23
5644.577276893862
 33
0.0
 14
7169.295015675682
 24
5644.577276893864
 34
0.0
100
AcDbRotatedDimension
  0
LINE
  5
159D4
330
747D
100
AcDbEntity
  8
部品1
100
AcDbLine
 10
7218.875354660347
 20
5637.180751498623
 30
0.0
 11
7217.741957328001
 21
5617.204623516023
 31
0.0
  0
LINE
  5
159D5
330
747D
100
AcDbEntity
  8
細線
 48
50.0
100
AcDbLine
 10
7186.295015675681
 20
5644.577276893862
 30
0.0
 11
7186.295015675681
 21
5503.577276893862
 31
0.0
  0
LINE
  5
159D6
330
747D
100
AcDbEntity
  8
部品1
100
AcDbLine
 10
7206.304937006426
 20
5521.547216348965
 30
0.0
 11
7205.660031199314
 21
5510.180751498625
 31
0.0
  0
LINE
  5
159D7
330
747D
100
AcDbEntity
  8
部品1
100
AcDbLine
 10
7214.540967531269
 20
5613.747216348965
 30
0.0
 11
7209.505926803159
 21
5525.004623516022
 31
0.0
  0
ARC
  5
159D8
330
747D
100
AcDbEntity
  8
部品1
 48
50.0
100
AcDbCircle
 10
7217.536150427455
 20
5613.577276893864
 30
0.0
 40
3.0
100
AcDbArc
 50
97.6581272073639
 51
176.752657209659
  0
ARC
  5
159D9
330
747D
100
AcDbEntity
  8
部品1
 48
50.0
100
AcDbCircle
 10
7209.300119902612
 20
5521.377276893861
 30
0.0
 40
3.0
100
AcDbArc
 50
97.6581272073639
 51
176.752657209659
  0
ARC
  5
159DA
330
747D
100
AcDbEntity
  8
部品1
 48
50.0
100
AcDbCircle
 10
7208.80705079405
 20
5525.044276055545
 30
0.0
 40
0.7
100
AcDbArc
 50
277.6581272073639
 51
356.7526572097111
  0
ARC
  5
159DB
330
747D
100
AcDbEntity
  8
部品1
 48
50.0
100
AcDbCircle
 10
7217.043081318895
 20
5617.24427605555
 30
0.0
 40
0.7
100
AcDbArc
 50
277.6581272073639
 51
356.752657209607
  0
ARC
  5
159DC
330
747D
100
AcDbEntity
  8
部品1
100
AcDbCircle
 10
7198.671271108215
 20
5510.577276893864
 30
0.0
 40
7.0
100
AcDbArc
 50
270.0
 51
356.752657209659
  0
ARC
  5
159DD
330
747D
100
AcDbEntity
  8
部品1
100
AcDbCircle
 10
7211.886594569249
 20
5637.577276893862
 30
0.0
 40
7.0
100
AcDbArc
 50
356.752657209659
 51
90.0
  0
MTEXT
  5
15B3D
330
747D
100
AcDbEntity
  8
寸法
 62
     7
 48
50.0
100
AcDbMText
 10
5954.574819963953
 20
8896.479662645729
 30
0.0
 40
96.0
 41
0.0
 71
     5
 72
     1
  1
棚 2段
  7
STYLE1
 73
     1
 44
1.0
1001
ACAD
1000
MTEXTBEGIN
1070
    73
1070
     1
1070
    44
1040
1.0
1070
    74
1070
     0
1000
MTEXTEND
  0
MTEXT
  5
15B3E
330
747D
100
AcDbEntity
  8
寸法
 62
     7
 48
50.0
100
AcDbMText
 10
6774.574813286256
 20
8896.479662645715
 30
0.0
 40
96.0
 41
0.0
 71
     5
 72
     1
  1
棚 2段
  7
STYLE1
 73
     1
 44
1.0
1001
ACAD
1000
MTEXTBEGIN
1070
    73
1070
     1
1070
    44
1040
1.0
1070
    74
1070
     0
1000
MTEXTEND
  0
ARC
  5
16340
330
747D
100
AcDbEntity
  8
部品1
 48
0.01
100
AcDbCircle
 10
6027.295015675683
 20
5442.077276893859
 30
0.0
 40
2.0
100
AcDbArc
 50
270.0
 51
0.0
  0
ARC
  5
16341
330
747D
100
AcDbEntity
  8
部品1
 48
0.01
100
AcDbCircle
 10
6027.295015675685
 20
5473.577276893859
 30
0.0
 40
2.0
100
AcDbArc
 50
0.0
 51
90.0
  0
ARC
  5
16342
330
747D
100
AcDbEntity
  8
部品1
 48
0.01
100
AcDbCircle
 10
5851.295015675685
 20
5442.077276893859
 30
0.0
 40
2.0
100
AcDbArc
 50
180.0
 51
270.0
  0
ARC
  5
16343
330
747D
100
AcDbEntity
  8
部品1
 48
0.01
100
AcDbCircle
 10
5851.295015675685
 20
5473.577276893859
 30
0.0
 40
2.0
100
AcDbArc
 50
90.0
 51
180.0
  0
LINE
  5
16344
330
747D
100
AcDbEntity
  8
細線
100
AcDbLine
 10
5939.295015675683
 20
5446.077276893859
 30
0.0
 11
6013.295015675685
 21
5446.077276893859
 31
0.0
  0
LINE
  5
16345
330
747D
100
AcDbEntity
  8
細線
100
AcDbLine
 10
5939.295015675686
 20
5469.077276893859
 30
0.0
 11
5865.295015675685
 21
5469.077276893859
 31
0.0
  0
LINE
  5
16346
330
747D
100
AcDbEntity
  8
細線
100
AcDbLine
 10
5865.295015675685
 20
5446.077276893859
 30
0.0
 11
5939.295015675686
 21
5446.077276893859
 31
0.0
  0
LINE
  5
16347
330
747D
100
AcDbEntity
  8
細線
100
AcDbLine
 10
6013.295015675685
 20
5469.077276893859
 30
0.0
 11
5939.295015675686
 21
5469.077276893859
 31
0.0
  0
LINE
  5
16348
330
747D
100
AcDbEntity
  8
細線
100
AcDbLine
 10
6013.295015675685
 20
5446.077276893859
 30
0.0
 11
6013.295015675685
 21
5469.077276893859
 31
0.0
  0
LINE
  5
16349
330
747D
100
AcDbEntity
  8
細線
100
AcDbLine
 10
5865.295015675685
 20
5469.077276893859
 30
0.0
 11
5865.295015675685
 21
5446.077276893859
 31
0.0
  0
LINE
  5
1634A
330
747D
100
AcDbEntity
  8
部品1
 48
0.01
100
AcDbLine
 10
6029.295015675683
 20
5442.077276893859
 30
0.0
 11
6029.295015675685
 21
5473.577276893859
 31
0.0
  0
LINE
  5
1634B
330
747D
100
AcDbEntity
  8
部品1
 48
0.01
100
AcDbLine
 10
5851.295015675685
 20
5440.077276893859
 30
0.0
 11
6027.295015675683
 21
5440.077276893859
 31
0.0
  0
LINE
  5
1634C
330
747D
100
AcDbEntity
  8
部品1
 48
0.01
100
AcDbLine
 10
5849.295015675686
 20
5473.577276893859
 30
0.0
 11
5849.295015675686
 21
5442.077276893859
 31
0.0
  0
LINE
  5
1634D
330
747D
100
AcDbEntity
  8
部品1
 48
0.01
100
AcDbLine
 10
6027.295015675685
 20
5475.577276893858
 30
0.0
 11
5851.295015675685
 21
5475.577276893858
 31
0.0
  0
LINE
  5
1634E
330
747D
100
AcDbEntity
  8
細線
100
AcDbLine
 10
5865.295015675685
 20
5463.077276893859
 30
0.0
 11
5939.295015675686
 21
5463.077276893859
 31
0.0
  0
LINE
  5
1634F
330
747D
100
AcDbEntity
  8
細線
100
AcDbLine
 10
5865.295015675685
 20
5457.077276893858
 30
0.0
 11
5939.295015675686
 21
5457.077276893858
 31
0.0
  0
LINE
  5
16350
330
747D
100
AcDbEntity
  8
細線
100
AcDbLine
 10
5865.295015675684
 20
5451.077276893858
 30
0.0
 11
5939.295015675686
 21
5451.077276893858
 31
0.0
  0
LINE
  5
16351
330
747D
100
AcDbEntity
  8
細線
100
AcDbLine
 10
5865.295015675685
 20
5463.077276893859
 30
0.0
 11
5934.295015675685
 21
5463.077276893859
 31
0.0
  0
LINE
  5
16352
330
747D
100
AcDbEntity
  8
細線
100
AcDbLine
 10
6013.295015675684
 20
5463.077276893859
 30
0.0
 11
5939.295015675686
 21
5463.077276893859
 31
0.0
  0
LINE
  5
16353
330
747D
100
AcDbEntity
  8
細線
100
AcDbLine
 10
6013.295015675684
 20
5451.077276893858
 30
0.0
 11
5939.295015675686
 21
5451.077276893858
 31
0.0
  0
LINE
  5
16354
330
747D
100
AcDbEntity
  8
細線
100
AcDbLine
 10
6013.295015675684
 20
5457.077276893858
 30
0.0
 11
5939.295015675686
 21
5457.077276893858
 31
0.0
  0
LINE
  5
16355
330
747D
100
AcDbEntity
  8
細線
100
AcDbLine
 10
5939.295015675686
 20
5469.077276893859
 30
0.0
 11
5939.295015675683
 21
5446.077276893859
 31
0.0
  0
LINE
  5
16356
330
747D
100
AcDbEntity
  8
細線
100
AcDbLine
 10
6759.295015675689
 20
5469.077276893859
 30
0.0
 11
6759.295015675686
 21
5446.077276893859
 31
0.0
  0
LINE
  5
16357
330
747D
100
AcDbEntity
  8
細線
100
AcDbLine
 10
6833.295015675687
 20
5457.077276893858
 30
0.0
 11
6759.295015675689
 21
5457.077276893858
 31
0.0
  0
LINE
  5
16358
330
747D
100
AcDbEntity
  8
細線
100
AcDbLine
 10
6833.295015675687
 20
5451.077276893858
 30
0.0
 11
6759.295015675689
 21
5451.077276893858
 31
0.0
  0
LINE
  5
16359
330
747D
100
AcDbEntity
  8
細線
100
AcDbLine
 10
6833.295015675687
 20
5463.077276893859
 30
0.0
 11
6759.295015675689
 21
5463.077276893859
 31
0.0
  0
LINE
  5
1635A
330
747D
100
AcDbEntity
  8
細線
100
AcDbLine
 10
6685.295015675688
 20
5463.077276893859
 30
0.0
 11
6754.295015675687
 21
5463.077276893859
 31
0.0
  0
LINE
  5
1635B
330
747D
100
AcDbEntity
  8
細線
100
AcDbLine
 10
6685.295015675686
 20
5451.077276893858
 30
0.0
 11
6759.295015675689
 21
5451.077276893858
 31
0.0
  0
LINE
  5
1635C
330
747D
100
AcDbEntity
  8
細線
100
AcDbLine
 10
6685.295015675688
 20
5457.077276893858
 30
0.0
 11
6759.295015675689
 21
5457.077276893858
 31
0.0
  0
LINE
  5
1635D
330
747D
100
AcDbEntity
  8
細線
100
AcDbLine
 10
6685.295015675688
 20
5463.077276893859
 30
0.0
 11
6759.295015675689
 21
5463.077276893859
 31
0.0
  0
LINE
  5
1635E
330
747D
100
AcDbEntity
  8
部品1
 48
0.01
100
AcDbLine
 10
6847.295015675688
 20
5475.577276893858
 30
0.0
 11
6671.295015675688
 21
5475.577276893858
 31
0.0
  0
LINE
  5
1635F
330
747D
100
AcDbEntity
  8
部品1
 48
0.01
100
AcDbLine
 10
6669.295015675688
 20
5473.577276893859
 30
0.0
 11
6669.295015675688
 21
5442.077276893859
 31
0.0
  0
LINE
  5
16360
330
747D
100
AcDbEntity
  8
部品1
 48
0.01
100
AcDbLine
 10
6671.295015675688
 20
5440.077276893859
 30
0.0
 11
6847.295015675687
 21
5440.077276893859
 31
0.0
  0
LINE
  5
16361
330
747D
100
AcDbEntity
  8
部品1
 48
0.01
100
AcDbLine
 10
6849.295015675686
 20
5442.077276893859
 30
0.0
 11
6849.295015675687
 21
5473.577276893859
 31
0.0
  0
LINE
  5
16362
330
747D
100
AcDbEntity
  8
細線
100
AcDbLine
 10
6685.295015675688
 20
5469.077276893859
 30
0.0
 11
6685.295015675688
 21
5446.077276893859
 31
0.0
  0
LINE
  5
16363
330
747D
100
AcDbEntity
  8
細線
100
AcDbLine
 10
6833.295015675687
 20
5446.077276893859
 30
0.0
 11
6833.295015675687
 21
5469.077276893859
 31
0.0
  0
LINE
  5
16364
330
747D
100
AcDbEntity
  8
細線
100
AcDbLine
 10
6833.295015675687
 20
5469.077276893859
 30
0.0
 11
6759.295015675689
 21
5469.077276893859
 31
0.0
  0
LINE
  5
16365
330
747D
100
AcDbEntity
  8
細線
100
AcDbLine
 10
6685.295015675688
 20
5446.077276893859
 30
0.0
 11
6759.295015675689
 21
5446.077276893859
 31
0.0
  0
LINE
  5
16366
330
747D
100
AcDbEntity
  8
細線
100
AcDbLine
 10
6759.295015675689
 20
5469.077276893859
 30
0.0
 11
6685.295015675688
 21
5469.077276893859
 31
0.0
  0
LINE
  5
16367
330
747D
100
AcDbEntity
  8
細線
100
AcDbLine
 10
6759.295015675686
 20
5446.077276893859
 30
0.0
 11
6833.295015675687
 21
5446.077276893859
 31
0.0
  0
ARC
  5
16368
330
747D
100
AcDbEntity
  8
部品1
 48
0.01
100
AcDbCircle
 10
6671.295015675688
 20
5473.577276893859
 30
0.0
 40
2.0
100
AcDbArc
 50
90.0
 51
180.0
  0
ARC
  5
16369
330
747D
100
AcDbEntity
  8
部品1
 48
0.01
100
AcDbCircle
 10
6671.295015675688
 20
5442.077276893859
 30
0.0
 40
2.0
100
AcDbArc
 50
180.0
 51
270.0
  0
ARC
  5
1636A
330
747D
100
AcDbEntity
  8
部品1
 48
0.01
100
AcDbCircle
 10
6847.295015675688
 20
5473.577276893859
 30
0.0
 40
2.0
100
AcDbArc
 50
0.0
 51
90.0
  0
ARC
  5
1636B
330
747D
100
AcDbEntity
  8
部品1
 48
0.01
100
AcDbCircle
 10
6847.295015675687
 20
5442.077276893859
 30
0.0
 40
2.0
100
AcDbArc
 50
270.0
 51
0.0
  0
DIMENSION
  5
16552
330
747D
100
AcDbEntity
  8
寸法
100
AcDbDimension
  2
*D30
 10
8954.203837543856
 20
3619.577276893865
 30
0.0
 11
8954.203837543856
 21
4524.612288770249
 31
0.0
 70
   160
 71
     5
 42
1789.999999999997
  3
INABA_S40G
100
AcDbAlignedDimension
 13
9549.164558191282
 23
5409.577276893862
 33
0.0
 14
9549.164558191282
 24
3619.577276893864
 34
0.0
 50
90.0
100
AcDbRotatedDimension
1001
ACAD
1000
DSTYLE
1002
{
1070
   288
1070
     1
1002
}
  0
DIMENSION
  5
16553
330
747D
100
AcDbEntity
  8
寸法
100
AcDbDimension
  2
*D31
 10
8954.203837543856
 20
3569.577276893863
 30
0.0
 11
8954.203837543856
 21
3263.530032799372
 31
0.0
 70
   160
 71
     5
 42
50.00000000000182
  3
INABA_S40G
100
AcDbAlignedDimension
 13
9549.164558191282
 23
3619.577276893864
 33
0.0
 14
9501.16692823606
 24
3569.577276893863
 34
0.0
 50
90.0
100
AcDbRotatedDimension
1001
ACAD
1000
DSTYLE
1002
{
1070
   174
1070
     0
1070
   272
1070
     1
1070
   288
1070
     0
1070
   341
1005
0
1002
}
  0
LINE
  5
16554
330
747D
100
AcDbEntity
  8
部品1
 48
50.0
100
AcDbLine
 10
9549.164558191282
 20
3630.327276893864
 30
0.0
 11
9556.166928236059
 21
3630.327276893864
 31
0.0
  0
LINE
  5
16555
330
747D
100
AcDbEntity
  8
部品1
 48
0.2
100
AcDbLine
 10
9549.164558191282
 20
3630.327276893864
 30
0.0
 11
9549.164558191282
 21
3619.577276893864
 31
0.0
  0
LINE
  5
16556
330
747D
100
AcDbEntity
  8
部品1
 48
50.0
100
AcDbLine
 10
9549.164558191282
 20
3619.577276893864
 30
0.0
 11
9556.166928236059
 21
3619.577276893864
 31
0.0
  0
LINE
  5
16557
330
747D
100
AcDbEntity
  8
部品1
 48
0.2
100
AcDbLine
 10
9549.164558191282
 20
5409.577276893861
 30
0.0
 11
9549.164558191282
 21
5398.827276893862
 31
0.0
  0
LINE
  5
16558
330
747D
100
AcDbEntity
  8
部品1
 48
50.0
100
AcDbLine
 10
9549.164558191282
 20
5398.827276893861
 30
0.0
 11
9556.166928236059
 21
5398.827276893861
 31
0.0
  0
TEXT
  5
165B5
330
747D
100
AcDbEntity
  8
文字
 62
     7
 48
50.0
100
AcDbText
 10
13229.83081656553
 20
8720.013745883731
 30
0.0
 40
100.0
  1
※豪雪補強は豪雪地型のみ取付
 41
0.9
  7
STYLE1
100
AcDbText
  0
TEXT
  5
165B6
330
747D
100
AcDbEntity
  8
文字
 62
     7
 48
50.0
100
AcDbText
 10
13248.77747366447
 20
8890.013745883733
 30
0.0
 40
100.0
  1
14
  7
STYLE1
100
AcDbText
  0
TEXT
  5
165B7
330
747D
100
AcDbEntity
  8
文字
 62
     7
 48
50.0
100
AcDbText
 10
13583.11819016568
 20
8890.013745883731
 30
0.0
 40
100.0
  1
※豪雪補強
  7
STYLE1
100
AcDbText
  0
TEXT
  5
165B8
330
747D
100
AcDbEntity
  8
文字
 62
     7
 48
50.0
100
AcDbText
 10
15022.63965474514
 20
8890.013745883726
 30
0.0
 40
100.0
  1
F12            1.0
  7
STYLE1
100
AcDbText
  0
LINE
  5
165B9
330
747D
100
AcDbEntity
  8
仕様書枠
 48
50.0
100
AcDbLine
 10
16307.19999999998
 20
8519.600000000005
 30
0.0
 11
13127.19999999999
 21
8519.600000000009
 31
0.0
  0
LINE
  5
165BA
330
747D
100
AcDbEntity
  8
仕様書枠
 48
50.0
100
AcDbLine
 10
16307.19999999998
 20
8349.600000000007
 30
0.0
 11
13127.19999999999
 21
8349.600000000009
 31
0.0
  0
ENDSEC
  0
SECTION
  2
OBJECTS
  0
DICTIONARY
  5
7471
330
0
100
AcDbDictionary
281
     1
  3
ACAD_COLOR
350
14A31
  3
ACAD_GROUP
350
7472
  3
ACAD_LAYOUT
350
14A32
  3
ACAD_MATERIAL
350
14A30
  3
ACAD_MLINESTYLE
350
7473
  3
ACAD_PLOTSETTINGS
350
14A33
  3
ACAD_PLOTSTYLENAME
350
14A2E
  3
ACDBHEADERROUNDTRIPXREC
350
165E9
  3
AcDbVariableDictionary
350
165E5
  3
CONTENTDICTIONARY
350
E71C
  3
DRAWINGVARIABLESDICT
350
F3B9
  0
DICTIONARY
  5
14BE0
330
7467
100
AcDbDictionary
280
     1
281
     1
  3
ACAD_LAYERSTATES
360
14BE1
  0
DICTIONARY
  5
14A31
102
{ACAD_REACTORS
330
7471
102
}
330
7471
100
AcDbDictionary
281
     1
  0
DICTIONARY
  5
7472
102
{ACAD_REACTORS
330
7471
102
}
330
7471
100
AcDbDictionary
281
     1
  0
DICTIONARY
  5
14A32
102
{ACAD_REACTORS
330
7471
102
}
330
7471
100
AcDbDictionary
281
     1
  3
Model
350
14A34
  3
レイアウト1
350
14A35
  0
DICTIONARY
  5
14A30
102
{ACAD_REACTORS
330
7471
102
}
330
7471
100
AcDbDictionary
281
     1
  0
DICTIONARY
  5
7473
102
{ACAD_REACTORS
330
7471
102
}
330
7471
100
AcDbDictionary
281
     1
  3
STANDARD
350
7480
  0
DICTIONARY
  5
14A33
102
{ACAD_REACTORS
330
7471
102
}
330
7471
100
AcDbDictionary
281
     1
  0
ACDBDICTIONARYWDFLT
  5
14A2E
102
{ACAD_REACTORS
330
7471
102
}
330
7471
100
AcDbDictionary
281
     1
  3
Normal
350
14A2F
100
AcDbDictionaryWithDefault
340
14A2F
  0
DICTIONARY
  5
165E9
102
{ACAD_REACTORS
330
7471
102
}
330
7471
100
AcDbDictionary
281
     1
  3
COLORDICT
350
165EB
  3
MATERIALDICT
350
165EA
  0
DICTIONARY
  5
165E5
102
{ACAD_REACTORS
330
7471
102
}
330
7471
100
AcDbDictionary
281
     1
  3
DIMASSOC
350
165E6
  3
PROJECTNAME
350
165E7
  0
DICTIONARY
  5
E71C
102
{ACAD_REACTORS
330
7471
102
}
330
7471
100
AcDbDictionary
281
     1
  0
DICTIONARY
  5
F3B9
102
{ACAD_REACTORS
330
7471
102
}
330
7471
100
AcDbDictionary
281
     1
1001
DRAWINGVARIABLESXDATA
1000
POLARMODE
1000
1
  0
DICTIONARY
  5
14BE1
102
{ACAD_REACTORS
330
14BE0
102
}
330
14BE0
100
AcDbDictionary
281
     1
  0
LAYOUT
  5
14A34
102
{ACAD_XDICTIONARY
360
165EC
102
}
102
{ACAD_REACTORS
330
14A32
102
}
330
14A32
100
AcDbPlotSettings
  1

  2
Microsoft Office Document Image Writer
  4

  6

 40
0.0
 41
0.0
 42
0.0
 43
0.0
 44
0.0
 45
0.0
 46
0.0
 47
0.0
 48
0.0
 49
0.0
140
0.0
141
0.0
142
1.0
143
1.0
 70
  1712
 72
     0
 73
     0
 74
     0
  7

 75
     0
147
1.0
148
0.0
149
0.0
100
AcDbLayout
  1
Model
 70
     1
 71
     0
 10
0.0
 20
0.0
 11
12.0
 21
9.0
 12
0.0
 22
0.0
 32
0.0
 14
0.0
 24
0.0
 34
0.0
 15
0.0
 25
0.0
 35
0.0
146
0.0
 13
0.0
 23
0.0
 33
0.0
 16
1.0
 26
0.0
 36
0.0
 17
0.0
 27
1.0
 37
0.0
 76
     0
330
747D
  0
LAYOUT
  5
14A35
102
{ACAD_XDICTIONARY
360
165EE
102
}
102
{ACAD_REACTORS
330
14A32
102
}
330
14A32
100
AcDbPlotSettings
  1

  2
Microsoft Office Document Image Writer
  4

  6

 40
0.0
 41
0.0
 42
0.0
 43
0.0
 44
0.0
 45
0.0
 46
0.0
 47
0.0
 48
0.0
 49
0.0
140
0.0
141
0.0
142
1.0
143
1.0
 70
   688
 72
     0
 73
     0
 74
     5
  7

 75
    16
147
1.0
148
0.0
149
0.0
100
AcDbLayout
  1
レイアウト1
 70
     0
 71
     1
 10
0.0
 20
0.0
 11
420.0
 21
297.0
 12
0.0
 22
0.0
 32
0.0
 14
1.000000000000000E+20
 24
1.000000000000000E+20
 34
1.000000000000000E+20
 15
-1.000000000000000E+20
 25
-1.000000000000000E+20
 35
-1.000000000000000E+20
146
0.0
 13
0.0
 23
0.0
 33
0.0
 16
1.0
 26
0.0
 36
0.0
 17
0.0
 27
1.0
 37
0.0
 76
     0
330
747A
  0
MLINESTYLE
  5
7480
102
{ACAD_REACTORS
330
7473
102
}
330
7473
100
AcDbMlineStyle
  2
STANDARD
 70
     0
  3

 62
     0
 51
90.0
 52
90.0
 71
     2
 49
0.5
 62
   256
  6
BYLAYER
 49
-0.5
 62
   256
  6
BYLAYER
  0
ACDBPLACEHOLDER
  5
14A2F
102
{ACAD_REACTORS
330
14A2E
102
}
330
14A2E
  0
XRECORD
  5
165EB
102
{ACAD_REACTORS
330
165E9
102
}
330
165E9
100
AcDbXrecord
280
     1
340
14A31
  0
XRECORD
  5
165EA
102
{ACAD_REACTORS
330
165E9
102
}
330
165E9
100
AcDbXrecord
280
     1
340
14A30
  0
DICTIONARYVAR
  5
165E6
102
{ACAD_REACTORS
330
165E5
102
}
330
165E5
100
DictionaryVariables
280
     0
  1
1
  0
DICTIONARYVAR
  5
165E7
102
{ACAD_REACTORS
330
165E5
102
}
330
165E5
100
DictionaryVariables
280
     0
  1

  0
DICTIONARY
  5
165EC
330
14A34
100
AcDbDictionary
280
     1
281
     1
  3
ACAD_XREC_ROUNDTRIP
360
165ED
  0
DICTIONARY
  5
165EE
330
14A35
100
AcDbDictionary
280
     1
281
     1
  3
ACAD_XREC_ROUNDTRIP
360
165EF
  0
XRECORD
  5
165ED
102
{ACAD_REACTORS
330
165EC
102
}
330
165EC
100
AcDbXrecord
280
     1
102
SHADEPLOT
 70
     0
102
SHADEPLOTRESLEVEL
 70
     2
102
SHADEPLOTCUSTOMDPI
 70
   300
  0
XRECORD
  5
165EF
102
{ACAD_REACTORS
330
165EE
102
}
330
165EE
100
AcDbXrecord
280
     1
102
SHADEPLOT
 70
     0
102
SHADEPLOTRESLEVEL
 70
     2
102
SHADEPLOTCUSTOMDPI
 70
   300
  0
ENDSEC
  0
EOF
