  0
SECTION
  2
HEADER
  9
$ACADVER
  1
AC1015
  9
$ACADMAINTVER
 70
    20
  9
$DWGCODEPAGE
  3
ANSI_932
  9
$INSBASE
 10
0.0
 20
0.0
 30
0.0
  9
$EXTMIN
 10
139.9999999999995
 20
-0.0000000000000909
 30
0.0
  9
$EXTMAX
 10
16307.2
 20
11409.6
 30
0.0
  9
$LIMMIN
 10
0.0
 20
0.0
  9
$LIMMAX
 10
16800.0
 20
11880.0
  9
$ORTHOMODE
 70
     0
  9
$REGENMODE
 70
     1
  9
$FILLMODE
 70
     1
  9
$QTEXTMODE
 70
     0
  9
$MIRRTEXT
 70
     1
  9
$LTSCALE
 40
20.0
  9
$ATTMODE
 70
     1
  9
$TEXTSIZE
 40
4.0
  9
$TRACEWID
 40
1.0
  9
$TEXTSTYLE
  7
STYLE1
  9
$CLAYER
  8
細線
  9
$CELTYPE
  6
BYLAYER
  9
$CECOLOR
 62
   256
  9
$CELTSCALE
 40
50.0
  9
$DISPSILH
 70
     0
  9
$DIMSCALE
 40
40.0
  9
$DIMASZ
 40
2.5
  9
$DIMEXO
 40
0.5
  9
$DIMDLI
 40
7.0
  9
$DIMRND
 40
0.0
  9
$DIMDLE
 40
0.0
  9
$DIMEXE
 40
1.5
  9
$DIMTP
 40
0.0
  9
$DIMTM
 40
0.0
  9
$DIMTXT
 40
3.0
  9
$DIMCEN
 40
0.0
  9
$DIMTSZ
 40
0.0
  9
$DIMTOL
 70
     0
  9
$DIMLIM
 70
     0
  9
$DIMTIH
 70
     0
  9
$DIMTOH
 70
     0
  9
$DIMSE1
 70
     0
  9
$DIMSE2
 70
     0
  9
$DIMTAD
 70
     3
  9
$DIMZIN
 70
     8
  9
$DIMBLK
  1

  9
$DIMASO
 70
     1
  9
$DIMSHO
 70
     1
  9
$DIMPOST
  1

  9
$DIMAPOST
  1

  9
$DIMALT
 70
     0
  9
$DIMALTD
 70
     2
  9
$DIMALTF
 40
0.0394
  9
$DIMLFAC
 40
1.0
  9
$DIMTOFL
 70
     1
  9
$DIMTVP
 40
0.0
  9
$DIMTIX
 70
     1
  9
$DIMSOXD
 70
     0
  9
$DIMSAH
 70
     1
  9
$DIMBLK1
  1
DOTSMALL
  9
$DIMBLK2
  1
DOTSMALL
  9
$DIMSTYLE
  2
INABA_S40G
  9
$DIMCLRD
 70
     0
  9
$DIMCLRE
 70
     0
  9
$DIMCLRT
 70
     7
  9
$DIMTFAC
 40
1.0
  9
$DIMGAP
 40
1.0
  9
$DIMJUST
 70
     0
  9
$DIMSD1
 70
     0
  9
$DIMSD2
 70
     0
  9
$DIMTOLJ
 70
     1
  9
$DIMTZIN
 70
     0
  9
$DIMALTZ
 70
     0
  9
$DIMALTTZ
 70
     0
  9
$DIMUPT
 70
     0
  9
$DIMDEC
 70
     1
  9
$DIMTDEC
 70
     4
  9
$DIMALTU
 70
     2
  9
$DIMALTTD
 70
     2
  9
$DIMTXSTY
  7
STYLE1
  9
$DIMAUNIT
 70
     0
  9
$DIMADEC
 70
     0
  9
$DIMALTRND
 40
0.0
  9
$DIMAZIN
 70
     0
  9
$DIMDSEP
 70
    46
  9
$DIMATFIT
 70
     3
  9
$DIMFRAC
 70
     0
  9
$DIMLDRBLK
  1

  9
$DIMLUNIT
 70
     2
  9
$DIMLWD
 70
    -2
  9
$DIMLWE
 70
    -2
  9
$DIMTMOVE
 70
     0
  9
$LUNITS
 70
     2
  9
$LUPREC
 70
     1
  9
$SKETCHINC
 40
1.0
  9
$FILLETRAD
 40
3.0
  9
$AUNITS
 70
     0
  9
$AUPREC
 70
     0
  9
$MENU
  1
acad
  9
$ELEVATION
 40
0.0
  9
$PELEVATION
 40
0.0
  9
$THICKNESS
 40
0.0
  9
$LIMCHECK
 70
     0
  9
$CHAMFERA
 40
0.0
  9
$CHAMFERB
 40
0.0
  9
$CHAMFERC
 40
0.0
  9
$CHAMFERD
 40
0.0
  9
$SKPOLY
 70
     0
  9
$TDCREATE
 40
2451368.612993866
  9
$TDUCREATE
 40
2451368.237993866
  9
$TDUPDATE
 40
2455827.647849352
  9
$TDUUPDATE
 40
2455827.272849352
  9
$TDINDWG
 40
0.7741827662
  9
$TDUSRTIMER
 40
0.7741827662
  9
$USRTIMER
 70
     1
  9
$ANGBASE
 50
0.0
  9
$ANGDIR
 70
     0
  9
$PDMODE
 70
     3
  9
$PDSIZE
 40
2.0
  9
$PLINEWID
 40
0.0
  9
$SPLFRAME
 70
     0
  9
$SPLINETYPE
 70
     6
  9
$SPLINESEGS
 70
     8
  9
$HANDSEED
  5
24B9D
  9
$SURFTAB1
 70
     6
  9
$SURFTAB2
 70
     6
  9
$SURFTYPE
 70
     6
  9
$SURFU
 70
     6
  9
$SURFV
 70
     6
  9
$UCSBASE
  2

  9
$UCSNAME
  2

  9
$UCSORG
 10
0.0
 20
0.0
 30
0.0
  9
$UCSXDIR
 10
1.0
 20
0.0
 30
0.0
  9
$UCSYDIR
 10
0.0
 20
1.0
 30
0.0
  9
$UCSORTHOREF
  2

  9
$UCSORTHOVIEW
 70
     0
  9
$UCSORGTOP
 10
0.0
 20
0.0
 30
0.0
  9
$UCSORGBOTTOM
 10
0.0
 20
0.0
 30
0.0
  9
$UCSORGLEFT
 10
0.0
 20
0.0
 30
0.0
  9
$UCSORGRIGHT
 10
0.0
 20
0.0
 30
0.0
  9
$UCSORGFRONT
 10
0.0
 20
0.0
 30
0.0
  9
$UCSORGBACK
 10
0.0
 20
0.0
 30
0.0
  9
$PUCSBASE
  2

  9
$PUCSNAME
  2

  9
$PUCSORG
 10
0.0
 20
0.0
 30
0.0
  9
$PUCSXDIR
 10
1.0
 20
0.0
 30
0.0
  9
$PUCSYDIR
 10
0.0
 20
1.0
 30
0.0
  9
$PUCSORTHOREF
  2

  9
$PUCSORTHOVIEW
 70
     0
  9
$PUCSORGTOP
 10
0.0
 20
0.0
 30
0.0
  9
$PUCSORGBOTTOM
 10
0.0
 20
0.0
 30
0.0
  9
$PUCSORGLEFT
 10
0.0
 20
0.0
 30
0.0
  9
$PUCSORGRIGHT
 10
0.0
 20
0.0
 30
0.0
  9
$PUCSORGFRONT
 10
0.0
 20
0.0
 30
0.0
  9
$PUCSORGBACK
 10
0.0
 20
0.0
 30
0.0
  9
$USERI1
 70
     0
  9
$USERI2
 70
     0
  9
$USERI3
 70
     0
  9
$USERI4
 70
     0
  9
$USERI5
 70
     0
  9
$USERR1
 40
0.0
  9
$USERR2
 40
0.0
  9
$USERR3
 40
0.0
  9
$USERR4
 40
0.0
  9
$USERR5
 40
0.0
  9
$WORLDVIEW
 70
     1
  9
$SHADEDGE
 70
     3
  9
$SHADEDIF
 70
    70
  9
$TILEMODE
 70
     1
  9
$MAXACTVP
 70
    16
  9
$PINSBASE
 10
0.0
 20
0.0
 30
0.0
  9
$PLIMCHECK
 70
     0
  9
$PEXTMIN
 10
1.000000000000000E+20
 20
1.000000000000000E+20
 30
1.000000000000000E+20
  9
$PEXTMAX
 10
-1.000000000000000E+20
 20
-1.000000000000000E+20
 30
-1.000000000000000E+20
  9
$PLIMMIN
 10
0.0
 20
0.0
  9
$PLIMMAX
 10
420.0
 20
297.0
  9
$UNITMODE
 70
     0
  9
$VISRETAIN
 70
     0
  9
$PLINEGEN
 70
     0
  9
$PSLTSCALE
 70
     0
  9
$TREEDEPTH
 70
  3020
  9
$CMLSTYLE
  2
STANDARD
  9
$CMLJUST
 70
     0
  9
$CMLSCALE
 40
1.0
  9
$PROXYGRAPHICS
 70
     1
  9
$MEASUREMENT
 70
     1
  9
$CELWEIGHT
370
    -1
  9
$ENDCAPS
280
     0
  9
$JOINSTYLE
280
     0
  9
$LWDISPLAY
290
     0
  9
$INSUNITS
 70
     0
  9
$HYPERLINKBASE
  1

  9
$STYLESHEET
  1
ACA3.ctb
  9
$XEDIT
290
     1
  9
$CEPSNTYPE
380
     0
  9
$PSTYLEMODE
290
     1
  9
$FINGERPRINTGUID
  2
{5EAC461A-2277-4BF8-9AB0-99C43BB394F0}
  9
$VERSIONGUID
  2
{3590A994-7684-49CB-A4DF-7BCEAC3AF6A8}
  9
$EXTNAMES
290
     1
  9
$PSVPSCALE
 40
0.0
  9
$OLESTARTUP
290
     0
  0
ENDSEC
  0
SECTION
  2
CLASSES
  0
CLASS
  1
ACDBDICTIONARYWDFLT
  2
AcDbDictionaryWithDefault
  3
ObjectDBX Classes
 90
        0
280
     0
281
     0
  0
CLASS
  1
DICTIONARYVAR
  2
AcDbDictionaryVar
  3
ObjectDBX Classes
 90
        0
280
     0
281
     0
  0
CLASS
  1
ACDBPLACEHOLDER
  2
AcDbPlaceHolder
  3
ObjectDBX Classes
 90
        0
280
     0
281
     0
  0
CLASS
  1
LAYOUT
  2
AcDbLayout
  3
ObjectDBX Classes
 90
        0
280
     0
281
     0
  0
ENDSEC
  0
SECTION
  2
TABLES
  0
TABLE
  2
VPORT
  5
746D
330
0
100
AcDbSymbolTable
 70
     2
  0
VPORT
  5
24B95
330
746D
100
AcDbSymbolTableRecord
100
AcDbViewportTableRecord
  2
*Active
 70
     0
 10
0.0
 20
0.0
 11
1.0
 21
1.0
 12
8223.761025238502
 22
5704.872807327498
 13
0.0
 23
0.0
 14
10.0
 24
10.0
 15
10.0
 25
10.0
 16
0.0
 26
0.0
 36
1.0
 17
0.0
 27
0.0
 37
0.0
 40
11494.52305525973
 41
1.522222222222222
 42
50.0
 43
0.0
 44
0.0
 50
0.0
 51
0.0
 71
     0
 72
     0
 73
     1
 74
     0
 75
     0
 76
     0
 77
     0
 78
     0
281
     0
 65
     1
110
0.0
120
0.0
130
0.0
111
1.0
121
0.0
131
0.0
112
0.0
122
1.0
132
0.0
 79
     0
146
0.0
  0
ENDTAB
  0
TABLE
  2
LTYPE
  5
746A
330
0
100
AcDbSymbolTable
 70
     5
  0
LTYPE
  5
7477
330
746A
100
AcDbSymbolTableRecord
100
AcDbLinetypeTableRecord
  2
BYBLOCK
 70
     0
  3

 72
    65
 73
     0
 40
0.0
  0
LTYPE
  5
7478
330
746A
100
AcDbSymbolTableRecord
100
AcDbLinetypeTableRecord
  2
BYLAYER
 70
     0
  3

 72
    65
 73
     0
 40
0.0
  0
LTYPE
  5
7479
330
746A
100
AcDbSymbolTableRecord
100
AcDbLinetypeTableRecord
  2
CONTINUOUS
 70
     0
  3
Solid line
 72
    65
 73
     0
 40
0.0
  0
LTYPE
  5
7816
330
746A
100
AcDbSymbolTableRecord
100
AcDbLinetypeTableRecord
  2
CENTER
 70
     0
  3
____ _ ____ _ ____ _ ____ _ ____ _ ____ _ ____ 
 72
    65
 73
     4
 40
2.0
 49
1.25
 74
     0
 49
-0.25
 74
     0
 49
0.25
 74
     0
 49
-0.25
 74
     0
  0
LTYPE
  5
781A
330
746A
100
AcDbSymbolTableRecord
100
AcDbLinetypeTableRecord
  2
HIDDEN
 70
     0
  3
__ __ __ __ __ __ __ __ __ __ __ __ __ __ __ __
 72
    65
 73
     2
 40
0.375
 49
0.25
 74
     0
 49
-0.125
 74
     0
  0
LTYPE
  5
781B
330
746A
100
AcDbSymbolTableRecord
100
AcDbLinetypeTableRecord
  2
PHANTOM
 70
     0
  3
______  __  __  ______  __  __  ______  __  __ 
 72
    65
 73
     6
 40
2.5
 49
1.25
 74
     0
 49
-0.25
 74
     0
 49
0.25
 74
     0
 49
-0.25
 74
     0
 49
0.25
 74
     0
 49
-0.25
 74
     0
  0
LTYPE
  5
12CC3
330
746A
100
AcDbSymbolTableRecord
100
AcDbLinetypeTableRecord
  2
HIDDENX2
 70
     0
  3
Hidden (2x) ____ ____ ____ ____ ____ ____ ____
 72
    65
 73
     2
 40
19.05
 49
12.7
 74
     0
 49
-6.349999999999999
 74
     0
  0
ENDTAB
  0
TABLE
  2
LAYER
  5
7467
102
{ACAD_XDICTIONARY
360
1758F
102
}
330
0
100
AcDbSymbolTable
 70
    13
  0
LAYER
  5
7474
330
7467
100
AcDbSymbolTableRecord
100
AcDbLayerTableRecord
  2
0
 70
     0
 62
     7
  6
CONTINUOUS
370
    -3
390
173D0
  0
LAYER
  5
DEB2
330
7467
100
AcDbSymbolTableRecord
100
AcDbLayerTableRecord
  2
センター
 70
     0
 62
     3
  6
CENTER
370
    -3
390
173D0
  0
LAYER
  5
DEB3
330
7467
100
AcDbSymbolTableRecord
100
AcDbLayerTableRecord
  2
寸法
 70
     0
 62
     4
  6
CONTINUOUS
370
    -3
390
173D0
  0
LAYER
  5
DEB4
330
7467
100
AcDbSymbolTableRecord
100
AcDbLayerTableRecord
  2
部品1
 70
     0
 62
     7
  6
CONTINUOUS
370
    -3
390
173D0
  0
LAYER
  5
DEB5
330
7467
100
AcDbSymbolTableRecord
100
AcDbLayerTableRecord
  2
補助
 70
     0
 62
    -1
  6
CONTINUOUS
370
    -3
390
173D0
  0
LAYER
  5
DEB6
330
7467
100
AcDbSymbolTableRecord
100
AcDbLayerTableRecord
  2
文字
 70
     0
 62
     7
  6
CONTINUOUS
370
    -3
390
173D0
  0
LAYER
  5
F255
330
7467
100
AcDbSymbolTableRecord
100
AcDbLayerTableRecord
  2
DEFPOINTS
 70
     0
 62
     7
  6
CONTINUOUS
290
     0
370
    -3
390
173D0
  0
LAYER
  5
10B54
330
7467
100
AcDbSymbolTableRecord
100
AcDbLayerTableRecord
  2
仕様書枠
 70
     0
 62
   230
  6
CONTINUOUS
370
    -3
390
173D0
  0
LAYER
  5
11729
330
7467
100
AcDbSymbolTableRecord
100
AcDbLayerTableRecord
  2
Ｇ．Ｌ
 70
     0
 62
    30
  6
CONTINUOUS
370
    -3
390
173D0
  0
LAYER
  5
1173F
330
7467
100
AcDbSymbolTableRecord
100
AcDbLayerTableRecord
  2
細線
 70
     0
 62
     5
  6
CONTINUOUS
370
    -3
390
173D0
  0
LAYER
  5
12CC4
330
7467
100
AcDbSymbolTableRecord
100
AcDbLayerTableRecord
  2
想像線
 70
     0
 62
     6
  6
PHANTOM
370
    -3
390
173D0
  0
LAYER
  5
142E2
330
7467
100
AcDbSymbolTableRecord
100
AcDbLayerTableRecord
  2
破線
 70
     0
 62
     2
  6
HIDDEN
370
    -3
390
173D0
  0
LAYER
  5
1F7B1
330
7467
100
AcDbSymbolTableRecord
100
AcDbLayerTableRecord
  2
点線
 70
     0
 62
     2
  6
HIDDEN
370
    -3
390
173D0
  0
ENDTAB
  0
TABLE
  2
STYLE
  5
7468
330
0
100
AcDbSymbolTable
 70
     7
  0
STYLE
  5
7475
330
7468
100
AcDbSymbolTableRecord
100
AcDbTextStyleTableRecord
  2
STANDARD
 70
     0
 40
0.0
 41
1.0
 50
0.0
 71
     0
 42
4.0
  3
txt
  4
C:\AutoCAD LT\bigfont.shx
  0
STYLE
  5
763C
330
7468
100
AcDbSymbolTableRecord
100
AcDbTextStyleTableRecord
  2
MSMINCHO
 70
     0
 40
0.0
 41
1.0
 50
0.0
 71
     0
 42
1.199999999999999
  3
C:\AutoCAD LT\msminch2.TTF
  4

  0
STYLE
  5
F706
330
7468
100
AcDbSymbolTableRecord
100
AcDbTextStyleTableRecord
  2
STYLE1
 70
     0
 40
0.0
 41
1.0
 50
0.0
 71
     0
 42
4.0
  3
isocp.shx
  4
bigfont.shx
  0
STYLE
  5
103BF
330
7468
100
AcDbSymbolTableRecord
100
AcDbTextStyleTableRecord
  2
STYLE2
 70
     0
 40
0.0
 41
1.0
 50
0.0
 71
     0
 42
100.0
  3
MS PGothic.ttf
  4

1001
ACAD
1000
MS PGothic
1071
    32818
  0
STYLE
  5
10BAA
330
7468
100
AcDbSymbolTableRecord
100
AcDbTextStyleTableRecord
  2
STYLE3
 70
     0
 40
0.0
 41
1.0
 50
0.0
 71
     0
 42
100.0
  3
DFPGothic-EB.ttf
  4

1001
ACAD
1000
DFPGothic-EB
1071
    32818
  0
STYLE
  5
11A15
330
7468
100
AcDbSymbolTableRecord
100
AcDbTextStyleTableRecord
  2
MSGOTHIC
 70
     0
 40
0.0
 41
1.0
 50
0.0
 71
     0
 42
3.5
  3
msgothi2.ttf
  4

  0
STYLE
  5
13E96
330
7468
100
AcDbSymbolTableRecord
100
AcDbTextStyleTableRecord
  2
MSPゴシック
 70
     0
 40
0.0
 41
1.0
 50
0.0
 71
     0
 42
4.0
  3
MS PGothic.ttf
  4

1001
ACAD
1000
MS PGothic
1071
    32818
  0
ENDTAB
  0
TABLE
  2
VIEW
  5
746B
330
0
100
AcDbSymbolTable
 70
     0
  0
ENDTAB
  0
TABLE
  2
UCS
  5
746C
330
0
100
AcDbSymbolTable
 70
     0
  0
ENDTAB
  0
TABLE
  2
APPID
  5
746E
330
0
100
AcDbSymbolTable
 70
     6
  0
APPID
  5
7476
330
746E
100
AcDbSymbolTableRecord
100
AcDbRegAppTableRecord
  2
ACAD
 70
     0
  0
APPID
  5
DEA9
330
746E
100
AcDbSymbolTableRecord
100
AcDbRegAppTableRecord
  2
CONTENTBLOCKICON
 70
     0
  0
APPID
  5
DEAA
330
746E
100
AcDbSymbolTableRecord
100
AcDbRegAppTableRecord
  2
CONTENTBLOCKDESCRIPTION
 70
     0
  0
APPID
  5
E71D
330
746E
100
AcDbSymbolTableRecord
100
AcDbRegAppTableRecord
  2
CONTENTTABDATA
 70
     0
  0
APPID
  5
E71E
330
746E
100
AcDbSymbolTableRecord
100
AcDbRegAppTableRecord
  2
CONTENTCURRENTTAB
 70
     0
  0
APPID
  5
F3BA
330
746E
100
AcDbSymbolTableRecord
100
AcDbRegAppTableRecord
  2
DRAWINGVARIABLESXDATA
 70
     0
  0
ENDTAB
  0
TABLE
  2
DIMSTYLE
  5
746F
330
0
100
AcDbSymbolTable
 70
     6
100
AcDbDimStyleTable
 71
     1
340
F71F
  0
DIMSTYLE
105
7484
330
746F
100
AcDbSymbolTableRecord
100
AcDbDimStyleTableRecord
  2
JIS
 70
     0
 41
2.5
 42
1.0
 43
7.0
 44
1.0
 73
     0
 74
     0
 77
     1
 78
     8
140
2.5
141
0.0
143
0.0394
147
0.0
172
     1
174
     1
175
     1
340
7475
  0
DIMSTYLE
105
F236
330
746F
100
AcDbSymbolTableRecord
100
AcDbDimStyleTableRecord
  2
INABA_S40
 70
     0
 40
40.0
 41
2.5
 42
0.5
 43
7.0
 44
1.5
 73
     0
 74
     0
 77
     3
 78
     8
140
3.0
141
0.0
143
0.0394
147
1.0
172
     1
173
     1
174
     1
175
     1
178
     7
289
     0
340
7475
341
DEAC
343
DEAC
344
DEAC
  0
DIMSTYLE
105
F71F
102
{ACAD_REACTORS
330
202C8
330
2030F
330
20311
330
2031B
330
1FC6F
330
1FC4A
330
1FC2F
330
1FC2E
330
1FB37
330
1FB11
330
1FB0F
330
1FB0E
330
1FA26
330
1FA21
330
1FA1F
330
1FB10
330
1FB0C
330
1FA2F
330
1FB76
330
227F9
330
227F8
330
22860
330
2286D
330
228AB
330
228CA
330
228D8
330
235D0
330
2499A
330
2499B
330
249A3
330
249AA
330
249AD
330
24A0D
330
24B64
102
}
330
746F
100
AcDbSymbolTableRecord
100
AcDbDimStyleTableRecord
  2
INABA_S40G
 70
     0
 40
40.0
 41
2.5
 42
0.5
 43
7.0
 44
1.5
 73
     0
 74
     0
 77
     3
 78
     8
140
3.0
141
0.0
143
0.0394
147
1.0
172
     1
173
     1
174
     1
178
     7
271
     1
340
F706
341
F770
343
F770
344
F770
  0
DIMSTYLE
105
142E3
330
746F
100
AcDbSymbolTableRecord
100
AcDbDimStyleTableRecord
  2
INABA_S1
 70
     0
 40
0.0
 41
2.5
 42
0.5
 43
7.0
 44
1.5
 73
     0
 74
     0
 77
     3
 78
     8
140
3.0
141
0.0
143
0.0394
146
0.5
147
0.5
172
     1
173
     1
176
   256
177
   256
178
     7
271
     2
272
     2
284
     8
288
     1
340
7475
341
DEAC
343
DEAC
344
DEAC
  0
DIMSTYLE
105
14463
330
746F
100
AcDbSymbolTableRecord
100
AcDbDimStyleTableRecord
  2
INABA_S30G
 70
     0
 40
30.0
 41
2.5
 42
0.5
 43
7.0
 44
1.5
 73
     0
 74
     0
 77
     3
 78
     8
140
3.0
141
0.0
143
0.0394
147
1.0
172
     1
173
     1
174
     1
175
     1
178
     7
271
     1
340
F706
341
F770
343
F770
344
F770
  0
DIMSTYLE
105
1758E
330
746F
100
AcDbSymbolTableRecord
100
AcDbDimStyleTableRecord
  2
INABA_S50G
 70
     0
 41
125.0
 42
25.0
 43
7.0
 44
75.0
 73
     0
 74
     0
 77
     3
 78
     8
140
150.0
141
0.0
143
0.0394
147
25.0
172
     1
173
     1
174
     1
175
     1
178
     7
271
     1
340
F706
341
F770
343
F770
344
F770
  0
ENDTAB
  0
TABLE
  2
BLOCK_RECORD
  5
7466
330
0
100
AcDbSymbolTable
 70
    53
  0
BLOCK_RECORD
  5
747D
330
7466
100
AcDbSymbolTableRecord
100
AcDbBlockTableRecord
  2
*MODEL_SPACE
340
173D5
  0
BLOCK_RECORD
  5
747A
330
7466
100
AcDbSymbolTableRecord
100
AcDbBlockTableRecord
  2
*PAPER_SPACE
340
173D6
  0
BLOCK_RECORD
  5
DEAC
330
7466
100
AcDbSymbolTableRecord
100
AcDbBlockTableRecord
  2
_OPEN
340
0
  0
BLOCK_RECORD
  5
F770
330
7466
100
AcDbSymbolTableRecord
100
AcDbBlockTableRecord
  2
_DOTSMALL
340
0
102
{BLKREFS
331
18C65
331
18C66
331
18C59
331
18C5A
331
18C4D
331
18C4E
331
18C41
331
18C42
331
18C35
331
18C36
331
18C29
331
18C2A
331
18C1D
331
18C1E
331
18C0F
331
18C10
331
18C03
331
18C04
331
18BF5
331
18BF6
331
18BE7
331
18BE8
331
18BD9
331
18BDA
331
18BCD
331
18BCE
331
22A8A
331
22A8B
331
22AE5
331
22AE6
331
22B27
331
22B28
331
23FAC
331
23FAD
331
23FB7
331
23FB8
331
23FC2
331
23FC3
331
23FCC
331
23FCD
331
23FD6
331
23FD7
331
23FDF
331
23FE0
331
23FE8
331
23FE9
331
23FF1
331
23FF2
331
23FFA
331
23FFB
331
2400D
331
2400E
331
24017
331
24018
331
24029
331
2402A
331
24032
331
24033
331
2403B
331
2403C
331
24050
331
24051
331
24059
331
2405A
331
24062
331
24063
331
24074
331
24075
331
2407D
331
2407E
331
2408F
331
24090
331
24098
331
24099
331
240A1
331
240A2
331
240B4
331
240B5
331
240BD
331
240BE
331
240EC
331
240ED
331
24B16
331
24B17
331
24B25
331
24B26
331
24B2E
331
24B2F
331
24B37
331
24B38
331
24B40
331
24B41
331
24B49
331
24B4A
331
24B81
331
24B82
102
}
  0
BLOCK_RECORD
  5
164B4
330
7466
100
AcDbSymbolTableRecord
100
AcDbBlockTableRecord
  2
_DOT
340
0
102
{BLKREFS
331
18C73
331
18C74
102
}
  0
BLOCK_RECORD
  5
18BC8
330
7466
100
AcDbSymbolTableRecord
100
AcDbBlockTableRecord
  2
*D3
340
0
  0
BLOCK_RECORD
  5
18BD4
330
7466
100
AcDbSymbolTableRecord
100
AcDbBlockTableRecord
  2
*D4
340
0
  0
BLOCK_RECORD
  5
18BE0
330
7466
100
AcDbSymbolTableRecord
100
AcDbBlockTableRecord
  2
*D5
340
0
  0
BLOCK_RECORD
  5
18BEE
330
7466
100
AcDbSymbolTableRecord
100
AcDbBlockTableRecord
  2
*D6
340
0
  0
BLOCK_RECORD
  5
18BFC
330
7466
100
AcDbSymbolTableRecord
100
AcDbBlockTableRecord
  2
*D7
340
0
  0
BLOCK_RECORD
  5
18C0A
330
7466
100
AcDbSymbolTableRecord
100
AcDbBlockTableRecord
  2
*D8
340
0
  0
BLOCK_RECORD
  5
18C16
330
7466
100
AcDbSymbolTableRecord
100
AcDbBlockTableRecord
  2
*D9
340
0
  0
BLOCK_RECORD
  5
18C24
330
7466
100
AcDbSymbolTableRecord
100
AcDbBlockTableRecord
  2
*D10
340
0
  0
BLOCK_RECORD
  5
18C30
330
7466
100
AcDbSymbolTableRecord
100
AcDbBlockTableRecord
  2
*D11
340
0
  0
BLOCK_RECORD
  5
18C3C
330
7466
100
AcDbSymbolTableRecord
100
AcDbBlockTableRecord
  2
*D12
340
0
  0
BLOCK_RECORD
  5
18C48
330
7466
100
AcDbSymbolTableRecord
100
AcDbBlockTableRecord
  2
*D13
340
0
  0
BLOCK_RECORD
  5
18C54
330
7466
100
AcDbSymbolTableRecord
100
AcDbBlockTableRecord
  2
*D14
340
0
  0
BLOCK_RECORD
  5
18C60
330
7466
100
AcDbSymbolTableRecord
100
AcDbBlockTableRecord
  2
*D15
340
0
  0
BLOCK_RECORD
  5
18C6C
330
7466
100
AcDbSymbolTableRecord
100
AcDbBlockTableRecord
  2
*D16
340
0
  0
BLOCK_RECORD
  5
18C7A
330
7466
100
AcDbSymbolTableRecord
100
AcDbBlockTableRecord
  2
A$C3B1A506B
340
0
  0
BLOCK_RECORD
  5
1C4CA
330
7466
100
AcDbSymbolTableRecord
100
AcDbBlockTableRecord
  2
_NONE
340
0
  0
BLOCK_RECORD
  5
1FC7E
330
7466
100
AcDbSymbolTableRecord
100
AcDbBlockTableRecord
  2
*D19
340
0
  0
BLOCK_RECORD
  5
1FC89
330
7466
100
AcDbSymbolTableRecord
100
AcDbBlockTableRecord
  2
*D20
340
0
  0
BLOCK_RECORD
  5
1FC94
330
7466
100
AcDbSymbolTableRecord
100
AcDbBlockTableRecord
  2
*D21
340
0
  0
BLOCK_RECORD
  5
1FC9F
330
7466
100
AcDbSymbolTableRecord
100
AcDbBlockTableRecord
  2
*D22
340
0
  0
BLOCK_RECORD
  5
1FCFB
330
7466
100
AcDbSymbolTableRecord
100
AcDbBlockTableRecord
  2
*D23
340
0
  0
BLOCK_RECORD
  5
1FD10
330
7466
100
AcDbSymbolTableRecord
100
AcDbBlockTableRecord
  2
*D24
340
0
  0
BLOCK_RECORD
  5
1FD1D
330
7466
100
AcDbSymbolTableRecord
100
AcDbBlockTableRecord
  2
*D25
340
0
  0
BLOCK_RECORD
  5
1FD2A
330
7466
100
AcDbSymbolTableRecord
100
AcDbBlockTableRecord
  2
*D26
340
0
  0
BLOCK_RECORD
  5
1FD36
330
7466
100
AcDbSymbolTableRecord
100
AcDbBlockTableRecord
  2
*D27
340
0
  0
BLOCK_RECORD
  5
1FD7F
330
7466
100
AcDbSymbolTableRecord
100
AcDbBlockTableRecord
  2
*D28
340
0
  0
BLOCK_RECORD
  5
1FD96
330
7466
100
AcDbSymbolTableRecord
100
AcDbBlockTableRecord
  2
*D29
340
0
  0
BLOCK_RECORD
  5
1FDE9
330
7466
100
AcDbSymbolTableRecord
100
AcDbBlockTableRecord
  2
*D30
340
0
  0
BLOCK_RECORD
  5
1FDF5
330
7466
100
AcDbSymbolTableRecord
100
AcDbBlockTableRecord
  2
*D31
340
0
  0
BLOCK_RECORD
  5
1FE17
330
7466
100
AcDbSymbolTableRecord
100
AcDbBlockTableRecord
  2
*D32
340
0
  0
BLOCK_RECORD
  5
1FE31
330
7466
100
AcDbSymbolTableRecord
100
AcDbBlockTableRecord
  2
*D33
340
0
  0
BLOCK_RECORD
  5
2033A
330
7466
100
AcDbSymbolTableRecord
100
AcDbBlockTableRecord
  2
*D34
340
0
  0
BLOCK_RECORD
  5
203C4
330
7466
100
AcDbSymbolTableRecord
100
AcDbBlockTableRecord
  2
*D35
340
0
  0
BLOCK_RECORD
  5
203DF
330
7466
100
AcDbSymbolTableRecord
100
AcDbBlockTableRecord
  2
*D36
340
0
  0
BLOCK_RECORD
  5
20407
330
7466
100
AcDbSymbolTableRecord
100
AcDbBlockTableRecord
  2
*D37
340
0
  0
BLOCK_RECORD
  5
22824
330
7466
100
AcDbSymbolTableRecord
100
AcDbBlockTableRecord
  2
*D38
340
0
  0
BLOCK_RECORD
  5
22830
330
7466
100
AcDbSymbolTableRecord
100
AcDbBlockTableRecord
  2
*D39
340
0
  0
BLOCK_RECORD
  5
22861
330
7466
100
AcDbSymbolTableRecord
100
AcDbBlockTableRecord
  2
*D40
340
0
  0
BLOCK_RECORD
  5
2286E
330
7466
100
AcDbSymbolTableRecord
100
AcDbBlockTableRecord
  2
*D41
340
0
  0
BLOCK_RECORD
  5
228AC
330
7466
100
AcDbSymbolTableRecord
100
AcDbBlockTableRecord
  2
*D42
340
0
  0
BLOCK_RECORD
  5
228CB
330
7466
100
AcDbSymbolTableRecord
100
AcDbBlockTableRecord
  2
*D43
340
0
  0
BLOCK_RECORD
  5
228D9
330
7466
100
AcDbSymbolTableRecord
100
AcDbBlockTableRecord
  2
*D44
340
0
  0
BLOCK_RECORD
  5
235D1
330
7466
100
AcDbSymbolTableRecord
100
AcDbBlockTableRecord
  2
*D45
340
0
  0
BLOCK_RECORD
  5
24AC6
330
7466
100
AcDbSymbolTableRecord
100
AcDbBlockTableRecord
  2
*D46
340
0
  0
BLOCK_RECORD
  5
24AD2
330
7466
100
AcDbSymbolTableRecord
100
AcDbBlockTableRecord
  2
*D47
340
0
  0
BLOCK_RECORD
  5
24AE3
330
7466
100
AcDbSymbolTableRecord
100
AcDbBlockTableRecord
  2
*D48
340
0
  0
BLOCK_RECORD
  5
24AEF
330
7466
100
AcDbSymbolTableRecord
100
AcDbBlockTableRecord
  2
*D49
340
0
  0
BLOCK_RECORD
  5
24AFB
330
7466
100
AcDbSymbolTableRecord
100
AcDbBlockTableRecord
  2
*D50
340
0
  0
BLOCK_RECORD
  5
24B07
330
7466
100
AcDbSymbolTableRecord
100
AcDbBlockTableRecord
  2
*D51
340
0
  0
BLOCK_RECORD
  5
24B65
330
7466
100
AcDbSymbolTableRecord
100
AcDbBlockTableRecord
  2
*D52
340
0
  0
ENDTAB
  0
ENDSEC
  0
SECTION
  2
BLOCKS
  0
BLOCK
  5
7489
330
747D
100
AcDbEntity
  8
0
100
AcDbBlockBegin
  2
*MODEL_SPACE
 70
     0
 10
0.0
 20
0.0
 30
0.0
  3
*MODEL_SPACE
  1

  0
ENDBLK
  5
748A
330
747D
100
AcDbEntity
  8
0
100
AcDbBlockEnd
  0
BLOCK
  5
7487
330
747A
100
AcDbEntity
 67
     1
  8
0
100
AcDbBlockBegin
  2
*PAPER_SPACE
 70
     0
 10
0.0
 20
0.0
 30
0.0
  3
*PAPER_SPACE
  1

  0
ENDBLK
  5
7488
330
747A
100
AcDbEntity
 67
     1
  8
0
100
AcDbBlockEnd
  0
BLOCK
  5
DEAD
330
DEAC
100
AcDbEntity
  8
0
100
AcDbBlockBegin
  2
_OPEN
 70
     0
 10
0.0
 20
0.0
 30
0.0
  3
_OPEN
  1

  0
LINE
  5
DEAE
330
DEAC
100
AcDbEntity
  8
0
  6
ByBlock
 62
     0
100
AcDbLine
 10
-1.0
 20
0.1666666666666666
 30
0.0
 11
0.0
 21
0.0
 31
0.0
  0
LINE
  5
DEAF
330
DEAC
100
AcDbEntity
  8
0
  6
ByBlock
 62
     0
100
AcDbLine
 10
0.0
 20
0.0
 30
0.0
 11
-1.0
 21
-0.1666666666666666
 31
0.0
  0
LINE
  5
DEB0
330
DEAC
100
AcDbEntity
  8
0
  6
ByBlock
 62
     0
100
AcDbLine
 10
0.0
 20
0.0
 30
0.0
 11
-1.0
 21
0.0
 31
0.0
  0
ENDBLK
  5
DEB1
330
DEAC
100
AcDbEntity
  8
0
100
AcDbBlockEnd
  0
BLOCK
  5
F771
330
F770
100
AcDbEntity
  8
0
 48
50.0
100
AcDbBlockBegin
  2
_DOTSMALL
 70
     0
 10
0.0
 20
0.0
 30
0.0
  3
_DOTSMALL
  1

  0
LWPOLYLINE
  5
F772
330
F770
100
AcDbEntity
  8
0
  6
ByBlock
 62
     0
 48
50.0
100
AcDbPolyline
 90
        2
 70
     1
 43
0.5
 10
-0.0625
 20
0.0
 42
1.0
 10
0.0625
 20
0.0
 42
1.0
  0
ENDBLK
  5
F776
330
F770
100
AcDbEntity
  8
0
 48
50.0
100
AcDbBlockEnd
  0
BLOCK
  5
164BA
330
164B4
100
AcDbEntity
  8
0
 48
50.0
100
AcDbBlockBegin
  2
_DOT
 70
     0
 10
0.0
 20
0.0
 30
0.0
  3
_DOT
  1

  0
LWPOLYLINE
  5
164B5
330
164B4
100
AcDbEntity
  8
0
  6
ByBlock
 62
     0
 48
50.0
100
AcDbPolyline
 90
        2
 70
     1
 43
0.5
 10
-0.25
 20
0.0
 42
1.0
 10
0.25
 20
0.0
 42
1.0
  0
LINE
  5
164B9
330
164B4
100
AcDbEntity
  8
0
  6
ByBlock
 62
     0
 48
50.0
100
AcDbLine
 10
-0.5
 20
0.0
 30
0.0
 11
-1.0
 21
0.0
 31
0.0
  0
ENDBLK
  5
164BB
330
164B4
100
AcDbEntity
  8
0
 48
50.0
100
AcDbBlockEnd
  0
BLOCK
  5
18BC9
330
18BC8
100
AcDbEntity
  8
0
 48
50.0
100
AcDbBlockBegin
  2
*D3
 70
     1
 10
0.0
 20
0.0
 30
0.0
  3
*D3
  1

  0
LINE
  5
18BCA
330
18BC8
100
AcDbEntity
  8
寸法
 62
     0
 48
50.0
370
    -2
100
AcDbLine
 10
7649.896575106999
 20
9636.123139034717
 30
0.0
 11
8702.429862581047
 21
9636.123139034717
 31
0.0
  0
LINE
  5
18BCB
330
18BC8
100
AcDbEntity
  8
寸法
 62
     0
 48
50.0
370
    -2
100
AcDbLine
 10
7649.896575106973
 20
7846.123139034709
 30
0.0
 11
8702.429862581047
 21
7846.123139034709
 31
0.0
  0
LINE
  5
18BCC
330
18BC8
100
AcDbEntity
  8
寸法
 62
     0
 48
50.0
370
    -2
100
AcDbLine
 10
8642.429862581046
 20
9636.123139034717
 30
0.0
 11
8642.429862581046
 21
7846.123139034709
 31
0.0
  0
INSERT
  5
18BCD
330
18BC8
100
AcDbEntity
  8
寸法
 62
     0
 48
50.0
370
    -2
100
AcDbBlockReference
  2
_DOTSMALL
 10
8642.429862581046
 20
9636.123139034717
 30
0.0
 41
100.0
 42
100.0
 43
100.0
 50
90.0
  0
INSERT
  5
18BCE
330
18BC8
100
AcDbEntity
  8
寸法
 62
     0
 48
50.0
370
    -2
100
AcDbBlockReference
  2
_DOTSMALL
 10
8642.429862581046
 20
7846.123139034709
 30
0.0
 41
100.0
 42
100.0
 43
100.0
 50
270.0
  0
MTEXT
  5
18BCF
330
18BC8
100
AcDbEntity
  8
寸法
 62
     7
 48
50.0
100
AcDbMText
 10
8542.429862581045
 20
8741.123139034712
 30
0.0
 40
120.0
 41
0.0
 71
     5
 72
     1
  1
\A1;1790
  7
STYLE1
 11
0.0000000000000001
 21
1.0
 31
0.0
 73
     1
 44
1.0
1001
ACAD
1000
MTEXTBEGIN
1070
    73
1070
     1
1070
    44
1040
1.0
1070
    74
1070
     0
1000
MTEXTEND
  0
POINT
  5
18BD0
330
18BC8
100
AcDbEntity
  8
DEFPOINTS
 62
     0
 48
50.0
100
AcDbPoint
 10
7629.896575106998
 20
9636.123139034717
 30
0.0
  0
POINT
  5
18BD1
330
18BC8
100
AcDbEntity
  8
DEFPOINTS
 62
     0
 48
50.0
100
AcDbPoint
 10
7629.896575106974
 20
7846.123139034709
 30
0.0
  0
POINT
  5
18BD2
330
18BC8
100
AcDbEntity
  8
DEFPOINTS
 62
     0
 48
50.0
100
AcDbPoint
 10
8642.429862581046
 20
7846.123139034709
 30
0.0
  0
ENDBLK
  5
18BD3
330
18BC8
100
AcDbEntity
  8
0
 48
50.0
100
AcDbBlockEnd
  0
BLOCK
  5
18BD5
330
18BD4
100
AcDbEntity
  8
0
 48
50.0
100
AcDbBlockBegin
  2
*D4
 70
     1
 10
0.0
 20
0.0
 30
0.0
  3
*D4
  1

  0
LINE
  5
18BD6
330
18BD4
100
AcDbEntity
  8
寸法
 62
     0
 48
50.0
370
    -2
100
AcDbLine
 10
4214.896575106998
 20
9656.123139034622
 30
0.0
 11
4214.896575106998
 21
10211.93135865972
 31
0.0
  0
LINE
  5
18BD7
330
18BD4
100
AcDbEntity
  8
寸法
 62
     0
 48
50.0
370
    -2
100
AcDbLine
 10
7574.896575106999
 20
9656.123139034718
 30
0.0
 11
7574.896575106999
 21
10211.93135865972
 31
0.0
  0
LINE
  5
18BD8
330
18BD4
100
AcDbEntity
  8
寸法
 62
     0
 48
50.0
370
    -2
100
AcDbLine
 10
4214.896575106998
 20
10151.93135865972
 30
0.0
 11
7574.896575106999
 21
10151.93135865972
 31
0.0
  0
INSERT
  5
18BD9
330
18BD4
100
AcDbEntity
  8
寸法
 62
     0
 48
50.0
370
    -2
100
AcDbBlockReference
  2
_DOTSMALL
 10
4214.896575106998
 20
10151.93135865972
 30
0.0
 41
100.0
 42
100.0
 43
100.0
 50
180.0
  0
INSERT
  5
18BDA
330
18BD4
100
AcDbEntity
  8
寸法
 62
     0
 48
50.0
370
    -2
100
AcDbBlockReference
  2
_DOTSMALL
 10
7574.896575106999
 20
10151.93135865972
 30
0.0
 41
100.0
 42
100.0
 43
100.0
  0
MTEXT
  5
18BDB
330
18BD4
100
AcDbEntity
  8
寸法
 62
     7
 48
50.0
100
AcDbMText
 10
5894.896575106997
 20
10251.94316968334
 30
0.0
 40
120.0
 41
0.0
 71
     5
 72
     1
  1
\A1;8X420=3360
  7
STYLE1
 73
     1
 44
1.0
1001
ACAD
1000
MTEXTBEGIN
1070
    73
1070
     1
1070
    44
1040
1.0
1070
    74
1070
     0
1000
MTEXTEND
  0
POINT
  5
18BDC
330
18BD4
100
AcDbEntity
  8
DEFPOINTS
 62
     0
 48
50.0
100
AcDbPoint
 10
4214.896575106998
 20
9636.123139034623
 30
0.0
  0
POINT
  5
18BDD
330
18BD4
100
AcDbEntity
  8
DEFPOINTS
 62
     0
 48
50.0
100
AcDbPoint
 10
7574.896575106999
 20
9636.123139034717
 30
0.0
  0
POINT
  5
18BDE
330
18BD4
100
AcDbEntity
  8
DEFPOINTS
 62
     0
 48
50.0
100
AcDbPoint
 10
7574.896575106999
 20
10151.93135865972
 30
0.0
  0
ENDBLK
  5
18BDF
330
18BD4
100
AcDbEntity
  8
0
 48
50.0
100
AcDbBlockEnd
  0
BLOCK
  5
18BE1
330
18BE0
100
AcDbEntity
  8
0
 48
50.0
100
AcDbBlockBegin
  2
*D5
 70
     1
 10
0.0
 20
0.0
 30
0.0
  3
*D5
  1

  0
LINE
  5
18BE2
330
18BE0
100
AcDbEntity
  8
寸法
 62
     0
 48
50.0
370
    -2
100
AcDbLine
 10
7574.896575106999
 20
9656.123139034718
 30
0.0
 11
7574.896575106999
 21
10211.9313586597
 31
0.0
  0
LINE
  5
18BE3
330
18BE0
100
AcDbEntity
  8
寸法
 62
     0
 48
50.0
370
    -2
100
AcDbLine
 10
7629.896575106998
 20
9656.123139034718
 30
0.0
 11
7629.896575106998
 21
10211.9313586597
 31
0.0
  0
LINE
  5
18BE4
330
18BE0
100
AcDbEntity
  8
寸法
 62
     0
 48
50.0
370
    -2
100
AcDbLine
 10
7574.896575106999
 20
10151.9313586597
 30
0.0
 11
7474.896575106999
 21
10151.9313586597
 31
0.0
  0
LINE
  5
18BE5
330
18BE0
100
AcDbEntity
  8
寸法
 62
     0
 48
50.0
370
    -2
100
AcDbLine
 10
7629.896575106998
 20
10151.9313586597
 30
0.0
 11
8046.867137855477
 21
10151.9313586597
 31
0.0
  0
LINE
  5
18BE6
330
18BE0
100
AcDbEntity
  8
寸法
 62
     0
 48
50.0
370
    -2
100
AcDbLine
 10
7574.896575106999
 20
10151.9313586597
 30
0.0
 11
7629.896575106998
 21
10151.9313586597
 31
0.0
  0
INSERT
  5
18BE7
330
18BE0
100
AcDbEntity
  8
寸法
 62
     0
 48
50.0
370
    -2
100
AcDbBlockReference
  2
_DOTSMALL
 10
7574.896575106999
 20
10151.9313586597
 30
0.0
 41
100.0
 42
100.0
 43
100.0
  0
INSERT
  5
18BE8
330
18BE0
100
AcDbEntity
  8
寸法
 62
     0
 48
50.0
370
    -2
100
AcDbBlockReference
  2
_DOTSMALL
 10
7629.896575106998
 20
10151.9313586597
 30
0.0
 41
100.0
 42
100.0
 43
100.0
 50
180.0
  0
MTEXT
  5
18BE9
330
18BE0
100
AcDbEntity
  8
寸法
 62
     7
 48
50.0
100
AcDbMText
 10
7938.381856481237
 20
10251.9313586597
 30
0.0
 40
120.0
 41
0.0
 71
     5
 72
     1
  1
\A1;55
  7
STYLE1
 73
     1
 44
1.0
1001
ACAD
1000
MTEXTBEGIN
1070
    73
1070
     1
1070
    44
1040
1.0
1070
    74
1070
     0
1000
MTEXTEND
  0
POINT
  5
18BEA
330
18BE0
100
AcDbEntity
  8
DEFPOINTS
 62
     0
 48
50.0
100
AcDbPoint
 10
7574.896575106999
 20
9636.123139034717
 30
0.0
  0
POINT
  5
18BEB
330
18BE0
100
AcDbEntity
  8
DEFPOINTS
 62
     0
 48
50.0
100
AcDbPoint
 10
7629.896575106998
 20
9636.123139034717
 30
0.0
  0
POINT
  5
18BEC
330
18BE0
100
AcDbEntity
  8
DEFPOINTS
 62
     0
 48
50.0
100
AcDbPoint
 10
7629.896575106998
 20
10151.9313586597
 30
0.0
  0
ENDBLK
  5
18BED
330
18BE0
100
AcDbEntity
  8
0
 48
50.0
100
AcDbBlockEnd
  0
BLOCK
  5
18BEF
330
18BEE
100
AcDbEntity
  8
0
 48
50.0
100
AcDbBlockBegin
  2
*D6
 70
     1
 10
0.0
 20
0.0
 30
0.0
  3
*D6
  1

  0
LINE
  5
18BF0
330
18BEE
100
AcDbEntity
  8
寸法
 62
     0
 48
50.0
370
    -2
100
AcDbLine
 10
7649.896575106999
 20
9636.123139034717
 30
0.0
 11
8337.32292084141
 21
9636.123139034717
 31
0.0
  0
LINE
  5
18BF1
330
18BEE
100
AcDbEntity
  8
寸法
 62
     0
 48
50.0
370
    -2
100
AcDbLine
 10
7649.896575106999
 20
9581.123139034721
 30
0.0
 11
8337.32292084141
 21
9581.123139034721
 31
0.0
  0
LINE
  5
18BF2
330
18BEE
100
AcDbEntity
  8
寸法
 62
     0
 48
50.0
370
    -2
100
AcDbLine
 10
8277.322920841411
 20
9581.123139034721
 30
0.0
 11
8277.322920841411
 21
9481.123139034719
 31
0.0
  0
LINE
  5
18BF3
330
18BEE
100
AcDbEntity
  8
寸法
 62
     0
 48
50.0
370
    -2
100
AcDbLine
 10
8277.322920841411
 20
9636.123139034717
 30
0.0
 11
8277.322920841411
 21
10053.09370178319
 31
0.0
  0
LINE
  5
18BF4
330
18BEE
100
AcDbEntity
  8
寸法
 62
     0
 48
50.0
370
    -2
100
AcDbLine
 10
8277.322920841411
 20
9581.123139034721
 30
0.0
 11
8277.322920841411
 21
9636.123139034717
 31
0.0
  0
INSERT
  5
18BF5
330
18BEE
100
AcDbEntity
  8
寸法
 62
     0
 48
50.0
370
    -2
100
AcDbBlockReference
  2
_DOTSMALL
 10
8277.322920841411
 20
9581.123139034721
 30
0.0
 41
100.0
 42
100.0
 43
100.0
 50
90.0
  0
INSERT
  5
18BF6
330
18BEE
100
AcDbEntity
  8
寸法
 62
     0
 48
50.0
370
    -2
100
AcDbBlockReference
  2
_DOTSMALL
 10
8277.322920841411
 20
9636.123139034717
 30
0.0
 41
100.0
 42
100.0
 43
100.0
 50
270.0
  0
MTEXT
  5
18BF7
330
18BEE
100
AcDbEntity
  8
寸法
 62
     7
 48
50.0
100
AcDbMText
 10
8177.32292084141
 20
9944.608420408957
 30
0.0
 40
120.0
 41
0.0
 71
     5
 72
     1
  1
\A1;55
  7
STYLE1
 11
0.0000000000000001
 21
1.0
 31
0.0
 73
     1
 44
1.0
1001
ACAD
1000
MTEXTBEGIN
1070
    73
1070
     1
1070
    44
1040
1.0
1070
    74
1070
     0
1000
MTEXTEND
  0
POINT
  5
18BF8
330
18BEE
100
AcDbEntity
  8
DEFPOINTS
 62
     0
 48
50.0
100
AcDbPoint
 10
7629.896575106998
 20
9636.123139034717
 30
0.0
  0
POINT
  5
18BF9
330
18BEE
100
AcDbEntity
  8
DEFPOINTS
 62
     0
 48
50.0
100
AcDbPoint
 10
7629.896575106998
 20
9581.123139034721
 30
0.0
  0
POINT
  5
18BFA
330
18BEE
100
AcDbEntity
  8
DEFPOINTS
 62
     0
 48
50.0
100
AcDbPoint
 10
8277.322920841411
 20
9581.123139034721
 30
0.0
  0
ENDBLK
  5
18BFB
330
18BEE
100
AcDbEntity
  8
0
 48
50.0
100
AcDbBlockEnd
  0
BLOCK
  5
18BFD
330
18BFC
100
AcDbEntity
  8
0
 48
50.0
100
AcDbBlockBegin
  2
*D7
 70
     1
 10
0.0
 20
0.0
 30
0.0
  3
*D7
  1

  0
LINE
  5
18BFE
330
18BFC
100
AcDbEntity
  8
寸法
 62
     0
 48
50.0
370
    -2
100
AcDbLine
 10
4159.896575106963
 20
9656.123139034622
 30
0.0
 11
4159.896575106963
 21
10211.9313586596
 31
0.0
  0
LINE
  5
18BFF
330
18BFC
100
AcDbEntity
  8
寸法
 62
     0
 48
50.0
370
    -2
100
AcDbLine
 10
4214.896575106998
 20
9656.123139034622
 30
0.0
 11
4214.896575106998
 21
10211.9313586596
 31
0.0
  0
LINE
  5
18C00
330
18BFC
100
AcDbEntity
  8
寸法
 62
     0
 48
50.0
370
    -2
100
AcDbLine
 10
4214.896575106998
 20
10151.9313586596
 30
0.0
 11
4314.896575106998
 21
10151.9313586596
 31
0.0
  0
LINE
  5
18C01
330
18BFC
100
AcDbEntity
  8
寸法
 62
     0
 48
50.0
370
    -2
100
AcDbLine
 10
4159.896575106963
 20
10151.9313586596
 30
0.0
 11
3742.926012358486
 21
10151.9313586596
 31
0.0
  0
LINE
  5
18C02
330
18BFC
100
AcDbEntity
  8
寸法
 62
     0
 48
50.0
370
    -2
100
AcDbLine
 10
4214.896575106998
 20
10151.9313586596
 30
0.0
 11
4159.896575106963
 21
10151.9313586596
 31
0.0
  0
INSERT
  5
18C03
330
18BFC
100
AcDbEntity
  8
寸法
 62
     0
 48
50.0
370
    -2
100
AcDbBlockReference
  2
_DOTSMALL
 10
4214.896575106998
 20
10151.9313586596
 30
0.0
 41
100.0
 42
100.0
 43
100.0
 50
180.0
  0
INSERT
  5
18C04
330
18BFC
100
AcDbEntity
  8
寸法
 62
     0
 48
50.0
370
    -2
100
AcDbBlockReference
  2
_DOTSMALL
 10
4159.896575106963
 20
10151.9313586596
 30
0.0
 41
100.0
 42
100.0
 43
100.0
  0
MTEXT
  5
18C05
330
18BFC
100
AcDbEntity
  8
寸法
 62
     7
 48
50.0
100
AcDbMText
 10
3851.411293732725
 20
10251.9313586596
 30
0.0
 40
120.0
 41
0.0
 71
     5
 72
     1
  1
\A1;55
  7
STYLE1
 73
     1
 44
1.0
1001
ACAD
1000
MTEXTBEGIN
1070
    73
1070
     1
1070
    44
1040
1.0
1070
    74
1070
     0
1000
MTEXTEND
  0
POINT
  5
18C06
330
18BFC
100
AcDbEntity
  8
DEFPOINTS
 62
     0
 48
50.0
100
AcDbPoint
 10
4159.896575106963
 20
9636.123139034623
 30
0.0
  0
POINT
  5
18C07
330
18BFC
100
AcDbEntity
  8
DEFPOINTS
 62
     0
 48
50.0
100
AcDbPoint
 10
4214.896575106998
 20
9636.123139034623
 30
0.0
  0
POINT
  5
18C08
330
18BFC
100
AcDbEntity
  8
DEFPOINTS
 62
     0
 48
50.0
100
AcDbPoint
 10
4214.896575106998
 20
10151.9313586596
 30
0.0
  0
ENDBLK
  5
18C09
330
18BFC
100
AcDbEntity
  8
0
 48
50.0
100
AcDbBlockEnd
  0
BLOCK
  5
18C0B
330
18C0A
100
AcDbEntity
  8
0
 48
50.0
100
AcDbBlockBegin
  2
*D8
 70
     1
 10
0.0
 20
0.0
 30
0.0
  3
*D8
  1

  0
LINE
  5
18C0C
330
18C0A
100
AcDbEntity
  8
寸法
 62
     0
 48
50.0
370
    -2
100
AcDbLine
 10
4159.896575106992
 20
7826.123139034546
 30
0.0
 11
4159.896575106992
 21
6804.372203245664
 31
0.0
  0
LINE
  5
18C0D
330
18C0A
100
AcDbEntity
  8
寸法
 62
     0
 48
50.0
370
    -2
100
AcDbLine
 10
7629.896575106974
 20
7826.123139034674
 30
0.0
 11
7629.896575106974
 21
6804.372203245664
 31
0.0
  0
LINE
  5
18C0E
330
18C0A
100
AcDbEntity
  8
寸法
 62
     0
 48
50.0
370
    -2
100
AcDbLine
 10
4159.896575106992
 20
6864.372203245665
 30
0.0
 11
7629.896575106974
 21
6864.372203245665
 31
0.0
  0
INSERT
  5
18C0F
330
18C0A
100
AcDbEntity
  8
寸法
 62
     0
 48
50.0
370
    -2
100
AcDbBlockReference
  2
_DOTSMALL
 10
4159.896575106992
 20
6864.372203245665
 30
0.0
 41
100.0
 42
100.0
 43
100.0
 50
180.0
  0
INSERT
  5
18C10
330
18C0A
100
AcDbEntity
  8
寸法
 62
     0
 48
50.0
370
    -2
100
AcDbBlockReference
  2
_DOTSMALL
 10
7629.896575106974
 20
6864.372203245665
 30
0.0
 41
100.0
 42
100.0
 43
100.0
  0
MTEXT
  5
18C11
330
18C0A
100
AcDbEntity
  8
寸法
 62
     7
 48
50.0
100
AcDbMText
 10
5911.12376113973
 20
6964.372203245665
 30
0.0
 40
120.0
 41
0.0
 71
     5
 72
     1
  1
\A1;3470
  7
STYLE1
 73
     1
 44
1.0
1001
ACAD
1000
MTEXTBEGIN
1070
    73
1070
     1
1070
    44
1040
1.0
1070
    74
1070
     0
1000
MTEXTEND
  0
POINT
  5
18C12
330
18C0A
100
AcDbEntity
  8
DEFPOINTS
 62
     0
 48
50.0
100
AcDbPoint
 10
4159.896575106992
 20
7846.123139034546
 30
0.0
  0
POINT
  5
18C13
330
18C0A
100
AcDbEntity
  8
DEFPOINTS
 62
     0
 48
50.0
100
AcDbPoint
 10
7629.896575106974
 20
7846.123139034673
 30
0.0
  0
POINT
  5
18C14
330
18C0A
100
AcDbEntity
  8
DEFPOINTS
 62
     0
 48
50.0
100
AcDbPoint
 10
7629.896575106974
 20
6864.372203245665
 30
0.0
  0
ENDBLK
  5
18C15
330
18C0A
100
AcDbEntity
  8
0
 48
50.0
100
AcDbBlockEnd
  0
BLOCK
  5
18C17
330
18C16
100
AcDbEntity
  8
0
 48
50.0
100
AcDbBlockBegin
  2
*D9
 70
     1
 10
0.0
 20
0.0
 30
0.0
  3
*D9
  1

  0
LINE
  5
18C18
330
18C16
100
AcDbEntity
  8
寸法
 62
     0
 48
50.0
370
    -2
100
AcDbLine
 10
7649.896575106973
 20
7901.123139034706
 30
0.0
 11
8337.322920841385
 21
7901.123139034706
 31
0.0
  0
LINE
  5
18C19
330
18C16
100
AcDbEntity
  8
寸法
 62
     0
 48
50.0
370
    -2
100
AcDbLine
 10
7649.896575106973
 20
7846.123139034709
 30
0.0
 11
8337.322920841385
 21
7846.123139034709
 31
0.0
  0
LINE
  5
18C1A
330
18C16
100
AcDbEntity
  8
寸法
 62
     0
 48
50.0
370
    -2
100
AcDbLine
 10
8277.322920841385
 20
7901.123139034706
 30
0.0
 11
8277.322920841385
 21
8001.123139034707
 31
0.0
  0
LINE
  5
18C1B
330
18C16
100
AcDbEntity
  8
寸法
 62
     0
 48
50.0
370
    -2
100
AcDbLine
 10
8277.322920841385
 20
7846.123139034709
 30
0.0
 11
8277.322920841385
 21
7429.152576286229
 31
0.0
  0
LINE
  5
18C1C
330
18C16
100
AcDbEntity
  8
寸法
 62
     0
 48
50.0
370
    -2
100
AcDbLine
 10
8277.322920841385
 20
7901.123139034706
 30
0.0
 11
8277.322920841385
 21
7846.123139034709
 31
0.0
  0
INSERT
  5
18C1D
330
18C16
100
AcDbEntity
  8
寸法
 62
     0
 48
50.0
370
    -2
100
AcDbBlockReference
  2
_DOTSMALL
 10
8277.322920841385
 20
7901.123139034706
 30
0.0
 41
100.0
 42
100.0
 43
100.0
 50
270.0
  0
INSERT
  5
18C1E
330
18C16
100
AcDbEntity
  8
寸法
 62
     0
 48
50.0
370
    -2
100
AcDbBlockReference
  2
_DOTSMALL
 10
8277.322920841385
 20
7846.123139034709
 30
0.0
 41
100.0
 42
100.0
 43
100.0
 50
90.0
  0
MTEXT
  5
18C1F
330
18C16
100
AcDbEntity
  8
寸法
 62
     7
 48
50.0
100
AcDbMText
 10
8177.322920841383
 20
7537.637857660469
 30
0.0
 40
120.0
 41
0.0
 71
     5
 72
     1
  1
\A1;55
  7
STYLE1
 11
0.0000000000000001
 21
1.0
 31
0.0
 73
     1
 44
1.0
1001
ACAD
1000
MTEXTBEGIN
1070
    73
1070
     1
1070
    44
1040
1.0
1070
    74
1070
     0
1000
MTEXTEND
  0
POINT
  5
18C20
330
18C16
100
AcDbEntity
  8
DEFPOINTS
 62
     0
 48
50.0
100
AcDbPoint
 10
7629.896575106974
 20
7901.123139034706
 30
0.0
  0
POINT
  5
18C21
330
18C16
100
AcDbEntity
  8
DEFPOINTS
 62
     0
 48
50.0
100
AcDbPoint
 10
7629.896575106974
 20
7846.123139034709
 30
0.0
  0
POINT
  5
18C22
330
18C16
100
AcDbEntity
  8
DEFPOINTS
 62
     0
 48
50.0
100
AcDbPoint
 10
8277.322920841385
 20
7846.123139034709
 30
0.0
  0
ENDBLK
  5
18C23
330
18C16
100
AcDbEntity
  8
0
 48
50.0
100
AcDbBlockEnd
  0
BLOCK
  5
18C25
330
18C24
100
AcDbEntity
  8
0
 48
50.0
100
AcDbBlockBegin
  2
*D10
 70
     1
 10
0.0
 20
0.0
 30
0.0
  3
*D10
  1

  0
LINE
  5
18C26
330
18C24
100
AcDbEntity
  8
寸法
 62
     0
 48
50.0
370
    -2
100
AcDbLine
 10
6533.037591258376
 20
9136.123139034728
 30
0.0
 11
6465.083950562664
 21
8882.516699399049
 31
0.0
  0
LINE
  5
18C27
330
18C24
100
AcDbEntity
  8
寸法
 62
     0
 48
50.0
370
    -2
100
AcDbLine
 10
7596.037591258388
 20
9136.123139034721
 30
0.0
 11
7528.083950562677
 21
8882.516699399049
 31
0.0
  0
LINE
  5
18C28
330
18C24
100
AcDbEntity
  8
寸法
 62
     0
 48
50.0
370
    -2
100
AcDbLine
 10
6481.160902108531
 20
8942.51669939905
 30
0.0
 11
7544.160902108544
 21
8942.51669939905
 31
0.0
  0
INSERT
  5
18C29
330
18C24
100
AcDbEntity
  8
寸法
 62
     0
 48
50.0
370
    -2
100
AcDbBlockReference
  2
_DOTSMALL
 10
6481.160902108531
 20
8942.51669939905
 30
0.0
 41
100.0
 42
100.0
 43
100.0
 50
180.0
  0
INSERT
  5
18C2A
330
18C24
100
AcDbEntity
  8
寸法
 62
     0
 48
50.0
370
    -2
100
AcDbBlockReference
  2
_DOTSMALL
 10
7544.160902108544
 20
8942.51669939905
 30
0.0
 41
100.0
 42
100.0
 43
100.0
  0
MTEXT
  5
18C2B
330
18C24
100
AcDbEntity
  8
寸法
 62
     7
 48
50.0
100
AcDbMText
 10
7061.28653022935
 20
9042.516699399049
 30
0.0
 40
120.0
 41
0.0
 71
     5
 72
     1
  1
\A1;1063
  7
STYLE1
 73
     1
 44
1.0
1001
ACAD
1000
MTEXTBEGIN
1070
    73
1070
     1
1070
    44
1040
1.0
1070
    74
1070
     0
1000
MTEXTEND
  0
POINT
  5
18C2C
330
18C24
100
AcDbEntity
  8
DEFPOINTS
 62
     0
 48
50.0
100
AcDbPoint
 10
6538.396575106998
 20
9156.123139034727
 30
0.0
  0
POINT
  5
18C2D
330
18C24
100
AcDbEntity
  8
DEFPOINTS
 62
     0
 48
50.0
100
AcDbPoint
 10
7601.39657510701
 20
9156.12313903472
 30
0.0
  0
POINT
  5
18C2E
330
18C24
100
AcDbEntity
  8
DEFPOINTS
 62
     0
 48
50.0
100
AcDbPoint
 10
7544.160902108544
 20
8942.51669939905
 30
0.0
  0
ENDBLK
  5
18C2F
330
18C24
100
AcDbEntity
  8
0
 48
50.0
100
AcDbBlockEnd
  0
BLOCK
  5
18C31
330
18C30
100
AcDbEntity
  8
0
 48
50.0
100
AcDbBlockBegin
  2
*D11
 70
     1
 10
0.0
 20
0.0
 30
0.0
  3
*D11
  1

  0
LINE
  5
18C32
330
18C30
100
AcDbEntity
  8
寸法
 62
     0
 48
50.0
370
    -2
100
AcDbLine
 10
7621.396575106999
 20
9600.764155186094
 30
0.0
 11
8016.754300969024
 21
9494.828371819961
 31
0.0
  0
LINE
  5
18C33
330
18C30
100
AcDbEntity
  8
寸法
 62
     0
 48
50.0
370
    -2
100
AcDbLine
 10
7621.396575106999
 20
9150.764155186099
 30
0.0
 11
8016.754300969024
 21
9044.828371819964
 31
0.0
  0
LINE
  5
18C34
330
18C30
100
AcDbEntity
  8
寸法
 62
     0
 48
50.0
370
    -2
100
AcDbLine
 10
7956.754300969024
 20
9510.905323365827
 30
0.0
 11
7956.754300969024
 21
9060.90532336583
 31
0.0
  0
INSERT
  5
18C35
330
18C30
100
AcDbEntity
  8
寸法
 62
     0
 48
50.0
370
    -2
100
AcDbBlockReference
  2
_DOTSMALL
 10
7956.754300969024
 20
9510.905323365827
 30
0.0
 41
100.0
 42
100.0
 43
100.0
 50
90.0
  0
INSERT
  5
18C36
330
18C30
100
AcDbEntity
  8
寸法
 62
     0
 48
50.0
370
    -2
100
AcDbBlockReference
  2
_DOTSMALL
 10
7956.754300969024
 20
9060.90532336583
 30
0.0
 41
100.0
 42
100.0
 43
100.0
 50
270.0
  0
MTEXT
  5
18C37
330
18C30
100
AcDbEntity
  8
寸法
 62
     7
 48
50.0
100
AcDbMText
 10
7856.754300969022
 20
9285.905323365829
 30
0.0
 40
120.0
 41
0.0
 71
     5
 72
     1
  1
\A1;450
  7
STYLE1
 11
0.0000000000000001
 21
1.0
 31
0.0
 73
     1
 44
1.0
1001
ACAD
1000
MTEXTBEGIN
1070
    73
1070
     1
1070
    44
1040
1.0
1070
    74
1070
     0
1000
MTEXTEND
  0
POINT
  5
18C38
330
18C30
100
AcDbEntity
  8
DEFPOINTS
 62
     0
 48
50.0
100
AcDbPoint
 10
7601.396575106999
 20
9606.123139034718
 30
0.0
  0
POINT
  5
18C39
330
18C30
100
AcDbEntity
  8
DEFPOINTS
 62
     0
 48
50.0
100
AcDbPoint
 10
7601.396575106999
 20
9156.12313903472
 30
0.0
  0
POINT
  5
18C3A
330
18C30
100
AcDbEntity
  8
DEFPOINTS
 62
     0
 48
50.0
100
AcDbPoint
 10
7956.754300969024
 20
9060.90532336583
 30
0.0
  0
ENDBLK
  5
18C3B
330
18C30
100
AcDbEntity
  8
0
 48
50.0
100
AcDbBlockEnd
  0
BLOCK
  5
18C3D
330
18C3C
100
AcDbEntity
  8
0
 48
50.0
100
AcDbBlockBegin
  2
*D12
 70
     1
 10
0.0
 20
0.0
 30
0.0
  3
*D12
  1

  0
LINE
  5
18C3E
330
18C3C
100
AcDbEntity
  8
寸法
 62
     0
 48
50.0
370
    -2
100
AcDbLine
 10
7649.896575106999
 20
9581.123139034721
 30
0.0
 11
8337.32292084141
 21
9581.123139034721
 31
0.0
  0
LINE
  5
18C3F
330
18C3C
100
AcDbEntity
  8
寸法
 62
     0
 48
50.0
370
    -2
100
AcDbLine
 10
7649.896575106973
 20
7901.123139034706
 30
0.0
 11
8337.32292084141
 21
7901.123139034706
 31
0.0
  0
LINE
  5
18C40
330
18C3C
100
AcDbEntity
  8
寸法
 62
     0
 48
50.0
370
    -2
100
AcDbLine
 10
8277.322920841411
 20
9581.123139034721
 30
0.0
 11
8277.322920841411
 21
7901.123139034706
 31
0.0
  0
INSERT
  5
18C41
330
18C3C
100
AcDbEntity
  8
寸法
 62
     0
 48
50.0
370
    -2
100
AcDbBlockReference
  2
_DOTSMALL
 10
8277.322920841411
 20
9581.123139034721
 30
0.0
 41
100.0
 42
100.0
 43
100.0
 50
90.0
  0
INSERT
  5
18C42
330
18C3C
100
AcDbEntity
  8
寸法
 62
     0
 48
50.0
370
    -2
100
AcDbBlockReference
  2
_DOTSMALL
 10
8277.322920841411
 20
7901.123139034706
 30
0.0
 41
100.0
 42
100.0
 43
100.0
 50
270.0
  0
MTEXT
  5
18C43
330
18C3C
100
AcDbEntity
  8
寸法
 62
     7
 48
50.0
100
AcDbMText
 10
8177.311109817788
 20
8741.123139034712
 30
0.0
 40
120.0
 41
0.0
 71
     5
 72
     1
  1
\A1;4X420=1680
  7
STYLE1
 11
0.0000000000000001
 21
1.0
 31
0.0
 73
     1
 44
1.0
1001
ACAD
1000
MTEXTBEGIN
1070
    73
1070
     1
1070
    44
1040
1.0
1070
    74
1070
     0
1000
MTEXTEND
  0
POINT
  5
18C44
330
18C3C
100
AcDbEntity
  8
DEFPOINTS
 62
     0
 48
50.0
100
AcDbPoint
 10
7629.896575106998
 20
9581.123139034721
 30
0.0
  0
POINT
  5
18C45
330
18C3C
100
AcDbEntity
  8
DEFPOINTS
 62
     0
 48
50.0
100
AcDbPoint
 10
7629.896575106974
 20
7901.123139034706
 30
0.0
  0
POINT
  5
18C46
330
18C3C
100
AcDbEntity
  8
DEFPOINTS
 62
     0
 48
50.0
100
AcDbPoint
 10
8277.322920841411
 20
7901.123139034706
 30
0.0
  0
ENDBLK
  5
18C47
330
18C3C
100
AcDbEntity
  8
0
 48
50.0
100
AcDbBlockEnd
  0
BLOCK
  5
18C49
330
18C48
100
AcDbEntity
  8
0
 48
50.0
100
AcDbBlockBegin
  2
*D13
 70
     1
 10
0.0
 20
0.0
 30
0.0
  3
*D13
  1

  0
LINE
  5
18C4A
330
18C48
100
AcDbEntity
  8
寸法
 62
     0
 48
50.0
370
    -2
100
AcDbLine
 10
4183.037591258377
 20
9136.123139034619
 30
0.0
 11
4115.083950562663
 21
8882.516699398941
 31
0.0
  0
LINE
  5
18C4B
330
18C48
100
AcDbEntity
  8
寸法
 62
     0
 48
50.0
370
    -2
100
AcDbLine
 10
5246.037591258307
 20
9136.123139034671
 30
0.0
 11
5178.08395056258
 21
8882.516699398941
 31
0.0
  0
LINE
  5
18C4C
330
18C48
100
AcDbEntity
  8
寸法
 62
     0
 48
50.0
370
    -2
100
AcDbLine
 10
4131.160902108532
 20
8942.516699398941
 30
0.0
 11
5194.160902108448
 21
8942.516699398941
 31
0.0
  0
INSERT
  5
18C4D
330
18C48
100
AcDbEntity
  8
寸法
 62
     0
 48
50.0
370
    -2
100
AcDbBlockReference
  2
_DOTSMALL
 10
4131.160902108532
 20
8942.516699398941
 30
0.0
 41
100.0
 42
100.0
 43
100.0
 50
180.0
  0
INSERT
  5
18C4E
330
18C48
100
AcDbEntity
  8
寸法
 62
     0
 48
50.0
370
    -2
100
AcDbBlockReference
  2
_DOTSMALL
 10
5194.160902108448
 20
8942.516699398941
 30
0.0
 41
100.0
 42
100.0
 43
100.0
  0
MTEXT
  5
18C4F
330
18C48
100
AcDbEntity
  8
寸法
 62
     7
 48
50.0
100
AcDbMText
 10
4658.986452655306
 20
9042.516699398941
 30
0.0
 40
120.0
 41
0.0
 71
     5
 72
     1
  1
\A1;1063
  7
STYLE1
 73
     1
 44
1.0
1001
ACAD
1000
MTEXTBEGIN
1070
    73
1070
     1
1070
    44
1040
1.0
1070
    74
1070
     0
1000
MTEXTEND
  0
POINT
  5
18C50
330
18C48
100
AcDbEntity
  8
DEFPOINTS
 62
     0
 48
50.0
100
AcDbPoint
 10
4188.396575106999
 20
9156.123139034617
 30
0.0
  0
POINT
  5
18C51
330
18C48
100
AcDbEntity
  8
DEFPOINTS
 62
     0
 48
50.0
100
AcDbPoint
 10
5251.396575106929
 20
9156.123139034672
 30
0.0
  0
POINT
  5
18C52
330
18C48
100
AcDbEntity
  8
DEFPOINTS
 62
     0
 48
50.0
100
AcDbPoint
 10
5194.160902108448
 20
8942.516699398941
 30
0.0
  0
ENDBLK
  5
18C53
330
18C48
100
AcDbEntity
  8
0
 48
50.0
100
AcDbBlockEnd
  0
BLOCK
  5
18C55
330
18C54
100
AcDbEntity
  8
0
 48
50.0
100
AcDbBlockBegin
  2
*D14
 70
     1
 10
0.0
 20
0.0
 30
0.0
  3
*D14
  1

  0
LINE
  5
18C56
330
18C54
100
AcDbEntity
  8
寸法
 62
     0
 48
50.0
370
    -2
100
AcDbLine
 10
5274.037591258307
 20
9136.123139034669
 30
0.0
 11
5206.08395056258
 21
8882.516699398941
 31
0.0
  0
LINE
  5
18C57
330
18C54
100
AcDbEntity
  8
寸法
 62
     0
 48
50.0
370
    -2
100
AcDbLine
 10
6505.037591258377
 20
9136.123139034662
 30
0.0
 11
6437.083950562653
 21
8882.516699398941
 31
0.0
  0
LINE
  5
18C58
330
18C54
100
AcDbEntity
  8
寸法
 62
     0
 48
50.0
370
    -2
100
AcDbLine
 10
5222.160902108448
 20
8942.516699398941
 30
0.0
 11
6453.16090210852
 21
8942.516699398941
 31
0.0
  0
INSERT
  5
18C59
330
18C54
100
AcDbEntity
  8
寸法
 62
     0
 48
50.0
370
    -2
100
AcDbBlockReference
  2
_DOTSMALL
 10
5222.160902108448
 20
8942.516699398941
 30
0.0
 41
100.0
 42
100.0
 43
100.0
 50
180.0
  0
INSERT
  5
18C5A
330
18C54
100
AcDbEntity
  8
寸法
 62
     0
 48
50.0
370
    -2
100
AcDbBlockReference
  2
_DOTSMALL
 10
6453.16090210852
 20
8942.516699398941
 30
0.0
 41
100.0
 42
100.0
 43
100.0
  0
MTEXT
  5
18C5B
330
18C54
100
AcDbEntity
  8
寸法
 62
     7
 48
50.0
100
AcDbMText
 10
6081.244808320626
 20
9042.528510422561
 30
0.0
 40
120.0
 41
0.0
 71
     5
 72
     1
  1
\A1;1231
  7
STYLE1
 73
     1
 44
1.0
1001
ACAD
1000
MTEXTBEGIN
1070
    73
1070
     1
1070
    44
1040
1.0
1070
    74
1070
     0
1000
MTEXTEND
  0
POINT
  5
18C5C
330
18C54
100
AcDbEntity
  8
DEFPOINTS
 62
     0
 48
50.0
100
AcDbPoint
 10
5279.396575106929
 20
9156.123139034669
 30
0.0
  0
POINT
  5
18C5D
330
18C54
100
AcDbEntity
  8
DEFPOINTS
 62
     0
 48
50.0
100
AcDbPoint
 10
6510.396575106999
 20
9156.123139034662
 30
0.0
  0
POINT
  5
18C5E
330
18C54
100
AcDbEntity
  8
DEFPOINTS
 62
     0
 48
50.0
100
AcDbPoint
 10
6453.16090210852
 20
8942.516699398941
 30
0.0
  0
ENDBLK
  5
18C5F
330
18C54
100
AcDbEntity
  8
0
 48
50.0
100
AcDbBlockEnd
  0
BLOCK
  5
18C61
330
18C60
100
AcDbEntity
  8
0
 48
50.0
100
AcDbBlockBegin
  2
*D15
 70
     1
 10
0.0
 20
0.0
 30
0.0
  3
*D15
  1

  0
LINE
  5
18C62
330
18C60
100
AcDbEntity
  8
寸法
 62
     0
 48
50.0
370
    -2
100
AcDbLine
 10
5065.896575106966
 20
7749.123139034579
 30
0.0
 11
5065.896575106966
 21
7099.952920982538
 31
0.0
  0
LINE
  5
18C63
330
18C60
100
AcDbEntity
  8
寸法
 62
     0
 48
50.0
370
    -2
100
AcDbLine
 10
6331.896575106966
 20
7749.123139034579
 30
0.0
 11
6331.896575106966
 21
7099.952920982538
 31
0.0
  0
LINE
  5
18C64
330
18C60
100
AcDbEntity
  8
寸法
 62
     0
 48
50.0
370
    -2
100
AcDbLine
 10
5065.896575106966
 20
7159.952920982537
 30
0.0
 11
6331.896575106966
 21
7159.952920982537
 31
0.0
  0
INSERT
  5
18C65
330
18C60
100
AcDbEntity
  8
寸法
 62
     0
 48
50.0
370
    -2
100
AcDbBlockReference
  2
_DOTSMALL
 10
5065.896575106966
 20
7159.952920982537
 30
0.0
 41
100.0
 42
100.0
 43
100.0
 50
180.0
  0
INSERT
  5
18C66
330
18C60
100
AcDbEntity
  8
寸法
 62
     0
 48
50.0
370
    -2
100
AcDbBlockReference
  2
_DOTSMALL
 10
6331.896575106966
 20
7159.952920982537
 30
0.0
 41
100.0
 42
100.0
 43
100.0
  0
MTEXT
  5
18C67
330
18C60
100
AcDbEntity
  8
寸法
 62
     7
 48
50.0
100
AcDbMText
 10
5711.986008735934
 20
7359.964732006159
 30
0.0
 40
120.0
 41
0.0
 71
     5
 72
     1
  1
\A1;有効開口部間口\P1266
  7
STYLE1
 73
     1
 44
1.0
1001
ACAD
1000
MTEXTBEGIN
1070
    73
1070
     1
1070
    44
1040
1.0
1070
    74
1070
     0
1000
MTEXTEND
  0
POINT
  5
18C68
330
18C60
100
AcDbEntity
  8
DEFPOINTS
 62
     0
 48
50.0
100
AcDbPoint
 10
5065.896575106966
 20
7769.123139034579
 30
0.0
  0
POINT
  5
18C69
330
18C60
100
AcDbEntity
  8
DEFPOINTS
 62
     0
 48
50.0
100
AcDbPoint
 10
6331.896575106966
 20
7769.123139034579
 30
0.0
  0
POINT
  5
18C6A
330
18C60
100
AcDbEntity
  8
DEFPOINTS
 62
     0
 48
50.0
100
AcDbPoint
 10
6331.896575106966
 20
7159.952920982537
 30
0.0
  0
ENDBLK
  5
18C6B
330
18C60
100
AcDbEntity
  8
0
 48
50.0
100
AcDbBlockEnd
  0
BLOCK
  5
18C6D
330
18C6C
100
AcDbEntity
  8
0
 48
50.0
100
AcDbBlockBegin
  2
*D16
 70
     1
 10
0.0
 20
0.0
 30
0.0
  3
*D16
  1

  0
LINE
  5
18C6E
330
18C6C
100
AcDbEntity
  8
寸法
 62
     0
 48
50.0
370
    -2
100
AcDbLine
 10
7200.896575106966
 20
7846.123139034578
 30
0.0
 11
7457.192158500191
 21
7846.123139034578
 31
0.0
  0
LINE
  5
18C6F
330
18C6C
100
AcDbEntity
  8
寸法
 62
     0
 48
50.0
370
    -2
100
AcDbLine
 10
7199.896575106966
 20
7769.123139034579
 30
0.0
 11
7457.192158500191
 21
7769.123139034579
 31
0.0
  0
LINE
  5
18C70
330
18C6C
100
AcDbEntity
  8
寸法
 62
     0
 48
50.0
370
    -2
100
AcDbLine
 10
7417.192158500192
 20
7866.123139034579
 30
0.0
 11
7417.192158500192
 21
7886.123139034578
 31
0.0
  0
LINE
  5
18C71
330
18C6C
100
AcDbEntity
  8
寸法
 62
     0
 48
50.0
370
    -2
100
AcDbLine
 10
7417.192158500192
 20
7749.123139034579
 30
0.0
 11
7417.192158500192
 21
7533.123139034573
 31
0.0
  0
LINE
  5
18C72
330
18C6C
100
AcDbEntity
  8
寸法
 62
     0
 48
50.0
370
    -2
100
AcDbLine
 10
7417.192158500192
 20
7846.123139034578
 30
0.0
 11
7417.192158500192
 21
7769.123139034579
 31
0.0
  0
INSERT
  5
18C73
330
18C6C
100
AcDbEntity
  8
寸法
 62
     0
 48
50.0
370
    -2
100
AcDbBlockReference
  2
_DOT
 10
7417.192158500192
 20
7846.123139034578
 30
0.0
 41
20.0
 42
20.0
 43
20.0
 50
270.0
  0
INSERT
  5
18C74
330
18C6C
100
AcDbEntity
  8
寸法
 62
     0
 48
50.0
370
    -2
100
AcDbBlockReference
  2
_DOT
 10
7417.192158500192
 20
7769.123139034579
 30
0.0
 41
20.0
 42
20.0
 43
20.0
 50
90.0
  0
MTEXT
  5
18C75
330
18C6C
100
AcDbEntity
  8
寸法
 62
     7
 48
50.0
100
AcDbMText
 10
7325.192158500191
 20
7631.123139034575
 30
0.0
 40
120.0
 41
0.0
 71
     5
 72
     1
  1
\A1;77
  7
STYLE1
 11
0.0000000000000001
 21
1.0
 31
0.0
 73
     1
 44
1.0
1001
ACAD
1000
MTEXTBEGIN
1070
    73
1070
     1
1070
    44
1040
1.0
1070
    74
1070
     0
1000
MTEXTEND
  0
POINT
  5
18C76
330
18C6C
100
AcDbEntity
  8
DEFPOINTS
 62
     0
 48
50.0
100
AcDbPoint
 10
7180.896575106967
 20
7846.123139034578
 30
0.0
  0
POINT
  5
18C77
330
18C6C
100
AcDbEntity
  8
DEFPOINTS
 62
     0
 48
50.0
100
AcDbPoint
 10
7179.896575106965
 20
7769.123139034579
 30
0.0
  0
POINT
  5
18C78
330
18C6C
100
AcDbEntity
  8
DEFPOINTS
 62
     0
 48
50.0
100
AcDbPoint
 10
7417.192158500192
 20
7769.123139034579
 30
0.0
  0
ENDBLK
  5
18C79
330
18C6C
100
AcDbEntity
  8
0
 48
50.0
100
AcDbBlockEnd
  0
BLOCK
  5
18DA0
330
18C7A
100
AcDbEntity
  8
0
 48
50.0
100
AcDbBlockBegin
  2
A$C3B1A506B
 70
     0
 10
0.0
 20
0.0
 30
0.0
  3
A$C3B1A506B
  1

  0
MTEXT
  5
18C7B
330
18C7A
100
AcDbEntity
  8
寸法
 62
     7
 48
50.0
100
AcDbMText
 10
3342.250386887194
 20
2778.329429134012
 30
0.0
 40
96.0
 41
0.0
 71
     5
 72
     1
  1
棚 2段
  7
STYLE1
 73
     1
 44
1.0
1001
ACAD
1000
MTEXTBEGIN
1070
    73
1070
     1
1070
    44
1040
1.0
1070
    74
1070
     0
1000
MTEXTEND
  0
MTEXT
  5
18C7C
330
18C7A
100
AcDbEntity
  8
寸法
 62
     7
 48
50.0
100
AcDbMText
 10
2167.25038688716
 20
2778.329429133986
 30
0.0
 40
96.0
 41
0.0
 71
     5
 72
     1
  1
棚 2段
  7
STYLE1
 73
     1
 44
1.0
1001
ACAD
1000
MTEXTBEGIN
1070
    73
1070
     1
1070
    44
1040
1.0
1070
    74
1070
     0
1000
MTEXTEND
  0
MTEXT
  5
18C7D
330
18C7A
100
AcDbEntity
  8
寸法
 62
     7
 48
50.0
100
AcDbMText
 10
992.2503868871608
 20
2778.329429133935
 30
0.0
 40
96.0
 41
0.0
 71
     5
 72
     1
  1
棚 2段
  7
STYLE1
 73
     1
 44
1.0
1001
ACAD
1000
MTEXTBEGIN
1070
    73
1070
     1
1070
    44
1040
1.0
1070
    74
1070
     0
1000
MTEXTEND
  0
LINE
  5
18C7E
330
18C7A
100
AcDbEntity
  8
細線
 48
50.0
100
AcDbLine
 10
2771.970589276527
 20
1368.994384123192
 30
0.0
 11
3398.970589276523
 21
1368.994384123192
 31
0.0
  0
LINE
  5
18C7F
330
18C7A
100
AcDbEntity
  8
細線
 48
50.0
100
AcDbLine
 10
2117.970593930113
 20
1335.285615569113
 30
0.0
 11
3398.970589276523
 21
1335.285615569113
 31
0.0
  0
LINE
  5
18C80
330
18C7A
100
AcDbEntity
  8
細線
 48
50.0
100
AcDbLine
 10
2076.970593930115
 20
1364.690523565368
 30
0.0
 11
1322.970589276523
 21
1364.690523565367
 31
0.0
  0
LINE
  5
18C81
330
18C7A
100
AcDbEntity
  8
細線
100
AcDbLine
 10
3170.720579860066
 20
1388.494284088199
 30
0.0
 11
3173.052119381877
 21
1393.494286728162
 31
0.0
  0
LINE
  5
18C82
330
18C7A
100
AcDbEntity
  8
細線
100
AcDbLine
 10
3240.720589276525
 20
1388.494269174465
 30
0.0
 11
3238.389042800336
 21
1393.494286728144
 31
0.0
  0
LINE
  5
18C83
330
18C7A
100
AcDbEntity
  8
細線
100
AcDbLine
 10
3238.389042800336
 20
1393.494286728144
 30
0.0
 11
3173.052119381862
 21
1393.494286728133
 31
0.0
  0
LINE
  5
18C84
330
18C7A
100
AcDbEntity
  8
細線
100
AcDbLine
 10
3098.389042800336
 20
1393.494286728144
 30
0.0
 11
3033.052119381862
 21
1393.494286728133
 31
0.0
  0
LINE
  5
18C85
330
18C7A
100
AcDbEntity
  8
細線
100
AcDbLine
 10
3100.720589276523
 20
1388.494269174465
 30
0.0
 11
3098.389042800336
 21
1393.494286728144
 31
0.0
  0
LINE
  5
18C86
330
18C7A
100
AcDbEntity
  8
細線
100
AcDbLine
 10
3030.720579860066
 20
1388.494284088199
 30
0.0
 11
3033.052119381875
 21
1393.494286728162
 31
0.0
  0
LINE
  5
18C87
330
18C7A
100
AcDbEntity
  8
細線
100
AcDbLine
 10
2890.720589276525
 20
1388.494269174465
 30
0.0
 11
2893.052128798336
 21
1393.494271814428
 31
0.0
  0
LINE
  5
18C88
330
18C7A
100
AcDbEntity
  8
細線
100
AcDbLine
 10
2960.720598692984
 20
1388.494254260731
 30
0.0
 11
2958.389052216793
 21
1393.49427181441
 31
0.0
  0
LINE
  5
18C89
330
18C7A
100
AcDbEntity
  8
細線
100
AcDbLine
 10
2958.389052216795
 20
1393.49427181441
 30
0.0
 11
2893.052128798321
 21
1393.494271814399
 31
0.0
  0
LINE
  5
18C8A
330
18C7A
100
AcDbEntity
  8
細線
100
AcDbLine
 10
2667.139038146739
 20
1359.494298590735
 30
0.0
 11
2601.802114728263
 21
1359.494298590724
 31
0.0
  0
LINE
  5
18C8B
330
18C7A
100
AcDbEntity
  8
細線
100
AcDbLine
 10
2669.470584622926
 20
1354.494281037055
 30
0.0
 11
2667.139038146737
 21
1359.494298590735
 31
0.0
  0
LINE
  5
18C8C
330
18C7A
100
AcDbEntity
  8
細線
100
AcDbLine
 10
2599.470575206469
 20
1354.49429595079
 30
0.0
 11
2601.802114728278
 21
1359.494298590752
 31
0.0
  0
LINE
  5
18C8D
330
18C7A
100
AcDbEntity
  8
細線
 48
50.0
100
AcDbLine
 10
2440.853968524536
 20
1372.765132327548
 30
0.0
 11
2446.609486107205
 21
1354.494281037057
 31
0.0
  0
LINE
  5
18C8E
330
18C7A
100
AcDbEntity
  8
細線
 48
50.0
100
AcDbLine
 10
2429.925520044106
 20
1372.765132327546
 30
0.0
 11
2440.853968524536
 21
1372.765132327548
 31
0.0
  0
ARC
  5
18C8F
330
18C7A
100
AcDbEntity
  8
細線
 48
50.0
100
AcDbCircle
 10
2424.471163986787
 20
1374.265132327546
 30
0.0
 40
5.0
100
AcDbArc
 50
204.6243183520723
 51
335.3756816479278
  0
ARC
  5
18C90
330
18C7A
100
AcDbEntity
  8
細線
 48
50.0
100
AcDbCircle
 10
2429.925520044106
 20
1371.765132327546
 30
0.0
 40
1.0
100
AcDbArc
 50
90.0
 51
155.3756816479277
  0
ARC
  5
18C91
330
18C7A
100
AcDbEntity
  8
細線
 48
50.0
100
AcDbCircle
 10
2419.016807929469
 20
1371.765132327546
 30
0.0
 40
1.0
100
AcDbArc
 50
24.62431835207225
 51
90.0
  0
LINE
  5
18C92
330
18C7A
100
AcDbEntity
  8
細線
 48
50.0
100
AcDbLine
 10
2408.088359449037
 20
1372.765132327548
 30
0.0
 11
2419.016807929469
 21
1372.765132327546
 31
0.0
  0
LINE
  5
18C93
330
18C7A
100
AcDbEntity
  8
細線
 48
50.0
100
AcDbLine
 10
2402.33284186637
 20
1354.494281037054
 30
0.0
 11
2408.088359449037
 21
1372.765132327548
 31
0.0
  0
LINE
  5
18C94
330
18C7A
100
AcDbEntity
  8
細線
100
AcDbLine
 10
2458.070304175992
 20
1354.494278397076
 30
0.0
 11
2460.401843697802
 21
1359.494281037039
 31
0.0
  0
LINE
  5
18C95
330
18C7A
100
AcDbEntity
  8
細線
100
AcDbLine
 10
2528.070313592451
 20
1354.494263483342
 30
0.0
 11
2525.738767116262
 21
1359.494281037021
 31
0.0
  0
LINE
  5
18C96
330
18C7A
100
AcDbEntity
  8
細線
100
AcDbLine
 10
2525.738767116262
 20
1359.494281037021
 30
0.0
 11
2460.40184369779
 21
1359.49428103701
 31
0.0
  0
LINE
  5
18C97
330
18C7A
100
AcDbEntity
  8
細線
100
AcDbLine
 10
2387.139046332155
 20
1359.494281037021
 30
0.0
 11
2321.80212291368
 21
1359.49428103701
 31
0.0
  0
LINE
  5
18C98
330
18C7A
100
AcDbEntity
  8
細線
100
AcDbLine
 10
2389.470592808342
 20
1354.494263483342
 30
0.0
 11
2387.139046332153
 21
1359.494281037021
 31
0.0
  0
LINE
  5
18C99
330
18C7A
100
AcDbEntity
  8
細線
100
AcDbLine
 10
2319.470584622926
 20
1354.494281037054
 30
0.0
 11
2321.802122913694
 21
1359.494281037039
 31
0.0
  0
LINE
  5
18C9A
330
18C7A
100
AcDbEntity
  8
細線
100
AcDbLine
 10
2179.47061994182
 20
1354.494289224422
 30
0.0
 11
2181.802158232587
 21
1359.494289224407
 31
0.0
  0
LINE
  5
18C9B
330
18C7A
100
AcDbEntity
  8
細線
100
AcDbLine
 10
2249.470628127236
 20
1354.49427167071
 30
0.0
 11
2247.139081651047
 21
1359.494289224389
 31
0.0
  0
LINE
  5
18C9C
330
18C7A
100
AcDbEntity
  8
細線
100
AcDbLine
 10
2247.139081651047
 20
1359.494289224389
 30
0.0
 11
2181.802158232573
 21
1359.494289224378
 31
0.0
  0
LINE
  5
18C9D
330
18C7A
100
AcDbEntity
  8
細線
100
AcDbLine
 10
1807.970585744697
 20
1320.494460905133
 30
0.0
 11
1810.302124035464
 21
1325.494460905118
 31
0.0
  0
LINE
  5
18C9E
330
18C7A
100
AcDbEntity
  8
細線
100
AcDbLine
 10
1877.970593930113
 20
1320.494443351421
 30
0.0
 11
1875.639047453926
 21
1325.4944609051
 31
0.0
  0
LINE
  5
18C9F
330
18C7A
100
AcDbEntity
  8
細線
100
AcDbLine
 10
1875.639047453926
 20
1325.4944609051
 30
0.0
 11
1810.302124035452
 21
1325.494460905089
 31
0.0
  0
LINE
  5
18CA0
330
18C7A
100
AcDbEntity
  8
細線
100
AcDbLine
 10
2015.639047453926
 20
1325.4944609051
 30
0.0
 11
1950.302124035452
 21
1325.494460905089
 31
0.0
  0
LINE
  5
18CA1
330
18C7A
100
AcDbEntity
  8
細線
100
AcDbLine
 10
2017.970593930113
 20
1320.494443351421
 30
0.0
 11
2015.639047453924
 21
1325.4944609051
 31
0.0
  0
LINE
  5
18CA2
330
18C7A
100
AcDbEntity
  8
細線
100
AcDbLine
 10
1947.970585744697
 20
1320.494460905133
 30
0.0
 11
1950.302124035465
 21
1325.494460905118
 31
0.0
  0
LINE
  5
18CA3
330
18C7A
100
AcDbEntity
  8
細線
100
AcDbLine
 10
1735.639047453926
 20
1325.494460905098
 30
0.0
 11
1670.302124035454
 21
1325.494460905087
 31
0.0
  0
LINE
  5
18CA4
330
18C7A
100
AcDbEntity
  8
細線
100
AcDbLine
 10
1737.970593930113
 20
1320.494443351419
 30
0.0
 11
1735.639047453926
 21
1325.494460905098
 31
0.0
  0
LINE
  5
18CA5
330
18C7A
100
AcDbEntity
  8
細線
100
AcDbLine
 10
1667.970585744697
 20
1320.494460905131
 30
0.0
 11
1670.302124035465
 21
1325.494460905116
 31
0.0
  0
LINE
  5
18CA6
330
18C7A
100
AcDbEntity
  8
細線
100
AcDbLine
 10
1527.970593930113
 20
1320.494460905133
 30
0.0
 11
1530.302132220881
 21
1325.494460905118
 31
0.0
  0
LINE
  5
18CA7
330
18C7A
100
AcDbEntity
  8
細線
100
AcDbLine
 10
1597.970602115529
 20
1320.494443351421
 30
0.0
 11
1595.639055639342
 21
1325.4944609051
 31
0.0
  0
LINE
  5
18CA8
330
18C7A
100
AcDbEntity
  8
細線
100
AcDbLine
 10
1595.639055639342
 20
1325.4944609051
 30
0.0
 11
1530.302132220869
 21
1325.494460905089
 31
0.0
  0
ARC
  5
18CA9
330
18C7A
100
AcDbEntity
  8
部品1
 48
0.01
100
AcDbCircle
 10
1483.470482677778
 20
1319.493338720063
 30
0.0
 40
0.5
100
AcDbArc
 50
270.0
 51
0.0
  0
LINE
  5
18CAA
330
18C7A
100
AcDbEntity
  8
部品1
 48
0.01
100
AcDbLine
 10
1483.970482677778
 20
1320.493338720063
 30
0.0
 11
1483.970482677778
 21
1319.493338720063
 31
0.0
  0
LINE
  5
18CAB
330
18C7A
100
AcDbEntity
  8
部品1
 48
0.01
100
AcDbLine
 10
1483.970482677778
 20
1320.493338720063
 30
0.0
 11
1483.970482677778
 21
1319.493338720063
 31
0.0
  0
LINE
  5
18CAC
330
18C7A
100
AcDbEntity
  8
部品1
 48
0.01
100
AcDbLine
 10
1483.470482677778
 20
1318.993338720063
 30
0.0
 11
1476.857977247713
 21
1318.993338720062
 31
0.0
  0
ARC
  5
18CAD
330
18C7A
100
AcDbEntity
  8
部品1
100
AcDbCircle
 10
1476.926326800494
 20
1319.993338720062
 30
0.0
 40
1.0
100
AcDbArc
 50
160.5287793655865
 51
270.0
  0
ARC
  5
18CAE
330
18C7A
100
AcDbEntity
  8
部品1
100
AcDbCircle
 10
1451.470482677778
 20
1328.993338720062
 30
0.0
 40
26.0
100
AcDbArc
 50
340.5287793655865
 51
0.0
  0
LINE
  5
18CAF
330
18C7A
100
AcDbEntity
  8
部品1
100
AcDbLine
 10
1477.470482677778
 20
1328.993338720062
 30
0.0
 11
1477.470482677778
 21
1333.993338720061
 31
0.0
  0
ARC
  5
18CB0
330
18C7A
100
AcDbEntity
  8
部品1
 48
0.01
100
AcDbCircle
 10
1475.470482677778
 20
1333.993338720061
 30
0.0
 40
2.0
100
AcDbArc
 50
0.0
 51
90.0
  0
ARC
  5
18CB1
330
18C7A
100
AcDbEntity
  8
部品1
100
AcDbCircle
 10
1473.862091052968
 20
1332.993338720062
 30
0.0
 40
3.0
100
AcDbArc
 50
90.0
 51
141.6069559808035
  0
LINE
  5
18CB2
330
18C7A
100
AcDbEntity
  8
部品1
 48
0.01
100
AcDbLine
 10
1475.470482677778
 20
1335.993338720062
 30
0.0
 11
1473.862091052968
 21
1335.993338720062
 31
0.0
  0
ARC
  5
18CB3
330
18C7A
100
AcDbEntity
  8
部品1
100
AcDbCircle
 10
1455.399768463507
 20
1332.293338720065
 30
0.0
 40
3.0
100
AcDbArc
 50
254.0576313943215
 51
270.0
  0
ARC
  5
18CB4
330
18C7A
100
AcDbEntity
  8
部品1
100
AcDbCircle
 10
1462.541196892049
 20
1332.293338720065
 30
0.0
 40
3.0
100
AcDbArc
 50
270.0
 51
285.9423686056786
  0
LINE
  5
18CB5
330
18C7A
100
AcDbEntity
  8
部品1
100
AcDbLine
 10
1462.541196892049
 20
1329.293338720064
 30
0.0
 11
1455.399768463507
 21
1329.293338720064
 31
0.0
  0
ARC
  5
18CB6
330
18C7A
100
AcDbEntity
  8
部品1
100
AcDbCircle
 10
1458.970482677778
 20
1344.793338720065
 30
0.0
 40
16.0
100
AcDbArc
 50
285.9423686056786
 51
321.6069559808035
  0
LINE
  5
18CB7
330
18C7A
100
AcDbEntity
  8
部品1
 48
0.01
100
AcDbLine
 10
1442.470482677778
 20
1335.993338720062
 30
0.0
 11
1444.078874302588
 21
1335.993338720062
 31
0.0
  0
ARC
  5
18CB8
330
18C7A
100
AcDbEntity
  8
部品1
100
AcDbCircle
 10
1444.078874302588
 20
1332.993338720062
 30
0.0
 40
3.0
100
AcDbArc
 50
38.39304401919648
 51
90.0
  0
ARC
  5
18CB9
330
18C7A
100
AcDbEntity
  8
部品1
100
AcDbCircle
 10
1458.970482677778
 20
1344.793338720065
 30
0.0
 40
16.0
100
AcDbArc
 50
218.3930440191965
 51
254.0576313943215
  0
LINE
  5
18CBA
330
18C7A
100
AcDbEntity
  8
部品1
100
AcDbLine
 10
1440.470482677778
 20
1328.993338720062
 30
0.0
 11
1440.470482677778
 21
1333.993338720061
 31
0.0
  0
ARC
  5
18CBB
330
18C7A
100
AcDbEntity
  8
部品1
 48
0.01
100
AcDbCircle
 10
1442.470482677778
 20
1333.993338720061
 30
0.0
 40
2.0
100
AcDbArc
 50
90.0
 51
180.0
  0
ARC
  5
18CBC
330
18C7A
100
AcDbEntity
  8
部品1
100
AcDbCircle
 10
1466.470482677778
 20
1328.993338720062
 30
0.0
 40
26.0
100
AcDbArc
 50
180.0
 51
199.4712206344134
  0
ARC
  5
18CBD
330
18C7A
100
AcDbEntity
  8
部品1
 48
0.01
100
AcDbCircle
 10
1434.470482677778
 20
1319.493338720063
 30
0.0
 40
0.5
100
AcDbArc
 50
180.0
 51
270.0
  0
LINE
  5
18CBE
330
18C7A
100
AcDbEntity
  8
部品1
 48
0.01
100
AcDbLine
 10
1434.470482677778
 20
1318.993338720063
 30
0.0
 11
1441.014638555061
 21
1318.993338720062
 31
0.0
  0
LINE
  5
18CBF
330
18C7A
100
AcDbEntity
  8
部品1
 48
0.01
100
AcDbLine
 10
1433.970482677778
 20
1320.493338720063
 30
0.0
 11
1433.970482677778
 21
1319.493338720063
 31
0.0
  0
ARC
  5
18CC0
330
18C7A
100
AcDbEntity
  8
部品1
100
AcDbCircle
 10
1441.014638555061
 20
1319.993338720062
 30
0.0
 40
1.0
100
AcDbArc
 50
270.0
 51
19.47122063441346
  0
LINE
  5
18CC1
330
18C7A
100
AcDbEntity
  8
細線
100
AcDbLine
 10
1479.470482677785
 20
1338.493338720065
 30
0.0
 11
1438.470482677785
 21
1338.493338720058
 31
0.0
  0
LINE
  5
18CC2
330
18C7A
100
AcDbEntity
  8
細線
100
AcDbLine
 10
1438.470482677785
 20
1338.493338720058
 30
0.0
 11
1438.470482677785
 21
1320.49333872004
 31
0.0
  0
LINE
  5
18CC3
330
18C7A
100
AcDbEntity
  8
細線
100
AcDbLine
 10
1479.470482677785
 20
1338.493338720065
 30
0.0
 11
1479.470482677785
 21
1320.49333872004
 31
0.0
  0
LINE
  5
18CC4
330
18C7A
100
AcDbEntity
  8
細線
100
AcDbLine
 10
1322.970589276523
 20
1324.494269174465
 30
0.0
 11
1322.970589276523
 21
1320.494269174513
 31
0.0
  0
LINE
  5
18CC5
330
18C7A
100
AcDbEntity
  8
寸法
 48
50.0
100
AcDbLine
 10
1746.17359555837
 20
1170.531020743327
 30
0.0
 11
1694.767587648266
 21
1170.531020743327
 31
0.0
  0
LINE
  5
18CC6
330
18C7A
100
AcDbEntity
  8
寸法
 48
50.0
100
AcDbLine
 10
1694.767587648266
 20
1170.531020743327
 30
0.0
 11
1694.767587648266
 21
1201.841179395494
 31
0.0
  0
LINE
  5
18CC7
330
18C7A
100
AcDbEntity
  8
寸法
 48
50.0
100
AcDbLine
 10
1694.767587648266
 20
1201.841179395494
 30
0.0
 11
1665.006255656843
 21
1201.841179395494
 31
0.0
  0
LINE
  5
18CC8
330
18C7A
100
AcDbEntity
  8
寸法
 48
50.0
100
AcDbLine
 10
1665.006255656843
 20
1201.841179395494
 30
0.0
 11
1720.470591603318
 21
1239.420630324105
 31
0.0
  0
LINE
  5
18CC9
330
18C7A
100
AcDbEntity
  8
寸法
 48
50.0
100
AcDbLine
 10
1775.934927549793
 20
1201.841179395494
 30
0.0
 11
1720.470591603318
 21
1239.420630324105
 31
0.0
  0
LINE
  5
18CCA
330
18C7A
100
AcDbEntity
  8
寸法
 48
50.0
100
AcDbLine
 10
1746.17359555837
 20
1201.841179395494
 30
0.0
 11
1775.934927549793
 21
1201.841179395494
 31
0.0
  0
LINE
  5
18CCB
330
18C7A
100
AcDbEntity
  8
寸法
 48
50.0
100
AcDbLine
 10
1746.17359555837
 20
1170.531020743327
 30
0.0
 11
1746.17359555837
 21
1201.841179395494
 31
0.0
  0
LINE
  5
18CCC
330
18C7A
100
AcDbEntity
  8
寸法
 48
50.0
100
AcDbLine
 10
1694.767587648266
 20
1170.531020743327
 30
0.0
 11
1746.17359555837
 21
1170.531020743327
 31
0.0
  0
LINE
  5
18CCD
330
18C7A
100
AcDbEntity
  8
寸法
 48
50.0
100
AcDbLine
 10
2025.339129835225
 20
1227.676611498152
 30
0.0
 11
2025.339129835225
 21
1174.01297691636
 31
0.0
  0
LINE
  5
18CCE
330
18C7A
100
AcDbEntity
  8
寸法
 48
50.0
100
AcDbLine
 10
2114.623348430647
 20
1203.752977228664
 30
0.0
 11
2025.339129835225
 21
1227.676611498152
 31
0.0
  0
LINE
  5
18CCF
330
18C7A
100
AcDbEntity
  8
寸法
 48
50.0
100
AcDbLine
 10
1895.471408254923
 20
1203.752977228664
 30
0.0
 11
2114.623348430647
 21
1203.752977228664
 31
0.0
  0
DIMENSION
  5
18CD0
330
18C7A
100
AcDbEntity
  8
寸法
 48
50.0
100
AcDbDimension
  2
*D15
 10
2588.970589276523
 20
706.3240511224249
 30
0.0
 11
1969.060022905491
 21
706.3240511224249
 31
0.0
 12
-3742.925985830444
 22
-6453.628869860112
 32
0.0
 70
   128
  1
有効開口部間口\P<>
 71
     5
 42
1266.0
  3
INABA_S40G
100
AcDbAlignedDimension
 13
1322.970589276523
 23
1315.494269174465
 33
0.0
 14
2588.970589276523
 24
1315.494269174465
 34
0.0
100
AcDbRotatedDimension
1001
ACAD
1000
DSTYLE
1002
{
1070
   341
1005
0
1002
}
  0
LINE
  5
18CD1
330
18C7A
100
AcDbEntity
  8
部品1
100
AcDbLine
 10
3409.970589276524
 20
1392.494269174465
 30
0.0
 11
3437.970589276523
 21
1392.494269174465
 31
0.0
  0
DIMENSION
  5
18CD2
330
18C7A
100
AcDbEntity
  8
寸法
100
AcDbDimension
  2
*D16
 10
3674.266172669749
 20
1315.494269174465
 30
0.0
 11
3674.266172669748
 21
1177.494269174462
 31
0.0
 12
-3742.925985830444
 22
-6453.628869860112
 32
0.0
 70
   128
 71
     5
 42
77.0
  3
INABA_S40
100
AcDbAlignedDimension
 13
3437.970589276523
 23
1392.494269174465
 33
0.0
 14
3436.970589276523
 24
1315.494269174465
 34
0.0
 50
90.0
100
AcDbRotatedDimension
1001
ACAD
1000
DSTYLE
1002
{
1070
    41
1040
0.5
1070
    44
1040
1.0
1070
   147
1040
0.8
1070
   271
1070
     2
1070
   272
1070
     2
1070
   289
1070
     3
1070
   340
1005
F706
1070
   343
1005
164B4
1070
   344
1005
164B4
1002
}
  0
LINE
  5
18CD3
330
18C7A
100
AcDbEntity
  8
部品1
100
AcDbLine
 10
3437.970589276523
 20
1315.494269174465
 30
0.0
 11
3437.970589276523
 21
1392.494269174465
 31
0.0
  0
LINE
  5
18CD4
330
18C7A
100
AcDbEntity
  8
部品1
100
AcDbLine
 10
3398.970589276523
 20
1388.494269174465
 30
0.0
 11
3409.970589276524
 21
1388.494269174465
 31
0.0
  0
LINE
  5
18CD5
330
18C7A
100
AcDbEntity
  8
部品1
100
AcDbLine
 10
3407.970589276523
 20
1324.494269174465
 30
0.0
 11
3407.970589276523
 21
1315.494269174465
 31
0.0
  0
LINE
  5
18CD6
330
18C7A
100
AcDbEntity
  8
部品1
100
AcDbLine
 10
3398.970589276523
 20
1324.494269174465
 30
0.0
 11
3407.970589276523
 21
1324.494269174465
 31
0.0
  0
LINE
  5
18CD7
330
18C7A
100
AcDbEntity
  8
部品1
100
AcDbLine
 10
3398.970589276523
 20
1388.494269174465
 30
0.0
 11
3398.970589276523
 21
1324.494269174465
 31
0.0
  0
LINE
  5
18CD8
330
18C7A
100
AcDbEntity
  8
部品1
100
AcDbLine
 10
3409.970589276524
 20
1419.494269174465
 30
0.0
 11
3409.970589276524
 21
1388.494269174465
 31
0.0
  0
LINE
  5
18CD9
330
18C7A
100
AcDbEntity
  8
部品1
100
AcDbLine
 10
1322.970589276523
 20
1388.494269174465
 30
0.0
 11
1311.970589276523
 21
1388.494269174465
 31
0.0
  0
LINE
  5
18CDA
330
18C7A
100
AcDbEntity
  8
部品1
100
AcDbLine
 10
1283.970589276523
 20
1392.494269174465
 30
0.0
 11
1311.970589276523
 21
1392.494269174465
 31
0.0
  0
LINE
  5
18CDB
330
18C7A
100
AcDbEntity
  8
部品1
100
AcDbLine
 10
1313.970589276523
 20
1324.494269174465
 30
0.0
 11
1313.970589276523
 21
1315.494269174465
 31
0.0
  0
LINE
  5
18CDC
330
18C7A
100
AcDbEntity
  8
部品1
100
AcDbLine
 10
1322.970589276523
 20
1324.494269174465
 30
0.0
 11
1313.970589276523
 21
1324.494269174465
 31
0.0
  0
LINE
  5
18CDD
330
18C7A
100
AcDbEntity
  8
部品1
100
AcDbLine
 10
1313.970589276523
 20
1315.494269174465
 30
0.0
 11
1283.970589276523
 21
1315.494269174465
 31
0.0
  0
LINE
  5
18CDE
330
18C7A
100
AcDbEntity
  8
部品1
100
AcDbLine
 10
1283.970589276523
 20
1315.494269174465
 30
0.0
 11
1283.970589276523
 21
1392.494269174465
 31
0.0
  0
LINE
  5
18CDF
330
18C7A
100
AcDbEntity
  8
部品1
100
AcDbLine
 10
1322.970589276523
 20
1388.494269174465
 30
0.0
 11
1322.970589276523
 21
1324.494269174465
 31
0.0
  0
LINE
  5
18CE0
330
18C7A
100
AcDbEntity
  8
部品1
100
AcDbLine
 10
1311.970589276523
 20
1419.494269174462
 30
0.0
 11
1311.970589276523
 21
1388.494269174465
 31
0.0
  0
LINE
  5
18CE1
330
18C7A
100
AcDbEntity
  8
部品1
100
AcDbLine
 10
1311.970589276523
 20
1419.494269174462
 30
0.0
 11
3409.970589276524
 21
1419.494269174465
 31
0.0
  0
LINE
  5
18CE2
330
18C7A
100
AcDbEntity
  8
部品1
100
AcDbLine
 10
3407.970589276523
 20
1315.494269174465
 30
0.0
 11
3437.970589276523
 21
1315.494269174465
 31
0.0
  0
LINE
  5
18CE3
330
18C7A
100
AcDbEntity
  8
部品1
100
AcDbLine
 10
1313.970589276523
 20
1315.494269174465
 30
0.0
 11
3410.970589276523
 21
1315.494269174465
 31
0.0
  0
LINE
  5
18CE4
330
18C7A
100
AcDbEntity
  8
細線
  6
Continuous
 62
     5
100
AcDbLine
 10
2689.970589276527
 20
1354.494269174462
 30
0.0
 11
2689.970589276527
 21
1354.494269174462
 31
0.0
  0
LINE
  5
18CE5
330
18C7A
100
AcDbEntity
  8
細線
  6
Continuous
 62
     5
100
AcDbLine
 10
2682.470589276527
 20
1354.494269174462
 30
0.0
 11
2682.470589276527
 21
1354.494269174462
 31
0.0
  0
LINE
  5
18CE6
330
18C7A
100
AcDbEntity
  8
細線
  6
Continuous
 62
     5
100
AcDbLine
 10
2676.470589276527
 20
1354.494269174462
 30
0.0
 11
2676.470589276527
 21
1354.494269174462
 31
0.0
  0
LINE
  5
18CE7
330
18C7A
100
AcDbEntity
  8
細線
  6
Continuous
 62
     5
100
AcDbLine
 10
2743.970589276527
 20
1373.494269174462
 30
0.0
 11
2743.970589276527
 21
1373.494269174462
 31
0.0
  0
LINE
  5
18CE8
330
18C7A
100
AcDbEntity
  8
細線
 48
50.0
100
AcDbLine
 10
1336.970593930116
 20
1341.094443351418
 30
0.0
 11
1336.970593930113
 21
1349.490593759059
 31
0.0
  0
LINE
  5
18CE9
330
18C7A
100
AcDbEntity
  8
細線
 48
50.0
100
AcDbLine
 10
1336.970593930113
 20
1349.490593759059
 30
0.0
 11
1322.970589276523
 21
1349.490593759057
 31
0.0
  0
LINE
  5
18CEA
330
18C7A
100
AcDbEntity
  8
細線
 48
50.0
100
AcDbLine
 10
2087.970593930113
 20
1337.644443351419
 30
0.0
 11
2087.970593930113
 21
1342.494443351421
 31
0.0
  0
LINE
  5
18CEB
330
18C7A
100
AcDbEntity
  8
細線
 48
50.0
100
AcDbLine
 10
2087.970593930113
 20
1342.494443351421
 30
0.0
 11
2102.970593930113
 21
1342.494443351421
 31
0.0
  0
LINE
  5
18CEC
330
18C7A
100
AcDbEntity
  8
細線
 48
50.0
100
AcDbLine
 10
2102.970593930113
 20
1342.494443351421
 30
0.0
 11
2102.970593930115
 21
1349.494443351419
 31
0.0
  0
LINE
  5
18CED
330
18C7A
100
AcDbEntity
  8
細線
 48
50.0
100
AcDbLine
 10
2102.970593930115
 20
1349.494443351419
 30
0.0
 11
2117.970593930113
 21
1349.494443351419
 31
0.0
  0
LINE
  5
18CEE
330
18C7A
100
AcDbEntity
  8
細線
 48
50.0
100
AcDbLine
 10
2117.970593930113
 20
1349.494443351419
 30
0.0
 11
2117.970593930113
 21
1320.494443351421
 31
0.0
  0
LINE
  5
18CEF
330
18C7A
100
AcDbEntity
  8
細線
 48
50.0
100
AcDbLine
 10
1313.970589276523
 20
1320.491777694889
 30
0.0
 11
1527.970593930113
 21
1320.494460905133
 31
0.0
  0
LINE
  5
18CF0
330
18C7A
100
AcDbEntity
  8
細線
 48
50.0
100
AcDbLine
 10
2017.970593930113
 20
1320.494443351421
 30
0.0
 11
2117.970593930113
 21
1320.494443351421
 31
0.0
  0
LINE
  5
18CF1
330
18C7A
100
AcDbEntity
  8
細線
 48
50.0
100
AcDbLine
 10
1737.970593930113
 20
1320.494443351419
 30
0.0
 11
1807.970593930113
 21
1320.494443351423
 31
0.0
  0
LINE
  5
18CF2
330
18C7A
100
AcDbEntity
  8
細線
 48
50.0
100
AcDbLine
 10
1750.832558942642
 20
1320.494443351419
 30
0.0
 11
1756.588076525309
 21
1338.765294641913
 31
0.0
  0
LINE
  5
18CF3
330
18C7A
100
AcDbEntity
  8
細線
 48
50.0
100
AcDbLine
 10
1756.588076525309
 20
1338.765294641913
 30
0.0
 11
1767.516525005743
 21
1338.765294641911
 31
0.0
  0
ARC
  5
18CF4
330
18C7A
100
AcDbEntity
  8
細線
 48
50.0
100
AcDbCircle
 10
1767.516525005743
 20
1337.765294641911
 30
0.0
 40
1.0
100
AcDbArc
 50
24.62431835207225
 51
90.0
  0
ARC
  5
18CF5
330
18C7A
100
AcDbEntity
  8
細線
 48
50.0
100
AcDbCircle
 10
1778.425237120377
 20
1337.765294641911
 30
0.0
 40
1.0
100
AcDbArc
 50
90.0
 51
155.3756816479277
  0
ARC
  5
18CF6
330
18C7A
100
AcDbEntity
  8
細線
 48
50.0
100
AcDbCircle
 10
1772.970881063058
 20
1340.265294641911
 30
0.0
 40
5.0
100
AcDbArc
 50
204.6243183520723
 51
335.3756816479278
  0
LINE
  5
18CF7
330
18C7A
100
AcDbEntity
  8
細線
 48
50.0
100
AcDbLine
 10
1778.425237120377
 20
1338.765294641911
 30
0.0
 11
1789.35368560081
 21
1338.765294641913
 31
0.0
  0
LINE
  5
18CF8
330
18C7A
100
AcDbEntity
  8
細線
 48
50.0
100
AcDbLine
 10
1789.35368560081
 20
1338.765294641913
 30
0.0
 11
1795.109203183478
 21
1320.494443351423
 31
0.0
  0
LINE
  5
18CF9
330
18C7A
100
AcDbEntity
  8
細線
 48
50.0
100
AcDbLine
 10
2087.970593930113
 20
1341.094443351419
 30
0.0
 11
1336.970593930116
 21
1341.094443351418
 31
0.0
  0
LINE
  5
18CFA
330
18C7A
100
AcDbEntity
  8
細線
 48
50.0
100
AcDbLine
 10
1947.970593930113
 20
1320.494443351421
 30
0.0
 11
1877.970593930113
 21
1320.494443351421
 31
0.0
  0
LINE
  5
18CFB
330
18C7A
100
AcDbEntity
  8
細線
100
AcDbLine
 10
1667.970593930113
 20
1320.494443351421
 30
0.0
 11
1597.970602115529
 21
1320.494443351421
 31
0.0
  0
LINE
  5
18CFC
330
18C7A
100
AcDbEntity
  8
細線
 48
50.0
100
AcDbLine
 10
2741.970584622936
 20
1375.094487209288
 30
0.0
 11
2106.970593930113
 21
1375.094487209284
 31
0.0
  0
LINE
  5
18CFD
330
18C7A
100
AcDbEntity
  8
細線
 48
50.0
100
AcDbLine
 10
2106.970593930113
 20
1371.990637616925
 30
0.0
 11
2106.970593930113
 21
1376.490637616925
 31
0.0
  0
LINE
  5
18CFE
330
18C7A
100
AcDbEntity
  8
細線
 48
50.0
100
AcDbLine
 10
2106.970593930113
 20
1376.490637616925
 30
0.0
 11
2091.970593930113
 21
1376.490637616925
 31
0.0
  0
LINE
  5
18CFF
330
18C7A
100
AcDbEntity
  8
細線
 48
50.0
100
AcDbLine
 10
2091.970593930113
 20
1376.490637616925
 30
0.0
 11
2091.970593930113
 21
1383.490637616927
 31
0.0
  0
LINE
  5
18D00
330
18C7A
100
AcDbEntity
  8
細線
 48
50.0
100
AcDbLine
 10
2091.970593930113
 20
1383.490637616927
 30
0.0
 11
2076.970593930115
 21
1383.490637616924
 31
0.0
  0
LINE
  5
18D01
330
18C7A
100
AcDbEntity
  8
細線
 48
50.0
100
AcDbLine
 10
2076.970593930115
 20
1383.490637616924
 30
0.0
 11
2076.970593930115
 21
1345.890409513813
 31
0.0
  0
LINE
  5
18D02
330
18C7A
100
AcDbEntity
  8
細線
 48
50.0
100
AcDbLine
 10
2076.970593930115
 20
1345.890409513813
 30
0.0
 11
2096.970601231289
 21
1345.890451063353
 31
0.0
  0
LINE
  5
18D03
330
18C7A
100
AcDbEntity
  8
細線
 48
50.0
100
AcDbLine
 10
2096.970556362348
 20
1354.493912699161
 30
0.0
 11
2096.970601231289
 21
1345.890451063353
 31
0.0
  0
LINE
  5
18D04
330
18C7A
100
AcDbEntity
  8
細線
 48
50.0
100
AcDbLine
 10
2741.970584622936
 20
1371.644487209287
 30
0.0
 11
2741.970584622936
 21
1376.494487209284
 31
0.0
  0
LINE
  5
18D05
330
18C7A
100
AcDbEntity
  8
細線
 48
50.0
100
AcDbLine
 10
2741.970584622936
 20
1376.494487209284
 30
0.0
 11
2756.970584622934
 21
1376.494487209285
 31
0.0
  0
LINE
  5
18D06
330
18C7A
100
AcDbEntity
  8
細線
 48
50.0
100
AcDbLine
 10
2756.970584622934
 20
1376.494487209285
 30
0.0
 11
2756.970596256909
 21
1383.494487209331
 31
0.0
  0
LINE
  5
18D07
330
18C7A
100
AcDbEntity
  8
細線
 48
50.0
100
AcDbLine
 10
2756.970596256909
 20
1383.494487209331
 30
0.0
 11
2771.970594427439
 21
1383.494487209329
 31
0.0
  0
LINE
  5
18D08
330
18C7A
100
AcDbEntity
  8
細線
 48
50.0
100
AcDbLine
 10
2771.970594427439
 20
1383.494487209329
 30
0.0
 11
2771.970584125617
 21
1354.494281037055
 31
0.0
  0
LINE
  5
18D09
330
18C7A
100
AcDbEntity
  8
細線
 48
50.0
100
AcDbLine
 10
2458.070304175992
 20
1354.494278397076
 30
0.0
 11
2389.470863838818
 21
1354.494283787084
 31
0.0
  0
LINE
  5
18D0A
330
18C7A
100
AcDbEntity
  8
細線
 48
50.0
100
AcDbLine
 10
2096.970556362348
 20
1354.493912699161
 30
0.0
 11
2108.203245717057
 21
1354.494095652309
 31
0.0
  0
ARC
  5
18D0B
330
18C7A
100
AcDbEntity
  8
細線
 48
50.0
100
AcDbCircle
 10
2114.785538024393
 20
1353.294259565922
 30
0.0
 40
1.8
100
AcDbArc
 50
270.0006665777295
 51
345.000555481349
  0
LINE
  5
18D0C
330
18C7A
100
AcDbEntity
  8
細線
 48
50.0
100
AcDbLine
 10
2116.771971470473
 20
1353.753100023201
 30
0.0
 11
2116.524209028273
 21
1352.828402141094
 31
0.0
  0
LINE
  5
18D0D
330
18C7A
100
AcDbEntity
  8
細線
 48
50.0
100
AcDbLine
 10
2114.785558965548
 20
1351.494259566043
 30
0.0
 11
2111.155631546781
 21
1351.494217335563
 31
0.0
  0
ARC
  5
18D0E
330
18C7A
100
AcDbEntity
  8
細線
 48
50.0
100
AcDbCircle
 10
2111.155610605627
 20
1353.29421733544
 30
0.0
 40
1.8
100
AcDbArc
 50
195.0010443049965
 51
270.0006665777295
  0
LINE
  5
18D0F
330
18C7A
100
AcDbEntity
  8
細線
 48
50.0
100
AcDbLine
 10
2109.169183113368
 20
1353.752932303007
 30
0.0
 11
2109.416952609882
 21
1352.828311364425
 31
0.0
  0
ARC
  5
18D10
330
18C7A
100
AcDbEntity
  8
細線
 48
50.0
100
AcDbCircle
 10
2108.203262004622
 20
1353.494095652444
 30
0.0
 40
1.0
100
AcDbArc
 50
15.00104430499651
 51
90.00093320877969
  0
LINE
  5
18D11
330
18C7A
100
AcDbEntity
  8
細線
 48
50.0
100
AcDbLine
 10
2117.737892825577
 20
1354.494290342714
 30
0.0
 11
2118.679652976481
 21
1354.494296916564
 31
0.0
  0
ARC
  5
18D12
330
18C7A
100
AcDbEntity
  8
細線
 48
50.0
100
AcDbCircle
 10
2117.737899805961
 20
1353.49429034274
 30
0.0
 40
1.0
100
AcDbArc
 50
90.0003999466794
 51
165.000555481349
  0
LINE
  5
18D13
330
18C7A
100
AcDbEntity
  8
細線
 48
50.0
100
AcDbLine
 10
2669.470584622926
 20
1354.494281037055
 30
0.0
 11
2771.970584125617
 21
1354.494281037055
 31
0.0
  0
LINE
  5
18D14
330
18C7A
100
AcDbEntity
  8
細線
 48
50.0
100
AcDbLine
 10
2179.47061994182
 20
1354.494289224422
 30
0.0
 11
2118.370558714898
 21
1354.494296916564
 31
0.0
  0
LINE
  5
18D15
330
18C7A
100
AcDbEntity
  8
細線
 48
50.0
100
AcDbLine
 10
2599.470584622926
 20
1354.494281037057
 30
0.0
 11
2529.470584622926
 21
1354.494281037055
 31
0.0
  0
LINE
  5
18D16
330
18C7A
100
AcDbEntity
  8
細線
 48
50.0
100
AcDbLine
 10
2319.470584622926
 20
1354.494281037054
 30
0.0
 11
2249.470567335051
 21
1354.494281037057
 31
0.0
  0
ARC
  5
18D17
330
18C7A
100
AcDbEntity
  8
細線
 48
50.0
100
AcDbCircle
 10
2756.170589276533
 20
1387.694269174466
 30
0.0
 40
0.8
100
AcDbArc
 50
359.9997333689499
 51
89.99986668437072
  0
ARC
  5
18D18
330
18C7A
100
AcDbEntity
  8
細線
 48
50.0
100
AcDbCircle
 10
2763.770596101631
 20
1387.694280343081
 30
0.0
 40
0.8
100
AcDbArc
 50
90.00014387753465
 51
179.9997333689498
  0
LINE
  5
18D19
330
18C7A
100
AcDbEntity
  8
細線
 48
50.0
100
AcDbLine
 10
2756.170591137969
 20
1388.494269174465
 30
0.0
 11
2750.970589276525
 21
1388.494269174465
 31
0.0
  0
ARC
  5
18D1A
330
18C7A
100
AcDbEntity
  8
細線
 48
50.0
100
AcDbCircle
 10
2757.670589276524
 20
1386.194269174464
 30
0.0
 40
0.7
100
AcDbArc
 50
180.0
 51
270.0
  0
ARC
  5
18D1B
330
18C7A
100
AcDbEntity
  8
細線
 48
50.0
100
AcDbCircle
 10
2762.270589276524
 20
1386.194269174464
 30
0.0
 40
0.7
100
AcDbArc
 50
270.0
 51
0.0
  0
LINE
  5
18D1C
330
18C7A
100
AcDbEntity
  8
細線
 48
50.0
100
AcDbLine
 10
2762.970589276525
 20
1386.194269174464
 30
0.0
 11
2762.970596101639
 21
1387.694284065954
 31
0.0
  0
LINE
  5
18D1D
330
18C7A
100
AcDbEntity
  8
細線
 48
50.0
100
AcDbLine
 10
2757.670589276524
 20
1385.494269174465
 30
0.0
 11
2762.270589276524
 21
1385.494269174465
 31
0.0
  0
LINE
  5
18D1E
330
18C7A
100
AcDbEntity
  8
細線
 48
50.0
100
AcDbLine
 10
2756.970589276525
 20
1387.694269174466
 30
0.0
 11
2756.970589276525
 21
1386.194269174464
 31
0.0
  0
LINE
  5
18D1F
330
18C7A
100
AcDbEntity
  8
細線
 48
50.0
100
AcDbLine
 10
3382.570589276527
 20
1418.494269174465
 30
0.0
 11
2745.970589276525
 21
1418.494269174463
 31
0.0
  0
LINE
  5
18D20
330
18C7A
100
AcDbEntity
  8
細線
 48
50.0
100
AcDbLine
 10
3408.470589276525
 20
1413.494269174467
 30
0.0
 11
3392.570589276527
 21
1413.494269174465
 31
0.0
  0
LINE
  5
18D21
330
18C7A
100
AcDbEntity
  8
細線
 48
50.0
100
AcDbLine
 10
3392.570589276526
 20
1413.494269174465
 30
0.0
 11
3382.570589276527
 21
1418.494269174465
 31
0.0
  0
LINE
  5
18D22
330
18C7A
100
AcDbEntity
  8
細線
100
AcDbLine
 10
2993.470589276525
 20
1388.494269174465
 30
0.0
 11
2993.470589276525
 21
1417.794269174464
 31
0.0
  0
LINE
  5
18D23
330
18C7A
100
AcDbEntity
  8
細線
100
AcDbLine
 10
2993.470589276525
 20
1417.794269174464
 30
0.0
 11
3013.470589276525
 21
1417.794269174464
 31
0.0
  0
LINE
  5
18D24
330
18C7A
100
AcDbEntity
  8
細線
100
AcDbLine
 10
3013.470589276525
 20
1388.494269174465
 30
0.0
 11
3013.470589276525
 21
1417.794269174464
 31
0.0
  0
LINE
  5
18D25
330
18C7A
100
AcDbEntity
  8
細線
100
AcDbLine
 10
3170.720589276524
 20
1388.494269174465
 30
0.0
 11
3100.720589276523
 21
1388.494269174465
 31
0.0
  0
LINE
  5
18D26
330
18C7A
100
AcDbEntity
  8
細線
 48
50.0
100
AcDbLine
 10
2890.720589276525
 20
1388.494269174465
 30
0.0
 11
2763.766368849365
 21
1388.494269174465
 31
0.0
  0
LINE
  5
18D27
330
18C7A
100
AcDbEntity
  8
細線
100
AcDbLine
 10
3030.720589276525
 20
1388.494269174465
 30
0.0
 11
2960.720589276525
 21
1388.494269174465
 31
0.0
  0
LINE
  5
18D28
330
18C7A
100
AcDbEntity
  8
細線
 48
50.0
100
AcDbLine
 10
2750.970589276525
 20
1380.494269174465
 30
0.0
 11
2750.970589276525
 21
1388.494269174465
 31
0.0
  0
LINE
  5
18D29
330
18C7A
100
AcDbEntity
  8
細線
 48
50.0
100
AcDbLine
 10
2730.970589276524
 20
1380.494269174467
 30
0.0
 11
2750.970589276525
 21
1380.494269174465
 31
0.0
  0
LINE
  5
18D2A
330
18C7A
100
AcDbEntity
  8
細線
 48
50.0
100
AcDbLine
 10
2745.970589276525
 20
1418.494269174465
 30
0.0
 11
2745.970589276525
 21
1413.494269174465
 31
0.0
  0
LINE
  5
18D2B
330
18C7A
100
AcDbEntity
  8
細線
 48
50.0
100
AcDbLine
 10
2730.970589276525
 20
1418.494269174463
 30
0.0
 11
2745.970589276525
 21
1418.494269174465
 31
0.0
  0
LINE
  5
18D2C
330
18C7A
100
AcDbEntity
  8
細線
 48
50.0
100
AcDbLine
 10
2730.970589276524
 20
1380.494269174467
 30
0.0
 11
2730.970589276525
 21
1418.494269174463
 31
0.0
  0
LINE
  5
18D2D
330
18C7A
100
AcDbEntity
  8
細線
100
AcDbLine
 10
3398.970589276523
 20
1388.494269174465
 30
0.0
 11
3240.720589276525
 21
1388.494269174465
 31
0.0
  0
LINE
  5
18D2E
330
18C7A
100
AcDbEntity
  8
細線
 48
50.0
100
AcDbLine
 10
3408.470589276525
 20
1413.494269174467
 30
0.0
 11
3408.470589276524
 21
1388.494269174465
 31
0.0
  0
TEXT
  5
18D2F
330
18C7A
100
AcDbEntity
  8
部品1
100
AcDbText
 10
1860.154865991392
 20
46.99880823813145
 30
0.0
 40
135.0
  1
平面図
  7
STYLE2
100
AcDbText
  0
LWPOLYLINE
  5
18D30
330
18C7A
100
AcDbEntity
  8
部品1
100
AcDbPolyline
 90
        4
 70
     1
 43
0.0
 10
1770.23525616235
 20
239.8923374566548
 10
1770.23525616235
 20
0.0000159111223184
 10
2533.705922390791
 20
0.0000159111223184
 10
2533.705922390791
 20
239.8923374566548
  0
LINE
  5
18D31
330
18C7A
100
AcDbEntity
  8
部品1
100
AcDbLine
 10
1534.470589276487
 20
3154.494269174626
 30
0.0
 11
2769.470589276552
 21
3154.494269174626
 31
0.0
  0
LINE
  5
18D32
330
18C7A
100
AcDbEntity
  8
部品1
 48
50.0
100
AcDbLine
 10
1311.970589276523
 20
1420.494269174462
 30
0.0
 11
3411.970589276523
 21
1420.494269174465
 31
0.0
  0
LINE
  5
18D33
330
18C7A
100
AcDbEntity
  8
部品1
 48
50.0
100
AcDbLine
 10
471.9705892765232
 20
1392.494269174465
 30
0.0
 11
1311.970589276523
 21
1392.494269174465
 31
0.0
  0
DIMENSION
  5
18D34
330
18C7A
100
AcDbEntity
  8
寸法
100
AcDbDimension
  2
*D14
 10
2710.234916278077
 20
2488.887829538828
 30
0.0
 11
2338.318822490183
 21
2488.887829538828
 31
0.0
 12
-3742.925985830444
 22
-6453.628869860112
 32
0.0
 70
   128
 71
     5
 42
1231.00000000007
  3
INABA_S40G
100
AcDbAlignedDimension
 13
1536.470589276486
 23
2702.494269174557
 33
0.0
 14
2767.470589276556
 24
2702.494269174549
 34
0.0
100
AcDbRotatedDimension
1001
ACAD
1000
DSTYLE
1002
{
1002
}
  0
LINE
  5
18D35
330
18C7A
100
AcDbEntity
  8
部品1
100
AcDbLine
 10
1536.470589276487
 20
2702.494269174557
 30
0.0
 11
2767.470589276554
 21
2702.494269174615
 31
0.0
  0
LINE
  5
18D36
330
18C7A
100
AcDbEntity
  8
部品1
100
AcDbLine
 10
1536.470589276487
 20
3152.494269174557
 30
0.0
 11
2767.470589276556
 21
3152.494269174615
 31
0.0
  0
LINE
  5
18D37
330
18C7A
100
AcDbEntity
  8
細線
 48
50.0
100
AcDbLine
 10
1508.470589276487
 20
3152.494269174558
 30
0.0
 11
445.4705892765559
 21
2702.494269174509
 31
0.0
  0
LINE
  5
18D38
330
18C7A
100
AcDbEntity
  8
細線
 48
50.0
100
AcDbLine
 10
1508.470589276487
 20
2702.494269174558
 30
0.0
 11
445.4705892765542
 21
3152.494269174509
 31
0.0
  0
LINE
  5
18D39
330
18C7A
100
AcDbEntity
  8
部品1
100
AcDbLine
 10
1556.970589276487
 20
3172.494269174611
 30
0.0
 11
1556.970589276487
 21
3154.494269174611
 31
0.0
  0
LINE
  5
18D3A
330
18C7A
100
AcDbEntity
  8
部品1
100
AcDbLine
 10
1556.970589276487
 20
3172.494269174611
 30
0.0
 11
1550.970589276487
 21
3172.494269174611
 31
0.0
  0
LINE
  5
18D3B
330
18C7A
100
AcDbEntity
  8
部品1
100
AcDbLine
 10
1534.470589276487
 20
3146.494269174608
 30
0.0
 11
1509.470589276487
 21
3146.494269174611
 31
0.0
  0
LINE
  5
18D3C
330
18C7A
100
AcDbEntity
  8
部品1
100
AcDbLine
 10
1486.970589276487
 20
3172.494269174611
 30
0.0
 11
1486.970589276487
 21
3154.494269174611
 31
0.0
  0
LINE
  5
18D3D
330
18C7A
100
AcDbEntity
  8
部品1
100
AcDbLine
 10
1492.970589276487
 20
3172.494269174611
 30
0.0
 11
1486.970589276487
 21
3172.494269174611
 31
0.0
  0
LINE
  5
18D3E
330
18C7A
100
AcDbEntity
  8
部品1
100
AcDbLine
 10
1534.470589276487
 20
2702.494269174615
 30
0.0
 11
1509.470589276487
 21
2702.494269174615
 31
0.0
  0
LINE
  5
18D3F
330
18C7A
100
AcDbEntity
  8
部品1
 48
50.0
100
AcDbLine
 10
1536.470589276487
 20
3152.494269174611
 30
0.0
 11
1536.470589276487
 21
2702.494269174615
 31
0.0
  0
LINE
  5
18D40
330
18C7A
100
AcDbEntity
  8
部品1
 48
50.0
100
AcDbLine
 10
1508.470589276487
 20
3152.494269174607
 30
0.0
 11
1508.470589276487
 21
2702.494269174615
 31
0.0
  0
LINE
  5
18D41
330
18C7A
100
AcDbEntity
  8
部品1
 48
50.0
100
AcDbLine
 10
1534.470589276487
 20
3154.494269174618
 30
0.0
 11
1534.470589276487
 21
2702.494269174615
 31
0.0
  0
LINE
  5
18D42
330
18C7A
100
AcDbEntity
  8
部品1
 48
50.0
100
AcDbLine
 10
1509.470589276487
 20
3154.494269174615
 30
0.0
 11
1509.470589276487
 21
2702.494269174615
 31
0.0
  0
LINE
  5
18D43
330
18C7A
100
AcDbEntity
  8
部品1
100
AcDbLine
 10
3411.970589276556
 20
1392.494269174582
 30
0.0
 11
3411.970589276556
 21
1420.494269174596
 31
0.0
  0
LINE
  5
18D44
330
18C7A
100
AcDbEntity
  8
部品1
100
AcDbLine
 10
1311.970589276523
 20
1392.494269174596
 30
0.0
 11
1311.970589276523
 21
1420.494269174596
 31
0.0
  0
LINE
  5
18D45
330
18C7A
100
AcDbEntity
  8
部品1
100
AcDbLine
 10
891.9705892765232
 20
1392.494269174596
 30
0.0
 11
891.9705892765232
 21
1420.494269174596
 31
0.0
  0
LINE
  5
18D46
330
18C7A
100
AcDbEntity
  8
部品1
100
AcDbLine
 10
3411.97058927652
 20
3182.494269174477
 30
0.0
 11
3411.970589276523
 21
3154.494269174477
 31
0.0
  0
LINE
  5
18D47
330
18C7A
100
AcDbEntity
  8
部品1
100
AcDbLine
 10
2571.97058927652
 20
3182.494269174477
 30
0.0
 11
2571.970589276523
 21
3154.494269174477
 31
0.0
  0
LINE
  5
18D48
330
18C7A
100
AcDbEntity
  8
部品1
100
AcDbLine
 10
2991.97058927652
 20
3182.494269174477
 30
0.0
 11
2991.970589276523
 21
3154.494269174477
 31
0.0
  0
LINE
  5
18D49
330
18C7A
100
AcDbEntity
  8
部品1
100
AcDbLine
 10
2151.970589276519
 20
3182.494269174477
 30
0.0
 11
2151.970589276523
 21
3154.494269174477
 31
0.0
  0
LINE
  5
18D4A
330
18C7A
100
AcDbEntity
  8
部品1
100
AcDbLine
 10
1731.970589276519
 20
3182.494269174477
 30
0.0
 11
1731.970589276523
 21
3154.494269174477
 31
0.0
  0
LINE
  5
18D4B
330
18C7A
100
AcDbEntity
  8
部品1
100
AcDbLine
 10
1311.970589276519
 20
3182.494269174477
 30
0.0
 11
1311.970589276523
 21
3154.494269174477
 31
0.0
  0
LINE
  5
18D4C
330
18C7A
100
AcDbEntity
  8
部品1
100
AcDbLine
 10
891.9705892765195
 20
3182.494269174477
 30
0.0
 11
891.9705892765232
 21
3154.494269174477
 31
0.0
  0
LINE
  5
18D4D
330
18C7A
100
AcDbEntity
  8
部品1
100
AcDbLine
 10
471.9705892765232
 20
1392.494269174596
 30
0.0
 11
471.9705892765232
 21
1420.494269174596
 31
0.0
  0
LINE
  5
18D4E
330
18C7A
100
AcDbEntity
  8
部品1
100
AcDbLine
 10
444.9705892765305
 20
1420.494269174558
 30
0.0
 11
3858.970589276556
 21
1420.494269174596
 31
0.0
  0
LINE
  5
18D4F
330
18C7A
100
AcDbEntity
  8
部品1
100
AcDbLine
 10
3831.970589276556
 20
1392.494269174596
 30
0.0
 11
3831.970589276556
 21
1420.494269174596
 31
0.0
  0
LINE
  5
18D50
330
18C7A
100
AcDbEntity
  8
部品1
100
AcDbLine
 10
3858.970589276556
 20
1447.494269174593
 30
0.0
 11
3886.970589276556
 21
1447.494269174593
 31
0.0
  0
LINE
  5
18D51
330
18C7A
100
AcDbEntity
  8
部品1
100
AcDbLine
 10
3858.970589276556
 20
1867.494269174607
 30
0.0
 11
3886.970589276556
 21
1867.494269174607
 31
0.0
  0
LINE
  5
18D52
330
18C7A
100
AcDbEntity
  8
部品1
100
AcDbLine
 10
444.9705892765305
 20
1867.49426917448
 30
0.0
 11
416.9705892765305
 21
1867.49426917448
 31
0.0
  0
LINE
  5
18D53
330
18C7A
100
AcDbEntity
  8
部品1
100
AcDbLine
 10
3830.470589276541
 20
1867.49426917458
 30
0.0
 11
473.4705892765396
 21
1867.49426917448
 31
0.0
  0
LINE
  5
18D54
330
18C7A
100
AcDbEntity
  8
部品1
100
AcDbLine
 10
3830.470589276541
 20
2287.49426917458
 30
0.0
 11
473.4705892765396
 21
2287.49426917448
 31
0.0
  0
LINE
  5
18D55
330
18C7A
100
AcDbEntity
  8
部品1
100
AcDbLine
 10
444.9705892765305
 20
2287.49426917448
 30
0.0
 11
416.9705892765305
 21
2287.49426917448
 31
0.0
  0
LINE
  5
18D56
330
18C7A
100
AcDbEntity
  8
部品1
100
AcDbLine
 10
3858.970589276556
 20
2287.494269174608
 30
0.0
 11
3886.970589276556
 21
2287.494269174608
 31
0.0
  0
LINE
  5
18D57
330
18C7A
100
AcDbEntity
  8
部品1
 48
50.0
100
AcDbLine
 10
2151.970589276551
 20
2702.494269174586
 30
0.0
 11
2151.970589276581
 21
1448.994269174494
 31
0.0
  0
LINE
  5
18D58
330
18C7A
100
AcDbEntity
  8
破線
 48
10.0
100
AcDbLine
 10
2959.470589276535
 20
1472.494269174522
 30
0.0
 11
2176.970589276532
 21
1472.494269174505
 31
0.0
  0
LINE
  5
18D59
330
18C7A
100
AcDbEntity
  8
破線
 48
10.0
100
AcDbLine
 10
3009.47058927653
 20
1448.994269174509
 30
0.0
 11
3009.47058927653
 21
2702.494269174615
 31
0.0
  0
LINE
  5
18D5A
330
18C7A
100
AcDbEntity
  8
破線
 48
10.0
100
AcDbLine
 10
2959.470589276535
 20
1448.994269174505
 30
0.0
 11
2959.470589276531
 21
2702.494269174615
 31
0.0
  0
LINE
  5
18D5B
330
18C7A
100
AcDbEntity
  8
破線
 48
10.0
100
AcDbLine
 10
1344.47058927653
 20
1448.994269174509
 30
0.0
 11
1344.47058927653
 21
2702.494269174615
 31
0.0
  0
LINE
  5
18D5C
330
18C7A
100
AcDbEntity
  8
破線
 48
10.0
100
AcDbLine
 10
1294.470589276534
 20
1448.994269174505
 30
0.0
 11
1294.47058927653
 21
2702.494269174615
 31
0.0
  0
DIMENSION
  5
18D5D
330
18C7A
100
AcDbEntity
  8
寸法
100
AcDbDimension
  2
*D13
 10
1451.234916278005
 20
2488.887829538828
 30
0.0
 11
916.0604668248634
 21
2488.887829538828
 31
0.0
 12
-3742.925985830444
 22
-6453.628869860112
 32
0.0
 70
   128
 71
     5
 42
1062.99999999993
  3
INABA_S40G
100
AcDbAlignedDimension
 13
445.4705892765559
 23
2702.494269174505
 33
0.0
 14
1508.470589276486
 24
2702.494269174558
 34
0.0
100
AcDbRotatedDimension
1001
ACAD
1000
DSTYLE
1002
{
1002
}
  0
LINE
  5
18D5E
330
18C7A
100
AcDbEntity
  8
破線
 48
10.0
100
AcDbLine
 10
1294.470589276534
 20
1472.494269174469
 30
0.0
 11
496.9705892765414
 21
1472.494269174476
 31
0.0
  0
LINE
  5
18D5F
330
18C7A
100
AcDbEntity
  8
部品1
100
AcDbLine
 10
3831.970589276556
 20
3182.494269174604
 30
0.0
 11
3831.970589276556
 21
3154.494269174604
 31
0.0
  0
LINE
  5
18D60
330
18C7A
100
AcDbEntity
  8
部品1
100
AcDbLine
 10
3831.970589276556
 20
3182.494269174626
 30
0.0
 11
3831.970589276556
 21
3154.494269174626
 31
0.0
  0
LINE
  5
18D61
330
18C7A
100
AcDbEntity
  8
部品1
100
AcDbLine
 10
3858.970589276556
 20
3127.494269174607
 30
0.0
 11
3886.970589276556
 21
3127.494269174607
 31
0.0
  0
LINE
  5
18D62
330
18C7A
100
AcDbEntity
  8
部品1
100
AcDbLine
 10
3858.970589276556
 20
2707.494269174608
 30
0.0
 11
3886.970589276556
 21
2707.494269174608
 31
0.0
  0
LINE
  5
18D63
330
18C7A
100
AcDbEntity
  8
部品1
100
AcDbLine
 10
3858.470589276556
 20
3152.494269174604
 30
0.0
 11
3858.470589276556
 21
2702.494269174608
 31
0.0
  0
LINE
  5
18D64
330
18C7A
100
AcDbEntity
  8
部品1
100
AcDbLine
 10
3886.970589276533
 20
1447.494269174593
 30
0.0
 11
3886.970589276531
 21
1392.494269174596
 31
0.0
  0
LINE
  5
18D65
330
18C7A
100
AcDbEntity
  8
部品1
 48
50.0
100
AcDbLine
 10
3830.470589276556
 20
1448.994269174596
 30
0.0
 11
3858.970589276554
 21
1420.494269174596
 31
0.0
  0
LINE
  5
18D66
330
18C7A
100
AcDbEntity
  8
部品1
100
AcDbLine
 10
3886.970589276531
 20
1392.494269174596
 30
0.0
 11
3835.970589276531
 21
1392.494269174596
 31
0.0
  0
LINE
  5
18D67
330
18C7A
100
AcDbEntity
  8
部品1
100
AcDbLine
 10
3858.970589276533
 20
1447.494269174593
 30
0.0
 11
3886.970589276531
 21
1447.494269174593
 31
0.0
  0
LINE
  5
18D68
330
18C7A
100
AcDbEntity
  8
部品1
100
AcDbLine
 10
3886.970589276556
 20
3182.494269174604
 30
0.0
 11
3886.970589276531
 21
1392.494269174596
 31
0.0
  0
DIMENSION
  5
18D69
330
18C7A
100
AcDbEntity
  8
寸法
100
AcDbDimension
  2
*D12
 10
4534.396935010967
 20
1447.494269174593
 30
0.0
 11
4534.396935010965
 21
2287.4942691746
 31
0.0
 12
-3742.925985830444
 22
-6453.628869860112
 32
0.0
 70
   128
  1
4X420=<>
 71
     5
 42
1680.000000000014
  3
INABA_S40G
100
AcDbAlignedDimension
 13
3886.970589276556
 23
3127.494269174607
 33
0.0
 14
3886.970589276531
 24
1447.494269174593
 34
0.0
 50
90.0
100
AcDbRotatedDimension
1001
ACAD
1000
DSTYLE
1002
{
1002
}
  0
LINE
  5
18D6A
330
18C7A
100
AcDbEntity
  8
部品1
100
AcDbLine
 10
3858.970589276556
 20
3154.494269174604
 30
0.0
 11
3858.970589276534
 21
1420.494269174596
 31
0.0
  0
DIMENSION
  5
18D6B
330
18C7A
100
AcDbEntity
  8
寸法
100
AcDbDimension
  2
*D11
 10
4213.82831513858
 20
2607.276453505718
 30
0.0
 11
4113.828315138579
 21
2832.276453505718
 31
0.0
 12
-3742.925985830444
 22
-6453.628869860112
 32
0.0
 71
     5
 42
449.9999999999963
  3
INABA_S40G
100
AcDbAlignedDimension
 13
3858.470589276556
 23
3152.494269174604
 33
0.0
 14
3858.470589276556
 24
2702.494269174608
 34
0.0
 50
90.0
100
AcDbRotatedDimension
1001
ACAD
1000
DSTYLE
1002
{
1002
}
  0
LINE
  5
18D6C
330
18C7A
100
AcDbEntity
  8
部品1
100
AcDbLine
 10
3830.470589276547
 20
2702.494269174608
 30
0.0
 11
3830.470589276556
 21
1448.994269174596
 31
0.0
  0
LINE
  5
18D6D
330
18C7A
100
AcDbEntity
  8
破線
 48
10.0
100
AcDbLine
 10
3806.970589276549
 20
2702.494269174608
 30
0.0
 11
3806.970589276558
 21
1472.494269174593
 31
0.0
  0
LINE
  5
18D6E
330
18C7A
100
AcDbEntity
  8
部品1
100
AcDbLine
 10
2769.470589276556
 20
3146.494269174608
 30
0.0
 11
2794.470589276556
 21
3146.494269174611
 31
0.0
  0
LINE
  5
18D6F
330
18C7A
100
AcDbEntity
  8
部品1
100
AcDbLine
 10
2810.970589276556
 20
3172.494269174611
 30
0.0
 11
2816.970589276556
 21
3172.494269174611
 31
0.0
  0
LINE
  5
18D70
330
18C7A
100
AcDbEntity
  8
部品1
100
AcDbLine
 10
2816.970589276556
 20
3172.494269174611
 30
0.0
 11
2816.970589276556
 21
3154.494269174611
 31
0.0
  0
LINE
  5
18D71
330
18C7A
100
AcDbEntity
  8
部品1
100
AcDbLine
 10
2746.970589276556
 20
3172.494269174611
 30
0.0
 11
2752.970589276556
 21
3172.494269174611
 31
0.0
  0
LINE
  5
18D72
330
18C7A
100
AcDbEntity
  8
部品1
100
AcDbLine
 10
2746.970589276556
 20
3172.494269174611
 30
0.0
 11
2746.970589276556
 21
3154.494269174611
 31
0.0
  0
LINE
  5
18D73
330
18C7A
100
AcDbEntity
  8
部品1
100
AcDbLine
 10
2769.470589276556
 20
2702.494269174615
 30
0.0
 11
2794.470589276556
 21
2702.494269174615
 31
0.0
  0
LINE
  5
18D74
330
18C7A
100
AcDbEntity
  8
部品1
 48
50.0
100
AcDbLine
 10
2794.470589276556
 20
3154.494269174615
 30
0.0
 11
2794.470589276556
 21
2702.494269174615
 31
0.0
  0
LINE
  5
18D75
330
18C7A
100
AcDbEntity
  8
部品1
 48
50.0
100
AcDbLine
 10
2769.470589276554
 20
3154.494269174618
 30
0.0
 11
2769.470589276556
 21
2702.494269174615
 31
0.0
  0
LINE
  5
18D76
330
18C7A
100
AcDbEntity
  8
部品1
 48
50.0
100
AcDbLine
 10
2795.470589276556
 20
3152.494269174607
 30
0.0
 11
2795.470589276556
 21
2702.494269174615
 31
0.0
  0
LINE
  5
18D77
330
18C7A
100
AcDbEntity
  8
部品1
 48
50.0
100
AcDbLine
 10
2767.470589276556
 20
3152.494269174611
 30
0.0
 11
2767.470589276556
 21
2702.494269174615
 31
0.0
  0
LINE
  5
18D78
330
18C7A
100
AcDbEntity
  8
破線
 48
10.0
100
AcDbLine
 10
2176.97058927653
 20
1448.994269174509
 30
0.0
 11
2176.97058927653
 21
2702.494269174588
 31
0.0
  0
LINE
  5
18D79
330
18C7A
100
AcDbEntity
  8
破線
 48
10.0
100
AcDbLine
 10
2126.970589276534
 20
1448.994269174505
 30
0.0
 11
2126.970589276531
 21
2702.494269174586
 31
0.0
  0
LINE
  5
18D7A
330
18C7A
100
AcDbEntity
  8
部品1
100
AcDbLine
 10
2794.470589276556
 20
3154.494269174622
 30
0.0
 11
3858.970589276556
 21
3154.494269174604
 31
0.0
  0
LINE
  5
18D7B
330
18C7A
100
AcDbEntity
  8
細線
 48
50.0
100
AcDbLine
 10
3858.470589276556
 20
2702.494269174608
 30
0.0
 11
2795.470589276556
 21
3152.494269174607
 31
0.0
  0
LINE
  5
18D7C
330
18C7A
100
AcDbEntity
  8
部品1
100
AcDbLine
 10
2795.470589276555
 20
2702.494269174615
 30
0.0
 11
3858.470589276556
 21
2702.494269174608
 31
0.0
  0
LINE
  5
18D7D
330
18C7A
100
AcDbEntity
  8
部品1
100
AcDbLine
 10
2795.470589276556
 20
3152.494269174611
 30
0.0
 11
3858.470589276556
 21
3152.494269174604
 31
0.0
  0
LINE
  5
18D7E
330
18C7A
100
AcDbEntity
  8
細線
 48
50.0
100
AcDbLine
 10
3858.470589276556
 20
3152.494269174604
 30
0.0
 11
2795.470589276555
 21
2702.494269174615
 31
0.0
  0
DIMENSION
  5
18D7F
330
18C7A
100
AcDbEntity
  8
寸法
100
AcDbDimension
  2
*D10
 10
3801.234916278101
 20
2488.887829538937
 30
0.0
 11
3318.360544398907
 21
2488.887829538937
 31
0.0
 12
-3742.925985830444
 22
-6453.628869860112
 32
0.0
 70
   128
 71
     5
 42
1063.000000000012
  3
INABA_S40G
100
AcDbAlignedDimension
 13
2795.470589276555
 23
2702.494269174615
 33
0.0
 14
3858.470589276567
 24
2702.494269174608
 34
0.0
100
AcDbRotatedDimension
1001
ACAD
1000
DSTYLE
1002
{
1002
}
  0
LINE
  5
18D80
330
18C7A
100
AcDbEntity
  8
破線
 48
10.0
100
AcDbLine
 10
3806.970589276556
 20
1472.494269174594
 30
0.0
 11
3009.47058927653
 21
1472.494269174523
 31
0.0
  0
DIMENSION
  5
18D81
330
18C7A
100
AcDbEntity
  8
寸法
100
AcDbDimension
  2
*D9
 10
4534.396935010941
 20
1392.494269174596
 30
0.0
 11
4534.39693501094
 21
1084.008987800356
 31
0.0
 12
-3742.925985830444
 22
-6453.628869860112
 32
0.0
 70
   128
 71
     5
 42
54.99999999999636
  3
INABA_S40G
100
AcDbAlignedDimension
 13
3886.970589276531
 23
1447.494269174593
 33
0.0
 14
3886.970589276531
 24
1392.494269174596
 34
0.0
 50
90.0
100
AcDbRotatedDimension
1001
ACAD
1000
DSTYLE
1002
{
1002
}
  0
LINE
  5
18D82
330
18C7A
100
AcDbEntity
  8
部品1
100
AcDbLine
 10
471.9705892765196
 20
3182.494269174477
 30
0.0
 11
471.9705892765232
 21
3154.494269174477
 31
0.0
  0
LINE
  5
18D83
330
18C7A
100
AcDbEntity
  8
部品1
100
AcDbLine
 10
471.9705892765559
 20
3182.494269174509
 30
0.0
 11
471.9705892765559
 21
3154.494269174509
 31
0.0
  0
LINE
  5
18D84
330
18C7A
100
AcDbEntity
  8
部品1
100
AcDbLine
 10
444.9705892765232
 20
3127.49426917448
 30
0.0
 11
416.9705892765232
 21
3127.49426917448
 31
0.0
  0
LINE
  5
18D85
330
18C7A
100
AcDbEntity
  8
部品1
100
AcDbLine
 10
444.9705892765305
 20
2707.49426917448
 30
0.0
 11
416.9705892765305
 21
2707.49426917448
 31
0.0
  0
LINE
  5
18D86
330
18C7A
100
AcDbEntity
  8
部品1
 48
50.0
100
AcDbLine
 10
445.4705892765542
 20
3152.494269174506
 30
0.0
 11
445.4705892765559
 21
2702.494269174505
 31
0.0
  0
LINE
  5
18D87
330
18C7A
100
AcDbEntity
  8
部品1
 48
50.0
100
AcDbLine
 10
473.470589276545
 20
1448.994269174573
 30
0.0
 11
444.970589276545
 21
1420.494269174574
 31
0.0
  0
LINE
  5
18D88
330
18C7A
100
AcDbEntity
  8
部品1
100
AcDbLine
 10
471.9705892765232
 20
1392.494269174465
 30
0.0
 11
416.9705892765486
 21
1392.494269174465
 31
0.0
  0
LINE
  5
18D89
330
18C7A
100
AcDbEntity
  8
部品1
100
AcDbLine
 10
444.9705892765305
 20
1447.494269174429
 30
0.0
 11
416.9705892765469
 21
1447.494269174429
 31
0.0
  0
LINE
  5
18D8A
330
18C7A
100
AcDbEntity
  8
部品1
100
AcDbLine
 10
444.9705892765305
 20
1447.494269174465
 30
0.0
 11
416.9705892765469
 21
1447.494269174465
 31
0.0
  0
LINE
  5
18D8B
330
18C7A
100
AcDbEntity
  8
部品1
100
AcDbLine
 10
444.9705892765469
 20
1447.49426917448
 30
0.0
 11
416.9705892765469
 21
1447.49426917448
 31
0.0
  0
LINE
  5
18D8C
330
18C7A
100
AcDbEntity
  8
部品1
100
AcDbLine
 10
416.9705892765469
 20
1447.494269174429
 30
0.0
 11
416.9705892765486
 21
1392.494269174433
 31
0.0
  0
LINE
  5
18D8D
330
18C7A
100
AcDbEntity
  8
部品1
100
AcDbLine
 10
416.9705892765196
 20
3182.494269174477
 30
0.0
 11
416.9705892765486
 21
1392.494269174465
 31
0.0
  0
LINE
  5
18D8E
330
18C7A
100
AcDbEntity
  8
部品1
100
AcDbLine
 10
444.9705892765305
 20
1420.494269174556
 30
0.0
 11
444.9705892765559
 21
3154.494269174509
 31
0.0
  0
LINE
  5
18D8F
330
18C7A
100
AcDbEntity
  8
部品1
100
AcDbLine
 10
473.4705892765323
 20
2702.494269174608
 30
0.0
 11
473.470589276545
 21
1448.994269174571
 31
0.0
  0
LINE
  5
18D90
330
18C7A
100
AcDbEntity
  8
破線
 48
10.0
100
AcDbLine
 10
496.9705892765305
 20
2702.494269174608
 30
0.0
 11
496.9705892765451
 21
1472.494269174476
 31
0.0
  0
DIMENSION
  5
18D91
330
18C7A
100
AcDbEntity
  8
寸法
100
AcDbDimension
  2
*D8
 10
3886.970589276531
 20
410.7433333855515
 30
0.0
 11
2168.197775309287
 21
410.7433333855515
 31
0.0
 12
-3742.925985830444
 22
-6453.628869860112
 32
0.0
 70
   128
 71
     5
 42
3469.999999999982
  3
INABA_S40G
100
AcDbAlignedDimension
 13
416.9705892765486
 23
1392.494269174433
 33
0.0
 14
3886.970589276531
 24
1392.49426917456
 34
0.0
100
AcDbRotatedDimension
1001
ACAD
1000
DSTYLE
1002
{
1070
   341
1005
0
1002
}
  0
LINE
  5
18D92
330
18C7A
100
AcDbEntity
  8
部品1
100
AcDbLine
 10
444.9705892765559
 20
3154.494269174624
 30
0.0
 11
1509.470589276487
 21
3154.494269174626
 31
0.0
  0
LINE
  5
18D93
330
18C7A
100
AcDbEntity
  8
部品1
100
AcDbLine
 10
3886.970589276531
 20
1392.494269174596
 30
0.0
 11
3411.970589276556
 21
1392.494269174582
 31
0.0
  0
LINE
  5
18D94
330
18C7A
100
AcDbEntity
  8
部品1
100
AcDbLine
 10
416.9705892765559
 20
3182.494269174509
 30
0.0
 11
3886.970589276556
 21
3182.494269174604
 31
0.0
  0
LINE
  5
18D95
330
18C7A
100
AcDbEntity
  8
部品1
100
AcDbLine
 10
445.4705892765559
 20
2702.494269174509
 30
0.0
 11
1508.470589276487
 21
2702.494269174558
 31
0.0
  0
LINE
  5
18D96
330
18C7A
100
AcDbEntity
  8
細線
 48
50.0
100
AcDbLine
 10
2767.470589276556
 20
3152.494269174611
 30
0.0
 11
1536.470589276487
 21
2702.494269174558
 31
0.0
  0
LINE
  5
18D97
330
18C7A
100
AcDbEntity
  8
部品1
100
AcDbLine
 10
445.4705892765542
 20
3152.494269174509
 30
0.0
 11
1508.470589276485
 21
3152.494269174558
 31
0.0
  0
LINE
  5
18D98
330
18C7A
100
AcDbEntity
  8
細線
 48
50.0
100
AcDbLine
 10
2767.470589276554
 20
2702.494269174615
 30
0.0
 11
1536.470589276485
 21
3152.494269174558
 31
0.0
  0
LINE
  5
18D99
330
18C7A
100
AcDbEntity
  8
破線
 48
10.0
100
AcDbLine
 10
2126.970589276534
 20
1472.494269174502
 30
0.0
 11
1344.47058927653
 21
1472.494269174473
 31
0.0
  0
LINE
  5
18D9A
330
18C7A
100
AcDbEntity
  8
部品1
100
AcDbLine
 10
3830.470589276556
 20
1448.994269174596
 30
0.0
 11
473.4705892764487
 21
1448.994269174476
 31
0.0
  0
DIMENSION
  5
18D9B
330
18C7A
100
AcDbEntity
  8
寸法
100
AcDbDimension
  2
*D7
 10
471.970589276555
 20
3698.302488799491
 30
0.0
 11
108.4853079022819
 21
3698.302488799491
 31
0.0
 12
-3742.925985830444
 22
-6453.628869860112
 32
0.0
 70
   128
 71
     5
 42
55.00000000003456
  3
INABA_S40G
100
AcDbAlignedDimension
 13
416.9705892765205
 23
3182.494269174509
 33
0.0
 14
471.970589276555
 24
3182.494269174509
 34
0.0
100
AcDbRotatedDimension
1001
ACAD
1000
DSTYLE
1002
{
1002
}
  0
DIMENSION
  5
18D9C
330
18C7A
100
AcDbEntity
  8
寸法
100
AcDbDimension
  2
*D6
 10
4534.396935010967
 20
3127.494269174607
 30
0.0
 11
4534.396935010965
 21
3490.979550548844
 31
0.0
 12
-3742.925985830444
 22
-6453.628869860112
 32
0.0
 70
   128
 71
     5
 42
54.99999999999636
  3
INABA_S40G
100
AcDbAlignedDimension
 13
3886.970589276556
 23
3182.494269174604
 33
0.0
 14
3886.970589276556
 24
3127.494269174607
 34
0.0
 50
90.0
100
AcDbRotatedDimension
1001
ACAD
1000
DSTYLE
1002
{
1002
}
  0
DIMENSION
  5
18D9D
330
18C7A
100
AcDbEntity
  8
寸法
100
AcDbDimension
  2
*D5
 10
3886.970589276556
 20
3698.302488799589
 30
0.0
 11
4195.455870650794
 21
3698.302488799589
 31
0.0
 12
-3742.925985830444
 22
-6453.628869860112
 32
0.0
 70
   128
 71
     5
 42
55.0
  3
INABA_S40G
100
AcDbAlignedDimension
 13
3831.970589276556
 23
3182.494269174604
 33
0.0
 14
3886.970589276556
 24
3182.494269174604
 34
0.0
100
AcDbRotatedDimension
1001
ACAD
1000
DSTYLE
1002
{
1002
}
  0
DIMENSION
  5
18D9E
330
18C7A
100
AcDbEntity
  8
寸法
100
AcDbDimension
  2
*D4
 10
3831.970589276556
 20
3698.302488799607
 30
0.0
 11
2151.970589276555
 21
3698.302488799607
 31
0.0
 12
-3742.925985830444
 22
-6453.628869860112
 32
0.0
 70
   128
  1
8X420=<>
 71
     5
 42
3360.000000000001
  3
INABA_S40G
100
AcDbAlignedDimension
 13
471.970589276555
 23
3182.494269174509
 33
0.0
 14
3831.970589276556
 24
3182.494269174604
 34
0.0
100
AcDbRotatedDimension
1001
ACAD
1000
DSTYLE
1002
{
1002
}
  0
DIMENSION
  5
18D9F
330
18C7A
100
AcDbEntity
  8
寸法
100
AcDbDimension
  2
*D3
 10
4899.503876750603
 20
1392.494269174596
 30
0.0
 11
4899.503876750601
 21
2287.4942691746
 31
0.0
 12
-3742.925985830444
 22
-6453.628869860112
 32
0.0
 70
   128
 71
     5
 42
1790.000000000007
  3
INABA_S40G
100
AcDbAlignedDimension
 13
3886.970589276556
 23
3182.494269174604
 33
0.0
 14
3886.970589276531
 24
1392.494269174596
 34
0.0
 50
90.0
100
AcDbRotatedDimension
1001
ACAD
1000
DSTYLE
1002
{
1002
}
  0
ENDBLK
  5
18DA1
330
18C7A
100
AcDbEntity
  8
0
 48
50.0
100
AcDbBlockEnd
  0
BLOCK
  5
1C4CB
330
1C4CA
100
AcDbEntity
  8
0
 48
50.0
100
AcDbBlockBegin
  2
_NONE
 70
     0
 10
0.0
 20
0.0
 30
0.0
  3
_NONE
  1

  0
CIRCLE
  5
1C4CC
330
1C4CA
100
AcDbEntity
  8
0
  6
ByBlock
 62
     0
 48
50.0
100
AcDbCircle
 10
0.0
 20
0.0
 30
0.0
 40
0.25
  0
ENDBLK
  5
1C4CD
330
1C4CA
100
AcDbEntity
  8
0
 48
50.0
100
AcDbBlockEnd
  0
BLOCK
  5
1FC87
330
1FC7E
100
AcDbEntity
  8
0
 48
50.0
100
AcDbBlockBegin
  2
*D19
 70
     1
 10
0.0
 20
0.0
 30
0.0
  3
*D19
  1

  0
LINE
  5
24038
330
1FC7E
100
AcDbEntity
  8
寸法
 62
     0
 48
50.0
370
    -2
100
AcDbLine
 10
9635.600000000001
 20
8234.982835086633
 30
0.0
 11
9635.600000000001
 21
9030.59165175688
 31
0.0
  0
LINE
  5
24039
330
1FC7E
100
AcDbEntity
  8
寸法
 62
     0
 48
50.0
370
    -2
100
AcDbLine
 10
8105.6
 20
8234.982835086633
 30
0.0
 11
8105.6
 21
9030.59165175688
 31
0.0
  0
LINE
  5
2403A
330
1FC7E
100
AcDbEntity
  8
寸法
 62
     0
 48
50.0
370
    -2
100
AcDbLine
 10
9635.600000000001
 20
8970.591651756882
 30
0.0
 11
8105.6
 21
8970.591651756882
 31
0.0
  0
INSERT
  5
2403B
330
1FC7E
100
AcDbEntity
  8
寸法
 62
     0
 48
50.0
370
    -2
100
AcDbBlockReference
  2
_DOTSMALL
 10
9635.600000000001
 20
8970.591651756882
 30
0.0
 41
100.0
 42
100.0
 43
100.0
  0
INSERT
  5
2403C
330
1FC7E
100
AcDbEntity
  8
寸法
 62
     0
 48
50.0
370
    -2
100
AcDbBlockReference
  2
_DOTSMALL
 10
8105.6
 20
8970.591651756882
 30
0.0
 41
100.0
 42
100.0
 43
100.0
 50
180.0
  0
MTEXT
  5
2403D
330
1FC7E
100
AcDbEntity
  8
寸法
 62
     7
 48
50.0
100
AcDbMText
 10
8870.600000000001
 20
9070.591651756881
 30
0.0
 40
120.0
 41
0.0
 71
     5
 72
     1
  1
\A1;1530
  7
STYLE1
 73
     1
 44
1.0
1001
ACAD
1000
MTEXTBEGIN
1070
    73
1070
     1
1070
    44
1040
1.0
1070
    74
1070
     0
1000
MTEXTEND
  0
POINT
  5
2403E
330
1FC7E
100
AcDbEntity
  8
DEFPOINTS
 62
     0
 48
50.0
100
AcDbPoint
 10
9635.600000000001
 20
8214.982835086635
 30
0.0
  0
POINT
  5
2403F
330
1FC7E
100
AcDbEntity
  8
DEFPOINTS
 62
     0
 48
50.0
100
AcDbPoint
 10
8105.6
 20
8214.982835086635
 30
0.0
  0
POINT
  5
24040
330
1FC7E
100
AcDbEntity
  8
DEFPOINTS
 62
     0
 48
50.0
100
AcDbPoint
 10
8105.6
 20
8970.591651756882
 30
0.0
  0
ENDBLK
  5
1FC88
330
1FC7E
100
AcDbEntity
  8
0
 48
50.0
100
AcDbBlockEnd
  0
BLOCK
  5
1FC92
330
1FC89
100
AcDbEntity
  8
0
 48
50.0
100
AcDbBlockBegin
  2
*D20
 70
     1
 10
0.0
 20
0.0
 30
0.0
  3
*D20
  1

  0
LINE
  5
2402F
330
1FC89
100
AcDbEntity
  8
寸法
 62
     0
 48
50.0
370
    -2
100
AcDbLine
 10
5158.6
 20
8307.982835086633
 30
0.0
 11
5158.6
 21
9506.203157145556
 31
0.0
  0
LINE
  5
24030
330
1FC89
100
AcDbEntity
  8
寸法
 62
     0
 48
50.0
370
    -2
100
AcDbLine
 10
11288.6
 20
8307.982835086633
 30
0.0
 11
11288.6
 21
9506.203157145556
 31
0.0
  0
LINE
  5
24031
330
1FC89
100
AcDbEntity
  8
寸法
 62
     0
 48
50.0
370
    -2
100
AcDbLine
 10
5158.6
 20
9446.203157145555
 30
0.0
 11
11288.6
 21
9446.203157145555
 31
0.0
  0
INSERT
  5
24032
330
1FC89
100
AcDbEntity
  8
寸法
 62
     0
 48
50.0
370
    -2
100
AcDbBlockReference
  2
_DOTSMALL
 10
5158.6
 20
9446.203157145555
 30
0.0
 41
100.0
 42
100.0
 43
100.0
 50
180.0
  0
INSERT
  5
24033
330
1FC89
100
AcDbEntity
  8
寸法
 62
     0
 48
50.0
370
    -2
100
AcDbBlockReference
  2
_DOTSMALL
 10
11288.6
 20
9446.203157145555
 30
0.0
 41
100.0
 42
100.0
 43
100.0
  0
MTEXT
  5
24034
330
1FC89
100
AcDbEntity
  8
寸法
 62
     7
 48
50.0
100
AcDbMText
 10
8223.600000000001
 20
9552.203157145555
 30
0.0
 40
120.0
 41
0.0
 71
     5
 72
     1
  1
\A1;N(連続数)x1530+10
  7
STYLE1
 73
     1
 44
1.0
1001
ACAD
1000
MTEXTBEGIN
1070
    73
1070
     1
1070
    44
1040
1.0
1070
    74
1070
     0
1000
MTEXTEND
  0
POINT
  5
24035
330
1FC89
100
AcDbEntity
  8
DEFPOINTS
 62
     0
 48
50.0
100
AcDbPoint
 10
5158.6
 20
8287.982835086634
 30
0.0
  0
POINT
  5
24036
330
1FC89
100
AcDbEntity
  8
DEFPOINTS
 62
     0
 48
50.0
100
AcDbPoint
 10
11288.6
 20
8287.982835086634
 30
0.0
  0
POINT
  5
24037
330
1FC89
100
AcDbEntity
  8
DEFPOINTS
 62
     0
 48
50.0
100
AcDbPoint
 10
11288.6
 20
9446.203157145555
 30
0.0
  0
ENDBLK
  5
1FC93
330
1FC89
100
AcDbEntity
  8
0
 48
50.0
100
AcDbBlockEnd
  0
BLOCK
  5
1FC9D
330
1FC94
100
AcDbEntity
  8
0
 48
50.0
100
AcDbBlockBegin
  2
*D21
 70
     1
 10
0.0
 20
0.0
 30
0.0
  3
*D21
  1

  0
LINE
  5
24026
330
1FC94
100
AcDbEntity
  8
寸法
 62
     0
 48
50.0
370
    -2
100
AcDbLine
 10
9753.600000000007
 20
8990.591651756879
 30
0.0
 11
9753.600000000007
 21
9274.249293180544
 31
0.0
  0
LINE
  5
24027
330
1FC94
100
AcDbEntity
  8
寸法
 62
     0
 48
50.0
370
    -2
100
AcDbLine
 10
8223.600000000008
 20
8990.591651756879
 30
0.0
 11
8223.600000000008
 21
9274.249293180544
 31
0.0
  0
LINE
  5
24028
330
1FC94
100
AcDbEntity
  8
寸法
 62
     0
 48
50.0
370
    -2
100
AcDbLine
 10
9753.600000000007
 20
9214.249293180543
 30
0.0
 11
8223.600000000008
 21
9214.249293180543
 31
0.0
  0
INSERT
  5
24029
330
1FC94
100
AcDbEntity
  8
寸法
 62
     0
 48
50.0
370
    -2
100
AcDbBlockReference
  2
_DOTSMALL
 10
9753.600000000007
 20
9214.249293180543
 30
0.0
 41
100.0
 42
100.0
 43
100.0
  0
INSERT
  5
2402A
330
1FC94
100
AcDbEntity
  8
寸法
 62
     0
 48
50.0
370
    -2
100
AcDbBlockReference
  2
_DOTSMALL
 10
8223.600000000008
 20
9214.249293180543
 30
0.0
 41
100.0
 42
100.0
 43
100.0
 50
180.0
  0
MTEXT
  5
2402B
330
1FC94
100
AcDbEntity
  8
寸法
 62
     7
 48
50.0
100
AcDbMText
 10
8988.600000000008
 20
9314.249293180543
 30
0.0
 40
120.0
 41
0.0
 71
     5
 72
     1
  1
\A1;1530
  7
STYLE1
 73
     1
 44
1.0
1001
ACAD
1000
MTEXTBEGIN
1070
    73
1070
     1
1070
    44
1040
1.0
1070
    74
1070
     0
1000
MTEXTEND
  0
POINT
  5
2402C
330
1FC94
100
AcDbEntity
  8
DEFPOINTS
 62
     0
 48
50.0
100
AcDbPoint
 10
9753.600000000007
 20
8970.591651756882
 30
0.0
  0
POINT
  5
2402D
330
1FC94
100
AcDbEntity
  8
DEFPOINTS
 62
     0
 48
50.0
100
AcDbPoint
 10
8223.600000000008
 20
8970.591651756882
 30
0.0
  0
POINT
  5
2402E
330
1FC94
100
AcDbEntity
  8
DEFPOINTS
 62
     0
 48
50.0
100
AcDbPoint
 10
8223.600000000008
 20
9214.249293180543
 30
0.0
  0
ENDBLK
  5
1FC9E
330
1FC94
100
AcDbEntity
  8
0
 48
50.0
100
AcDbBlockEnd
  0
BLOCK
  5
1FCAA
330
1FC9F
100
AcDbEntity
  8
0
 48
50.0
100
AcDbBlockBegin
  2
*D22
 70
     1
 10
0.0
 20
0.0
 30
0.0
  3
*D22
  1

  0
LINE
  5
22B23
330
1FC9F
100
AcDbEntity
  8
寸法
 62
     0
 48
50.0
370
    -2
100
AcDbLine
 10
5211.600000000007
 20
5845.982835086637
 30
0.0
 11
4214.08735343128
 21
5845.982835086637
 31
0.0
  0
LINE
  5
22B24
330
1FC9F
100
AcDbEntity
  8
寸法
 62
     0
 48
50.0
370
    -2
100
AcDbLine
 10
5138.6
 20
5647.982835086635
 30
0.0
 11
4214.08735343128
 21
5647.982835086635
 31
0.0
  0
LINE
  5
22B25
330
1FC9F
100
AcDbEntity
  8
寸法
 62
     0
 48
50.0
370
    -2
100
AcDbLine
 10
4274.08735343128
 20
5845.982835086637
 30
0.0
 11
4274.08735343128
 21
5647.982835086635
 31
0.0
  0
LINE
  5
22B26
330
1FC9F
100
AcDbEntity
  8
寸法
 62
     0
 48
50.0
370
    -2
100
AcDbLine
 10
4274.08735343128
 20
5647.982835086635
 30
0.0
 11
4274.08735343128
 21
5176.242226414385
 31
0.0
  0
INSERT
  5
22B27
330
1FC9F
100
AcDbEntity
  8
寸法
 62
     0
 48
50.0
370
    -2
100
AcDbBlockReference
  2
_DOTSMALL
 10
4274.08735343128
 20
5845.982835086637
 30
0.0
 41
100.0
 42
100.0
 43
100.0
 50
90.0
  0
INSERT
  5
22B28
330
1FC9F
100
AcDbEntity
  8
寸法
 62
     0
 48
50.0
370
    -2
100
AcDbBlockReference
  2
_DOTSMALL
 10
4274.08735343128
 20
5647.982835086635
 30
0.0
 41
100.0
 42
100.0
 43
100.0
 50
270.0
  0
MTEXT
  5
22B29
330
1FC9F
100
AcDbEntity
  8
寸法
 62
     7
 48
50.0
100
AcDbMText
 10
4174.087353431279
 20
5312.451886244042
 30
0.0
 40
120.0
 41
0.0
 71
     5
 72
     1
  1
\A1;198
  7
STYLE1
 11
0.0000000000000001
 21
1.0
 31
0.0
 73
     1
 44
1.0
1001
ACAD
1000
MTEXTBEGIN
1070
    73
1070
     1
1070
    44
1040
1.0
1070
    74
1070
     0
1000
MTEXTEND
  0
POINT
  5
22B2A
330
1FC9F
100
AcDbEntity
  8
DEFPOINTS
 62
     0
 48
50.0
100
AcDbPoint
 10
5231.600000000008
 20
5845.982835086637
 30
0.0
  0
POINT
  5
22B2B
330
1FC9F
100
AcDbEntity
  8
DEFPOINTS
 62
     0
 48
50.0
100
AcDbPoint
 10
5158.6
 20
5647.982835086635
 30
0.0
  0
POINT
  5
22B2C
330
1FC9F
100
AcDbEntity
  8
DEFPOINTS
 62
     0
 48
50.0
100
AcDbPoint
 10
4274.08735343128
 20
5647.982835086635
 30
0.0
  0
ENDBLK
  5
1FCAB
330
1FC9F
100
AcDbEntity
  8
0
 48
50.0
100
AcDbBlockEnd
  0
BLOCK
  5
1FD04
330
1FCFB
100
AcDbEntity
  8
0
 48
50.0
100
AcDbBlockBegin
  2
*D23
 70
     1
 10
0.0
 20
0.0
 30
0.0
  3
*D23
  1

  0
LINE
  5
240B1
330
1FCFB
100
AcDbEntity
  8
寸法
 62
     0
 48
50.0
370
    -2
100
AcDbLine
 10
5138.6
 20
8287.982835086634
 30
0.0
 11
3962.144256711886
 21
8287.982835086635
 31
0.0
  0
LINE
  5
240B2
330
1FCFB
100
AcDbEntity
  8
寸法
 62
     0
 48
50.0
370
    -2
100
AcDbLine
 10
5138.6
 20
5647.982835086635
 30
0.0
 11
3962.144256711886
 21
5647.982835086635
 31
0.0
  0
LINE
  5
240B3
330
1FCFB
100
AcDbEntity
  8
寸法
 62
     0
 48
50.0
370
    -2
100
AcDbLine
 10
4022.144256711886
 20
8287.982835086635
 30
0.0
 11
4022.144256711885
 21
5647.982835086635
 31
0.0
  0
INSERT
  5
240B4
330
1FCFB
100
AcDbEntity
  8
寸法
 62
     0
 48
50.0
370
    -2
100
AcDbBlockReference
  2
_DOTSMALL
 10
4022.144256711886
 20
8287.982835086635
 30
0.0
 41
100.0
 42
100.0
 43
100.0
 50
90.0
  0
INSERT
  5
240B5
330
1FCFB
100
AcDbEntity
  8
寸法
 62
     0
 48
50.0
370
    -2
100
AcDbBlockReference
  2
_DOTSMALL
 10
4022.144256711885
 20
5647.982835086635
 30
0.0
 41
100.0
 42
100.0
 43
100.0
 50
270.0
  0
MTEXT
  5
240B6
330
1FCFB
100
AcDbEntity
  8
寸法
 62
     7
 48
50.0
100
AcDbMText
 10
3922.132445688263
 20
6967.982835086636
 30
0.0
 40
120.0
 41
0.0
 71
     5
 72
     1
  1
\A1;2640
  7
STYLE1
 11
0.0000000000000001
 21
1.0
 31
0.0
 73
     1
 44
1.0
1001
ACAD
1000
MTEXTBEGIN
1070
    73
1070
     1
1070
    44
1040
1.0
1070
    74
1070
     0
1000
MTEXTEND
  0
POINT
  5
240B7
330
1FCFB
100
AcDbEntity
  8
DEFPOINTS
 62
     0
 48
50.0
100
AcDbPoint
 10
5158.6
 20
8287.982835086634
 30
0.0
  0
POINT
  5
240B8
330
1FCFB
100
AcDbEntity
  8
DEFPOINTS
 62
     0
 48
50.0
100
AcDbPoint
 10
5158.6
 20
5647.982835086635
 30
0.0
  0
POINT
  5
240B9
330
1FCFB
100
AcDbEntity
  8
DEFPOINTS
 62
     0
 48
50.0
100
AcDbPoint
 10
4022.144256711885
 20
5647.982835086635
 30
0.0
  0
ENDBLK
  5
1FD05
330
1FCFB
100
AcDbEntity
  8
0
 48
50.0
100
AcDbBlockEnd
  0
BLOCK
  5
1FD1B
330
1FD10
100
AcDbEntity
  8
0
 48
50.0
100
AcDbBlockBegin
  2
*D24
 70
     1
 10
0.0
 20
0.0
 30
0.0
  3
*D24
  1

  0
LINE
  5
24013
330
1FD10
100
AcDbEntity
  8
寸法
 62
     0
 48
50.0
370
    -2
100
AcDbLine
 10
5138.6
 20
8287.982835086634
 30
0.0
 11
4214.08735343128
 21
8287.982835086634
 31
0.0
  0
LINE
  5
24014
330
1FD10
100
AcDbEntity
  8
寸法
 62
     0
 48
50.0
370
    -2
100
AcDbLine
 10
5211.6
 20
8164.982835086634
 30
0.0
 11
4214.08735343128
 21
8164.982835086634
 31
0.0
  0
LINE
  5
24015
330
1FD10
100
AcDbEntity
  8
寸法
 62
     0
 48
50.0
370
    -2
100
AcDbLine
 10
4274.08735343128
 20
8164.982835086634
 30
0.0
 11
4274.08735343128
 21
8287.982835086634
 31
0.0
  0
LINE
  5
24016
330
1FD10
100
AcDbEntity
  8
寸法
 62
     0
 48
50.0
370
    -2
100
AcDbLine
 10
4274.08735343128
 20
8287.982835086634
 30
0.0
 11
4274.08735343128
 21
8699.574718178672
 31
0.0
  0
INSERT
  5
24017
330
1FD10
100
AcDbEntity
  8
寸法
 62
     0
 48
50.0
370
    -2
100
AcDbBlockReference
  2
_DOTSMALL
 10
4274.08735343128
 20
8164.982835086634
 30
0.0
 41
100.0
 42
100.0
 43
100.0
 50
270.0
  0
INSERT
  5
24018
330
1FD10
100
AcDbEntity
  8
寸法
 62
     0
 48
50.0
370
    -2
100
AcDbBlockReference
  2
_DOTSMALL
 10
4274.08735343128
 20
8287.982835086634
 30
0.0
 41
100.0
 42
100.0
 43
100.0
 50
90.0
  0
MTEXT
  5
24019
330
1FD10
100
AcDbEntity
  8
寸法
 62
     7
 48
50.0
100
AcDbMText
 10
4174.075542407658
 20
8561.089436804435
 30
0.0
 40
120.0
 41
0.0
 71
     5
 72
     1
  1
\A1;123
  7
STYLE1
 11
0.0000000000000001
 21
1.0
 31
0.0
 73
     1
 44
1.0
1001
ACAD
1000
MTEXTBEGIN
1070
    73
1070
     1
1070
    44
1040
1.0
1070
    74
1070
     0
1000
MTEXTEND
  0
POINT
  5
2401A
330
1FD10
100
AcDbEntity
  8
DEFPOINTS
 62
     0
 48
50.0
100
AcDbPoint
 10
5158.6
 20
8287.982835086634
 30
0.0
  0
POINT
  5
2401B
330
1FD10
100
AcDbEntity
  8
DEFPOINTS
 62
     0
 48
50.0
100
AcDbPoint
 10
5231.6
 20
8164.982835086634
 30
0.0
  0
POINT
  5
2401C
330
1FD10
100
AcDbEntity
  8
DEFPOINTS
 62
     0
 48
50.0
100
AcDbPoint
 10
4274.08735343128
 20
8164.982835086634
 30
0.0
  0
ENDBLK
  5
1FD1C
330
1FD10
100
AcDbEntity
  8
0
 48
50.0
100
AcDbBlockEnd
  0
BLOCK
  5
1FD28
330
1FD1D
100
AcDbEntity
  8
0
 48
50.0
100
AcDbBlockBegin
  2
*D25
 70
     1
 10
0.0
 20
0.0
 30
0.0
  3
*D25
  1

  0
LINE
  5
24009
330
1FD1D
100
AcDbEntity
  8
寸法
 62
     0
 48
50.0
370
    -2
100
AcDbLine
 10
5281.6
 20
8234.982835086633
 30
0.0
 11
5281.6
 21
9030.59165175688
 31
0.0
  0
LINE
  5
2400A
330
1FD1D
100
AcDbEntity
  8
寸法
 62
     0
 48
50.0
370
    -2
100
AcDbLine
 10
5158.6
 20
8307.982835086633
 30
0.0
 11
5158.6
 21
9030.59165175688
 31
0.0
  0
LINE
  5
2400B
330
1FD1D
100
AcDbEntity
  8
寸法
 62
     0
 48
50.0
370
    -2
100
AcDbLine
 10
5281.6
 20
8970.591651756882
 30
0.0
 11
5158.6
 21
8970.591651756882
 31
0.0
  0
LINE
  5
2400C
330
1FD1D
100
AcDbEntity
  8
寸法
 62
     0
 48
50.0
370
    -2
100
AcDbLine
 10
5158.6
 20
8970.591651756882
 30
0.0
 11
4747.008116907963
 21
8970.591651756882
 31
0.0
  0
INSERT
  5
2400D
330
1FD1D
100
AcDbEntity
  8
寸法
 62
     0
 48
50.0
370
    -2
100
AcDbBlockReference
  2
_DOTSMALL
 10
5281.6
 20
8970.591651756882
 30
0.0
 41
100.0
 42
100.0
 43
100.0
  0
INSERT
  5
2400E
330
1FD1D
100
AcDbEntity
  8
寸法
 62
     0
 48
50.0
370
    -2
100
AcDbBlockReference
  2
_DOTSMALL
 10
5158.6
 20
8970.591651756882
 30
0.0
 41
100.0
 42
100.0
 43
100.0
 50
180.0
  0
MTEXT
  5
2400F
330
1FD1D
100
AcDbEntity
  8
寸法
 62
     7
 48
50.0
100
AcDbMText
 10
4885.493398282203
 20
9070.603462780502
 30
0.0
 40
120.0
 41
0.0
 71
     5
 72
     1
  1
\A1;123
  7
STYLE1
 73
     1
 44
1.0
1001
ACAD
1000
MTEXTBEGIN
1070
    73
1070
     1
1070
    44
1040
1.0
1070
    74
1070
     0
1000
MTEXTEND
  0
POINT
  5
24010
330
1FD1D
100
AcDbEntity
  8
DEFPOINTS
 62
     0
 48
50.0
100
AcDbPoint
 10
5281.6
 20
8214.982835086635
 30
0.0
  0
POINT
  5
24011
330
1FD1D
100
AcDbEntity
  8
DEFPOINTS
 62
     0
 48
50.0
100
AcDbPoint
 10
5158.6
 20
8287.982835086634
 30
0.0
  0
POINT
  5
24012
330
1FD1D
100
AcDbEntity
  8
DEFPOINTS
 62
     0
 48
50.0
100
AcDbPoint
 10
5158.6
 20
8970.591651756882
 30
0.0
  0
ENDBLK
  5
1FD29
330
1FD1D
100
AcDbEntity
  8
0
 48
50.0
100
AcDbBlockEnd
  0
BLOCK
  5
1FD34
330
1FD2A
100
AcDbEntity
  8
0
 48
50.0
100
AcDbBlockBegin
  2
*D26
 70
     1
 10
0.0
 20
0.0
 30
0.0
  3
*D26
  1

  0
LINE
  5
240BA
330
1FD2A
100
AcDbEntity
  8
寸法
 62
     0
 48
50.0
370
    -2
100
AcDbLine
 10
5211.6
 20
8164.982835086634
 30
0.0
 11
4214.087353431287
 21
8164.982835086634
 31
0.0
  0
LINE
  5
240BB
330
1FD2A
100
AcDbEntity
  8
寸法
 62
     0
 48
50.0
370
    -2
100
AcDbLine
 10
5211.600000000007
 20
5845.982835086637
 30
0.0
 11
4214.087353431286
 21
5845.982835086637
 31
0.0
  0
LINE
  5
240BC
330
1FD2A
100
AcDbEntity
  8
寸法
 62
     0
 48
50.0
370
    -2
100
AcDbLine
 10
4274.087353431286
 20
8164.982835086634
 30
0.0
 11
4274.087353431286
 21
5845.982835086637
 31
0.0
  0
INSERT
  5
240BD
330
1FD2A
100
AcDbEntity
  8
寸法
 62
     0
 48
50.0
370
    -2
100
AcDbBlockReference
  2
_DOTSMALL
 10
4274.087353431286
 20
8164.982835086634
 30
0.0
 41
100.0
 42
100.0
 43
100.0
 50
90.0
  0
INSERT
  5
240BE
330
1FD2A
100
AcDbEntity
  8
寸法
 62
     0
 48
50.0
370
    -2
100
AcDbBlockReference
  2
_DOTSMALL
 10
4274.087353431286
 20
5845.982835086637
 30
0.0
 41
100.0
 42
100.0
 43
100.0
 50
270.0
  0
MTEXT
  5
240BF
330
1FD2A
100
AcDbEntity
  8
寸法
 62
     7
 48
50.0
100
AcDbMText
 10
4174.075542407662
 20
7005.482835086636
 30
0.0
 40
120.0
 41
0.0
 71
     5
 72
     1
  1
\A1;2319
  7
STYLE1
 11
0.0000000000000001
 21
1.0
 31
0.0
 73
     1
 44
1.0
1001
ACAD
1000
MTEXTBEGIN
1070
    73
1070
     1
1070
    44
1040
1.0
1070
    74
1070
     0
1000
MTEXTEND
  0
POINT
  5
240C0
330
1FD2A
100
AcDbEntity
  8
DEFPOINTS
 62
     0
 48
50.0
100
AcDbPoint
 10
5231.6
 20
8164.982835086634
 30
0.0
  0
POINT
  5
240C1
330
1FD2A
100
AcDbEntity
  8
DEFPOINTS
 62
     0
 48
50.0
100
AcDbPoint
 10
5231.600000000008
 20
5845.982835086637
 30
0.0
  0
POINT
  5
240C2
330
1FD2A
100
AcDbEntity
  8
DEFPOINTS
 62
     0
 48
50.0
100
AcDbPoint
 10
4274.087353431286
 20
5845.982835086637
 30
0.0
  0
ENDBLK
  5
1FD35
330
1FD2A
100
AcDbEntity
  8
0
 48
50.0
100
AcDbBlockEnd
  0
BLOCK
  5
1FD40
330
1FD36
100
AcDbEntity
  8
0
 48
50.0
100
AcDbBlockBegin
  2
*D27
 70
     1
 10
0.0
 20
0.0
 30
0.0
  3
*D27
  1

  0
LINE
  5
23FF7
330
1FD36
100
AcDbEntity
  8
寸法
 62
     0
 48
50.0
370
    -2
100
AcDbLine
 10
6693.600000000007
 20
8990.591651756879
 30
0.0
 11
6693.600000000007
 21
9274.249293180544
 31
0.0
  0
LINE
  5
23FF8
330
1FD36
100
AcDbEntity
  8
寸法
 62
     0
 48
50.0
370
    -2
100
AcDbLine
 10
5158.6
 20
8307.982835086633
 30
0.0
 11
5158.6
 21
9274.249293180544
 31
0.0
  0
LINE
  5
23FF9
330
1FD36
100
AcDbEntity
  8
寸法
 62
     0
 48
50.0
370
    -2
100
AcDbLine
 10
6693.600000000007
 20
9214.249293180543
 30
0.0
 11
5158.6
 21
9214.249293180543
 31
0.0
  0
INSERT
  5
23FFA
330
1FD36
100
AcDbEntity
  8
寸法
 62
     0
 48
50.0
370
    -2
100
AcDbBlockReference
  2
_DOTSMALL
 10
6693.600000000007
 20
9214.249293180543
 30
0.0
 41
100.0
 42
100.0
 43
100.0
  0
INSERT
  5
23FFB
330
1FD36
100
AcDbEntity
  8
寸法
 62
     0
 48
50.0
370
    -2
100
AcDbBlockReference
  2
_DOTSMALL
 10
5158.6
 20
9214.249293180543
 30
0.0
 41
100.0
 42
100.0
 43
100.0
 50
180.0
  0
MTEXT
  5
23FFC
330
1FD36
100
AcDbEntity
  8
寸法
 62
     7
 48
50.0
100
AcDbMText
 10
5926.100000000004
 20
9314.249293180543
 30
0.0
 40
120.0
 41
0.0
 71
     5
 72
     1
  1
\A1;1535
  7
STYLE1
 73
     1
 44
1.0
1001
ACAD
1000
MTEXTBEGIN
1070
    73
1070
     1
1070
    44
1040
1.0
1070
    74
1070
     0
1000
MTEXTEND
  0
POINT
  5
23FFD
330
1FD36
100
AcDbEntity
  8
DEFPOINTS
 62
     0
 48
50.0
100
AcDbPoint
 10
6693.600000000007
 20
8970.591651756882
 30
0.0
  0
POINT
  5
23FFE
330
1FD36
100
AcDbEntity
  8
DEFPOINTS
 62
     0
 48
50.0
100
AcDbPoint
 10
5158.6
 20
8287.982835086634
 30
0.0
  0
POINT
  5
23FFF
330
1FD36
100
AcDbEntity
  8
DEFPOINTS
 62
     0
 48
50.0
100
AcDbPoint
 10
5158.6
 20
9214.249293180543
 30
0.0
  0
ENDBLK
  5
1FD41
330
1FD36
100
AcDbEntity
  8
0
 48
50.0
100
AcDbBlockEnd
  0
BLOCK
  5
1FD89
330
1FD7F
100
AcDbEntity
  8
0
 48
50.0
100
AcDbBlockBegin
  2
*D28
 70
     1
 10
0.0
 20
0.0
 30
0.0
  3
*D28
  1

  0
LINE
  5
23FEE
330
1FD7F
100
AcDbEntity
  8
寸法
 62
     0
 48
50.0
370
    -2
100
AcDbLine
 10
6575.6
 20
8234.982835086633
 30
0.0
 11
6575.6
 21
9030.59165175688
 31
0.0
  0
LINE
  5
23FEF
330
1FD7F
100
AcDbEntity
  8
寸法
 62
     0
 48
50.0
370
    -2
100
AcDbLine
 10
5281.6
 20
8234.982835086633
 30
0.0
 11
5281.6
 21
9030.59165175688
 31
0.0
  0
LINE
  5
23FF0
330
1FD7F
100
AcDbEntity
  8
寸法
 62
     0
 48
50.0
370
    -2
100
AcDbLine
 10
6575.6
 20
8970.591651756882
 30
0.0
 11
5281.6
 21
8970.591651756882
 31
0.0
  0
INSERT
  5
23FF1
330
1FD7F
100
AcDbEntity
  8
寸法
 62
     0
 48
50.0
370
    -2
100
AcDbBlockReference
  2
_DOTSMALL
 10
6575.6
 20
8970.591651756882
 30
0.0
 41
100.0
 42
100.0
 43
100.0
  0
INSERT
  5
23FF2
330
1FD7F
100
AcDbEntity
  8
寸法
 62
     0
 48
50.0
370
    -2
100
AcDbBlockReference
  2
_DOTSMALL
 10
5281.6
 20
8970.591651756882
 30
0.0
 41
100.0
 42
100.0
 43
100.0
 50
180.0
  0
MTEXT
  5
23FF3
330
1FD7F
100
AcDbEntity
  8
寸法
 62
     7
 48
50.0
100
AcDbMText
 10
5928.6
 20
9070.603462780502
 30
0.0
 40
120.0
 41
0.0
 71
     5
 72
     1
  1
\A1;1294
  7
STYLE1
 73
     1
 44
1.0
1001
ACAD
1000
MTEXTBEGIN
1070
    73
1070
     1
1070
    44
1040
1.0
1070
    74
1070
     0
1000
MTEXTEND
  0
POINT
  5
23FF4
330
1FD7F
100
AcDbEntity
  8
DEFPOINTS
 62
     0
 48
50.0
100
AcDbPoint
 10
6575.6
 20
8214.982835086635
 30
0.0
  0
POINT
  5
23FF5
330
1FD7F
100
AcDbEntity
  8
DEFPOINTS
 62
     0
 48
50.0
100
AcDbPoint
 10
5281.6
 20
8214.982835086635
 30
0.0
  0
POINT
  5
23FF6
330
1FD7F
100
AcDbEntity
  8
DEFPOINTS
 62
     0
 48
50.0
100
AcDbPoint
 10
5281.6
 20
8970.591651756882
 30
0.0
  0
ENDBLK
  5
1FD8A
330
1FD7F
100
AcDbEntity
  8
0
 48
50.0
100
AcDbBlockEnd
  0
BLOCK
  5
1FDA1
330
1FD96
100
AcDbEntity
  8
0
 48
50.0
100
AcDbBlockBegin
  2
*D29
 70
     1
 10
0.0
 20
0.0
 30
0.0
  3
*D29
  1

  0
LINE
  5
22AE1
330
1FD96
100
AcDbEntity
  8
寸法
 62
     0
 48
50.0
370
    -2
100
AcDbLine
 10
9270.851516111312
 20
5927.982835086651
 30
0.0
 11
9415.649102633087
 21
5927.982835086651
 31
0.0
  0
LINE
  5
22AE2
330
1FD96
100
AcDbEntity
  8
寸法
 62
     0
 48
50.0
370
    -2
100
AcDbLine
 10
9270.851516111312
 20
5647.982835086649
 30
0.0
 11
9415.649102633087
 21
5647.982835086649
 31
0.0
  0
LINE
  5
22AE3
330
1FD96
100
AcDbEntity
  8
寸法
 62
     0
 48
50.0
370
    -2
100
AcDbLine
 10
9355.649102633087
 20
5927.982835086651
 30
0.0
 11
9355.649102633087
 21
5647.982835086649
 31
0.0
  0
LINE
  5
22AE4
330
1FD96
100
AcDbEntity
  8
寸法
 62
     0
 48
50.0
370
    -2
100
AcDbLine
 10
9355.649102633087
 20
5647.982835086649
 30
0.0
 11
9355.649102633087
 21
5211.44838626775
 31
0.0
  0
INSERT
  5
22AE5
330
1FD96
100
AcDbEntity
  8
寸法
 62
     0
 48
50.0
370
    -2
100
AcDbBlockReference
  2
_DOTSMALL
 10
9355.649102633087
 20
5927.982835086651
 30
0.0
 41
100.0
 42
100.0
 43
100.0
 50
90.0
  0
INSERT
  5
22AE6
330
1FD96
100
AcDbEntity
  8
寸法
 62
     0
 48
50.0
370
    -2
100
AcDbBlockReference
  2
_DOTSMALL
 10
9355.649102633087
 20
5647.982835086649
 30
0.0
 41
100.0
 42
100.0
 43
100.0
 50
270.0
  0
MTEXT
  5
22AE7
330
1FD96
100
AcDbEntity
  8
寸法
 62
     7
 48
50.0
100
AcDbMText
 10
9255.637291609465
 20
5361.019252409483
 30
0.0
 40
120.0
 41
0.0
 71
     5
 72
     1
  1
\A1;280
  7
STYLE1
 11
0.0000000000000001
 21
1.0
 31
0.0
 73
     1
 44
1.0
1001
ACAD
1000
MTEXTBEGIN
1070
    73
1070
     1
1070
    44
1040
1.0
1070
    74
1070
     0
1000
MTEXTEND
  0
POINT
  5
22AE8
330
1FD96
100
AcDbEntity
  8
DEFPOINTS
 62
     0
 48
50.0
100
AcDbPoint
 10
9250.851516111312
 20
5927.982835086651
 30
0.0
  0
POINT
  5
22AE9
330
1FD96
100
AcDbEntity
  8
DEFPOINTS
 62
     0
 48
50.0
100
AcDbPoint
 10
9250.851516111312
 20
5647.982835086649
 30
0.0
  0
POINT
  5
22AEA
330
1FD96
100
AcDbEntity
  8
DEFPOINTS
 62
     0
 48
50.0
100
AcDbPoint
 10
9355.649102633087
 20
5647.982835086649
 30
0.0
  0
ENDBLK
  5
1FDA2
330
1FD96
100
AcDbEntity
  8
0
 48
50.0
100
AcDbBlockEnd
  0
BLOCK
  5
1FDF3
330
1FDE9
100
AcDbEntity
  8
0
 48
50.0
100
AcDbBlockBegin
  2
*D30
 70
     1
 10
0.0
 20
0.0
 30
0.0
  3
*D30
  1

  0
LINE
  5
23FE5
330
1FDE9
100
AcDbEntity
  8
寸法
 62
     0
 48
50.0
370
    -2
100
AcDbLine
 10
11288.6
 20
8307.982835086633
 30
0.0
 11
11288.6
 21
9274.249293180544
 31
0.0
  0
LINE
  5
23FE6
330
1FDE9
100
AcDbEntity
  8
寸法
 62
     0
 48
50.0
370
    -2
100
AcDbLine
 10
9753.600000000007
 20
8990.591651756879
 30
0.0
 11
9753.600000000007
 21
9274.249293180544
 31
0.0
  0
LINE
  5
23FE7
330
1FDE9
100
AcDbEntity
  8
寸法
 62
     0
 48
50.0
370
    -2
100
AcDbLine
 10
11288.6
 20
9214.249293180543
 30
0.0
 11
9753.600000000007
 21
9214.249293180543
 31
0.0
  0
INSERT
  5
23FE8
330
1FDE9
100
AcDbEntity
  8
寸法
 62
     0
 48
50.0
370
    -2
100
AcDbBlockReference
  2
_DOTSMALL
 10
11288.6
 20
9214.249293180543
 30
0.0
 41
100.0
 42
100.0
 43
100.0
  0
INSERT
  5
23FE9
330
1FDE9
100
AcDbEntity
  8
寸法
 62
     0
 48
50.0
370
    -2
100
AcDbBlockReference
  2
_DOTSMALL
 10
9753.600000000007
 20
9214.249293180543
 30
0.0
 41
100.0
 42
100.0
 43
100.0
 50
180.0
  0
MTEXT
  5
23FEA
330
1FDE9
100
AcDbEntity
  8
寸法
 62
     7
 48
50.0
100
AcDbMText
 10
10506.02212135149
 20
9314.249293180543
 30
0.0
 40
120.0
 41
0.0
 71
     5
 72
     1
  1
\A1;1535
  7
STYLE1
 73
     1
 44
1.0
1001
ACAD
1000
MTEXTBEGIN
1070
    73
1070
     1
1070
    44
1040
1.0
1070
    74
1070
     0
1000
MTEXTEND
  0
POINT
  5
23FEB
330
1FDE9
100
AcDbEntity
  8
DEFPOINTS
 62
     0
 48
50.0
100
AcDbPoint
 10
11288.6
 20
8287.982835086634
 30
0.0
  0
POINT
  5
23FEC
330
1FDE9
100
AcDbEntity
  8
DEFPOINTS
 62
     0
 48
50.0
100
AcDbPoint
 10
9753.600000000007
 20
8970.591651756882
 30
0.0
  0
POINT
  5
23FED
330
1FDE9
100
AcDbEntity
  8
DEFPOINTS
 62
     0
 48
50.0
100
AcDbPoint
 10
9753.600000000007
 20
9214.249293180543
 30
0.0
  0
ENDBLK
  5
1FDF4
330
1FDE9
100
AcDbEntity
  8
0
 48
50.0
100
AcDbBlockEnd
  0
BLOCK
  5
1FDFE
330
1FDF5
100
AcDbEntity
  8
0
 48
50.0
100
AcDbBlockBegin
  2
*D31
 70
     1
 10
0.0
 20
0.0
 30
0.0
  3
*D31
  1

  0
LINE
  5
23FDC
330
1FDF5
100
AcDbEntity
  8
寸法
 62
     0
 48
50.0
370
    -2
100
AcDbLine
 10
11165.6
 20
8234.982835086633
 30
0.0
 11
11165.6
 21
9030.59165175688
 31
0.0
  0
LINE
  5
23FDD
330
1FDF5
100
AcDbEntity
  8
寸法
 62
     0
 48
50.0
370
    -2
100
AcDbLine
 10
9635.600000000001
 20
8234.982835086633
 30
0.0
 11
9635.600000000001
 21
9030.59165175688
 31
0.0
  0
LINE
  5
23FDE
330
1FDF5
100
AcDbEntity
  8
寸法
 62
     0
 48
50.0
370
    -2
100
AcDbLine
 10
11165.6
 20
8970.591651756882
 30
0.0
 11
9635.600000000001
 21
8970.591651756882
 31
0.0
  0
INSERT
  5
23FDF
330
1FDF5
100
AcDbEntity
  8
寸法
 62
     0
 48
50.0
370
    -2
100
AcDbBlockReference
  2
_DOTSMALL
 10
11165.6
 20
8970.591651756882
 30
0.0
 41
100.0
 42
100.0
 43
100.0
  0
INSERT
  5
23FE0
330
1FDF5
100
AcDbEntity
  8
寸法
 62
     0
 48
50.0
370
    -2
100
AcDbBlockReference
  2
_DOTSMALL
 10
9635.600000000001
 20
8970.591651756882
 30
0.0
 41
100.0
 42
100.0
 43
100.0
 50
180.0
  0
MTEXT
  5
23FE1
330
1FDF5
100
AcDbEntity
  8
寸法
 62
     7
 48
50.0
100
AcDbMText
 10
10400.6
 20
9070.591651756881
 30
0.0
 40
120.0
 41
0.0
 71
     5
 72
     1
  1
\A1;1530
  7
STYLE1
 73
     1
 44
1.0
1001
ACAD
1000
MTEXTBEGIN
1070
    73
1070
     1
1070
    44
1040
1.0
1070
    74
1070
     0
1000
MTEXTEND
  0
POINT
  5
23FE2
330
1FDF5
100
AcDbEntity
  8
DEFPOINTS
 62
     0
 48
50.0
100
AcDbPoint
 10
11165.6
 20
8214.982835086635
 30
0.0
  0
POINT
  5
23FE3
330
1FDF5
100
AcDbEntity
  8
DEFPOINTS
 62
     0
 48
50.0
100
AcDbPoint
 10
9635.600000000001
 20
8214.982835086635
 30
0.0
  0
POINT
  5
23FE4
330
1FDF5
100
AcDbEntity
  8
DEFPOINTS
 62
     0
 48
50.0
100
AcDbPoint
 10
9635.600000000001
 20
8970.591651756882
 30
0.0
  0
ENDBLK
  5
1FDFF
330
1FDF5
100
AcDbEntity
  8
0
 48
50.0
100
AcDbBlockEnd
  0
BLOCK
  5
1FE22
330
1FE17
100
AcDbEntity
  8
0
 48
50.0
100
AcDbBlockBegin
  2
*D32
 70
     1
 10
0.0
 20
0.0
 30
0.0
  3
*D32
  1

  0
LINE
  5
23FD2
330
1FE17
100
AcDbEntity
  8
寸法
 62
     0
 48
50.0
370
    -2
100
AcDbLine
 10
9443.779728401338
 20
8287.982835086634
 30
0.0
 11
9295.64910263309
 21
8287.982835086634
 31
0.0
  0
LINE
  5
23FD3
330
1FE17
100
AcDbEntity
  8
寸法
 62
     0
 48
50.0
370
    -2
100
AcDbLine
 10
9485.600000000008
 20
8087.982835086593
 30
0.0
 11
9295.64910263309
 21
8087.982835086593
 31
0.0
  0
LINE
  5
23FD4
330
1FE17
100
AcDbEntity
  8
寸法
 62
     0
 48
50.0
370
    -2
100
AcDbLine
 10
9355.649102633091
 20
8087.982835086593
 30
0.0
 11
9355.649102633091
 21
8287.982835086634
 31
0.0
  0
LINE
  5
23FD5
330
1FE17
100
AcDbEntity
  8
寸法
 62
     0
 48
50.0
370
    -2
100
AcDbLine
 10
9355.649102633091
 20
8287.982835086634
 30
0.0
 11
9355.649102633091
 21
8724.51728390553
 31
0.0
  0
INSERT
  5
23FD6
330
1FE17
100
AcDbEntity
  8
寸法
 62
     0
 48
50.0
370
    -2
100
AcDbBlockReference
  2
_DOTSMALL
 10
9355.649102633091
 20
8087.982835086593
 30
0.0
 41
100.0
 42
100.0
 43
100.0
 50
270.0
  0
INSERT
  5
23FD7
330
1FE17
100
AcDbEntity
  8
寸法
 62
     0
 48
50.0
370
    -2
100
AcDbBlockReference
  2
_DOTSMALL
 10
9355.649102633091
 20
8287.982835086634
 30
0.0
 41
100.0
 42
100.0
 43
100.0
 50
90.0
  0
MTEXT
  5
23FD8
330
1FE17
100
AcDbEntity
  8
寸法
 62
     7
 48
50.0
100
AcDbMText
 10
9255.637291609465
 20
8574.946417763801
 30
0.0
 40
120.0
 41
0.0
 71
     5
 72
     1
  1
\A1;200
  7
STYLE1
 11
0.0000000000000001
 21
1.0
 31
0.0
 73
     1
 44
1.0
1001
ACAD
1000
MTEXTBEGIN
1070
    73
1070
     1
1070
    44
1040
1.0
1070
    74
1070
     0
1000
MTEXTEND
  0
POINT
  5
23FD9
330
1FE17
100
AcDbEntity
  8
DEFPOINTS
 62
     0
 48
50.0
100
AcDbPoint
 10
9463.779728401338
 20
8287.982835086634
 30
0.0
  0
POINT
  5
23FDA
330
1FE17
100
AcDbEntity
  8
DEFPOINTS
 62
     0
 48
50.0
100
AcDbPoint
 10
9505.600000000008
 20
8087.982835086593
 30
0.0
  0
POINT
  5
23FDB
330
1FE17
100
AcDbEntity
  8
DEFPOINTS
 62
     0
 48
50.0
100
AcDbPoint
 10
9355.649102633091
 20
8087.982835086593
 30
0.0
  0
ENDBLK
  5
1FE23
330
1FE17
100
AcDbEntity
  8
0
 48
50.0
100
AcDbBlockEnd
  0
BLOCK
  5
1FE3C
330
1FE31
100
AcDbEntity
  8
0
 48
50.0
100
AcDbBlockBegin
  2
*D33
 70
     1
 10
0.0
 20
0.0
 30
0.0
  3
*D33
  1

  0
LINE
  5
23FC8
330
1FE31
100
AcDbEntity
  8
寸法
 62
     0
 48
50.0
370
    -2
100
AcDbLine
 10
11288.6
 20
8307.982835086633
 30
0.0
 11
11288.6
 21
9030.59165175688
 31
0.0
  0
LINE
  5
23FC9
330
1FE31
100
AcDbEntity
  8
寸法
 62
     0
 48
50.0
370
    -2
100
AcDbLine
 10
11165.6
 20
8234.982835086633
 30
0.0
 11
11165.6
 21
9030.59165175688
 31
0.0
  0
LINE
  5
23FCA
330
1FE31
100
AcDbEntity
  8
寸法
 62
     0
 48
50.0
370
    -2
100
AcDbLine
 10
11165.6
 20
8970.591651756882
 30
0.0
 11
11288.6
 21
8970.591651756882
 31
0.0
  0
LINE
  5
23FCB
330
1FE31
100
AcDbEntity
  8
寸法
 62
     0
 48
50.0
370
    -2
100
AcDbLine
 10
11288.6
 20
8970.591651756882
 30
0.0
 11
11700.19188309203
 21
8970.591651756882
 31
0.0
  0
INSERT
  5
23FCC
330
1FE31
100
AcDbEntity
  8
寸法
 62
     0
 48
50.0
370
    -2
100
AcDbBlockReference
  2
_DOTSMALL
 10
11165.6
 20
8970.591651756882
 30
0.0
 41
100.0
 42
100.0
 43
100.0
 50
180.0
  0
INSERT
  5
23FCD
330
1FE31
100
AcDbEntity
  8
寸法
 62
     0
 48
50.0
370
    -2
100
AcDbBlockReference
  2
_DOTSMALL
 10
11288.6
 20
8970.591651756882
 30
0.0
 41
100.0
 42
100.0
 43
100.0
  0
MTEXT
  5
23FCE
330
1FE31
100
AcDbEntity
  8
寸法
 62
     7
 48
50.0
100
AcDbMText
 10
11561.7066017178
 20
9070.603462780502
 30
0.0
 40
120.0
 41
0.0
 71
     5
 72
     1
  1
\A1;123
  7
STYLE1
 73
     1
 44
1.0
1001
ACAD
1000
MTEXTBEGIN
1070
    73
1070
     1
1070
    44
1040
1.0
1070
    74
1070
     0
1000
MTEXTEND
  0
POINT
  5
23FCF
330
1FE31
100
AcDbEntity
  8
DEFPOINTS
 62
     0
 48
50.0
100
AcDbPoint
 10
11288.6
 20
8287.982835086634
 30
0.0
  0
POINT
  5
23FD0
330
1FE31
100
AcDbEntity
  8
DEFPOINTS
 62
     0
 48
50.0
100
AcDbPoint
 10
11165.6
 20
8214.982835086635
 30
0.0
  0
POINT
  5
23FD1
330
1FE31
100
AcDbEntity
  8
DEFPOINTS
 62
     0
 48
50.0
100
AcDbPoint
 10
11165.6
 20
8970.591651756882
 30
0.0
  0
ENDBLK
  5
1FE3D
330
1FE31
100
AcDbEntity
  8
0
 48
50.0
100
AcDbBlockEnd
  0
BLOCK
  5
20346
330
2033A
100
AcDbEntity
  8
0
 48
50.0
100
AcDbBlockBegin
  2
*D34
 70
     1
 10
0.0
 20
0.0
 30
0.0
  3
*D34
  1

  0
LINE
  5
23FBD
330
2033A
100
AcDbEntity
  8
寸法
 62
     0
 48
50.0
370
    -2
100
AcDbLine
 10
11288.6
 20
8307.982835086633
 30
0.0
 11
11288.6
 21
9506.203157145556
 31
0.0
  0
LINE
  5
23FBE
330
2033A
100
AcDbEntity
  8
寸法
 62
     0
 48
50.0
370
    -2
100
AcDbLine
 10
11333.6
 20
8990.591651756879
 30
0.0
 11
11333.6
 21
9506.203157145556
 31
0.0
  0
LINE
  5
23FBF
330
2033A
100
AcDbEntity
  8
寸法
 62
     0
 48
50.0
370
    -2
100
AcDbLine
 10
11288.6
 20
9446.203157145555
 30
0.0
 11
11188.6
 21
9446.203157145555
 31
0.0
  0
LINE
  5
23FC0
330
2033A
100
AcDbEntity
  8
寸法
 62
     0
 48
50.0
370
    -2
100
AcDbLine
 10
11333.6
 20
9446.203157145555
 30
0.0
 11
11670.94924240492
 21
9446.203157145555
 31
0.0
  0
LINE
  5
23FC1
330
2033A
100
AcDbEntity
  8
寸法
 62
     0
 48
50.0
370
    -2
100
AcDbLine
 10
11288.6
 20
9446.203157145555
 30
0.0
 11
11333.6
 21
9446.203157145555
 31
0.0
  0
INSERT
  5
23FC2
330
2033A
100
AcDbEntity
  8
寸法
 62
     0
 48
50.0
370
    -2
100
AcDbBlockReference
  2
_DOTSMALL
 10
11288.6
 20
9446.203157145555
 30
0.0
 41
100.0
 42
100.0
 43
100.0
  0
INSERT
  5
23FC3
330
2033A
100
AcDbEntity
  8
寸法
 62
     0
 48
50.0
370
    -2
100
AcDbBlockReference
  2
_DOTSMALL
 10
11333.6
 20
9446.203157145555
 30
0.0
 41
100.0
 42
100.0
 43
100.0
 50
180.0
  0
MTEXT
  5
23FC4
330
2033A
100
AcDbEntity
  8
寸法
 62
     7
 48
50.0
100
AcDbMText
 10
11604.77462120246
 20
9546.203157145555
 30
0.0
 40
120.0
 41
0.0
 71
     5
 72
     1
  1
\A1;a
  7
STYLE1
 73
     1
 44
1.0
1001
ACAD
1000
MTEXTBEGIN
1070
    73
1070
     1
1070
    44
1040
1.0
1070
    74
1070
     0
1000
MTEXTEND
  0
POINT
  5
23FC5
330
2033A
100
AcDbEntity
  8
DEFPOINTS
 62
     0
 48
50.0
100
AcDbPoint
 10
11288.6
 20
8287.982835086634
 30
0.0
  0
POINT
  5
23FC6
330
2033A
100
AcDbEntity
  8
DEFPOINTS
 62
     0
 48
50.0
100
AcDbPoint
 10
11333.6
 20
8970.591651756882
 30
0.0
  0
POINT
  5
23FC7
330
2033A
100
AcDbEntity
  8
DEFPOINTS
 62
     0
 48
50.0
100
AcDbPoint
 10
11333.6
 20
9446.203157145555
 30
0.0
  0
ENDBLK
  5
20347
330
2033A
100
AcDbEntity
  8
0
 48
50.0
100
AcDbBlockEnd
  0
BLOCK
  5
203D0
330
203C4
100
AcDbEntity
  8
0
 48
50.0
100
AcDbBlockBegin
  2
*D35
 70
     1
 10
0.0
 20
0.0
 30
0.0
  3
*D35
  1

  0
LINE
  5
23FB2
330
203C4
100
AcDbEntity
  8
寸法
 62
     0
 48
50.0
370
    -2
100
AcDbLine
 10
4254.087353431279
 20
8362.982835086638
 30
0.0
 11
3962.144256711883
 21
8362.982835086638
 31
0.0
  0
LINE
  5
23FB3
330
203C4
100
AcDbEntity
  8
寸法
 62
     0
 48
50.0
370
    -2
100
AcDbLine
 10
5138.599999999999
 20
8287.982835086635
 30
0.0
 11
3962.144256711883
 21
8287.982835086637
 31
0.0
  0
LINE
  5
23FB4
330
203C4
100
AcDbEntity
  8
寸法
 62
     0
 48
50.0
370
    -2
100
AcDbLine
 10
4022.144256711882
 20
8362.982835086638
 30
0.0
 11
4022.144256711882
 21
8462.98283508664
 31
0.0
  0
LINE
  5
23FB5
330
203C4
100
AcDbEntity
  8
寸法
 62
     0
 48
50.0
370
    -2
100
AcDbLine
 10
4022.144256711882
 20
8287.982835086637
 30
0.0
 11
4022.144256711882
 21
8187.982835086636
 31
0.0
  0
LINE
  5
23FB6
330
203C4
100
AcDbEntity
  8
寸法
 62
     0
 48
50.0
370
    -2
100
AcDbLine
 10
4022.144256711882
 20
8362.982835086638
 30
0.0
 11
4022.144256711882
 21
8287.982835086637
 31
0.0
  0
INSERT
  5
23FB7
330
203C4
100
AcDbEntity
  8
寸法
 62
     0
 48
50.0
370
    -2
100
AcDbBlockReference
  2
_DOTSMALL
 10
4022.144256711882
 20
8362.982835086638
 30
0.0
 41
100.0
 42
100.0
 43
100.0
 50
270.0
  0
INSERT
  5
23FB8
330
203C4
100
AcDbEntity
  8
寸法
 62
     0
 48
50.0
370
    -2
100
AcDbBlockReference
  2
_DOTSMALL
 10
4022.144256711882
 20
8287.982835086637
 30
0.0
 41
100.0
 42
100.0
 43
100.0
 50
90.0
  0
MTEXT
  5
23FB9
330
203C4
100
AcDbEntity
  8
寸法
 62
     7
 48
50.0
100
AcDbMText
 10
3922.144256711881
 20
8325.482835086637
 30
0.0
 40
120.0
 41
0.0
 71
     5
 72
     1
  1
\A1;c
  7
STYLE1
 11
0.0000000000000001
 21
1.0
 31
0.0
 73
     1
 44
1.0
1001
ACAD
1000
MTEXTBEGIN
1070
    73
1070
     1
1070
    44
1040
1.0
1070
    74
1070
     0
1000
MTEXTEND
  0
POINT
  5
23FBA
330
203C4
100
AcDbEntity
  8
DEFPOINTS
 62
     0
 48
50.0
100
AcDbPoint
 10
4274.087353431279
 20
8362.982835086638
 30
0.0
  0
POINT
  5
23FBB
330
203C4
100
AcDbEntity
  8
DEFPOINTS
 62
     0
 48
50.0
100
AcDbPoint
 10
5158.599999999998
 20
8287.982835086635
 30
0.0
  0
POINT
  5
23FBC
330
203C4
100
AcDbEntity
  8
DEFPOINTS
 62
     0
 48
50.0
100
AcDbPoint
 10
4022.144256711882
 20
8287.982835086637
 30
0.0
  0
ENDBLK
  5
203D1
330
203C4
100
AcDbEntity
  8
0
 48
50.0
100
AcDbBlockEnd
  0
BLOCK
  5
203EB
330
203DF
100
AcDbEntity
  8
0
 48
50.0
100
AcDbBlockBegin
  2
*D36
 70
     1
 10
0.0
 20
0.0
 30
0.0
  3
*D36
  1

  0
LINE
  5
23FA7
330
203DF
100
AcDbEntity
  8
寸法
 62
     0
 48
50.0
370
    -2
100
AcDbLine
 10
5113.600000000001
 20
8990.591651756879
 30
0.0
 11
5113.600000000001
 21
9506.203157145556
 31
0.0
  0
LINE
  5
23FA8
330
203DF
100
AcDbEntity
  8
寸法
 62
     0
 48
50.0
370
    -2
100
AcDbLine
 10
5158.599999999998
 20
8307.982835086635
 30
0.0
 11
5158.599999999998
 21
9506.203157145556
 31
0.0
  0
LINE
  5
23FA9
330
203DF
100
AcDbEntity
  8
寸法
 62
     0
 48
50.0
370
    -2
100
AcDbLine
 10
5158.599999999998
 20
9446.203157145555
 30
0.0
 11
5258.599999999998
 21
9446.203157145555
 31
0.0
  0
LINE
  5
23FAA
330
203DF
100
AcDbEntity
  8
寸法
 62
     0
 48
50.0
370
    -2
100
AcDbLine
 10
5113.600000000001
 20
9446.203157145555
 30
0.0
 11
4776.250757595083
 21
9446.203157145555
 31
0.0
  0
LINE
  5
23FAB
330
203DF
100
AcDbEntity
  8
寸法
 62
     0
 48
50.0
370
    -2
100
AcDbLine
 10
5158.599999999998
 20
9446.203157145555
 30
0.0
 11
5113.600000000001
 21
9446.203157145555
 31
0.0
  0
INSERT
  5
23FAC
330
203DF
100
AcDbEntity
  8
寸法
 62
     0
 48
50.0
370
    -2
100
AcDbBlockReference
  2
_DOTSMALL
 10
5158.599999999998
 20
9446.203157145555
 30
0.0
 41
100.0
 42
100.0
 43
100.0
 50
180.0
  0
INSERT
  5
23FAD
330
203DF
100
AcDbEntity
  8
寸法
 62
     0
 48
50.0
370
    -2
100
AcDbBlockReference
  2
_DOTSMALL
 10
5113.600000000001
 20
9446.203157145555
 30
0.0
 41
100.0
 42
100.0
 43
100.0
  0
MTEXT
  5
23FAE
330
203DF
100
AcDbEntity
  8
寸法
 62
     7
 48
50.0
100
AcDbMText
 10
4842.425378797542
 20
9546.203157145555
 30
0.0
 40
120.0
 41
0.0
 71
     5
 72
     1
  1
\A1;a
  7
STYLE1
 73
     1
 44
1.0
1001
ACAD
1000
MTEXTBEGIN
1070
    73
1070
     1
1070
    44
1040
1.0
1070
    74
1070
     0
1000
MTEXTEND
  0
POINT
  5
23FAF
330
203DF
100
AcDbEntity
  8
DEFPOINTS
 62
     0
 48
50.0
100
AcDbPoint
 10
5113.600000000001
 20
8970.591651756882
 30
0.0
  0
POINT
  5
23FB0
330
203DF
100
AcDbEntity
  8
DEFPOINTS
 62
     0
 48
50.0
100
AcDbPoint
 10
5158.599999999998
 20
8287.982835086635
 30
0.0
  0
POINT
  5
23FB1
330
203DF
100
AcDbEntity
  8
DEFPOINTS
 62
     0
 48
50.0
100
AcDbPoint
 10
5158.599999999998
 20
9446.203157145555
 30
0.0
  0
ENDBLK
  5
203EC
330
203DF
100
AcDbEntity
  8
0
 48
50.0
100
AcDbBlockEnd
  0
BLOCK
  5
20413
330
20407
100
AcDbEntity
  8
0
 48
50.0
100
AcDbBlockBegin
  2
*D37
 70
     1
 10
0.0
 20
0.0
 30
0.0
  3
*D37
  1

  0
LINE
  5
22A85
330
20407
100
AcDbEntity
  8
寸法
 62
     0
 48
50.0
370
    -2
100
AcDbLine
 10
5138.6
 20
5647.982835086635
 30
0.0
 11
3962.144256711883
 21
5647.982835086635
 31
0.0
  0
LINE
  5
22A86
330
20407
100
AcDbEntity
  8
寸法
 62
     0
 48
50.0
370
    -2
100
AcDbLine
 10
4254.087353431281
 20
5592.982835086646
 30
0.0
 11
3962.144256711883
 21
5592.982835086646
 31
0.0
  0
LINE
  5
22A87
330
20407
100
AcDbEntity
  8
寸法
 62
     0
 48
50.0
370
    -2
100
AcDbLine
 10
4022.144256711882
 20
5647.982835086635
 30
0.0
 11
4022.144256711882
 21
5747.982835086634
 31
0.0
  0
LINE
  5
22A88
330
20407
100
AcDbEntity
  8
寸法
 62
     0
 48
50.0
370
    -2
100
AcDbLine
 10
4022.144256711882
 20
5592.982835086646
 30
0.0
 11
4022.144256711882
 21
5492.982835086646
 31
0.0
  0
LINE
  5
22A89
330
20407
100
AcDbEntity
  8
寸法
 62
     0
 48
50.0
370
    -2
100
AcDbLine
 10
4022.144256711882
 20
5647.982835086635
 30
0.0
 11
4022.144256711882
 21
5592.982835086646
 31
0.0
  0
INSERT
  5
22A8A
330
20407
100
AcDbEntity
  8
寸法
 62
     0
 48
50.0
370
    -2
100
AcDbBlockReference
  2
_DOTSMALL
 10
4022.144256711882
 20
5647.982835086635
 30
0.0
 41
100.0
 42
100.0
 43
100.0
 50
270.0
  0
INSERT
  5
22A8B
330
20407
100
AcDbEntity
  8
寸法
 62
     0
 48
50.0
370
    -2
100
AcDbBlockReference
  2
_DOTSMALL
 10
4022.144256711882
 20
5592.982835086646
 30
0.0
 41
100.0
 42
100.0
 43
100.0
 50
90.0
  0
MTEXT
  5
22A8C
330
20407
100
AcDbEntity
  8
寸法
 62
     7
 48
50.0
100
AcDbMText
 10
3922.144256711882
 20
5620.482835086641
 30
0.0
 40
120.0
 41
0.0
 71
     5
 72
     1
  1
\A1;b
  7
STYLE1
 11
0.0000000000000001
 21
1.0
 31
0.0
 73
     1
 44
1.0
1001
ACAD
1000
MTEXTBEGIN
1070
    73
1070
     1
1070
    44
1040
1.0
1070
    74
1070
     0
1000
MTEXTEND
  0
POINT
  5
22A8D
330
20407
100
AcDbEntity
  8
DEFPOINTS
 62
     0
 48
50.0
100
AcDbPoint
 10
5158.6
 20
5647.982835086635
 30
0.0
  0
POINT
  5
22A8E
330
20407
100
AcDbEntity
  8
DEFPOINTS
 62
     0
 48
50.0
100
AcDbPoint
 10
4274.087353431281
 20
5592.982835086646
 30
0.0
  0
POINT
  5
22A8F
330
20407
100
AcDbEntity
  8
DEFPOINTS
 62
     0
 48
50.0
100
AcDbPoint
 10
4022.144256711882
 20
5592.982835086646
 30
0.0
  0
ENDBLK
  5
20414
330
20407
100
AcDbEntity
  8
0
 48
50.0
100
AcDbBlockEnd
  0
BLOCK
  5
2282E
330
22824
100
AcDbEntity
  8
0
 48
50.0
100
AcDbBlockBegin
  2
*D38
 70
     1
 10
0.0
 20
0.0
 30
0.0
  3
*D38
  1

  0
LINE
  5
2408C
330
22824
100
AcDbEntity
  8
寸法
 62
     0
 48
50.0
370
    -2
100
AcDbLine
 10
7913.600000000001
 20
5647.98283508664
 30
0.0
 11
7782.1205154734
 21
5647.98283508664
 31
0.0
  0
LINE
  5
2408D
330
22824
100
AcDbEntity
  8
寸法
 62
     0
 48
50.0
370
    -2
100
AcDbLine
 10
7578.600000000007
 20
6602.982835086632
 30
0.0
 11
7902.1205154734
 21
6602.982835086632
 31
0.0
  0
LINE
  5
2408E
330
22824
100
AcDbEntity
  8
寸法
 62
     0
 48
50.0
370
    -2
100
AcDbLine
 10
7842.1205154734
 20
5647.98283508664
 30
0.0
 11
7842.120515473401
 21
6602.982835086632
 31
0.0
  0
INSERT
  5
2408F
330
22824
100
AcDbEntity
  8
寸法
 62
     0
 48
50.0
370
    -2
100
AcDbBlockReference
  2
_DOTSMALL
 10
7842.1205154734
 20
5647.98283508664
 30
0.0
 41
100.0
 42
100.0
 43
100.0
 50
270.0
  0
INSERT
  5
24090
330
22824
100
AcDbEntity
  8
寸法
 62
     0
 48
50.0
370
    -2
100
AcDbBlockReference
  2
_DOTSMALL
 10
7842.120515473401
 20
6602.982835086632
 30
0.0
 41
100.0
 42
100.0
 43
100.0
 50
90.0
  0
MTEXT
  5
24091
330
22824
100
AcDbEntity
  8
寸法
 62
     7
 48
50.0
100
AcDbMText
 10
7742.120515473399
 20
6125.144085098378
 30
0.0
 40
120.0
 41
0.0
 71
     5
 72
     1
  1
\A1;955
  7
STYLE1
 11
0.0000000000000001
 21
1.0
 31
0.0
 73
     1
 44
1.0
1001
ACAD
1000
MTEXTBEGIN
1070
    73
1070
     1
1070
    44
1040
1.0
1070
    74
1070
     0
1000
MTEXTEND
  0
POINT
  5
24092
330
22824
100
AcDbEntity
  8
DEFPOINTS
 62
     0
 48
50.0
100
AcDbPoint
 10
7933.6
 20
5647.98283508664
 30
0.0
  0
POINT
  5
24093
330
22824
100
AcDbEntity
  8
DEFPOINTS
 62
     0
 48
50.0
100
AcDbPoint
 10
7558.600000000009
 20
6602.982835086632
 30
0.0
  0
POINT
  5
24094
330
22824
100
AcDbEntity
  8
DEFPOINTS
 62
     0
 48
50.0
100
AcDbPoint
 10
7842.120515473401
 20
6602.982835086632
 30
0.0
  0
ENDBLK
  5
2282F
330
22824
100
AcDbEntity
  8
0
 48
50.0
100
AcDbBlockEnd
  0
BLOCK
  5
2283A
330
22830
100
AcDbEntity
  8
0
 48
50.0
100
AcDbBlockBegin
  2
*D39
 70
     1
 10
0.0
 20
0.0
 30
0.0
  3
*D39
  1

  0
LINE
  5
2409E
330
22830
100
AcDbEntity
  8
寸法
 62
     0
 48
50.0
370
    -2
100
AcDbLine
 10
7578.600000000007
 20
7406.982835086633
 30
0.0
 11
7902.1205154734
 21
7406.982835086633
 31
0.0
  0
LINE
  5
2409F
330
22830
100
AcDbEntity
  8
寸法
 62
     0
 48
50.0
370
    -2
100
AcDbLine
 10
7913.600000000001
 20
8287.982835086634
 30
0.0
 11
7782.1205154734
 21
8287.982835086634
 31
0.0
  0
LINE
  5
240A0
330
22830
100
AcDbEntity
  8
寸法
 62
     0
 48
50.0
370
    -2
100
AcDbLine
 10
7842.120515473401
 20
7406.982835086633
 30
0.0
 11
7842.120515473401
 21
8287.982835086634
 31
0.0
  0
INSERT
  5
240A1
330
22830
100
AcDbEntity
  8
寸法
 62
     0
 48
50.0
370
    -2
100
AcDbBlockReference
  2
_DOTSMALL
 10
7842.120515473401
 20
7406.982835086633
 30
0.0
 41
100.0
 42
100.0
 43
100.0
 50
270.0
  0
INSERT
  5
240A2
330
22830
100
AcDbEntity
  8
寸法
 62
     0
 48
50.0
370
    -2
100
AcDbBlockReference
  2
_DOTSMALL
 10
7842.120515473401
 20
8287.982835086634
 30
0.0
 41
100.0
 42
100.0
 43
100.0
 50
90.0
  0
MTEXT
  5
240A3
330
22830
100
AcDbEntity
  8
寸法
 62
     7
 48
50.0
100
AcDbMText
 10
7742.120515473399
 20
7856.482835086634
 30
0.0
 40
120.0
 41
0.0
 71
     5
 72
     1
  1
\A1;881
  7
STYLE1
 11
0.0000000000000001
 21
1.0
 31
0.0
 73
     1
 44
1.0
1001
ACAD
1000
MTEXTBEGIN
1070
    73
1070
     1
1070
    44
1040
1.0
1070
    74
1070
     0
1000
MTEXTEND
  0
POINT
  5
240A4
330
22830
100
AcDbEntity
  8
DEFPOINTS
 62
     0
 48
50.0
100
AcDbPoint
 10
7558.600000000009
 20
7406.982835086633
 30
0.0
  0
POINT
  5
240A5
330
22830
100
AcDbEntity
  8
DEFPOINTS
 62
     0
 48
50.0
100
AcDbPoint
 10
7933.6
 20
8287.982835086634
 30
0.0
  0
POINT
  5
240A6
330
22830
100
AcDbEntity
  8
DEFPOINTS
 62
     0
 48
50.0
100
AcDbPoint
 10
7842.120515473401
 20
8287.982835086634
 30
0.0
  0
ENDBLK
  5
2283B
330
22830
100
AcDbEntity
  8
0
 48
50.0
100
AcDbBlockEnd
  0
BLOCK
  5
2286B
330
22861
100
AcDbEntity
  8
0
 48
50.0
100
AcDbBlockBegin
  2
*D40
 70
     1
 10
0.0
 20
0.0
 30
0.0
  3
*D40
  1

  0
LINE
  5
2407A
330
22861
100
AcDbEntity
  8
寸法
 62
     0
 48
50.0
370
    -2
100
AcDbLine
 10
5928.600000000008
 20
6532.982835086634
 30
0.0
 11
5928.600000000008
 21
6248.100679195828
 31
0.0
  0
LINE
  5
2407B
330
22861
100
AcDbEntity
  8
寸法
 62
     0
 48
50.0
370
    -2
100
AcDbLine
 10
5158.6
 20
6456.096406872986
 30
0.0
 11
5158.6
 21
6248.100679195828
 31
0.0
  0
LINE
  5
2407C
330
22861
100
AcDbEntity
  8
寸法
 62
     0
 48
50.0
370
    -2
100
AcDbLine
 10
5928.600000000008
 20
6308.100679195828
 30
0.0
 11
5158.6
 21
6308.100679195828
 31
0.0
  0
INSERT
  5
2407D
330
22861
100
AcDbEntity
  8
寸法
 62
     0
 48
50.0
370
    -2
100
AcDbBlockReference
  2
_DOTSMALL
 10
5928.600000000008
 20
6308.100679195828
 30
0.0
 41
100.0
 42
100.0
 43
100.0
  0
INSERT
  5
2407E
330
22861
100
AcDbEntity
  8
寸法
 62
     0
 48
50.0
370
    -2
100
AcDbBlockReference
  2
_DOTSMALL
 10
5158.6
 20
6308.100679195828
 30
0.0
 41
100.0
 42
100.0
 43
100.0
 50
180.0
  0
MTEXT
  5
2407F
330
22861
100
AcDbEntity
  8
寸法
 62
     7
 48
50.0
100
AcDbMText
 10
5543.600000000004
 20
6408.100679195829
 30
0.0
 40
120.0
 41
0.0
 71
     5
 72
     1
  1
\A1;770
  7
STYLE1
 73
     1
 44
1.0
1001
ACAD
1000
MTEXTBEGIN
1070
    73
1070
     1
1070
    44
1040
1.0
1070
    74
1070
     0
1000
MTEXTEND
  0
POINT
  5
24080
330
22861
100
AcDbEntity
  8
DEFPOINTS
 62
     0
 48
50.0
100
AcDbPoint
 10
5928.600000000008
 20
6552.982835086632
 30
0.0
  0
POINT
  5
24081
330
22861
100
AcDbEntity
  8
DEFPOINTS
 62
     0
 48
50.0
100
AcDbPoint
 10
5158.6
 20
6476.096406872986
 30
0.0
  0
POINT
  5
24082
330
22861
100
AcDbEntity
  8
DEFPOINTS
 62
     0
 48
50.0
100
AcDbPoint
 10
5158.6
 20
6308.100679195828
 30
0.0
  0
ENDBLK
  5
2286C
330
22861
100
AcDbEntity
  8
0
 48
50.0
100
AcDbBlockEnd
  0
BLOCK
  5
22878
330
2286E
100
AcDbEntity
  8
0
 48
50.0
100
AcDbBlockBegin
  2
*D41
 70
     1
 10
0.0
 20
0.0
 30
0.0
  3
*D41
  1

  0
LINE
  5
24071
330
2286E
100
AcDbEntity
  8
寸法
 62
     0
 48
50.0
370
    -2
100
AcDbLine
 10
5928.600000000008
 20
6532.982835086634
 30
0.0
 11
5928.600000000008
 21
6248.100679195828
 31
0.0
  0
LINE
  5
24072
330
2286E
100
AcDbEntity
  8
寸法
 62
     0
 48
50.0
370
    -2
100
AcDbLine
 10
6693.600000000007
 20
6532.982835086634
 30
0.0
 11
6693.600000000007
 21
6248.100679195828
 31
0.0
  0
LINE
  5
24073
330
2286E
100
AcDbEntity
  8
寸法
 62
     0
 48
50.0
370
    -2
100
AcDbLine
 10
5928.600000000008
 20
6308.100679195828
 30
0.0
 11
6693.600000000007
 21
6308.100679195828
 31
0.0
  0
INSERT
  5
24074
330
2286E
100
AcDbEntity
  8
寸法
 62
     0
 48
50.0
370
    -2
100
AcDbBlockReference
  2
_DOTSMALL
 10
5928.600000000008
 20
6308.100679195828
 30
0.0
 41
100.0
 42
100.0
 43
100.0
 50
180.0
  0
INSERT
  5
24075
330
2286E
100
AcDbEntity
  8
寸法
 62
     0
 48
50.0
370
    -2
100
AcDbBlockReference
  2
_DOTSMALL
 10
6693.600000000007
 20
6308.100679195828
 30
0.0
 41
100.0
 42
100.0
 43
100.0
  0
MTEXT
  5
24076
330
2286E
100
AcDbEntity
  8
寸法
 62
     7
 48
50.0
100
AcDbMText
 10
6311.100000000007
 20
6408.100679195829
 30
0.0
 40
120.0
 41
0.0
 71
     5
 72
     1
  1
\A1;765
  7
STYLE1
 73
     1
 44
1.0
1001
ACAD
1000
MTEXTBEGIN
1070
    73
1070
     1
1070
    44
1040
1.0
1070
    74
1070
     0
1000
MTEXTEND
  0
POINT
  5
24077
330
2286E
100
AcDbEntity
  8
DEFPOINTS
 62
     0
 48
50.0
100
AcDbPoint
 10
5928.600000000008
 20
6552.982835086632
 30
0.0
  0
POINT
  5
24078
330
2286E
100
AcDbEntity
  8
DEFPOINTS
 62
     0
 48
50.0
100
AcDbPoint
 10
6693.600000000007
 20
6552.982835086632
 30
0.0
  0
POINT
  5
24079
330
2286E
100
AcDbEntity
  8
DEFPOINTS
 62
     0
 48
50.0
100
AcDbPoint
 10
6693.600000000007
 20
6308.100679195828
 30
0.0
  0
ENDBLK
  5
22879
330
2286E
100
AcDbEntity
  8
0
 48
50.0
100
AcDbBlockEnd
  0
BLOCK
  5
228B6
330
228AC
100
AcDbEntity
  8
0
 48
50.0
100
AcDbBlockBegin
  2
*D42
 70
     1
 10
0.0
 20
0.0
 30
0.0
  3
*D42
  1

  0
LINE
  5
2405F
330
228AC
100
AcDbEntity
  8
寸法
 62
     0
 48
50.0
370
    -2
100
AcDbLine
 10
11288.6
 20
6532.982835086634
 30
0.0
 11
11288.6
 21
6248.100679195828
 31
0.0
  0
LINE
  5
24060
330
228AC
100
AcDbEntity
  8
寸法
 62
     0
 48
50.0
370
    -2
100
AcDbLine
 10
10518.59999999999
 20
6482.982835086634
 30
0.0
 11
10518.59999999999
 21
6248.100679195828
 31
0.0
  0
LINE
  5
24061
330
228AC
100
AcDbEntity
  8
寸法
 62
     0
 48
50.0
370
    -2
100
AcDbLine
 10
11288.6
 20
6308.100679195828
 30
0.0
 11
10518.59999999999
 21
6308.100679195828
 31
0.0
  0
INSERT
  5
24062
330
228AC
100
AcDbEntity
  8
寸法
 62
     0
 48
50.0
370
    -2
100
AcDbBlockReference
  2
_DOTSMALL
 10
11288.6
 20
6308.100679195828
 30
0.0
 41
100.0
 42
100.0
 43
100.0
  0
INSERT
  5
24063
330
228AC
100
AcDbEntity
  8
寸法
 62
     0
 48
50.0
370
    -2
100
AcDbBlockReference
  2
_DOTSMALL
 10
10518.59999999999
 20
6308.100679195828
 30
0.0
 41
100.0
 42
100.0
 43
100.0
 50
180.0
  0
MTEXT
  5
24064
330
228AC
100
AcDbEntity
  8
寸法
 62
     7
 48
50.0
100
AcDbMText
 10
10903.59999999999
 20
6408.100679195829
 30
0.0
 40
120.0
 41
0.0
 71
     5
 72
     1
  1
\A1;770
  7
STYLE1
 73
     1
 44
1.0
1001
ACAD
1000
MTEXTBEGIN
1070
    73
1070
     1
1070
    44
1040
1.0
1070
    74
1070
     0
1000
MTEXTEND
  0
POINT
  5
24065
330
228AC
100
AcDbEntity
  8
DEFPOINTS
 62
     0
 48
50.0
100
AcDbPoint
 10
11288.6
 20
6552.982835086632
 30
0.0
  0
POINT
  5
24066
330
228AC
100
AcDbEntity
  8
DEFPOINTS
 62
     0
 48
50.0
100
AcDbPoint
 10
10518.59999999999
 20
6502.982835086632
 30
0.0
  0
POINT
  5
24067
330
228AC
100
AcDbEntity
  8
DEFPOINTS
 62
     0
 48
50.0
100
AcDbPoint
 10
10518.59999999999
 20
6308.100679195828
 30
0.0
  0
ENDBLK
  5
228B7
330
228AC
100
AcDbEntity
  8
0
 48
50.0
100
AcDbBlockEnd
  0
BLOCK
  5
228D5
330
228CB
100
AcDbEntity
  8
0
 48
50.0
100
AcDbBlockBegin
  2
*D43
 70
     1
 10
0.0
 20
0.0
 30
0.0
  3
*D43
  1

  0
LINE
  5
24056
330
228CB
100
AcDbEntity
  8
寸法
 62
     0
 48
50.0
370
    -2
100
AcDbLine
 10
9753.600000000007
 20
6482.982835086634
 30
0.0
 11
9753.600000000007
 21
6248.100679195828
 31
0.0
  0
LINE
  5
24057
330
228CB
100
AcDbEntity
  8
寸法
 62
     0
 48
50.0
370
    -2
100
AcDbLine
 10
10518.59999999999
 20
6482.982835086634
 30
0.0
 11
10518.59999999999
 21
6248.100679195828
 31
0.0
  0
LINE
  5
24058
330
228CB
100
AcDbEntity
  8
寸法
 62
     0
 48
50.0
370
    -2
100
AcDbLine
 10
9753.600000000007
 20
6308.100679195828
 30
0.0
 11
10518.59999999999
 21
6308.100679195828
 31
0.0
  0
INSERT
  5
24059
330
228CB
100
AcDbEntity
  8
寸法
 62
     0
 48
50.0
370
    -2
100
AcDbBlockReference
  2
_DOTSMALL
 10
9753.600000000007
 20
6308.100679195828
 30
0.0
 41
100.0
 42
100.0
 43
100.0
 50
180.0
  0
INSERT
  5
2405A
330
228CB
100
AcDbEntity
  8
寸法
 62
     0
 48
50.0
370
    -2
100
AcDbBlockReference
  2
_DOTSMALL
 10
10518.59999999999
 20
6308.100679195828
 30
0.0
 41
100.0
 42
100.0
 43
100.0
  0
MTEXT
  5
2405B
330
228CB
100
AcDbEntity
  8
寸法
 62
     7
 48
50.0
100
AcDbMText
 10
10136.1
 20
6408.100679195829
 30
0.0
 40
120.0
 41
0.0
 71
     5
 72
     1
  1
\A1;765
  7
STYLE1
 73
     1
 44
1.0
1001
ACAD
1000
MTEXTBEGIN
1070
    73
1070
     1
1070
    44
1040
1.0
1070
    74
1070
     0
1000
MTEXTEND
  0
POINT
  5
2405C
330
228CB
100
AcDbEntity
  8
DEFPOINTS
 62
     0
 48
50.0
100
AcDbPoint
 10
9753.600000000007
 20
6502.982835086632
 30
0.0
  0
POINT
  5
2405D
330
228CB
100
AcDbEntity
  8
DEFPOINTS
 62
     0
 48
50.0
100
AcDbPoint
 10
10518.59999999999
 20
6502.982835086632
 30
0.0
  0
POINT
  5
2405E
330
228CB
100
AcDbEntity
  8
DEFPOINTS
 62
     0
 48
50.0
100
AcDbPoint
 10
10518.59999999999
 20
6308.100679195828
 30
0.0
  0
ENDBLK
  5
228D6
330
228CB
100
AcDbEntity
  8
0
 48
50.0
100
AcDbBlockEnd
  0
BLOCK
  5
228E3
330
228D9
100
AcDbEntity
  8
0
 48
50.0
100
AcDbBlockBegin
  2
*D44
 70
     1
 10
0.0
 20
0.0
 30
0.0
  3
*D44
  1

  0
LINE
  5
2404D
330
228D9
100
AcDbEntity
  8
寸法
 62
     0
 48
50.0
370
    -2
100
AcDbLine
 10
8988.600000000008
 20
6482.982835086634
 30
0.0
 11
8988.600000000008
 21
6248.100679195828
 31
0.0
  0
LINE
  5
2404E
330
228D9
100
AcDbEntity
  8
寸法
 62
     0
 48
50.0
370
    -2
100
AcDbLine
 10
9753.600000000007
 20
6482.982835086634
 30
0.0
 11
9753.600000000007
 21
6248.100679195828
 31
0.0
  0
LINE
  5
2404F
330
228D9
100
AcDbEntity
  8
寸法
 62
     0
 48
50.0
370
    -2
100
AcDbLine
 10
8988.600000000008
 20
6308.100679195828
 30
0.0
 11
9753.600000000007
 21
6308.100679195828
 31
0.0
  0
INSERT
  5
24050
330
228D9
100
AcDbEntity
  8
寸法
 62
     0
 48
50.0
370
    -2
100
AcDbBlockReference
  2
_DOTSMALL
 10
8988.600000000008
 20
6308.100679195828
 30
0.0
 41
100.0
 42
100.0
 43
100.0
 50
180.0
  0
INSERT
  5
24051
330
228D9
100
AcDbEntity
  8
寸法
 62
     0
 48
50.0
370
    -2
100
AcDbBlockReference
  2
_DOTSMALL
 10
9753.600000000007
 20
6308.100679195828
 30
0.0
 41
100.0
 42
100.0
 43
100.0
  0
MTEXT
  5
24052
330
228D9
100
AcDbEntity
  8
寸法
 62
     7
 48
50.0
100
AcDbMText
 10
9371.100000000009
 20
6408.100679195829
 30
0.0
 40
120.0
 41
0.0
 71
     5
 72
     1
  1
\A1;765
  7
STYLE1
 73
     1
 44
1.0
1001
ACAD
1000
MTEXTBEGIN
1070
    73
1070
     1
1070
    44
1040
1.0
1070
    74
1070
     0
1000
MTEXTEND
  0
POINT
  5
24053
330
228D9
100
AcDbEntity
  8
DEFPOINTS
 62
     0
 48
50.0
100
AcDbPoint
 10
8988.600000000008
 20
6502.982835086632
 30
0.0
  0
POINT
  5
24054
330
228D9
100
AcDbEntity
  8
DEFPOINTS
 62
     0
 48
50.0
100
AcDbPoint
 10
9753.600000000007
 20
6502.982835086632
 30
0.0
  0
POINT
  5
24055
330
228D9
100
AcDbEntity
  8
DEFPOINTS
 62
     0
 48
50.0
100
AcDbPoint
 10
9753.600000000007
 20
6308.100679195828
 30
0.0
  0
ENDBLK
  5
228E4
330
228D9
100
AcDbEntity
  8
0
 48
50.0
100
AcDbBlockEnd
  0
BLOCK
  5
235DB
330
235D1
100
AcDbEntity
  8
0
 48
50.0
100
AcDbBlockBegin
  2
*D45
 70
     1
 10
0.0
 20
0.0
 30
0.0
  3
*D45
  1

  0
LINE
  5
24095
330
235D1
100
AcDbEntity
  8
寸法
 62
     0
 48
50.0
370
    -2
100
AcDbLine
 10
7578.600000000007
 20
7406.982835086633
 30
0.0
 11
7902.1205154734
 21
7406.982835086633
 31
0.0
  0
LINE
  5
24096
330
235D1
100
AcDbEntity
  8
寸法
 62
     0
 48
50.0
370
    -2
100
AcDbLine
 10
7578.600000000007
 20
6602.982835086632
 30
0.0
 11
7902.1205154734
 21
6602.982835086632
 31
0.0
  0
LINE
  5
24097
330
235D1
100
AcDbEntity
  8
寸法
 62
     0
 48
50.0
370
    -2
100
AcDbLine
 10
7842.120515473401
 20
7406.982835086633
 30
0.0
 11
7842.120515473401
 21
6602.982835086632
 31
0.0
  0
INSERT
  5
24098
330
235D1
100
AcDbEntity
  8
寸法
 62
     0
 48
50.0
370
    -2
100
AcDbBlockReference
  2
_DOTSMALL
 10
7842.120515473401
 20
7406.982835086633
 30
0.0
 41
100.0
 42
100.0
 43
100.0
 50
90.0
  0
INSERT
  5
24099
330
235D1
100
AcDbEntity
  8
寸法
 62
     0
 48
50.0
370
    -2
100
AcDbBlockReference
  2
_DOTSMALL
 10
7842.120515473401
 20
6602.982835086632
 30
0.0
 41
100.0
 42
100.0
 43
100.0
 50
270.0
  0
MTEXT
  5
2409A
330
235D1
100
AcDbEntity
  8
寸法
 62
     7
 48
50.0
100
AcDbMText
 10
7742.120515473399
 20
7004.982835086633
 30
0.0
 40
120.0
 41
0.0
 71
     5
 72
     1
  1
\A1;804
  7
STYLE1
 11
0.0000000000000001
 21
1.0
 31
0.0
 73
     1
 44
1.0
1001
ACAD
1000
MTEXTBEGIN
1070
    73
1070
     1
1070
    44
1040
1.0
1070
    74
1070
     0
1000
MTEXTEND
  0
POINT
  5
2409B
330
235D1
100
AcDbEntity
  8
DEFPOINTS
 62
     0
 48
50.0
100
AcDbPoint
 10
7558.600000000009
 20
7406.982835086633
 30
0.0
  0
POINT
  5
2409C
330
235D1
100
AcDbEntity
  8
DEFPOINTS
 62
     0
 48
50.0
100
AcDbPoint
 10
7558.600000000009
 20
6602.982835086632
 30
0.0
  0
POINT
  5
2409D
330
235D1
100
AcDbEntity
  8
DEFPOINTS
 62
     0
 48
50.0
100
AcDbPoint
 10
7842.120515473401
 20
6602.982835086632
 30
0.0
  0
ENDBLK
  5
235DC
330
235D1
100
AcDbEntity
  8
0
 48
50.0
100
AcDbBlockEnd
  0
BLOCK
  5
24AD0
330
24AC6
100
AcDbEntity
  8
0
 48
50.0
100
AcDbBlockBegin
  2
*D46
 70
     1
 10
0.0
 20
0.0
 30
0.0
  3
*D46
  1

  0
LINE
  5
24B13
330
24AC6
100
AcDbEntity
  8
寸法
 62
     0
 48
50.0
370
    -2
100
AcDbLine
 10
8392.65382584279
 20
2017.843821726534
 30
0.0
 11
8934.522425611634
 21
2017.843821726534
 31
0.0
  0
LINE
  5
24B14
330
24AC6
100
AcDbEntity
  8
寸法
 62
     0
 48
50.0
370
    -2
100
AcDbLine
 10
8392.65382584279
 20
1693.843821726533
 30
0.0
 11
8934.522425611634
 21
1693.843821726533
 31
0.0
  0
LINE
  5
24B15
330
24AC6
100
AcDbEntity
  8
寸法
 62
     0
 48
50.0
370
    -2
100
AcDbLine
 10
8874.522425611635
 20
2017.843821726534
 30
0.0
 11
8874.522425611635
 21
1693.843821726533
 31
0.0
  0
INSERT
  5
24B16
330
24AC6
100
AcDbEntity
  8
寸法
 62
     0
 48
50.0
370
    -2
100
AcDbBlockReference
  2
_DOTSMALL
 10
8874.522425611635
 20
2017.843821726534
 30
0.0
 41
100.0
 42
100.0
 43
100.0
 50
90.0
  0
INSERT
  5
24B17
330
24AC6
100
AcDbEntity
  8
寸法
 62
     0
 48
50.0
370
    -2
100
AcDbBlockReference
  2
_DOTSMALL
 10
8874.522425611635
 20
1693.843821726533
 30
0.0
 41
100.0
 42
100.0
 43
100.0
 50
270.0
  0
MTEXT
  5
24B18
330
24AC6
100
AcDbEntity
  8
寸法
 62
     7
 48
50.0
100
AcDbMText
 10
8774.522425611634
 20
1855.843821726535
 30
0.0
 40
120.0
 41
0.0
 71
     5
 72
     1
  1
\A1;180
  7
STYLE1
 11
0.0000000000000001
 21
1.0
 31
0.0
 73
     1
 44
1.0
1001
ACAD
1000
MTEXTBEGIN
1070
    73
1070
     1
1070
    44
1040
1.0
1070
    74
1070
     0
1000
MTEXTEND
  0
POINT
  5
24B19
330
24AC6
100
AcDbEntity
  8
DEFPOINTS
 62
     0
 48
50.0
100
AcDbPoint
 10
8372.653825842791
 20
2017.843821726534
 30
0.0
  0
POINT
  5
24B1A
330
24AC6
100
AcDbEntity
  8
DEFPOINTS
 62
     0
 48
50.0
100
AcDbPoint
 10
8372.653825842791
 20
1693.843821726533
 30
0.0
  0
POINT
  5
24B1B
330
24AC6
100
AcDbEntity
  8
DEFPOINTS
 62
     0
 48
50.0
100
AcDbPoint
 10
8874.522425611635
 20
1693.843821726533
 30
0.0
  0
ENDBLK
  5
24AD1
330
24AC6
100
AcDbEntity
  8
0
 48
50.0
100
AcDbBlockEnd
  0
BLOCK
  5
24AE1
330
24AD2
100
AcDbEntity
  8
0
 48
50.0
100
AcDbBlockBegin
  2
*D47
 70
     1
 10
0.0
 20
0.0
 30
0.0
  3
*D47
  1

  0
LINE
  5
24B1C
330
24AD2
100
AcDbEntity
  8
寸法
 62
     0
 48
50.0
370
    -2
100
AcDbLine
 10
8205.453825842793
 20
2070.603821726535
 30
0.0
 11
8934.522425611634
 21
2070.603821726535
 31
0.0
  0
LINE
  5
24B1D
330
24AD2
100
AcDbEntity
  8
寸法
 62
     0
 48
50.0
370
    -2
100
AcDbLine
 10
8392.65382584279
 20
2017.843821726534
 30
0.0
 11
8934.522425611634
 21
2017.843821726534
 31
0.0
  0
LINE
  5
24B1E
330
24AD2
100
AcDbEntity
  8
寸法
 62
     0
 48
50.0
370
    -2
100
AcDbLine
 10
8874.522425611635
 20
2070.603821726535
 30
0.0
 11
8874.522425611635
 21
2170.603821726535
 31
0.0
  0
LINE
  5
24B1F
330
24AD2
100
AcDbEntity
  8
寸法
 62
     0
 48
50.0
370
    -2
100
AcDbLine
 10
8874.522425611635
 20
2017.843821726534
 30
0.0
 11
8874.522425611635
 21
1917.843821726534
 31
0.0
  0
LINE
  5
24B20
330
24AD2
100
AcDbEntity
  8
寸法
 62
     0
 48
50.0
370
    -2
100
AcDbLine
 10
8874.522425611635
 20
2044.223821726535
 30
0.0
 11
9150.577091730662
 21
2032.719864122321
 31
0.0
  0
LINE
  5
24B21
330
24AD2
100
AcDbEntity
  8
寸法
 62
     0
 48
50.0
370
    -2
100
AcDbLine
 10
9150.577091730662
 20
2032.719864122321
 30
0.0
 11
9150.577091730662
 21
1500.702057279355
 31
0.0
  0
MTEXT
  5
24B22
330
24AD2
100
AcDbEntity
  8
寸法
 62
     7
 48
50.0
100
AcDbMText
 10
9050.56528070704
 20
1766.71096070084
 30
0.0
 40
120.0
 41
0.0
 71
     5
 72
     1
  1
\A1;20～25
  7
STYLE1
 11
0.0000000000000001
 21
1.0
 31
0.0
 73
     1
 44
1.0
1001
ACAD
1000
MTEXTBEGIN
1070
    73
1070
     1
1070
    44
1040
1.0
1070
    74
1070
     0
1000
MTEXTEND
  0
LINE
  5
24B23
330
24AD2
100
AcDbEntity
  8
寸法
 62
     0
 48
50.0
370
    -2
100
AcDbLine
 10
8874.522425611635
 20
2070.603821726535
 30
0.0
 11
8874.522425611635
 21
2017.843821726534
 31
0.0
  0
LINE
  5
24B24
330
24AD2
100
AcDbEntity
  8
寸法
 62
     0
 48
50.0
370
    -2
100
AcDbLine
 10
8874.522425611635
 20
2070.603821726535
 30
0.0
 11
8874.522425611635
 21
2017.843821726534
 31
0.0
  0
INSERT
  5
24B25
330
24AD2
100
AcDbEntity
  8
寸法
 62
     0
 48
50.0
370
    -2
100
AcDbBlockReference
  2
_DOTSMALL
 10
8874.522425611635
 20
2070.603821726535
 30
0.0
 41
100.0
 42
100.0
 43
100.0
 50
270.0
  0
INSERT
  5
24B26
330
24AD2
100
AcDbEntity
  8
寸法
 62
     0
 48
50.0
370
    -2
100
AcDbBlockReference
  2
_DOTSMALL
 10
8874.522425611635
 20
2017.843821726534
 30
0.0
 41
100.0
 42
100.0
 43
100.0
 50
90.0
  0
POINT
  5
24B27
330
24AD2
100
AcDbEntity
  8
DEFPOINTS
 62
     0
 48
50.0
100
AcDbPoint
 10
8185.453825842794
 20
2070.603821726535
 30
0.0
  0
POINT
  5
24B28
330
24AD2
100
AcDbEntity
  8
DEFPOINTS
 62
     0
 48
50.0
100
AcDbPoint
 10
8372.653825842791
 20
2017.843821726534
 30
0.0
  0
POINT
  5
24B29
330
24AD2
100
AcDbEntity
  8
DEFPOINTS
 62
     0
 48
50.0
100
AcDbPoint
 10
8874.522425611635
 20
2017.843821726534
 30
0.0
  0
ENDBLK
  5
24AE2
330
24AD2
100
AcDbEntity
  8
0
 48
50.0
100
AcDbBlockEnd
  0
BLOCK
  5
24AED
330
24AE3
100
AcDbEntity
  8
0
 48
50.0
100
AcDbBlockBegin
  2
*D48
 70
     1
 10
0.0
 20
0.0
 30
0.0
  3
*D48
  1

  0
LINE
  5
24B2A
330
24AE3
100
AcDbEntity
  8
寸法
 62
     0
 48
50.0
370
    -2
100
AcDbLine
 10
6110.614512665598
 20
1473.843821726534
 30
0.0
 11
5928.194198933139
 21
1473.843821726534
 31
0.0
  0
LINE
  5
24B2B
330
24AE3
100
AcDbEntity
  8
寸法
 62
     0
 48
50.0
370
    -2
100
AcDbLine
 10
6030.614512665602
 20
1233.843821726534
 30
0.0
 11
5928.194198933139
 21
1233.843821726534
 31
0.0
  0
LINE
  5
24B2C
330
24AE3
100
AcDbEntity
  8
寸法
 62
     0
 48
50.0
370
    -2
100
AcDbLine
 10
5988.194198933139
 20
1473.843821726534
 30
0.0
 11
5988.194198933139
 21
1233.843821726534
 31
0.0
  0
MTEXT
  5
24B2D
330
24AE3
100
AcDbEntity
  8
寸法
 62
     7
 48
50.0
100
AcDbMText
 10
5888.194198933138
 20
1353.843821726534
 30
0.0
 40
120.0
 41
0.0
 71
     5
 72
     1
  1
\A1;150
  7
STYLE1
 11
0.0000000000000001
 21
1.0
 31
0.0
 73
     1
 44
1.0
1001
ACAD
1000
MTEXTBEGIN
1070
    73
1070
     1
1070
    44
1040
1.0
1070
    74
1070
     0
1000
MTEXTEND
  0
INSERT
  5
24B2E
330
24AE3
100
AcDbEntity
  8
寸法
 62
     0
 48
50.0
370
    -2
100
AcDbBlockReference
  2
_DOTSMALL
 10
5988.194198933139
 20
1473.843821726534
 30
0.0
 41
100.0
 42
100.0
 43
100.0
 50
90.0
  0
INSERT
  5
24B2F
330
24AE3
100
AcDbEntity
  8
寸法
 62
     0
 48
50.0
370
    -2
100
AcDbBlockReference
  2
_DOTSMALL
 10
5988.194198933139
 20
1233.843821726534
 30
0.0
 41
100.0
 42
100.0
 43
100.0
 50
270.0
  0
POINT
  5
24B30
330
24AE3
100
AcDbEntity
  8
DEFPOINTS
 62
     0
 48
50.0
100
AcDbPoint
 10
6130.614512665598
 20
1473.843821726534
 30
0.0
  0
POINT
  5
24B31
330
24AE3
100
AcDbEntity
  8
DEFPOINTS
 62
     0
 48
50.0
100
AcDbPoint
 10
6050.614512665602
 20
1233.843821726534
 30
0.0
  0
POINT
  5
24B32
330
24AE3
100
AcDbEntity
  8
DEFPOINTS
 62
     0
 48
50.0
100
AcDbPoint
 10
5988.194198933139
 20
1233.843821726534
 30
0.0
  0
ENDBLK
  5
24AEE
330
24AE3
100
AcDbEntity
  8
0
 48
50.0
100
AcDbBlockEnd
  0
BLOCK
  5
24AF9
330
24AEF
100
AcDbEntity
  8
0
 48
50.0
100
AcDbBlockBegin
  2
*D49
 70
     1
 10
0.0
 20
0.0
 30
0.0
  3
*D49
  1

  0
LINE
  5
24B33
330
24AEF
100
AcDbEntity
  8
寸法
 62
     0
 48
50.0
370
    -2
100
AcDbLine
 10
6238.614512665598
 20
2017.843821726534
 30
0.0
 11
5463.577274103858
 21
2017.843821726534
 31
0.0
  0
LINE
  5
24B34
330
24AEF
100
AcDbEntity
  8
寸法
 62
     0
 48
50.0
370
    -2
100
AcDbLine
 10
6030.614512665602
 20
1233.843821726534
 30
0.0
 11
5463.577274103858
 21
1233.843821726534
 31
0.0
  0
LINE
  5
24B35
330
24AEF
100
AcDbEntity
  8
寸法
 62
     0
 48
50.0
370
    -2
100
AcDbLine
 10
5523.577274103858
 20
2017.843821726534
 30
0.0
 11
5523.577274103858
 21
1233.843821726534
 31
0.0
  0
MTEXT
  5
24B36
330
24AEF
100
AcDbEntity
  8
寸法
 62
     7
 48
50.0
100
AcDbMText
 10
5423.577274103858
 20
1605.383971382535
 30
0.0
 40
120.0
 41
0.0
 71
     5
 72
     1
  1
\A1;540
  7
STYLE1
 11
0.0000000000000001
 21
1.0
 31
0.0
 73
     1
 44
1.0
1001
ACAD
1000
MTEXTBEGIN
1070
    73
1070
     1
1070
    44
1040
1.0
1070
    74
1070
     0
1000
MTEXTEND
  0
INSERT
  5
24B37
330
24AEF
100
AcDbEntity
  8
寸法
 62
     0
 48
50.0
370
    -2
100
AcDbBlockReference
  2
_DOTSMALL
 10
5523.577274103858
 20
2017.843821726534
 30
0.0
 41
100.0
 42
100.0
 43
100.0
 50
90.0
  0
INSERT
  5
24B38
330
24AEF
100
AcDbEntity
  8
寸法
 62
     0
 48
50.0
370
    -2
100
AcDbBlockReference
  2
_DOTSMALL
 10
5523.577274103858
 20
1233.843821726534
 30
0.0
 41
100.0
 42
100.0
 43
100.0
 50
270.0
  0
POINT
  5
24B39
330
24AEF
100
AcDbEntity
  8
DEFPOINTS
 62
     0
 48
50.0
100
AcDbPoint
 10
6258.614512665598
 20
2017.843821726534
 30
0.0
  0
POINT
  5
24B3A
330
24AEF
100
AcDbEntity
  8
DEFPOINTS
 62
     0
 48
50.0
100
AcDbPoint
 10
6050.614512665602
 20
1233.843821726534
 30
0.0
  0
POINT
  5
24B3B
330
24AEF
100
AcDbEntity
  8
DEFPOINTS
 62
     0
 48
50.0
100
AcDbPoint
 10
5523.577274103858
 20
1233.843821726534
 30
0.0
  0
ENDBLK
  5
24AFA
330
24AEF
100
AcDbEntity
  8
0
 48
50.0
100
AcDbBlockEnd
  0
BLOCK
  5
24B05
330
24AFB
100
AcDbEntity
  8
0
 48
50.0
100
AcDbBlockBegin
  2
*D50
 70
     1
 10
0.0
 20
0.0
 30
0.0
  3
*D50
  1

  0
LINE
  5
24B3C
330
24AFB
100
AcDbEntity
  8
寸法
 62
     0
 48
50.0
370
    -2
100
AcDbLine
 10
6130.614512665598
 20
1085.843821726534
 30
0.0
 11
6130.614512665598
 21
635.4141837213742
 31
0.0
  0
LINE
  5
24B3D
330
24AFB
100
AcDbEntity
  8
寸法
 62
     0
 48
50.0
370
    -2
100
AcDbLine
 10
6578.614512665598
 20
1085.843821726534
 30
0.0
 11
6578.614512665598
 21
635.4141837213742
 31
0.0
  0
LINE
  5
24B3E
330
24AFB
100
AcDbEntity
  8
寸法
 62
     0
 48
50.0
370
    -2
100
AcDbLine
 10
6130.614512665598
 20
695.4141837213742
 30
0.0
 11
6578.614512665598
 21
695.4141837213742
 31
0.0
  0
MTEXT
  5
24B3F
330
24AFB
100
AcDbEntity
  8
寸法
 62
     7
 48
50.0
100
AcDbMText
 10
6334.517753987375
 20
795.4141837213742
 30
0.0
 40
120.0
 41
0.0
 71
     5
 72
     1
  1
\A1;300
  7
STYLE1
 73
     1
 44
1.0
1001
ACAD
1000
MTEXTBEGIN
1070
    73
1070
     1
1070
    44
1040
1.0
1070
    74
1070
     0
1000
MTEXTEND
  0
INSERT
  5
24B40
330
24AFB
100
AcDbEntity
  8
寸法
 62
     0
 48
50.0
370
    -2
100
AcDbBlockReference
  2
_DOTSMALL
 10
6130.614512665598
 20
695.4141837213742
 30
0.0
 41
100.0
 42
100.0
 43
100.0
 50
180.0
  0
INSERT
  5
24B41
330
24AFB
100
AcDbEntity
  8
寸法
 62
     0
 48
50.0
370
    -2
100
AcDbBlockReference
  2
_DOTSMALL
 10
6578.614512665598
 20
695.4141837213742
 30
0.0
 41
100.0
 42
100.0
 43
100.0
  0
POINT
  5
24B42
330
24AFB
100
AcDbEntity
  8
DEFPOINTS
 62
     0
 48
50.0
100
AcDbPoint
 10
6130.614512665598
 20
1105.843821726534
 30
0.0
  0
POINT
  5
24B43
330
24AFB
100
AcDbEntity
  8
DEFPOINTS
 62
     0
 48
50.0
100
AcDbPoint
 10
6578.614512665598
 20
1105.843821726534
 30
0.0
  0
POINT
  5
24B44
330
24AFB
100
AcDbEntity
  8
DEFPOINTS
 62
     0
 48
50.0
100
AcDbPoint
 10
6578.614512665598
 20
695.4141837213742
 30
0.0
  0
ENDBLK
  5
24B06
330
24AFB
100
AcDbEntity
  8
0
 48
50.0
100
AcDbBlockEnd
  0
BLOCK
  5
24B11
330
24B07
100
AcDbEntity
  8
0
 48
50.0
100
AcDbBlockBegin
  2
*D51
 70
     1
 10
0.0
 20
0.0
 30
0.0
  3
*D51
  1

  0
LINE
  5
24B45
330
24B07
100
AcDbEntity
  8
寸法
 62
     0
 48
50.0
370
    -2
100
AcDbLine
 10
6450.614512665598
 20
2037.843821726534
 30
0.0
 11
6450.614512665598
 21
2397.843821726534
 31
0.0
  0
LINE
  5
24B46
330
24B07
100
AcDbEntity
  8
寸法
 62
     0
 48
50.0
370
    -2
100
AcDbLine
 10
6258.614512665598
 20
2037.843821726534
 30
0.0
 11
6258.614512665598
 21
2397.843821726534
 31
0.0
  0
LINE
  5
24B47
330
24B07
100
AcDbEntity
  8
寸法
 62
     0
 48
50.0
370
    -2
100
AcDbLine
 10
6450.614512665598
 20
2337.843821726535
 30
0.0
 11
6258.614512665598
 21
2337.843821726535
 31
0.0
  0
MTEXT
  5
24B48
330
24B07
100
AcDbEntity
  8
寸法
 62
     7
 48
50.0
100
AcDbMText
 10
6365.840843010796
 20
2737.547062713781
 30
0.0
 40
120.0
 41
0.0
 71
     5
 72
     1
  1
\A1;120\P200\P280
  7
STYLE1
 73
     1
 44
1.0
1001
ACAD
1000
MTEXTBEGIN
1070
    73
1070
     1
1070
    44
1040
1.0
1070
    74
1070
     0
1000
MTEXTEND
  0
INSERT
  5
24B49
330
24B07
100
AcDbEntity
  8
寸法
 62
     0
 48
50.0
370
    -2
100
AcDbBlockReference
  2
_DOTSMALL
 10
6450.614512665598
 20
2337.843821726535
 30
0.0
 41
100.0
 42
100.0
 43
100.0
  0
INSERT
  5
24B4A
330
24B07
100
AcDbEntity
  8
寸法
 62
     0
 48
50.0
370
    -2
100
AcDbBlockReference
  2
_DOTSMALL
 10
6258.614512665598
 20
2337.843821726535
 30
0.0
 41
100.0
 42
100.0
 43
100.0
 50
180.0
  0
POINT
  5
24B4B
330
24B07
100
AcDbEntity
  8
DEFPOINTS
 62
     0
 48
50.0
100
AcDbPoint
 10
6450.614512665598
 20
2017.843821726534
 30
0.0
  0
POINT
  5
24B4C
330
24B07
100
AcDbEntity
  8
DEFPOINTS
 62
     0
 48
50.0
100
AcDbPoint
 10
6258.614512665598
 20
2017.843821726534
 30
0.0
  0
POINT
  5
24B4D
330
24B07
100
AcDbEntity
  8
DEFPOINTS
 62
     0
 48
50.0
100
AcDbPoint
 10
6258.614512665598
 20
2337.843821726535
 30
0.0
  0
ENDBLK
  5
24B12
330
24B07
100
AcDbEntity
  8
0
 48
50.0
100
AcDbBlockEnd
  0
BLOCK
  5
24B71
330
24B65
100
AcDbEntity
  8
0
 48
50.0
100
AcDbBlockBegin
  2
*D52
 70
     1
 10
0.0
 20
0.0
 30
0.0
  3
*D52
  1

  0
LINE
  5
24B7D
330
24B65
100
AcDbEntity
  8
寸法
 62
     0
 48
50.0
370
    -2
100
AcDbLine
 10
11168.6
 20
7743.259682027195
 30
0.0
 11
11168.6
 21
7655.964963536368
 31
0.0
  0
LINE
  5
24B7E
330
24B65
100
AcDbEntity
  8
寸法
 62
     0
 48
50.0
370
    -2
100
AcDbLine
 10
11288.6
 20
7751.142124867605
 30
0.0
 11
11288.6
 21
7655.964963536368
 31
0.0
  0
LINE
  5
24B7F
330
24B65
100
AcDbEntity
  8
寸法
 62
     0
 48
50.0
370
    -2
100
AcDbLine
 10
11168.6
 20
7715.964963536368
 30
0.0
 11
11288.6
 21
7715.964963536368
 31
0.0
  0
LINE
  5
24B80
330
24B65
100
AcDbEntity
  8
寸法
 62
     0
 48
50.0
370
    -2
100
AcDbLine
 10
11288.6
 20
7715.964963536368
 30
0.0
 11
11660.69448818898
 21
7715.964963536368
 31
0.0
  0
INSERT
  5
24B81
330
24B65
100
AcDbEntity
  8
寸法
 62
     0
 48
50.0
370
    -2
100
AcDbBlockReference
  2
_DOTSMALL
 10
11168.6
 20
7715.964963536368
 30
0.0
 41
100.0
 42
100.0
 43
100.0
 50
180.0
  0
INSERT
  5
24B82
330
24B65
100
AcDbEntity
  8
寸法
 62
     0
 48
50.0
370
    -2
100
AcDbBlockReference
  2
_DOTSMALL
 10
11288.6
 20
7715.964963536368
 30
0.0
 41
100.0
 42
100.0
 43
100.0
  0
MTEXT
  5
24B83
330
24B65
100
AcDbEntity
  8
寸法
 62
     7
 48
50.0
100
AcDbMText
 10
11524.64724409449
 20
7815.976774559989
 30
0.0
 40
120.0
 41
0.0
 71
     5
 72
     1
  1
\A1;120
  7
STYLE1
 73
     1
 44
1.0
1001
ACAD
1000
MTEXTBEGIN
1070
    73
1070
     1
1070
    44
1040
1.0
1070
    74
1070
     0
1000
MTEXTEND
  0
POINT
  5
24B84
330
24B65
100
AcDbEntity
  8
DEFPOINTS
 62
     0
 48
50.0
100
AcDbPoint
 10
11168.6
 20
7763.259682027196
 30
0.0
  0
POINT
  5
24B85
330
24B65
100
AcDbEntity
  8
DEFPOINTS
 62
     0
 48
50.0
100
AcDbPoint
 10
11288.6
 20
7771.142124867605
 30
0.0
  0
POINT
  5
24B86
330
24B65
100
AcDbEntity
  8
DEFPOINTS
 62
     0
 48
50.0
100
AcDbPoint
 10
11288.6
 20
7715.964963536368
 30
0.0
  0
ENDBLK
  5
24B72
330
24B65
100
AcDbEntity
  8
0
 48
50.0
100
AcDbBlockEnd
  0
ENDSEC
  0
SECTION
  2
ENTITIES
  0
MTEXT
  5
763F
330
747D
100
AcDbEntity
  8
0
100
AcDbMText
 10
302.846345836809
 20
280.1983726409901
 30
0.0
 40
3.5
 41
5.323721266742722
 71
     1
 72
     5
  1

  7
MSMINCHO
 73
     1
 44
1.0
1001
ACAD
1000
MTEXTBEGIN
1070
    73
1070
     1
1070
    44
1040
1.0
1070
    74
1070
     0
1000
MTEXTEND
  0
LINE
  5
10B57
330
747D
100
AcDbEntity
  8
補助
  6
PHANTOM
 62
   230
 48
50.0
100
AcDbLine
 10
139.9999999999995
 20
11409.6
 30
0.0
 11
16307.2
 21
11409.6
 31
0.0
  0
LINE
  5
10B59
330
747D
100
AcDbEntity
  8
仕様書枠
  6
Continuous
 48
50.0
100
AcDbLine
 10
13107.2
 20
1200.0
 30
0.0
 11
13107.2
 21
-0.0000000000000729
 31
0.0
  0
LINE
  5
10B5D
330
747D
100
AcDbEntity
  8
仕様書枠
 48
50.0
100
AcDbLine
 10
140.0
 20
0.0
 30
0.0
 11
16307.2
 21
-0.0000000000000909
 31
0.0
  0
LINE
  5
10B5E
330
747D
100
AcDbEntity
  8
補助
  6
PHANTOM
 62
   230
 48
50.0
100
AcDbLine
 10
16307.2
 20
11409.6
 30
0.0
 11
16307.2
 21
1200.0
 31
0.0
  0
LINE
  5
10B6C
330
747D
100
AcDbEntity
  8
仕様書枠
 48
50.0
100
AcDbLine
 10
13107.2
 20
1200.0
 30
0.0
 11
16307.2
 21
1200.0
 31
0.0
  0
TEXT
  5
10B73
330
747D
100
AcDbEntity
  8
文字
 62
     7
 48
50.0
100
AcDbText
 10
13162.9790565769
 20
895.0906074299405
 30
0.0
 40
200.0
  1
基 礎 図
  7
STYLE2
100
AcDbText
  0
LINE
  5
10B7B
330
747D
100
AcDbEntity
  8
仕様書枠
 48
50.0
100
AcDbLine
 10
13107.2
 20
800.0
 30
0.0
 11
14251.2
 21
800.0
 31
0.0
  0
LINE
  5
10B88
330
747D
100
AcDbEntity
  8
仕様書枠
  6
Continuous
 48
50.0
100
AcDbLine
 10
14251.2
 20
1200.0
 30
0.0
 11
14251.2
 21
800.0
 31
0.0
  0
LINE
  5
16462
330
747D
100
AcDbEntity
  8
仕様書枠
 48
50.0
100
AcDbLine
 10
16307.2
 20
1200.0
 30
0.0
 11
16307.2
 21
-0.0000000000000909
 31
0.0
  0
LINE
  5
1903B
330
747D
100
AcDbEntity
  8
補助
  6
PHANTOM
 62
   230
 48
50.0
100
AcDbLine
 10
140.0
 20
0.0
 30
0.0
 11
139.9999999999995
 21
11409.6
 31
0.0
  0
TEXT
  5
1C7A1
330
747D
100
AcDbEntity
  8
文字
 62
     7
 48
50.0
100
AcDbText
 10
13188.16259899338
 20
79.80631269190417
 30
0.0
 40
80.0
  1
※布基礎には換気口を設けてください。
  7
STYLE2
100
AcDbText
  0
TEXT
  5
1C7E7
330
747D
100
AcDbEntity
  8
文字
 62
     7
 48
50.0
100
AcDbText
 10
13188.16259899338
 20
246.7109242801889
 30
0.0
 40
80.0
  1
※寒冷地等は地域の実情に合わせた基礎にして下さい。
  7
STYLE2
100
AcDbText
  0
TEXT
  5
1C7E8
330
747D
100
AcDbEntity
  8
文字
 62
     7
 48
50.0
100
AcDbText
 10
14478.98566430227
 20
499.5983841039506
 30
0.0
 40
160.0
  1
ＮＸＮ－４１ＣＳＬ
  7
STYLE2
100
AcDbText
  0
TEXT
  5
1C7E9
330
747D
100
AcDbEntity
  8
文字
 62
     7
 48
50.0
100
AcDbText
 10
14641.2525855784
 20
871.1744590657927
 30
0.0
 40
100.0
  1
～一般型・多雪地型～
  7
STYLE2
100
AcDbText
  0
TEXT
  5
1C7EC
330
747D
100
AcDbEntity
  8
文字
 62
     7
 48
50.0
100
AcDbText
 10
14524.131837222
 20
1031.557706291229
 30
0.0
 40
100.0
  1
      <縮尺> S=1/40
  7
STYLE2
100
AcDbText
  0
TEXT
  5
1C7ED
330
747D
100
AcDbEntity
  8
文字
 62
     7
 48
50.0
100
AcDbText
 10
13201.43669998441
 20
477.2740661031257
 30
0.0
 40
160.0
  1
機種名
  7
STYLE2
100
AcDbText
  0
LINE
  5
1C7EF
330
747D
100
AcDbEntity
  8
文字
 62
     7
 48
50.0
100
AcDbLine
 10
13187.2
 20
400.0
 30
0.0
 11
16227.2
 21
400.0
 31
0.0
  0
DIMENSION
  5
1FA1F
330
747D
100
AcDbEntity
  8
寸法
 48
50.0
100
AcDbDimension
  2
*D19
 10
8105.6
 20
8970.591651756882
 30
0.0
 11
8870.600000000001
 21
9070.591651756881
 31
0.0
 70
    32
 71
     5
 42
1530.0
  3
INABA_S40G
100
AcDbAlignedDimension
 13
9635.600000000001
 23
8214.982835086635
 33
0.0
 14
8105.6
 24
8214.982835086635
 34
0.0
100
AcDbRotatedDimension
1001
ACAD
1000
DSTYLE
1002
{
1070
   341
1005
0
1002
}
  0
LINE
  5
1FA20
330
747D
100
AcDbEntity
  8
部品1
 48
50.0
100
AcDbLine
 10
11168.6
 20
8087.982835086636
 30
0.0
 11
5278.6
 21
8087.98283508649
 31
0.0
  0
DIMENSION
  5
1FA21
330
747D
100
AcDbEntity
  8
寸法
 48
50.0
100
AcDbDimension
  2
*D20
 10
11288.6
 20
9446.203157145555
 30
0.0
 11
8223.600000000001
 21
9552.203157145555
 31
0.0
 70
    32
  1
N(連続数)x1530+10
 71
     5
 42
6130.0
  3
INABA_S40G
100
AcDbAlignedDimension
 13
5158.6
 23
8287.982835086634
 33
0.0
 14
11288.6
 24
8287.982835086634
 34
0.0
100
AcDbRotatedDimension
1001
ACAD
1000
DSTYLE
1002
{
1070
   341
1005
0
1002
}
  0
LINE
  5
1FA22
330
747D
100
AcDbEntity
  8
部品1
 48
50.0
100
AcDbLine
 10
11288.6
 20
8287.982835086634
 30
0.0
 11
5158.6
 21
8287.982835086632
 31
0.0
  0
LINE
  5
1FA23
330
747D
100
AcDbEntity
  8
部品1
 48
50.0
100
AcDbLine
 10
11168.6
 20
5927.982835086652
 30
0.0
 11
5278.6
 21
5927.982835086638
 31
0.0
  0
LINE
  5
1FA25
330
747D
100
AcDbEntity
  8
部品1
 48
50.0
100
AcDbLine
 10
11288.6
 20
5647.982835086652
 30
0.0
 11
5158.6
 21
5647.982835086635
 31
0.0
  0
DIMENSION
  5
1FA26
330
747D
100
AcDbEntity
  8
寸法
 48
50.0
100
AcDbDimension
  2
*D21
 10
8223.600000000008
 20
9214.249293180543
 30
0.0
 11
8988.600000000008
 21
9314.249293180543
 31
0.0
 70
    32
 71
     5
 42
1530.0
  3
INABA_S40G
100
AcDbAlignedDimension
 13
9753.600000000007
 23
8970.591651756882
 33
0.0
 14
8223.600000000008
 24
8970.591651756882
 34
0.0
100
AcDbRotatedDimension
1001
ACAD
1000
DSTYLE
1002
{
1070
   341
1005
0
1002
}
  0
DIMENSION
  5
1FA2F
330
747D
100
AcDbEntity
  8
寸法
 48
50.0
100
AcDbDimension
  2
*D22
 10
4274.08735343128
 20
5647.982835086635
 30
0.0
 11
4274.087353431279
 21
5312.451886244042
 31
0.0
 70
   160
 71
     5
 42
198.0000000000018
  3
INABA_S40G
100
AcDbAlignedDimension
 13
5231.600000000008
 23
5845.982835086637
 33
0.0
 14
5158.6
 24
5647.982835086635
 34
0.0
 50
90.0
100
AcDbRotatedDimension
1001
ACAD
1000
DSTYLE
1002
{
1070
   341
1005
0
1002
}
  0
DIMENSION
  5
1FB0C
330
747D
100
AcDbEntity
  8
寸法
 48
50.0
100
AcDbDimension
  2
*D23
 10
4022.144256711885
 20
5647.982835086635
 30
0.0
 11
4022.144256711885
 21
6967.982835086636
 31
0.0
 70
   160
 71
     5
 42
2640.0
  3
INABA_S40G
100
AcDbAlignedDimension
 13
5158.6
 23
8287.982835086634
 33
0.0
 14
5158.6
 24
5647.982835086635
 34
0.0
 50
90.0
100
AcDbRotatedDimension
1001
ACAD
1000
DSTYLE
1002
{
1070
   341
1005
0
1002
}
  0
DIMENSION
  5
1FB0E
330
747D
100
AcDbEntity
  8
寸法
 48
50.0
100
AcDbDimension
  2
*D24
 10
4274.08735343128
 20
8164.982835086634
 30
0.0
 11
4274.087353431279
 21
8561.089436804435
 31
0.0
 70
   160
 71
     5
 42
123.0
  3
INABA_S40G
100
AcDbAlignedDimension
 13
5158.6
 23
8287.982835086634
 33
0.0
 14
5231.6
 24
8164.982835086634
 34
0.0
 50
90.0
100
AcDbRotatedDimension
1001
ACAD
1000
DSTYLE
1002
{
1070
   341
1005
0
1002
}
  0
DIMENSION
  5
1FB0F
330
747D
100
AcDbEntity
  8
寸法
 48
50.0
100
AcDbDimension
  2
*D25
 10
5158.6
 20
8970.591651756882
 30
0.0
 11
4885.493398282203
 21
8970.591651756882
 31
0.0
 70
   160
 71
     5
 42
123.0
  3
INABA_S40G
100
AcDbAlignedDimension
 13
5281.6
 23
8214.982835086635
 33
0.0
 14
5158.6
 24
8287.982835086634
 34
0.0
100
AcDbRotatedDimension
1001
ACAD
1000
DSTYLE
1002
{
1070
   341
1005
0
1002
}
  0
DIMENSION
  5
1FB10
330
747D
100
AcDbEntity
  8
寸法
 48
50.0
100
AcDbDimension
  2
*D26
 10
4274.087353431286
 20
5845.982835086637
 30
0.0
 11
4274.087353431285
 21
7005.482835086636
 31
0.0
 70
   160
 71
     5
 42
2318.999999999999
  3
INABA_S40G
100
AcDbAlignedDimension
 13
5231.6
 23
8164.982835086634
 33
0.0
 14
5231.600000000008
 24
5845.982835086637
 34
0.0
 50
90.0
100
AcDbRotatedDimension
1001
ACAD
1000
DSTYLE
1002
{
1070
   341
1005
0
1002
}
  0
DIMENSION
  5
1FB11
330
747D
100
AcDbEntity
  8
寸法
 48
50.0
100
AcDbDimension
  2
*D27
 10
5158.6
 20
9214.249293180543
 30
0.0
 11
5926.100000000004
 21
9314.249293180543
 31
0.0
 70
    32
 71
     5
 42
1535.000000000007
  3
INABA_S40G
100
AcDbAlignedDimension
 13
6693.600000000007
 23
8970.591651756882
 33
0.0
 14
5158.6
 24
8287.982835086634
 34
0.0
100
AcDbRotatedDimension
1001
ACAD
1000
DSTYLE
1002
{
1070
   341
1005
0
1002
}
  0
LINE
  5
1FB14
330
747D
100
AcDbEntity
  8
寸法
 48
50.0
100
AcDbLine
 10
6575.6
 20
8970.591651756882
 30
0.0
 11
7215.151108115731
 21
8970.591651756882
 31
0.0
  0
LINE
  5
1FB23
102
{ACAD_REACTORS
330
2412F
102
}
330
747D
100
AcDbEntity
  8
部品1
 48
50.0
100
AcDbLine
 10
5158.6
 20
5647.982835086635
 30
0.0
 11
5158.6
 21
8287.982835086634
 31
0.0
  0
DIMENSION
  5
1FB37
330
747D
100
AcDbEntity
  8
寸法
 48
50.0
100
AcDbDimension
  2
*D28
 10
5281.6
 20
8970.591651756882
 30
0.0
 11
5928.6
 21
9070.603462780502
 31
0.0
 70
    32
 71
     5
 42
1294.0
  3
INABA_S40G
100
AcDbAlignedDimension
 13
6575.6
 23
8214.982835086635
 33
0.0
 14
5281.6
 24
8214.982835086635
 34
0.0
100
AcDbRotatedDimension
1001
ACAD
1000
DSTYLE
1002
{
1070
   341
1005
0
1002
}
  0
LINE
  5
1FB5A
330
747D
100
AcDbEntity
  8
センター
 48
2.0
100
AcDbLine
 10
8055.600000000008
 20
5845.982835086637
 30
0.0
 11
8155.600000000008
 21
5845.982835086637
 31
0.0
  0
CIRCLE
  5
1FB5B
330
747D
100
AcDbEntity
  8
部品1
 48
50.0
100
AcDbCircle
 10
8105.600000000007
 20
5845.982835086637
 30
0.0
 40
35.0
  0
LINE
  5
1FB5C
330
747D
100
AcDbEntity
  8
センター
 48
2.0
100
AcDbLine
 10
8105.600000000007
 20
5895.982835086637
 30
0.0
 11
8105.600000000007
 21
5795.982835086636
 31
0.0
  0
LINE
  5
1FB67
330
747D
100
AcDbEntity
  8
寸法
 48
50.0
100
AcDbLine
 10
8105.6
 20
8970.591651756882
 30
0.0
 11
7561.100075043579
 21
8970.591651756882
 31
0.0
  0
LINE
  5
1FB6C
330
747D
100
AcDbEntity
  8
寸法
 48
50.0
100
AcDbLine
 10
6693.600000000007
 20
9214.249293180543
 30
0.0
 11
7333.151108115739
 21
9214.249293180543
 31
0.0
  0
CIRCLE
  5
1FB6D
330
747D
100
AcDbEntity
  8
部品1
 48
50.0
100
AcDbCircle
 10
8105.6
 20
8164.982835086634
 30
0.0
 40
35.0
  0
LINE
  5
1FB6E
330
747D
100
AcDbEntity
  8
センター
 48
2.0
100
AcDbLine
 10
8105.6
 20
8214.982835086635
 30
0.0
 11
8105.6
 21
8114.982835086633
 31
0.0
  0
LINE
  5
1FB6F
330
747D
100
AcDbEntity
  8
センター
 48
2.0
100
AcDbLine
 10
8055.600000000001
 20
8164.982835086634
 30
0.0
 11
8155.600000000001
 21
8164.982835086634
 31
0.0
  0
LINE
  5
1FB71
330
747D
100
AcDbEntity
  8
寸法
 48
50.0
100
AcDbLine
 10
8223.600000000008
 20
9214.249293180543
 30
0.0
 11
7679.100075043587
 21
9214.249293180543
 31
0.0
  0
DIMENSION
  5
1FB76
330
747D
100
AcDbEntity
  8
寸法
 48
50.0
100
AcDbDimension
  2
*D29
 10
9355.649102633087
 20
5647.982835086649
 30
0.0
 11
9355.649102633085
 21
5361.019252409483
 31
0.0
 70
   160
 71
     5
 42
280.0000000000018
  3
INABA_S40G
100
AcDbAlignedDimension
 13
9250.851516111312
 23
5927.982835086651
 33
0.0
 14
9250.851516111312
 24
5647.982835086649
 34
0.0
 50
90.0
100
AcDbRotatedDimension
1001
ACAD
1000
DSTYLE
1002
{
1070
   341
1005
0
1002
}
  0
DIMENSION
  5
1FC2E
330
747D
100
AcDbEntity
  8
寸法
 48
50.0
100
AcDbDimension
  2
*D30
 10
9753.600000000007
 20
9214.249293180543
 30
0.0
 11
10506.02212135149
 21
9214.249293180543
 31
0.0
 70
   160
 71
     5
 42
1534.999999999993
  3
INABA_S40G
100
AcDbAlignedDimension
 13
11288.6
 23
8287.982835086634
 33
0.0
 14
9753.600000000007
 24
8970.591651756882
 34
0.0
100
AcDbRotatedDimension
1001
ACAD
1000
DSTYLE
1002
{
1070
   341
1005
0
1002
}
  0
DIMENSION
  5
1FC2F
330
747D
100
AcDbEntity
  8
寸法
 48
50.0
100
AcDbDimension
  2
*D31
 10
9635.600000000001
 20
8970.591651756882
 30
0.0
 11
10400.6
 21
9070.591651756881
 31
0.0
 70
    32
 71
     5
 42
1530.0
  3
INABA_S40G
100
AcDbAlignedDimension
 13
11165.6
 23
8214.982835086635
 33
0.0
 14
9635.600000000001
 24
8214.982835086635
 34
0.0
100
AcDbRotatedDimension
1001
ACAD
1000
DSTYLE
1002
{
1070
   341
1005
0
1002
}
  0
CIRCLE
  5
1FC41
330
747D
100
AcDbEntity
  8
部品1
 48
50.0
100
AcDbCircle
 10
9635.600000000009
 20
5845.982835086637
 30
0.0
 40
35.0
  0
LINE
  5
1FC42
330
747D
100
AcDbEntity
  8
センター
 48
2.0
100
AcDbLine
 10
9585.600000000008
 20
5845.982835086637
 30
0.0
 11
9685.600000000007
 21
5845.982835086637
 31
0.0
  0
LINE
  5
1FC43
330
747D
100
AcDbEntity
  8
センター
 48
2.0
100
AcDbLine
 10
9635.600000000009
 20
5895.982835086637
 30
0.0
 11
9635.600000000009
 21
5795.982835086636
 31
0.0
  0
DIMENSION
  5
1FC4A
330
747D
100
AcDbEntity
  8
寸法
 48
50.0
100
AcDbDimension
  2
*D32
 10
9355.649102633091
 20
8087.982835086593
 30
0.0
 11
9355.649102633087
 21
8574.946417763801
 31
0.0
 70
   160
 71
     5
 42
200.0000000000409
  3
INABA_S40G
100
AcDbAlignedDimension
 13
9463.779728401338
 23
8287.982835086634
 33
0.0
 14
9505.600000000008
 24
8087.982835086593
 34
0.0
 50
90.0
100
AcDbRotatedDimension
1001
ACAD
1000
DSTYLE
1002
{
1070
   341
1005
0
1002
}
  0
LINE
  5
1FC56
330
747D
100
AcDbEntity
  8
センター
 48
2.0
100
AcDbLine
 10
9635.600000000001
 20
8214.982835086635
 30
0.0
 11
9635.600000000001
 21
8114.982835086633
 31
0.0
  0
CIRCLE
  5
1FC57
330
747D
100
AcDbEntity
  8
部品1
 48
50.0
100
AcDbCircle
 10
9635.600000000001
 20
8164.982835086634
 30
0.0
 40
35.0
  0
LINE
  5
1FC58
330
747D
100
AcDbEntity
  8
センター
 48
2.0
100
AcDbLine
 10
9585.600000000001
 20
8164.982835086634
 30
0.0
 11
9685.6
 21
8164.982835086634
 31
0.0
  0
LINE
  5
1FC5B
102
{ACAD_REACTORS
330
2414A
102
}
330
747D
100
AcDbEntity
  8
部品1
 48
50.0
100
AcDbLine
 10
11288.6
 20
5647.982835086652
 30
0.0
 11
11288.6
 21
8287.982835086634
 31
0.0
  0
LINE
  5
1FC5C
102
{ACAD_REACTORS
330
2414A
102
}
330
747D
100
AcDbEntity
  8
部品1
 48
50.0
100
AcDbLine
 10
11288.6
 20
7067.982835086635
 30
0.0
 11
11168.6
 21
7067.982835086635
 31
0.0
  0
LINE
  5
1FC5D
102
{ACAD_REACTORS
330
2414A
102
}
330
747D
100
AcDbEntity
  8
部品1
 48
50.0
100
AcDbLine
 10
11288.6
 20
6867.982835086634
 30
0.0
 11
11168.6
 21
6867.982835086634
 31
0.0
  0
LINE
  5
1FC6C
330
747D
100
AcDbEntity
  8
センター
 48
2.0
100
AcDbLine
 10
11115.6
 20
5845.982835086637
 30
0.0
 11
11215.60000000001
 21
5845.982835086637
 31
0.0
  0
CIRCLE
  5
1FC6D
330
747D
100
AcDbEntity
  8
部品1
 48
50.0
100
AcDbCircle
 10
11165.60000000001
 20
5845.982835086637
 30
0.0
 40
35.0
  0
LINE
  5
1FC6E
330
747D
100
AcDbEntity
  8
センター
 48
2.0
100
AcDbLine
 10
11165.60000000001
 20
5895.982835086637
 30
0.0
 11
11165.60000000001
 21
5795.982835086636
 31
0.0
  0
DIMENSION
  5
1FC6F
330
747D
100
AcDbEntity
  8
寸法
 48
50.0
100
AcDbDimension
  2
*D33
 10
11165.6
 20
8970.591651756882
 30
0.0
 11
11561.7066017178
 21
8970.591651756882
 31
0.0
 70
   160
 71
     5
 42
123.0
  3
INABA_S40G
100
AcDbAlignedDimension
 13
11288.6
 23
8287.982835086634
 33
0.0
 14
11165.6
 24
8214.982835086635
 34
0.0
100
AcDbRotatedDimension
1001
ACAD
1000
DSTYLE
1002
{
1070
   341
1005
0
1002
}
  0
LINE
  5
1FC7B
330
747D
100
AcDbEntity
  8
センター
 48
2.0
100
AcDbLine
 10
11165.6
 20
8214.982835086635
 30
0.0
 11
11165.6
 21
8114.982835086633
 31
0.0
  0
CIRCLE
  5
1FC7C
330
747D
100
AcDbEntity
  8
部品1
 48
50.0
100
AcDbCircle
 10
11165.6
 20
8164.982835086634
 30
0.0
 40
35.0
  0
LINE
  5
1FC7D
330
747D
100
AcDbEntity
  8
センター
 48
2.0
100
AcDbLine
 10
11115.6
 20
8164.982835086634
 30
0.0
 11
11215.6
 21
8164.982835086634
 31
0.0
  0
LEADER
  5
202BB
330
747D
100
AcDbEntity
  8
寸法
 48
50.0
100
AcDbLeader
  3
INABA_S50G
 73
     0
 74
     0
 75
     1
 40
120.0
 41
994.3492424049171
 76
     3
 10
11165.68008575699
 20
8164.996558282849
 30
0.0
 10
11359.64450095955
 20
8694.243188397955
 30
0.0
 10
11484.64450095955
 20
8694.243188397955
 30
0.0
340
202BC
1001
ACAD
1000
DSTYLE
1002
{
1070
   341
1005
0
1070
    40
1040
1.0
1070
   343
1005
0
1070
   344
1005
0
1002
}
  0
MTEXT
  5
202BC
102
{ACAD_REACTORS
330
202BB
102
}
330
747D
100
AcDbEntity
  8
部品1
 62
     7
 48
50.0
100
AcDbMText
 10
12503.99374336447
 20
8779.243188397956
 30
0.0
 40
120.0
 41
0.0
 71
     6
 72
     1
  1
アンカーボルト
  7
STYLE1
 73
     1
 44
1.0
1001
ACAD
1000
MTEXTBEGIN
1070
    73
1070
     1
1070
    44
1040
1.0
1070
    74
1070
     0
1000
MTEXTEND
  0
LINE
  5
202BD
330
747D
100
AcDbEntity
  8
想像線
 48
10.0
100
AcDbLine
 10
11333.6
 20
8362.982835086633
 30
0.0
 11
7356.058182852265
 21
8362.982835086638
 31
0.0
  0
LINE
  5
202BE
330
747D
100
AcDbEntity
  8
想像線
 48
10.0
100
AcDbLine
 10
11333.6
 20
5592.982835086656
 30
0.0
 11
5113.600000000001
 21
5592.982835086647
 31
0.0
  0
LINE
  5
202BF
330
747D
100
AcDbEntity
  8
想像線
 48
10.0
100
AcDbLine
 10
5113.6
 20
5592.982835086646
 30
0.0
 11
5113.600000000002
 21
8362.982835086638
 31
0.0
  0
LINE
  5
202C0
330
747D
100
AcDbEntity
  8
想像線
 48
10.0
100
AcDbLine
 10
11333.6
 20
5592.982835086656
 30
0.0
 11
11333.6
 21
8362.982835086633
 31
0.0
  0
DIMENSION
  5
202C8
330
747D
100
AcDbEntity
  8
寸法
 48
50.0
100
AcDbDimension
  2
*D34
 10
11333.6
 20
9446.203157145555
 30
0.0
 11
11604.77462120246
 21
9446.203157145555
 31
0.0
 70
   160
  1
a
 71
     5
 42
45.0
  3
INABA_S40G
100
AcDbAlignedDimension
 13
11288.6
 23
8287.982835086634
 33
0.0
 14
11333.6
 24
8970.591651756882
 34
0.0
100
AcDbRotatedDimension
1001
ACAD
1000
DSTYLE
1002
{
1070
   341
1005
0
1002
}
  0
TEXT
  5
202EB
330
747D
100
AcDbEntity
  8
寸法
 48
50.0
100
AcDbText
 10
8418.310648592354
 20
5679.643022445546
 30
0.0
 40
96.0
  1
扉面
  7
STYLE1
100
AcDbText
  0
LEADER
  5
202FA
330
747D
100
AcDbEntity
  8
寸法
 48
50.0
100
AcDbLeader
  3
INABA_S50G
 73
     0
 74
     0
 75
     1
 40
120.0
 41
672.0
 76
     3
 10
10523.59417057771
 20
5591.182146372693
 30
0.0
 10
10639.53418276975
 20
5332.292802909117
 30
0.0
 10
10764.53418276975
 20
5332.292802909117
 30
0.0
340
202FB
1001
ACAD
1000
DSTYLE
1002
{
1070
   341
1005
0
1070
    40
1040
1.0
1070
   343
1005
0
1070
   344
1005
0
1002
}
  0
MTEXT
  5
202FB
102
{ACAD_REACTORS
330
202FA
102
}
330
747D
100
AcDbEntity
  8
部品1
 62
     7
 48
50.0
100
AcDbMText
 10
11461.53418276975
 20
5417.292802909117
 30
0.0
 40
120.0
 41
0.0
 71
     6
 72
     1
  1
\A1;屋根の外寸
  7
STYLE1
 73
     1
 44
1.0
1001
ACAD
1000
MTEXTBEGIN
1070
    73
1070
     1
1070
    44
1040
1.0
1070
    74
1070
     0
1000
MTEXTEND
  0
TEXT
  5
202FC
330
747D
100
AcDbEntity
  8
部品1
 48
50.0
100
AcDbText
 10
10663.74698678115
 20
5237.982115976042
 30
0.0
 40
80.0
  1
※a,b,cは屋根の出幅です。
  7
STYLE1
100
AcDbText
  0
TEXT
  5
202FD
330
747D
100
AcDbEntity
  8
部品1
 48
50.0
100
AcDbText
 10
10822.32599553545
 20
5131.136895107289
 30
0.0
 40
80.0
  1
(a=45,b=55,c=75)
  7
STYLE1
100
AcDbText
  0
MTEXT
  5
202FE
102
{ACAD_REACTORS
330
202FF
102
}
330
747D
100
AcDbEntity
  8
部品1
 62
     7
 48
50.0
100
AcDbMText
 10
12315.46907400127
 20
6786.95753739194
 30
0.0
 40
120.0
 41
0.0
 71
     6
 72
     1
  1
\A1;床下換気口
  7
STYLE1
 73
     1
 44
1.0
1001
ACAD
1000
MTEXTBEGIN
1070
    73
1070
     1
1070
    44
1040
1.0
1070
    74
1070
     0
1000
MTEXTEND
  0
LEADER
  5
202FF
330
747D
100
AcDbEntity
  8
寸法
 48
50.0
100
AcDbLeader
  3
INABA_S50G
 73
     0
 74
     0
 75
     1
 40
120.0
 41
720.0000000000001
 76
     3
 10
11288.69549961499
 20
6962.971450959773
 30
0.0
 10
11445.46907400127
 20
6701.95753739194
 30
0.0
 10
11570.46907400127
 20
6701.95753739194
 30
0.0
340
202FE
1001
ACAD
1000
DSTYLE
1002
{
1070
   341
1005
0
1070
    40
1040
1.0
1070
   343
1005
0
1070
   344
1005
0
1002
}
  0
DIMENSION
  5
2030F
330
747D
100
AcDbEntity
  8
寸法
 48
50.0
100
AcDbDimension
  2
*D35
 10
4022.144256711882
 20
8287.982835086637
 30
0.0
 11
3922.144256711881
 21
8325.482835086637
 31
0.0
 70
    32
  1
c
 71
     5
 42
75.00000000000182
  3
INABA_S40G
100
AcDbAlignedDimension
 13
4274.087353431279
 23
8362.982835086638
 33
0.0
 14
5158.599999999998
 24
8287.982835086635
 34
0.0
 50
90.0
100
AcDbRotatedDimension
1001
ACAD
1000
DSTYLE
1002
{
1070
   341
1005
0
1002
}
  0
DIMENSION
  5
20311
330
747D
100
AcDbEntity
  8
寸法
 48
50.0
100
AcDbDimension
  2
*D36
 10
5158.599999999998
 20
9446.203157145555
 30
0.0
 11
4842.425378797542
 21
9446.203157145555
 31
0.0
 70
   160
  1
a
 71
     5
 42
44.99999999999727
  3
INABA_S40G
100
AcDbAlignedDimension
 13
5113.600000000001
 23
8970.591651756882
 33
0.0
 14
5158.599999999998
 24
8287.982835086635
 34
0.0
100
AcDbRotatedDimension
1001
ACAD
1000
DSTYLE
1002
{
1070
   341
1005
0
1002
}
  0
DIMENSION
  5
2031B
330
747D
100
AcDbEntity
  8
寸法
 48
50.0
100
AcDbDimension
  2
*D37
 10
4022.144256711882
 20
5592.982835086646
 30
0.0
 11
3922.144256711882
 21
5620.482835086641
 31
0.0
 70
    32
  1
b
 71
     5
 42
54.99999999998909
  3
INABA_S40G
100
AcDbAlignedDimension
 13
5158.6
 23
5647.982835086635
 33
0.0
 14
4274.087353431281
 24
5592.982835086646
 34
0.0
 50
90.0
100
AcDbRotatedDimension
1001
ACAD
1000
DSTYLE
1002
{
1070
   341
1005
0
1002
}
  0
LINE
  5
2073A
330
747D
100
AcDbEntity
  8
センター
 48
2.0
100
AcDbLine
 10
5331.6
 20
8164.982835086634
 30
0.0
 11
5231.6
 21
8164.982835086634
 31
0.0
  0
CIRCLE
  5
2073B
330
747D
100
AcDbEntity
  8
部品1
 48
50.0
100
AcDbCircle
 10
5281.6
 20
8164.982835086634
 30
0.0
 40
35.0
  0
LINE
  5
2073C
330
747D
100
AcDbEntity
  8
センター
 48
2.0
100
AcDbLine
 10
5281.6
 20
8214.982835086635
 30
0.0
 11
5281.6
 21
8114.982835086633
 31
0.0
  0
LINE
  5
20749
330
747D
100
AcDbEntity
  8
センター
 48
2.0
100
AcDbLine
 10
5281.599999999993
 20
5895.982835086637
 30
0.0
 11
5281.599999999993
 21
5795.982835086636
 31
0.0
  0
CIRCLE
  5
2074A
330
747D
100
AcDbEntity
  8
部品1
 48
50.0
100
AcDbCircle
 10
5281.599999999993
 20
5845.982835086637
 30
0.0
 40
35.0
  0
LINE
  5
2074B
330
747D
100
AcDbEntity
  8
センター
 48
2.0
100
AcDbLine
 10
5331.599999999993
 20
5845.982835086637
 30
0.0
 11
5231.599999999993
 21
5845.982835086637
 31
0.0
  0
LINE
  5
2075A
102
{ACAD_REACTORS
330
2412F
102
}
330
747D
100
AcDbEntity
  8
部品1
 48
50.0
100
AcDbLine
 10
5158.6
 20
6867.982835086634
 30
0.0
 11
5278.6
 21
6867.982835086634
 31
0.0
  0
LINE
  5
2075B
102
{ACAD_REACTORS
330
2412F
102
}
330
747D
100
AcDbEntity
  8
部品1
 48
50.0
100
AcDbLine
 10
5158.6
 20
7067.982835086635
 30
0.0
 11
5278.6
 21
7067.982835086635
 31
0.0
  0
LINE
  5
20A63
330
747D
100
AcDbEntity
  8
センター
 48
2.0
100
AcDbLine
 10
6525.6
 20
8164.982835086634
 30
0.0
 11
6625.6
 21
8164.982835086634
 31
0.0
  0
LINE
  5
20A64
330
747D
100
AcDbEntity
  8
センター
 48
2.0
100
AcDbLine
 10
6575.6
 20
8214.982835086635
 30
0.0
 11
6575.6
 21
8114.982835086633
 31
0.0
  0
CIRCLE
  5
20A65
330
747D
100
AcDbEntity
  8
部品1
 48
50.0
100
AcDbCircle
 10
6575.6
 20
8164.982835086634
 30
0.0
 40
35.0
  0
LINE
  5
20A66
330
747D
100
AcDbEntity
  8
センター
 48
2.0
100
AcDbLine
 10
6575.600000000007
 20
5895.982835086637
 30
0.0
 11
6575.600000000007
 21
5795.982835086636
 31
0.0
  0
CIRCLE
  5
20A67
330
747D
100
AcDbEntity
  8
部品1
 48
50.0
100
AcDbCircle
 10
6575.600000000007
 20
5845.982835086637
 30
0.0
 40
35.0
  0
LINE
  5
20A68
330
747D
100
AcDbEntity
  8
センター
 48
2.0
100
AcDbLine
 10
6525.600000000007
 20
5845.982835086637
 30
0.0
 11
6625.600000000007
 21
5845.982835086637
 31
0.0
  0
MTEXT
  5
20A84
330
747D
100
AcDbEntity
  8
寸法
 62
     7
 48
50.0
100
AcDbMText
 10
6962.286736821582
 20
9064.794097142723
 30
0.0
 40
120.0
 41
0.0
 71
     5
 72
     1
  1
1530
  7
STYLE1
 73
     1
 44
1.0
1001
ACAD
1000
MTEXTBEGIN
1070
    73
1070
     1
1070
    44
1040
1.0
1070
    74
1070
     0
1000
MTEXTEND
  0
MTEXT
  5
20A85
330
747D
100
AcDbEntity
  8
寸法
 62
     7
 48
50.0
100
AcDbMText
 10
7857.368100093373
 20
9064.794097142723
 30
0.0
 40
120.0
 41
0.0
 71
     5
 72
     1
  1
1530
  7
STYLE1
 73
     1
 44
1.0
1001
ACAD
1000
MTEXTBEGIN
1070
    73
1070
     1
1070
    44
1040
1.0
1070
    74
1070
     0
1000
MTEXTEND
  0
MTEXT
  5
20A86
330
747D
100
AcDbEntity
  8
寸法
 62
     7
 48
50.0
100
AcDbMText
 10
7943.344182203322
 20
9314.328026080278
 30
0.0
 40
120.0
 41
0.0
 71
     5
 72
     1
  1
1530
  7
STYLE1
 73
     1
 44
1.0
1001
ACAD
1000
MTEXTBEGIN
1070
    73
1070
     1
1070
    44
1040
1.0
1070
    74
1070
     0
1000
MTEXTEND
  0
MTEXT
  5
20A87
330
747D
100
AcDbEntity
  8
寸法
 62
     7
 48
50.0
100
AcDbMText
 10
7002.550444235225
 20
9314.328026080278
 30
0.0
 40
120.0
 41
0.0
 71
     5
 72
     1
  1
1530
  7
STYLE1
 73
     1
 44
1.0
1001
ACAD
1000
MTEXTBEGIN
1070
    73
1070
     1
1070
    44
1040
1.0
1070
    74
1070
     0
1000
MTEXTEND
  0
LINE
  5
20BB7
330
747D
100
AcDbEntity
  8
想像線
 48
10.0
100
AcDbLine
 10
7325.595384495693
 20
8362.982835086638
 30
0.0
 11
5113.600000000002
 21
8362.982835086638
 31
0.0
  0
MTEXT
  5
222EB
102
{ACAD_REACTORS
330
222EC
102
}
330
747D
100
AcDbEntity
  8
部品1
 62
     7
 48
50.0
100
AcDbMText
 10
8647.269739003665
 20
6364.993598823105
 30
0.0
 40
120.0
 41
0.0
 71
     6
 72
     1
  1
CB
  7
STYLE1
 73
     1
 44
1.0
1001
ACAD
1000
MTEXTBEGIN
1070
    73
1070
     1
1070
    44
1040
1.0
1070
    74
1070
     0
1000
MTEXTEND
  0
LEADER
  5
222EC
330
747D
100
AcDbEntity
  8
寸法
 48
50.0
100
AcDbLeader
  3
INABA_S50G
 73
     0
 74
     0
 75
     1
 40
120.0
 41
149.591883092037
 76
     3
 10
8271.424765008518
 20
6541.007512390938
 30
0.0
 10
8397.269739003666
 20
6279.993598823105
 30
0.0
 10
8522.269739003666
 20
6279.993598823105
 30
0.0
340
222EB
213
49.59188309203728
223
0.0
233
0.0
1001
ACAD
1000
DSTYLE
1002
{
1070
   341
1005
0
1070
    40
1040
1.0
1070
   343
1005
0
1070
   344
1005
0
1002
}
  0
LINE
  5
227DA
330
747D
100
AcDbEntity
  8
部品1
 48
50.0
100
AcDbLine
 10
10618.60000000001
 20
6702.982835086633
 30
0.0
 11
10418.60000000001
 21
6702.982835086633
 31
0.0
  0
LINE
  5
227DB
330
747D
100
AcDbEntity
  8
センター
 48
2.0
100
AcDbLine
 10
10468.60000000001
 20
6602.982835086632
 30
0.0
 11
10568.60000000001
 21
6602.982835086632
 31
0.0
  0
LINE
  5
227DC
330
747D
100
AcDbEntity
  8
部品1
 48
50.0
100
AcDbLine
 10
10618.60000000001
 20
6502.982835086632
 30
0.0
 11
10418.60000000001
 21
6502.982835086632
 31
0.0
  0
LINE
  5
227DD
330
747D
100
AcDbEntity
  8
部品1
 48
50.0
100
AcDbLine
 10
10418.60000000001
 20
6502.982835086632
 30
0.0
 11
10418.60000000001
 21
6702.982835086633
 31
0.0
  0
LINE
  5
227DE
330
747D
100
AcDbEntity
  8
センター
 48
2.0
100
AcDbLine
 10
10518.60000000001
 20
6652.982835086632
 30
0.0
 11
10518.60000000001
 21
6552.982835086632
 31
0.0
  0
LINE
  5
227DF
330
747D
100
AcDbEntity
  8
部品1
 48
50.0
100
AcDbLine
 10
10618.60000000001
 20
6502.982835086632
 30
0.0
 11
10618.60000000001
 21
6702.982835086633
 31
0.0
  0
LINE
  5
227E0
330
747D
100
AcDbEntity
  8
細線
 48
50.0
100
AcDbLine
 10
10536.18155665265
 20
8087.982835086597
 30
0.0
 11
10618.59999999998
 21
8170.401278433931
 31
0.0
  0
LINE
  5
227E1
330
747D
100
AcDbEntity
  8
細線
 48
50.0
100
AcDbLine
 10
10581.082837258
 20
8087.982835086604
 30
0.0
 11
10618.59999999998
 21
8125.499997828589
 31
0.0
  0
LINE
  5
227E2
330
747D
100
AcDbEntity
  8
部品1
 48
50.0
100
AcDbLine
 10
10618.59999999998
 20
8087.982835086608
 30
0.0
 11
10618.59999999998
 21
8287.982835086634
 31
0.0
  0
LINE
  5
227E3
330
747D
100
AcDbEntity
  8
細線
 48
50.0
100
AcDbLine
 10
10418.59999999998
 20
8284.71024267135
 30
0.0
 11
10421.87259241526
 21
8287.98283508663
 31
0.0
  0
LINE
  5
227E4
330
747D
100
AcDbEntity
  8
部品1
 48
50.0
100
AcDbLine
 10
10418.59999999998
 20
8087.982835086595
 30
0.0
 11
10418.59999999998
 21
8287.982835086634
 31
0.0
  0
LINE
  5
227E5
330
747D
100
AcDbEntity
  8
細線
 48
50.0
100
AcDbLine
 10
10418.59999999998
 20
8239.808962066003
 30
0.0
 11
10466.77387302061
 21
8287.98283508663
 31
0.0
  0
LINE
  5
227E6
330
747D
100
AcDbEntity
  8
細線
 48
50.0
100
AcDbLine
 10
10418.59999999998
 20
8194.90768146066
 30
0.0
 11
10511.67515362596
 21
8287.98283508663
 31
0.0
  0
LINE
  5
227E7
330
747D
100
AcDbEntity
  8
細線
 48
50.0
100
AcDbLine
 10
10418.59999999998
 20
8150.006400855314
 30
0.0
 11
10556.5764342313
 21
8287.982835086634
 31
0.0
  0
LINE
  5
227E8
330
747D
100
AcDbEntity
  8
細線
 48
50.0
100
AcDbLine
 10
10418.59999999998
 20
8105.105120249969
 30
0.0
 11
10601.47771483665
 21
8287.98283508663
 31
0.0
  0
LINE
  5
227E9
330
747D
100
AcDbEntity
  8
細線
 48
50.0
100
AcDbLine
 10
10446.37899544196
 20
8087.982835086595
 30
0.0
 11
10618.59999999998
 21
8260.203839644622
 31
0.0
  0
LINE
  5
227EA
330
747D
100
AcDbEntity
  8
細線
 48
50.0
100
AcDbLine
 10
10491.28027604731
 20
8087.982835086597
 30
0.0
 11
10618.59999999998
 21
8215.302559039276
 31
0.0
  0
LINE
  5
227EB
330
747D
100
AcDbEntity
  8
細線
 48
50.0
100
AcDbLine
 10
10613.41741360238
 20
5647.982835086638
 30
0.0
 11
10618.60000000001
 21
5653.165421484261
 31
0.0
  0
LINE
  5
227EC
330
747D
100
AcDbEntity
  8
部品1
 48
50.0
100
AcDbLine
 10
10618.6
 20
5647.98283508664
 30
0.0
 11
10618.60000000001
 21
5927.982835086649
 31
0.0
  0
LINE
  5
227ED
330
747D
100
AcDbEntity
  8
細線
 48
50.0
100
AcDbLine
 10
10523.61485239169
 20
5647.982835086638
 30
0.0
 11
10618.60000000001
 21
5742.967982694953
 31
0.0
  0
LINE
  5
227EE
330
747D
100
AcDbEntity
  8
細線
 48
50.0
100
AcDbLine
 10
10568.51613299704
 20
5647.982835086637
 30
0.0
 11
10618.60000000001
 21
5698.066702089608
 31
0.0
  0
LINE
  5
227EF
330
747D
100
AcDbEntity
  8
細線
 48
50.0
100
AcDbLine
 10
10418.60000000001
 20
5902.178227537716
 30
0.0
 11
10444.40460754894
 21
5927.982835086651
 31
0.0
  0
LINE
  5
227F0
330
747D
100
AcDbEntity
  8
細線
 48
50.0
100
AcDbLine
 10
10418.60000000001
 20
5857.276946932371
 30
0.0
 11
10489.30588815428
 21
5927.982835086651
 31
0.0
  0
LINE
  5
227F1
330
747D
100
AcDbEntity
  8
部品1
 48
50.0
100
AcDbLine
 10
10418.6
 20
5647.98283508664
 30
0.0
 11
10418.60000000001
 21
5927.982835086649
 31
0.0
  0
LINE
  5
227F2
330
747D
100
AcDbEntity
  8
細線
 48
50.0
100
AcDbLine
 10
10418.60000000001
 20
5812.375666327026
 30
0.0
 11
10534.20716875961
 21
5927.982835086651
 31
0.0
  0
LINE
  5
227F3
330
747D
100
AcDbEntity
  8
細線
 48
50.0
100
AcDbLine
 10
10418.60000000001
 20
5767.474385721681
 30
0.0
 11
10579.10844936498
 21
5927.982835086649
 31
0.0
  0
LINE
  5
227F4
330
747D
100
AcDbEntity
  8
細線
 48
50.0
100
AcDbLine
 10
10418.60000000001
 20
5722.573105116335
 30
0.0
 11
10618.60000000001
 21
5922.573105116338
 31
0.0
  0
LINE
  5
227F5
330
747D
100
AcDbEntity
  8
細線
 48
50.0
100
AcDbLine
 10
10418.60000000001
 20
5677.671824510989
 30
0.0
 11
10618.60000000001
 21
5877.671824510994
 31
0.0
  0
LINE
  5
227F6
330
747D
100
AcDbEntity
  8
細線
 48
50.0
100
AcDbLine
 10
10433.81229118099
 20
5647.982835086633
 30
0.0
 11
10618.60000000001
 21
5832.770543905644
 31
0.0
  0
LINE
  5
227F7
330
747D
100
AcDbEntity
  8
細線
 48
50.0
100
AcDbLine
 10
10478.71357178634
 20
5647.982835086635
 30
0.0
 11
10618.60000000001
 21
5787.869263300298
 31
0.0
  0
DIMENSION
  5
227F8
330
747D
100
AcDbEntity
  8
寸法
 48
50.0
100
AcDbDimension
  2
*D39
 10
7842.120515473401
 20
8287.982835086634
 30
0.0
 11
7842.1205154734
 21
7856.482835086634
 31
0.0
 70
   160
 71
     5
 42
881.0000000000009
  3
INABA_S40G
100
AcDbAlignedDimension
 13
7558.600000000009
 23
7406.982835086633
 33
0.0
 14
7933.6
 24
8287.982835086634
 34
0.0
 50
90.0
100
AcDbRotatedDimension
1001
ACAD
1000
DSTYLE
1002
{
1070
   341
1005
0
1002
}
  0
DIMENSION
  5
227F9
330
747D
100
AcDbEntity
  8
寸法
 48
50.0
100
AcDbDimension
  2
*D38
 10
7842.120515473401
 20
6602.982835086632
 30
0.0
 11
7842.1205154734
 21
6125.144085098378
 31
0.0
 70
   160
 71
     5
 42
954.9999999999927
  3
INABA_S40G
100
AcDbAlignedDimension
 13
7933.6
 23
5647.98283508664
 33
0.0
 14
7558.600000000009
 24
6602.982835086632
 34
0.0
 50
90.0
100
AcDbRotatedDimension
1001
ACAD
1000
DSTYLE
1002
{
1070
   341
1005
0
1002
}
  0
LINE
  5
227FA
330
747D
100
AcDbEntity
  8
センター
 48
2.0
100
AcDbLine
 10
9703.600000000008
 20
6602.982835086632
 30
0.0
 11
9803.600000000008
 21
6602.982835086632
 31
0.0
  0
LINE
  5
227FB
330
747D
100
AcDbEntity
  8
部品1
 48
50.0
100
AcDbLine
 10
9853.600000000007
 20
6702.982835086633
 30
0.0
 11
9653.600000000007
 21
6702.982835086633
 31
0.0
  0
LINE
  5
227FC
330
747D
100
AcDbEntity
  8
部品1
 48
50.0
100
AcDbLine
 10
9853.600000000007
 20
6502.982835086632
 30
0.0
 11
9653.600000000007
 21
6502.982835086632
 31
0.0
  0
LINE
  5
227FD
330
747D
100
AcDbEntity
  8
部品1
 48
50.0
100
AcDbLine
 10
9853.600000000007
 20
6502.982835086632
 30
0.0
 11
9853.600000000007
 21
6702.982835086633
 31
0.0
  0
LINE
  5
227FE
330
747D
100
AcDbEntity
  8
部品1
 48
50.0
100
AcDbLine
 10
9653.600000000007
 20
6502.982835086632
 30
0.0
 11
9653.600000000007
 21
6702.982835086633
 31
0.0
  0
LINE
  5
227FF
330
747D
100
AcDbEntity
  8
センター
 48
2.0
100
AcDbLine
 10
9753.600000000007
 20
6652.982835086632
 30
0.0
 11
9753.600000000007
 21
6552.982835086632
 31
0.0
  0
LINE
  5
22800
330
747D
100
AcDbEntity
  8
細線
 48
50.0
100
AcDbLine
 10
8888.600000000009
 20
5812.375666327026
 30
0.0
 11
9004.207168759613
 21
5927.982835086651
 31
0.0
  0
LINE
  5
22801
330
747D
100
AcDbEntity
  8
細線
 48
50.0
100
AcDbLine
 10
8888.600000000009
 20
5767.474385721681
 30
0.0
 11
9049.108449364977
 21
5927.982835086649
 31
0.0
  0
LINE
  5
22802
330
747D
100
AcDbEntity
  8
細線
 48
50.0
100
AcDbLine
 10
8888.600000000009
 20
5857.276946932371
 30
0.0
 11
8959.305888154288
 21
5927.982835086651
 31
0.0
  0
LINE
  5
22803
330
747D
100
AcDbEntity
  8
細線
 48
50.0
100
AcDbLine
 10
8888.600000000009
 20
5902.178227537716
 30
0.0
 11
8914.404607548936
 21
5927.982835086651
 31
0.0
  0
LINE
  5
22804
330
747D
100
AcDbEntity
  8
細線
 48
50.0
100
AcDbLine
 10
8888.600000000009
 20
5722.573105116335
 30
0.0
 11
9088.600000000008
 21
5922.573105116338
 31
0.0
  0
LINE
  5
22805
330
747D
100
AcDbEntity
  8
細線
 48
50.0
100
AcDbLine
 10
9083.417413602385
 20
5647.982835086638
 30
0.0
 11
9088.600000000008
 21
5653.165421484261
 31
0.0
  0
LINE
  5
22806
330
747D
100
AcDbEntity
  8
部品1
 48
50.0
100
AcDbLine
 10
8888.600000000007
 20
5647.98283508664
 30
0.0
 11
8888.600000000009
 21
5927.982835086649
 31
0.0
  0
LINE
  5
22807
330
747D
100
AcDbEntity
  8
部品1
 48
50.0
100
AcDbLine
 10
9088.600000000006
 20
5647.98283508664
 30
0.0
 11
9088.600000000008
 21
5927.982835086649
 31
0.0
  0
LINE
  5
22808
330
747D
100
AcDbEntity
  8
細線
 48
50.0
100
AcDbLine
 10
8888.600000000009
 20
5677.671824510989
 30
0.0
 11
9088.600000000008
 21
5877.67182451099
 31
0.0
  0
LINE
  5
22809
330
747D
100
AcDbEntity
  8
細線
 48
50.0
100
AcDbLine
 10
8903.812291180996
 20
5647.982835086633
 30
0.0
 11
9088.600000000008
 21
5832.770543905645
 31
0.0
  0
LINE
  5
2280A
330
747D
100
AcDbEntity
  8
細線
 48
50.0
100
AcDbLine
 10
8948.713571786344
 20
5647.982835086635
 30
0.0
 11
9088.600000000008
 21
5787.869263300298
 31
0.0
  0
LINE
  5
2280B
330
747D
100
AcDbEntity
  8
細線
 48
50.0
100
AcDbLine
 10
8993.614852391692
 20
5647.982835086638
 30
0.0
 11
9088.600000000008
 21
5742.967982694953
 31
0.0
  0
LINE
  5
2280C
330
747D
100
AcDbEntity
  8
細線
 48
50.0
100
AcDbLine
 10
9038.516132997038
 20
5647.982835086638
 30
0.0
 11
9088.600000000008
 21
5698.066702089606
 31
0.0
  0
LINE
  5
2280D
330
747D
100
AcDbEntity
  8
センター
 48
2.0
100
AcDbLine
 10
8938.600000000008
 20
6602.982835086632
 30
0.0
 11
9038.600000000007
 21
6602.982835086632
 31
0.0
  0
LINE
  5
2280E
330
747D
100
AcDbEntity
  8
部品1
 48
50.0
100
AcDbLine
 10
9088.600000000008
 20
6702.982835086633
 30
0.0
 11
8888.600000000009
 21
6702.982835086633
 31
0.0
  0
LINE
  5
2280F
330
747D
100
AcDbEntity
  8
部品1
 48
50.0
100
AcDbLine
 10
9088.600000000008
 20
6502.982835086632
 30
0.0
 11
8888.600000000009
 21
6502.982835086632
 31
0.0
  0
LINE
  5
22810
330
747D
100
AcDbEntity
  8
部品1
 48
50.0
100
AcDbLine
 10
8888.600000000009
 20
6502.982835086632
 30
0.0
 11
8888.600000000009
 21
6702.982835086633
 31
0.0
  0
LINE
  5
22811
330
747D
100
AcDbEntity
  8
センター
 48
2.0
100
AcDbLine
 10
8988.600000000008
 20
6652.982835086632
 30
0.0
 11
8988.600000000008
 21
6552.982835086632
 31
0.0
  0
LINE
  5
22812
330
747D
100
AcDbEntity
  8
部品1
 48
50.0
100
AcDbLine
 10
9088.600000000008
 20
6502.982835086632
 30
0.0
 11
9088.600000000008
 21
6702.982835086633
 31
0.0
  0
LINE
  5
22813
330
747D
100
AcDbEntity
  8
細線
 48
50.0
100
AcDbLine
 10
8888.599999999984
 20
8284.71024267135
 30
0.0
 11
8891.872592415266
 21
8287.98283508663
 31
0.0
  0
LINE
  5
22814
330
747D
100
AcDbEntity
  8
細線
 48
50.0
100
AcDbLine
 10
8916.378995441872
 20
8087.98283508651
 30
0.0
 11
9088.599999999985
 21
8260.203839644622
 31
0.0
  0
LINE
  5
22815
330
747D
100
AcDbEntity
  8
細線
 48
50.0
100
AcDbLine
 10
8961.28027604722
 20
8087.982835086512
 30
0.0
 11
9088.599999999983
 21
8215.302559039276
 31
0.0
  0
LINE
  5
22816
330
747D
100
AcDbEntity
  8
細線
 48
50.0
100
AcDbLine
 10
9051.082837257913
 20
8087.982835086517
 30
0.0
 11
9088.599999999983
 21
8125.499997828583
 31
0.0
  0
LINE
  5
22817
330
747D
100
AcDbEntity
  8
細線
 48
50.0
100
AcDbLine
 10
9006.18155665257
 20
8087.982835086515
 30
0.0
 11
9088.599999999985
 21
8170.40127843393
 31
0.0
  0
LINE
  5
22818
330
747D
100
AcDbEntity
  8
部品1
 48
50.0
100
AcDbLine
 10
8888.599999999986
 20
8087.98283508651
 30
0.0
 11
8888.599999999984
 21
8287.982835086634
 31
0.0
  0
LINE
  5
22819
330
747D
100
AcDbEntity
  8
部品1
 48
50.0
100
AcDbLine
 10
9088.599999999985
 20
8087.982835086522
 30
0.0
 11
9088.599999999983
 21
8287.982835086634
 31
0.0
  0
LINE
  5
2281A
330
747D
100
AcDbEntity
  8
細線
 48
50.0
100
AcDbLine
 10
8888.599999999984
 20
8239.808962066003
 30
0.0
 11
8936.77387302061
 21
8287.98283508663
 31
0.0
  0
LINE
  5
2281B
330
747D
100
AcDbEntity
  8
細線
 48
50.0
100
AcDbLine
 10
8888.599999999984
 20
8194.90768146066
 30
0.0
 11
8981.675153625959
 21
8287.98283508663
 31
0.0
  0
LINE
  5
2281C
330
747D
100
AcDbEntity
  8
細線
 48
50.0
100
AcDbLine
 10
8888.599999999986
 20
8150.006400855316
 30
0.0
 11
9026.576434231303
 21
8287.982835086634
 31
0.0
  0
LINE
  5
2281D
330
747D
100
AcDbEntity
  8
細線
 48
50.0
100
AcDbLine
 10
8888.599999999986
 20
8105.105120249971
 30
0.0
 11
9071.477714836651
 21
8287.98283508663
 31
0.0
  0
LINE
  5
2281E
330
747D
100
AcDbEntity
  8
部品1
 48
50.0
100
AcDbLine
 10
8323.600000000007
 20
6702.982835086633
 30
0.0
 11
8123.600000000008
 21
6702.982835086633
 31
0.0
  0
LINE
  5
2281F
330
747D
100
AcDbEntity
  8
センター
 48
2.0
100
AcDbLine
 10
8173.600000000007
 20
6602.982835086632
 30
0.0
 11
8273.600000000007
 21
6602.982835086632
 31
0.0
  0
LINE
  5
22820
330
747D
100
AcDbEntity
  8
部品1
 48
50.0
100
AcDbLine
 10
8323.600000000007
 20
6502.982835086632
 30
0.0
 11
8123.600000000008
 21
6502.982835086632
 31
0.0
  0
LINE
  5
22821
330
747D
100
AcDbEntity
  8
部品1
 48
50.0
100
AcDbLine
 10
8323.600000000007
 20
6502.982835086632
 30
0.0
 11
8323.600000000007
 21
6702.982835086633
 31
0.0
  0
LINE
  5
22822
330
747D
100
AcDbEntity
  8
部品1
 48
50.0
100
AcDbLine
 10
8123.600000000008
 20
6502.982835086632
 30
0.0
 11
8123.600000000008
 21
6702.982835086633
 31
0.0
  0
LINE
  5
22823
330
747D
100
AcDbEntity
  8
センター
 48
2.0
100
AcDbLine
 10
8223.600000000008
 20
6652.982835086632
 30
0.0
 11
8223.600000000008
 21
6552.982835086632
 31
0.0
  0
LINE
  5
2284E
330
747D
100
AcDbEntity
  8
センター
 48
2.0
100
AcDbLine
 10
5928.600000000008
 20
6652.982835086632
 30
0.0
 11
5928.600000000008
 21
6552.982835086632
 31
0.0
  0
LINE
  5
2284F
330
747D
100
AcDbEntity
  8
部品1
 48
50.0
100
AcDbLine
 10
5828.600000000008
 20
6502.982835086632
 30
0.0
 11
5828.600000000008
 21
6702.982835086633
 31
0.0
  0
LINE
  5
22850
330
747D
100
AcDbEntity
  8
部品1
 48
50.0
100
AcDbLine
 10
6028.600000000007
 20
6502.982835086632
 30
0.0
 11
6028.600000000007
 21
6702.982835086633
 31
0.0
  0
LINE
  5
22851
330
747D
100
AcDbEntity
  8
部品1
 48
50.0
100
AcDbLine
 10
6028.600000000007
 20
6502.982835086632
 30
0.0
 11
5828.600000000008
 21
6502.982835086632
 31
0.0
  0
LINE
  5
22852
330
747D
100
AcDbEntity
  8
センター
 48
2.0
100
AcDbLine
 10
5878.600000000008
 20
6602.982835086632
 30
0.0
 11
5978.600000000008
 21
6602.982835086632
 31
0.0
  0
LINE
  5
22853
330
747D
100
AcDbEntity
  8
部品1
 48
50.0
100
AcDbLine
 10
6028.600000000007
 20
6702.982835086633
 30
0.0
 11
5828.600000000008
 21
6702.982835086633
 31
0.0
  0
LINE
  5
22854
330
747D
100
AcDbEntity
  8
部品1
 48
50.0
100
AcDbLine
 10
6793.600000000008
 20
6502.982835086632
 30
0.0
 11
6793.600000000008
 21
6702.982835086633
 31
0.0
  0
LINE
  5
22855
330
747D
100
AcDbEntity
  8
センター
 48
2.0
100
AcDbLine
 10
6693.600000000007
 20
6652.982835086632
 30
0.0
 11
6693.600000000007
 21
6552.982835086632
 31
0.0
  0
LINE
  5
22856
330
747D
100
AcDbEntity
  8
部品1
 48
50.0
100
AcDbLine
 10
6593.600000000008
 20
6502.982835086632
 30
0.0
 11
6593.600000000008
 21
6702.982835086633
 31
0.0
  0
LINE
  5
22857
330
747D
100
AcDbEntity
  8
部品1
 48
50.0
100
AcDbLine
 10
6793.600000000008
 20
6502.982835086632
 30
0.0
 11
6593.600000000008
 21
6502.982835086632
 31
0.0
  0
LINE
  5
22858
330
747D
100
AcDbEntity
  8
部品1
 48
50.0
100
AcDbLine
 10
6793.600000000008
 20
6702.982835086633
 30
0.0
 11
6593.600000000008
 21
6702.982835086633
 31
0.0
  0
LINE
  5
22859
330
747D
100
AcDbEntity
  8
センター
 48
2.0
100
AcDbLine
 10
6643.600000000008
 20
6602.982835086632
 30
0.0
 11
6743.600000000007
 21
6602.982835086632
 31
0.0
  0
LINE
  5
2285A
330
747D
100
AcDbEntity
  8
センター
 48
2.0
100
AcDbLine
 10
7458.600000000008
 20
6652.982835086632
 30
0.0
 11
7458.600000000008
 21
6552.982835086632
 31
0.0
  0
LINE
  5
2285B
330
747D
100
AcDbEntity
  8
部品1
 48
50.0
100
AcDbLine
 10
7358.600000000008
 20
6502.982835086632
 30
0.0
 11
7358.600000000008
 21
6702.982835086633
 31
0.0
  0
LINE
  5
2285C
330
747D
100
AcDbEntity
  8
部品1
 48
50.0
100
AcDbLine
 10
7558.600000000009
 20
6502.982835086632
 30
0.0
 11
7558.600000000009
 21
6702.982835086633
 31
0.0
  0
LINE
  5
2285D
330
747D
100
AcDbEntity
  8
部品1
 48
50.0
100
AcDbLine
 10
7558.600000000009
 20
6502.982835086632
 30
0.0
 11
7358.600000000008
 21
6502.982835086632
 31
0.0
  0
LINE
  5
2285E
330
747D
100
AcDbEntity
  8
部品1
 48
50.0
100
AcDbLine
 10
7558.600000000009
 20
6702.982835086633
 30
0.0
 11
7358.600000000008
 21
6702.982835086633
 31
0.0
  0
LINE
  5
2285F
330
747D
100
AcDbEntity
  8
センター
 48
2.0
100
AcDbLine
 10
7408.600000000008
 20
6602.982835086632
 30
0.0
 11
7508.600000000008
 21
6602.982835086632
 31
0.0
  0
DIMENSION
  5
22860
330
747D
100
AcDbEntity
  8
寸法
 48
50.0
100
AcDbDimension
  2
*D40
 10
5158.6
 20
6308.100679195828
 30
0.0
 11
5543.600000000004
 21
6408.100679195829
 31
0.0
 70
    32
 71
     5
 42
770.0000000000073
  3
INABA_S40G
100
AcDbAlignedDimension
 13
5928.600000000008
 23
6552.982835086632
 33
0.0
 14
5158.6
 24
6476.096406872986
 34
0.0
100
AcDbRotatedDimension
1001
ACAD
1000
DSTYLE
1002
{
1070
   341
1005
0
1002
}
  0
DIMENSION
  5
2286D
330
747D
100
AcDbEntity
  8
寸法
 48
50.0
100
AcDbDimension
  2
*D41
 10
6693.600000000007
 20
6308.100679195828
 30
0.0
 11
6311.100000000007
 21
6408.100679195829
 31
0.0
 70
    32
 71
     5
 42
765.0
  3
INABA_S40G
100
AcDbAlignedDimension
 13
5928.600000000008
 23
6552.982835086632
 33
0.0
 14
6693.600000000007
 24
6552.982835086632
 34
0.0
100
AcDbRotatedDimension
1001
ACAD
1000
DSTYLE
1002
{
1070
   341
1005
0
1002
}
  0
DIMENSION
  5
228AB
330
747D
100
AcDbEntity
  8
寸法
 48
50.0
100
AcDbDimension
  2
*D42
 10
10518.59999999999
 20
6308.100679195828
 30
0.0
 11
10903.59999999999
 21
6408.100679195829
 31
0.0
 70
    32
 71
     5
 42
770.0000000000073
  3
INABA_S40G
100
AcDbAlignedDimension
 13
11288.6
 23
6552.982835086632
 33
0.0
 14
10518.59999999999
 24
6502.982835086632
 34
0.0
100
AcDbRotatedDimension
1001
ACAD
1000
DSTYLE
1002
{
1070
   341
1005
0
1002
}
  0
DIMENSION
  5
228CA
330
747D
100
AcDbEntity
  8
寸法
 48
50.0
100
AcDbDimension
  2
*D43
 10
10518.59999999999
 20
6308.100679195828
 30
0.0
 11
10136.1
 21
6408.100679195829
 31
0.0
 70
    32
 71
     5
 42
764.9999999999854
  3
INABA_S40G
100
AcDbAlignedDimension
 13
9753.600000000007
 23
6502.982835086632
 33
0.0
 14
10518.59999999999
 24
6502.982835086632
 34
0.0
100
AcDbRotatedDimension
1001
ACAD
1000
DSTYLE
1002
{
1070
   341
1005
0
1002
}
  0
DIMENSION
  5
228D8
330
747D
100
AcDbEntity
  8
寸法
 48
50.0
100
AcDbDimension
  2
*D44
 10
9753.600000000007
 20
6308.100679195828
 30
0.0
 11
9371.100000000009
 21
6408.100679195829
 31
0.0
 70
    32
 71
     5
 42
765.0
  3
INABA_S40G
100
AcDbAlignedDimension
 13
8988.600000000008
 23
6502.982835086632
 33
0.0
 14
9753.600000000007
 24
6502.982835086632
 34
0.0
100
AcDbRotatedDimension
1001
ACAD
1000
DSTYLE
1002
{
1070
   341
1005
0
1002
}
  0
LINE
  5
228F7
330
747D
100
AcDbEntity
  8
細線
 48
50.0
100
AcDbLine
 10
7508.516132997037
 20
5647.982835086638
 30
0.0
 11
7558.600000000009
 21
5698.066702089606
 31
0.0
  0
LINE
  5
228F8
330
747D
100
AcDbEntity
  8
細線
 48
50.0
100
AcDbLine
 10
7463.614852391692
 20
5647.982835086638
 30
0.0
 11
7558.600000000009
 21
5742.967982694953
 31
0.0
  0
LINE
  5
228F9
330
747D
100
AcDbEntity
  8
細線
 48
50.0
100
AcDbLine
 10
7418.713571786344
 20
5647.982835086635
 30
0.0
 11
7558.600000000009
 21
5787.869263300298
 31
0.0
  0
LINE
  5
228FA
330
747D
100
AcDbEntity
  8
細線
 48
50.0
100
AcDbLine
 10
7373.812291180996
 20
5647.982835086633
 30
0.0
 11
7558.600000000009
 21
5832.770543905645
 31
0.0
  0
LINE
  5
228FB
330
747D
100
AcDbEntity
  8
細線
 48
50.0
100
AcDbLine
 10
7358.600000000008
 20
5677.671824510989
 30
0.0
 11
7558.600000000009
 21
5877.67182451099
 31
0.0
  0
LINE
  5
228FC
330
747D
100
AcDbEntity
  8
部品1
 48
50.0
100
AcDbLine
 10
7558.600000000005
 20
5647.98283508664
 30
0.0
 11
7558.600000000009
 21
5927.982835086649
 31
0.0
  0
LINE
  5
228FD
330
747D
100
AcDbEntity
  8
部品1
 48
50.0
100
AcDbLine
 10
7358.600000000006
 20
5647.98283508664
 30
0.0
 11
7358.600000000008
 21
5927.982835086649
 31
0.0
  0
LINE
  5
228FE
330
747D
100
AcDbEntity
  8
細線
 48
50.0
100
AcDbLine
 10
7553.417413602385
 20
5647.982835086638
 30
0.0
 11
7558.600000000009
 21
5653.165421484261
 31
0.0
  0
LINE
  5
228FF
330
747D
100
AcDbEntity
  8
細線
 48
50.0
100
AcDbLine
 10
7358.600000000008
 20
5722.573105116335
 30
0.0
 11
7558.600000000009
 21
5922.573105116338
 31
0.0
  0
LINE
  5
22900
330
747D
100
AcDbEntity
  8
細線
 48
50.0
100
AcDbLine
 10
7358.600000000008
 20
5902.178227537716
 30
0.0
 11
7384.404607548937
 21
5927.982835086651
 31
0.0
  0
LINE
  5
22901
330
747D
100
AcDbEntity
  8
細線
 48
50.0
100
AcDbLine
 10
7358.600000000008
 20
5857.276946932371
 30
0.0
 11
7429.305888154288
 21
5927.982835086651
 31
0.0
  0
LINE
  5
22902
330
747D
100
AcDbEntity
  8
細線
 48
50.0
100
AcDbLine
 10
7358.600000000008
 20
5767.474385721681
 30
0.0
 11
7519.108449364978
 21
5927.982835086649
 31
0.0
  0
LINE
  5
22903
330
747D
100
AcDbEntity
  8
細線
 48
50.0
100
AcDbLine
 10
7358.600000000008
 20
5812.375666327026
 30
0.0
 11
7474.207168759612
 21
5927.982835086651
 31
0.0
  0
LINE
  5
22904
330
747D
100
AcDbEntity
  8
細線
 48
50.0
100
AcDbLine
 10
7358.599999999985
 20
8105.105120249971
 30
0.0
 11
7541.477714836649
 21
8287.98283508663
 31
0.0
  0
LINE
  5
22905
330
747D
100
AcDbEntity
  8
細線
 48
50.0
100
AcDbLine
 10
7358.599999999985
 20
8150.006400855316
 30
0.0
 11
7496.576434231304
 21
8287.982835086634
 31
0.0
  0
LINE
  5
22906
330
747D
100
AcDbEntity
  8
細線
 48
50.0
100
AcDbLine
 10
7358.599999999984
 20
8194.90768146066
 30
0.0
 11
7451.675153625958
 21
8287.98283508663
 31
0.0
  0
LINE
  5
22907
330
747D
100
AcDbEntity
  8
細線
 48
50.0
100
AcDbLine
 10
7358.599999999984
 20
8239.808962066003
 30
0.0
 11
7406.773873020608
 21
8287.98283508663
 31
0.0
  0
LINE
  5
22908
330
747D
100
AcDbEntity
  8
部品1
 48
50.0
100
AcDbLine
 10
7558.599999999985
 20
8087.982835086522
 30
0.0
 11
7558.599999999984
 21
8287.982835086634
 31
0.0
  0
LINE
  5
22909
330
747D
100
AcDbEntity
  8
部品1
 48
50.0
100
AcDbLine
 10
7358.599999999985
 20
8087.98283508651
 30
0.0
 11
7358.599999999984
 21
8287.982835086634
 31
0.0
  0
LINE
  5
2290A
330
747D
100
AcDbEntity
  8
細線
 48
50.0
100
AcDbLine
 10
7476.181556652571
 20
8087.982835086515
 30
0.0
 11
7558.599999999985
 21
8170.40127843393
 31
0.0
  0
LINE
  5
2290B
330
747D
100
AcDbEntity
  8
細線
 48
50.0
100
AcDbLine
 10
7521.082837257914
 20
8087.982835086517
 30
0.0
 11
7558.599999999984
 21
8125.499997828583
 31
0.0
  0
LINE
  5
2290C
330
747D
100
AcDbEntity
  8
細線
 48
50.0
100
AcDbLine
 10
7431.280276047221
 20
8087.982835086512
 30
0.0
 11
7558.599999999984
 21
8215.302559039276
 31
0.0
  0
LINE
  5
2290D
330
747D
100
AcDbEntity
  8
細線
 48
50.0
100
AcDbLine
 10
7386.378995441873
 20
8087.98283508651
 30
0.0
 11
7558.599999999985
 21
8260.203839644622
 31
0.0
  0
LINE
  5
2290E
330
747D
100
AcDbEntity
  8
細線
 48
50.0
100
AcDbLine
 10
7358.599999999984
 20
8284.71024267135
 30
0.0
 11
7361.872592415266
 21
8287.98283508663
 31
0.0
  0
LINE
  5
22918
330
747D
100
AcDbEntity
  8
細線
 48
50.0
100
AcDbLine
 10
5828.599999999983
 20
8284.71024267135
 30
0.0
 11
5831.872592415265
 21
8287.98283508663
 31
0.0
  0
LINE
  5
22919
330
747D
100
AcDbEntity
  8
細線
 48
50.0
100
AcDbLine
 10
5856.378995441874
 20
8087.98283508651
 30
0.0
 11
6028.599999999986
 21
8260.203839644622
 31
0.0
  0
LINE
  5
2291A
330
747D
100
AcDbEntity
  8
細線
 48
50.0
100
AcDbLine
 10
5901.28027604722
 20
8087.982835086512
 30
0.0
 11
6028.599999999983
 21
8215.302559039276
 31
0.0
  0
LINE
  5
2291B
330
747D
100
AcDbEntity
  8
細線
 48
50.0
100
AcDbLine
 10
5991.082837257915
 20
8087.982835086517
 30
0.0
 11
6028.599999999983
 21
8125.499997828583
 31
0.0
  0
LINE
  5
2291C
330
747D
100
AcDbEntity
  8
細線
 48
50.0
100
AcDbLine
 10
5946.181556652572
 20
8087.982835086515
 30
0.0
 11
6028.599999999986
 21
8170.40127843393
 31
0.0
  0
LINE
  5
2291D
330
747D
100
AcDbEntity
  8
部品1
 48
50.0
100
AcDbLine
 10
5828.599999999986
 20
8087.98283508651
 30
0.0
 11
5828.599999999983
 21
8287.982835086634
 31
0.0
  0
LINE
  5
2291E
330
747D
100
AcDbEntity
  8
部品1
 48
50.0
100
AcDbLine
 10
6028.599999999986
 20
8087.982835086522
 30
0.0
 11
6028.599999999983
 21
8287.982835086634
 31
0.0
  0
LINE
  5
2291F
330
747D
100
AcDbEntity
  8
細線
 48
50.0
100
AcDbLine
 10
5828.599999999983
 20
8239.808962066003
 30
0.0
 11
5876.773873020609
 21
8287.98283508663
 31
0.0
  0
LINE
  5
22920
330
747D
100
AcDbEntity
  8
細線
 48
50.0
100
AcDbLine
 10
5828.599999999983
 20
8194.90768146066
 30
0.0
 11
5921.675153625958
 21
8287.98283508663
 31
0.0
  0
LINE
  5
22921
330
747D
100
AcDbEntity
  8
細線
 48
50.0
100
AcDbLine
 10
5828.599999999986
 20
8150.006400855316
 30
0.0
 11
5966.576434231303
 21
8287.982835086634
 31
0.0
  0
LINE
  5
22922
330
747D
100
AcDbEntity
  8
細線
 48
50.0
100
AcDbLine
 10
5828.599999999986
 20
8105.105120249971
 30
0.0
 11
6011.47771483665
 21
8287.98283508663
 31
0.0
  0
LINE
  5
22923
330
747D
100
AcDbEntity
  8
細線
 48
50.0
100
AcDbLine
 10
5828.600000000008
 20
5812.375666327026
 30
0.0
 11
5944.207168759612
 21
5927.982835086651
 31
0.0
  0
LINE
  5
22924
330
747D
100
AcDbEntity
  8
細線
 48
50.0
100
AcDbLine
 10
5828.600000000008
 20
5767.474385721681
 30
0.0
 11
5989.108449364977
 21
5927.982835086649
 31
0.0
  0
LINE
  5
22925
330
747D
100
AcDbEntity
  8
細線
 48
50.0
100
AcDbLine
 10
5828.600000000008
 20
5857.276946932371
 30
0.0
 11
5899.305888154287
 21
5927.982835086651
 31
0.0
  0
LINE
  5
22926
330
747D
100
AcDbEntity
  8
細線
 48
50.0
100
AcDbLine
 10
5828.600000000008
 20
5902.178227537716
 30
0.0
 11
5854.404607548937
 21
5927.982835086651
 31
0.0
  0
LINE
  5
22927
330
747D
100
AcDbEntity
  8
細線
 48
50.0
100
AcDbLine
 10
5828.600000000008
 20
5722.573105116335
 30
0.0
 11
6028.600000000007
 21
5922.573105116338
 31
0.0
  0
LINE
  5
22928
330
747D
100
AcDbEntity
  8
細線
 48
50.0
100
AcDbLine
 10
6023.417413602385
 20
5647.982835086638
 30
0.0
 11
6028.600000000007
 21
5653.165421484261
 31
0.0
  0
LINE
  5
22929
330
747D
100
AcDbEntity
  8
部品1
 48
50.0
100
AcDbLine
 10
5828.600000000005
 20
5647.98283508664
 30
0.0
 11
5828.600000000008
 21
5927.982835086649
 31
0.0
  0
LINE
  5
2292A
330
747D
100
AcDbEntity
  8
部品1
 48
50.0
100
AcDbLine
 10
6028.600000000006
 20
5647.98283508664
 30
0.0
 11
6028.600000000007
 21
5927.982835086649
 31
0.0
  0
LINE
  5
2292B
330
747D
100
AcDbEntity
  8
細線
 48
50.0
100
AcDbLine
 10
5828.600000000008
 20
5677.671824510989
 30
0.0
 11
6028.600000000007
 21
5877.67182451099
 31
0.0
  0
LINE
  5
2292C
330
747D
100
AcDbEntity
  8
細線
 48
50.0
100
AcDbLine
 10
5843.812291180997
 20
5647.982835086633
 30
0.0
 11
6028.600000000007
 21
5832.770543905645
 31
0.0
  0
LINE
  5
2292D
330
747D
100
AcDbEntity
  8
細線
 48
50.0
100
AcDbLine
 10
5888.713571786343
 20
5647.982835086635
 30
0.0
 11
6028.600000000007
 21
5787.869263300298
 31
0.0
  0
LINE
  5
2292E
330
747D
100
AcDbEntity
  8
細線
 48
50.0
100
AcDbLine
 10
5933.614852391691
 20
5647.982835086638
 30
0.0
 11
6028.600000000007
 21
5742.967982694953
 31
0.0
  0
LINE
  5
2292F
330
747D
100
AcDbEntity
  8
細線
 48
50.0
100
AcDbLine
 10
5978.516132997038
 20
5647.982835086638
 30
0.0
 11
6028.600000000007
 21
5698.066702089606
 31
0.0
  0
LINE
  5
2359D
330
747D
100
AcDbEntity
  8
センター
 48
2.0
100
AcDbLine
 10
8223.600000000008
 20
7456.982835086633
 30
0.0
 11
8223.600000000008
 21
7356.982835086633
 31
0.0
  0
LINE
  5
2359E
330
747D
100
AcDbEntity
  8
部品1
 48
50.0
100
AcDbLine
 10
8123.600000000008
 20
7306.982835086633
 30
0.0
 11
8123.600000000008
 21
7506.982835086633
 31
0.0
  0
LINE
  5
2359F
330
747D
100
AcDbEntity
  8
部品1
 48
50.0
100
AcDbLine
 10
8323.600000000007
 20
7306.982835086633
 30
0.0
 11
8323.600000000007
 21
7506.982835086633
 31
0.0
  0
LINE
  5
235A0
330
747D
100
AcDbEntity
  8
部品1
 48
50.0
100
AcDbLine
 10
8323.600000000007
 20
7306.982835086633
 30
0.0
 11
8123.600000000008
 21
7306.982835086633
 31
0.0
  0
LINE
  5
235A1
330
747D
100
AcDbEntity
  8
センター
 48
2.0
100
AcDbLine
 10
8173.600000000007
 20
7406.982835086633
 30
0.0
 11
8273.600000000007
 21
7406.982835086633
 31
0.0
  0
LINE
  5
235A2
330
747D
100
AcDbEntity
  8
部品1
 48
50.0
100
AcDbLine
 10
8323.600000000007
 20
7506.982835086633
 30
0.0
 11
8123.600000000008
 21
7506.982835086633
 31
0.0
  0
LINE
  5
235A3
330
747D
100
AcDbEntity
  8
部品1
 48
50.0
100
AcDbLine
 10
9088.600000000008
 20
7306.982835086633
 30
0.0
 11
9088.600000000008
 21
7506.982835086633
 31
0.0
  0
LINE
  5
235A4
330
747D
100
AcDbEntity
  8
センター
 48
2.0
100
AcDbLine
 10
8988.600000000008
 20
7456.982835086633
 30
0.0
 11
8988.600000000008
 21
7356.982835086633
 31
0.0
  0
LINE
  5
235A5
330
747D
100
AcDbEntity
  8
部品1
 48
50.0
100
AcDbLine
 10
8888.600000000009
 20
7306.982835086633
 30
0.0
 11
8888.600000000009
 21
7506.982835086633
 31
0.0
  0
LINE
  5
235A6
330
747D
100
AcDbEntity
  8
部品1
 48
50.0
100
AcDbLine
 10
9088.600000000008
 20
7306.982835086633
 30
0.0
 11
8888.600000000009
 21
7306.982835086633
 31
0.0
  0
LINE
  5
235A7
330
747D
100
AcDbEntity
  8
部品1
 48
50.0
100
AcDbLine
 10
9088.600000000008
 20
7506.982835086633
 30
0.0
 11
8888.600000000009
 21
7506.982835086633
 31
0.0
  0
LINE
  5
235A8
330
747D
100
AcDbEntity
  8
センター
 48
2.0
100
AcDbLine
 10
8938.600000000008
 20
7406.982835086633
 30
0.0
 11
9038.600000000007
 21
7406.982835086633
 31
0.0
  0
LINE
  5
235A9
330
747D
100
AcDbEntity
  8
センター
 48
2.0
100
AcDbLine
 10
9753.600000000007
 20
7456.982835086633
 30
0.0
 11
9753.600000000007
 21
7356.982835086633
 31
0.0
  0
LINE
  5
235AA
330
747D
100
AcDbEntity
  8
部品1
 48
50.0
100
AcDbLine
 10
9653.600000000007
 20
7306.982835086633
 30
0.0
 11
9653.600000000007
 21
7506.982835086633
 31
0.0
  0
LINE
  5
235AB
330
747D
100
AcDbEntity
  8
部品1
 48
50.0
100
AcDbLine
 10
9853.600000000007
 20
7306.982835086633
 30
0.0
 11
9853.600000000007
 21
7506.982835086633
 31
0.0
  0
LINE
  5
235AC
330
747D
100
AcDbEntity
  8
部品1
 48
50.0
100
AcDbLine
 10
9853.600000000007
 20
7306.982835086633
 30
0.0
 11
9653.600000000007
 21
7306.982835086633
 31
0.0
  0
LINE
  5
235AD
330
747D
100
AcDbEntity
  8
部品1
 48
50.0
100
AcDbLine
 10
9853.600000000007
 20
7506.982835086633
 30
0.0
 11
9653.600000000007
 21
7506.982835086633
 31
0.0
  0
LINE
  5
235AE
330
747D
100
AcDbEntity
  8
センター
 48
2.0
100
AcDbLine
 10
9703.600000000008
 20
7406.982835086633
 30
0.0
 11
9803.600000000008
 21
7406.982835086633
 31
0.0
  0
LINE
  5
235AF
330
747D
100
AcDbEntity
  8
部品1
 48
50.0
100
AcDbLine
 10
10618.60000000001
 20
7306.982835086633
 30
0.0
 11
10618.60000000001
 21
7506.982835086633
 31
0.0
  0
LINE
  5
235B0
330
747D
100
AcDbEntity
  8
センター
 48
2.0
100
AcDbLine
 10
10518.60000000001
 20
7456.982835086633
 30
0.0
 11
10518.60000000001
 21
7356.982835086633
 31
0.0
  0
LINE
  5
235B1
330
747D
100
AcDbEntity
  8
部品1
 48
50.0
100
AcDbLine
 10
10418.60000000001
 20
7306.982835086633
 30
0.0
 11
10418.60000000001
 21
7506.982835086633
 31
0.0
  0
LINE
  5
235B2
330
747D
100
AcDbEntity
  8
部品1
 48
50.0
100
AcDbLine
 10
10618.60000000001
 20
7306.982835086633
 30
0.0
 11
10418.60000000001
 21
7306.982835086633
 31
0.0
  0
LINE
  5
235B3
330
747D
100
AcDbEntity
  8
センター
 48
2.0
100
AcDbLine
 10
10468.60000000001
 20
7406.982835086633
 30
0.0
 11
10568.60000000001
 21
7406.982835086633
 31
0.0
  0
LINE
  5
235B4
330
747D
100
AcDbEntity
  8
部品1
 48
50.0
100
AcDbLine
 10
10618.60000000001
 20
7506.982835086633
 30
0.0
 11
10418.60000000001
 21
7506.982835086633
 31
0.0
  0
LINE
  5
235B5
330
747D
100
AcDbEntity
  8
センター
 48
2.0
100
AcDbLine
 10
7408.600000000008
 20
7406.982835086633
 30
0.0
 11
7508.600000000008
 21
7406.982835086633
 31
0.0
  0
LINE
  5
235B6
330
747D
100
AcDbEntity
  8
部品1
 48
50.0
100
AcDbLine
 10
7558.600000000009
 20
7506.982835086633
 30
0.0
 11
7358.600000000008
 21
7506.982835086633
 31
0.0
  0
LINE
  5
235B7
330
747D
100
AcDbEntity
  8
部品1
 48
50.0
100
AcDbLine
 10
7558.600000000009
 20
7306.982835086633
 30
0.0
 11
7358.600000000008
 21
7306.982835086633
 31
0.0
  0
LINE
  5
235B8
330
747D
100
AcDbEntity
  8
部品1
 48
50.0
100
AcDbLine
 10
7558.600000000009
 20
7306.982835086633
 30
0.0
 11
7558.600000000009
 21
7506.982835086633
 31
0.0
  0
LINE
  5
235B9
330
747D
100
AcDbEntity
  8
部品1
 48
50.0
100
AcDbLine
 10
7358.600000000008
 20
7306.982835086633
 30
0.0
 11
7358.600000000008
 21
7506.982835086633
 31
0.0
  0
LINE
  5
235BA
330
747D
100
AcDbEntity
  8
センター
 48
2.0
100
AcDbLine
 10
7458.600000000008
 20
7456.982835086633
 30
0.0
 11
7458.600000000008
 21
7356.982835086633
 31
0.0
  0
LINE
  5
235BB
330
747D
100
AcDbEntity
  8
センター
 48
2.0
100
AcDbLine
 10
6643.600000000008
 20
7406.982835086633
 30
0.0
 11
6743.600000000007
 21
7406.982835086633
 31
0.0
  0
LINE
  5
235BC
330
747D
100
AcDbEntity
  8
部品1
 48
50.0
100
AcDbLine
 10
6793.600000000008
 20
7506.982835086633
 30
0.0
 11
6593.600000000008
 21
7506.982835086633
 31
0.0
  0
LINE
  5
235BD
330
747D
100
AcDbEntity
  8
部品1
 48
50.0
100
AcDbLine
 10
6793.600000000008
 20
7306.982835086633
 30
0.0
 11
6593.600000000008
 21
7306.982835086633
 31
0.0
  0
LINE
  5
235BE
330
747D
100
AcDbEntity
  8
部品1
 48
50.0
100
AcDbLine
 10
6593.600000000008
 20
7306.982835086633
 30
0.0
 11
6593.600000000008
 21
7506.982835086633
 31
0.0
  0
LINE
  5
235BF
330
747D
100
AcDbEntity
  8
センター
 48
2.0
100
AcDbLine
 10
6693.600000000007
 20
7456.982835086633
 30
0.0
 11
6693.600000000007
 21
7356.982835086633
 31
0.0
  0
LINE
  5
235C0
330
747D
100
AcDbEntity
  8
部品1
 48
50.0
100
AcDbLine
 10
6793.600000000008
 20
7306.982835086633
 30
0.0
 11
6793.600000000008
 21
7506.982835086633
 31
0.0
  0
LINE
  5
235C1
330
747D
100
AcDbEntity
  8
部品1
 48
50.0
100
AcDbLine
 10
6028.600000000007
 20
7506.982835086633
 30
0.0
 11
5828.600000000008
 21
7506.982835086633
 31
0.0
  0
LINE
  5
235C2
330
747D
100
AcDbEntity
  8
センター
 48
2.0
100
AcDbLine
 10
5878.600000000008
 20
7406.982835086633
 30
0.0
 11
5978.600000000008
 21
7406.982835086633
 31
0.0
  0
LINE
  5
235C3
330
747D
100
AcDbEntity
  8
部品1
 48
50.0
100
AcDbLine
 10
6028.600000000007
 20
7306.982835086633
 30
0.0
 11
5828.600000000008
 21
7306.982835086633
 31
0.0
  0
LINE
  5
235C4
330
747D
100
AcDbEntity
  8
部品1
 48
50.0
100
AcDbLine
 10
6028.600000000007
 20
7306.982835086633
 30
0.0
 11
6028.600000000007
 21
7506.982835086633
 31
0.0
  0
LINE
  5
235C5
330
747D
100
AcDbEntity
  8
部品1
 48
50.0
100
AcDbLine
 10
5828.600000000008
 20
7306.982835086633
 30
0.0
 11
5828.600000000008
 21
7506.982835086633
 31
0.0
  0
LINE
  5
235C6
330
747D
100
AcDbEntity
  8
センター
 48
2.0
100
AcDbLine
 10
5928.600000000008
 20
7456.982835086633
 30
0.0
 11
5928.600000000008
 21
7356.982835086633
 31
0.0
  0
DIMENSION
  5
235D0
330
747D
100
AcDbEntity
  8
寸法
 48
50.0
100
AcDbDimension
  2
*D45
 10
7842.120515473401
 20
6602.982835086632
 30
0.0
 11
7742.120515473399
 21
7004.982835086633
 31
0.0
 70
    32
 71
     5
 42
804.0
  3
INABA_S40G
100
AcDbAlignedDimension
 13
7558.600000000009
 23
7406.982835086633
 33
0.0
 14
7558.600000000009
 24
6602.982835086632
 34
0.0
 50
90.0
100
AcDbRotatedDimension
1001
ACAD
1000
DSTYLE
1002
{
1070
   341
1005
0
1002
}
  0
LINE
  5
240E9
330
747D
100
AcDbEntity
  8
寸法
 48
50.0
100
AcDbLine
 10
6693.600000000007
 20
6532.982835086634
 30
0.0
 11
6693.600000000007
 21
6248.100679195828
 31
0.0
  0
LINE
  5
240EA
330
747D
100
AcDbEntity
  8
寸法
 48
50.0
100
AcDbLine
 10
7458.600000000008
 20
6532.982835086634
 30
0.0
 11
7458.600000000008
 21
6248.100679195828
 31
0.0
  0
LINE
  5
240EB
330
747D
100
AcDbEntity
  8
寸法
 48
50.0
100
AcDbLine
 10
6693.600000000007
 20
6308.100679195828
 30
0.0
 11
6963.264218235756
 21
6308.100679195828
 31
0.0
  0
INSERT
  5
240EC
330
747D
100
AcDbEntity
  8
寸法
 48
50.0
100
AcDbBlockReference
  2
_DOTSMALL
 10
6693.600000000007
 20
6308.100679195828
 30
0.0
 41
100.0
 42
100.0
 43
100.0
 50
180.0
  0
INSERT
  5
240ED
330
747D
100
AcDbEntity
  8
寸法
 48
50.0
100
AcDbBlockReference
  2
_DOTSMALL
 10
7458.600000000008
 20
6308.100679195828
 30
0.0
 41
100.0
 42
100.0
 43
100.0
  0
MTEXT
  5
240EE
330
747D
100
AcDbEntity
  8
寸法
 62
     7
 48
50.0
100
AcDbMText
 10
6854.520770754774
 20
6408.100679195829
 30
0.0
 40
120.0
 41
0.0
 71
     5
 72
     1
  1
\A1;765
  7
STYLE1
 73
     1
 44
1.0
1001
ACAD
1000
MTEXTBEGIN
1070
    73
1070
     1
1070
    44
1040
1.0
1070
    74
1070
     0
1000
MTEXTEND
  0
MTEXT
  5
240EF
330
747D
100
AcDbEntity
  8
寸法
 62
     7
 48
50.0
100
AcDbMText
 10
7188.468248239988
 20
6408.100679195829
 30
0.0
 40
120.0
 41
0.0
 71
     5
 72
     1
  1
\A1;765
  7
STYLE1
 73
     1
 44
1.0
1001
ACAD
1000
MTEXTBEGIN
1070
    73
1070
     1
1070
    44
1040
1.0
1070
    74
1070
     0
1000
MTEXTEND
  0
LINE
  5
240F0
330
747D
100
AcDbEntity
  8
寸法
 48
50.0
100
AcDbLine
 10
6993.727016592328
 20
6308.100679195828
 30
0.0
 11
7458.600000000008
 21
6308.100679195828
 31
0.0
  0
TEXT
  5
24101
330
747D
100
AcDbEntity
  8
文字
 62
     7
 48
50.0
100
AcDbText
 10
7512.848710232252
 20
4455.556508806629
 30
0.0
 40
200.0
  1
〈参 考 図〉
  7
STYLE2
100
AcDbText
  0
LINE
  5
24117
102
{ACAD_REACTORS
330
2412F
102
}
330
747D
100
AcDbEntity
  8
部品1
 48
50.0
100
AcDbLine
 10
5278.6
 20
5927.982835086655
 30
0.0
 11
5278.6
 21
8087.982835086636
 31
0.0
  0
LINE
  5
24118
102
{ACAD_REACTORS
330
2414A
102
}
330
747D
100
AcDbEntity
  8
部品1
 48
50.0
100
AcDbLine
 10
11168.6
 20
5927.982835086655
 30
0.0
 11
11168.6
 21
8087.982835086636
 31
0.0
  0
HATCH
  5
2412F
330
747D
100
AcDbEntity
  8
細線
 48
50.0
100
AcDbHatch
 10
0.0
 20
0.0
 30
0.0
210
0.0
220
0.0
230
1.0
  2
LINE
 70
     0
 71
     1
 91
        1
 92
        7
 72
     0
 73
     1
 93
        4
 10
5278.6
 20
7067.982835086635
 10
5158.6
 20
7067.982835086636
 10
5158.6
 20
6867.982835086634
 10
5278.6
 20
6867.982835086634
 97
        4
330
2075B
330
1FB23
330
2075A
330
24117
 75
     0
 76
     1
 52
45.0
 41
10.0
 77
     0
 78
     1
 53
45.0
 43
0.0
 44
0.0
 45
-22.45064030267288
 46
22.45064030267288
 79
     0
 47
6.745097979038563
 98
        1
 10
5232.782674146947
 20
6949.494675794617
  0
HATCH
  5
2414A
330
747D
100
AcDbEntity
  8
細線
 48
50.0
100
AcDbHatch
 10
0.0
 20
0.0
 30
0.0
210
0.0
220
0.0
230
1.0
  2
LINE
 70
     0
 71
     1
 91
        1
 92
        7
 72
     0
 73
     1
 93
        4
 10
11288.6
 20
7067.982835086635
 10
11168.6
 20
7067.982835086635
 10
11168.6
 20
6867.982835086634
 10
11288.6
 20
6867.982835086633
 97
        4
330
1FC5C
330
24118
330
1FC5D
330
1FC5B
 75
     0
 76
     1
 52
45.0
 41
10.0
 77
     0
 78
     1
 53
45.0
 43
0.0
 44
0.0
 45
-22.45064030267288
 46
22.45064030267288
 79
     0
 47
6.745097979038566
 98
        1
 10
11237.2827697358
 20
6977.58728834401
  0
SPLINE
  5
244B2
330
747D
100
AcDbEntity
  8
細線
 48
50.0
100
AcDbSpline
210
0.0
220
0.0
230
1.0
 70
     8
 71
     3
 72
    10
 73
     6
 74
     4
 42
0.0000000001
 43
0.0000000001
 44
0.0000000001
 40
0.0
 40
0.0
 40
0.0
 40
0.0
 40
332.7227023522522
 40
679.0704959705574
 40
1049.63607519474
 40
1049.63607519474
 40
1049.63607519474
 40
1049.63607519474
 10
7242.147678768192
 20
7203.604136965774
 30
0.0
 10
7069.163893154812
 20
7183.569161235638
 30
0.0
 10
6716.112585682028
 20
7142.678771702141
 30
0.0
 10
7442.442758056799
 20
6912.00745626362
 30
0.0
 10
7060.296863800708
 20
6870.078506661162
 30
0.0
 10
6862.769352085198
 20
6848.405838687217
 30
0.0
 11
7242.147678768192
 21
7203.604136965774
 31
0.0
 11
6920.762227573461
 21
7117.489164859034
 31
0.0
 11
7220.708215391603
 21
6944.315268049883
 31
0.0
 11
6862.769352085198
 21
6848.405838687217
 31
0.0
  0
LINE
  5
244B3
330
747D
100
AcDbEntity
  8
細線
 48
50.0
100
AcDbLine
 10
7262.375600177081
 20
8557.381942838416
 30
0.0
 11
6852.368683958826
 21
5354.881193545585
 31
0.0
  0
LINE
  5
24991
330
747D
100
AcDbEntity
  8
部品1
100
AcDbLine
 10
11258.93125924259
 20
3338.815441503379
 30
0.0
 11
5187.946073856334
 21
3338.815441503379
 31
0.0
  0
LINE
  5
24992
330
747D
100
AcDbEntity
  8
部品1
100
AcDbLine
 10
11258.93125924258
 20
3098.815441503377
 30
0.0
 11
5187.946073856338
 21
3098.815441503378
 31
0.0
  0
LINE
  5
24993
330
747D
100
AcDbEntity
  8
部品1
100
AcDbLine
 10
5187.946073856339
 20
374.5084719187321
 30
0.0
 11
11258.93125924258
 21
374.5084719187321
 31
0.0
  0
LEADER
  5
24994
330
747D
100
AcDbEntity
  8
寸法
 48
50.0
100
AcDbLeader
  3
INABA_S40G
 73
     0
 74
     0
 75
     1
 40
102.2727272727273
 41
680.0000000000001
 76
     3
 10
8196.053825842792
 20
2416.719102835677
 30
0.0
 10
8240.407796956148
 20
2812.171913942218
 30
0.0
 10
8340.407796956148
 20
2812.171913942218
 30
0.0
1001
ACAD
1000
DSTYLE
1002
{
1070
   174
1070
     0
1070
   272
1070
     1
1070
   279
1070
     1
1070
   288
1070
     0
1070
   341
1005
0
1002
}
  0
MTEXT
  5
24995
102
{ACAD_REACTORS
330
24994
102
}
330
747D
100
AcDbEntity
  8
部品1
 62
     7
 48
50.0
100
AcDbMText
 10
8380.407796956147
 20
2903.308277578582
 30
0.0
 40
80.0
 41
0.8
 71
     4
 72
     1
  1
\A1;ナット(市販品)
  7
STYLE2
 73
     1
 44
1.0
1001
ACAD
1000
MTEXTBEGIN
1070
    73
1070
     1
1070
    44
1040
1.0
1070
    74
1070
     0
1000
MTEXTEND
  0
LEADER
  5
24996
330
747D
100
AcDbEntity
  8
寸法
 48
50.0
100
AcDbLeader
  3
INABA_S40G
 73
     0
 74
     0
 75
     1
 40
102.2727272727273
 41
906.8181818181818
 76
     3
 10
8220.053825842791
 20
2286.967110170814
 30
0.0
 10
8271.92541621163
 20
2627.202831177431
 30
0.0
 10
8371.925416211629
 20
2627.202831177431
 30
0.0
1001
ACAD
1000
DSTYLE
1002
{
1070
   174
1070
     0
1070
   272
1070
     1
1070
   279
1070
     1
1070
   288
1070
     0
1070
   341
1005
0
1002
}
  0
MTEXT
  5
24997
102
{ACAD_REACTORS
330
24996
102
}
330
747D
100
AcDbEntity
  8
部品1
 62
     7
 48
50.0
100
AcDbMText
 10
8411.92541621163
 20
2718.339194813795
 30
0.0
 40
80.0
 41
0.8
 71
     4
 72
     1
  1
\A1;ワッシャー(市販品)
  7
STYLE2
 73
     1
 44
1.0
1001
ACAD
1000
MTEXTBEGIN
1070
    73
1070
     1
1070
    44
1040
1.0
1070
    74
1070
     0
1000
MTEXTEND
  0
LWPOLYLINE
  5
24998
330
747D
100
AcDbEntity
  8
部品1
 48
50.0
100
AcDbPolyline
 90
        2
 70
     0
 43
8.0
 10
8372.653825842791
 20
1777.843821726535
 10
8666.356289242177
 20
1777.843821726535
  0
TEXT
  5
24999
330
747D
100
AcDbEntity
  8
部品1
 48
50.0
100
AcDbText
 10
8377.007410127218
 20
2373.722502488734
 30
0.0
 40
80.0
  1
基礎ボルト(市販品)
  7
STYLE2
100
AcDbText
  0
DIMENSION
  5
2499A
330
747D
100
AcDbEntity
  8
寸法
 48
50.0
100
AcDbDimension
  2
*D46
 10
8874.522425611635
 20
1693.843821726533
 30
0.0
 11
8774.522425611634
 21
1855.843821726535
 31
0.0
 70
    32
  1
180
 71
     5
 42
324.0000000000009
  3
INABA_S40G
100
AcDbAlignedDimension
 13
8372.653825842791
 23
2017.843821726534
 33
0.0
 14
8372.653825842791
 24
1693.843821726533
 34
0.0
 50
90.0
100
AcDbRotatedDimension
1001
ACAD
1000
DSTYLE
1002
{
1070
   174
1070
     0
1070
   272
1070
     1
1070
   279
1070
     1
1070
   288
1070
     0
1070
   341
1005
0
1002
}
  0
DIMENSION
  5
2499B
330
747D
100
AcDbEntity
  8
寸法
 48
50.0
100
AcDbDimension
  2
*D47
 10
8874.522425611635
 20
2017.843821726534
 30
0.0
 11
9150.577091730662
 21
1992.719864122323
 31
0.0
 70
   160
  1
20～25
 71
     5
 42
52.76000000000113
  3
INABA_S40G
100
AcDbAlignedDimension
 13
8185.453825842794
 23
2070.603821726535
 33
0.0
 14
8372.653825842791
 24
2017.843821726534
 34
0.0
 50
90.0
100
AcDbRotatedDimension
1001
ACAD
1000
DSTYLE
1002
{
1070
   174
1070
     0
1070
   272
1070
     1
1070
   279
1070
     1
1070
   288
1070
     0
1070
   341
1005
0
1002
}
  0
MTEXT
  5
2499C
102
{ACAD_REACTORS
330
2499D
102
}
330
747D
100
AcDbEntity
  8
部品1
 62
     7
 48
50.0
100
AcDbMText
 10
8381.598288262109
 20
2282.227147879764
 30
0.0
 40
80.0
 41
0.8
 71
     4
 72
     1
  1
M10X160
  7
STYLE2
 73
     1
 44
1.0
1001
ACAD
1000
MTEXTBEGIN
1070
    73
1070
     1
1070
    44
1040
1.0
1070
    74
1070
     0
1000
MTEXTEND
  0
LEADER
  5
2499D
330
747D
100
AcDbEntity
  8
寸法
 48
50.0
100
AcDbLeader
  3
INABA_S40G
 73
     0
 74
     0
 75
     1
 40
80.0
 41
435.0
 76
     3
 10
8189.05382584279
 20
2067.003821726535
 30
0.0
 10
8241.59828826211
 20
2202.227147879765
 30
0.0
 10
8341.59828826211
 20
2202.227147879765
 30
0.0
1001
ACAD
1000
DSTYLE
1002
{
1070
   174
1070
     0
1070
   272
1070
     1
1070
   279
1070
     1
1070
   288
1070
     0
1070
   341
1005
0
1002
}
  0
LINE
  5
2499E
330
747D
100
AcDbEntity
  8
部品1
100
AcDbLine
 10
5187.946073856336
 20
3338.815441503379
 30
0.0
 11
5187.946073856338
 21
374.5084719187321
 31
0.0
  0
LEADER
  5
2499F
330
747D
100
AcDbEntity
  8
寸法
 48
50.0
100
AcDbLeader
  3
INABA_S40G
 73
     0
 75
     1
 40
113.1818181818182
 41
608.6363636363635
 76
     3
 10
8148.790575980841
 20
1967.359495084813
 30
0.0
 10
8004.986747289494
 20
2803.738577441291
 30
0.0
 10
7904.986747289495
 20
2803.738577441291
 30
0.0
1001
ACAD
1000
DSTYLE
1002
{
1070
   174
1070
     0
1070
   272
1070
     1
1070
   279
1070
     1
1070
   288
1070
     0
1070
   341
1005
0
1002
}
  0
MTEXT
  5
249A0
102
{ACAD_REACTORS
330
2499F
102
}
330
747D
100
AcDbEntity
  8
寸法
 62
     7
 48
50.0
100
AcDbMText
 10
7864.986747289496
 20
2900.3294865322
 30
0.0
 40
80.0
 41
0.8
 71
     6
 72
     1
  1
\A1;φ70スリーブ
  7
STYLE2
 73
     1
 44
1.0
1001
ACAD
1000
MTEXTBEGIN
1070
    73
1070
     1
1070
    44
1040
1.0
1070
    74
1070
     0
1000
MTEXTEND
  0
LWPOLYLINE
  5
249A1
330
747D
100
AcDbEntity
  8
部品1
 48
50.0
100
AcDbPolyline
 90
        2
 70
     0
 43
8.0
 10
5844.474610832642
 20
1777.843821726535
 10
6258.614512665598
 20
1777.843821726535
  0
TEXT
  5
249A2
330
747D
100
AcDbEntity
  8
部品1
 48
50.0
100
AcDbText
 10
5844.474610832642
 20
1789.08281400979
 30
0.0
 40
80.0
  1
▽G.L
  7
STYLE2
100
AcDbText
  0
DIMENSION
  5
249A3
330
747D
100
AcDbEntity
  8
寸法
 48
50.0
100
AcDbDimension
  2
*D48
 10
5988.194198933139
 20
1233.843821726534
 30
0.0
 11
5988.194198933139
 21
1353.843821726534
 31
0.0
 70
   160
  1
150
 71
     5
 42
240.0
  3
INABA_S40G
100
AcDbAlignedDimension
 13
6130.614512665598
 23
1473.843821726534
 33
0.0
 14
6050.614512665602
 24
1233.843821726534
 34
0.0
 50
90.0
100
AcDbRotatedDimension
1001
ACAD
1000
DSTYLE
1002
{
1070
   174
1070
     0
1070
   272
1070
     1
1070
   279
1070
     1
1070
   288
1070
     0
1070
   341
1005
0
1002
}
  0
LEADER
  5
249A4
330
747D
100
AcDbEntity
  8
寸法
 48
50.0
100
AcDbLeader
  3
INABA_S40G
 71
     0
 73
     0
 75
     1
 40
100.0
 41
225.0
 76
     3
 10
6226.517465017741
 20
1353.843821726534
 30
0.0
 10
6079.679486470404
 20
1090.321128108098
 30
0.0
 10
5979.679486470405
 20
1090.321128108098
 30
0.0
1001
ACAD
1000
DSTYLE
1002
{
1070
   174
1070
     0
1070
   272
1070
     1
1070
   279
1070
     1
1070
   288
1070
     0
1070
   341
1005
0
1002
}
  0
LEADER
  5
249A5
330
747D
100
AcDbEntity
  8
寸法
 48
50.0
100
AcDbLeader
  3
INABA_S40G
 71
     0
 73
     0
 75
     1
 40
100.0
 41
222.7272727272727
 76
     3
 10
6354.614512665598
 20
1353.843821726534
 30
0.0
 10
6107.802214027839
 20
910.0049755686546
 30
0.0
 10
6007.802214027839
 20
910.0049755686546
 30
0.0
1001
ACAD
1000
DSTYLE
1002
{
1070
   174
1070
     0
1070
   272
1070
     1
1070
   279
1070
     1
1070
   288
1070
     0
1070
   341
1005
0
1002
}
  0
MTEXT
  5
249A6
102
{ACAD_REACTORS
330
249A7
102
}
330
747D
100
AcDbEntity
  8
寸法
 62
     7
 48
50.0
100
AcDbMText
 10
6169.364458442794
 20
1619.144424543991
 30
0.0
 40
80.0
 41
0.8
 71
     6
 72
     1
  1
\A1;D10@300
  7
STYLE2
 73
     1
 44
1.0
1001
ACAD
1000
MTEXTBEGIN
1070
    73
1070
     1
1070
    44
1040
1.0
1070
    74
1070
     0
1000
MTEXTEND
  0
LEADER
  5
249A7
330
747D
100
AcDbEntity
  8
寸法
 48
50.0
100
AcDbLeader
  3
INABA_S40G
 71
     0
 73
     0
 75
     1
 40
100.0
 41
540.3409090909091
 76
     3
 10
6362.614512665598
 20
1775.971036423657
 30
0.0
 10
6279.632276136901
 20
1554.500707882852
 30
0.0
 10
6179.6322761369
 20
1554.500707882852
 30
0.0
213
-9.732182305893367
223
-4.643716661138569
233
0.0
1001
ACAD
1000
DSTYLE
1002
{
1070
   174
1070
     0
1070
   272
1070
     1
1070
   279
1070
     1
1070
   288
1070
     0
1070
   341
1005
0
1002
}
  0
LEADER
  5
249A8
330
747D
100
AcDbEntity
  8
寸法
 48
50.0
100
AcDbLeader
  3
INABA_S40G
 71
     0
 73
     0
 75
     1
 40
130.1136363636363
 41
651.1363636363636
 76
     3
 10
6338.614512665598
 20
2017.843821726534
 30
0.0
 10
6201.189932501582
 20
2158.314587183122
 30
0.0
 10
6101.189932501582
 20
2158.314587183122
 30
0.0
1001
ACAD
1000
DSTYLE
1002
{
1070
   174
1070
     0
1070
   272
1070
     1
1070
   279
1070
     1
1070
   288
1070
     0
1070
   341
1005
0
1002
}
  0
MTEXT
  5
249A9
102
{ACAD_REACTORS
330
249A8
102
}
330
747D
100
AcDbEntity
  8
寸法
 62
     7
 48
50.0
100
AcDbMText
 10
6038.516033182325
 20
2230.360041728577
 30
0.0
 40
80.0
 41
0.8
 71
     6
 72
     1
  1
\A1;金コテ押エ
  7
STYLE2
 73
     1
 44
1.0
1001
ACAD
1000
MTEXTBEGIN
1070
    73
1070
     1
1070
    44
1040
1.0
1070
    74
1070
     0
1000
MTEXTEND
  0
DIMENSION
  5
249AA
330
747D
100
AcDbEntity
  8
寸法
 48
50.0
100
AcDbDimension
  2
*D49
 10
5523.577274103858
 20
1233.843821726534
 30
0.0
 11
5523.577274103858
 21
1605.383971382535
 31
0.0
 70
   160
  1
540
 71
     5
 42
784.0
  3
INABA_S40G
100
AcDbAlignedDimension
 13
6258.614512665598
 23
2017.843821726534
 33
0.0
 14
6050.614512665602
 24
1233.843821726534
 34
0.0
 50
90.0
100
AcDbRotatedDimension
1001
ACAD
1000
DSTYLE
1002
{
1070
   174
1070
     0
1070
   272
1070
     1
1070
   279
1070
     1
1070
   288
1070
     0
1070
   341
1005
0
1002
}
  0
MTEXT
  5
249AB
102
{ACAD_REACTORS
330
249A5
102
}
330
747D
100
AcDbEntity
  8
寸法
 62
     7
 48
50.0
100
AcDbMText
 10
5987.802214027839
 20
970.0049755686546
 30
0.0
 40
80.0
 41
0.8
 71
     6
 72
     1
  1
D13
  7
STYLE2
 73
     1
 44
1.0
1001
ACAD
1000
MTEXTBEGIN
1070
    73
1070
     1
1070
    44
1040
1.0
1070
    74
1070
     0
1000
MTEXTEND
  0
MTEXT
  5
249AC
102
{ACAD_REACTORS
330
249A4
102
}
330
747D
100
AcDbEntity
  8
寸法
 62
     7
 48
50.0
100
AcDbMText
 10
5959.679486470404
 20
1150.321128108098
 30
0.0
 40
80.0
 41
0.8
 71
     6
 72
     1
  1
D10
  7
STYLE2
 73
     1
 44
1.0
1001
ACAD
1000
MTEXTBEGIN
1070
    73
1070
     1
1070
    44
1040
1.0
1070
    74
1070
     0
1000
MTEXTEND
  0
DIMENSION
  5
249AD
330
747D
100
AcDbEntity
  8
寸法
 48
50.0
100
AcDbDimension
  2
*D50
 10
6578.614512665598
 20
695.4141837213742
 30
0.0
 11
6334.517753987375
 21
695.4141837213742
 31
0.0
 70
   160
  1
300
 71
     5
 42
448.0
  3
INABA_S40G
100
AcDbAlignedDimension
 13
6130.614512665598
 23
1105.843821726534
 33
0.0
 14
6578.614512665598
 24
1105.843821726534
 34
0.0
100
AcDbRotatedDimension
1001
ACAD
1000
DSTYLE
1002
{
1070
   174
1070
     0
1070
   272
1070
     1
1070
   279
1070
     1
1070
   288
1070
     0
1070
   341
1005
0
1002
}
  0
MTEXT
  5
249AE
102
{ACAD_REACTORS
330
249AF
102
}
330
747D
100
AcDbEntity
  8
寸法
 62
     7
 48
50.0
100
AcDbMText
 10
7891.629753497856
 20
2539.645214624686
 30
0.0
 40
80.0
 41
0.8
 71
     6
 72
     1
  1
アンカープレート {\fArial|b0|i0|c0|p32;L}
  7
STYLE2
 73
     1
 44
1.0
1001
ACAD
1000
MTEXTBEGIN
1070
    73
1070
     1
1070
    44
1040
1.0
1070
    74
1070
     0
1000
MTEXTEND
  0
LEADER
  5
249AF
330
747D
100
AcDbEntity
  8
寸法
 48
50.0
100
AcDbLeader
  3
INABA_S40G
 73
     0
 75
     1
 40
106.3636363636363
 41
903.5235024184547
 76
     3
 10
8090.053825842792
 20
2087.403821726536
 30
0.0
 10
8031.629753497854
 20
2446.463396442868
 30
0.0
 10
7931.629753497855
 20
2446.463396442868
 30
0.0
1001
ACAD
1000
DSTYLE
1002
{
1070
   174
1070
     0
1070
   272
1070
     1
1070
   279
1070
     1
1070
   288
1070
     0
1070
   341
1005
0
1002
}
  0
LINE
  5
249B0
330
747D
100
AcDbEntity
  8
細線
 48
50.0
100
AcDbLine
 10
6378.614512665599
 20
1856.216714394365
 30
0.0
 11
6450.614512665599
 21
1928.216714394365
 31
0.0
  0
ARC
  5
249B1
330
747D
100
AcDbEntity
  8
部品1
 48
50.0
100
AcDbCircle
 10
6354.614512665599
 20
1878.09825112078
 30
0.0
 40
24.0
100
AcDbArc
 50
0.0
 51
180.0
  0
CIRCLE
  5
249B2
330
747D
100
AcDbEntity
  8
部品1
 48
50.0
100
AcDbCircle
 10
6354.614512665599
 20
1878.09825112078
 30
0.0
 40
8.0
  0
LINE
  5
249B3
330
747D
100
AcDbEntity
  8
部品1
 48
50.0
100
AcDbLine
 10
6258.614512665599
 20
1473.843821726534
 30
0.0
 11
6258.614512665599
 21
2017.843821726534
 31
0.0
  0
LINE
  5
249B4
330
747D
100
AcDbEntity
  8
部品1
 48
50.0
100
AcDbLine
 10
6450.614512665599
 20
2017.843821726534
 30
0.0
 11
6450.614512665599
 21
1473.843821726534
 31
0.0
  0
MTEXT
  5
249B5
102
{ACAD_REACTORS
330
249BA
102
}
330
747D
100
AcDbEntity
  8
寸法
 62
     7
 48
50.0
100
AcDbMText
 10
6533.500449692994
 20
1879.111383025462
 30
0.0
 40
80.0
 41
0.8
 71
     4
 72
     1
  1
D13
  7
STYLE2
 73
     1
 44
1.0
1001
ACAD
1000
MTEXTBEGIN
1070
    73
1070
     1
1070
    44
1040
1.0
1070
    74
1070
     0
1000
MTEXTEND
  0
LEADER
  5
249B6
330
747D
100
AcDbEntity
  8
寸法
 48
50.0
100
AcDbLeader
  3
INABA_S40G
 71
     0
 73
     0
 74
     0
 75
     1
 40
100.0
 41
225.0
 76
     3
 10
6482.517465017742
 20
1353.843821726534
 30
0.0
 10
6561.942172472284
 20
1258.446752783562
 30
0.0
 10
6661.942172472284
 20
1258.446752783562
 30
0.0
1001
ACAD
1000
DSTYLE
1002
{
1070
   174
1070
     0
1070
   272
1070
     1
1070
   279
1070
     1
1070
   288
1070
     0
1070
   341
1005
0
1002
}
  0
LEADER
  5
249B7
330
747D
100
AcDbEntity
  8
寸法
 48
50.0
100
AcDbLeader
  3
INABA_S40G
 71
     0
 73
     0
 74
     0
 75
     1
 40
100.0
 41
540.3409090909091
 76
     3
 10
6428.559681678773
 20
1337.103291313009
 30
0.0
 10
6572.35296852685
 20
995.4724733181114
 30
0.0
 10
6672.35296852685
 20
995.4724733181114
 30
0.0
213
0.0
223
-1.022262676269383
233
0.0
1001
ACAD
1000
DSTYLE
1002
{
1070
   174
1070
     0
1070
   272
1070
     1
1070
   279
1070
     1
1070
   288
1070
     0
1070
   341
1005
0
1002
}
  0
MTEXT
  5
249B8
102
{ACAD_REACTORS
330
249B6
102
}
330
747D
100
AcDbEntity
  8
寸法
 62
     7
 48
50.0
100
AcDbMText
 10
6681.942172472282
 20
1318.446752783562
 30
0.0
 40
80.0
 41
0.8
 71
     4
 72
     1
  1
D10
  7
STYLE2
 73
     1
 44
1.0
1001
ACAD
1000
MTEXTBEGIN
1070
    73
1070
     1
1070
    44
1040
1.0
1070
    74
1070
     0
1000
MTEXTEND
  0
LWPOLYLINE
  5
249B9
330
747D
100
AcDbEntity
  8
部品1
 48
50.0
100
AcDbPolyline
 90
        2
 70
     0
 43
8.0
 10
6450.614512665598
 20
1777.843821726535
 10
6864.754414498555
 20
1777.843821726535
  0
LEADER
  5
249BA
330
747D
100
AcDbEntity
  8
寸法
 48
50.0
100
AcDbLeader
  3
INABA_S40G
 71
     0
 73
     0
 74
     0
 75
     1
 40
100.0
 41
222.7272727272727
 76
     3
 10
6354.614512665598
 20
1878.09825112078
 30
0.0
 10
6413.500449692993
 20
1819.111383025462
 30
0.0
 10
6513.500449692994
 20
1819.111383025462
 30
0.0
1001
ACAD
1000
DSTYLE
1002
{
1070
   174
1070
     0
1070
   272
1070
     1
1070
   279
1070
     1
1070
   288
1070
     0
1070
   341
1005
0
1002
}
  0
LINE
  5
249BB
330
747D
100
AcDbEntity
  8
細線
 48
50.0
100
AcDbLine
 10
6130.614512665592
 20
1392.690567488705
 30
0.0
 11
6211.767766903427
 21
1473.843821726534
 31
0.0
  0
LINE
  5
249BC
330
747D
100
AcDbEntity
  8
細線
 48
50.0
100
AcDbLine
 10
6338.480360143003
 20
1411.971036423657
 30
0.0
 11
6362.614512665604
 21
1436.105188946255
 31
0.0
  0
LINE
  5
249BD
330
747D
100
AcDbEntity
  8
細線
 48
50.0
100
AcDbLine
 10
6245.412377082672
 20
1345.843821726534
 30
0.0
 11
6362.614512665599
 21
1463.04595730946
 31
0.0
  0
LINE
  5
249BE
330
747D
100
AcDbEntity
  8
部品1
 48
50.0
100
AcDbLine
 10
6130.614512665599
 20
1233.843821726534
 30
0.0
 11
6130.614512665599
 21
1473.843821726534
 31
0.0
  0
LINE
  5
249BF
330
747D
100
AcDbEntity
  8
細線
 48
50.0
100
AcDbLine
 10
6487.879292351543
 20
1345.843821726534
 30
0.0
 11
6578.614512665599
 21
1436.579042040593
 31
0.0
  0
LINE
  5
249C0
330
747D
100
AcDbEntity
  8
細線
 48
50.0
100
AcDbLine
 10
6460.938523988327
 20
1345.843821726534
 30
0.0
 11
6578.614512665599
 21
1463.5198104038
 31
0.0
  0
LINE
  5
249C1
330
747D
100
AcDbEntity
  8
部品1
 48
50.0
100
AcDbLine
 10
6578.614512665599
 20
1473.843821726534
 30
0.0
 11
6578.614512665599
 21
1233.843821726534
 31
0.0
  0
LINE
  5
249C2
330
747D
100
AcDbEntity
  8
部品1
 48
50.0
100
AcDbLine
 10
6378.614512665604
 20
1353.843821726534
 30
0.0
 11
6378.614512665599
 21
1878.09825112078
 31
0.0
  0
LINE
  5
249C3
330
747D
100
AcDbEntity
  8
部品1
 48
50.0
100
AcDbLine
 10
6362.614512665604
 20
1353.843821726534
 30
0.0
 11
6362.614512665592
 21
1878.09825112078
 31
0.0
  0
LINE
  5
249C4
330
747D
100
AcDbEntity
  8
細線
 48
50.0
100
AcDbLine
 10
6346.614512665599
 20
1393.164420583046
 30
0.0
 11
6362.614512665604
 21
1409.164420583046
 31
0.0
  0
LINE
  5
249C5
330
747D
100
AcDbEntity
  8
細線
 48
50.0
100
AcDbLine
 10
6335.797352161613
 20
1105.843821726534
 30
0.0
 11
6370.094848792796
 21
1233.843821726534
 31
0.0
  0
LINE
  5
249C6
330
747D
100
AcDbEntity
  8
部品1
 48
50.0
100
AcDbLine
 10
6658.614512665604
 20
1105.843821726534
 30
0.0
 11
6050.614512665601
 21
1105.843821726534
 31
0.0
  0
LINE
  5
249C7
330
747D
100
AcDbEntity
  8
部品1
 48
50.0
100
AcDbLine
 10
6186.614512665599
 20
1329.843821726534
 30
0.0
 11
6522.614512665599
 21
1329.843821726534
 31
0.0
  0
LINE
  5
249C8
330
747D
100
AcDbEntity
  8
部品1
 48
50.0
100
AcDbLine
 10
6186.614512665599
 20
1345.843821726534
 30
0.0
 11
6522.614512665599
 21
1345.843821726534
 31
0.0
  0
LINE
  5
249C9
330
747D
100
AcDbEntity
  8
部品1
 48
50.0
100
AcDbLine
 10
6658.614512665604
 20
1233.843821726534
 30
0.0
 11
6050.614512665601
 21
1233.843821726534
 31
0.0
  0
CIRCLE
  5
249CA
330
747D
100
AcDbEntity
  8
部品1
 48
50.0
100
AcDbCircle
 10
6354.614512665599
 20
1353.843821726534
 30
0.0
 40
8.0
  0
LINE
  5
249CB
330
747D
100
AcDbEntity
  8
細線
 48
50.0
100
AcDbLine
 10
6348.938523988333
 20
1233.843821726534
 30
0.0
 11
6444.938523988333
 21
1329.843821726534
 31
0.0
  0
LINE
  5
249CC
330
747D
100
AcDbEntity
  8
細線
 48
50.0
100
AcDbLine
 10
6178.021262267115
 20
1105.843821726534
 30
0.0
 11
6212.318758898298
 21
1233.843821726534
 31
0.0
  0
LINE
  5
249CD
330
747D
100
AcDbEntity
  8
細線
 48
50.0
100
AcDbLine
 10
6256.90930721436
 20
1105.843821726532
 30
0.0
 11
6291.206803845543
 21
1233.843821726532
 31
0.0
  0
LINE
  5
249CE
330
747D
100
AcDbEntity
  8
細線
 48
50.0
100
AcDbLine
 10
6099.133217319857
 20
1105.843821726532
 30
0.0
 11
6133.43071395104
 21
1233.843821726532
 31
0.0
  0
LINE
  5
249CF
330
747D
100
AcDbEntity
  8
部品1
 48
50.0
100
AcDbLine
 10
6050.614512665601
 20
1105.843821726534
 30
0.0
 11
6050.614512665601
 21
1233.843821726534
 31
0.0
  0
LINE
  5
249D0
330
747D
100
AcDbEntity
  8
細線
 48
50.0
100
AcDbLine
 10
6184.452042885461
 20
1129.843821726534
 30
0.0
 11
6190.882823503809
 21
1105.843821726534
 31
0.0
  0
LINE
  5
249D1
330
747D
100
AcDbEntity
  8
細線
 48
50.0
100
AcDbLine
 10
6105.563997938211
 20
1129.843821726534
 30
0.0
 11
6111.994778556557
 21
1105.843821726534
 31
0.0
  0
LINE
  5
249D2
330
747D
100
AcDbEntity
  8
細線
 48
50.0
100
AcDbLine
 10
6342.228132779966
 20
1129.843821726534
 30
0.0
 11
6348.658913398312
 21
1105.843821726534
 31
0.0
  0
LINE
  5
249D3
330
747D
100
AcDbEntity
  8
細線
 48
50.0
100
AcDbLine
 10
6263.340087832713
 20
1129.843821726534
 30
0.0
 11
6269.77086845106
 21
1105.843821726534
 31
0.0
  0
LINE
  5
249D4
330
747D
100
AcDbEntity
  8
細線
 48
50.0
100
AcDbLine
 10
6160.353145445882
 20
1233.843821726534
 30
0.0
 11
6256.353145445882
 21
1329.843821726534
 31
0.0
  0
LINE
  5
249D5
330
747D
100
AcDbEntity
  8
細線
 48
50.0
100
AcDbLine
 10
6133.412377082672
 20
1233.843821726534
 30
0.0
 11
6229.412377082672
 21
1329.843821726534
 31
0.0
  0
LINE
  5
249D6
330
747D
100
AcDbEntity
  8
部品1
 48
50.0
100
AcDbLine
 10
6186.614512665599
 20
1345.843821726534
 30
0.0
 11
6186.614512665599
 21
1329.843821726534
 31
0.0
  0
LINE
  5
249D7
330
747D
100
AcDbEntity
  8
細線
 48
50.0
100
AcDbLine
 10
6126.9999333327
 20
1209.843821726534
 30
0.0
 11
6120.569152714352
 21
1233.843821726534
 31
0.0
  0
LINE
  5
249D8
330
747D
100
AcDbEntity
  8
細線
 48
50.0
100
AcDbLine
 10
6050.6145126656
 20
1219.183742692314
 30
0.0
 11
6054.542669003795
 21
1233.843821726534
 31
0.0
  0
LINE
  5
249D9
330
747D
100
AcDbEntity
  8
部品1
 48
50.0
100
AcDbLine
 10
6346.614512665599
 20
1411.971036423657
 30
0.0
 11
6330.614512665599
 21
1411.971036423657
 31
0.0
  0
CIRCLE
  5
249DA
330
747D
100
AcDbEntity
  8
部品1
 48
50.0
100
AcDbCircle
 10
6226.614512665599
 20
1353.843821726534
 30
0.0
 40
8.0
  0
LINE
  5
249DB
330
747D
100
AcDbEntity
  8
細線
 48
50.0
100
AcDbLine
 10
6299.293913809088
 20
1345.843821726534
 30
0.0
 11
6330.614512665599
 21
1377.164420583046
 31
0.0
  0
ARC
  5
249DC
330
747D
100
AcDbEntity
  8
部品1
 48
50.0
100
AcDbCircle
 10
6354.614512665599
 20
1353.843821726534
 30
0.0
 40
24.0
100
AcDbArc
 50
180.0
 51
199.4712206344805
  0
LINE
  5
249DD
330
747D
100
AcDbEntity
  8
細線
 48
50.0
100
AcDbLine
 10
6205.88797827995
 20
1209.843821726534
 30
0.0
 11
6199.457197661605
 21
1233.843821726534
 31
0.0
  0
LINE
  5
249DE
330
747D
100
AcDbEntity
  8
細線
 48
50.0
100
AcDbLine
 10
6284.776023227203
 20
1209.843821726534
 30
0.0
 11
6278.345242608857
 21
1233.843821726534
 31
0.0
  0
LINE
  5
249DF
330
747D
100
AcDbEntity
  8
細線
 48
50.0
100
AcDbLine
 10
6187.293913809088
 20
1233.843821726534
 30
0.0
 11
6283.293913809088
 21
1329.843821726534
 31
0.0
  0
LINE
  5
249E0
330
747D
100
AcDbEntity
  8
部品1
 48
50.0
100
AcDbLine
 10
6330.614512665599
 20
1411.971036423657
 30
0.0
 11
6330.614512665599
 21
1353.843821726534
 31
0.0
  0
LINE
  5
249E1
330
747D
100
AcDbEntity
  8
細線
 48
50.0
100
AcDbLine
 10
6272.353145445883
 20
1345.843821726534
 30
0.0
 11
6330.614512665599
 21
1404.105188946252
 31
0.0
  0
LINE
  5
249E2
330
747D
100
AcDbEntity
  8
部品1
 48
50.0
100
AcDbLine
 10
6346.614512665599
 20
1411.971036423657
 30
0.0
 11
6346.614512665599
 21
1353.843821726534
 31
0.0
  0
LINE
  5
249E3
330
747D
100
AcDbEntity
  8
部品1
 48
50.0
100
AcDbLine
 10
6658.614512665604
 20
1233.843821726534
 30
0.0
 11
6658.614512665604
 21
1105.843821726534
 31
0.0
  0
LINE
  5
249E4
330
747D
100
AcDbEntity
  8
細線
 48
50.0
100
AcDbLine
 10
6572.461487003353
 20
1105.843821726534
 30
0.0
 11
6606.758983634538
 21
1233.843821726532
 31
0.0
  0
LINE
  5
249E5
330
747D
100
AcDbEntity
  8
細線
 48
50.0
100
AcDbLine
 10
6414.685397108859
 20
1105.843821726534
 30
0.0
 11
6448.982893740046
 21
1233.843821726532
 31
0.0
  0
LINE
  5
249E6
330
747D
100
AcDbEntity
  8
細線
 48
50.0
100
AcDbLine
 10
6493.573442056107
 20
1105.843821726532
 30
0.0
 11
6527.870938687292
 21
1233.843821726532
 31
0.0
  0
LINE
  5
249E7
330
747D
100
AcDbEntity
  8
細線
 48
50.0
100
AcDbLine
 10
6500.004222674457
 20
1129.843821726534
 30
0.0
 11
6506.435003292804
 21
1105.843821726534
 31
0.0
  0
LINE
  5
249E8
330
747D
100
AcDbEntity
  8
細線
 48
50.0
100
AcDbLine
 10
6421.116177727212
 20
1129.843821726534
 30
0.0
 11
6427.546958345558
 21
1105.843821726534
 31
0.0
  0
LINE
  5
249E9
330
747D
100
AcDbEntity
  8
細線
 48
50.0
100
AcDbLine
 10
6578.892267621704
 20
1129.843821726534
 30
0.0
 11
6585.323048240052
 21
1105.843821726534
 31
0.0
  0
LINE
  5
249EA
330
747D
100
AcDbEntity
  8
細線
 48
50.0
100
AcDbLine
 10
6657.780312568951
 20
1129.843821726534
 30
0.0
 11
6658.614512665599
 21
1126.73054458217
 31
0.0
  0
LINE
  5
249EB
330
747D
100
AcDbEntity
  8
細線
 48
50.0
100
AcDbLine
 10
6651.349531950602
 20
1105.843821726532
 30
0.0
 11
6658.614512665599
 21
1132.957098870922
 31
0.0
  0
LINE
  5
249EC
330
747D
100
AcDbEntity
  8
細線
 48
50.0
100
AcDbLine
 10
6514.820060714746
 20
1345.843821726534
 30
0.0
 11
6578.614512665599
 21
1409.638273677385
 31
0.0
  0
CIRCLE
  5
249ED
330
747D
100
AcDbEntity
  8
部品1
 48
50.0
100
AcDbCircle
 10
6482.614512665598
 20
1353.843821726534
 30
0.0
 40
8.0
  0
ARC
  5
249EE
330
747D
100
AcDbEntity
  8
部品1
 48
50.0
100
AcDbCircle
 10
6354.614512665599
 20
1353.843821726534
 30
0.0
 40
24.0
100
AcDbArc
 50
340.5287793655195
 51
0.0
  0
LINE
  5
249EF
330
747D
100
AcDbEntity
  8
細線
 48
50.0
100
AcDbLine
 10
6363.664068174456
 20
1209.843821726534
 30
0.0
 11
6357.233287556108
 21
1233.843821726534
 31
0.0
  0
LINE
  5
249F0
330
747D
100
AcDbEntity
  8
細線
 48
50.0
100
AcDbLine
 10
6442.552113121701
 20
1209.843821726534
 30
0.0
 11
6436.121332503354
 21
1233.843821726534
 31
0.0
  0
LINE
  5
249F1
330
747D
100
AcDbEntity
  8
細線
 48
50.0
100
AcDbLine
 10
6375.879292351543
 20
1233.843821726534
 30
0.0
 11
6471.879292351544
 21
1329.843821726534
 31
0.0
  0
LINE
  5
249F2
330
747D
100
AcDbEntity
  8
細線
 48
50.0
100
AcDbLine
 10
6402.820060714747
 20
1233.843821726534
 30
0.0
 11
6498.820948559885
 21
1329.844709571673
 31
0.0
  0
LINE
  5
249F3
330
747D
100
AcDbEntity
  8
部品1
 48
50.0
100
AcDbLine
 10
6522.614512665599
 20
1345.843821726534
 30
0.0
 11
6522.614512665599
 21
1329.843821726534
 31
0.0
  0
LINE
  5
249F4
330
747D
100
AcDbEntity
  8
細線
 48
50.0
100
AcDbLine
 10
6600.328203016194
 20
1209.843821726534
 30
0.0
 11
6593.897422397846
 21
1233.843821726534
 31
0.0
  0
LINE
  5
249F5
330
747D
100
AcDbEntity
  8
細線
 48
50.0
100
AcDbLine
 10
6564.464670893993
 20
1233.843821726534
 30
0.0
 11
6578.614512665599
 21
1247.993663498141
 31
0.0
  0
LINE
  5
249F6
330
747D
100
AcDbEntity
  8
細線
 48
50.0
100
AcDbLine
 10
6521.440158068947
 20
1209.843821726534
 30
0.0
 11
6515.0093774506
 21
1233.843821726534
 31
0.0
  0
LINE
  5
249F7
330
747D
100
AcDbEntity
  8
細線
 48
50.0
100
AcDbLine
 10
6258.614512665599
 20
1547.631335851912
 30
0.0
 11
6362.614512665604
 21
1651.631335851915
 31
0.0
  0
LINE
  5
249F8
330
747D
100
AcDbEntity
  8
細線
 48
50.0
100
AcDbLine
 10
6258.614512665599
 20
1574.57210421512
 30
0.0
 11
6362.614512665599
 21
1678.57210421512
 31
0.0
  0
LINE
  5
249F9
330
747D
100
AcDbEntity
  8
細線
 48
50.0
100
AcDbLine
 10
6258.614512665599
 20
1520.690567488705
 30
0.0
 11
6362.614512665604
 21
1624.690567488705
 31
0.0
  0
LINE
  5
249FA
330
747D
100
AcDbEntity
  8
細線
 48
50.0
100
AcDbLine
 10
6346.614512665599
 20
1824.216714394365
 30
0.0
 11
6362.614512665599
 21
1840.216714394365
 31
0.0
  0
LINE
  5
249FB
330
747D
100
AcDbEntity
  8
細線
 48
50.0
100
AcDbLine
 10
6346.614512665599
 20
1851.157482757572
 30
0.0
 11
6362.614512665599
 21
1867.157482757572
 31
0.0
  0
LINE
  5
249FC
330
747D
100
AcDbEntity
  8
部品1
 48
50.0
100
AcDbLine
 10
6130.614512665599
 20
1473.843821726534
 30
0.0
 11
6258.614512665599
 21
1473.843821726534
 31
0.0
  0
LINE
  5
249FD
330
747D
100
AcDbEntity
  8
細線
 48
50.0
100
AcDbLine
 10
6130.614512665592
 20
1419.631335851909
 30
0.0
 11
6184.826998540223
 21
1473.843821726534
 31
0.0
  0
LINE
  5
249FE
330
747D
100
AcDbEntity
  8
細線
 48
50.0
100
AcDbLine
 10
6130.614512665592
 20
1446.57210421512
 30
0.0
 11
6157.886230177013
 21
1473.843821726534
 31
0.0
  0
LINE
  5
249FF
330
747D
100
AcDbEntity
  8
部品1
 48
50.0
100
AcDbLine
 10
6346.614512665599
 20
1819.971036423656
 30
0.0
 11
6330.614512665599
 21
1819.97103642366
 31
0.0
  0
LINE
  5
24A00
330
747D
100
AcDbEntity
  8
細線
 48
50.0
100
AcDbLine
 10
6258.614512665599
 20
1736.216714394364
 30
0.0
 11
6342.368834694893
 21
1819.971036423656
 31
0.0
  0
LINE
  5
24A01
330
747D
100
AcDbEntity
  8
細線
 48
50.0
100
AcDbLine
 10
6258.614512665599
 20
1763.157482757572
 30
0.0
 11
6330.614512665599
 21
1835.157482757572
 31
0.0
  0
LINE
  5
24A02
330
747D
100
AcDbEntity
  8
部品1
 48
50.0
100
AcDbLine
 10
6330.614512665599
 20
1819.97103642366
 30
0.0
 11
6330.614512665599
 21
1878.09825112078
 31
0.0
  0
LINE
  5
24A03
330
747D
100
AcDbEntity
  8
細線
 48
50.0
100
AcDbLine
 10
6258.614512665599
 20
1790.09825112078
 30
0.0
 11
6330.614512665599
 21
1862.09825112078
 31
0.0
  0
LINE
  5
24A04
330
747D
100
AcDbEntity
  8
部品1
 48
50.0
100
AcDbLine
 10
6346.614512665599
 20
1819.971036423656
 30
0.0
 11
6346.614512665599
 21
1878.09825112078
 31
0.0
  0
LINE
  5
24A05
330
747D
100
AcDbEntity
  8
細線
 48
50.0
100
AcDbLine
 10
6378.614512665604
 20
1640.690567488705
 30
0.0
 11
6450.614512665592
 21
1712.690567488705
 31
0.0
  0
LINE
  5
24A06
330
747D
100
AcDbEntity
  8
部品1
 48
50.0
100
AcDbLine
 10
6450.614512665599
 20
1473.843821726534
 30
0.0
 11
6578.614512665599
 21
1473.843821726534
 31
0.0
  0
LINE
  5
24A07
330
747D
100
AcDbEntity
  8
細線
 48
50.0
100
AcDbLine
 10
6378.614512665604
 20
1452.105188946255
 30
0.0
 11
6450.614512665592
 21
1524.10518894625
 31
0.0
  0
LINE
  5
24A08
330
747D
100
AcDbEntity
  8
細線
 48
50.0
100
AcDbLine
 10
6378.614512665604
 20
1479.045957309464
 30
0.0
 11
6450.614512665592
 21
1551.04595730946
 31
0.0
  0
LINE
  5
24A09
330
747D
100
AcDbEntity
  8
細線
 48
50.0
100
AcDbLine
 10
6378.614512665604
 20
1425.164420583046
 30
0.0
 11
6450.614512665592
 21
1497.164420583046
 31
0.0
  0
LINE
  5
24A0A
330
747D
100
AcDbEntity
  8
細線
 48
50.0
100
AcDbLine
 10
6378.614512665599
 20
1694.57210421512
 30
0.0
 11
6450.614512665599
 21
1766.57210421512
 31
0.0
  0
LINE
  5
24A0B
330
747D
100
AcDbEntity
  8
細線
 48
50.0
100
AcDbLine
 10
6378.614512665604
 20
1667.631335851915
 30
0.0
 11
6450.614512665592
 21
1739.63133585191
 31
0.0
  0
MTEXT
  5
24A0C
102
{ACAD_REACTORS
330
249B7
102
}
330
747D
100
AcDbEntity
  8
寸法
 62
     7
 48
50.0
100
AcDbMText
 10
6692.352968526849
 20
1056.494735994381
 30
0.0
 40
80.0
 41
0.8
 71
     4
 72
     1
  1
\A1;D10@300
  7
STYLE2
 73
     1
 44
1.0
1001
ACAD
1000
MTEXTBEGIN
1070
    73
1070
     1
1070
    44
1040
1.0
1070
    74
1070
     0
1000
MTEXTEND
  0
DIMENSION
  5
24A0D
330
747D
100
AcDbEntity
  8
寸法
 48
50.0
100
AcDbDimension
  2
*D51
 10
6258.614512665598
 20
2337.843821726535
 30
0.0
 11
6365.840843010796
 21
2437.511629642915
 31
0.0
 70
   160
  1
120\P200\P280
 71
     5
 42
192.0
  3
INABA_S40G
100
AcDbAlignedDimension
 13
6450.614512665598
 23
2017.843821726534
 33
0.0
 14
6258.614512665598
 24
2017.843821726534
 34
0.0
100
AcDbRotatedDimension
1001
ACAD
1000
DSTYLE
1002
{
1070
   174
1070
     0
1070
   272
1070
     1
1070
   279
1070
     1
1070
   288
1070
     0
1070
   341
1005
0
1002
}
  0
LINE
  5
24A0E
330
747D
100
AcDbEntity
  8
部品1
 48
50.0
100
AcDbLine
 10
6258.614512665599
 20
2017.843821726534
 30
0.0
 11
6450.614512665599
 21
2017.843821726534
 31
0.0
  0
LINE
  5
24A0F
330
747D
100
AcDbEntity
  8
細線
 48
50.0
100
AcDbLine
 10
6258.614512665599
 20
1978.683629663232
 30
0.0
 11
6297.774704728904
 21
2017.843821726534
 31
0.0
  0
LINE
  5
24A10
330
747D
100
AcDbEntity
  8
細線
 48
50.0
100
AcDbLine
 10
6258.614512665599
 20
1951.742861300024
 30
0.0
 11
6324.715473092108
 21
2017.843821726534
 31
0.0
  0
LINE
  5
24A11
330
747D
100
AcDbEntity
  8
細線
 48
50.0
100
AcDbLine
 10
6258.614512665599
 20
2005.624398026439
 30
0.0
 11
6270.833936365693
 21
2017.843821726534
 31
0.0
  0
LINE
  5
24A12
330
747D
100
AcDbEntity
  8
細線
 48
50.0
100
AcDbLine
 10
6378.167219931586
 20
1882.710190023556
 30
0.0
 11
6450.614512665599
 21
1955.157482757572
 31
0.0
  0
LINE
  5
24A13
330
747D
100
AcDbEntity
  8
細線
 48
50.0
100
AcDbLine
 10
6367.106935168069
 20
1898.59067362325
 30
0.0
 11
6450.614512665599
 21
1982.09825112078
 31
0.0
  0
LINE
  5
24A14
330
747D
100
AcDbEntity
  8
細線
 48
50.0
100
AcDbLine
 10
8243.053825842796
 20
1858.972104215123
 30
0.0
 11
8372.653825842791
 21
1988.572104215121
 31
0.0
  0
LINE
  5
24A15
330
747D
100
AcDbEntity
  8
部品1
100
AcDbLine
 10
8372.653825842791
 20
1473.843821726534
 30
0.0
 11
8372.653825842791
 21
2017.843821726534
 31
0.0
  0
LINE
  5
24A16
330
747D
100
AcDbEntity
  8
部品1
 48
50.0
100
AcDbLine
 10
7958.653825842794
 20
1473.843821726534
 30
0.0
 11
7958.653825842794
 21
2017.843821726534
 31
0.0
  0
LINE
  5
24A17
330
747D
100
AcDbEntity
  8
細線
 48
50.0
100
AcDbLine
 10
7958.653825842794
 20
1790.09825112078
 30
0.0
 11
8117.053825842791
 21
1948.498251120777
 31
0.0
  0
LINE
  5
24A18
330
747D
100
AcDbEntity
  8
細線
 48
50.0
100
AcDbLine
 10
7958.653825842794
 20
1763.157482757572
 30
0.0
 11
8117.053825842791
 21
1921.55748275757
 31
0.0
  0
LINE
  5
24A19
330
747D
100
AcDbEntity
  8
細線
 48
50.0
100
AcDbLine
 10
7958.653825842794
 20
1736.216714394364
 30
0.0
 11
8117.053825842788
 21
1894.616714394357
 31
0.0
  0
TEXT
  5
24A1A
330
747D
100
AcDbEntity
  8
部品1
 48
50.0
100
AcDbText
 10
7544.513924009837
 20
1789.08281400979
 30
0.0
 40
80.0
  1
▽G.L
  7
STYLE2
100
AcDbText
  0
LINE
  5
24A1B
330
747D
100
AcDbEntity
  8
部品1
100
AcDbLine
 10
8189.05382584279
 20
1792.843821726534
 30
0.0
 11
8189.053825842789
 21
2067.003821726535
 31
0.0
  0
LINE
  5
24A1C
330
747D
100
AcDbEntity
  8
部品1
100
AcDbLine
 10
8171.053825842792
 20
1792.843821726534
 30
0.0
 11
8171.053825842788
 21
2067.003821726535
 31
0.0
  0
LINE
  5
24A1D
330
747D
100
AcDbEntity
  8
細線
 48
50.0
100
AcDbLine
 10
8243.053825842796
 20
1805.090567488693
 30
0.0
 11
8372.653825842791
 21
1934.690567488684
 31
0.0
  0
LINE
  5
24A1E
330
747D
100
AcDbEntity
  8
細線
 48
50.0
100
AcDbLine
 10
8243.053825842796
 20
1832.031335851905
 30
0.0
 11
8372.653825842791
 21
1961.631335851902
 31
0.0
  0
LINE
  5
24A1F
330
747D
100
AcDbEntity
  8
部品1
100
AcDbLine
 10
8243.053825842791
 20
1693.843821726534
 30
0.0
 11
8243.053825842791
 21
2017.843821726534
 31
0.0
  0
LINE
  5
24A20
330
747D
100
AcDbEntity
  8
部品1
100
AcDbLine
 10
8117.053825842788
 20
1693.843821726534
 30
0.0
 11
8117.053825842791
 21
2017.843821726534
 31
0.0
  0
LINE
  5
24A21
330
747D
100
AcDbEntity
  8
細線
 48
50.0
100
AcDbLine
 10
7958.653825842794
 20
1547.631335851912
 30
0.0
 11
8117.053825842784
 21
1706.031335851901
 31
0.0
  0
LINE
  5
24A22
330
747D
100
AcDbEntity
  8
細線
 48
50.0
100
AcDbLine
 10
7958.653825842794
 20
1520.690567488705
 30
0.0
 11
8131.807080080626
 21
1693.843821726532
 31
0.0
  0
LINE
  5
24A23
330
747D
100
AcDbEntity
  8
細線
 48
50.0
100
AcDbLine
 10
7958.653825842794
 20
1574.57210421512
 30
0.0
 11
8117.053825842784
 21
1732.972104215116
 31
0.0
  0
LINE
  5
24A24
330
747D
100
AcDbEntity
  8
細線
 48
50.0
100
AcDbLine
 10
7887.33322698628
 20
1233.843821726534
 30
0.0
 11
8372.653825842791
 21
1719.164420583042
 31
0.0
  0
LINE
  5
24A25
330
747D
100
AcDbEntity
  8
細線
 48
50.0
100
AcDbLine
 10
7860.392458623074
 20
1233.843821726534
 30
0.0
 11
8372.653825842794
 21
1746.105188946248
 31
0.0
  0
LINE
  5
24A26
330
747D
100
AcDbEntity
  8
細線
 48
50.0
100
AcDbLine
 10
7833.451690259868
 20
1233.843821726534
 30
0.0
 11
8372.653825842791
 21
1773.04595730946
 31
0.0
  0
LINE
  5
24A27
330
747D
100
AcDbEntity
  8
部品1
 48
50.0
100
AcDbLine
 10
8580.653825842793
 20
1233.843821726534
 30
0.0
 11
7750.653825842795
 21
1233.843821726534
 31
0.0
  0
LINE
  5
24A28
330
747D
100
AcDbEntity
  8
部品1
 48
50.0
100
AcDbLine
 10
8580.653825842793
 20
1105.843821726534
 30
0.0
 11
7750.653825842795
 21
1105.843821726534
 31
0.0
  0
LINE
  5
24A29
330
747D
100
AcDbEntity
  8
細線
 48
50.0
100
AcDbLine
 10
7830.653825842787
 20
1392.690567488705
 30
0.0
 11
7911.807080080619
 21
1473.843821726534
 31
0.0
  0
LINE
  5
24A2A
330
747D
100
AcDbEntity
  8
部品1
 48
50.0
100
AcDbLine
 10
7830.653825842794
 20
1233.843821726534
 30
0.0
 11
7830.653825842794
 21
1473.843821726534
 31
0.0
  0
LINE
  5
24A2B
330
747D
100
AcDbEntity
  8
細線
 48
50.0
100
AcDbLine
 10
7878.06057544431
 20
1105.843821726534
 30
0.0
 11
7912.358072075491
 21
1233.843821726534
 31
0.0
  0
LINE
  5
24A2C
330
747D
100
AcDbEntity
  8
部品1
 48
50.0
100
AcDbLine
 10
7750.653825842795
 20
1105.843821726534
 30
0.0
 11
7750.653825842795
 21
1233.843821726534
 31
0.0
  0
LINE
  5
24A2D
330
747D
100
AcDbEntity
  8
細線
 48
50.0
100
AcDbLine
 10
7799.17253049705
 20
1105.843821726532
 30
0.0
 11
7833.470027128235
 21
1233.843821726532
 31
0.0
  0
LINE
  5
24A2E
330
747D
100
AcDbEntity
  8
細線
 48
50.0
100
AcDbLine
 10
7956.948620391554
 20
1105.843821726532
 30
0.0
 11
7991.246117022736
 21
1233.843821726532
 31
0.0
  0
LINE
  5
24A2F
330
747D
100
AcDbEntity
  8
細線
 48
50.0
100
AcDbLine
 10
7805.603311115404
 20
1129.843821726534
 30
0.0
 11
7812.03409173375
 21
1105.843821726534
 31
0.0
  0
LINE
  5
24A30
330
747D
100
AcDbEntity
  8
細線
 48
50.0
100
AcDbLine
 10
7963.379401009908
 20
1129.843821726534
 30
0.0
 11
7969.810181628254
 21
1105.843821726534
 31
0.0
  0
LINE
  5
24A31
330
747D
100
AcDbEntity
  8
細線
 48
50.0
100
AcDbLine
 10
7884.491356062655
 20
1129.843821726534
 30
0.0
 11
7890.922136681002
 21
1105.843821726534
 31
0.0
  0
LINE
  5
24A32
330
747D
100
AcDbEntity
  8
細線
 48
50.0
100
AcDbLine
 10
7750.653825842793
 20
1219.183742692314
 30
0.0
 11
7754.581982180988
 21
1233.843821726534
 31
0.0
  0
LINE
  5
24A33
330
747D
100
AcDbEntity
  8
細線
 48
50.0
100
AcDbLine
 10
7827.039246509894
 20
1209.843821726534
 30
0.0
 11
7820.608465891547
 21
1233.843821726534
 31
0.0
  0
LINE
  5
24A34
330
747D
100
AcDbEntity
  8
細線
 48
50.0
100
AcDbLine
 10
7984.815336404398
 20
1209.843821726534
 30
0.0
 11
7978.384555786051
 21
1233.843821726534
 31
0.0
  0
LINE
  5
24A35
330
747D
100
AcDbEntity
  8
細線
 48
50.0
100
AcDbLine
 10
7905.927291457145
 20
1209.843821726534
 30
0.0
 11
7899.496510838798
 21
1233.843821726534
 31
0.0
  0
LWPOLYLINE
  5
24A36
330
747D
100
AcDbEntity
  8
部品1
 48
50.0
100
AcDbPolyline
 90
        2
 70
     0
 43
8.0
 10
7544.513924009837
 20
1777.843821726535
 10
7958.653825842794
 20
1777.843821726535
  0
LINE
  5
24A37
330
747D
100
AcDbEntity
  8
細線
 48
50.0
100
AcDbLine
 10
7830.653825842787
 20
1419.631335851909
 30
0.0
 11
7884.866311717418
 21
1473.843821726534
 31
0.0
  0
LINE
  5
24A38
330
747D
100
AcDbEntity
  8
部品1
 48
50.0
100
AcDbLine
 10
7830.653825842794
 20
1473.843821726534
 30
0.0
 11
7958.653825842794
 21
1473.843821726534
 31
0.0
  0
LINE
  5
24A39
330
747D
100
AcDbEntity
  8
細線
 48
50.0
100
AcDbLine
 10
7830.653825842787
 20
1446.57210421512
 30
0.0
 11
7857.925543354205
 21
1473.843821726534
 31
0.0
  0
LINE
  5
24A3A
330
747D
100
AcDbEntity
  8
細線
 48
50.0
100
AcDbLine
 10
8075.918605528736
 20
1233.843821726534
 30
0.0
 11
8372.653825842791
 21
1530.579042040587
 31
0.0
  0
LINE
  5
24A3B
330
747D
100
AcDbEntity
  8
細線
 48
50.0
100
AcDbLine
 10
8102.859373891941
 20
1233.843821726534
 30
0.0
 11
8372.653825842791
 21
1503.638273677391
 31
0.0
  0
LINE
  5
24A3C
330
747D
100
AcDbEntity
  8
細線
 48
50.0
100
AcDbLine
 10
8048.977837165526
 20
1233.843821726534
 30
0.0
 11
8372.653825842791
 21
1557.5198104038
 31
0.0
  0
LINE
  5
24A3D
330
747D
100
AcDbEntity
  8
細線
 48
50.0
100
AcDbLine
 10
8264.503984071188
 20
1233.843821726534
 30
0.0
 11
8500.653825842789
 21
1469.993663498143
 31
0.0
  0
LINE
  5
24A3E
330
747D
100
AcDbEntity
  8
細線
 48
50.0
100
AcDbLine
 10
8291.444752434395
 20
1233.843821726534
 30
0.0
 11
8500.653825842789
 21
1443.052895134927
 31
0.0
  0
LINE
  5
24A3F
330
747D
100
AcDbEntity
  8
部品1
 48
50.0
100
AcDbLine
 10
8500.653825842789
 20
1473.843821726534
 30
0.0
 11
8500.653825842789
 21
1233.843821726534
 31
0.0
  0
LINE
  5
24A40
330
747D
100
AcDbEntity
  8
細線
 48
50.0
100
AcDbLine
 10
8318.385520797601
 20
1233.843821726534
 30
0.0
 11
8500.653825842789
 21
1416.11212677173
 31
0.0
  0
LINE
  5
24A41
330
747D
100
AcDbEntity
  8
細線
 48
50.0
100
AcDbLine
 10
8193.612755233301
 20
1105.843821726532
 30
0.0
 11
8227.910251864484
 21
1233.843821726532
 31
0.0
  0
LINE
  5
24A42
330
747D
100
AcDbEntity
  8
細線
 48
50.0
100
AcDbLine
 10
8035.836665338807
 20
1105.843821726534
 30
0.0
 11
8070.134161969988
 21
1233.843821726534
 31
0.0
  0
LINE
  5
24A43
330
747D
100
AcDbEntity
  8
細線
 48
50.0
100
AcDbLine
 10
8114.724710286052
 20
1105.843821726534
 30
0.0
 11
8149.022206917237
 21
1233.843821726532
 31
0.0
  0
LINE
  5
24A44
330
747D
100
AcDbEntity
  8
細線
 48
50.0
100
AcDbLine
 10
8272.500800180543
 20
1105.843821726534
 30
0.0
 11
8306.798296811729
 21
1233.843821726532
 31
0.0
  0
LINE
  5
24A45
330
747D
100
AcDbEntity
  8
細線
 48
50.0
100
AcDbLine
 10
8121.155490904406
 20
1129.843821726534
 30
0.0
 11
8127.586271522751
 21
1105.843821726534
 31
0.0
  0
LINE
  5
24A46
330
747D
100
AcDbEntity
  8
細線
 48
50.0
100
AcDbLine
 10
8042.267445957161
 20
1129.843821726534
 30
0.0
 11
8048.698226575508
 21
1105.843821726534
 31
0.0
  0
LINE
  5
24A47
330
747D
100
AcDbEntity
  8
細線
 48
50.0
100
AcDbLine
 10
8278.931580798897
 20
1129.843821726534
 30
0.0
 11
8285.362361417243
 21
1105.843821726534
 31
0.0
  0
LINE
  5
24A48
330
747D
100
AcDbEntity
  8
細線
 48
50.0
100
AcDbLine
 10
8200.043535851651
 20
1129.843821726534
 30
0.0
 11
8206.474316469998
 21
1105.843821726534
 31
0.0
  0
LINE
  5
24A49
330
747D
100
AcDbEntity
  8
細線
 48
50.0
100
AcDbLine
 10
8142.591426298896
 20
1209.843821726534
 30
0.0
 11
8136.160645680549
 21
1233.843821726534
 31
0.0
  0
LINE
  5
24A4A
330
747D
100
AcDbEntity
  8
細線
 48
50.0
100
AcDbLine
 10
8063.703381351649
 20
1209.843821726534
 30
0.0
 11
8057.2726007333
 21
1233.843821726534
 31
0.0
  0
LINE
  5
24A4B
330
747D
100
AcDbEntity
  8
細線
 48
50.0
100
AcDbLine
 10
8221.479471246141
 20
1209.843821726534
 30
0.0
 11
8215.048690627794
 21
1233.843821726534
 31
0.0
  0
LINE
  5
24A4C
330
747D
100
AcDbEntity
  8
細線
 48
50.0
100
AcDbLine
 10
8300.367516193386
 20
1209.843821726534
 30
0.0
 11
8293.936735575041
 21
1233.843821726534
 31
0.0
  0
LINE
  5
24A4D
330
747D
100
AcDbEntity
  8
部品1
 48
50.0
100
AcDbLine
 10
8580.653825842793
 20
1233.843821726534
 30
0.0
 11
8580.653825842793
 21
1105.843821726534
 31
0.0
  0
LINE
  5
24A4E
330
747D
100
AcDbEntity
  8
細線
 48
50.0
100
AcDbLine
 10
8509.164935022287
 20
1105.843821726532
 30
0.0
 11
8543.462431653471
 21
1233.843821726531
 31
0.0
  0
LINE
  5
24A4F
330
747D
100
AcDbEntity
  8
細線
 48
50.0
100
AcDbLine
 10
8351.388845127791
 20
1105.843821726532
 30
0.0
 11
8385.686341758967
 21
1233.843821726534
 31
0.0
  0
LINE
  5
24A50
330
747D
100
AcDbEntity
  8
細線
 48
50.0
100
AcDbLine
 10
8430.276890075042
 20
1105.843821726531
 30
0.0
 11
8464.574386706226
 21
1233.843821726531
 31
0.0
  0
LINE
  5
24A51
330
747D
100
AcDbEntity
  8
細線
 48
50.0
100
AcDbLine
 10
8357.819625746143
 20
1129.843821726534
 30
0.0
 11
8364.250406364499
 21
1105.843821726534
 31
0.0
  0
LINE
  5
24A52
330
747D
100
AcDbEntity
  8
細線
 48
50.0
100
AcDbLine
 10
8436.707670693392
 20
1129.843821726532
 30
0.0
 11
8443.138451311737
 21
1105.843821726532
 31
0.0
  0
LINE
  5
24A53
330
747D
100
AcDbEntity
  8
細線
 48
50.0
100
AcDbLine
 10
8515.595715640637
 20
1129.843821726532
 30
0.0
 11
8522.026496258986
 21
1105.843821726532
 31
0.0
  0
LINE
  5
24A54
330
747D
100
AcDbEntity
  8
細線
 48
50.0
100
AcDbLine
 10
8379.255561140624
 20
1209.843821726534
 30
0.0
 11
8372.824780522277
 21
1233.843821726534
 31
0.0
  0
LINE
  5
24A55
330
747D
100
AcDbEntity
  8
細線
 48
50.0
100
AcDbLine
 10
8458.14360608788
 20
1209.843821726532
 30
0.0
 11
8451.712825469535
 21
1233.843821726532
 31
0.0
  0
LINE
  5
24A56
330
747D
100
AcDbEntity
  8
細線
 48
50.0
100
AcDbLine
 10
8537.031651035126
 20
1209.843821726532
 30
0.0
 11
8530.60087041678
 21
1233.843821726532
 31
0.0
  0
LINE
  5
24A57
330
747D
100
AcDbEntity
  8
部品1
100
AcDbLine
 10
8243.053825842791
 20
1693.843821726532
 30
0.0
 11
8117.053825842788
 21
1693.843821726532
 31
0.0
  0
LINE
  5
24A58
330
747D
100
AcDbEntity
  8
部品1
100
AcDbLine
 10
8225.05382584279
 20
1774.843821726534
 30
0.0
 11
8225.05382584279
 21
1792.843821726534
 31
0.0
  0
ARC
  5
24A59
330
747D
100
AcDbEntity
  8
部品1
100
AcDbCircle
 10
8189.05382584279
 20
1792.843821726534
 30
0.0
 40
18.0
100
AcDbArc
 50
180.0
 51
270.0
  0
LINE
  5
24A5A
330
747D
100
AcDbEntity
  8
部品1
100
AcDbLine
 10
8189.05382584279
 20
1774.843821726534
 30
0.0
 11
8225.05382584279
 21
1774.843821726534
 31
0.0
  0
LINE
  5
24A5B
330
747D
100
AcDbEntity
  8
部品1
100
AcDbLine
 10
8189.05382584279
 20
1792.843821726534
 30
0.0
 11
8225.05382584279
 21
1792.843821726534
 31
0.0
  0
LINE
  5
24A5C
330
747D
100
AcDbEntity
  8
部品1
 48
50.0
100
AcDbLine
 10
8372.653825842791
 20
1473.843821726534
 30
0.0
 11
8500.653825842789
 21
1473.843821726534
 31
0.0
  0
LINE
  5
24A5D
330
747D
100
AcDbEntity
  8
部品1
100
AcDbLine
 10
7978.453825842793
 20
2107.843821726534
 30
0.0
 11
8016.253825842794
 21
2107.843821726534
 31
0.0
  0
LINE
  5
24A5E
330
747D
100
AcDbEntity
  8
細線
 48
50.0
100
AcDbLine
 10
7958.653825842794
 20
1978.683629663232
 30
0.0
 11
7997.814017906097
 21
2017.843821726534
 31
0.0
  0
LINE
  5
24A5F
330
747D
100
AcDbEntity
  8
細線
 48
50.0
100
AcDbLine
 10
7958.653825842794
 20
1951.742861300024
 30
0.0
 11
8024.754786269303
 21
2017.843821726534
 31
0.0
  0
LINE
  5
24A60
330
747D
100
AcDbEntity
  8
部品1
 48
50.0
100
AcDbLine
 10
7958.653825842794
 20
2017.843821726534
 30
0.0
 11
8372.653825842794
 21
2017.843821726534
 31
0.0
  0
LINE
  5
24A61
330
747D
100
AcDbEntity
  8
部品1
100
AcDbLine
 10
7975.753825842793
 20
2097.043821726535
 30
0.0
 11
7975.753825842793
 21
2105.143821726535
 31
0.0
  0
ARC
  5
24A62
330
747D
100
AcDbEntity
  8
部品1
100
AcDbCircle
 10
7978.453825842793
 20
2105.143821726535
 30
0.0
 40
2.7
100
AcDbArc
 50
90.0
 51
180.0
  0
ARC
  5
24A63
330
747D
100
AcDbEntity
  8
部品1
100
AcDbCircle
 10
7967.653825842794
 20
2092.235725429242
 30
0.0
 40
2.7
100
AcDbArc
 50
104.0362434679067
 51
180.0
  0
LINE
  5
24A64
330
747D
100
AcDbEntity
  8
部品1
100
AcDbLine
 10
7966.998979655193
 20
2094.855110179635
 30
0.0
 11
7975.753825842793
 21
2097.043821726535
 31
0.0
  0
ARC
  5
24A65
330
747D
100
AcDbEntity
  8
部品1
100
AcDbCircle
 10
7967.653825842794
 20
2030.103821726535
 30
0.0
 40
2.7
100
AcDbArc
 50
180.0
 51
270.0
  0
LINE
  5
24A66
330
747D
100
AcDbEntity
  8
細線
 48
50.0
100
AcDbLine
 10
7958.653825842794
 20
2005.624398026439
 30
0.0
 11
7970.873249542889
 21
2017.843821726534
 31
0.0
  0
LINE
  5
24A67
330
747D
100
AcDbEntity
  8
部品1
100
AcDbLine
 10
7967.653825842794
 20
2027.403821726535
 30
0.0
 11
7979.353825842787
 21
2027.403821726535
 31
0.0
  0
LINE
  5
24A68
330
747D
100
AcDbEntity
  8
部品1
100
AcDbLine
 10
7964.953825842792
 20
2030.103821726535
 30
0.0
 11
7964.953825842792
 21
2092.235725429242
 31
0.0
  0
LINE
  5
24A69
330
747D
100
AcDbEntity
  8
部品1
100
AcDbLine
 10
8123.613825842786
 20
2027.403821726535
 30
0.0
 11
8324.953825842786
 21
2027.403821726535
 31
0.0
  0
LINE
  5
24A6A
330
747D
100
AcDbEntity
  8
部品1
100
AcDbLine
 10
8016.253825842794
 20
2107.843821726534
 30
0.0
 11
8016.253825842794
 21
2115.943821726535
 31
0.0
  0
LINE
  5
24A6B
330
747D
100
AcDbEntity
  8
部品1
100
AcDbLine
 10
8066.653825842793
 20
2126.743821726531
 30
0.0
 11
8066.653825842793
 21
2075.443821726535
 31
0.0
  0
LINE
  5
24A6C
330
747D
100
AcDbEntity
  8
部品1
100
AcDbLine
 10
8090.053825842792
 20
2087.403821726535
 30
0.0
 11
8118.213825842792
 21
2087.403821726535
 31
0.0
  0
ARC
  5
24A6D
330
747D
100
AcDbEntity
  8
部品1
100
AcDbCircle
 10
8090.053825842792
 20
2084.703821726535
 30
0.0
 40
2.7
100
AcDbArc
 50
90.0
 51
180.0
  0
ARC
  5
24A6E
330
747D
100
AcDbEntity
  8
部品1
100
AcDbCircle
 10
8118.213825842792
 20
2084.703821726535
 30
0.0
 40
2.7
100
AcDbArc
 50
0.0
 51
90.0
  0
LINE
  5
24A6F
330
747D
100
AcDbEntity
  8
部品1
100
AcDbLine
 10
8108.953825842794
 20
2072.743821726534
 30
0.0
 11
8108.953825842794
 21
2030.103821726535
 31
0.0
  0
LINE
  5
24A70
330
747D
100
AcDbEntity
  8
部品1
100
AcDbLine
 10
8094.553825842792
 20
2027.403821726535
 30
0.0
 11
8106.253825842792
 21
2027.403821726535
 31
0.0
  0
ARC
  5
24A71
330
747D
100
AcDbEntity
  8
部品1
100
AcDbCircle
 10
8123.613825842786
 20
2030.103821726535
 30
0.0
 40
2.7
100
AcDbArc
 50
180.0
 51
270.0
  0
ARC
  5
24A72
330
747D
100
AcDbEntity
  8
部品1
100
AcDbCircle
 10
8106.253825842792
 20
2030.103821726535
 30
0.0
 40
2.7
100
AcDbArc
 50
270.0
 51
0.0
  0
LINE
  5
24A73
330
747D
100
AcDbEntity
  8
部品1
100
AcDbLine
 10
8066.653825842793
 20
2075.443821726535
 30
0.0
 11
8106.253825842792
 21
2075.443821726535
 31
0.0
  0
ARC
  5
24A74
330
747D
100
AcDbEntity
  8
部品1
100
AcDbCircle
 10
8106.253825842792
 20
2072.743821726534
 30
0.0
 40
2.7
100
AcDbArc
 50
0.0
 51
90.0
  0
LINE
  5
24A75
330
747D
100
AcDbEntity
  8
部品1
100
AcDbLine
 10
8120.913825842793
 20
2084.703821726535
 30
0.0
 11
8120.913825842789
 21
2030.103821726535
 31
0.0
  0
LINE
  5
24A76
330
747D
100
AcDbEntity
  8
部品1
100
AcDbLine
 10
8087.353825842791
 20
2084.703821726535
 30
0.0
 11
8087.353825842791
 21
2067.603821726535
 31
0.0
  0
LINE
  5
24A77
330
747D
100
AcDbEntity
  8
細線
100
AcDbLine
 10
8185.453825842794
 20
2027.403821726535
 30
0.0
 11
8185.453825842794
 21
2070.603821726535
 31
0.0
  0
LINE
  5
24A78
330
747D
100
AcDbEntity
  8
細線
100
AcDbLine
 10
8174.653825842794
 20
2027.403821726535
 30
0.0
 11
8174.653825842794
 21
2070.603821726535
 31
0.0
  0
LINE
  5
24A79
330
747D
100
AcDbEntity
  8
部品1
100
AcDbLine
 10
8171.053825842792
 20
2067.003821726535
 30
0.0
 11
8189.05382584279
 21
2067.003821726535
 31
0.0
  0
LINE
  5
24A7A
330
747D
100
AcDbEntity
  8
部品1
100
AcDbLine
 10
8174.653825842794
 20
2070.603821726535
 30
0.0
 11
8185.453825842794
 21
2070.603821726535
 31
0.0
  0
ELLIPSE
  5
24A7B
330
747D
100
AcDbEntity
  8
部品1
 48
50.0
100
AcDbEllipse
 10
8180.053825842792
 20
2286.967110170807
 30
0.0
 11
40.0
 21
0.0
 31
0.0
210
0.0
220
0.0
230
1.0
 40
0.4
 41
0.0
 42
6.283185307179586
  0
ELLIPSE
  5
24A7C
330
747D
100
AcDbEntity
  8
部品1
 48
50.0
100
AcDbEllipse
 10
8180.053825842792
 20
2277.367110170807
 30
0.0
 11
40.0
 21
0.0
 31
0.0
210
0.0
220
0.0
230
1.0
 40
0.4
 41
3.141592653589793
 42
6.283185307179586
  0
LINE
  5
24A7D
330
747D
100
AcDbEntity
  8
部品1
 48
50.0
100
AcDbLine
 10
8140.053825842791
 20
2286.967110170807
 30
0.0
 11
8140.053825842791
 21
2277.367110170807
 31
0.0
  0
ARC
  5
24A7E
330
747D
100
AcDbEntity
  8
部品1
100
AcDbCircle
 10
8063.953825842792
 20
2126.743821726531
 30
0.0
 40
2.7
100
AcDbArc
 50
0.0
 51
90.0
  0
ARC
  5
24A7F
330
747D
100
AcDbEntity
  8
部品1
100
AcDbCircle
 10
8021.653825842793
 20
2126.743821726534
 30
0.0
 40
2.7
100
AcDbArc
 50
90.0
 51
180.0
  0
LINE
  5
24A80
330
747D
100
AcDbEntity
  8
部品1
100
AcDbLine
 10
8018.953825842793
 20
2118.643821726534
 30
0.0
 11
8018.953825842793
 21
2118.643821726534
 31
0.0
  0
LINE
  5
24A81
330
747D
100
AcDbEntity
  8
部品1
100
AcDbLine
 10
8018.953825842793
 20
2118.643821726534
 30
0.0
 11
8018.953825842793
 21
2126.743821726534
 31
0.0
  0
LINE
  5
24A82
330
747D
100
AcDbEntity
  8
部品1
100
AcDbLine
 10
8021.653825842793
 20
2129.443821726535
 30
0.0
 11
8063.953825842792
 21
2129.443821726531
 31
0.0
  0
ARC
  5
24A83
330
747D
100
AcDbEntity
  8
部品1
100
AcDbCircle
 10
8018.953825842793
 20
2115.943821726535
 30
0.0
 40
2.7
100
AcDbArc
 50
90.0
 51
180.0
  0
ELLIPSE
  5
24A84
330
747D
100
AcDbEntity
  8
部品1
 48
50.0
100
AcDbEllipse
 10
8180.053825842792
 20
2286.967110170807
 30
0.0
 11
18.4
 21
0.0
 31
0.0
210
0.0
220
0.0
230
1.0
 40
0.3478260869565217
 41
0.0
 42
6.283185307179586
  0
LINE
  5
24A85
330
747D
100
AcDbEntity
  8
部品1
 48
50.0
100
AcDbLine
 10
8220.053825842791
 20
2277.367110170807
 30
0.0
 11
8220.053825842791
 21
2286.967110170807
 31
0.0
  0
LINE
  5
24A86
330
747D
100
AcDbEntity
  8
部品1
 48
50.0
100
AcDbLine
 10
8148.053825842792
 20
2408.719102835677
 30
0.0
 11
8164.05382584279
 21
2400.719102835677
 31
0.0
  0
LINE
  5
24A87
330
747D
100
AcDbEntity
  8
部品1
 48
50.0
100
AcDbLine
 10
8148.053825842792
 20
2376.719102835677
 30
0.0
 11
8164.05382584279
 21
2368.719102835677
 31
0.0
  0
LINE
  5
24A88
330
747D
100
AcDbEntity
  8
部品1
 48
50.0
100
AcDbLine
 10
8148.053825842792
 20
2408.719102835677
 30
0.0
 11
8164.05382584279
 21
2416.719102835677
 31
0.0
  0
LINE
  5
24A89
330
747D
100
AcDbEntity
  8
部品1
 48
50.0
100
AcDbLine
 10
8148.053825842792
 20
2376.719102835677
 30
0.0
 11
8148.053825842792
 21
2408.719102835677
 31
0.0
  0
LINE
  5
24A8A
330
747D
100
AcDbEntity
  8
部品1
 48
50.0
100
AcDbLine
 10
8164.05382584279
 20
2416.719102835677
 30
0.0
 11
8196.053825842792
 21
2416.719102835677
 31
0.0
  0
ELLIPSE
  5
24A8B
330
747D
100
AcDbEntity
  8
細線
 48
50.0
100
AcDbEllipse
 10
8180.053825842792
 20
2408.719102835677
 30
0.0
 11
14.76670786606846
 21
0.0
 31
0.0
210
0.0
220
0.0
230
1.0
 40
0.2071254069489396
 41
0.0
 42
6.283185307179586
  0
LINE
  5
24A8C
330
747D
100
AcDbEntity
  8
部品1
 48
50.0
100
AcDbLine
 10
8164.05382584279
 20
2368.719102835677
 30
0.0
 11
8196.053825842792
 21
2368.719102835677
 31
0.0
  0
LINE
  5
24A8D
330
747D
100
AcDbEntity
  8
部品1
 48
50.0
100
AcDbLine
 10
8196.053825842792
 20
2368.719102835677
 30
0.0
 11
8212.053825842792
 21
2376.719102835677
 31
0.0
  0
LINE
  5
24A8E
330
747D
100
AcDbEntity
  8
部品1
 48
50.0
100
AcDbLine
 10
8164.05382584279
 20
2400.719102835677
 30
0.0
 11
8196.053825842792
 21
2400.719102835677
 31
0.0
  0
LINE
  5
24A8F
330
747D
100
AcDbEntity
  8
部品1
 48
50.0
100
AcDbLine
 10
8196.053825842792
 20
2400.719102835677
 30
0.0
 11
8212.053825842792
 21
2408.719102835677
 31
0.0
  0
LINE
  5
24A90
330
747D
100
AcDbEntity
  8
細線
 48
50.0
100
AcDbLine
 10
8196.053825842792
 20
2368.719102835677
 30
0.0
 11
8196.053825842792
 21
2400.719102835677
 31
0.0
  0
LINE
  5
24A91
330
747D
100
AcDbEntity
  8
部品1
 48
50.0
100
AcDbLine
 10
8212.053825842792
 20
2376.719102835677
 30
0.0
 11
8212.053825842792
 21
2408.719102835677
 31
0.0
  0
LINE
  5
24A92
330
747D
100
AcDbEntity
  8
細線
 48
50.0
100
AcDbLine
 10
8164.05382584279
 20
2368.719102835677
 30
0.0
 11
8164.05382584279
 21
2400.719102835677
 31
0.0
  0
LINE
  5
24A93
330
747D
100
AcDbEntity
  8
部品1
 48
50.0
100
AcDbLine
 10
8196.053825842792
 20
2416.719102835677
 30
0.0
 11
8212.053825842792
 21
2408.719102835677
 31
0.0
  0
TEXT
  5
24A94
330
747D
100
AcDbEntity
  8
部品1
100
AcDbText
 10
7880.826075034722
 20
3159.263509551952
 30
0.0
 40
120.0
  1
基礎詳細
  7
STYLE2
100
AcDbText
  0
LINE
  5
24A95
330
747D
100
AcDbEntity
  8
部品1
100
AcDbLine
 10
11258.93125924258
 20
374.5084719187321
 30
0.0
 11
11258.93125924259
 21
3338.815441503379
 31
0.0
  0
LINE
  5
24A96
330
747D
100
AcDbEntity
  8
細線
100
AcDbLine
 10
10266.82309182233
 20
1777.843821726534
 30
0.0
 11
10072.18975814555
 21
1972.477155403317
 31
0.0
  0
LINE
  5
24A97
330
747D
100
AcDbEntity
  8
部品1
100
AcDbLine
 10
10072.18975814555
 20
2017.843821726534
 30
0.0
 11
10552.18975814555
 21
2017.843821726534
 31
0.0
  0
LINE
  5
24A98
330
747D
100
AcDbEntity
  8
細線
 48
50.0
100
AcDbLine
 10
10206.26064258881
 20
1558.144906073184
 30
0.0
 11
10240.55813921999
 21
1686.144906073183
 31
0.0
  0
LINE
  5
24A99
330
747D
100
AcDbEntity
  8
部品1
100
AcDbLine
 10
9952.18975814555
 20
1558.14490607318
 30
0.0
 11
10672.18975814555
 21
1558.144906073184
 31
0.0
  0
LINE
  5
24A9A
330
747D
100
AcDbEntity
  8
部品1
100
AcDbLine
 10
9952.18975814555
 20
1686.144906073184
 30
0.0
 11
10672.18975814555
 21
1686.144906073187
 31
0.0
  0
LINE
  5
24A9B
330
747D
100
AcDbEntity
  8
細線
100
AcDbLine
 10
10133.10840363879
 20
1686.144906073184
 30
0.0
 11
10224.80731929213
 21
1777.843821726534
 31
0.0
  0
LWPOLYLINE
  5
24A9C
330
747D
100
AcDbEntity
  8
部品1
 48
50.0
100
AcDbPolyline
 90
        2
 70
     0
 43
12.0
 10
9687.57849604516
 20
1777.843821726534
 10
10888.67079917678
 20
1777.843821726534
  0
LINE
  5
24A9D
330
747D
100
AcDbEntity
  8
細線
100
AcDbLine
 10
10215.9114035769
 20
1777.843821726534
 30
0.0
 11
10072.18975814555
 21
1921.565467157887
 31
0.0
  0
TEXT
  5
24A9E
330
747D
100
AcDbEntity
  8
部品1
 48
50.0
100
AcDbText
 10
9308.071671387045
 20
1511.044081089225
 30
0.0
 40
80.0
  1
ボルトの出
 50
90.0
  7
STYLE2
100
AcDbText
  0
LINE
  5
24A9F
330
747D
100
AcDbEntity
  8
部品1
100
AcDbLine
 10
10072.18975814555
 20
1777.843821726534
 30
0.0
 11
10072.18975814555
 21
2017.843821726534
 31
0.0
  0
LINE
  5
24AA0
330
747D
100
AcDbEntity
  8
細線
 48
50.0
100
AcDbLine
 10
10048.48455269431
 20
1558.144906073183
 30
0.0
 11
10082.78204932549
 21
1686.144906073183
 31
0.0
  0
LINE
  5
24AA1
330
747D
100
AcDbEntity
  8
細線
 48
50.0
100
AcDbLine
 10
10127.37259764156
 20
1558.144906073184
 30
0.0
 11
10161.67009427274
 21
1686.144906073184
 31
0.0
  0
LINE
  5
24AA2
330
747D
100
AcDbEntity
  8
細線
 48
50.0
100
AcDbLine
 10
9969.596507747063
 20
1558.144906073184
 30
0.0
 11
10003.89400437824
 21
1686.144906073184
 31
0.0
  0
LINE
  5
24AA3
330
747D
100
AcDbEntity
  8
部品1
100
AcDbLine
 10
9952.18975814555
 20
1558.14490607318
 30
0.0
 11
9952.18975814555
 21
1777.843821726534
 31
0.0
  0
LINE
  5
24AA4
330
747D
100
AcDbEntity
  8
細線
 48
50.0
100
AcDbLine
 10
10054.91533331266
 20
1582.144906073184
 30
0.0
 11
10061.34611393101
 21
1558.144906073184
 31
0.0
  0
LINE
  5
24AA5
330
747D
100
AcDbEntity
  8
細線
 48
50.0
100
AcDbLine
 10
9976.027288365411
 20
1582.144906073184
 30
0.0
 11
9982.458068983758
 21
1558.144906073184
 31
0.0
  0
LINE
  5
24AA6
330
747D
100
AcDbEntity
  8
細線
 48
50.0
100
AcDbLine
 10
10133.80337825991
 20
1582.144906073184
 30
0.0
 11
10140.23415887826
 21
1558.144906073184
 31
0.0
  0
LINE
  5
24AA7
330
747D
100
AcDbEntity
  8
細線
 48
50.0
100
AcDbLine
 10
10212.69142320716
 20
1582.144906073184
 30
0.0
 11
10219.12220382551
 21
1558.144906073184
 31
0.0
  0
LINE
  5
24AA8
330
747D
100
AcDbEntity
  8
細線
 48
50.0
100
AcDbLine
 10
9997.463223759901
 20
1662.144906073184
 30
0.0
 11
9991.03244314155
 21
1686.144906073184
 31
0.0
  0
LINE
  5
24AA9
330
747D
100
AcDbEntity
  8
細線
 48
50.0
100
AcDbLine
 10
10155.2393136544
 20
1662.144906073184
 30
0.0
 11
10148.80853303605
 21
1686.144906073184
 31
0.0
  0
LINE
  5
24AAA
330
747D
100
AcDbEntity
  8
細線
 48
50.0
100
AcDbLine
 10
10076.35126870715
 20
1662.144906073184
 30
0.0
 11
10069.9204880888
 21
1686.144906073184
 31
0.0
  0
LINE
  5
24AAB
330
747D
100
AcDbEntity
  8
細線
100
AcDbLine
 10
10065.22615264488
 20
1686.144906073184
 30
0.0
 11
10156.92506829823
 21
1777.843821726534
 31
0.0
  0
LINE
  5
24AAC
330
747D
100
AcDbEntity
  8
細線
100
AcDbLine
 10
10099.16727814183
 20
1686.144906073184
 30
0.0
 11
10190.86619379518
 21
1777.843821726534
 31
0.0
  0
LINE
  5
24AAD
330
747D
100
AcDbEntity
  8
細線
100
AcDbLine
 10
10487.44040755254
 20
1777.843821726534
 30
0.0
 11
10247.44040755254
 21
2017.843821726534
 31
0.0
  0
LINE
  5
24AAE
330
747D
100
AcDbEntity
  8
細線
100
AcDbLine
 10
10538.35209579796
 20
1777.843821726536
 30
0.0
 11
10298.35209579797
 21
2017.843821726534
 31
0.0
  0
LINE
  5
24AAF
330
747D
100
AcDbEntity
  8
部品1
100
AcDbLine
 10
10552.18975814555
 20
2017.843821726534
 30
0.0
 11
10552.18975814555
 21
1777.843821726534
 31
0.0
  0
LINE
  5
24AB0
330
747D
100
AcDbEntity
  8
細線
 48
50.0
100
AcDbLine
 10
10521.81282237779
 20
1558.144906073181
 30
0.0
 11
10556.11031900898
 21
1686.144906073181
 31
0.0
  0
LINE
  5
24AB1
330
747D
100
AcDbEntity
  8
細線
100
AcDbLine
 10
10493.10840363879
 20
1686.144906073186
 30
0.0
 11
10584.80731929213
 21
1777.843821726534
 31
0.0
  0
LINE
  5
24AB2
330
747D
100
AcDbEntity
  8
細線
 48
50.0
100
AcDbLine
 10
10442.92477743055
 20
1558.144906073183
 30
0.0
 11
10477.22227406172
 21
1686.144906073184
 31
0.0
  0
LINE
  5
24AB3
330
747D
100
AcDbEntity
  8
細線
 48
50.0
100
AcDbLine
 10
10285.14868753605
 20
1558.144906073183
 30
0.0
 11
10319.44618416724
 21
1686.144906073183
 31
0.0
  0
LINE
  5
24AB4
330
747D
100
AcDbEntity
  8
細線
 48
50.0
100
AcDbLine
 10
10364.0367324833
 20
1558.144906073184
 30
0.0
 11
10398.33422911448
 21
1686.144906073183
 31
0.0
  0
LINE
  5
24AB5
330
747D
100
AcDbEntity
  8
細線
 48
50.0
100
AcDbLine
 10
10370.46751310165
 20
1582.144906073184
 30
0.0
 11
10376.89829372
 21
1558.144906073184
 31
0.0
  0
LINE
  5
24AB6
330
747D
100
AcDbEntity
  8
細線
 48
50.0
100
AcDbLine
 10
10291.57946815441
 20
1582.144906073184
 30
0.0
 11
10298.01024877275
 21
1558.144906073184
 31
0.0
  0
LINE
  5
24AB7
330
747D
100
AcDbEntity
  8
細線
 48
50.0
100
AcDbLine
 10
10449.3555580489
 20
1582.144906073184
 30
0.0
 11
10455.78633866725
 21
1558.144906073184
 31
0.0
  0
LINE
  5
24AB8
330
747D
100
AcDbEntity
  8
細線
 48
50.0
100
AcDbLine
 10
10528.24360299615
 20
1582.144906073183
 30
0.0
 11
10534.67438361449
 21
1558.144906073183
 31
0.0
  0
LINE
  5
24AB9
330
747D
100
AcDbEntity
  8
細線
 48
50.0
100
AcDbLine
 10
10391.90344849614
 20
1662.144906073184
 30
0.0
 11
10385.47266787779
 21
1686.144906073184
 31
0.0
  0
LINE
  5
24ABA
330
747D
100
AcDbEntity
  8
細線
 48
50.0
100
AcDbLine
 10
10313.01540354889
 20
1662.144906073184
 30
0.0
 11
10306.58462293055
 21
1686.144906073184
 31
0.0
  0
LINE
  5
24ABB
330
747D
100
AcDbEntity
  8
細線
 48
50.0
100
AcDbLine
 10
10234.12735860165
 20
1662.144906073184
 30
0.0
 11
10227.6965779833
 21
1686.144906073184
 31
0.0
  0
LINE
  5
24ABC
330
747D
100
AcDbEntity
  8
細線
100
AcDbLine
 10
10459.16727814184
 20
1686.144906073186
 30
0.0
 11
10550.86619379518
 21
1777.843821726534
 31
0.0
  0
LINE
  5
24ABD
330
747D
100
AcDbEntity
  8
細線
 48
50.0
100
AcDbLine
 10
10470.79149344338
 20
1662.144906073184
 30
0.0
 11
10464.36071282503
 21
1686.144906073184
 31
0.0
  0
LINE
  5
24ABE
330
747D
100
AcDbEntity
  8
細線
100
AcDbLine
 10
10425.22615264488
 20
1686.144906073186
 30
0.0
 11
10516.92506829823
 21
1777.843821726534
 31
0.0
  0
LINE
  5
24ABF
330
747D
100
AcDbEntity
  8
細線
 48
50.0
100
AcDbLine
 10
10549.67953839063
 20
1662.144906073183
 30
0.0
 11
10543.24875777229
 21
1686.144906073183
 31
0.0
  0
LINE
  5
24AC0
330
747D
100
AcDbEntity
  8
細線
 48
50.0
100
AcDbLine
 10
10600.70086732504
 20
1558.144906073183
 30
0.0
 11
10634.99836395622
 21
1686.144906073181
 31
0.0
  0
LINE
  5
24AC1
330
747D
100
AcDbEntity
  8
部品1
100
AcDbLine
 10
10672.18975814555
 20
1777.843821726534
 30
0.0
 11
10672.18975814555
 21
1558.144906073184
 31
0.0
  0
LINE
  5
24AC2
330
747D
100
AcDbEntity
  8
細線
 48
50.0
100
AcDbLine
 10
10607.13164794339
 20
1582.144906073183
 30
0.0
 11
10613.56242856174
 21
1558.144906073183
 31
0.0
  0
LINE
  5
24AC3
330
747D
100
AcDbEntity
  8
細線
 48
50.0
100
AcDbLine
 10
10628.56758333788
 20
1662.144906073183
 30
0.0
 11
10622.13680271953
 21
1686.144906073183
 31
0.0
  0
LEADER
  5
24AC4
330
747D
100
AcDbEntity
  8
寸法
 48
50.0
100
AcDbLeader
  3
INABA_S40G
 73
     0
 74
     0
 75
     1
 40
120.0
 41
185.591883092037
 76
     3
 10
10482.91416976147
 20
2017.843821726534
 30
0.0
 10
10526.05237639511
 20
2174.990142407672
 30
0.0
 10
10626.05237639511
 20
2174.990142407672
 30
0.0
1001
ACAD
1000
DSTYLE
1002
{
1070
   174
1070
     0
1070
   272
1070
     1
1070
   279
1070
     1
1070
   288
1070
     0
1070
   341
1005
0
1002
}
  0
MTEXT
  5
24AC5
102
{ACAD_REACTORS
330
24AC4
102
}
330
747D
100
AcDbEntity
  8
寸法
 62
     7
 48
50.0
100
AcDbMText
 10
10666.05237639511
 20
2274.990142407672
 30
0.0
 40
120.0
 41
0.8
 71
     4
 72
     1
  1
\A1;C.B
  7
STYLE1
 73
     1
 44
1.0
1001
ACAD
1000
MTEXTBEGIN
1070
    73
1070
     1
1070
    44
1040
1.0
1070
    74
1070
     0
1000
MTEXTEND
  0
DIMENSION
  5
24B64
330
747D
100
AcDbEntity
  8
寸法
 48
50.0
100
AcDbDimension
  2
*D52
 10
11288.6
 20
7715.964963536368
 30
0.0
 11
11524.64724409449
 21
7715.964963536368
 31
0.0
 70
   160
 71
     5
 42
120.0
  3
INABA_S40G
100
AcDbAlignedDimension
 13
11168.6
 23
7763.259682027196
 33
0.0
 14
11288.6
 24
7771.142124867605
 34
0.0
100
AcDbRotatedDimension
1001
ACAD
1000
DSTYLE
1002
{
1070
   341
1005
0
1002
}
  0
ENDSEC
  0
SECTION
  2
OBJECTS
  0
DICTIONARY
  5
7471
330
0
100
AcDbDictionary
281
     1
  3
ACAD_COLOR
350
173D2
  3
ACAD_GROUP
350
7472
  3
ACAD_LAYOUT
350
173D3
  3
ACAD_MATERIAL
350
173D1
  3
ACAD_MLINESTYLE
350
7473
  3
ACAD_PLOTSETTINGS
350
173D4
  3
ACAD_PLOTSTYLENAME
350
173CF
  3
ACDBHEADERROUNDTRIPXREC
350
24B96
  3
AcDbVariableDictionary
350
24B92
  3
CONTENTDICTIONARY
350
E71C
  3
DRAWINGVARIABLESDICT
350
F3B9
  0
DICTIONARY
  5
1758F
330
7467
100
AcDbDictionary
280
     1
281
     1
  3
ACAD_LAYERSTATES
360
17590
  0
DICTIONARY
  5
173D2
102
{ACAD_REACTORS
330
7471
102
}
330
7471
100
AcDbDictionary
281
     1
  0
DICTIONARY
  5
7472
102
{ACAD_REACTORS
330
7471
102
}
330
7471
100
AcDbDictionary
281
     1
  3
*A1
350
1D2A9
  0
DICTIONARY
  5
173D3
102
{ACAD_REACTORS
330
7471
102
}
330
7471
100
AcDbDictionary
281
     1
  3
Model
350
173D5
  3
レイアウト1
350
173D6
  0
DICTIONARY
  5
173D1
102
{ACAD_REACTORS
330
7471
102
}
330
7471
100
AcDbDictionary
281
     1
  0
DICTIONARY
  5
7473
102
{ACAD_REACTORS
330
7471
102
}
330
7471
100
AcDbDictionary
281
     1
  3
STANDARD
350
7480
  0
DICTIONARY
  5
173D4
102
{ACAD_REACTORS
330
7471
102
}
330
7471
100
AcDbDictionary
281
     1
  0
ACDBDICTIONARYWDFLT
  5
173CF
102
{ACAD_REACTORS
330
7471
102
}
330
7471
100
AcDbDictionary
281
     1
  3
Normal
350
173D0
100
AcDbDictionaryWithDefault
340
173D0
  0
DICTIONARY
  5
24B96
102
{ACAD_REACTORS
330
7471
102
}
330
7471
100
AcDbDictionary
281
     1
  3
COLORDICT
350
24B98
  3
MATERIALDICT
350
24B97
  0
DICTIONARY
  5
24B92
102
{ACAD_REACTORS
330
7471
102
}
330
7471
100
AcDbDictionary
281
     1
  3
DIMASSOC
350
24B93
  3
PROJECTNAME
350
24B94
  0
DICTIONARY
  5
E71C
102
{ACAD_REACTORS
330
7471
102
}
330
7471
100
AcDbDictionary
281
     1
  0
DICTIONARY
  5
F3B9
102
{ACAD_REACTORS
330
7471
102
}
330
7471
100
AcDbDictionary
281
     1
1001
DRAWINGVARIABLESXDATA
1000
POLARMODE
1000
1
  0
DICTIONARY
  5
17590
102
{ACAD_REACTORS
330
1758F
102
}
330
1758F
100
AcDbDictionary
281
     1
  0
GROUP
  5
1D2A9
102
{ACAD_REACTORS
330
7472
102
}
330
7472
100
AcDbGroup
300

 70
     1
 71
     1
  0
LAYOUT
  5
173D5
102
{ACAD_XDICTIONARY
360
24B99
102
}
102
{ACAD_REACTORS
330
173D3
102
}
330
173D3
100
AcDbPlotSettings
  1

  2
クセロPDFよこ.pc3
  4
A3
  6

 40
3.174999952316284
 41
3.174999952316284
 42
3.17498779296875
 43
3.17498779296875
 44
419.9466552734374
 45
296.9259948730469
 46
0.0
 47
0.0
 48
0.0
 49
0.0
140
0.0
141
0.0
142
1.0
143
40.0
 70
 11952
 72
     1
 73
     0
 74
     2
  7
ACA3.ctb
 75
    24
147
0.025
148
0.0
149
0.0
100
AcDbLayout
  1
Model
 70
     1
 71
     0
 10
0.0
 20
0.0
 11
12.0
 21
9.0
 12
0.0
 22
0.0
 32
0.0
 14
0.0
 24
0.0
 34
0.0
 15
0.0
 25
0.0
 35
0.0
146
0.0
 13
0.0
 23
0.0
 33
0.0
 16
1.0
 26
0.0
 36
0.0
 17
0.0
 27
1.0
 37
0.0
 76
     0
330
747D
  0
LAYOUT
  5
173D6
102
{ACAD_XDICTIONARY
360
24B9B
102
}
102
{ACAD_REACTORS
330
173D3
102
}
330
173D3
100
AcDbPlotSettings
  1

  2
Microsoft Office Document Image Writer
  4

  6

 40
0.0
 41
0.0
 42
0.0
 43
0.0
 44
0.0
 45
0.0
 46
0.0
 47
0.0
 48
0.0
 49
0.0
140
0.0
141
0.0
142
1.0
143
1.0
 70
   688
 72
     0
 73
     0
 74
     5
  7
ACA3.ctb
 75
    16
147
1.0
148
0.0
149
0.0
100
AcDbLayout
  1
レイアウト1
 70
     0
 71
     1
 10
0.0
 20
0.0
 11
420.0
 21
297.0
 12
0.0
 22
0.0
 32
0.0
 14
1.000000000000000E+20
 24
1.000000000000000E+20
 34
1.000000000000000E+20
 15
-1.000000000000000E+20
 25
-1.000000000000000E+20
 35
-1.000000000000000E+20
146
0.0
 13
0.0
 23
0.0
 33
0.0
 16
1.0
 26
0.0
 36
0.0
 17
0.0
 27
1.0
 37
0.0
 76
     0
330
747A
  0
MLINESTYLE
  5
7480
102
{ACAD_REACTORS
330
7473
102
}
330
7473
100
AcDbMlineStyle
  2
STANDARD
 70
     0
  3

 62
     0
 51
90.0
 52
90.0
 71
     2
 49
0.5
 62
   256
  6
BYLAYER
 49
-0.5
 62
   256
  6
BYLAYER
  0
ACDBPLACEHOLDER
  5
173D0
102
{ACAD_REACTORS
330
173CF
102
}
330
173CF
  0
XRECORD
  5
24B98
102
{ACAD_REACTORS
330
24B96
102
}
330
24B96
100
AcDbXrecord
280
     1
340
173D2
  0
XRECORD
  5
24B97
102
{ACAD_REACTORS
330
24B96
102
}
330
24B96
100
AcDbXrecord
280
     1
340
173D1
  0
DICTIONARYVAR
  5
24B93
102
{ACAD_REACTORS
330
24B92
102
}
330
24B92
100
DictionaryVariables
280
     0
  1
1
  0
DICTIONARYVAR
  5
24B94
102
{ACAD_REACTORS
330
24B92
102
}
330
24B92
100
DictionaryVariables
280
     0
  1

  0
DICTIONARY
  5
24B99
330
173D5
100
AcDbDictionary
280
     1
281
     1
  3
ACAD_XREC_ROUNDTRIP
360
24B9A
  0
DICTIONARY
  5
24B9B
330
173D6
100
AcDbDictionary
280
     1
281
     1
  3
ACAD_XREC_ROUNDTRIP
360
24B9C
  0
XRECORD
  5
24B9A
102
{ACAD_REACTORS
330
24B99
102
}
330
24B99
100
AcDbXrecord
280
     1
102
SHADEPLOT
 70
     0
102
SHADEPLOTRESLEVEL
 70
     2
102
SHADEPLOTCUSTOMDPI
 70
   150
  0
XRECORD
  5
24B9C
102
{ACAD_REACTORS
330
24B9B
102
}
330
24B9B
100
AcDbXrecord
280
     1
102
SHADEPLOT
 70
     0
102
SHADEPLOTRESLEVEL
 70
     2
102
SHADEPLOTCUSTOMDPI
 70
   300
  0
ENDSEC
  0
EOF
