  0
SECTION
  2
HEADER
  9
$ACADVER
  1
AC1015
  9
$ACADMAINTVER
 70
    20
  9
$DWGCODEPAGE
  3
ANSI_932
  9
$INSBASE
 10
0.0
 20
0.0
 30
0.0
  9
$EXTMIN
 10
139.9999999999995
 20
-0.0000000000000909
 30
0.0
  9
$EXTMAX
 10
16307.2
 20
11409.6
 30
0.0
  9
$LIMMIN
 10
0.0
 20
0.0
  9
$LIMMAX
 10
16800.0
 20
11880.0
  9
$ORTHOMODE
 70
     0
  9
$REGENMODE
 70
     1
  9
$FILLMODE
 70
     1
  9
$QTEXTMODE
 70
     0
  9
$MIRRTEXT
 70
     1
  9
$LTSCALE
 40
20.0
  9
$ATTMODE
 70
     1
  9
$TEXTSIZE
 40
4.0
  9
$TRACEWID
 40
1.0
  9
$TEXTSTYLE
  7
STYLE1
  9
$CLAYER
  8
細線
  9
$CELTYPE
  6
BYLAYER
  9
$CECOLOR
 62
   256
  9
$CELTSCALE
 40
50.0
  9
$DISPSILH
 70
     0
  9
$DIMSCALE
 40
40.0
  9
$DIMASZ
 40
2.5
  9
$DIMEXO
 40
0.5
  9
$DIMDLI
 40
7.0
  9
$DIMRND
 40
0.0
  9
$DIMDLE
 40
0.0
  9
$DIMEXE
 40
1.5
  9
$DIMTP
 40
0.0
  9
$DIMTM
 40
0.0
  9
$DIMTXT
 40
3.0
  9
$DIMCEN
 40
0.0
  9
$DIMTSZ
 40
0.0
  9
$DIMTOL
 70
     0
  9
$DIMLIM
 70
     0
  9
$DIMTIH
 70
     0
  9
$DIMTOH
 70
     0
  9
$DIMSE1
 70
     0
  9
$DIMSE2
 70
     0
  9
$DIMTAD
 70
     3
  9
$DIMZIN
 70
     8
  9
$DIMBLK
  1

  9
$DIMASO
 70
     1
  9
$DIMSHO
 70
     1
  9
$DIMPOST
  1

  9
$DIMAPOST
  1

  9
$DIMALT
 70
     0
  9
$DIMALTD
 70
     2
  9
$DIMALTF
 40
0.0394
  9
$DIMLFAC
 40
1.0
  9
$DIMTOFL
 70
     1
  9
$DIMTVP
 40
0.0
  9
$DIMTIX
 70
     1
  9
$DIMSOXD
 70
     0
  9
$DIMSAH
 70
     1
  9
$DIMBLK1
  1
DOTSMALL
  9
$DIMBLK2
  1
DOTSMALL
  9
$DIMSTYLE
  2
INABA_S40G
  9
$DIMCLRD
 70
     0
  9
$DIMCLRE
 70
     0
  9
$DIMCLRT
 70
     7
  9
$DIMTFAC
 40
1.0
  9
$DIMGAP
 40
1.0
  9
$DIMJUST
 70
     0
  9
$DIMSD1
 70
     0
  9
$DIMSD2
 70
     0
  9
$DIMTOLJ
 70
     1
  9
$DIMTZIN
 70
     0
  9
$DIMALTZ
 70
     0
  9
$DIMALTTZ
 70
     0
  9
$DIMUPT
 70
     0
  9
$DIMDEC
 70
     1
  9
$DIMTDEC
 70
     4
  9
$DIMALTU
 70
     2
  9
$DIMALTTD
 70
     2
  9
$DIMTXSTY
  7
STYLE1
  9
$DIMAUNIT
 70
     0
  9
$DIMADEC
 70
     0
  9
$DIMALTRND
 40
0.0
  9
$DIMAZIN
 70
     0
  9
$DIMDSEP
 70
    46
  9
$DIMATFIT
 70
     3
  9
$DIMFRAC
 70
     0
  9
$DIMLDRBLK
  1

  9
$DIMLUNIT
 70
     2
  9
$DIMLWD
 70
    -2
  9
$DIMLWE
 70
    -2
  9
$DIMTMOVE
 70
     0
  9
$LUNITS
 70
     2
  9
$LUPREC
 70
     1
  9
$SKETCHINC
 40
1.0
  9
$FILLETRAD
 40
3.0
  9
$AUNITS
 70
     0
  9
$AUPREC
 70
     0
  9
$MENU
  1
acad
  9
$ELEVATION
 40
0.0
  9
$PELEVATION
 40
0.0
  9
$THICKNESS
 40
0.0
  9
$LIMCHECK
 70
     0
  9
$CHAMFERA
 40
0.0
  9
$CHAMFERB
 40
0.0
  9
$CHAMFERC
 40
0.0
  9
$CHAMFERD
 40
0.0
  9
$SKPOLY
 70
     0
  9
$TDCREATE
 40
2451368.612993866
  9
$TDUCREATE
 40
2451368.237993866
  9
$TDUPDATE
 40
2455827.647627812
  9
$TDUUPDATE
 40
2455827.272627812
  9
$TDINDWG
 40
0.7263241551
  9
$TDUSRTIMER
 40
0.7263241551
  9
$USRTIMER
 70
     1
  9
$ANGBASE
 50
0.0
  9
$ANGDIR
 70
     0
  9
$PDMODE
 70
     3
  9
$PDSIZE
 40
2.0
  9
$PLINEWID
 40
0.0
  9
$SPLFRAME
 70
     0
  9
$SPLINETYPE
 70
     6
  9
$SPLINESEGS
 70
     8
  9
$HANDSEED
  5
223F2
  9
$SURFTAB1
 70
     6
  9
$SURFTAB2
 70
     6
  9
$SURFTYPE
 70
     6
  9
$SURFU
 70
     6
  9
$SURFV
 70
     6
  9
$UCSBASE
  2

  9
$UCSNAME
  2

  9
$UCSORG
 10
0.0
 20
0.0
 30
0.0
  9
$UCSXDIR
 10
1.0
 20
0.0
 30
0.0
  9
$UCSYDIR
 10
0.0
 20
1.0
 30
0.0
  9
$UCSORTHOREF
  2

  9
$UCSORTHOVIEW
 70
     0
  9
$UCSORGTOP
 10
0.0
 20
0.0
 30
0.0
  9
$UCSORGBOTTOM
 10
0.0
 20
0.0
 30
0.0
  9
$UCSORGLEFT
 10
0.0
 20
0.0
 30
0.0
  9
$UCSORGRIGHT
 10
0.0
 20
0.0
 30
0.0
  9
$UCSORGFRONT
 10
0.0
 20
0.0
 30
0.0
  9
$UCSORGBACK
 10
0.0
 20
0.0
 30
0.0
  9
$PUCSBASE
  2

  9
$PUCSNAME
  2

  9
$PUCSORG
 10
0.0
 20
0.0
 30
0.0
  9
$PUCSXDIR
 10
1.0
 20
0.0
 30
0.0
  9
$PUCSYDIR
 10
0.0
 20
1.0
 30
0.0
  9
$PUCSORTHOREF
  2

  9
$PUCSORTHOVIEW
 70
     0
  9
$PUCSORGTOP
 10
0.0
 20
0.0
 30
0.0
  9
$PUCSORGBOTTOM
 10
0.0
 20
0.0
 30
0.0
  9
$PUCSORGLEFT
 10
0.0
 20
0.0
 30
0.0
  9
$PUCSORGRIGHT
 10
0.0
 20
0.0
 30
0.0
  9
$PUCSORGFRONT
 10
0.0
 20
0.0
 30
0.0
  9
$PUCSORGBACK
 10
0.0
 20
0.0
 30
0.0
  9
$USERI1
 70
     0
  9
$USERI2
 70
     0
  9
$USERI3
 70
     0
  9
$USERI4
 70
     0
  9
$USERI5
 70
     0
  9
$USERR1
 40
0.0
  9
$USERR2
 40
0.0
  9
$USERR3
 40
0.0
  9
$USERR4
 40
0.0
  9
$USERR5
 40
0.0
  9
$WORLDVIEW
 70
     1
  9
$SHADEDGE
 70
     3
  9
$SHADEDIF
 70
    70
  9
$TILEMODE
 70
     1
  9
$MAXACTVP
 70
    16
  9
$PINSBASE
 10
0.0
 20
0.0
 30
0.0
  9
$PLIMCHECK
 70
     0
  9
$PEXTMIN
 10
1.000000000000000E+20
 20
1.000000000000000E+20
 30
1.000000000000000E+20
  9
$PEXTMAX
 10
-1.000000000000000E+20
 20
-1.000000000000000E+20
 30
-1.000000000000000E+20
  9
$PLIMMIN
 10
0.0
 20
0.0
  9
$PLIMMAX
 10
420.0
 20
297.0
  9
$UNITMODE
 70
     0
  9
$VISRETAIN
 70
     0
  9
$PLINEGEN
 70
     0
  9
$PSLTSCALE
 70
     0
  9
$TREEDEPTH
 70
  3020
  9
$CMLSTYLE
  2
STANDARD
  9
$CMLJUST
 70
     0
  9
$CMLSCALE
 40
1.0
  9
$PROXYGRAPHICS
 70
     1
  9
$MEASUREMENT
 70
     1
  9
$CELWEIGHT
370
    -1
  9
$ENDCAPS
280
     0
  9
$JOINSTYLE
280
     0
  9
$LWDISPLAY
290
     0
  9
$INSUNITS
 70
     0
  9
$HYPERLINKBASE
  1

  9
$STYLESHEET
  1
ACA3.ctb
  9
$XEDIT
290
     1
  9
$CEPSNTYPE
380
     0
  9
$PSTYLEMODE
290
     1
  9
$FINGERPRINTGUID
  2
{5EAC461A-2277-4BF8-9AB0-99C43BB394F0}
  9
$VERSIONGUID
  2
{247A3EED-2435-48DC-8C54-D6E7953ED97D}
  9
$EXTNAMES
290
     1
  9
$PSVPSCALE
 40
0.0
  9
$OLESTARTUP
290
     0
  0
ENDSEC
  0
SECTION
  2
CLASSES
  0
CLASS
  1
ACDBDICTIONARYWDFLT
  2
AcDbDictionaryWithDefault
  3
ObjectDBX Classes
 90
        0
280
     0
281
     0
  0
CLASS
  1
DICTIONARYVAR
  2
AcDbDictionaryVar
  3
ObjectDBX Classes
 90
        0
280
     0
281
     0
  0
CLASS
  1
ACDBPLACEHOLDER
  2
AcDbPlaceHolder
  3
ObjectDBX Classes
 90
        0
280
     0
281
     0
  0
CLASS
  1
LAYOUT
  2
AcDbLayout
  3
ObjectDBX Classes
 90
        0
280
     0
281
     0
  0
ENDSEC
  0
SECTION
  2
TABLES
  0
TABLE
  2
VPORT
  5
746D
330
0
100
AcDbSymbolTable
 70
     2
  0
VPORT
  5
223EA
330
746D
100
AcDbSymbolTableRecord
100
AcDbViewportTableRecord
  2
*Active
 70
     0
 10
0.0
 20
0.0
 11
1.0
 21
1.0
 12
8400.000000000002
 22
6549.946166695298
 13
0.0
 23
0.0
 14
10.0
 24
10.0
 15
10.0
 25
10.0
 16
0.0
 26
0.0
 36
1.0
 17
0.0
 27
0.0
 37
0.0
 40
13195.53335973782
 41
1.522222222222222
 42
50.0
 43
0.0
 44
0.0
 50
0.0
 51
0.0
 71
     0
 72
     0
 73
     1
 74
     0
 75
     0
 76
     0
 77
     0
 78
     0
281
     0
 65
     1
110
0.0
120
0.0
130
0.0
111
1.0
121
0.0
131
0.0
112
0.0
122
1.0
132
0.0
 79
     0
146
0.0
  0
ENDTAB
  0
TABLE
  2
LTYPE
  5
746A
330
0
100
AcDbSymbolTable
 70
     5
  0
LTYPE
  5
7477
330
746A
100
AcDbSymbolTableRecord
100
AcDbLinetypeTableRecord
  2
BYBLOCK
 70
     0
  3

 72
    65
 73
     0
 40
0.0
  0
LTYPE
  5
7478
330
746A
100
AcDbSymbolTableRecord
100
AcDbLinetypeTableRecord
  2
BYLAYER
 70
     0
  3

 72
    65
 73
     0
 40
0.0
  0
LTYPE
  5
7479
330
746A
100
AcDbSymbolTableRecord
100
AcDbLinetypeTableRecord
  2
CONTINUOUS
 70
     0
  3
Solid line
 72
    65
 73
     0
 40
0.0
  0
LTYPE
  5
7816
330
746A
100
AcDbSymbolTableRecord
100
AcDbLinetypeTableRecord
  2
CENTER
 70
     0
  3
____ _ ____ _ ____ _ ____ _ ____ _ ____ _ ____ 
 72
    65
 73
     4
 40
2.0
 49
1.25
 74
     0
 49
-0.25
 74
     0
 49
0.25
 74
     0
 49
-0.25
 74
     0
  0
LTYPE
  5
781A
330
746A
100
AcDbSymbolTableRecord
100
AcDbLinetypeTableRecord
  2
HIDDEN
 70
     0
  3
__ __ __ __ __ __ __ __ __ __ __ __ __ __ __ __
 72
    65
 73
     2
 40
0.375
 49
0.25
 74
     0
 49
-0.125
 74
     0
  0
LTYPE
  5
781B
330
746A
100
AcDbSymbolTableRecord
100
AcDbLinetypeTableRecord
  2
PHANTOM
 70
     0
  3
______  __  __  ______  __  __  ______  __  __ 
 72
    65
 73
     6
 40
2.5
 49
1.25
 74
     0
 49
-0.25
 74
     0
 49
0.25
 74
     0
 49
-0.25
 74
     0
 49
0.25
 74
     0
 49
-0.25
 74
     0
  0
LTYPE
  5
12CC3
330
746A
100
AcDbSymbolTableRecord
100
AcDbLinetypeTableRecord
  2
HIDDENX2
 70
     0
  3
Hidden (2x) ____ ____ ____ ____ ____ ____ ____
 72
    65
 73
     2
 40
19.05
 49
12.7
 74
     0
 49
-6.349999999999999
 74
     0
  0
ENDTAB
  0
TABLE
  2
LAYER
  5
7467
102
{ACAD_XDICTIONARY
360
1758F
102
}
330
0
100
AcDbSymbolTable
 70
    13
  0
LAYER
  5
7474
330
7467
100
AcDbSymbolTableRecord
100
AcDbLayerTableRecord
  2
0
 70
     0
 62
     7
  6
CONTINUOUS
370
    -3
390
173D0
  0
LAYER
  5
DEB2
330
7467
100
AcDbSymbolTableRecord
100
AcDbLayerTableRecord
  2
センター
 70
     0
 62
     3
  6
CENTER
370
    -3
390
173D0
  0
LAYER
  5
DEB3
330
7467
100
AcDbSymbolTableRecord
100
AcDbLayerTableRecord
  2
寸法
 70
     0
 62
     4
  6
CONTINUOUS
370
    -3
390
173D0
  0
LAYER
  5
DEB4
330
7467
100
AcDbSymbolTableRecord
100
AcDbLayerTableRecord
  2
部品1
 70
     0
 62
     7
  6
CONTINUOUS
370
    -3
390
173D0
  0
LAYER
  5
DEB5
330
7467
100
AcDbSymbolTableRecord
100
AcDbLayerTableRecord
  2
補助
 70
     0
 62
    -1
  6
CONTINUOUS
370
    -3
390
173D0
  0
LAYER
  5
DEB6
330
7467
100
AcDbSymbolTableRecord
100
AcDbLayerTableRecord
  2
文字
 70
     0
 62
     7
  6
CONTINUOUS
370
    -3
390
173D0
  0
LAYER
  5
F255
330
7467
100
AcDbSymbolTableRecord
100
AcDbLayerTableRecord
  2
DEFPOINTS
 70
     0
 62
     7
  6
CONTINUOUS
290
     0
370
    -3
390
173D0
  0
LAYER
  5
10B54
330
7467
100
AcDbSymbolTableRecord
100
AcDbLayerTableRecord
  2
仕様書枠
 70
     0
 62
   230
  6
CONTINUOUS
370
    -3
390
173D0
  0
LAYER
  5
11729
330
7467
100
AcDbSymbolTableRecord
100
AcDbLayerTableRecord
  2
Ｇ．Ｌ
 70
     0
 62
    30
  6
CONTINUOUS
370
    -3
390
173D0
  0
LAYER
  5
1173F
330
7467
100
AcDbSymbolTableRecord
100
AcDbLayerTableRecord
  2
細線
 70
     0
 62
     5
  6
CONTINUOUS
370
    -3
390
173D0
  0
LAYER
  5
12CC4
330
7467
100
AcDbSymbolTableRecord
100
AcDbLayerTableRecord
  2
想像線
 70
     0
 62
     6
  6
PHANTOM
370
    -3
390
173D0
  0
LAYER
  5
142E2
330
7467
100
AcDbSymbolTableRecord
100
AcDbLayerTableRecord
  2
破線
 70
     0
 62
     2
  6
HIDDEN
370
    -3
390
173D0
  0
LAYER
  5
1F7B1
330
7467
100
AcDbSymbolTableRecord
100
AcDbLayerTableRecord
  2
点線
 70
     0
 62
     2
  6
HIDDEN
370
    -3
390
173D0
  0
ENDTAB
  0
TABLE
  2
STYLE
  5
7468
330
0
100
AcDbSymbolTable
 70
     7
  0
STYLE
  5
7475
330
7468
100
AcDbSymbolTableRecord
100
AcDbTextStyleTableRecord
  2
STANDARD
 70
     0
 40
0.0
 41
1.0
 50
0.0
 71
     0
 42
4.0
  3
txt
  4
C:\AutoCAD LT\bigfont.shx
  0
STYLE
  5
763C
330
7468
100
AcDbSymbolTableRecord
100
AcDbTextStyleTableRecord
  2
MSMINCHO
 70
     0
 40
0.0
 41
1.0
 50
0.0
 71
     0
 42
1.199999999999999
  3
C:\AutoCAD LT\msminch2.TTF
  4

  0
STYLE
  5
F706
330
7468
100
AcDbSymbolTableRecord
100
AcDbTextStyleTableRecord
  2
STYLE1
 70
     0
 40
0.0
 41
1.0
 50
0.0
 71
     0
 42
4.0
  3
isocp.shx
  4
bigfont.shx
  0
STYLE
  5
103BF
330
7468
100
AcDbSymbolTableRecord
100
AcDbTextStyleTableRecord
  2
STYLE2
 70
     0
 40
0.0
 41
1.0
 50
0.0
 71
     0
 42
100.0
  3
MS PGothic.ttf
  4

1001
ACAD
1000
MS PGothic
1071
    32818
  0
STYLE
  5
10BAA
330
7468
100
AcDbSymbolTableRecord
100
AcDbTextStyleTableRecord
  2
STYLE3
 70
     0
 40
0.0
 41
1.0
 50
0.0
 71
     0
 42
100.0
  3

  4

1001
ACAD
1000
DFPGothic-EB
1071
    32818
  0
STYLE
  5
11A15
330
7468
100
AcDbSymbolTableRecord
100
AcDbTextStyleTableRecord
  2
MSGOTHIC
 70
     0
 40
0.0
 41
1.0
 50
0.0
 71
     0
 42
3.5
  3
msgothi2.ttf
  4

  0
STYLE
  5
13E96
330
7468
100
AcDbSymbolTableRecord
100
AcDbTextStyleTableRecord
  2
MSPゴシック
 70
     0
 40
0.0
 41
1.0
 50
0.0
 71
     0
 42
4.0
  3
MS PGothic.ttf
  4

1001
ACAD
1000
MS PGothic
1071
    32818
  0
ENDTAB
  0
TABLE
  2
VIEW
  5
746B
330
0
100
AcDbSymbolTable
 70
     0
  0
ENDTAB
  0
TABLE
  2
UCS
  5
746C
330
0
100
AcDbSymbolTable
 70
     0
  0
ENDTAB
  0
TABLE
  2
APPID
  5
746E
330
0
100
AcDbSymbolTable
 70
     6
  0
APPID
  5
7476
330
746E
100
AcDbSymbolTableRecord
100
AcDbRegAppTableRecord
  2
ACAD
 70
     0
  0
APPID
  5
DEA9
330
746E
100
AcDbSymbolTableRecord
100
AcDbRegAppTableRecord
  2
CONTENTBLOCKICON
 70
     0
  0
APPID
  5
DEAA
330
746E
100
AcDbSymbolTableRecord
100
AcDbRegAppTableRecord
  2
CONTENTBLOCKDESCRIPTION
 70
     0
  0
APPID
  5
E71D
330
746E
100
AcDbSymbolTableRecord
100
AcDbRegAppTableRecord
  2
CONTENTTABDATA
 70
     0
  0
APPID
  5
E71E
330
746E
100
AcDbSymbolTableRecord
100
AcDbRegAppTableRecord
  2
CONTENTCURRENTTAB
 70
     0
  0
APPID
  5
F3BA
330
746E
100
AcDbSymbolTableRecord
100
AcDbRegAppTableRecord
  2
DRAWINGVARIABLESXDATA
 70
     0
  0
ENDTAB
  0
TABLE
  2
DIMSTYLE
  5
746F
330
0
100
AcDbSymbolTable
 70
     6
100
AcDbDimStyleTable
 71
     1
340
F71F
  0
DIMSTYLE
105
7484
330
746F
100
AcDbSymbolTableRecord
100
AcDbDimStyleTableRecord
  2
JIS
 70
     0
 41
2.5
 42
1.0
 43
7.0
 44
1.0
 73
     0
 74
     0
 77
     1
 78
     8
140
2.5
141
0.0
143
0.0394
147
0.0
172
     1
174
     1
175
     1
340
7475
  0
DIMSTYLE
105
F236
330
746F
100
AcDbSymbolTableRecord
100
AcDbDimStyleTableRecord
  2
INABA_S40
 70
     0
 40
40.0
 41
2.5
 42
0.5
 43
7.0
 44
1.5
 73
     0
 74
     0
 77
     3
 78
     8
140
3.0
141
0.0
143
0.0394
147
1.0
172
     1
173
     1
174
     1
175
     1
178
     7
289
     0
340
7475
341
DEAC
343
DEAC
344
DEAC
  0
DIMSTYLE
105
F71F
102
{ACAD_REACTORS
330
202C8
330
2030F
330
20311
330
2031B
330
1FC6F
330
1FC4A
330
1FC2F
330
1FC2E
330
1FB37
330
1FB11
330
1FB0F
330
1FB0E
330
1FA26
330
1FA21
330
1FA1F
330
1FB10
330
1FB0C
330
1FA2F
330
1FC59
330
1FC40
330
1FC30
330
1FB76
330
21720
330
21742
330
2176E
330
21785
330
217D3
330
2229B
330
22228
330
22229
330
22231
330
22238
330
2223B
102
}
330
746F
100
AcDbSymbolTableRecord
100
AcDbDimStyleTableRecord
  2
INABA_S40G
 70
     0
 40
40.0
 41
2.5
 42
0.5
 43
7.0
 44
1.5
 73
     0
 74
     0
 77
     3
 78
     8
140
3.0
141
0.0
143
0.0394
147
1.0
172
     1
173
     1
174
     1
178
     7
271
     1
340
F706
341
F770
343
F770
344
F770
  0
DIMSTYLE
105
142E3
330
746F
100
AcDbSymbolTableRecord
100
AcDbDimStyleTableRecord
  2
INABA_S1
 70
     0
 40
0.0
 41
2.5
 42
0.5
 43
7.0
 44
1.5
 73
     0
 74
     0
 77
     3
 78
     8
140
3.0
141
0.0
143
0.0394
146
0.5
147
0.5
172
     1
173
     1
176
   256
177
   256
178
     7
271
     2
272
     2
284
     8
288
     1
340
7475
341
DEAC
343
DEAC
344
DEAC
  0
DIMSTYLE
105
14463
330
746F
100
AcDbSymbolTableRecord
100
AcDbDimStyleTableRecord
  2
INABA_S30G
 70
     0
 40
30.0
 41
2.5
 42
0.5
 43
7.0
 44
1.5
 73
     0
 74
     0
 77
     3
 78
     8
140
3.0
141
0.0
143
0.0394
147
1.0
172
     1
173
     1
174
     1
175
     1
178
     7
271
     1
340
F706
341
F770
343
F770
344
F770
  0
DIMSTYLE
105
1758E
330
746F
100
AcDbSymbolTableRecord
100
AcDbDimStyleTableRecord
  2
INABA_S50G
 70
     0
 41
125.0
 42
25.0
 43
7.0
 44
75.0
 73
     0
 74
     0
 77
     3
 78
     8
140
150.0
141
0.0
143
0.0394
147
25.0
172
     1
173
     1
174
     1
175
     1
178
     7
271
     1
340
F706
341
F770
343
F770
344
F770
  0
ENDTAB
  0
TABLE
  2
BLOCK_RECORD
  5
7466
330
0
100
AcDbSymbolTable
 70
    64
  0
BLOCK_RECORD
  5
747D
330
7466
100
AcDbSymbolTableRecord
100
AcDbBlockTableRecord
  2
*MODEL_SPACE
340
173D5
  0
BLOCK_RECORD
  5
747A
330
7466
100
AcDbSymbolTableRecord
100
AcDbBlockTableRecord
  2
*PAPER_SPACE
340
173D6
  0
BLOCK_RECORD
  5
DEAC
330
7466
100
AcDbSymbolTableRecord
100
AcDbBlockTableRecord
  2
_OPEN
340
0
  0
BLOCK_RECORD
  5
F770
330
7466
100
AcDbSymbolTableRecord
100
AcDbBlockTableRecord
  2
_DOTSMALL
340
0
102
{BLKREFS
331
18C65
331
18C66
331
18C59
331
18C5A
331
18C4D
331
18C4E
331
18C41
331
18C42
331
18C35
331
18C36
331
18C29
331
18C2A
331
18C1D
331
18C1E
331
18C0F
331
18C10
331
18C03
331
18C04
331
18BF5
331
18BF6
331
18BE7
331
18BE8
331
18BD9
331
18BDA
331
18BCD
331
18BCE
331
21849
331
2184A
331
21852
331
21853
331
2185A
331
2185B
331
2186C
331
2186D
331
21875
331
21876
331
21880
331
21881
331
2188B
331
2188C
331
21896
331
21897
331
218A1
331
218A2
331
218AB
331
218AC
331
218BF
331
218C0
331
218C8
331
218C9
331
218D1
331
218D2
331
218DA
331
218DB
331
218E3
331
218E4
331
218ED
331
218EE
331
218F6
331
218F7
331
218FF
331
21900
331
21912
331
21913
331
2191C
331
2191D
331
2192F
331
21930
331
21938
331
21939
331
21941
331
21942
331
2194A
331
2194B
331
2195E
331
2195F
331
21967
331
21968
331
2197C
331
2197D
331
21D2A
331
21D2B
331
22058
331
22059
331
22061
331
22062
331
2206A
331
2206B
331
22078
331
22079
331
22080
331
22081
331
2208A
331
2208B
331
220B7
331
220B8
331
220AB
331
220AC
331
2209F
331
220A0
331
220DF
331
220E0
331
220D4
331
220D5
331
220C3
331
220C4
331
223A5
331
223A6
331
223AD
331
223AE
331
223BC
331
223BD
331
223C5
331
223C6
331
223CE
331
223CF
331
223D7
331
223D8
102
}
  0
BLOCK_RECORD
  5
164B4
330
7466
100
AcDbSymbolTableRecord
100
AcDbBlockTableRecord
  2
_DOT
340
0
102
{BLKREFS
331
18C73
331
18C74
102
}
  0
BLOCK_RECORD
  5
18BC8
330
7466
100
AcDbSymbolTableRecord
100
AcDbBlockTableRecord
  2
*D3
340
0
  0
BLOCK_RECORD
  5
18BD4
330
7466
100
AcDbSymbolTableRecord
100
AcDbBlockTableRecord
  2
*D4
340
0
  0
BLOCK_RECORD
  5
18BE0
330
7466
100
AcDbSymbolTableRecord
100
AcDbBlockTableRecord
  2
*D5
340
0
  0
BLOCK_RECORD
  5
18BEE
330
7466
100
AcDbSymbolTableRecord
100
AcDbBlockTableRecord
  2
*D6
340
0
  0
BLOCK_RECORD
  5
18BFC
330
7466
100
AcDbSymbolTableRecord
100
AcDbBlockTableRecord
  2
*D7
340
0
  0
BLOCK_RECORD
  5
18C0A
330
7466
100
AcDbSymbolTableRecord
100
AcDbBlockTableRecord
  2
*D8
340
0
  0
BLOCK_RECORD
  5
18C16
330
7466
100
AcDbSymbolTableRecord
100
AcDbBlockTableRecord
  2
*D9
340
0
  0
BLOCK_RECORD
  5
18C24
330
7466
100
AcDbSymbolTableRecord
100
AcDbBlockTableRecord
  2
*D10
340
0
  0
BLOCK_RECORD
  5
18C30
330
7466
100
AcDbSymbolTableRecord
100
AcDbBlockTableRecord
  2
*D11
340
0
  0
BLOCK_RECORD
  5
18C3C
330
7466
100
AcDbSymbolTableRecord
100
AcDbBlockTableRecord
  2
*D12
340
0
  0
BLOCK_RECORD
  5
18C48
330
7466
100
AcDbSymbolTableRecord
100
AcDbBlockTableRecord
  2
*D13
340
0
  0
BLOCK_RECORD
  5
18C54
330
7466
100
AcDbSymbolTableRecord
100
AcDbBlockTableRecord
  2
*D14
340
0
  0
BLOCK_RECORD
  5
18C60
330
7466
100
AcDbSymbolTableRecord
100
AcDbBlockTableRecord
  2
*D15
340
0
  0
BLOCK_RECORD
  5
18C6C
330
7466
100
AcDbSymbolTableRecord
100
AcDbBlockTableRecord
  2
*D16
340
0
  0
BLOCK_RECORD
  5
18C7A
330
7466
100
AcDbSymbolTableRecord
100
AcDbBlockTableRecord
  2
A$C3B1A506B
340
0
  0
BLOCK_RECORD
  5
1C4CA
330
7466
100
AcDbSymbolTableRecord
100
AcDbBlockTableRecord
  2
_NONE
340
0
  0
BLOCK_RECORD
  5
1FC7E
330
7466
100
AcDbSymbolTableRecord
100
AcDbBlockTableRecord
  2
*D19
340
0
  0
BLOCK_RECORD
  5
1FC89
330
7466
100
AcDbSymbolTableRecord
100
AcDbBlockTableRecord
  2
*D20
340
0
  0
BLOCK_RECORD
  5
1FC94
330
7466
100
AcDbSymbolTableRecord
100
AcDbBlockTableRecord
  2
*D21
340
0
  0
BLOCK_RECORD
  5
1FC9F
330
7466
100
AcDbSymbolTableRecord
100
AcDbBlockTableRecord
  2
*D22
340
0
  0
BLOCK_RECORD
  5
1FCFB
330
7466
100
AcDbSymbolTableRecord
100
AcDbBlockTableRecord
  2
*D23
340
0
  0
BLOCK_RECORD
  5
1FD10
330
7466
100
AcDbSymbolTableRecord
100
AcDbBlockTableRecord
  2
*D24
340
0
  0
BLOCK_RECORD
  5
1FD1D
330
7466
100
AcDbSymbolTableRecord
100
AcDbBlockTableRecord
  2
*D25
340
0
  0
BLOCK_RECORD
  5
1FD2A
330
7466
100
AcDbSymbolTableRecord
100
AcDbBlockTableRecord
  2
*D26
340
0
  0
BLOCK_RECORD
  5
1FD36
330
7466
100
AcDbSymbolTableRecord
100
AcDbBlockTableRecord
  2
*D27
340
0
  0
BLOCK_RECORD
  5
1FD7F
330
7466
100
AcDbSymbolTableRecord
100
AcDbBlockTableRecord
  2
*D28
340
0
  0
BLOCK_RECORD
  5
1FD96
330
7466
100
AcDbSymbolTableRecord
100
AcDbBlockTableRecord
  2
*D29
340
0
  0
BLOCK_RECORD
  5
1FDE9
330
7466
100
AcDbSymbolTableRecord
100
AcDbBlockTableRecord
  2
*D30
340
0
  0
BLOCK_RECORD
  5
1FDF5
330
7466
100
AcDbSymbolTableRecord
100
AcDbBlockTableRecord
  2
*D31
340
0
  0
BLOCK_RECORD
  5
1FE00
330
7466
100
AcDbSymbolTableRecord
100
AcDbBlockTableRecord
  2
*D32
340
0
  0
BLOCK_RECORD
  5
1FE0B
330
7466
100
AcDbSymbolTableRecord
100
AcDbBlockTableRecord
  2
*D33
340
0
  0
BLOCK_RECORD
  5
1FE17
330
7466
100
AcDbSymbolTableRecord
100
AcDbBlockTableRecord
  2
*D34
340
0
  0
BLOCK_RECORD
  5
1FE24
330
7466
100
AcDbSymbolTableRecord
100
AcDbBlockTableRecord
  2
*D35
340
0
  0
BLOCK_RECORD
  5
1FE31
330
7466
100
AcDbSymbolTableRecord
100
AcDbBlockTableRecord
  2
*D36
340
0
  0
BLOCK_RECORD
  5
2033A
330
7466
100
AcDbSymbolTableRecord
100
AcDbBlockTableRecord
  2
*D37
340
0
  0
BLOCK_RECORD
  5
203C4
330
7466
100
AcDbSymbolTableRecord
100
AcDbBlockTableRecord
  2
*D38
340
0
  0
BLOCK_RECORD
  5
203DF
330
7466
100
AcDbSymbolTableRecord
100
AcDbBlockTableRecord
  2
*D39
340
0
  0
BLOCK_RECORD
  5
20407
330
7466
100
AcDbSymbolTableRecord
100
AcDbBlockTableRecord
  2
*D40
340
0
  0
BLOCK_RECORD
  5
21721
330
7466
100
AcDbSymbolTableRecord
100
AcDbBlockTableRecord
  2
*D41
340
0
  0
BLOCK_RECORD
  5
21743
330
7466
100
AcDbSymbolTableRecord
100
AcDbBlockTableRecord
  2
*D42
340
0
  0
BLOCK_RECORD
  5
2176F
330
7466
100
AcDbSymbolTableRecord
100
AcDbBlockTableRecord
  2
*D43
340
0
  0
BLOCK_RECORD
  5
21786
330
7466
100
AcDbSymbolTableRecord
100
AcDbBlockTableRecord
  2
*D44
340
0
  0
BLOCK_RECORD
  5
217D4
330
7466
100
AcDbSymbolTableRecord
100
AcDbBlockTableRecord
  2
*D45
340
0
  0
BLOCK_RECORD
  5
22354
330
7466
100
AcDbSymbolTableRecord
100
AcDbBlockTableRecord
  2
*D58
340
0
  0
BLOCK_RECORD
  5
22360
330
7466
100
AcDbSymbolTableRecord
100
AcDbBlockTableRecord
  2
*D59
340
0
  0
BLOCK_RECORD
  5
2236C
330
7466
100
AcDbSymbolTableRecord
100
AcDbBlockTableRecord
  2
*D60
340
0
  0
BLOCK_RECORD
  5
2237D
330
7466
100
AcDbSymbolTableRecord
100
AcDbBlockTableRecord
  2
*D61
340
0
  0
BLOCK_RECORD
  5
22389
330
7466
100
AcDbSymbolTableRecord
100
AcDbBlockTableRecord
  2
*D62
340
0
  0
BLOCK_RECORD
  5
22395
330
7466
100
AcDbSymbolTableRecord
100
AcDbBlockTableRecord
  2
*D63
340
0
  0
ENDTAB
  0
ENDSEC
  0
SECTION
  2
BLOCKS
  0
BLOCK
  5
7489
330
747D
100
AcDbEntity
  8
0
100
AcDbBlockBegin
  2
*MODEL_SPACE
 70
     0
 10
0.0
 20
0.0
 30
0.0
  3
*MODEL_SPACE
  1

  0
ENDBLK
  5
748A
330
747D
100
AcDbEntity
  8
0
100
AcDbBlockEnd
  0
BLOCK
  5
7487
330
747A
100
AcDbEntity
 67
     1
  8
0
100
AcDbBlockBegin
  2
*PAPER_SPACE
 70
     0
 10
0.0
 20
0.0
 30
0.0
  3
*PAPER_SPACE
  1

  0
ENDBLK
  5
7488
330
747A
100
AcDbEntity
 67
     1
  8
0
100
AcDbBlockEnd
  0
BLOCK
  5
DEAD
330
DEAC
100
AcDbEntity
  8
0
100
AcDbBlockBegin
  2
_OPEN
 70
     0
 10
0.0
 20
0.0
 30
0.0
  3
_OPEN
  1

  0
LINE
  5
DEAE
330
DEAC
100
AcDbEntity
  8
0
  6
ByBlock
 62
     0
100
AcDbLine
 10
-1.0
 20
0.1666666666666666
 30
0.0
 11
0.0
 21
0.0
 31
0.0
  0
LINE
  5
DEAF
330
DEAC
100
AcDbEntity
  8
0
  6
ByBlock
 62
     0
100
AcDbLine
 10
0.0
 20
0.0
 30
0.0
 11
-1.0
 21
-0.1666666666666666
 31
0.0
  0
LINE
  5
DEB0
330
DEAC
100
AcDbEntity
  8
0
  6
ByBlock
 62
     0
100
AcDbLine
 10
0.0
 20
0.0
 30
0.0
 11
-1.0
 21
0.0
 31
0.0
  0
ENDBLK
  5
DEB1
330
DEAC
100
AcDbEntity
  8
0
100
AcDbBlockEnd
  0
BLOCK
  5
F771
330
F770
100
AcDbEntity
  8
0
 48
50.0
100
AcDbBlockBegin
  2
_DOTSMALL
 70
     0
 10
0.0
 20
0.0
 30
0.0
  3
_DOTSMALL
  1

  0
LWPOLYLINE
  5
F772
330
F770
100
AcDbEntity
  8
0
  6
ByBlock
 62
     0
 48
50.0
100
AcDbPolyline
 90
        2
 70
     1
 43
0.5
 10
-0.0625
 20
0.0
 42
1.0
 10
0.0625
 20
0.0
 42
1.0
  0
ENDBLK
  5
F776
330
F770
100
AcDbEntity
  8
0
 48
50.0
100
AcDbBlockEnd
  0
BLOCK
  5
164BA
330
164B4
100
AcDbEntity
  8
0
 48
50.0
100
AcDbBlockBegin
  2
_DOT
 70
     0
 10
0.0
 20
0.0
 30
0.0
  3
_DOT
  1

  0
LWPOLYLINE
  5
164B5
330
164B4
100
AcDbEntity
  8
0
  6
ByBlock
 62
     0
 48
50.0
100
AcDbPolyline
 90
        2
 70
     1
 43
0.5
 10
-0.25
 20
0.0
 42
1.0
 10
0.25
 20
0.0
 42
1.0
  0
LINE
  5
164B9
330
164B4
100
AcDbEntity
  8
0
  6
ByBlock
 62
     0
 48
50.0
100
AcDbLine
 10
-0.5
 20
0.0
 30
0.0
 11
-1.0
 21
0.0
 31
0.0
  0
ENDBLK
  5
164BB
330
164B4
100
AcDbEntity
  8
0
 48
50.0
100
AcDbBlockEnd
  0
BLOCK
  5
18BC9
330
18BC8
100
AcDbEntity
  8
0
 48
50.0
100
AcDbBlockBegin
  2
*D3
 70
     1
 10
0.0
 20
0.0
 30
0.0
  3
*D3
  1

  0
LINE
  5
18BCA
330
18BC8
100
AcDbEntity
  8
寸法
 62
     0
 48
50.0
370
    -2
100
AcDbLine
 10
7649.896575106999
 20
9636.123139034717
 30
0.0
 11
8702.429862581047
 21
9636.123139034717
 31
0.0
  0
LINE
  5
18BCB
330
18BC8
100
AcDbEntity
  8
寸法
 62
     0
 48
50.0
370
    -2
100
AcDbLine
 10
7649.896575106973
 20
7846.123139034709
 30
0.0
 11
8702.429862581047
 21
7846.123139034709
 31
0.0
  0
LINE
  5
18BCC
330
18BC8
100
AcDbEntity
  8
寸法
 62
     0
 48
50.0
370
    -2
100
AcDbLine
 10
8642.429862581046
 20
9636.123139034717
 30
0.0
 11
8642.429862581046
 21
7846.123139034709
 31
0.0
  0
INSERT
  5
18BCD
330
18BC8
100
AcDbEntity
  8
寸法
 62
     0
 48
50.0
370
    -2
100
AcDbBlockReference
  2
_DOTSMALL
 10
8642.429862581046
 20
9636.123139034717
 30
0.0
 41
100.0
 42
100.0
 43
100.0
 50
90.0
  0
INSERT
  5
18BCE
330
18BC8
100
AcDbEntity
  8
寸法
 62
     0
 48
50.0
370
    -2
100
AcDbBlockReference
  2
_DOTSMALL
 10
8642.429862581046
 20
7846.123139034709
 30
0.0
 41
100.0
 42
100.0
 43
100.0
 50
270.0
  0
MTEXT
  5
18BCF
330
18BC8
100
AcDbEntity
  8
寸法
 62
     7
 48
50.0
100
AcDbMText
 10
8542.429862581045
 20
8741.123139034712
 30
0.0
 40
120.0
 41
0.0
 71
     5
 72
     1
  1
\A1;1790
  7
STYLE1
 11
0.0000000000000001
 21
1.0
 31
0.0
 73
     1
 44
1.0
1001
ACAD
1000
MTEXTBEGIN
1070
    73
1070
     1
1070
    44
1040
1.0
1070
    74
1070
     0
1000
MTEXTEND
  0
POINT
  5
18BD0
330
18BC8
100
AcDbEntity
  8
DEFPOINTS
 62
     0
 48
50.0
100
AcDbPoint
 10
7629.896575106998
 20
9636.123139034717
 30
0.0
  0
POINT
  5
18BD1
330
18BC8
100
AcDbEntity
  8
DEFPOINTS
 62
     0
 48
50.0
100
AcDbPoint
 10
7629.896575106974
 20
7846.123139034709
 30
0.0
  0
POINT
  5
18BD2
330
18BC8
100
AcDbEntity
  8
DEFPOINTS
 62
     0
 48
50.0
100
AcDbPoint
 10
8642.429862581046
 20
7846.123139034709
 30
0.0
  0
ENDBLK
  5
18BD3
330
18BC8
100
AcDbEntity
  8
0
 48
50.0
100
AcDbBlockEnd
  0
BLOCK
  5
18BD5
330
18BD4
100
AcDbEntity
  8
0
 48
50.0
100
AcDbBlockBegin
  2
*D4
 70
     1
 10
0.0
 20
0.0
 30
0.0
  3
*D4
  1

  0
LINE
  5
18BD6
330
18BD4
100
AcDbEntity
  8
寸法
 62
     0
 48
50.0
370
    -2
100
AcDbLine
 10
4214.896575106998
 20
9656.123139034622
 30
0.0
 11
4214.896575106998
 21
10211.93135865972
 31
0.0
  0
LINE
  5
18BD7
330
18BD4
100
AcDbEntity
  8
寸法
 62
     0
 48
50.0
370
    -2
100
AcDbLine
 10
7574.896575106999
 20
9656.123139034718
 30
0.0
 11
7574.896575106999
 21
10211.93135865972
 31
0.0
  0
LINE
  5
18BD8
330
18BD4
100
AcDbEntity
  8
寸法
 62
     0
 48
50.0
370
    -2
100
AcDbLine
 10
4214.896575106998
 20
10151.93135865972
 30
0.0
 11
7574.896575106999
 21
10151.93135865972
 31
0.0
  0
INSERT
  5
18BD9
330
18BD4
100
AcDbEntity
  8
寸法
 62
     0
 48
50.0
370
    -2
100
AcDbBlockReference
  2
_DOTSMALL
 10
4214.896575106998
 20
10151.93135865972
 30
0.0
 41
100.0
 42
100.0
 43
100.0
 50
180.0
  0
INSERT
  5
18BDA
330
18BD4
100
AcDbEntity
  8
寸法
 62
     0
 48
50.0
370
    -2
100
AcDbBlockReference
  2
_DOTSMALL
 10
7574.896575106999
 20
10151.93135865972
 30
0.0
 41
100.0
 42
100.0
 43
100.0
  0
MTEXT
  5
18BDB
330
18BD4
100
AcDbEntity
  8
寸法
 62
     7
 48
50.0
100
AcDbMText
 10
5894.896575106997
 20
10251.94316968334
 30
0.0
 40
120.0
 41
0.0
 71
     5
 72
     1
  1
\A1;8X420=3360
  7
STYLE1
 73
     1
 44
1.0
1001
ACAD
1000
MTEXTBEGIN
1070
    73
1070
     1
1070
    44
1040
1.0
1070
    74
1070
     0
1000
MTEXTEND
  0
POINT
  5
18BDC
330
18BD4
100
AcDbEntity
  8
DEFPOINTS
 62
     0
 48
50.0
100
AcDbPoint
 10
4214.896575106998
 20
9636.123139034623
 30
0.0
  0
POINT
  5
18BDD
330
18BD4
100
AcDbEntity
  8
DEFPOINTS
 62
     0
 48
50.0
100
AcDbPoint
 10
7574.896575106999
 20
9636.123139034717
 30
0.0
  0
POINT
  5
18BDE
330
18BD4
100
AcDbEntity
  8
DEFPOINTS
 62
     0
 48
50.0
100
AcDbPoint
 10
7574.896575106999
 20
10151.93135865972
 30
0.0
  0
ENDBLK
  5
18BDF
330
18BD4
100
AcDbEntity
  8
0
 48
50.0
100
AcDbBlockEnd
  0
BLOCK
  5
18BE1
330
18BE0
100
AcDbEntity
  8
0
 48
50.0
100
AcDbBlockBegin
  2
*D5
 70
     1
 10
0.0
 20
0.0
 30
0.0
  3
*D5
  1

  0
LINE
  5
18BE2
330
18BE0
100
AcDbEntity
  8
寸法
 62
     0
 48
50.0
370
    -2
100
AcDbLine
 10
7574.896575106999
 20
9656.123139034718
 30
0.0
 11
7574.896575106999
 21
10211.9313586597
 31
0.0
  0
LINE
  5
18BE3
330
18BE0
100
AcDbEntity
  8
寸法
 62
     0
 48
50.0
370
    -2
100
AcDbLine
 10
7629.896575106998
 20
9656.123139034718
 30
0.0
 11
7629.896575106998
 21
10211.9313586597
 31
0.0
  0
LINE
  5
18BE4
330
18BE0
100
AcDbEntity
  8
寸法
 62
     0
 48
50.0
370
    -2
100
AcDbLine
 10
7574.896575106999
 20
10151.9313586597
 30
0.0
 11
7474.896575106999
 21
10151.9313586597
 31
0.0
  0
LINE
  5
18BE5
330
18BE0
100
AcDbEntity
  8
寸法
 62
     0
 48
50.0
370
    -2
100
AcDbLine
 10
7629.896575106998
 20
10151.9313586597
 30
0.0
 11
8046.867137855477
 21
10151.9313586597
 31
0.0
  0
LINE
  5
18BE6
330
18BE0
100
AcDbEntity
  8
寸法
 62
     0
 48
50.0
370
    -2
100
AcDbLine
 10
7574.896575106999
 20
10151.9313586597
 30
0.0
 11
7629.896575106998
 21
10151.9313586597
 31
0.0
  0
INSERT
  5
18BE7
330
18BE0
100
AcDbEntity
  8
寸法
 62
     0
 48
50.0
370
    -2
100
AcDbBlockReference
  2
_DOTSMALL
 10
7574.896575106999
 20
10151.9313586597
 30
0.0
 41
100.0
 42
100.0
 43
100.0
  0
INSERT
  5
18BE8
330
18BE0
100
AcDbEntity
  8
寸法
 62
     0
 48
50.0
370
    -2
100
AcDbBlockReference
  2
_DOTSMALL
 10
7629.896575106998
 20
10151.9313586597
 30
0.0
 41
100.0
 42
100.0
 43
100.0
 50
180.0
  0
MTEXT
  5
18BE9
330
18BE0
100
AcDbEntity
  8
寸法
 62
     7
 48
50.0
100
AcDbMText
 10
7938.381856481237
 20
10251.9313586597
 30
0.0
 40
120.0
 41
0.0
 71
     5
 72
     1
  1
\A1;55
  7
STYLE1
 73
     1
 44
1.0
1001
ACAD
1000
MTEXTBEGIN
1070
    73
1070
     1
1070
    44
1040
1.0
1070
    74
1070
     0
1000
MTEXTEND
  0
POINT
  5
18BEA
330
18BE0
100
AcDbEntity
  8
DEFPOINTS
 62
     0
 48
50.0
100
AcDbPoint
 10
7574.896575106999
 20
9636.123139034717
 30
0.0
  0
POINT
  5
18BEB
330
18BE0
100
AcDbEntity
  8
DEFPOINTS
 62
     0
 48
50.0
100
AcDbPoint
 10
7629.896575106998
 20
9636.123139034717
 30
0.0
  0
POINT
  5
18BEC
330
18BE0
100
AcDbEntity
  8
DEFPOINTS
 62
     0
 48
50.0
100
AcDbPoint
 10
7629.896575106998
 20
10151.9313586597
 30
0.0
  0
ENDBLK
  5
18BED
330
18BE0
100
AcDbEntity
  8
0
 48
50.0
100
AcDbBlockEnd
  0
BLOCK
  5
18BEF
330
18BEE
100
AcDbEntity
  8
0
 48
50.0
100
AcDbBlockBegin
  2
*D6
 70
     1
 10
0.0
 20
0.0
 30
0.0
  3
*D6
  1

  0
LINE
  5
18BF0
330
18BEE
100
AcDbEntity
  8
寸法
 62
     0
 48
50.0
370
    -2
100
AcDbLine
 10
7649.896575106999
 20
9636.123139034717
 30
0.0
 11
8337.32292084141
 21
9636.123139034717
 31
0.0
  0
LINE
  5
18BF1
330
18BEE
100
AcDbEntity
  8
寸法
 62
     0
 48
50.0
370
    -2
100
AcDbLine
 10
7649.896575106999
 20
9581.123139034721
 30
0.0
 11
8337.32292084141
 21
9581.123139034721
 31
0.0
  0
LINE
  5
18BF2
330
18BEE
100
AcDbEntity
  8
寸法
 62
     0
 48
50.0
370
    -2
100
AcDbLine
 10
8277.322920841411
 20
9581.123139034721
 30
0.0
 11
8277.322920841411
 21
9481.123139034719
 31
0.0
  0
LINE
  5
18BF3
330
18BEE
100
AcDbEntity
  8
寸法
 62
     0
 48
50.0
370
    -2
100
AcDbLine
 10
8277.322920841411
 20
9636.123139034717
 30
0.0
 11
8277.322920841411
 21
10053.09370178319
 31
0.0
  0
LINE
  5
18BF4
330
18BEE
100
AcDbEntity
  8
寸法
 62
     0
 48
50.0
370
    -2
100
AcDbLine
 10
8277.322920841411
 20
9581.123139034721
 30
0.0
 11
8277.322920841411
 21
9636.123139034717
 31
0.0
  0
INSERT
  5
18BF5
330
18BEE
100
AcDbEntity
  8
寸法
 62
     0
 48
50.0
370
    -2
100
AcDbBlockReference
  2
_DOTSMALL
 10
8277.322920841411
 20
9581.123139034721
 30
0.0
 41
100.0
 42
100.0
 43
100.0
 50
90.0
  0
INSERT
  5
18BF6
330
18BEE
100
AcDbEntity
  8
寸法
 62
     0
 48
50.0
370
    -2
100
AcDbBlockReference
  2
_DOTSMALL
 10
8277.322920841411
 20
9636.123139034717
 30
0.0
 41
100.0
 42
100.0
 43
100.0
 50
270.0
  0
MTEXT
  5
18BF7
330
18BEE
100
AcDbEntity
  8
寸法
 62
     7
 48
50.0
100
AcDbMText
 10
8177.32292084141
 20
9944.608420408957
 30
0.0
 40
120.0
 41
0.0
 71
     5
 72
     1
  1
\A1;55
  7
STYLE1
 11
0.0000000000000001
 21
1.0
 31
0.0
 73
     1
 44
1.0
1001
ACAD
1000
MTEXTBEGIN
1070
    73
1070
     1
1070
    44
1040
1.0
1070
    74
1070
     0
1000
MTEXTEND
  0
POINT
  5
18BF8
330
18BEE
100
AcDbEntity
  8
DEFPOINTS
 62
     0
 48
50.0
100
AcDbPoint
 10
7629.896575106998
 20
9636.123139034717
 30
0.0
  0
POINT
  5
18BF9
330
18BEE
100
AcDbEntity
  8
DEFPOINTS
 62
     0
 48
50.0
100
AcDbPoint
 10
7629.896575106998
 20
9581.123139034721
 30
0.0
  0
POINT
  5
18BFA
330
18BEE
100
AcDbEntity
  8
DEFPOINTS
 62
     0
 48
50.0
100
AcDbPoint
 10
8277.322920841411
 20
9581.123139034721
 30
0.0
  0
ENDBLK
  5
18BFB
330
18BEE
100
AcDbEntity
  8
0
 48
50.0
100
AcDbBlockEnd
  0
BLOCK
  5
18BFD
330
18BFC
100
AcDbEntity
  8
0
 48
50.0
100
AcDbBlockBegin
  2
*D7
 70
     1
 10
0.0
 20
0.0
 30
0.0
  3
*D7
  1

  0
LINE
  5
18BFE
330
18BFC
100
AcDbEntity
  8
寸法
 62
     0
 48
50.0
370
    -2
100
AcDbLine
 10
4159.896575106963
 20
9656.123139034622
 30
0.0
 11
4159.896575106963
 21
10211.9313586596
 31
0.0
  0
LINE
  5
18BFF
330
18BFC
100
AcDbEntity
  8
寸法
 62
     0
 48
50.0
370
    -2
100
AcDbLine
 10
4214.896575106998
 20
9656.123139034622
 30
0.0
 11
4214.896575106998
 21
10211.9313586596
 31
0.0
  0
LINE
  5
18C00
330
18BFC
100
AcDbEntity
  8
寸法
 62
     0
 48
50.0
370
    -2
100
AcDbLine
 10
4214.896575106998
 20
10151.9313586596
 30
0.0
 11
4314.896575106998
 21
10151.9313586596
 31
0.0
  0
LINE
  5
18C01
330
18BFC
100
AcDbEntity
  8
寸法
 62
     0
 48
50.0
370
    -2
100
AcDbLine
 10
4159.896575106963
 20
10151.9313586596
 30
0.0
 11
3742.926012358486
 21
10151.9313586596
 31
0.0
  0
LINE
  5
18C02
330
18BFC
100
AcDbEntity
  8
寸法
 62
     0
 48
50.0
370
    -2
100
AcDbLine
 10
4214.896575106998
 20
10151.9313586596
 30
0.0
 11
4159.896575106963
 21
10151.9313586596
 31
0.0
  0
INSERT
  5
18C03
330
18BFC
100
AcDbEntity
  8
寸法
 62
     0
 48
50.0
370
    -2
100
AcDbBlockReference
  2
_DOTSMALL
 10
4214.896575106998
 20
10151.9313586596
 30
0.0
 41
100.0
 42
100.0
 43
100.0
 50
180.0
  0
INSERT
  5
18C04
330
18BFC
100
AcDbEntity
  8
寸法
 62
     0
 48
50.0
370
    -2
100
AcDbBlockReference
  2
_DOTSMALL
 10
4159.896575106963
 20
10151.9313586596
 30
0.0
 41
100.0
 42
100.0
 43
100.0
  0
MTEXT
  5
18C05
330
18BFC
100
AcDbEntity
  8
寸法
 62
     7
 48
50.0
100
AcDbMText
 10
3851.411293732725
 20
10251.9313586596
 30
0.0
 40
120.0
 41
0.0
 71
     5
 72
     1
  1
\A1;55
  7
STYLE1
 73
     1
 44
1.0
1001
ACAD
1000
MTEXTBEGIN
1070
    73
1070
     1
1070
    44
1040
1.0
1070
    74
1070
     0
1000
MTEXTEND
  0
POINT
  5
18C06
330
18BFC
100
AcDbEntity
  8
DEFPOINTS
 62
     0
 48
50.0
100
AcDbPoint
 10
4159.896575106963
 20
9636.123139034623
 30
0.0
  0
POINT
  5
18C07
330
18BFC
100
AcDbEntity
  8
DEFPOINTS
 62
     0
 48
50.0
100
AcDbPoint
 10
4214.896575106998
 20
9636.123139034623
 30
0.0
  0
POINT
  5
18C08
330
18BFC
100
AcDbEntity
  8
DEFPOINTS
 62
     0
 48
50.0
100
AcDbPoint
 10
4214.896575106998
 20
10151.9313586596
 30
0.0
  0
ENDBLK
  5
18C09
330
18BFC
100
AcDbEntity
  8
0
 48
50.0
100
AcDbBlockEnd
  0
BLOCK
  5
18C0B
330
18C0A
100
AcDbEntity
  8
0
 48
50.0
100
AcDbBlockBegin
  2
*D8
 70
     1
 10
0.0
 20
0.0
 30
0.0
  3
*D8
  1

  0
LINE
  5
18C0C
330
18C0A
100
AcDbEntity
  8
寸法
 62
     0
 48
50.0
370
    -2
100
AcDbLine
 10
4159.896575106992
 20
7826.123139034546
 30
0.0
 11
4159.896575106992
 21
6804.372203245664
 31
0.0
  0
LINE
  5
18C0D
330
18C0A
100
AcDbEntity
  8
寸法
 62
     0
 48
50.0
370
    -2
100
AcDbLine
 10
7629.896575106974
 20
7826.123139034674
 30
0.0
 11
7629.896575106974
 21
6804.372203245664
 31
0.0
  0
LINE
  5
18C0E
330
18C0A
100
AcDbEntity
  8
寸法
 62
     0
 48
50.0
370
    -2
100
AcDbLine
 10
4159.896575106992
 20
6864.372203245665
 30
0.0
 11
7629.896575106974
 21
6864.372203245665
 31
0.0
  0
INSERT
  5
18C0F
330
18C0A
100
AcDbEntity
  8
寸法
 62
     0
 48
50.0
370
    -2
100
AcDbBlockReference
  2
_DOTSMALL
 10
4159.896575106992
 20
6864.372203245665
 30
0.0
 41
100.0
 42
100.0
 43
100.0
 50
180.0
  0
INSERT
  5
18C10
330
18C0A
100
AcDbEntity
  8
寸法
 62
     0
 48
50.0
370
    -2
100
AcDbBlockReference
  2
_DOTSMALL
 10
7629.896575106974
 20
6864.372203245665
 30
0.0
 41
100.0
 42
100.0
 43
100.0
  0
MTEXT
  5
18C11
330
18C0A
100
AcDbEntity
  8
寸法
 62
     7
 48
50.0
100
AcDbMText
 10
5911.12376113973
 20
6964.372203245665
 30
0.0
 40
120.0
 41
0.0
 71
     5
 72
     1
  1
\A1;3470
  7
STYLE1
 73
     1
 44
1.0
1001
ACAD
1000
MTEXTBEGIN
1070
    73
1070
     1
1070
    44
1040
1.0
1070
    74
1070
     0
1000
MTEXTEND
  0
POINT
  5
18C12
330
18C0A
100
AcDbEntity
  8
DEFPOINTS
 62
     0
 48
50.0
100
AcDbPoint
 10
4159.896575106992
 20
7846.123139034546
 30
0.0
  0
POINT
  5
18C13
330
18C0A
100
AcDbEntity
  8
DEFPOINTS
 62
     0
 48
50.0
100
AcDbPoint
 10
7629.896575106974
 20
7846.123139034673
 30
0.0
  0
POINT
  5
18C14
330
18C0A
100
AcDbEntity
  8
DEFPOINTS
 62
     0
 48
50.0
100
AcDbPoint
 10
7629.896575106974
 20
6864.372203245665
 30
0.0
  0
ENDBLK
  5
18C15
330
18C0A
100
AcDbEntity
  8
0
 48
50.0
100
AcDbBlockEnd
  0
BLOCK
  5
18C17
330
18C16
100
AcDbEntity
  8
0
 48
50.0
100
AcDbBlockBegin
  2
*D9
 70
     1
 10
0.0
 20
0.0
 30
0.0
  3
*D9
  1

  0
LINE
  5
18C18
330
18C16
100
AcDbEntity
  8
寸法
 62
     0
 48
50.0
370
    -2
100
AcDbLine
 10
7649.896575106973
 20
7901.123139034706
 30
0.0
 11
8337.322920841385
 21
7901.123139034706
 31
0.0
  0
LINE
  5
18C19
330
18C16
100
AcDbEntity
  8
寸法
 62
     0
 48
50.0
370
    -2
100
AcDbLine
 10
7649.896575106973
 20
7846.123139034709
 30
0.0
 11
8337.322920841385
 21
7846.123139034709
 31
0.0
  0
LINE
  5
18C1A
330
18C16
100
AcDbEntity
  8
寸法
 62
     0
 48
50.0
370
    -2
100
AcDbLine
 10
8277.322920841385
 20
7901.123139034706
 30
0.0
 11
8277.322920841385
 21
8001.123139034707
 31
0.0
  0
LINE
  5
18C1B
330
18C16
100
AcDbEntity
  8
寸法
 62
     0
 48
50.0
370
    -2
100
AcDbLine
 10
8277.322920841385
 20
7846.123139034709
 30
0.0
 11
8277.322920841385
 21
7429.152576286229
 31
0.0
  0
LINE
  5
18C1C
330
18C16
100
AcDbEntity
  8
寸法
 62
     0
 48
50.0
370
    -2
100
AcDbLine
 10
8277.322920841385
 20
7901.123139034706
 30
0.0
 11
8277.322920841385
 21
7846.123139034709
 31
0.0
  0
INSERT
  5
18C1D
330
18C16
100
AcDbEntity
  8
寸法
 62
     0
 48
50.0
370
    -2
100
AcDbBlockReference
  2
_DOTSMALL
 10
8277.322920841385
 20
7901.123139034706
 30
0.0
 41
100.0
 42
100.0
 43
100.0
 50
270.0
  0
INSERT
  5
18C1E
330
18C16
100
AcDbEntity
  8
寸法
 62
     0
 48
50.0
370
    -2
100
AcDbBlockReference
  2
_DOTSMALL
 10
8277.322920841385
 20
7846.123139034709
 30
0.0
 41
100.0
 42
100.0
 43
100.0
 50
90.0
  0
MTEXT
  5
18C1F
330
18C16
100
AcDbEntity
  8
寸法
 62
     7
 48
50.0
100
AcDbMText
 10
8177.322920841383
 20
7537.637857660469
 30
0.0
 40
120.0
 41
0.0
 71
     5
 72
     1
  1
\A1;55
  7
STYLE1
 11
0.0000000000000001
 21
1.0
 31
0.0
 73
     1
 44
1.0
1001
ACAD
1000
MTEXTBEGIN
1070
    73
1070
     1
1070
    44
1040
1.0
1070
    74
1070
     0
1000
MTEXTEND
  0
POINT
  5
18C20
330
18C16
100
AcDbEntity
  8
DEFPOINTS
 62
     0
 48
50.0
100
AcDbPoint
 10
7629.896575106974
 20
7901.123139034706
 30
0.0
  0
POINT
  5
18C21
330
18C16
100
AcDbEntity
  8
DEFPOINTS
 62
     0
 48
50.0
100
AcDbPoint
 10
7629.896575106974
 20
7846.123139034709
 30
0.0
  0
POINT
  5
18C22
330
18C16
100
AcDbEntity
  8
DEFPOINTS
 62
     0
 48
50.0
100
AcDbPoint
 10
8277.322920841385
 20
7846.123139034709
 30
0.0
  0
ENDBLK
  5
18C23
330
18C16
100
AcDbEntity
  8
0
 48
50.0
100
AcDbBlockEnd
  0
BLOCK
  5
18C25
330
18C24
100
AcDbEntity
  8
0
 48
50.0
100
AcDbBlockBegin
  2
*D10
 70
     1
 10
0.0
 20
0.0
 30
0.0
  3
*D10
  1

  0
LINE
  5
18C26
330
18C24
100
AcDbEntity
  8
寸法
 62
     0
 48
50.0
370
    -2
100
AcDbLine
 10
6533.037591258376
 20
9136.123139034728
 30
0.0
 11
6465.083950562664
 21
8882.516699399049
 31
0.0
  0
LINE
  5
18C27
330
18C24
100
AcDbEntity
  8
寸法
 62
     0
 48
50.0
370
    -2
100
AcDbLine
 10
7596.037591258388
 20
9136.123139034721
 30
0.0
 11
7528.083950562677
 21
8882.516699399049
 31
0.0
  0
LINE
  5
18C28
330
18C24
100
AcDbEntity
  8
寸法
 62
     0
 48
50.0
370
    -2
100
AcDbLine
 10
6481.160902108531
 20
8942.51669939905
 30
0.0
 11
7544.160902108544
 21
8942.51669939905
 31
0.0
  0
INSERT
  5
18C29
330
18C24
100
AcDbEntity
  8
寸法
 62
     0
 48
50.0
370
    -2
100
AcDbBlockReference
  2
_DOTSMALL
 10
6481.160902108531
 20
8942.51669939905
 30
0.0
 41
100.0
 42
100.0
 43
100.0
 50
180.0
  0
INSERT
  5
18C2A
330
18C24
100
AcDbEntity
  8
寸法
 62
     0
 48
50.0
370
    -2
100
AcDbBlockReference
  2
_DOTSMALL
 10
7544.160902108544
 20
8942.51669939905
 30
0.0
 41
100.0
 42
100.0
 43
100.0
  0
MTEXT
  5
18C2B
330
18C24
100
AcDbEntity
  8
寸法
 62
     7
 48
50.0
100
AcDbMText
 10
7061.28653022935
 20
9042.516699399049
 30
0.0
 40
120.0
 41
0.0
 71
     5
 72
     1
  1
\A1;1063
  7
STYLE1
 73
     1
 44
1.0
1001
ACAD
1000
MTEXTBEGIN
1070
    73
1070
     1
1070
    44
1040
1.0
1070
    74
1070
     0
1000
MTEXTEND
  0
POINT
  5
18C2C
330
18C24
100
AcDbEntity
  8
DEFPOINTS
 62
     0
 48
50.0
100
AcDbPoint
 10
6538.396575106998
 20
9156.123139034727
 30
0.0
  0
POINT
  5
18C2D
330
18C24
100
AcDbEntity
  8
DEFPOINTS
 62
     0
 48
50.0
100
AcDbPoint
 10
7601.39657510701
 20
9156.12313903472
 30
0.0
  0
POINT
  5
18C2E
330
18C24
100
AcDbEntity
  8
DEFPOINTS
 62
     0
 48
50.0
100
AcDbPoint
 10
7544.160902108544
 20
8942.51669939905
 30
0.0
  0
ENDBLK
  5
18C2F
330
18C24
100
AcDbEntity
  8
0
 48
50.0
100
AcDbBlockEnd
  0
BLOCK
  5
18C31
330
18C30
100
AcDbEntity
  8
0
 48
50.0
100
AcDbBlockBegin
  2
*D11
 70
     1
 10
0.0
 20
0.0
 30
0.0
  3
*D11
  1

  0
LINE
  5
18C32
330
18C30
100
AcDbEntity
  8
寸法
 62
     0
 48
50.0
370
    -2
100
AcDbLine
 10
7621.396575106999
 20
9600.764155186094
 30
0.0
 11
8016.754300969024
 21
9494.828371819961
 31
0.0
  0
LINE
  5
18C33
330
18C30
100
AcDbEntity
  8
寸法
 62
     0
 48
50.0
370
    -2
100
AcDbLine
 10
7621.396575106999
 20
9150.764155186099
 30
0.0
 11
8016.754300969024
 21
9044.828371819964
 31
0.0
  0
LINE
  5
18C34
330
18C30
100
AcDbEntity
  8
寸法
 62
     0
 48
50.0
370
    -2
100
AcDbLine
 10
7956.754300969024
 20
9510.905323365827
 30
0.0
 11
7956.754300969024
 21
9060.90532336583
 31
0.0
  0
INSERT
  5
18C35
330
18C30
100
AcDbEntity
  8
寸法
 62
     0
 48
50.0
370
    -2
100
AcDbBlockReference
  2
_DOTSMALL
 10
7956.754300969024
 20
9510.905323365827
 30
0.0
 41
100.0
 42
100.0
 43
100.0
 50
90.0
  0
INSERT
  5
18C36
330
18C30
100
AcDbEntity
  8
寸法
 62
     0
 48
50.0
370
    -2
100
AcDbBlockReference
  2
_DOTSMALL
 10
7956.754300969024
 20
9060.90532336583
 30
0.0
 41
100.0
 42
100.0
 43
100.0
 50
270.0
  0
MTEXT
  5
18C37
330
18C30
100
AcDbEntity
  8
寸法
 62
     7
 48
50.0
100
AcDbMText
 10
7856.754300969022
 20
9285.905323365829
 30
0.0
 40
120.0
 41
0.0
 71
     5
 72
     1
  1
\A1;450
  7
STYLE1
 11
0.0000000000000001
 21
1.0
 31
0.0
 73
     1
 44
1.0
1001
ACAD
1000
MTEXTBEGIN
1070
    73
1070
     1
1070
    44
1040
1.0
1070
    74
1070
     0
1000
MTEXTEND
  0
POINT
  5
18C38
330
18C30
100
AcDbEntity
  8
DEFPOINTS
 62
     0
 48
50.0
100
AcDbPoint
 10
7601.396575106999
 20
9606.123139034718
 30
0.0
  0
POINT
  5
18C39
330
18C30
100
AcDbEntity
  8
DEFPOINTS
 62
     0
 48
50.0
100
AcDbPoint
 10
7601.396575106999
 20
9156.12313903472
 30
0.0
  0
POINT
  5
18C3A
330
18C30
100
AcDbEntity
  8
DEFPOINTS
 62
     0
 48
50.0
100
AcDbPoint
 10
7956.754300969024
 20
9060.90532336583
 30
0.0
  0
ENDBLK
  5
18C3B
330
18C30
100
AcDbEntity
  8
0
 48
50.0
100
AcDbBlockEnd
  0
BLOCK
  5
18C3D
330
18C3C
100
AcDbEntity
  8
0
 48
50.0
100
AcDbBlockBegin
  2
*D12
 70
     1
 10
0.0
 20
0.0
 30
0.0
  3
*D12
  1

  0
LINE
  5
18C3E
330
18C3C
100
AcDbEntity
  8
寸法
 62
     0
 48
50.0
370
    -2
100
AcDbLine
 10
7649.896575106999
 20
9581.123139034721
 30
0.0
 11
8337.32292084141
 21
9581.123139034721
 31
0.0
  0
LINE
  5
18C3F
330
18C3C
100
AcDbEntity
  8
寸法
 62
     0
 48
50.0
370
    -2
100
AcDbLine
 10
7649.896575106973
 20
7901.123139034706
 30
0.0
 11
8337.32292084141
 21
7901.123139034706
 31
0.0
  0
LINE
  5
18C40
330
18C3C
100
AcDbEntity
  8
寸法
 62
     0
 48
50.0
370
    -2
100
AcDbLine
 10
8277.322920841411
 20
9581.123139034721
 30
0.0
 11
8277.322920841411
 21
7901.123139034706
 31
0.0
  0
INSERT
  5
18C41
330
18C3C
100
AcDbEntity
  8
寸法
 62
     0
 48
50.0
370
    -2
100
AcDbBlockReference
  2
_DOTSMALL
 10
8277.322920841411
 20
9581.123139034721
 30
0.0
 41
100.0
 42
100.0
 43
100.0
 50
90.0
  0
INSERT
  5
18C42
330
18C3C
100
AcDbEntity
  8
寸法
 62
     0
 48
50.0
370
    -2
100
AcDbBlockReference
  2
_DOTSMALL
 10
8277.322920841411
 20
7901.123139034706
 30
0.0
 41
100.0
 42
100.0
 43
100.0
 50
270.0
  0
MTEXT
  5
18C43
330
18C3C
100
AcDbEntity
  8
寸法
 62
     7
 48
50.0
100
AcDbMText
 10
8177.311109817788
 20
8741.123139034712
 30
0.0
 40
120.0
 41
0.0
 71
     5
 72
     1
  1
\A1;4X420=1680
  7
STYLE1
 11
0.0000000000000001
 21
1.0
 31
0.0
 73
     1
 44
1.0
1001
ACAD
1000
MTEXTBEGIN
1070
    73
1070
     1
1070
    44
1040
1.0
1070
    74
1070
     0
1000
MTEXTEND
  0
POINT
  5
18C44
330
18C3C
100
AcDbEntity
  8
DEFPOINTS
 62
     0
 48
50.0
100
AcDbPoint
 10
7629.896575106998
 20
9581.123139034721
 30
0.0
  0
POINT
  5
18C45
330
18C3C
100
AcDbEntity
  8
DEFPOINTS
 62
     0
 48
50.0
100
AcDbPoint
 10
7629.896575106974
 20
7901.123139034706
 30
0.0
  0
POINT
  5
18C46
330
18C3C
100
AcDbEntity
  8
DEFPOINTS
 62
     0
 48
50.0
100
AcDbPoint
 10
8277.322920841411
 20
7901.123139034706
 30
0.0
  0
ENDBLK
  5
18C47
330
18C3C
100
AcDbEntity
  8
0
 48
50.0
100
AcDbBlockEnd
  0
BLOCK
  5
18C49
330
18C48
100
AcDbEntity
  8
0
 48
50.0
100
AcDbBlockBegin
  2
*D13
 70
     1
 10
0.0
 20
0.0
 30
0.0
  3
*D13
  1

  0
LINE
  5
18C4A
330
18C48
100
AcDbEntity
  8
寸法
 62
     0
 48
50.0
370
    -2
100
AcDbLine
 10
4183.037591258377
 20
9136.123139034619
 30
0.0
 11
4115.083950562663
 21
8882.516699398941
 31
0.0
  0
LINE
  5
18C4B
330
18C48
100
AcDbEntity
  8
寸法
 62
     0
 48
50.0
370
    -2
100
AcDbLine
 10
5246.037591258307
 20
9136.123139034671
 30
0.0
 11
5178.08395056258
 21
8882.516699398941
 31
0.0
  0
LINE
  5
18C4C
330
18C48
100
AcDbEntity
  8
寸法
 62
     0
 48
50.0
370
    -2
100
AcDbLine
 10
4131.160902108532
 20
8942.516699398941
 30
0.0
 11
5194.160902108448
 21
8942.516699398941
 31
0.0
  0
INSERT
  5
18C4D
330
18C48
100
AcDbEntity
  8
寸法
 62
     0
 48
50.0
370
    -2
100
AcDbBlockReference
  2
_DOTSMALL
 10
4131.160902108532
 20
8942.516699398941
 30
0.0
 41
100.0
 42
100.0
 43
100.0
 50
180.0
  0
INSERT
  5
18C4E
330
18C48
100
AcDbEntity
  8
寸法
 62
     0
 48
50.0
370
    -2
100
AcDbBlockReference
  2
_DOTSMALL
 10
5194.160902108448
 20
8942.516699398941
 30
0.0
 41
100.0
 42
100.0
 43
100.0
  0
MTEXT
  5
18C4F
330
18C48
100
AcDbEntity
  8
寸法
 62
     7
 48
50.0
100
AcDbMText
 10
4658.986452655306
 20
9042.516699398941
 30
0.0
 40
120.0
 41
0.0
 71
     5
 72
     1
  1
\A1;1063
  7
STYLE1
 73
     1
 44
1.0
1001
ACAD
1000
MTEXTBEGIN
1070
    73
1070
     1
1070
    44
1040
1.0
1070
    74
1070
     0
1000
MTEXTEND
  0
POINT
  5
18C50
330
18C48
100
AcDbEntity
  8
DEFPOINTS
 62
     0
 48
50.0
100
AcDbPoint
 10
4188.396575106999
 20
9156.123139034617
 30
0.0
  0
POINT
  5
18C51
330
18C48
100
AcDbEntity
  8
DEFPOINTS
 62
     0
 48
50.0
100
AcDbPoint
 10
5251.396575106929
 20
9156.123139034672
 30
0.0
  0
POINT
  5
18C52
330
18C48
100
AcDbEntity
  8
DEFPOINTS
 62
     0
 48
50.0
100
AcDbPoint
 10
5194.160902108448
 20
8942.516699398941
 30
0.0
  0
ENDBLK
  5
18C53
330
18C48
100
AcDbEntity
  8
0
 48
50.0
100
AcDbBlockEnd
  0
BLOCK
  5
18C55
330
18C54
100
AcDbEntity
  8
0
 48
50.0
100
AcDbBlockBegin
  2
*D14
 70
     1
 10
0.0
 20
0.0
 30
0.0
  3
*D14
  1

  0
LINE
  5
18C56
330
18C54
100
AcDbEntity
  8
寸法
 62
     0
 48
50.0
370
    -2
100
AcDbLine
 10
5274.037591258307
 20
9136.123139034669
 30
0.0
 11
5206.08395056258
 21
8882.516699398941
 31
0.0
  0
LINE
  5
18C57
330
18C54
100
AcDbEntity
  8
寸法
 62
     0
 48
50.0
370
    -2
100
AcDbLine
 10
6505.037591258377
 20
9136.123139034662
 30
0.0
 11
6437.083950562653
 21
8882.516699398941
 31
0.0
  0
LINE
  5
18C58
330
18C54
100
AcDbEntity
  8
寸法
 62
     0
 48
50.0
370
    -2
100
AcDbLine
 10
5222.160902108448
 20
8942.516699398941
 30
0.0
 11
6453.16090210852
 21
8942.516699398941
 31
0.0
  0
INSERT
  5
18C59
330
18C54
100
AcDbEntity
  8
寸法
 62
     0
 48
50.0
370
    -2
100
AcDbBlockReference
  2
_DOTSMALL
 10
5222.160902108448
 20
8942.516699398941
 30
0.0
 41
100.0
 42
100.0
 43
100.0
 50
180.0
  0
INSERT
  5
18C5A
330
18C54
100
AcDbEntity
  8
寸法
 62
     0
 48
50.0
370
    -2
100
AcDbBlockReference
  2
_DOTSMALL
 10
6453.16090210852
 20
8942.516699398941
 30
0.0
 41
100.0
 42
100.0
 43
100.0
  0
MTEXT
  5
18C5B
330
18C54
100
AcDbEntity
  8
寸法
 62
     7
 48
50.0
100
AcDbMText
 10
6081.244808320626
 20
9042.528510422561
 30
0.0
 40
120.0
 41
0.0
 71
     5
 72
     1
  1
\A1;1231
  7
STYLE1
 73
     1
 44
1.0
1001
ACAD
1000
MTEXTBEGIN
1070
    73
1070
     1
1070
    44
1040
1.0
1070
    74
1070
     0
1000
MTEXTEND
  0
POINT
  5
18C5C
330
18C54
100
AcDbEntity
  8
DEFPOINTS
 62
     0
 48
50.0
100
AcDbPoint
 10
5279.396575106929
 20
9156.123139034669
 30
0.0
  0
POINT
  5
18C5D
330
18C54
100
AcDbEntity
  8
DEFPOINTS
 62
     0
 48
50.0
100
AcDbPoint
 10
6510.396575106999
 20
9156.123139034662
 30
0.0
  0
POINT
  5
18C5E
330
18C54
100
AcDbEntity
  8
DEFPOINTS
 62
     0
 48
50.0
100
AcDbPoint
 10
6453.16090210852
 20
8942.516699398941
 30
0.0
  0
ENDBLK
  5
18C5F
330
18C54
100
AcDbEntity
  8
0
 48
50.0
100
AcDbBlockEnd
  0
BLOCK
  5
18C61
330
18C60
100
AcDbEntity
  8
0
 48
50.0
100
AcDbBlockBegin
  2
*D15
 70
     1
 10
0.0
 20
0.0
 30
0.0
  3
*D15
  1

  0
LINE
  5
18C62
330
18C60
100
AcDbEntity
  8
寸法
 62
     0
 48
50.0
370
    -2
100
AcDbLine
 10
5065.896575106966
 20
7749.123139034579
 30
0.0
 11
5065.896575106966
 21
7099.952920982538
 31
0.0
  0
LINE
  5
18C63
330
18C60
100
AcDbEntity
  8
寸法
 62
     0
 48
50.0
370
    -2
100
AcDbLine
 10
6331.896575106966
 20
7749.123139034579
 30
0.0
 11
6331.896575106966
 21
7099.952920982538
 31
0.0
  0
LINE
  5
18C64
330
18C60
100
AcDbEntity
  8
寸法
 62
     0
 48
50.0
370
    -2
100
AcDbLine
 10
5065.896575106966
 20
7159.952920982537
 30
0.0
 11
6331.896575106966
 21
7159.952920982537
 31
0.0
  0
INSERT
  5
18C65
330
18C60
100
AcDbEntity
  8
寸法
 62
     0
 48
50.0
370
    -2
100
AcDbBlockReference
  2
_DOTSMALL
 10
5065.896575106966
 20
7159.952920982537
 30
0.0
 41
100.0
 42
100.0
 43
100.0
 50
180.0
  0
INSERT
  5
18C66
330
18C60
100
AcDbEntity
  8
寸法
 62
     0
 48
50.0
370
    -2
100
AcDbBlockReference
  2
_DOTSMALL
 10
6331.896575106966
 20
7159.952920982537
 30
0.0
 41
100.0
 42
100.0
 43
100.0
  0
MTEXT
  5
18C67
330
18C60
100
AcDbEntity
  8
寸法
 62
     7
 48
50.0
100
AcDbMText
 10
5711.986008735934
 20
7359.964732006159
 30
0.0
 40
120.0
 41
0.0
 71
     5
 72
     1
  1
\A1;有効開口部間口\P1266
  7
STYLE1
 73
     1
 44
1.0
1001
ACAD
1000
MTEXTBEGIN
1070
    73
1070
     1
1070
    44
1040
1.0
1070
    74
1070
     0
1000
MTEXTEND
  0
POINT
  5
18C68
330
18C60
100
AcDbEntity
  8
DEFPOINTS
 62
     0
 48
50.0
100
AcDbPoint
 10
5065.896575106966
 20
7769.123139034579
 30
0.0
  0
POINT
  5
18C69
330
18C60
100
AcDbEntity
  8
DEFPOINTS
 62
     0
 48
50.0
100
AcDbPoint
 10
6331.896575106966
 20
7769.123139034579
 30
0.0
  0
POINT
  5
18C6A
330
18C60
100
AcDbEntity
  8
DEFPOINTS
 62
     0
 48
50.0
100
AcDbPoint
 10
6331.896575106966
 20
7159.952920982537
 30
0.0
  0
ENDBLK
  5
18C6B
330
18C60
100
AcDbEntity
  8
0
 48
50.0
100
AcDbBlockEnd
  0
BLOCK
  5
18C6D
330
18C6C
100
AcDbEntity
  8
0
 48
50.0
100
AcDbBlockBegin
  2
*D16
 70
     1
 10
0.0
 20
0.0
 30
0.0
  3
*D16
  1

  0
LINE
  5
18C6E
330
18C6C
100
AcDbEntity
  8
寸法
 62
     0
 48
50.0
370
    -2
100
AcDbLine
 10
7200.896575106966
 20
7846.123139034578
 30
0.0
 11
7457.192158500191
 21
7846.123139034578
 31
0.0
  0
LINE
  5
18C6F
330
18C6C
100
AcDbEntity
  8
寸法
 62
     0
 48
50.0
370
    -2
100
AcDbLine
 10
7199.896575106966
 20
7769.123139034579
 30
0.0
 11
7457.192158500191
 21
7769.123139034579
 31
0.0
  0
LINE
  5
18C70
330
18C6C
100
AcDbEntity
  8
寸法
 62
     0
 48
50.0
370
    -2
100
AcDbLine
 10
7417.192158500192
 20
7866.123139034579
 30
0.0
 11
7417.192158500192
 21
7886.123139034578
 31
0.0
  0
LINE
  5
18C71
330
18C6C
100
AcDbEntity
  8
寸法
 62
     0
 48
50.0
370
    -2
100
AcDbLine
 10
7417.192158500192
 20
7749.123139034579
 30
0.0
 11
7417.192158500192
 21
7533.123139034573
 31
0.0
  0
LINE
  5
18C72
330
18C6C
100
AcDbEntity
  8
寸法
 62
     0
 48
50.0
370
    -2
100
AcDbLine
 10
7417.192158500192
 20
7846.123139034578
 30
0.0
 11
7417.192158500192
 21
7769.123139034579
 31
0.0
  0
INSERT
  5
18C73
330
18C6C
100
AcDbEntity
  8
寸法
 62
     0
 48
50.0
370
    -2
100
AcDbBlockReference
  2
_DOT
 10
7417.192158500192
 20
7846.123139034578
 30
0.0
 41
20.0
 42
20.0
 43
20.0
 50
270.0
  0
INSERT
  5
18C74
330
18C6C
100
AcDbEntity
  8
寸法
 62
     0
 48
50.0
370
    -2
100
AcDbBlockReference
  2
_DOT
 10
7417.192158500192
 20
7769.123139034579
 30
0.0
 41
20.0
 42
20.0
 43
20.0
 50
90.0
  0
MTEXT
  5
18C75
330
18C6C
100
AcDbEntity
  8
寸法
 62
     7
 48
50.0
100
AcDbMText
 10
7325.192158500191
 20
7631.123139034575
 30
0.0
 40
120.0
 41
0.0
 71
     5
 72
     1
  1
\A1;77
  7
STYLE1
 11
0.0000000000000001
 21
1.0
 31
0.0
 73
     1
 44
1.0
1001
ACAD
1000
MTEXTBEGIN
1070
    73
1070
     1
1070
    44
1040
1.0
1070
    74
1070
     0
1000
MTEXTEND
  0
POINT
  5
18C76
330
18C6C
100
AcDbEntity
  8
DEFPOINTS
 62
     0
 48
50.0
100
AcDbPoint
 10
7180.896575106967
 20
7846.123139034578
 30
0.0
  0
POINT
  5
18C77
330
18C6C
100
AcDbEntity
  8
DEFPOINTS
 62
     0
 48
50.0
100
AcDbPoint
 10
7179.896575106965
 20
7769.123139034579
 30
0.0
  0
POINT
  5
18C78
330
18C6C
100
AcDbEntity
  8
DEFPOINTS
 62
     0
 48
50.0
100
AcDbPoint
 10
7417.192158500192
 20
7769.123139034579
 30
0.0
  0
ENDBLK
  5
18C79
330
18C6C
100
AcDbEntity
  8
0
 48
50.0
100
AcDbBlockEnd
  0
BLOCK
  5
18DA0
330
18C7A
100
AcDbEntity
  8
0
 48
50.0
100
AcDbBlockBegin
  2
A$C3B1A506B
 70
     0
 10
0.0
 20
0.0
 30
0.0
  3
A$C3B1A506B
  1

  0
MTEXT
  5
18C7B
330
18C7A
100
AcDbEntity
  8
寸法
 62
     7
 48
50.0
100
AcDbMText
 10
3342.250386887194
 20
2778.329429134012
 30
0.0
 40
96.0
 41
0.0
 71
     5
 72
     1
  1
棚 2段
  7
STYLE1
 73
     1
 44
1.0
1001
ACAD
1000
MTEXTBEGIN
1070
    73
1070
     1
1070
    44
1040
1.0
1070
    74
1070
     0
1000
MTEXTEND
  0
MTEXT
  5
18C7C
330
18C7A
100
AcDbEntity
  8
寸法
 62
     7
 48
50.0
100
AcDbMText
 10
2167.25038688716
 20
2778.329429133986
 30
0.0
 40
96.0
 41
0.0
 71
     5
 72
     1
  1
棚 2段
  7
STYLE1
 73
     1
 44
1.0
1001
ACAD
1000
MTEXTBEGIN
1070
    73
1070
     1
1070
    44
1040
1.0
1070
    74
1070
     0
1000
MTEXTEND
  0
MTEXT
  5
18C7D
330
18C7A
100
AcDbEntity
  8
寸法
 62
     7
 48
50.0
100
AcDbMText
 10
992.2503868871608
 20
2778.329429133935
 30
0.0
 40
96.0
 41
0.0
 71
     5
 72
     1
  1
棚 2段
  7
STYLE1
 73
     1
 44
1.0
1001
ACAD
1000
MTEXTBEGIN
1070
    73
1070
     1
1070
    44
1040
1.0
1070
    74
1070
     0
1000
MTEXTEND
  0
LINE
  5
18C7E
330
18C7A
100
AcDbEntity
  8
細線
 48
50.0
100
AcDbLine
 10
2771.970589276527
 20
1368.994384123192
 30
0.0
 11
3398.970589276523
 21
1368.994384123192
 31
0.0
  0
LINE
  5
18C7F
330
18C7A
100
AcDbEntity
  8
細線
 48
50.0
100
AcDbLine
 10
2117.970593930113
 20
1335.285615569113
 30
0.0
 11
3398.970589276523
 21
1335.285615569113
 31
0.0
  0
LINE
  5
18C80
330
18C7A
100
AcDbEntity
  8
細線
 48
50.0
100
AcDbLine
 10
2076.970593930115
 20
1364.690523565368
 30
0.0
 11
1322.970589276523
 21
1364.690523565367
 31
0.0
  0
LINE
  5
18C81
330
18C7A
100
AcDbEntity
  8
細線
100
AcDbLine
 10
3170.720579860066
 20
1388.494284088199
 30
0.0
 11
3173.052119381877
 21
1393.494286728162
 31
0.0
  0
LINE
  5
18C82
330
18C7A
100
AcDbEntity
  8
細線
100
AcDbLine
 10
3240.720589276525
 20
1388.494269174465
 30
0.0
 11
3238.389042800336
 21
1393.494286728144
 31
0.0
  0
LINE
  5
18C83
330
18C7A
100
AcDbEntity
  8
細線
100
AcDbLine
 10
3238.389042800336
 20
1393.494286728144
 30
0.0
 11
3173.052119381862
 21
1393.494286728133
 31
0.0
  0
LINE
  5
18C84
330
18C7A
100
AcDbEntity
  8
細線
100
AcDbLine
 10
3098.389042800336
 20
1393.494286728144
 30
0.0
 11
3033.052119381862
 21
1393.494286728133
 31
0.0
  0
LINE
  5
18C85
330
18C7A
100
AcDbEntity
  8
細線
100
AcDbLine
 10
3100.720589276523
 20
1388.494269174465
 30
0.0
 11
3098.389042800336
 21
1393.494286728144
 31
0.0
  0
LINE
  5
18C86
330
18C7A
100
AcDbEntity
  8
細線
100
AcDbLine
 10
3030.720579860066
 20
1388.494284088199
 30
0.0
 11
3033.052119381875
 21
1393.494286728162
 31
0.0
  0
LINE
  5
18C87
330
18C7A
100
AcDbEntity
  8
細線
100
AcDbLine
 10
2890.720589276525
 20
1388.494269174465
 30
0.0
 11
2893.052128798336
 21
1393.494271814428
 31
0.0
  0
LINE
  5
18C88
330
18C7A
100
AcDbEntity
  8
細線
100
AcDbLine
 10
2960.720598692984
 20
1388.494254260731
 30
0.0
 11
2958.389052216793
 21
1393.49427181441
 31
0.0
  0
LINE
  5
18C89
330
18C7A
100
AcDbEntity
  8
細線
100
AcDbLine
 10
2958.389052216795
 20
1393.49427181441
 30
0.0
 11
2893.052128798321
 21
1393.494271814399
 31
0.0
  0
LINE
  5
18C8A
330
18C7A
100
AcDbEntity
  8
細線
100
AcDbLine
 10
2667.139038146739
 20
1359.494298590735
 30
0.0
 11
2601.802114728263
 21
1359.494298590724
 31
0.0
  0
LINE
  5
18C8B
330
18C7A
100
AcDbEntity
  8
細線
100
AcDbLine
 10
2669.470584622926
 20
1354.494281037055
 30
0.0
 11
2667.139038146737
 21
1359.494298590735
 31
0.0
  0
LINE
  5
18C8C
330
18C7A
100
AcDbEntity
  8
細線
100
AcDbLine
 10
2599.470575206469
 20
1354.49429595079
 30
0.0
 11
2601.802114728278
 21
1359.494298590752
 31
0.0
  0
LINE
  5
18C8D
330
18C7A
100
AcDbEntity
  8
細線
 48
50.0
100
AcDbLine
 10
2440.853968524536
 20
1372.765132327548
 30
0.0
 11
2446.609486107205
 21
1354.494281037057
 31
0.0
  0
LINE
  5
18C8E
330
18C7A
100
AcDbEntity
  8
細線
 48
50.0
100
AcDbLine
 10
2429.925520044106
 20
1372.765132327546
 30
0.0
 11
2440.853968524536
 21
1372.765132327548
 31
0.0
  0
ARC
  5
18C8F
330
18C7A
100
AcDbEntity
  8
細線
 48
50.0
100
AcDbCircle
 10
2424.471163986787
 20
1374.265132327546
 30
0.0
 40
5.0
100
AcDbArc
 50
204.6243183520723
 51
335.3756816479278
  0
ARC
  5
18C90
330
18C7A
100
AcDbEntity
  8
細線
 48
50.0
100
AcDbCircle
 10
2429.925520044106
 20
1371.765132327546
 30
0.0
 40
1.0
100
AcDbArc
 50
90.0
 51
155.3756816479277
  0
ARC
  5
18C91
330
18C7A
100
AcDbEntity
  8
細線
 48
50.0
100
AcDbCircle
 10
2419.016807929469
 20
1371.765132327546
 30
0.0
 40
1.0
100
AcDbArc
 50
24.62431835207225
 51
90.0
  0
LINE
  5
18C92
330
18C7A
100
AcDbEntity
  8
細線
 48
50.0
100
AcDbLine
 10
2408.088359449037
 20
1372.765132327548
 30
0.0
 11
2419.016807929469
 21
1372.765132327546
 31
0.0
  0
LINE
  5
18C93
330
18C7A
100
AcDbEntity
  8
細線
 48
50.0
100
AcDbLine
 10
2402.33284186637
 20
1354.494281037054
 30
0.0
 11
2408.088359449037
 21
1372.765132327548
 31
0.0
  0
LINE
  5
18C94
330
18C7A
100
AcDbEntity
  8
細線
100
AcDbLine
 10
2458.070304175992
 20
1354.494278397076
 30
0.0
 11
2460.401843697802
 21
1359.494281037039
 31
0.0
  0
LINE
  5
18C95
330
18C7A
100
AcDbEntity
  8
細線
100
AcDbLine
 10
2528.070313592451
 20
1354.494263483342
 30
0.0
 11
2525.738767116262
 21
1359.494281037021
 31
0.0
  0
LINE
  5
18C96
330
18C7A
100
AcDbEntity
  8
細線
100
AcDbLine
 10
2525.738767116262
 20
1359.494281037021
 30
0.0
 11
2460.40184369779
 21
1359.49428103701
 31
0.0
  0
LINE
  5
18C97
330
18C7A
100
AcDbEntity
  8
細線
100
AcDbLine
 10
2387.139046332155
 20
1359.494281037021
 30
0.0
 11
2321.80212291368
 21
1359.49428103701
 31
0.0
  0
LINE
  5
18C98
330
18C7A
100
AcDbEntity
  8
細線
100
AcDbLine
 10
2389.470592808342
 20
1354.494263483342
 30
0.0
 11
2387.139046332153
 21
1359.494281037021
 31
0.0
  0
LINE
  5
18C99
330
18C7A
100
AcDbEntity
  8
細線
100
AcDbLine
 10
2319.470584622926
 20
1354.494281037054
 30
0.0
 11
2321.802122913694
 21
1359.494281037039
 31
0.0
  0
LINE
  5
18C9A
330
18C7A
100
AcDbEntity
  8
細線
100
AcDbLine
 10
2179.47061994182
 20
1354.494289224422
 30
0.0
 11
2181.802158232587
 21
1359.494289224407
 31
0.0
  0
LINE
  5
18C9B
330
18C7A
100
AcDbEntity
  8
細線
100
AcDbLine
 10
2249.470628127236
 20
1354.49427167071
 30
0.0
 11
2247.139081651047
 21
1359.494289224389
 31
0.0
  0
LINE
  5
18C9C
330
18C7A
100
AcDbEntity
  8
細線
100
AcDbLine
 10
2247.139081651047
 20
1359.494289224389
 30
0.0
 11
2181.802158232573
 21
1359.494289224378
 31
0.0
  0
LINE
  5
18C9D
330
18C7A
100
AcDbEntity
  8
細線
100
AcDbLine
 10
1807.970585744697
 20
1320.494460905133
 30
0.0
 11
1810.302124035464
 21
1325.494460905118
 31
0.0
  0
LINE
  5
18C9E
330
18C7A
100
AcDbEntity
  8
細線
100
AcDbLine
 10
1877.970593930113
 20
1320.494443351421
 30
0.0
 11
1875.639047453926
 21
1325.4944609051
 31
0.0
  0
LINE
  5
18C9F
330
18C7A
100
AcDbEntity
  8
細線
100
AcDbLine
 10
1875.639047453926
 20
1325.4944609051
 30
0.0
 11
1810.302124035452
 21
1325.494460905089
 31
0.0
  0
LINE
  5
18CA0
330
18C7A
100
AcDbEntity
  8
細線
100
AcDbLine
 10
2015.639047453926
 20
1325.4944609051
 30
0.0
 11
1950.302124035452
 21
1325.494460905089
 31
0.0
  0
LINE
  5
18CA1
330
18C7A
100
AcDbEntity
  8
細線
100
AcDbLine
 10
2017.970593930113
 20
1320.494443351421
 30
0.0
 11
2015.639047453924
 21
1325.4944609051
 31
0.0
  0
LINE
  5
18CA2
330
18C7A
100
AcDbEntity
  8
細線
100
AcDbLine
 10
1947.970585744697
 20
1320.494460905133
 30
0.0
 11
1950.302124035465
 21
1325.494460905118
 31
0.0
  0
LINE
  5
18CA3
330
18C7A
100
AcDbEntity
  8
細線
100
AcDbLine
 10
1735.639047453926
 20
1325.494460905098
 30
0.0
 11
1670.302124035454
 21
1325.494460905087
 31
0.0
  0
LINE
  5
18CA4
330
18C7A
100
AcDbEntity
  8
細線
100
AcDbLine
 10
1737.970593930113
 20
1320.494443351419
 30
0.0
 11
1735.639047453926
 21
1325.494460905098
 31
0.0
  0
LINE
  5
18CA5
330
18C7A
100
AcDbEntity
  8
細線
100
AcDbLine
 10
1667.970585744697
 20
1320.494460905131
 30
0.0
 11
1670.302124035465
 21
1325.494460905116
 31
0.0
  0
LINE
  5
18CA6
330
18C7A
100
AcDbEntity
  8
細線
100
AcDbLine
 10
1527.970593930113
 20
1320.494460905133
 30
0.0
 11
1530.302132220881
 21
1325.494460905118
 31
0.0
  0
LINE
  5
18CA7
330
18C7A
100
AcDbEntity
  8
細線
100
AcDbLine
 10
1597.970602115529
 20
1320.494443351421
 30
0.0
 11
1595.639055639342
 21
1325.4944609051
 31
0.0
  0
LINE
  5
18CA8
330
18C7A
100
AcDbEntity
  8
細線
100
AcDbLine
 10
1595.639055639342
 20
1325.4944609051
 30
0.0
 11
1530.302132220869
 21
1325.494460905089
 31
0.0
  0
ARC
  5
18CA9
330
18C7A
100
AcDbEntity
  8
部品1
 48
0.01
100
AcDbCircle
 10
1483.470482677778
 20
1319.493338720063
 30
0.0
 40
0.5
100
AcDbArc
 50
270.0
 51
0.0
  0
LINE
  5
18CAA
330
18C7A
100
AcDbEntity
  8
部品1
 48
0.01
100
AcDbLine
 10
1483.970482677778
 20
1320.493338720063
 30
0.0
 11
1483.970482677778
 21
1319.493338720063
 31
0.0
  0
LINE
  5
18CAB
330
18C7A
100
AcDbEntity
  8
部品1
 48
0.01
100
AcDbLine
 10
1483.970482677778
 20
1320.493338720063
 30
0.0
 11
1483.970482677778
 21
1319.493338720063
 31
0.0
  0
LINE
  5
18CAC
330
18C7A
100
AcDbEntity
  8
部品1
 48
0.01
100
AcDbLine
 10
1483.470482677778
 20
1318.993338720063
 30
0.0
 11
1476.857977247713
 21
1318.993338720062
 31
0.0
  0
ARC
  5
18CAD
330
18C7A
100
AcDbEntity
  8
部品1
100
AcDbCircle
 10
1476.926326800494
 20
1319.993338720062
 30
0.0
 40
1.0
100
AcDbArc
 50
160.5287793655865
 51
270.0
  0
ARC
  5
18CAE
330
18C7A
100
AcDbEntity
  8
部品1
100
AcDbCircle
 10
1451.470482677778
 20
1328.993338720062
 30
0.0
 40
26.0
100
AcDbArc
 50
340.5287793655865
 51
0.0
  0
LINE
  5
18CAF
330
18C7A
100
AcDbEntity
  8
部品1
100
AcDbLine
 10
1477.470482677778
 20
1328.993338720062
 30
0.0
 11
1477.470482677778
 21
1333.993338720061
 31
0.0
  0
ARC
  5
18CB0
330
18C7A
100
AcDbEntity
  8
部品1
 48
0.01
100
AcDbCircle
 10
1475.470482677778
 20
1333.993338720061
 30
0.0
 40
2.0
100
AcDbArc
 50
0.0
 51
90.0
  0
ARC
  5
18CB1
330
18C7A
100
AcDbEntity
  8
部品1
100
AcDbCircle
 10
1473.862091052968
 20
1332.993338720062
 30
0.0
 40
3.0
100
AcDbArc
 50
90.0
 51
141.6069559808035
  0
LINE
  5
18CB2
330
18C7A
100
AcDbEntity
  8
部品1
 48
0.01
100
AcDbLine
 10
1475.470482677778
 20
1335.993338720062
 30
0.0
 11
1473.862091052968
 21
1335.993338720062
 31
0.0
  0
ARC
  5
18CB3
330
18C7A
100
AcDbEntity
  8
部品1
100
AcDbCircle
 10
1455.399768463507
 20
1332.293338720065
 30
0.0
 40
3.0
100
AcDbArc
 50
254.0576313943215
 51
270.0
  0
ARC
  5
18CB4
330
18C7A
100
AcDbEntity
  8
部品1
100
AcDbCircle
 10
1462.541196892049
 20
1332.293338720065
 30
0.0
 40
3.0
100
AcDbArc
 50
270.0
 51
285.9423686056786
  0
LINE
  5
18CB5
330
18C7A
100
AcDbEntity
  8
部品1
100
AcDbLine
 10
1462.541196892049
 20
1329.293338720064
 30
0.0
 11
1455.399768463507
 21
1329.293338720064
 31
0.0
  0
ARC
  5
18CB6
330
18C7A
100
AcDbEntity
  8
部品1
100
AcDbCircle
 10
1458.970482677778
 20
1344.793338720065
 30
0.0
 40
16.0
100
AcDbArc
 50
285.9423686056786
 51
321.6069559808035
  0
LINE
  5
18CB7
330
18C7A
100
AcDbEntity
  8
部品1
 48
0.01
100
AcDbLine
 10
1442.470482677778
 20
1335.993338720062
 30
0.0
 11
1444.078874302588
 21
1335.993338720062
 31
0.0
  0
ARC
  5
18CB8
330
18C7A
100
AcDbEntity
  8
部品1
100
AcDbCircle
 10
1444.078874302588
 20
1332.993338720062
 30
0.0
 40
3.0
100
AcDbArc
 50
38.39304401919648
 51
90.0
  0
ARC
  5
18CB9
330
18C7A
100
AcDbEntity
  8
部品1
100
AcDbCircle
 10
1458.970482677778
 20
1344.793338720065
 30
0.0
 40
16.0
100
AcDbArc
 50
218.3930440191965
 51
254.0576313943215
  0
LINE
  5
18CBA
330
18C7A
100
AcDbEntity
  8
部品1
100
AcDbLine
 10
1440.470482677778
 20
1328.993338720062
 30
0.0
 11
1440.470482677778
 21
1333.993338720061
 31
0.0
  0
ARC
  5
18CBB
330
18C7A
100
AcDbEntity
  8
部品1
 48
0.01
100
AcDbCircle
 10
1442.470482677778
 20
1333.993338720061
 30
0.0
 40
2.0
100
AcDbArc
 50
90.0
 51
180.0
  0
ARC
  5
18CBC
330
18C7A
100
AcDbEntity
  8
部品1
100
AcDbCircle
 10
1466.470482677778
 20
1328.993338720062
 30
0.0
 40
26.0
100
AcDbArc
 50
180.0
 51
199.4712206344134
  0
ARC
  5
18CBD
330
18C7A
100
AcDbEntity
  8
部品1
 48
0.01
100
AcDbCircle
 10
1434.470482677778
 20
1319.493338720063
 30
0.0
 40
0.5
100
AcDbArc
 50
180.0
 51
270.0
  0
LINE
  5
18CBE
330
18C7A
100
AcDbEntity
  8
部品1
 48
0.01
100
AcDbLine
 10
1434.470482677778
 20
1318.993338720063
 30
0.0
 11
1441.014638555061
 21
1318.993338720062
 31
0.0
  0
LINE
  5
18CBF
330
18C7A
100
AcDbEntity
  8
部品1
 48
0.01
100
AcDbLine
 10
1433.970482677778
 20
1320.493338720063
 30
0.0
 11
1433.970482677778
 21
1319.493338720063
 31
0.0
  0
ARC
  5
18CC0
330
18C7A
100
AcDbEntity
  8
部品1
100
AcDbCircle
 10
1441.014638555061
 20
1319.993338720062
 30
0.0
 40
1.0
100
AcDbArc
 50
270.0
 51
19.47122063441346
  0
LINE
  5
18CC1
330
18C7A
100
AcDbEntity
  8
細線
100
AcDbLine
 10
1479.470482677785
 20
1338.493338720065
 30
0.0
 11
1438.470482677785
 21
1338.493338720058
 31
0.0
  0
LINE
  5
18CC2
330
18C7A
100
AcDbEntity
  8
細線
100
AcDbLine
 10
1438.470482677785
 20
1338.493338720058
 30
0.0
 11
1438.470482677785
 21
1320.49333872004
 31
0.0
  0
LINE
  5
18CC3
330
18C7A
100
AcDbEntity
  8
細線
100
AcDbLine
 10
1479.470482677785
 20
1338.493338720065
 30
0.0
 11
1479.470482677785
 21
1320.49333872004
 31
0.0
  0
LINE
  5
18CC4
330
18C7A
100
AcDbEntity
  8
細線
100
AcDbLine
 10
1322.970589276523
 20
1324.494269174465
 30
0.0
 11
1322.970589276523
 21
1320.494269174513
 31
0.0
  0
LINE
  5
18CC5
330
18C7A
100
AcDbEntity
  8
寸法
 48
50.0
100
AcDbLine
 10
1746.17359555837
 20
1170.531020743327
 30
0.0
 11
1694.767587648266
 21
1170.531020743327
 31
0.0
  0
LINE
  5
18CC6
330
18C7A
100
AcDbEntity
  8
寸法
 48
50.0
100
AcDbLine
 10
1694.767587648266
 20
1170.531020743327
 30
0.0
 11
1694.767587648266
 21
1201.841179395494
 31
0.0
  0
LINE
  5
18CC7
330
18C7A
100
AcDbEntity
  8
寸法
 48
50.0
100
AcDbLine
 10
1694.767587648266
 20
1201.841179395494
 30
0.0
 11
1665.006255656843
 21
1201.841179395494
 31
0.0
  0
LINE
  5
18CC8
330
18C7A
100
AcDbEntity
  8
寸法
 48
50.0
100
AcDbLine
 10
1665.006255656843
 20
1201.841179395494
 30
0.0
 11
1720.470591603318
 21
1239.420630324105
 31
0.0
  0
LINE
  5
18CC9
330
18C7A
100
AcDbEntity
  8
寸法
 48
50.0
100
AcDbLine
 10
1775.934927549793
 20
1201.841179395494
 30
0.0
 11
1720.470591603318
 21
1239.420630324105
 31
0.0
  0
LINE
  5
18CCA
330
18C7A
100
AcDbEntity
  8
寸法
 48
50.0
100
AcDbLine
 10
1746.17359555837
 20
1201.841179395494
 30
0.0
 11
1775.934927549793
 21
1201.841179395494
 31
0.0
  0
LINE
  5
18CCB
330
18C7A
100
AcDbEntity
  8
寸法
 48
50.0
100
AcDbLine
 10
1746.17359555837
 20
1170.531020743327
 30
0.0
 11
1746.17359555837
 21
1201.841179395494
 31
0.0
  0
LINE
  5
18CCC
330
18C7A
100
AcDbEntity
  8
寸法
 48
50.0
100
AcDbLine
 10
1694.767587648266
 20
1170.531020743327
 30
0.0
 11
1746.17359555837
 21
1170.531020743327
 31
0.0
  0
LINE
  5
18CCD
330
18C7A
100
AcDbEntity
  8
寸法
 48
50.0
100
AcDbLine
 10
2025.339129835225
 20
1227.676611498152
 30
0.0
 11
2025.339129835225
 21
1174.01297691636
 31
0.0
  0
LINE
  5
18CCE
330
18C7A
100
AcDbEntity
  8
寸法
 48
50.0
100
AcDbLine
 10
2114.623348430647
 20
1203.752977228664
 30
0.0
 11
2025.339129835225
 21
1227.676611498152
 31
0.0
  0
LINE
  5
18CCF
330
18C7A
100
AcDbEntity
  8
寸法
 48
50.0
100
AcDbLine
 10
1895.471408254923
 20
1203.752977228664
 30
0.0
 11
2114.623348430647
 21
1203.752977228664
 31
0.0
  0
DIMENSION
  5
18CD0
330
18C7A
100
AcDbEntity
  8
寸法
 48
50.0
100
AcDbDimension
  2
*D15
 10
2588.970589276523
 20
706.3240511224249
 30
0.0
 11
1969.060022905491
 21
706.3240511224249
 31
0.0
 12
-3742.925985830444
 22
-6453.628869860112
 32
0.0
 70
   128
  1
有効開口部間口\P<>
 71
     5
 42
1266.0
  3
INABA_S40G
100
AcDbAlignedDimension
 13
1322.970589276523
 23
1315.494269174465
 33
0.0
 14
2588.970589276523
 24
1315.494269174465
 34
0.0
100
AcDbRotatedDimension
1001
ACAD
1000
DSTYLE
1002
{
1070
   341
1005
0
1002
}
  0
LINE
  5
18CD1
330
18C7A
100
AcDbEntity
  8
部品1
100
AcDbLine
 10
3409.970589276524
 20
1392.494269174465
 30
0.0
 11
3437.970589276523
 21
1392.494269174465
 31
0.0
  0
DIMENSION
  5
18CD2
330
18C7A
100
AcDbEntity
  8
寸法
100
AcDbDimension
  2
*D16
 10
3674.266172669749
 20
1315.494269174465
 30
0.0
 11
3674.266172669748
 21
1177.494269174462
 31
0.0
 12
-3742.925985830444
 22
-6453.628869860112
 32
0.0
 70
   128
 71
     5
 42
77.0
  3
INABA_S40
100
AcDbAlignedDimension
 13
3437.970589276523
 23
1392.494269174465
 33
0.0
 14
3436.970589276523
 24
1315.494269174465
 34
0.0
 50
90.0
100
AcDbRotatedDimension
1001
ACAD
1000
DSTYLE
1002
{
1070
    41
1040
0.5
1070
    44
1040
1.0
1070
   147
1040
0.8
1070
   271
1070
     2
1070
   272
1070
     2
1070
   289
1070
     3
1070
   340
1005
F706
1070
   343
1005
164B4
1070
   344
1005
164B4
1002
}
  0
LINE
  5
18CD3
330
18C7A
100
AcDbEntity
  8
部品1
100
AcDbLine
 10
3437.970589276523
 20
1315.494269174465
 30
0.0
 11
3437.970589276523
 21
1392.494269174465
 31
0.0
  0
LINE
  5
18CD4
330
18C7A
100
AcDbEntity
  8
部品1
100
AcDbLine
 10
3398.970589276523
 20
1388.494269174465
 30
0.0
 11
3409.970589276524
 21
1388.494269174465
 31
0.0
  0
LINE
  5
18CD5
330
18C7A
100
AcDbEntity
  8
部品1
100
AcDbLine
 10
3407.970589276523
 20
1324.494269174465
 30
0.0
 11
3407.970589276523
 21
1315.494269174465
 31
0.0
  0
LINE
  5
18CD6
330
18C7A
100
AcDbEntity
  8
部品1
100
AcDbLine
 10
3398.970589276523
 20
1324.494269174465
 30
0.0
 11
3407.970589276523
 21
1324.494269174465
 31
0.0
  0
LINE
  5
18CD7
330
18C7A
100
AcDbEntity
  8
部品1
100
AcDbLine
 10
3398.970589276523
 20
1388.494269174465
 30
0.0
 11
3398.970589276523
 21
1324.494269174465
 31
0.0
  0
LINE
  5
18CD8
330
18C7A
100
AcDbEntity
  8
部品1
100
AcDbLine
 10
3409.970589276524
 20
1419.494269174465
 30
0.0
 11
3409.970589276524
 21
1388.494269174465
 31
0.0
  0
LINE
  5
18CD9
330
18C7A
100
AcDbEntity
  8
部品1
100
AcDbLine
 10
1322.970589276523
 20
1388.494269174465
 30
0.0
 11
1311.970589276523
 21
1388.494269174465
 31
0.0
  0
LINE
  5
18CDA
330
18C7A
100
AcDbEntity
  8
部品1
100
AcDbLine
 10
1283.970589276523
 20
1392.494269174465
 30
0.0
 11
1311.970589276523
 21
1392.494269174465
 31
0.0
  0
LINE
  5
18CDB
330
18C7A
100
AcDbEntity
  8
部品1
100
AcDbLine
 10
1313.970589276523
 20
1324.494269174465
 30
0.0
 11
1313.970589276523
 21
1315.494269174465
 31
0.0
  0
LINE
  5
18CDC
330
18C7A
100
AcDbEntity
  8
部品1
100
AcDbLine
 10
1322.970589276523
 20
1324.494269174465
 30
0.0
 11
1313.970589276523
 21
1324.494269174465
 31
0.0
  0
LINE
  5
18CDD
330
18C7A
100
AcDbEntity
  8
部品1
100
AcDbLine
 10
1313.970589276523
 20
1315.494269174465
 30
0.0
 11
1283.970589276523
 21
1315.494269174465
 31
0.0
  0
LINE
  5
18CDE
330
18C7A
100
AcDbEntity
  8
部品1
100
AcDbLine
 10
1283.970589276523
 20
1315.494269174465
 30
0.0
 11
1283.970589276523
 21
1392.494269174465
 31
0.0
  0
LINE
  5
18CDF
330
18C7A
100
AcDbEntity
  8
部品1
100
AcDbLine
 10
1322.970589276523
 20
1388.494269174465
 30
0.0
 11
1322.970589276523
 21
1324.494269174465
 31
0.0
  0
LINE
  5
18CE0
330
18C7A
100
AcDbEntity
  8
部品1
100
AcDbLine
 10
1311.970589276523
 20
1419.494269174462
 30
0.0
 11
1311.970589276523
 21
1388.494269174465
 31
0.0
  0
LINE
  5
18CE1
330
18C7A
100
AcDbEntity
  8
部品1
100
AcDbLine
 10
1311.970589276523
 20
1419.494269174462
 30
0.0
 11
3409.970589276524
 21
1419.494269174465
 31
0.0
  0
LINE
  5
18CE2
330
18C7A
100
AcDbEntity
  8
部品1
100
AcDbLine
 10
3407.970589276523
 20
1315.494269174465
 30
0.0
 11
3437.970589276523
 21
1315.494269174465
 31
0.0
  0
LINE
  5
18CE3
330
18C7A
100
AcDbEntity
  8
部品1
100
AcDbLine
 10
1313.970589276523
 20
1315.494269174465
 30
0.0
 11
3410.970589276523
 21
1315.494269174465
 31
0.0
  0
LINE
  5
18CE4
330
18C7A
100
AcDbEntity
  8
細線
  6
Continuous
 62
     5
100
AcDbLine
 10
2689.970589276527
 20
1354.494269174462
 30
0.0
 11
2689.970589276527
 21
1354.494269174462
 31
0.0
  0
LINE
  5
18CE5
330
18C7A
100
AcDbEntity
  8
細線
  6
Continuous
 62
     5
100
AcDbLine
 10
2682.470589276527
 20
1354.494269174462
 30
0.0
 11
2682.470589276527
 21
1354.494269174462
 31
0.0
  0
LINE
  5
18CE6
330
18C7A
100
AcDbEntity
  8
細線
  6
Continuous
 62
     5
100
AcDbLine
 10
2676.470589276527
 20
1354.494269174462
 30
0.0
 11
2676.470589276527
 21
1354.494269174462
 31
0.0
  0
LINE
  5
18CE7
330
18C7A
100
AcDbEntity
  8
細線
  6
Continuous
 62
     5
100
AcDbLine
 10
2743.970589276527
 20
1373.494269174462
 30
0.0
 11
2743.970589276527
 21
1373.494269174462
 31
0.0
  0
LINE
  5
18CE8
330
18C7A
100
AcDbEntity
  8
細線
 48
50.0
100
AcDbLine
 10
1336.970593930116
 20
1341.094443351418
 30
0.0
 11
1336.970593930113
 21
1349.490593759059
 31
0.0
  0
LINE
  5
18CE9
330
18C7A
100
AcDbEntity
  8
細線
 48
50.0
100
AcDbLine
 10
1336.970593930113
 20
1349.490593759059
 30
0.0
 11
1322.970589276523
 21
1349.490593759057
 31
0.0
  0
LINE
  5
18CEA
330
18C7A
100
AcDbEntity
  8
細線
 48
50.0
100
AcDbLine
 10
2087.970593930113
 20
1337.644443351419
 30
0.0
 11
2087.970593930113
 21
1342.494443351421
 31
0.0
  0
LINE
  5
18CEB
330
18C7A
100
AcDbEntity
  8
細線
 48
50.0
100
AcDbLine
 10
2087.970593930113
 20
1342.494443351421
 30
0.0
 11
2102.970593930113
 21
1342.494443351421
 31
0.0
  0
LINE
  5
18CEC
330
18C7A
100
AcDbEntity
  8
細線
 48
50.0
100
AcDbLine
 10
2102.970593930113
 20
1342.494443351421
 30
0.0
 11
2102.970593930115
 21
1349.494443351419
 31
0.0
  0
LINE
  5
18CED
330
18C7A
100
AcDbEntity
  8
細線
 48
50.0
100
AcDbLine
 10
2102.970593930115
 20
1349.494443351419
 30
0.0
 11
2117.970593930113
 21
1349.494443351419
 31
0.0
  0
LINE
  5
18CEE
330
18C7A
100
AcDbEntity
  8
細線
 48
50.0
100
AcDbLine
 10
2117.970593930113
 20
1349.494443351419
 30
0.0
 11
2117.970593930113
 21
1320.494443351421
 31
0.0
  0
LINE
  5
18CEF
330
18C7A
100
AcDbEntity
  8
細線
 48
50.0
100
AcDbLine
 10
1313.970589276523
 20
1320.491777694889
 30
0.0
 11
1527.970593930113
 21
1320.494460905133
 31
0.0
  0
LINE
  5
18CF0
330
18C7A
100
AcDbEntity
  8
細線
 48
50.0
100
AcDbLine
 10
2017.970593930113
 20
1320.494443351421
 30
0.0
 11
2117.970593930113
 21
1320.494443351421
 31
0.0
  0
LINE
  5
18CF1
330
18C7A
100
AcDbEntity
  8
細線
 48
50.0
100
AcDbLine
 10
1737.970593930113
 20
1320.494443351419
 30
0.0
 11
1807.970593930113
 21
1320.494443351423
 31
0.0
  0
LINE
  5
18CF2
330
18C7A
100
AcDbEntity
  8
細線
 48
50.0
100
AcDbLine
 10
1750.832558942642
 20
1320.494443351419
 30
0.0
 11
1756.588076525309
 21
1338.765294641913
 31
0.0
  0
LINE
  5
18CF3
330
18C7A
100
AcDbEntity
  8
細線
 48
50.0
100
AcDbLine
 10
1756.588076525309
 20
1338.765294641913
 30
0.0
 11
1767.516525005743
 21
1338.765294641911
 31
0.0
  0
ARC
  5
18CF4
330
18C7A
100
AcDbEntity
  8
細線
 48
50.0
100
AcDbCircle
 10
1767.516525005743
 20
1337.765294641911
 30
0.0
 40
1.0
100
AcDbArc
 50
24.62431835207225
 51
90.0
  0
ARC
  5
18CF5
330
18C7A
100
AcDbEntity
  8
細線
 48
50.0
100
AcDbCircle
 10
1778.425237120377
 20
1337.765294641911
 30
0.0
 40
1.0
100
AcDbArc
 50
90.0
 51
155.3756816479277
  0
ARC
  5
18CF6
330
18C7A
100
AcDbEntity
  8
細線
 48
50.0
100
AcDbCircle
 10
1772.970881063058
 20
1340.265294641911
 30
0.0
 40
5.0
100
AcDbArc
 50
204.6243183520723
 51
335.3756816479278
  0
LINE
  5
18CF7
330
18C7A
100
AcDbEntity
  8
細線
 48
50.0
100
AcDbLine
 10
1778.425237120377
 20
1338.765294641911
 30
0.0
 11
1789.35368560081
 21
1338.765294641913
 31
0.0
  0
LINE
  5
18CF8
330
18C7A
100
AcDbEntity
  8
細線
 48
50.0
100
AcDbLine
 10
1789.35368560081
 20
1338.765294641913
 30
0.0
 11
1795.109203183478
 21
1320.494443351423
 31
0.0
  0
LINE
  5
18CF9
330
18C7A
100
AcDbEntity
  8
細線
 48
50.0
100
AcDbLine
 10
2087.970593930113
 20
1341.094443351419
 30
0.0
 11
1336.970593930116
 21
1341.094443351418
 31
0.0
  0
LINE
  5
18CFA
330
18C7A
100
AcDbEntity
  8
細線
 48
50.0
100
AcDbLine
 10
1947.970593930113
 20
1320.494443351421
 30
0.0
 11
1877.970593930113
 21
1320.494443351421
 31
0.0
  0
LINE
  5
18CFB
330
18C7A
100
AcDbEntity
  8
細線
100
AcDbLine
 10
1667.970593930113
 20
1320.494443351421
 30
0.0
 11
1597.970602115529
 21
1320.494443351421
 31
0.0
  0
LINE
  5
18CFC
330
18C7A
100
AcDbEntity
  8
細線
 48
50.0
100
AcDbLine
 10
2741.970584622936
 20
1375.094487209288
 30
0.0
 11
2106.970593930113
 21
1375.094487209284
 31
0.0
  0
LINE
  5
18CFD
330
18C7A
100
AcDbEntity
  8
細線
 48
50.0
100
AcDbLine
 10
2106.970593930113
 20
1371.990637616925
 30
0.0
 11
2106.970593930113
 21
1376.490637616925
 31
0.0
  0
LINE
  5
18CFE
330
18C7A
100
AcDbEntity
  8
細線
 48
50.0
100
AcDbLine
 10
2106.970593930113
 20
1376.490637616925
 30
0.0
 11
2091.970593930113
 21
1376.490637616925
 31
0.0
  0
LINE
  5
18CFF
330
18C7A
100
AcDbEntity
  8
細線
 48
50.0
100
AcDbLine
 10
2091.970593930113
 20
1376.490637616925
 30
0.0
 11
2091.970593930113
 21
1383.490637616927
 31
0.0
  0
LINE
  5
18D00
330
18C7A
100
AcDbEntity
  8
細線
 48
50.0
100
AcDbLine
 10
2091.970593930113
 20
1383.490637616927
 30
0.0
 11
2076.970593930115
 21
1383.490637616924
 31
0.0
  0
LINE
  5
18D01
330
18C7A
100
AcDbEntity
  8
細線
 48
50.0
100
AcDbLine
 10
2076.970593930115
 20
1383.490637616924
 30
0.0
 11
2076.970593930115
 21
1345.890409513813
 31
0.0
  0
LINE
  5
18D02
330
18C7A
100
AcDbEntity
  8
細線
 48
50.0
100
AcDbLine
 10
2076.970593930115
 20
1345.890409513813
 30
0.0
 11
2096.970601231289
 21
1345.890451063353
 31
0.0
  0
LINE
  5
18D03
330
18C7A
100
AcDbEntity
  8
細線
 48
50.0
100
AcDbLine
 10
2096.970556362348
 20
1354.493912699161
 30
0.0
 11
2096.970601231289
 21
1345.890451063353
 31
0.0
  0
LINE
  5
18D04
330
18C7A
100
AcDbEntity
  8
細線
 48
50.0
100
AcDbLine
 10
2741.970584622936
 20
1371.644487209287
 30
0.0
 11
2741.970584622936
 21
1376.494487209284
 31
0.0
  0
LINE
  5
18D05
330
18C7A
100
AcDbEntity
  8
細線
 48
50.0
100
AcDbLine
 10
2741.970584622936
 20
1376.494487209284
 30
0.0
 11
2756.970584622934
 21
1376.494487209285
 31
0.0
  0
LINE
  5
18D06
330
18C7A
100
AcDbEntity
  8
細線
 48
50.0
100
AcDbLine
 10
2756.970584622934
 20
1376.494487209285
 30
0.0
 11
2756.970596256909
 21
1383.494487209331
 31
0.0
  0
LINE
  5
18D07
330
18C7A
100
AcDbEntity
  8
細線
 48
50.0
100
AcDbLine
 10
2756.970596256909
 20
1383.494487209331
 30
0.0
 11
2771.970594427439
 21
1383.494487209329
 31
0.0
  0
LINE
  5
18D08
330
18C7A
100
AcDbEntity
  8
細線
 48
50.0
100
AcDbLine
 10
2771.970594427439
 20
1383.494487209329
 30
0.0
 11
2771.970584125617
 21
1354.494281037055
 31
0.0
  0
LINE
  5
18D09
330
18C7A
100
AcDbEntity
  8
細線
 48
50.0
100
AcDbLine
 10
2458.070304175992
 20
1354.494278397076
 30
0.0
 11
2389.470863838818
 21
1354.494283787084
 31
0.0
  0
LINE
  5
18D0A
330
18C7A
100
AcDbEntity
  8
細線
 48
50.0
100
AcDbLine
 10
2096.970556362348
 20
1354.493912699161
 30
0.0
 11
2108.203245717057
 21
1354.494095652309
 31
0.0
  0
ARC
  5
18D0B
330
18C7A
100
AcDbEntity
  8
細線
 48
50.0
100
AcDbCircle
 10
2114.785538024393
 20
1353.294259565922
 30
0.0
 40
1.8
100
AcDbArc
 50
270.0006665777295
 51
345.000555481349
  0
LINE
  5
18D0C
330
18C7A
100
AcDbEntity
  8
細線
 48
50.0
100
AcDbLine
 10
2116.771971470473
 20
1353.753100023201
 30
0.0
 11
2116.524209028273
 21
1352.828402141094
 31
0.0
  0
LINE
  5
18D0D
330
18C7A
100
AcDbEntity
  8
細線
 48
50.0
100
AcDbLine
 10
2114.785558965548
 20
1351.494259566043
 30
0.0
 11
2111.155631546781
 21
1351.494217335563
 31
0.0
  0
ARC
  5
18D0E
330
18C7A
100
AcDbEntity
  8
細線
 48
50.0
100
AcDbCircle
 10
2111.155610605627
 20
1353.29421733544
 30
0.0
 40
1.8
100
AcDbArc
 50
195.0010443049965
 51
270.0006665777295
  0
LINE
  5
18D0F
330
18C7A
100
AcDbEntity
  8
細線
 48
50.0
100
AcDbLine
 10
2109.169183113368
 20
1353.752932303007
 30
0.0
 11
2109.416952609882
 21
1352.828311364425
 31
0.0
  0
ARC
  5
18D10
330
18C7A
100
AcDbEntity
  8
細線
 48
50.0
100
AcDbCircle
 10
2108.203262004622
 20
1353.494095652444
 30
0.0
 40
1.0
100
AcDbArc
 50
15.00104430499651
 51
90.00093320877969
  0
LINE
  5
18D11
330
18C7A
100
AcDbEntity
  8
細線
 48
50.0
100
AcDbLine
 10
2117.737892825577
 20
1354.494290342714
 30
0.0
 11
2118.679652976481
 21
1354.494296916564
 31
0.0
  0
ARC
  5
18D12
330
18C7A
100
AcDbEntity
  8
細線
 48
50.0
100
AcDbCircle
 10
2117.737899805961
 20
1353.49429034274
 30
0.0
 40
1.0
100
AcDbArc
 50
90.0003999466794
 51
165.000555481349
  0
LINE
  5
18D13
330
18C7A
100
AcDbEntity
  8
細線
 48
50.0
100
AcDbLine
 10
2669.470584622926
 20
1354.494281037055
 30
0.0
 11
2771.970584125617
 21
1354.494281037055
 31
0.0
  0
LINE
  5
18D14
330
18C7A
100
AcDbEntity
  8
細線
 48
50.0
100
AcDbLine
 10
2179.47061994182
 20
1354.494289224422
 30
0.0
 11
2118.370558714898
 21
1354.494296916564
 31
0.0
  0
LINE
  5
18D15
330
18C7A
100
AcDbEntity
  8
細線
 48
50.0
100
AcDbLine
 10
2599.470584622926
 20
1354.494281037057
 30
0.0
 11
2529.470584622926
 21
1354.494281037055
 31
0.0
  0
LINE
  5
18D16
330
18C7A
100
AcDbEntity
  8
細線
 48
50.0
100
AcDbLine
 10
2319.470584622926
 20
1354.494281037054
 30
0.0
 11
2249.470567335051
 21
1354.494281037057
 31
0.0
  0
ARC
  5
18D17
330
18C7A
100
AcDbEntity
  8
細線
 48
50.0
100
AcDbCircle
 10
2756.170589276533
 20
1387.694269174466
 30
0.0
 40
0.8
100
AcDbArc
 50
359.9997333689499
 51
89.99986668437072
  0
ARC
  5
18D18
330
18C7A
100
AcDbEntity
  8
細線
 48
50.0
100
AcDbCircle
 10
2763.770596101631
 20
1387.694280343081
 30
0.0
 40
0.8
100
AcDbArc
 50
90.00014387753465
 51
179.9997333689498
  0
LINE
  5
18D19
330
18C7A
100
AcDbEntity
  8
細線
 48
50.0
100
AcDbLine
 10
2756.170591137969
 20
1388.494269174465
 30
0.0
 11
2750.970589276525
 21
1388.494269174465
 31
0.0
  0
ARC
  5
18D1A
330
18C7A
100
AcDbEntity
  8
細線
 48
50.0
100
AcDbCircle
 10
2757.670589276524
 20
1386.194269174464
 30
0.0
 40
0.7
100
AcDbArc
 50
180.0
 51
270.0
  0
ARC
  5
18D1B
330
18C7A
100
AcDbEntity
  8
細線
 48
50.0
100
AcDbCircle
 10
2762.270589276524
 20
1386.194269174464
 30
0.0
 40
0.7
100
AcDbArc
 50
270.0
 51
0.0
  0
LINE
  5
18D1C
330
18C7A
100
AcDbEntity
  8
細線
 48
50.0
100
AcDbLine
 10
2762.970589276525
 20
1386.194269174464
 30
0.0
 11
2762.970596101639
 21
1387.694284065954
 31
0.0
  0
LINE
  5
18D1D
330
18C7A
100
AcDbEntity
  8
細線
 48
50.0
100
AcDbLine
 10
2757.670589276524
 20
1385.494269174465
 30
0.0
 11
2762.270589276524
 21
1385.494269174465
 31
0.0
  0
LINE
  5
18D1E
330
18C7A
100
AcDbEntity
  8
細線
 48
50.0
100
AcDbLine
 10
2756.970589276525
 20
1387.694269174466
 30
0.0
 11
2756.970589276525
 21
1386.194269174464
 31
0.0
  0
LINE
  5
18D1F
330
18C7A
100
AcDbEntity
  8
細線
 48
50.0
100
AcDbLine
 10
3382.570589276527
 20
1418.494269174465
 30
0.0
 11
2745.970589276525
 21
1418.494269174463
 31
0.0
  0
LINE
  5
18D20
330
18C7A
100
AcDbEntity
  8
細線
 48
50.0
100
AcDbLine
 10
3408.470589276525
 20
1413.494269174467
 30
0.0
 11
3392.570589276527
 21
1413.494269174465
 31
0.0
  0
LINE
  5
18D21
330
18C7A
100
AcDbEntity
  8
細線
 48
50.0
100
AcDbLine
 10
3392.570589276526
 20
1413.494269174465
 30
0.0
 11
3382.570589276527
 21
1418.494269174465
 31
0.0
  0
LINE
  5
18D22
330
18C7A
100
AcDbEntity
  8
細線
100
AcDbLine
 10
2993.470589276525
 20
1388.494269174465
 30
0.0
 11
2993.470589276525
 21
1417.794269174464
 31
0.0
  0
LINE
  5
18D23
330
18C7A
100
AcDbEntity
  8
細線
100
AcDbLine
 10
2993.470589276525
 20
1417.794269174464
 30
0.0
 11
3013.470589276525
 21
1417.794269174464
 31
0.0
  0
LINE
  5
18D24
330
18C7A
100
AcDbEntity
  8
細線
100
AcDbLine
 10
3013.470589276525
 20
1388.494269174465
 30
0.0
 11
3013.470589276525
 21
1417.794269174464
 31
0.0
  0
LINE
  5
18D25
330
18C7A
100
AcDbEntity
  8
細線
100
AcDbLine
 10
3170.720589276524
 20
1388.494269174465
 30
0.0
 11
3100.720589276523
 21
1388.494269174465
 31
0.0
  0
LINE
  5
18D26
330
18C7A
100
AcDbEntity
  8
細線
 48
50.0
100
AcDbLine
 10
2890.720589276525
 20
1388.494269174465
 30
0.0
 11
2763.766368849365
 21
1388.494269174465
 31
0.0
  0
LINE
  5
18D27
330
18C7A
100
AcDbEntity
  8
細線
100
AcDbLine
 10
3030.720589276525
 20
1388.494269174465
 30
0.0
 11
2960.720589276525
 21
1388.494269174465
 31
0.0
  0
LINE
  5
18D28
330
18C7A
100
AcDbEntity
  8
細線
 48
50.0
100
AcDbLine
 10
2750.970589276525
 20
1380.494269174465
 30
0.0
 11
2750.970589276525
 21
1388.494269174465
 31
0.0
  0
LINE
  5
18D29
330
18C7A
100
AcDbEntity
  8
細線
 48
50.0
100
AcDbLine
 10
2730.970589276524
 20
1380.494269174467
 30
0.0
 11
2750.970589276525
 21
1380.494269174465
 31
0.0
  0
LINE
  5
18D2A
330
18C7A
100
AcDbEntity
  8
細線
 48
50.0
100
AcDbLine
 10
2745.970589276525
 20
1418.494269174465
 30
0.0
 11
2745.970589276525
 21
1413.494269174465
 31
0.0
  0
LINE
  5
18D2B
330
18C7A
100
AcDbEntity
  8
細線
 48
50.0
100
AcDbLine
 10
2730.970589276525
 20
1418.494269174463
 30
0.0
 11
2745.970589276525
 21
1418.494269174465
 31
0.0
  0
LINE
  5
18D2C
330
18C7A
100
AcDbEntity
  8
細線
 48
50.0
100
AcDbLine
 10
2730.970589276524
 20
1380.494269174467
 30
0.0
 11
2730.970589276525
 21
1418.494269174463
 31
0.0
  0
LINE
  5
18D2D
330
18C7A
100
AcDbEntity
  8
細線
100
AcDbLine
 10
3398.970589276523
 20
1388.494269174465
 30
0.0
 11
3240.720589276525
 21
1388.494269174465
 31
0.0
  0
LINE
  5
18D2E
330
18C7A
100
AcDbEntity
  8
細線
 48
50.0
100
AcDbLine
 10
3408.470589276525
 20
1413.494269174467
 30
0.0
 11
3408.470589276524
 21
1388.494269174465
 31
0.0
  0
TEXT
  5
18D2F
330
18C7A
100
AcDbEntity
  8
部品1
100
AcDbText
 10
1860.154865991392
 20
46.99880823813145
 30
0.0
 40
135.0
  1
平面図
  7
STYLE2
100
AcDbText
  0
LWPOLYLINE
  5
18D30
330
18C7A
100
AcDbEntity
  8
部品1
100
AcDbPolyline
 90
        4
 70
     1
 43
0.0
 10
1770.23525616235
 20
239.8923374566548
 10
1770.23525616235
 20
0.0000159111223184
 10
2533.705922390791
 20
0.0000159111223184
 10
2533.705922390791
 20
239.8923374566548
  0
LINE
  5
18D31
330
18C7A
100
AcDbEntity
  8
部品1
100
AcDbLine
 10
1534.470589276487
 20
3154.494269174626
 30
0.0
 11
2769.470589276552
 21
3154.494269174626
 31
0.0
  0
LINE
  5
18D32
330
18C7A
100
AcDbEntity
  8
部品1
 48
50.0
100
AcDbLine
 10
1311.970589276523
 20
1420.494269174462
 30
0.0
 11
3411.970589276523
 21
1420.494269174465
 31
0.0
  0
LINE
  5
18D33
330
18C7A
100
AcDbEntity
  8
部品1
 48
50.0
100
AcDbLine
 10
471.9705892765232
 20
1392.494269174465
 30
0.0
 11
1311.970589276523
 21
1392.494269174465
 31
0.0
  0
DIMENSION
  5
18D34
330
18C7A
100
AcDbEntity
  8
寸法
100
AcDbDimension
  2
*D14
 10
2710.234916278077
 20
2488.887829538828
 30
0.0
 11
2338.318822490183
 21
2488.887829538828
 31
0.0
 12
-3742.925985830444
 22
-6453.628869860112
 32
0.0
 70
   128
 71
     5
 42
1231.00000000007
  3
INABA_S40G
100
AcDbAlignedDimension
 13
1536.470589276486
 23
2702.494269174557
 33
0.0
 14
2767.470589276556
 24
2702.494269174549
 34
0.0
100
AcDbRotatedDimension
1001
ACAD
1000
DSTYLE
1002
{
1002
}
  0
LINE
  5
18D35
330
18C7A
100
AcDbEntity
  8
部品1
100
AcDbLine
 10
1536.470589276487
 20
2702.494269174557
 30
0.0
 11
2767.470589276554
 21
2702.494269174615
 31
0.0
  0
LINE
  5
18D36
330
18C7A
100
AcDbEntity
  8
部品1
100
AcDbLine
 10
1536.470589276487
 20
3152.494269174557
 30
0.0
 11
2767.470589276556
 21
3152.494269174615
 31
0.0
  0
LINE
  5
18D37
330
18C7A
100
AcDbEntity
  8
細線
 48
50.0
100
AcDbLine
 10
1508.470589276487
 20
3152.494269174558
 30
0.0
 11
445.4705892765559
 21
2702.494269174509
 31
0.0
  0
LINE
  5
18D38
330
18C7A
100
AcDbEntity
  8
細線
 48
50.0
100
AcDbLine
 10
1508.470589276487
 20
2702.494269174558
 30
0.0
 11
445.4705892765542
 21
3152.494269174509
 31
0.0
  0
LINE
  5
18D39
330
18C7A
100
AcDbEntity
  8
部品1
100
AcDbLine
 10
1556.970589276487
 20
3172.494269174611
 30
0.0
 11
1556.970589276487
 21
3154.494269174611
 31
0.0
  0
LINE
  5
18D3A
330
18C7A
100
AcDbEntity
  8
部品1
100
AcDbLine
 10
1556.970589276487
 20
3172.494269174611
 30
0.0
 11
1550.970589276487
 21
3172.494269174611
 31
0.0
  0
LINE
  5
18D3B
330
18C7A
100
AcDbEntity
  8
部品1
100
AcDbLine
 10
1534.470589276487
 20
3146.494269174608
 30
0.0
 11
1509.470589276487
 21
3146.494269174611
 31
0.0
  0
LINE
  5
18D3C
330
18C7A
100
AcDbEntity
  8
部品1
100
AcDbLine
 10
1486.970589276487
 20
3172.494269174611
 30
0.0
 11
1486.970589276487
 21
3154.494269174611
 31
0.0
  0
LINE
  5
18D3D
330
18C7A
100
AcDbEntity
  8
部品1
100
AcDbLine
 10
1492.970589276487
 20
3172.494269174611
 30
0.0
 11
1486.970589276487
 21
3172.494269174611
 31
0.0
  0
LINE
  5
18D3E
330
18C7A
100
AcDbEntity
  8
部品1
100
AcDbLine
 10
1534.470589276487
 20
2702.494269174615
 30
0.0
 11
1509.470589276487
 21
2702.494269174615
 31
0.0
  0
LINE
  5
18D3F
330
18C7A
100
AcDbEntity
  8
部品1
 48
50.0
100
AcDbLine
 10
1536.470589276487
 20
3152.494269174611
 30
0.0
 11
1536.470589276487
 21
2702.494269174615
 31
0.0
  0
LINE
  5
18D40
330
18C7A
100
AcDbEntity
  8
部品1
 48
50.0
100
AcDbLine
 10
1508.470589276487
 20
3152.494269174607
 30
0.0
 11
1508.470589276487
 21
2702.494269174615
 31
0.0
  0
LINE
  5
18D41
330
18C7A
100
AcDbEntity
  8
部品1
 48
50.0
100
AcDbLine
 10
1534.470589276487
 20
3154.494269174618
 30
0.0
 11
1534.470589276487
 21
2702.494269174615
 31
0.0
  0
LINE
  5
18D42
330
18C7A
100
AcDbEntity
  8
部品1
 48
50.0
100
AcDbLine
 10
1509.470589276487
 20
3154.494269174615
 30
0.0
 11
1509.470589276487
 21
2702.494269174615
 31
0.0
  0
LINE
  5
18D43
330
18C7A
100
AcDbEntity
  8
部品1
100
AcDbLine
 10
3411.970589276556
 20
1392.494269174582
 30
0.0
 11
3411.970589276556
 21
1420.494269174596
 31
0.0
  0
LINE
  5
18D44
330
18C7A
100
AcDbEntity
  8
部品1
100
AcDbLine
 10
1311.970589276523
 20
1392.494269174596
 30
0.0
 11
1311.970589276523
 21
1420.494269174596
 31
0.0
  0
LINE
  5
18D45
330
18C7A
100
AcDbEntity
  8
部品1
100
AcDbLine
 10
891.9705892765232
 20
1392.494269174596
 30
0.0
 11
891.9705892765232
 21
1420.494269174596
 31
0.0
  0
LINE
  5
18D46
330
18C7A
100
AcDbEntity
  8
部品1
100
AcDbLine
 10
3411.97058927652
 20
3182.494269174477
 30
0.0
 11
3411.970589276523
 21
3154.494269174477
 31
0.0
  0
LINE
  5
18D47
330
18C7A
100
AcDbEntity
  8
部品1
100
AcDbLine
 10
2571.97058927652
 20
3182.494269174477
 30
0.0
 11
2571.970589276523
 21
3154.494269174477
 31
0.0
  0
LINE
  5
18D48
330
18C7A
100
AcDbEntity
  8
部品1
100
AcDbLine
 10
2991.97058927652
 20
3182.494269174477
 30
0.0
 11
2991.970589276523
 21
3154.494269174477
 31
0.0
  0
LINE
  5
18D49
330
18C7A
100
AcDbEntity
  8
部品1
100
AcDbLine
 10
2151.970589276519
 20
3182.494269174477
 30
0.0
 11
2151.970589276523
 21
3154.494269174477
 31
0.0
  0
LINE
  5
18D4A
330
18C7A
100
AcDbEntity
  8
部品1
100
AcDbLine
 10
1731.970589276519
 20
3182.494269174477
 30
0.0
 11
1731.970589276523
 21
3154.494269174477
 31
0.0
  0
LINE
  5
18D4B
330
18C7A
100
AcDbEntity
  8
部品1
100
AcDbLine
 10
1311.970589276519
 20
3182.494269174477
 30
0.0
 11
1311.970589276523
 21
3154.494269174477
 31
0.0
  0
LINE
  5
18D4C
330
18C7A
100
AcDbEntity
  8
部品1
100
AcDbLine
 10
891.9705892765195
 20
3182.494269174477
 30
0.0
 11
891.9705892765232
 21
3154.494269174477
 31
0.0
  0
LINE
  5
18D4D
330
18C7A
100
AcDbEntity
  8
部品1
100
AcDbLine
 10
471.9705892765232
 20
1392.494269174596
 30
0.0
 11
471.9705892765232
 21
1420.494269174596
 31
0.0
  0
LINE
  5
18D4E
330
18C7A
100
AcDbEntity
  8
部品1
100
AcDbLine
 10
444.9705892765305
 20
1420.494269174558
 30
0.0
 11
3858.970589276556
 21
1420.494269174596
 31
0.0
  0
LINE
  5
18D4F
330
18C7A
100
AcDbEntity
  8
部品1
100
AcDbLine
 10
3831.970589276556
 20
1392.494269174596
 30
0.0
 11
3831.970589276556
 21
1420.494269174596
 31
0.0
  0
LINE
  5
18D50
330
18C7A
100
AcDbEntity
  8
部品1
100
AcDbLine
 10
3858.970589276556
 20
1447.494269174593
 30
0.0
 11
3886.970589276556
 21
1447.494269174593
 31
0.0
  0
LINE
  5
18D51
330
18C7A
100
AcDbEntity
  8
部品1
100
AcDbLine
 10
3858.970589276556
 20
1867.494269174607
 30
0.0
 11
3886.970589276556
 21
1867.494269174607
 31
0.0
  0
LINE
  5
18D52
330
18C7A
100
AcDbEntity
  8
部品1
100
AcDbLine
 10
444.9705892765305
 20
1867.49426917448
 30
0.0
 11
416.9705892765305
 21
1867.49426917448
 31
0.0
  0
LINE
  5
18D53
330
18C7A
100
AcDbEntity
  8
部品1
100
AcDbLine
 10
3830.470589276541
 20
1867.49426917458
 30
0.0
 11
473.4705892765396
 21
1867.49426917448
 31
0.0
  0
LINE
  5
18D54
330
18C7A
100
AcDbEntity
  8
部品1
100
AcDbLine
 10
3830.470589276541
 20
2287.49426917458
 30
0.0
 11
473.4705892765396
 21
2287.49426917448
 31
0.0
  0
LINE
  5
18D55
330
18C7A
100
AcDbEntity
  8
部品1
100
AcDbLine
 10
444.9705892765305
 20
2287.49426917448
 30
0.0
 11
416.9705892765305
 21
2287.49426917448
 31
0.0
  0
LINE
  5
18D56
330
18C7A
100
AcDbEntity
  8
部品1
100
AcDbLine
 10
3858.970589276556
 20
2287.494269174608
 30
0.0
 11
3886.970589276556
 21
2287.494269174608
 31
0.0
  0
LINE
  5
18D57
330
18C7A
100
AcDbEntity
  8
部品1
 48
50.0
100
AcDbLine
 10
2151.970589276551
 20
2702.494269174586
 30
0.0
 11
2151.970589276581
 21
1448.994269174494
 31
0.0
  0
LINE
  5
18D58
330
18C7A
100
AcDbEntity
  8
破線
 48
10.0
100
AcDbLine
 10
2959.470589276535
 20
1472.494269174522
 30
0.0
 11
2176.970589276532
 21
1472.494269174505
 31
0.0
  0
LINE
  5
18D59
330
18C7A
100
AcDbEntity
  8
破線
 48
10.0
100
AcDbLine
 10
3009.47058927653
 20
1448.994269174509
 30
0.0
 11
3009.47058927653
 21
2702.494269174615
 31
0.0
  0
LINE
  5
18D5A
330
18C7A
100
AcDbEntity
  8
破線
 48
10.0
100
AcDbLine
 10
2959.470589276535
 20
1448.994269174505
 30
0.0
 11
2959.470589276531
 21
2702.494269174615
 31
0.0
  0
LINE
  5
18D5B
330
18C7A
100
AcDbEntity
  8
破線
 48
10.0
100
AcDbLine
 10
1344.47058927653
 20
1448.994269174509
 30
0.0
 11
1344.47058927653
 21
2702.494269174615
 31
0.0
  0
LINE
  5
18D5C
330
18C7A
100
AcDbEntity
  8
破線
 48
10.0
100
AcDbLine
 10
1294.470589276534
 20
1448.994269174505
 30
0.0
 11
1294.47058927653
 21
2702.494269174615
 31
0.0
  0
DIMENSION
  5
18D5D
330
18C7A
100
AcDbEntity
  8
寸法
100
AcDbDimension
  2
*D13
 10
1451.234916278005
 20
2488.887829538828
 30
0.0
 11
916.0604668248634
 21
2488.887829538828
 31
0.0
 12
-3742.925985830444
 22
-6453.628869860112
 32
0.0
 70
   128
 71
     5
 42
1062.99999999993
  3
INABA_S40G
100
AcDbAlignedDimension
 13
445.4705892765559
 23
2702.494269174505
 33
0.0
 14
1508.470589276486
 24
2702.494269174558
 34
0.0
100
AcDbRotatedDimension
1001
ACAD
1000
DSTYLE
1002
{
1002
}
  0
LINE
  5
18D5E
330
18C7A
100
AcDbEntity
  8
破線
 48
10.0
100
AcDbLine
 10
1294.470589276534
 20
1472.494269174469
 30
0.0
 11
496.9705892765414
 21
1472.494269174476
 31
0.0
  0
LINE
  5
18D5F
330
18C7A
100
AcDbEntity
  8
部品1
100
AcDbLine
 10
3831.970589276556
 20
3182.494269174604
 30
0.0
 11
3831.970589276556
 21
3154.494269174604
 31
0.0
  0
LINE
  5
18D60
330
18C7A
100
AcDbEntity
  8
部品1
100
AcDbLine
 10
3831.970589276556
 20
3182.494269174626
 30
0.0
 11
3831.970589276556
 21
3154.494269174626
 31
0.0
  0
LINE
  5
18D61
330
18C7A
100
AcDbEntity
  8
部品1
100
AcDbLine
 10
3858.970589276556
 20
3127.494269174607
 30
0.0
 11
3886.970589276556
 21
3127.494269174607
 31
0.0
  0
LINE
  5
18D62
330
18C7A
100
AcDbEntity
  8
部品1
100
AcDbLine
 10
3858.970589276556
 20
2707.494269174608
 30
0.0
 11
3886.970589276556
 21
2707.494269174608
 31
0.0
  0
LINE
  5
18D63
330
18C7A
100
AcDbEntity
  8
部品1
100
AcDbLine
 10
3858.470589276556
 20
3152.494269174604
 30
0.0
 11
3858.470589276556
 21
2702.494269174608
 31
0.0
  0
LINE
  5
18D64
330
18C7A
100
AcDbEntity
  8
部品1
100
AcDbLine
 10
3886.970589276533
 20
1447.494269174593
 30
0.0
 11
3886.970589276531
 21
1392.494269174596
 31
0.0
  0
LINE
  5
18D65
330
18C7A
100
AcDbEntity
  8
部品1
 48
50.0
100
AcDbLine
 10
3830.470589276556
 20
1448.994269174596
 30
0.0
 11
3858.970589276554
 21
1420.494269174596
 31
0.0
  0
LINE
  5
18D66
330
18C7A
100
AcDbEntity
  8
部品1
100
AcDbLine
 10
3886.970589276531
 20
1392.494269174596
 30
0.0
 11
3835.970589276531
 21
1392.494269174596
 31
0.0
  0
LINE
  5
18D67
330
18C7A
100
AcDbEntity
  8
部品1
100
AcDbLine
 10
3858.970589276533
 20
1447.494269174593
 30
0.0
 11
3886.970589276531
 21
1447.494269174593
 31
0.0
  0
LINE
  5
18D68
330
18C7A
100
AcDbEntity
  8
部品1
100
AcDbLine
 10
3886.970589276556
 20
3182.494269174604
 30
0.0
 11
3886.970589276531
 21
1392.494269174596
 31
0.0
  0
DIMENSION
  5
18D69
330
18C7A
100
AcDbEntity
  8
寸法
100
AcDbDimension
  2
*D12
 10
4534.396935010967
 20
1447.494269174593
 30
0.0
 11
4534.396935010965
 21
2287.4942691746
 31
0.0
 12
-3742.925985830444
 22
-6453.628869860112
 32
0.0
 70
   128
  1
4X420=<>
 71
     5
 42
1680.000000000014
  3
INABA_S40G
100
AcDbAlignedDimension
 13
3886.970589276556
 23
3127.494269174607
 33
0.0
 14
3886.970589276531
 24
1447.494269174593
 34
0.0
 50
90.0
100
AcDbRotatedDimension
1001
ACAD
1000
DSTYLE
1002
{
1002
}
  0
LINE
  5
18D6A
330
18C7A
100
AcDbEntity
  8
部品1
100
AcDbLine
 10
3858.970589276556
 20
3154.494269174604
 30
0.0
 11
3858.970589276534
 21
1420.494269174596
 31
0.0
  0
DIMENSION
  5
18D6B
330
18C7A
100
AcDbEntity
  8
寸法
100
AcDbDimension
  2
*D11
 10
4213.82831513858
 20
2607.276453505718
 30
0.0
 11
4113.828315138579
 21
2832.276453505718
 31
0.0
 12
-3742.925985830444
 22
-6453.628869860112
 32
0.0
 71
     5
 42
449.9999999999963
  3
INABA_S40G
100
AcDbAlignedDimension
 13
3858.470589276556
 23
3152.494269174604
 33
0.0
 14
3858.470589276556
 24
2702.494269174608
 34
0.0
 50
90.0
100
AcDbRotatedDimension
1001
ACAD
1000
DSTYLE
1002
{
1002
}
  0
LINE
  5
18D6C
330
18C7A
100
AcDbEntity
  8
部品1
100
AcDbLine
 10
3830.470589276547
 20
2702.494269174608
 30
0.0
 11
3830.470589276556
 21
1448.994269174596
 31
0.0
  0
LINE
  5
18D6D
330
18C7A
100
AcDbEntity
  8
破線
 48
10.0
100
AcDbLine
 10
3806.970589276549
 20
2702.494269174608
 30
0.0
 11
3806.970589276558
 21
1472.494269174593
 31
0.0
  0
LINE
  5
18D6E
330
18C7A
100
AcDbEntity
  8
部品1
100
AcDbLine
 10
2769.470589276556
 20
3146.494269174608
 30
0.0
 11
2794.470589276556
 21
3146.494269174611
 31
0.0
  0
LINE
  5
18D6F
330
18C7A
100
AcDbEntity
  8
部品1
100
AcDbLine
 10
2810.970589276556
 20
3172.494269174611
 30
0.0
 11
2816.970589276556
 21
3172.494269174611
 31
0.0
  0
LINE
  5
18D70
330
18C7A
100
AcDbEntity
  8
部品1
100
AcDbLine
 10
2816.970589276556
 20
3172.494269174611
 30
0.0
 11
2816.970589276556
 21
3154.494269174611
 31
0.0
  0
LINE
  5
18D71
330
18C7A
100
AcDbEntity
  8
部品1
100
AcDbLine
 10
2746.970589276556
 20
3172.494269174611
 30
0.0
 11
2752.970589276556
 21
3172.494269174611
 31
0.0
  0
LINE
  5
18D72
330
18C7A
100
AcDbEntity
  8
部品1
100
AcDbLine
 10
2746.970589276556
 20
3172.494269174611
 30
0.0
 11
2746.970589276556
 21
3154.494269174611
 31
0.0
  0
LINE
  5
18D73
330
18C7A
100
AcDbEntity
  8
部品1
100
AcDbLine
 10
2769.470589276556
 20
2702.494269174615
 30
0.0
 11
2794.470589276556
 21
2702.494269174615
 31
0.0
  0
LINE
  5
18D74
330
18C7A
100
AcDbEntity
  8
部品1
 48
50.0
100
AcDbLine
 10
2794.470589276556
 20
3154.494269174615
 30
0.0
 11
2794.470589276556
 21
2702.494269174615
 31
0.0
  0
LINE
  5
18D75
330
18C7A
100
AcDbEntity
  8
部品1
 48
50.0
100
AcDbLine
 10
2769.470589276554
 20
3154.494269174618
 30
0.0
 11
2769.470589276556
 21
2702.494269174615
 31
0.0
  0
LINE
  5
18D76
330
18C7A
100
AcDbEntity
  8
部品1
 48
50.0
100
AcDbLine
 10
2795.470589276556
 20
3152.494269174607
 30
0.0
 11
2795.470589276556
 21
2702.494269174615
 31
0.0
  0
LINE
  5
18D77
330
18C7A
100
AcDbEntity
  8
部品1
 48
50.0
100
AcDbLine
 10
2767.470589276556
 20
3152.494269174611
 30
0.0
 11
2767.470589276556
 21
2702.494269174615
 31
0.0
  0
LINE
  5
18D78
330
18C7A
100
AcDbEntity
  8
破線
 48
10.0
100
AcDbLine
 10
2176.97058927653
 20
1448.994269174509
 30
0.0
 11
2176.97058927653
 21
2702.494269174588
 31
0.0
  0
LINE
  5
18D79
330
18C7A
100
AcDbEntity
  8
破線
 48
10.0
100
AcDbLine
 10
2126.970589276534
 20
1448.994269174505
 30
0.0
 11
2126.970589276531
 21
2702.494269174586
 31
0.0
  0
LINE
  5
18D7A
330
18C7A
100
AcDbEntity
  8
部品1
100
AcDbLine
 10
2794.470589276556
 20
3154.494269174622
 30
0.0
 11
3858.970589276556
 21
3154.494269174604
 31
0.0
  0
LINE
  5
18D7B
330
18C7A
100
AcDbEntity
  8
細線
 48
50.0
100
AcDbLine
 10
3858.470589276556
 20
2702.494269174608
 30
0.0
 11
2795.470589276556
 21
3152.494269174607
 31
0.0
  0
LINE
  5
18D7C
330
18C7A
100
AcDbEntity
  8
部品1
100
AcDbLine
 10
2795.470589276555
 20
2702.494269174615
 30
0.0
 11
3858.470589276556
 21
2702.494269174608
 31
0.0
  0
LINE
  5
18D7D
330
18C7A
100
AcDbEntity
  8
部品1
100
AcDbLine
 10
2795.470589276556
 20
3152.494269174611
 30
0.0
 11
3858.470589276556
 21
3152.494269174604
 31
0.0
  0
LINE
  5
18D7E
330
18C7A
100
AcDbEntity
  8
細線
 48
50.0
100
AcDbLine
 10
3858.470589276556
 20
3152.494269174604
 30
0.0
 11
2795.470589276555
 21
2702.494269174615
 31
0.0
  0
DIMENSION
  5
18D7F
330
18C7A
100
AcDbEntity
  8
寸法
100
AcDbDimension
  2
*D10
 10
3801.234916278101
 20
2488.887829538937
 30
0.0
 11
3318.360544398907
 21
2488.887829538937
 31
0.0
 12
-3742.925985830444
 22
-6453.628869860112
 32
0.0
 70
   128
 71
     5
 42
1063.000000000012
  3
INABA_S40G
100
AcDbAlignedDimension
 13
2795.470589276555
 23
2702.494269174615
 33
0.0
 14
3858.470589276567
 24
2702.494269174608
 34
0.0
100
AcDbRotatedDimension
1001
ACAD
1000
DSTYLE
1002
{
1002
}
  0
LINE
  5
18D80
330
18C7A
100
AcDbEntity
  8
破線
 48
10.0
100
AcDbLine
 10
3806.970589276556
 20
1472.494269174594
 30
0.0
 11
3009.47058927653
 21
1472.494269174523
 31
0.0
  0
DIMENSION
  5
18D81
330
18C7A
100
AcDbEntity
  8
寸法
100
AcDbDimension
  2
*D9
 10
4534.396935010941
 20
1392.494269174596
 30
0.0
 11
4534.39693501094
 21
1084.008987800356
 31
0.0
 12
-3742.925985830444
 22
-6453.628869860112
 32
0.0
 70
   128
 71
     5
 42
54.99999999999636
  3
INABA_S40G
100
AcDbAlignedDimension
 13
3886.970589276531
 23
1447.494269174593
 33
0.0
 14
3886.970589276531
 24
1392.494269174596
 34
0.0
 50
90.0
100
AcDbRotatedDimension
1001
ACAD
1000
DSTYLE
1002
{
1002
}
  0
LINE
  5
18D82
330
18C7A
100
AcDbEntity
  8
部品1
100
AcDbLine
 10
471.9705892765196
 20
3182.494269174477
 30
0.0
 11
471.9705892765232
 21
3154.494269174477
 31
0.0
  0
LINE
  5
18D83
330
18C7A
100
AcDbEntity
  8
部品1
100
AcDbLine
 10
471.9705892765559
 20
3182.494269174509
 30
0.0
 11
471.9705892765559
 21
3154.494269174509
 31
0.0
  0
LINE
  5
18D84
330
18C7A
100
AcDbEntity
  8
部品1
100
AcDbLine
 10
444.9705892765232
 20
3127.49426917448
 30
0.0
 11
416.9705892765232
 21
3127.49426917448
 31
0.0
  0
LINE
  5
18D85
330
18C7A
100
AcDbEntity
  8
部品1
100
AcDbLine
 10
444.9705892765305
 20
2707.49426917448
 30
0.0
 11
416.9705892765305
 21
2707.49426917448
 31
0.0
  0
LINE
  5
18D86
330
18C7A
100
AcDbEntity
  8
部品1
 48
50.0
100
AcDbLine
 10
445.4705892765542
 20
3152.494269174506
 30
0.0
 11
445.4705892765559
 21
2702.494269174505
 31
0.0
  0
LINE
  5
18D87
330
18C7A
100
AcDbEntity
  8
部品1
 48
50.0
100
AcDbLine
 10
473.470589276545
 20
1448.994269174573
 30
0.0
 11
444.970589276545
 21
1420.494269174574
 31
0.0
  0
LINE
  5
18D88
330
18C7A
100
AcDbEntity
  8
部品1
100
AcDbLine
 10
471.9705892765232
 20
1392.494269174465
 30
0.0
 11
416.9705892765486
 21
1392.494269174465
 31
0.0
  0
LINE
  5
18D89
330
18C7A
100
AcDbEntity
  8
部品1
100
AcDbLine
 10
444.9705892765305
 20
1447.494269174429
 30
0.0
 11
416.9705892765469
 21
1447.494269174429
 31
0.0
  0
LINE
  5
18D8A
330
18C7A
100
AcDbEntity
  8
部品1
100
AcDbLine
 10
444.9705892765305
 20
1447.494269174465
 30
0.0
 11
416.9705892765469
 21
1447.494269174465
 31
0.0
  0
LINE
  5
18D8B
330
18C7A
100
AcDbEntity
  8
部品1
100
AcDbLine
 10
444.9705892765469
 20
1447.49426917448
 30
0.0
 11
416.9705892765469
 21
1447.49426917448
 31
0.0
  0
LINE
  5
18D8C
330
18C7A
100
AcDbEntity
  8
部品1
100
AcDbLine
 10
416.9705892765469
 20
1447.494269174429
 30
0.0
 11
416.9705892765486
 21
1392.494269174433
 31
0.0
  0
LINE
  5
18D8D
330
18C7A
100
AcDbEntity
  8
部品1
100
AcDbLine
 10
416.9705892765196
 20
3182.494269174477
 30
0.0
 11
416.9705892765486
 21
1392.494269174465
 31
0.0
  0
LINE
  5
18D8E
330
18C7A
100
AcDbEntity
  8
部品1
100
AcDbLine
 10
444.9705892765305
 20
1420.494269174556
 30
0.0
 11
444.9705892765559
 21
3154.494269174509
 31
0.0
  0
LINE
  5
18D8F
330
18C7A
100
AcDbEntity
  8
部品1
100
AcDbLine
 10
473.4705892765323
 20
2702.494269174608
 30
0.0
 11
473.470589276545
 21
1448.994269174571
 31
0.0
  0
LINE
  5
18D90
330
18C7A
100
AcDbEntity
  8
破線
 48
10.0
100
AcDbLine
 10
496.9705892765305
 20
2702.494269174608
 30
0.0
 11
496.9705892765451
 21
1472.494269174476
 31
0.0
  0
DIMENSION
  5
18D91
330
18C7A
100
AcDbEntity
  8
寸法
100
AcDbDimension
  2
*D8
 10
3886.970589276531
 20
410.7433333855515
 30
0.0
 11
2168.197775309287
 21
410.7433333855515
 31
0.0
 12
-3742.925985830444
 22
-6453.628869860112
 32
0.0
 70
   128
 71
     5
 42
3469.999999999982
  3
INABA_S40G
100
AcDbAlignedDimension
 13
416.9705892765486
 23
1392.494269174433
 33
0.0
 14
3886.970589276531
 24
1392.49426917456
 34
0.0
100
AcDbRotatedDimension
1001
ACAD
1000
DSTYLE
1002
{
1070
   341
1005
0
1002
}
  0
LINE
  5
18D92
330
18C7A
100
AcDbEntity
  8
部品1
100
AcDbLine
 10
444.9705892765559
 20
3154.494269174624
 30
0.0
 11
1509.470589276487
 21
3154.494269174626
 31
0.0
  0
LINE
  5
18D93
330
18C7A
100
AcDbEntity
  8
部品1
100
AcDbLine
 10
3886.970589276531
 20
1392.494269174596
 30
0.0
 11
3411.970589276556
 21
1392.494269174582
 31
0.0
  0
LINE
  5
18D94
330
18C7A
100
AcDbEntity
  8
部品1
100
AcDbLine
 10
416.9705892765559
 20
3182.494269174509
 30
0.0
 11
3886.970589276556
 21
3182.494269174604
 31
0.0
  0
LINE
  5
18D95
330
18C7A
100
AcDbEntity
  8
部品1
100
AcDbLine
 10
445.4705892765559
 20
2702.494269174509
 30
0.0
 11
1508.470589276487
 21
2702.494269174558
 31
0.0
  0
LINE
  5
18D96
330
18C7A
100
AcDbEntity
  8
細線
 48
50.0
100
AcDbLine
 10
2767.470589276556
 20
3152.494269174611
 30
0.0
 11
1536.470589276487
 21
2702.494269174558
 31
0.0
  0
LINE
  5
18D97
330
18C7A
100
AcDbEntity
  8
部品1
100
AcDbLine
 10
445.4705892765542
 20
3152.494269174509
 30
0.0
 11
1508.470589276485
 21
3152.494269174558
 31
0.0
  0
LINE
  5
18D98
330
18C7A
100
AcDbEntity
  8
細線
 48
50.0
100
AcDbLine
 10
2767.470589276554
 20
2702.494269174615
 30
0.0
 11
1536.470589276485
 21
3152.494269174558
 31
0.0
  0
LINE
  5
18D99
330
18C7A
100
AcDbEntity
  8
破線
 48
10.0
100
AcDbLine
 10
2126.970589276534
 20
1472.494269174502
 30
0.0
 11
1344.47058927653
 21
1472.494269174473
 31
0.0
  0
LINE
  5
18D9A
330
18C7A
100
AcDbEntity
  8
部品1
100
AcDbLine
 10
3830.470589276556
 20
1448.994269174596
 30
0.0
 11
473.4705892764487
 21
1448.994269174476
 31
0.0
  0
DIMENSION
  5
18D9B
330
18C7A
100
AcDbEntity
  8
寸法
100
AcDbDimension
  2
*D7
 10
471.970589276555
 20
3698.302488799491
 30
0.0
 11
108.4853079022819
 21
3698.302488799491
 31
0.0
 12
-3742.925985830444
 22
-6453.628869860112
 32
0.0
 70
   128
 71
     5
 42
55.00000000003456
  3
INABA_S40G
100
AcDbAlignedDimension
 13
416.9705892765205
 23
3182.494269174509
 33
0.0
 14
471.970589276555
 24
3182.494269174509
 34
0.0
100
AcDbRotatedDimension
1001
ACAD
1000
DSTYLE
1002
{
1002
}
  0
DIMENSION
  5
18D9C
330
18C7A
100
AcDbEntity
  8
寸法
100
AcDbDimension
  2
*D6
 10
4534.396935010967
 20
3127.494269174607
 30
0.0
 11
4534.396935010965
 21
3490.979550548844
 31
0.0
 12
-3742.925985830444
 22
-6453.628869860112
 32
0.0
 70
   128
 71
     5
 42
54.99999999999636
  3
INABA_S40G
100
AcDbAlignedDimension
 13
3886.970589276556
 23
3182.494269174604
 33
0.0
 14
3886.970589276556
 24
3127.494269174607
 34
0.0
 50
90.0
100
AcDbRotatedDimension
1001
ACAD
1000
DSTYLE
1002
{
1002
}
  0
DIMENSION
  5
18D9D
330
18C7A
100
AcDbEntity
  8
寸法
100
AcDbDimension
  2
*D5
 10
3886.970589276556
 20
3698.302488799589
 30
0.0
 11
4195.455870650794
 21
3698.302488799589
 31
0.0
 12
-3742.925985830444
 22
-6453.628869860112
 32
0.0
 70
   128
 71
     5
 42
55.0
  3
INABA_S40G
100
AcDbAlignedDimension
 13
3831.970589276556
 23
3182.494269174604
 33
0.0
 14
3886.970589276556
 24
3182.494269174604
 34
0.0
100
AcDbRotatedDimension
1001
ACAD
1000
DSTYLE
1002
{
1002
}
  0
DIMENSION
  5
18D9E
330
18C7A
100
AcDbEntity
  8
寸法
100
AcDbDimension
  2
*D4
 10
3831.970589276556
 20
3698.302488799607
 30
0.0
 11
2151.970589276555
 21
3698.302488799607
 31
0.0
 12
-3742.925985830444
 22
-6453.628869860112
 32
0.0
 70
   128
  1
8X420=<>
 71
     5
 42
3360.000000000001
  3
INABA_S40G
100
AcDbAlignedDimension
 13
471.970589276555
 23
3182.494269174509
 33
0.0
 14
3831.970589276556
 24
3182.494269174604
 34
0.0
100
AcDbRotatedDimension
1001
ACAD
1000
DSTYLE
1002
{
1002
}
  0
DIMENSION
  5
18D9F
330
18C7A
100
AcDbEntity
  8
寸法
100
AcDbDimension
  2
*D3
 10
4899.503876750603
 20
1392.494269174596
 30
0.0
 11
4899.503876750601
 21
2287.4942691746
 31
0.0
 12
-3742.925985830444
 22
-6453.628869860112
 32
0.0
 70
   128
 71
     5
 42
1790.000000000007
  3
INABA_S40G
100
AcDbAlignedDimension
 13
3886.970589276556
 23
3182.494269174604
 33
0.0
 14
3886.970589276531
 24
1392.494269174596
 34
0.0
 50
90.0
100
AcDbRotatedDimension
1001
ACAD
1000
DSTYLE
1002
{
1002
}
  0
ENDBLK
  5
18DA1
330
18C7A
100
AcDbEntity
  8
0
 48
50.0
100
AcDbBlockEnd
  0
BLOCK
  5
1C4CB
330
1C4CA
100
AcDbEntity
  8
0
 48
50.0
100
AcDbBlockBegin
  2
_NONE
 70
     0
 10
0.0
 20
0.0
 30
0.0
  3
_NONE
  1

  0
CIRCLE
  5
1C4CC
330
1C4CA
100
AcDbEntity
  8
0
  6
ByBlock
 62
     0
 48
50.0
100
AcDbCircle
 10
0.0
 20
0.0
 30
0.0
 40
0.25
  0
ENDBLK
  5
1C4CD
330
1C4CA
100
AcDbEntity
  8
0
 48
50.0
100
AcDbBlockEnd
  0
BLOCK
  5
1FC87
330
1FC7E
100
AcDbEntity
  8
0
 48
50.0
100
AcDbBlockBegin
  2
*D19
 70
     1
 10
0.0
 20
0.0
 30
0.0
  3
*D19
  1

  0
LINE
  5
21947
330
1FC7E
100
AcDbEntity
  8
寸法
 62
     0
 48
50.0
370
    -2
100
AcDbLine
 10
9475.6
 20
7598.666700827391
 30
0.0
 11
9475.6
 21
8394.275517497638
 31
0.0
  0
LINE
  5
21948
330
1FC7E
100
AcDbEntity
  8
寸法
 62
     0
 48
50.0
370
    -2
100
AcDbLine
 10
8105.6
 20
7598.666700827391
 30
0.0
 11
8105.6
 21
8394.275517497638
 31
0.0
  0
LINE
  5
21949
330
1FC7E
100
AcDbEntity
  8
寸法
 62
     0
 48
50.0
370
    -2
100
AcDbLine
 10
9475.6
 20
8334.275517497637
 30
0.0
 11
8105.6
 21
8334.275517497637
 31
0.0
  0
INSERT
  5
2194A
330
1FC7E
100
AcDbEntity
  8
寸法
 62
     0
 48
50.0
370
    -2
100
AcDbBlockReference
  2
_DOTSMALL
 10
9475.6
 20
8334.275517497637
 30
0.0
 41
100.0
 42
100.0
 43
100.0
  0
INSERT
  5
2194B
330
1FC7E
100
AcDbEntity
  8
寸法
 62
     0
 48
50.0
370
    -2
100
AcDbBlockReference
  2
_DOTSMALL
 10
8105.6
 20
8334.275517497637
 30
0.0
 41
100.0
 42
100.0
 43
100.0
 50
180.0
  0
MTEXT
  5
2194C
330
1FC7E
100
AcDbEntity
  8
寸法
 62
     7
 48
50.0
100
AcDbMText
 10
8790.600000000001
 20
8434.275517497637
 30
0.0
 40
120.0
 41
0.0
 71
     5
 72
     1
  1
\A1;1370
  7
STYLE1
 73
     1
 44
1.0
1001
ACAD
1000
MTEXTBEGIN
1070
    73
1070
     1
1070
    44
1040
1.0
1070
    74
1070
     0
1000
MTEXTEND
  0
POINT
  5
2194D
330
1FC7E
100
AcDbEntity
  8
DEFPOINTS
 62
     0
 48
50.0
100
AcDbPoint
 10
9475.6
 20
7578.666700827392
 30
0.0
  0
POINT
  5
2194E
330
1FC7E
100
AcDbEntity
  8
DEFPOINTS
 62
     0
 48
50.0
100
AcDbPoint
 10
8105.6
 20
7578.666700827392
 30
0.0
  0
POINT
  5
2194F
330
1FC7E
100
AcDbEntity
  8
DEFPOINTS
 62
     0
 48
50.0
100
AcDbPoint
 10
8105.6
 20
8334.275517497637
 30
0.0
  0
ENDBLK
  5
1FC88
330
1FC7E
100
AcDbEntity
  8
0
 48
50.0
100
AcDbBlockEnd
  0
BLOCK
  5
1FC92
330
1FC89
100
AcDbEntity
  8
0
 48
50.0
100
AcDbBlockBegin
  2
*D20
 70
     1
 10
0.0
 20
0.0
 30
0.0
  3
*D20
  1

  0
LINE
  5
2193E
330
1FC89
100
AcDbEntity
  8
寸法
 62
     0
 48
50.0
370
    -2
100
AcDbLine
 10
5478.6
 20
7671.666700827391
 30
0.0
 11
5478.6
 21
8869.887022886313
 31
0.0
  0
LINE
  5
2193F
330
1FC89
100
AcDbEntity
  8
寸法
 62
     0
 48
50.0
370
    -2
100
AcDbLine
 10
10968.6
 20
7671.666700827391
 30
0.0
 11
10968.6
 21
8869.887022886313
 31
0.0
  0
LINE
  5
21940
330
1FC89
100
AcDbEntity
  8
寸法
 62
     0
 48
50.0
370
    -2
100
AcDbLine
 10
5478.6
 20
8809.887022886313
 30
0.0
 11
10968.6
 21
8809.887022886313
 31
0.0
  0
INSERT
  5
21941
330
1FC89
100
AcDbEntity
  8
寸法
 62
     0
 48
50.0
370
    -2
100
AcDbBlockReference
  2
_DOTSMALL
 10
5478.6
 20
8809.887022886313
 30
0.0
 41
100.0
 42
100.0
 43
100.0
 50
180.0
  0
INSERT
  5
21942
330
1FC89
100
AcDbEntity
  8
寸法
 62
     0
 48
50.0
370
    -2
100
AcDbBlockReference
  2
_DOTSMALL
 10
10968.6
 20
8809.887022886313
 30
0.0
 41
100.0
 42
100.0
 43
100.0
  0
MTEXT
  5
21943
330
1FC89
100
AcDbEntity
  8
寸法
 62
     7
 48
50.0
100
AcDbMText
 10
8223.600000000001
 20
8915.887022886312
 30
0.0
 40
120.0
 41
0.0
 71
     5
 72
     1
  1
\A1;N(連続数)x1370+10
  7
STYLE1
 73
     1
 44
1.0
1001
ACAD
1000
MTEXTBEGIN
1070
    73
1070
     1
1070
    44
1040
1.0
1070
    74
1070
     0
1000
MTEXTEND
  0
POINT
  5
21944
330
1FC89
100
AcDbEntity
  8
DEFPOINTS
 62
     0
 48
50.0
100
AcDbPoint
 10
5478.6
 20
7651.666700827391
 30
0.0
  0
POINT
  5
21945
330
1FC89
100
AcDbEntity
  8
DEFPOINTS
 62
     0
 48
50.0
100
AcDbPoint
 10
10968.6
 20
7651.666700827391
 30
0.0
  0
POINT
  5
21946
330
1FC89
100
AcDbEntity
  8
DEFPOINTS
 62
     0
 48
50.0
100
AcDbPoint
 10
10968.6
 20
8809.887022886313
 30
0.0
  0
ENDBLK
  5
1FC93
330
1FC89
100
AcDbEntity
  8
0
 48
50.0
100
AcDbBlockEnd
  0
BLOCK
  5
1FC9D
330
1FC94
100
AcDbEntity
  8
0
 48
50.0
100
AcDbBlockBegin
  2
*D21
 70
     1
 10
0.0
 20
0.0
 30
0.0
  3
*D21
  1

  0
LINE
  5
21935
330
1FC94
100
AcDbEntity
  8
寸法
 62
     0
 48
50.0
370
    -2
100
AcDbLine
 10
9593.600000000007
 20
8354.275517497638
 30
0.0
 11
9593.600000000007
 21
8637.933158921299
 31
0.0
  0
LINE
  5
21936
330
1FC94
100
AcDbEntity
  8
寸法
 62
     0
 48
50.0
370
    -2
100
AcDbLine
 10
8223.600000000008
 20
8354.275517497638
 30
0.0
 11
8223.600000000008
 21
8637.933158921299
 31
0.0
  0
LINE
  5
21937
330
1FC94
100
AcDbEntity
  8
寸法
 62
     0
 48
50.0
370
    -2
100
AcDbLine
 10
9593.600000000007
 20
8577.9331589213
 30
0.0
 11
8223.600000000008
 21
8577.9331589213
 31
0.0
  0
INSERT
  5
21938
330
1FC94
100
AcDbEntity
  8
寸法
 62
     0
 48
50.0
370
    -2
100
AcDbBlockReference
  2
_DOTSMALL
 10
9593.600000000007
 20
8577.9331589213
 30
0.0
 41
100.0
 42
100.0
 43
100.0
  0
INSERT
  5
21939
330
1FC94
100
AcDbEntity
  8
寸法
 62
     0
 48
50.0
370
    -2
100
AcDbBlockReference
  2
_DOTSMALL
 10
8223.600000000008
 20
8577.9331589213
 30
0.0
 41
100.0
 42
100.0
 43
100.0
 50
180.0
  0
MTEXT
  5
2193A
330
1FC94
100
AcDbEntity
  8
寸法
 62
     7
 48
50.0
100
AcDbMText
 10
8908.600000000008
 20
8677.9331589213
 30
0.0
 40
120.0
 41
0.0
 71
     5
 72
     1
  1
\A1;1370
  7
STYLE1
 73
     1
 44
1.0
1001
ACAD
1000
MTEXTBEGIN
1070
    73
1070
     1
1070
    44
1040
1.0
1070
    74
1070
     0
1000
MTEXTEND
  0
POINT
  5
2193B
330
1FC94
100
AcDbEntity
  8
DEFPOINTS
 62
     0
 48
50.0
100
AcDbPoint
 10
9593.600000000007
 20
8334.275517497637
 30
0.0
  0
POINT
  5
2193C
330
1FC94
100
AcDbEntity
  8
DEFPOINTS
 62
     0
 48
50.0
100
AcDbPoint
 10
8223.600000000008
 20
8334.275517497637
 30
0.0
  0
POINT
  5
2193D
330
1FC94
100
AcDbEntity
  8
DEFPOINTS
 62
     0
 48
50.0
100
AcDbPoint
 10
8223.600000000008
 20
8577.9331589213
 30
0.0
  0
ENDBLK
  5
1FC9E
330
1FC94
100
AcDbEntity
  8
0
 48
50.0
100
AcDbBlockEnd
  0
BLOCK
  5
1FCAA
330
1FC9F
100
AcDbEntity
  8
0
 48
50.0
100
AcDbBlockBegin
  2
*D22
 70
     1
 10
0.0
 20
0.0
 30
0.0
  3
*D22
  1

  0
LINE
  5
2192B
330
1FC9F
100
AcDbEntity
  8
寸法
 62
     0
 48
50.0
370
    -2
100
AcDbLine
 10
5531.600000000008
 20
6049.666700827394
 30
0.0
 11
4534.087353431281
 21
6049.666700827394
 31
0.0
  0
LINE
  5
2192C
330
1FC9F
100
AcDbEntity
  8
寸法
 62
     0
 48
50.0
370
    -2
100
AcDbLine
 10
5458.6
 20
5851.666700827392
 30
0.0
 11
4534.087353431281
 21
5851.666700827392
 31
0.0
  0
LINE
  5
2192D
330
1FC9F
100
AcDbEntity
  8
寸法
 62
     0
 48
50.0
370
    -2
100
AcDbLine
 10
4594.08735343128
 20
6049.666700827394
 30
0.0
 11
4594.08735343128
 21
5851.666700827392
 31
0.0
  0
LINE
  5
2192E
330
1FC9F
100
AcDbEntity
  8
寸法
 62
     0
 48
50.0
370
    -2
100
AcDbLine
 10
4594.08735343128
 20
5851.666700827392
 30
0.0
 11
4594.08735343128
 21
5379.926092155142
 31
0.0
  0
INSERT
  5
2192F
330
1FC9F
100
AcDbEntity
  8
寸法
 62
     0
 48
50.0
370
    -2
100
AcDbBlockReference
  2
_DOTSMALL
 10
4594.08735343128
 20
6049.666700827394
 30
0.0
 41
100.0
 42
100.0
 43
100.0
 50
90.0
  0
INSERT
  5
21930
330
1FC9F
100
AcDbEntity
  8
寸法
 62
     0
 48
50.0
370
    -2
100
AcDbBlockReference
  2
_DOTSMALL
 10
4594.08735343128
 20
5851.666700827392
 30
0.0
 41
100.0
 42
100.0
 43
100.0
 50
270.0
  0
MTEXT
  5
21931
330
1FC9F
100
AcDbEntity
  8
寸法
 62
     7
 48
50.0
100
AcDbMText
 10
4494.087353431279
 20
5516.135751984799
 30
0.0
 40
120.0
 41
0.0
 71
     5
 72
     1
  1
\A1;198
  7
STYLE1
 11
0.0000000000000001
 21
1.0
 31
0.0
 73
     1
 44
1.0
1001
ACAD
1000
MTEXTBEGIN
1070
    73
1070
     1
1070
    44
1040
1.0
1070
    74
1070
     0
1000
MTEXTEND
  0
POINT
  5
21932
330
1FC9F
100
AcDbEntity
  8
DEFPOINTS
 62
     0
 48
50.0
100
AcDbPoint
 10
5551.600000000007
 20
6049.666700827394
 30
0.0
  0
POINT
  5
21933
330
1FC9F
100
AcDbEntity
  8
DEFPOINTS
 62
     0
 48
50.0
100
AcDbPoint
 10
5478.6
 20
5851.666700827392
 30
0.0
  0
POINT
  5
21934
330
1FC9F
100
AcDbEntity
  8
DEFPOINTS
 62
     0
 48
50.0
100
AcDbPoint
 10
4594.08735343128
 20
5851.666700827392
 30
0.0
  0
ENDBLK
  5
1FCAB
330
1FC9F
100
AcDbEntity
  8
0
 48
50.0
100
AcDbBlockEnd
  0
BLOCK
  5
1FD04
330
1FCFB
100
AcDbEntity
  8
0
 48
50.0
100
AcDbBlockBegin
  2
*D23
 70
     1
 10
0.0
 20
0.0
 30
0.0
  3
*D23
  1

  0
LINE
  5
2195B
330
1FCFB
100
AcDbEntity
  8
寸法
 62
     0
 48
50.0
370
    -2
100
AcDbLine
 10
5458.6
 20
7651.666700827391
 30
0.0
 11
4282.144256711885
 21
7651.666700827391
 31
0.0
  0
LINE
  5
2195C
330
1FCFB
100
AcDbEntity
  8
寸法
 62
     0
 48
50.0
370
    -2
100
AcDbLine
 10
5458.6
 20
5851.666700827392
 30
0.0
 11
4282.144256711883
 21
5851.666700827392
 31
0.0
  0
LINE
  5
2195D
330
1FCFB
100
AcDbEntity
  8
寸法
 62
     0
 48
50.0
370
    -2
100
AcDbLine
 10
4342.144256711884
 20
7651.666700827391
 30
0.0
 11
4342.144256711883
 21
5851.666700827392
 31
0.0
  0
INSERT
  5
2195E
330
1FCFB
100
AcDbEntity
  8
寸法
 62
     0
 48
50.0
370
    -2
100
AcDbBlockReference
  2
_DOTSMALL
 10
4342.144256711884
 20
7651.666700827391
 30
0.0
 41
100.0
 42
100.0
 43
100.0
 50
90.0
  0
INSERT
  5
2195F
330
1FCFB
100
AcDbEntity
  8
寸法
 62
     0
 48
50.0
370
    -2
100
AcDbBlockReference
  2
_DOTSMALL
 10
4342.144256711883
 20
5851.666700827392
 30
0.0
 41
100.0
 42
100.0
 43
100.0
 50
270.0
  0
MTEXT
  5
21960
330
1FCFB
100
AcDbEntity
  8
寸法
 62
     7
 48
50.0
100
AcDbMText
 10
4242.144256711883
 20
6751.666700827391
 30
0.0
 40
120.0
 41
0.0
 71
     5
 72
     1
  1
\A1;1800
  7
STYLE1
 11
0.0000000000000001
 21
1.0
 31
0.0
 73
     1
 44
1.0
1001
ACAD
1000
MTEXTBEGIN
1070
    73
1070
     1
1070
    44
1040
1.0
1070
    74
1070
     0
1000
MTEXTEND
  0
POINT
  5
21961
330
1FCFB
100
AcDbEntity
  8
DEFPOINTS
 62
     0
 48
50.0
100
AcDbPoint
 10
5478.6
 20
7651.666700827391
 30
0.0
  0
POINT
  5
21962
330
1FCFB
100
AcDbEntity
  8
DEFPOINTS
 62
     0
 48
50.0
100
AcDbPoint
 10
5478.6
 20
5851.666700827392
 30
0.0
  0
POINT
  5
21963
330
1FCFB
100
AcDbEntity
  8
DEFPOINTS
 62
     0
 48
50.0
100
AcDbPoint
 10
4342.144256711883
 20
5851.666700827392
 30
0.0
  0
ENDBLK
  5
1FD05
330
1FCFB
100
AcDbEntity
  8
0
 48
50.0
100
AcDbBlockEnd
  0
BLOCK
  5
1FD1B
330
1FD10
100
AcDbEntity
  8
0
 48
50.0
100
AcDbBlockBegin
  2
*D24
 70
     1
 10
0.0
 20
0.0
 30
0.0
  3
*D24
  1

  0
LINE
  5
21918
330
1FD10
100
AcDbEntity
  8
寸法
 62
     0
 48
50.0
370
    -2
100
AcDbLine
 10
5458.6
 20
7651.666700827391
 30
0.0
 11
4534.087353431281
 21
7651.666700827391
 31
0.0
  0
LINE
  5
21919
330
1FD10
100
AcDbEntity
  8
寸法
 62
     0
 48
50.0
370
    -2
100
AcDbLine
 10
5531.6
 20
7528.666700827392
 30
0.0
 11
4534.087353431281
 21
7528.666700827392
 31
0.0
  0
LINE
  5
2191A
330
1FD10
100
AcDbEntity
  8
寸法
 62
     0
 48
50.0
370
    -2
100
AcDbLine
 10
4594.08735343128
 20
7528.666700827392
 30
0.0
 11
4594.08735343128
 21
7651.666700827391
 31
0.0
  0
LINE
  5
2191B
330
1FD10
100
AcDbEntity
  8
寸法
 62
     0
 48
50.0
370
    -2
100
AcDbLine
 10
4594.08735343128
 20
7651.666700827391
 30
0.0
 11
4594.08735343128
 21
8063.258583919431
 31
0.0
  0
INSERT
  5
2191C
330
1FD10
100
AcDbEntity
  8
寸法
 62
     0
 48
50.0
370
    -2
100
AcDbBlockReference
  2
_DOTSMALL
 10
4594.08735343128
 20
7528.666700827392
 30
0.0
 41
100.0
 42
100.0
 43
100.0
 50
270.0
  0
INSERT
  5
2191D
330
1FD10
100
AcDbEntity
  8
寸法
 62
     0
 48
50.0
370
    -2
100
AcDbBlockReference
  2
_DOTSMALL
 10
4594.08735343128
 20
7651.666700827391
 30
0.0
 41
100.0
 42
100.0
 43
100.0
 50
90.0
  0
MTEXT
  5
2191E
330
1FD10
100
AcDbEntity
  8
寸法
 62
     7
 48
50.0
100
AcDbMText
 10
4494.075542407657
 20
7924.773302545192
 30
0.0
 40
120.0
 41
0.0
 71
     5
 72
     1
  1
\A1;123
  7
STYLE1
 11
0.0000000000000001
 21
1.0
 31
0.0
 73
     1
 44
1.0
1001
ACAD
1000
MTEXTBEGIN
1070
    73
1070
     1
1070
    44
1040
1.0
1070
    74
1070
     0
1000
MTEXTEND
  0
POINT
  5
2191F
330
1FD10
100
AcDbEntity
  8
DEFPOINTS
 62
     0
 48
50.0
100
AcDbPoint
 10
5478.6
 20
7651.666700827391
 30
0.0
  0
POINT
  5
21920
330
1FD10
100
AcDbEntity
  8
DEFPOINTS
 62
     0
 48
50.0
100
AcDbPoint
 10
5551.6
 20
7528.666700827392
 30
0.0
  0
POINT
  5
21921
330
1FD10
100
AcDbEntity
  8
DEFPOINTS
 62
     0
 48
50.0
100
AcDbPoint
 10
4594.08735343128
 20
7528.666700827392
 30
0.0
  0
ENDBLK
  5
1FD1C
330
1FD10
100
AcDbEntity
  8
0
 48
50.0
100
AcDbBlockEnd
  0
BLOCK
  5
1FD28
330
1FD1D
100
AcDbEntity
  8
0
 48
50.0
100
AcDbBlockBegin
  2
*D25
 70
     1
 10
0.0
 20
0.0
 30
0.0
  3
*D25
  1

  0
LINE
  5
2190E
330
1FD1D
100
AcDbEntity
  8
寸法
 62
     0
 48
50.0
370
    -2
100
AcDbLine
 10
5601.600000000001
 20
7598.666700827391
 30
0.0
 11
5601.600000000001
 21
8394.275517497638
 31
0.0
  0
LINE
  5
2190F
330
1FD1D
100
AcDbEntity
  8
寸法
 62
     0
 48
50.0
370
    -2
100
AcDbLine
 10
5478.6
 20
7671.666700827391
 30
0.0
 11
5478.6
 21
8394.275517497638
 31
0.0
  0
LINE
  5
21910
330
1FD1D
100
AcDbEntity
  8
寸法
 62
     0
 48
50.0
370
    -2
100
AcDbLine
 10
5601.600000000001
 20
8334.275517497637
 30
0.0
 11
5478.6
 21
8334.275517497637
 31
0.0
  0
LINE
  5
21911
330
1FD1D
100
AcDbEntity
  8
寸法
 62
     0
 48
50.0
370
    -2
100
AcDbLine
 10
5478.6
 20
8334.275517497637
 30
0.0
 11
5067.008116907963
 21
8334.275517497637
 31
0.0
  0
INSERT
  5
21912
330
1FD1D
100
AcDbEntity
  8
寸法
 62
     0
 48
50.0
370
    -2
100
AcDbBlockReference
  2
_DOTSMALL
 10
5601.600000000001
 20
8334.275517497637
 30
0.0
 41
100.0
 42
100.0
 43
100.0
  0
INSERT
  5
21913
330
1FD1D
100
AcDbEntity
  8
寸法
 62
     0
 48
50.0
370
    -2
100
AcDbBlockReference
  2
_DOTSMALL
 10
5478.6
 20
8334.275517497637
 30
0.0
 41
100.0
 42
100.0
 43
100.0
 50
180.0
  0
MTEXT
  5
21914
330
1FD1D
100
AcDbEntity
  8
寸法
 62
     7
 48
50.0
100
AcDbMText
 10
5205.493398282202
 20
8434.287328521259
 30
0.0
 40
120.0
 41
0.0
 71
     5
 72
     1
  1
\A1;123
  7
STYLE1
 73
     1
 44
1.0
1001
ACAD
1000
MTEXTBEGIN
1070
    73
1070
     1
1070
    44
1040
1.0
1070
    74
1070
     0
1000
MTEXTEND
  0
POINT
  5
21915
330
1FD1D
100
AcDbEntity
  8
DEFPOINTS
 62
     0
 48
50.0
100
AcDbPoint
 10
5601.600000000001
 20
7578.666700827392
 30
0.0
  0
POINT
  5
21916
330
1FD1D
100
AcDbEntity
  8
DEFPOINTS
 62
     0
 48
50.0
100
AcDbPoint
 10
5478.6
 20
7651.666700827391
 30
0.0
  0
POINT
  5
21917
330
1FD1D
100
AcDbEntity
  8
DEFPOINTS
 62
     0
 48
50.0
100
AcDbPoint
 10
5478.6
 20
8334.275517497637
 30
0.0
  0
ENDBLK
  5
1FD29
330
1FD1D
100
AcDbEntity
  8
0
 48
50.0
100
AcDbBlockEnd
  0
BLOCK
  5
1FD34
330
1FD2A
100
AcDbEntity
  8
0
 48
50.0
100
AcDbBlockBegin
  2
*D26
 70
     1
 10
0.0
 20
0.0
 30
0.0
  3
*D26
  1

  0
LINE
  5
21964
330
1FD2A
100
AcDbEntity
  8
寸法
 62
     0
 48
50.0
370
    -2
100
AcDbLine
 10
5531.6
 20
7528.666700827392
 30
0.0
 11
4534.087353431283
 21
7528.666700827392
 31
0.0
  0
LINE
  5
21965
330
1FD2A
100
AcDbEntity
  8
寸法
 62
     0
 48
50.0
370
    -2
100
AcDbLine
 10
5531.600000000008
 20
6049.666700827394
 30
0.0
 11
4534.087353431282
 21
6049.666700827394
 31
0.0
  0
LINE
  5
21966
330
1FD2A
100
AcDbEntity
  8
寸法
 62
     0
 48
50.0
370
    -2
100
AcDbLine
 10
4594.087353431283
 20
7528.666700827392
 30
0.0
 11
4594.087353431282
 21
6049.666700827394
 31
0.0
  0
INSERT
  5
21967
330
1FD2A
100
AcDbEntity
  8
寸法
 62
     0
 48
50.0
370
    -2
100
AcDbBlockReference
  2
_DOTSMALL
 10
4594.087353431283
 20
7528.666700827392
 30
0.0
 41
100.0
 42
100.0
 43
100.0
 50
90.0
  0
INSERT
  5
21968
330
1FD2A
100
AcDbEntity
  8
寸法
 62
     0
 48
50.0
370
    -2
100
AcDbBlockReference
  2
_DOTSMALL
 10
4594.087353431282
 20
6049.666700827394
 30
0.0
 41
100.0
 42
100.0
 43
100.0
 50
270.0
  0
MTEXT
  5
21969
330
1FD2A
100
AcDbEntity
  8
寸法
 62
     7
 48
50.0
100
AcDbMText
 10
4494.087353431281
 20
6789.166700827393
 30
0.0
 40
120.0
 41
0.0
 71
     5
 72
     1
  1
\A1;1479
  7
STYLE1
 11
0.0000000000000001
 21
1.0
 31
0.0
 73
     1
 44
1.0
1001
ACAD
1000
MTEXTBEGIN
1070
    73
1070
     1
1070
    44
1040
1.0
1070
    74
1070
     0
1000
MTEXTEND
  0
POINT
  5
2196A
330
1FD2A
100
AcDbEntity
  8
DEFPOINTS
 62
     0
 48
50.0
100
AcDbPoint
 10
5551.6
 20
7528.666700827392
 30
0.0
  0
POINT
  5
2196B
330
1FD2A
100
AcDbEntity
  8
DEFPOINTS
 62
     0
 48
50.0
100
AcDbPoint
 10
5551.600000000007
 20
6049.666700827394
 30
0.0
  0
POINT
  5
2196C
330
1FD2A
100
AcDbEntity
  8
DEFPOINTS
 62
     0
 48
50.0
100
AcDbPoint
 10
4594.087353431282
 20
6049.666700827394
 30
0.0
  0
ENDBLK
  5
1FD35
330
1FD2A
100
AcDbEntity
  8
0
 48
50.0
100
AcDbBlockEnd
  0
BLOCK
  5
1FD40
330
1FD36
100
AcDbEntity
  8
0
 48
50.0
100
AcDbBlockBegin
  2
*D27
 70
     1
 10
0.0
 20
0.0
 30
0.0
  3
*D27
  1

  0
LINE
  5
218FC
330
1FD36
100
AcDbEntity
  8
寸法
 62
     0
 48
50.0
370
    -2
100
AcDbLine
 10
6853.600000000007
 20
8354.275517497638
 30
0.0
 11
6853.600000000007
 21
8637.933158921299
 31
0.0
  0
LINE
  5
218FD
330
1FD36
100
AcDbEntity
  8
寸法
 62
     0
 48
50.0
370
    -2
100
AcDbLine
 10
5478.6
 20
7671.666700827391
 30
0.0
 11
5478.6
 21
8637.933158921299
 31
0.0
  0
LINE
  5
218FE
330
1FD36
100
AcDbEntity
  8
寸法
 62
     0
 48
50.0
370
    -2
100
AcDbLine
 10
6853.600000000007
 20
8577.9331589213
 30
0.0
 11
5478.6
 21
8577.9331589213
 31
0.0
  0
INSERT
  5
218FF
330
1FD36
100
AcDbEntity
  8
寸法
 62
     0
 48
50.0
370
    -2
100
AcDbBlockReference
  2
_DOTSMALL
 10
6853.600000000007
 20
8577.9331589213
 30
0.0
 41
100.0
 42
100.0
 43
100.0
  0
INSERT
  5
21900
330
1FD36
100
AcDbEntity
  8
寸法
 62
     0
 48
50.0
370
    -2
100
AcDbBlockReference
  2
_DOTSMALL
 10
5478.6
 20
8577.9331589213
 30
0.0
 41
100.0
 42
100.0
 43
100.0
 50
180.0
  0
MTEXT
  5
21901
330
1FD36
100
AcDbEntity
  8
寸法
 62
     7
 48
50.0
100
AcDbMText
 10
6166.100000000004
 20
8677.9331589213
 30
0.0
 40
120.0
 41
0.0
 71
     5
 72
     1
  1
\A1;1375
  7
STYLE1
 73
     1
 44
1.0
1001
ACAD
1000
MTEXTBEGIN
1070
    73
1070
     1
1070
    44
1040
1.0
1070
    74
1070
     0
1000
MTEXTEND
  0
POINT
  5
21902
330
1FD36
100
AcDbEntity
  8
DEFPOINTS
 62
     0
 48
50.0
100
AcDbPoint
 10
6853.600000000007
 20
8334.275517497637
 30
0.0
  0
POINT
  5
21903
330
1FD36
100
AcDbEntity
  8
DEFPOINTS
 62
     0
 48
50.0
100
AcDbPoint
 10
5478.6
 20
7651.666700827391
 30
0.0
  0
POINT
  5
21904
330
1FD36
100
AcDbEntity
  8
DEFPOINTS
 62
     0
 48
50.0
100
AcDbPoint
 10
5478.6
 20
8577.9331589213
 30
0.0
  0
ENDBLK
  5
1FD41
330
1FD36
100
AcDbEntity
  8
0
 48
50.0
100
AcDbBlockEnd
  0
BLOCK
  5
1FD89
330
1FD7F
100
AcDbEntity
  8
0
 48
50.0
100
AcDbBlockBegin
  2
*D28
 70
     1
 10
0.0
 20
0.0
 30
0.0
  3
*D28
  1

  0
LINE
  5
218F3
330
1FD7F
100
AcDbEntity
  8
寸法
 62
     0
 48
50.0
370
    -2
100
AcDbLine
 10
6735.600000000001
 20
7598.666700827391
 30
0.0
 11
6735.600000000001
 21
8394.275517497638
 31
0.0
  0
LINE
  5
218F4
330
1FD7F
100
AcDbEntity
  8
寸法
 62
     0
 48
50.0
370
    -2
100
AcDbLine
 10
5601.600000000001
 20
7598.666700827391
 30
0.0
 11
5601.600000000001
 21
8394.275517497638
 31
0.0
  0
LINE
  5
218F5
330
1FD7F
100
AcDbEntity
  8
寸法
 62
     0
 48
50.0
370
    -2
100
AcDbLine
 10
6735.600000000001
 20
8334.275517497637
 30
0.0
 11
5601.600000000001
 21
8334.275517497637
 31
0.0
  0
INSERT
  5
218F6
330
1FD7F
100
AcDbEntity
  8
寸法
 62
     0
 48
50.0
370
    -2
100
AcDbBlockReference
  2
_DOTSMALL
 10
6735.600000000001
 20
8334.275517497637
 30
0.0
 41
100.0
 42
100.0
 43
100.0
  0
INSERT
  5
218F7
330
1FD7F
100
AcDbEntity
  8
寸法
 62
     0
 48
50.0
370
    -2
100
AcDbBlockReference
  2
_DOTSMALL
 10
5601.600000000001
 20
8334.275517497637
 30
0.0
 41
100.0
 42
100.0
 43
100.0
 50
180.0
  0
MTEXT
  5
218F8
330
1FD7F
100
AcDbEntity
  8
寸法
 62
     7
 48
50.0
100
AcDbMText
 10
6168.600000000001
 20
8434.275517497637
 30
0.0
 40
120.0
 41
0.0
 71
     5
 72
     1
  1
\A1;1134
  7
STYLE1
 73
     1
 44
1.0
1001
ACAD
1000
MTEXTBEGIN
1070
    73
1070
     1
1070
    44
1040
1.0
1070
    74
1070
     0
1000
MTEXTEND
  0
POINT
  5
218F9
330
1FD7F
100
AcDbEntity
  8
DEFPOINTS
 62
     0
 48
50.0
100
AcDbPoint
 10
6735.600000000001
 20
7578.666700827392
 30
0.0
  0
POINT
  5
218FA
330
1FD7F
100
AcDbEntity
  8
DEFPOINTS
 62
     0
 48
50.0
100
AcDbPoint
 10
5601.600000000001
 20
7578.666700827392
 30
0.0
  0
POINT
  5
218FB
330
1FD7F
100
AcDbEntity
  8
DEFPOINTS
 62
     0
 48
50.0
100
AcDbPoint
 10
5601.600000000001
 20
8334.275517497637
 30
0.0
  0
ENDBLK
  5
1FD8A
330
1FD7F
100
AcDbEntity
  8
0
 48
50.0
100
AcDbBlockEnd
  0
BLOCK
  5
1FDA1
330
1FD96
100
AcDbEntity
  8
0
 48
50.0
100
AcDbBlockBegin
  2
*D29
 70
     1
 10
0.0
 20
0.0
 30
0.0
  3
*D29
  1

  0
LINE
  5
218E9
330
1FD96
100
AcDbEntity
  8
寸法
 62
     0
 48
50.0
370
    -2
100
AcDbLine
 10
9110.851516111312
 20
6131.666700827408
 30
0.0
 11
9255.649102633087
 21
6131.666700827408
 31
0.0
  0
LINE
  5
218EA
330
1FD96
100
AcDbEntity
  8
寸法
 62
     0
 48
50.0
370
    -2
100
AcDbLine
 10
9110.851516111312
 20
5851.666700827406
 30
0.0
 11
9255.649102633087
 21
5851.666700827406
 31
0.0
  0
LINE
  5
218EB
330
1FD96
100
AcDbEntity
  8
寸法
 62
     0
 48
50.0
370
    -2
100
AcDbLine
 10
9195.649102633089
 20
6131.666700827408
 30
0.0
 11
9195.649102633089
 21
5851.666700827406
 31
0.0
  0
LINE
  5
218EC
330
1FD96
100
AcDbEntity
  8
寸法
 62
     0
 48
50.0
370
    -2
100
AcDbLine
 10
9195.649102633089
 20
5851.666700827406
 30
0.0
 11
9195.649102633089
 21
5415.132252008507
 31
0.0
  0
INSERT
  5
218ED
330
1FD96
100
AcDbEntity
  8
寸法
 62
     0
 48
50.0
370
    -2
100
AcDbBlockReference
  2
_DOTSMALL
 10
9195.649102633089
 20
6131.666700827408
 30
0.0
 41
100.0
 42
100.0
 43
100.0
 50
90.0
  0
INSERT
  5
218EE
330
1FD96
100
AcDbEntity
  8
寸法
 62
     0
 48
50.0
370
    -2
100
AcDbBlockReference
  2
_DOTSMALL
 10
9195.649102633089
 20
5851.666700827406
 30
0.0
 41
100.0
 42
100.0
 43
100.0
 50
270.0
  0
MTEXT
  5
218EF
330
1FD96
100
AcDbEntity
  8
寸法
 62
     7
 48
50.0
100
AcDbMText
 10
9095.637291609465
 20
5564.70311815024
 30
0.0
 40
120.0
 41
0.0
 71
     5
 72
     1
  1
\A1;280
  7
STYLE1
 11
0.0000000000000001
 21
1.0
 31
0.0
 73
     1
 44
1.0
1001
ACAD
1000
MTEXTBEGIN
1070
    73
1070
     1
1070
    44
1040
1.0
1070
    74
1070
     0
1000
MTEXTEND
  0
POINT
  5
218F0
330
1FD96
100
AcDbEntity
  8
DEFPOINTS
 62
     0
 48
50.0
100
AcDbPoint
 10
9090.851516111312
 20
6131.666700827408
 30
0.0
  0
POINT
  5
218F1
330
1FD96
100
AcDbEntity
  8
DEFPOINTS
 62
     0
 48
50.0
100
AcDbPoint
 10
9090.851516111312
 20
5851.666700827406
 30
0.0
  0
POINT
  5
218F2
330
1FD96
100
AcDbEntity
  8
DEFPOINTS
 62
     0
 48
50.0
100
AcDbPoint
 10
9195.649102633089
 20
5851.666700827406
 30
0.0
  0
ENDBLK
  5
1FDA2
330
1FD96
100
AcDbEntity
  8
0
 48
50.0
100
AcDbBlockEnd
  0
BLOCK
  5
1FDF3
330
1FDE9
100
AcDbEntity
  8
0
 48
50.0
100
AcDbBlockBegin
  2
*D30
 70
     1
 10
0.0
 20
0.0
 30
0.0
  3
*D30
  1

  0
LINE
  5
218E0
330
1FDE9
100
AcDbEntity
  8
寸法
 62
     0
 48
50.0
370
    -2
100
AcDbLine
 10
10968.6
 20
7671.666700827391
 30
0.0
 11
10968.6
 21
8637.933158921299
 31
0.0
  0
LINE
  5
218E1
330
1FDE9
100
AcDbEntity
  8
寸法
 62
     0
 48
50.0
370
    -2
100
AcDbLine
 10
9593.600000000007
 20
8354.275517497638
 30
0.0
 11
9593.600000000007
 21
8637.933158921299
 31
0.0
  0
LINE
  5
218E2
330
1FDE9
100
AcDbEntity
  8
寸法
 62
     0
 48
50.0
370
    -2
100
AcDbLine
 10
10968.6
 20
8577.9331589213
 30
0.0
 11
9593.600000000007
 21
8577.9331589213
 31
0.0
  0
INSERT
  5
218E3
330
1FDE9
100
AcDbEntity
  8
寸法
 62
     0
 48
50.0
370
    -2
100
AcDbBlockReference
  2
_DOTSMALL
 10
10968.6
 20
8577.9331589213
 30
0.0
 41
100.0
 42
100.0
 43
100.0
  0
INSERT
  5
218E4
330
1FDE9
100
AcDbEntity
  8
寸法
 62
     0
 48
50.0
370
    -2
100
AcDbBlockReference
  2
_DOTSMALL
 10
9593.600000000007
 20
8577.9331589213
 30
0.0
 41
100.0
 42
100.0
 43
100.0
 50
180.0
  0
MTEXT
  5
218E5
330
1FDE9
100
AcDbEntity
  8
寸法
 62
     7
 48
50.0
100
AcDbMText
 10
10346.02212135149
 20
8677.9331589213
 30
0.0
 40
120.0
 41
0.0
 71
     5
 72
     1
  1
\A1;1375
  7
STYLE1
 73
     1
 44
1.0
1001
ACAD
1000
MTEXTBEGIN
1070
    73
1070
     1
1070
    44
1040
1.0
1070
    74
1070
     0
1000
MTEXTEND
  0
POINT
  5
218E6
330
1FDE9
100
AcDbEntity
  8
DEFPOINTS
 62
     0
 48
50.0
100
AcDbPoint
 10
10968.6
 20
7651.666700827391
 30
0.0
  0
POINT
  5
218E7
330
1FDE9
100
AcDbEntity
  8
DEFPOINTS
 62
     0
 48
50.0
100
AcDbPoint
 10
9593.600000000007
 20
8334.275517497637
 30
0.0
  0
POINT
  5
218E8
330
1FDE9
100
AcDbEntity
  8
DEFPOINTS
 62
     0
 48
50.0
100
AcDbPoint
 10
9593.600000000007
 20
8577.9331589213
 30
0.0
  0
ENDBLK
  5
1FDF4
330
1FDE9
100
AcDbEntity
  8
0
 48
50.0
100
AcDbBlockEnd
  0
BLOCK
  5
1FDFE
330
1FDF5
100
AcDbEntity
  8
0
 48
50.0
100
AcDbBlockBegin
  2
*D31
 70
     1
 10
0.0
 20
0.0
 30
0.0
  3
*D31
  1

  0
LINE
  5
218D7
330
1FDF5
100
AcDbEntity
  8
寸法
 62
     0
 48
50.0
370
    -2
100
AcDbLine
 10
10845.6
 20
7598.666700827391
 30
0.0
 11
10845.6
 21
8394.275517497638
 31
0.0
  0
LINE
  5
218D8
330
1FDF5
100
AcDbEntity
  8
寸法
 62
     0
 48
50.0
370
    -2
100
AcDbLine
 10
9475.6
 20
7598.666700827391
 30
0.0
 11
9475.6
 21
8394.275517497638
 31
0.0
  0
LINE
  5
218D9
330
1FDF5
100
AcDbEntity
  8
寸法
 62
     0
 48
50.0
370
    -2
100
AcDbLine
 10
10845.6
 20
8334.275517497637
 30
0.0
 11
9475.6
 21
8334.275517497637
 31
0.0
  0
INSERT
  5
218DA
330
1FDF5
100
AcDbEntity
  8
寸法
 62
     0
 48
50.0
370
    -2
100
AcDbBlockReference
  2
_DOTSMALL
 10
10845.6
 20
8334.275517497637
 30
0.0
 41
100.0
 42
100.0
 43
100.0
  0
INSERT
  5
218DB
330
1FDF5
100
AcDbEntity
  8
寸法
 62
     0
 48
50.0
370
    -2
100
AcDbBlockReference
  2
_DOTSMALL
 10
9475.6
 20
8334.275517497637
 30
0.0
 41
100.0
 42
100.0
 43
100.0
 50
180.0
  0
MTEXT
  5
218DC
330
1FDF5
100
AcDbEntity
  8
寸法
 62
     7
 48
50.0
100
AcDbMText
 10
10160.6
 20
8434.275517497637
 30
0.0
 40
120.0
 41
0.0
 71
     5
 72
     1
  1
\A1;1370
  7
STYLE1
 73
     1
 44
1.0
1001
ACAD
1000
MTEXTBEGIN
1070
    73
1070
     1
1070
    44
1040
1.0
1070
    74
1070
     0
1000
MTEXTEND
  0
POINT
  5
218DD
330
1FDF5
100
AcDbEntity
  8
DEFPOINTS
 62
     0
 48
50.0
100
AcDbPoint
 10
10845.6
 20
7578.666700827392
 30
0.0
  0
POINT
  5
218DE
330
1FDF5
100
AcDbEntity
  8
DEFPOINTS
 62
     0
 48
50.0
100
AcDbPoint
 10
9475.6
 20
7578.666700827392
 30
0.0
  0
POINT
  5
218DF
330
1FDF5
100
AcDbEntity
  8
DEFPOINTS
 62
     0
 48
50.0
100
AcDbPoint
 10
9475.6
 20
8334.275517497637
 30
0.0
  0
ENDBLK
  5
1FDFF
330
1FDF5
100
AcDbEntity
  8
0
 48
50.0
100
AcDbBlockEnd
  0
BLOCK
  5
1FE09
330
1FE00
100
AcDbEntity
  8
0
 48
50.0
100
AcDbBlockBegin
  2
*D32
 70
     1
 10
0.0
 20
0.0
 30
0.0
  3
*D32
  1

  0
LINE
  5
218CE
330
1FE00
100
AcDbEntity
  8
寸法
 62
     0
 48
50.0
370
    -2
100
AcDbLine
 10
7608.600000000008
 20
6788.666700827391
 30
0.0
 11
7960.202738780326
 21
6788.666700827391
 31
0.0
  0
LINE
  5
218CF
330
1FE00
100
AcDbEntity
  8
寸法
 62
     0
 48
50.0
370
    -2
100
AcDbLine
 10
7993.6
 20
7651.666700827391
 30
0.0
 11
7840.202738780327
 21
7651.666700827391
 31
0.0
  0
LINE
  5
218D0
330
1FE00
100
AcDbEntity
  8
寸法
 62
     0
 48
50.0
370
    -2
100
AcDbLine
 10
7900.202738780326
 20
6788.666700827391
 30
0.0
 11
7900.202738780326
 21
7651.666700827391
 31
0.0
  0
INSERT
  5
218D1
330
1FE00
100
AcDbEntity
  8
寸法
 62
     0
 48
50.0
370
    -2
100
AcDbBlockReference
  2
_DOTSMALL
 10
7900.202738780326
 20
6788.666700827391
 30
0.0
 41
100.0
 42
100.0
 43
100.0
 50
270.0
  0
INSERT
  5
218D2
330
1FE00
100
AcDbEntity
  8
寸法
 62
     0
 48
50.0
370
    -2
100
AcDbBlockReference
  2
_DOTSMALL
 10
7900.202738780326
 20
7651.666700827391
 30
0.0
 41
100.0
 42
100.0
 43
100.0
 50
90.0
  0
MTEXT
  5
218D3
330
1FE00
100
AcDbEntity
  8
寸法
 62
     7
 48
50.0
100
AcDbMText
 10
7800.202738780325
 20
7220.166700827393
 30
0.0
 40
120.0
 41
0.0
 71
     5
 72
     1
  1
\A1;863
  7
STYLE1
 11
0.0000000000000001
 21
1.0
 31
0.0
 73
     1
 44
1.0
1001
ACAD
1000
MTEXTBEGIN
1070
    73
1070
     1
1070
    44
1040
1.0
1070
    74
1070
     0
1000
MTEXTEND
  0
POINT
  5
218D4
330
1FE00
100
AcDbEntity
  8
DEFPOINTS
 62
     0
 48
50.0
100
AcDbPoint
 10
7588.600000000008
 20
6788.666700827391
 30
0.0
  0
POINT
  5
218D5
330
1FE00
100
AcDbEntity
  8
DEFPOINTS
 62
     0
 48
50.0
100
AcDbPoint
 10
8013.600000000002
 20
7651.666700827391
 30
0.0
  0
POINT
  5
218D6
330
1FE00
100
AcDbEntity
  8
DEFPOINTS
 62
     0
 48
50.0
100
AcDbPoint
 10
7900.202738780326
 20
7651.666700827391
 30
0.0
  0
ENDBLK
  5
1FE0A
330
1FE00
100
AcDbEntity
  8
0
 48
50.0
100
AcDbBlockEnd
  0
BLOCK
  5
1FE15
330
1FE0B
100
AcDbEntity
  8
0
 48
50.0
100
AcDbBlockBegin
  2
*D33
 70
     1
 10
0.0
 20
0.0
 30
0.0
  3
*D33
  1

  0
LINE
  5
218C5
330
1FE0B
100
AcDbEntity
  8
寸法
 62
     0
 48
50.0
370
    -2
100
AcDbLine
 10
7658.600000000017
 20
5851.6667008274
 30
0.0
 11
7960.202738780326
 21
5851.6667008274
 31
0.0
  0
LINE
  5
218C6
330
1FE0B
100
AcDbEntity
  8
寸法
 62
     0
 48
50.0
370
    -2
100
AcDbLine
 10
7608.600000000008
 20
6788.666700827391
 30
0.0
 11
7960.202738780326
 21
6788.666700827391
 31
0.0
  0
LINE
  5
218C7
330
1FE0B
100
AcDbEntity
  8
寸法
 62
     0
 48
50.0
370
    -2
100
AcDbLine
 10
7900.202738780325
 20
5851.6667008274
 30
0.0
 11
7900.202738780326
 21
6788.666700827391
 31
0.0
  0
INSERT
  5
218C8
330
1FE0B
100
AcDbEntity
  8
寸法
 62
     0
 48
50.0
370
    -2
100
AcDbBlockReference
  2
_DOTSMALL
 10
7900.202738780325
 20
5851.6667008274
 30
0.0
 41
100.0
 42
100.0
 43
100.0
 50
270.0
  0
INSERT
  5
218C9
330
1FE0B
100
AcDbEntity
  8
寸法
 62
     0
 48
50.0
370
    -2
100
AcDbBlockReference
  2
_DOTSMALL
 10
7900.202738780326
 20
6788.666700827391
 30
0.0
 41
100.0
 42
100.0
 43
100.0
 50
90.0
  0
MTEXT
  5
218CA
330
1FE0B
100
AcDbEntity
  8
寸法
 62
     7
 48
50.0
100
AcDbMText
 10
7800.202738780325
 20
6310.358868503245
 30
0.0
 40
120.0
 41
0.0
 71
     5
 72
     1
  1
\A1;937
  7
STYLE1
 11
0.0000000000000001
 21
1.0
 31
0.0
 73
     1
 44
1.0
1001
ACAD
1000
MTEXTBEGIN
1070
    73
1070
     1
1070
    44
1040
1.0
1070
    74
1070
     0
1000
MTEXTEND
  0
POINT
  5
218CB
330
1FE0B
100
AcDbEntity
  8
DEFPOINTS
 62
     0
 48
50.0
100
AcDbPoint
 10
7638.600000000017
 20
5851.6667008274
 30
0.0
  0
POINT
  5
218CC
330
1FE0B
100
AcDbEntity
  8
DEFPOINTS
 62
     0
 48
50.0
100
AcDbPoint
 10
7588.600000000008
 20
6788.666700827391
 30
0.0
  0
POINT
  5
218CD
330
1FE0B
100
AcDbEntity
  8
DEFPOINTS
 62
     0
 48
50.0
100
AcDbPoint
 10
7900.202738780326
 20
6788.666700827391
 30
0.0
  0
ENDBLK
  5
1FE16
330
1FE0B
100
AcDbEntity
  8
0
 48
50.0
100
AcDbBlockEnd
  0
BLOCK
  5
1FE22
330
1FE17
100
AcDbEntity
  8
0
 48
50.0
100
AcDbBlockBegin
  2
*D34
 70
     1
 10
0.0
 20
0.0
 30
0.0
  3
*D34
  1

  0
LINE
  5
218BB
330
1FE17
100
AcDbEntity
  8
寸法
 62
     0
 48
50.0
370
    -2
100
AcDbLine
 10
9283.779728401338
 20
7651.666700827391
 30
0.0
 11
9135.64910263309
 21
7651.666700827391
 31
0.0
  0
LINE
  5
218BC
330
1FE17
100
AcDbEntity
  8
寸法
 62
     0
 48
50.0
370
    -2
100
AcDbLine
 10
9325.600000000006
 20
7451.66670082735
 30
0.0
 11
9135.64910263309
 21
7451.66670082735
 31
0.0
  0
LINE
  5
218BD
330
1FE17
100
AcDbEntity
  8
寸法
 62
     0
 48
50.0
370
    -2
100
AcDbLine
 10
9195.649102633089
 20
7451.66670082735
 30
0.0
 11
9195.649102633089
 21
7651.666700827391
 31
0.0
  0
LINE
  5
218BE
330
1FE17
100
AcDbEntity
  8
寸法
 62
     0
 48
50.0
370
    -2
100
AcDbLine
 10
9195.649102633089
 20
7651.666700827391
 30
0.0
 11
9195.649102633089
 21
8088.201149646289
 31
0.0
  0
INSERT
  5
218BF
330
1FE17
100
AcDbEntity
  8
寸法
 62
     0
 48
50.0
370
    -2
100
AcDbBlockReference
  2
_DOTSMALL
 10
9195.649102633089
 20
7451.66670082735
 30
0.0
 41
100.0
 42
100.0
 43
100.0
 50
270.0
  0
INSERT
  5
218C0
330
1FE17
100
AcDbEntity
  8
寸法
 62
     0
 48
50.0
370
    -2
100
AcDbBlockReference
  2
_DOTSMALL
 10
9195.649102633089
 20
7651.666700827391
 30
0.0
 41
100.0
 42
100.0
 43
100.0
 50
90.0
  0
MTEXT
  5
218C1
330
1FE17
100
AcDbEntity
  8
寸法
 62
     7
 48
50.0
100
AcDbMText
 10
9095.637291609467
 20
7938.630283504558
 30
0.0
 40
120.0
 41
0.0
 71
     5
 72
     1
  1
\A1;200
  7
STYLE1
 11
0.0000000000000001
 21
1.0
 31
0.0
 73
     1
 44
1.0
1001
ACAD
1000
MTEXTBEGIN
1070
    73
1070
     1
1070
    44
1040
1.0
1070
    74
1070
     0
1000
MTEXTEND
  0
POINT
  5
218C2
330
1FE17
100
AcDbEntity
  8
DEFPOINTS
 62
     0
 48
50.0
100
AcDbPoint
 10
9303.779728401337
 20
7651.666700827391
 30
0.0
  0
POINT
  5
218C3
330
1FE17
100
AcDbEntity
  8
DEFPOINTS
 62
     0
 48
50.0
100
AcDbPoint
 10
9345.600000000008
 20
7451.66670082735
 30
0.0
  0
POINT
  5
218C4
330
1FE17
100
AcDbEntity
  8
DEFPOINTS
 62
     0
 48
50.0
100
AcDbPoint
 10
9195.649102633089
 20
7451.66670082735
 30
0.0
  0
ENDBLK
  5
1FE23
330
1FE17
100
AcDbEntity
  8
0
 48
50.0
100
AcDbBlockEnd
  0
BLOCK
  5
1FE2F
330
1FE24
100
AcDbEntity
  8
0
 48
50.0
100
AcDbBlockBegin
  2
*D35
 70
     1
 10
0.0
 20
0.0
 30
0.0
  3
*D35
  1

  0
LINE
  5
21D26
330
1FE24
100
AcDbEntity
  8
寸法
 62
     0
 48
50.0
370
    -2
100
AcDbLine
 10
10968.6
 20
7029.684616538512
 30
0.0
 11
10968.6
 21
7201.97594903813
 31
0.0
  0
LINE
  5
21D27
330
1FE24
100
AcDbEntity
  8
寸法
 62
     0
 48
50.0
370
    -2
100
AcDbLine
 10
10848.6
 20
7029.684616538512
 30
0.0
 11
10848.6
 21
7201.97594903813
 31
0.0
  0
LINE
  5
21D28
330
1FE24
100
AcDbEntity
  8
寸法
 62
     0
 48
50.0
370
    -2
100
AcDbLine
 10
10848.6
 20
7141.975949038131
 30
0.0
 11
10968.6
 21
7141.975949038131
 31
0.0
  0
LINE
  5
21D29
330
1FE24
100
AcDbEntity
  8
寸法
 62
     0
 48
50.0
370
    -2
100
AcDbLine
 10
10968.6
 20
7141.975949038131
 30
0.0
 11
11374.7062992126
 21
7141.975949038131
 31
0.0
  0
INSERT
  5
21D2A
330
1FE24
100
AcDbEntity
  8
寸法
 62
     0
 48
50.0
370
    -2
100
AcDbBlockReference
  2
_DOTSMALL
 10
10848.6
 20
7141.975949038131
 30
0.0
 41
100.0
 42
100.0
 43
100.0
 50
180.0
  0
INSERT
  5
21D2B
330
1FE24
100
AcDbEntity
  8
寸法
 62
     0
 48
50.0
370
    -2
100
AcDbBlockReference
  2
_DOTSMALL
 10
10968.6
 20
7141.975949038131
 30
0.0
 41
100.0
 42
100.0
 43
100.0
  0
MTEXT
  5
21D2C
330
1FE24
100
AcDbEntity
  8
寸法
 62
     7
 48
50.0
100
AcDbMText
 10
11238.65905511811
 20
7241.987760061753
 30
0.0
 40
120.0
 41
0.0
 71
     5
 72
     1
  1
\A1;120
  7
STYLE1
 73
     1
 44
1.0
1001
ACAD
1000
MTEXTBEGIN
1070
    73
1070
     1
1070
    44
1040
1.0
1070
    74
1070
     0
1000
MTEXTEND
  0
POINT
  5
21D2D
330
1FE24
100
AcDbEntity
  8
DEFPOINTS
 62
     0
 48
50.0
100
AcDbPoint
 10
10968.6
 20
7009.684616538511
 30
0.0
  0
POINT
  5
21D2E
330
1FE24
100
AcDbEntity
  8
DEFPOINTS
 62
     0
 48
50.0
100
AcDbPoint
 10
10848.6
 20
7009.684616538511
 30
0.0
  0
POINT
  5
21D2F
330
1FE24
100
AcDbEntity
  8
DEFPOINTS
 62
     0
 48
50.0
100
AcDbPoint
 10
10848.6
 20
7141.975949038131
 30
0.0
  0
ENDBLK
  5
1FE30
330
1FE24
100
AcDbEntity
  8
0
 48
50.0
100
AcDbBlockEnd
  0
BLOCK
  5
1FE3C
330
1FE31
100
AcDbEntity
  8
0
 48
50.0
100
AcDbBlockBegin
  2
*D36
 70
     1
 10
0.0
 20
0.0
 30
0.0
  3
*D36
  1

  0
LINE
  5
218A7
330
1FE31
100
AcDbEntity
  8
寸法
 62
     0
 48
50.0
370
    -2
100
AcDbLine
 10
10968.6
 20
7671.666700827391
 30
0.0
 11
10968.6
 21
8394.275517497638
 31
0.0
  0
LINE
  5
218A8
330
1FE31
100
AcDbEntity
  8
寸法
 62
     0
 48
50.0
370
    -2
100
AcDbLine
 10
10845.6
 20
7598.666700827391
 30
0.0
 11
10845.6
 21
8394.275517497638
 31
0.0
  0
LINE
  5
218A9
330
1FE31
100
AcDbEntity
  8
寸法
 62
     0
 48
50.0
370
    -2
100
AcDbLine
 10
10845.6
 20
8334.275517497637
 30
0.0
 11
10968.6
 21
8334.275517497637
 31
0.0
  0
LINE
  5
218AA
330
1FE31
100
AcDbEntity
  8
寸法
 62
     0
 48
50.0
370
    -2
100
AcDbLine
 10
10968.6
 20
8334.275517497637
 30
0.0
 11
11380.19188309203
 21
8334.275517497637
 31
0.0
  0
INSERT
  5
218AB
330
1FE31
100
AcDbEntity
  8
寸法
 62
     0
 48
50.0
370
    -2
100
AcDbBlockReference
  2
_DOTSMALL
 10
10845.6
 20
8334.275517497637
 30
0.0
 41
100.0
 42
100.0
 43
100.0
 50
180.0
  0
INSERT
  5
218AC
330
1FE31
100
AcDbEntity
  8
寸法
 62
     0
 48
50.0
370
    -2
100
AcDbBlockReference
  2
_DOTSMALL
 10
10968.6
 20
8334.275517497637
 30
0.0
 41
100.0
 42
100.0
 43
100.0
  0
MTEXT
  5
218AD
330
1FE31
100
AcDbEntity
  8
寸法
 62
     7
 48
50.0
100
AcDbMText
 10
11241.7066017178
 20
8434.287328521259
 30
0.0
 40
120.0
 41
0.0
 71
     5
 72
     1
  1
\A1;123
  7
STYLE1
 73
     1
 44
1.0
1001
ACAD
1000
MTEXTBEGIN
1070
    73
1070
     1
1070
    44
1040
1.0
1070
    74
1070
     0
1000
MTEXTEND
  0
POINT
  5
218AE
330
1FE31
100
AcDbEntity
  8
DEFPOINTS
 62
     0
 48
50.0
100
AcDbPoint
 10
10968.6
 20
7651.666700827391
 30
0.0
  0
POINT
  5
218AF
330
1FE31
100
AcDbEntity
  8
DEFPOINTS
 62
     0
 48
50.0
100
AcDbPoint
 10
10845.6
 20
7578.666700827392
 30
0.0
  0
POINT
  5
218B0
330
1FE31
100
AcDbEntity
  8
DEFPOINTS
 62
     0
 48
50.0
100
AcDbPoint
 10
10845.6
 20
8334.275517497637
 30
0.0
  0
ENDBLK
  5
1FE3D
330
1FE31
100
AcDbEntity
  8
0
 48
50.0
100
AcDbBlockEnd
  0
BLOCK
  5
20346
330
2033A
100
AcDbEntity
  8
0
 48
50.0
100
AcDbBlockBegin
  2
*D37
 70
     1
 10
0.0
 20
0.0
 30
0.0
  3
*D37
  1

  0
LINE
  5
2189C
330
2033A
100
AcDbEntity
  8
寸法
 62
     0
 48
50.0
370
    -2
100
AcDbLine
 10
10968.6
 20
7671.666700827391
 30
0.0
 11
10968.6
 21
8869.887022886313
 31
0.0
  0
LINE
  5
2189D
330
2033A
100
AcDbEntity
  8
寸法
 62
     0
 48
50.0
370
    -2
100
AcDbLine
 10
11013.6
 20
8354.275517497638
 30
0.0
 11
11013.6
 21
8869.887022886313
 31
0.0
  0
LINE
  5
2189E
330
2033A
100
AcDbEntity
  8
寸法
 62
     0
 48
50.0
370
    -2
100
AcDbLine
 10
10968.6
 20
8809.887022886313
 30
0.0
 11
10868.6
 21
8809.887022886313
 31
0.0
  0
LINE
  5
2189F
330
2033A
100
AcDbEntity
  8
寸法
 62
     0
 48
50.0
370
    -2
100
AcDbLine
 10
11013.6
 20
8809.887022886313
 30
0.0
 11
11350.94924240492
 21
8809.887022886313
 31
0.0
  0
LINE
  5
218A0
330
2033A
100
AcDbEntity
  8
寸法
 62
     0
 48
50.0
370
    -2
100
AcDbLine
 10
10968.6
 20
8809.887022886313
 30
0.0
 11
11013.6
 21
8809.887022886313
 31
0.0
  0
INSERT
  5
218A1
330
2033A
100
AcDbEntity
  8
寸法
 62
     0
 48
50.0
370
    -2
100
AcDbBlockReference
  2
_DOTSMALL
 10
10968.6
 20
8809.887022886313
 30
0.0
 41
100.0
 42
100.0
 43
100.0
  0
INSERT
  5
218A2
330
2033A
100
AcDbEntity
  8
寸法
 62
     0
 48
50.0
370
    -2
100
AcDbBlockReference
  2
_DOTSMALL
 10
11013.6
 20
8809.887022886313
 30
0.0
 41
100.0
 42
100.0
 43
100.0
 50
180.0
  0
MTEXT
  5
218A3
330
2033A
100
AcDbEntity
  8
寸法
 62
     7
 48
50.0
100
AcDbMText
 10
11284.77462120246
 20
8909.887022886312
 30
0.0
 40
120.0
 41
0.0
 71
     5
 72
     1
  1
\A1;a
  7
STYLE1
 73
     1
 44
1.0
1001
ACAD
1000
MTEXTBEGIN
1070
    73
1070
     1
1070
    44
1040
1.0
1070
    74
1070
     0
1000
MTEXTEND
  0
POINT
  5
218A4
330
2033A
100
AcDbEntity
  8
DEFPOINTS
 62
     0
 48
50.0
100
AcDbPoint
 10
10968.6
 20
7651.666700827391
 30
0.0
  0
POINT
  5
218A5
330
2033A
100
AcDbEntity
  8
DEFPOINTS
 62
     0
 48
50.0
100
AcDbPoint
 10
11013.6
 20
8334.275517497637
 30
0.0
  0
POINT
  5
218A6
330
2033A
100
AcDbEntity
  8
DEFPOINTS
 62
     0
 48
50.0
100
AcDbPoint
 10
11013.6
 20
8809.887022886313
 30
0.0
  0
ENDBLK
  5
20347
330
2033A
100
AcDbEntity
  8
0
 48
50.0
100
AcDbBlockEnd
  0
BLOCK
  5
203D0
330
203C4
100
AcDbEntity
  8
0
 48
50.0
100
AcDbBlockBegin
  2
*D38
 70
     1
 10
0.0
 20
0.0
 30
0.0
  3
*D38
  1

  0
LINE
  5
21891
330
203C4
100
AcDbEntity
  8
寸法
 62
     0
 48
50.0
370
    -2
100
AcDbLine
 10
4574.08735343128
 20
7726.666700827394
 30
0.0
 11
4282.144256711883
 21
7726.666700827394
 31
0.0
  0
LINE
  5
21892
330
203C4
100
AcDbEntity
  8
寸法
 62
     0
 48
50.0
370
    -2
100
AcDbLine
 10
5458.599999999998
 20
7651.666700827393
 30
0.0
 11
4282.144256711883
 21
7651.666700827393
 31
0.0
  0
LINE
  5
21893
330
203C4
100
AcDbEntity
  8
寸法
 62
     0
 48
50.0
370
    -2
100
AcDbLine
 10
4342.144256711883
 20
7726.666700827394
 30
0.0
 11
4342.144256711883
 21
7826.666700827394
 31
0.0
  0
LINE
  5
21894
330
203C4
100
AcDbEntity
  8
寸法
 62
     0
 48
50.0
370
    -2
100
AcDbLine
 10
4342.144256711883
 20
7651.666700827393
 30
0.0
 11
4342.144256711883
 21
7551.666700827393
 31
0.0
  0
LINE
  5
21895
330
203C4
100
AcDbEntity
  8
寸法
 62
     0
 48
50.0
370
    -2
100
AcDbLine
 10
4342.144256711883
 20
7726.666700827394
 30
0.0
 11
4342.144256711883
 21
7651.666700827393
 31
0.0
  0
INSERT
  5
21896
330
203C4
100
AcDbEntity
  8
寸法
 62
     0
 48
50.0
370
    -2
100
AcDbBlockReference
  2
_DOTSMALL
 10
4342.144256711883
 20
7726.666700827394
 30
0.0
 41
100.0
 42
100.0
 43
100.0
 50
270.0
  0
INSERT
  5
21897
330
203C4
100
AcDbEntity
  8
寸法
 62
     0
 48
50.0
370
    -2
100
AcDbBlockReference
  2
_DOTSMALL
 10
4342.144256711883
 20
7651.666700827393
 30
0.0
 41
100.0
 42
100.0
 43
100.0
 50
90.0
  0
MTEXT
  5
21898
330
203C4
100
AcDbEntity
  8
寸法
 62
     7
 48
50.0
100
AcDbMText
 10
4242.144256711882
 20
7689.166700827394
 30
0.0
 40
120.0
 41
0.0
 71
     5
 72
     1
  1
\A1;c
  7
STYLE1
 11
0.0000000000000001
 21
1.0
 31
0.0
 73
     1
 44
1.0
1001
ACAD
1000
MTEXTBEGIN
1070
    73
1070
     1
1070
    44
1040
1.0
1070
    74
1070
     0
1000
MTEXTEND
  0
POINT
  5
21899
330
203C4
100
AcDbEntity
  8
DEFPOINTS
 62
     0
 48
50.0
100
AcDbPoint
 10
4594.087353431279
 20
7726.666700827394
 30
0.0
  0
POINT
  5
2189A
330
203C4
100
AcDbEntity
  8
DEFPOINTS
 62
     0
 48
50.0
100
AcDbPoint
 10
5478.599999999999
 20
7651.666700827393
 30
0.0
  0
POINT
  5
2189B
330
203C4
100
AcDbEntity
  8
DEFPOINTS
 62
     0
 48
50.0
100
AcDbPoint
 10
4342.144256711883
 20
7651.666700827393
 30
0.0
  0
ENDBLK
  5
203D1
330
203C4
100
AcDbEntity
  8
0
 48
50.0
100
AcDbBlockEnd
  0
BLOCK
  5
203EB
330
203DF
100
AcDbEntity
  8
0
 48
50.0
100
AcDbBlockBegin
  2
*D39
 70
     1
 10
0.0
 20
0.0
 30
0.0
  3
*D39
  1

  0
LINE
  5
21886
330
203DF
100
AcDbEntity
  8
寸法
 62
     0
 48
50.0
370
    -2
100
AcDbLine
 10
5433.600000000001
 20
8354.275517497638
 30
0.0
 11
5433.600000000001
 21
8869.887022886313
 31
0.0
  0
LINE
  5
21887
330
203DF
100
AcDbEntity
  8
寸法
 62
     0
 48
50.0
370
    -2
100
AcDbLine
 10
5478.599999999999
 20
7671.666700827393
 30
0.0
 11
5478.599999999999
 21
8869.887022886313
 31
0.0
  0
LINE
  5
21888
330
203DF
100
AcDbEntity
  8
寸法
 62
     0
 48
50.0
370
    -2
100
AcDbLine
 10
5478.599999999999
 20
8809.887022886313
 30
0.0
 11
5578.599999999998
 21
8809.887022886313
 31
0.0
  0
LINE
  5
21889
330
203DF
100
AcDbEntity
  8
寸法
 62
     0
 48
50.0
370
    -2
100
AcDbLine
 10
5433.600000000001
 20
8809.887022886313
 30
0.0
 11
5096.250757595083
 21
8809.887022886313
 31
0.0
  0
LINE
  5
2188A
330
203DF
100
AcDbEntity
  8
寸法
 62
     0
 48
50.0
370
    -2
100
AcDbLine
 10
5478.599999999999
 20
8809.887022886313
 30
0.0
 11
5433.600000000001
 21
8809.887022886313
 31
0.0
  0
INSERT
  5
2188B
330
203DF
100
AcDbEntity
  8
寸法
 62
     0
 48
50.0
370
    -2
100
AcDbBlockReference
  2
_DOTSMALL
 10
5478.599999999999
 20
8809.887022886313
 30
0.0
 41
100.0
 42
100.0
 43
100.0
 50
180.0
  0
INSERT
  5
2188C
330
203DF
100
AcDbEntity
  8
寸法
 62
     0
 48
50.0
370
    -2
100
AcDbBlockReference
  2
_DOTSMALL
 10
5433.600000000001
 20
8809.887022886313
 30
0.0
 41
100.0
 42
100.0
 43
100.0
  0
MTEXT
  5
2188D
330
203DF
100
AcDbEntity
  8
寸法
 62
     7
 48
50.0
100
AcDbMText
 10
5162.425378797541
 20
8909.887022886312
 30
0.0
 40
120.0
 41
0.0
 71
     5
 72
     1
  1
\A1;a
  7
STYLE1
 73
     1
 44
1.0
1001
ACAD
1000
MTEXTBEGIN
1070
    73
1070
     1
1070
    44
1040
1.0
1070
    74
1070
     0
1000
MTEXTEND
  0
POINT
  5
2188E
330
203DF
100
AcDbEntity
  8
DEFPOINTS
 62
     0
 48
50.0
100
AcDbPoint
 10
5433.600000000001
 20
8334.275517497637
 30
0.0
  0
POINT
  5
2188F
330
203DF
100
AcDbEntity
  8
DEFPOINTS
 62
     0
 48
50.0
100
AcDbPoint
 10
5478.599999999999
 20
7651.666700827393
 30
0.0
  0
POINT
  5
21890
330
203DF
100
AcDbEntity
  8
DEFPOINTS
 62
     0
 48
50.0
100
AcDbPoint
 10
5478.599999999999
 20
8809.887022886313
 30
0.0
  0
ENDBLK
  5
203EC
330
203DF
100
AcDbEntity
  8
0
 48
50.0
100
AcDbBlockEnd
  0
BLOCK
  5
20413
330
20407
100
AcDbEntity
  8
0
 48
50.0
100
AcDbBlockBegin
  2
*D40
 70
     1
 10
0.0
 20
0.0
 30
0.0
  3
*D40
  1

  0
LINE
  5
2187B
330
20407
100
AcDbEntity
  8
寸法
 62
     0
 48
50.0
370
    -2
100
AcDbLine
 10
5458.6
 20
5851.666700827392
 30
0.0
 11
4282.144256711883
 21
5851.666700827392
 31
0.0
  0
LINE
  5
2187C
330
20407
100
AcDbEntity
  8
寸法
 62
     0
 48
50.0
370
    -2
100
AcDbLine
 10
4574.087353431281
 20
5796.666700827403
 30
0.0
 11
4282.144256711883
 21
5796.666700827403
 31
0.0
  0
LINE
  5
2187D
330
20407
100
AcDbEntity
  8
寸法
 62
     0
 48
50.0
370
    -2
100
AcDbLine
 10
4342.144256711883
 20
5851.666700827392
 30
0.0
 11
4342.144256711883
 21
5951.666700827392
 31
0.0
  0
LINE
  5
2187E
330
20407
100
AcDbEntity
  8
寸法
 62
     0
 48
50.0
370
    -2
100
AcDbLine
 10
4342.144256711883
 20
5796.666700827403
 30
0.0
 11
4342.144256711883
 21
5696.666700827403
 31
0.0
  0
LINE
  5
2187F
330
20407
100
AcDbEntity
  8
寸法
 62
     0
 48
50.0
370
    -2
100
AcDbLine
 10
4342.144256711883
 20
5851.666700827392
 30
0.0
 11
4342.144256711883
 21
5796.666700827403
 31
0.0
  0
INSERT
  5
21880
330
20407
100
AcDbEntity
  8
寸法
 62
     0
 48
50.0
370
    -2
100
AcDbBlockReference
  2
_DOTSMALL
 10
4342.144256711883
 20
5851.666700827392
 30
0.0
 41
100.0
 42
100.0
 43
100.0
 50
270.0
  0
INSERT
  5
21881
330
20407
100
AcDbEntity
  8
寸法
 62
     0
 48
50.0
370
    -2
100
AcDbBlockReference
  2
_DOTSMALL
 10
4342.144256711883
 20
5796.666700827403
 30
0.0
 41
100.0
 42
100.0
 43
100.0
 50
90.0
  0
MTEXT
  5
21882
330
20407
100
AcDbEntity
  8
寸法
 62
     7
 48
50.0
100
AcDbMText
 10
4242.144256711882
 20
5824.166700827397
 30
0.0
 40
120.0
 41
0.0
 71
     5
 72
     1
  1
\A1;b
  7
STYLE1
 11
0.0000000000000001
 21
1.0
 31
0.0
 73
     1
 44
1.0
1001
ACAD
1000
MTEXTBEGIN
1070
    73
1070
     1
1070
    44
1040
1.0
1070
    74
1070
     0
1000
MTEXTEND
  0
POINT
  5
21883
330
20407
100
AcDbEntity
  8
DEFPOINTS
 62
     0
 48
50.0
100
AcDbPoint
 10
5478.6
 20
5851.666700827392
 30
0.0
  0
POINT
  5
21884
330
20407
100
AcDbEntity
  8
DEFPOINTS
 62
     0
 48
50.0
100
AcDbPoint
 10
4594.087353431281
 20
5796.666700827403
 30
0.0
  0
POINT
  5
21885
330
20407
100
AcDbEntity
  8
DEFPOINTS
 62
     0
 48
50.0
100
AcDbPoint
 10
4342.144256711883
 20
5796.666700827403
 30
0.0
  0
ENDBLK
  5
20414
330
20407
100
AcDbEntity
  8
0
 48
50.0
100
AcDbBlockEnd
  0
BLOCK
  5
2172B
330
21721
100
AcDbEntity
  8
0
 48
50.0
100
AcDbBlockBegin
  2
*D41
 70
     1
 10
0.0
 20
0.0
 30
0.0
  3
*D41
  1

  0
LINE
  5
21872
330
21721
100
AcDbEntity
  8
寸法
 62
     0
 48
50.0
370
    -2
100
AcDbLine
 10
5478.6
 20
6641.780272613743
 30
0.0
 11
5478.6
 21
6440.520709530436
 31
0.0
  0
LINE
  5
21873
330
21721
100
AcDbEntity
  8
寸法
 62
     0
 48
50.0
370
    -2
100
AcDbLine
 10
6168.600000000008
 20
6668.666700827391
 30
0.0
 11
6168.600000000008
 21
6440.520709530436
 31
0.0
  0
LINE
  5
21874
330
21721
100
AcDbEntity
  8
寸法
 62
     0
 48
50.0
370
    -2
100
AcDbLine
 10
5478.6
 20
6500.520709530436
 30
0.0
 11
6168.600000000008
 21
6500.520709530436
 31
0.0
  0
INSERT
  5
21875
330
21721
100
AcDbEntity
  8
寸法
 62
     0
 48
50.0
370
    -2
100
AcDbBlockReference
  2
_DOTSMALL
 10
5478.6
 20
6500.520709530436
 30
0.0
 41
100.0
 42
100.0
 43
100.0
 50
180.0
  0
INSERT
  5
21876
330
21721
100
AcDbEntity
  8
寸法
 62
     0
 48
50.0
370
    -2
100
AcDbBlockReference
  2
_DOTSMALL
 10
6168.600000000008
 20
6500.520709530436
 30
0.0
 41
100.0
 42
100.0
 43
100.0
  0
MTEXT
  5
21877
330
21721
100
AcDbEntity
  8
寸法
 62
     7
 48
50.0
100
AcDbMText
 10
5823.600000000004
 20
6600.520709530435
 30
0.0
 40
120.0
 41
0.0
 71
     5
 72
     1
  1
\A1;690
  7
STYLE1
 73
     1
 44
1.0
1001
ACAD
1000
MTEXTBEGIN
1070
    73
1070
     1
1070
    44
1040
1.0
1070
    74
1070
     0
1000
MTEXTEND
  0
POINT
  5
21878
330
21721
100
AcDbEntity
  8
DEFPOINTS
 62
     0
 48
50.0
100
AcDbPoint
 10
5478.6
 20
6661.780272613744
 30
0.0
  0
POINT
  5
21879
330
21721
100
AcDbEntity
  8
DEFPOINTS
 62
     0
 48
50.0
100
AcDbPoint
 10
6168.600000000008
 20
6688.666700827392
 30
0.0
  0
POINT
  5
2187A
330
21721
100
AcDbEntity
  8
DEFPOINTS
 62
     0
 48
50.0
100
AcDbPoint
 10
6168.600000000008
 20
6500.520709530436
 30
0.0
  0
ENDBLK
  5
2172C
330
21721
100
AcDbEntity
  8
0
 48
50.0
100
AcDbBlockEnd
  0
BLOCK
  5
2174D
330
21743
100
AcDbEntity
  8
0
 48
50.0
100
AcDbBlockBegin
  2
*D42
 70
     1
 10
0.0
 20
0.0
 30
0.0
  3
*D42
  1

  0
LINE
  5
21869
330
21743
100
AcDbEntity
  8
寸法
 62
     0
 48
50.0
370
    -2
100
AcDbLine
 10
6168.600000000008
 20
6668.666700827391
 30
0.0
 11
6168.600000000008
 21
6440.520709530436
 31
0.0
  0
LINE
  5
2186A
330
21743
100
AcDbEntity
  8
寸法
 62
     0
 48
50.0
370
    -2
100
AcDbLine
 10
6853.600000000007
 20
6668.666700827391
 30
0.0
 11
6853.600000000007
 21
6440.520709530436
 31
0.0
  0
LINE
  5
2186B
330
21743
100
AcDbEntity
  8
寸法
 62
     0
 48
50.0
370
    -2
100
AcDbLine
 10
6168.600000000008
 20
6500.520709530436
 30
0.0
 11
6853.600000000007
 21
6500.520709530436
 31
0.0
  0
INSERT
  5
2186C
330
21743
100
AcDbEntity
  8
寸法
 62
     0
 48
50.0
370
    -2
100
AcDbBlockReference
  2
_DOTSMALL
 10
6168.600000000008
 20
6500.520709530436
 30
0.0
 41
100.0
 42
100.0
 43
100.0
 50
180.0
  0
INSERT
  5
2186D
330
21743
100
AcDbEntity
  8
寸法
 62
     0
 48
50.0
370
    -2
100
AcDbBlockReference
  2
_DOTSMALL
 10
6853.600000000007
 20
6500.520709530436
 30
0.0
 41
100.0
 42
100.0
 43
100.0
  0
MTEXT
  5
2186E
330
21743
100
AcDbEntity
  8
寸法
 62
     7
 48
50.0
100
AcDbMText
 10
6511.100000000007
 20
6600.520709530435
 30
0.0
 40
120.0
 41
0.0
 71
     5
 72
     1
  1
\A1;685
  7
STYLE1
 73
     1
 44
1.0
1001
ACAD
1000
MTEXTBEGIN
1070
    73
1070
     1
1070
    44
1040
1.0
1070
    74
1070
     0
1000
MTEXTEND
  0
POINT
  5
2186F
330
21743
100
AcDbEntity
  8
DEFPOINTS
 62
     0
 48
50.0
100
AcDbPoint
 10
6168.600000000008
 20
6688.666700827392
 30
0.0
  0
POINT
  5
21870
330
21743
100
AcDbEntity
  8
DEFPOINTS
 62
     0
 48
50.0
100
AcDbPoint
 10
6853.600000000007
 20
6688.666700827392
 30
0.0
  0
POINT
  5
21871
330
21743
100
AcDbEntity
  8
DEFPOINTS
 62
     0
 48
50.0
100
AcDbPoint
 10
6853.600000000007
 20
6500.520709530436
 30
0.0
  0
ENDBLK
  5
2174E
330
21743
100
AcDbEntity
  8
0
 48
50.0
100
AcDbBlockEnd
  0
BLOCK
  5
21779
330
2176F
100
AcDbEntity
  8
0
 48
50.0
100
AcDbBlockBegin
  2
*D43
 70
     1
 10
0.0
 20
0.0
 30
0.0
  3
*D43
  1

  0
LINE
  5
21857
330
2176F
100
AcDbEntity
  8
寸法
 62
     0
 48
50.0
370
    -2
100
AcDbLine
 10
10278.60000000001
 20
6668.666700827391
 30
0.0
 11
10278.60000000001
 21
6440.520709530436
 31
0.0
  0
LINE
  5
21858
330
2176F
100
AcDbEntity
  8
寸法
 62
     0
 48
50.0
370
    -2
100
AcDbLine
 10
10968.6
 20
6641.780272613743
 30
0.0
 11
10968.6
 21
6440.520709530436
 31
0.0
  0
LINE
  5
21859
330
2176F
100
AcDbEntity
  8
寸法
 62
     0
 48
50.0
370
    -2
100
AcDbLine
 10
10278.60000000001
 20
6500.520709530436
 30
0.0
 11
10968.6
 21
6500.520709530436
 31
0.0
  0
INSERT
  5
2185A
330
2176F
100
AcDbEntity
  8
寸法
 62
     0
 48
50.0
370
    -2
100
AcDbBlockReference
  2
_DOTSMALL
 10
10278.60000000001
 20
6500.520709530436
 30
0.0
 41
100.0
 42
100.0
 43
100.0
 50
180.0
  0
INSERT
  5
2185B
330
2176F
100
AcDbEntity
  8
寸法
 62
     0
 48
50.0
370
    -2
100
AcDbBlockReference
  2
_DOTSMALL
 10
10968.6
 20
6500.520709530436
 30
0.0
 41
100.0
 42
100.0
 43
100.0
  0
MTEXT
  5
2185C
330
2176F
100
AcDbEntity
  8
寸法
 62
     7
 48
50.0
100
AcDbMText
 10
10623.6
 20
6600.520709530435
 30
0.0
 40
120.0
 41
0.0
 71
     5
 72
     1
  1
\A1;690
  7
STYLE1
 73
     1
 44
1.0
1001
ACAD
1000
MTEXTBEGIN
1070
    73
1070
     1
1070
    44
1040
1.0
1070
    74
1070
     0
1000
MTEXTEND
  0
POINT
  5
2185D
330
2176F
100
AcDbEntity
  8
DEFPOINTS
 62
     0
 48
50.0
100
AcDbPoint
 10
10278.60000000001
 20
6688.666700827392
 30
0.0
  0
POINT
  5
2185E
330
2176F
100
AcDbEntity
  8
DEFPOINTS
 62
     0
 48
50.0
100
AcDbPoint
 10
10968.6
 20
6661.780272613744
 30
0.0
  0
POINT
  5
2185F
330
2176F
100
AcDbEntity
  8
DEFPOINTS
 62
     0
 48
50.0
100
AcDbPoint
 10
10968.6
 20
6500.520709530436
 30
0.0
  0
ENDBLK
  5
2177A
330
2176F
100
AcDbEntity
  8
0
 48
50.0
100
AcDbBlockEnd
  0
BLOCK
  5
21790
330
21786
100
AcDbEntity
  8
0
 48
50.0
100
AcDbBlockBegin
  2
*D44
 70
     1
 10
0.0
 20
0.0
 30
0.0
  3
*D44
  1

  0
LINE
  5
2184E
330
21786
100
AcDbEntity
  8
寸法
 62
     0
 48
50.0
370
    -2
100
AcDbLine
 10
9593.600000000007
 20
6668.666700827391
 30
0.0
 11
9593.600000000007
 21
6440.520709530436
 31
0.0
  0
LINE
  5
2184F
330
21786
100
AcDbEntity
  8
寸法
 62
     0
 48
50.0
370
    -2
100
AcDbLine
 10
10278.60000000001
 20
6668.666700827391
 30
0.0
 11
10278.60000000001
 21
6440.520709530436
 31
0.0
  0
LINE
  5
21850
330
21786
100
AcDbEntity
  8
寸法
 62
     0
 48
50.0
370
    -2
100
AcDbLine
 10
9593.600000000007
 20
6500.520709530436
 30
0.0
 11
10278.60000000001
 21
6500.520709530436
 31
0.0
  0
MTEXT
  5
21851
330
21786
100
AcDbEntity
  8
寸法
 62
     7
 48
50.0
100
AcDbMText
 10
9917.380256412609
 20
6604.916102436327
 30
0.0
 40
120.0
 41
0.0
 71
     5
 72
     1
  1
\A1;685
  7
STYLE1
 73
     1
 44
1.0
1001
ACAD
1000
MTEXTBEGIN
1070
    73
1070
     1
1070
    44
1040
1.0
1070
    74
1070
     0
1000
MTEXTEND
  0
INSERT
  5
21852
330
21786
100
AcDbEntity
  8
寸法
 62
     0
 48
50.0
370
    -2
100
AcDbBlockReference
  2
_DOTSMALL
 10
9593.600000000007
 20
6500.520709530436
 30
0.0
 41
100.0
 42
100.0
 43
100.0
 50
180.0
  0
INSERT
  5
21853
330
21786
100
AcDbEntity
  8
寸法
 62
     0
 48
50.0
370
    -2
100
AcDbBlockReference
  2
_DOTSMALL
 10
10278.60000000001
 20
6500.520709530436
 30
0.0
 41
100.0
 42
100.0
 43
100.0
  0
POINT
  5
21854
330
21786
100
AcDbEntity
  8
DEFPOINTS
 62
     0
 48
50.0
100
AcDbPoint
 10
9593.600000000007
 20
6688.666700827392
 30
0.0
  0
POINT
  5
21855
330
21786
100
AcDbEntity
  8
DEFPOINTS
 62
     0
 48
50.0
100
AcDbPoint
 10
10278.60000000001
 20
6688.666700827392
 30
0.0
  0
POINT
  5
21856
330
21786
100
AcDbEntity
  8
DEFPOINTS
 62
     0
 48
50.0
100
AcDbPoint
 10
10278.60000000001
 20
6500.520709530436
 30
0.0
  0
ENDBLK
  5
21791
330
21786
100
AcDbEntity
  8
0
 48
50.0
100
AcDbBlockEnd
  0
BLOCK
  5
217DE
330
217D4
100
AcDbEntity
  8
0
 48
50.0
100
AcDbBlockBegin
  2
*D45
 70
     1
 10
0.0
 20
0.0
 30
0.0
  3
*D45
  1

  0
LINE
  5
21845
330
217D4
100
AcDbEntity
  8
寸法
 62
     0
 48
50.0
370
    -2
100
AcDbLine
 10
8908.600000000008
 20
6668.666700827391
 30
0.0
 11
8908.600000000008
 21
6440.520709530436
 31
0.0
  0
LINE
  5
21846
330
217D4
100
AcDbEntity
  8
寸法
 62
     0
 48
50.0
370
    -2
100
AcDbLine
 10
9593.600000000007
 20
6668.666700827391
 30
0.0
 11
9593.600000000007
 21
6440.520709530436
 31
0.0
  0
LINE
  5
21847
330
217D4
100
AcDbEntity
  8
寸法
 62
     0
 48
50.0
370
    -2
100
AcDbLine
 10
8908.600000000008
 20
6500.520709530436
 30
0.0
 11
9593.600000000007
 21
6500.520709530436
 31
0.0
  0
MTEXT
  5
21848
330
217D4
100
AcDbEntity
  8
寸法
 62
     7
 48
50.0
100
AcDbMText
 10
9232.380256412609
 20
6604.916102436327
 30
0.0
 40
120.0
 41
0.0
 71
     5
 72
     1
  1
\A1;685
  7
STYLE1
 73
     1
 44
1.0
1001
ACAD
1000
MTEXTBEGIN
1070
    73
1070
     1
1070
    44
1040
1.0
1070
    74
1070
     0
1000
MTEXTEND
  0
INSERT
  5
21849
330
217D4
100
AcDbEntity
  8
寸法
 62
     0
 48
50.0
370
    -2
100
AcDbBlockReference
  2
_DOTSMALL
 10
8908.600000000008
 20
6500.520709530436
 30
0.0
 41
100.0
 42
100.0
 43
100.0
 50
180.0
  0
INSERT
  5
2184A
330
217D4
100
AcDbEntity
  8
寸法
 62
     0
 48
50.0
370
    -2
100
AcDbBlockReference
  2
_DOTSMALL
 10
9593.600000000007
 20
6500.520709530436
 30
0.0
 41
100.0
 42
100.0
 43
100.0
  0
POINT
  5
2184B
330
217D4
100
AcDbEntity
  8
DEFPOINTS
 62
     0
 48
50.0
100
AcDbPoint
 10
8908.600000000008
 20
6688.666700827392
 30
0.0
  0
POINT
  5
2184C
330
217D4
100
AcDbEntity
  8
DEFPOINTS
 62
     0
 48
50.0
100
AcDbPoint
 10
9593.600000000007
 20
6688.666700827392
 30
0.0
  0
POINT
  5
2184D
330
217D4
100
AcDbEntity
  8
DEFPOINTS
 62
     0
 48
50.0
100
AcDbPoint
 10
9593.600000000007
 20
6500.520709530436
 30
0.0
  0
ENDBLK
  5
217DF
330
217D4
100
AcDbEntity
  8
0
 48
50.0
100
AcDbBlockEnd
  0
BLOCK
  5
2235E
330
22354
100
AcDbEntity
  8
0
 48
50.0
100
AcDbBlockBegin
  2
*D58
 70
     1
 10
0.0
 20
0.0
 30
0.0
  3
*D58
  1

  0
LINE
  5
223A1
330
22354
100
AcDbEntity
  8
寸法
 62
     0
 48
50.0
370
    -2
100
AcDbLine
 10
6291.018055871225
 20
2053.614513630803
 30
0.0
 11
6291.018055871225
 21
2413.614513630803
 31
0.0
  0
LINE
  5
223A2
330
22354
100
AcDbEntity
  8
寸法
 62
     0
 48
50.0
370
    -2
100
AcDbLine
 10
6099.018055871225
 20
2053.614513630803
 30
0.0
 11
6099.018055871225
 21
2413.614513630803
 31
0.0
  0
LINE
  5
223A3
330
22354
100
AcDbEntity
  8
寸法
 62
     0
 48
50.0
370
    -2
100
AcDbLine
 10
6291.018055871225
 20
2353.614513630803
 30
0.0
 11
6099.018055871225
 21
2353.614513630803
 31
0.0
  0
MTEXT
  5
223A4
330
22354
100
AcDbEntity
  8
寸法
 62
     7
 48
50.0
100
AcDbMText
 10
6206.244386216422
 20
2753.317754618049
 30
0.0
 40
120.0
 41
0.0
 71
     5
 72
     1
  1
\A1;120\P200\P280
  7
STYLE1
 73
     1
 44
1.0
1001
ACAD
1000
MTEXTBEGIN
1070
    73
1070
     1
1070
    44
1040
1.0
1070
    74
1070
     0
1000
MTEXTEND
  0
INSERT
  5
223A5
330
22354
100
AcDbEntity
  8
寸法
 62
     0
 48
50.0
370
    -2
100
AcDbBlockReference
  2
_DOTSMALL
 10
6291.018055871225
 20
2353.614513630803
 30
0.0
 41
100.0
 42
100.0
 43
100.0
  0
INSERT
  5
223A6
330
22354
100
AcDbEntity
  8
寸法
 62
     0
 48
50.0
370
    -2
100
AcDbBlockReference
  2
_DOTSMALL
 10
6099.018055871225
 20
2353.614513630803
 30
0.0
 41
100.0
 42
100.0
 43
100.0
 50
180.0
  0
POINT
  5
223A7
330
22354
100
AcDbEntity
  8
DEFPOINTS
 62
     0
 48
50.0
100
AcDbPoint
 10
6291.018055871225
 20
2033.614513630803
 30
0.0
  0
POINT
  5
223A8
330
22354
100
AcDbEntity
  8
DEFPOINTS
 62
     0
 48
50.0
100
AcDbPoint
 10
6099.018055871225
 20
2033.614513630803
 30
0.0
  0
POINT
  5
223A9
330
22354
100
AcDbEntity
  8
DEFPOINTS
 62
     0
 48
50.0
100
AcDbPoint
 10
6099.018055871225
 20
2353.614513630803
 30
0.0
  0
ENDBLK
  5
2235F
330
22354
100
AcDbEntity
  8
0
 48
50.0
100
AcDbBlockEnd
  0
BLOCK
  5
2236A
330
22360
100
AcDbEntity
  8
0
 48
50.0
100
AcDbBlockBegin
  2
*D59
 70
     1
 10
0.0
 20
0.0
 30
0.0
  3
*D59
  1

  0
LINE
  5
223AA
330
22360
100
AcDbEntity
  8
寸法
 62
     0
 48
50.0
370
    -2
100
AcDbLine
 10
8233.057369048415
 20
2033.614513630803
 30
0.0
 11
8774.925968817262
 21
2033.614513630803
 31
0.0
  0
LINE
  5
223AB
330
22360
100
AcDbEntity
  8
寸法
 62
     0
 48
50.0
370
    -2
100
AcDbLine
 10
8233.057369048415
 20
1709.614513630802
 30
0.0
 11
8774.925968817262
 21
1709.614513630802
 31
0.0
  0
LINE
  5
223AC
330
22360
100
AcDbEntity
  8
寸法
 62
     0
 48
50.0
370
    -2
100
AcDbLine
 10
8714.92596881726
 20
2033.614513630803
 30
0.0
 11
8714.92596881726
 21
1709.614513630802
 31
0.0
  0
INSERT
  5
223AD
330
22360
100
AcDbEntity
  8
寸法
 62
     0
 48
50.0
370
    -2
100
AcDbBlockReference
  2
_DOTSMALL
 10
8714.92596881726
 20
2033.614513630803
 30
0.0
 41
100.0
 42
100.0
 43
100.0
 50
90.0
  0
INSERT
  5
223AE
330
22360
100
AcDbEntity
  8
寸法
 62
     0
 48
50.0
370
    -2
100
AcDbBlockReference
  2
_DOTSMALL
 10
8714.92596881726
 20
1709.614513630802
 30
0.0
 41
100.0
 42
100.0
 43
100.0
 50
270.0
  0
MTEXT
  5
223AF
330
22360
100
AcDbEntity
  8
寸法
 62
     7
 48
50.0
100
AcDbMText
 10
8614.92596881726
 20
1871.614513630803
 30
0.0
 40
120.0
 41
0.0
 71
     5
 72
     1
  1
\A1;180
  7
STYLE1
 11
0.0000000000000001
 21
1.0
 31
0.0
 73
     1
 44
1.0
1001
ACAD
1000
MTEXTBEGIN
1070
    73
1070
     1
1070
    44
1040
1.0
1070
    74
1070
     0
1000
MTEXTEND
  0
POINT
  5
223B0
330
22360
100
AcDbEntity
  8
DEFPOINTS
 62
     0
 48
50.0
100
AcDbPoint
 10
8213.057369048417
 20
2033.614513630803
 30
0.0
  0
POINT
  5
223B1
330
22360
100
AcDbEntity
  8
DEFPOINTS
 62
     0
 48
50.0
100
AcDbPoint
 10
8213.057369048417
 20
1709.614513630802
 30
0.0
  0
POINT
  5
223B2
330
22360
100
AcDbEntity
  8
DEFPOINTS
 62
     0
 48
50.0
100
AcDbPoint
 10
8714.92596881726
 20
1709.614513630802
 30
0.0
  0
ENDBLK
  5
2236B
330
22360
100
AcDbEntity
  8
0
 48
50.0
100
AcDbBlockEnd
  0
BLOCK
  5
2237B
330
2236C
100
AcDbEntity
  8
0
 48
50.0
100
AcDbBlockBegin
  2
*D60
 70
     1
 10
0.0
 20
0.0
 30
0.0
  3
*D60
  1

  0
LINE
  5
223B3
330
2236C
100
AcDbEntity
  8
寸法
 62
     0
 48
50.0
370
    -2
100
AcDbLine
 10
8045.857369048418
 20
2086.374513630804
 30
0.0
 11
8774.925968817262
 21
2086.374513630804
 31
0.0
  0
LINE
  5
223B4
330
2236C
100
AcDbEntity
  8
寸法
 62
     0
 48
50.0
370
    -2
100
AcDbLine
 10
8233.057369048415
 20
2033.614513630803
 30
0.0
 11
8774.925968817262
 21
2033.614513630803
 31
0.0
  0
LINE
  5
223B5
330
2236C
100
AcDbEntity
  8
寸法
 62
     0
 48
50.0
370
    -2
100
AcDbLine
 10
8714.92596881726
 20
2086.374513630804
 30
0.0
 11
8714.92596881726
 21
2186.374513630804
 31
0.0
  0
LINE
  5
223B6
330
2236C
100
AcDbEntity
  8
寸法
 62
     0
 48
50.0
370
    -2
100
AcDbLine
 10
8714.92596881726
 20
2033.614513630803
 30
0.0
 11
8714.92596881726
 21
1933.614513630802
 31
0.0
  0
LINE
  5
223B7
330
2236C
100
AcDbEntity
  8
寸法
 62
     0
 48
50.0
370
    -2
100
AcDbLine
 10
8714.92596881726
 20
2059.994513630803
 30
0.0
 11
8990.980634936288
 21
2048.49055602659
 31
0.0
  0
LINE
  5
223B8
330
2236C
100
AcDbEntity
  8
寸法
 62
     0
 48
50.0
370
    -2
100
AcDbLine
 10
8990.980634936288
 20
2048.49055602659
 30
0.0
 11
8990.980634936288
 21
1516.472749183624
 31
0.0
  0
MTEXT
  5
223B9
330
2236C
100
AcDbEntity
  8
寸法
 62
     7
 48
50.0
100
AcDbMText
 10
8890.968823912666
 20
1782.481652605108
 30
0.0
 40
120.0
 41
0.0
 71
     5
 72
     1
  1
\A1;20～25
  7
STYLE1
 11
0.0000000000000001
 21
1.0
 31
0.0
 73
     1
 44
1.0
1001
ACAD
1000
MTEXTBEGIN
1070
    73
1070
     1
1070
    44
1040
1.0
1070
    74
1070
     0
1000
MTEXTEND
  0
LINE
  5
223BA
330
2236C
100
AcDbEntity
  8
寸法
 62
     0
 48
50.0
370
    -2
100
AcDbLine
 10
8714.92596881726
 20
2086.374513630804
 30
0.0
 11
8714.92596881726
 21
2033.614513630803
 31
0.0
  0
LINE
  5
223BB
330
2236C
100
AcDbEntity
  8
寸法
 62
     0
 48
50.0
370
    -2
100
AcDbLine
 10
8714.92596881726
 20
2086.374513630804
 30
0.0
 11
8714.92596881726
 21
2033.614513630803
 31
0.0
  0
INSERT
  5
223BC
330
2236C
100
AcDbEntity
  8
寸法
 62
     0
 48
50.0
370
    -2
100
AcDbBlockReference
  2
_DOTSMALL
 10
8714.92596881726
 20
2086.374513630804
 30
0.0
 41
100.0
 42
100.0
 43
100.0
 50
270.0
  0
INSERT
  5
223BD
330
2236C
100
AcDbEntity
  8
寸法
 62
     0
 48
50.0
370
    -2
100
AcDbBlockReference
  2
_DOTSMALL
 10
8714.92596881726
 20
2033.614513630803
 30
0.0
 41
100.0
 42
100.0
 43
100.0
 50
90.0
  0
POINT
  5
223BE
330
2236C
100
AcDbEntity
  8
DEFPOINTS
 62
     0
 48
50.0
100
AcDbPoint
 10
8025.85736904842
 20
2086.374513630804
 30
0.0
  0
POINT
  5
223BF
330
2236C
100
AcDbEntity
  8
DEFPOINTS
 62
     0
 48
50.0
100
AcDbPoint
 10
8213.057369048417
 20
2033.614513630803
 30
0.0
  0
POINT
  5
223C0
330
2236C
100
AcDbEntity
  8
DEFPOINTS
 62
     0
 48
50.0
100
AcDbPoint
 10
8714.92596881726
 20
2033.614513630803
 30
0.0
  0
ENDBLK
  5
2237C
330
2236C
100
AcDbEntity
  8
0
 48
50.0
100
AcDbBlockEnd
  0
BLOCK
  5
22387
330
2237D
100
AcDbEntity
  8
0
 48
50.0
100
AcDbBlockBegin
  2
*D61
 70
     1
 10
0.0
 20
0.0
 30
0.0
  3
*D61
  1

  0
LINE
  5
223C1
330
2237D
100
AcDbEntity
  8
寸法
 62
     0
 48
50.0
370
    -2
100
AcDbLine
 10
5951.018055871225
 20
1489.614513630803
 30
0.0
 11
5768.597742138766
 21
1489.614513630803
 31
0.0
  0
LINE
  5
223C2
330
2237D
100
AcDbEntity
  8
寸法
 62
     0
 48
50.0
370
    -2
100
AcDbLine
 10
5871.018055871228
 20
1249.614513630803
 30
0.0
 11
5768.597742138766
 21
1249.614513630803
 31
0.0
  0
LINE
  5
223C3
330
2237D
100
AcDbEntity
  8
寸法
 62
     0
 48
50.0
370
    -2
100
AcDbLine
 10
5828.597742138765
 20
1489.614513630803
 30
0.0
 11
5828.597742138765
 21
1249.614513630803
 31
0.0
  0
MTEXT
  5
223C4
330
2237D
100
AcDbEntity
  8
寸法
 62
     7
 48
50.0
100
AcDbMText
 10
5728.597742138766
 20
1369.614513630803
 30
0.0
 40
120.0
 41
0.0
 71
     5
 72
     1
  1
\A1;150
  7
STYLE1
 11
0.0000000000000001
 21
1.0
 31
0.0
 73
     1
 44
1.0
1001
ACAD
1000
MTEXTBEGIN
1070
    73
1070
     1
1070
    44
1040
1.0
1070
    74
1070
     0
1000
MTEXTEND
  0
INSERT
  5
223C5
330
2237D
100
AcDbEntity
  8
寸法
 62
     0
 48
50.0
370
    -2
100
AcDbBlockReference
  2
_DOTSMALL
 10
5828.597742138765
 20
1489.614513630803
 30
0.0
 41
100.0
 42
100.0
 43
100.0
 50
90.0
  0
INSERT
  5
223C6
330
2237D
100
AcDbEntity
  8
寸法
 62
     0
 48
50.0
370
    -2
100
AcDbBlockReference
  2
_DOTSMALL
 10
5828.597742138765
 20
1249.614513630803
 30
0.0
 41
100.0
 42
100.0
 43
100.0
 50
270.0
  0
POINT
  5
223C7
330
2237D
100
AcDbEntity
  8
DEFPOINTS
 62
     0
 48
50.0
100
AcDbPoint
 10
5971.018055871224
 20
1489.614513630803
 30
0.0
  0
POINT
  5
223C8
330
2237D
100
AcDbEntity
  8
DEFPOINTS
 62
     0
 48
50.0
100
AcDbPoint
 10
5891.018055871228
 20
1249.614513630803
 30
0.0
  0
POINT
  5
223C9
330
2237D
100
AcDbEntity
  8
DEFPOINTS
 62
     0
 48
50.0
100
AcDbPoint
 10
5828.597742138765
 20
1249.614513630803
 30
0.0
  0
ENDBLK
  5
22388
330
2237D
100
AcDbEntity
  8
0
 48
50.0
100
AcDbBlockEnd
  0
BLOCK
  5
22393
330
22389
100
AcDbEntity
  8
0
 48
50.0
100
AcDbBlockBegin
  2
*D62
 70
     1
 10
0.0
 20
0.0
 30
0.0
  3
*D62
  1

  0
LINE
  5
223CA
330
22389
100
AcDbEntity
  8
寸法
 62
     0
 48
50.0
370
    -2
100
AcDbLine
 10
6079.018055871224
 20
2033.614513630803
 30
0.0
 11
5303.980817309485
 21
2033.614513630803
 31
0.0
  0
LINE
  5
223CB
330
22389
100
AcDbEntity
  8
寸法
 62
     0
 48
50.0
370
    -2
100
AcDbLine
 10
5871.018055871228
 20
1249.614513630803
 30
0.0
 11
5303.980817309485
 21
1249.614513630803
 31
0.0
  0
LINE
  5
223CC
330
22389
100
AcDbEntity
  8
寸法
 62
     0
 48
50.0
370
    -2
100
AcDbLine
 10
5363.980817309484
 20
2033.614513630803
 30
0.0
 11
5363.980817309484
 21
1249.614513630803
 31
0.0
  0
MTEXT
  5
223CD
330
22389
100
AcDbEntity
  8
寸法
 62
     7
 48
50.0
100
AcDbMText
 10
5263.980817309484
 20
1621.154663286803
 30
0.0
 40
120.0
 41
0.0
 71
     5
 72
     1
  1
\A1;540
  7
STYLE1
 11
0.0000000000000001
 21
1.0
 31
0.0
 73
     1
 44
1.0
1001
ACAD
1000
MTEXTBEGIN
1070
    73
1070
     1
1070
    44
1040
1.0
1070
    74
1070
     0
1000
MTEXTEND
  0
INSERT
  5
223CE
330
22389
100
AcDbEntity
  8
寸法
 62
     0
 48
50.0
370
    -2
100
AcDbBlockReference
  2
_DOTSMALL
 10
5363.980817309484
 20
2033.614513630803
 30
0.0
 41
100.0
 42
100.0
 43
100.0
 50
90.0
  0
INSERT
  5
223CF
330
22389
100
AcDbEntity
  8
寸法
 62
     0
 48
50.0
370
    -2
100
AcDbBlockReference
  2
_DOTSMALL
 10
5363.980817309484
 20
1249.614513630803
 30
0.0
 41
100.0
 42
100.0
 43
100.0
 50
270.0
  0
POINT
  5
223D0
330
22389
100
AcDbEntity
  8
DEFPOINTS
 62
     0
 48
50.0
100
AcDbPoint
 10
6099.018055871225
 20
2033.614513630803
 30
0.0
  0
POINT
  5
223D1
330
22389
100
AcDbEntity
  8
DEFPOINTS
 62
     0
 48
50.0
100
AcDbPoint
 10
5891.018055871228
 20
1249.614513630803
 30
0.0
  0
POINT
  5
223D2
330
22389
100
AcDbEntity
  8
DEFPOINTS
 62
     0
 48
50.0
100
AcDbPoint
 10
5363.980817309484
 20
1249.614513630803
 30
0.0
  0
ENDBLK
  5
22394
330
22389
100
AcDbEntity
  8
0
 48
50.0
100
AcDbBlockEnd
  0
BLOCK
  5
2239F
330
22395
100
AcDbEntity
  8
0
 48
50.0
100
AcDbBlockBegin
  2
*D63
 70
     1
 10
0.0
 20
0.0
 30
0.0
  3
*D63
  1

  0
LINE
  5
223D3
330
22395
100
AcDbEntity
  8
寸法
 62
     0
 48
50.0
370
    -2
100
AcDbLine
 10
5971.018055871224
 20
1101.614513630803
 30
0.0
 11
5971.018055871224
 21
651.1848756256426
 31
0.0
  0
LINE
  5
223D4
330
22395
100
AcDbEntity
  8
寸法
 62
     0
 48
50.0
370
    -2
100
AcDbLine
 10
6419.018055871224
 20
1101.614513630803
 30
0.0
 11
6419.018055871224
 21
651.1848756256426
 31
0.0
  0
LINE
  5
223D5
330
22395
100
AcDbEntity
  8
寸法
 62
     0
 48
50.0
370
    -2
100
AcDbLine
 10
5971.018055871224
 20
711.1848756256427
 30
0.0
 11
6419.018055871224
 21
711.1848756256427
 31
0.0
  0
MTEXT
  5
223D6
330
22395
100
AcDbEntity
  8
寸法
 62
     7
 48
50.0
100
AcDbMText
 10
6174.921297193002
 20
811.1848756256426
 30
0.0
 40
120.0
 41
0.0
 71
     5
 72
     1
  1
\A1;300
  7
STYLE1
 73
     1
 44
1.0
1001
ACAD
1000
MTEXTBEGIN
1070
    73
1070
     1
1070
    44
1040
1.0
1070
    74
1070
     0
1000
MTEXTEND
  0
INSERT
  5
223D7
330
22395
100
AcDbEntity
  8
寸法
 62
     0
 48
50.0
370
    -2
100
AcDbBlockReference
  2
_DOTSMALL
 10
5971.018055871224
 20
711.1848756256427
 30
0.0
 41
100.0
 42
100.0
 43
100.0
 50
180.0
  0
INSERT
  5
223D8
330
22395
100
AcDbEntity
  8
寸法
 62
     0
 48
50.0
370
    -2
100
AcDbBlockReference
  2
_DOTSMALL
 10
6419.018055871224
 20
711.1848756256427
 30
0.0
 41
100.0
 42
100.0
 43
100.0
  0
POINT
  5
223D9
330
22395
100
AcDbEntity
  8
DEFPOINTS
 62
     0
 48
50.0
100
AcDbPoint
 10
5971.018055871224
 20
1121.614513630802
 30
0.0
  0
POINT
  5
223DA
330
22395
100
AcDbEntity
  8
DEFPOINTS
 62
     0
 48
50.0
100
AcDbPoint
 10
6419.018055871224
 20
1121.614513630802
 30
0.0
  0
POINT
  5
223DB
330
22395
100
AcDbEntity
  8
DEFPOINTS
 62
     0
 48
50.0
100
AcDbPoint
 10
6419.018055871224
 20
711.1848756256427
 30
0.0
  0
ENDBLK
  5
223A0
330
22395
100
AcDbEntity
  8
0
 48
50.0
100
AcDbBlockEnd
  0
ENDSEC
  0
SECTION
  2
ENTITIES
  0
MTEXT
  5
763F
330
747D
100
AcDbEntity
  8
0
100
AcDbMText
 10
302.846345836809
 20
280.1983726409901
 30
0.0
 40
3.5
 41
5.323721266742722
 71
     1
 72
     5
  1

  7
MSMINCHO
 73
     1
 44
1.0
1001
ACAD
1000
MTEXTBEGIN
1070
    73
1070
     1
1070
    44
1040
1.0
1070
    74
1070
     0
1000
MTEXTEND
  0
LINE
  5
10B57
330
747D
100
AcDbEntity
  8
補助
  6
PHANTOM
 62
   230
 48
50.0
100
AcDbLine
 10
139.9999999999995
 20
11409.6
 30
0.0
 11
16307.2
 21
11409.6
 31
0.0
  0
LINE
  5
10B59
330
747D
100
AcDbEntity
  8
仕様書枠
  6
Continuous
 48
50.0
100
AcDbLine
 10
13107.2
 20
1200.0
 30
0.0
 11
13107.2
 21
-0.0000000000000729
 31
0.0
  0
LINE
  5
10B5D
330
747D
100
AcDbEntity
  8
仕様書枠
 48
50.0
100
AcDbLine
 10
140.0
 20
0.0
 30
0.0
 11
16307.2
 21
-0.0000000000000909
 31
0.0
  0
LINE
  5
10B5E
330
747D
100
AcDbEntity
  8
補助
  6
PHANTOM
 62
   230
 48
50.0
100
AcDbLine
 10
16307.2
 20
11409.6
 30
0.0
 11
16307.2
 21
1200.0
 31
0.0
  0
LINE
  5
10B6C
330
747D
100
AcDbEntity
  8
仕様書枠
 48
50.0
100
AcDbLine
 10
13107.2
 20
1200.0
 30
0.0
 11
16307.2
 21
1200.0
 31
0.0
  0
TEXT
  5
10B73
330
747D
100
AcDbEntity
  8
文字
 62
     7
 48
50.0
100
AcDbText
 10
13162.9790565769
 20
895.0906074299405
 30
0.0
 40
200.0
  1
基 礎 図
  7
STYLE2
100
AcDbText
  0
LINE
  5
10B7B
330
747D
100
AcDbEntity
  8
仕様書枠
 48
50.0
100
AcDbLine
 10
13107.2
 20
800.0
 30
0.0
 11
14251.2
 21
800.0
 31
0.0
  0
LINE
  5
10B88
330
747D
100
AcDbEntity
  8
仕様書枠
  6
Continuous
 48
50.0
100
AcDbLine
 10
14251.2
 20
1200.0
 30
0.0
 11
14251.2
 21
800.0
 31
0.0
  0
LINE
  5
16462
330
747D
100
AcDbEntity
  8
仕様書枠
 48
50.0
100
AcDbLine
 10
16307.2
 20
1200.0
 30
0.0
 11
16307.2
 21
-0.0000000000000909
 31
0.0
  0
LINE
  5
1903B
330
747D
100
AcDbEntity
  8
補助
  6
PHANTOM
 62
   230
 48
50.0
100
AcDbLine
 10
140.0
 20
0.0
 30
0.0
 11
139.9999999999995
 21
11409.6
 31
0.0
  0
TEXT
  5
1C7A1
330
747D
100
AcDbEntity
  8
文字
 62
     7
 48
50.0
100
AcDbText
 10
13188.16259899338
 20
79.80631269190417
 30
0.0
 40
80.0
  1
※布基礎には換気口を設けてください。
  7
STYLE2
100
AcDbText
  0
TEXT
  5
1C7E7
330
747D
100
AcDbEntity
  8
文字
 62
     7
 48
50.0
100
AcDbText
 10
13188.16259899338
 20
246.7109242801889
 30
0.0
 40
80.0
  1
※寒冷地等は地域の実情に合わせた基礎にして下さい。
  7
STYLE2
100
AcDbText
  0
TEXT
  5
1C7E8
330
747D
100
AcDbEntity
  8
文字
 62
     7
 48
50.0
100
AcDbText
 10
14478.98566430227
 20
499.5983841039506
 30
0.0
 40
160.0
  1
ＮＸＮ－２５ＣＳＬ
  7
STYLE2
100
AcDbText
  0
TEXT
  5
1C7E9
330
747D
100
AcDbEntity
  8
文字
 62
     7
 48
50.0
100
AcDbText
 10
14641.2525855784
 20
871.1744590657927
 30
0.0
 40
100.0
  1
～一般型・多雪地型～
  7
STYLE2
100
AcDbText
  0
TEXT
  5
1C7EC
330
747D
100
AcDbEntity
  8
文字
 62
     7
 48
50.0
100
AcDbText
 10
14524.131837222
 20
1031.557706291229
 30
0.0
 40
100.0
  1
      <縮尺> S=1/40
  7
STYLE2
100
AcDbText
  0
TEXT
  5
1C7ED
330
747D
100
AcDbEntity
  8
文字
 62
     7
 48
50.0
100
AcDbText
 10
13201.43669998441
 20
477.2740661031257
 30
0.0
 40
160.0
  1
機種名
  7
STYLE2
100
AcDbText
  0
LINE
  5
1C7EF
330
747D
100
AcDbEntity
  8
文字
 62
     7
 48
50.0
100
AcDbLine
 10
13187.2
 20
400.0
 30
0.0
 11
16227.2
 21
400.0
 31
0.0
  0
DIMENSION
  5
1FA1F
330
747D
100
AcDbEntity
  8
寸法
 48
50.0
100
AcDbDimension
  2
*D19
 10
8105.6
 20
8334.275517497637
 30
0.0
 11
8790.600000000001
 21
8434.275517497637
 31
0.0
 70
    32
 71
     5
 42
1370.0
  3
INABA_S40G
100
AcDbAlignedDimension
 13
9475.6
 23
7578.666700827392
 33
0.0
 14
8105.6
 24
7578.666700827392
 34
0.0
100
AcDbRotatedDimension
1001
ACAD
1000
DSTYLE
1002
{
1070
   341
1005
0
1002
}
  0
LINE
  5
1FA20
330
747D
100
AcDbEntity
  8
部品1
 48
50.0
100
AcDbLine
 10
10848.6
 20
7451.666700827394
 30
0.0
 11
5598.600000000001
 21
7451.666700827248
 31
0.0
  0
DIMENSION
  5
1FA21
330
747D
100
AcDbEntity
  8
寸法
 48
50.0
100
AcDbDimension
  2
*D20
 10
10968.6
 20
8809.887022886313
 30
0.0
 11
8223.600000000001
 21
8915.887022886312
 31
0.0
 70
    32
  1
N(連続数)x1370+10
 71
     5
 42
5490.0
  3
INABA_S40G
100
AcDbAlignedDimension
 13
5478.6
 23
7651.666700827391
 33
0.0
 14
10968.6
 24
7651.666700827391
 34
0.0
100
AcDbRotatedDimension
1001
ACAD
1000
DSTYLE
1002
{
1070
   341
1005
0
1002
}
  0
LINE
  5
1FA22
330
747D
100
AcDbEntity
  8
部品1
 48
50.0
100
AcDbLine
 10
10968.6
 20
7651.666700827391
 30
0.0
 11
6071.872592415283
 21
7651.666700827393
 31
0.0
  0
LINE
  5
1FA23
330
747D
100
AcDbEntity
  8
部品1
 48
50.0
100
AcDbLine
 10
10848.6
 20
6131.66670082741
 30
0.0
 11
5598.600000000001
 21
6131.666700827395
 31
0.0
  0
LINE
  5
1FA25
330
747D
100
AcDbEntity
  8
部品1
 48
50.0
100
AcDbLine
 10
10968.6
 20
5851.66670082741
 30
0.0
 11
5478.6
 21
5851.666700827396
 31
0.0
  0
DIMENSION
  5
1FA26
330
747D
100
AcDbEntity
  8
寸法
 48
50.0
100
AcDbDimension
  2
*D21
 10
8223.600000000008
 20
8577.9331589213
 30
0.0
 11
8908.600000000008
 21
8677.9331589213
 31
0.0
 70
    32
 71
     5
 42
1370.0
  3
INABA_S40G
100
AcDbAlignedDimension
 13
9593.600000000007
 23
8334.275517497637
 33
0.0
 14
8223.600000000008
 24
8334.275517497637
 34
0.0
100
AcDbRotatedDimension
1001
ACAD
1000
DSTYLE
1002
{
1070
   341
1005
0
1002
}
  0
DIMENSION
  5
1FA2F
330
747D
100
AcDbEntity
  8
寸法
 48
50.0
100
AcDbDimension
  2
*D22
 10
4594.08735343128
 20
5851.666700827392
 30
0.0
 11
4594.087353431279
 21
5516.135751984799
 31
0.0
 70
   160
 71
     5
 42
198.0000000000018
  3
INABA_S40G
100
AcDbAlignedDimension
 13
5551.600000000007
 23
6049.666700827394
 33
0.0
 14
5478.6
 24
5851.666700827392
 34
0.0
 50
90.0
100
AcDbRotatedDimension
1001
ACAD
1000
DSTYLE
1002
{
1070
   341
1005
0
1002
}
  0
DIMENSION
  5
1FB0C
330
747D
100
AcDbEntity
  8
寸法
 48
50.0
100
AcDbDimension
  2
*D23
 10
4342.144256711883
 20
5851.666700827392
 30
0.0
 11
4342.144256711883
 21
6751.666700827391
 31
0.0
 70
   160
 71
     5
 42
1800.0
  3
INABA_S40G
100
AcDbAlignedDimension
 13
5478.6
 23
7651.666700827391
 33
0.0
 14
5478.6
 24
5851.666700827392
 34
0.0
 50
90.0
100
AcDbRotatedDimension
1001
ACAD
1000
DSTYLE
1002
{
1070
   341
1005
0
1002
}
  0
DIMENSION
  5
1FB0E
330
747D
100
AcDbEntity
  8
寸法
 48
50.0
100
AcDbDimension
  2
*D24
 10
4594.08735343128
 20
7528.666700827392
 30
0.0
 11
4594.087353431279
 21
7924.773302545192
 31
0.0
 70
   160
 71
     5
 42
123.0
  3
INABA_S40G
100
AcDbAlignedDimension
 13
5478.6
 23
7651.666700827391
 33
0.0
 14
5551.6
 24
7528.666700827392
 34
0.0
 50
90.0
100
AcDbRotatedDimension
1001
ACAD
1000
DSTYLE
1002
{
1070
   341
1005
0
1002
}
  0
DIMENSION
  5
1FB0F
330
747D
100
AcDbEntity
  8
寸法
 48
50.0
100
AcDbDimension
  2
*D25
 10
5478.6
 20
8334.275517497637
 30
0.0
 11
5205.493398282202
 21
8334.275517497637
 31
0.0
 70
   160
 71
     5
 42
123.0
  3
INABA_S40G
100
AcDbAlignedDimension
 13
5601.600000000001
 23
7578.666700827392
 33
0.0
 14
5478.6
 24
7651.666700827391
 34
0.0
100
AcDbRotatedDimension
1001
ACAD
1000
DSTYLE
1002
{
1070
   341
1005
0
1002
}
  0
DIMENSION
  5
1FB10
330
747D
100
AcDbEntity
  8
寸法
 48
50.0
100
AcDbDimension
  2
*D26
 10
4594.087353431282
 20
6049.666700827394
 30
0.0
 11
4594.087353431281
 21
6789.166700827393
 31
0.0
 70
   160
 71
     5
 42
1478.999999999998
  3
INABA_S40G
100
AcDbAlignedDimension
 13
5551.6
 23
7528.666700827392
 33
0.0
 14
5551.600000000007
 24
6049.666700827394
 34
0.0
 50
90.0
100
AcDbRotatedDimension
1001
ACAD
1000
DSTYLE
1002
{
1070
   341
1005
0
1002
}
  0
DIMENSION
  5
1FB11
330
747D
100
AcDbEntity
  8
寸法
 48
50.0
100
AcDbDimension
  2
*D27
 10
5478.6
 20
8577.9331589213
 30
0.0
 11
6166.100000000004
 21
8677.9331589213
 31
0.0
 70
    32
 71
     5
 42
1375.000000000007
  3
INABA_S40G
100
AcDbAlignedDimension
 13
6853.600000000007
 23
8334.275517497637
 33
0.0
 14
5478.6
 24
7651.666700827391
 34
0.0
100
AcDbRotatedDimension
1001
ACAD
1000
DSTYLE
1002
{
1070
   341
1005
0
1002
}
  0
LINE
  5
1FB14
330
747D
100
AcDbEntity
  8
寸法
 48
50.0
100
AcDbLine
 10
6735.600000000001
 20
8334.275517497637
 30
0.0
 11
7270.151108115732
 21
8334.275517497637
 31
0.0
  0
LINE
  5
1FB1C
330
747D
100
AcDbEntity
  8
部品1
 48
50.0
100
AcDbLine
 10
6953.600000000007
 20
6888.666700827392
 30
0.0
 11
6753.600000000007
 21
6888.666700827392
 31
0.0
  0
LINE
  5
1FB1D
330
747D
100
AcDbEntity
  8
部品1
 48
50.0
100
AcDbLine
 10
6953.600000000007
 20
6688.666700827392
 30
0.0
 11
6753.600000000007
 21
6688.666700827392
 31
0.0
  0
LINE
  5
1FB23
102
{ACAD_REACTORS
330
219D6
102
}
330
747D
100
AcDbEntity
  8
部品1
 48
50.0
100
AcDbLine
 10
5478.6
 20
5851.666700827392
 30
0.0
 11
5478.6
 21
7651.666700827391
 31
0.0
  0
LINE
  5
1FB36
330
747D
100
AcDbEntity
  8
部品1
 48
50.0
100
AcDbLine
 10
6753.600000000007
 20
6688.666700827392
 30
0.0
 11
6753.600000000007
 21
6888.666700827392
 31
0.0
  0
DIMENSION
  5
1FB37
330
747D
100
AcDbEntity
  8
寸法
 48
50.0
100
AcDbDimension
  2
*D28
 10
5601.600000000001
 20
8334.275517497637
 30
0.0
 11
6168.600000000001
 21
8434.275517497637
 31
0.0
 70
    32
 71
     5
 42
1134.0
  3
INABA_S40G
100
AcDbAlignedDimension
 13
6735.600000000001
 23
7578.666700827392
 33
0.0
 14
5601.600000000001
 24
7578.666700827392
 34
0.0
100
AcDbRotatedDimension
1001
ACAD
1000
DSTYLE
1002
{
1070
   341
1005
0
1002
}
  0
LINE
  5
1FB38
330
747D
100
AcDbEntity
  8
部品1
 48
50.0
100
AcDbLine
 10
6086.201798938049
 20
7651.666700827388
 30
0.0
 11
5478.6
 21
7651.666700827391
 31
0.0
  0
LINE
  5
1FB54
330
747D
100
AcDbEntity
  8
部品1
 48
50.0
100
AcDbLine
 10
6953.600000000007
 20
6688.666700827392
 30
0.0
 11
6953.600000000007
 21
6888.666700827392
 31
0.0
  0
LINE
  5
1FB55
330
747D
100
AcDbEntity
  8
センター
 48
2.0
100
AcDbLine
 10
6853.600000000007
 20
6838.666700827392
 30
0.0
 11
6853.600000000007
 21
6738.666700827391
 31
0.0
  0
LINE
  5
1FB56
330
747D
100
AcDbEntity
  8
センター
 48
2.0
100
AcDbLine
 10
6803.600000000007
 20
6788.666700827391
 30
0.0
 11
6903.600000000007
 21
6788.666700827391
 31
0.0
  0
LINE
  5
1FB5A
330
747D
100
AcDbEntity
  8
センター
 48
2.0
100
AcDbLine
 10
8055.600000000008
 20
6049.666700827394
 30
0.0
 11
8155.600000000008
 21
6049.666700827394
 31
0.0
  0
CIRCLE
  5
1FB5B
330
747D
100
AcDbEntity
  8
部品1
 48
50.0
100
AcDbCircle
 10
8105.600000000007
 20
6049.666700827394
 30
0.0
 40
35.0
  0
LINE
  5
1FB5C
330
747D
100
AcDbEntity
  8
センター
 48
2.0
100
AcDbLine
 10
8105.600000000007
 20
6099.666700827394
 30
0.0
 11
8105.600000000007
 21
5999.666700827393
 31
0.0
  0
LINE
  5
1FB61
330
747D
100
AcDbEntity
  8
部品1
 48
50.0
100
AcDbLine
 10
8323.600000000007
 20
6688.666700827392
 30
0.0
 11
8323.600000000007
 21
6888.666700827392
 31
0.0
  0
LINE
  5
1FB62
330
747D
100
AcDbEntity
  8
部品1
 48
50.0
100
AcDbLine
 10
8123.600000000008
 20
6688.666700827392
 30
0.0
 11
8123.600000000008
 21
6888.666700827392
 31
0.0
  0
LINE
  5
1FB63
330
747D
100
AcDbEntity
  8
センター
 48
2.0
100
AcDbLine
 10
8223.600000000008
 20
6838.666700827392
 30
0.0
 11
8223.600000000008
 21
6738.666700827391
 31
0.0
  0
LINE
  5
1FB64
330
747D
100
AcDbEntity
  8
部品1
 48
50.0
100
AcDbLine
 10
8323.600000000007
 20
6688.666700827392
 30
0.0
 11
8123.600000000008
 21
6688.666700827392
 31
0.0
  0
LINE
  5
1FB65
330
747D
100
AcDbEntity
  8
部品1
 48
50.0
100
AcDbLine
 10
8323.600000000007
 20
6888.666700827392
 30
0.0
 11
8123.600000000008
 21
6888.666700827392
 31
0.0
  0
LINE
  5
1FB66
330
747D
100
AcDbEntity
  8
センター
 48
2.0
100
AcDbLine
 10
8173.600000000007
 20
6788.666700827391
 30
0.0
 11
8273.600000000007
 21
6788.666700827391
 31
0.0
  0
LINE
  5
1FB67
330
747D
100
AcDbEntity
  8
寸法
 48
50.0
100
AcDbLine
 10
8105.6
 20
8334.275517497637
 30
0.0
 11
7616.10007504358
 21
8334.275517497637
 31
0.0
  0
LINE
  5
1FB6C
330
747D
100
AcDbEntity
  8
寸法
 48
50.0
100
AcDbLine
 10
6853.600000000007
 20
8577.9331589213
 30
0.0
 11
7388.151108115739
 21
8577.9331589213
 31
0.0
  0
CIRCLE
  5
1FB6D
330
747D
100
AcDbEntity
  8
部品1
 48
50.0
100
AcDbCircle
 10
8105.6
 20
7528.666700827392
 30
0.0
 40
35.0
  0
LINE
  5
1FB6E
330
747D
100
AcDbEntity
  8
センター
 48
2.0
100
AcDbLine
 10
8105.6
 20
7578.666700827392
 30
0.0
 11
8105.6
 21
7478.666700827393
 31
0.0
  0
LINE
  5
1FB6F
330
747D
100
AcDbEntity
  8
センター
 48
2.0
100
AcDbLine
 10
8055.600000000001
 20
7528.666700827392
 30
0.0
 11
8155.600000000001
 21
7528.666700827392
 31
0.0
  0
LINE
  5
1FB71
330
747D
100
AcDbEntity
  8
寸法
 48
50.0
100
AcDbLine
 10
8223.600000000008
 20
8577.9331589213
 30
0.0
 11
7734.100075043587
 21
8577.9331589213
 31
0.0
  0
DIMENSION
  5
1FB76
330
747D
100
AcDbEntity
  8
寸法
 48
50.0
100
AcDbDimension
  2
*D29
 10
9195.649102633089
 20
5851.666700827406
 30
0.0
 11
9195.649102633087
 21
5564.70311815024
 31
0.0
 70
   160
 71
     5
 42
280.0000000000018
  3
INABA_S40G
100
AcDbAlignedDimension
 13
9090.851516111312
 23
6131.666700827408
 33
0.0
 14
9090.851516111312
 24
5851.666700827406
 34
0.0
 50
90.0
100
AcDbRotatedDimension
1001
ACAD
1000
DSTYLE
1002
{
1070
   341
1005
0
1002
}
  0
DIMENSION
  5
1FC2E
330
747D
100
AcDbEntity
  8
寸法
 48
50.0
100
AcDbDimension
  2
*D30
 10
9593.600000000007
 20
8577.9331589213
 30
0.0
 11
10346.02212135149
 21
8577.9331589213
 31
0.0
 70
   160
 71
     5
 42
1374.999999999993
  3
INABA_S40G
100
AcDbAlignedDimension
 13
10968.6
 23
7651.666700827391
 33
0.0
 14
9593.600000000007
 24
8334.275517497637
 34
0.0
100
AcDbRotatedDimension
1001
ACAD
1000
DSTYLE
1002
{
1070
   341
1005
0
1002
}
  0
DIMENSION
  5
1FC2F
330
747D
100
AcDbEntity
  8
寸法
 48
50.0
100
AcDbDimension
  2
*D31
 10
9475.6
 20
8334.275517497637
 30
0.0
 11
10160.6
 21
8434.275517497637
 31
0.0
 70
    32
 71
     5
 42
1370.0
  3
INABA_S40G
100
AcDbAlignedDimension
 13
10845.6
 23
7578.666700827392
 33
0.0
 14
9475.6
 24
7578.666700827392
 34
0.0
100
AcDbRotatedDimension
1001
ACAD
1000
DSTYLE
1002
{
1070
   341
1005
0
1002
}
  0
DIMENSION
  5
1FC30
330
747D
100
AcDbEntity
  8
寸法
 48
50.0
100
AcDbDimension
  2
*D32
 10
7900.202738780326
 20
7651.666700827391
 30
0.0
 11
7800.202738780325
 21
7220.166700827393
 31
0.0
 70
    32
 71
     5
 42
863.0
  3
INABA_S40G
100
AcDbAlignedDimension
 13
7588.600000000008
 23
6788.666700827391
 33
0.0
 14
8013.600000000002
 24
7651.666700827391
 34
0.0
 50
90.0
100
AcDbRotatedDimension
1001
ACAD
1000
DSTYLE
1002
{
1070
   341
1005
0
1002
}
  0
LINE
  5
1FC33
330
747D
100
AcDbEntity
  8
細線
 48
50.0
100
AcDbLine
 10
8808.600000000017
 20
6060.960812673137
 30
0.0
 11
8879.305888154283
 21
6131.666700827405
 31
0.0
  0
LINE
  5
1FC34
330
747D
100
AcDbEntity
  8
細線
 48
50.0
100
AcDbLine
 10
8823.812291181008
 20
5851.666700827399
 30
0.0
 11
9008.60000000002
 21
6036.454409646413
 31
0.0
  0
LINE
  5
1FC35
330
747D
100
AcDbEntity
  8
細線
 48
50.0
100
AcDbLine
 10
8808.600000000017
 20
5881.355690251753
 30
0.0
 11
9008.600000000019
 21
6081.355690251757
 31
0.0
  0
LINE
  5
1FC36
330
747D
100
AcDbEntity
  8
細線
 48
50.0
100
AcDbLine
 10
8808.600000000017
 20
5926.2569708571
 30
0.0
 11
9008.60000000002
 21
6126.256970857103
 31
0.0
  0
LINE
  5
1FC37
330
747D
100
AcDbEntity
  8
細線
 48
50.0
100
AcDbLine
 10
8808.600000000017
 20
5971.158251462445
 30
0.0
 11
8969.108449364979
 21
6131.666700827405
 31
0.0
  0
LINE
  5
1FC38
330
747D
100
AcDbEntity
  8
細線
 48
50.0
100
AcDbLine
 10
8808.600000000017
 20
6016.05953206779
 30
0.0
 11
8924.207168759613
 21
6131.666700827402
 31
0.0
  0
LINE
  5
1FC39
330
747D
100
AcDbEntity
  8
部品1
 48
50.0
100
AcDbLine
 10
8808.600000000017
 20
5851.666700827406
 30
0.0
 11
8808.600000000023
 21
6131.666700827405
 31
0.0
  0
LINE
  5
1FC3A
330
747D
100
AcDbEntity
  8
細線
 48
50.0
100
AcDbLine
 10
8808.600000000017
 20
6105.862093278482
 30
0.0
 11
8834.404607548934
 21
6131.666700827405
 31
0.0
  0
LINE
  5
1FC3B
330
747D
100
AcDbEntity
  8
細線
 48
50.0
100
AcDbLine
 10
8913.614852391706
 20
5851.666700827403
 30
0.0
 11
9008.600000000019
 21
5946.651848435717
 31
0.0
  0
LINE
  5
1FC3C
330
747D
100
AcDbEntity
  8
細線
 48
50.0
100
AcDbLine
 10
8868.713571786356
 20
5851.666700827399
 30
0.0
 11
9008.600000000019
 21
5991.553129041062
 31
0.0
  0
LINE
  5
1FC3D
330
747D
100
AcDbEntity
  8
部品1
 48
50.0
100
AcDbLine
 10
9008.600000000017
 20
5851.666700827406
 30
0.0
 11
9008.60000000002
 21
6131.666700827405
 31
0.0
  0
LINE
  5
1FC3E
330
747D
100
AcDbEntity
  8
細線
 48
50.0
100
AcDbLine
 10
9003.417413602399
 20
5851.666700827406
 30
0.0
 11
9008.600000000019
 21
5856.849287225025
 31
0.0
  0
LINE
  5
1FC3F
330
747D
100
AcDbEntity
  8
細線
 48
50.0
100
AcDbLine
 10
8958.516132997051
 20
5851.666700827404
 30
0.0
 11
9008.600000000019
 21
5901.75056783037
 31
0.0
  0
DIMENSION
  5
1FC40
330
747D
100
AcDbEntity
  8
寸法
 48
50.0
100
AcDbDimension
  2
*D33
 10
7900.202738780326
 20
6788.666700827391
 30
0.0
 11
7900.202738780325
 21
6310.358868503245
 31
0.0
 70
   160
 71
     5
 42
936.9999999999917
  3
INABA_S40G
100
AcDbAlignedDimension
 13
7638.600000000017
 23
5851.6667008274
 33
0.0
 14
7588.600000000008
 24
6788.666700827391
 34
0.0
 50
90.0
100
AcDbRotatedDimension
1001
ACAD
1000
DSTYLE
1002
{
1070
   341
1005
0
1002
}
  0
CIRCLE
  5
1FC41
330
747D
100
AcDbEntity
  8
部品1
 48
50.0
100
AcDbCircle
 10
9475.600000000007
 20
6049.666700827394
 30
0.0
 40
35.0
  0
LINE
  5
1FC42
330
747D
100
AcDbEntity
  8
センター
 48
2.0
100
AcDbLine
 10
9425.600000000008
 20
6049.666700827394
 30
0.0
 11
9525.600000000007
 21
6049.666700827394
 31
0.0
  0
LINE
  5
1FC43
330
747D
100
AcDbEntity
  8
センター
 48
2.0
100
AcDbLine
 10
9475.600000000007
 20
6099.666700827394
 30
0.0
 11
9475.600000000007
 21
5999.666700827393
 31
0.0
  0
LINE
  5
1FC44
330
747D
100
AcDbEntity
  8
部品1
 48
50.0
100
AcDbLine
 10
9693.600000000008
 20
6888.666700827392
 30
0.0
 11
9493.600000000007
 21
6888.666700827392
 31
0.0
  0
LINE
  5
1FC45
330
747D
100
AcDbEntity
  8
部品1
 48
50.0
100
AcDbLine
 10
9693.600000000008
 20
6688.666700827392
 30
0.0
 11
9493.600000000007
 21
6688.666700827392
 31
0.0
  0
LINE
  5
1FC46
330
747D
100
AcDbEntity
  8
センター
 48
2.0
100
AcDbLine
 10
9593.600000000007
 20
6838.666700827392
 30
0.0
 11
9593.600000000007
 21
6738.666700827391
 31
0.0
  0
LINE
  5
1FC47
330
747D
100
AcDbEntity
  8
部品1
 48
50.0
100
AcDbLine
 10
9493.600000000007
 20
6688.666700827392
 30
0.0
 11
9493.600000000007
 21
6888.666700827392
 31
0.0
  0
LINE
  5
1FC48
330
747D
100
AcDbEntity
  8
センター
 48
2.0
100
AcDbLine
 10
9543.600000000008
 20
6788.666700827391
 30
0.0
 11
9643.600000000008
 21
6788.666700827391
 31
0.0
  0
LINE
  5
1FC49
330
747D
100
AcDbEntity
  8
部品1
 48
50.0
100
AcDbLine
 10
9693.600000000008
 20
6688.666700827392
 30
0.0
 11
9693.600000000008
 21
6888.666700827392
 31
0.0
  0
DIMENSION
  5
1FC4A
330
747D
100
AcDbEntity
  8
寸法
 48
50.0
100
AcDbDimension
  2
*D34
 10
9195.649102633089
 20
7451.66670082735
 30
0.0
 11
9195.649102633089
 21
7938.630283504558
 31
0.0
 70
   160
 71
     5
 42
200.0000000000418
  3
INABA_S40G
100
AcDbAlignedDimension
 13
9303.779728401337
 23
7651.666700827391
 33
0.0
 14
9345.600000000008
 24
7451.66670082735
 34
0.0
 50
90.0
100
AcDbRotatedDimension
1001
ACAD
1000
DSTYLE
1002
{
1070
   341
1005
0
1002
}
  0
LINE
  5
1FC4B
330
747D
100
AcDbEntity
  8
細線
 48
50.0
100
AcDbLine
 10
8836.37899544195
 20
7451.666700827333
 30
0.0
 11
9008.599999999999
 21
7623.88770538538
 31
0.0
  0
LINE
  5
1FC4C
330
747D
100
AcDbEntity
  8
細線
 48
50.0
100
AcDbLine
 10
8808.6
 20
7468.788985990727
 30
0.0
 11
8991.477714836666
 21
7651.666700827391
 31
0.0
  0
LINE
  5
1FC4D
330
747D
100
AcDbEntity
  8
細線
 48
50.0
100
AcDbLine
 10
8808.6
 20
7513.690266596073
 30
0.0
 11
8946.576434231319
 21
7651.666700827391
 31
0.0
  0
LINE
  5
1FC4E
330
747D
100
AcDbEntity
  8
細線
 48
50.0
100
AcDbLine
 10
8808.6
 20
7558.591547201418
 30
0.0
 11
8901.675153625975
 21
7651.666700827391
 31
0.0
  0
LINE
  5
1FC4F
330
747D
100
AcDbEntity
  8
細線
 48
50.0
100
AcDbLine
 10
8808.6
 20
7603.492827806762
 30
0.0
 11
8856.773873020626
 21
7651.66670082739
 31
0.0
  0
LINE
  5
1FC50
330
747D
100
AcDbEntity
  8
部品1
 48
50.0
100
AcDbLine
 10
8808.6
 20
7451.666700827333
 30
0.0
 11
8808.6
 21
7651.666700827391
 31
0.0
  0
LINE
  5
1FC51
330
747D
100
AcDbEntity
  8
細線
 48
50.0
100
AcDbLine
 10
8808.6
 20
7648.39410841211
 30
0.0
 11
8811.872592415282
 21
7651.66670082739
 31
0.0
  0
LINE
  5
1FC52
330
747D
100
AcDbEntity
  8
細線
 48
50.0
100
AcDbLine
 10
8926.181556652643
 20
7451.666700827336
 30
0.0
 11
9008.599999999999
 21
7534.08514417469
 31
0.0
  0
LINE
  5
1FC53
330
747D
100
AcDbEntity
  8
細線
 48
50.0
100
AcDbLine
 10
8881.280276047297
 20
7451.666700827336
 30
0.0
 11
9008.599999999999
 21
7578.986424780035
 31
0.0
  0
LINE
  5
1FC54
330
747D
100
AcDbEntity
  8
部品1
 48
50.0
100
AcDbLine
 10
9008.599999999999
 20
7451.666700827338
 30
0.0
 11
9008.599999999999
 21
7651.666700827391
 31
0.0
  0
LINE
  5
1FC55
330
747D
100
AcDbEntity
  8
細線
 48
50.0
100
AcDbLine
 10
8971.082837257993
 20
7451.666700827338
 30
0.0
 11
9008.599999999999
 21
7489.183863569344
 31
0.0
  0
LINE
  5
1FC56
330
747D
100
AcDbEntity
  8
センター
 48
2.0
100
AcDbLine
 10
9475.6
 20
7578.666700827392
 30
0.0
 11
9475.6
 21
7478.666700827393
 31
0.0
  0
CIRCLE
  5
1FC57
330
747D
100
AcDbEntity
  8
部品1
 48
50.0
100
AcDbCircle
 10
9475.6
 20
7528.666700827392
 30
0.0
 40
35.0
  0
LINE
  5
1FC58
330
747D
100
AcDbEntity
  8
センター
 48
2.0
100
AcDbLine
 10
9425.600000000001
 20
7528.666700827392
 30
0.0
 11
9525.6
 21
7528.666700827392
 31
0.0
  0
DIMENSION
  5
1FC59
330
747D
100
AcDbEntity
  8
寸法
 48
50.0
100
AcDbDimension
  2
*D35
 10
10848.6
 20
7141.975949038131
 30
0.0
 11
11238.65905511811
 21
7141.975949038131
 31
0.0
 70
   160
 71
     5
 42
120.0
  3
INABA_S40G
100
AcDbAlignedDimension
 13
10968.6
 23
7009.684616538511
 33
0.0
 14
10848.6
 24
7009.684616538511
 34
0.0
100
AcDbRotatedDimension
1001
ACAD
1000
DSTYLE
1002
{
1070
   341
1005
0
1002
}
  0
LINE
  5
1FC5B
102
{ACAD_REACTORS
330
219BC
102
}
330
747D
100
AcDbEntity
  8
部品1
 48
50.0
100
AcDbLine
 10
10968.6
 20
5851.66670082741
 30
0.0
 11
10968.6
 21
7651.666700827391
 31
0.0
  0
LINE
  5
1FC5C
102
{ACAD_REACTORS
330
219BC
102
}
330
747D
100
AcDbEntity
  8
部品1
 48
50.0
100
AcDbLine
 10
10968.6
 20
6861.780272613744
 30
0.0
 11
10848.6
 21
6861.780272613741
 31
0.0
  0
LINE
  5
1FC5D
102
{ACAD_REACTORS
330
219BC
102
}
330
747D
100
AcDbEntity
  8
部品1
 48
50.0
100
AcDbLine
 10
10968.6
 20
6661.780272613744
 30
0.0
 11
10848.6
 21
6661.780272613741
 31
0.0
  0
LINE
  5
1FC5F
330
747D
100
AcDbEntity
  8
細線
 48
50.0
100
AcDbLine
 10
10283.6148523917
 20
5851.666700827403
 30
0.0
 11
10378.60000000002
 21
5946.651848435717
 31
0.0
  0
LINE
  5
1FC60
330
747D
100
AcDbEntity
  8
細線
 48
50.0
100
AcDbLine
 10
10238.71357178635
 20
5851.666700827399
 30
0.0
 11
10378.60000000002
 21
5991.553129041062
 31
0.0
  0
LINE
  5
1FC61
330
747D
100
AcDbEntity
  8
細線
 48
50.0
100
AcDbLine
 10
10193.81229118101
 20
5851.666700827399
 30
0.0
 11
10378.60000000002
 21
6036.45440964641
 31
0.0
  0
LINE
  5
1FC62
330
747D
100
AcDbEntity
  8
細線
 48
50.0
100
AcDbLine
 10
10178.60000000001
 20
5881.355690251753
 30
0.0
 11
10378.60000000002
 21
6081.355690251754
 31
0.0
  0
LINE
  5
1FC63
330
747D
100
AcDbEntity
  8
細線
 48
50.0
100
AcDbLine
 10
10178.60000000002
 20
5926.2569708571
 30
0.0
 11
10378.60000000002
 21
6126.256970857102
 31
0.0
  0
LINE
  5
1FC64
330
747D
100
AcDbEntity
  8
部品1
 48
50.0
100
AcDbLine
 10
10378.60000000002
 20
5851.666700827406
 30
0.0
 11
10378.60000000002
 21
6131.666700827406
 31
0.0
  0
LINE
  5
1FC65
330
747D
100
AcDbEntity
  8
部品1
 48
50.0
100
AcDbLine
 10
10178.60000000001
 20
5851.666700827406
 30
0.0
 11
10178.60000000002
 21
6131.666700827406
 31
0.0
  0
LINE
  5
1FC66
330
747D
100
AcDbEntity
  8
細線
 48
50.0
100
AcDbLine
 10
10373.4174136024
 20
5851.666700827406
 30
0.0
 11
10378.60000000002
 21
5856.849287225025
 31
0.0
  0
LINE
  5
1FC67
330
747D
100
AcDbEntity
  8
細線
 48
50.0
100
AcDbLine
 10
10328.51613299705
 20
5851.666700827404
 30
0.0
 11
10378.60000000002
 21
5901.75056783037
 31
0.0
  0
LINE
  5
1FC68
330
747D
100
AcDbEntity
  8
細線
 48
50.0
100
AcDbLine
 10
10178.60000000001
 20
5971.158251462445
 30
0.0
 11
10339.10844936498
 21
6131.666700827406
 31
0.0
  0
LINE
  5
1FC69
330
747D
100
AcDbEntity
  8
細線
 48
50.0
100
AcDbLine
 10
10178.60000000001
 20
6016.05953206779
 30
0.0
 11
10294.20716875967
 21
6131.666700827406
 31
0.0
  0
LINE
  5
1FC6A
330
747D
100
AcDbEntity
  8
細線
 48
50.0
100
AcDbLine
 10
10178.60000000001
 20
6060.960812673137
 30
0.0
 11
10249.30588815429
 21
6131.66670082741
 31
0.0
  0
LINE
  5
1FC6B
330
747D
100
AcDbEntity
  8
細線
 48
50.0
100
AcDbLine
 10
10178.60000000001
 20
6105.862093278482
 30
0.0
 11
10204.40460754895
 21
6131.666700827408
 31
0.0
  0
LINE
  5
1FC6C
330
747D
100
AcDbEntity
  8
センター
 48
2.0
100
AcDbLine
 10
10795.6
 20
6049.666700827394
 30
0.0
 11
10895.6
 21
6049.666700827394
 31
0.0
  0
CIRCLE
  5
1FC6D
330
747D
100
AcDbEntity
  8
部品1
 48
50.0
100
AcDbCircle
 10
10845.60000000001
 20
6049.666700827394
 30
0.0
 40
35.0
  0
LINE
  5
1FC6E
330
747D
100
AcDbEntity
  8
センター
 48
2.0
100
AcDbLine
 10
10845.60000000001
 20
6099.666700827394
 30
0.0
 11
10845.60000000001
 21
5999.666700827393
 31
0.0
  0
DIMENSION
  5
1FC6F
330
747D
100
AcDbEntity
  8
寸法
 48
50.0
100
AcDbDimension
  2
*D36
 10
10845.6
 20
8334.275517497637
 30
0.0
 11
11241.7066017178
 21
8334.275517497637
 31
0.0
 70
   160
 71
     5
 42
123.0
  3
INABA_S40G
100
AcDbAlignedDimension
 13
10968.6
 23
7651.666700827391
 33
0.0
 14
10845.6
 24
7578.666700827392
 34
0.0
100
AcDbRotatedDimension
1001
ACAD
1000
DSTYLE
1002
{
1070
   341
1005
0
1002
}
  0
LINE
  5
1FC70
330
747D
100
AcDbEntity
  8
部品1
 48
50.0
100
AcDbLine
 10
10378.6
 20
7451.666700827377
 30
0.0
 11
10378.6
 21
7651.666700827391
 31
0.0
  0
LINE
  5
1FC71
330
747D
100
AcDbEntity
  8
細線
 48
50.0
100
AcDbLine
 10
10296.18155665269
 20
7451.666700827377
 30
0.0
 11
10378.6
 21
7534.08514417469
 31
0.0
  0
LINE
  5
1FC72
330
747D
100
AcDbEntity
  8
細線
 48
50.0
100
AcDbLine
 10
10251.28027604734
 20
7451.666700827376
 30
0.0
 11
10378.6
 21
7578.986424780035
 31
0.0
  0
LINE
  5
1FC73
330
747D
100
AcDbEntity
  8
細線
 48
50.0
100
AcDbLine
 10
10206.37899544199
 20
7451.666700827374
 30
0.0
 11
10378.6
 21
7623.88770538538
 31
0.0
  0
LINE
  5
1FC74
330
747D
100
AcDbEntity
  8
細線
 48
50.0
100
AcDbLine
 10
10178.6
 20
7468.788985990729
 30
0.0
 11
10361.47771483666
 21
7651.66670082739
 31
0.0
  0
LINE
  5
1FC75
330
747D
100
AcDbEntity
  8
細線
 48
50.0
100
AcDbLine
 10
10178.6
 20
7513.690266596073
 30
0.0
 11
10316.57643423132
 21
7651.666700827391
 31
0.0
  0
LINE
  5
1FC76
330
747D
100
AcDbEntity
  8
部品1
 48
50.0
100
AcDbLine
 10
10178.6
 20
7451.666700827371
 30
0.0
 11
10178.6
 21
7651.666700827391
 31
0.0
  0
LINE
  5
1FC77
330
747D
100
AcDbEntity
  8
細線
 48
50.0
100
AcDbLine
 10
10341.08283725803
 20
7451.666700827374
 30
0.0
 11
10378.6
 21
7489.183863569344
 31
0.0
  0
LINE
  5
1FC78
330
747D
100
AcDbEntity
  8
細線
 48
50.0
100
AcDbLine
 10
10178.6
 20
7558.591547201418
 30
0.0
 11
10271.67515362597
 21
7651.666700827391
 31
0.0
  0
LINE
  5
1FC79
330
747D
100
AcDbEntity
  8
細線
 48
50.0
100
AcDbLine
 10
10178.6
 20
7603.492827806762
 30
0.0
 11
10226.77387302062
 21
7651.666700827391
 31
0.0
  0
LINE
  5
1FC7A
330
747D
100
AcDbEntity
  8
細線
 48
50.0
100
AcDbLine
 10
10178.6
 20
7648.39410841211
 30
0.0
 11
10181.87259241528
 21
7651.666700827391
 31
0.0
  0
LINE
  5
1FC7B
330
747D
100
AcDbEntity
  8
センター
 48
2.0
100
AcDbLine
 10
10845.6
 20
7578.666700827392
 30
0.0
 11
10845.6
 21
7478.666700827393
 31
0.0
  0
CIRCLE
  5
1FC7C
330
747D
100
AcDbEntity
  8
部品1
 48
50.0
100
AcDbCircle
 10
10845.6
 20
7528.666700827392
 30
0.0
 40
35.0
  0
LINE
  5
1FC7D
330
747D
100
AcDbEntity
  8
センター
 48
2.0
100
AcDbLine
 10
10795.6
 20
7528.666700827392
 30
0.0
 11
10895.6
 21
7528.666700827392
 31
0.0
  0
LEADER
  5
202B8
330
747D
100
AcDbEntity
  8
寸法
 48
50.0
100
AcDbLeader
  3
INABA_S50G
 73
     0
 74
     0
 75
     1
 40
120.0
 41
149.591883092037
 76
     3
 10
8271.424765008514
 20
6726.691378131697
 30
0.0
 10
8397.269739003663
 20
6465.677464563865
 30
0.0
 10
8522.269739003663
 20
6465.677464563865
 30
0.0
340
202B9
213
49.59188309203728
223
0.0
233
0.0
1001
ACAD
1000
DSTYLE
1002
{
1070
   341
1005
0
1070
    40
1040
1.0
1070
   343
1005
0
1070
   344
1005
0
1002
}
  0
MTEXT
  5
202B9
102
{ACAD_REACTORS
330
202B8
102
}
330
747D
100
AcDbEntity
  8
部品1
 62
     7
 48
50.0
100
AcDbMText
 10
8647.269739003661
 20
6550.677464563865
 30
0.0
 40
120.0
 41
0.0
 71
     6
 72
     1
  1
CB
  7
STYLE1
 73
     1
 44
1.0
1001
ACAD
1000
MTEXTBEGIN
1070
    73
1070
     1
1070
    44
1040
1.0
1070
    74
1070
     0
1000
MTEXTEND
  0
LEADER
  5
202BB
330
747D
100
AcDbEntity
  8
寸法
 48
50.0
100
AcDbLeader
  3
INABA_S50G
 73
     0
 74
     0
 75
     1
 40
120.0
 41
994.3492424049171
 76
     3
 10
10845.68008575699
 20
7528.680424023606
 30
0.0
 10
11039.64450095955
 20
8057.927054138712
 30
0.0
 10
11164.64450095955
 20
8057.927054138712
 30
0.0
340
202BC
1001
ACAD
1000
DSTYLE
1002
{
1070
   341
1005
0
1070
    40
1040
1.0
1070
   343
1005
0
1070
   344
1005
0
1002
}
  0
MTEXT
  5
202BC
102
{ACAD_REACTORS
330
202BB
102
}
330
747D
100
AcDbEntity
  8
部品1
 62
     7
 48
50.0
100
AcDbMText
 10
12183.99374336447
 20
8142.927054138713
 30
0.0
 40
120.0
 41
0.0
 71
     6
 72
     1
  1
アンカーボルト
  7
STYLE1
 73
     1
 44
1.0
1001
ACAD
1000
MTEXTBEGIN
1070
    73
1070
     1
1070
    44
1040
1.0
1070
    74
1070
     0
1000
MTEXTEND
  0
LINE
  5
202BD
330
747D
100
AcDbEntity
  8
想像線
 48
10.0
100
AcDbLine
 10
11013.6
 20
7726.666700827391
 30
0.0
 11
7522.929848731464
 21
7726.666700827394
 31
0.0
  0
LINE
  5
202BE
330
747D
100
AcDbEntity
  8
想像線
 48
10.0
100
AcDbLine
 10
11013.6
 20
5796.666700827413
 30
0.0
 11
7005.7879073394
 21
5796.666700827405
 31
0.0
  0
LINE
  5
202BF
330
747D
100
AcDbEntity
  8
想像線
 48
10.0
100
AcDbLine
 10
5433.600000000001
 20
5796.666700827403
 30
0.0
 11
5433.600000000001
 21
7726.666700827394
 31
0.0
  0
LINE
  5
202C0
330
747D
100
AcDbEntity
  8
想像線
 48
10.0
100
AcDbLine
 10
11013.6
 20
5796.666700827413
 30
0.0
 11
11013.6
 21
7726.666700827391
 31
0.0
  0
DIMENSION
  5
202C8
330
747D
100
AcDbEntity
  8
寸法
 48
50.0
100
AcDbDimension
  2
*D37
 10
11013.6
 20
8809.887022886313
 30
0.0
 11
11284.77462120246
 21
8809.887022886313
 31
0.0
 70
   160
  1
a
 71
     5
 42
45.0
  3
INABA_S40G
100
AcDbAlignedDimension
 13
10968.6
 23
7651.666700827391
 33
0.0
 14
11013.6
 24
8334.275517497637
 34
0.0
100
AcDbRotatedDimension
1001
ACAD
1000
DSTYLE
1002
{
1070
   341
1005
0
1002
}
  0
TEXT
  5
202EB
330
747D
100
AcDbEntity
  8
寸法
 48
50.0
100
AcDbText
 10
8418.310648592354
 20
5883.326888186303
 30
0.0
 40
96.0
  1
扉面
  7
STYLE1
100
AcDbText
  0
LEADER
  5
202FA
330
747D
100
AcDbEntity
  8
寸法
 48
50.0
100
AcDbLeader
  3
INABA_S50G
 73
     0
 74
     0
 75
     1
 40
120.0
 41
672.0
 76
     3
 10
10297.05913284934
 20
5796.456972752633
 30
0.0
 10
10412.99914504139
 20
5537.567629289057
 30
0.0
 10
10537.99914504139
 20
5537.567629289057
 30
0.0
340
202FB
1001
ACAD
1000
DSTYLE
1002
{
1070
   341
1005
0
1070
    40
1040
1.0
1070
   343
1005
0
1070
   344
1005
0
1002
}
  0
MTEXT
  5
202FB
102
{ACAD_REACTORS
330
202FA
102
}
330
747D
100
AcDbEntity
  8
部品1
 62
     7
 48
50.0
100
AcDbMText
 10
11234.99914504139
 20
5622.567629289058
 30
0.0
 40
120.0
 41
0.0
 71
     6
 72
     1
  1
\A1;屋根の外寸
  7
STYLE1
 73
     1
 44
1.0
1001
ACAD
1000
MTEXTBEGIN
1070
    73
1070
     1
1070
    44
1040
1.0
1070
    74
1070
     0
1000
MTEXTEND
  0
TEXT
  5
202FC
330
747D
100
AcDbEntity
  8
部品1
 48
50.0
100
AcDbText
 10
10437.21194905278
 20
5443.256942355983
 30
0.0
 40
80.0
  1
※a,b,cは屋根の出幅です。
  7
STYLE1
100
AcDbText
  0
TEXT
  5
202FD
330
747D
100
AcDbEntity
  8
部品1
 48
50.0
100
AcDbText
 10
10595.79095780708
 20
5336.411721487229
 30
0.0
 40
80.0
  1
(a=45,b=55,c=75)
  7
STYLE1
100
AcDbText
  0
MTEXT
  5
202FE
102
{ACAD_REACTORS
330
202FF
102
}
330
747D
100
AcDbEntity
  8
部品1
 62
     7
 48
50.0
100
AcDbMText
 10
11995.46907400127
 20
6580.75497491905
 30
0.0
 40
120.0
 41
0.0
 71
     6
 72
     1
  1
\A1;床下換気口
  7
STYLE1
 73
     1
 44
1.0
1001
ACAD
1000
MTEXTBEGIN
1070
    73
1070
     1
1070
    44
1040
1.0
1070
    74
1070
     0
1000
MTEXTEND
  0
LEADER
  5
202FF
330
747D
100
AcDbEntity
  8
寸法
 48
50.0
100
AcDbLeader
  3
INABA_S50G
 73
     0
 74
     0
 75
     1
 40
120.0
 41
720.0000000000001
 76
     3
 10
10968.69549961499
 20
6756.768888486883
 30
0.0
 10
11125.46907400127
 20
6495.754974919049
 30
0.0
 10
11250.46907400127
 20
6495.754974919049
 30
0.0
340
202FE
1001
ACAD
1000
DSTYLE
1002
{
1070
   341
1005
0
1070
    40
1040
1.0
1070
   343
1005
0
1070
   344
1005
0
1002
}
  0
DIMENSION
  5
2030F
330
747D
100
AcDbEntity
  8
寸法
 48
50.0
100
AcDbDimension
  2
*D38
 10
4342.144256711883
 20
7651.666700827393
 30
0.0
 11
4242.144256711882
 21
7689.166700827394
 31
0.0
 70
    32
  1
c
 71
     5
 42
75.00000000000091
  3
INABA_S40G
100
AcDbAlignedDimension
 13
4594.087353431279
 23
7726.666700827394
 33
0.0
 14
5478.599999999999
 24
7651.666700827393
 34
0.0
 50
90.0
100
AcDbRotatedDimension
1001
ACAD
1000
DSTYLE
1002
{
1070
   341
1005
0
1002
}
  0
DIMENSION
  5
20311
330
747D
100
AcDbEntity
  8
寸法
 48
50.0
100
AcDbDimension
  2
*D39
 10
5478.599999999999
 20
8809.887022886313
 30
0.0
 11
5162.425378797541
 21
8809.887022886313
 31
0.0
 70
   160
  1
a
 71
     5
 42
44.99999999999727
  3
INABA_S40G
100
AcDbAlignedDimension
 13
5433.600000000001
 23
8334.275517497637
 33
0.0
 14
5478.599999999999
 24
7651.666700827393
 34
0.0
100
AcDbRotatedDimension
1001
ACAD
1000
DSTYLE
1002
{
1070
   341
1005
0
1002
}
  0
DIMENSION
  5
2031B
330
747D
100
AcDbEntity
  8
寸法
 48
50.0
100
AcDbDimension
  2
*D40
 10
4342.144256711883
 20
5796.666700827403
 30
0.0
 11
4242.144256711882
 21
5824.166700827397
 31
0.0
 70
    32
  1
b
 71
     5
 42
54.99999999998909
  3
INABA_S40G
100
AcDbAlignedDimension
 13
5478.6
 23
5851.666700827392
 33
0.0
 14
4594.087353431281
 24
5796.666700827403
 34
0.0
 50
90.0
100
AcDbRotatedDimension
1001
ACAD
1000
DSTYLE
1002
{
1070
   341
1005
0
1002
}
  0
LINE
  5
2073A
330
747D
100
AcDbEntity
  8
センター
 48
2.0
100
AcDbLine
 10
5651.600000000001
 20
7528.666700827392
 30
0.0
 11
5551.6
 21
7528.666700827392
 31
0.0
  0
CIRCLE
  5
2073B
330
747D
100
AcDbEntity
  8
部品1
 48
50.0
100
AcDbCircle
 10
5601.600000000001
 20
7528.666700827392
 30
0.0
 40
35.0
  0
LINE
  5
2073C
330
747D
100
AcDbEntity
  8
センター
 48
2.0
100
AcDbLine
 10
5601.600000000001
 20
7578.666700827392
 30
0.0
 11
5601.600000000001
 21
7478.666700827393
 31
0.0
  0
LINE
  5
20749
330
747D
100
AcDbEntity
  8
センター
 48
2.0
100
AcDbLine
 10
5601.599999999994
 20
6099.666700827394
 30
0.0
 11
5601.599999999994
 21
5999.666700827393
 31
0.0
  0
CIRCLE
  5
2074A
330
747D
100
AcDbEntity
  8
部品1
 48
50.0
100
AcDbCircle
 10
5601.599999999994
 20
6049.666700827394
 30
0.0
 40
35.0
  0
LINE
  5
2074B
330
747D
100
AcDbEntity
  8
センター
 48
2.0
100
AcDbLine
 10
5651.599999999993
 20
6049.666700827394
 30
0.0
 11
5551.599999999993
 21
6049.666700827394
 31
0.0
  0
LINE
  5
2075A
102
{ACAD_REACTORS
330
219D6
102
}
330
747D
100
AcDbEntity
  8
部品1
 48
50.0
100
AcDbLine
 10
5478.6
 20
6661.780272613744
 30
0.0
 11
5598.6
 21
6661.780272613741
 31
0.0
  0
LINE
  5
2075B
102
{ACAD_REACTORS
330
219D6
102
}
330
747D
100
AcDbEntity
  8
部品1
 48
50.0
100
AcDbLine
 10
5478.6
 20
6861.780272613744
 30
0.0
 11
5598.6
 21
6861.780272613741
 31
0.0
  0
LINE
  5
20A63
330
747D
100
AcDbEntity
  8
センター
 48
2.0
100
AcDbLine
 10
6685.6
 20
7528.666700827392
 30
0.0
 11
6785.600000000001
 21
7528.666700827392
 31
0.0
  0
LINE
  5
20A64
330
747D
100
AcDbEntity
  8
センター
 48
2.0
100
AcDbLine
 10
6735.600000000001
 20
7578.666700827392
 30
0.0
 11
6735.600000000001
 21
7478.666700827393
 31
0.0
  0
CIRCLE
  5
20A65
330
747D
100
AcDbEntity
  8
部品1
 48
50.0
100
AcDbCircle
 10
6735.600000000001
 20
7528.666700827392
 30
0.0
 40
35.0
  0
LINE
  5
20A66
330
747D
100
AcDbEntity
  8
センター
 48
2.0
100
AcDbLine
 10
6735.600000000008
 20
6099.666700827394
 30
0.0
 11
6735.600000000008
 21
5999.666700827393
 31
0.0
  0
CIRCLE
  5
20A67
330
747D
100
AcDbEntity
  8
部品1
 48
50.0
100
AcDbCircle
 10
6735.600000000008
 20
6049.666700827394
 30
0.0
 40
35.0
  0
LINE
  5
20A68
330
747D
100
AcDbEntity
  8
センター
 48
2.0
100
AcDbLine
 10
6685.600000000007
 20
6049.666700827394
 30
0.0
 11
6785.600000000008
 21
6049.666700827394
 31
0.0
  0
MTEXT
  5
20A84
330
747D
100
AcDbEntity
  8
寸法
 62
     7
 48
50.0
100
AcDbMText
 10
7073.083685065679
 20
8428.477962883482
 30
0.0
 40
120.0
 41
0.0
 71
     5
 72
     1
  1
\A1;1370
  7
STYLE1
 73
     1
 44
1.0
1001
ACAD
1000
MTEXTBEGIN
1070
    73
1070
     1
1070
    44
1040
1.0
1070
    74
1070
     0
1000
MTEXTEND
  0
MTEXT
  5
20A85
330
747D
100
AcDbEntity
  8
寸法
 62
     7
 48
50.0
100
AcDbMText
 10
7857.368100093373
 20
8428.477962883482
 30
0.0
 40
120.0
 41
0.0
 71
     5
 72
     1
  1
\A1;1370
  7
STYLE1
 73
     1
 44
1.0
1001
ACAD
1000
MTEXTBEGIN
1070
    73
1070
     1
1070
    44
1040
1.0
1070
    74
1070
     0
1000
MTEXTEND
  0
MTEXT
  5
20A86
330
747D
100
AcDbEntity
  8
寸法
 62
     7
 48
50.0
100
AcDbMText
 10
7943.344182203322
 20
8678.011891821036
 30
0.0
 40
120.0
 41
0.0
 71
     5
 72
     1
  1
\A1;1370
  7
STYLE1
 73
     1
 44
1.0
1001
ACAD
1000
MTEXTBEGIN
1070
    73
1070
     1
1070
    44
1040
1.0
1070
    74
1070
     0
1000
MTEXTEND
  0
MTEXT
  5
20A87
330
747D
100
AcDbEntity
  8
寸法
 62
     7
 48
50.0
100
AcDbMText
 10
7113.347392479322
 20
8678.011891821036
 30
0.0
 40
120.0
 41
0.0
 71
     5
 72
     1
  1
\A1;1370
  7
STYLE1
 73
     1
 44
1.0
1001
ACAD
1000
MTEXTBEGIN
1070
    73
1070
     1
1070
    44
1040
1.0
1070
    74
1070
     0
1000
MTEXTEND
  0
LINE
  5
20A88
330
747D
100
AcDbEntity
  8
細線
 48
50.0
100
AcDbLine
 10
7601.082837257992
 20
7451.666700827338
 30
0.0
 11
7638.600000000001
 21
7489.183863569344
 31
0.0
  0
LINE
  5
20A89
330
747D
100
AcDbEntity
  8
部品1
 48
50.0
100
AcDbLine
 10
7638.600000000001
 20
7451.666700827338
 30
0.0
 11
7638.600000000001
 21
7651.666700827391
 31
0.0
  0
LINE
  5
20A8A
330
747D
100
AcDbEntity
  8
細線
 48
50.0
100
AcDbLine
 10
7511.280276047298
 20
7451.666700827336
 30
0.0
 11
7638.600000000001
 21
7578.986424780035
 31
0.0
  0
LINE
  5
20A8B
330
747D
100
AcDbEntity
  8
細線
 48
50.0
100
AcDbLine
 10
7556.181556652643
 20
7451.666700827336
 30
0.0
 11
7638.600000000001
 21
7534.08514417469
 31
0.0
  0
LINE
  5
20A8C
330
747D
100
AcDbEntity
  8
細線
 48
50.0
100
AcDbLine
 10
7438.6
 20
7648.39410841211
 30
0.0
 11
7441.872592415281
 21
7651.66670082739
 31
0.0
  0
LINE
  5
20A8E
330
747D
100
AcDbEntity
  8
細線
 48
50.0
100
AcDbLine
 10
7438.6
 20
7603.492827806762
 30
0.0
 11
7486.773873020627
 21
7651.66670082739
 31
0.0
  0
LINE
  5
20A8F
330
747D
100
AcDbEntity
  8
細線
 48
50.0
100
AcDbLine
 10
7438.6
 20
7558.591547201418
 30
0.0
 11
7449.850532821201
 21
7569.842080022619
 31
0.0
  0
LINE
  5
20A90
330
747D
100
AcDbEntity
  8
細線
 48
50.0
100
AcDbLine
 10
7438.6
 20
7513.69026659607
 30
0.0
 11
7576.57643423132
 21
7651.666700827391
 31
0.0
  0
LINE
  5
20A91
330
747D
100
AcDbEntity
  8
細線
 48
50.0
100
AcDbLine
 10
7438.6
 20
7468.788985990729
 30
0.0
 11
7621.477714836665
 21
7651.666700827391
 31
0.0
  0
LINE
  5
20A92
330
747D
100
AcDbEntity
  8
細線
 48
50.0
100
AcDbLine
 10
7466.378995441949
 20
7451.666700827333
 30
0.0
 11
7638.600000000001
 21
7623.88770538538
 31
0.0
  0
LINE
  5
20A93
330
747D
100
AcDbEntity
  8
細線
 48
50.0
100
AcDbLine
 10
7588.51613299705
 20
5851.666700827404
 30
0.0
 11
7638.600000000018
 21
5901.75056783037
 31
0.0
  0
LINE
  5
20A94
330
747D
100
AcDbEntity
  8
細線
 48
50.0
100
AcDbLine
 10
7633.417413602399
 20
5851.666700827406
 30
0.0
 11
7638.600000000018
 21
5856.849287225025
 31
0.0
  0
LINE
  5
20A95
330
747D
100
AcDbEntity
  8
部品1
 48
50.0
100
AcDbLine
 10
7638.600000000017
 20
5851.666700827406
 30
0.0
 11
7638.600000000021
 21
6131.666700827405
 31
0.0
  0
LINE
  5
20A96
330
747D
100
AcDbEntity
  8
細線
 48
50.0
100
AcDbLine
 10
7498.713571786355
 20
5851.666700827399
 30
0.0
 11
7638.600000000018
 21
5991.553129041062
 31
0.0
  0
LINE
  5
20A97
330
747D
100
AcDbEntity
  8
細線
 48
50.0
100
AcDbLine
 10
7543.614852391705
 20
5851.666700827403
 30
0.0
 11
7638.600000000018
 21
5946.651848435717
 31
0.0
  0
LINE
  5
20A98
330
747D
100
AcDbEntity
  8
細線
 48
50.0
100
AcDbLine
 10
7438.600000000016
 20
6105.862093278482
 30
0.0
 11
7464.404607548935
 21
6131.666700827405
 31
0.0
  0
LINE
  5
20A99
330
747D
100
AcDbEntity
  8
部品1
 48
50.0
100
AcDbLine
 10
7438.600000000016
 20
5851.666700827406
 30
0.0
 11
7438.600000000022
 21
6131.666700827405
 31
0.0
  0
LINE
  5
20A9A
330
747D
100
AcDbEntity
  8
細線
 48
50.0
100
AcDbLine
 10
7438.600000000016
 20
6016.05953206779
 30
0.0
 11
7554.207168759614
 21
6131.666700827402
 31
0.0
  0
LINE
  5
20A9B
330
747D
100
AcDbEntity
  8
細線
 48
50.0
100
AcDbLine
 10
7438.600000000016
 20
5971.158251462445
 30
0.0
 11
7599.10844936498
 21
6131.666700827405
 31
0.0
  0
LINE
  5
20A9C
330
747D
100
AcDbEntity
  8
細線
 48
50.0
100
AcDbLine
 10
7438.600000000018
 20
5926.2569708571
 30
0.0
 11
7638.600000000021
 21
6126.256970857103
 31
0.0
  0
LINE
  5
20A9D
330
747D
100
AcDbEntity
  8
細線
 48
50.0
100
AcDbLine
 10
7438.600000000018
 20
5881.355690251753
 30
0.0
 11
7638.600000000018
 21
6081.355690251757
 31
0.0
  0
LINE
  5
20A9E
330
747D
100
AcDbEntity
  8
細線
 48
50.0
100
AcDbLine
 10
7453.812291181008
 20
5851.666700827399
 30
0.0
 11
7638.600000000021
 21
6036.454409646413
 31
0.0
  0
LINE
  5
20A9F
330
747D
100
AcDbEntity
  8
細線
 48
50.0
100
AcDbLine
 10
7438.600000000016
 20
6060.960812673137
 30
0.0
 11
7509.305888154284
 21
6131.666700827405
 31
0.0
  0
LINE
  5
20AA1
330
747D
100
AcDbEntity
  8
細線
 48
50.0
100
AcDbLine
 10
6068.600000000017
 20
6060.960812673137
 30
0.0
 11
6139.305888154284
 21
6131.666700827405
 31
0.0
  0
LINE
  5
20AA2
330
747D
100
AcDbEntity
  8
細線
 48
50.0
100
AcDbLine
 10
6083.812291181008
 20
5851.666700827399
 30
0.0
 11
6268.60000000002
 21
6036.454409646413
 31
0.0
  0
LINE
  5
20AA3
330
747D
100
AcDbEntity
  8
細線
 48
50.0
100
AcDbLine
 10
6068.600000000018
 20
5881.355690251753
 30
0.0
 11
6268.600000000018
 21
6081.355690251757
 31
0.0
  0
LINE
  5
20AA4
330
747D
100
AcDbEntity
  8
細線
 48
50.0
100
AcDbLine
 10
6068.600000000018
 20
5926.2569708571
 30
0.0
 11
6268.60000000002
 21
6126.256970857103
 31
0.0
  0
LINE
  5
20AA5
330
747D
100
AcDbEntity
  8
細線
 48
50.0
100
AcDbLine
 10
6068.600000000017
 20
5971.158251462445
 30
0.0
 11
6229.108449364979
 21
6131.666700827405
 31
0.0
  0
LINE
  5
20AA6
330
747D
100
AcDbEntity
  8
細線
 48
50.0
100
AcDbLine
 10
6068.600000000017
 20
6016.05953206779
 30
0.0
 11
6184.207168759613
 21
6131.666700827402
 31
0.0
  0
LINE
  5
20AA7
330
747D
100
AcDbEntity
  8
部品1
 48
50.0
100
AcDbLine
 10
6068.600000000017
 20
5851.666700827406
 30
0.0
 11
6068.600000000022
 21
6131.666700827405
 31
0.0
  0
LINE
  5
20AA8
330
747D
100
AcDbEntity
  8
細線
 48
50.0
100
AcDbLine
 10
6068.600000000017
 20
6105.862093278482
 30
0.0
 11
6094.404607548935
 21
6131.666700827405
 31
0.0
  0
LINE
  5
20AA9
330
747D
100
AcDbEntity
  8
細線
 48
50.0
100
AcDbLine
 10
6173.614852391706
 20
5851.666700827403
 30
0.0
 11
6268.600000000018
 21
5946.651848435717
 31
0.0
  0
LINE
  5
20AAA
330
747D
100
AcDbEntity
  8
細線
 48
50.0
100
AcDbLine
 10
6128.713571786355
 20
5851.666700827399
 30
0.0
 11
6268.600000000018
 21
5991.553129041062
 31
0.0
  0
LINE
  5
20AAB
330
747D
100
AcDbEntity
  8
部品1
 48
50.0
100
AcDbLine
 10
6268.600000000017
 20
5851.666700827406
 30
0.0
 11
6268.60000000002
 21
6131.666700827405
 31
0.0
  0
LINE
  5
20AAC
330
747D
100
AcDbEntity
  8
細線
 48
50.0
100
AcDbLine
 10
6263.417413602399
 20
5851.666700827406
 30
0.0
 11
6268.600000000018
 21
5856.849287225025
 31
0.0
  0
LINE
  5
20AAD
330
747D
100
AcDbEntity
  8
細線
 48
50.0
100
AcDbLine
 10
6218.51613299705
 20
5851.666700827404
 30
0.0
 11
6268.600000000018
 21
5901.75056783037
 31
0.0
  0
LINE
  5
20AAE
330
747D
100
AcDbEntity
  8
細線
 48
50.0
100
AcDbLine
 10
6096.378995441949
 20
7451.666700827333
 30
0.0
 11
6268.600000000001
 21
7623.88770538538
 31
0.0
  0
LINE
  5
20AAF
330
747D
100
AcDbEntity
  8
細線
 48
50.0
100
AcDbLine
 10
6068.6
 20
7468.788985990727
 30
0.0
 11
6251.477714836664
 21
7651.666700827391
 31
0.0
  0
LINE
  5
20AB0
330
747D
100
AcDbEntity
  8
細線
 48
50.0
100
AcDbLine
 10
6068.6
 20
7513.690266596073
 30
0.0
 11
6206.576434231319
 21
7651.666700827391
 31
0.0
  0
LINE
  5
20AB1
330
747D
100
AcDbEntity
  8
細線
 48
50.0
100
AcDbLine
 10
6068.6
 20
7558.591547201418
 30
0.0
 11
6161.675153625974
 21
7651.666700827391
 31
0.0
  0
LINE
  5
20AB2
330
747D
100
AcDbEntity
  8
細線
 48
50.0
100
AcDbLine
 10
6068.6
 20
7603.492827806762
 30
0.0
 11
6116.773873020627
 21
7651.66670082739
 31
0.0
  0
LINE
  5
20AB3
330
747D
100
AcDbEntity
  8
部品1
 48
50.0
100
AcDbLine
 10
6068.6
 20
7451.666700827333
 30
0.0
 11
6068.6
 21
7651.666700827391
 31
0.0
  0
LINE
  5
20AB4
330
747D
100
AcDbEntity
  8
細線
 48
50.0
100
AcDbLine
 10
6068.6
 20
7648.39410841211
 30
0.0
 11
6071.872592415281
 21
7651.66670082739
 31
0.0
  0
LINE
  5
20AB5
330
747D
100
AcDbEntity
  8
細線
 48
50.0
100
AcDbLine
 10
6186.181556652644
 20
7451.666700827336
 30
0.0
 11
6268.600000000001
 21
7534.08514417469
 31
0.0
  0
LINE
  5
20AB6
330
747D
100
AcDbEntity
  8
細線
 48
50.0
100
AcDbLine
 10
6141.280276047297
 20
7451.666700827336
 30
0.0
 11
6268.600000000001
 21
7578.986424780035
 31
0.0
  0
LINE
  5
20AB7
330
747D
100
AcDbEntity
  8
部品1
 48
50.0
100
AcDbLine
 10
6268.600000000001
 20
7451.666700827338
 30
0.0
 11
6268.600000000001
 21
7651.666700827391
 31
0.0
  0
LINE
  5
20AB8
330
747D
100
AcDbEntity
  8
細線
 48
50.0
100
AcDbLine
 10
6231.082837257993
 20
7451.666700827338
 30
0.0
 11
6268.600000000001
 21
7489.183863569344
 31
0.0
  0
LINE
  5
20AB9
330
747D
100
AcDbEntity
  8
細線
 48
50.0
100
AcDbLine
 10
7438.6
 20
7558.591547201416
 30
0.0
 11
7531.675153625974
 21
7651.666700827391
 31
0.0
  0
LINE
  5
20ABA
330
747D
100
AcDbEntity
  8
部品1
 48
50.0
100
AcDbLine
 10
7438.6
 20
7451.666700827297
 30
0.0
 11
7438.6
 21
7651.666700827391
 31
0.0
  0
LINE
  5
20BB5
330
747D
100
AcDbEntity
  8
想像線
 48
10.0
100
AcDbLine
 10
6974.729621927096
 20
5796.666700827406
 30
0.0
 11
5433.600000000001
 21
5796.666700827403
 31
0.0
  0
LINE
  5
20BB7
330
747D
100
AcDbEntity
  8
想像線
 48
10.0
100
AcDbLine
 10
7491.871563319162
 20
7726.666700827394
 30
0.0
 11
5433.600000000001
 21
7726.666700827394
 31
0.0
  0
LINE
  5
21707
330
747D
100
AcDbEntity
  8
部品1
 48
50.0
100
AcDbLine
 10
10378.60000000001
 20
6688.666700827392
 30
0.0
 11
10378.60000000001
 21
6888.666700827392
 31
0.0
  0
LINE
  5
21708
330
747D
100
AcDbEntity
  8
部品1
 48
50.0
100
AcDbLine
 10
10178.60000000001
 20
6688.666700827392
 30
0.0
 11
10178.60000000001
 21
6888.666700827392
 31
0.0
  0
LINE
  5
21709
330
747D
100
AcDbEntity
  8
センター
 48
2.0
100
AcDbLine
 10
10278.60000000001
 20
6838.666700827392
 30
0.0
 11
10278.60000000001
 21
6738.666700827391
 31
0.0
  0
LINE
  5
2170A
330
747D
100
AcDbEntity
  8
部品1
 48
50.0
100
AcDbLine
 10
10378.60000000001
 20
6688.666700827392
 30
0.0
 11
10178.60000000001
 21
6688.666700827392
 31
0.0
  0
LINE
  5
2170B
330
747D
100
AcDbEntity
  8
部品1
 48
50.0
100
AcDbLine
 10
10378.60000000001
 20
6888.666700827392
 30
0.0
 11
10178.60000000001
 21
6888.666700827392
 31
0.0
  0
LINE
  5
2170C
330
747D
100
AcDbEntity
  8
センター
 48
2.0
100
AcDbLine
 10
10228.6
 20
6788.666700827391
 30
0.0
 11
10328.6
 21
6788.666700827391
 31
0.0
  0
LINE
  5
2170D
330
747D
100
AcDbEntity
  8
センター
 48
2.0
100
AcDbLine
 10
8858.600000000008
 20
6788.666700827391
 30
0.0
 11
8958.600000000009
 21
6788.666700827391
 31
0.0
  0
LINE
  5
2170E
330
747D
100
AcDbEntity
  8
センター
 48
2.0
100
AcDbLine
 10
8908.600000000008
 20
6838.666700827392
 30
0.0
 11
8908.600000000008
 21
6738.666700827391
 31
0.0
  0
LINE
  5
2170F
330
747D
100
AcDbEntity
  8
部品1
 48
50.0
100
AcDbLine
 10
9008.600000000008
 20
6688.666700827392
 30
0.0
 11
9008.600000000008
 21
6888.666700827392
 31
0.0
  0
LINE
  5
21710
330
747D
100
AcDbEntity
  8
部品1
 48
50.0
100
AcDbLine
 10
8808.600000000009
 20
6688.666700827392
 30
0.0
 11
8808.600000000009
 21
6888.666700827392
 31
0.0
  0
LINE
  5
21711
330
747D
100
AcDbEntity
  8
部品1
 48
50.0
100
AcDbLine
 10
9008.600000000008
 20
6688.666700827392
 30
0.0
 11
8808.600000000009
 21
6688.666700827392
 31
0.0
  0
LINE
  5
21712
330
747D
100
AcDbEntity
  8
部品1
 48
50.0
100
AcDbLine
 10
9008.600000000008
 20
6888.666700827392
 30
0.0
 11
8808.600000000009
 21
6888.666700827392
 31
0.0
  0
LINE
  5
21714
330
747D
100
AcDbEntity
  8
部品1
 48
50.0
100
AcDbLine
 10
7638.600000000008
 20
6888.666700827392
 30
0.0
 11
7438.600000000008
 21
6888.666700827392
 31
0.0
  0
LINE
  5
21715
330
747D
100
AcDbEntity
  8
部品1
 48
50.0
100
AcDbLine
 10
7638.600000000008
 20
6688.666700827392
 30
0.0
 11
7438.600000000008
 21
6688.666700827392
 31
0.0
  0
LINE
  5
21716
330
747D
100
AcDbEntity
  8
部品1
 48
50.0
100
AcDbLine
 10
7438.600000000008
 20
6688.666700827392
 30
0.0
 11
7438.600000000008
 21
6888.666700827392
 31
0.0
  0
LINE
  5
21717
330
747D
100
AcDbEntity
  8
部品1
 48
50.0
100
AcDbLine
 10
7638.600000000008
 20
6688.666700827392
 30
0.0
 11
7638.600000000008
 21
6888.666700827392
 31
0.0
  0
LINE
  5
21718
330
747D
100
AcDbEntity
  8
センター
 48
2.0
100
AcDbLine
 10
7538.600000000008
 20
6838.666700827392
 30
0.0
 11
7538.600000000008
 21
6738.666700827391
 31
0.0
  0
LINE
  5
21719
330
747D
100
AcDbEntity
  8
センター
 48
2.0
100
AcDbLine
 10
7488.600000000008
 20
6788.666700827391
 30
0.0
 11
7588.600000000008
 21
6788.666700827391
 31
0.0
  0
LINE
  5
2171A
330
747D
100
AcDbEntity
  8
センター
 48
2.0
100
AcDbLine
 10
6118.600000000007
 20
6788.666700827391
 30
0.0
 11
6218.600000000008
 21
6788.666700827391
 31
0.0
  0
LINE
  5
2171B
330
747D
100
AcDbEntity
  8
センター
 48
2.0
100
AcDbLine
 10
6168.600000000008
 20
6838.666700827392
 30
0.0
 11
6168.600000000008
 21
6738.666700827391
 31
0.0
  0
LINE
  5
2171C
330
747D
100
AcDbEntity
  8
部品1
 48
50.0
100
AcDbLine
 10
6268.600000000008
 20
6688.666700827392
 30
0.0
 11
6268.600000000008
 21
6888.666700827392
 31
0.0
  0
LINE
  5
2171D
330
747D
100
AcDbEntity
  8
部品1
 48
50.0
100
AcDbLine
 10
6068.600000000007
 20
6688.666700827392
 30
0.0
 11
6068.600000000007
 21
6888.666700827392
 31
0.0
  0
LINE
  5
2171E
330
747D
100
AcDbEntity
  8
部品1
 48
50.0
100
AcDbLine
 10
6268.600000000008
 20
6688.666700827392
 30
0.0
 11
6068.600000000007
 21
6688.666700827392
 31
0.0
  0
LINE
  5
2171F
330
747D
100
AcDbEntity
  8
部品1
 48
50.0
100
AcDbLine
 10
6268.600000000008
 20
6888.666700827392
 30
0.0
 11
6068.600000000007
 21
6888.666700827392
 31
0.0
  0
DIMENSION
  5
21720
330
747D
100
AcDbEntity
  8
寸法
 48
50.0
100
AcDbDimension
  2
*D41
 10
6168.600000000008
 20
6500.520709530436
 30
0.0
 11
5823.600000000004
 21
6600.520709530435
 31
0.0
 70
    32
 71
     5
 42
690.0000000000073
  3
INABA_S40G
100
AcDbAlignedDimension
 13
5478.6
 23
6661.780272613744
 33
0.0
 14
6168.600000000008
 24
6688.666700827392
 34
0.0
100
AcDbRotatedDimension
1001
ACAD
1000
DSTYLE
1002
{
1070
   341
1005
0
1002
}
  0
DIMENSION
  5
21742
330
747D
100
AcDbEntity
  8
寸法
 48
50.0
100
AcDbDimension
  2
*D42
 10
6853.600000000007
 20
6500.520709530436
 30
0.0
 11
6511.100000000007
 21
6600.520709530435
 31
0.0
 70
    32
 71
     5
 42
685.0
  3
INABA_S40G
100
AcDbAlignedDimension
 13
6168.600000000008
 23
6688.666700827392
 33
0.0
 14
6853.600000000007
 24
6688.666700827392
 34
0.0
100
AcDbRotatedDimension
1001
ACAD
1000
DSTYLE
1002
{
1070
   341
1005
0
1002
}
  0
DIMENSION
  5
2176E
330
747D
100
AcDbEntity
  8
寸法
 48
50.0
100
AcDbDimension
  2
*D43
 10
10968.6
 20
6500.520709530436
 30
0.0
 11
10623.6
 21
6500.520709530436
 31
0.0
 70
   160
 71
     5
 42
689.9999999999927
  3
INABA_S40G
100
AcDbAlignedDimension
 13
10278.60000000001
 23
6688.666700827392
 33
0.0
 14
10968.6
 24
6661.780272613744
 34
0.0
100
AcDbRotatedDimension
1001
ACAD
1000
DSTYLE
1002
{
1070
   341
1005
0
1002
}
  0
DIMENSION
  5
21785
330
747D
100
AcDbEntity
  8
寸法
 48
50.0
100
AcDbDimension
  2
*D44
 10
10278.60000000001
 20
6500.520709530436
 30
0.0
 11
9917.380256412609
 21
6604.916102436327
 31
0.0
 70
   160
 71
     5
 42
685.0
  3
INABA_S40G
100
AcDbAlignedDimension
 13
9593.600000000007
 23
6688.666700827392
 33
0.0
 14
10278.60000000001
 24
6688.666700827392
 34
0.0
100
AcDbRotatedDimension
1001
ACAD
1000
DSTYLE
1002
{
1070
   279
1070
     2
1070
   341
1005
0
1002
}
  0
DIMENSION
  5
217D3
330
747D
100
AcDbEntity
  8
寸法
 48
50.0
100
AcDbDimension
  2
*D45
 10
9593.600000000007
 20
6500.520709530436
 30
0.0
 11
9232.380256412609
 21
6604.916102436327
 31
0.0
 70
   160
 71
     5
 42
685.0
  3
INABA_S40G
100
AcDbAlignedDimension
 13
8908.600000000008
 23
6688.666700827392
 33
0.0
 14
9593.600000000007
 24
6688.666700827392
 34
0.0
100
AcDbRotatedDimension
1001
ACAD
1000
DSTYLE
1002
{
1070
   279
1070
     2
1070
   341
1005
0
1002
}
  0
LINE
  5
21978
330
747D
100
AcDbEntity
  8
寸法
 48
50.0
100
AcDbLine
 10
6853.600000000007
 20
6668.666700827391
 30
0.0
 11
6853.600000000007
 21
6440.520709530436
 31
0.0
  0
LINE
  5
21979
330
747D
100
AcDbEntity
  8
寸法
 48
50.0
100
AcDbLine
 10
7538.600000000008
 20
6668.666700827391
 30
0.0
 11
7538.600000000008
 21
6440.520709530436
 31
0.0
  0
LINE
  5
2197A
330
747D
100
AcDbEntity
  8
寸法
 48
50.0
100
AcDbLine
 10
6853.600000000007
 20
6500.520709530436
 30
0.0
 11
7163.326735148482
 21
6500.520709530436
 31
0.0
  0
MTEXT
  5
2197B
330
747D
100
AcDbEntity
  8
寸法
 62
     7
 48
50.0
100
AcDbMText
 10
7059.038237682559
 20
6602.198566027102
 30
0.0
 40
120.0
 41
0.0
 71
     5
 72
     1
  1
\A1;685
  7
STYLE1
 73
     1
 44
1.0
1001
ACAD
1000
MTEXTBEGIN
1070
    73
1070
     1
1070
    44
1040
1.0
1070
    74
1070
     0
1000
MTEXTEND
  0
INSERT
  5
2197C
330
747D
100
AcDbEntity
  8
寸法
 48
50.0
100
AcDbBlockReference
  2
_DOTSMALL
 10
6853.600000000007
 20
6500.520709530436
 30
0.0
 41
100.0
 42
100.0
 43
100.0
 50
180.0
  0
INSERT
  5
2197D
330
747D
100
AcDbEntity
  8
寸法
 48
50.0
100
AcDbBlockReference
  2
_DOTSMALL
 10
7538.600000000008
 20
6500.520709530436
 30
0.0
 41
100.0
 42
100.0
 43
100.0
  0
MTEXT
  5
2197E
330
747D
100
AcDbEntity
  8
寸法
 62
     7
 48
50.0
100
AcDbMText
 10
7358.364787912797
 20
6602.198566027102
 30
0.0
 40
120.0
 41
0.0
 71
     5
 72
     1
  1
\A1;685
  7
STYLE1
 73
     1
 44
1.0
1001
ACAD
1000
MTEXTBEGIN
1070
    73
1070
     1
1070
    44
1040
1.0
1070
    74
1070
     0
1000
MTEXTEND
  0
LINE
  5
2197F
330
747D
100
AcDbEntity
  8
寸法
 48
50.0
100
AcDbLine
 10
7194.385020560783
 20
6500.520709530436
 30
0.0
 11
7538.600000000008
 21
6500.520709530436
 31
0.0
  0
TEXT
  5
21990
330
747D
100
AcDbEntity
  8
文字
 62
     7
 48
50.0
100
AcDbText
 10
7557.518618323051
 20
4522.405369412118
 30
0.0
 40
200.0
  1
〈参 考 図〉
  7
STYLE2
100
AcDbText
  0
LINE
  5
219A7
102
{ACAD_REACTORS
330
219BC
102
}
330
747D
100
AcDbEntity
  8
部品1
 48
50.0
100
AcDbLine
 10
10848.6
 20
6131.666700827412
 30
0.0
 11
10848.6
 21
7451.666700827394
 31
0.0
  0
LINE
  5
219A9
102
{ACAD_REACTORS
330
219D6
102
}
330
747D
100
AcDbEntity
  8
部品1
 48
50.0
100
AcDbLine
 10
5598.600000000001
 20
6131.666700827412
 30
0.0
 11
5598.600000000001
 21
7451.666700827394
 31
0.0
  0
HATCH
  5
219BC
330
747D
100
AcDbEntity
  8
細線
 48
50.0
100
AcDbHatch
 10
0.0
 20
0.0
 30
0.0
210
0.0
220
0.0
230
1.0
  2
LINE
 70
     0
 71
     1
 91
        1
 92
        7
 72
     0
 73
     1
 93
        4
 10
10968.6
 20
6861.780272613744
 10
10848.6
 20
6861.780272613742
 10
10848.6
 20
6661.780272613744
 10
10968.6
 20
6661.780272613743
 97
        4
330
1FC5C
330
219A7
330
1FC5D
330
1FC5B
 75
     0
 76
     1
 52
45.0
 41
10.0
 77
     0
 78
     1
 53
45.0
 43
0.0
 44
0.0
 45
-22.45064030267288
 46
22.45064030267288
 79
     0
 47
4.217779050560221
 98
        1
 10
10938.4062461384
 20
6693.909628496644
  0
HATCH
  5
219D6
330
747D
100
AcDbEntity
  8
細線
 48
50.0
100
AcDbHatch
 10
0.0
 20
0.0
 30
0.0
210
0.0
220
0.0
230
1.0
  2
LINE
 70
     0
 71
     1
 91
        1
 92
        7
 72
     0
 73
     1
 93
        4
 10
5598.600000000001
 20
6861.780272613744
 10
5478.6
 20
6861.780272613742
 10
5478.6
 20
6661.780272613744
 10
5598.6
 20
6661.780272613741
 97
        4
330
2075B
330
1FB23
330
2075A
330
219A9
 75
     0
 76
     1
 52
45.0
 41
10.0
 77
     0
 78
     1
 53
45.0
 43
0.0
 44
0.0
 45
-22.45064030267288
 46
22.45064030267288
 79
     0
 47
4.217779050560218
 98
        1
 10
5554.817926661978
 20
6698.362962736279
  0
SPLINE
  5
21D40
330
747D
100
AcDbEntity
  8
細線
 48
50.0
100
AcDbSpline
210
0.0
220
0.0
230
1.0
 70
     8
 71
     3
 72
    10
 73
     6
 74
     4
 42
0.0000000001
 43
0.0000000001
 44
0.0000000001
 40
0.0
 40
0.0
 40
0.0
 40
0.0
 40
221.8151349015015
 40
452.7136639803716
 40
699.7573834631605
 40
699.7573834631605
 40
699.7573834631605
 40
699.7573834631605
 10
7325.611646870713
 20
6948.268441935586
 30
0.0
 10
7210.289123128461
 20
6934.91179144883
 30
0.0
 10
6974.92158481327
 20
6907.651531759832
 30
0.0
 10
7459.141699729785
 20
6753.870654800818
 30
0.0
 10
7204.377770225725
 20
6725.918021732512
 30
0.0
 10
7072.692762415383
 20
6711.469576416547
 30
0.0
 11
7325.611646870713
 21
6948.268441935586
 31
0.0
 11
7111.354679407559
 21
6890.858460531093
 31
0.0
 11
7311.318671286321
 21
6775.40919599166
 31
0.0
 11
7072.692762415383
 21
6711.469576416547
 31
0.0
  0
LINE
  5
21D41
330
747D
100
AcDbEntity
  8
細線
 48
50.0
100
AcDbLine
 10
7356.321127997166
 20
7995.203880050557
 30
0.0
 11
7091.269524167561
 21
5728.57156352045
 31
0.0
  0
LINE
  5
2221F
330
747D
100
AcDbEntity
  8
部品1
100
AcDbLine
 10
11099.33480244821
 20
3354.586133407648
 30
0.0
 11
5028.34961706196
 21
3354.586133407647
 31
0.0
  0
LINE
  5
22220
330
747D
100
AcDbEntity
  8
部品1
100
AcDbLine
 10
11099.33480244821
 20
3114.586133407645
 30
0.0
 11
5028.349617061963
 21
3114.586133407647
 31
0.0
  0
LINE
  5
22221
330
747D
100
AcDbEntity
  8
部品1
100
AcDbLine
 10
5028.349617061966
 20
390.2791638230005
 30
0.0
 11
11099.33480244821
 21
390.2791638230005
 31
0.0
  0
LEADER
  5
22222
330
747D
100
AcDbEntity
  8
寸法
 48
50.0
100
AcDbLeader
  3
INABA_S40G
 73
     0
 74
     0
 75
     1
 40
102.2727272727273
 41
680.0000000000001
 76
     3
 10
8036.457369048418
 20
2432.489794739945
 30
0.0
 10
8080.811340161774
 20
2827.942605846486
 30
0.0
 10
8180.811340161774
 20
2827.942605846486
 30
0.0
1001
ACAD
1000
DSTYLE
1002
{
1070
   174
1070
     0
1070
   272
1070
     1
1070
   279
1070
     1
1070
   288
1070
     0
1070
   341
1005
0
1002
}
  0
MTEXT
  5
22223
102
{ACAD_REACTORS
330
22222
102
}
330
747D
100
AcDbEntity
  8
部品1
 62
     7
 48
50.0
100
AcDbMText
 10
8220.811340161773
 20
2919.078969482851
 30
0.0
 40
80.0
 41
0.8
 71
     4
 72
     1
  1
\A1;ナット(市販品)
  7
STYLE2
 73
     1
 44
1.0
1001
ACAD
1000
MTEXTBEGIN
1070
    73
1070
     1
1070
    44
1040
1.0
1070
    74
1070
     0
1000
MTEXTEND
  0
LEADER
  5
22224
330
747D
100
AcDbEntity
  8
寸法
 48
50.0
100
AcDbLeader
  3
INABA_S40G
 73
     0
 74
     0
 75
     1
 40
102.2727272727273
 41
906.8181818181818
 76
     3
 10
8060.457369048418
 20
2302.737802075083
 30
0.0
 10
8112.328959417256
 20
2642.973523081699
 30
0.0
 10
8212.328959417256
 20
2642.973523081699
 30
0.0
1001
ACAD
1000
DSTYLE
1002
{
1070
   174
1070
     0
1070
   272
1070
     1
1070
   279
1070
     1
1070
   288
1070
     0
1070
   341
1005
0
1002
}
  0
MTEXT
  5
22225
102
{ACAD_REACTORS
330
22224
102
}
330
747D
100
AcDbEntity
  8
部品1
 62
     7
 48
50.0
100
AcDbMText
 10
8252.328959417257
 20
2734.109886718063
 30
0.0
 40
80.0
 41
0.8
 71
     4
 72
     1
  1
\A1;ワッシャー(市販品)
  7
STYLE2
 73
     1
 44
1.0
1001
ACAD
1000
MTEXTBEGIN
1070
    73
1070
     1
1070
    44
1040
1.0
1070
    74
1070
     0
1000
MTEXTEND
  0
LWPOLYLINE
  5
22226
330
747D
100
AcDbEntity
  8
部品1
 48
50.0
100
AcDbPolyline
 90
        2
 70
     0
 43
8.0
 10
8213.057369048417
 20
1793.614513630804
 10
8506.759832447803
 20
1793.614513630804
  0
TEXT
  5
22227
330
747D
100
AcDbEntity
  8
部品1
 48
50.0
100
AcDbText
 10
8217.410953332844
 20
2389.493194393003
 30
0.0
 40
80.0
  1
基礎ボルト(市販品)
  7
STYLE2
100
AcDbText
  0
DIMENSION
  5
22228
330
747D
100
AcDbEntity
  8
寸法
 48
50.0
100
AcDbDimension
  2
*D59
 10
8714.92596881726
 20
1709.614513630802
 30
0.0
 11
8614.92596881726
 21
1871.614513630803
 31
0.0
 70
    32
  1
180
 71
     5
 42
324.0000000000009
  3
INABA_S40G
100
AcDbAlignedDimension
 13
8213.057369048417
 23
2033.614513630803
 33
0.0
 14
8213.057369048417
 24
1709.614513630802
 34
0.0
 50
90.0
100
AcDbRotatedDimension
1001
ACAD
1000
DSTYLE
1002
{
1070
   174
1070
     0
1070
   272
1070
     1
1070
   279
1070
     1
1070
   288
1070
     0
1070
   341
1005
0
1002
}
  0
DIMENSION
  5
22229
330
747D
100
AcDbEntity
  8
寸法
 48
50.0
100
AcDbDimension
  2
*D60
 10
8714.92596881726
 20
2033.614513630803
 30
0.0
 11
8990.980634936288
 21
2008.490556026591
 31
0.0
 70
   160
  1
20～25
 71
     5
 42
52.76000000000113
  3
INABA_S40G
100
AcDbAlignedDimension
 13
8025.85736904842
 23
2086.374513630804
 33
0.0
 14
8213.057369048417
 24
2033.614513630803
 34
0.0
 50
90.0
100
AcDbRotatedDimension
1001
ACAD
1000
DSTYLE
1002
{
1070
   174
1070
     0
1070
   272
1070
     1
1070
   279
1070
     1
1070
   288
1070
     0
1070
   341
1005
0
1002
}
  0
MTEXT
  5
2222A
102
{ACAD_REACTORS
330
2222B
102
}
330
747D
100
AcDbEntity
  8
部品1
 62
     7
 48
50.0
100
AcDbMText
 10
8222.001831467736
 20
2297.997839784033
 30
0.0
 40
80.0
 41
0.8
 71
     4
 72
     1
  1
M10X160
  7
STYLE2
 73
     1
 44
1.0
1001
ACAD
1000
MTEXTBEGIN
1070
    73
1070
     1
1070
    44
1040
1.0
1070
    74
1070
     0
1000
MTEXTEND
  0
LEADER
  5
2222B
330
747D
100
AcDbEntity
  8
寸法
 48
50.0
100
AcDbLeader
  3
INABA_S40G
 73
     0
 74
     0
 75
     1
 40
80.0
 41
435.0
 76
     3
 10
8029.457369048417
 20
2082.774513630804
 30
0.0
 10
8082.001831467737
 20
2217.997839784032
 30
0.0
 10
8182.001831467736
 20
2217.997839784032
 30
0.0
1001
ACAD
1000
DSTYLE
1002
{
1070
   174
1070
     0
1070
   272
1070
     1
1070
   279
1070
     1
1070
   288
1070
     0
1070
   341
1005
0
1002
}
  0
LINE
  5
2222C
330
747D
100
AcDbEntity
  8
部品1
100
AcDbLine
 10
5028.349617061962
 20
3354.586133407648
 30
0.0
 11
5028.349617061963
 21
390.2791638230005
 31
0.0
  0
LEADER
  5
2222D
330
747D
100
AcDbEntity
  8
寸法
 48
50.0
100
AcDbLeader
  3
INABA_S40G
 73
     0
 75
     1
 40
113.1818181818182
 41
608.6363636363635
 76
     3
 10
7989.194119186469
 20
1983.130186989082
 30
0.0
 10
7845.390290495121
 20
2819.50926934556
 30
0.0
 10
7745.39029049512
 20
2819.50926934556
 30
0.0
1001
ACAD
1000
DSTYLE
1002
{
1070
   174
1070
     0
1070
   272
1070
     1
1070
   279
1070
     1
1070
   288
1070
     0
1070
   341
1005
0
1002
}
  0
MTEXT
  5
2222E
102
{ACAD_REACTORS
330
2222D
102
}
330
747D
100
AcDbEntity
  8
寸法
 62
     7
 48
50.0
100
AcDbMText
 10
7705.390290495121
 20
2916.100178436469
 30
0.0
 40
80.0
 41
0.8
 71
     6
 72
     1
  1
\A1;φ70スリーブ
  7
STYLE2
 73
     1
 44
1.0
1001
ACAD
1000
MTEXTBEGIN
1070
    73
1070
     1
1070
    44
1040
1.0
1070
    74
1070
     0
1000
MTEXTEND
  0
LWPOLYLINE
  5
2222F
330
747D
100
AcDbEntity
  8
部品1
 48
50.0
100
AcDbPolyline
 90
        2
 70
     0
 43
8.0
 10
5684.878154038268
 20
1793.614513630804
 10
6099.018055871225
 20
1793.614513630804
  0
TEXT
  5
22230
330
747D
100
AcDbEntity
  8
部品1
 48
50.0
100
AcDbText
 10
5684.878154038268
 20
1804.853505914058
 30
0.0
 40
80.0
  1
▽G.L
  7
STYLE2
100
AcDbText
  0
DIMENSION
  5
22231
330
747D
100
AcDbEntity
  8
寸法
 48
50.0
100
AcDbDimension
  2
*D61
 10
5828.597742138765
 20
1249.614513630803
 30
0.0
 11
5828.597742138765
 21
1369.614513630803
 31
0.0
 70
   160
  1
150
 71
     5
 42
240.0
  3
INABA_S40G
100
AcDbAlignedDimension
 13
5971.018055871224
 23
1489.614513630803
 33
0.0
 14
5891.018055871228
 24
1249.614513630803
 34
0.0
 50
90.0
100
AcDbRotatedDimension
1001
ACAD
1000
DSTYLE
1002
{
1070
   174
1070
     0
1070
   272
1070
     1
1070
   279
1070
     1
1070
   288
1070
     0
1070
   341
1005
0
1002
}
  0
LEADER
  5
22232
330
747D
100
AcDbEntity
  8
寸法
 48
50.0
100
AcDbLeader
  3
INABA_S40G
 71
     0
 73
     0
 75
     1
 40
100.0
 41
225.0
 76
     3
 10
6066.921008223367
 20
1369.614513630803
 30
0.0
 10
5920.083029676031
 20
1106.091820012366
 30
0.0
 10
5820.08302967603
 20
1106.091820012366
 30
0.0
1001
ACAD
1000
DSTYLE
1002
{
1070
   174
1070
     0
1070
   272
1070
     1
1070
   279
1070
     1
1070
   288
1070
     0
1070
   341
1005
0
1002
}
  0
LEADER
  5
22233
330
747D
100
AcDbEntity
  8
寸法
 48
50.0
100
AcDbLeader
  3
INABA_S40G
 71
     0
 73
     0
 75
     1
 40
100.0
 41
222.7272727272727
 76
     3
 10
6195.018055871225
 20
1369.614513630803
 30
0.0
 10
5948.205757233465
 20
925.7756674729231
 30
0.0
 10
5848.205757233465
 20
925.7756674729231
 30
0.0
1001
ACAD
1000
DSTYLE
1002
{
1070
   174
1070
     0
1070
   272
1070
     1
1070
   279
1070
     1
1070
   288
1070
     0
1070
   341
1005
0
1002
}
  0
MTEXT
  5
22234
102
{ACAD_REACTORS
330
22235
102
}
330
747D
100
AcDbEntity
  8
寸法
 62
     7
 48
50.0
100
AcDbMText
 10
6009.768001648421
 20
1634.915116448259
 30
0.0
 40
80.0
 41
0.8
 71
     6
 72
     1
  1
\A1;D10@300
  7
STYLE2
 73
     1
 44
1.0
1001
ACAD
1000
MTEXTBEGIN
1070
    73
1070
     1
1070
    44
1040
1.0
1070
    74
1070
     0
1000
MTEXTEND
  0
LEADER
  5
22235
330
747D
100
AcDbEntity
  8
寸法
 48
50.0
100
AcDbLeader
  3
INABA_S40G
 71
     0
 73
     0
 75
     1
 40
100.0
 41
540.3409090909091
 76
     3
 10
6203.018055871225
 20
1791.741728327926
 30
0.0
 10
6120.035819342526
 20
1570.271399787121
 30
0.0
 10
6020.035819342527
 20
1570.271399787121
 30
0.0
213
-9.732182305893367
223
-4.643716661138569
233
0.0
1001
ACAD
1000
DSTYLE
1002
{
1070
   174
1070
     0
1070
   272
1070
     1
1070
   279
1070
     1
1070
   288
1070
     0
1070
   341
1005
0
1002
}
  0
LEADER
  5
22236
330
747D
100
AcDbEntity
  8
寸法
 48
50.0
100
AcDbLeader
  3
INABA_S40G
 71
     0
 73
     0
 75
     1
 40
130.1136363636363
 41
651.1363636363636
 76
     3
 10
6179.018055871225
 20
2033.614513630803
 30
0.0
 10
6041.593475707208
 20
2174.085279087391
 30
0.0
 10
5941.593475707207
 20
2174.085279087391
 30
0.0
1001
ACAD
1000
DSTYLE
1002
{
1070
   174
1070
     0
1070
   272
1070
     1
1070
   279
1070
     1
1070
   288
1070
     0
1070
   341
1005
0
1002
}
  0
MTEXT
  5
22237
102
{ACAD_REACTORS
330
22236
102
}
330
747D
100
AcDbEntity
  8
寸法
 62
     7
 48
50.0
100
AcDbMText
 10
5878.919576387952
 20
2246.130733632845
 30
0.0
 40
80.0
 41
0.8
 71
     6
 72
     1
  1
\A1;金コテ押エ
  7
STYLE2
 73
     1
 44
1.0
1001
ACAD
1000
MTEXTBEGIN
1070
    73
1070
     1
1070
    44
1040
1.0
1070
    74
1070
     0
1000
MTEXTEND
  0
DIMENSION
  5
22238
330
747D
100
AcDbEntity
  8
寸法
 48
50.0
100
AcDbDimension
  2
*D62
 10
5363.980817309484
 20
1249.614513630803
 30
0.0
 11
5363.980817309484
 21
1621.154663286803
 31
0.0
 70
   160
  1
540
 71
     5
 42
784.0
  3
INABA_S40G
100
AcDbAlignedDimension
 13
6099.018055871225
 23
2033.614513630803
 33
0.0
 14
5891.018055871228
 24
1249.614513630803
 34
0.0
 50
90.0
100
AcDbRotatedDimension
1001
ACAD
1000
DSTYLE
1002
{
1070
   174
1070
     0
1070
   272
1070
     1
1070
   279
1070
     1
1070
   288
1070
     0
1070
   341
1005
0
1002
}
  0
MTEXT
  5
22239
102
{ACAD_REACTORS
330
22233
102
}
330
747D
100
AcDbEntity
  8
寸法
 62
     7
 48
50.0
100
AcDbMText
 10
5828.205757233465
 20
985.775667472923
 30
0.0
 40
80.0
 41
0.8
 71
     6
 72
     1
  1
D13
  7
STYLE2
 73
     1
 44
1.0
1001
ACAD
1000
MTEXTBEGIN
1070
    73
1070
     1
1070
    44
1040
1.0
1070
    74
1070
     0
1000
MTEXTEND
  0
MTEXT
  5
2223A
102
{ACAD_REACTORS
330
22232
102
}
330
747D
100
AcDbEntity
  8
寸法
 62
     7
 48
50.0
100
AcDbMText
 10
5800.083029676031
 20
1166.091820012366
 30
0.0
 40
80.0
 41
0.8
 71
     6
 72
     1
  1
D10
  7
STYLE2
 73
     1
 44
1.0
1001
ACAD
1000
MTEXTBEGIN
1070
    73
1070
     1
1070
    44
1040
1.0
1070
    74
1070
     0
1000
MTEXTEND
  0
DIMENSION
  5
2223B
330
747D
100
AcDbEntity
  8
寸法
 48
50.0
100
AcDbDimension
  2
*D63
 10
6419.018055871224
 20
711.1848756256427
 30
0.0
 11
6174.921297193002
 21
711.1848756256427
 31
0.0
 70
   160
  1
300
 71
     5
 42
448.0
  3
INABA_S40G
100
AcDbAlignedDimension
 13
5971.018055871224
 23
1121.614513630802
 33
0.0
 14
6419.018055871224
 24
1121.614513630802
 34
0.0
100
AcDbRotatedDimension
1001
ACAD
1000
DSTYLE
1002
{
1070
   174
1070
     0
1070
   272
1070
     1
1070
   279
1070
     1
1070
   288
1070
     0
1070
   341
1005
0
1002
}
  0
MTEXT
  5
2223C
102
{ACAD_REACTORS
330
2223D
102
}
330
747D
100
AcDbEntity
  8
寸法
 62
     7
 48
50.0
100
AcDbMText
 10
7732.033296703481
 20
2555.415906528955
 30
0.0
 40
80.0
 41
0.8
 71
     6
 72
     1
  1
アンカープレート {\fArial|b0|i0|c0|p32;L}
  7
STYLE2
 73
     1
 44
1.0
1001
ACAD
1000
MTEXTBEGIN
1070
    73
1070
     1
1070
    44
1040
1.0
1070
    74
1070
     0
1000
MTEXTEND
  0
LEADER
  5
2223D
330
747D
100
AcDbEntity
  8
寸法
 48
50.0
100
AcDbLeader
  3
INABA_S40G
 73
     0
 75
     1
 40
106.3636363636363
 41
903.5235024184547
 76
     3
 10
7930.457369048418
 20
2103.174513630804
 30
0.0
 10
7872.033296703481
 20
2462.234088347136
 30
0.0
 10
7772.03329670348
 20
2462.234088347136
 30
0.0
1001
ACAD
1000
DSTYLE
1002
{
1070
   174
1070
     0
1070
   272
1070
     1
1070
   279
1070
     1
1070
   288
1070
     0
1070
   341
1005
0
1002
}
  0
LINE
  5
2223E
330
747D
100
AcDbEntity
  8
細線
 48
50.0
100
AcDbLine
 10
6219.018055871226
 20
1871.987406298633
 30
0.0
 11
6291.018055871226
 21
1943.987406298633
 31
0.0
  0
ARC
  5
2223F
330
747D
100
AcDbEntity
  8
部品1
 48
50.0
100
AcDbCircle
 10
6195.018055871226
 20
1893.868943025048
 30
0.0
 40
24.0
100
AcDbArc
 50
0.0
 51
180.0
  0
CIRCLE
  5
22240
330
747D
100
AcDbEntity
  8
部品1
 48
50.0
100
AcDbCircle
 10
6195.018055871226
 20
1893.868943025048
 30
0.0
 40
8.0
  0
LINE
  5
22241
330
747D
100
AcDbEntity
  8
部品1
 48
50.0
100
AcDbLine
 10
6099.018055871225
 20
1489.614513630803
 30
0.0
 11
6099.018055871225
 21
2033.614513630803
 31
0.0
  0
LINE
  5
22242
330
747D
100
AcDbEntity
  8
部品1
 48
50.0
100
AcDbLine
 10
6291.018055871226
 20
2033.614513630803
 30
0.0
 11
6291.018055871226
 21
1489.614513630803
 31
0.0
  0
MTEXT
  5
22243
102
{ACAD_REACTORS
330
22248
102
}
330
747D
100
AcDbEntity
  8
寸法
 62
     7
 48
50.0
100
AcDbMText
 10
6373.903992898619
 20
1894.88207492973
 30
0.0
 40
80.0
 41
0.8
 71
     4
 72
     1
  1
D13
  7
STYLE2
 73
     1
 44
1.0
1001
ACAD
1000
MTEXTBEGIN
1070
    73
1070
     1
1070
    44
1040
1.0
1070
    74
1070
     0
1000
MTEXTEND
  0
LEADER
  5
22244
330
747D
100
AcDbEntity
  8
寸法
 48
50.0
100
AcDbLeader
  3
INABA_S40G
 71
     0
 73
     0
 74
     0
 75
     1
 40
100.0
 41
225.0
 76
     3
 10
6322.921008223367
 20
1369.614513630803
 30
0.0
 10
6402.34571567791
 20
1274.21744468783
 30
0.0
 10
6502.34571567791
 20
1274.21744468783
 30
0.0
1001
ACAD
1000
DSTYLE
1002
{
1070
   174
1070
     0
1070
   272
1070
     1
1070
   279
1070
     1
1070
   288
1070
     0
1070
   341
1005
0
1002
}
  0
LEADER
  5
22245
330
747D
100
AcDbEntity
  8
寸法
 48
50.0
100
AcDbLeader
  3
INABA_S40G
 71
     0
 73
     0
 74
     0
 75
     1
 40
100.0
 41
540.3409090909091
 76
     3
 10
6268.963224884399
 20
1352.873983217277
 30
0.0
 10
6412.756511732476
 20
1011.24316522238
 30
0.0
 10
6512.756511732476
 20
1011.24316522238
 30
0.0
213
0.0
223
-1.022262676269383
233
0.0
1001
ACAD
1000
DSTYLE
1002
{
1070
   174
1070
     0
1070
   272
1070
     1
1070
   279
1070
     1
1070
   288
1070
     0
1070
   341
1005
0
1002
}
  0
MTEXT
  5
22246
102
{ACAD_REACTORS
330
22244
102
}
330
747D
100
AcDbEntity
  8
寸法
 62
     7
 48
50.0
100
AcDbMText
 10
6522.345715677909
 20
1334.21744468783
 30
0.0
 40
80.0
 41
0.8
 71
     4
 72
     1
  1
D10
  7
STYLE2
 73
     1
 44
1.0
1001
ACAD
1000
MTEXTBEGIN
1070
    73
1070
     1
1070
    44
1040
1.0
1070
    74
1070
     0
1000
MTEXTEND
  0
LWPOLYLINE
  5
22247
330
747D
100
AcDbEntity
  8
部品1
 48
50.0
100
AcDbPolyline
 90
        2
 70
     0
 43
8.0
 10
6291.018055871225
 20
1793.614513630804
 10
6705.157957704182
 20
1793.614513630804
  0
LEADER
  5
22248
330
747D
100
AcDbEntity
  8
寸法
 48
50.0
100
AcDbLeader
  3
INABA_S40G
 71
     0
 73
     0
 74
     0
 75
     1
 40
100.0
 41
222.7272727272727
 76
     3
 10
6195.018055871225
 20
1893.868943025048
 30
0.0
 10
6253.90399289862
 20
1834.882074929731
 30
0.0
 10
6353.90399289862
 20
1834.882074929731
 30
0.0
1001
ACAD
1000
DSTYLE
1002
{
1070
   174
1070
     0
1070
   272
1070
     1
1070
   279
1070
     1
1070
   288
1070
     0
1070
   341
1005
0
1002
}
  0
LINE
  5
22249
330
747D
100
AcDbEntity
  8
細線
 48
50.0
100
AcDbLine
 10
5971.018055871218
 20
1408.461259392973
 30
0.0
 11
6052.171310109054
 21
1489.614513630803
 31
0.0
  0
LINE
  5
2224A
330
747D
100
AcDbEntity
  8
細線
 48
50.0
100
AcDbLine
 10
6178.883903348629
 20
1427.741728327925
 30
0.0
 11
6203.018055871231
 21
1451.875880850524
 31
0.0
  0
LINE
  5
2224B
330
747D
100
AcDbEntity
  8
細線
 48
50.0
100
AcDbLine
 10
6085.815920288298
 20
1361.614513630803
 30
0.0
 11
6203.018055871226
 21
1478.816649213728
 31
0.0
  0
LINE
  5
2224C
330
747D
100
AcDbEntity
  8
部品1
 48
50.0
100
AcDbLine
 10
5971.018055871225
 20
1249.614513630803
 30
0.0
 11
5971.018055871225
 21
1489.614513630803
 31
0.0
  0
LINE
  5
2224D
330
747D
100
AcDbEntity
  8
細線
 48
50.0
100
AcDbLine
 10
6328.282835557169
 20
1361.614513630803
 30
0.0
 11
6419.018055871226
 21
1452.349733944862
 31
0.0
  0
LINE
  5
2224E
330
747D
100
AcDbEntity
  8
細線
 48
50.0
100
AcDbLine
 10
6301.342067193953
 20
1361.614513630803
 30
0.0
 11
6419.018055871226
 21
1479.290502308069
 31
0.0
  0
LINE
  5
2224F
330
747D
100
AcDbEntity
  8
部品1
 48
50.0
100
AcDbLine
 10
6419.018055871226
 20
1489.614513630803
 30
0.0
 11
6419.018055871226
 21
1249.614513630803
 31
0.0
  0
LINE
  5
22250
330
747D
100
AcDbEntity
  8
部品1
 48
50.0
100
AcDbLine
 10
6219.018055871231
 20
1369.614513630803
 30
0.0
 11
6219.018055871226
 21
1893.868943025048
 31
0.0
  0
LINE
  5
22251
330
747D
100
AcDbEntity
  8
部品1
 48
50.0
100
AcDbLine
 10
6203.018055871231
 20
1369.614513630803
 30
0.0
 11
6203.018055871218
 21
1893.868943025048
 31
0.0
  0
LINE
  5
22252
330
747D
100
AcDbEntity
  8
細線
 48
50.0
100
AcDbLine
 10
6187.018055871225
 20
1408.935112487314
 30
0.0
 11
6203.018055871231
 21
1424.935112487314
 31
0.0
  0
LINE
  5
22253
330
747D
100
AcDbEntity
  8
細線
 48
50.0
100
AcDbLine
 10
6176.200895367239
 20
1121.614513630802
 30
0.0
 11
6210.498391998423
 21
1249.614513630803
 31
0.0
  0
LINE
  5
22254
330
747D
100
AcDbEntity
  8
部品1
 48
50.0
100
AcDbLine
 10
6499.018055871229
 20
1121.614513630802
 30
0.0
 11
5891.018055871228
 21
1121.614513630802
 31
0.0
  0
LINE
  5
22255
330
747D
100
AcDbEntity
  8
部品1
 48
50.0
100
AcDbLine
 10
6027.018055871225
 20
1345.614513630803
 30
0.0
 11
6363.018055871226
 21
1345.614513630803
 31
0.0
  0
LINE
  5
22256
330
747D
100
AcDbEntity
  8
部品1
 48
50.0
100
AcDbLine
 10
6027.018055871225
 20
1361.614513630803
 30
0.0
 11
6363.018055871226
 21
1361.614513630803
 31
0.0
  0
LINE
  5
22257
330
747D
100
AcDbEntity
  8
部品1
 48
50.0
100
AcDbLine
 10
6499.018055871229
 20
1249.614513630803
 30
0.0
 11
5891.018055871228
 21
1249.614513630803
 31
0.0
  0
CIRCLE
  5
22258
330
747D
100
AcDbEntity
  8
部品1
 48
50.0
100
AcDbCircle
 10
6195.018055871226
 20
1369.614513630803
 30
0.0
 40
8.0
  0
LINE
  5
22259
330
747D
100
AcDbEntity
  8
細線
 48
50.0
100
AcDbLine
 10
6189.342067193958
 20
1249.614513630803
 30
0.0
 11
6285.342067193958
 21
1345.614513630803
 31
0.0
  0
LINE
  5
2225A
330
747D
100
AcDbEntity
  8
細線
 48
50.0
100
AcDbLine
 10
6018.424805472741
 20
1121.614513630802
 30
0.0
 11
6052.722302103925
 21
1249.614513630803
 31
0.0
  0
LINE
  5
2225B
330
747D
100
AcDbEntity
  8
細線
 48
50.0
100
AcDbLine
 10
6097.312850419987
 20
1121.614513630801
 30
0.0
 11
6131.61034705117
 21
1249.614513630801
 31
0.0
  0
LINE
  5
2225C
330
747D
100
AcDbEntity
  8
細線
 48
50.0
100
AcDbLine
 10
5939.536760525483
 20
1121.614513630801
 30
0.0
 11
5973.834257156666
 21
1249.614513630801
 31
0.0
  0
LINE
  5
2225D
330
747D
100
AcDbEntity
  8
部品1
 48
50.0
100
AcDbLine
 10
5891.018055871228
 20
1121.614513630802
 30
0.0
 11
5891.018055871228
 21
1249.614513630803
 31
0.0
  0
LINE
  5
2225E
330
747D
100
AcDbEntity
  8
細線
 48
50.0
100
AcDbLine
 10
6024.855586091088
 20
1145.614513630802
 30
0.0
 11
6031.286366709435
 21
1121.614513630802
 31
0.0
  0
LINE
  5
2225F
330
747D
100
AcDbEntity
  8
細線
 48
50.0
100
AcDbLine
 10
5945.967541143836
 20
1145.614513630802
 30
0.0
 11
5952.398321762182
 21
1121.614513630802
 31
0.0
  0
LINE
  5
22260
330
747D
100
AcDbEntity
  8
細線
 48
50.0
100
AcDbLine
 10
6182.631675985593
 20
1145.614513630802
 30
0.0
 11
6189.062456603938
 21
1121.614513630802
 31
0.0
  0
LINE
  5
22261
330
747D
100
AcDbEntity
  8
細線
 48
50.0
100
AcDbLine
 10
6103.74363103834
 20
1145.614513630802
 30
0.0
 11
6110.174411656686
 21
1121.614513630802
 31
0.0
  0
LINE
  5
22262
330
747D
100
AcDbEntity
  8
細線
 48
50.0
100
AcDbLine
 10
6000.756688651509
 20
1249.614513630803
 30
0.0
 11
6096.756688651509
 21
1345.614513630803
 31
0.0
  0
LINE
  5
22263
330
747D
100
AcDbEntity
  8
細線
 48
50.0
100
AcDbLine
 10
5973.815920288298
 20
1249.614513630803
 30
0.0
 11
6069.815920288299
 21
1345.614513630803
 31
0.0
  0
LINE
  5
22264
330
747D
100
AcDbEntity
  8
部品1
 48
50.0
100
AcDbLine
 10
6027.018055871225
 20
1361.614513630803
 30
0.0
 11
6027.018055871225
 21
1345.614513630803
 31
0.0
  0
LINE
  5
22265
330
747D
100
AcDbEntity
  8
細線
 48
50.0
100
AcDbLine
 10
5967.403476538326
 20
1225.614513630803
 30
0.0
 11
5960.972695919978
 21
1249.614513630803
 31
0.0
  0
LINE
  5
22266
330
747D
100
AcDbEntity
  8
細線
 48
50.0
100
AcDbLine
 10
5891.018055871225
 20
1234.954434596583
 30
0.0
 11
5894.946212209421
 21
1249.614513630803
 31
0.0
  0
LINE
  5
22267
330
747D
100
AcDbEntity
  8
部品1
 48
50.0
100
AcDbLine
 10
6187.018055871225
 20
1427.741728327925
 30
0.0
 11
6171.018055871225
 21
1427.741728327925
 31
0.0
  0
CIRCLE
  5
22268
330
747D
100
AcDbEntity
  8
部品1
 48
50.0
100
AcDbCircle
 10
6067.018055871225
 20
1369.614513630803
 30
0.0
 40
8.0
  0
LINE
  5
22269
330
747D
100
AcDbEntity
  8
細線
 48
50.0
100
AcDbLine
 10
6139.697457014714
 20
1361.614513630803
 30
0.0
 11
6171.018055871225
 21
1392.935112487314
 31
0.0
  0
ARC
  5
2226A
330
747D
100
AcDbEntity
  8
部品1
 48
50.0
100
AcDbCircle
 10
6195.018055871226
 20
1369.614513630803
 30
0.0
 40
24.0
100
AcDbArc
 50
180.0
 51
199.4712206344805
  0
LINE
  5
2226B
330
747D
100
AcDbEntity
  8
細線
 48
50.0
100
AcDbLine
 10
6046.291521485577
 20
1225.614513630803
 30
0.0
 11
6039.86074086723
 21
1249.614513630803
 31
0.0
  0
LINE
  5
2226C
330
747D
100
AcDbEntity
  8
細線
 48
50.0
100
AcDbLine
 10
6125.179566432829
 20
1225.614513630803
 30
0.0
 11
6118.748785814483
 21
1249.614513630803
 31
0.0
  0
LINE
  5
2226D
330
747D
100
AcDbEntity
  8
細線
 48
50.0
100
AcDbLine
 10
6027.697457014713
 20
1249.614513630803
 30
0.0
 11
6123.697457014714
 21
1345.614513630803
 31
0.0
  0
LINE
  5
2226E
330
747D
100
AcDbEntity
  8
部品1
 48
50.0
100
AcDbLine
 10
6171.018055871225
 20
1427.741728327925
 30
0.0
 11
6171.018055871225
 21
1369.614513630803
 31
0.0
  0
LINE
  5
2226F
330
747D
100
AcDbEntity
  8
細線
 48
50.0
100
AcDbLine
 10
6112.756688651509
 20
1361.614513630803
 30
0.0
 11
6171.018055871225
 21
1419.875880850521
 31
0.0
  0
LINE
  5
22270
330
747D
100
AcDbEntity
  8
部品1
 48
50.0
100
AcDbLine
 10
6187.018055871225
 20
1427.741728327925
 30
0.0
 11
6187.018055871225
 21
1369.614513630803
 31
0.0
  0
LINE
  5
22271
330
747D
100
AcDbEntity
  8
部品1
 48
50.0
100
AcDbLine
 10
6499.018055871229
 20
1249.614513630803
 30
0.0
 11
6499.018055871229
 21
1121.614513630802
 31
0.0
  0
LINE
  5
22272
330
747D
100
AcDbEntity
  8
細線
 48
50.0
100
AcDbLine
 10
6412.86503020898
 20
1121.614513630802
 30
0.0
 11
6447.162526840163
 21
1249.614513630801
 31
0.0
  0
LINE
  5
22273
330
747D
100
AcDbEntity
  8
細線
 48
50.0
100
AcDbLine
 10
6255.088940314485
 20
1121.614513630802
 30
0.0
 11
6289.386436945672
 21
1249.614513630801
 31
0.0
  0
LINE
  5
22274
330
747D
100
AcDbEntity
  8
細線
 48
50.0
100
AcDbLine
 10
6333.976985261734
 20
1121.614513630801
 30
0.0
 11
6368.274481892918
 21
1249.614513630801
 31
0.0
  0
LINE
  5
22275
330
747D
100
AcDbEntity
  8
細線
 48
50.0
100
AcDbLine
 10
6340.407765880083
 20
1145.614513630802
 30
0.0
 11
6346.838546498432
 21
1121.614513630802
 31
0.0
  0
LINE
  5
22276
330
747D
100
AcDbEntity
  8
細線
 48
50.0
100
AcDbLine
 10
6261.519720932838
 20
1145.614513630802
 30
0.0
 11
6267.950501551184
 21
1121.614513630802
 31
0.0
  0
LINE
  5
22277
330
747D
100
AcDbEntity
  8
細線
 48
50.0
100
AcDbLine
 10
6419.29581082733
 20
1145.614513630802
 30
0.0
 11
6425.726591445678
 21
1121.614513630802
 31
0.0
  0
LINE
  5
22278
330
747D
100
AcDbEntity
  8
細線
 48
50.0
100
AcDbLine
 10
6498.183855774577
 20
1145.614513630802
 30
0.0
 11
6499.018055871225
 21
1142.501236486438
 31
0.0
  0
LINE
  5
22279
330
747D
100
AcDbEntity
  8
細線
 48
50.0
100
AcDbLine
 10
6491.753075156228
 20
1121.614513630801
 30
0.0
 11
6499.018055871225
 21
1148.727790775191
 31
0.0
  0
LINE
  5
2227A
330
747D
100
AcDbEntity
  8
細線
 48
50.0
100
AcDbLine
 10
6355.223603920372
 20
1361.614513630803
 30
0.0
 11
6419.018055871226
 21
1425.408965581653
 31
0.0
  0
CIRCLE
  5
2227B
330
747D
100
AcDbEntity
  8
部品1
 48
50.0
100
AcDbCircle
 10
6323.018055871226
 20
1369.614513630803
 30
0.0
 40
8.0
  0
ARC
  5
2227C
330
747D
100
AcDbEntity
  8
部品1
 48
50.0
100
AcDbCircle
 10
6195.018055871226
 20
1369.614513630803
 30
0.0
 40
24.0
100
AcDbArc
 50
340.5287793655195
 51
0.0
  0
LINE
  5
2227D
330
747D
100
AcDbEntity
  8
細線
 48
50.0
100
AcDbLine
 10
6204.067611380082
 20
1225.614513630803
 30
0.0
 11
6197.636830761734
 21
1249.614513630803
 31
0.0
  0
LINE
  5
2227E
330
747D
100
AcDbEntity
  8
細線
 48
50.0
100
AcDbLine
 10
6282.955656327327
 20
1225.614513630803
 30
0.0
 11
6276.524875708981
 21
1249.614513630803
 31
0.0
  0
LINE
  5
2227F
330
747D
100
AcDbEntity
  8
細線
 48
50.0
100
AcDbLine
 10
6216.282835557169
 20
1249.614513630803
 30
0.0
 11
6312.282835557169
 21
1345.614513630803
 31
0.0
  0
LINE
  5
22280
330
747D
100
AcDbEntity
  8
細線
 48
50.0
100
AcDbLine
 10
6243.223603920373
 20
1249.614513630803
 30
0.0
 11
6339.224491765509
 21
1345.615401475942
 31
0.0
  0
LINE
  5
22281
330
747D
100
AcDbEntity
  8
部品1
 48
50.0
100
AcDbLine
 10
6363.018055871226
 20
1361.614513630803
 30
0.0
 11
6363.018055871226
 21
1345.614513630803
 31
0.0
  0
LINE
  5
22282
330
747D
100
AcDbEntity
  8
細線
 48
50.0
100
AcDbLine
 10
6440.73174622182
 20
1225.614513630803
 30
0.0
 11
6434.300965603473
 21
1249.614513630803
 31
0.0
  0
LINE
  5
22283
330
747D
100
AcDbEntity
  8
細線
 48
50.0
100
AcDbLine
 10
6404.868214099619
 20
1249.614513630803
 30
0.0
 11
6419.018055871226
 21
1263.764355402409
 31
0.0
  0
LINE
  5
22284
330
747D
100
AcDbEntity
  8
細線
 48
50.0
100
AcDbLine
 10
6361.843701274572
 20
1225.614513630803
 30
0.0
 11
6355.412920656227
 21
1249.614513630803
 31
0.0
  0
LINE
  5
22285
330
747D
100
AcDbEntity
  8
細線
 48
50.0
100
AcDbLine
 10
6099.018055871225
 20
1563.402027756181
 30
0.0
 11
6203.018055871231
 21
1667.402027756184
 31
0.0
  0
LINE
  5
22286
330
747D
100
AcDbEntity
  8
細線
 48
50.0
100
AcDbLine
 10
6099.018055871225
 20
1590.342796119388
 30
0.0
 11
6203.018055871226
 21
1694.342796119389
 31
0.0
  0
LINE
  5
22287
330
747D
100
AcDbEntity
  8
細線
 48
50.0
100
AcDbLine
 10
6099.018055871225
 20
1536.461259392974
 30
0.0
 11
6203.018055871231
 21
1640.461259392974
 31
0.0
  0
LINE
  5
22288
330
747D
100
AcDbEntity
  8
細線
 48
50.0
100
AcDbLine
 10
6187.018055871225
 20
1839.987406298633
 30
0.0
 11
6203.018055871226
 21
1855.987406298633
 31
0.0
  0
LINE
  5
22289
330
747D
100
AcDbEntity
  8
細線
 48
50.0
100
AcDbLine
 10
6187.018055871225
 20
1866.92817466184
 30
0.0
 11
6203.018055871226
 21
1882.92817466184
 31
0.0
  0
LINE
  5
2228A
330
747D
100
AcDbEntity
  8
部品1
 48
50.0
100
AcDbLine
 10
5971.018055871225
 20
1489.614513630803
 30
0.0
 11
6099.018055871225
 21
1489.614513630803
 31
0.0
  0
LINE
  5
2228B
330
747D
100
AcDbEntity
  8
細線
 48
50.0
100
AcDbLine
 10
5971.018055871218
 20
1435.402027756178
 30
0.0
 11
6025.23054174585
 21
1489.614513630803
 31
0.0
  0
LINE
  5
2228C
330
747D
100
AcDbEntity
  8
細線
 48
50.0
100
AcDbLine
 10
5971.018055871218
 20
1462.342796119389
 30
0.0
 11
5998.28977338264
 21
1489.614513630803
 31
0.0
  0
LINE
  5
2228D
330
747D
100
AcDbEntity
  8
部品1
 48
50.0
100
AcDbLine
 10
6187.018055871225
 20
1835.741728327925
 30
0.0
 11
6171.018055871225
 21
1835.741728327928
 31
0.0
  0
LINE
  5
2228E
330
747D
100
AcDbEntity
  8
細線
 48
50.0
100
AcDbLine
 10
6099.018055871225
 20
1751.987406298633
 30
0.0
 11
6182.772377900519
 21
1835.741728327925
 31
0.0
  0
LINE
  5
2228F
330
747D
100
AcDbEntity
  8
細線
 48
50.0
100
AcDbLine
 10
6099.018055871225
 20
1778.92817466184
 30
0.0
 11
6171.018055871225
 21
1850.92817466184
 31
0.0
  0
LINE
  5
22290
330
747D
100
AcDbEntity
  8
部品1
 48
50.0
100
AcDbLine
 10
6171.018055871225
 20
1835.741728327928
 30
0.0
 11
6171.018055871225
 21
1893.868943025048
 31
0.0
  0
LINE
  5
22291
330
747D
100
AcDbEntity
  8
細線
 48
50.0
100
AcDbLine
 10
6099.018055871225
 20
1805.868943025048
 30
0.0
 11
6171.018055871225
 21
1877.868943025048
 31
0.0
  0
LINE
  5
22292
330
747D
100
AcDbEntity
  8
部品1
 48
50.0
100
AcDbLine
 10
6187.018055871225
 20
1835.741728327925
 30
0.0
 11
6187.018055871225
 21
1893.868943025048
 31
0.0
  0
LINE
  5
22293
330
747D
100
AcDbEntity
  8
細線
 48
50.0
100
AcDbLine
 10
6219.018055871231
 20
1656.461259392974
 30
0.0
 11
6291.018055871218
 21
1728.461259392974
 31
0.0
  0
LINE
  5
22294
330
747D
100
AcDbEntity
  8
部品1
 48
50.0
100
AcDbLine
 10
6291.018055871226
 20
1489.614513630803
 30
0.0
 11
6419.018055871226
 21
1489.614513630803
 31
0.0
  0
LINE
  5
22295
330
747D
100
AcDbEntity
  8
細線
 48
50.0
100
AcDbLine
 10
6219.018055871231
 20
1467.875880850524
 30
0.0
 11
6291.018055871218
 21
1539.875880850518
 31
0.0
  0
LINE
  5
22296
330
747D
100
AcDbEntity
  8
細線
 48
50.0
100
AcDbLine
 10
6219.018055871231
 20
1494.816649213732
 30
0.0
 11
6291.018055871218
 21
1566.816649213728
 31
0.0
  0
LINE
  5
22297
330
747D
100
AcDbEntity
  8
細線
 48
50.0
100
AcDbLine
 10
6219.018055871231
 20
1440.935112487314
 30
0.0
 11
6291.018055871218
 21
1512.935112487314
 31
0.0
  0
LINE
  5
22298
330
747D
100
AcDbEntity
  8
細線
 48
50.0
100
AcDbLine
 10
6219.018055871226
 20
1710.342796119389
 30
0.0
 11
6291.018055871226
 21
1782.342796119389
 31
0.0
  0
LINE
  5
22299
330
747D
100
AcDbEntity
  8
細線
 48
50.0
100
AcDbLine
 10
6219.018055871231
 20
1683.402027756184
 30
0.0
 11
6291.018055871218
 21
1755.402027756178
 31
0.0
  0
MTEXT
  5
2229A
102
{ACAD_REACTORS
330
22245
102
}
330
747D
100
AcDbEntity
  8
寸法
 62
     7
 48
50.0
100
AcDbMText
 10
6532.756511732475
 20
1072.265427898649
 30
0.0
 40
80.0
 41
0.8
 71
     4
 72
     1
  1
\A1;D10@300
  7
STYLE2
 73
     1
 44
1.0
1001
ACAD
1000
MTEXTBEGIN
1070
    73
1070
     1
1070
    44
1040
1.0
1070
    74
1070
     0
1000
MTEXTEND
  0
DIMENSION
  5
2229B
330
747D
100
AcDbEntity
  8
寸法
 48
50.0
100
AcDbDimension
  2
*D58
 10
6099.018055871225
 20
2353.614513630803
 30
0.0
 11
6206.244386216422
 21
2453.282321547183
 31
0.0
 70
   160
  1
120\P200\P280
 71
     5
 42
192.0
  3
INABA_S40G
100
AcDbAlignedDimension
 13
6291.018055871225
 23
2033.614513630803
 33
0.0
 14
6099.018055871225
 24
2033.614513630803
 34
0.0
100
AcDbRotatedDimension
1001
ACAD
1000
DSTYLE
1002
{
1070
   174
1070
     0
1070
   272
1070
     1
1070
   279
1070
     1
1070
   288
1070
     0
1070
   341
1005
0
1002
}
  0
LINE
  5
2229C
330
747D
100
AcDbEntity
  8
部品1
 48
50.0
100
AcDbLine
 10
6099.018055871225
 20
2033.614513630803
 30
0.0
 11
6291.018055871226
 21
2033.614513630803
 31
0.0
  0
LINE
  5
2229D
330
747D
100
AcDbEntity
  8
細線
 48
50.0
100
AcDbLine
 10
6099.018055871225
 20
1994.4543215675
 30
0.0
 11
6138.178247934529
 21
2033.614513630803
 31
0.0
  0
LINE
  5
2229E
330
747D
100
AcDbEntity
  8
細線
 48
50.0
100
AcDbLine
 10
6099.018055871225
 20
1967.513553204292
 30
0.0
 11
6165.119016297735
 21
2033.614513630803
 31
0.0
  0
LINE
  5
2229F
330
747D
100
AcDbEntity
  8
細線
 48
50.0
100
AcDbLine
 10
6099.018055871225
 20
2021.395089930708
 30
0.0
 11
6111.237479571321
 21
2033.614513630803
 31
0.0
  0
LINE
  5
222A0
330
747D
100
AcDbEntity
  8
細線
 48
50.0
100
AcDbLine
 10
6218.570763137211
 20
1898.480881927824
 30
0.0
 11
6291.018055871226
 21
1970.92817466184
 31
0.0
  0
LINE
  5
222A1
330
747D
100
AcDbEntity
  8
細線
 48
50.0
100
AcDbLine
 10
6207.510478373695
 20
1914.361365527519
 30
0.0
 11
6291.018055871226
 21
1997.868943025048
 31
0.0
  0
LINE
  5
222A2
330
747D
100
AcDbEntity
  8
細線
 48
50.0
100
AcDbLine
 10
8083.457369048423
 20
1874.742796119391
 30
0.0
 11
8213.057369048417
 21
2004.34279611939
 31
0.0
  0
LINE
  5
222A3
330
747D
100
AcDbEntity
  8
部品1
100
AcDbLine
 10
8213.057369048417
 20
1489.614513630803
 30
0.0
 11
8213.057369048417
 21
2033.614513630803
 31
0.0
  0
LINE
  5
222A4
330
747D
100
AcDbEntity
  8
部品1
 48
50.0
100
AcDbLine
 10
7799.057369048419
 20
1489.614513630803
 30
0.0
 11
7799.057369048419
 21
2033.614513630803
 31
0.0
  0
LINE
  5
222A5
330
747D
100
AcDbEntity
  8
細線
 48
50.0
100
AcDbLine
 10
7799.057369048419
 20
1805.868943025048
 30
0.0
 11
7957.457369048417
 21
1964.268943025045
 31
0.0
  0
LINE
  5
222A6
330
747D
100
AcDbEntity
  8
細線
 48
50.0
100
AcDbLine
 10
7799.057369048419
 20
1778.92817466184
 30
0.0
 11
7957.457369048417
 21
1937.328174661838
 31
0.0
  0
LINE
  5
222A7
330
747D
100
AcDbEntity
  8
細線
 48
50.0
100
AcDbLine
 10
7799.057369048419
 20
1751.987406298633
 30
0.0
 11
7957.457369048414
 21
1910.387406298626
 31
0.0
  0
TEXT
  5
222A8
330
747D
100
AcDbEntity
  8
部品1
 48
50.0
100
AcDbText
 10
7384.917467215463
 20
1804.853505914058
 30
0.0
 40
80.0
  1
▽G.L
  7
STYLE2
100
AcDbText
  0
LINE
  5
222A9
330
747D
100
AcDbEntity
  8
部品1
100
AcDbLine
 10
8029.457369048417
 20
1808.614513630803
 30
0.0
 11
8029.457369048413
 21
2082.774513630804
 31
0.0
  0
LINE
  5
222AA
330
747D
100
AcDbEntity
  8
部品1
100
AcDbLine
 10
8011.457369048418
 20
1808.614513630803
 30
0.0
 11
8011.457369048413
 21
2082.774513630804
 31
0.0
  0
LINE
  5
222AB
330
747D
100
AcDbEntity
  8
細線
 48
50.0
100
AcDbLine
 10
8083.457369048423
 20
1820.861259392961
 30
0.0
 11
8213.057369048417
 21
1950.461259392953
 31
0.0
  0
LINE
  5
222AC
330
747D
100
AcDbEntity
  8
細線
 48
50.0
100
AcDbLine
 10
8083.457369048423
 20
1847.802027756174
 30
0.0
 11
8213.057369048417
 21
1977.402027756171
 31
0.0
  0
LINE
  5
222AD
330
747D
100
AcDbEntity
  8
部品1
100
AcDbLine
 10
8083.457369048417
 20
1709.614513630803
 30
0.0
 11
8083.457369048417
 21
2033.614513630803
 31
0.0
  0
LINE
  5
222AE
330
747D
100
AcDbEntity
  8
部品1
100
AcDbLine
 10
7957.457369048414
 20
1709.614513630803
 30
0.0
 11
7957.457369048417
 21
2033.614513630803
 31
0.0
  0
LINE
  5
222AF
330
747D
100
AcDbEntity
  8
細線
 48
50.0
100
AcDbLine
 10
7799.057369048419
 20
1563.402027756181
 30
0.0
 11
7957.45736904841
 21
1721.802027756169
 31
0.0
  0
LINE
  5
222B0
330
747D
100
AcDbEntity
  8
細線
 48
50.0
100
AcDbLine
 10
7799.057369048419
 20
1536.461259392974
 30
0.0
 11
7972.210623286253
 21
1709.614513630801
 31
0.0
  0
LINE
  5
222B1
330
747D
100
AcDbEntity
  8
細線
 48
50.0
100
AcDbLine
 10
7799.057369048419
 20
1590.342796119388
 30
0.0
 11
7957.45736904841
 21
1748.742796119384
 31
0.0
  0
LINE
  5
222B2
330
747D
100
AcDbEntity
  8
細線
 48
50.0
100
AcDbLine
 10
7727.736770191906
 20
1249.614513630803
 30
0.0
 11
8213.057369048417
 21
1734.93511248731
 31
0.0
  0
LINE
  5
222B3
330
747D
100
AcDbEntity
  8
細線
 48
50.0
100
AcDbLine
 10
7700.796001828701
 20
1249.614513630803
 30
0.0
 11
8213.057369048419
 21
1761.875880850517
 31
0.0
  0
LINE
  5
222B4
330
747D
100
AcDbEntity
  8
細線
 48
50.0
100
AcDbLine
 10
7673.855233465494
 20
1249.614513630803
 30
0.0
 11
8213.057369048417
 21
1788.816649213728
 31
0.0
  0
LINE
  5
222B5
330
747D
100
AcDbEntity
  8
部品1
 48
50.0
100
AcDbLine
 10
8421.057369048419
 20
1249.614513630803
 30
0.0
 11
7591.057369048421
 21
1249.614513630803
 31
0.0
  0
LINE
  5
222B6
330
747D
100
AcDbEntity
  8
部品1
 48
50.0
100
AcDbLine
 10
8421.057369048419
 20
1121.614513630802
 30
0.0
 11
7591.057369048421
 21
1121.614513630802
 31
0.0
  0
LINE
  5
222B7
330
747D
100
AcDbEntity
  8
細線
 48
50.0
100
AcDbLine
 10
7671.057369048414
 20
1408.461259392973
 30
0.0
 11
7752.210623286247
 21
1489.614513630803
 31
0.0
  0
LINE
  5
222B8
330
747D
100
AcDbEntity
  8
部品1
 48
50.0
100
AcDbLine
 10
7671.057369048419
 20
1249.614513630803
 30
0.0
 11
7671.057369048419
 21
1489.614513630803
 31
0.0
  0
LINE
  5
222B9
330
747D
100
AcDbEntity
  8
細線
 48
50.0
100
AcDbLine
 10
7718.464118649936
 20
1121.614513630802
 30
0.0
 11
7752.761615281118
 21
1249.614513630803
 31
0.0
  0
LINE
  5
222BA
330
747D
100
AcDbEntity
  8
部品1
 48
50.0
100
AcDbLine
 10
7591.057369048421
 20
1121.614513630802
 30
0.0
 11
7591.057369048421
 21
1249.614513630803
 31
0.0
  0
LINE
  5
222BB
330
747D
100
AcDbEntity
  8
細線
 48
50.0
100
AcDbLine
 10
7639.576073702676
 20
1121.614513630801
 30
0.0
 11
7673.873570333862
 21
1249.614513630801
 31
0.0
  0
LINE
  5
222BC
330
747D
100
AcDbEntity
  8
細線
 48
50.0
100
AcDbLine
 10
7797.352163597181
 20
1121.614513630801
 30
0.0
 11
7831.649660228362
 21
1249.614513630801
 31
0.0
  0
LINE
  5
222BD
330
747D
100
AcDbEntity
  8
細線
 48
50.0
100
AcDbLine
 10
7646.006854321029
 20
1145.614513630802
 30
0.0
 11
7652.437634939376
 21
1121.614513630802
 31
0.0
  0
LINE
  5
222BE
330
747D
100
AcDbEntity
  8
細線
 48
50.0
100
AcDbLine
 10
7803.782944215534
 20
1145.614513630802
 30
0.0
 11
7810.21372483388
 21
1121.614513630802
 31
0.0
  0
LINE
  5
222BF
330
747D
100
AcDbEntity
  8
細線
 48
50.0
100
AcDbLine
 10
7724.894899268281
 20
1145.614513630802
 30
0.0
 11
7731.325679886627
 21
1121.614513630802
 31
0.0
  0
LINE
  5
222C0
330
747D
100
AcDbEntity
  8
細線
 48
50.0
100
AcDbLine
 10
7591.057369048418
 20
1234.954434596583
 30
0.0
 11
7594.985525386615
 21
1249.614513630803
 31
0.0
  0
LINE
  5
222C1
330
747D
100
AcDbEntity
  8
細線
 48
50.0
100
AcDbLine
 10
7667.442789715519
 20
1225.614513630803
 30
0.0
 11
7661.012009097174
 21
1249.614513630803
 31
0.0
  0
LINE
  5
222C2
330
747D
100
AcDbEntity
  8
細線
 48
50.0
100
AcDbLine
 10
7825.218879610024
 20
1225.614513630803
 30
0.0
 11
7818.788098991678
 21
1249.614513630803
 31
0.0
  0
LINE
  5
222C3
330
747D
100
AcDbEntity
  8
細線
 48
50.0
100
AcDbLine
 10
7746.330834662771
 20
1225.614513630803
 30
0.0
 11
7739.900054044425
 21
1249.614513630803
 31
0.0
  0
LWPOLYLINE
  5
222C4
330
747D
100
AcDbEntity
  8
部品1
 48
50.0
100
AcDbPolyline
 90
        2
 70
     0
 43
8.0
 10
7384.917467215463
 20
1793.614513630804
 10
7799.057369048419
 20
1793.614513630804
  0
LINE
  5
222C5
330
747D
100
AcDbEntity
  8
細線
 48
50.0
100
AcDbLine
 10
7671.057369048414
 20
1435.402027756178
 30
0.0
 11
7725.269854923045
 21
1489.614513630803
 31
0.0
  0
LINE
  5
222C6
330
747D
100
AcDbEntity
  8
部品1
 48
50.0
100
AcDbLine
 10
7671.057369048419
 20
1489.614513630803
 30
0.0
 11
7799.057369048419
 21
1489.614513630803
 31
0.0
  0
LINE
  5
222C7
330
747D
100
AcDbEntity
  8
細線
 48
50.0
100
AcDbLine
 10
7671.057369048414
 20
1462.342796119389
 30
0.0
 11
7698.329086559832
 21
1489.614513630803
 31
0.0
  0
LINE
  5
222C8
330
747D
100
AcDbEntity
  8
細線
 48
50.0
100
AcDbLine
 10
7916.322148734362
 20
1249.614513630803
 30
0.0
 11
8213.057369048417
 21
1546.349733944855
 31
0.0
  0
LINE
  5
222C9
330
747D
100
AcDbEntity
  8
細線
 48
50.0
100
AcDbLine
 10
7943.262917097567
 20
1249.614513630803
 30
0.0
 11
8213.057369048417
 21
1519.40896558166
 31
0.0
  0
LINE
  5
222CA
330
747D
100
AcDbEntity
  8
細線
 48
50.0
100
AcDbLine
 10
7889.381380371152
 20
1249.614513630803
 30
0.0
 11
8213.057369048417
 21
1573.290502308069
 31
0.0
  0
LINE
  5
222CB
330
747D
100
AcDbEntity
  8
細線
 48
50.0
100
AcDbLine
 10
8104.907527276813
 20
1249.614513630803
 30
0.0
 11
8341.057369048415
 21
1485.764355402411
 31
0.0
  0
LINE
  5
222CC
330
747D
100
AcDbEntity
  8
細線
 48
50.0
100
AcDbLine
 10
8131.848295640022
 20
1249.614513630803
 30
0.0
 11
8341.057369048415
 21
1458.823587039196
 31
0.0
  0
LINE
  5
222CD
330
747D
100
AcDbEntity
  8
部品1
 48
50.0
100
AcDbLine
 10
8341.057369048415
 20
1489.614513630803
 30
0.0
 11
8341.057369048415
 21
1249.614513630803
 31
0.0
  0
LINE
  5
222CE
330
747D
100
AcDbEntity
  8
細線
 48
50.0
100
AcDbLine
 10
8158.789064003228
 20
1249.614513630803
 30
0.0
 11
8341.057369048415
 21
1431.882818675999
 31
0.0
  0
LINE
  5
222CF
330
747D
100
AcDbEntity
  8
細線
 48
50.0
100
AcDbLine
 10
8034.016298438928
 20
1121.614513630801
 30
0.0
 11
8068.313795070109
 21
1249.614513630801
 31
0.0
  0
LINE
  5
222D0
330
747D
100
AcDbEntity
  8
細線
 48
50.0
100
AcDbLine
 10
7876.240208544434
 20
1121.614513630802
 30
0.0
 11
7910.537705175615
 21
1249.614513630803
 31
0.0
  0
LINE
  5
222D1
330
747D
100
AcDbEntity
  8
細線
 48
50.0
100
AcDbLine
 10
7955.128253491679
 20
1121.614513630802
 30
0.0
 11
7989.425750122864
 21
1249.614513630801
 31
0.0
  0
LINE
  5
222D2
330
747D
100
AcDbEntity
  8
細線
 48
50.0
100
AcDbLine
 10
8112.904343386169
 20
1121.614513630802
 30
0.0
 11
8147.201840017356
 21
1249.614513630801
 31
0.0
  0
LINE
  5
222D3
330
747D
100
AcDbEntity
  8
細線
 48
50.0
100
AcDbLine
 10
7961.559034110033
 20
1145.614513630802
 30
0.0
 11
7967.989814728378
 21
1121.614513630802
 31
0.0
  0
LINE
  5
222D4
330
747D
100
AcDbEntity
  8
細線
 48
50.0
100
AcDbLine
 10
7882.670989162787
 20
1145.614513630802
 30
0.0
 11
7889.101769781134
 21
1121.614513630802
 31
0.0
  0
LINE
  5
222D5
330
747D
100
AcDbEntity
  8
細線
 48
50.0
100
AcDbLine
 10
8119.335124004523
 20
1145.614513630802
 30
0.0
 11
8125.76590462287
 21
1121.614513630802
 31
0.0
  0
LINE
  5
222D6
330
747D
100
AcDbEntity
  8
細線
 48
50.0
100
AcDbLine
 10
8040.447079057278
 20
1145.614513630802
 30
0.0
 11
8046.877859675623
 21
1121.614513630802
 31
0.0
  0
LINE
  5
222D7
330
747D
100
AcDbEntity
  8
細線
 48
50.0
100
AcDbLine
 10
7982.994969504521
 20
1225.614513630803
 30
0.0
 11
7976.564188886175
 21
1249.614513630803
 31
0.0
  0
LINE
  5
222D8
330
747D
100
AcDbEntity
  8
細線
 48
50.0
100
AcDbLine
 10
7904.106924557275
 20
1225.614513630803
 30
0.0
 11
7897.676143938927
 21
1249.614513630803
 31
0.0
  0
LINE
  5
222D9
330
747D
100
AcDbEntity
  8
細線
 48
50.0
100
AcDbLine
 10
8061.883014451767
 20
1225.614513630803
 30
0.0
 11
8055.45223383342
 21
1249.614513630803
 31
0.0
  0
LINE
  5
222DA
330
747D
100
AcDbEntity
  8
細線
 48
50.0
100
AcDbLine
 10
8140.771059399012
 20
1225.614513630803
 30
0.0
 11
8134.340278780667
 21
1249.614513630803
 31
0.0
  0
LINE
  5
222DB
330
747D
100
AcDbEntity
  8
部品1
 48
50.0
100
AcDbLine
 10
8421.057369048419
 20
1249.614513630803
 30
0.0
 11
8421.057369048419
 21
1121.614513630802
 31
0.0
  0
LINE
  5
222DC
330
747D
100
AcDbEntity
  8
細線
 48
50.0
100
AcDbLine
 10
8349.568478227913
 20
1121.614513630801
 30
0.0
 11
8383.865974859098
 21
1249.6145136308
 31
0.0
  0
LINE
  5
222DD
330
747D
100
AcDbEntity
  8
細線
 48
50.0
100
AcDbLine
 10
8191.792388333418
 20
1121.614513630801
 30
0.0
 11
8226.089884964592
 21
1249.614513630803
 31
0.0
  0
LINE
  5
222DE
330
747D
100
AcDbEntity
  8
細線
 48
50.0
100
AcDbLine
 10
8270.680433280668
 20
1121.6145136308
 30
0.0
 11
8304.977929911853
 21
1249.6145136308
 31
0.0
  0
LINE
  5
222DF
330
747D
100
AcDbEntity
  8
細線
 48
50.0
100
AcDbLine
 10
8198.223168951768
 20
1145.614513630802
 30
0.0
 11
8204.653949570126
 21
1121.614513630802
 31
0.0
  0
LINE
  5
222E0
330
747D
100
AcDbEntity
  8
細線
 48
50.0
100
AcDbLine
 10
8277.111213899017
 20
1145.614513630801
 30
0.0
 11
8283.541994517364
 21
1121.614513630801
 31
0.0
  0
LINE
  5
222E1
330
747D
100
AcDbEntity
  8
細線
 48
50.0
100
AcDbLine
 10
8355.999258846264
 20
1145.614513630801
 30
0.0
 11
8362.430039464612
 21
1121.614513630801
 31
0.0
  0
LINE
  5
222E2
330
747D
100
AcDbEntity
  8
細線
 48
50.0
100
AcDbLine
 10
8219.65910434625
 20
1225.614513630803
 30
0.0
 11
8213.228323727904
 21
1249.614513630803
 31
0.0
  0
LINE
  5
222E3
330
747D
100
AcDbEntity
  8
細線
 48
50.0
100
AcDbLine
 10
8298.547149293506
 20
1225.614513630801
 30
0.0
 11
8292.116368675161
 21
1249.614513630801
 31
0.0
  0
LINE
  5
222E4
330
747D
100
AcDbEntity
  8
細線
 48
50.0
100
AcDbLine
 10
8377.435194240751
 20
1225.614513630801
 30
0.0
 11
8371.004413622406
 21
1249.614513630801
 31
0.0
  0
LINE
  5
222E5
330
747D
100
AcDbEntity
  8
部品1
100
AcDbLine
 10
8083.457369048417
 20
1709.614513630801
 30
0.0
 11
7957.457369048414
 21
1709.614513630801
 31
0.0
  0
LINE
  5
222E6
330
747D
100
AcDbEntity
  8
部品1
100
AcDbLine
 10
8065.457369048418
 20
1790.614513630802
 30
0.0
 11
8065.457369048418
 21
1808.614513630803
 31
0.0
  0
ARC
  5
222E7
330
747D
100
AcDbEntity
  8
部品1
100
AcDbCircle
 10
8029.457369048417
 20
1808.614513630803
 30
0.0
 40
18.0
100
AcDbArc
 50
180.0
 51
270.0
  0
LINE
  5
222E8
330
747D
100
AcDbEntity
  8
部品1
100
AcDbLine
 10
8029.457369048417
 20
1790.614513630802
 30
0.0
 11
8065.457369048418
 21
1790.614513630802
 31
0.0
  0
LINE
  5
222E9
330
747D
100
AcDbEntity
  8
部品1
100
AcDbLine
 10
8029.457369048417
 20
1808.614513630803
 30
0.0
 11
8065.457369048418
 21
1808.614513630803
 31
0.0
  0
LINE
  5
222EA
330
747D
100
AcDbEntity
  8
部品1
 48
50.0
100
AcDbLine
 10
8213.057369048417
 20
1489.614513630803
 30
0.0
 11
8341.057369048415
 21
1489.614513630803
 31
0.0
  0
LINE
  5
222EB
330
747D
100
AcDbEntity
  8
部品1
100
AcDbLine
 10
7818.857369048419
 20
2123.614513630803
 30
0.0
 11
7856.657369048419
 21
2123.614513630803
 31
0.0
  0
LINE
  5
222EC
330
747D
100
AcDbEntity
  8
細線
 48
50.0
100
AcDbLine
 10
7799.057369048419
 20
1994.4543215675
 30
0.0
 11
7838.217561111723
 21
2033.614513630803
 31
0.0
  0
LINE
  5
222ED
330
747D
100
AcDbEntity
  8
細線
 48
50.0
100
AcDbLine
 10
7799.057369048419
 20
1967.513553204292
 30
0.0
 11
7865.158329474929
 21
2033.614513630803
 31
0.0
  0
LINE
  5
222EE
330
747D
100
AcDbEntity
  8
部品1
 48
50.0
100
AcDbLine
 10
7799.057369048419
 20
2033.614513630803
 30
0.0
 11
8213.057369048419
 21
2033.614513630803
 31
0.0
  0
LINE
  5
222EF
330
747D
100
AcDbEntity
  8
部品1
100
AcDbLine
 10
7816.157369048418
 20
2112.814513630803
 30
0.0
 11
7816.157369048418
 21
2120.914513630803
 31
0.0
  0
ARC
  5
222F0
330
747D
100
AcDbEntity
  8
部品1
100
AcDbCircle
 10
7818.857369048419
 20
2120.914513630803
 30
0.0
 40
2.7
100
AcDbArc
 50
90.0
 51
180.0
  0
ARC
  5
222F1
330
747D
100
AcDbEntity
  8
部品1
100
AcDbCircle
 10
7808.05736904842
 20
2108.006417333511
 30
0.0
 40
2.7
100
AcDbArc
 50
104.0362434679067
 51
180.0
  0
LINE
  5
222F2
330
747D
100
AcDbEntity
  8
部品1
100
AcDbLine
 10
7807.402522860819
 20
2110.625802083903
 30
0.0
 11
7816.157369048418
 21
2112.814513630803
 31
0.0
  0
ARC
  5
222F3
330
747D
100
AcDbEntity
  8
部品1
100
AcDbCircle
 10
7808.05736904842
 20
2045.874513630803
 30
0.0
 40
2.7
100
AcDbArc
 50
180.0
 51
270.0
  0
LINE
  5
222F4
330
747D
100
AcDbEntity
  8
細線
 48
50.0
100
AcDbLine
 10
7799.057369048419
 20
2021.395089930708
 30
0.0
 11
7811.276792748515
 21
2033.614513630803
 31
0.0
  0
LINE
  5
222F5
330
747D
100
AcDbEntity
  8
部品1
100
AcDbLine
 10
7808.05736904842
 20
2043.174513630803
 30
0.0
 11
7819.757369048414
 21
2043.174513630803
 31
0.0
  0
LINE
  5
222F6
330
747D
100
AcDbEntity
  8
部品1
100
AcDbLine
 10
7805.357369048419
 20
2045.874513630803
 30
0.0
 11
7805.357369048419
 21
2108.006417333511
 31
0.0
  0
LINE
  5
222F7
330
747D
100
AcDbEntity
  8
部品1
100
AcDbLine
 10
7964.017369048412
 20
2043.174513630803
 30
0.0
 11
8165.357369048413
 21
2043.174513630803
 31
0.0
  0
LINE
  5
222F8
330
747D
100
AcDbEntity
  8
部品1
100
AcDbLine
 10
7856.657369048419
 20
2123.614513630803
 30
0.0
 11
7856.657369048419
 21
2131.714513630803
 31
0.0
  0
LINE
  5
222F9
330
747D
100
AcDbEntity
  8
部品1
100
AcDbLine
 10
7907.05736904842
 20
2142.5145136308
 30
0.0
 11
7907.05736904842
 21
2091.214513630803
 31
0.0
  0
LINE
  5
222FA
330
747D
100
AcDbEntity
  8
部品1
100
AcDbLine
 10
7930.457369048418
 20
2103.174513630803
 30
0.0
 11
7958.617369048417
 21
2103.174513630803
 31
0.0
  0
ARC
  5
222FB
330
747D
100
AcDbEntity
  8
部品1
100
AcDbCircle
 10
7930.457369048418
 20
2100.474513630803
 30
0.0
 40
2.7
100
AcDbArc
 50
90.0
 51
180.0
  0
ARC
  5
222FC
330
747D
100
AcDbEntity
  8
部品1
100
AcDbCircle
 10
7958.617369048417
 20
2100.474513630803
 30
0.0
 40
2.7
100
AcDbArc
 50
0.0
 51
90.0
  0
LINE
  5
222FD
330
747D
100
AcDbEntity
  8
部品1
100
AcDbLine
 10
7949.35736904842
 20
2088.514513630803
 30
0.0
 11
7949.35736904842
 21
2045.874513630803
 31
0.0
  0
LINE
  5
222FE
330
747D
100
AcDbEntity
  8
部品1
100
AcDbLine
 10
7934.957369048418
 20
2043.174513630803
 30
0.0
 11
7946.657369048418
 21
2043.174513630803
 31
0.0
  0
ARC
  5
222FF
330
747D
100
AcDbEntity
  8
部品1
100
AcDbCircle
 10
7964.017369048412
 20
2045.874513630803
 30
0.0
 40
2.7
100
AcDbArc
 50
180.0
 51
270.0
  0
ARC
  5
22300
330
747D
100
AcDbEntity
  8
部品1
100
AcDbCircle
 10
7946.657369048418
 20
2045.874513630803
 30
0.0
 40
2.7
100
AcDbArc
 50
270.0
 51
0.0
  0
LINE
  5
22301
330
747D
100
AcDbEntity
  8
部品1
100
AcDbLine
 10
7907.05736904842
 20
2091.214513630803
 30
0.0
 11
7946.657369048418
 21
2091.214513630803
 31
0.0
  0
ARC
  5
22302
330
747D
100
AcDbEntity
  8
部品1
100
AcDbCircle
 10
7946.657369048418
 20
2088.514513630803
 30
0.0
 40
2.7
100
AcDbArc
 50
0.0
 51
90.0
  0
LINE
  5
22303
330
747D
100
AcDbEntity
  8
部品1
100
AcDbLine
 10
7961.317369048419
 20
2100.474513630803
 30
0.0
 11
7961.317369048415
 21
2045.874513630803
 31
0.0
  0
LINE
  5
22304
330
747D
100
AcDbEntity
  8
部品1
100
AcDbLine
 10
7927.757369048418
 20
2100.474513630803
 30
0.0
 11
7927.757369048418
 21
2083.374513630803
 31
0.0
  0
LINE
  5
22305
330
747D
100
AcDbEntity
  8
細線
100
AcDbLine
 10
8025.85736904842
 20
2043.174513630803
 30
0.0
 11
8025.85736904842
 21
2086.374513630803
 31
0.0
  0
LINE
  5
22306
330
747D
100
AcDbEntity
  8
細線
100
AcDbLine
 10
8015.057369048419
 20
2043.174513630803
 30
0.0
 11
8015.057369048419
 21
2086.374513630803
 31
0.0
  0
LINE
  5
22307
330
747D
100
AcDbEntity
  8
部品1
100
AcDbLine
 10
8011.457369048418
 20
2082.774513630804
 30
0.0
 11
8029.457369048417
 21
2082.774513630804
 31
0.0
  0
LINE
  5
22308
330
747D
100
AcDbEntity
  8
部品1
100
AcDbLine
 10
8015.057369048419
 20
2086.374513630803
 30
0.0
 11
8025.85736904842
 21
2086.374513630803
 31
0.0
  0
ELLIPSE
  5
22309
330
747D
100
AcDbEntity
  8
部品1
 48
50.0
100
AcDbEllipse
 10
8020.457369048418
 20
2302.737802075075
 30
0.0
 11
40.0
 21
0.0
 31
0.0
210
0.0
220
0.0
230
1.0
 40
0.4
 41
0.0
 42
6.283185307179586
  0
ELLIPSE
  5
2230A
330
747D
100
AcDbEntity
  8
部品1
 48
50.0
100
AcDbEllipse
 10
8020.457369048418
 20
2293.137802075076
 30
0.0
 11
40.0
 21
0.0
 31
0.0
210
0.0
220
0.0
230
1.0
 40
0.4
 41
3.141592653589793
 42
6.283185307179586
  0
LINE
  5
2230B
330
747D
100
AcDbEntity
  8
部品1
 48
50.0
100
AcDbLine
 10
7980.457369048417
 20
2302.737802075075
 30
0.0
 11
7980.457369048417
 21
2293.137802075075
 31
0.0
  0
ARC
  5
2230C
330
747D
100
AcDbEntity
  8
部品1
100
AcDbCircle
 10
7904.357369048419
 20
2142.5145136308
 30
0.0
 40
2.7
100
AcDbArc
 50
0.0
 51
90.0
  0
ARC
  5
2230D
330
747D
100
AcDbEntity
  8
部品1
100
AcDbCircle
 10
7862.057369048419
 20
2142.514513630803
 30
0.0
 40
2.7
100
AcDbArc
 50
90.0
 51
180.0
  0
LINE
  5
2230E
330
747D
100
AcDbEntity
  8
部品1
100
AcDbLine
 10
7859.357369048419
 20
2134.414513630803
 30
0.0
 11
7859.357369048419
 21
2134.414513630803
 31
0.0
  0
LINE
  5
2230F
330
747D
100
AcDbEntity
  8
部品1
100
AcDbLine
 10
7859.357369048419
 20
2134.414513630803
 30
0.0
 11
7859.357369048419
 21
2142.514513630803
 31
0.0
  0
LINE
  5
22310
330
747D
100
AcDbEntity
  8
部品1
100
AcDbLine
 10
7862.057369048419
 20
2145.214513630803
 30
0.0
 11
7904.357369048419
 21
2145.214513630799
 31
0.0
  0
ARC
  5
22311
330
747D
100
AcDbEntity
  8
部品1
100
AcDbCircle
 10
7859.357369048419
 20
2131.714513630803
 30
0.0
 40
2.7
100
AcDbArc
 50
90.0
 51
180.0
  0
ELLIPSE
  5
22312
330
747D
100
AcDbEntity
  8
部品1
 48
50.0
100
AcDbEllipse
 10
8020.457369048418
 20
2302.737802075075
 30
0.0
 11
18.4
 21
0.0
 31
0.0
210
0.0
220
0.0
230
1.0
 40
0.3478260869565217
 41
0.0
 42
6.283185307179586
  0
LINE
  5
22313
330
747D
100
AcDbEntity
  8
部品1
 48
50.0
100
AcDbLine
 10
8060.457369048418
 20
2293.137802075075
 30
0.0
 11
8060.457369048418
 21
2302.737802075075
 31
0.0
  0
LINE
  5
22314
330
747D
100
AcDbEntity
  8
部品1
 48
50.0
100
AcDbLine
 10
7988.457369048417
 20
2424.489794739946
 30
0.0
 11
8004.457369048417
 21
2416.489794739945
 31
0.0
  0
LINE
  5
22315
330
747D
100
AcDbEntity
  8
部品1
 48
50.0
100
AcDbLine
 10
7988.457369048417
 20
2392.489794739946
 30
0.0
 11
8004.457369048417
 21
2384.489794739946
 31
0.0
  0
LINE
  5
22316
330
747D
100
AcDbEntity
  8
部品1
 48
50.0
100
AcDbLine
 10
7988.457369048417
 20
2424.489794739946
 30
0.0
 11
8004.457369048417
 21
2432.489794739945
 31
0.0
  0
LINE
  5
22317
330
747D
100
AcDbEntity
  8
部品1
 48
50.0
100
AcDbLine
 10
7988.457369048417
 20
2392.489794739946
 30
0.0
 11
7988.457369048417
 21
2424.489794739946
 31
0.0
  0
LINE
  5
22318
330
747D
100
AcDbEntity
  8
部品1
 48
50.0
100
AcDbLine
 10
8004.457369048417
 20
2432.489794739945
 30
0.0
 11
8036.457369048418
 21
2432.489794739945
 31
0.0
  0
ELLIPSE
  5
22319
330
747D
100
AcDbEntity
  8
細線
 48
50.0
100
AcDbEllipse
 10
8020.457369048418
 20
2424.489794739946
 30
0.0
 11
14.76670786606846
 21
0.0
 31
0.0
210
0.0
220
0.0
230
1.0
 40
0.2071254069489396
 41
0.0
 42
6.283185307179586
  0
LINE
  5
2231A
330
747D
100
AcDbEntity
  8
部品1
 48
50.0
100
AcDbLine
 10
8004.457369048417
 20
2384.489794739946
 30
0.0
 11
8036.457369048418
 21
2384.489794739946
 31
0.0
  0
LINE
  5
2231B
330
747D
100
AcDbEntity
  8
部品1
 48
50.0
100
AcDbLine
 10
8036.457369048418
 20
2384.489794739946
 30
0.0
 11
8052.457369048417
 21
2392.489794739946
 31
0.0
  0
LINE
  5
2231C
330
747D
100
AcDbEntity
  8
部品1
 48
50.0
100
AcDbLine
 10
8004.457369048417
 20
2416.489794739945
 30
0.0
 11
8036.457369048418
 21
2416.489794739945
 31
0.0
  0
LINE
  5
2231D
330
747D
100
AcDbEntity
  8
部品1
 48
50.0
100
AcDbLine
 10
8036.457369048418
 20
2416.489794739945
 30
0.0
 11
8052.457369048417
 21
2424.489794739946
 31
0.0
  0
LINE
  5
2231E
330
747D
100
AcDbEntity
  8
細線
 48
50.0
100
AcDbLine
 10
8036.457369048418
 20
2384.489794739946
 30
0.0
 11
8036.457369048418
 21
2416.489794739945
 31
0.0
  0
LINE
  5
2231F
330
747D
100
AcDbEntity
  8
部品1
 48
50.0
100
AcDbLine
 10
8052.457369048417
 20
2392.489794739946
 30
0.0
 11
8052.457369048417
 21
2424.489794739946
 31
0.0
  0
LINE
  5
22320
330
747D
100
AcDbEntity
  8
細線
 48
50.0
100
AcDbLine
 10
8004.457369048417
 20
2384.489794739946
 30
0.0
 11
8004.457369048417
 21
2416.489794739945
 31
0.0
  0
LINE
  5
22321
330
747D
100
AcDbEntity
  8
部品1
 48
50.0
100
AcDbLine
 10
8036.457369048418
 20
2432.489794739945
 30
0.0
 11
8052.457369048417
 21
2424.489794739946
 31
0.0
  0
TEXT
  5
22322
330
747D
100
AcDbEntity
  8
部品1
100
AcDbText
 10
7721.229618240347
 20
3175.03420145622
 30
0.0
 40
120.0
  1
基礎詳細
  7
STYLE2
100
AcDbText
  0
LINE
  5
22323
330
747D
100
AcDbEntity
  8
部品1
100
AcDbLine
 10
11099.33480244821
 20
390.2791638230005
 30
0.0
 11
11099.33480244821
 21
3354.586133407648
 31
0.0
  0
LINE
  5
22324
330
747D
100
AcDbEntity
  8
細線
100
AcDbLine
 10
10107.22663502796
 20
1793.614513630803
 30
0.0
 11
9912.593301351176
 21
1988.247847307586
 31
0.0
  0
LINE
  5
22325
330
747D
100
AcDbEntity
  8
部品1
100
AcDbLine
 10
9912.593301351176
 20
2033.614513630803
 30
0.0
 11
10392.59330135117
 21
2033.614513630803
 31
0.0
  0
LINE
  5
22326
330
747D
100
AcDbEntity
  8
細線
 48
50.0
100
AcDbLine
 10
10046.66418579443
 20
1573.915597977453
 30
0.0
 11
10080.96168242562
 21
1701.915597977452
 31
0.0
  0
LINE
  5
22327
330
747D
100
AcDbEntity
  8
部品1
100
AcDbLine
 10
9792.593301351175
 20
1573.915597977449
 30
0.0
 11
10512.59330135117
 21
1573.915597977453
 31
0.0
  0
LINE
  5
22328
330
747D
100
AcDbEntity
  8
部品1
100
AcDbLine
 10
9792.593301351175
 20
1701.915597977453
 30
0.0
 11
10512.59330135117
 21
1701.915597977455
 31
0.0
  0
LINE
  5
22329
330
747D
100
AcDbEntity
  8
細線
100
AcDbLine
 10
9973.511946844418
 20
1701.915597977453
 30
0.0
 11
10065.21086249776
 21
1793.614513630803
 31
0.0
  0
LWPOLYLINE
  5
2232A
330
747D
100
AcDbEntity
  8
部品1
 48
50.0
100
AcDbPolyline
 90
        2
 70
     0
 43
12.0
 10
9527.982039250785
 20
1793.614513630803
 10
10729.07434238241
 20
1793.614513630803
  0
LINE
  5
2232B
330
747D
100
AcDbEntity
  8
細線
100
AcDbLine
 10
10056.31494678252
 20
1793.614513630803
 30
0.0
 11
9912.593301351176
 21
1937.336159062155
 31
0.0
  0
TEXT
  5
2232C
330
747D
100
AcDbEntity
  8
部品1
 48
50.0
100
AcDbText
 10
9148.475214592671
 20
1526.814772993494
 30
0.0
 40
80.0
  1
ボルトの出
 50
90.0
  7
STYLE2
100
AcDbText
  0
LINE
  5
2232D
330
747D
100
AcDbEntity
  8
部品1
100
AcDbLine
 10
9912.593301351176
 20
1793.614513630803
 30
0.0
 11
9912.593301351176
 21
2033.614513630803
 31
0.0
  0
LINE
  5
2232E
330
747D
100
AcDbEntity
  8
細線
 48
50.0
100
AcDbLine
 10
9888.888095899936
 20
1573.915597977452
 30
0.0
 11
9923.185592531119
 21
1701.915597977452
 31
0.0
  0
LINE
  5
2232F
330
747D
100
AcDbEntity
  8
細線
 48
50.0
100
AcDbLine
 10
9967.776140847185
 20
1573.915597977453
 30
0.0
 11
10002.07363747837
 21
1701.915597977453
 31
0.0
  0
LINE
  5
22330
330
747D
100
AcDbEntity
  8
細線
 48
50.0
100
AcDbLine
 10
9810.000050952687
 20
1573.915597977453
 30
0.0
 11
9844.297547583872
 21
1701.915597977453
 31
0.0
  0
LINE
  5
22331
330
747D
100
AcDbEntity
  8
部品1
100
AcDbLine
 10
9792.593301351175
 20
1573.915597977449
 30
0.0
 11
9792.593301351175
 21
1793.614513630803
 31
0.0
  0
LINE
  5
22332
330
747D
100
AcDbEntity
  8
細線
 48
50.0
100
AcDbLine
 10
9895.318876518286
 20
1597.915597977453
 30
0.0
 11
9901.749657136635
 21
1573.915597977453
 31
0.0
  0
LINE
  5
22333
330
747D
100
AcDbEntity
  8
細線
 48
50.0
100
AcDbLine
 10
9816.430831571038
 20
1597.915597977453
 30
0.0
 11
9822.861612189385
 21
1573.915597977453
 31
0.0
  0
LINE
  5
22334
330
747D
100
AcDbEntity
  8
細線
 48
50.0
100
AcDbLine
 10
9974.206921465539
 20
1597.915597977453
 30
0.0
 11
9980.637702083885
 21
1573.915597977453
 31
0.0
  0
LINE
  5
22335
330
747D
100
AcDbEntity
  8
細線
 48
50.0
100
AcDbLine
 10
10053.09496641278
 20
1597.915597977453
 30
0.0
 11
10059.52574703113
 21
1573.915597977453
 31
0.0
  0
LINE
  5
22336
330
747D
100
AcDbEntity
  8
細線
 48
50.0
100
AcDbLine
 10
9837.866766965525
 20
1677.915597977453
 30
0.0
 11
9831.435986347177
 21
1701.915597977453
 31
0.0
  0
LINE
  5
22337
330
747D
100
AcDbEntity
  8
細線
 48
50.0
100
AcDbLine
 10
9995.642856860028
 20
1677.915597977453
 30
0.0
 11
9989.212076241683
 21
1701.915597977453
 31
0.0
  0
LINE
  5
22338
330
747D
100
AcDbEntity
  8
細線
 48
50.0
100
AcDbLine
 10
9916.754811912776
 20
1677.915597977453
 30
0.0
 11
9910.324031294429
 21
1701.915597977453
 31
0.0
  0
LINE
  5
22339
330
747D
100
AcDbEntity
  8
細線
100
AcDbLine
 10
9905.629695850505
 20
1701.915597977453
 30
0.0
 11
9997.328611503853
 21
1793.614513630803
 31
0.0
  0
LINE
  5
2233A
330
747D
100
AcDbEntity
  8
細線
100
AcDbLine
 10
9939.57082134746
 20
1701.915597977453
 30
0.0
 11
10031.2697370008
 21
1793.614513630803
 31
0.0
  0
LINE
  5
2233B
330
747D
100
AcDbEntity
  8
細線
100
AcDbLine
 10
10327.84395075816
 20
1793.614513630803
 30
0.0
 11
10087.84395075816
 21
2033.614513630803
 31
0.0
  0
LINE
  5
2233C
330
747D
100
AcDbEntity
  8
細線
100
AcDbLine
 10
10378.75563900359
 20
1793.614513630804
 30
0.0
 11
10138.7556390036
 21
2033.614513630803
 31
0.0
  0
LINE
  5
2233D
330
747D
100
AcDbEntity
  8
部品1
100
AcDbLine
 10
10392.59330135117
 20
2033.614513630803
 30
0.0
 11
10392.59330135117
 21
1793.614513630803
 31
0.0
  0
LINE
  5
2233E
330
747D
100
AcDbEntity
  8
細線
 48
50.0
100
AcDbLine
 10
10362.21636558342
 20
1573.91559797745
 30
0.0
 11
10396.51386221461
 21
1701.91559797745
 31
0.0
  0
LINE
  5
2233F
330
747D
100
AcDbEntity
  8
細線
100
AcDbLine
 10
10333.51194684442
 20
1701.915597977454
 30
0.0
 11
10425.21086249776
 21
1793.614513630803
 31
0.0
  0
LINE
  5
22340
330
747D
100
AcDbEntity
  8
細線
 48
50.0
100
AcDbLine
 10
10283.32832063617
 20
1573.915597977452
 30
0.0
 11
10317.62581726735
 21
1701.915597977453
 31
0.0
  0
LINE
  5
22341
330
747D
100
AcDbEntity
  8
細線
 48
50.0
100
AcDbLine
 10
10125.55223074168
 20
1573.915597977452
 30
0.0
 11
10159.84972737286
 21
1701.915597977452
 31
0.0
  0
LINE
  5
22342
330
747D
100
AcDbEntity
  8
細線
 48
50.0
100
AcDbLine
 10
10204.44027568892
 20
1573.915597977453
 30
0.0
 11
10238.73777232011
 21
1701.915597977452
 31
0.0
  0
LINE
  5
22343
330
747D
100
AcDbEntity
  8
細線
 48
50.0
100
AcDbLine
 10
10210.87105630728
 20
1597.915597977453
 30
0.0
 11
10217.30183692562
 21
1573.915597977453
 31
0.0
  0
LINE
  5
22344
330
747D
100
AcDbEntity
  8
細線
 48
50.0
100
AcDbLine
 10
10131.98301136003
 20
1597.915597977453
 30
0.0
 11
10138.41379197838
 21
1573.915597977453
 31
0.0
  0
LINE
  5
22345
330
747D
100
AcDbEntity
  8
細線
 48
50.0
100
AcDbLine
 10
10289.75910125452
 20
1597.915597977453
 30
0.0
 11
10296.18988187288
 21
1573.915597977453
 31
0.0
  0
LINE
  5
22346
330
747D
100
AcDbEntity
  8
細線
 48
50.0
100
AcDbLine
 10
10368.64714620177
 20
1597.915597977452
 30
0.0
 11
10375.07792682012
 21
1573.915597977452
 31
0.0
  0
LINE
  5
22347
330
747D
100
AcDbEntity
  8
細線
 48
50.0
100
AcDbLine
 10
10232.30699170176
 20
1677.915597977453
 30
0.0
 11
10225.87621108342
 21
1701.915597977453
 31
0.0
  0
LINE
  5
22348
330
747D
100
AcDbEntity
  8
細線
 48
50.0
100
AcDbLine
 10
10153.41894675452
 20
1677.915597977453
 30
0.0
 11
10146.98816613617
 21
1701.915597977453
 31
0.0
  0
LINE
  5
22349
330
747D
100
AcDbEntity
  8
細線
 48
50.0
100
AcDbLine
 10
10074.53090180727
 20
1677.915597977453
 30
0.0
 11
10068.10012118892
 21
1701.915597977453
 31
0.0
  0
LINE
  5
2234A
330
747D
100
AcDbEntity
  8
細線
100
AcDbLine
 10
10299.57082134746
 20
1701.915597977454
 30
0.0
 11
10391.26973700081
 21
1793.614513630803
 31
0.0
  0
LINE
  5
2234B
330
747D
100
AcDbEntity
  8
細線
 48
50.0
100
AcDbLine
 10
10311.195036649
 20
1677.915597977453
 30
0.0
 11
10304.76425603066
 21
1701.915597977453
 31
0.0
  0
LINE
  5
2234C
330
747D
100
AcDbEntity
  8
細線
100
AcDbLine
 10
10265.62969585051
 20
1701.915597977454
 30
0.0
 11
10357.32861150385
 21
1793.614513630803
 31
0.0
  0
LINE
  5
2234D
330
747D
100
AcDbEntity
  8
細線
 48
50.0
100
AcDbLine
 10
10390.08308159626
 20
1677.915597977452
 30
0.0
 11
10383.65230097791
 21
1701.915597977452
 31
0.0
  0
LINE
  5
2234E
330
747D
100
AcDbEntity
  8
細線
 48
50.0
100
AcDbLine
 10
10441.10441053067
 20
1573.915597977452
 30
0.0
 11
10475.40190716185
 21
1701.91559797745
 31
0.0
  0
LINE
  5
2234F
330
747D
100
AcDbEntity
  8
部品1
100
AcDbLine
 10
10512.59330135117
 20
1793.614513630803
 30
0.0
 11
10512.59330135118
 21
1573.915597977453
 31
0.0
  0
LINE
  5
22350
330
747D
100
AcDbEntity
  8
細線
 48
50.0
100
AcDbLine
 10
10447.53519114901
 20
1597.915597977452
 30
0.0
 11
10453.96597176736
 21
1573.915597977452
 31
0.0
  0
LINE
  5
22351
330
747D
100
AcDbEntity
  8
細線
 48
50.0
100
AcDbLine
 10
10468.9711265435
 20
1677.915597977452
 30
0.0
 11
10462.54034592516
 21
1701.915597977452
 31
0.0
  0
LEADER
  5
22352
330
747D
100
AcDbEntity
  8
寸法
 48
50.0
100
AcDbLeader
  3
INABA_S40G
 73
     0
 74
     0
 75
     1
 40
120.0
 41
185.591883092037
 76
     3
 10
10323.3177129671
 20
2033.614513630803
 30
0.0
 10
10366.45591960074
 20
2190.760834311941
 30
0.0
 10
10466.45591960074
 20
2190.760834311941
 30
0.0
1001
ACAD
1000
DSTYLE
1002
{
1070
   174
1070
     0
1070
   272
1070
     1
1070
   279
1070
     1
1070
   288
1070
     0
1070
   341
1005
0
1002
}
  0
MTEXT
  5
22353
102
{ACAD_REACTORS
330
22352
102
}
330
747D
100
AcDbEntity
  8
寸法
 62
     7
 48
50.0
100
AcDbMText
 10
10506.45591960074
 20
2290.76083431194
 30
0.0
 40
120.0
 41
0.8
 71
     4
 72
     1
  1
\A1;C.B
  7
STYLE1
 73
     1
 44
1.0
1001
ACAD
1000
MTEXTBEGIN
1070
    73
1070
     1
1070
    44
1040
1.0
1070
    74
1070
     0
1000
MTEXTEND
  0
ENDSEC
  0
SECTION
  2
OBJECTS
  0
DICTIONARY
  5
7471
330
0
100
AcDbDictionary
281
     1
  3
ACAD_COLOR
350
173D2
  3
ACAD_GROUP
350
7472
  3
ACAD_LAYOUT
350
173D3
  3
ACAD_MATERIAL
350
173D1
  3
ACAD_MLINESTYLE
350
7473
  3
ACAD_PLOTSETTINGS
350
173D4
  3
ACAD_PLOTSTYLENAME
350
173CF
  3
ACDBHEADERROUNDTRIPXREC
350
223EB
  3
AcDbVariableDictionary
350
223E7
  3
CONTENTDICTIONARY
350
E71C
  3
DRAWINGVARIABLESDICT
350
F3B9
  0
DICTIONARY
  5
1758F
330
7467
100
AcDbDictionary
280
     1
281
     1
  3
ACAD_LAYERSTATES
360
17590
  0
DICTIONARY
  5
173D2
102
{ACAD_REACTORS
330
7471
102
}
330
7471
100
AcDbDictionary
281
     1
  0
DICTIONARY
  5
7472
102
{ACAD_REACTORS
330
7471
102
}
330
7471
100
AcDbDictionary
281
     1
  3
*A1
350
1D2A9
  0
DICTIONARY
  5
173D3
102
{ACAD_REACTORS
330
7471
102
}
330
7471
100
AcDbDictionary
281
     1
  3
Model
350
173D5
  3
レイアウト1
350
173D6
  0
DICTIONARY
  5
173D1
102
{ACAD_REACTORS
330
7471
102
}
330
7471
100
AcDbDictionary
281
     1
  0
DICTIONARY
  5
7473
102
{ACAD_REACTORS
330
7471
102
}
330
7471
100
AcDbDictionary
281
     1
  3
STANDARD
350
7480
  0
DICTIONARY
  5
173D4
102
{ACAD_REACTORS
330
7471
102
}
330
7471
100
AcDbDictionary
281
     1
  0
ACDBDICTIONARYWDFLT
  5
173CF
102
{ACAD_REACTORS
330
7471
102
}
330
7471
100
AcDbDictionary
281
     1
  3
Normal
350
173D0
100
AcDbDictionaryWithDefault
340
173D0
  0
DICTIONARY
  5
223EB
102
{ACAD_REACTORS
330
7471
102
}
330
7471
100
AcDbDictionary
281
     1
  3
COLORDICT
350
223ED
  3
MATERIALDICT
350
223EC
  0
DICTIONARY
  5
223E7
102
{ACAD_REACTORS
330
7471
102
}
330
7471
100
AcDbDictionary
281
     1
  3
DIMASSOC
350
223E8
  3
PROJECTNAME
350
223E9
  0
DICTIONARY
  5
E71C
102
{ACAD_REACTORS
330
7471
102
}
330
7471
100
AcDbDictionary
281
     1
  0
DICTIONARY
  5
F3B9
102
{ACAD_REACTORS
330
7471
102
}
330
7471
100
AcDbDictionary
281
     1
1001
DRAWINGVARIABLESXDATA
1000
POLARMODE
1000
1
  0
DICTIONARY
  5
17590
102
{ACAD_REACTORS
330
1758F
102
}
330
1758F
100
AcDbDictionary
281
     1
  0
GROUP
  5
1D2A9
102
{ACAD_REACTORS
330
7472
102
}
330
7472
100
AcDbGroup
300

 70
     1
 71
     1
  0
LAYOUT
  5
173D5
102
{ACAD_XDICTIONARY
360
223EE
102
}
102
{ACAD_REACTORS
330
173D3
102
}
330
173D3
100
AcDbPlotSettings
  1

  2
クセロPDFよこ.pc3
  4
A3
  6

 40
3.174999952316284
 41
3.174999952316284
 42
3.17498779296875
 43
3.17498779296875
 44
419.9466552734374
 45
296.9259948730469
 46
0.0
 47
0.0
 48
0.0
 49
0.0
140
0.0
141
0.0
142
1.0
143
40.0
 70
 11952
 72
     1
 73
     0
 74
     2
  7
ACA3.ctb
 75
    24
147
0.025
148
0.0
149
0.0
100
AcDbLayout
  1
Model
 70
     1
 71
     0
 10
0.0
 20
0.0
 11
12.0
 21
9.0
 12
0.0
 22
0.0
 32
0.0
 14
0.0
 24
0.0
 34
0.0
 15
0.0
 25
0.0
 35
0.0
146
0.0
 13
0.0
 23
0.0
 33
0.0
 16
1.0
 26
0.0
 36
0.0
 17
0.0
 27
1.0
 37
0.0
 76
     0
330
747D
  0
LAYOUT
  5
173D6
102
{ACAD_XDICTIONARY
360
223F0
102
}
102
{ACAD_REACTORS
330
173D3
102
}
330
173D3
100
AcDbPlotSettings
  1

  2
Microsoft Office Document Image Writer
  4

  6

 40
0.0
 41
0.0
 42
0.0
 43
0.0
 44
0.0
 45
0.0
 46
0.0
 47
0.0
 48
0.0
 49
0.0
140
0.0
141
0.0
142
1.0
143
1.0
 70
   688
 72
     0
 73
     0
 74
     5
  7
ACA3.ctb
 75
    16
147
1.0
148
0.0
149
0.0
100
AcDbLayout
  1
レイアウト1
 70
     0
 71
     1
 10
0.0
 20
0.0
 11
420.0
 21
297.0
 12
0.0
 22
0.0
 32
0.0
 14
1.000000000000000E+20
 24
1.000000000000000E+20
 34
1.000000000000000E+20
 15
-1.000000000000000E+20
 25
-1.000000000000000E+20
 35
-1.000000000000000E+20
146
0.0
 13
0.0
 23
0.0
 33
0.0
 16
1.0
 26
0.0
 36
0.0
 17
0.0
 27
1.0
 37
0.0
 76
     0
330
747A
  0
MLINESTYLE
  5
7480
102
{ACAD_REACTORS
330
7473
102
}
330
7473
100
AcDbMlineStyle
  2
STANDARD
 70
     0
  3

 62
     0
 51
90.0
 52
90.0
 71
     2
 49
0.5
 62
   256
  6
BYLAYER
 49
-0.5
 62
   256
  6
BYLAYER
  0
ACDBPLACEHOLDER
  5
173D0
102
{ACAD_REACTORS
330
173CF
102
}
330
173CF
  0
XRECORD
  5
223ED
102
{ACAD_REACTORS
330
223EB
102
}
330
223EB
100
AcDbXrecord
280
     1
340
173D2
  0
XRECORD
  5
223EC
102
{ACAD_REACTORS
330
223EB
102
}
330
223EB
100
AcDbXrecord
280
     1
340
173D1
  0
DICTIONARYVAR
  5
223E8
102
{ACAD_REACTORS
330
223E7
102
}
330
223E7
100
DictionaryVariables
280
     0
  1
1
  0
DICTIONARYVAR
  5
223E9
102
{ACAD_REACTORS
330
223E7
102
}
330
223E7
100
DictionaryVariables
280
     0
  1

  0
DICTIONARY
  5
223EE
330
173D5
100
AcDbDictionary
280
     1
281
     1
  3
ACAD_XREC_ROUNDTRIP
360
223EF
  0
DICTIONARY
  5
223F0
330
173D6
100
AcDbDictionary
280
     1
281
     1
  3
ACAD_XREC_ROUNDTRIP
360
223F1
  0
XRECORD
  5
223EF
102
{ACAD_REACTORS
330
223EE
102
}
330
223EE
100
AcDbXrecord
280
     1
102
SHADEPLOT
 70
     0
102
SHADEPLOTRESLEVEL
 70
     2
102
SHADEPLOTCUSTOMDPI
 70
   150
  0
XRECORD
  5
223F1
102
{ACAD_REACTORS
330
223F0
102
}
330
223F0
100
AcDbXrecord
280
     1
102
SHADEPLOT
 70
     0
102
SHADEPLOTRESLEVEL
 70
     2
102
SHADEPLOTCUSTOMDPI
 70
   300
  0
ENDSEC
  0
EOF
